  0
SECTION
  2
HEADER
  9
$ACADVER
  1
AC1009
  9
$INSBASE
 10
0.0
 20
0.0
 30
0.0
  9
$EXTMIN
 10
0.0
 20
0.0
 30
0.0
  9
$EXTMAX
 10
10500.0
 20
14750.0
 30
0.0
  9
$LIMMIN
 10
0.0
 20
0.0
  9
$LIMMAX
 10
297.0
 20
210.0
  9
$ORTHOMODE
 70
     0
  9
$REGENMODE
 70
     1
  9
$FILLMODE
 70
     0
  9
$QTEXTMODE
 70
     0
  9
$MIRRTEXT
 70
     1
  9
$DRAGMODE
 70
     2
  9
$LTSCALE
 40
100.0
  9
$OSMODE
 70
    37
  9
$ATTMODE
 70
     1
  9
$TEXTSIZE
 40
180.0
  9
$TRACEWID
 40
0.05
  9
$TEXTSTYLE
  7
STANDARD
  9
$CLAYER
  8
3
  9
$CELTYPE
  6
BYLAYER
  9
$CECOLOR
 62
   256
  9
$DIMSCALE
 40
50.0
  9
$DIMASZ
 40
2.0
  9
$DIMEXO
 40
0.5
  9
$DIMDLI
 40
10.0
  9
$DIMRND
 40
0.0
  9
$DIMDLE
 40
0.0
  9
$DIMEXE
 40
1.0
  9
$DIMTP
 40
1.0
  9
$DIMTM
 40
1.0
  9
$DIMTXT
 40
3.0
  9
$DIMCEN
 40
0.0
  9
$DIMTSZ
 40
0.0
  9
$DIMTOL
 70
     0
  9
$DIMLIM
 70
     0
  9
$DIMTIH
 70
     0
  9
$DIMTOH
 70
     0
  9
$DIMSE1
 70
     0
  9
$DIMSE2
 70
     0
  9
$DIMTAD
 70
     1
  9
$DIMZIN
 70
     8
  9
$DIMBLK
  1

  9
$DIMASO
 70
     1
  9
$DIMSHO
 70
     1
  9
$DIMPOST
  1
(<>)
  9
$DIMAPOST
  1

  9
$DIMALT
 70
     0
  9
$DIMALTD
 70
     2
  9
$DIMALTF
 40
0.039
  9
$DIMLFAC
 40
1.0
  9
$DIMTOFL
 70
     1
  9
$DIMTVP
 40
0.0
  9
$DIMTIX
 70
     0
  9
$DIMSOXD
 70
     0
  9
$DIMSAH
 70
     1
  9
$DIMBLK1
  1
OPEN
  9
$DIMBLK2
  1
OPEN
  9
$DIMSTYLE
  2
IGA
  9
$DIMCLRD
 70
     0
  9
$DIMCLRE
 70
     0
  9
$DIMCLRT
 70
     0
  9
$DIMTFAC
 40
10.0
  9
$DIMGAP
 40
1.0
  9
$LUNITS
 70
     2
  9
$LUPREC
 70
     3
  9
$SKETCHINC
 40
0.1
  9
$FILLETRAD
 40
50.0
  9
$AUNITS
 70
     0
  9
$AUPREC
 70
     0
  9
$MENU
  1
acad
  9
$ELEVATION
 40
0.0
  9
$PELEVATION
 40
0.0
  9
$THICKNESS
 40
0.0
  9
$LIMCHECK
 70
     0
  9
$BLIPMODE
 70
     0
  9
$CHAMFERA
 40
0.5
  9
$CHAMFERB
 40
0.5
  9
$SKPOLY
 70
     0
  9
$TDCREATE
 40
2452321.3884343752
  9
$TDUPDATE
 40
2454953.749079132
  9
$TDINDWG
 40
0.0462380903
  9
$TDUSRTIMER
 40
0.0462380903
  9
$USRTIMER
 70
     1
  9
$ANGBASE
 50
0.0
  9
$ANGDIR
 70
     0
  9
$PDMODE
 70
     0
  9
$PDSIZE
 40
0.0
  9
$PLINEWID
 40
0.0
  9
$COORDS
 70
     1
  9
$SPLFRAME
 70
     0
  9
$SPLINETYPE
 70
     6
  9
$SPLINESEGS
 70
     8
  9
$ATTDIA
 70
     0
  9
$ATTREQ
 70
     1
  9
$HANDLING
 70
 10241
  9
$HANDSEED
  5
8C63
  9
$SURFTAB1
 70
     6
  9
$SURFTAB2
 70
     6
  9
$SURFTYPE
 70
     6
  9
$SURFU
 70
     6
  9
$SURFV
 70
     6
  9
$UCSNAME
  2

  9
$UCSORG
 10
0.0
 20
0.0
 30
0.0
  9
$UCSXDIR
 10
1.0
 20
0.0
 30
0.0
  9
$UCSYDIR
 10
0.0
 20
1.0
 30
0.0
  9
$PUCSNAME
  2

  9
$PUCSORG
 10
0.0
 20
0.0
 30
0.0
  9
$PUCSXDIR
 10
1.0
 20
0.0
 30
0.0
  9
$PUCSYDIR
 10
0.0
 20
1.0
 30
0.0
  9
$USERI1
 70
     0
  9
$USERI2
 70
     0
  9
$USERI3
 70
     0
  9
$USERI4
 70
     0
  9
$USERI5
 70
     0
  9
$USERR1
 40
0.0
  9
$USERR2
 40
0.0
  9
$USERR3
 40
0.0
  9
$USERR4
 40
0.0
  9
$USERR5
 40
0.0
  9
$WORLDVIEW
 70
     1
  9
$SHADEDGE
 70
     3
  9
$SHADEDIF
 70
    70
  9
$TILEMODE
 70
     1
  9
$MAXACTVP
 70
    16
  9
$PLIMCHECK
 70
     0
  9
$PEXTMIN
 10
1.0000000000000000E+020
 20
1.0000000000000000E+020
 30
1.0000000000000000E+020
  9
$PEXTMAX
 10
-1.0000000000000000E+020
 20
-1.0000000000000000E+020
 30
-1.0000000000000000E+020
  9
$PLIMMIN
 10
0.0
 20
0.0
  9
$PLIMMAX
 10
12.0
 20
9.0
  9
$UNITMODE
 70
     0
  9
$VISRETAIN
 70
     0
  9
$PLINEGEN
 70
     0
  9
$PSLTSCALE
 70
     1
  0
ENDSEC
  0
SECTION
  2
TABLES
  0
TABLE
  2
VPORT
 70
     2
  0
VPORT
  2
*ACTIVE
 70
     0
 10
0.0
 20
0.0
 11
1.0
 21
1.0
 12
17683.04979425684
 22
7375.000034342519
 13
0.0
 23
0.0
 14
10.0
 24
10.0
 15
10.0
 25
10.0
 16
0.0
 26
0.0
 36
1.0
 17
0.0
 27
0.0
 37
0.0
 40
14863.074415084669
 41
3.1666666666666661
 42
50.0
 43
0.0
 44
0.0
 50
0.0
 51
0.0
 71
     0
 72
   100
 73
     1
 74
     0
 75
     0
 76
     0
 77
     0
 78
     0
  0
ENDTAB
  0
TABLE
  2
LTYPE
 70
     2
  0
LTYPE
  2
CONTINUOUS
 70
     0
  3
Solid line
 72
    65
 73
     0
 40
0.0
  0
LTYPE
  2
CENTER
 70
     0
  3
____ _ ____ _ ____ _ ____ _ ____ _ ____ _ ____ 
 72
    65
 73
     4
 40
2.0
 49
1.25
 49
-0.25
 49
0.25
 49
-0.25
  0
ENDTAB
  0
TABLE
  2
LAYER
 70
     6
  0
LAYER
  2
0
 70
     0
 62
     7
  6
CONTINUOUS
  0
LAYER
  2
3
 70
     0
 62
     2
  6
CONTINUOUS
  0
LAYER
  2
2
 70
     0
 62
     3
  6
CENTER
  0
LAYER
  2
1
 70
     0
 62
     4
  6
CONTINUOUS
  0
LAYER
  2
4
 70
     0
 62
     7
  6
CONTINUOUS
  0
LAYER
  2
DEFPOINTS
 70
     0
 62
     7
  6
CONTINUOUS
  0
ENDTAB
  0
TABLE
  2
STYLE
 70
     1
  0
STYLE
  2
STANDARD
 70
     0
 40
0.0
 41
1.0
 50
0.0
 71
     0
 42
180.0
  3
simplex.shx
  4
extfont.shx
  0
ENDTAB
  0
TABLE
  2
VIEW
 70
     0
  0
ENDTAB
  0
TABLE
  2
UCS
 70
     0
  0
ENDTAB
  0
TABLE
  2
APPID
 70
     1
  0
APPID
  2
ACAD
 70
     0
  0
ENDTAB
  0
TABLE
  2
DIMSTYLE
 70
     1
  0
DIMSTYLE
  2
IGA
 70
     0
  3

  4

  5

  6
OPEN
  7
OPEN
 40
2.0
 41
2.0
 42
0.5
 43
10.0
 44
1.0
 45
0.0
 46
0.0
 47
1.0
 48
1.0
140
3.0
141
0.0
142
0.0
143
0.03937
144
1.0
145
0.0
146
10.0
147
1.0
 71
     0
 72
     0
 73
     0
 74
     0
 75
     0
 76
     0
 77
     1
 78
     8
170
     0
171
     2
172
     0
173
     1
174
     0
175
     0
176
     0
177
     0
178
     0
  0
ENDTAB
  0
ENDSEC
  0
SECTION
  2
BLOCKS
  0
BLOCK
  8
0
  2
$MODEL_SPACE
 70
     0
 10
0.0
 20
0.0
 30
0.0
  3
$MODEL_SPACE
  1

  0
ENDBLK
  5
1B
  8
0
  0
BLOCK
 67
     1
  8
0
  2
$PAPER_SPACE
 70
     0
 10
0.0
 20
0.0
 30
0.0
  3
$PAPER_SPACE
  1

  0
ENDBLK
  5
18
 67
     1
  8
0
  0
BLOCK
  8
0
  2
_OPEN
 70
     0
 10
0.0
 20
0.0
 30
0.0
  3
_OPEN
  1

  0
LINE
  5
79FD
  8
0
  6
BYBLOCK
 62
     0
 10
-1.0
 20
0.1666666666666666
 30
0.0
 11
0.0
 21
0.0
 31
0.0
  0
LINE
  5
79FE
  8
0
  6
BYBLOCK
 62
     0
 10
0.0
 20
0.0
 30
0.0
 11
-1.0
 21
-0.1666666666666666
 31
0.0
  0
LINE
  5
79FF
  8
0
  6
BYBLOCK
 62
     0
 10
0.0
 20
0.0
 30
0.0
 11
-1.0
 21
0.0
 31
0.0
  0
ENDBLK
  5
7A01
  8
0
  0
BLOCK
  8
0
  2
YA_N
 70
     0
 10
0.0
 20
0.0
 30
0.0
  3
YA_N
  1

  0
ENDBLK
  5
7EF0
  8
0
  0
BLOCK
  8
0
  2
*D2
 70
     1
 10
0.0
 20
0.0
 30
0.0
  3
*D2
  1

  0
LINE
  5
8B7D
  8
3
 62
     0
 10
2305.081816123567
 20
10701.006088529921
 30
0.0
 11
2305.081816123567
 21
10962.3455461579
 31
0.0
  0
LINE
  5
8B7E
  8
3
 62
     0
 10
3805.081816123567
 20
10701.006088529921
 30
0.0
 11
3805.081816123567
 21
10962.3455461579
 31
0.0
  0
LINE
  5
8B7F
  8
3
 62
     0
 10
2405.081816123567
 20
10912.345546157891
 30
0.0
 11
3705.081816123567
 21
10912.345546157891
 31
0.0
  0
INSERT
  5
8B80
  8
3
 62
     0
  2
_OPEN
 10
2305.081816123567
 20
10912.345546157891
 30
0.0
 41
100.0
 42
100.0
 43
100.0
 50
180.0
  0
INSERT
  5
8B81
  8
3
 62
     0
  2
_OPEN
 10
3805.081816123567
 20
10912.345546157891
 30
0.0
 41
100.0
 42
100.0
 43
100.0
  0
TEXT
  8
3
  40
150
  5
8C4C
  62
0
  72
0
  71
0
 10
2679.46
 20
10771.8
 30
0.000000
  1
1500
  0
POINT
  5
8B83
  8
DEFPOINTS
 62
     0
 10
2305.081816123567
 20
10676.006088529921
 30
0.0
  0
POINT
  5
8B84
  8
DEFPOINTS
 62
     0
 10
3805.081816123567
 20
10676.006088529921
 30
0.0
  0
POINT
  5
8B85
  8
DEFPOINTS
 62
     0
 10
3805.081816123567
 20
10912.345546157891
 30
0.0
  0
ENDBLK
  5
86A4
  8
0
  0
BLOCK
  8
0
  2
*D3
 70
     1
 10
0.0
 20
0.0
 30
0.0
  3
*D3
  1

  0
LINE
  5
8B86
  8
3
 62
     0
 10
3830.081816123567
 20
10676.006088529921
 30
0.0
 11
4310.2542064469253
 21
10676.006088529921
 31
0.0
  0
LINE
  5
8B87
  8
3
 62
     0
 10
3830.081816123567
 20
9566.0060885299245
 30
0.0
 11
4310.2542064469244
 21
9566.0060885299226
 31
0.0
  0
LINE
  5
8B88
  8
3
 62
     0
 10
4260.2542064469253
 20
10576.006088529921
 30
0.0
 11
4260.2542064469253
 21
9666.0060885299245
 31
0.0
  0
INSERT
  5
8B89
  8
3
 62
     0
  2
_OPEN
 10
4260.2542064469253
 20
10676.006088529921
 30
0.0
 41
100.0
 42
100.0
 43
100.0
 50
90.0
  0
INSERT
  5
8B8A
  8
3
 62
     0
  2
_OPEN
 10
4260.2542064469253
 20
9566.0060885299226
 30
0.0
 41
100.0
 42
100.0
 43
100.0
 50
270.0
  0
TEXT
  8
3
  40
150
  5
8C4D
  62
0
  72
0
  71
0
 10
3835.25
 20
9833.45
 30
0.000000
  1
1110
  0
POINT
  5
8B8C
  8
DEFPOINTS
 62
     0
 10
3805.081816123567
 20
10676.006088529921
 30
0.0
  0
POINT
  5
8B8D
  8
DEFPOINTS
 62
     0
 10
3805.081816123567
 20
9566.0060885299245
 30
0.0
  0
POINT
  5
8B8E
  8
DEFPOINTS
 62
     0
 10
4260.2542064469253
 20
9566.0060885299226
 30
0.0
  0
ENDBLK
  5
86B0
  8
0
  0
BLOCK
  8
0
  2
*D4
 70
     1
 10
0.0
 20
0.0
 30
0.0
  3
*D4
  1

  0
LINE
  5
8B8F
  8
3
 62
     0
 10
3530.081816123567
 20
8621.0060885299245
 30
0.0
 11
4310.2542064469226
 21
8621.0060885299226
 31
0.0
  0
LINE
  5
8B90
  8
3
 62
     0
 10
4260.2542064469226
 20
9466.0060885299226
 30
0.0
 11
4260.2542064469226
 21
8721.0060885299226
 31
0.0
  0
INSERT
  5
8B91
  8
3
 62
     0
  2
_OPEN
 10
4260.2542064469226
 20
9566.0060885299226
 30
0.0
 41
100.0
 42
100.0
 43
100.0
 50
90.0
  0
INSERT
  5
8B92
  8
3
 62
     0
  2
_OPEN
 10
4260.2542064469226
 20
8621.0060885299226
 30
0.0
 41
100.0
 42
100.0
 43
100.0
 50
270.0
  0
TEXT
  8
3
  40
150
  5
8C4E
  62
0
  72
0
  71
0
 10
3835.25
 20
8828.01
 30
0.000000
  1
945
  0
POINT
  5
8B94
  8
DEFPOINTS
 62
     0
 10
3805.081816123567
 20
9566.0060885299245
 30
0.0
  0
POINT
  5
8B95
  8
DEFPOINTS
 62
     0
 10
3505.081816123567
 20
8621.0060885299245
 30
0.0
  0
POINT
  5
8B96
  8
DEFPOINTS
 62
     0
 10
4260.2542064469226
 20
8621.0060885299226
 30
0.0
  0
ENDBLK
  5
86BC
  8
0
  0
BLOCK
  8
0
  2
*D5
 70
     1
 10
0.0
 20
0.0
 30
0.0
  3
*D5
  1

  0
LINE
  5
8B97
  8
3
 62
     0
 10
3505.081816123567
 20
8596.0060885299226
 30
0.0
 11
3505.081816123567
 21
8031.7460686846171
 31
0.0
  0
LINE
  5
8B98
  8
3
 62
     0
 10
1905.081816123567
 20
8596.0060885299226
 30
0.0
 11
1905.081816123567
 21
8031.7460686846171
 31
0.0
  0
LINE
  5
8B99
  8
3
 62
     0
 10
3405.081816123567
 20
8081.7460686846171
 30
0.0
 11
2005.081816123567
 21
8081.7460686846171
 31
0.0
  0
INSERT
  5
8B9A
  8
3
 62
     0
  2
_OPEN
 10
3505.081816123567
 20
8081.7460686846171
 30
0.0
 41
100.0
 42
100.0
 43
100.0
  0
INSERT
  5
8B9B
  8
3
 62
     0
  2
_OPEN
 10
1905.081816123567
 20
8081.7460686846171
 30
0.0
 41
100.0
 42
100.0
 43
100.0
 50
180.0
  0
TEXT
  8
3
  40
150
  5
8C4F
  62
0
  72
0
  71
0
 10
2386.40
 20
7941.25
 30
0.000000
  1
1600
  0
POINT
  5
8B9D
  8
DEFPOINTS
 62
     0
 10
3505.081816123567
 20
8621.0060885299245
 30
0.0
  0
POINT
  5
8B9E
  8
DEFPOINTS
 62
     0
 10
1905.081816123567
 20
8621.0060885299245
 30
0.0
  0
POINT
  5
8B9F
  8
DEFPOINTS
 62
     0
 10
1905.081816123567
 20
8081.7460686846171
 30
0.0
  0
ENDBLK
  5
86C9
  8
0
  0
BLOCK
  8
0
  2
*D6
 70
     1
 10
0.0
 20
0.0
 30
0.0
  3
*D6
  1

  0
LINE
  5
8BA0
  8
3
 62
     0
 10
1880.081816123567
 20
8621.0060885299245
 30
0.0
 11
1453.296117097635
 21
8621.0060885299245
 31
0.0
  0
LINE
  5
8BA1
  8
3
 62
     0
 10
1880.081816123567
 20
9641.0060885299245
 30
0.0
 11
1453.296117097635
 21
9641.0060885299245
 31
0.0
  0
LINE
  5
8BA2
  8
3
 62
     0
 10
1503.296117097635
 20
8721.0060885299226
 30
0.0
 11
1503.296117097635
 21
9541.0060885299245
 31
0.0
  0
INSERT
  5
8BA3
  8
3
 62
     0
  2
_OPEN
 10
1503.296117097635
 20
8621.0060885299245
 30
0.0
 41
100.0
 42
100.0
 43
100.0
 50
270.0
  0
INSERT
  5
8BA4
  8
3
 62
     0
  2
_OPEN
 10
1503.296117097635
 20
9641.0060885299245
 30
0.0
 41
100.0
 42
100.0
 43
100.0
 50
90.0
  0
TEXT
  8
3
  40
150
  5
8C50
  62
0
  72
0
  71
0
 10
1078.30
 20
8857.39
 30
0.000000
  1
1020
  0
POINT
  5
8BA6
  8
DEFPOINTS
 62
     0
 10
1905.081816123567
 20
8621.0060885299245
 30
0.0
  0
POINT
  5
8BA7
  8
DEFPOINTS
 62
     0
 10
1905.081816123567
 20
9641.0060885299245
 30
0.0
  0
POINT
  5
8BA8
  8
DEFPOINTS
 62
     0
 10
1503.296117097635
 20
9641.0060885299245
 30
0.0
  0
ENDBLK
  5
86D6
  8
0
  0
BLOCK
  8
0
  2
*D7
 70
     1
 10
0.0
 20
0.0
 30
0.0
  3
*D7
  1

  0
LINE
  5
8BA9
  8
3
 62
     0
 10
1905.081816123567
 20
3459.627991408147
 30
0.0
 11
1905.081816123567
 21
3095.638338032295
 31
0.0
  0
LINE
  5
8BAA
  8
3
 62
     0
 10
3055.081816123567
 20
3459.627991408147
 30
0.0
 11
3055.081816123567
 21
3095.638338032295
 31
0.0
  0
LINE
  5
8BAB
  8
3
 62
     0
 10
2005.081816123567
 20
3145.638338032295
 30
0.0
 11
2955.081816123567
 21
3145.638338032295
 31
0.0
  0
INSERT
  5
8BAC
  8
3
 62
     0
  2
_OPEN
 10
1905.081816123567
 20
3145.638338032295
 30
0.0
 41
100.0
 42
100.0
 43
100.0
 50
180.0
  0
INSERT
  5
8BAD
  8
3
 62
     0
  2
_OPEN
 10
3055.081816123567
 20
3145.638338032295
 30
0.0
 41
100.0
 42
100.0
 43
100.0
  0
TEXT
  8
3
  40
150
  5
8C51
  62
0
  72
0
  71
0
 10
2178.16
 20
3005.14
 30
0.000000
  1
1150
  0
POINT
  5
8BAF
  8
DEFPOINTS
 62
     0
 10
1905.081816123567
 20
3484.6279914081479
 30
0.0
  0
POINT
  5
8BB0
  8
DEFPOINTS
 62
     0
 10
3055.081816123567
 20
3484.6279914081479
 30
0.0
  0
POINT
  5
8BB1
  8
DEFPOINTS
 62
     0
 10
3055.081816123567
 20
3145.638338032295
 30
0.0
  0
ENDBLK
  5
87CA
  8
0
  0
BLOCK
  8
0
  2
*D8
 70
     1
 10
0.0
 20
0.0
 30
0.0
  3
*D8
  1

  0
LINE
  5
8BB2
  8
3
 62
     0
 10
3805.081816123567
 20
3459.627991408147
 30
0.0
 11
3805.081816123567
 21
3095.638338032295
 31
0.0
  0
LINE
  5
8BB3
  8
3
 62
     0
 10
3155.081816123567
 20
3145.638338032295
 30
0.0
 11
3705.081816123567
 21
3145.638338032295
 31
0.0
  0
INSERT
  5
8BB4
  8
3
 62
     0
  2
_OPEN
 10
3055.081816123567
 20
3145.638338032295
 30
0.0
 41
100.0
 42
100.0
 43
100.0
 50
180.0
  0
INSERT
  5
8BB5
  8
3
 62
     0
  2
_OPEN
 10
3805.081816123567
 20
3145.638338032295
 30
0.0
 41
100.0
 42
100.0
 43
100.0
  0
TEXT
  8
3
  40
150
  5
8C52
  62
0
  72
0
  71
0
 10
3130.08
 20
3005.14
 30
0.000000
  1
750
  0
POINT
  5
8BB7
  8
DEFPOINTS
 62
     0
 10
3055.081816123567
 20
3484.6279914081479
 30
0.0
  0
POINT
  5
8BB8
  8
DEFPOINTS
 62
     0
 10
3805.081816123567
 20
3484.6279914081479
 30
0.0
  0
POINT
  5
8BB9
  8
DEFPOINTS
 62
     0
 10
3805.081816123567
 20
3145.638338032295
 30
0.0
  0
ENDBLK
  5
87D6
  8
0
  0
BLOCK
  8
0
  2
*D9
 70
     1
 10
0.0
 20
0.0
 30
0.0
  3
*D9
  1

  0
LINE
  5
8BBA
  8
3
 62
     0
 10
6249.0697441729999
 20
3459.627991408147
 30
0.0
 11
6249.0697441729999
 21
3095.638338032295
 31
0.0
  0
LINE
  5
8BBB
  8
3
 62
     0
 10
7749.0697441730017
 20
3459.627991408147
 30
0.0
 11
7749.0697441730017
 21
3095.638338032295
 31
0.0
  0
LINE
  5
8BBC
  8
3
 62
     0
 10
6349.0697441729999
 20
3145.638338032295
 30
0.0
 11
7649.0697441730017
 21
3145.638338032295
 31
0.0
  0
INSERT
  5
8BBD
  8
3
 62
     0
  2
_OPEN
 10
6249.0697441729999
 20
3145.638338032295
 30
0.0
 41
100.0
 42
100.0
 43
100.0
 50
180.0
  0
INSERT
  5
8BBE
  8
3
 62
     0
  2
_OPEN
 10
7749.0697441730017
 20
3145.638338032295
 30
0.0
 41
100.0
 42
100.0
 43
100.0
  0
TEXT
  8
3
  40
150
  5
8C53
  62
0
  72
0
  71
0
 10
6772.90
 20
3005.14
 30
0.000000
  1
1500
  0
POINT
  5
8BC0
  8
DEFPOINTS
 62
     0
 10
6249.0697441729999
 20
3484.6279914081479
 30
0.0
  0
POINT
  5
8BC1
  8
DEFPOINTS
 62
     0
 10
7749.0697441730017
 20
3484.6279914081479
 30
0.0
  0
POINT
  5
8BC2
  8
DEFPOINTS
 62
     0
 10
7749.0697441730017
 20
3145.638338032295
 30
0.0
  0
ENDBLK
  5
87E3
  8
0
  0
BLOCK
  8
0
  2
*D10
 70
     1
 10
0.0
 20
0.0
 30
0.0
  3
*D10
  1

  0
LINE
  5
87FE
  8
0
  6
BYBLOCK
 62
     0
 10
8304.0697441730008
 20
4154.6279914081479
 30
0.0
 11
8304.0697441730008
 21
3790.6383380322941
 31
0.0
  0
LINE
  5
87FF
  8
0
  6
BYBLOCK
 62
     0
 10
7849.0697441730017
 20
3840.638338032295
 30
0.0
 11
8204.0697441730008
 21
3840.638338032295
 31
0.0
  0
TEXT
  5
8800
  8
3
 62
     0
 10
7850.0796396438191
 20
3887.747357576372
 30
0.0
 40
150.0
  1
555
  0
INSERT
  5
8801
  8
0
  6
BYBLOCK
 62
     0
  2
_OPEN
 10
7749.0697441730017
 20
3840.638338032295
 30
0.0
 41
100.0
 42
100.0
 43
100.0
 50
180.0
  0
INSERT
  5
8802
  8
0
  6
BYBLOCK
 62
     0
  2
_OPEN
 10
8304.0697441730008
 20
3840.638338032295
 30
0.0
 41
100.0
 42
100.0
 43
100.0
  0
POINT
  5
8803
  8
DEFPOINTS
  6
BYBLOCK
 62
     0
 10
7749.0697441730017
 20
4179.6279914081479
 30
0.0
  0
POINT
  5
8804
  8
DEFPOINTS
  6
BYBLOCK
 62
     0
 10
8304.0697441730008
 20
4179.6279914081479
 30
0.0
  0
POINT
  5
8805
  8
DEFPOINTS
  6
BYBLOCK
 62
     0
 10
8304.0697441730008
 20
3840.638338032295
 30
0.0
  0
ENDBLK
  5
8806
  8
0
  0
BLOCK
  8
0
  2
*D11
 70
     1
 10
0.0
 20
0.0
 30
0.0
  3
*D11
  1

  0
LINE
  5
8BC3
  8
3
 62
     0
 10
8259.0697441730026
 20
5924.627991408147
 30
0.0
 11
8716.1480083497318
 21
5924.627991408147
 31
0.0
  0
LINE
  5
8BC4
  8
3
 62
     0
 10
8259.0697441730026
 20
4674.627991408147
 30
0.0
 11
8716.1480083497318
 21
4674.627991408147
 31
0.0
  0
LINE
  5
8BC5
  8
3
 62
     0
 10
8666.1480083497336
 20
5824.6279914081479
 30
0.0
 11
8666.1480083497336
 21
4774.6279914081479
 31
0.0
  0
INSERT
  5
8BC6
  8
3
 62
     0
  2
_OPEN
 10
8666.1480083497336
 20
5924.627991408147
 30
0.0
 41
100.0
 42
100.0
 43
100.0
 50
90.0
  0
INSERT
  5
8BC7
  8
3
 62
     0
  2
_OPEN
 10
8666.1480083497336
 20
4674.627991408147
 30
0.0
 41
100.0
 42
100.0
 43
100.0
 50
270.0
  0
TEXT
  8
3
  40
150
  5
8C54
  62
0
  72
0
  71
0
 10
8241.15
 20
5054.13
 30
0.000000
  1
φ1250
  0
POINT
  5
8BC9
  8
DEFPOINTS
 62
     0
 10
8234.0697441730026
 20
5924.627991408147
 30
0.0
  0
POINT
  5
8BCA
  8
DEFPOINTS
 62
     0
 10
8234.0697441730026
 20
4674.627991408147
 30
0.0
  0
POINT
  5
8BCB
  8
DEFPOINTS
 62
     0
 10
8666.1480083497336
 20
4674.627991408147
 30
0.0
  0
ENDBLK
  5
882D
  8
0
  0
BLOCK
  8
0
  2
_DOT
 70
     0
 10
0.0
 20
0.0
 30
0.0
  3
_DOT
  1

  0
LINE
  5
8927
  8
0
  6
BYBLOCK
 62
     0
 10
0.0
 20
0.0
 30
0.0
 11
-1.0
 21
-0.0000000000000284
 31
0.0
  0
POLYLINE
  5
8928
  8
0
  6
BYBLOCK
 62
     0
 66
     1
 10
0.0
 20
0.0
 30
0.0
 70
     1
 40
0.1666666666666666
 41
0.1666666666666666
  0
VERTEX
  5
8BCC
  8
0
  6
BYBLOCK
 62
     0
 10
-0.0833333333333286
 20
-0.0000000000000284
 30
0.0
 42
1.0
  0
VERTEX
  5
8BCD
  8
0
  6
BYBLOCK
 62
     0
 10
0.0833333333333286
 20
-0.0000000000000284
 30
0.0
 42
1.0
  0
SEQEND
  5
8BCE
  8
0
  6
BYBLOCK
 62
     0
  0
ENDBLK
  5
890C
  8
0
  0
BLOCK
  8
0
  2
*D13
 70
     1
 10
0.0
 20
0.0
 30
0.0
  3
*D13
  1

  0
LINE
  5
89D4
  8
0
  6
BYBLOCK
 62
     0
 10
2505.081816123567
 20
9666.0060885299245
 30
0.0
 11
2505.081816123567
 21
10962.3455461579
 31
0.0
  0
LINE
  5
89D5
  8
0
  6
BYBLOCK
 62
     0
 10
2805.081816123567
 20
10912.345546157891
 30
0.0
 11
2605.081816123567
 21
10912.345546157891
 31
0.0
  0
TEXT
  5
89D6
  8
3
 62
     0
 10
2512.2246732664248
 20
10965.910032208471
 30
0.0
 40
150.0
  1
400
  0
INSERT
  5
89D7
  8
0
  6
BYBLOCK
 62
     0
  2
_OPEN
 10
2905.081816123567
 20
10912.345546157891
 30
0.0
 41
100.0
 42
100.0
 43
100.0
  0
INSERT
  5
89D8
  8
0
  6
BYBLOCK
 62
     0
  2
_OPEN
 10
2505.081816123567
 20
10912.345546157891
 30
0.0
 41
100.0
 42
100.0
 43
100.0
 50
180.0
  0
POINT
  5
89D9
  8
DEFPOINTS
  6
BYBLOCK
 62
     0
 10
2905.081816123567
 20
10676.006088529921
 30
0.0
  0
POINT
  5
89DA
  8
DEFPOINTS
  6
BYBLOCK
 62
     0
 10
2505.081816123567
 20
9641.0060885299245
 30
0.0
  0
POINT
  5
89DB
  8
DEFPOINTS
  6
BYBLOCK
 62
     0
 10
2505.081816123567
 20
10912.345546157891
 30
0.0
  0
ENDBLK
  5
89DC
  8
0
  0
BLOCK
  8
0
  2
*D14
 70
     1
 10
0.0
 20
0.0
 30
0.0
  3
*D14
  1

  0
LINE
  5
8BCF
  8
3
 62
     0
 10
3905.081816123567
 20
5245.6279914081479
 30
0.0
 11
4245.1370976079343
 21
5245.6279914081479
 31
0.0
  0
LINE
  5
8BD0
  8
3
 62
     0
 10
3905.081816123567
 20
3965.6279914081479
 30
0.0
 11
4245.1370976079343
 21
3965.6279914081479
 31
0.0
  0
LINE
  5
8BD1
  8
3
 62
     0
 10
4195.1370976079343
 20
5145.627991408147
 30
0.0
 11
4195.1370976079343
 21
4065.6279914081479
 31
0.0
  0
INSERT
  5
8BD2
  8
3
 62
     0
  2
_OPEN
 10
4195.1370976079343
 20
5245.6279914081479
 30
0.0
 41
100.0
 42
100.0
 43
100.0
 50
90.0
  0
INSERT
  5
8BD3
  8
3
 62
     0
  2
_OPEN
 10
4195.1370976079343
 20
3965.6279914081479
 30
0.0
 41
100.0
 42
100.0
 43
100.0
 50
270.0
  0
TEXT
  8
3
  40
150
  5
8C55
  62
0
  72
0
  71
0
 10
3770.14
 20
4340.13
 30
0.000000
  1
1280
  0
POINT
  5
8BD5
  8
DEFPOINTS
 62
     0
 10
3880.081816123567
 20
5245.6279914081479
 30
0.0
  0
POINT
  5
8BD6
  8
DEFPOINTS
 62
     0
 10
3880.081816123567
 20
3965.6279914081479
 30
0.0
  0
POINT
  5
8BD7
  8
DEFPOINTS
 62
     0
 10
4195.1370976079343
 20
3965.6279914081479
 30
0.0
  0
ENDBLK
  5
8A46
  8
0
  0
BLOCK
  8
0
  2
*D15
 70
     1
 10
0.0
 20
0.0
 30
0.0
  3
*D15
  1

  0
LINE
  5
8BD8
  8
3
 62
     0
 10
3983.5183543724188
 20
5299.627991408147
 30
0.0
 11
4563.5391198008292
 21
5299.627991408147
 31
0.0
  0
LINE
  5
8BD9
  8
3
 62
     0
 10
3930.081816123567
 20
3965.6279914081479
 30
0.0
 11
4563.5391198008292
 21
3965.6279914081479
 31
0.0
  0
LINE
  5
8BDA
  8
3
 62
     0
 10
4513.5391198008292
 20
5199.6279914081479
 30
0.0
 11
4513.5391198008292
 21
4065.6279914081479
 31
0.0
  0
INSERT
  5
8BDB
  8
3
 62
     0
  2
_OPEN
 10
4513.5391198008292
 20
5299.627991408147
 30
0.0
 41
100.0
 42
100.0
 43
100.0
 50
90.0
  0
INSERT
  5
8BDC
  8
3
 62
     0
  2
_OPEN
 10
4513.5391198008292
 20
3965.6279914081479
 30
0.0
 41
100.0
 42
100.0
 43
100.0
 50
270.0
  0
TEXT
  8
3
  40
150
  5
8C56
  62
0
  72
0
  71
0
 10
4088.54
 20
4367.13
 30
0.000000
  1
1334
  0
POINT
  5
8BDE
  8
DEFPOINTS
 62
     0
 10
3958.5183543724202
 20
5299.627991408147
 30
0.0
  0
POINT
  5
8BDF
  8
DEFPOINTS
 62
     0
 10
3905.081816123567
 20
3965.6279914081479
 30
0.0
  0
POINT
  5
8BE0
  8
DEFPOINTS
 62
     0
 10
4513.5391198008292
 20
3965.6279914081479
 30
0.0
  0
ENDBLK
  5
8A53
  8
0
  0
BLOCK
  8
0
  2
*D16
 70
     1
 10
0.0
 20
0.0
 30
0.0
  3
*D16
  1

  0
LINE
  5
8BE1
  8
3
 62
     0
 10
3983.5183543724188
 20
5299.627991408147
 30
0.0
 11
4877.3266312466512
 21
5299.627991408147
 31
0.0
  0
LINE
  5
8BE2
  8
3
 62
     0
 10
3830.081816123567
 20
3749.627991408147
 30
0.0
 11
4877.3266312466512
 21
3749.627991408147
 31
0.0
  0
LINE
  5
8BE3
  8
3
 62
     0
 10
4827.3266312466512
 20
5199.6279914081479
 30
0.0
 11
4827.3266312466512
 21
3849.6279914081479
 31
0.0
  0
INSERT
  5
8BE4
  8
3
 62
     0
  2
_OPEN
 10
4827.3266312466512
 20
5299.627991408147
 30
0.0
 41
100.0
 42
100.0
 43
100.0
 50
90.0
  0
INSERT
  5
8BE5
  8
3
 62
     0
  2
_OPEN
 10
4827.3266312466512
 20
3749.627991408147
 30
0.0
 41
100.0
 42
100.0
 43
100.0
 50
270.0
  0
TEXT
  8
3
  40
150
  5
8C57
  62
0
  72
0
  71
0
 10
4402.33
 20
4259.13
 30
0.000000
  1
1550
  0
POINT
  5
8BE7
  8
DEFPOINTS
 62
     0
 10
3958.5183543724202
 20
5299.627991408147
 30
0.0
  0
POINT
  5
8BE8
  8
DEFPOINTS
 62
     0
 10
3805.081816123567
 20
3749.627991408147
 30
0.0
  0
POINT
  5
8BE9
  8
DEFPOINTS
 62
     0
 10
4827.3266312466512
 20
3749.627991408147
 30
0.0
  0
ENDBLK
  5
8A60
  8
0
  0
BLOCK
  8
0
  2
*D17
 70
     1
 10
0.0
 20
0.0
 30
0.0
  3
*D17
  1

  0
LINE
  5
8BEA
  8
3
 62
     0
 10
2989.081816123567
 20
6196.6279914081479
 30
0.0
 11
4879.4685400739991
 21
6196.6279914081479
 31
0.0
  0
LINE
  5
8BEB
  8
3
 62
     0
 10
3983.5183543724188
 20
5299.627991408147
 30
0.0
 11
4879.4685400739982
 21
5299.627991408147
 31
0.0
  0
LINE
  5
8BEC
  8
3
 62
     0
 10
4829.4685400739982
 20
6096.6279914081479
 30
0.0
 11
4829.4685400739982
 21
5399.6279914081479
 31
0.0
  0
INSERT
  5
8BED
  8
3
 62
     0
  2
_OPEN
 10
4829.468540074
 20
6196.6279914081479
 30
0.0
 41
100.0
 42
100.0
 43
100.0
 50
90.0
  0
INSERT
  5
8BEE
  8
3
 62
     0
  2
_OPEN
 10
4829.4685400739982
 20
5299.627991408147
 30
0.0
 41
100.0
 42
100.0
 43
100.0
 50
270.0
  0
TEXT
  8
3
  40
150
  5
8C58
  62
0
  72
0
  71
0
 10
4404.47
 20
5482.63
 30
0.000000
  1
897
  0
POINT
  5
8BF0
  8
DEFPOINTS
 62
     0
 10
2964.081816123567
 20
6196.6279914081479
 30
0.0
  0
POINT
  5
8BF1
  8
DEFPOINTS
 62
     0
 10
3958.5183543724202
 20
5299.627991408147
 30
0.0
  0
POINT
  5
8BF2
  8
DEFPOINTS
 62
     0
 10
4829.4685400739982
 20
5299.627991408147
 30
0.0
  0
ENDBLK
  5
8A7C
  8
0
  0
BLOCK
  8
0
  2
*D18
 70
     1
 10
0.0
 20
0.0
 30
0.0
  3
*D18
  1

  0
LINE
  5
8BF3
  8
3
 62
     0
 10
3055.081816123567
 20
6337.9971153107408
 30
0.0
 11
3055.081816123567
 21
6511.3680659317106
 31
0.0
  0
LINE
  5
8BF4
  8
3
 62
     0
 10
3880.081816123567
 20
5323.6279914081479
 30
0.0
 11
3880.081816123567
 21
6511.3680659317106
 31
0.0
  0
LINE
  5
8BF5
  8
3
 62
     0
 10
3155.081816123567
 20
6461.3680659317106
 30
0.0
 11
3780.081816123567
 21
6461.3680659317106
 31
0.0
  0
INSERT
  5
8BF6
  8
3
 62
     0
  2
_OPEN
 10
3055.081816123567
 20
6461.3680659317106
 30
0.0
 41
100.0
 42
100.0
 43
100.0
 50
180.0
  0
INSERT
  5
8BF7
  8
3
 62
     0
  2
_OPEN
 10
3880.081816123567
 20
6461.3680659317106
 30
0.0
 41
100.0
 42
100.0
 43
100.0
  0
TEXT
  8
3
  40
150
  5
8C59
  62
0
  72
0
  71
0
 10
3167.58
 20
6320.87
 30
0.000000
  1
825
  0
POINT
  5
8BF9
  8
DEFPOINTS
 62
     0
 10
3055.081816123567
 20
6312.9971153107408
 30
0.0
  0
POINT
  5
8BFA
  8
DEFPOINTS
 62
     0
 10
3880.081816123567
 20
5298.6279914081479
 30
0.0
  0
POINT
  5
8BFB
  8
DEFPOINTS
 62
     0
 10
3880.081816123567
 20
6461.3680659317106
 30
0.0
  0
ENDBLK
  5
8A89
  8
0
  0
BLOCK
  8
0
  2
*D19
 70
     1
 10
0.0
 20
0.0
 30
0.0
  3
*D19
  1

  0
LINE
  5
8BFC
  8
3
 62
     0
 10
3055.081816123567
 20
6337.9971153107408
 30
0.0
 11
3055.081816123567
 21
6511.3680659317106
 31
0.0
  0
LINE
  5
8BFD
  8
3
 62
     0
 10
1976.081816123567
 20
5233.6279914081479
 30
0.0
 11
1976.081816123567
 21
6511.3680659317106
 31
0.0
  0
LINE
  5
8BFE
  8
3
 62
     0
 10
2955.081816123567
 20
6461.3680659317106
 30
0.0
 11
2076.081816123567
 21
6461.3680659317106
 31
0.0
  0
INSERT
  5
8BFF
  8
3
 62
     0
  2
_OPEN
 10
3055.081816123567
 20
6461.3680659317106
 30
0.0
 41
100.0
 42
100.0
 43
100.0
  0
INSERT
  5
8C00
  8
3
 62
     0
  2
_OPEN
 10
1976.081816123567
 20
6461.3680659317106
 30
0.0
 41
100.0
 42
100.0
 43
100.0
 50
180.0
  0
TEXT
  8
3
  40
150
  5
8C5A
  62
0
  72
0
  71
0
 10
2215.58
 20
6320.87
 30
0.000000
  1
1079
  0
POINT
  5
8C02
  8
DEFPOINTS
 62
     0
 10
3055.081816123567
 20
6312.9971153107408
 30
0.0
  0
POINT
  5
8C03
  8
DEFPOINTS
 62
     0
 10
1976.081816123567
 20
5208.6279914081479
 30
0.0
  0
POINT
  5
8C04
  8
DEFPOINTS
 62
     0
 10
1976.081816123567
 20
6461.3680659317106
 30
0.0
  0
ENDBLK
  5
8A98
  8
0
  0
BLOCK
  8
0
  2
*D20
 70
     1
 10
0.0
 20
0.0
 30
0.0
  3
*D20
  1

  0
LINE
  5
8C05
  8
3
 62
     0
 10
3880.081816123567
 20
5323.6279914081479
 30
0.0
 11
3880.081816123567
 21
6795.9831769191496
 31
0.0
  0
LINE
  5
8C06
  8
3
 62
     0
 10
1905.081816123567
 20
3924.627991408147
 30
0.0
 11
1905.081816123567
 21
6795.9831769191496
 31
0.0
  0
LINE
  5
8C07
  8
3
 62
     0
 10
3780.081816123567
 20
6745.9831769191514
 30
0.0
 11
2005.081816123567
 21
6745.9831769191514
 31
0.0
  0
INSERT
  5
8C08
  8
3
 62
     0
  2
_OPEN
 10
3880.081816123567
 20
6745.9831769191514
 30
0.0
 41
100.0
 42
100.0
 43
100.0
  0
INSERT
  5
8C09
  8
3
 62
     0
  2
_OPEN
 10
1905.081816123567
 20
6745.9831769191514
 30
0.0
 41
100.0
 42
100.0
 43
100.0
 50
180.0
  0
TEXT
  8
3
  40
150
  5
8C5B
  62
0
  72
0
  71
0
 10
2592.58
 20
6605.48
 30
0.000000
  1
1975
  0
POINT
  5
8C0B
  8
DEFPOINTS
 62
     0
 10
3880.081816123567
 20
5298.6279914081479
 30
0.0
  0
POINT
  5
8C0C
  8
DEFPOINTS
 62
     0
 10
1905.081816123567
 20
3899.627991408147
 30
0.0
  0
POINT
  5
8C0D
  8
DEFPOINTS
 62
     0
 10
1905.081816123567
 20
6745.9831769191514
 30
0.0
  0
ENDBLK
  5
8AA5
  8
0
  0
BLOCK
  8
0
  2
*D21
 70
     1
 10
0.0
 20
0.0
 30
0.0
  3
*D21
  1

  0
LINE
  5
8C0E
  8
3
 62
     0
 10
7274.0697441730008
 20
6218.0047426694746
 30
0.0
 11
7274.0697441730008
 21
6508.2311171300016
 31
0.0
  0
LINE
  5
8C0F
  8
3
 62
     0
 10
8224.0697441730008
 20
6218.0047426694764
 30
0.0
 11
8224.0697441730008
 21
6508.2311171300016
 31
0.0
  0
LINE
  5
8C10
  8
3
 62
     0
 10
7374.0697441729999
 20
6458.2311171300016
 30
0.0
 11
8124.0697441729999
 21
6458.2311171300016
 31
0.0
  0
INSERT
  5
8C11
  8
3
 62
     0
  2
_OPEN
 10
7274.0697441730008
 20
6458.2311171300016
 30
0.0
 41
100.0
 42
100.0
 43
100.0
 50
180.0
  0
INSERT
  5
8C12
  8
3
 62
     0
  2
_OPEN
 10
8224.0697441730008
 20
6458.2311171300016
 30
0.0
 41
100.0
 42
100.0
 43
100.0
  0
TEXT
  8
3
  40
150
  5
8C5C
  62
0
  72
0
  71
0
 10
7449.07
 20
6317.73
 30
0.000000
  1
950
  0
POINT
  5
8C14
  8
DEFPOINTS
 62
     0
 10
7274.0697441730008
 20
6193.0047426694764
 30
0.0
  0
POINT
  5
8C15
  8
DEFPOINTS
 62
     0
 10
8224.0697441730008
 20
6193.0047426694764
 30
0.0
  0
POINT
  5
8C16
  8
DEFPOINTS
 62
     0
 10
8224.0697441730008
 20
6458.2311171300016
 30
0.0
  0
ENDBLK
  5
8AB2
  8
0
  0
BLOCK
  8
0
  2
*D22
 70
     1
 10
0.0
 20
0.0
 30
0.0
  3
*D22
  1

  0
LINE
  5
8C17
  8
3
 62
     0
 10
7749.0697441729999
 20
6726.4070424650135
 30
0.0
 11
7749.0697441729999
 21
6795.9831769191496
 31
0.0
  0
LINE
  5
8C18
  8
3
 62
     0
 10
6102.0697441729999
 20
5604.6279914081479
 30
0.0
 11
6102.0697441729999
 21
6795.9831769191496
 31
0.0
  0
LINE
  5
8C19
  8
3
 62
     0
 10
7649.0697441730008
 20
6745.9831769191514
 30
0.0
 11
6202.0697441730008
 21
6745.9831769191514
 31
0.0
  0
INSERT
  5
8C1A
  8
3
 62
     0
  2
_OPEN
 10
7749.0697441729999
 20
6745.9831769191514
 30
0.0
 41
100.0
 42
100.0
 43
100.0
  0
INSERT
  5
8C1B
  8
3
 62
     0
  2
_OPEN
 10
6102.0697441729999
 20
6745.9831769191514
 30
0.0
 41
100.0
 42
100.0
 43
100.0
 50
180.0
  0
TEXT
  8
3
  40
150
  5
8C5D
  62
0
  72
0
  71
0
 10
6625.57
 20
6730.48
 30
0.000000
  1
MAX
  0
TEXT
  8
3
  40
150
  5
8C5E
  62
0
  72
0
  71
0
 10
6625.57
 20
6535.48
 30
0.000000
  1
1680
  0
POINT
  5
8C1D
  8
DEFPOINTS
 62
     0
 10
7749.0697441729999
 20
6701.4070424650135
 30
0.0
  0
POINT
  5
8C1E
  8
DEFPOINTS
 62
     0
 10
6102.0697441729999
 20
5579.6279914081479
 30
0.0
  0
POINT
  5
8C1F
  8
DEFPOINTS
 62
     0
 10
6102.0697441729999
 20
6745.9831769191514
 30
0.0
  0
ENDBLK
  5
8AE3
  8
0
  0
BLOCK
  8
0
  2
*D23
 70
     1
 10
0.0
 20
0.0
 30
0.0
  3
*D23
  1

  0
LINE
  5
8C20
  8
3
 62
     0
 10
7749.0697441729999
 20
6726.4070424650135
 30
0.0
 11
7749.0697441729999
 21
6796.3236486621399
 31
0.0
  0
LINE
  5
8C21
  8
3
 62
     0
 10
8234.0697441730026
 20
5999.6279914081488
 30
0.0
 11
8234.0697441730026
 21
6796.3236486621399
 31
0.0
  0
LINE
  5
8C22
  8
3
 62
     0
 10
7849.0697441729999
 20
6746.3236486621399
 30
0.0
 11
8134.0697441730017
 21
6746.3236486621399
 31
0.0
  0
LINE
  5
8C23
  8
3
 62
     0
 10
8234.0697441730026
 20
6746.3236486621399
 30
0.0
 11
8819.784029887287
 21
6746.3236486621399
 31
0.0
  0
INSERT
  5
8C24
  8
3
 62
     0
  2
_OPEN
 10
7749.0697441729999
 20
6746.3236486621399
 30
0.0
 41
100.0
 42
100.0
 43
100.0
 50
180.0
  0
INSERT
  5
8C25
  8
3
 62
     0
  2
_OPEN
 10
8234.0697441730026
 20
6746.3236486621399
 30
0.0
 41
100.0
 42
100.0
 43
100.0
  0
TEXT
  8
3
  40
150
  5
8C5F
  62
0
  72
0
  71
0
 10
8276.93
 20
6605.82
 30
0.000000
  1
485
  0
POINT
  5
8C27
  8
DEFPOINTS
 62
     0
 10
7749.0697441729999
 20
6701.4070424650135
 30
0.0
  0
POINT
  5
8C28
  8
DEFPOINTS
 62
     0
 10
8234.0697441730026
 20
5974.6279914081488
 30
0.0
  0
POINT
  5
8C29
  8
DEFPOINTS
 62
     0
 10
8234.0697441730026
 20
6746.3236486621399
 30
0.0
  0
ENDBLK
  5
8AF0
  8
0
  0
BLOCK
  8
0
  2
*D24
 70
     1
 10
0.0
 20
0.0
 30
0.0
  3
*D24
  1

  0
LINE
  5
8C2A
  8
3
 62
     0
 10
3830.081816123567
 20
3634.6279914081479
 30
0.0
 11
4873.6696712624471
 21
3634.6279914081479
 31
0.0
  0
LINE
  5
8C2B
  8
3
 62
     0
 10
3830.081816123567
 20
3484.6279914081479
 30
0.0
 11
4873.6696712624471
 21
3484.6279914081479
 31
0.0
  0
LINE
  5
8C2C
  8
3
 62
     0
 10
4823.6696712624471
 20
3734.6279914081479
 30
0.0
 11
4823.6696712624471
 21
3834.627991408147
 31
0.0
  0
LINE
  5
8C2D
  8
3
 62
     0
 10
4823.6696712624471
 20
3384.6279914081479
 30
0.0
 11
4823.6696712624471
 21
2827.4851342652901
 31
0.0
  0
LINE
  5
8C2E
  8
3
 62
     0
 10
4823.6696712624471
 20
3634.6279914081479
 30
0.0
 11
4823.6696712624471
 21
3484.6279914081479
 31
0.0
  0
INSERT
  5
8C2F
  8
3
 62
     0
  2
_DOT
 10
4823.6696712624471
 20
3634.6279914081479
 30
0.0
 41
100.0
 42
100.0
 43
100.0
 50
270.0
  0
INSERT
  5
8C30
  8
3
 62
     0
  2
_OPEN
 10
4823.6696712624471
 20
3484.6279914081479
 30
0.0
 41
100.0
 42
100.0
 43
100.0
 50
90.0
  0
TEXT
  8
3
  40
150
  5
8C60
  62
0
  72
0
  71
0
 10
4398.67
 20
2790.56
 30
0.000000
  1
150
  0
POINT
  5
8C32
  8
DEFPOINTS
 62
     0
 10
3805.081816123567
 20
3634.6279914081479
 30
0.0
  0
POINT
  5
8C33
  8
DEFPOINTS
 62
     0
 10
3805.081816123567
 20
3484.6279914081479
 30
0.0
  0
POINT
  5
8C34
  8
DEFPOINTS
 62
     0
 10
4823.6696712624471
 20
3484.6279914081479
 30
0.0
  0
ENDBLK
  5
8B1B
  8
0
  0
BLOCK
  8
0
  2
*D25
 70
     1
 10
0.0
 20
0.0
 30
0.0
  3
*D25
  1

  0
LINE
  5
8C35
  8
3
 62
     0
 10
3830.081816123567
 20
3634.6279914081479
 30
0.0
 11
4875.1516842005658
 21
3634.6279914081479
 31
0.0
  0
LINE
  5
8C36
  8
3
 62
     0
 10
3830.081816123567
 20
3749.627991408147
 30
0.0
 11
4875.1516842005658
 21
3749.627991408147
 31
0.0
  0
LINE
  5
8C37
  8
3
 62
     0
 10
4825.1516842005658
 20
3534.627991408147
 30
0.0
 11
4825.1516842005658
 21
3434.627991408147
 31
0.0
  0
LINE
  5
8C38
  8
3
 62
     0
 10
4825.1516842005658
 20
3849.6279914081479
 30
0.0
 11
4825.1516842005658
 21
3949.6279914081479
 31
0.0
  0
LINE
  5
8C39
  8
3
 62
     0
 10
4825.1516842005658
 20
3692.1279914081479
 30
0.0
 11
5293.008827057708
 21
3832.4851342652901
 31
0.0
  0
LINE
  5
8C3A
  8
3
 62
     0
 10
5293.008827057708
 20
3832.4851342652901
 30
0.0
 11
5293.008827057708
 21
4453.9137056938607
 31
0.0
  0
TEXT
  8
3
  40
150
  5
8C61
  62
0
  72
0
  71
0
 10
4828.72
 20
3877.70
 30
0.000000
  1
(115)
  0
LINE
  5
8C3C
  8
3
 62
     0
 10
4825.1516842005658
 20
3634.6279914081479
 30
0.0
 11
4825.1516842005658
 21
3749.627991408147
 31
0.0
  0
LINE
  5
8C3D
  8
3
 62
     0
 10
4825.1516842005658
 20
3634.6279914081479
 30
0.0
 11
4825.1516842005658
 21
3749.627991408147
 31
0.0
  0
INSERT
  5
8C3E
  8
3
 62
     0
  2
_DOT
 10
4825.1516842005658
 20
3634.6279914081479
 30
0.0
 41
100.0
 42
100.0
 43
100.0
 50
90.0
  0
INSERT
  5
8C3F
  8
3
 62
     0
  2
_OPEN
 10
4825.1516842005658
 20
3749.627991408147
 30
0.0
 41
100.0
 42
100.0
 43
100.0
 50
270.0
  0
POINT
  5
8C40
  8
DEFPOINTS
 62
     0
 10
3805.081816123567
 20
3634.6279914081479
 30
0.0
  0
POINT
  5
8C41
  8
DEFPOINTS
 62
     0
 10
3805.081816123567
 20
3749.627991408147
 30
0.0
  0
POINT
  5
8C42
  8
DEFPOINTS
 62
     0
 10
4825.1516842005658
 20
3749.627991408147
 30
0.0
  0
ENDBLK
  5
8B4C
  8
0
  0
BLOCK
  8
0
  2
*D26
 70
     1
 10
0.0
 20
0.0
 30
0.0
  3
*D26
  1

  0
LINE
  5
8C43
  8
3
 62
     0
 10
3014.081816123567
 20
6196.6279914081479
 30
0.0
 11
5464.1564350586132
 21
6196.6279914081479
 31
0.0
  0
LINE
  5
8C44
  8
3
 62
     0
 10
3830.081816123567
 20
3484.6279914081479
 30
0.0
 11
5464.1564350586123
 21
3484.6279914081479
 31
0.0
  0
LINE
  5
8C45
  8
3
 62
     0
 10
5414.1564350586123
 20
6096.6279914081479
 30
0.0
 11
5414.1564350586123
 21
3584.627991408147
 31
0.0
  0
INSERT
  5
8C46
  8
3
 62
     0
  2
_OPEN
 10
5414.1564350586132
 20
6196.6279914081479
 30
0.0
 41
100.0
 42
100.0
 43
100.0
 50
90.0
  0
INSERT
  5
8C47
  8
3
 62
     0
  2
_OPEN
 10
5414.1564350586123
 20
3484.6279914081479
 30
0.0
 41
100.0
 42
100.0
 43
100.0
 50
270.0
  0
TEXT
  8
3
  40
150
  5
8C62
  62
0
  72
0
  71
0
 10
4949.87
 20
4575.13
 30
0.000000
  1
(2712)
  0
POINT
  5
8C49
  8
DEFPOINTS
 62
     0
 10
2989.081816123567
 20
6196.6279914081479
 30
0.0
  0
POINT
  5
8C4A
  8
DEFPOINTS
 62
     0
 10
3805.081816123567
 20
3484.6279914081479
 30
0.0
  0
POINT
  5
8C4B
  8
DEFPOINTS
 62
     0
 10
5414.1564350586123
 20
3484.6279914081479
 30
0.0
  0
ENDBLK
  5
8B59
  8
0
  0
ENDSEC
  0
SECTION
  2
ENTITIES
  0
INSERT
  5
85D5
  8
0
  2
YA_N
 10
6.0
 20
5.0
 30
0.0
  0
LINE
  5
85D7
  8
2
 10
3055.081816123567
 20
6312.9971153107408
 30
0.0
 11
3055.0818161235652
 21
3484.6279914081479
 31
0.0
  0
ARC
  5
85D8
  8
1
 10
3146.081816123567
 20
5208.6279914081479
 30
0.0
 40
1170.0
 50
175.539156302126
 51
244.552077060682
  0
ARC
  5
85D9
  8
1
 10
2964.081816123567
 20
5208.6279914081479
 30
0.0
 40
988.0
 50
84.715267045465467
 51
174.7152670454654
  0
ARC
  5
85DA
  8
1
 10
2978.081816123567
 20
5376.6279914081479
 30
0.0
 40
820.0
 50
354.61184819567251
 51
84.611848195672565
  0
ARC
  5
85DB
  8
1
 10
3132.081816123567
 20
5376.6279914081479
 30
0.0
 40
666.0
 50
348.65614303668389
 51
353.360865922095
  0
LINE
  5
85DC
  8
1
 10
3489.5916948227709
 20
4001.8580232433319
 30
0.0
 11
3880.081816123567
 21
3965.6279914081479
 31
0.0
  0
LINE
  5
85DD
  8
1
 10
3805.081816123567
 20
3749.627991408147
 30
0.0
 11
1905.081816123567
 21
3749.627991408147
 31
0.0
1001
ACAD
1000
ASC_BOUNDS
1002
{
1070
    19
1005
0
1002
}
  0
LINE
  5
85DE
  8
1
 10
3805.081816123567
 20
3899.627991408147
 30
0.0
 11
1895.081816123567
 21
3899.627991408147
 31
0.0
  0
LINE
  5
85DF
  8
1
 10
3805.081816123567
 20
3899.627991408147
 30
0.0
 11
3805.081816123567
 21
3749.627991408147
 31
0.0
  0
LINE
  5
85E1
  8
2
 10
2155.081816123567
 20
4425.482508013858
 30
0.0
 11
2155.081816123567
 21
3749.627991408147
 31
0.0
  0
LINE
  5
85E2
  8
2
 10
2435.3960328817188
 20
4159.627991408147
 30
0.0
 11
1858.4685076501919
 21
4159.627991408147
 31
0.0
  0
LINE
  5
85E3
  8
1
 10
3880.081816123567
 20
3912.6279914081479
 30
0.0
 11
3830.081816123567
 21
3912.6279914081479
 31
0.0
  0
LINE
  5
85E4
  8
1
 10
3880.081816123567
 20
5298.6279914081479
 30
0.0
 11
3830.081816123567
 21
5298.6279914081479
 31
0.0
  0
LINE
  5
85E5
  8
1
 10
3880.081816123567
 20
5245.6279914081479
 30
0.0
 11
3785.0710962806002
 21
5245.6279914081479
 31
0.0
  0
LINE
  5
85E6
  8
1
 10
3830.081816123567
 20
3912.6279914081479
 30
0.0
 11
3830.081816123567
 21
5298.6279914081479
 31
0.0
  0
LINE
  5
85E7
  8
1
 10
3880.081816123567
 20
3912.6279914081479
 30
0.0
 11
3880.081816123567
 21
5298.6279914081479
 31
0.0
  0
LINE
  5
85E8
  8
1
 10
3877.081816123567
 20
3912.6279914081479
 30
0.0
 11
3877.081816123567
 21
5298.6279914081479
 31
0.0
  0
LINE
  5
85E9
  8
1
 10
6249.0697441729999
 20
3899.627991408147
 30
0.0
 11
6249.0697441729999
 21
3749.627991408147
 31
0.0
  0
LINE
  5
85EA
  8
1
 10
6249.0697441729999
 20
3749.627991408147
 30
0.0
 11
8304.0697441730008
 21
3749.627991408147
 31
0.0
1001
ACAD
1000
ASC_BOUNDS
1002
{
1070
    19
1005
0
1005
0
1002
}
  0
LINE
  5
85EC
  8
1
 10
8304.0697441730008
 20
3899.627991408147
 30
0.0
 11
8304.0697441730008
 21
3749.627991408147
 31
0.0
  0
LINE
  5
85ED
  8
1
 10
8224.0697441730008
 20
3912.6279914081479
 30
0.0
 11
8224.0697441730044
 21
5245.6279914081479
 31
0.0
  0
LINE
  5
85EE
  8
1
 10
7274.0697441730008
 20
3912.6279914081479
 30
0.0
 11
7274.0697441730008
 21
5245.6279914081479
 31
0.0
  0
LINE
  5
85EF
  8
1
 10
7221.0697441729999
 20
3912.6279914081479
 30
0.0
 11
8277.0697441730008
 21
3912.6279914081479
 31
0.0
  0
LINE
  5
85F0
  8
1
 10
8277.0697441730008
 20
3912.6279914081479
 30
0.0
 11
8277.0697441730008
 21
5298.6279914081479
 31
0.0
  0
LINE
  5
85F1
  8
1
 10
7221.0697441729999
 20
3912.6279914081479
 30
0.0
 11
7221.0697441729999
 21
5298.6279914081479
 31
0.0
  0
LINE
  5
85F2
  8
2
 10
3958.5183543724202
 20
5299.627991408147
 30
0.0
 11
1894.9265782055179
 21
5299.627991408147
 31
0.0
  0
LINE
  5
85F3
  8
2
 10
6122.8755837907383
 20
5299.627991408147
 30
0.0
 11
8373.1395046730522
 21
5299.627991408147
 31
0.0
  0
LINE
  5
85F4
  8
1
 10
8226.3697441730019
 20
4624.627991408147
 30
0.0
 11
8234.0697441730026
 21
4624.627991408147
 31
0.0
  0
LINE
  5
85F5
  8
1
 10
8203.0537140084707
 20
4642.127991408147
 30
0.0
 11
8252.5287034668218
 21
4642.127991408147
 31
0.0
  0
LINE
  5
85F6
  8
1
 10
8203.0537140084707
 20
5957.1279914081479
 30
0.0
 11
8252.5287034668218
 21
5957.1279914081479
 31
0.0
  0
LINE
  5
85F7
  8
1
 10
8226.3697441730019
 20
5974.6279914081488
 30
0.0
 11
8234.0697441730026
 21
5974.6279914081488
 31
0.0
  0
LINE
  5
85F8
  8
2
 10
6122.8755837907383
 20
4159.627991408147
 30
0.0
 11
6299.3035850370661
 21
4159.627991408147
 31
0.0
  0
LINE
  5
85F9
  8
2
 10
3055.081816123567
 20
10550.62853774078
 30
0.0
 11
3055.081816123567
 21
8489.9572871205801
 31
0.0
  0
LINE
  5
85FA
  8
2
 10
3659.1710100405871
 20
10121.006088529921
 30
0.0
 11
2443.6049908894352
 21
10121.006088529921
 31
0.0
  0
LINE
  5
85FB
  8
2
 10
7749.0697441729999
 20
6312.9971153107408
 30
0.0
 11
7749.0697441730017
 21
3484.6279914081479
 31
0.0
  0
POINT
  5
85FD
  8
1
 10
1980.2815315129151
 20
5299.627991408147
 30
0.0
  0
INSERT
  5
85FE
  8
0
  2
YA_N
 10
-1757.227407310314
 20
-1218.7864174577801
 30
0.0
 41
30.0
 42
30.0
 43
30.0
  0
ARC
  5
8600
  8
1
 10
2155.081816123567
 20
4159.627991408147
 30
0.0
 40
203.5
 50
285.60369900000001
 51
254.39624000000001
  0
LINE
  5
8601
  8
1
 10
2100.3437791235669
 20
3963.627991408147
 30
0.0
 11
2209.8198531235671
 21
3963.627991408147
 31
0.0
  0
ARC
  5
8602
  8
1
 10
2339.081816123567
 20
4033.954652408147
 30
0.0
 40
5.0000669999999987
 50
0.0
 51
55.056334999999997
  0
LINE
  5
8603
  8
1
 10
2344.081816123567
 20
4033.954652408147
 30
0.0
 11
2344.081816123567
 21
3959.627991408147
 31
0.0
  0
LINE
  5
8604
  8
1
 10
2341.945586123567
 20
4038.0532844081481
 30
0.0
 11
2326.0077201235672
 21
4049.189759408147
 31
0.0
  0
LINE
  5
8605
  8
1
 10
1966.081816123567
 20
4033.954652408147
 30
0.0
 11
1966.081816123567
 21
3959.627991408147
 31
0.0
  0
LINE
  5
8606
  8
1
 10
1968.2179251235671
 20
4038.0532844081481
 30
0.0
 11
1984.155791123567
 21
4049.189759408147
 31
0.0
  0
ARC
  5
8607
  8
1
 10
1971.081816123567
 20
4033.954652408147
 30
0.0
 40
5.0
 50
124.94366100000001
 51
180.0
  0
LINE
  5
8608
  8
1
 10
2398.5048411661769
 20
3959.627991408147
 30
0.0
 11
2225.081816123567
 21
3959.627991408147
 31
0.0
  0
LINE
  5
8609
  8
1
 10
2415.081816123567
 20
3899.627991408147
 30
0.0
 11
2398.5048411661769
 21
3959.627991408147
 31
0.0
  0
LINE
  5
860A
  8
1
 10
1895.081816123567
 20
3899.627991408147
 30
0.0
 11
1911.262772668686
 21
3959.627991408147
 31
0.0
  0
LINE
  5
860B
  8
1
 10
2225.081816123567
 20
3949.6279914081479
 30
0.0
 11
2085.081816123567
 21
3949.6279914081479
 31
0.0
  0
LINE
  5
860C
  8
1
 10
2225.081816123567
 20
3909.627991408147
 30
0.0
 11
2085.081816123567
 21
3909.627991408147
 31
0.0
  0
LINE
  5
860D
  8
1
 10
2085.081816123567
 20
3959.627991408147
 30
0.0
 11
2085.081816123567
 21
3949.6279914081479
 31
0.0
  0
LINE
  5
860E
  8
1
 10
2225.081816123567
 20
3959.627991408147
 30
0.0
 11
2225.081816123567
 21
3949.6279914081479
 31
0.0
  0
LINE
  5
860F
  8
1
 10
2225.081816123567
 20
3909.627991408147
 30
0.0
 11
2225.081816123567
 21
3899.627991408147
 31
0.0
  0
LINE
  5
8610
  8
1
 10
2085.081816123567
 20
3909.627991408147
 30
0.0
 11
2085.081816123567
 21
3899.627991408147
 31
0.0
  0
LINE
  5
8611
  8
1
 10
2085.081816123567
 20
3959.627991408147
 30
0.0
 11
1911.262772668686
 21
3959.627991408147
 31
0.0
  0
INSERT
  5
8612
  8
0
  2
YA_N
 10
-755.24367588184748
 20
-538.554984833856
 30
0.0
 41
30.0
 42
30.0
 43
30.0
  0
CIRCLE
  5
8614
  8
1
 10
3055.081816123567
 20
5299.627991408147
 30
0.0
 40
190.5
  0
LINE
  5
8615
  8
1
 10
7221.0697441729999
 20
5298.6279914081479
 30
0.0
 11
8277.0697441730008
 21
5298.6279914081479
 31
0.0
  0
LINE
  5
8616
  8
1
 10
7274.0697441730008
 20
5245.6279914081479
 30
0.0
 11
8224.0697441730008
 21
5245.6279914081479
 31
0.0
  0
LINE
  5
8617
  8
1
 10
7274.0697441730008
 20
3965.6279914081479
 30
0.0
 11
8224.0697441730008
 21
3965.6279914081479
 31
0.0
  0
LINE
  5
8618
  8
1
 10
8224.0697441730008
 20
5298.6279914081479
 30
0.0
 11
8224.0697441730008
 21
6193.0047426694764
 31
0.0
  0
LINE
  5
8619
  8
1
 10
7274.0697441730008
 20
5298.6279914081479
 30
0.0
 11
7274.0697441730008
 21
6193.0047426694764
 31
0.0
  0
LINE
  5
861A
  8
1
 10
1905.081816123567
 20
3899.627991408147
 30
0.0
 11
1905.081816123567
 21
3749.627991408147
 31
0.0
  0
LINE
  5
861F
  8
1
 10
3505.081816123567
 20
3899.627991408147
 30
0.0
 11
3505.081816123567
 21
3749.627991408147
 31
0.0
  0
LINE
  5
862D
  8
1
 10
3805.081816123567
 20
10676.006088529921
 30
0.0
 11
2305.081816123567
 21
10676.006088529921
 31
0.0
  0
LINE
  5
862E
  8
1
 10
3805.081816123567
 20
9566.0060885299245
 30
0.0
 11
3505.081816123567
 21
9566.0060885299245
 31
0.0
  0
LINE
  5
862F
  8
1
 10
3505.081816123567
 20
8621.0060885299245
 30
0.0
 11
1905.081816123567
 21
8621.0060885299245
 31
0.0
  0
LINE
  5
8630
  8
1
 10
3805.081816123567
 20
10676.006088529921
 30
0.0
 11
3805.081816123567
 21
9566.0060885299245
 31
0.0
  0
LINE
  5
8631
  8
1
 10
2305.081816123567
 20
10676.006088529921
 30
0.0
 11
2305.081816123567
 21
9641.0060885299245
 31
0.0
  0
LINE
  5
8632
  8
1
 10
1905.081816123567
 20
9641.0060885299245
 30
0.0
 11
1905.081816123567
 21
8621.0060885299226
 31
0.0
  0
LINE
  5
8633
  8
1
 10
2305.081816123567
 20
9641.0060885299245
 30
0.0
 11
1905.081816123567
 21
9641.0060885299245
 31
0.0
  0
LINE
  5
8634
  8
1
 10
3505.081816123567
 20
9566.0060885299245
 30
0.0
 11
3505.081816123567
 21
8621.0060885299245
 31
0.0
  0
POINT
  5
8635
  8
1
 10
2305.081816123567
 20
10676.006088529921
 30
0.0
  0
POINT
  5
8636
  8
1
 10
1905.081816123567
 20
9641.0060885299245
 30
0.0
  0
POINT
  5
8637
  8
1
 10
3505.081816123567
 20
8621.0060885299245
 30
0.0
  0
POINT
  5
8638
  8
1
 10
3805.081816123567
 20
9566.0060885299245
 30
0.0
  0
LINE
  5
8640
  8
1
 10
7194.0697441730026
 20
3899.627991408147
 30
0.0
 11
7194.0697441730026
 21
3749.627991408147
 31
0.0
  0
LINE
  5
8642
  8
1
 10
6249.0697441729999
 20
3899.627991408152
 30
0.0
 11
8304.0697441730008
 21
3899.627991408147
 31
0.0
  0
LINE
  5
8643
  8
1
 10
6322.0697441729999
 20
5184.6279914081479
 30
0.0
 11
6322.0697441730017
 21
3899.6279914081501
 31
0.0
  0
LINE
  5
8644
  8
1
 10
6322.0697441730008
 20
5184.6279914081479
 30
0.0
 11
7166.069744172999
 21
5184.6279914081479
 31
0.0
  0
LINE
  5
8645
  8
1
 10
7166.069744172999
 20
5184.6279914081479
 30
0.0
 11
7166.0697441730017
 21
3899.6279914081488
 31
0.0
  0
LINE
  5
8646
  8
1
 10
6284.0697441730008
 20
5337.1279914081479
 30
0.0
 11
6284.0697441729999
 21
5262.1279914081479
 31
0.0
  0
LINE
  5
8647
  8
1
 10
6264.0697441730008
 20
5332.1279914081479
 30
0.0
 11
6284.0697441730008
 21
5332.1279914081479
 31
0.0
  0
LINE
  5
8648
  8
1
 10
6264.0697441730008
 20
5267.1279914081479
 30
0.0
 11
6284.0697441729999
 21
5267.1279914081479
 31
0.0
  0
CIRCLE
  5
8649
  8
1
 10
2155.081816123567
 20
4159.627991408147
 30
0.0
 40
127.0
  0
LINE
  5
864A
  8
1
 10
6154.0697441730008
 20
5490.127991408147
 30
0.0
 11
6154.0697441730008
 21
4032.627991408147
 31
0.0
  0
LINE
  5
864B
  8
1
 10
6154.0697441730008
 20
5490.127991408147
 30
0.0
 11
6264.0697441730008
 21
5490.127991408147
 31
0.0
  0
LINE
  5
864C
  8
1
 10
6154.0697441730008
 20
5109.1279914081479
 30
0.0
 11
6264.0697441730008
 21
5109.1279914081479
 31
0.0
  0
LINE
  5
864D
  8
1
 10
6154.0697441730008
 20
4286.6279914081479
 30
0.0
 11
6264.0697441730017
 21
4286.6279914081479
 31
0.0
  0
LINE
  5
864E
  8
1
 10
6154.0697441730008
 20
4032.6279914081479
 30
0.0
 11
6264.0697441730017
 21
4032.6279914081479
 31
0.0
  0
LINE
  5
864F
  8
1
 10
6264.0697441730008
 20
5490.127991408147
 30
0.0
 11
6264.0697441730017
 21
4032.627991408147
 31
0.0
  0
LINE
  5
8650
  8
1
 10
6302.0697441729999
 20
5579.6279914081479
 30
0.0
 11
6302.0697441730026
 21
3939.6279914081479
 31
0.0
  0
LINE
  5
8651
  8
1
 10
6102.0697441729999
 20
5579.6279914081479
 30
0.0
 11
6102.0697441729999
 21
3939.6279914081479
 31
0.0
  0
LINE
  5
8652
  8
1
 10
6102.0697441729999
 20
5579.6279914081479
 30
0.0
 11
6302.0697441729999
 21
5579.6279914081479
 31
0.0
  0
LINE
  5
8653
  8
1
 10
6102.0697441729999
 20
3939.6279914081479
 30
0.0
 11
6302.0697441729999
 21
3939.6279914081479
 31
0.0
  0
LINE
  5
8654
  8
1
 10
8234.0697441730026
 20
4624.627991408147
 30
0.0
 11
8234.0697441730026
 21
5974.6279914081488
 31
0.0
  0
POINT
  5
8655
  8
1
 10
6102.0697441729999
 20
5579.6279914081479
 30
0.0
  0
POINT
  5
8656
  8
1
 10
8234.0697441730026
 20
4624.627991408147
 30
0.0
  0
LINE
  5
8662
  8
1
 10
6284.0697441730008
 20
5337.1279914081479
 30
0.0
 11
7274.0697441730008
 21
5337.1279914081524
 31
0.0
  0
LINE
  5
8663
  8
1
 10
6284.069744172999
 20
5262.1279914081479
 30
0.0
 11
7221.0697441729999
 21
5262.1279914081479
 31
0.0
  0
LINE
  5
8664
  8
1
 10
3017.581816123567
 20
8656.0060885299226
 30
0.0
 11
3017.581816123567
 21
9646.0060885299245
 31
0.0
  0
LINE
  5
8665
  8
1
 10
3092.581816123567
 20
8656.0060885299263
 30
0.0
 11
3092.5818161235729
 21
9646.0060885299245
 31
0.0
  0
LINE
  5
8666
  8
1
 10
3335.081816123567
 20
8474.0060885299226
 30
0.0
 11
1935.081816123567
 21
8474.0060885299226
 31
0.0
  0
LINE
  5
8667
  8
1
 10
3335.081816123567
 20
8674.0060885299245
 30
0.0
 11
1935.081816123567
 21
8674.0060885299245
 31
0.0
  0
LINE
  5
8668
  8
1
 10
3245.581816123567
 20
8636.0060885299245
 30
0.0
 11
2028.081816123567
 21
8636.0060885299245
 31
0.0
  0
LINE
  5
8669
  8
1
 10
3245.581816123567
 20
8526.0060885299226
 30
0.0
 11
2028.081816123567
 21
8526.0060885299226
 31
0.0
  0
LINE
  5
866A
  8
1
 10
3310.081816123567
 20
8694.0060885299226
 30
0.0
 11
3092.581816123567
 21
8694.0060885299245
 31
0.0
  0
LINE
  5
866B
  8
1
 10
1935.081816123567
 20
8474.0060885299226
 30
0.0
 11
1935.081816123567
 21
8674.0060885299245
 31
0.0
  0
LINE
  5
866C
  8
1
 10
2028.081816123567
 20
8526.0060885299226
 30
0.0
 11
2028.081816123567
 21
8636.0060885299245
 31
0.0
  0
LINE
  5
866D
  8
1
 10
2282.081816123567
 20
8526.0060885299226
 30
0.0
 11
2282.081816123567
 21
8636.0060885299245
 31
0.0
  0
LINE
  5
866E
  8
1
 10
2864.581816123567
 20
8526.0060885299226
 30
0.0
 11
2864.581816123567
 21
8636.0060885299245
 31
0.0
  0
LINE
  5
866F
  8
1
 10
3335.081816123567
 20
8474.0060885299226
 30
0.0
 11
3335.081816123567
 21
8674.0060885299245
 31
0.0
  0
POINT
  5
8670
  8
1
 10
3335.081816123567
 20
8474.0060885299226
 30
0.0
  0
LINE
  5
8671
  8
1
 10
3022.581816123567
 20
8636.0060885299245
 30
0.0
 11
3022.581816123567
 21
8656.0060885299263
 31
0.0
  0
LINE
  5
8672
  8
1
 10
3087.581816123567
 20
8636.0060885299245
 30
0.0
 11
3087.581816123567
 21
8656.0060885299263
 31
0.0
  0
LINE
  5
8673
  8
1
 10
3092.581816123567
 20
8656.0060885299263
 30
0.0
 11
3017.581816123567
 21
8656.0060885299263
 31
0.0
  0
LINE
  5
8674
  8
1
 10
3245.581816123567
 20
8526.0060885299226
 30
0.0
 11
3245.581816123567
 21
8636.0060885299245
 31
0.0
  0
LINE
  5
8675
  8
1
 10
3310.081816123567
 20
9538.0060885299226
 30
0.0
 11
3092.5818161235729
 21
9538.0060885299245
 31
0.0
  0
LINE
  5
8676
  8
1
 10
3880.081816123567
 20
9593.0060885299226
 30
0.0
 11
3830.081816123567
 21
9593.0060885299226
 31
0.0
  0
LINE
  5
8677
  8
1
 10
3830.081816123567
 20
9646.0060885299245
 30
0.0
 11
1976.081816123567
 21
9646.0060885299245
 31
0.0
  0
LINE
  5
8678
  8
1
 10
3880.081816123567
 20
10649.006088529921
 30
0.0
 11
3830.081816123567
 21
10649.006088529921
 31
0.0
  0
LINE
  5
8679
  8
1
 10
3830.081816123567
 20
10596.006088529921
 30
0.0
 11
1976.081816123567
 21
10596.006088529921
 31
0.0
  0
LINE
  5
867A
  8
1
 10
3880.081816123567
 20
10649.006088529921
 30
0.0
 11
3880.081816123567
 21
9593.0060885299226
 31
0.0
  0
LINE
  5
867B
  8
1
 10
1976.081816123567
 20
10596.006088529921
 30
0.0
 11
1976.081816123567
 21
9646.0060885299245
 31
0.0
  0
LINE
  5
867C
  8
1
 10
3830.081816123567
 20
10649.006088529921
 30
0.0
 11
3830.081816123567
 21
9593.0060885299226
 31
0.0
  0
LINE
  5
867F
  8
2
 10
2155.081816123567
 20
8488.3483566485902
 30
0.0
 11
2155.081816123567
 21
9473.7156867083668
 31
0.0
  0
LINE
  5
8680
  8
1
 10
2358.581816123567
 20
9380.5060885299245
 30
0.0
 11
1951.581816123567
 21
9380.5060885299245
 31
0.0
  0
LINE
  5
8681
  8
1
 10
1951.581816123567
 20
8731.0060885299245
 30
0.0
 11
2155.081816123567
 21
8731.0060885299245
 31
0.0
  0
LINE
  5
8683
  8
1
 10
2125.081816123567
 20
8721.0060885299226
 30
0.0
 11
2125.081816123567
 21
8581.0060885299245
 31
0.0
  0
LINE
  5
8684
  8
1
 10
2185.081816123567
 20
8721.0060885299226
 30
0.0
 11
2185.081816123567
 21
8581.0060885299245
 31
0.0
  0
LINE
  5
8685
  8
1
 10
2358.581816123567
 20
8731.0060885299245
 30
0.0
 11
2155.081816123567
 21
8731.0060885299245
 31
0.0
  0
LINE
  5
8686
  8
1
 10
2122.581816123567
 20
8721.0060885299226
 30
0.0
 11
2187.581816123567
 21
8721.0060885299226
 31
0.0
  0
LINE
  5
8687
  8
1
 10
2122.581816123567
 20
8721.0060885299226
 30
0.0
 11
2122.581816123567
 21
8731.0060885299245
 31
0.0
  0
LINE
  5
8688
  8
1
 10
2187.581816123567
 20
8721.0060885299226
 30
0.0
 11
2187.581816123567
 21
8731.0060885299245
 31
0.0
  0
LINE
  5
868A
  8
1
 10
2185.081816123567
 20
8581.0060885299245
 30
0.0
 11
2125.081816123567
 21
8581.0060885299245
 31
0.0
  0
LINE
  5
868B
  8
1
 10
2358.581816123567
 20
8731.0060885299245
 30
0.0
 11
2358.581816123567
 21
9380.5060885299245
 31
0.0
  0
LINE
  5
868C
  8
1
 10
1951.581816123567
 20
8731.0060885299245
 30
0.0
 11
1951.581816123567
 21
9380.5060885299245
 31
0.0
  0
DIMENSION
  5
8699
  8
3
  2
*D2
 10
3805.081816123567
 20
10912.345546157891
 30
0.0
 11
2979.4626159319519
 21
10912.345546157891
 31
0.0
 70
   128
 13
2305.081816123567
 23
10676.006088529921
 33
0.0
 14
3805.081816123567
 24
10676.006088529921
 34
0.0
1001
ACAD
1000
DSTYLE
1002
{
1070
   287
1070
     3
1070
    40
1040
50.0
1070
   143
1040
0.039
1070
   172
1070
     1
1070
   271
1070
     0
1070
   279
1070
     0
1070
   288
1070
     1
1002
}
  0
DIMENSION
  5
86B1
  8
3
  2
*D3
 10
4260.2542064469253
 20
9566.0060885299226
 30
0.0
 11
4260.2542064469226
 21
10098.95487750085
 31
0.0
 70
   128
 13
3805.081816123567
 23
10676.006088529921
 33
0.0
 14
3805.081816123567
 24
9566.0060885299245
 34
0.0
 50
90.0
1001
ACAD
1000
DSTYLE
1002
{
1070
   287
1070
     3
1070
    40
1040
50.0
1070
   143
1040
0.039
1070
   172
1070
     1
1070
   271
1070
     0
1070
   279
1070
     0
1070
   288
1070
     1
1002
}
  0
DIMENSION
  5
86BD
  8
3
  2
*D4
 10
4260.2542064469226
 20
8621.0060885299226
 30
0.0
 11
4135.2542064469217
 21
9093.5060885299263
 31
0.0
 70
     0
 13
3805.081816123567
 23
9566.0060885299245
 33
0.0
 14
3505.081816123567
 24
8621.0060885299245
 34
0.0
 50
90.0
1001
ACAD
1000
DSTYLE
1002
{
1070
   287
1070
     4
1070
    40
1040
50.0
1070
    75
1070
     1
1070
   143
1040
0.039
1070
   172
1070
     1
1070
   271
1070
     0
1070
   279
1070
     1
1070
   288
1070
     1
1002
}
  0
DIMENSION
  5
86CA
  8
3
  2
*D5
 10
1905.081816123567
 20
8081.7460686846171
 30
0.0
 11
2686.400135358097
 21
8081.7460686846171
 31
0.0
 70
   128
 13
3505.081816123567
 23
8621.0060885299245
 33
0.0
 14
1905.081816123567
 24
8621.0060885299245
 34
0.0
1001
ACAD
1000
DSTYLE
1002
{
1070
   287
1070
     3
1070
    40
1040
50.0
1070
   143
1040
0.039
1070
   172
1070
     1
1070
   271
1070
     0
1070
   279
1070
     0
1070
   288
1070
     1
1002
}
  0
DIMENSION
  5
86D7
  8
3
  2
*D6
 10
1503.296117097635
 20
9641.0060885299245
 30
0.0
 11
1503.2961170976339
 21
9122.8860957179131
 31
0.0
 70
   128
 13
1905.081816123567
 23
8621.0060885299245
 33
0.0
 14
1905.081816123567
 24
9641.0060885299245
 34
0.0
 50
90.0
1001
ACAD
1000
DSTYLE
1002
{
1070
   287
1070
     3
1070
    40
1040
50.0
1070
   143
1040
0.039
1070
   172
1070
     1
1070
   271
1070
     0
1070
   279
1070
     0
1070
   288
1070
     1
1002
}
  0
DIMENSION
  5
87CB
  8
3
  2
*D7
 10
3055.081816123567
 20
3145.638338032295
 30
0.0
 11
2478.1609798989662
 21
3145.638338032295
 31
0.0
 70
   128
 13
1905.081816123567
 23
3484.6279914081479
 33
0.0
 14
3055.081816123567
 24
3484.6279914081479
 34
0.0
1001
ACAD
1000
DSTYLE
1002
{
1070
   287
1070
     3
1070
    40
1040
50.0
1070
   143
1040
0.039
1070
   172
1070
     1
1070
   271
1070
     0
1070
   279
1070
     0
1070
   288
1070
     1
1002
}
  0
DIMENSION
  5
87D7
  8
3
  2
*D8
 10
3805.081816123567
 20
3145.638338032295
 30
0.0
 11
3430.081816123567
 21
3270.6383380322941
 31
0.0
 70
     0
 13
3055.081816123567
 23
3484.6279914081479
 33
0.0
 14
3805.081816123567
 24
3484.6279914081479
 34
0.0
1001
ACAD
1000
DSTYLE
1002
{
1070
   287
1070
     4
1070
    40
1040
50.0
1070
    75
1070
     1
1070
   143
1040
0.039
1070
   172
1070
     1
1070
   271
1070
     0
1070
   279
1070
     1
1070
   288
1070
     1
1002
}
  0
DIMENSION
  5
87E4
  8
3
  2
*D9
 10
7749.0697441730017
 20
3145.638338032295
 30
0.0
 11
7072.8959754724119
 21
3145.638338032295
 31
0.0
 70
   128
 13
6249.0697441729999
 23
3484.6279914081479
 33
0.0
 14
7749.0697441730017
 24
3484.6279914081479
 34
0.0
1001
ACAD
1000
DSTYLE
1002
{
1070
   287
1070
     3
1070
    40
1040
50.0
1070
   143
1040
0.039
1070
   172
1070
     1
1070
   271
1070
     0
1070
   279
1070
     0
1070
   288
1070
     1
1002
}
  0
DIMENSION
  5
87F2
  8
3
  2
*D10
 10
8304.0697441730008
 20
3145.638338032295
 30
0.0
 11
8042.9367825009622
 21
3267.747357576372
 31
0.0
 12
0.0
 22
-695.0
 32
0.0
 70
   128
 13
7749.0697441730017
 23
3484.6279914081479
 33
0.0
 14
8304.0697441730008
 24
3484.6279914081479
 34
0.0
1001
ACAD
1000
DSTYLE
1002
{
1070
   288
1070
     1
1070
   172
1070
     1
1070
    75
1070
     1
1070
    40
1040
50.0
1070
   271
1070
     0
1070
   143
1040
0.039
1002
}
  0
DIMENSION
  5
8822
  8
3
  2
*D11
 10
8666.1480083497336
 20
4674.627991408147
 30
0.0
 11
8666.1480083497281
 21
5319.6254043207673
 31
0.0
 70
   128
 13
8234.0697441730026
 23
5924.627991408147
 33
0.0
 14
8234.0697441730026
 24
4674.627991408147
 34
0.0
 50
90.0
1001
ACAD
1000
DSTYLE
1002
{
1070
   287
1070
     3
1070
     3
1000
φ<>
1070
    40
1040
50.0
1070
   143
1040
0.039
1070
   172
1070
     1
1070
   271
1070
     0
1070
   279
1070
     0
1070
   288
1070
     1
1002
}
  0
LINE
  5
892C
  8
4
 10
9250.0
 20
2500.0
 30
0.0
 11
9250.0
 21
1500.0
 31
0.0
  0
LINE
  5
892D
  8
4
 10
5750.0
 20
2500.0
 30
0.0
 11
5750.0
 21
1500.0
 31
0.0
  0
LINE
  5
892E
  8
4
 10
3250.0
 20
2500.0
 30
0.0
 11
3250.0
 21
1500.0
 31
0.0
  0
LINE
  5
8931
  8
4
 10
3250.0
 20
1500.0
 30
0.0
 11
9250.0
 21
1500.0
 31
0.0
  0
LINE
  5
8932
  8
4
 10
3250.0
 20
2000.0
 30
0.0
 11
9250.0
 21
2000.0
 31
0.0
  0
TEXT
  5
8933
  8
4
 10
3442.5104042345079
 20
2157.7151293330639
 30
0.0
 40
250.0
  1
機器名称
  0
TEXT
  5
8934
  8
4
 10
3431.2905301239871
 20
1608.225783660054
 30
0.0
 40
250.0
  1
機器型番
  0
TEXT
  5
8935
  8
4
 10
5891.5410279524913
 20
2109.1617211884191
 30
0.0
 40
212.5
  1
ミツヤ多翼送風機
  0
TEXT
  5
8936
  8
4
 10
5933.2724779274031
 20
1585.797921399716
 30
0.0
 40
250.0
  1
MF#8-1
  0
TEXT
  5
8938
  8
4
 10
4087.177885253594
 20
11917.14420666257
 30
0.0
 40
270.0
  1
床置防振ベット
  0
TEXT
  5
8939
  8
4
 10
1464.3710723791439
 20
12669.40488099649
 30
0.0
 40
360.0
  1
遠心式片吸込片持多翼ファン
  0
LINE
  5
893A
  8
4
 10
1250.0
 20
12347.043771324021
 30
0.0
 11
9250.0
 21
12347.043771324021
 31
0.0
  0
LINE
  5
893B
  8
4
 10
1250.0
 20
13347.043771324021
 30
0.0
 11
9250.0
 21
13347.043771324021
 31
0.0
  0
LINE
  5
893C
  8
4
 10
3250.0
 20
2500.0
 30
0.0
 11
9250.0
 21
2500.0
 31
0.0
  0
LINE
  5
893D
  8
4
 10
1250.0
 20
13347.043771324021
 30
0.0
 11
1250.0
 21
12347.043771324021
 31
0.0
  0
TEXT
  5
893E
  8
4
 10
1907.8837240400819
 20
11911.59738773171
 30
0.0
 40
270.0
  1
左回転右横向
  0
TEXT
  5
893F
  8
4
 10
7344.8477962464494
 20
13530.30540747654
 30
0.0
 40
280.0
  1
No.
  0
TEXT
  5
8940
  8
4
 10
6556.4803130000646
 20
11917.14420666257
 30
0.0
 40
270.0
  1
縮尺：1/50
  0
LINE
  5
8941
  8
4
 10
9250.0
 20
13347.043771324021
 30
0.0
 11
9250.0
 21
12347.043771324021
 31
0.0
  0
LINE
  5
8942
  8
4
 10
10500.0
 20
14750.0
 30
0.0
 11
10500.0
 21
14750.0
 31
0.0
  0
LINE
  5
8943
  8
4
 10
7203.0871117993229
 20
13406.317915627
 30
0.0
 11
7203.0871117993229
 21
13933.26130774876
 31
0.0
  0
LINE
  5
8944
  8
4
 10
7203.0871117993229
 20
13933.26130774876
 30
0.0
 11
9250.0
 21
13933.26130774876
 31
0.0
  0
LINE
  5
8945
  8
4
 10
9250.0
 20
13933.26130774876
 30
0.0
 11
9250.0
 21
13406.317915627
 31
0.0
  0
LINE
  5
8946
  8
4
 10
9250.0
 20
13406.317915627
 30
0.0
 11
7203.0871117993229
 21
13406.317915627
 31
0.0
  0
LINE
  5
8947
  8
4
 10
0.0
 20
0.0
 30
0.0
 11
0.0
 21
14750.0
 31
0.0
  0
LINE
  5
8948
  8
4
 10
0.0
 20
14750.0
 30
0.0
 11
10500.0
 21
14750.0
 31
0.0
  0
LINE
  5
8949
  8
4
 10
10500.0
 20
14750.0
 30
0.0
 11
10500.0
 21
0.0
 31
0.0
  0
LINE
  5
894A
  8
4
 10
10500.0
 20
0.0
 30
0.0
 11
0.0
 21
0.0
 31
0.0
  0
LINE
  5
897A
  8
1
 10
6209.0697441729999
 20
4125.6279914081479
 30
0.0
 11
6209.0697441729999
 21
4189.6279914081479
 31
0.0
  0
LINE
  5
897B
  8
1
 10
6319.0697441730008
 20
4125.6279914081479
 30
0.0
 11
6319.0697441730008
 21
4129.6279914081479
 31
0.0
  0
LINE
  5
8988
  8
1
 10
6322.0697441730008
 20
4129.6279914081479
 30
0.0
 11
6209.0697441729999
 21
4129.6279914081479
 31
0.0
  0
LINE
  5
8989
  8
1
 10
6322.0697441730008
 20
4189.6279914081479
 30
0.0
 11
6209.0697441729999
 21
4189.6279914081479
 31
0.0
  0
LINE
  5
898D
  8
1
 10
6319.0697441730008
 20
4125.6279914081479
 30
0.0
 11
6209.0697441729999
 21
4125.6279914081479
 31
0.0
  0
DIMENSION
  5
89BC
  8
3
  2
*D13
 10
1905.081816123567
 20
10912.345546157891
 30
0.0
 11
2105.081816123567
 21
11040.910032208471
 31
0.0
 12
-600.0
 22
0.0
 32
0.0
 70
   128
 13
2305.081816123567
 23
10676.006088529921
 33
0.0
 14
1905.081816123567
 24
9641.0060885299245
 34
0.0
1001
ACAD
1000
DSTYLE
1002
{
1070
   288
1070
     1
1070
   172
1070
     1
1070
    75
1070
     1
1070
    40
1040
50.0
1070
   271
1070
     0
1070
   143
1040
0.039
1002
}
  0
LINE
  5
89E5
  8
1
 10
2799.7878678991729
 20
5184.6279914081488
 30
0.0
 11
3310.3757643479621
 21
5184.6279914081479
 31
0.0
  0
LINE
  5
8A08
  8
1
 10
3310.081816123567
 20
9538.0060885299226
 30
0.0
 11
3310.081816123567
 21
8694.0060885299226
 31
0.0
  0
LINE
  5
8A09
  8
1
 10
2800.081816123567
 20
9538.0060885299245
 30
0.0
 11
2800.081816123567
 21
8694.0060885299226
 31
0.0
  0
LINE
  5
8A0A
  8
1
 10
3017.581816123567
 20
9538.0060885299226
 30
0.0
 11
2800.081816123567
 21
9538.0060885299245
 31
0.0
  0
LINE
  5
8A0B
  8
1
 10
3017.581816123567
 20
8694.0060885299245
 30
0.0
 11
2800.081816123567
 21
8694.0060885299245
 31
0.0
  0
LINE
  5
8A30
  8
1
 10
3310.3757643479621
 20
5184.6279914081479
 30
0.0
 11
3505.081816123567
 21
3899.627991408147
 31
0.0
  0
LINE
  5
8A31
  8
1
 10
2799.7878678991729
 20
5184.6279914081479
 30
0.0
 11
2605.081816123567
 21
3899.627991408147
 31
0.0
  0
ARC
  5
8A32
  8
1
 10
3055.081816123567
 20
5299.627991408147
 30
0.0
 40
280.0
 50
319.3422962843099
 51
144.07737733120379
  0
ARC
  5
8A33
  8
1
 10
2155.081816123567
 20
4159.627991408147
 30
0.0
 40
220.0
 50
144.07737733120379
 51
319.34229628431001
  0
LINE
  5
8A34
  8
1
 10
1976.9236042401819
 20
4288.7002639476632
 30
0.0
 11
2828.3350009992591
 21
5463.9017928220755
 31
0.0
  0
LINE
  5
8A35
  8
1
 10
2052.0565274679138
 20
4233.8896228029607
 30
0.0
 11
2900.543883140087
 21
5411.020438500369
 31
0.0
  0
LINE
  5
8A36
  8
1
 10
2251.2261320829739
 20
4076.6504612647559
 30
0.0
 11
3199.2982900626789
 21
5175.1616961930586
 31
0.0
  0
LINE
  5
8A37
  8
1
 10
2321.9772293721398
 20
4016.289507264537
 30
0.0
 11
3267.4941602581148
 21
5117.1971934071889
 31
0.0
  0
LINE
  5
8A39
  8
1
 10
7274.0697441730017
 20
6193.0047426694764
 30
0.0
 11
8224.0697441730008
 21
6193.0047426694764
 31
0.0
  0
DIMENSION
  5
8A47
  8
3
  2
*D14
 10
4195.1370976079343
 20
3965.6279914081479
 30
0.0
 11
4070.1370976079338
 21
4605.6279914081479
 31
0.0
 70
     0
 13
3880.081816123567
 23
5245.6279914081479
 33
0.0
 14
3880.081816123567
 24
3965.6279914081479
 34
0.0
 50
90.0
1001
ACAD
1000
DSTYLE
1002
{
1070
   287
1070
     3
1070
    40
1040
50.0
1070
   143
1040
0.039
1070
   172
1070
     1
1070
   271
1070
     0
1070
   279
1070
     0
1002
}
  0
DIMENSION
  5
8A54
  8
3
  2
*D15
 10
4513.5391198008292
 20
3965.6279914081479
 30
0.0
 11
4388.5391198008283
 21
4632.6279914081479
 31
0.0
 70
     0
 13
3958.5183543724202
 23
5299.627991408147
 33
0.0
 14
3905.081816123567
 24
3965.6279914081479
 34
0.0
 50
90.0
1001
ACAD
1000
DSTYLE
1002
{
1070
   287
1070
     3
1070
    40
1040
50.0
1070
   143
1040
0.039
1070
   172
1070
     1
1070
   271
1070
     0
1070
   279
1070
     0
1002
}
  0
DIMENSION
  5
8A61
  8
3
  2
*D16
 10
4827.3266312466512
 20
3749.627991408147
 30
0.0
 11
4702.3266312466503
 21
4524.6279914081488
 31
0.0
 70
     0
 13
3958.5183543724202
 23
5299.627991408147
 33
0.0
 14
3805.081816123567
 24
3749.627991408147
 34
0.0
 50
90.0
1001
ACAD
1000
DSTYLE
1002
{
1070
   287
1070
     3
1070
    40
1040
50.0
1070
   143
1040
0.039
1070
   172
1070
     1
1070
   271
1070
     0
1070
   279
1070
     0
1002
}
  0
DIMENSION
  5
8A7D
  8
3
  2
*D17
 10
4829.4685400739982
 20
5299.627991408147
 30
0.0
 11
4704.4685400739972
 21
5748.1279914081488
 31
0.0
 70
     0
 13
2964.081816123567
 23
6196.6279914081479
 33
0.0
 14
3958.5183543724202
 24
5299.627991408147
 34
0.0
 50
90.0
1001
ACAD
1000
DSTYLE
1002
{
1070
   287
1070
     3
1070
    40
1040
50.0
1070
   143
1040
0.039
1070
   172
1070
     1
1070
   271
1070
     0
1070
   279
1070
     0
1002
}
  0
DIMENSION
  5
8A8A
  8
3
  2
*D18
 10
3880.081816123567
 20
6461.3680659317106
 30
0.0
 11
3467.581816123567
 21
6586.3680659317106
 31
0.0
 70
     0
 13
3055.081816123567
 23
6312.9971153107408
 33
0.0
 14
3880.081816123567
 24
5298.6279914081479
 34
0.0
1001
ACAD
1000
DSTYLE
1002
{
1070
   287
1070
     3
1070
    40
1040
50.0
1070
   143
1040
0.039
1070
   172
1070
     1
1070
   271
1070
     0
1070
   279
1070
     0
1002
}
  0
DIMENSION
  5
8A99
  8
3
  2
*D19
 10
1976.081816123567
 20
6461.3680659317106
 30
0.0
 11
2515.581816123567
 21
6586.3680659317106
 31
0.0
 70
     0
 13
3055.081816123567
 23
6312.9971153107408
 33
0.0
 14
1976.081816123567
 24
5208.6279914081479
 34
0.0
1001
ACAD
1000
DSTYLE
1002
{
1070
   287
1070
     3
1070
    40
1040
50.0
1070
   143
1040
0.039
1070
   172
1070
     1
1070
   271
1070
     0
1070
   279
1070
     0
1002
}
  0
DIMENSION
  5
8AA6
  8
3
  2
*D20
 10
1905.081816123567
 20
6745.9831769191514
 30
0.0
 11
2892.581816123567
 21
6870.9831769191514
 31
0.0
 70
     0
 13
3880.081816123567
 23
5298.6279914081479
 33
0.0
 14
1905.081816123567
 24
3899.627991408147
 34
0.0
1001
ACAD
1000
DSTYLE
1002
{
1070
   287
1070
     3
1070
    40
1040
50.0
1070
   143
1040
0.039
1070
   172
1070
     1
1070
   271
1070
     0
1070
   279
1070
     0
1002
}
  0
DIMENSION
  5
8AB3
  8
3
  2
*D21
 10
8224.0697441730008
 20
6458.2311171300016
 30
0.0
 11
7749.0697441729999
 21
6583.2311171300016
 31
0.0
 70
     0
 13
7274.0697441730008
 23
6193.0047426694764
 33
0.0
 14
8224.0697441730008
 24
6193.0047426694764
 34
0.0
1001
ACAD
1000
DSTYLE
1002
{
1070
   287
1070
     3
1070
    40
1040
50.0
1070
   143
1040
0.039
1070
   172
1070
     1
1070
   271
1070
     0
1070
   279
1070
     0
1002
}
  0
LINE
  5
8AB4
  8
3
 10
7749.0697441729999
 20
6745.9831769191514
 30
0.0
 11
7749.0697441729999
 21
6701.4070424650135
 31
0.0
  0
DIMENSION
  5
8AC2
  8
3
  2
*D22
 10
6102.0697441729999
 20
6745.9831769191514
 30
0.0
 11
6925.5697441729999
 21
6995.9831769191514
 31
0.0
 70
     0
  1
MAX\P1680
 13
7749.0697441729999
 23
6701.4070424650135
 33
0.0
 14
6102.0697441729999
 24
5579.6279914081479
 34
0.0
1001
ACAD
1000
DSTYLE
1002
{
1070
   287
1070
     3
1070
    40
1040
50.0
1070
   143
1040
0.039
1070
   172
1070
     1
1070
   271
1070
     0
1070
   279
1070
     0
1002
}
  0
DIMENSION
  5
8AF1
  8
3
  2
*D23
 10
8234.0697441730026
 20
6746.3236486621399
 30
0.0
 11
8576.9268870301457
 21
6871.3236486621399
 31
0.0
 70
     0
 13
7749.0697441729999
 23
6701.4070424650135
 33
0.0
 14
8234.0697441730026
 24
5974.6279914081488
 34
0.0
1001
ACAD
1000
DSTYLE
1002
{
1070
   287
1070
     3
1070
    40
1040
50.0
1070
   143
1040
0.039
1070
   172
1070
     1
1070
   271
1070
     0
1070
   279
1070
     0
1002
}
  0
LINE
  5
8AF5
  8
1
 10
6249.0697441729999
 20
3484.6279914081479
 30
0.0
 11
8304.0697441730008
 21
3484.6279914081479
 31
0.0
1001
ACAD
1000
ASC_BOUNDS
1002
{
1070
    19
1005
0
1005
0
1002
}
  0
LINE
  5
8AF6
  8
1
 10
8304.0697441730008
 20
3634.6279914081479
 30
0.0
 11
8304.0697441730008
 21
3484.6279914081479
 31
0.0
  0
LINE
  5
8AF7
  8
1
 10
7194.0697441730026
 20
3634.6279914081479
 30
0.0
 11
7194.0697441730026
 21
3484.6279914081479
 31
0.0
  0
LINE
  5
8AF8
  8
1
 10
6249.0697441729999
 20
3634.627991408151
 30
0.0
 11
8304.0697441730008
 21
3634.6279914081479
 31
0.0
  0
LINE
  5
8AF9
  8
1
 10
6249.0697441729999
 20
3634.6279914081479
 30
0.0
 11
6249.0697441729999
 21
3484.6279914081479
 31
0.0
  0
LINE
  5
8AFA
  8
1
 10
3805.081816123567
 20
3634.6279914081479
 30
0.0
 11
3805.081816123567
 21
3484.6279914081479
 31
0.0
  0
LINE
  5
8AFB
  8
1
 10
3805.081816123567
 20
3484.6279914081479
 30
0.0
 11
1905.081816123567
 21
3484.6279914081479
 31
0.0
1001
ACAD
1000
ASC_BOUNDS
1002
{
1070
    19
1005
0
1002
}
  0
LINE
  5
8AFC
  8
1
 10
3505.081816123567
 20
3634.6279914081479
 30
0.0
 11
3505.081816123567
 21
3484.6279914081479
 31
0.0
  0
LINE
  5
8AFD
  8
1
 10
3805.081816123567
 20
3634.6279914081479
 30
0.0
 11
1905.081816123567
 21
3634.6279914081479
 31
0.0
  0
LINE
  5
8AFE
  8
1
 10
1905.081816123567
 20
3634.6279914081479
 30
0.0
 11
1905.081816123567
 21
3484.6279914081479
 31
0.0
  0
DIMENSION
  5
8B1C
  8
3
  2
*D24
 10
4823.6696712624471
 20
3484.6279914081479
 30
0.0
 11
4698.6696712624462
 21
3056.0565628367199
 31
0.0
 70
     0
 13
3805.081816123567
 23
3634.6279914081479
 33
0.0
 14
3805.081816123567
 24
3484.6279914081479
 34
0.0
 50
90.0
1001
ACAD
1000
DSTYLE
1002
{
1070
   287
1070
     3
1070
    40
1040
50.0
1070
   143
1040
0.039
1070
   172
1070
     1
1070
   271
1070
     0
1070
   279
1070
     0
1070
     6
1000
DOT
1002
}
  0
DIMENSION
  5
8B4D
  8
3
  2
*D25
 10
4825.1516842005658
 20
3749.627991408147
 30
0.0
 11
5128.7231127719933
 21
3882.485134265291
 31
0.0
 70
     0
 13
3805.081816123567
 23
3634.6279914081479
 33
0.0
 14
3805.081816123567
 24
3749.627991408147
 34
0.0
 50
90.0
1001
ACAD
1000
DSTYLE
1002
{
1070
   287
1070
     4
1070
     3
1000
(<>)
1070
    40
1040
50.0
1070
   143
1040
0.039
1070
   172
1070
     1
1070
   271
1070
     0
1070
   279
1070
     1
1070
     6
1000
DOT
1002
}
  0
DIMENSION
  5
8B5A
  8
3
  2
*D26
 10
5414.1564350586123
 20
3484.6279914081479
 30
0.0
 11
5249.8707207728958
 21
4840.6279914081479
 31
0.0
 70
     0
 13
2989.081816123567
 23
6196.6279914081479
 33
0.0
 14
3805.081816123567
 24
3484.6279914081479
 34
0.0
 50
90.0
1001
ACAD
1000
DSTYLE
1002
{
1070
   287
1070
     4
1070
     3
1000
(<>)
1070
    40
1040
50.0
1070
   143
1040
0.039
1070
   172
1070
     1
1070
   271
1070
     0
1070
   279
1070
     1
1002
}
  0
ENDSEC
  0
EOF
