  0
SECTION
  2
HEADER
  9
$ACADVER
  1
AC1009
  9
$INSBASE
 10
0.0
 20
0.0
 30
0.0
  9
$EXTMIN
 10
0.0
 20
0.0
 30
0.0
  9
$EXTMAX
 10
10500.0
 20
14750.0
 30
0.0
  9
$LIMMIN
 10
0.0
 20
0.0
  9
$LIMMAX
 10
297.0
 20
210.0
  9
$ORTHOMODE
 70
     0
  9
$REGENMODE
 70
     1
  9
$FILLMODE
 70
     0
  9
$QTEXTMODE
 70
     0
  9
$MIRRTEXT
 70
     1
  9
$DRAGMODE
 70
     2
  9
$LTSCALE
 40
100.0
  9
$OSMODE
 70
    37
  9
$ATTMODE
 70
     1
  9
$TEXTSIZE
 40
180.0
  9
$TRACEWID
 40
0.05
  9
$TEXTSTYLE
  7
STANDARD
  9
$CLAYER
  8
3
  9
$CELTYPE
  6
BYLAYER
  9
$CECOLOR
 62
   256
  9
$DIMSCALE
 40
50.0
  9
$DIMASZ
 40
2.0
  9
$DIMEXO
 40
0.5
  9
$DIMDLI
 40
10.0
  9
$DIMRND
 40
0.0
  9
$DIMDLE
 40
0.0
  9
$DIMEXE
 40
1.0
  9
$DIMTP
 40
1.0
  9
$DIMTM
 40
1.0
  9
$DIMTXT
 40
3.0
  9
$DIMCEN
 40
0.0
  9
$DIMTSZ
 40
0.0
  9
$DIMTOL
 70
     0
  9
$DIMLIM
 70
     0
  9
$DIMTIH
 70
     0
  9
$DIMTOH
 70
     0
  9
$DIMSE1
 70
     0
  9
$DIMSE2
 70
     0
  9
$DIMTAD
 70
     1
  9
$DIMZIN
 70
     8
  9
$DIMBLK
  1

  9
$DIMASO
 70
     1
  9
$DIMSHO
 70
     1
  9
$DIMPOST
  1
(<>)
  9
$DIMAPOST
  1

  9
$DIMALT
 70
     0
  9
$DIMALTD
 70
     2
  9
$DIMALTF
 40
0.039
  9
$DIMLFAC
 40
1.0
  9
$DIMTOFL
 70
     1
  9
$DIMTVP
 40
0.0
  9
$DIMTIX
 70
     0
  9
$DIMSOXD
 70
     0
  9
$DIMSAH
 70
     1
  9
$DIMBLK1
  1
OPEN
  9
$DIMBLK2
  1
OPEN
  9
$DIMSTYLE
  2
IGA
  9
$DIMCLRD
 70
     0
  9
$DIMCLRE
 70
     0
  9
$DIMCLRT
 70
     0
  9
$DIMTFAC
 40
10.0
  9
$DIMGAP
 40
1.0
  9
$LUNITS
 70
     2
  9
$LUPREC
 70
     3
  9
$SKETCHINC
 40
0.1
  9
$FILLETRAD
 40
50.0
  9
$AUNITS
 70
     0
  9
$AUPREC
 70
     0
  9
$MENU
  1
acad
  9
$ELEVATION
 40
0.0
  9
$PELEVATION
 40
0.0
  9
$THICKNESS
 40
0.0
  9
$LIMCHECK
 70
     0
  9
$BLIPMODE
 70
     0
  9
$CHAMFERA
 40
0.5
  9
$CHAMFERB
 40
0.5
  9
$SKPOLY
 70
     0
  9
$TDCREATE
 40
2452321.3884343752
  9
$TDUPDATE
 40
2454953.7486574068
  9
$TDINDWG
 40
0.0472853704
  9
$TDUSRTIMER
 40
0.0472853704
  9
$USRTIMER
 70
     1
  9
$ANGBASE
 50
0.0
  9
$ANGDIR
 70
     0
  9
$PDMODE
 70
     0
  9
$PDSIZE
 40
0.0
  9
$PLINEWID
 40
0.0
  9
$COORDS
 70
     1
  9
$SPLFRAME
 70
     0
  9
$SPLINETYPE
 70
     6
  9
$SPLINESEGS
 70
     8
  9
$ATTDIA
 70
     0
  9
$ATTREQ
 70
     1
  9
$HANDLING
 70
 10241
  9
$HANDSEED
  5
8C13
  9
$SURFTAB1
 70
     6
  9
$SURFTAB2
 70
     6
  9
$SURFTYPE
 70
     6
  9
$SURFU
 70
     6
  9
$SURFV
 70
     6
  9
$UCSNAME
  2

  9
$UCSORG
 10
0.0
 20
0.0
 30
0.0
  9
$UCSXDIR
 10
1.0
 20
0.0
 30
0.0
  9
$UCSYDIR
 10
0.0
 20
1.0
 30
0.0
  9
$PUCSNAME
  2

  9
$PUCSORG
 10
0.0
 20
0.0
 30
0.0
  9
$PUCSXDIR
 10
1.0
 20
0.0
 30
0.0
  9
$PUCSYDIR
 10
0.0
 20
1.0
 30
0.0
  9
$USERI1
 70
     0
  9
$USERI2
 70
     0
  9
$USERI3
 70
     0
  9
$USERI4
 70
     0
  9
$USERI5
 70
     0
  9
$USERR1
 40
0.0
  9
$USERR2
 40
0.0
  9
$USERR3
 40
0.0
  9
$USERR4
 40
0.0
  9
$USERR5
 40
0.0
  9
$WORLDVIEW
 70
     1
  9
$SHADEDGE
 70
     3
  9
$SHADEDIF
 70
    70
  9
$TILEMODE
 70
     1
  9
$MAXACTVP
 70
    16
  9
$PLIMCHECK
 70
     0
  9
$PEXTMIN
 10
1.0000000000000000E+020
 20
1.0000000000000000E+020
 30
1.0000000000000000E+020
  9
$PEXTMAX
 10
-1.0000000000000000E+020
 20
-1.0000000000000000E+020
 30
-1.0000000000000000E+020
  9
$PLIMMIN
 10
0.0
 20
0.0
  9
$PLIMMAX
 10
12.0
 20
9.0
  9
$UNITMODE
 70
     0
  9
$VISRETAIN
 70
     0
  9
$PLINEGEN
 70
     0
  9
$PSLTSCALE
 70
     1
  0
ENDSEC
  0
SECTION
  2
TABLES
  0
TABLE
  2
VPORT
 70
     2
  0
VPORT
  2
*ACTIVE
 70
     0
 10
0.0
 20
0.0
 11
1.0
 21
1.0
 12
17683.04979425684
 22
7375.000034342519
 13
0.0
 23
0.0
 14
10.0
 24
10.0
 15
10.0
 25
10.0
 16
0.0
 26
0.0
 36
1.0
 17
0.0
 27
0.0
 37
0.0
 40
14863.074415084669
 41
3.1666666666666661
 42
50.0
 43
0.0
 44
0.0
 50
0.0
 51
0.0
 71
     0
 72
   100
 73
     1
 74
     0
 75
     0
 76
     0
 77
     0
 78
     0
  0
ENDTAB
  0
TABLE
  2
LTYPE
 70
     2
  0
LTYPE
  2
CONTINUOUS
 70
     0
  3
Solid line
 72
    65
 73
     0
 40
0.0
  0
LTYPE
  2
CENTER
 70
     0
  3
____ _ ____ _ ____ _ ____ _ ____ _ ____ _ ____ 
 72
    65
 73
     4
 40
2.0
 49
1.25
 49
-0.25
 49
0.25
 49
-0.25
  0
ENDTAB
  0
TABLE
  2
LAYER
 70
     6
  0
LAYER
  2
0
 70
     0
 62
     7
  6
CONTINUOUS
  0
LAYER
  2
3
 70
     0
 62
     2
  6
CONTINUOUS
  0
LAYER
  2
2
 70
     0
 62
     3
  6
CENTER
  0
LAYER
  2
1
 70
     0
 62
     4
  6
CONTINUOUS
  0
LAYER
  2
4
 70
     0
 62
     7
  6
CONTINUOUS
  0
LAYER
  2
DEFPOINTS
 70
     0
 62
     7
  6
CONTINUOUS
  0
ENDTAB
  0
TABLE
  2
STYLE
 70
     1
  0
STYLE
  2
STANDARD
 70
     0
 40
0.0
 41
1.0
 50
0.0
 71
     0
 42
180.0
  3
simplex.shx
  4
extfont.shx
  0
ENDTAB
  0
TABLE
  2
VIEW
 70
     0
  0
ENDTAB
  0
TABLE
  2
UCS
 70
     0
  0
ENDTAB
  0
TABLE
  2
APPID
 70
     1
  0
APPID
  2
ACAD
 70
     0
  0
ENDTAB
  0
TABLE
  2
DIMSTYLE
 70
     1
  0
DIMSTYLE
  2
IGA
 70
     0
  3

  4

  5

  6
OPEN
  7
OPEN
 40
2.0
 41
2.0
 42
0.5
 43
10.0
 44
1.0
 45
0.0
 46
0.0
 47
1.0
 48
1.0
140
3.0
141
0.0
142
0.0
143
0.03937
144
1.0
145
0.0
146
10.0
147
1.0
 71
     0
 72
     0
 73
     0
 74
     0
 75
     0
 76
     0
 77
     1
 78
     8
170
     0
171
     2
172
     0
173
     1
174
     0
175
     0
176
     0
177
     0
178
     0
  0
ENDTAB
  0
ENDSEC
  0
SECTION
  2
BLOCKS
  0
BLOCK
  8
0
  2
$MODEL_SPACE
 70
     0
 10
0.0
 20
0.0
 30
0.0
  3
$MODEL_SPACE
  1

  0
ENDBLK
  5
1B
  8
0
  0
BLOCK
 67
     1
  8
0
  2
$PAPER_SPACE
 70
     0
 10
0.0
 20
0.0
 30
0.0
  3
$PAPER_SPACE
  1

  0
ENDBLK
  5
18
 67
     1
  8
0
  0
BLOCK
  8
0
  2
_OPEN
 70
     0
 10
0.0
 20
0.0
 30
0.0
  3
_OPEN
  1

  0
LINE
  5
79FD
  8
0
  6
BYBLOCK
 62
     0
 10
-1.0
 20
0.1666666666666666
 30
0.0
 11
0.0
 21
0.0
 31
0.0
  0
LINE
  5
79FE
  8
0
  6
BYBLOCK
 62
     0
 10
0.0
 20
0.0
 30
0.0
 11
-1.0
 21
-0.1666666666666666
 31
0.0
  0
LINE
  5
79FF
  8
0
  6
BYBLOCK
 62
     0
 10
0.0
 20
0.0
 30
0.0
 11
-1.0
 21
0.0
 31
0.0
  0
ENDBLK
  5
7A01
  8
0
  0
BLOCK
  8
0
  2
YA_N
 70
     0
 10
0.0
 20
0.0
 30
0.0
  3
YA_N
  1

  0
ENDBLK
  5
7EF0
  8
0
  0
BLOCK
  8
0
  2
*D2
 70
     1
 10
0.0
 20
0.0
 30
0.0
  3
*D2
  1

  0
LINE
  5
8B45
  8
3
 62
     0
 10
4405.0818161235666
 20
10701.006088529921
 30
0.0
 11
4405.0818161235666
 21
10962.3455461579
 31
0.0
  0
LINE
  5
8B46
  8
3
 62
     0
 10
2905.081816123567
 20
10701.006088529921
 30
0.0
 11
2905.081816123567
 21
10962.3455461579
 31
0.0
  0
LINE
  5
8B47
  8
3
 62
     0
 10
4305.0818161235666
 20
10912.345546157891
 30
0.0
 11
3005.081816123567
 21
10912.345546157891
 31
0.0
  0
INSERT
  5
8B48
  8
3
 62
     0
  2
_OPEN
 10
4405.0818161235666
 20
10912.345546157891
 30
0.0
 41
100.0
 42
100.0
 43
100.0
  0
INSERT
  5
8B49
  8
3
 62
     0
  2
_OPEN
 10
2905.081816123567
 20
10912.345546157891
 30
0.0
 41
100.0
 42
100.0
 43
100.0
 50
180.0
  0
TEXT
  8
3
  40
150
  5
8BFE
  62
0
  72
0
  71
0
 10
3430.70
 20
10771.8
 30
0.000000
  1
1500
  0
POINT
  5
8B4B
  8
DEFPOINTS
 62
     0
 10
4405.0818161235666
 20
10676.006088529921
 30
0.0
  0
POINT
  5
8B4C
  8
DEFPOINTS
 62
     0
 10
2905.081816123567
 20
10676.006088529921
 30
0.0
  0
POINT
  5
8B4D
  8
DEFPOINTS
 62
     0
 10
2905.081816123567
 20
10912.345546157891
 30
0.0
  0
ENDBLK
  5
8A45
  8
0
  0
BLOCK
  8
0
  2
*D3
 70
     1
 10
0.0
 20
0.0
 30
0.0
  3
*D3
  1

  0
LINE
  5
8B4E
  8
3
 62
     0
 10
2880.081816123567
 20
10676.006088529921
 30
0.0
 11
2399.9094258002128
 21
10676.006088529921
 31
0.0
  0
LINE
  5
8B4F
  8
3
 62
     0
 10
2880.081816123567
 20
9566.0060885299245
 30
0.0
 11
2399.9094258002128
 21
9566.0060885299245
 31
0.0
  0
LINE
  5
8B50
  8
3
 62
     0
 10
2449.9094258002128
 20
10576.006088529921
 30
0.0
 11
2449.9094258002128
 21
9666.0060885299245
 31
0.0
  0
INSERT
  5
8B51
  8
3
 62
     0
  2
_OPEN
 10
2449.9094258002128
 20
10676.006088529921
 30
0.0
 41
100.0
 42
100.0
 43
100.0
 50
90.0
  0
INSERT
  5
8B52
  8
3
 62
     0
  2
_OPEN
 10
2449.9094258002128
 20
9566.0060885299245
 30
0.0
 41
100.0
 42
100.0
 43
100.0
 50
270.0
  0
TEXT
  8
3
  40
150
  5
8BFF
  62
0
  72
0
  71
0
 10
2024.91
 20
9833.45
 30
0.000000
  1
1110
  0
POINT
  5
8B54
  8
DEFPOINTS
 62
     0
 10
2905.081816123567
 20
10676.006088529921
 30
0.0
  0
POINT
  5
8B55
  8
DEFPOINTS
 62
     0
 10
2905.081816123567
 20
9566.0060885299245
 30
0.0
  0
POINT
  5
8B56
  8
DEFPOINTS
 62
     0
 10
2449.9094258002128
 20
9566.0060885299245
 30
0.0
  0
ENDBLK
  5
8A50
  8
0
  0
BLOCK
  8
0
  2
*D4
 70
     1
 10
0.0
 20
0.0
 30
0.0
  3
*D4
  1

  0
LINE
  5
8B57
  8
3
 62
     0
 10
3180.081816123567
 20
8621.0060885299245
 30
0.0
 11
2399.909425800211
 21
8621.0060885299245
 31
0.0
  0
LINE
  5
8B58
  8
3
 62
     0
 10
2449.9094258002119
 20
9466.0060885299245
 30
0.0
 11
2449.909425800211
 21
8721.0060885299226
 31
0.0
  0
INSERT
  5
8B59
  8
3
 62
     0
  2
_OPEN
 10
2449.9094258002119
 20
9566.0060885299245
 30
0.0
 41
100.0
 42
100.0
 43
100.0
 50
90.0
  0
INSERT
  5
8B5A
  8
3
 62
     0
  2
_OPEN
 10
2449.909425800211
 20
8621.0060885299245
 30
0.0
 41
100.0
 42
100.0
 43
100.0
 50
270.0
  0
TEXT
  8
3
  40
150
  5
8C00
  62
0
  72
0
  71
0
 10
2024.91
 20
8828.01
 30
0.000000
  1
945
  0
POINT
  5
8B5C
  8
DEFPOINTS
 62
     0
 10
2905.081816123567
 20
9566.0060885299245
 30
0.0
  0
POINT
  5
8B5D
  8
DEFPOINTS
 62
     0
 10
3205.081816123567
 20
8621.0060885299245
 30
0.0
  0
POINT
  5
8B5E
  8
DEFPOINTS
 62
     0
 10
2449.909425800211
 20
8621.0060885299245
 30
0.0
  0
ENDBLK
  5
8A5A
  8
0
  0
BLOCK
  8
0
  2
*D5
 70
     1
 10
0.0
 20
0.0
 30
0.0
  3
*D5
  1

  0
LINE
  5
8B5F
  8
3
 62
     0
 10
3205.081816123567
 20
8596.0060885299226
 30
0.0
 11
3205.081816123567
 21
8031.7460686846171
 31
0.0
  0
LINE
  5
8B60
  8
3
 62
     0
 10
4805.0818161235684
 20
8596.0060885299226
 30
0.0
 11
4805.0818161235684
 21
8031.7460686846171
 31
0.0
  0
LINE
  5
8B61
  8
3
 62
     0
 10
3305.081816123567
 20
8081.7460686846171
 30
0.0
 11
4705.0818161235666
 21
8081.7460686846171
 31
0.0
  0
INSERT
  5
8B62
  8
3
 62
     0
  2
_OPEN
 10
3205.081816123567
 20
8081.7460686846171
 30
0.0
 41
100.0
 42
100.0
 43
100.0
 50
180.0
  0
INSERT
  5
8B63
  8
3
 62
     0
  2
_OPEN
 10
4805.0818161235684
 20
8081.7460686846171
 30
0.0
 41
100.0
 42
100.0
 43
100.0
  0
TEXT
  8
3
  40
150
  5
8C01
  62
0
  72
0
  71
0
 10
3723.76
 20
7941.25
 30
0.000000
  1
1600
  0
POINT
  5
8B65
  8
DEFPOINTS
 62
     0
 10
3205.081816123567
 20
8621.0060885299245
 30
0.0
  0
POINT
  5
8B66
  8
DEFPOINTS
 62
     0
 10
4805.0818161235684
 20
8621.0060885299245
 30
0.0
  0
POINT
  5
8B67
  8
DEFPOINTS
 62
     0
 10
4805.0818161235684
 20
8081.7460686846171
 30
0.0
  0
ENDBLK
  5
8A3A
  8
0
  0
BLOCK
  8
0
  2
*D6
 70
     1
 10
0.0
 20
0.0
 30
0.0
  3
*D6
  1

  0
LINE
  5
8B68
  8
3
 62
     0
 10
4830.0818161235666
 20
8621.0060885299245
 30
0.0
 11
5256.8675151495017
 21
8621.0060885299245
 31
0.0
  0
LINE
  5
8B69
  8
3
 62
     0
 10
4830.0818161235666
 20
9641.0060885299245
 30
0.0
 11
5256.8675151495017
 21
9641.0060885299245
 31
0.0
  0
LINE
  5
8B6A
  8
3
 62
     0
 10
5206.8675151495017
 20
8721.0060885299226
 30
0.0
 11
5206.8675151495017
 21
9541.0060885299245
 31
0.0
  0
INSERT
  5
8B6B
  8
3
 62
     0
  2
_OPEN
 10
5206.8675151495017
 20
8621.0060885299245
 30
0.0
 41
100.0
 42
100.0
 43
100.0
 50
270.0
  0
INSERT
  5
8B6C
  8
3
 62
     0
  2
_OPEN
 10
5206.8675151495017
 20
9641.0060885299245
 30
0.0
 41
100.0
 42
100.0
 43
100.0
 50
90.0
  0
TEXT
  8
3
  40
150
  5
8C02
  62
0
  72
0
  71
0
 10
4781.87
 20
8857.39
 30
0.000000
  1
1020
  0
POINT
  5
8B6E
  8
DEFPOINTS
 62
     0
 10
4805.0818161235684
 20
8621.0060885299245
 30
0.0
  0
POINT
  5
8B6F
  8
DEFPOINTS
 62
     0
 10
4805.0818161235684
 20
9641.0060885299245
 30
0.0
  0
POINT
  5
8B70
  8
DEFPOINTS
 62
     0
 10
5206.8675151495017
 20
9641.0060885299245
 30
0.0
  0
ENDBLK
  5
8A2F
  8
0
  0
BLOCK
  8
0
  2
*D7
 70
     1
 10
0.0
 20
0.0
 30
0.0
  3
*D7
  1

  0
LINE
  5
8B71
  8
3
 62
     0
 10
2830.081816123567
 20
6711.627991408147
 30
0.0
 11
2830.081816123567
 21
6998.7661070993781
 31
0.0
  0
LINE
  5
8B72
  8
3
 62
     0
 10
3655.081816123567
 20
6679.9137105134623
 30
0.0
 11
3655.081816123567
 21
6998.7661070993781
 31
0.0
  0
LINE
  5
8B73
  8
3
 62
     0
 10
2930.081816123567
 20
6948.7661070993781
 30
0.0
 11
3555.081816123567
 21
6948.7661070993781
 31
0.0
  0
INSERT
  5
8B74
  8
3
 62
     0
  2
_OPEN
 10
2830.081816123567
 20
6948.7661070993781
 30
0.0
 41
100.0
 42
100.0
 43
100.0
 50
180.0
  0
INSERT
  5
8B75
  8
3
 62
     0
  2
_OPEN
 10
3655.081816123567
 20
6948.7661070993781
 30
0.0
 41
100.0
 42
100.0
 43
100.0
  0
TEXT
  8
3
  40
150
  5
8C03
  62
0
  72
0
  71
0
 10
2940.80
 20
6808.27
 30
0.000000
  1
825
  0
POINT
  5
8B77
  8
DEFPOINTS
 62
     0
 10
2830.081816123567
 20
6686.6279914081479
 30
0.0
  0
POINT
  5
8B78
  8
DEFPOINTS
 62
     0
 10
3655.081816123567
 20
6654.9137105134614
 30
0.0
  0
POINT
  5
8B79
  8
DEFPOINTS
 62
     0
 10
3655.081816123567
 20
6948.7661070993781
 30
0.0
  0
ENDBLK
  5
8A0E
  8
0
  0
BLOCK
  8
0
  2
*D8
 70
     1
 10
0.0
 20
0.0
 30
0.0
  3
*D8
  1

  0
LINE
  5
8B7A
  8
3
 62
     0
 10
4734.0818161235666
 20
5415.6279914081479
 30
0.0
 11
4734.0818161235666
 21
6998.7661070993781
 31
0.0
  0
LINE
  5
8B7B
  8
3
 62
     0
 10
3755.081816123567
 20
6948.7661070993781
 30
0.0
 11
4634.0818161235666
 21
6948.7661070993781
 31
0.0
  0
INSERT
  5
8B7C
  8
3
 62
     0
  2
_OPEN
 10
3655.081816123567
 20
6948.7661070993781
 30
0.0
 41
100.0
 42
100.0
 43
100.0
 50
180.0
  0
INSERT
  5
8B7D
  8
3
 62
     0
  2
_OPEN
 10
4734.0818161235666
 20
6948.7661070993781
 30
0.0
 41
100.0
 42
100.0
 43
100.0
  0
TEXT
  8
3
  40
150
  5
8C04
  62
0
  72
0
  71
0
 10
3894.58
 20
6808.27
 30
0.000000
  1
1079
  0
POINT
  5
8B7F
  8
DEFPOINTS
 62
     0
 10
3655.081816123567
 20
6654.9137105134614
 30
0.0
  0
POINT
  5
8B80
  8
DEFPOINTS
 62
     0
 10
4734.0818161235666
 20
5390.6279914081479
 30
0.0
  0
POINT
  5
8B81
  8
DEFPOINTS
 62
     0
 10
4734.0818161235666
 20
6948.7661070993781
 30
0.0
  0
ENDBLK
  5
89E2
  8
0
  0
BLOCK
  8
0
  2
*D9
 70
     1
 10
0.0
 20
0.0
 30
0.0
  3
*D9
  1

  0
LINE
  5
8B82
  8
3
 62
     0
 10
2830.081816123567
 20
6711.627991408147
 30
0.0
 11
2830.081816123567
 21
7274.1999857702322
 31
0.0
  0
LINE
  5
8B83
  8
3
 62
     0
 10
4805.0818161235684
 20
4549.627991408147
 30
0.0
 11
4805.0818161235684
 21
7274.1999857702322
 31
0.0
  0
LINE
  5
8B84
  8
3
 62
     0
 10
2930.081816123567
 20
7224.1999857702331
 30
0.0
 11
4705.0818161235666
 21
7224.1999857702331
 31
0.0
  0
INSERT
  5
8B85
  8
3
 62
     0
  2
_OPEN
 10
2830.081816123567
 20
7224.1999857702331
 30
0.0
 41
100.0
 42
100.0
 43
100.0
 50
180.0
  0
INSERT
  5
8B86
  8
3
 62
     0
  2
_OPEN
 10
4805.0818161235684
 20
7224.1999857702331
 30
0.0
 41
100.0
 42
100.0
 43
100.0
  0
TEXT
  8
3
  40
150
  5
8C05
  62
0
  72
0
  71
0
 10
3647.18
 20
7083.70
 30
0.000000
  1
1975
  0
POINT
  5
8B88
  8
DEFPOINTS
 62
     0
 10
2830.081816123567
 20
6686.6279914081479
 30
0.0
  0
POINT
  5
8B89
  8
DEFPOINTS
 62
     0
 10
4805.0818161235684
 20
4524.6279914081479
 30
0.0
  0
POINT
  5
8B8A
  8
DEFPOINTS
 62
     0
 10
4805.0818161235684
 20
7224.1999857702331
 30
0.0
  0
ENDBLK
  5
89CD
  8
0
  0
BLOCK
  8
0
  2
*D10
 70
     1
 10
0.0
 20
0.0
 30
0.0
  3
*D10
  1

  0
LINE
  5
8B8B
  8
3
 62
     0
 10
2805.081816123567
 20
6633.627991408147
 30
0.0
 11
2088.153655297549
 21
6633.627991408147
 31
0.0
  0
LINE
  5
8B8C
  8
3
 62
     0
 10
2726.6452778747148
 20
5299.627991408147
 30
0.0
 11
2088.153655297549
 21
5299.627991408147
 31
0.0
  0
LINE
  5
8B8D
  8
3
 62
     0
 10
2138.153655297549
 20
6533.627991408147
 30
0.0
 11
2138.153655297549
 21
5399.6279914081479
 31
0.0
  0
INSERT
  5
8B8E
  8
3
 62
     0
  2
_OPEN
 10
2138.153655297549
 20
6633.627991408147
 30
0.0
 41
100.0
 42
100.0
 43
100.0
 50
90.0
  0
INSERT
  5
8B8F
  8
3
 62
     0
  2
_OPEN
 10
2138.153655297549
 20
5299.627991408147
 30
0.0
 41
100.0
 42
100.0
 43
100.0
 50
270.0
  0
TEXT
  8
3
  40
150
  5
8C06
  62
0
  72
0
  71
0
 10
1713.15
 20
5727.85
 30
0.000000
  1
1334
  0
POINT
  5
8B91
  8
DEFPOINTS
 62
     0
 10
2830.081816123567
 20
6633.627991408147
 30
0.0
  0
POINT
  5
8B92
  8
DEFPOINTS
 62
     0
 10
2751.6452778747148
 20
5299.627991408147
 30
0.0
  0
POINT
  5
8B93
  8
DEFPOINTS
 62
     0
 10
2138.153655297549
 20
5299.627991408147
 30
0.0
  0
ENDBLK
  5
8A24
  8
0
  0
BLOCK
  8
0
  2
*D11
 70
     1
 10
0.0
 20
0.0
 30
0.0
  3
*D11
  1

  0
LINE
  5
8B94
  8
3
 62
     0
 10
2805.081816123567
 20
6633.627991408147
 30
0.0
 11
2381.0438355122142
 21
6633.627991408147
 31
0.0
  0
LINE
  5
8B95
  8
3
 62
     0
 10
2805.081816123567
 20
5353.6279914081479
 30
0.0
 11
2381.0438355122142
 21
5353.6279914081479
 31
0.0
  0
LINE
  5
8B96
  8
3
 62
     0
 10
2431.0438355122142
 20
6533.627991408147
 30
0.0
 11
2431.0438355122142
 21
5453.6279914081479
 31
0.0
  0
INSERT
  5
8B97
  8
3
 62
     0
  2
_OPEN
 10
2431.0438355122142
 20
6633.627991408147
 30
0.0
 41
100.0
 42
100.0
 43
100.0
 50
90.0
  0
INSERT
  5
8B98
  8
3
 62
     0
  2
_OPEN
 10
2431.0438355122142
 20
5353.6279914081479
 30
0.0
 41
100.0
 42
100.0
 43
100.0
 50
270.0
  0
TEXT
  8
3
  40
150
  5
8C07
  62
0
  72
0
  71
0
 10
2006.04
 20
5702.03
 30
0.000000
  1
1280
  0
POINT
  5
8B9A
  8
DEFPOINTS
 62
     0
 10
2830.081816123567
 20
6633.627991408147
 30
0.0
  0
POINT
  5
8B9B
  8
DEFPOINTS
 62
     0
 10
2830.081816123567
 20
5353.6279914081479
 30
0.0
  0
POINT
  5
8B9C
  8
DEFPOINTS
 62
     0
 10
2431.0438355122142
 20
5353.6279914081479
 30
0.0
  0
ENDBLK
  5
8A19
  8
0
  0
BLOCK
  8
0
  2
*D12
 70
     1
 10
0.0
 20
0.0
 30
0.0
  3
*D12
  1

  0
LINE
  5
8B9D
  8
3
 62
     0
 10
2880.081816123567
 20
4374.627991408147
 30
0.0
 11
2088.1536552975481
 21
4374.627991408147
 31
0.0
  0
LINE
  5
8B9E
  8
3
 62
     0
 10
2138.153655297549
 20
5199.6279914081479
 30
0.0
 11
2138.1536552975481
 21
4474.627991408147
 31
0.0
  0
TEXT
  8
3
  40
150
  5
8C08
  62
0
  72
0
  71
0
 10
1726.53
 20
4665.78
 30
0.000000
  1
925
  0
INSERT
  5
8BA0
  8
3
 62
     0
  2
_OPEN
 10
2138.153655297549
 20
5299.627991408147
 30
0.0
 41
100.0
 42
100.0
 43
100.0
 50
90.0
  0
INSERT
  5
8BA1
  8
3
 62
     0
  2
_OPEN
 10
2138.1536552975481
 20
4374.627991408147
 30
0.0
 41
100.0
 42
100.0
 43
100.0
 50
270.0
  0
POINT
  5
8BA2
  8
DEFPOINTS
 62
     0
 10
2751.6452778747148
 20
5299.627991408147
 30
0.0
  0
POINT
  5
8BA3
  8
DEFPOINTS
 62
     0
 10
2905.081816123567
 20
4374.627991408147
 30
0.0
  0
POINT
  5
8BA4
  8
DEFPOINTS
 62
     0
 10
2138.1536552975481
 20
4374.627991408147
 30
0.0
  0
ENDBLK
  5
8AC5
  8
0
  0
BLOCK
  8
0
  2
*D13
 70
     1
 10
0.0
 20
0.0
 30
0.0
  3
*D13
  1

  0
LINE
  5
8BA5
  8
3
 62
     0
 10
2880.081816123567
 20
4329.627991408147
 30
0.0
 11
2088.1536552975481
 21
4329.627991408147
 31
0.0
  0
LINE
  5
8BA6
  8
3
 62
     0
 10
2880.081816123567
 20
4179.6279914081479
 30
0.0
 11
2088.1536552975481
 21
4179.6279914081479
 31
0.0
  0
LINE
  5
8BA7
  8
3
 62
     0
 10
2138.1536552975481
 20
4429.6279914081479
 30
0.0
 11
2138.1536552975481
 21
4529.6279914081479
 31
0.0
  0
LINE
  5
8BA8
  8
3
 62
     0
 10
2138.1536552975481
 20
4079.627991408147
 30
0.0
 11
2138.1536552975481
 21
3522.485134265291
 31
0.0
  0
LINE
  5
8BA9
  8
3
 62
     0
 10
2138.1536552975481
 20
4329.627991408147
 30
0.0
 11
2138.1536552975481
 21
4179.6279914081479
 31
0.0
  0
INSERT
  5
8BAA
  8
3
 62
     0
  2
_DOT
 10
2138.1536552975481
 20
4329.627991408147
 30
0.0
 41
100.0
 42
100.0
 43
100.0
 50
270.0
  0
INSERT
  5
8BAB
  8
3
 62
     0
  2
_OPEN
 10
2138.1536552975481
 20
4179.6279914081479
 30
0.0
 41
100.0
 42
100.0
 43
100.0
 50
90.0
  0
TEXT
  8
3
  40
150
  5
8C09
  62
0
  72
0
  71
0
 10
1713.15
 20
3485.56
 30
0.000000
  1
150
  0
POINT
  5
8BAD
  8
DEFPOINTS
 62
     0
 10
2905.081816123567
 20
4329.627991408147
 30
0.0
  0
POINT
  5
8BAE
  8
DEFPOINTS
 62
     0
 10
2905.081816123567
 20
4179.6279914081479
 30
0.0
  0
POINT
  5
8BAF
  8
DEFPOINTS
 62
     0
 10
2138.1536552975481
 20
4179.6279914081479
 30
0.0
  0
ENDBLK
  5
89F9
  8
0
  0
BLOCK
  8
0
  2
*D14
 70
     1
 10
0.0
 20
0.0
 30
0.0
  3
*D14
  1

  0
LINE
  5
8BB0
  8
3
 62
     0
 10
4805.0818161235684
 20
4154.6279914081479
 30
0.0
 11
4805.0818161235684
 21
3790.6383380322941
 31
0.0
  0
LINE
  5
8BB1
  8
3
 62
     0
 10
3655.081816123567
 20
4154.6279914081479
 30
0.0
 11
3655.081816123567
 21
3790.6383380322941
 31
0.0
  0
LINE
  5
8BB2
  8
3
 62
     0
 10
4705.0818161235666
 20
3840.638338032295
 30
0.0
 11
3755.081816123567
 21
3840.638338032295
 31
0.0
  0
INSERT
  5
8BB3
  8
3
 62
     0
  2
_OPEN
 10
4805.0818161235684
 20
3840.638338032295
 30
0.0
 41
100.0
 42
100.0
 43
100.0
  0
INSERT
  5
8BB4
  8
3
 62
     0
  2
_OPEN
 10
3655.081816123567
 20
3840.638338032295
 30
0.0
 41
100.0
 42
100.0
 43
100.0
 50
180.0
  0
TEXT
  8
3
  40
150
  5
8C0A
  62
0
  72
0
  71
0
 10
3932.00
 20
3700.14
 30
0.000000
  1
1150
  0
POINT
  5
8BB6
  8
DEFPOINTS
 62
     0
 10
4805.0818161235684
 20
4179.6279914081479
 30
0.0
  0
POINT
  5
8BB7
  8
DEFPOINTS
 62
     0
 10
3655.081816123567
 20
4179.6279914081479
 30
0.0
  0
POINT
  5
8BB8
  8
DEFPOINTS
 62
     0
 10
3655.081816123567
 20
3840.638338032295
 30
0.0
  0
ENDBLK
  5
89D8
  8
0
  0
BLOCK
  8
0
  2
*D15
 70
     1
 10
0.0
 20
0.0
 30
0.0
  3
*D15
  1

  0
LINE
  5
8BB9
  8
3
 62
     0
 10
2905.081816123567
 20
4154.6279914081479
 30
0.0
 11
2905.081816123567
 21
3790.6383380322941
 31
0.0
  0
LINE
  5
8BBA
  8
3
 62
     0
 10
3555.081816123567
 20
3840.638338032295
 30
0.0
 11
3005.081816123567
 21
3840.638338032295
 31
0.0
  0
INSERT
  5
8BBB
  8
3
 62
     0
  2
_OPEN
 10
3655.081816123567
 20
3840.638338032295
 30
0.0
 41
100.0
 42
100.0
 43
100.0
  0
INSERT
  5
8BBC
  8
3
 62
     0
  2
_OPEN
 10
2905.081816123567
 20
3840.638338032295
 30
0.0
 41
100.0
 42
100.0
 43
100.0
 50
180.0
  0
TEXT
  8
3
  40
150
  5
8C0B
  62
0
  72
0
  71
0
 10
2980.08
 20
3700.14
 30
0.000000
  1
750
  0
POINT
  5
8BBE
  8
DEFPOINTS
 62
     0
 10
3655.081816123567
 20
4179.6279914081479
 30
0.0
  0
POINT
  5
8BBF
  8
DEFPOINTS
 62
     0
 10
2905.081816123567
 20
4179.6279914081479
 30
0.0
  0
POINT
  5
8BC0
  8
DEFPOINTS
 62
     0
 10
2905.081816123567
 20
3840.638338032295
 30
0.0
  0
ENDBLK
  5
8A03
  8
0
  0
BLOCK
  8
0
  2
*D16
 70
     1
 10
0.0
 20
0.0
 30
0.0
  3
*D16
  1

  0
LINE
  5
8BC1
  8
3
 62
     0
 10
6249.0697441729999
 20
4154.6279914081479
 30
0.0
 11
6249.0697441729999
 21
3790.6383380322941
 31
0.0
  0
LINE
  5
8BC2
  8
3
 62
     0
 10
7749.0697441730017
 20
4154.6279914081479
 30
0.0
 11
7749.0697441730017
 21
3790.6383380322941
 31
0.0
  0
LINE
  5
8BC3
  8
3
 62
     0
 10
6349.0697441729999
 20
3840.638338032295
 30
0.0
 11
7649.0697441730017
 21
3840.638338032295
 31
0.0
  0
INSERT
  5
8BC4
  8
3
 62
     0
  2
_OPEN
 10
6249.0697441729999
 20
3840.638338032295
 30
0.0
 41
100.0
 42
100.0
 43
100.0
 50
180.0
  0
INSERT
  5
8BC5
  8
3
 62
     0
  2
_OPEN
 10
7749.0697441730017
 20
3840.638338032295
 30
0.0
 41
100.0
 42
100.0
 43
100.0
  0
TEXT
  8
3
  40
150
  5
8C0C
  62
0
  72
0
  71
0
 10
6772.90
 20
3700.14
 30
0.000000
  1
1500
  0
POINT
  5
8BC7
  8
DEFPOINTS
 62
     0
 10
6249.0697441729999
 20
4179.6279914081479
 30
0.0
  0
POINT
  5
8BC8
  8
DEFPOINTS
 62
     0
 10
7749.0697441730017
 20
4179.6279914081479
 30
0.0
  0
POINT
  5
8BC9
  8
DEFPOINTS
 62
     0
 10
7749.0697441730017
 20
3840.638338032295
 30
0.0
  0
ENDBLK
  5
87E3
  8
0
  0
BLOCK
  8
0
  2
*D17
 70
     1
 10
0.0
 20
0.0
 30
0.0
  3
*D17
  1

  0
LINE
  5
87FE
  8
0
  6
BYBLOCK
 62
     0
 10
8304.0697441730008
 20
4154.6279914081479
 30
0.0
 11
8304.0697441730008
 21
3790.6383380322941
 31
0.0
  0
LINE
  5
87FF
  8
0
  6
BYBLOCK
 62
     0
 10
7849.0697441730017
 20
3840.638338032295
 30
0.0
 11
8204.0697441730008
 21
3840.638338032295
 31
0.0
  0
TEXT
  5
8800
  8
3
 62
     0
 10
7850.0796396438191
 20
3887.747357576372
 30
0.0
 40
150.0
  1
555
  0
INSERT
  5
8801
  8
0
  6
BYBLOCK
 62
     0
  2
_OPEN
 10
7749.0697441730017
 20
3840.638338032295
 30
0.0
 41
100.0
 42
100.0
 43
100.0
 50
180.0
  0
INSERT
  5
8802
  8
0
  6
BYBLOCK
 62
     0
  2
_OPEN
 10
8304.0697441730008
 20
3840.638338032295
 30
0.0
 41
100.0
 42
100.0
 43
100.0
  0
POINT
  5
8803
  8
DEFPOINTS
  6
BYBLOCK
 62
     0
 10
7749.0697441730017
 20
4179.6279914081479
 30
0.0
  0
POINT
  5
8804
  8
DEFPOINTS
  6
BYBLOCK
 62
     0
 10
8304.0697441730008
 20
4179.6279914081479
 30
0.0
  0
POINT
  5
8805
  8
DEFPOINTS
  6
BYBLOCK
 62
     0
 10
8304.0697441730008
 20
3840.638338032295
 30
0.0
  0
ENDBLK
  5
8806
  8
0
  0
BLOCK
  8
0
  2
*D18
 70
     1
 10
0.0
 20
0.0
 30
0.0
  3
*D18
  1

  0
LINE
  5
8BCA
  8
3
 62
     0
 10
8259.0697441730026
 20
5924.627991408147
 30
0.0
 11
8716.1480083497318
 21
5924.627991408147
 31
0.0
  0
LINE
  5
8BCB
  8
3
 62
     0
 10
8259.0697441730026
 20
4674.627991408147
 30
0.0
 11
8716.1480083497318
 21
4674.627991408147
 31
0.0
  0
LINE
  5
8BCC
  8
3
 62
     0
 10
8666.1480083497336
 20
5824.6279914081479
 30
0.0
 11
8666.1480083497336
 21
4774.6279914081479
 31
0.0
  0
INSERT
  5
8BCD
  8
3
 62
     0
  2
_OPEN
 10
8666.1480083497336
 20
5924.627991408147
 30
0.0
 41
100.0
 42
100.0
 43
100.0
 50
90.0
  0
INSERT
  5
8BCE
  8
3
 62
     0
  2
_OPEN
 10
8666.1480083497336
 20
4674.627991408147
 30
0.0
 41
100.0
 42
100.0
 43
100.0
 50
270.0
  0
TEXT
  8
3
  40
150
  5
8C0D
  62
0
  72
0
  71
0
 10
8241.15
 20
5054.13
 30
0.000000
  1
φ1250
  0
POINT
  5
8BD0
  8
DEFPOINTS
 62
     0
 10
8234.0697441730026
 20
5924.627991408147
 30
0.0
  0
POINT
  5
8BD1
  8
DEFPOINTS
 62
     0
 10
8234.0697441730026
 20
4674.627991408147
 30
0.0
  0
POINT
  5
8BD2
  8
DEFPOINTS
 62
     0
 10
8666.1480083497336
 20
4674.627991408147
 30
0.0
  0
ENDBLK
  5
882D
  8
0
  0
BLOCK
  8
0
  2
*D19
 70
     1
 10
0.0
 20
0.0
 30
0.0
  3
*D19
  1

  0
LINE
  5
8BD3
  8
3
 62
     0
 10
7274.0697441730008
 20
6711.627991408147
 30
0.0
 11
7274.0697441730008
 21
6939.0218674917933
 31
0.0
  0
LINE
  5
8BD4
  8
3
 62
     0
 10
8224.0697441730008
 20
6711.627991408147
 30
0.0
 11
8224.0697441730008
 21
6939.0218674917933
 31
0.0
  0
LINE
  5
8BD5
  8
3
 62
     0
 10
7374.0697441729999
 20
6889.0218674917933
 30
0.0
 11
8124.0697441729999
 21
6889.0218674917933
 31
0.0
  0
INSERT
  5
8BD6
  8
3
 62
     0
  2
_OPEN
 10
7274.0697441730008
 20
6889.0218674917933
 30
0.0
 41
100.0
 42
100.0
 43
100.0
 50
180.0
  0
INSERT
  5
8BD7
  8
3
 62
     0
  2
_OPEN
 10
8224.0697441730008
 20
6889.0218674917933
 30
0.0
 41
100.0
 42
100.0
 43
100.0
  0
TEXT
  8
3
  40
150
  5
8C0E
  62
0
  72
0
  71
0
 10
7448.85
 20
6748.52
 30
0.000000
  1
950
  0
POINT
  5
8BD9
  8
DEFPOINTS
 62
     0
 10
7274.0697441730008
 20
6686.6279914081479
 30
0.0
  0
POINT
  5
8BDA
  8
DEFPOINTS
 62
     0
 10
8224.0697441730008
 20
6686.6279914081479
 30
0.0
  0
POINT
  5
8BDB
  8
DEFPOINTS
 62
     0
 10
8224.0697441730008
 20
6889.0218674917933
 30
0.0
  0
ENDBLK
  5
8839
  8
0
  0
BLOCK
  8
0
  2
*D20
 70
     1
 10
0.0
 20
0.0
 30
0.0
  3
*D20
  1

  0
LINE
  5
88A4
  8
0
  6
BYBLOCK
 62
     0
 10
8234.0697441730026
 20
5999.627991408147
 30
0.0
 11
8234.0697441730026
 21
7225.6834492442949
 31
0.0
  0
LINE
  5
88A5
  8
0
  6
BYBLOCK
 62
     0
 10
7749.0697441729999
 20
7130.4151504467372
 30
0.0
 11
7749.0697441729999
 21
7225.6834492442949
 31
0.0
  0
LINE
  5
88A6
  8
0
  6
BYBLOCK
 62
     0
 10
8134.0697441730017
 20
7175.6834492442949
 30
0.0
 11
7849.0697441729999
 21
7175.6834492442949
 31
0.0
  0
TEXT
  5
88A7
  8
3
 62
     0
 10
7808.960141209247
 20
7244.8271790820436
 30
0.0
 40
150.0
  1
485
  0
INSERT
  5
88A8
  8
0
  6
BYBLOCK
 62
     0
  2
_OPEN
 10
8234.0697441730026
 20
7175.6834492442949
 30
0.0
 41
100.0
 42
100.0
 43
100.0
  0
INSERT
  5
88A9
  8
0
  6
BYBLOCK
 62
     0
  2
_OPEN
 10
7749.0697441729999
 20
7175.6834492442949
 30
0.0
 41
100.0
 42
100.0
 43
100.0
 50
180.0
  0
POINT
  5
88AA
  8
DEFPOINTS
  6
BYBLOCK
 62
     0
 10
8234.0697441730026
 20
5974.6279914081479
 30
0.0
  0
POINT
  5
88AB
  8
DEFPOINTS
  6
BYBLOCK
 62
     0
 10
7749.0697441729999
 20
7105.4151504467372
 30
0.0
  0
POINT
  5
88AC
  8
DEFPOINTS
  6
BYBLOCK
 62
     0
 10
7749.0697441729999
 20
7175.6834492442949
 30
0.0
  0
ENDBLK
  5
88AD
  8
0
  0
BLOCK
  8
0
  2
*D21
 70
     1
 10
0.0
 20
0.0
 30
0.0
  3
*D21
  1

  0
LINE
  5
8BDC
  8
3
 62
     0
 10
6102.0697441729999
 20
5604.6279914081479
 30
0.0
 11
6102.0697441729999
 21
7225.6834492442949
 31
0.0
  0
LINE
  5
8BDD
  8
3
 62
     0
 10
7649.0697441730008
 20
7175.6834492442949
 30
0.0
 11
6202.0697441730008
 21
7175.6834492442949
 31
0.0
  0
INSERT
  5
8BDE
  8
3
 62
     0
  2
_OPEN
 10
7749.0697441729999
 20
7175.6834492442949
 30
0.0
 41
100.0
 42
100.0
 43
100.0
  0
INSERT
  5
8BDF
  8
3
 62
     0
  2
_OPEN
 10
6102.0697441729999
 20
7175.6834492442949
 30
0.0
 41
100.0
 42
100.0
 43
100.0
 50
180.0
  0
TEXT
  8
3
  40
150
  5
8C0F
  62
0
  72
0
  71
0
 10
6625.57
 20
7160.18
 30
0.000000
  1
MAX
  0
TEXT
  8
3
  40
150
  5
8C10
  62
0
  72
0
  71
0
 10
6625.57
 20
6965.18
 30
0.000000
  1
1680
  0
POINT
  5
8BE1
  8
DEFPOINTS
 62
     0
 10
7749.0697441729999
 20
7105.4151504467372
 30
0.0
  0
POINT
  5
8BE2
  8
DEFPOINTS
 62
     0
 10
6102.0697441729999
 20
5579.6279914081479
 30
0.0
  0
POINT
  5
8BE3
  8
DEFPOINTS
 62
     0
 10
6102.0697441729999
 20
7175.6834492442949
 30
0.0
  0
ENDBLK
  5
88A2
  8
0
  0
BLOCK
  8
0
  2
_DOT
 70
     0
 10
0.0
 20
0.0
 30
0.0
  3
_DOT
  1

  0
LINE
  5
8927
  8
0
  6
BYBLOCK
 62
     0
 10
0.0
 20
0.0
 30
0.0
 11
-1.0
 21
-0.0000000000000284
 31
0.0
  0
POLYLINE
  5
8928
  8
0
  6
BYBLOCK
 62
     0
 66
     1
 10
0.0
 20
0.0
 30
0.0
 70
     1
 40
0.1666666666666666
 41
0.1666666666666666
  0
VERTEX
  5
8BE4
  8
0
  6
BYBLOCK
 62
     0
 10
-0.0833333333333286
 20
-0.0000000000000284
 30
0.0
 42
1.0
  0
VERTEX
  5
8BE5
  8
0
  6
BYBLOCK
 62
     0
 10
0.0833333333333286
 20
-0.0000000000000284
 30
0.0
 42
1.0
  0
SEQEND
  5
8BE6
  8
0
  6
BYBLOCK
 62
     0
  0
ENDBLK
  5
890C
  8
0
  0
BLOCK
  8
0
  2
*D23
 70
     1
 10
0.0
 20
0.0
 30
0.0
  3
*D23
  1

  0
LINE
  5
8A89
  8
0
  6
BYBLOCK
 62
     0
 10
4805.0818161235684
 20
9666.0060885299245
 30
0.0
 11
4805.0818161235684
 21
10962.3455461579
 31
0.0
  0
LINE
  5
8A8A
  8
0
  6
BYBLOCK
 62
     0
 10
4505.0818161235666
 20
10912.345546157891
 30
0.0
 11
4705.0818161235666
 21
10912.345546157891
 31
0.0
  0
TEXT
  5
8A8B
  8
3
 62
     0
 10
4412.2246732664244
 20
10963.61474988621
 30
0.0
 40
150.0
  1
400
  0
INSERT
  5
8A8C
  8
0
  6
BYBLOCK
 62
     0
  2
_OPEN
 10
4405.0818161235666
 20
10912.345546157891
 30
0.0
 41
100.0
 42
100.0
 43
100.0
 50
180.0
  0
INSERT
  5
8A8D
  8
0
  6
BYBLOCK
 62
     0
  2
_OPEN
 10
4805.0818161235684
 20
10912.345546157891
 30
0.0
 41
100.0
 42
100.0
 43
100.0
  0
POINT
  5
8A8E
  8
DEFPOINTS
  6
BYBLOCK
 62
     0
 10
4405.0818161235666
 20
10676.006088529921
 30
0.0
  0
POINT
  5
8A8F
  8
DEFPOINTS
  6
BYBLOCK
 62
     0
 10
4805.0818161235684
 20
9641.0060885299245
 30
0.0
  0
POINT
  5
8A90
  8
DEFPOINTS
  6
BYBLOCK
 62
     0
 10
4805.0818161235684
 20
10912.345546157891
 30
0.0
  0
ENDBLK
  5
8A91
  8
0
  0
BLOCK
  8
0
  2
*D24
 70
     1
 10
0.0
 20
0.0
 30
0.0
  3
*D24
  1

  0
LINE
  5
8BE7
  8
3
 62
     0
 10
2880.081816123567
 20
4329.627991408147
 30
0.0
 11
2091.4003334229419
 21
4329.627991408147
 31
0.0
  0
LINE
  5
8BE8
  8
3
 62
     0
 10
2880.081816123567
 20
4374.627991408147
 30
0.0
 11
2091.4003334229419
 21
4374.627991408147
 31
0.0
  0
LINE
  5
8BE9
  8
3
 62
     0
 10
2141.4003334229419
 20
4229.6279914081479
 30
0.0
 11
2141.4003334229419
 21
4129.6279914081479
 31
0.0
  0
LINE
  5
8BEA
  8
3
 62
     0
 10
2141.4003334229419
 20
4474.627991408147
 30
0.0
 11
2141.4003334229419
 21
4574.6279914081479
 31
0.0
  0
LINE
  5
8BEB
  8
3
 62
     0
 10
2141.4003334229419
 20
4352.1279914081479
 30
0.0
 11
1902.114619137227
 21
4423.9137056938634
 31
0.0
  0
LINE
  5
8BEC
  8
3
 62
     0
 10
1902.114619137227
 20
4423.9137056938634
 30
0.0
 11
1902.114619137227
 21
4959.6279914081488
 31
0.0
  0
TEXT
  8
3
  40
150
  5
8C11
  62
0
  72
0
  71
0
 10
1437.83
 20
4426.27
 30
0.000000
  1
(45)
  0
LINE
  5
8BEE
  8
3
 62
     0
 10
2141.4003334229419
 20
4329.627991408147
 30
0.0
 11
2141.4003334229419
 21
4374.627991408147
 31
0.0
  0
LINE
  5
8BEF
  8
3
 62
     0
 10
2141.4003334229419
 20
4329.627991408147
 30
0.0
 11
2141.4003334229419
 21
4374.627991408147
 31
0.0
  0
INSERT
  5
8BF0
  8
3
 62
     0
  2
_DOT
 10
2141.4003334229419
 20
4329.627991408147
 30
0.0
 41
100.0
 42
100.0
 43
100.0
 50
90.0
  0
INSERT
  5
8BF1
  8
3
 62
     0
  2
_OPEN
 10
2141.4003334229419
 20
4374.627991408147
 30
0.0
 41
100.0
 42
100.0
 43
100.0
 50
270.0
  0
POINT
  5
8BF2
  8
DEFPOINTS
 62
     0
 10
2905.081816123567
 20
4329.627991408147
 30
0.0
  0
POINT
  5
8BF3
  8
DEFPOINTS
 62
     0
 10
2905.081816123567
 20
4374.627991408147
 30
0.0
  0
POINT
  5
8BF4
  8
DEFPOINTS
 62
     0
 10
2141.4003334229419
 20
4374.627991408147
 30
0.0
  0
ENDBLK
  5
8B13
  8
0
  0
BLOCK
  8
0
  2
*D25
 70
     1
 10
0.0
 20
0.0
 30
0.0
  3
*D25
  1

  0
LINE
  5
8BF5
  8
3
 62
     0
 10
2805.081816123567
 20
6686.6279914081479
 30
0.0
 11
1510.4279358286151
 21
6686.6279914081488
 31
0.0
  0
LINE
  5
8BF6
  8
3
 62
     0
 10
2880.081816123567
 20
4179.6279914081479
 30
0.0
 11
1510.4279358286151
 21
4179.6279914081488
 31
0.0
  0
LINE
  5
8BF7
  8
3
 62
     0
 10
1560.4279358286151
 20
6586.6279914081488
 30
0.0
 11
1560.4279358286151
 21
4279.6279914081479
 31
0.0
  0
INSERT
  5
8BF8
  8
3
 62
     0
  2
_OPEN
 10
1560.4279358286151
 20
6686.6279914081488
 30
0.0
 41
100.0
 42
100.0
 43
100.0
 50
90.0
  0
INSERT
  5
8BF9
  8
3
 62
     0
  2
_OPEN
 10
1560.4279358286151
 20
4179.6279914081488
 30
0.0
 41
100.0
 42
100.0
 43
100.0
 50
270.0
  0
TEXT
  8
3
  40
150
  5
8C12
  62
0
  72
0
  71
0
 10
1096.14
 20
5167.63
 30
0.000000
  1
(2507)
  0
POINT
  5
8BFB
  8
DEFPOINTS
 62
     0
 10
2830.081816123567
 20
6686.6279914081479
 30
0.0
  0
POINT
  5
8BFC
  8
DEFPOINTS
 62
     0
 10
2905.081816123567
 20
4179.6279914081479
 30
0.0
  0
POINT
  5
8BFD
  8
DEFPOINTS
 62
     0
 10
1560.4279358286151
 20
4179.6279914081488
 30
0.0
  0
ENDBLK
  5
8B20
  8
0
  0
ENDSEC
  0
SECTION
  2
ENTITIES
  0
INSERT
  5
85D5
  8
0
  2
YA_N
 10
6.0
 20
5.0
 30
0.0
  0
LINE
  5
85D7
  8
2
 10
3655.081816123567
 20
6654.9137105134614
 30
0.0
 11
3655.081816123567
 21
4179.6279914081479
 31
0.0
  0
ARC
  5
85D8
  8
1
 10
3564.0818161235679
 20
5390.6279914081479
 30
0.0
 40
1170.0
 50
355.539156302126
 51
85.539156302126017
  0
ARC
  5
85D9
  8
1
 10
3746.0818161235679
 20
5390.6279914081479
 30
0.0
 40
988.0
 50
298.77483130261282
 51
308.86815141725373
  0
ARC
  5
85DA
  8
1
 10
3732.081816123567
 20
5222.6279914081479
 30
0.0
 40
820.0
 50
174.61184819567251
 51
231.5043101381448
  0
ARC
  5
85DB
  8
1
 10
3578.081816123567
 20
5222.6279914081479
 30
0.0
 40
666.0
 50
168.656143036684
 51
173.360865922095
  0
LINE
  5
85DC
  8
1
 10
3655.081816123567
 20
6557.0837342462546
 30
0.0
 11
2830.081816123567
 21
6633.627991408147
 31
0.0
  0
LINE
  5
85DD
  8
1
 10
2905.081816123567
 20
4374.627991408147
 30
0.0
 11
4805.0818161235684
 21
4374.627991408147
 31
0.0
1001
ACAD
1000
ASC_BOUNDS
1002
{
1070
    19
1005
0
1002
}
  0
LINE
  5
85DE
  8
1
 10
2905.081816123567
 20
4524.6279914081479
 30
0.0
 11
4815.0818161235684
 21
4524.6279914081479
 31
0.0
  0
LINE
  5
85DF
  8
1
 10
2905.081816123567
 20
4524.6279914081479
 30
0.0
 11
2905.081816123567
 21
4374.627991408147
 31
0.0
  0
LINE
  5
85E1
  8
2
 10
4555.0818161235666
 20
5050.482508013858
 30
0.0
 11
4555.0818161235666
 21
4374.627991408147
 31
0.0
  0
LINE
  5
85E2
  8
2
 10
4274.7675993654148
 20
4784.627991408147
 30
0.0
 11
4851.6951245969431
 21
4784.627991408147
 31
0.0
  0
LINE
  5
85E3
  8
1
 10
2830.081816123567
 20
6686.6279914081479
 30
0.0
 11
2880.081816123567
 21
6686.6279914081479
 31
0.0
  0
LINE
  5
85E4
  8
1
 10
2830.081816123567
 20
5300.6279914081479
 30
0.0
 11
2880.081816123567
 21
5300.6279914081479
 31
0.0
  0
LINE
  5
85E5
  8
1
 10
2830.081816123567
 20
5353.6279914081479
 30
0.0
 11
2925.0925359665339
 21
5353.6279914081479
 31
0.0
  0
LINE
  5
85E6
  8
1
 10
2880.081816123567
 20
6686.6279914081479
 30
0.0
 11
2880.081816123567
 21
5300.6279914081479
 31
0.0
  0
LINE
  5
85E7
  8
1
 10
2830.081816123567
 20
6686.6279914081479
 30
0.0
 11
2830.081816123567
 21
5300.6279914081479
 31
0.0
  0
LINE
  5
85E8
  8
1
 10
2833.081816123567
 20
6686.6279914081479
 30
0.0
 11
2833.081816123567
 21
5300.6279914081479
 31
0.0
  0
LINE
  5
85E9
  8
1
 10
6249.0697441729999
 20
4524.6279914081479
 30
0.0
 11
6249.0697441729999
 21
4374.627991408147
 31
0.0
  0
LINE
  5
85EA
  8
1
 10
6249.0697441729999
 20
4374.627991408147
 30
0.0
 11
8304.0697441730008
 21
4374.627991408147
 31
0.0
1001
ACAD
1000
ASC_BOUNDS
1002
{
1070
    19
1005
0
1005
0
1002
}
  0
LINE
  5
85EB
  8
1
 10
6249.0697441729999
 20
4524.6279914081479
 30
0.0
 11
7269.0697441730017
 21
4524.6279914081479
 31
0.0
  0
LINE
  5
85EC
  8
1
 10
8304.0697441730008
 20
4524.6279914081479
 30
0.0
 11
8304.0697441730008
 21
4374.627991408147
 31
0.0
  0
LINE
  5
85ED
  8
1
 10
8224.0697441730008
 20
6686.6279914081479
 30
0.0
 11
8224.0697441730044
 21
4524.6279914081479
 31
0.0
  0
LINE
  5
85EE
  8
1
 10
7274.0697441730008
 20
6686.6279914081479
 30
0.0
 11
7274.0697441730008
 21
4524.6279914081488
 31
0.0
  0
LINE
  5
85EF
  8
1
 10
7221.0697441729999
 20
6686.6279914081479
 30
0.0
 11
8277.0697441730008
 21
6686.6279914081479
 31
0.0
  0
LINE
  5
85F0
  8
1
 10
8277.0697441730008
 20
6686.6279914081479
 30
0.0
 11
8277.0697441730008
 21
5300.6279914081479
 31
0.0
  0
LINE
  5
85F1
  8
1
 10
7221.0697441729999
 20
6686.6279914081479
 30
0.0
 11
7221.0697441729999
 21
5337.1279914081524
 31
0.0
  0
LINE
  5
85F2
  8
2
 10
2751.6452778747148
 20
5299.627991408147
 30
0.0
 11
4815.2370540416159
 21
5299.627991408147
 31
0.0
  0
LINE
  5
85F3
  8
2
 10
6122.8755837907383
 20
5299.627991408147
 30
0.0
 11
8373.1395046730522
 21
5299.627991408147
 31
0.0
  0
LINE
  5
85F4
  8
1
 10
8226.3697441730019
 20
5974.6279914081479
 30
0.0
 11
8234.0697441730026
 21
5974.6279914081479
 31
0.0
  0
LINE
  5
85F5
  8
1
 10
8203.0537140084707
 20
5957.1279914081479
 30
0.0
 11
8252.5287034668218
 21
5957.1279914081479
 31
0.0
  0
LINE
  5
85F6
  8
1
 10
8203.0537140084707
 20
4642.127991408147
 30
0.0
 11
8252.5287034668218
 21
4642.127991408147
 31
0.0
  0
LINE
  5
85F7
  8
1
 10
8226.3697441730019
 20
4624.627991408146
 30
0.0
 11
8234.0697441730026
 21
4624.627991408146
 31
0.0
  0
LINE
  5
85F8
  8
2
 10
6122.8755837907383
 20
4784.627991408147
 30
0.0
 11
6299.3035850370661
 21
4784.627991408147
 31
0.0
  0
LINE
  5
85F9
  8
2
 10
3655.081816123567
 20
10550.62853774078
 30
0.0
 11
3655.081816123567
 21
8489.9572871205801
 31
0.0
  0
LINE
  5
85FA
  8
2
 10
3050.9926222065469
 20
10121.006088529921
 30
0.0
 11
4266.5586413577003
 21
10121.006088529921
 31
0.0
  0
LINE
  5
85FB
  8
2
 10
7749.0697441729999
 20
6905.9559236918149
 30
0.0
 11
7749.0697441729999
 21
4179.6279914081479
 31
0.0
  0
POINT
  5
85FC
  8
1
 10
3655.081816123567
 20
6654.9137105134614
 30
0.0
  0
POINT
  5
85FD
  8
1
 10
4729.8821007342194
 20
5299.627991408147
 30
0.0
  0
INSERT
  5
85FE
  8
0
  2
YA_N
 10
-1757.227407310314
 20
-1218.7864174577801
 30
0.0
 41
30.0
 42
30.0
 43
30.0
  0
ARC
  5
8600
  8
1
 10
4555.0818161235666
 20
4784.627991408147
 30
0.0
 40
203.5
 50
285.60376000000002
 51
254.39630099999991
  0
LINE
  5
8601
  8
1
 10
4609.8198531235666
 20
4588.6279914081479
 30
0.0
 11
4500.3437791235674
 21
4588.6279914081479
 31
0.0
  0
ARC
  5
8602
  8
1
 10
4371.0818161235684
 20
4658.954652408147
 30
0.0
 40
5.0000669999999987
 50
124.943665
 51
180.0
  0
LINE
  5
8603
  8
1
 10
4366.0818161235666
 20
4658.954652408147
 30
0.0
 11
4366.0818161235666
 21
4584.627991408147
 31
0.0
  0
LINE
  5
8604
  8
1
 10
4368.2180461235666
 20
4663.0532844081481
 30
0.0
 11
4384.1559121235668
 21
4674.1897594081474
 31
0.0
  0
LINE
  5
8605
  8
1
 10
4744.0818161235666
 20
4658.954652408147
 30
0.0
 11
4744.0818161235666
 21
4584.627991408147
 31
0.0
  0
LINE
  5
8606
  8
1
 10
4741.9457071235674
 20
4663.0532844081481
 30
0.0
 11
4726.0078411235672
 21
4674.1897594081474
 31
0.0
  0
ARC
  5
8607
  8
1
 10
4739.0818161235684
 20
4658.954652408147
 30
0.0
 40
5.0
 50
0.0
 51
55.05633899999998
  0
LINE
  5
8608
  8
1
 10
4311.6587910809567
 20
4584.627991408147
 30
0.0
 11
4485.0818161235666
 21
4584.627991408147
 31
0.0
  0
LINE
  5
8609
  8
1
 10
4295.0818161235666
 20
4524.6279914081479
 30
0.0
 11
4311.6587910809567
 21
4584.627991408147
 31
0.0
  0
LINE
  5
860A
  8
1
 10
4815.0818161235684
 20
4524.6279914081479
 30
0.0
 11
4798.9008595784489
 21
4584.627991408147
 31
0.0
  0
LINE
  5
860B
  8
1
 10
4485.0818161235666
 20
4574.6279914081479
 30
0.0
 11
4625.0818161235666
 21
4574.6279914081479
 31
0.0
  0
LINE
  5
860C
  8
1
 10
4485.0818161235666
 20
4534.627991408147
 30
0.0
 11
4625.0818161235666
 21
4534.627991408147
 31
0.0
  0
LINE
  5
860D
  8
1
 10
4625.0818161235666
 20
4584.627991408147
 30
0.0
 11
4625.0818161235666
 21
4574.6279914081479
 31
0.0
  0
LINE
  5
860E
  8
1
 10
4485.0818161235666
 20
4584.627991408147
 30
0.0
 11
4485.0818161235666
 21
4574.6279914081479
 31
0.0
  0
LINE
  5
860F
  8
1
 10
4485.0818161235666
 20
4534.627991408147
 30
0.0
 11
4485.0818161235666
 21
4524.6279914081479
 31
0.0
  0
LINE
  5
8610
  8
1
 10
4625.0818161235666
 20
4534.627991408147
 30
0.0
 11
4625.0818161235666
 21
4524.6279914081479
 31
0.0
  0
LINE
  5
8611
  8
1
 10
4625.0818161235666
 20
4584.627991408147
 30
0.0
 11
4798.9008595784489
 21
4584.627991408147
 31
0.0
  0
INSERT
  5
8612
  8
0
  2
YA_N
 10
-755.24367588184748
 20
-538.554984833856
 30
0.0
 41
30.0
 42
30.0
 43
30.0
  0
CIRCLE
  5
8614
  8
1
 10
3655.081816123567
 20
5299.627991408147
 30
0.0
 40
190.5
  0
LINE
  5
8617
  8
1
 10
7274.0697441730008
 20
6633.627991408147
 30
0.0
 11
8224.0697441730008
 21
6633.627991408147
 31
0.0
  0
LINE
  5
861A
  8
1
 10
4805.0818161235684
 20
4524.6279914081479
 30
0.0
 11
4805.0818161235684
 21
4374.627991408147
 31
0.0
  0
LINE
  5
861B
  8
1
 10
2905.081816123567
 20
4329.627991408147
 30
0.0
 11
2905.081816123567
 21
4179.6279914081479
 31
0.0
  0
LINE
  5
861C
  8
1
 10
2905.081816123567
 20
4179.6279914081479
 30
0.0
 11
4805.0818161235684
 21
4179.6279914081479
 31
0.0
1001
ACAD
1000
ASC_BOUNDS
1002
{
1070
    19
1005
0
1002
}
  0
LINE
  5
861D
  8
1
 10
2905.081816123567
 20
4329.627991408147
 30
0.0
 11
4805.0818161235684
 21
4329.627991408147
 31
0.0
  0
LINE
  5
861E
  8
1
 10
4805.0818161235684
 20
4329.627991408147
 30
0.0
 11
4805.0818161235684
 21
4179.6279914081479
 31
0.0
  0
LINE
  5
861F
  8
1
 10
3205.081816123567
 20
4524.6279914081479
 30
0.0
 11
3205.081816123567
 21
4374.627991408147
 31
0.0
  0
LINE
  5
8620
  8
1
 10
3205.081816123567
 20
4329.627991408147
 30
0.0
 11
3205.081816123567
 21
4179.6279914081479
 31
0.0
  0
POINT
  5
8621
  8
1
 10
2905.081816123567
 20
4179.6279914081479
 30
0.0
  0
LINE
  5
862D
  8
1
 10
2905.081816123567
 20
10676.006088529921
 30
0.0
 11
4405.0818161235666
 21
10676.006088529921
 31
0.0
  0
LINE
  5
862E
  8
1
 10
2905.081816123567
 20
9566.0060885299245
 30
0.0
 11
3205.081816123567
 21
9566.0060885299245
 31
0.0
  0
LINE
  5
862F
  8
1
 10
3205.081816123567
 20
8621.0060885299245
 30
0.0
 11
4805.0818161235684
 21
8621.0060885299245
 31
0.0
  0
LINE
  5
8630
  8
1
 10
2905.081816123567
 20
10676.006088529921
 30
0.0
 11
2905.081816123567
 21
9566.0060885299245
 31
0.0
  0
LINE
  5
8631
  8
1
 10
4405.0818161235666
 20
10676.006088529921
 30
0.0
 11
4405.0818161235666
 21
9641.0060885299245
 31
0.0
  0
LINE
  5
8632
  8
1
 10
4805.0818161235684
 20
9641.0060885299245
 30
0.0
 11
4805.0818161235684
 21
8621.0060885299226
 31
0.0
  0
LINE
  5
8633
  8
1
 10
4405.0818161235666
 20
9641.0060885299245
 30
0.0
 11
4805.0818161235684
 21
9641.0060885299245
 31
0.0
  0
LINE
  5
8634
  8
1
 10
3205.081816123567
 20
9566.0060885299245
 30
0.0
 11
3205.081816123567
 21
8621.0060885299245
 31
0.0
  0
POINT
  5
8635
  8
1
 10
4405.0818161235666
 20
10676.006088529921
 30
0.0
  0
POINT
  5
8636
  8
1
 10
4805.0818161235684
 20
9641.0060885299245
 30
0.0
  0
POINT
  5
8637
  8
1
 10
3205.081816123567
 20
8621.0060885299245
 30
0.0
  0
POINT
  5
8638
  8
1
 10
2905.081816123567
 20
9566.0060885299245
 30
0.0
  0
LINE
  5
863A
  8
1
 10
6249.0697441729999
 20
4329.627991408147
 30
0.0
 11
8304.0697441730008
 21
4329.627991408147
 31
0.0
  0
LINE
  5
863B
  8
1
 10
6249.0697441729999
 20
4179.6279914081479
 30
0.0
 11
8304.0697441730008
 21
4179.6279914081479
 31
0.0
1001
ACAD
1000
ASC_BOUNDS
1002
{
1070
    19
1005
0
1005
0
1002
}
  0
LINE
  5
863C
  8
1
 10
6249.0697441729999
 20
4329.627991408147
 30
0.0
 11
6249.0697441729999
 21
4179.6279914081479
 31
0.0
  0
LINE
  5
863D
  8
1
 10
8304.0697441730008
 20
4329.627991408147
 30
0.0
 11
8304.0697441730008
 21
4179.6279914081479
 31
0.0
  0
LINE
  5
863F
  8
1
 10
7194.0697441730026
 20
4329.627991408147
 30
0.0
 11
7194.0697441730026
 21
4179.6279914081479
 31
0.0
  0
LINE
  5
8640
  8
1
 10
7194.0697441730026
 20
4524.6279914081479
 30
0.0
 11
7194.0697441730026
 21
4374.627991408147
 31
0.0
  0
LINE
  5
8642
  8
1
 10
7269.0697441730017
 20
4524.6279914081488
 30
0.0
 11
8304.0697441730008
 21
4524.6279914081479
 31
0.0
  0
LINE
  5
8643
  8
1
 10
6322.0697441729999
 20
5184.6279914081479
 30
0.0
 11
6322.0697441730008
 21
4814.6279914081479
 31
0.0
  0
LINE
  5
8644
  8
1
 10
6322.0697441730008
 20
5184.6279914081479
 30
0.0
 11
7166.069744172999
 21
5184.6279914081479
 31
0.0
  0
LINE
  5
8645
  8
1
 10
7166.069744172999
 20
5184.6279914081479
 30
0.0
 11
7166.0697441730017
 21
4524.6279914081479
 31
0.0
  0
LINE
  5
8646
  8
1
 10
6284.0697441730008
 20
5337.1279914081479
 30
0.0
 11
6284.0697441729999
 21
5262.1279914081479
 31
0.0
  0
LINE
  5
8647
  8
1
 10
6264.0697441730008
 20
5332.1279914081479
 30
0.0
 11
6284.0697441730008
 21
5332.1279914081479
 31
0.0
  0
LINE
  5
8648
  8
1
 10
6264.0697441730008
 20
5267.1279914081479
 30
0.0
 11
6284.0697441729999
 21
5267.1279914081479
 31
0.0
  0
CIRCLE
  5
8649
  8
1
 10
4555.0818161235666
 20
4784.627991408147
 30
0.0
 40
127.0
  0
LINE
  5
864A
  8
1
 10
6154.0697441730008
 20
5490.127991408147
 30
0.0
 11
6154.0697441730008
 21
4657.6279914081479
 31
0.0
  0
LINE
  5
864B
  8
1
 10
6154.0697441730008
 20
5490.127991408147
 30
0.0
 11
6264.0697441730008
 21
5490.127991408147
 31
0.0
  0
LINE
  5
864C
  8
1
 10
6154.0697441730008
 20
5109.1279914081479
 30
0.0
 11
6264.0697441730008
 21
5109.1279914081479
 31
0.0
  0
LINE
  5
864D
  8
1
 10
6154.0697441730008
 20
4911.6279914081479
 30
0.0
 11
6264.0697441730017
 21
4911.6279914081479
 31
0.0
  0
LINE
  5
864E
  8
1
 10
6154.0697441730008
 20
4657.6279914081479
 30
0.0
 11
6264.0697441730017
 21
4657.6279914081479
 31
0.0
  0
LINE
  5
864F
  8
1
 10
6264.0697441730008
 20
5490.127991408147
 30
0.0
 11
6264.0697441730008
 21
4657.6279914081479
 31
0.0
  0
LINE
  5
8650
  8
1
 10
6302.0697441729999
 20
5579.6279914081479
 30
0.0
 11
6302.0697441730017
 21
4814.6279914081479
 31
0.0
  0
LINE
  5
8651
  8
1
 10
6102.0697441729999
 20
5579.6279914081479
 30
0.0
 11
6102.0697441729999
 21
4564.6279914081479
 31
0.0
  0
LINE
  5
8652
  8
1
 10
6102.0697441729999
 20
5579.6279914081479
 30
0.0
 11
6302.0697441729999
 21
5579.6279914081479
 31
0.0
  0
LINE
  5
8653
  8
1
 10
6102.0697441729999
 20
4564.6279914081479
 30
0.0
 11
6302.0697441729999
 21
4564.6279914081479
 31
0.0
  0
LINE
  5
8654
  8
1
 10
8234.0697441730026
 20
5974.6279914081479
 30
0.0
 11
8234.0697441730026
 21
4624.627991408146
 31
0.0
  0
POINT
  5
8655
  8
1
 10
6102.0697441729999
 20
5579.6279914081479
 30
0.0
  0
POINT
  5
8656
  8
1
 10
8234.0697441730026
 20
5974.6279914081479
 30
0.0
  0
ARC
  5
865C
  8
1
 10
3655.081816123567
 20
5299.627991408147
 30
0.0
 40
280.0
 50
56.903687608519469
 51
243.5380141843408
  0
ARC
  5
865D
  8
1
 10
4555.0818161235666
 20
4784.627991408147
 30
0.0
 40
220.0
 50
243.5380141843408
 51
56.903687608519469
  0
LINE
  5
865E
  8
1
 10
3807.9752683159759
 20
5534.1990729094441
 30
0.0
 11
4675.2123857033166
 21
4968.9338411591671
 31
0.0
  0
LINE
  5
865F
  8
1
 10
3759.6430093641288
 20
5458.8674553236933
 30
0.0
 11
4624.7892782839408
 21
4890.7876340185112
 31
0.0
  0
LINE
  5
8660
  8
1
 10
3570.7714076024831
 20
5128.8005784586803
 30
0.0
 11
4498.8748771095106
 21
4670.7430494418359
 31
0.0
  0
LINE
  5
8661
  8
1
 10
3530.3127099982612
 20
5048.9635341017874
 30
0.0
 11
4457.0489470251123
 21
4587.6773463817208
 31
0.0
  0
LINE
  5
8662
  8
1
 10
6284.0697441730008
 20
5337.1279914081479
 30
0.0
 11
7274.0697441730008
 21
5337.1279914081524
 31
0.0
  0
LINE
  5
8663
  8
1
 10
6284.069744172999
 20
5262.1279914081479
 30
0.0
 11
7274.0697441730008
 21
5262.1279914081479
 31
0.0
  0
LINE
  5
8664
  8
1
 10
3692.581816123567
 20
8656.0060885299226
 30
0.0
 11
3692.581816123567
 21
9646.0060885299245
 31
0.0
  0
LINE
  5
8665
  8
1
 10
3617.581816123567
 20
8656.0060885299263
 30
0.0
 11
3617.5818161235611
 21
9646.0060885299245
 31
0.0
  0
LINE
  5
8666
  8
1
 10
3375.0818161235679
 20
8474.0060885299226
 30
0.0
 11
4775.0818161235666
 21
8474.0060885299226
 31
0.0
  0
LINE
  5
8667
  8
1
 10
3375.0818161235679
 20
8674.0060885299245
 30
0.0
 11
4775.0818161235666
 21
8674.0060885299245
 31
0.0
  0
LINE
  5
8668
  8
1
 10
3464.581816123567
 20
8636.0060885299245
 30
0.0
 11
4682.0818161235666
 21
8636.0060885299245
 31
0.0
  0
LINE
  5
8669
  8
1
 10
3464.581816123567
 20
8526.0060885299226
 30
0.0
 11
4682.0818161235666
 21
8526.0060885299226
 31
0.0
  0
LINE
  5
866A
  8
1
 10
3400.081816123567
 20
8694.0060885299245
 30
0.0
 11
3617.581816123567
 21
8694.0060885299245
 31
0.0
  0
LINE
  5
866B
  8
1
 10
4775.0818161235666
 20
8474.0060885299226
 30
0.0
 11
4775.0818161235666
 21
8674.0060885299245
 31
0.0
  0
LINE
  5
866C
  8
1
 10
4682.0818161235666
 20
8526.0060885299226
 30
0.0
 11
4682.0818161235666
 21
8636.0060885299245
 31
0.0
  0
LINE
  5
866D
  8
1
 10
4428.0818161235684
 20
8526.0060885299226
 30
0.0
 11
4428.0818161235684
 21
8636.0060885299245
 31
0.0
  0
LINE
  5
866E
  8
1
 10
3845.581816123567
 20
8526.0060885299226
 30
0.0
 11
3845.581816123567
 21
8636.0060885299245
 31
0.0
  0
LINE
  5
866F
  8
1
 10
3375.0818161235679
 20
8474.0060885299226
 30
0.0
 11
3375.0818161235679
 21
8674.0060885299245
 31
0.0
  0
POINT
  5
8670
  8
1
 10
3375.0818161235679
 20
8474.0060885299226
 30
0.0
  0
LINE
  5
8671
  8
1
 10
3687.5818161235679
 20
8636.0060885299245
 30
0.0
 11
3687.5818161235679
 21
8656.0060885299263
 31
0.0
  0
LINE
  5
8672
  8
1
 10
3622.581816123567
 20
8636.0060885299245
 30
0.0
 11
3622.581816123567
 21
8656.0060885299263
 31
0.0
  0
LINE
  5
8673
  8
1
 10
3617.581816123567
 20
8656.0060885299263
 30
0.0
 11
3692.581816123567
 21
8656.0060885299263
 31
0.0
  0
LINE
  5
8674
  8
1
 10
3464.581816123567
 20
8526.0060885299226
 30
0.0
 11
3464.581816123567
 21
8636.0060885299245
 31
0.0
  0
LINE
  5
8675
  8
1
 10
3400.081816123567
 20
9538.0060885299226
 30
0.0
 11
3617.5818161235629
 21
9538.0060885299245
 31
0.0
  0
LINE
  5
8676
  8
1
 10
2830.081816123567
 20
9593.0060885299226
 30
0.0
 11
2880.081816123567
 21
9593.0060885299226
 31
0.0
  0
LINE
  5
8677
  8
1
 10
2880.081816123567
 20
9646.0060885299245
 30
0.0
 11
4734.0818161235666
 21
9646.0060885299245
 31
0.0
  0
LINE
  5
8678
  8
1
 10
2830.081816123567
 20
10649.006088529921
 30
0.0
 11
2880.081816123567
 21
10649.006088529921
 31
0.0
  0
LINE
  5
8679
  8
1
 10
2880.081816123567
 20
10596.006088529921
 30
0.0
 11
4734.0818161235666
 21
10596.006088529921
 31
0.0
  0
LINE
  5
867A
  8
1
 10
2830.081816123567
 20
10649.006088529921
 30
0.0
 11
2830.081816123567
 21
9593.0060885299226
 31
0.0
  0
LINE
  5
867B
  8
1
 10
4734.0818161235666
 20
10596.006088529921
 30
0.0
 11
4734.0818161235666
 21
9646.0060885299245
 31
0.0
  0
LINE
  5
867C
  8
1
 10
2880.081816123567
 20
10649.006088529921
 30
0.0
 11
2880.081816123567
 21
9593.0060885299226
 31
0.0
  0
LINE
  5
867F
  8
2
 10
4555.0818161235666
 20
8488.3483566485902
 30
0.0
 11
4555.0818161235666
 21
9473.7156867083668
 31
0.0
  0
LINE
  5
8680
  8
1
 10
4351.5818161235684
 20
9380.5060885299245
 30
0.0
 11
4758.5818161235684
 21
9380.5060885299245
 31
0.0
  0
LINE
  5
8681
  8
1
 10
4758.5818161235684
 20
8731.0060885299245
 30
0.0
 11
4555.0818161235666
 21
8731.0060885299245
 31
0.0
  0
LINE
  5
8683
  8
1
 10
4585.0818161235666
 20
8721.0060885299226
 30
0.0
 11
4585.0818161235666
 21
8581.0060885299245
 31
0.0
  0
LINE
  5
8684
  8
1
 10
4525.0818161235666
 20
8721.0060885299226
 30
0.0
 11
4525.0818161235666
 21
8581.0060885299245
 31
0.0
  0
LINE
  5
8685
  8
1
 10
4351.5818161235684
 20
8731.0060885299245
 30
0.0
 11
4555.0818161235666
 21
8731.0060885299245
 31
0.0
  0
LINE
  5
8686
  8
1
 10
4587.5818161235666
 20
8721.0060885299226
 30
0.0
 11
4522.5818161235666
 21
8721.0060885299226
 31
0.0
  0
LINE
  5
8687
  8
1
 10
4587.5818161235666
 20
8721.0060885299226
 30
0.0
 11
4587.5818161235666
 21
8731.0060885299245
 31
0.0
  0
LINE
  5
8688
  8
1
 10
4522.5818161235666
 20
8721.0060885299226
 30
0.0
 11
4522.5818161235666
 21
8731.0060885299245
 31
0.0
  0
LINE
  5
868A
  8
1
 10
4525.0818161235666
 20
8581.0060885299245
 30
0.0
 11
4585.0818161235666
 21
8581.0060885299245
 31
0.0
  0
LINE
  5
868B
  8
1
 10
4351.5818161235684
 20
8731.0060885299245
 30
0.0
 11
4351.5818161235684
 21
9380.5060885299245
 31
0.0
  0
LINE
  5
868C
  8
1
 10
4758.5818161235684
 20
8731.0060885299245
 30
0.0
 11
4758.5818161235684
 21
9380.5060885299245
 31
0.0
  0
DIMENSION
  5
8699
  8
3
  2
*D2
 10
2905.081816123567
 20
10912.345546157891
 30
0.0
 11
3730.7010163151831
 21
10912.345546157891
 31
0.0
 70
   128
 13
4405.0818161235666
 23
10676.006088529921
 33
0.0
 14
2905.081816123567
 24
10676.006088529921
 34
0.0
1001
ACAD
1000
DSTYLE
1002
{
1070
   287
1070
     3
1070
    40
1040
50.0
1070
   143
1040
0.039
1070
   172
1070
     1
1070
   271
1070
     0
1070
   279
1070
     0
1070
   288
1070
     1
1002
}
  0
DIMENSION
  5
86B1
  8
3
  2
*D3
 10
2449.9094258002128
 20
9566.0060885299245
 30
0.0
 11
2449.909425800211
 21
10098.95487750085
 31
0.0
 70
   128
 13
2905.081816123567
 23
10676.006088529921
 33
0.0
 14
2905.081816123567
 24
9566.0060885299245
 34
0.0
 50
270.0
1001
ACAD
1000
DSTYLE
1002
{
1070
   287
1070
     3
1070
    40
1040
50.0
1070
   143
1040
0.039
1070
   172
1070
     1
1070
   271
1070
     0
1070
   279
1070
     0
1070
   288
1070
     1
1002
}
  0
DIMENSION
  5
86BD
  8
3
  2
*D4
 10
2449.909425800211
 20
8621.0060885299245
 30
0.0
 11
2324.9094258002101
 21
9093.5060885299263
 31
0.0
 70
     0
 13
2905.081816123567
 23
9566.0060885299245
 33
0.0
 14
3205.081816123567
 24
8621.0060885299245
 34
0.0
 50
270.0
1001
ACAD
1000
DSTYLE
1002
{
1070
   287
1070
     4
1070
    40
1040
50.0
1070
    75
1070
     1
1070
   143
1040
0.039
1070
   172
1070
     1
1070
   271
1070
     0
1070
   279
1070
     1
1070
   288
1070
     1
1002
}
  0
DIMENSION
  5
86CA
  8
3
  2
*D5
 10
4805.0818161235684
 20
8081.7460686846171
 30
0.0
 11
4023.7634968890379
 21
8081.7460686846171
 31
0.0
 70
   128
 13
3205.081816123567
 23
8621.0060885299245
 33
0.0
 14
4805.0818161235684
 24
8621.0060885299245
 34
0.0
1001
ACAD
1000
DSTYLE
1002
{
1070
   287
1070
     3
1070
    40
1040
50.0
1070
   143
1040
0.039
1070
   172
1070
     1
1070
   271
1070
     0
1070
   279
1070
     0
1070
   288
1070
     1
1002
}
  0
DIMENSION
  5
86D7
  8
3
  2
*D6
 10
5206.8675151495017
 20
9641.0060885299245
 30
0.0
 11
5206.8675151494999
 21
9122.8860957179131
 31
0.0
 70
   128
 13
4805.0818161235684
 23
8621.0060885299245
 33
0.0
 14
4805.0818161235684
 24
9641.0060885299245
 34
0.0
 50
270.0
1001
ACAD
1000
DSTYLE
1002
{
1070
   287
1070
     3
1070
    40
1040
50.0
1070
   143
1040
0.039
1070
   172
1070
     1
1070
   271
1070
     0
1070
   279
1070
     0
1070
   288
1070
     1
1002
}
  0
DIMENSION
  5
86F0
  8
3
  2
*D7
 10
3655.081816123567
 20
6948.7661070993781
 30
0.0
 11
3240.7990743688829
 21
6948.7661070993781
 31
0.0
 70
   128
 13
2830.081816123567
 23
6686.6279914081479
 33
0.0
 14
3655.081816123567
 24
6654.9137105134614
 34
0.0
1001
ACAD
1000
DSTYLE
1002
{
1070
   287
1070
     3
1070
    40
1040
50.0
1070
   143
1040
0.039
1070
   172
1070
     1
1070
   271
1070
     0
1070
   279
1070
     0
1070
   288
1070
     1
1002
}
  0
DIMENSION
  5
86FC
  8
3
  2
*D8
 10
4734.0818161235666
 20
6948.7661070993781
 30
0.0
 11
4194.5818161235684
 21
7073.7661070993781
 31
0.0
 70
     0
 13
3655.081816123567
 23
6654.9137105134614
 33
0.0
 14
4734.0818161235666
 24
5390.6279914081479
 34
0.0
1001
ACAD
1000
DSTYLE
1002
{
1070
   287
1070
     4
1070
    40
1040
50.0
1070
    75
1070
     1
1070
   143
1040
0.039
1070
   172
1070
     1
1070
   271
1070
     0
1070
   279
1070
     1
1070
   288
1070
     1
1002
}
  0
DIMENSION
  5
870A
  8
3
  2
*D9
 10
4805.0818161235684
 20
7224.1999857702331
 30
0.0
 11
3947.1813014971449
 21
7224.1999857702331
 31
0.0
 70
   128
 13
2830.081816123567
 23
6686.6279914081479
 33
0.0
 14
4805.0818161235684
 24
4524.6279914081479
 34
0.0
1001
ACAD
1000
DSTYLE
1002
{
1070
   287
1070
     3
1070
    40
1040
50.0
1070
   143
1040
0.039
1070
   172
1070
     1
1070
   271
1070
     0
1070
   279
1070
     0
1070
   288
1070
     1
1002
}
  0
DIMENSION
  5
8717
  8
3
  2
*D10
 10
2138.153655297549
 20
5299.627991408147
 30
0.0
 11
2138.1536552975481
 21
5993.3548662167523
 31
0.0
 70
   128
 13
2830.081816123567
 23
6633.627991408147
 33
0.0
 14
2751.6452778747148
 24
5299.627991408147
 34
0.0
 50
270.0
1001
ACAD
1000
DSTYLE
1002
{
1070
   287
1070
     3
1070
    40
1040
50.0
1070
   143
1040
0.039
1070
   172
1070
     1
1070
   271
1070
     0
1070
   279
1070
     0
1070
   288
1070
     1
1002
}
  0
DIMENSION
  5
8724
  8
3
  2
*D11
 10
2431.0438355122142
 20
5353.6279914081479
 30
0.0
 11
2431.0438355122128
 21
5967.5329315057324
 31
0.0
 70
   128
 13
2830.081816123567
 23
6633.627991408147
 33
0.0
 14
2830.081816123567
 24
5353.6279914081479
 34
0.0
 50
270.0
1001
ACAD
1000
DSTYLE
1002
{
1070
   287
1070
     3
1070
    40
1040
50.0
1070
   143
1040
0.039
1070
   172
1070
     1
1070
   271
1070
     0
1070
   279
1070
     0
1070
   288
1070
     1
1002
}
  0
DIMENSION
  5
873B
  8
3
  2
*D12
 10
2138.1536552975481
 20
4374.627991408147
 30
0.0
 11
2151.5284672346888
 21
4931.2832793162888
 31
0.0
 70
   128
 13
2751.6452778747148
 23
5299.627991408147
 33
0.0
 14
2905.081816123567
 24
4374.627991408147
 34
0.0
 50
270.0
1001
ACAD
1000
DSTYLE
1002
{
1070
   287
1070
     4
1070
    40
1040
50.0
1070
    75
1070
     1
1070
   143
1040
0.039
1070
   172
1070
     1
1070
   271
1070
     0
1070
   279
1070
     1
1070
   288
1070
     1
1002
}
  0
DIMENSION
  5
875B
  8
3
  2
*D13
 10
2138.1536552975481
 20
4179.6279914081479
 30
0.0
 11
2013.1536552975481
 21
3751.0565628367199
 31
0.0
 70
     0
 13
2905.081816123567
 23
4329.627991408147
 33
0.0
 14
2905.081816123567
 24
4179.6279914081479
 34
0.0
 50
270.0
1001
ACAD
1000
DSTYLE
1002
{
1070
   287
1070
     3
1070
    40
1040
50.0
1070
   143
1040
0.039
1070
   172
1070
     1
1070
   271
1070
     0
1070
   279
1070
     0
1070
   288
1070
     1
1070
     6
1000
DOT
1002
}
  0
DIMENSION
  5
87CB
  8
3
  2
*D14
 10
3655.081816123567
 20
3840.638338032295
 30
0.0
 11
4232.0026523481683
 21
3840.638338032295
 31
0.0
 70
   128
 13
4805.0818161235684
 23
4179.6279914081479
 33
0.0
 14
3655.081816123567
 24
4179.6279914081479
 34
0.0
1001
ACAD
1000
DSTYLE
1002
{
1070
   287
1070
     3
1070
    40
1040
50.0
1070
   143
1040
0.039
1070
   172
1070
     1
1070
   271
1070
     0
1070
   279
1070
     0
1070
   288
1070
     1
1002
}
  0
DIMENSION
  5
87D7
  8
3
  2
*D15
 10
2905.081816123567
 20
3840.638338032295
 30
0.0
 11
3280.081816123567
 21
3965.638338032295
 31
0.0
 70
     0
 13
3655.081816123567
 23
4179.6279914081479
 33
0.0
 14
2905.081816123567
 24
4179.6279914081479
 34
0.0
1001
ACAD
1000
DSTYLE
1002
{
1070
   287
1070
     4
1070
    40
1040
50.0
1070
    75
1070
     1
1070
   143
1040
0.039
1070
   172
1070
     1
1070
   271
1070
     0
1070
   279
1070
     1
1070
   288
1070
     1
1002
}
  0
DIMENSION
  5
87E4
  8
3
  2
*D16
 10
7749.0697441730017
 20
3840.638338032295
 30
0.0
 11
7072.8959754724119
 21
3840.638338032295
 31
0.0
 70
   128
 13
6249.0697441729999
 23
4179.6279914081479
 33
0.0
 14
7749.0697441730017
 24
4179.6279914081479
 34
0.0
1001
ACAD
1000
DSTYLE
1002
{
1070
   287
1070
     3
1070
    40
1040
50.0
1070
   143
1040
0.039
1070
   172
1070
     1
1070
   271
1070
     0
1070
   279
1070
     0
1070
   288
1070
     1
1002
}
  0
DIMENSION
  5
87F2
  8
3
  2
*D17
 10
8304.0697441730008
 20
3840.638338032295
 30
0.0
 11
8042.9367825009622
 21
3962.747357576372
 31
0.0
 70
   128
 13
7749.0697441730017
 23
4179.6279914081479
 33
0.0
 14
8304.0697441730008
 24
4179.6279914081479
 34
0.0
1001
ACAD
1000
DSTYLE
1002
{
1070
   288
1070
     1
1070
   172
1070
     1
1070
    75
1070
     1
1070
    40
1040
50.0
1070
   271
1070
     0
1070
   143
1040
0.039
1002
}
  0
DIMENSION
  5
8822
  8
3
  2
*D18
 10
8666.1480083497336
 20
4674.627991408147
 30
0.0
 11
8666.1480083497281
 21
5319.6254043207673
 31
0.0
 70
   128
 13
8234.0697441730026
 23
5924.627991408147
 33
0.0
 14
8234.0697441730026
 24
4674.627991408147
 34
0.0
 50
90.0
1001
ACAD
1000
DSTYLE
1002
{
1070
   287
1070
     3
1070
     3
1000
φ<>
1070
    40
1040
50.0
1070
   143
1040
0.039
1070
   172
1070
     1
1070
   271
1070
     0
1070
   279
1070
     0
1070
   288
1070
     1
1002
}
  0
DIMENSION
  5
883A
  8
3
  2
*D19
 10
8224.0697441730008
 20
6889.0218674917933
 30
0.0
 11
7748.850537832659
 21
6889.0218674917933
 31
0.0
 70
   128
 13
7274.0697441730008
 23
6686.6279914081479
 33
0.0
 14
8224.0697441730008
 24
6686.6279914081479
 34
0.0
1001
ACAD
1000
DSTYLE
1002
{
1070
   287
1070
     3
1070
    40
1040
50.0
1070
   143
1040
0.039
1070
   172
1070
     1
1070
   271
1070
     0
1070
   279
1070
     0
1070
   288
1070
     1
1002
}
  0
DIMENSION
  5
8857
  8
3
  2
*D20
 10
7749.0697441729999
 20
7175.6834492442949
 30
0.0
 11
8001.8172840663901
 21
7319.8271790820436
 31
0.0
 70
   128
 13
8234.0697441730026
 23
5974.6279914081479
 33
0.0
 14
7749.0697441729999
 24
7105.4151504467372
 34
0.0
1001
ACAD
1000
DSTYLE
1002
{
1070
   288
1070
     1
1070
   172
1070
     1
1070
    40
1040
50.0
1070
   271
1070
     0
1070
   143
1040
0.039
1002
}
  0
DIMENSION
  5
8879
  8
3
  2
*D21
 10
6102.0697441729999
 20
7175.6834492442949
 30
0.0
 11
6925.5697441729999
 21
7425.6834492442949
 31
0.0
 70
     0
  1
MAX\P1680
 13
7749.0697441729999
 23
7105.4151504467372
 33
0.0
 14
6102.0697441729999
 24
5579.6279914081479
 34
0.0
1001
ACAD
1000
DSTYLE
1002
{
1070
   287
1070
     4
1070
    40
1040
50.0
1070
    75
1070
     1
1070
   143
1040
0.039
1070
   172
1070
     1
1070
   271
1070
     0
1070
   279
1070
     1
1070
   288
1070
     1
1002
}
  0
LINE
  5
892C
  8
4
 10
9250.0
 20
2500.0
 30
0.0
 11
9250.0
 21
1500.0
 31
0.0
  0
LINE
  5
892D
  8
4
 10
5750.0
 20
2500.0
 30
0.0
 11
5750.0
 21
1500.0
 31
0.0
  0
LINE
  5
892E
  8
4
 10
3250.0
 20
2500.0
 30
0.0
 11
3250.0
 21
1500.0
 31
0.0
  0
LINE
  5
8931
  8
4
 10
3250.0
 20
1500.0
 30
0.0
 11
9250.0
 21
1500.0
 31
0.0
  0
LINE
  5
8932
  8
4
 10
3250.0
 20
2000.0
 30
0.0
 11
9250.0
 21
2000.0
 31
0.0
  0
TEXT
  5
8933
  8
4
 10
3442.5104042345079
 20
2157.7151293330639
 30
0.0
 40
250.0
  1
機器名称
  0
TEXT
  5
8934
  8
4
 10
3431.2905301239871
 20
1608.225783660054
 30
0.0
 40
250.0
  1
機器型番
  0
TEXT
  5
8935
  8
4
 10
5891.5410279524913
 20
2109.1617211884191
 30
0.0
 40
212.5
  1
ミツヤ多翼送風機
  0
TEXT
  5
8936
  8
4
 10
5933.2724779274031
 20
1585.797921399716
 30
0.0
 40
250.0
  1
MF#8-1
  0
TEXT
  5
8938
  8
4
 10
4087.177885253594
 20
11917.14420666257
 30
0.0
 40
270.0
  1
床置防振ベット
  0
TEXT
  5
8939
  8
4
 10
1464.3710723791439
 20
12669.40488099649
 30
0.0
 40
360.0
  1
遠心式片吸込片持多翼ファン
  0
LINE
  5
893A
  8
4
 10
1250.0
 20
12347.043771324021
 30
0.0
 11
9250.0
 21
12347.043771324021
 31
0.0
  0
LINE
  5
893B
  8
4
 10
1250.0
 20
13347.043771324021
 30
0.0
 11
9250.0
 21
13347.043771324021
 31
0.0
  0
LINE
  5
893C
  8
4
 10
3250.0
 20
2500.0
 30
0.0
 11
9250.0
 21
2500.0
 31
0.0
  0
LINE
  5
893D
  8
4
 10
1250.0
 20
13347.043771324021
 30
0.0
 11
1250.0
 21
12347.043771324021
 31
0.0
  0
TEXT
  5
893E
  8
4
 10
1907.8837240400819
 20
11911.59738773171
 30
0.0
 40
270.0
  1
左回転左横向
  0
TEXT
  5
893F
  8
4
 10
7344.8477962464494
 20
13530.30540747654
 30
0.0
 40
280.0
  1
No.
  0
TEXT
  5
8940
  8
4
 10
6556.4803130000646
 20
11917.14420666257
 30
0.0
 40
270.0
  1
縮尺：1/50
  0
LINE
  5
8941
  8
4
 10
9250.0
 20
13347.043771324021
 30
0.0
 11
9250.0
 21
12347.043771324021
 31
0.0
  0
LINE
  5
8942
  8
4
 10
10500.0
 20
14750.0
 30
0.0
 11
10500.0
 21
14750.0
 31
0.0
  0
LINE
  5
8943
  8
4
 10
7203.0871117993229
 20
13406.317915627
 30
0.0
 11
7203.0871117993229
 21
13933.26130774876
 31
0.0
  0
LINE
  5
8944
  8
4
 10
7203.0871117993229
 20
13933.26130774876
 30
0.0
 11
9250.0
 21
13933.26130774876
 31
0.0
  0
LINE
  5
8945
  8
4
 10
9250.0
 20
13933.26130774876
 30
0.0
 11
9250.0
 21
13406.317915627
 31
0.0
  0
LINE
  5
8946
  8
4
 10
9250.0
 20
13406.317915627
 30
0.0
 11
7203.0871117993229
 21
13406.317915627
 31
0.0
  0
LINE
  5
8947
  8
4
 10
0.0
 20
0.0
 30
0.0
 11
0.0
 21
14750.0
 31
0.0
  0
LINE
  5
8948
  8
4
 10
0.0
 20
14750.0
 30
0.0
 11
10500.0
 21
14750.0
 31
0.0
  0
LINE
  5
8949
  8
4
 10
10500.0
 20
14750.0
 30
0.0
 11
10500.0
 21
0.0
 31
0.0
  0
LINE
  5
894A
  8
4
 10
10500.0
 20
0.0
 30
0.0
 11
0.0
 21
0.0
 31
0.0
  0
LINE
  5
897A
  8
1
 10
6209.0697441729999
 20
4750.6279914081479
 30
0.0
 11
6209.0697441729999
 21
4814.6279914081479
 31
0.0
  0
LINE
  5
897B
  8
1
 10
6319.0697441730008
 20
4750.6279914081479
 30
0.0
 11
6319.0697441730008
 21
4754.6279914081479
 31
0.0
  0
LINE
  5
897C
  8
1
 10
6359.0697441730008
 20
4581.127991408147
 30
0.0
 11
6359.0697441730008
 21
4784.627991408147
 31
0.0
  0
LINE
  5
897D
  8
1
 10
7008.5697441730008
 20
4581.127991408147
 30
0.0
 11
7008.5697441730008
 21
4988.1279914081479
 31
0.0
  0
LINE
  5
897F
  8
2
 10
6116.4120122916656
 20
4784.627991408147
 30
0.0
 11
7101.7793423514431
 21
4784.627991408147
 31
0.0
  0
LINE
  5
8982
  8
1
 10
6359.0697441730008
 20
4988.1279914081479
 30
0.0
 11
7008.5697441730008
 21
4988.1279914081479
 31
0.0
  0
LINE
  5
8984
  8
1
 10
6359.0697441730008
 20
4988.1279914081479
 30
0.0
 11
6359.0697441730008
 21
4784.627991408147
 31
0.0
  0
LINE
  5
8985
  8
1
 10
6349.0697441729999
 20
4752.1279914081479
 30
0.0
 11
6359.0697441730008
 21
4752.1279914081479
 31
0.0
  0
LINE
  5
8986
  8
1
 10
6349.0697441729999
 20
4817.1279914081479
 30
0.0
 11
6359.0697441730008
 21
4817.1279914081479
 31
0.0
  0
LINE
  5
8987
  8
1
 10
6349.0697441729999
 20
4817.1279914081479
 30
0.0
 11
6349.0697441729999
 21
4752.1279914081479
 31
0.0
  0
LINE
  5
8988
  8
1
 10
6349.0697441729999
 20
4754.6279914081479
 30
0.0
 11
6209.0697441729999
 21
4754.6279914081479
 31
0.0
  0
LINE
  5
8989
  8
1
 10
6349.0697441729999
 20
4814.6279914081479
 30
0.0
 11
6209.0697441729999
 21
4814.6279914081479
 31
0.0
  0
LINE
  5
898C
  8
1
 10
6359.0697441730008
 20
4581.127991408147
 30
0.0
 11
7008.5697441730008
 21
4581.127991408147
 31
0.0
  0
LINE
  5
898D
  8
1
 10
6319.0697441730008
 20
4750.6279914081479
 30
0.0
 11
6209.0697441729999
 21
4750.6279914081479
 31
0.0
  0
LINE
  5
8A5B
  8
1
 10
6439.9788897054614
 20
4581.127991408147
 30
0.0
 11
6439.9788897054586
 21
4524.6279914081479
 31
0.0
  0
LINE
  5
8A5C
  8
1
 10
6869.0411496808947
 20
4581.127991408147
 30
0.0
 11
6869.0411496808947
 21
4524.6279914081479
 31
0.0
  0
LINE
  5
8A5D
  8
1
 10
6302.0697441730017
 20
4754.6279914081479
 30
0.0
 11
6302.0697441730017
 21
4564.6279914081479
 31
0.0
  0
LINE
  5
8A5E
  8
1
 10
6322.0697441730008
 20
4754.6279914081479
 30
0.0
 11
6322.0697441730008
 21
4524.6279914081479
 31
0.0
  0
DIMENSION
  5
8A71
  8
3
  2
*D23
 10
4805.0818161235684
 20
10912.345546157891
 30
0.0
 11
4605.0818161235684
 21
11038.61474988621
 31
0.0
 70
   128
 13
4405.0818161235666
 23
10676.006088529921
 33
0.0
 14
4805.0818161235684
 24
9641.0060885299245
 34
0.0
1001
ACAD
1000
DSTYLE
1002
{
1070
   288
1070
     1
1070
   172
1070
     1
1070
    75
1070
     1
1070
    40
1040
50.0
1070
   271
1070
     0
1070
   143
1040
0.039
1002
}
  0
LINE
  5
8ADC
  8
1
 10
8277.0697441730008
 20
5300.6279914081479
 30
0.0
 11
8234.0697441730026
 21
5300.6279914081479
 31
0.0
  0
LINE
  5
8ADD
  8
1
 10
3399.7878678991729
 20
5184.6279914081488
 30
0.0
 11
3910.375764347963
 21
5184.6279914081479
 31
0.0
  0
LINE
  5
8ADF
  8
1
 10
3399.787867899171
 20
5184.6279914081488
 30
0.0
 11
3205.081816123567
 21
4524.6279914081479
 31
0.0
  0
LINE
  5
8AE0
  8
1
 10
3910.375764347963
 20
5184.6279914081488
 30
0.0
 11
4105.0818161235684
 21
4524.6279914081479
 31
0.0
  0
LINE
  5
8AE1
  8
1
 10
3400.081816123567
 20
9538.0060885299226
 30
0.0
 11
3400.081816123567
 21
8694.0060885299226
 31
0.0
  0
LINE
  5
8AE2
  8
1
 10
3910.081816123567
 20
9538.0060885299245
 30
0.0
 11
3910.081816123567
 21
8694.0060885299245
 31
0.0
  0
LINE
  5
8AE3
  8
1
 10
3692.581816123567
 20
9538.0060885299245
 30
0.0
 11
3910.081816123567
 21
9538.0060885299245
 31
0.0
  0
LINE
  5
8AE4
  8
1
 10
3692.581816123567
 20
8694.0060885299245
 30
0.0
 11
3910.081816123567
 21
8694.0060885299245
 31
0.0
  0
DIMENSION
  5
8B14
  8
3
  2
*D24
 10
2141.4003334229419
 20
4374.627991408147
 30
0.0
 11
1737.828904851513
 21
4473.9137056938634
 31
0.0
 70
     0
 13
2905.081816123567
 23
4329.627991408147
 33
0.0
 14
2905.081816123567
 24
4374.627991408147
 34
0.0
 50
90.0
1001
ACAD
1000
DSTYLE
1002
{
1070
   287
1070
     4
1070
     3
1000
(<>)
1070
    40
1040
50.0
1070
   143
1040
0.039
1070
   172
1070
     1
1070
   271
1070
     0
1070
   279
1070
     1
1070
     6
1000
DOT
1002
}
  0
DIMENSION
  5
8B21
  8
3
  2
*D25
 10
1560.4279358286151
 20
4179.6279914081488
 30
0.0
 11
1396.1422215429
 21
5433.1279914081488
 31
0.0
 70
     0
 13
2830.081816123567
 23
6686.6279914081479
 33
0.0
 14
2905.081816123567
 24
4179.6279914081479
 34
0.0
 50
90.0
1001
ACAD
1000
DSTYLE
1002
{
1070
   287
1070
     4
1070
     3
1000
(<>)
1070
    40
1040
50.0
1070
   143
1040
0.039
1070
   172
1070
     1
1070
   271
1070
     0
1070
   279
1070
     1
1002
}
  0
ARC
  5
8B26
  8
1
 10
3746.0818161235679
 20
5390.6279914081479
 30
0.0
 40
988.0
 50
334.77797206859498
 51
354.7152670454654
  0
ENDSEC
  0
EOF
