  0
SECTION
  2
HEADER
  9
$ACADVER
  1
AC1015
  9
$ACADMAINTVER
 70
    20
  9
$DWGCODEPAGE
  3
ANSI_932
  9
$INSBASE
 10
0.0
 20
0.0
 30
0.0
  9
$EXTMIN
 10
-0.2242870864283759
 20
-0.3150699547441036
 30
-0.0015258207003583
  9
$EXTMAX
 10
7350.224321312532
 20
10325.31511803427
 30
0.0000000349246037
  9
$LIMMIN
 10
0.0
 20
0.0
  9
$LIMMAX
 10
297.0
 20
210.0
  9
$ORTHOMODE
 70
     1
  9
$REGENMODE
 70
     1
  9
$FILLMODE
 70
     0
  9
$QTEXTMODE
 70
     0
  9
$MIRRTEXT
 70
     1
  9
$LTSCALE
 40
100.0
  9
$ATTMODE
 70
     1
  9
$TEXTSIZE
 40
180.0
  9
$TRACEWID
 40
0.05
  9
$TEXTSTYLE
  7
STANDARD
  9
$CLAYER
  8
3
  9
$CELTYPE
  6
ByLayer
  9
$CECOLOR
 62
   256
  9
$CELTSCALE
 40
1.0
  9
$DISPSILH
 70
     0
  9
$DIMSCALE
 40
35.0
  9
$DIMASZ
 40
2.0
  9
$DIMEXO
 40
0.5
  9
$DIMDLI
 40
10.0
  9
$DIMRND
 40
0.0
  9
$DIMDLE
 40
0.0
  9
$DIMEXE
 40
1.0
  9
$DIMTP
 40
1.0
  9
$DIMTM
 40
1.0
  9
$DIMTXT
 40
3.0
  9
$DIMCEN
 40
0.0
  9
$DIMTSZ
 40
0.0
  9
$DIMTOL
 70
     0
  9
$DIMLIM
 70
     0
  9
$DIMTIH
 70
     0
  9
$DIMTOH
 70
     0
  9
$DIMSE1
 70
     0
  9
$DIMSE2
 70
     0
  9
$DIMTAD
 70
     1
  9
$DIMZIN
 70
     8
  9
$DIMBLK
  1

  9
$DIMASO
 70
     1
  9
$DIMSHO
 70
     1
  9
$DIMPOST
  1

  9
$DIMAPOST
  1

  9
$DIMALT
 70
     0
  9
$DIMALTD
 70
     2
  9
$DIMALTF
 40
0.039
  9
$DIMLFAC
 40
1.0
  9
$DIMTOFL
 70
     1
  9
$DIMTVP
 40
0.0
  9
$DIMTIX
 70
     0
  9
$DIMSOXD
 70
     0
  9
$DIMSAH
 70
     1
  9
$DIMBLK1
  1
OPEN
  9
$DIMBLK2
  1
OPEN
  9
$DIMSTYLE
  2
IGA
  9
$DIMCLRD
 70
     0
  9
$DIMCLRE
 70
     0
  9
$DIMCLRT
 70
     0
  9
$DIMTFAC
 40
10.0
  9
$DIMGAP
 40
1.0
  9
$DIMJUST
 70
     0
  9
$DIMSD1
 70
     0
  9
$DIMSD2
 70
     0
  9
$DIMTOLJ
 70
     1
  9
$DIMTZIN
 70
     0
  9
$DIMALTZ
 70
     0
  9
$DIMALTTZ
 70
     0
  9
$DIMUPT
 70
     0
  9
$DIMDEC
 70
     4
  9
$DIMTDEC
 70
     4
  9
$DIMALTU
 70
     2
  9
$DIMALTTD
 70
     2
  9
$DIMTXSTY
  7
STANDARD
  9
$DIMAUNIT
 70
     0
  9
$DIMADEC
 70
     0
  9
$DIMALTRND
 40
0.0
  9
$DIMAZIN
 70
     0
  9
$DIMDSEP
 70
    46
  9
$DIMATFIT
 70
     3
  9
$DIMFRAC
 70
     0
  9
$DIMLDRBLK
  1
OPEN
  9
$DIMLUNIT
 70
     2
  9
$DIMLWD
 70
    -2
  9
$DIMLWE
 70
    -2
  9
$DIMTMOVE
 70
     0
  9
$LUNITS
 70
     2
  9
$LUPREC
 70
     3
  9
$SKETCHINC
 40
0.1
  9
$FILLETRAD
 40
50.0
  9
$AUNITS
 70
     0
  9
$AUPREC
 70
     0
  9
$MENU
  1
acad
  9
$ELEVATION
 40
0.0
  9
$PELEVATION
 40
0.0
  9
$THICKNESS
 40
0.0
  9
$LIMCHECK
 70
     0
  9
$CHAMFERA
 40
0.5
  9
$CHAMFERB
 40
0.5
  9
$CHAMFERC
 40
0.0
  9
$CHAMFERD
 40
0.0
  9
$SKPOLY
 70
     0
  9
$TDCREATE
 40
2451390.404617130
  9
$TDUCREATE
 40
2451390.029617130
  9
$TDUPDATE
 40
2460273.626638819
  9
$TDUUPDATE
 40
2460273.251638819
  9
$TDINDWG
 40
0.0245026852
  9
$TDUSRTIMER
 40
0.0245024884
  9
$USRTIMER
 70
     1
  9
$ANGBASE
 50
0.0
  9
$ANGDIR
 70
     0
  9
$PDMODE
 70
     0
  9
$PDSIZE
 40
0.0
  9
$PLINEWID
 40
0.0
  9
$SPLFRAME
 70
     0
  9
$SPLINETYPE
 70
     6
  9
$SPLINESEGS
 70
     8
  9
$HANDSEED
  5
87CE
  9
$SURFTAB1
 70
     6
  9
$SURFTAB2
 70
     6
  9
$SURFTYPE
 70
     6
  9
$SURFU
 70
     6
  9
$SURFV
 70
     6
  9
$UCSBASE
  2

  9
$UCSNAME
  2

  9
$UCSORG
 10
0.0
 20
0.0
 30
0.0
  9
$UCSXDIR
 10
1.0
 20
0.0
 30
0.0
  9
$UCSYDIR
 10
0.0
 20
1.0
 30
0.0
  9
$UCSORTHOREF
  2

  9
$UCSORTHOVIEW
 70
     0
  9
$UCSORGTOP
 10
0.0
 20
0.0
 30
0.0
  9
$UCSORGBOTTOM
 10
0.0
 20
0.0
 30
0.0
  9
$UCSORGLEFT
 10
0.0
 20
0.0
 30
0.0
  9
$UCSORGRIGHT
 10
0.0
 20
0.0
 30
0.0
  9
$UCSORGFRONT
 10
0.0
 20
0.0
 30
0.0
  9
$UCSORGBACK
 10
0.0
 20
0.0
 30
0.0
  9
$PUCSBASE
  2

  9
$PUCSNAME
  2

  9
$PUCSORG
 10
0.0
 20
0.0
 30
0.0
  9
$PUCSXDIR
 10
1.0
 20
0.0
 30
0.0
  9
$PUCSYDIR
 10
0.0
 20
1.0
 30
0.0
  9
$PUCSORTHOREF
  2

  9
$PUCSORTHOVIEW
 70
     0
  9
$PUCSORGTOP
 10
0.0
 20
0.0
 30
0.0
  9
$PUCSORGBOTTOM
 10
0.0
 20
0.0
 30
0.0
  9
$PUCSORGLEFT
 10
0.0
 20
0.0
 30
0.0
  9
$PUCSORGRIGHT
 10
0.0
 20
0.0
 30
0.0
  9
$PUCSORGFRONT
 10
0.0
 20
0.0
 30
0.0
  9
$PUCSORGBACK
 10
0.0
 20
0.0
 30
0.0
  9
$USERI1
 70
     0
  9
$USERI2
 70
     0
  9
$USERI3
 70
     0
  9
$USERI4
 70
     0
  9
$USERI5
 70
     0
  9
$USERR1
 40
0.0
  9
$USERR2
 40
0.0
  9
$USERR3
 40
0.0
  9
$USERR4
 40
0.0
  9
$USERR5
 40
0.0
  9
$WORLDVIEW
 70
     1
  9
$SHADEDGE
 70
     3
  9
$SHADEDIF
 70
    70
  9
$TILEMODE
 70
     1
  9
$MAXACTVP
 70
    16
  9
$PINSBASE
 10
0.0
 20
0.0
 30
0.0
  9
$PLIMCHECK
 70
     0
  9
$PEXTMIN
 10
1.000000000000000E+20
 20
1.000000000000000E+20
 30
1.000000000000000E+20
  9
$PEXTMAX
 10
-1.000000000000000E+20
 20
-1.000000000000000E+20
 30
-1.000000000000000E+20
  9
$PLIMMIN
 10
0.0
 20
0.0
  9
$PLIMMAX
 10
12.0
 20
9.0
  9
$UNITMODE
 70
     0
  9
$VISRETAIN
 70
     0
  9
$PLINEGEN
 70
     0
  9
$PSLTSCALE
 70
     1
  9
$TREEDEPTH
 70
  3020
  9
$CMLSTYLE
  2
Standard
  9
$CMLJUST
 70
     0
  9
$CMLSCALE
 40
1.0
  9
$PROXYGRAPHICS
 70
     1
  9
$MEASUREMENT
 70
     0
  9
$CELWEIGHT
370
    -1
  9
$ENDCAPS
280
     0
  9
$JOINSTYLE
280
     0
  9
$LWDISPLAY
290
     0
  9
$INSUNITS
 70
     0
  9
$HYPERLINKBASE
  1

  9
$STYLESHEET
  1

  9
$XEDIT
290
     1
  9
$CEPSNTYPE
380
     0
  9
$PSTYLEMODE
290
     1
  9
$FINGERPRINTGUID
  2
{C5C3069E-4378-48F0-B10A-4611E289D4BE}
  9
$VERSIONGUID
  2
{6382038A-FC14-4E49-BA73-21C60DFBCF72}
  9
$EXTNAMES
290
     1
  9
$PSVPSCALE
 40
0.0
  9
$OLESTARTUP
290
     0
  0
ENDSEC
  0
SECTION
  2
CLASSES
  0
CLASS
  1
ACDBDICTIONARYWDFLT
  2
AcDbDictionaryWithDefault
  3
ObjectDBX Classes
 90
        0
280
     0
281
     0
  0
CLASS
  1
MATERIAL
  2
AcDbMaterial
  3
ObjectDBX Classes
 90
     1153
280
     0
281
     0
  0
CLASS
  1
VISUALSTYLE
  2
AcDbVisualStyle
  3
ObjectDBX Classes
 90
     4095
280
     0
281
     0
  0
CLASS
  1
SCALE
  2
AcDbScale
  3
ObjectDBX Classes
 90
     1153
280
     0
281
     0
  0
CLASS
  1
TABLESTYLE
  2
AcDbTableStyle
  3
ObjectDBX Classes
 90
     4095
280
     0
281
     0
  0
CLASS
  1
MLEADERSTYLE
  2
AcDbMLeaderStyle
  3
ACDB_MLEADERSTYLE_CLASS
 90
     4095
280
     0
281
     0
  0
CLASS
  1
ACDBSECTIONVIEWSTYLE
  2
AcDbSectionViewStyle
  3
ObjectDBX Classes
 90
     1025
280
     0
281
     0
  0
CLASS
  1
ACDBDETAILVIEWSTYLE
  2
AcDbDetailViewStyle
  3
ObjectDBX Classes
 90
     1025
280
     0
281
     0
  0
CLASS
  1
SORTENTSTABLE
  2
AcDbSortentsTable
  3
ObjectDBX Classes
 90
        0
280
     0
281
     0
  0
CLASS
  1
DICTIONARYVAR
  2
AcDbDictionaryVar
  3
ObjectDBX Classes
 90
        0
280
     0
281
     0
  0
CLASS
  1
CELLSTYLEMAP
  2
AcDbCellStyleMap
  3
ObjectDBX Classes
 90
     1152
280
     0
281
     0
  0
CLASS
  1
ACDBPLACEHOLDER
  2
AcDbPlaceHolder
  3
ObjectDBX Classes
 90
        0
280
     0
281
     0
  0
CLASS
  1
LAYOUT
  2
AcDbLayout
  3
ObjectDBX Classes
 90
        0
280
     0
281
     0
  0
ENDSEC
  0
SECTION
  2
TABLES
  0
TABLE
  2
VPORT
  5
836F
330
0
100
AcDbSymbolTable
 70
     1
  0
VPORT
  5
83DB
330
836F
100
AcDbSymbolTableRecord
100
AcDbViewportTableRecord
  2
*ACTIVE
 70
     0
 10
0.0
 20
0.0
 11
1.0
 21
1.0
 12
3670.582774752631
 22
5187.146111893096
 13
0.0
 23
0.0
 14
10.0
 24
10.0
 15
10.0
 25
10.0
 16
0.0
 26
0.0
 36
1.0
 17
0.0
 27
0.0
 37
0.0
 40
10404.76679548657
 41
2.050213675213675
 42
50.0
 43
0.0
 44
0.0
 50
0.0
 51
0.0
 71
     0
 72
   100
 73
     1
 74
     0
 75
     0
 76
     0
 77
     0
 78
     0
281
     0
 65
     1
110
0.0
120
0.0
130
0.0
111
1.0
121
0.0
131
0.0
112
0.0
122
1.0
132
0.0
 79
     0
146
0.0
1001
ACAD_NAV_VCDISPLAY
1070
     3
  0
ENDTAB
  0
TABLE
  2
LTYPE
  5
836C
330
0
100
AcDbSymbolTable
 70
     3
  0
LTYPE
  5
83C1
330
836C
100
AcDbSymbolTableRecord
100
AcDbLinetypeTableRecord
  2
ByBlock
 70
     0
  3

 72
    65
 73
     0
 40
0.0
  0
LTYPE
  5
83C2
330
836C
100
AcDbSymbolTableRecord
100
AcDbLinetypeTableRecord
  2
ByLayer
 70
     0
  3

 72
    65
 73
     0
 40
0.0
  0
LTYPE
  5
83C3
330
836C
100
AcDbSymbolTableRecord
100
AcDbLinetypeTableRecord
  2
CONTINUOUS
 70
     0
  3
Solid line
 72
    65
 73
     0
 40
0.0
  0
LTYPE
  5
83DC
330
836C
100
AcDbSymbolTableRecord
100
AcDbLinetypeTableRecord
  2
CENTER
 70
     0
  3
____ _ ____ _ ____ _ ____ _ ____ _ ____ _ ____ 
 72
    65
 73
     4
 40
2.0
 49
1.25
 74
     0
 49
-0.25
 74
     0
 49
0.25
 74
     0
 49
-0.25
 74
     0
  0
ENDTAB
  0
TABLE
  2
LAYER
  5
8369
330
0
100
AcDbSymbolTable
 70
     6
  0
LAYER
  5
83BB
102
{ACAD_XDICTIONARY
360
8737
102
}
330
8369
100
AcDbSymbolTableRecord
100
AcDbLayerTableRecord
  2
0
 70
     0
 62
     7
  6
CONTINUOUS
370
    -3
390
8376
  0
LAYER
  5
83DA
102
{ACAD_XDICTIONARY
360
8739
102
}
330
8369
100
AcDbSymbolTableRecord
100
AcDbLayerTableRecord
  2
3
 70
     0
 62
     2
  6
CONTINUOUS
370
    -3
390
8376
  0
LAYER
  5
83DD
102
{ACAD_XDICTIONARY
360
873B
102
}
330
8369
100
AcDbSymbolTableRecord
100
AcDbLayerTableRecord
  2
2
 70
     0
 62
     3
  6
CENTER
370
    -3
390
8376
  0
LAYER
  5
83DE
102
{ACAD_XDICTIONARY
360
873D
102
}
330
8369
100
AcDbSymbolTableRecord
100
AcDbLayerTableRecord
  2
1
 70
     0
 62
     4
  6
CONTINUOUS
370
    -3
390
8376
  0
LAYER
  5
83DF
102
{ACAD_XDICTIONARY
360
873F
102
}
330
8369
100
AcDbSymbolTableRecord
100
AcDbLayerTableRecord
  2
4
 70
     0
 62
     7
  6
CONTINUOUS
370
    -3
390
8376
  0
LAYER
  5
83E0
330
8369
100
AcDbSymbolTableRecord
100
AcDbLayerTableRecord
  2
DEFPOINTS
 70
     0
 62
     7
  6
CONTINUOUS
290
     0
370
    -3
390
8376
  0
ENDTAB
  0
TABLE
  2
STYLE
  5
836A
330
0
100
AcDbSymbolTable
 70
     2
  0
STYLE
  5
83BC
330
836A
100
AcDbSymbolTableRecord
100
AcDbTextStyleTableRecord
  2
STANDARD
 70
     0
 40
0.0
 41
1.0
 50
0.0
 71
     0
 42
180.0
  3
simplex.shx
  4
extfont.shx
  0
STYLE
  5
83C0
330
836A
100
AcDbSymbolTableRecord
100
AcDbTextStyleTableRecord
  2
Annotative
 70
     0
 40
0.0
 41
1.0
 50
0.0
 71
     0
 42
0.2
  3
txt
  4

1001
AcadAnnotative
1000
AnnotativeData
1002
{
1070
     1
1070
     1
1002
}
  0
ENDTAB
  0
TABLE
  2
VIEW
  5
836D
330
0
100
AcDbSymbolTable
 70
     0
  0
ENDTAB
  0
TABLE
  2
UCS
  5
836E
330
0
100
AcDbSymbolTable
 70
     0
  0
ENDTAB
  0
TABLE
  2
APPID
  5
8370
330
0
100
AcDbSymbolTable
 70
     8
  0
APPID
  5
83BD
330
8370
100
AcDbSymbolTableRecord
100
AcDbRegAppTableRecord
  2
ACAD
 70
     0
  0
APPID
  5
83C4
330
8370
100
AcDbSymbolTableRecord
100
AcDbRegAppTableRecord
  2
AcadAnnotative
 70
     0
  0
APPID
  5
849A
330
8370
100
AcDbSymbolTableRecord
100
AcDbRegAppTableRecord
  2
ACAD_DSTYLE_DIMJAG
 70
     0
  0
APPID
  5
849B
330
8370
100
AcDbSymbolTableRecord
100
AcDbRegAppTableRecord
  2
ACAD_DSTYLE_DIMTALN
 70
     0
  0
APPID
  5
84A9
330
8370
100
AcDbSymbolTableRecord
100
AcDbRegAppTableRecord
  2
AcadAnnoMonitorAlertIconDisabled
 70
     0
  0
APPID
  5
84AA
330
8370
100
AcDbSymbolTableRecord
100
AcDbRegAppTableRecord
  2
ACAD_EXEMPT_FROM_CAD_STANDARDS
 70
     0
  0
APPID
  5
874B
330
8370
100
AcDbSymbolTableRecord
100
AcDbRegAppTableRecord
  2
ACAD_NAV_VCDISPLAY
 70
     0
  0
APPID
  5
87C5
330
8370
100
AcDbSymbolTableRecord
100
AcDbRegAppTableRecord
  2
ACAD_MLEADERVER
 70
     0
  0
ENDTAB
  0
TABLE
  2
DIMSTYLE
  5
8371
330
0
100
AcDbSymbolTable
 70
     3
100
AcDbDimStyleTable
 71
     1
340
83E1
  0
DIMSTYLE
105
83BE
330
8371
100
AcDbSymbolTableRecord
100
AcDbDimStyleTableRecord
  2
Standard
 70
     0
340
83BC
  0
DIMSTYLE
105
83BF
330
8371
100
AcDbSymbolTableRecord
100
AcDbDimStyleTableRecord
  2
Annotative
 70
     0
340
83BC
1001
AcadAnnotative
1000
AnnotativeData
1002
{
1070
     1
1070
     1
1002
}
  0
DIMSTYLE
105
83E1
102
{ACAD_REACTORS
330
849C
330
84BE
330
84CB
330
84D8
330
84E5
330
84F2
330
8535
330
8542
330
854F
330
855C
330
8569
330
8576
330
8583
330
8590
330
859D
330
85AA
330
85B7
330
85C4
330
85D1
330
85DE
330
85EB
330
85FD
330
860F
102
}
330
8371
100
AcDbSymbolTableRecord
100
AcDbDimStyleTableRecord
  2
IGA
 70
     0
 40
2.0
 41
2.0
 42
0.5
 43
10.0
 44
1.0
 47
1.0
 48
1.0
 73
     0
 74
     0
 77
     1
 78
     8
140
3.0
141
0.0
143
0.03937
146
10.0
147
1.0
173
     1
271
     3
272
     3
279
     2
284
     8
285
     8
286
     8
340
83BC
  0
ENDTAB
  0
TABLE
  2
BLOCK_RECORD
  5
8368
330
0
100
AcDbSymbolTable
 70
    62
  0
BLOCK_RECORD
  5
83D6
102
{ACAD_XDICTIONARY
360
8494
102
}
330
8368
100
AcDbSymbolTableRecord
100
AcDbBlockTableRecord
  2
*Model_Space
340
83D9
  0
BLOCK_RECORD
  5
83D2
330
8368
100
AcDbSymbolTableRecord
100
AcDbBlockTableRecord
  2
*Paper_Space
340
83D5
  0
BLOCK_RECORD
  5
83E5
330
8368
100
AcDbSymbolTableRecord
100
AcDbBlockTableRecord
  2
$MODEL_SPACE
340
0
  0
BLOCK_RECORD
  5
83E7
330
8368
100
AcDbSymbolTableRecord
100
AcDbBlockTableRecord
  2
$PAPER_SPACE
340
0
  0
BLOCK_RECORD
  5
83E9
330
8368
100
AcDbSymbolTableRecord
100
AcDbBlockTableRecord
  2
_OPEN
340
0
102
{BLKREFS
331
85CB
331
85CC
331
85D8
331
85D9
331
85E5
331
85E6
331
82BB
331
82BC
331
82C4
331
82C5
331
82CD
331
82CE
331
82D6
331
82D7
331
82DF
331
8563
331
8564
331
8570
331
8571
331
857D
331
857E
331
858A
331
858B
331
8597
331
8598
331
85A4
331
85A5
331
85B1
331
85B2
331
85BE
331
85BF
331
82E0
331
831E
331
831F
331
84F9
331
84FA
331
851D
331
851E
331
852F
331
8530
331
853C
331
853D
331
8549
331
854A
331
8556
331
8557
331
82E8
331
82E9
331
82F1
331
82F2
331
82FA
331
82FB
331
8303
331
8304
331
830C
331
830D
331
8315
331
8316
331
8327
331
8328
331
84B8
331
84B9
331
84C5
331
84C6
331
84EC
331
84ED
331
8330
331
8331
331
8151
331
8152
331
81A0
331
81A1
331
833C
331
8344
331
8345
331
834D
331
834E
331
812A
331
812B
331
8137
331
8138
331
8144
331
8145
331
865A
331
865B
331
86CE
331
8733
102
}
  0
BLOCK_RECORD
  5
83EB
330
8368
100
AcDbSymbolTableRecord
100
AcDbBlockTableRecord
  2
YA_N
340
0
102
{BLKREFS
331
7C22
331
7C43
331
7C4C
331
7C78
331
7C9F
102
}
  0
BLOCK_RECORD
  5
83ED
330
8368
100
AcDbSymbolTableRecord
100
AcDbBlockTableRecord
  2
*D4
340
0
  0
BLOCK_RECORD
  5
83EF
330
8368
100
AcDbSymbolTableRecord
100
AcDbBlockTableRecord
  2
*D5
340
0
  0
BLOCK_RECORD
  5
83F1
330
8368
100
AcDbSymbolTableRecord
100
AcDbBlockTableRecord
  2
*D6
340
0
  0
BLOCK_RECORD
  5
83F3
330
8368
100
AcDbSymbolTableRecord
100
AcDbBlockTableRecord
  2
*D7
340
0
  0
BLOCK_RECORD
  5
83F5
330
8368
100
AcDbSymbolTableRecord
100
AcDbBlockTableRecord
  2
*D8
340
0
  0
BLOCK_RECORD
  5
83F7
330
8368
100
AcDbSymbolTableRecord
100
AcDbBlockTableRecord
  2
*D9
340
0
  0
BLOCK_RECORD
  5
83F9
330
8368
100
AcDbSymbolTableRecord
100
AcDbBlockTableRecord
  2
*D10
340
0
  0
BLOCK_RECORD
  5
83FB
330
8368
100
AcDbSymbolTableRecord
100
AcDbBlockTableRecord
  2
*D11
340
0
  0
BLOCK_RECORD
  5
83FD
330
8368
100
AcDbSymbolTableRecord
100
AcDbBlockTableRecord
  2
*D12
340
0
  0
BLOCK_RECORD
  5
83FF
330
8368
100
AcDbSymbolTableRecord
100
AcDbBlockTableRecord
  2
*D13
340
0
  0
BLOCK_RECORD
  5
8401
330
8368
100
AcDbSymbolTableRecord
100
AcDbBlockTableRecord
  2
*D14
340
0
  0
BLOCK_RECORD
  5
8403
330
8368
100
AcDbSymbolTableRecord
100
AcDbBlockTableRecord
  2
*D15
340
0
  0
BLOCK_RECORD
  5
8405
330
8368
100
AcDbSymbolTableRecord
100
AcDbBlockTableRecord
  2
*D16
340
0
  0
BLOCK_RECORD
  5
8407
330
8368
100
AcDbSymbolTableRecord
100
AcDbBlockTableRecord
  2
*D17
340
0
  0
BLOCK_RECORD
  5
8409
330
8368
100
AcDbSymbolTableRecord
100
AcDbBlockTableRecord
  2
*D18
340
0
  0
BLOCK_RECORD
  5
840B
330
8368
100
AcDbSymbolTableRecord
100
AcDbBlockTableRecord
  2
_DOT
340
0
102
{BLKREFS
331
833B
102
}
  0
BLOCK_RECORD
  5
840C
330
8368
100
AcDbSymbolTableRecord
100
AcDbBlockTableRecord
  2
*D20
340
0
  0
BLOCK_RECORD
  5
840E
330
8368
100
AcDbSymbolTableRecord
100
AcDbBlockTableRecord
  2
*D21
340
0
  0
BLOCK_RECORD
  5
8411
330
8368
100
AcDbSymbolTableRecord
100
AcDbBlockTableRecord
  2
*D22
340
0
  0
BLOCK_RECORD
  5
8413
330
8368
100
AcDbSymbolTableRecord
100
AcDbBlockTableRecord
  2
*D23
340
0
  0
BLOCK_RECORD
  5
8415
330
8368
100
AcDbSymbolTableRecord
100
AcDbBlockTableRecord
  2
*D24
340
0
  0
BLOCK_RECORD
  5
8417
330
8368
100
AcDbSymbolTableRecord
100
AcDbBlockTableRecord
  2
*D25
340
0
  0
BLOCK_RECORD
  5
8419
330
8368
100
AcDbSymbolTableRecord
100
AcDbBlockTableRecord
  2
_NONE
340
0
  0
BLOCK_RECORD
  5
841B
330
8368
100
AcDbSymbolTableRecord
100
AcDbBlockTableRecord
  2
*D27
340
0
  0
BLOCK_RECORD
  5
841D
330
8368
100
AcDbSymbolTableRecord
100
AcDbBlockTableRecord
  2
*D28
340
0
  0
BLOCK_RECORD
  5
8420
330
8368
100
AcDbSymbolTableRecord
100
AcDbBlockTableRecord
  2
*D29
340
0
  0
BLOCK_RECORD
  5
842D
330
8368
100
AcDbSymbolTableRecord
100
AcDbBlockTableRecord
  2
*D30
340
0
  0
BLOCK_RECORD
  5
843A
330
8368
100
AcDbSymbolTableRecord
100
AcDbBlockTableRecord
  2
*D31
340
0
  0
BLOCK_RECORD
  5
8447
330
8368
100
AcDbSymbolTableRecord
100
AcDbBlockTableRecord
  2
*D32
340
0
  0
BLOCK_RECORD
  5
8454
330
8368
100
AcDbSymbolTableRecord
100
AcDbBlockTableRecord
  2
*D33
340
0
  0
BLOCK_RECORD
  5
845F
330
8368
100
AcDbSymbolTableRecord
100
AcDbBlockTableRecord
  2
*D34
340
0
  0
BLOCK_RECORD
  5
846C
330
8368
100
AcDbSymbolTableRecord
100
AcDbBlockTableRecord
  2
*D35
340
0
  0
BLOCK_RECORD
  5
8479
330
8368
100
AcDbSymbolTableRecord
100
AcDbBlockTableRecord
  2
*D36
340
0
  0
BLOCK_RECORD
  5
8486
330
8368
100
AcDbSymbolTableRecord
100
AcDbBlockTableRecord
  2
*D37
340
0
  0
BLOCK_RECORD
  5
849D
330
8368
100
AcDbSymbolTableRecord
100
AcDbBlockTableRecord
  2
*D38
340
0
  0
BLOCK_RECORD
  5
84BF
330
8368
100
AcDbSymbolTableRecord
100
AcDbBlockTableRecord
  2
*D39
340
0
  0
BLOCK_RECORD
  5
84CC
330
8368
100
AcDbSymbolTableRecord
100
AcDbBlockTableRecord
  2
*D40
340
0
  0
BLOCK_RECORD
  5
84D9
330
8368
100
AcDbSymbolTableRecord
100
AcDbBlockTableRecord
  2
*D41
340
0
  0
BLOCK_RECORD
  5
84E6
330
8368
100
AcDbSymbolTableRecord
100
AcDbBlockTableRecord
  2
*D42
340
0
  0
BLOCK_RECORD
  5
84F3
330
8368
100
AcDbSymbolTableRecord
100
AcDbBlockTableRecord
  2
*D43
340
0
  0
BLOCK_RECORD
  5
8536
330
8368
100
AcDbSymbolTableRecord
100
AcDbBlockTableRecord
  2
*D44
340
0
  0
BLOCK_RECORD
  5
8543
330
8368
100
AcDbSymbolTableRecord
100
AcDbBlockTableRecord
  2
*D45
340
0
  0
BLOCK_RECORD
  5
8550
330
8368
100
AcDbSymbolTableRecord
100
AcDbBlockTableRecord
  2
*D46
340
0
  0
BLOCK_RECORD
  5
855D
330
8368
100
AcDbSymbolTableRecord
100
AcDbBlockTableRecord
  2
*D47
340
0
  0
BLOCK_RECORD
  5
856A
330
8368
100
AcDbSymbolTableRecord
100
AcDbBlockTableRecord
  2
*D48
340
0
  0
BLOCK_RECORD
  5
8577
330
8368
100
AcDbSymbolTableRecord
100
AcDbBlockTableRecord
  2
*D49
340
0
  0
BLOCK_RECORD
  5
8584
330
8368
100
AcDbSymbolTableRecord
100
AcDbBlockTableRecord
  2
*D50
340
0
  0
BLOCK_RECORD
  5
8591
330
8368
100
AcDbSymbolTableRecord
100
AcDbBlockTableRecord
  2
*D51
340
0
  0
BLOCK_RECORD
  5
859E
330
8368
100
AcDbSymbolTableRecord
100
AcDbBlockTableRecord
  2
*D52
340
0
  0
BLOCK_RECORD
  5
85AB
330
8368
100
AcDbSymbolTableRecord
100
AcDbBlockTableRecord
  2
*D53
340
0
  0
BLOCK_RECORD
  5
85B8
330
8368
100
AcDbSymbolTableRecord
100
AcDbBlockTableRecord
  2
*D54
340
0
  0
BLOCK_RECORD
  5
85C5
330
8368
100
AcDbSymbolTableRecord
100
AcDbBlockTableRecord
  2
*D55
340
0
  0
BLOCK_RECORD
  5
85D2
330
8368
100
AcDbSymbolTableRecord
100
AcDbBlockTableRecord
  2
*D56
340
0
  0
BLOCK_RECORD
  5
85DF
330
8368
100
AcDbSymbolTableRecord
100
AcDbBlockTableRecord
  2
*D57
340
0
  0
BLOCK_RECORD
  5
85EC
330
8368
100
AcDbSymbolTableRecord
100
AcDbBlockTableRecord
  2
*D58
340
0
  0
BLOCK_RECORD
  5
85FE
330
8368
100
AcDbSymbolTableRecord
100
AcDbBlockTableRecord
  2
*D59
340
0
  0
BLOCK_RECORD
  5
8610
330
8368
100
AcDbSymbolTableRecord
100
AcDbBlockTableRecord
  2
*D60
340
0
  0
BLOCK_RECORD
  5
86C1
330
8368
100
AcDbSymbolTableRecord
100
AcDbBlockTableRecord
  2
_DotSmall
340
0
102
{BLKREFS
331
86CF
331
8732
102
}
  0
ENDTAB
  0
ENDSEC
  0
SECTION
  2
BLOCKS
  0
BLOCK
  5
83D7
330
83D6
100
AcDbEntity
  8
0
100
AcDbBlockBegin
  2
*Model_Space
 70
     0
 10
0.0
 20
0.0
 30
0.0
  3
*Model_Space
  1

  0
ENDBLK
  5
83D8
330
83D6
100
AcDbEntity
  8
0
100
AcDbBlockEnd
  0
BLOCK
  5
83D3
330
83D2
100
AcDbEntity
 67
     1
  8
0
100
AcDbBlockBegin
  2
*Paper_Space
 70
     0
 10
0.0
 20
0.0
 30
0.0
  3
*Paper_Space
  1

  0
ENDBLK
  5
83D4
330
83D2
100
AcDbEntity
 67
     1
  8
0
100
AcDbBlockEnd
  0
BLOCK
  5
83E6
330
83E5
100
AcDbEntity
  8
0
100
AcDbBlockBegin
  2
$MODEL_SPACE
 70
     0
 10
0.0
 20
0.0
 30
0.0
  3
$MODEL_SPACE
  1

  0
ENDBLK
  5
1B
330
83E5
100
AcDbEntity
  8
0
100
AcDbBlockEnd
  0
BLOCK
  5
83E8
330
83E7
100
AcDbEntity
  8
0
100
AcDbBlockBegin
  2
$PAPER_SPACE
 70
     0
 10
0.0
 20
0.0
 30
0.0
  3
$PAPER_SPACE
  1

  0
ENDBLK
  5
18
330
83E7
100
AcDbEntity
  8
0
100
AcDbBlockEnd
  0
BLOCK
  5
83EA
330
83E9
100
AcDbEntity
  8
0
100
AcDbBlockBegin
  2
_OPEN
 70
     0
 10
0.0
 20
0.0
 30
0.0
  3
_OPEN
  1

  0
LINE
  5
79FD
330
83E9
100
AcDbEntity
  8
0
  6
ByBlock
 62
     0
100
AcDbLine
 10
-1.0
 20
0.1666666666666666
 30
0.0
 11
0.0
 21
0.0
 31
0.0
  0
LINE
  5
79FE
330
83E9
100
AcDbEntity
  8
0
  6
ByBlock
 62
     0
100
AcDbLine
 10
0.0
 20
0.0
 30
0.0
 11
-1.0
 21
-0.1666666666666666
 31
0.0
  0
LINE
  5
79FF
330
83E9
100
AcDbEntity
  8
0
  6
ByBlock
 62
     0
100
AcDbLine
 10
0.0
 20
0.0
 30
0.0
 11
-1.0
 21
0.0
 31
0.0
  0
ENDBLK
  5
7A01
330
83E9
100
AcDbEntity
  8
0
100
AcDbBlockEnd
  0
BLOCK
  5
83EC
330
83EB
100
AcDbEntity
  8
0
100
AcDbBlockBegin
  2
YA_N
 70
     0
 10
0.0
 20
0.0
 30
0.0
  3
YA_N
  1

  0
ENDBLK
  5
7A0C
330
83EB
100
AcDbEntity
  8
0
100
AcDbBlockEnd
  0
BLOCK
  5
83EE
330
83ED
100
AcDbEntity
  8
0
100
AcDbBlockBegin
  2
*D4
 70
     1
 10
0.0
 20
0.0
 30
0.0
  3
*D4
  1

  0
LINE
  5
82B8
330
83ED
100
AcDbEntity
  8
3
 62
     0
100
AcDbLine
 10
1770.717971633641
 20
2616.867032643556
 30
0.0
 11
1553.109655349375
 21
2616.867032643556
 31
0.0
  0
LINE
  5
82B9
330
83ED
100
AcDbEntity
  8
3
 62
     0
100
AcDbLine
 10
1770.717971633641
 20
3766.867032643556
 30
0.0
 11
1553.109655349375
 21
3766.867032643556
 31
0.0
  0
LINE
  5
82BA
330
83ED
100
AcDbEntity
  8
3
 62
     0
100
AcDbLine
 10
1588.109655349375
 20
2686.867032643556
 30
0.0
 11
1588.109655349375
 21
3696.867032643557
 31
0.0
  0
INSERT
  5
82BB
330
83ED
100
AcDbEntity
  8
3
 62
     0
100
AcDbBlockReference
  2
_OPEN
 10
1588.109655349375
 20
2616.867032643556
 30
0.0
 41
70.0
 42
70.0
 43
70.0
 50
270.0
  0
INSERT
  5
82BC
330
83ED
100
AcDbEntity
  8
3
 62
     0
100
AcDbBlockReference
  2
_OPEN
 10
1588.109655349375
 20
3766.867032643556
 30
0.0
 41
70.0
 42
70.0
 43
70.0
 50
90.0
  0
TEXT
  5
8356
330
83ED
100
AcDbEntity
  8
3
 62
     0
100
AcDbText
 10
1290.61
 20
3006.02
 30
0.0
 40
105.0
  1
1150
100
AcDbText
  0
POINT
  5
82BE
330
83ED
100
AcDbEntity
  8
DEFPOINTS
 62
     0
100
AcDbPoint
 10
1788.21797163364
 20
2616.867032643556
 30
0.0
  0
POINT
  5
82BF
330
83ED
100
AcDbEntity
  8
DEFPOINTS
 62
     0
100
AcDbPoint
 10
1788.21797163364
 20
3766.867032643556
 30
0.0
  0
POINT
  5
82C0
330
83ED
100
AcDbEntity
  8
DEFPOINTS
 62
     0
100
AcDbPoint
 10
1588.109655349375
 20
3766.867032643556
 30
0.0
  0
ENDBLK
  5
8018
330
83ED
100
AcDbEntity
  8
0
100
AcDbBlockEnd
  0
BLOCK
  5
83F0
330
83EF
100
AcDbEntity
  8
0
100
AcDbBlockBegin
  2
*D5
 70
     1
 10
0.0
 20
0.0
 30
0.0
  3
*D5
  1

  0
LINE
  5
82C1
330
83EF
100
AcDbEntity
  8
3
 62
     0
100
AcDbLine
 10
1770.717971633641
 20
2616.867032643556
 30
0.0
 11
1352.958004487872
 21
2616.867032643556
 31
0.0
  0
LINE
  5
82C2
330
83EF
100
AcDbEntity
  8
3
 62
     0
100
AcDbLine
 10
1684.878970734906
 20
3814.867032643557
 30
0.0
 11
1352.958004487873
 21
3814.867032643557
 31
0.0
  0
LINE
  5
82C3
330
83EF
100
AcDbEntity
  8
3
 62
     0
100
AcDbLine
 10
1387.958004487872
 20
2686.867032643556
 30
0.0
 11
1387.958004487873
 21
3744.867032643556
 31
0.0
  0
INSERT
  5
82C4
330
83EF
100
AcDbEntity
  8
3
 62
     0
100
AcDbBlockReference
  2
_OPEN
 10
1387.958004487872
 20
2616.867032643556
 30
0.0
 41
70.0
 42
70.0
 43
70.0
 50
270.0
  0
INSERT
  5
82C5
330
83EF
100
AcDbEntity
  8
3
 62
     0
100
AcDbBlockReference
  2
_OPEN
 10
1387.958004487873
 20
3814.867032643557
 30
0.0
 41
70.0
 42
70.0
 43
70.0
 50
90.0
  0
TEXT
  5
8357
330
83EF
100
AcDbEntity
  8
3
 62
     0
100
AcDbText
 10
1090.46
 20
3030.02
 30
0.0
 40
105.0
  1
1198
100
AcDbText
  0
POINT
  5
82C7
330
83EF
100
AcDbEntity
  8
DEFPOINTS
 62
     0
100
AcDbPoint
 10
1788.21797163364
 20
2616.867032643556
 30
0.0
  0
POINT
  5
82C8
330
83EF
100
AcDbEntity
  8
DEFPOINTS
 62
     0
100
AcDbPoint
 10
1702.378970734907
 20
3814.867032643557
 30
0.0
  0
POINT
  5
82C9
330
83EF
100
AcDbEntity
  8
DEFPOINTS
 62
     0
100
AcDbPoint
 10
1387.958004487873
 20
3814.867032643557
 30
0.0
  0
ENDBLK
  5
800D
330
83EF
100
AcDbEntity
  8
0
100
AcDbBlockEnd
  0
BLOCK
  5
83F2
330
83F1
100
AcDbEntity
  8
0
100
AcDbBlockBegin
  2
*D6
 70
     1
 10
0.0
 20
0.0
 30
0.0
  3
*D6
  1

  0
LINE
  5
82CA
330
83F1
100
AcDbEntity
  8
3
 62
     0
100
AcDbLine
 10
4887.400400804152
 20
4626.028653376388
 30
0.0
 11
4887.400400804152
 21
4908.306671695953
 31
0.0
  0
LINE
  5
82CB
330
83F1
100
AcDbEntity
  8
3
 62
     0
100
AcDbLine
 10
6387.400400804152
 20
4620.179716714774
 30
0.0
 11
6387.400400804152
 21
4908.306671695953
 31
0.0
  0
LINE
  5
82CC
330
83F1
100
AcDbEntity
  8
3
 62
     0
100
AcDbLine
 10
4957.400400804152
 20
4873.306671695954
 30
0.0
 11
6317.400400804152
 21
4873.306671695954
 31
0.0
  0
INSERT
  5
82CD
330
83F1
100
AcDbEntity
  8
3
 62
     0
100
AcDbBlockReference
  2
_OPEN
 10
4887.400400804152
 20
4873.306671695954
 30
0.0
 41
70.0
 42
70.0
 43
70.0
 50
180.0
  0
INSERT
  5
82CE
330
83F1
100
AcDbEntity
  8
3
 62
     0
100
AcDbBlockReference
  2
_OPEN
 10
6387.400400804152
 20
4873.306671695954
 30
0.0
 41
70.0
 42
70.0
 43
70.0
  0
TEXT
  5
8358
330
83F1
100
AcDbEntity
  8
3
 62
     0
100
AcDbText
 10
5427.4
 20
4774.96
 30
0.0
 40
105.0
  1
1500
100
AcDbText
  0
POINT
  5
82D0
330
83F1
100
AcDbEntity
  8
DEFPOINTS
 62
     0
100
AcDbPoint
 10
4887.400400804152
 20
4608.528653376388
 30
0.0
  0
POINT
  5
82D1
330
83F1
100
AcDbEntity
  8
DEFPOINTS
 62
     0
100
AcDbPoint
 10
6387.400400804152
 20
4602.679716714773
 30
0.0
  0
POINT
  5
82D2
330
83F1
100
AcDbEntity
  8
DEFPOINTS
 62
     0
100
AcDbPoint
 10
6387.400400804152
 20
4873.306671695954
 30
0.0
  0
ENDBLK
  5
7F6F
330
83F1
100
AcDbEntity
  8
0
100
AcDbBlockEnd
  0
BLOCK
  5
83F4
330
83F3
100
AcDbEntity
  8
0
100
AcDbBlockBegin
  2
*D7
 70
     1
 10
0.0
 20
0.0
 30
0.0
  3
*D7
  1

  0
LINE
  5
82D3
330
83F3
100
AcDbEntity
  8
3
 62
     0
100
AcDbLine
 10
5637.40040080415
 20
5057.284437516734
 30
0.0
 11
5637.40040080415
 21
5106.314032088929
 31
0.0
  0
LINE
  5
82D4
330
83F3
100
AcDbEntity
  8
3
 62
     0
100
AcDbLine
 10
6552.400400804149
 20
3745.406509748752
 30
0.0
 11
6552.400400804149
 21
5106.314032088929
 31
0.0
  0
LINE
  5
82D5
330
83F3
100
AcDbEntity
  8
3
 62
     0
100
AcDbLine
 10
5707.40040080415
 20
5071.314032088928
 30
0.0
 11
6482.40040080415
 21
5071.314032088928
 31
0.0
  0
INSERT
  5
82D6
330
83F3
100
AcDbEntity
  8
3
 62
     0
100
AcDbBlockReference
  2
_OPEN
 10
5637.40040080415
 20
5071.314032088928
 30
0.0
 41
70.0
 42
70.0
 43
70.0
 50
180.0
  0
INSERT
  5
82D7
330
83F3
100
AcDbEntity
  8
3
 62
     0
100
AcDbBlockReference
  2
_OPEN
 10
6552.400400804149
 20
5071.314032088928
 30
0.0
 41
70.0
 42
70.0
 43
70.0
  0
TEXT
  5
8359
330
83F3
100
AcDbEntity
  8
3
 62
     0
100
AcDbText
 10
5884.9
 20
5000.46
 30
0.0
 40
105.0
  1
(930)
100
AcDbText
  0
POINT
  5
82D9
330
83F3
100
AcDbEntity
  8
DEFPOINTS
 62
     0
100
AcDbPoint
 10
5637.40040080415
 20
5039.784437516733
 30
0.0
  0
POINT
  5
82DA
330
83F3
100
AcDbEntity
  8
DEFPOINTS
 62
     0
100
AcDbPoint
 10
6552.400400804149
 20
3727.906509748752
 30
0.0
  0
POINT
  5
82DB
330
83F3
100
AcDbEntity
  8
DEFPOINTS
 62
     0
100
AcDbPoint
 10
6552.400400804149
 20
5071.314032088928
 30
0.0
  0
ENDBLK
  5
811C
330
83F3
100
AcDbEntity
  8
0
100
AcDbBlockEnd
  0
BLOCK
  5
83F6
330
83F5
100
AcDbEntity
  8
0
100
AcDbBlockBegin
  2
*D8
 70
     1
 10
0.0
 20
0.0
 30
0.0
  3
*D8
  1

  0
LINE
  5
82DC
330
83F5
100
AcDbEntity
  8
3
 62
     0
100
AcDbLine
 10
6410.400400804154
 20
3254.867032643557
 30
0.0
 11
6790.183167159667
 21
3254.867032643557
 31
0.0
  0
LINE
  5
82DD
330
83F5
100
AcDbEntity
  8
3
 62
     0
100
AcDbLine
 10
6410.400400804154
 20
4374.867032643556
 30
0.0
 11
6790.183167159667
 21
4374.867032643556
 31
0.0
  0
LINE
  5
82DE
330
83F5
100
AcDbEntity
  8
3
 62
     0
100
AcDbLine
 10
6755.183167159666
 20
3324.867032643556
 30
0.0
 11
6755.183167159666
 21
4304.867032643556
 31
0.0
  0
INSERT
  5
82DF
330
83F5
100
AcDbEntity
  8
3
 62
     0
100
AcDbBlockReference
  2
_OPEN
 10
6755.183167159666
 20
3254.867032643557
 30
0.0
 41
70.0
 42
70.0
 43
70.0
 50
270.0
  0
INSERT
  5
82E0
330
83F5
100
AcDbEntity
  8
3
 62
     0
100
AcDbBlockReference
  2
_OPEN
 10
6755.183167159666
 20
4374.867032643556
 30
0.0
 41
70.0
 42
70.0
 43
70.0
 50
90.0
  0
TEXT
  5
835A
330
83F5
100
AcDbEntity
  8
3
 62
     0
100
AcDbText
 10
6457.68
 20
3629.02
 30
0.0
 40
105.0
  1
\U+03C61120
100
AcDbText
  0
POINT
  5
82E2
330
83F5
100
AcDbEntity
  8
DEFPOINTS
 62
     0
100
AcDbPoint
 10
6392.900400804154
 20
3254.867032643557
 30
0.0
  0
POINT
  5
82E3
330
83F5
100
AcDbEntity
  8
DEFPOINTS
 62
     0
100
AcDbPoint
 10
6392.900400804154
 20
4374.867032643556
 30
0.0
  0
POINT
  5
82E4
330
83F5
100
AcDbEntity
  8
DEFPOINTS
 62
     0
100
AcDbPoint
 10
6755.183167159666
 20
4374.867032643556
 30
0.0
  0
ENDBLK
  5
7F85
330
83F5
100
AcDbEntity
  8
0
100
AcDbBlockEnd
  0
BLOCK
  5
83F8
330
83F7
100
AcDbEntity
  8
0
100
AcDbBlockBegin
  2
*D9
 70
     1
 10
0.0
 20
0.0
 30
0.0
  3
*D9
  1

  0
LINE
  5
82E5
330
83F7
100
AcDbEntity
  8
3
 62
     0
100
AcDbLine
 10
4514.700400804152
 20
4212.367032643555
 30
0.0
 11
4514.700400804152
 21
5105.297380820517
 31
0.0
  0
LINE
  5
82E6
330
83F7
100
AcDbEntity
  8
3
 62
     0
100
AcDbLine
 10
5637.40040080415
 20
5057.284437516734
 30
0.0
 11
5637.40040080415
 21
5105.297380820517
 31
0.0
  0
LINE
  5
82E7
330
83F7
100
AcDbEntity
  8
3
 62
     0
100
AcDbLine
 10
4584.700400804152
 20
5070.297380820517
 30
0.0
 11
5567.400400804149
 21
5070.297380820517
 31
0.0
  0
INSERT
  5
82E8
330
83F7
100
AcDbEntity
  8
3
 62
     0
100
AcDbBlockReference
  2
_OPEN
 10
4514.700400804152
 20
5070.297380820517
 30
0.0
 41
70.0
 42
70.0
 43
70.0
 50
180.0
  0
INSERT
  5
82E9
330
83F7
100
AcDbEntity
  8
3
 62
     0
100
AcDbBlockReference
  2
_OPEN
 10
5637.40040080415
 20
5070.297380820517
 30
0.0
 41
70.0
 42
70.0
 43
70.0
  0
TEXT
  5
835B
330
83F7
100
AcDbEntity
  8
3
 62
     0
100
AcDbText
 10
4866.050000000001
 20
5059.45
 30
0.0
 40
105.0
  1
MAX
100
AcDbText
  0
TEXT
  5
835C
330
83F7
100
AcDbEntity
  8
3
 62
     0
100
AcDbText
 10
4866.050000000001
 20
4922.95
 30
0.0
 40
105.0
  1
1120
100
AcDbText
  0
POINT
  5
82EB
330
83F7
100
AcDbEntity
  8
DEFPOINTS
 62
     0
100
AcDbPoint
 10
4514.700400804152
 20
4194.867032643556
 30
0.0
  0
POINT
  5
82EC
330
83F7
100
AcDbEntity
  8
DEFPOINTS
 62
     0
100
AcDbPoint
 10
5637.40040080415
 20
5039.784437516733
 30
0.0
  0
POINT
  5
82ED
330
83F7
100
AcDbEntity
  8
DEFPOINTS
 62
     0
100
AcDbPoint
 10
5637.40040080415
 20
5070.297380820517
 30
0.0
  0
ENDBLK
  5
8111
330
83F7
100
AcDbEntity
  8
0
100
AcDbBlockEnd
  0
BLOCK
  5
83FA
330
83F9
100
AcDbEntity
  8
0
100
AcDbBlockBegin
  2
*D10
 70
     1
 10
0.0
 20
0.0
 30
0.0
  3
*D10
  1

  0
LINE
  5
82EE
330
83F9
100
AcDbEntity
  8
3
 62
     0
100
AcDbLine
 10
3208.217971633641
 20
7710.981934815961
 30
0.0
 11
3208.217971633641
 21
7902.489295287082
 31
0.0
  0
LINE
  5
82EF
330
83F9
100
AcDbEntity
  8
3
 62
     0
100
AcDbLine
 10
1888.21797163364
 20
7710.981934815961
 30
0.0
 11
1888.21797163364
 21
7902.489295287082
 31
0.0
  0
LINE
  5
82F0
330
83F9
100
AcDbEntity
  8
3
 62
     0
100
AcDbLine
 10
3138.217971633641
 20
7867.489295287082
 30
0.0
 11
1958.217971633641
 21
7867.489295287082
 31
0.0
  0
INSERT
  5
82F1
330
83F9
100
AcDbEntity
  8
3
 62
     0
100
AcDbBlockReference
  2
_OPEN
 10
3208.217971633641
 20
7867.489295287082
 30
0.0
 41
70.0
 42
70.0
 43
70.0
  0
INSERT
  5
82F2
330
83F9
100
AcDbEntity
  8
3
 62
     0
100
AcDbBlockReference
  2
_OPEN
 10
1888.21797163364
 20
7867.489295287082
 30
0.0
 41
70.0
 42
70.0
 43
70.0
 50
180.0
  0
TEXT
  5
835D
330
83F9
100
AcDbEntity
  8
3
 62
     0
100
AcDbText
 10
2338.22
 20
7769.14
 30
0.0
 40
105.0
  1
1320
100
AcDbText
  0
POINT
  5
82F4
330
83F9
100
AcDbEntity
  8
DEFPOINTS
 62
     0
100
AcDbPoint
 10
3208.217971633641
 20
7693.481934815962
 30
0.0
  0
POINT
  5
82F5
330
83F9
100
AcDbEntity
  8
DEFPOINTS
 62
     0
100
AcDbPoint
 10
1888.21797163364
 20
7693.481934815962
 30
0.0
  0
POINT
  5
82F6
330
83F9
100
AcDbEntity
  8
DEFPOINTS
 62
     0
100
AcDbPoint
 10
1888.21797163364
 20
7867.489295287082
 30
0.0
  0
ENDBLK
  5
802E
330
83F9
100
AcDbEntity
  8
0
100
AcDbBlockEnd
  0
BLOCK
  5
83FC
330
83FB
100
AcDbEntity
  8
0
100
AcDbBlockBegin
  2
*D11
 70
     1
 10
0.0
 20
0.0
 30
0.0
  3
*D11
  1

  0
LINE
  5
82F7
330
83FB
100
AcDbEntity
  8
3
 62
     0
100
AcDbLine
 10
4165.717971633641
 20
6693.481934815962
 30
0.0
 11
4583.848380927505
 21
6693.481934815962
 31
0.0
  0
LINE
  5
82F8
330
83FB
100
AcDbEntity
  8
3
 62
     0
100
AcDbLine
 10
4165.717971633641
 20
5793.481934815961
 30
0.0
 11
4583.848380927504
 21
5793.481934815961
 31
0.0
  0
LINE
  5
82F9
330
83FB
100
AcDbEntity
  8
3
 62
     0
100
AcDbLine
 10
4548.848380927505
 20
6623.481934815962
 30
0.0
 11
4548.848380927504
 21
5863.481934815961
 31
0.0
  0
INSERT
  5
82FA
330
83FB
100
AcDbEntity
  8
3
 62
     0
100
AcDbBlockReference
  2
_OPEN
 10
4548.848380927505
 20
6693.481934815962
 30
0.0
 41
70.0
 42
70.0
 43
70.0
 50
90.0
  0
INSERT
  5
82FB
330
83FB
100
AcDbEntity
  8
3
 62
     0
100
AcDbBlockReference
  2
_OPEN
 10
4548.848380927504
 20
5793.481934815961
 30
0.0
 41
70.0
 42
70.0
 43
70.0
 50
270.0
  0
TEXT
  5
835E
330
83FB
100
AcDbEntity
  8
3
 62
     0
100
AcDbText
 10
4251.350000000001
 20
6057.63
 30
0.0
 40
105.0
  1
900
100
AcDbText
  0
POINT
  5
82FD
330
83FB
100
AcDbEntity
  8
DEFPOINTS
 62
     0
100
AcDbPoint
 10
4148.21797163364
 20
6693.481934815962
 30
0.0
  0
POINT
  5
82FE
330
83FB
100
AcDbEntity
  8
DEFPOINTS
 62
     0
100
AcDbPoint
 10
4148.21797163364
 20
5793.481934815961
 30
0.0
  0
POINT
  5
82FF
330
83FB
100
AcDbEntity
  8
DEFPOINTS
 62
     0
100
AcDbPoint
 10
4548.848380927504
 20
5793.481934815961
 30
0.0
  0
ENDBLK
  5
8044
330
83FB
100
AcDbEntity
  8
0
100
AcDbBlockEnd
  0
BLOCK
  5
83FE
330
83FD
100
AcDbEntity
  8
0
100
AcDbBlockBegin
  2
*D12
 70
     1
 10
0.0
 20
0.0
 30
0.0
  3
*D12
  1

  0
LINE
  5
8300
330
83FD
100
AcDbEntity
  8
3
 62
     0
100
AcDbLine
 10
4148.21797163364
 20
5775.981934815962
 30
0.0
 11
4148.21797163364
 21
5467.236742722015
 31
0.0
  0
LINE
  5
8301
330
83FD
100
AcDbEntity
  8
3
 62
     0
100
AcDbLine
 10
1888.21797163364
 20
5775.981934815962
 30
0.0
 11
1888.21797163364
 21
5467.236742722015
 31
0.0
  0
LINE
  5
8302
330
83FD
100
AcDbEntity
  8
3
 62
     0
100
AcDbLine
 10
4078.21797163364
 20
5502.236742722015
 30
0.0
 11
1958.217971633641
 21
5502.236742722015
 31
0.0
  0
INSERT
  5
8303
330
83FD
100
AcDbEntity
  8
3
 62
     0
100
AcDbBlockReference
  2
_OPEN
 10
4148.21797163364
 20
5502.236742722015
 30
0.0
 41
70.0
 42
70.0
 43
70.0
  0
INSERT
  5
8304
330
83FD
100
AcDbEntity
  8
3
 62
     0
100
AcDbBlockReference
  2
_OPEN
 10
1888.21797163364
 20
5502.236742722015
 30
0.0
 41
70.0
 42
70.0
 43
70.0
 50
180.0
  0
TEXT
  5
835F
330
83FD
100
AcDbEntity
  8
3
 62
     0
100
AcDbText
 10
2808.22
 20
5403.89
 30
0.0
 40
105.0
  1
2260
100
AcDbText
  0
POINT
  5
8306
330
83FD
100
AcDbEntity
  8
DEFPOINTS
 62
     0
100
AcDbPoint
 10
4148.21797163364
 20
5793.481934815962
 30
0.0
  0
POINT
  5
8307
330
83FD
100
AcDbEntity
  8
DEFPOINTS
 62
     0
100
AcDbPoint
 10
1888.21797163364
 20
5793.481934815962
 30
0.0
  0
POINT
  5
8308
330
83FD
100
AcDbEntity
  8
DEFPOINTS
 62
     0
100
AcDbPoint
 10
1888.21797163364
 20
5502.236742722015
 30
0.0
  0
ENDBLK
  5
805A
330
83FD
100
AcDbEntity
  8
0
100
AcDbBlockEnd
  0
BLOCK
  5
8400
330
83FF
100
AcDbEntity
  8
0
100
AcDbBlockBegin
  2
*D13
 70
     1
 10
0.0
 20
0.0
 30
0.0
  3
*D13
  1

  0
LINE
  5
8309
330
83FF
100
AcDbEntity
  8
3
 62
     0
100
AcDbLine
 10
1870.717971633641
 20
7693.481934815962
 30
0.0
 11
1454.445716662589
 21
7693.481934815962
 31
0.0
  0
LINE
  5
830A
330
83FF
100
AcDbEntity
  8
3
 62
     0
100
AcDbLine
 10
1870.717971633641
 20
5793.481934815962
 30
0.0
 11
1454.445716662589
 21
5793.481934815962
 31
0.0
  0
LINE
  5
830B
330
83FF
100
AcDbEntity
  8
3
 62
     0
100
AcDbLine
 10
1489.445716662589
 20
7623.481934815962
 30
0.0
 11
1489.445716662588
 21
5863.481934815961
 31
0.0
  0
INSERT
  5
830C
330
83FF
100
AcDbEntity
  8
3
 62
     0
100
AcDbBlockReference
  2
_OPEN
 10
1489.445716662589
 20
7693.481934815962
 30
0.0
 41
70.0
 42
70.0
 43
70.0
 50
90.0
  0
INSERT
  5
830D
330
83FF
100
AcDbEntity
  8
3
 62
     0
100
AcDbBlockReference
  2
_OPEN
 10
1489.445716662588
 20
5793.481934815962
 30
0.0
 41
70.0
 42
70.0
 43
70.0
 50
270.0
  0
TEXT
  5
8360
330
83FF
100
AcDbEntity
  8
3
 62
     0
100
AcDbText
 10
1191.95
 20
6557.63
 30
0.0
 40
105.0
  1
1900
100
AcDbText
  0
POINT
  5
830F
330
83FF
100
AcDbEntity
  8
DEFPOINTS
 62
     0
100
AcDbPoint
 10
1888.21797163364
 20
7693.481934815962
 30
0.0
  0
POINT
  5
8310
330
83FF
100
AcDbEntity
  8
DEFPOINTS
 62
     0
100
AcDbPoint
 10
1888.21797163364
 20
5793.481934815962
 30
0.0
  0
POINT
  5
8311
330
83FF
100
AcDbEntity
  8
DEFPOINTS
 62
     0
100
AcDbPoint
 10
1489.445716662588
 20
5793.481934815962
 30
0.0
  0
ENDBLK
  5
8023
330
83FF
100
AcDbEntity
  8
0
100
AcDbBlockEnd
  0
BLOCK
  5
8402
330
8401
100
AcDbEntity
  8
0
100
AcDbBlockBegin
  2
*D14
 70
     1
 10
0.0
 20
0.0
 30
0.0
  3
*D14
  1

  0
LINE
  5
8312
330
8401
100
AcDbEntity
  8
3
 62
     0
100
AcDbLine
 10
4148.21797163364
 20
6710.98193481596
 30
0.0
 11
4148.21797163364
 21
7902.489295287082
 31
0.0
  0
LINE
  5
8313
330
8401
100
AcDbEntity
  8
3
 62
     0
100
AcDbLine
 10
3208.217971633641
 20
7710.981934815961
 30
0.0
 11
3208.217971633641
 21
7902.489295287082
 31
0.0
  0
LINE
  5
8314
330
8401
100
AcDbEntity
  8
3
 62
     0
100
AcDbLine
 10
4078.21797163364
 20
7867.489295287082
 30
0.0
 11
3278.217971633641
 21
7867.489295287082
 31
0.0
  0
INSERT
  5
8315
330
8401
100
AcDbEntity
  8
3
 62
     0
100
AcDbBlockReference
  2
_OPEN
 10
4148.21797163364
 20
7867.489295287082
 30
0.0
 41
70.0
 42
70.0
 43
70.0
  0
INSERT
  5
8316
330
8401
100
AcDbEntity
  8
3
 62
     0
100
AcDbBlockReference
  2
_OPEN
 10
3208.217971633641
 20
7867.489295287082
 30
0.0
 41
70.0
 42
70.0
 43
70.0
 50
180.0
  0
TEXT
  5
8361
330
8401
100
AcDbEntity
  8
3
 62
     0
100
AcDbText
 10
3468.22
 20
7769.14
 30
0.0
 40
105.0
  1
940
100
AcDbText
  0
POINT
  5
8318
330
8401
100
AcDbEntity
  8
DEFPOINTS
 62
     0
100
AcDbPoint
 10
4148.21797163364
 20
6693.481934815962
 30
0.0
  0
POINT
  5
8319
330
8401
100
AcDbEntity
  8
DEFPOINTS
 62
     0
100
AcDbPoint
 10
3208.217971633641
 20
7693.481934815962
 30
0.0
  0
POINT
  5
831A
330
8401
100
AcDbEntity
  8
DEFPOINTS
 62
     0
100
AcDbPoint
 10
3208.217971633641
 20
7867.489295287082
 30
0.0
  0
ENDBLK
  5
8039
330
8401
100
AcDbEntity
  8
0
100
AcDbBlockEnd
  0
BLOCK
  5
8404
330
8403
100
AcDbEntity
  8
0
100
AcDbBlockBegin
  2
*D15
 70
     1
 10
0.0
 20
0.0
 30
0.0
  3
*D15
  1

  0
LINE
  5
831B
330
8403
100
AcDbEntity
  8
3
 62
     0
100
AcDbLine
 10
1788.21797163364
 20
3813.31920139184
 30
0.0
 11
1788.21797163364
 21
5107.874531832273
 31
0.0
  0
LINE
  5
831C
330
8403
100
AcDbEntity
  8
3
 62
     0
100
AcDbLine
 10
4148.21797163364
 20
2602.367032643556
 30
0.0
 11
4148.21797163364
 21
5107.874531832273
 31
0.0
  0
LINE
  5
831D
330
8403
100
AcDbEntity
  8
3
 62
     0
100
AcDbLine
 10
1858.217971633641
 20
5072.874531832272
 30
0.0
 11
4078.21797163364
 21
5072.874531832272
 31
0.0
  0
INSERT
  5
831E
330
8403
100
AcDbEntity
  8
3
 62
     0
100
AcDbBlockReference
  2
_OPEN
 10
1788.21797163364
 20
5072.874531832272
 30
0.0
 41
70.0
 42
70.0
 43
70.0
 50
180.0
  0
INSERT
  5
831F
330
8403
100
AcDbEntity
  8
3
 62
     0
100
AcDbBlockReference
  2
_OPEN
 10
4148.21797163364
 20
5072.874531832272
 30
0.0
 41
70.0
 42
70.0
 43
70.0
  0
TEXT
  5
8362
330
8403
100
AcDbEntity
  8
3
 62
     0
100
AcDbText
 10
2758.22
 20
4974.52
 30
0.0
 40
105.0
  1
2360
100
AcDbText
  0
POINT
  5
8321
330
8403
100
AcDbEntity
  8
DEFPOINTS
 62
     0
100
AcDbPoint
 10
1788.21797163364
 20
3795.819201391839
 30
0.0
  0
POINT
  5
8322
330
8403
100
AcDbEntity
  8
DEFPOINTS
 62
     0
100
AcDbPoint
 10
4148.21797163364
 20
2584.867032643556
 30
0.0
  0
POINT
  5
8323
330
8403
100
AcDbEntity
  8
DEFPOINTS
 62
     0
100
AcDbPoint
 10
4148.21797163364
 20
5072.874531832272
 30
0.0
  0
ENDBLK
  5
804F
330
8403
100
AcDbEntity
  8
0
100
AcDbBlockEnd
  0
BLOCK
  5
8406
330
8405
100
AcDbEntity
  8
0
100
AcDbBlockBegin
  2
*D16
 70
     1
 10
0.0
 20
0.0
 30
0.0
  3
*D16
  1

  0
LINE
  5
8324
330
8405
100
AcDbEntity
  8
3
 62
     0
100
AcDbLine
 10
2612.717971633641
 20
4619.867032643557
 30
0.0
 11
1149.008057762066
 21
4619.867032643557
 31
0.0
  0
LINE
  5
8325
330
8405
100
AcDbEntity
  8
3
 62
     0
100
AcDbLine
 10
1654.878970734908
 20
3814.867032643557
 30
0.0
 11
1149.008057762066
 21
3814.867032643557
 31
0.0
  0
LINE
  5
8326
330
8405
100
AcDbEntity
  8
3
 62
     0
100
AcDbLine
 10
1184.008057762066
 20
4549.867032643557
 30
0.0
 11
1184.008057762066
 21
3884.867032643557
 31
0.0
  0
INSERT
  5
8327
330
8405
100
AcDbEntity
  8
3
 62
     0
100
AcDbBlockReference
  2
_OPEN
 10
1184.008057762066
 20
4619.867032643557
 30
0.0
 41
70.0
 42
70.0
 43
70.0
 50
90.0
  0
INSERT
  5
8328
330
8405
100
AcDbEntity
  8
3
 62
     0
100
AcDbBlockReference
  2
_OPEN
 10
1184.008057762066
 20
3814.867032643557
 30
0.0
 41
70.0
 42
70.0
 43
70.0
 50
270.0
  0
TEXT
  5
8363
330
8405
100
AcDbEntity
  8
3
 62
     0
100
AcDbText
 10
886.508
 20
4031.519999999999
 30
0.0
 40
105.0
  1
805
100
AcDbText
  0
POINT
  5
832A
330
8405
100
AcDbEntity
  8
DEFPOINTS
 62
     0
100
AcDbPoint
 10
2630.217971633641
 20
4619.867032643557
 30
0.0
  0
POINT
  5
832B
330
8405
100
AcDbEntity
  8
DEFPOINTS
 62
     0
100
AcDbPoint
 10
1672.378970734906
 20
3814.867032643557
 30
0.0
  0
POINT
  5
832C
330
8405
100
AcDbEntity
  8
DEFPOINTS
 62
     0
100
AcDbPoint
 10
1184.008057762066
 20
3814.867032643557
 30
0.0
  0
ENDBLK
  5
8002
330
8405
100
AcDbEntity
  8
0
100
AcDbBlockEnd
  0
BLOCK
  5
8408
330
8407
100
AcDbEntity
  8
0
100
AcDbBlockBegin
  2
*D17
 70
     1
 10
0.0
 20
0.0
 30
0.0
  3
*D17
  1

  0
LINE
  5
832D
330
8407
100
AcDbEntity
  8
3
 62
     0
100
AcDbLine
 10
1654.878970734908
 20
3814.867032643557
 30
0.0
 11
1149.008057762067
 21
3814.867032643557
 31
0.0
  0
LINE
  5
832E
330
8407
100
AcDbEntity
  8
3
 62
     0
100
AcDbLine
 10
1870.717971633641
 20
2459.867032643556
 30
0.0
 11
1149.008057762066
 21
2459.867032643556
 31
0.0
  0
LINE
  5
832F
330
8407
100
AcDbEntity
  8
3
 62
     0
100
AcDbLine
 10
1184.008057762067
 20
3744.867032643556
 30
0.0
 11
1184.008057762066
 21
2529.867032643557
 31
0.0
  0
INSERT
  5
8330
330
8407
100
AcDbEntity
  8
3
 62
     0
100
AcDbBlockReference
  2
_OPEN
 10
1184.008057762067
 20
3814.867032643557
 30
0.0
 41
70.0
 42
70.0
 43
70.0
 50
90.0
  0
INSERT
  5
8331
330
8407
100
AcDbEntity
  8
3
 62
     0
100
AcDbBlockReference
  2
_OPEN
 10
1184.008057762066
 20
2459.867032643556
 30
0.0
 41
70.0
 42
70.0
 43
70.0
 50
270.0
  0
TEXT
  5
8364
330
8407
100
AcDbEntity
  8
3
 62
     0
100
AcDbText
 10
886.508
 20
2951.52
 30
0.0
 40
105.0
  1
1355
100
AcDbText
  0
POINT
  5
8333
330
8407
100
AcDbEntity
  8
DEFPOINTS
 62
     0
100
AcDbPoint
 10
1672.378970734906
 20
3814.867032643557
 30
0.0
  0
POINT
  5
8334
330
8407
100
AcDbEntity
  8
DEFPOINTS
 62
     0
100
AcDbPoint
 10
1888.21797163364
 20
2459.867032643556
 30
0.0
  0
POINT
  5
8335
330
8407
100
AcDbEntity
  8
DEFPOINTS
 62
     0
100
AcDbPoint
 10
1184.008057762066
 20
2459.867032643556
 30
0.0
  0
ENDBLK
  5
7FEC
330
8407
100
AcDbEntity
  8
0
100
AcDbBlockEnd
  0
BLOCK
  5
840A
330
8409
100
AcDbEntity
  8
0
100
AcDbBlockBegin
  2
*D18
 70
     1
 10
0.0
 20
0.0
 30
0.0
  3
*D18
  1

  0
LINE
  5
8336
330
8409
100
AcDbEntity
  8
3
 62
     0
100
AcDbLine
 10
1870.717971633641
 20
2344.867032643557
 30
0.0
 11
1149.008057762066
 21
2344.867032643557
 31
0.0
  0
LINE
  5
8337
330
8409
100
AcDbEntity
  8
3
 62
     0
100
AcDbLine
 10
1870.717971633641
 20
2279.867032643556
 30
0.0
 11
1149.008057762066
 21
2279.867032643556
 31
0.0
  0
LINE
  5
8338
330
8409
100
AcDbEntity
  8
3
 62
     0
100
AcDbLine
 10
1184.008057762066
 20
2414.867032643556
 30
0.0
 11
1184.008057762066
 21
2484.867032643556
 31
0.0
  0
LINE
  5
8339
330
8409
100
AcDbEntity
  8
3
 62
     0
100
AcDbLine
 10
1184.008057762066
 20
2209.867032643556
 30
0.0
 11
1184.008057762066
 21
1899.867032643556
 31
0.0
  0
LINE
  5
833A
330
8409
100
AcDbEntity
  8
3
 62
     0
100
AcDbLine
 10
1184.008057762066
 20
2344.867032643557
 30
0.0
 11
1184.008057762066
 21
2279.867032643556
 31
0.0
  0
INSERT
  5
833B
330
8409
100
AcDbEntity
  8
3
 62
     0
100
AcDbBlockReference
  2
_DOT
 10
1184.008057762066
 20
2344.867032643557
 30
0.0
 41
70.0
 42
70.0
 43
70.0
 50
270.0
  0
INSERT
  5
833C
330
8409
100
AcDbEntity
  8
3
 62
     0
100
AcDbBlockReference
  2
_OPEN
 10
1184.008057762066
 20
2279.867032643556
 30
0.0
 41
70.0
 42
70.0
 43
70.0
 50
90.0
  0
TEXT
  5
8365
330
8409
100
AcDbEntity
  8
3
 62
     0
100
AcDbText
 10
886.508
 20
1834.02
 30
0.0
 40
105.0
  1
65
100
AcDbText
  0
POINT
  5
833E
330
8409
100
AcDbEntity
  8
DEFPOINTS
 62
     0
100
AcDbPoint
 10
1888.21797163364
 20
2344.867032643557
 30
0.0
  0
POINT
  5
833F
330
8409
100
AcDbEntity
  8
DEFPOINTS
 62
     0
100
AcDbPoint
 10
1888.21797163364
 20
2279.867032643556
 30
0.0
  0
POINT
  5
8340
330
8409
100
AcDbEntity
  8
DEFPOINTS
 62
     0
100
AcDbPoint
 10
1184.008057762066
 20
2279.867032643556
 30
0.0
  0
ENDBLK
  5
80C6
330
8409
100
AcDbEntity
  8
0
100
AcDbBlockEnd
  0
BLOCK
  5
8410
330
840B
100
AcDbEntity
  8
0
100
AcDbBlockBegin
  2
_DOT
 70
     0
 10
0.0
 20
0.0
 30
0.0
  3
_DOT
  1

  0
LWPOLYLINE
  5
80CA
330
840B
100
AcDbEntity
  8
0
  6
ByBlock
 62
     0
100
AcDbPolyline
 90
        2
 70
     1
 43
0.25
 10
-0.125
 20
0.0
 42
1.0
 10
0.125
 20
0.0
 42
1.0
  0
LINE
  5
80CE
330
840B
100
AcDbEntity
  8
0
  6
ByBlock
 62
     0
100
AcDbLine
 10
-0.25
 20
0.0
 30
0.0
 11
-1.0
 21
0.0
 31
0.0
  0
ENDBLK
  5
80AC
330
840B
100
AcDbEntity
  8
0
100
AcDbBlockEnd
  0
BLOCK
  5
840D
330
840C
100
AcDbEntity
  8
0
100
AcDbBlockBegin
  2
*D20
 70
     1
 10
0.0
 20
0.0
 30
0.0
  3
*D20
  1

  0
LINE
  5
8341
330
840C
100
AcDbEntity
  8
3
 62
     0
100
AcDbLine
 10
1788.21797163364
 20
3837.367032643556
 30
0.0
 11
1788.21797163364
 21
4880.294362889877
 31
0.0
  0
LINE
  5
8342
330
840C
100
AcDbEntity
  8
3
 62
     0
100
AcDbLine
 10
2548.217971633641
 20
4698.435226323957
 30
0.0
 11
2548.217971633641
 21
4880.294362889877
 31
0.0
  0
LINE
  5
8343
330
840C
100
AcDbEntity
  8
3
 62
     0
100
AcDbLine
 10
1858.217971633641
 20
4845.294362889877
 30
0.0
 11
2478.217971633641
 21
4845.294362889877
 31
0.0
  0
INSERT
  5
8344
330
840C
100
AcDbEntity
  8
3
 62
     0
100
AcDbBlockReference
  2
_OPEN
 10
1788.21797163364
 20
4845.294362889877
 30
0.0
 41
70.0
 42
70.0
 43
70.0
 50
180.0
  0
INSERT
  5
8345
330
840C
100
AcDbEntity
  8
3
 62
     0
100
AcDbBlockReference
  2
_OPEN
 10
2548.217971633641
 20
4845.294362889877
 30
0.0
 41
70.0
 42
70.0
 43
70.0
  0
TEXT
  5
8366
330
840C
100
AcDbEntity
  8
3
 62
     0
100
AcDbText
 10
1958.22
 20
4746.94
 30
0.0
 40
105.0
  1
760
100
AcDbText
  0
POINT
  5
8347
330
840C
100
AcDbEntity
  8
DEFPOINTS
 62
     0
100
AcDbPoint
 10
1788.21797163364
 20
3819.867032643557
 30
0.0
  0
POINT
  5
8348
330
840C
100
AcDbEntity
  8
DEFPOINTS
 62
     0
100
AcDbPoint
 10
2548.217971633641
 20
4680.935226323958
 30
0.0
  0
POINT
  5
8349
330
840C
100
AcDbEntity
  8
DEFPOINTS
 62
     0
100
AcDbPoint
 10
2548.217971633641
 20
4845.294362889877
 30
0.0
  0
ENDBLK
  5
8070
330
840C
100
AcDbEntity
  8
0
100
AcDbBlockEnd
  0
BLOCK
  5
840F
330
840E
100
AcDbEntity
  8
0
100
AcDbBlockBegin
  2
*D21
 70
     1
 10
0.0
 20
0.0
 30
0.0
  3
*D21
  1

  0
LINE
  5
834A
330
840E
100
AcDbEntity
  8
3
 62
     0
100
AcDbLine
 10
2548.217971633641
 20
4698.435226323957
 30
0.0
 11
2548.217971633641
 21
4880.294362889877
 31
0.0
  0
LINE
  5
834B
330
840E
100
AcDbEntity
  8
3
 62
     0
100
AcDbLine
 10
3517.217971633641
 20
3750.367032643556
 30
0.0
 11
3517.217971633641
 21
4880.294362889877
 31
0.0
  0
LINE
  5
834C
330
840E
100
AcDbEntity
  8
3
 62
     0
100
AcDbLine
 10
2618.217971633641
 20
4845.294362889877
 30
0.0
 11
3447.217971633641
 21
4845.294362889877
 31
0.0
  0
INSERT
  5
834D
330
840E
100
AcDbEntity
  8
3
 62
     0
100
AcDbBlockReference
  2
_OPEN
 10
2548.217971633641
 20
4845.294362889877
 30
0.0
 41
70.0
 42
70.0
 43
70.0
 50
180.0
  0
INSERT
  5
834E
330
840E
100
AcDbEntity
  8
3
 62
     0
100
AcDbBlockReference
  2
_OPEN
 10
3517.217971633641
 20
4845.294362889877
 30
0.0
 41
70.0
 42
70.0
 43
70.0
  0
TEXT
  5
8367
330
840E
100
AcDbEntity
  8
3
 62
     0
100
AcDbText
 10
2822.72
 20
4746.94
 30
0.0
 40
105.0
  1
969
100
AcDbText
  0
POINT
  5
8350
330
840E
100
AcDbEntity
  8
DEFPOINTS
 62
     0
100
AcDbPoint
 10
2548.217971633641
 20
4680.935226323958
 30
0.0
  0
POINT
  5
8351
330
840E
100
AcDbEntity
  8
DEFPOINTS
 62
     0
100
AcDbPoint
 10
3517.217971633641
 20
3732.867032643557
 30
0.0
  0
POINT
  5
8352
330
840E
100
AcDbEntity
  8
DEFPOINTS
 62
     0
100
AcDbPoint
 10
3517.217971633641
 20
4845.294362889877
 30
0.0
  0
ENDBLK
  5
8065
330
840E
100
AcDbEntity
  8
0
100
AcDbBlockEnd
  0
BLOCK
  5
8412
330
8411
100
AcDbEntity
  8
0
100
AcDbBlockBegin
  2
*D22
 70
     1
 10
0.0
 20
0.0
 30
0.0
  3
*D22
  1

  0
LINE
  5
8127
330
8411
100
AcDbEntity
  8
0
  6
ByBlock
 62
     0
100
AcDbLine
 10
1888.21797163364
 20
2357.367032643556
 30
0.0
 11
1888.21797163364
 21
2116.406442439318
 31
0.0
  0
LINE
  5
8128
330
8411
100
AcDbEntity
  8
0
  6
ByBlock
 62
     0
100
AcDbLine
 10
2548.217971633641
 20
2357.367032643557
 30
0.0
 11
2548.217971633641
 21
2116.406442439318
 31
0.0
  0
LINE
  5
8129
330
8411
100
AcDbEntity
  8
0
  6
ByBlock
 62
     0
100
AcDbLine
 10
1958.217971633641
 20
2151.406442439319
 30
0.0
 11
2478.21797163364
 21
2151.406442439319
 31
0.0
  0
INSERT
  5
812A
330
8411
100
AcDbEntity
  8
0
  6
ByBlock
 62
     0
100
AcDbBlockReference
  2
_OPEN
 10
1888.21797163364
 20
2151.406442439319
 30
0.0
 41
70.0
 42
70.0
 43
70.0
 50
180.0
  0
INSERT
  5
812B
330
8411
100
AcDbEntity
  8
0
  6
ByBlock
 62
     0
100
AcDbBlockReference
  2
_OPEN
 10
2548.217971633641
 20
2151.406442439319
 30
0.0
 41
70.0
 42
70.0
 43
70.0
  0
TEXT
  5
812C
330
8411
100
AcDbEntity
  8
3
 62
     0
100
AcDbText
 10
2083.217971633641
 20
2186.406442439319
 30
0.0
 40
105.0
  1
660
100
AcDbText
  0
POINT
  5
812D
330
8411
100
AcDbEntity
  8
DEFPOINTS
  6
ByBlock
 62
     0
100
AcDbPoint
 10
1888.21797163364
 20
2374.867032643556
 30
0.0
  0
POINT
  5
812E
330
8411
100
AcDbEntity
  8
DEFPOINTS
  6
ByBlock
 62
     0
100
AcDbPoint
 10
2548.217971633641
 20
2374.867032643557
 30
0.0
  0
POINT
  5
812F
330
8411
100
AcDbEntity
  8
DEFPOINTS
  6
ByBlock
 62
     0
100
AcDbPoint
 10
2548.217971633641
 20
2151.406442439319
 30
0.0
  0
ENDBLK
  5
8130
330
8411
100
AcDbEntity
  8
0
100
AcDbBlockEnd
  0
BLOCK
  5
8414
330
8413
100
AcDbEntity
  8
0
100
AcDbBlockBegin
  2
*D23
 70
     1
 10
0.0
 20
0.0
 30
0.0
  3
*D23
  1

  0
LINE
  5
8134
330
8413
100
AcDbEntity
  8
0
  6
ByBlock
 62
     0
100
AcDbLine
 10
2548.217971633641
 20
2357.367032643557
 30
0.0
 11
2548.217971633641
 21
2116.406442439318
 31
0.0
  0
LINE
  5
8135
330
8413
100
AcDbEntity
  8
0
  6
ByBlock
 62
     0
100
AcDbLine
 10
4148.21797163364
 20
2357.367032643556
 30
0.0
 11
4148.21797163364
 21
2116.406442439318
 31
0.0
  0
LINE
  5
8136
330
8413
100
AcDbEntity
  8
0
  6
ByBlock
 62
     0
100
AcDbLine
 10
2618.217971633641
 20
2151.406442439319
 30
0.0
 11
4078.21797163364
 21
2151.406442439319
 31
0.0
  0
INSERT
  5
8137
330
8413
100
AcDbEntity
  8
0
  6
ByBlock
 62
     0
100
AcDbBlockReference
  2
_OPEN
 10
2548.217971633641
 20
2151.406442439319
 30
0.0
 41
70.0
 42
70.0
 43
70.0
 50
180.0
  0
INSERT
  5
8138
330
8413
100
AcDbEntity
  8
0
  6
ByBlock
 62
     0
100
AcDbBlockReference
  2
_OPEN
 10
4148.21797163364
 20
2151.406442439319
 30
0.0
 41
70.0
 42
70.0
 43
70.0
  0
TEXT
  5
8139
330
8413
100
AcDbEntity
  8
3
 62
     0
100
AcDbText
 10
3173.21797163364
 20
2186.406442439319
 30
0.0
 40
105.0
  1
1600
100
AcDbText
  0
POINT
  5
813A
330
8413
100
AcDbEntity
  8
DEFPOINTS
  6
ByBlock
 62
     0
100
AcDbPoint
 10
2548.217971633641
 20
2374.867032643557
 30
0.0
  0
POINT
  5
813B
330
8413
100
AcDbEntity
  8
DEFPOINTS
  6
ByBlock
 62
     0
100
AcDbPoint
 10
4148.21797163364
 20
2374.867032643556
 30
0.0
  0
POINT
  5
813C
330
8413
100
AcDbEntity
  8
DEFPOINTS
  6
ByBlock
 62
     0
100
AcDbPoint
 10
4148.21797163364
 20
2151.406442439319
 30
0.0
  0
ENDBLK
  5
813D
330
8413
100
AcDbEntity
  8
0
100
AcDbBlockEnd
  0
BLOCK
  5
8416
330
8415
100
AcDbEntity
  8
0
100
AcDbBlockBegin
  2
*D24
 70
     1
 10
0.0
 20
0.0
 30
0.0
  3
*D24
  1

  0
LINE
  5
8141
330
8415
100
AcDbEntity
  8
0
  6
ByBlock
 62
     0
100
AcDbLine
 10
4555.40040080414
 20
2357.367032643556
 30
0.0
 11
4555.40040080414
 21
2116.406442439318
 31
0.0
  0
LINE
  5
8142
330
8415
100
AcDbEntity
  8
0
  6
ByBlock
 62
     0
100
AcDbLine
 10
5637.400400804152
 20
2357.367032643556
 30
0.0
 11
5637.400400804152
 21
2116.406442439318
 31
0.0
  0
LINE
  5
8143
330
8415
100
AcDbEntity
  8
0
  6
ByBlock
 62
     0
100
AcDbLine
 10
4625.40040080414
 20
2151.406442439319
 30
0.0
 11
5567.400400804152
 21
2151.406442439319
 31
0.0
  0
INSERT
  5
8144
330
8415
100
AcDbEntity
  8
0
  6
ByBlock
 62
     0
100
AcDbBlockReference
  2
_OPEN
 10
4555.40040080414
 20
2151.406442439319
 30
0.0
 41
70.0
 42
70.0
 43
70.0
 50
180.0
  0
INSERT
  5
8145
330
8415
100
AcDbEntity
  8
0
  6
ByBlock
 62
     0
100
AcDbBlockReference
  2
_OPEN
 10
5637.400400804152
 20
2151.406442439319
 30
0.0
 41
70.0
 42
70.0
 43
70.0
  0
TEXT
  5
8146
330
8415
100
AcDbEntity
  8
3
 62
     0
100
AcDbText
 10
4921.400400804146
 20
2186.406442439319
 30
0.0
 40
105.0
  1
1082
100
AcDbText
  0
POINT
  5
8147
330
8415
100
AcDbEntity
  8
DEFPOINTS
  6
ByBlock
 62
     0
100
AcDbPoint
 10
4555.40040080414
 20
2374.867032643556
 30
0.0
  0
POINT
  5
8148
330
8415
100
AcDbEntity
  8
DEFPOINTS
  6
ByBlock
 62
     0
100
AcDbPoint
 10
5637.400400804152
 20
2374.867032643556
 30
0.0
  0
POINT
  5
8149
330
8415
100
AcDbEntity
  8
DEFPOINTS
  6
ByBlock
 62
     0
100
AcDbPoint
 10
5637.400400804152
 20
2151.406442439319
 30
0.0
  0
ENDBLK
  5
814A
330
8415
100
AcDbEntity
  8
0
100
AcDbBlockEnd
  0
BLOCK
  5
8418
330
8417
100
AcDbEntity
  8
0
100
AcDbBlockBegin
  2
*D25
 70
     1
 10
0.0
 20
0.0
 30
0.0
  3
*D25
  1

  0
LINE
  5
814E
330
8417
100
AcDbEntity
  8
0
  6
ByBlock
 62
     0
100
AcDbLine
 10
5637.400400804152
 20
2357.367032643556
 30
0.0
 11
5637.400400804152
 21
2116.406442439318
 31
0.0
  0
LINE
  5
814F
330
8417
100
AcDbEntity
  8
0
  6
ByBlock
 62
     0
100
AcDbLine
 10
6455.400400804132
 20
2357.367032643556
 30
0.0
 11
6455.400400804132
 21
2116.406442439318
 31
0.0
  0
LINE
  5
8150
330
8417
100
AcDbEntity
  8
0
  6
ByBlock
 62
     0
100
AcDbLine
 10
5707.400400804152
 20
2151.406442439319
 30
0.0
 11
6385.400400804131
 21
2151.406442439319
 31
0.0
  0
INSERT
  5
8151
330
8417
100
AcDbEntity
  8
0
  6
ByBlock
 62
     0
100
AcDbBlockReference
  2
_OPEN
 10
5637.400400804152
 20
2151.406442439319
 30
0.0
 41
70.0
 42
70.0
 43
70.0
 50
180.0
  0
INSERT
  5
8152
330
8417
100
AcDbEntity
  8
0
  6
ByBlock
 62
     0
100
AcDbBlockReference
  2
_OPEN
 10
6455.400400804132
 20
2151.406442439319
 30
0.0
 41
70.0
 42
70.0
 43
70.0
  0
TEXT
  5
8153
330
8417
100
AcDbEntity
  8
3
 62
     0
100
AcDbText
 10
5921.400400804142
 20
2186.406442439319
 30
0.0
 40
105.0
  1
818
100
AcDbText
  0
POINT
  5
8154
330
8417
100
AcDbEntity
  8
DEFPOINTS
  6
ByBlock
 62
     0
100
AcDbPoint
 10
5637.400400804152
 20
2374.867032643556
 30
0.0
  0
POINT
  5
8155
330
8417
100
AcDbEntity
  8
DEFPOINTS
  6
ByBlock
 62
     0
100
AcDbPoint
 10
6455.400400804132
 20
2374.867032643556
 30
0.0
  0
POINT
  5
8156
330
8417
100
AcDbEntity
  8
DEFPOINTS
  6
ByBlock
 62
     0
100
AcDbPoint
 10
6455.400400804132
 20
2151.406442439319
 30
0.0
  0
ENDBLK
  5
8157
330
8417
100
AcDbEntity
  8
0
100
AcDbBlockEnd
  0
BLOCK
  5
841A
330
8419
100
AcDbEntity
  8
0
100
AcDbBlockBegin
  2
_NONE
 70
     0
 10
0.0
 20
0.0
 30
0.0
  3
_NONE
  1

  0
CIRCLE
  5
815B
330
8419
100
AcDbEntity
  8
0
  6
ByBlock
 62
     0
100
AcDbCircle
 10
0.0
 20
0.0
 30
0.0
 40
0.25
  0
ENDBLK
  5
815C
330
8419
100
AcDbEntity
  8
0
100
AcDbBlockEnd
  0
BLOCK
  5
841C
330
841B
100
AcDbEntity
  8
0
100
AcDbBlockBegin
  2
*D27
 70
     1
 10
0.0
 20
0.0
 30
0.0
  3
*D27
  1

  0
LINE
  5
81CC
330
841B
100
AcDbEntity
  8
0
  6
ByBlock
 62
     0
100
AcDbLine
 10
1183.770922698815
 20
2344.867032643557
 30
0.0
 11
1183.770922698815
 21
2459.867032643556
 31
0.0
  0
TEXT
  5
81CD
330
841B
100
AcDbEntity
  8
3
 62
     0
100
AcDbText
 10
1051.270922698815
 20
2156.867032643556
 30
0.0
 40
105.0
  1
  (115)
 50
90.0
100
AcDbText
  0
POINT
  5
81CE
330
841B
100
AcDbEntity
  8
DEFPOINTS
  6
ByBlock
 62
     0
100
AcDbPoint
 10
1888.21797163364
 20
2344.867032643557
 30
0.0
  0
POINT
  5
81CF
330
841B
100
AcDbEntity
  8
DEFPOINTS
  6
ByBlock
 62
     0
100
AcDbPoint
 10
1888.21797163364
 20
2459.867032643556
 30
0.0
  0
POINT
  5
81D0
330
841B
100
AcDbEntity
  8
DEFPOINTS
  6
ByBlock
 62
     0
100
AcDbPoint
 10
1183.770922698815
 20
2459.867032643556
 30
0.0
  0
ENDBLK
  5
81D1
330
841B
100
AcDbEntity
  8
0
100
AcDbBlockEnd
  0
BLOCK
  5
841E
330
841D
100
AcDbEntity
  8
0
100
AcDbBlockBegin
  2
*D28
 70
     1
 10
0.0
 20
0.0
 30
0.0
  3
*D28
  1

  0
LINE
  5
819D
330
841D
100
AcDbEntity
  8
0
  6
ByBlock
 62
     0
100
AcDbLine
 10
1870.717971633641
 20
2279.867032643556
 30
0.0
 11
857.5437693027486
 21
2279.867032643556
 31
0.0
  0
LINE
  5
819E
330
841D
100
AcDbEntity
  8
0
  6
ByBlock
 62
     0
100
AcDbLine
 10
2595.217971633641
 20
4619.867032643557
 30
0.0
 11
857.5437693027486
 21
4619.867032643557
 31
0.0
  0
LINE
  5
819F
330
841D
100
AcDbEntity
  8
0
  6
ByBlock
 62
     0
100
AcDbLine
 10
892.5437693027488
 20
2349.867032643556
 30
0.0
 11
892.5437693027488
 21
4549.867032643557
 31
0.0
  0
INSERT
  5
81A0
330
841D
100
AcDbEntity
  8
0
  6
ByBlock
 62
     0
100
AcDbBlockReference
  2
_OPEN
 10
892.5437693027488
 20
2279.867032643556
 30
0.0
 41
70.0
 42
70.0
 43
70.0
 50
270.0
  0
INSERT
  5
81A1
330
841D
100
AcDbEntity
  8
0
  6
ByBlock
 62
     0
100
AcDbBlockReference
  2
_OPEN
 10
892.5437693027488
 20
4619.867032643557
 30
0.0
 41
70.0
 42
70.0
 43
70.0
 50
90.0
  0
TEXT
  5
81A2
330
841D
100
AcDbEntity
  8
3
 62
     0
100
AcDbText
 10
812.5437693027491
 20
3197.367032643557
 30
0.0
 40
105.0
  1
(2340)
 50
90.0
100
AcDbText
  0
POINT
  5
81A3
330
841D
100
AcDbEntity
  8
DEFPOINTS
  6
ByBlock
 62
     0
100
AcDbPoint
 10
1888.21797163364
 20
2279.867032643556
 30
0.0
  0
POINT
  5
81A4
330
841D
100
AcDbEntity
  8
DEFPOINTS
  6
ByBlock
 62
     0
100
AcDbPoint
 10
2612.717971633641
 20
4619.867032643557
 30
0.0
  0
POINT
  5
81A5
330
841D
100
AcDbEntity
  8
DEFPOINTS
  6
ByBlock
 62
     0
100
AcDbPoint
 10
892.5437693027488
 20
4619.867032643557
 30
0.0
  0
ENDBLK
  5
81A6
330
841D
100
AcDbEntity
  8
0
100
AcDbBlockEnd
  0
BLOCK
  5
8421
330
8420
100
AcDbEntity
  8
0
100
AcDbBlockBegin
  2
*D29
 70
     1
 10
0.0
 20
0.0
 30
0.0
  3
*D29
  1

  0
LINE
  5
8423
330
8420
100
AcDbEntity
  8
3
 62
     0
370
    -2
100
AcDbLine
 10
4517.400400804151
 20
4197.054532643556
 30
0.0
 11
4517.400400804151
 21
5076.597380820517
 31
0.0
  0
LINE
  5
8424
330
8420
100
AcDbEntity
  8
3
 62
     0
370
    -2
100
AcDbLine
 10
5637.40040080415
 20
5041.971937516732
 30
0.0
 11
5637.40040080415
 21
5076.597380820517
 31
0.0
  0
LINE
  5
8425
330
8420
100
AcDbEntity
  8
3
 62
     0
370
    -2
100
AcDbLine
 10
4523.700400804152
 20
5070.297380820517
 30
0.0
 11
5064.350400804151
 21
5070.297380820517
 31
0.0
  0
LINE
  5
8426
330
8420
100
AcDbEntity
  8
3
 62
     0
370
    -2
100
AcDbLine
 10
5631.10040080415
 20
5070.297380820517
 30
0.0
 11
5090.450400804151
 21
5070.297380820517
 31
0.0
  0
SOLID
  5
8427
330
8420
100
AcDbEntity
  8
3
 62
     0
100
AcDbTrace
 10
4523.700400804152
 20
5071.347380820517
 30
0.0
 11
4523.700400804152
 21
5069.247380820517
 31
0.0
 12
4517.400400804151
 22
5070.297380820517
 32
0.0
 13
4517.400400804151
 23
5070.297380820517
 33
0.0
  0
SOLID
  5
8428
330
8420
100
AcDbEntity
  8
3
 62
     0
100
AcDbTrace
 10
5631.10040080415
 20
5071.347380820517
 30
0.0
 11
5631.10040080415
 21
5069.247380820517
 31
0.0
 12
5637.40040080415
 22
5070.297380820517
 32
0.0
 13
5637.40040080415
 23
5070.297380820517
 33
0.0
  0
MTEXT
  5
8429
330
8420
100
AcDbEntity
  8
3
 62
     0
100
AcDbMText
 10
5077.400400804151
 20
5070.297380820517
 30
0.0
 40
6.299999999999999
 41
0.0
 71
     5
 72
     1
  1
\A1;MAX\P1120
 73
     1
 44
1.0
1001
ACAD
1000
MTEXTBEGIN
1070
    73
1070
     1
1070
    44
1040
1.0
1070
    74
1070
     0
1000
MTEXTEND
  0
POINT
  5
842A
330
8420
100
AcDbEntity
  8
DEFPOINTS
 62
     0
100
AcDbPoint
 10
4517.400400804151
 20
4194.867032643556
 30
0.0
  0
POINT
  5
842B
330
8420
100
AcDbEntity
  8
DEFPOINTS
 62
     0
100
AcDbPoint
 10
5637.40040080415
 20
5039.784437516733
 30
0.0
  0
POINT
  5
842C
330
8420
100
AcDbEntity
  8
DEFPOINTS
 62
     0
100
AcDbPoint
 10
5637.40040080415
 20
5070.297380820517
 30
0.0
  0
ENDBLK
  5
8422
330
8420
100
AcDbEntity
  8
0
100
AcDbBlockEnd
  0
BLOCK
  5
842E
330
842D
100
AcDbEntity
  8
0
100
AcDbBlockBegin
  2
*D30
 70
     1
 10
0.0
 20
0.0
 30
0.0
  3
*D30
  1

  0
LINE
  5
8430
330
842D
100
AcDbEntity
  8
3
 62
     0
370
    -2
100
AcDbLine
 10
5637.40040080415
 20
5041.971937516732
 30
0.0
 11
5637.40040080415
 21
5077.614032088928
 31
0.0
  0
LINE
  5
8431
330
842D
100
AcDbEntity
  8
3
 62
     0
370
    -2
100
AcDbLine
 10
6564.900400804148
 20
3730.094009748752
 30
0.0
 11
6564.900400804148
 21
5077.614032088928
 31
0.0
  0
LINE
  5
8432
330
842D
100
AcDbEntity
  8
3
 62
     0
370
    -2
100
AcDbLine
 10
5643.70040080415
 20
5071.314032088928
 30
0.0
 11
6085.85040080415
 21
5071.314032088928
 31
0.0
  0
LINE
  5
8433
330
842D
100
AcDbEntity
  8
3
 62
     0
370
    -2
100
AcDbLine
 10
6558.60040080415
 20
5071.314032088928
 30
0.0
 11
6116.450400804151
 21
5071.314032088928
 31
0.0
  0
SOLID
  5
8434
330
842D
100
AcDbEntity
  8
3
 62
     0
100
AcDbTrace
 10
5643.70040080415
 20
5072.364032088928
 30
0.0
 11
5643.70040080415
 21
5070.264032088928
 31
0.0
 12
5637.40040080415
 22
5071.314032088928
 32
0.0
 13
5637.40040080415
 23
5071.314032088928
 33
0.0
  0
SOLID
  5
8435
330
842D
100
AcDbEntity
  8
3
 62
     0
100
AcDbTrace
 10
6558.60040080415
 20
5072.364032088928
 30
0.0
 11
6558.60040080415
 21
5070.264032088928
 31
0.0
 12
6564.900400804148
 22
5071.314032088928
 32
0.0
 13
6564.900400804148
 23
5071.314032088928
 33
0.0
  0
MTEXT
  5
8436
330
842D
100
AcDbEntity
  8
3
 62
     0
100
AcDbMText
 10
6101.150400804151
 20
5071.314032088928
 30
0.0
 40
6.299999999999999
 41
0.0
 71
     5
 72
     1
  1
\A1;(930)
 73
     1
 44
1.0
1001
ACAD
1000
MTEXTBEGIN
1070
    73
1070
     1
1070
    44
1040
1.0
1070
    74
1070
     0
1000
MTEXTEND
  0
POINT
  5
8437
330
842D
100
AcDbEntity
  8
DEFPOINTS
 62
     0
100
AcDbPoint
 10
5637.40040080415
 20
5039.784437516733
 30
0.0
  0
POINT
  5
8438
330
842D
100
AcDbEntity
  8
DEFPOINTS
 62
     0
100
AcDbPoint
 10
6564.900400804148
 20
3727.906509748752
 30
0.0
  0
POINT
  5
8439
330
842D
100
AcDbEntity
  8
DEFPOINTS
 62
     0
100
AcDbPoint
 10
6564.900400804148
 20
5071.314032088928
 30
0.0
  0
ENDBLK
  5
842F
330
842D
100
AcDbEntity
  8
0
100
AcDbBlockEnd
  0
BLOCK
  5
843B
330
843A
100
AcDbEntity
  8
0
100
AcDbBlockBegin
  2
*D31
 70
     1
 10
0.0
 20
0.0
 30
0.0
  3
*D31
  1

  0
LINE
  5
843D
330
843A
100
AcDbEntity
  8
3
 62
     0
370
    -2
100
AcDbLine
 10
4555.40040080414
 20
2287.679532643556
 30
0.0
 11
4555.40040080414
 21
2060.106442439319
 31
0.0
  0
LINE
  5
843E
330
843A
100
AcDbEntity
  8
3
 62
     0
370
    -2
100
AcDbLine
 10
5637.400400804152
 20
2287.679532643556
 30
0.0
 11
5637.400400804152
 21
2060.106442439319
 31
0.0
  0
LINE
  5
843F
330
843A
100
AcDbEntity
  8
3
 62
     0
370
    -2
100
AcDbLine
 10
4561.700400804141
 20
2066.406442439319
 30
0.0
 11
5082.750400804147
 21
2066.406442439319
 31
0.0
  0
LINE
  5
8440
330
843A
100
AcDbEntity
  8
3
 62
     0
370
    -2
100
AcDbLine
 10
5631.100400804152
 20
2066.406442439319
 30
0.0
 11
5110.050400804146
 21
2066.406442439319
 31
0.0
  0
SOLID
  5
8441
330
843A
100
AcDbEntity
  8
3
 62
     0
100
AcDbTrace
 10
4561.700400804141
 20
2067.456442439319
 30
0.0
 11
4561.700400804141
 21
2065.356442439318
 31
0.0
 12
4555.40040080414
 22
2066.406442439319
 32
0.0
 13
4555.40040080414
 23
2066.406442439319
 33
0.0
  0
SOLID
  5
8442
330
843A
100
AcDbEntity
  8
3
 62
     0
100
AcDbTrace
 10
5631.100400804152
 20
2067.456442439319
 30
0.0
 11
5631.100400804152
 21
2065.356442439318
 31
0.0
 12
5637.400400804152
 22
2066.406442439319
 32
0.0
 13
5637.400400804152
 23
2066.406442439319
 33
0.0
  0
MTEXT
  5
8443
330
843A
100
AcDbEntity
  8
3
 62
     0
100
AcDbMText
 10
5096.400400804146
 20
2066.406442439319
 30
0.0
 40
6.299999999999999
 41
0.0
 71
     5
 72
     1
  1
\A1;1082
 73
     1
 44
1.0
1001
ACAD
1000
MTEXTBEGIN
1070
    73
1070
     1
1070
    44
1040
1.0
1070
    74
1070
     0
1000
MTEXTEND
  0
POINT
  5
8444
330
843A
100
AcDbEntity
  8
DEFPOINTS
 62
     0
100
AcDbPoint
 10
4555.40040080414
 20
2289.867032643556
 30
0.0
  0
POINT
  5
8445
330
843A
100
AcDbEntity
  8
DEFPOINTS
 62
     0
100
AcDbPoint
 10
5637.400400804152
 20
2289.867032643556
 30
0.0
  0
POINT
  5
8446
330
843A
100
AcDbEntity
  8
DEFPOINTS
 62
     0
100
AcDbPoint
 10
5637.400400804152
 20
2066.406442439319
 30
0.0
  0
ENDBLK
  5
843C
330
843A
100
AcDbEntity
  8
0
100
AcDbBlockEnd
  0
BLOCK
  5
8448
330
8447
100
AcDbEntity
  8
0
100
AcDbBlockBegin
  2
*D32
 70
     1
 10
0.0
 20
0.0
 30
0.0
  3
*D32
  1

  0
LINE
  5
844A
330
8447
100
AcDbEntity
  8
3
 62
     0
370
    -2
100
AcDbLine
 10
5637.400400804152
 20
2287.679532643556
 30
0.0
 11
5637.400400804152
 21
2060.106442439319
 31
0.0
  0
LINE
  5
844B
330
8447
100
AcDbEntity
  8
3
 62
     0
370
    -2
100
AcDbLine
 10
6455.400400804132
 20
2287.679532643556
 30
0.0
 11
6455.400400804132
 21
2060.106442439319
 31
0.0
  0
LINE
  5
844C
330
8447
100
AcDbEntity
  8
3
 62
     0
370
    -2
100
AcDbLine
 10
5643.700400804153
 20
2066.406442439319
 30
0.0
 11
6035.750400804142
 21
2066.406442439319
 31
0.0
  0
LINE
  5
844D
330
8447
100
AcDbEntity
  8
3
 62
     0
370
    -2
100
AcDbLine
 10
6449.100400804131
 20
2066.406442439319
 30
0.0
 11
6057.050400804142
 21
2066.406442439319
 31
0.0
  0
SOLID
  5
844E
330
8447
100
AcDbEntity
  8
3
 62
     0
100
AcDbTrace
 10
5643.700400804153
 20
2067.456442439319
 30
0.0
 11
5643.700400804153
 21
2065.356442439318
 31
0.0
 12
5637.400400804152
 22
2066.406442439319
 32
0.0
 13
5637.400400804152
 23
2066.406442439319
 33
0.0
  0
SOLID
  5
844F
330
8447
100
AcDbEntity
  8
3
 62
     0
100
AcDbTrace
 10
6449.100400804131
 20
2067.456442439319
 30
0.0
 11
6449.100400804131
 21
2065.356442439318
 31
0.0
 12
6455.400400804132
 22
2066.406442439319
 32
0.0
 13
6455.400400804132
 23
2066.406442439319
 33
0.0
  0
MTEXT
  5
8450
330
8447
100
AcDbEntity
  8
3
 62
     0
100
AcDbMText
 10
6046.400400804142
 20
2066.406442439319
 30
0.0
 40
6.299999999999999
 41
0.0
 71
     5
 72
     1
  1
\A1;818
 73
     1
 44
1.0
1001
ACAD
1000
MTEXTBEGIN
1070
    73
1070
     1
1070
    44
1040
1.0
1070
    74
1070
     0
1000
MTEXTEND
  0
POINT
  5
8451
330
8447
100
AcDbEntity
  8
DEFPOINTS
 62
     0
100
AcDbPoint
 10
5637.400400804152
 20
2289.867032643556
 30
0.0
  0
POINT
  5
8452
330
8447
100
AcDbEntity
  8
DEFPOINTS
 62
     0
100
AcDbPoint
 10
6455.400400804132
 20
2289.867032643556
 30
0.0
  0
POINT
  5
8453
330
8447
100
AcDbEntity
  8
DEFPOINTS
 62
     0
100
AcDbPoint
 10
6455.400400804132
 20
2066.406442439319
 30
0.0
  0
ENDBLK
  5
8449
330
8447
100
AcDbEntity
  8
0
100
AcDbBlockEnd
  0
BLOCK
  5
8455
330
8454
100
AcDbEntity
  8
0
100
AcDbBlockBegin
  2
*D33
 70
     1
 10
0.0
 20
0.0
 30
0.0
  3
*D33
  1

  0
LINE
  5
8457
330
8454
100
AcDbEntity
  8
3
 62
     0
370
    -2
100
AcDbLine
 10
1183.770922698815
 20
2361.167032643558
 30
0.0
 11
1183.770922698815
 21
2399.417032643556
 31
0.0
  0
LINE
  5
8458
330
8454
100
AcDbEntity
  8
3
 62
     0
370
    -2
100
AcDbLine
 10
1183.770922698815
 20
2453.567032643556
 30
0.0
 11
1183.770922698815
 21
2415.317032643556
 31
0.0
  0
SOLID
  5
8459
330
8454
100
AcDbEntity
  8
3
 62
     0
100
AcDbTrace
 10
1182.720922698815
 20
2361.167032643558
 30
0.0
 11
1184.820922698815
 21
2361.167032643558
 31
0.0
 12
1183.770922698815
 22
2354.867032643557
 32
0.0
 13
1183.770922698815
 23
2354.867032643557
 33
0.0
  0
SOLID
  5
845A
330
8454
100
AcDbEntity
  8
3
 62
     0
100
AcDbTrace
 10
1182.720922698815
 20
2453.567032643556
 30
0.0
 11
1184.820922698815
 21
2453.567032643556
 31
0.0
 12
1183.770922698815
 22
2459.867032643556
 32
0.0
 13
1183.770922698815
 23
2459.867032643556
 33
0.0
  0
MTEXT
  5
845B
330
8454
100
AcDbEntity
  8
3
 62
     0
100
AcDbMText
 10
1183.770922698815
 20
2407.367032643557
 30
0.0
 40
6.299999999999999
 41
0.0
 71
     5
 72
     1
  1
\A1;  (105)
 73
     1
 44
1.0
1001
ACAD
1000
MTEXTBEGIN
1070
    73
1070
     1
1070
    44
1040
1.0
1070
    74
1070
     0
1000
MTEXTEND
  0
POINT
  5
845C
330
8454
100
AcDbEntity
  8
DEFPOINTS
 62
     0
100
AcDbPoint
 10
1888.21797163364
 20
2354.867032643557
 30
0.0
  0
POINT
  5
845D
330
8454
100
AcDbEntity
  8
DEFPOINTS
 62
     0
100
AcDbPoint
 10
1888.21797163364
 20
2459.867032643556
 30
0.0
  0
POINT
  5
845E
330
8454
100
AcDbEntity
  8
DEFPOINTS
 62
     0
100
AcDbPoint
 10
1183.770922698815
 20
2459.867032643556
 30
0.0
  0
ENDBLK
  5
8456
330
8454
100
AcDbEntity
  8
0
100
AcDbBlockEnd
  0
BLOCK
  5
8460
330
845F
100
AcDbEntity
  8
0
100
AcDbBlockBegin
  2
*D34
 70
     1
 10
0.0
 20
0.0
 30
0.0
  3
*D34
  1

  0
LINE
  5
8462
330
845F
100
AcDbEntity
  8
3
 62
     0
370
    -2
100
AcDbLine
 10
1886.030471633641
 20
2289.867032643556
 30
0.0
 11
886.2437693027482
 21
2289.867032643556
 31
0.0
  0
LINE
  5
8463
330
845F
100
AcDbEntity
  8
3
 62
     0
370
    -2
100
AcDbLine
 10
2610.530471633641
 20
4619.867032643557
 30
0.0
 11
886.2437693027487
 21
4619.867032643557
 31
0.0
  0
LINE
  5
8464
330
845F
100
AcDbEntity
  8
3
 62
     0
370
    -2
100
AcDbLine
 10
892.5437693027481
 20
2296.167032643557
 30
0.0
 11
892.5437693027484
 21
3446.917032643557
 31
0.0
  0
LINE
  5
8465
330
845F
100
AcDbEntity
  8
3
 62
     0
370
    -2
100
AcDbLine
 10
892.5437693027488
 20
4613.567032643557
 30
0.0
 11
892.5437693027484
 21
3462.817032643557
 31
0.0
  0
SOLID
  5
8466
330
845F
100
AcDbEntity
  8
3
 62
     0
100
AcDbTrace
 10
891.4937693027482
 20
2296.167032643557
 30
0.0
 11
893.5937693027481
 21
2296.167032643557
 31
0.0
 12
892.5437693027481
 22
2289.867032643556
 32
0.0
 13
892.5437693027481
 23
2289.867032643556
 33
0.0
  0
SOLID
  5
8467
330
845F
100
AcDbEntity
  8
3
 62
     0
100
AcDbTrace
 10
891.4937693027487
 20
4613.567032643557
 30
0.0
 11
893.5937693027486
 21
4613.567032643557
 31
0.0
 12
892.5437693027488
 22
4619.867032643557
 32
0.0
 13
892.5437693027488
 23
4619.867032643557
 33
0.0
  0
MTEXT
  5
8468
330
845F
100
AcDbEntity
  8
3
 62
     0
100
AcDbMText
 10
892.5437693027479
 20
3454.867032643557
 30
0.0
 40
6.299999999999999
 41
0.0
 71
     5
 72
     1
  1
\A1;(2330)
 73
     1
 44
1.0
1001
ACAD
1000
MTEXTBEGIN
1070
    73
1070
     1
1070
    44
1040
1.0
1070
    74
1070
     0
1000
MTEXTEND
  0
POINT
  5
8469
330
845F
100
AcDbEntity
  8
DEFPOINTS
 62
     0
100
AcDbPoint
 10
1888.21797163364
 20
2289.867032643556
 30
0.0
  0
POINT
  5
846A
330
845F
100
AcDbEntity
  8
DEFPOINTS
 62
     0
100
AcDbPoint
 10
2612.717971633641
 20
4619.867032643557
 30
0.0
  0
POINT
  5
846B
330
845F
100
AcDbEntity
  8
DEFPOINTS
 62
     0
100
AcDbPoint
 10
892.5437693027488
 20
4619.867032643557
 30
0.0
  0
ENDBLK
  5
8461
330
845F
100
AcDbEntity
  8
0
100
AcDbBlockEnd
  0
BLOCK
  5
846D
330
846C
100
AcDbEntity
  8
0
100
AcDbBlockBegin
  2
*D35
 70
     1
 10
0.0
 20
0.0
 30
0.0
  3
*D35
  1

  0
LINE
  5
846F
330
846C
100
AcDbEntity
  8
3
 62
     0
370
    -2
100
AcDbLine
 10
1888.21797163364
 20
2287.679532643556
 30
0.0
 11
1888.21797163364
 21
2060.106442439319
 31
0.0
  0
LINE
  5
8470
330
846C
100
AcDbEntity
  8
3
 62
     0
370
    -2
100
AcDbLine
 10
2548.217971633641
 20
2287.679532643557
 30
0.0
 11
2548.217971633641
 21
2060.106442439319
 31
0.0
  0
LINE
  5
8471
330
846C
100
AcDbEntity
  8
3
 62
     0
370
    -2
100
AcDbLine
 10
1894.517971633641
 20
2066.406442439319
 30
0.0
 11
2206.967971633641
 21
2066.406442439319
 31
0.0
  0
LINE
  5
8472
330
846C
100
AcDbEntity
  8
3
 62
     0
370
    -2
100
AcDbLine
 10
2541.917971633641
 20
2066.406442439319
 30
0.0
 11
2229.46797163364
 21
2066.406442439319
 31
0.0
  0
SOLID
  5
8473
330
846C
100
AcDbEntity
  8
3
 62
     0
100
AcDbTrace
 10
1894.517971633641
 20
2067.456442439319
 30
0.0
 11
1894.517971633641
 21
2065.356442439318
 31
0.0
 12
1888.21797163364
 22
2066.406442439319
 32
0.0
 13
1888.21797163364
 23
2066.406442439319
 33
0.0
  0
SOLID
  5
8474
330
846C
100
AcDbEntity
  8
3
 62
     0
100
AcDbTrace
 10
2541.917971633641
 20
2067.456442439319
 30
0.0
 11
2541.917971633641
 21
2065.356442439318
 31
0.0
 12
2548.217971633641
 22
2066.406442439319
 32
0.0
 13
2548.217971633641
 23
2066.406442439319
 33
0.0
  0
MTEXT
  5
8475
330
846C
100
AcDbEntity
  8
3
 62
     0
100
AcDbMText
 10
2218.21797163364
 20
2066.406442439319
 30
0.0
 40
6.299999999999999
 41
0.0
 71
     5
 72
     1
  1
\A1;660
 73
     1
 44
1.0
1001
ACAD
1000
MTEXTBEGIN
1070
    73
1070
     1
1070
    44
1040
1.0
1070
    74
1070
     0
1000
MTEXTEND
  0
POINT
  5
8476
330
846C
100
AcDbEntity
  8
DEFPOINTS
 62
     0
100
AcDbPoint
 10
1888.21797163364
 20
2289.867032643556
 30
0.0
  0
POINT
  5
8477
330
846C
100
AcDbEntity
  8
DEFPOINTS
 62
     0
100
AcDbPoint
 10
2548.217971633641
 20
2289.867032643557
 30
0.0
  0
POINT
  5
8478
330
846C
100
AcDbEntity
  8
DEFPOINTS
 62
     0
100
AcDbPoint
 10
2548.217971633641
 20
2066.406442439319
 30
0.0
  0
ENDBLK
  5
846E
330
846C
100
AcDbEntity
  8
0
100
AcDbBlockEnd
  0
BLOCK
  5
847A
330
8479
100
AcDbEntity
  8
0
100
AcDbBlockBegin
  2
*D36
 70
     1
 10
0.0
 20
0.0
 30
0.0
  3
*D36
  1

  0
LINE
  5
847C
330
8479
100
AcDbEntity
  8
3
 62
     0
370
    -2
100
AcDbLine
 10
2548.217971633641
 20
2287.679532643557
 30
0.0
 11
2548.217971633641
 21
2060.106442439319
 31
0.0
  0
LINE
  5
847D
330
8479
100
AcDbEntity
  8
3
 62
     0
370
    -2
100
AcDbLine
 10
4148.21797163364
 20
2287.679532643556
 30
0.0
 11
4148.21797163364
 21
2060.106442439319
 31
0.0
  0
LINE
  5
847E
330
8479
100
AcDbEntity
  8
3
 62
     0
370
    -2
100
AcDbLine
 10
2554.517971633641
 20
2066.406442439319
 30
0.0
 11
3334.567971633641
 21
2066.406442439319
 31
0.0
  0
LINE
  5
847F
330
8479
100
AcDbEntity
  8
3
 62
     0
370
    -2
100
AcDbLine
 10
4141.91797163364
 20
2066.406442439319
 30
0.0
 11
3361.867971633641
 21
2066.406442439319
 31
0.0
  0
SOLID
  5
8480
330
8479
100
AcDbEntity
  8
3
 62
     0
100
AcDbTrace
 10
2554.517971633641
 20
2067.456442439319
 30
0.0
 11
2554.517971633641
 21
2065.356442439318
 31
0.0
 12
2548.217971633641
 22
2066.406442439319
 32
0.0
 13
2548.217971633641
 23
2066.406442439319
 33
0.0
  0
SOLID
  5
8481
330
8479
100
AcDbEntity
  8
3
 62
     0
100
AcDbTrace
 10
4141.91797163364
 20
2067.456442439319
 30
0.0
 11
4141.91797163364
 21
2065.356442439318
 31
0.0
 12
4148.21797163364
 22
2066.406442439319
 32
0.0
 13
4148.21797163364
 23
2066.406442439319
 33
0.0
  0
MTEXT
  5
8482
330
8479
100
AcDbEntity
  8
3
 62
     0
100
AcDbMText
 10
3348.217971633641
 20
2066.406442439319
 30
0.0
 40
6.299999999999999
 41
0.0
 71
     5
 72
     1
  1
\A1;1600
 73
     1
 44
1.0
1001
ACAD
1000
MTEXTBEGIN
1070
    73
1070
     1
1070
    44
1040
1.0
1070
    74
1070
     0
1000
MTEXTEND
  0
POINT
  5
8483
330
8479
100
AcDbEntity
  8
DEFPOINTS
 62
     0
100
AcDbPoint
 10
2548.217971633641
 20
2289.867032643557
 30
0.0
  0
POINT
  5
8484
330
8479
100
AcDbEntity
  8
DEFPOINTS
 62
     0
100
AcDbPoint
 10
4148.21797163364
 20
2289.867032643556
 30
0.0
  0
POINT
  5
8485
330
8479
100
AcDbEntity
  8
DEFPOINTS
 62
     0
100
AcDbPoint
 10
4148.21797163364
 20
2066.406442439319
 30
0.0
  0
ENDBLK
  5
847B
330
8479
100
AcDbEntity
  8
0
100
AcDbBlockEnd
  0
BLOCK
  5
8487
330
8486
100
AcDbEntity
  8
0
100
AcDbBlockBegin
  2
*D37
 70
     1
 10
0.0
 20
0.0
 30
0.0
  3
*D37
  1

  0
LINE
  5
8489
330
8486
100
AcDbEntity
  8
3
 62
     0
370
    -2
100
AcDbLine
 10
1886.030471633641
 20
2354.867032643557
 30
0.0
 11
1177.708057762066
 21
2354.867032643557
 31
0.0
  0
LINE
  5
848A
330
8486
100
AcDbEntity
  8
3
 62
     0
370
    -2
100
AcDbLine
 10
1886.030471633641
 20
2289.867032643556
 30
0.0
 11
1177.708057762066
 21
2289.867032643556
 31
0.0
  0
LINE
  5
848B
330
8486
100
AcDbEntity
  8
3
 62
     0
370
    -2
100
AcDbLine
 10
1184.008057762066
 20
2348.567032643557
 30
0.0
 11
1184.008057762066
 21
2328.667032643557
 31
0.0
  0
LINE
  5
848C
330
8486
100
AcDbEntity
  8
3
 62
     0
370
    -2
100
AcDbLine
 10
1184.008057762066
 20
2296.167032643556
 30
0.0
 11
1184.008057762066
 21
2316.067032643556
 31
0.0
  0
SOLID
  5
848D
330
8486
100
AcDbEntity
  8
3
 62
     0
100
AcDbTrace
 10
1182.958057762066
 20
2348.567032643557
 30
0.0
 11
1185.058057762066
 21
2348.567032643557
 31
0.0
 12
1184.008057762066
 22
2354.867032643557
 32
0.0
 13
1184.008057762066
 23
2354.867032643557
 33
0.0
  0
SOLID
  5
848E
330
8486
100
AcDbEntity
  8
3
 62
     0
100
AcDbTrace
 10
1182.958057762066
 20
2296.167032643556
 30
0.0
 11
1185.058057762066
 21
2296.167032643556
 31
0.0
 12
1184.008057762066
 22
2289.867032643556
 32
0.0
 13
1184.008057762066
 23
2289.867032643556
 33
0.0
  0
MTEXT
  5
848F
330
8486
100
AcDbEntity
  8
3
 62
     0
100
AcDbMText
 10
1184.008057762066
 20
2322.367032643557
 30
0.0
 40
6.299999999999999
 41
0.0
 71
     5
 72
     1
  1
\A1;65
 73
     1
 44
1.0
1001
ACAD
1000
MTEXTBEGIN
1070
    73
1070
     1
1070
    44
1040
1.0
1070
    74
1070
     0
1000
MTEXTEND
  0
POINT
  5
8490
330
8486
100
AcDbEntity
  8
DEFPOINTS
 62
     0
100
AcDbPoint
 10
1888.21797163364
 20
2354.867032643557
 30
0.0
  0
POINT
  5
8491
330
8486
100
AcDbEntity
  8
DEFPOINTS
 62
     0
100
AcDbPoint
 10
1888.21797163364
 20
2289.867032643556
 30
0.0
  0
POINT
  5
8492
330
8486
100
AcDbEntity
  8
DEFPOINTS
 62
     0
100
AcDbPoint
 10
1184.008057762066
 20
2289.867032643556
 30
0.0
  0
ENDBLK
  5
8488
330
8486
100
AcDbEntity
  8
0
100
AcDbBlockEnd
  0
BLOCK
  5
849E
330
849D
100
AcDbEntity
  8
0
100
AcDbBlockBegin
  2
*D38
 70
     1
 10
0.0
 20
0.0
 30
0.0
  3
*D38
  1

  0
LINE
  5
84B5
330
849D
100
AcDbEntity
  8
3
 62
     0
370
    -2
100
AcDbLine
 10
6404.900400804152
 20
4374.867032643556
 30
0.0
 11
6865.588864662408
 21
4374.867032643556
 31
0.0
  0
LINE
  5
84B6
330
849D
100
AcDbEntity
  8
3
 62
     0
370
    -2
100
AcDbLine
 10
6404.900400804152
 20
3254.867032643557
 30
0.0
 11
6865.588864662408
 21
3254.867032643557
 31
0.0
  0
LINE
  5
84B7
330
849D
100
AcDbEntity
  8
3
 62
     0
370
    -2
100
AcDbLine
 10
6830.588864662408
 20
4304.867032643556
 30
0.0
 11
6830.588864662408
 21
3324.867032643557
 31
0.0
  0
INSERT
  5
84B8
330
849D
100
AcDbEntity
  8
3
 62
     0
370
    -2
100
AcDbBlockReference
  2
_OPEN
 10
6830.588864662408
 20
4374.867032643556
 30
0.0
 41
70.0
 42
70.0
 43
70.0
 50
90.0
  0
INSERT
  5
84B9
330
849D
100
AcDbEntity
  8
3
 62
     0
370
    -2
100
AcDbBlockReference
  2
_OPEN
 10
6830.588864662408
 20
3254.867032643557
 30
0.0
 41
70.0
 42
70.0
 43
70.0
 50
270.0
  0
MTEXT
  5
84BA
330
849D
100
AcDbEntity
  8
3
 62
     0
100
AcDbMText
 10
6743.088864662407
 20
3814.867032643558
 30
0.0
 40
105.0
 41
0.0
 71
     5
 72
     1
  1
\A1;\U+03C61120
 11
0.0000000000000001
 21
1.0
 31
0.0
 73
     1
 44
1.0
1001
ACAD
1000
MTEXTBEGIN
1070
    73
1070
     1
1070
    44
1040
1.0
1070
    74
1070
     0
1000
MTEXTEND
  0
POINT
  5
84BB
330
849D
100
AcDbEntity
  8
DEFPOINTS
 62
     0
100
AcDbPoint
 10
6387.400400804152
 20
4374.867032643556
 30
0.0
  0
POINT
  5
84BC
330
849D
100
AcDbEntity
  8
DEFPOINTS
 62
     0
100
AcDbPoint
 10
6387.400400804152
 20
3254.867032643557
 30
0.0
  0
POINT
  5
84BD
330
849D
100
AcDbEntity
  8
DEFPOINTS
 62
     0
100
AcDbPoint
 10
6830.588864662408
 20
3254.867032643557
 30
0.0
  0
ENDBLK
  5
849F
330
849D
100
AcDbEntity
  8
0
100
AcDbBlockEnd
  0
BLOCK
  5
84C0
330
84BF
100
AcDbEntity
  8
0
100
AcDbBlockBegin
  2
*D39
 70
     1
 10
0.0
 20
0.0
 30
0.0
  3
*D39
  1

  0
LINE
  5
84C2
330
84BF
100
AcDbEntity
  8
3
 62
     0
370
    -2
100
AcDbLine
 10
4887.400400804152
 20
4637.367032643556
 30
0.0
 11
4887.400400804152
 21
4908.306671695953
 31
0.0
  0
LINE
  5
84C3
330
84BF
100
AcDbEntity
  8
3
 62
     0
370
    -2
100
AcDbLine
 10
6387.400400804152
 20
4637.367032643556
 30
0.0
 11
6387.400400804152
 21
4908.306671695953
 31
0.0
  0
LINE
  5
84C4
330
84BF
100
AcDbEntity
  8
3
 62
     0
370
    -2
100
AcDbLine
 10
4957.400400804152
 20
4873.306671695954
 30
0.0
 11
6317.400400804152
 21
4873.306671695954
 31
0.0
  0
INSERT
  5
84C5
330
84BF
100
AcDbEntity
  8
3
 62
     0
370
    -2
100
AcDbBlockReference
  2
_OPEN
 10
4887.400400804152
 20
4873.306671695954
 30
0.0
 41
70.0
 42
70.0
 43
70.0
 50
180.0
  0
INSERT
  5
84C6
330
84BF
100
AcDbEntity
  8
3
 62
     0
370
    -2
100
AcDbBlockReference
  2
_OPEN
 10
6387.400400804152
 20
4873.306671695954
 30
0.0
 41
70.0
 42
70.0
 43
70.0
  0
MTEXT
  5
84C7
330
84BF
100
AcDbEntity
  8
3
 62
     0
100
AcDbMText
 10
5637.400400804152
 20
4960.806671695954
 30
0.0
 40
105.0
 41
0.0
 71
     5
 72
     1
  1
\A1;1500
 73
     1
 44
1.0
1001
ACAD
1000
MTEXTBEGIN
1070
    73
1070
     1
1070
    44
1040
1.0
1070
    74
1070
     0
1000
MTEXTEND
  0
POINT
  5
84C8
330
84BF
100
AcDbEntity
  8
DEFPOINTS
 62
     0
100
AcDbPoint
 10
4887.400400804152
 20
4619.867032643557
 30
0.0
  0
POINT
  5
84C9
330
84BF
100
AcDbEntity
  8
DEFPOINTS
 62
     0
100
AcDbPoint
 10
6387.400400804152
 20
4619.867032643557
 30
0.0
  0
POINT
  5
84CA
330
84BF
100
AcDbEntity
  8
DEFPOINTS
 62
     0
100
AcDbPoint
 10
6387.400400804152
 20
4873.306671695954
 30
0.0
  0
ENDBLK
  5
84C1
330
84BF
100
AcDbEntity
  8
0
100
AcDbBlockEnd
  0
BLOCK
  5
84CD
330
84CC
100
AcDbEntity
  8
0
100
AcDbBlockBegin
  2
*D40
 70
     1
 10
0.0
 20
0.0
 30
0.0
  3
*D40
  1

  0
LINE
  5
851A
330
84CC
100
AcDbEntity
  8
3
 62
     0
370
    -2
100
AcDbLine
 10
4517.400400804151
 20
4212.367032643555
 30
0.0
 11
4517.400400804151
 21
5105.297380820517
 31
0.0
  0
LINE
  5
851B
330
84CC
100
AcDbEntity
  8
3
 62
     0
370
    -2
100
AcDbLine
 10
5637.400400804152
 20
5030.806671695954
 30
0.0
 11
5637.400400804152
 21
5105.297380820517
 31
0.0
  0
LINE
  5
851C
330
84CC
100
AcDbEntity
  8
3
 62
     0
370
    -2
100
AcDbLine
 10
4587.400400804152
 20
5070.297380820517
 30
0.0
 11
5567.400400804152
 21
5070.297380820517
 31
0.0
  0
INSERT
  5
851D
330
84CC
100
AcDbEntity
  8
3
 62
     0
370
    -2
100
AcDbBlockReference
  2
_OPEN
 10
4517.400400804151
 20
5070.297380820517
 30
0.0
 41
70.0
 42
70.0
 43
70.0
 50
180.0
  0
INSERT
  5
851E
330
84CC
100
AcDbEntity
  8
3
 62
     0
370
    -2
100
AcDbBlockReference
  2
_OPEN
 10
5637.400400804152
 20
5070.297380820517
 30
0.0
 41
70.0
 42
70.0
 43
70.0
  0
MTEXT
  5
851F
330
84CC
100
AcDbEntity
  8
3
 62
     0
100
AcDbMText
 10
5077.400400804152
 20
5185.297380820517
 30
0.0
 40
105.0
 41
0.0
 71
     5
 72
     1
  1
\A1;(1120)
 73
     1
 44
1.0
1001
ACAD
1000
MTEXTBEGIN
1070
    73
1070
     1
1070
    44
1040
1.0
1070
    74
1070
     0
1000
MTEXTEND
  0
POINT
  5
8520
330
84CC
100
AcDbEntity
  8
DEFPOINTS
 62
     0
100
AcDbPoint
 10
4517.400400804151
 20
4194.867032643556
 30
0.0
  0
POINT
  5
8521
330
84CC
100
AcDbEntity
  8
DEFPOINTS
 62
     0
100
AcDbPoint
 10
5637.400400804152
 20
5013.306671695954
 30
0.0
  0
POINT
  5
8522
330
84CC
100
AcDbEntity
  8
DEFPOINTS
 62
     0
100
AcDbPoint
 10
5637.400400804152
 20
5070.297380820517
 30
0.0
  0
ENDBLK
  5
84CE
330
84CC
100
AcDbEntity
  8
0
100
AcDbBlockEnd
  0
BLOCK
  5
84DA
330
84D9
100
AcDbEntity
  8
0
100
AcDbBlockBegin
  2
*D41
 70
     1
 10
0.0
 20
0.0
 30
0.0
  3
*D41
  1

  0
LINE
  5
852C
330
84D9
100
AcDbEntity
  8
3
 62
     0
370
    -2
100
AcDbLine
 10
5637.400400804152
 20
5030.806671695954
 30
0.0
 11
5637.400400804152
 21
5105.297380820517
 31
0.0
  0
LINE
  5
852D
330
84D9
100
AcDbEntity
  8
3
 62
     0
370
    -2
100
AcDbLine
 10
6567.40040080415
 20
3759.367032643556
 30
0.0
 11
6567.40040080415
 21
5105.297380820517
 31
0.0
  0
LINE
  5
852E
330
84D9
100
AcDbEntity
  8
3
 62
     0
370
    -2
100
AcDbLine
 10
5707.400400804152
 20
5070.297380820517
 30
0.0
 11
6497.40040080415
 21
5070.297380820517
 31
0.0
  0
INSERT
  5
852F
330
84D9
100
AcDbEntity
  8
3
 62
     0
370
    -2
100
AcDbBlockReference
  2
_OPEN
 10
5637.400400804152
 20
5070.297380820517
 30
0.0
 41
70.0
 42
70.0
 43
70.0
 50
180.0
  0
INSERT
  5
8530
330
84D9
100
AcDbEntity
  8
3
 62
     0
370
    -2
100
AcDbBlockReference
  2
_OPEN
 10
6567.40040080415
 20
5070.297380820517
 30
0.0
 41
70.0
 42
70.0
 43
70.0
  0
MTEXT
  5
8531
330
84D9
100
AcDbEntity
  8
3
 62
     0
100
AcDbMText
 10
6102.400400804151
 20
5185.297380820517
 30
0.0
 40
105.0
 41
0.0
 71
     5
 72
     1
  1
\A1;(930)
 73
     1
 44
1.0
1001
ACAD
1000
MTEXTBEGIN
1070
    73
1070
     1
1070
    44
1040
1.0
1070
    74
1070
     0
1000
MTEXTEND
  0
POINT
  5
8532
330
84D9
100
AcDbEntity
  8
DEFPOINTS
 62
     0
100
AcDbPoint
 10
5637.400400804152
 20
5013.306671695954
 30
0.0
  0
POINT
  5
8533
330
84D9
100
AcDbEntity
  8
DEFPOINTS
 62
     0
100
AcDbPoint
 10
6567.40040080415
 20
3741.867032643556
 30
0.0
  0
POINT
  5
8534
330
84D9
100
AcDbEntity
  8
DEFPOINTS
 62
     0
100
AcDbPoint
 10
6567.40040080415
 20
5070.297380820517
 30
0.0
  0
ENDBLK
  5
84DB
330
84D9
100
AcDbEntity
  8
0
100
AcDbBlockEnd
  0
BLOCK
  5
84E7
330
84E6
100
AcDbEntity
  8
0
100
AcDbBlockBegin
  2
*D42
 70
     1
 10
0.0
 20
0.0
 30
0.0
  3
*D42
  1

  0
LINE
  5
84E9
330
84E6
100
AcDbEntity
  8
3
 62
     0
370
    -2
100
AcDbLine
 10
4555.40040080414
 20
2272.367032643556
 30
0.0
 11
4555.40040080414
 21
2031.406442439319
 31
0.0
  0
LINE
  5
84EA
330
84E6
100
AcDbEntity
  8
3
 62
     0
370
    -2
100
AcDbLine
 10
5637.400400804152
 20
2272.367032643556
 30
0.0
 11
5637.400400804152
 21
2031.406442439319
 31
0.0
  0
LINE
  5
84EB
330
84E6
100
AcDbEntity
  8
3
 62
     0
370
    -2
100
AcDbLine
 10
4625.40040080414
 20
2066.406442439319
 30
0.0
 11
5567.400400804152
 21
2066.406442439319
 31
0.0
  0
INSERT
  5
84EC
330
84E6
100
AcDbEntity
  8
3
 62
     0
370
    -2
100
AcDbBlockReference
  2
_OPEN
 10
4555.40040080414
 20
2066.406442439319
 30
0.0
 41
70.0
 42
70.0
 43
70.0
 50
180.0
  0
INSERT
  5
84ED
330
84E6
100
AcDbEntity
  8
3
 62
     0
370
    -2
100
AcDbBlockReference
  2
_OPEN
 10
5637.400400804152
 20
2066.406442439319
 30
0.0
 41
70.0
 42
70.0
 43
70.0
  0
MTEXT
  5
84EE
330
84E6
100
AcDbEntity
  8
3
 62
     0
100
AcDbMText
 10
5096.400400804146
 20
2153.906442439319
 30
0.0
 40
105.0
 41
0.0
 71
     5
 72
     1
  1
\A1;1082
 73
     1
 44
1.0
1001
ACAD
1000
MTEXTBEGIN
1070
    73
1070
     1
1070
    44
1040
1.0
1070
    74
1070
     0
1000
MTEXTEND
  0
POINT
  5
84EF
330
84E6
100
AcDbEntity
  8
DEFPOINTS
 62
     0
100
AcDbPoint
 10
4555.40040080414
 20
2289.867032643556
 30
0.0
  0
POINT
  5
84F0
330
84E6
100
AcDbEntity
  8
DEFPOINTS
 62
     0
100
AcDbPoint
 10
5637.400400804152
 20
2289.867032643556
 30
0.0
  0
POINT
  5
84F1
330
84E6
100
AcDbEntity
  8
DEFPOINTS
 62
     0
100
AcDbPoint
 10
5637.400400804152
 20
2066.406442439319
 30
0.0
  0
ENDBLK
  5
84E8
330
84E6
100
AcDbEntity
  8
0
100
AcDbBlockEnd
  0
BLOCK
  5
84F4
330
84F3
100
AcDbEntity
  8
0
100
AcDbBlockBegin
  2
*D43
 70
     1
 10
0.0
 20
0.0
 30
0.0
  3
*D43
  1

  0
LINE
  5
84F6
330
84F3
100
AcDbEntity
  8
3
 62
     0
370
    -2
100
AcDbLine
 10
5637.400400804152
 20
2272.367032643556
 30
0.0
 11
5637.400400804152
 21
2031.406442439319
 31
0.0
  0
LINE
  5
84F7
330
84F3
100
AcDbEntity
  8
3
 62
     0
370
    -2
100
AcDbLine
 10
6455.400400804132
 20
2272.367032643556
 30
0.0
 11
6455.400400804132
 21
2031.406442439319
 31
0.0
  0
LINE
  5
84F8
330
84F3
100
AcDbEntity
  8
3
 62
     0
370
    -2
100
AcDbLine
 10
5707.400400804152
 20
2066.406442439319
 30
0.0
 11
6385.400400804132
 21
2066.406442439319
 31
0.0
  0
INSERT
  5
84F9
330
84F3
100
AcDbEntity
  8
3
 62
     0
370
    -2
100
AcDbBlockReference
  2
_OPEN
 10
5637.400400804152
 20
2066.406442439319
 30
0.0
 41
70.0
 42
70.0
 43
70.0
 50
180.0
  0
INSERT
  5
84FA
330
84F3
100
AcDbEntity
  8
3
 62
     0
370
    -2
100
AcDbBlockReference
  2
_OPEN
 10
6455.400400804132
 20
2066.406442439319
 30
0.0
 41
70.0
 42
70.0
 43
70.0
  0
MTEXT
  5
84FB
330
84F3
100
AcDbEntity
  8
3
 62
     0
100
AcDbMText
 10
6046.400400804142
 20
2153.906442439319
 30
0.0
 40
105.0
 41
0.0
 71
     5
 72
     1
  1
\A1;818
 73
     1
 44
1.0
1001
ACAD
1000
MTEXTBEGIN
1070
    73
1070
     1
1070
    44
1040
1.0
1070
    74
1070
     0
1000
MTEXTEND
  0
POINT
  5
84FC
330
84F3
100
AcDbEntity
  8
DEFPOINTS
 62
     0
100
AcDbPoint
 10
5637.400400804152
 20
2289.867032643556
 30
0.0
  0
POINT
  5
84FD
330
84F3
100
AcDbEntity
  8
DEFPOINTS
 62
     0
100
AcDbPoint
 10
6455.400400804132
 20
2289.867032643556
 30
0.0
  0
POINT
  5
84FE
330
84F3
100
AcDbEntity
  8
DEFPOINTS
 62
     0
100
AcDbPoint
 10
6455.400400804132
 20
2066.406442439319
 30
0.0
  0
ENDBLK
  5
84F5
330
84F3
100
AcDbEntity
  8
0
100
AcDbBlockEnd
  0
BLOCK
  5
8537
330
8536
100
AcDbEntity
  8
0
100
AcDbBlockBegin
  2
*D44
 70
     1
 10
0.0
 20
0.0
 30
0.0
  3
*D44
  1

  0
LINE
  5
8539
330
8536
100
AcDbEntity
  8
3
 62
     0
370
    -2
100
AcDbLine
 10
1870.717971633641
 20
7693.481934815962
 30
0.0
 11
1454.445716662588
 21
7693.481934815962
 31
0.0
  0
LINE
  5
853A
330
8536
100
AcDbEntity
  8
3
 62
     0
370
    -2
100
AcDbLine
 10
1870.717971633641
 20
5793.481934815962
 30
0.0
 11
1454.445716662588
 21
5793.481934815962
 31
0.0
  0
LINE
  5
853B
330
8536
100
AcDbEntity
  8
3
 62
     0
370
    -2
100
AcDbLine
 10
1489.445716662588
 20
7623.481934815962
 30
0.0
 11
1489.445716662588
 21
5863.481934815961
 31
0.0
  0
INSERT
  5
853C
330
8536
100
AcDbEntity
  8
3
 62
     0
370
    -2
100
AcDbBlockReference
  2
_OPEN
 10
1489.445716662588
 20
7693.481934815962
 30
0.0
 41
70.0
 42
70.0
 43
70.0
 50
90.0
  0
INSERT
  5
853D
330
8536
100
AcDbEntity
  8
3
 62
     0
370
    -2
100
AcDbBlockReference
  2
_OPEN
 10
1489.445716662588
 20
5793.481934815962
 30
0.0
 41
70.0
 42
70.0
 43
70.0
 50
270.0
  0
MTEXT
  5
853E
330
8536
100
AcDbEntity
  8
3
 62
     0
100
AcDbMText
 10
1401.945716662587
 20
6743.481934815962
 30
0.0
 40
105.0
 41
0.0
 71
     5
 72
     1
  1
\A1;1900
 11
0.0000000000000001
 21
1.0
 31
0.0
 73
     1
 44
1.0
1001
ACAD
1000
MTEXTBEGIN
1070
    73
1070
     1
1070
    44
1040
1.0
1070
    74
1070
     0
1000
MTEXTEND
  0
POINT
  5
853F
330
8536
100
AcDbEntity
  8
DEFPOINTS
 62
     0
100
AcDbPoint
 10
1888.21797163364
 20
7693.481934815962
 30
0.0
  0
POINT
  5
8540
330
8536
100
AcDbEntity
  8
DEFPOINTS
 62
     0
100
AcDbPoint
 10
1888.21797163364
 20
5793.481934815962
 30
0.0
  0
POINT
  5
8541
330
8536
100
AcDbEntity
  8
DEFPOINTS
 62
     0
100
AcDbPoint
 10
1489.445716662588
 20
5793.481934815962
 30
0.0
  0
ENDBLK
  5
8538
330
8536
100
AcDbEntity
  8
0
100
AcDbBlockEnd
  0
BLOCK
  5
8544
330
8543
100
AcDbEntity
  8
0
100
AcDbBlockBegin
  2
*D45
 70
     1
 10
0.0
 20
0.0
 30
0.0
  3
*D45
  1

  0
LINE
  5
8546
330
8543
100
AcDbEntity
  8
3
 62
     0
370
    -2
100
AcDbLine
 10
1888.21797163364
 20
5775.981934815962
 30
0.0
 11
1888.21797163364
 21
5467.236742722015
 31
0.0
  0
LINE
  5
8547
330
8543
100
AcDbEntity
  8
3
 62
     0
370
    -2
100
AcDbLine
 10
4148.21797163364
 20
5775.981934815961
 30
0.0
 11
4148.21797163364
 21
5467.236742722015
 31
0.0
  0
LINE
  5
8548
330
8543
100
AcDbEntity
  8
3
 62
     0
370
    -2
100
AcDbLine
 10
1958.217971633641
 20
5502.236742722015
 30
0.0
 11
4078.21797163364
 21
5502.236742722015
 31
0.0
  0
INSERT
  5
8549
330
8543
100
AcDbEntity
  8
3
 62
     0
370
    -2
100
AcDbBlockReference
  2
_OPEN
 10
1888.21797163364
 20
5502.236742722015
 30
0.0
 41
70.0
 42
70.0
 43
70.0
 50
180.0
  0
INSERT
  5
854A
330
8543
100
AcDbEntity
  8
3
 62
     0
370
    -2
100
AcDbBlockReference
  2
_OPEN
 10
4148.21797163364
 20
5502.236742722015
 30
0.0
 41
70.0
 42
70.0
 43
70.0
  0
MTEXT
  5
854B
330
8543
100
AcDbEntity
  8
3
 62
     0
100
AcDbMText
 10
3018.217971633641
 20
5589.736742722015
 30
0.0
 40
105.0
 41
0.0
 71
     5
 72
     1
  1
\A1;2260
 73
     1
 44
1.0
1001
ACAD
1000
MTEXTBEGIN
1070
    73
1070
     1
1070
    44
1040
1.0
1070
    74
1070
     0
1000
MTEXTEND
  0
POINT
  5
854C
330
8543
100
AcDbEntity
  8
DEFPOINTS
 62
     0
100
AcDbPoint
 10
1888.21797163364
 20
5793.481934815962
 30
0.0
  0
POINT
  5
854D
330
8543
100
AcDbEntity
  8
DEFPOINTS
 62
     0
100
AcDbPoint
 10
4148.21797163364
 20
5793.481934815961
 30
0.0
  0
POINT
  5
854E
330
8543
100
AcDbEntity
  8
DEFPOINTS
 62
     0
100
AcDbPoint
 10
4148.21797163364
 20
5502.236742722015
 30
0.0
  0
ENDBLK
  5
8545
330
8543
100
AcDbEntity
  8
0
100
AcDbBlockEnd
  0
BLOCK
  5
8551
330
8550
100
AcDbEntity
  8
0
100
AcDbBlockBegin
  2
*D46
 70
     1
 10
0.0
 20
0.0
 30
0.0
  3
*D46
  1

  0
LINE
  5
8553
330
8550
100
AcDbEntity
  8
3
 62
     0
370
    -2
100
AcDbLine
 10
4165.71797163364
 20
5793.481934815961
 30
0.0
 11
4583.848380927504
 21
5793.481934815961
 31
0.0
  0
LINE
  5
8554
330
8550
100
AcDbEntity
  8
3
 62
     0
370
    -2
100
AcDbLine
 10
4165.71797163364
 20
6693.481934815962
 30
0.0
 11
4583.848380927505
 21
6693.481934815962
 31
0.0
  0
LINE
  5
8555
330
8550
100
AcDbEntity
  8
3
 62
     0
370
    -2
100
AcDbLine
 10
4548.848380927504
 20
5863.481934815961
 30
0.0
 11
4548.848380927505
 21
6623.481934815962
 31
0.0
  0
INSERT
  5
8556
330
8550
100
AcDbEntity
  8
3
 62
     0
370
    -2
100
AcDbBlockReference
  2
_OPEN
 10
4548.848380927504
 20
5793.481934815961
 30
0.0
 41
70.0
 42
70.0
 43
70.0
 50
270.0
  0
INSERT
  5
8557
330
8550
100
AcDbEntity
  8
3
 62
     0
370
    -2
100
AcDbBlockReference
  2
_OPEN
 10
4548.848380927505
 20
6693.481934815962
 30
0.0
 41
70.0
 42
70.0
 43
70.0
 50
90.0
  0
MTEXT
  5
8558
330
8550
100
AcDbEntity
  8
3
 62
     0
100
AcDbMText
 10
4461.348380927502
 20
6243.481934815962
 30
0.0
 40
105.0
 41
0.0
 71
     5
 72
     1
  1
\A1;900
 11
0.0000000000000001
 21
1.0
 31
0.0
 73
     1
 44
1.0
1001
ACAD
1000
MTEXTBEGIN
1070
    73
1070
     1
1070
    44
1040
1.0
1070
    74
1070
     0
1000
MTEXTEND
  0
POINT
  5
8559
330
8550
100
AcDbEntity
  8
DEFPOINTS
 62
     0
100
AcDbPoint
 10
4148.21797163364
 20
5793.481934815961
 30
0.0
  0
POINT
  5
855A
330
8550
100
AcDbEntity
  8
DEFPOINTS
 62
     0
100
AcDbPoint
 10
4148.21797163364
 20
6693.481934815962
 30
0.0
  0
POINT
  5
855B
330
8550
100
AcDbEntity
  8
DEFPOINTS
 62
     0
100
AcDbPoint
 10
4548.848380927505
 20
6693.481934815962
 30
0.0
  0
ENDBLK
  5
8552
330
8550
100
AcDbEntity
  8
0
100
AcDbBlockEnd
  0
BLOCK
  5
855E
330
855D
100
AcDbEntity
  8
0
100
AcDbBlockBegin
  2
*D47
 70
     1
 10
0.0
 20
0.0
 30
0.0
  3
*D47
  1

  0
LINE
  5
8560
330
855D
100
AcDbEntity
  8
3
 62
     0
370
    -2
100
AcDbLine
 10
4148.21797163364
 20
6710.981934815961
 30
0.0
 11
4148.21797163364
 21
7902.489295287082
 31
0.0
  0
LINE
  5
8561
330
855D
100
AcDbEntity
  8
3
 62
     0
370
    -2
100
AcDbLine
 10
3208.217971633641
 20
7710.981934815961
 30
0.0
 11
3208.217971633641
 21
7902.489295287082
 31
0.0
  0
LINE
  5
8562
330
855D
100
AcDbEntity
  8
3
 62
     0
370
    -2
100
AcDbLine
 10
4078.21797163364
 20
7867.489295287082
 30
0.0
 11
3278.217971633641
 21
7867.489295287082
 31
0.0
  0
INSERT
  5
8563
330
855D
100
AcDbEntity
  8
3
 62
     0
370
    -2
100
AcDbBlockReference
  2
_OPEN
 10
4148.21797163364
 20
7867.489295287082
 30
0.0
 41
70.0
 42
70.0
 43
70.0
  0
INSERT
  5
8564
330
855D
100
AcDbEntity
  8
3
 62
     0
370
    -2
100
AcDbBlockReference
  2
_OPEN
 10
3208.217971633641
 20
7867.489295287082
 30
0.0
 41
70.0
 42
70.0
 43
70.0
 50
180.0
  0
MTEXT
  5
8565
330
855D
100
AcDbEntity
  8
3
 62
     0
100
AcDbMText
 10
3678.217971633641
 20
7954.989295287082
 30
0.0
 40
105.0
 41
0.0
 71
     5
 72
     1
  1
\A1;940
 73
     1
 44
1.0
1001
ACAD
1000
MTEXTBEGIN
1070
    73
1070
     1
1070
    44
1040
1.0
1070
    74
1070
     0
1000
MTEXTEND
  0
POINT
  5
8566
330
855D
100
AcDbEntity
  8
DEFPOINTS
 62
     0
100
AcDbPoint
 10
4148.21797163364
 20
6693.481934815962
 30
0.0
  0
POINT
  5
8567
330
855D
100
AcDbEntity
  8
DEFPOINTS
 62
     0
100
AcDbPoint
 10
3208.217971633641
 20
7693.481934815962
 30
0.0
  0
POINT
  5
8568
330
855D
100
AcDbEntity
  8
DEFPOINTS
 62
     0
100
AcDbPoint
 10
3208.217971633641
 20
7867.489295287082
 30
0.0
  0
ENDBLK
  5
855F
330
855D
100
AcDbEntity
  8
0
100
AcDbBlockEnd
  0
BLOCK
  5
856B
330
856A
100
AcDbEntity
  8
0
100
AcDbBlockBegin
  2
*D48
 70
     1
 10
0.0
 20
0.0
 30
0.0
  3
*D48
  1

  0
LINE
  5
856D
330
856A
100
AcDbEntity
  8
3
 62
     0
370
    -2
100
AcDbLine
 10
3208.217971633641
 20
7710.981934815961
 30
0.0
 11
3208.217971633641
 21
7902.489295287082
 31
0.0
  0
LINE
  5
856E
330
856A
100
AcDbEntity
  8
3
 62
     0
370
    -2
100
AcDbLine
 10
1888.21797163364
 20
7710.981934815961
 30
0.0
 11
1888.21797163364
 21
7902.489295287082
 31
0.0
  0
LINE
  5
856F
330
856A
100
AcDbEntity
  8
3
 62
     0
370
    -2
100
AcDbLine
 10
3138.217971633641
 20
7867.489295287082
 30
0.0
 11
1958.217971633641
 21
7867.489295287082
 31
0.0
  0
INSERT
  5
8570
330
856A
100
AcDbEntity
  8
3
 62
     0
370
    -2
100
AcDbBlockReference
  2
_OPEN
 10
3208.217971633641
 20
7867.489295287082
 30
0.0
 41
70.0
 42
70.0
 43
70.0
  0
INSERT
  5
8571
330
856A
100
AcDbEntity
  8
3
 62
     0
370
    -2
100
AcDbBlockReference
  2
_OPEN
 10
1888.21797163364
 20
7867.489295287082
 30
0.0
 41
70.0
 42
70.0
 43
70.0
 50
180.0
  0
MTEXT
  5
8572
330
856A
100
AcDbEntity
  8
3
 62
     0
100
AcDbMText
 10
2548.217971633641
 20
7954.989295287082
 30
0.0
 40
105.0
 41
0.0
 71
     5
 72
     1
  1
\A1;1320
 73
     1
 44
1.0
1001
ACAD
1000
MTEXTBEGIN
1070
    73
1070
     1
1070
    44
1040
1.0
1070
    74
1070
     0
1000
MTEXTEND
  0
POINT
  5
8573
330
856A
100
AcDbEntity
  8
DEFPOINTS
 62
     0
100
AcDbPoint
 10
3208.217971633641
 20
7693.481934815962
 30
0.0
  0
POINT
  5
8574
330
856A
100
AcDbEntity
  8
DEFPOINTS
 62
     0
100
AcDbPoint
 10
1888.21797163364
 20
7693.481934815962
 30
0.0
  0
POINT
  5
8575
330
856A
100
AcDbEntity
  8
DEFPOINTS
 62
     0
100
AcDbPoint
 10
1888.21797163364
 20
7867.489295287082
 30
0.0
  0
ENDBLK
  5
856C
330
856A
100
AcDbEntity
  8
0
100
AcDbBlockEnd
  0
BLOCK
  5
8578
330
8577
100
AcDbEntity
  8
0
100
AcDbBlockBegin
  2
*D49
 70
     1
 10
0.0
 20
0.0
 30
0.0
  3
*D49
  1

  0
LINE
  5
857A
330
8577
100
AcDbEntity
  8
3
 62
     0
370
    -2
100
AcDbLine
 10
1788.21797163364
 20
3837.367032643557
 30
0.0
 11
1788.21797163364
 21
5107.874531832272
 31
0.0
  0
LINE
  5
857B
330
8577
100
AcDbEntity
  8
3
 62
     0
370
    -2
100
AcDbLine
 10
4148.21797163364
 20
2602.367032643556
 30
0.0
 11
4148.21797163364
 21
5107.874531832272
 31
0.0
  0
LINE
  5
857C
330
8577
100
AcDbEntity
  8
3
 62
     0
370
    -2
100
AcDbLine
 10
1858.217971633641
 20
5072.874531832272
 30
0.0
 11
4078.21797163364
 21
5072.874531832272
 31
0.0
  0
INSERT
  5
857D
330
8577
100
AcDbEntity
  8
3
 62
     0
370
    -2
100
AcDbBlockReference
  2
_OPEN
 10
1788.21797163364
 20
5072.874531832272
 30
0.0
 41
70.0
 42
70.0
 43
70.0
 50
180.0
  0
INSERT
  5
857E
330
8577
100
AcDbEntity
  8
3
 62
     0
370
    -2
100
AcDbBlockReference
  2
_OPEN
 10
4148.21797163364
 20
5072.874531832272
 30
0.0
 41
70.0
 42
70.0
 43
70.0
  0
MTEXT
  5
857F
330
8577
100
AcDbEntity
  8
3
 62
     0
100
AcDbMText
 10
2968.217971633641
 20
5160.374531832271
 30
0.0
 40
105.0
 41
0.0
 71
     5
 72
     1
  1
\A1;2360
 73
     1
 44
1.0
1001
ACAD
1000
MTEXTBEGIN
1070
    73
1070
     1
1070
    44
1040
1.0
1070
    74
1070
     0
1000
MTEXTEND
  0
POINT
  5
8580
330
8577
100
AcDbEntity
  8
DEFPOINTS
 62
     0
100
AcDbPoint
 10
1788.21797163364
 20
3819.867032643557
 30
0.0
  0
POINT
  5
8581
330
8577
100
AcDbEntity
  8
DEFPOINTS
 62
     0
100
AcDbPoint
 10
4148.21797163364
 20
2584.867032643556
 30
0.0
  0
POINT
  5
8582
330
8577
100
AcDbEntity
  8
DEFPOINTS
 62
     0
100
AcDbPoint
 10
4148.21797163364
 20
5072.874531832272
 30
0.0
  0
ENDBLK
  5
8579
330
8577
100
AcDbEntity
  8
0
100
AcDbBlockEnd
  0
BLOCK
  5
8585
330
8584
100
AcDbEntity
  8
0
100
AcDbBlockBegin
  2
*D50
 70
     1
 10
0.0
 20
0.0
 30
0.0
  3
*D50
  1

  0
LINE
  5
8587
330
8584
100
AcDbEntity
  8
3
 62
     0
370
    -2
100
AcDbLine
 10
1788.21797163364
 20
3837.367032643557
 30
0.0
 11
1788.21797163364
 21
4880.294362889877
 31
0.0
  0
LINE
  5
8588
330
8584
100
AcDbEntity
  8
3
 62
     0
370
    -2
100
AcDbLine
 10
2548.217971633641
 20
4698.435226323957
 30
0.0
 11
2548.217971633641
 21
4880.294362889877
 31
0.0
  0
LINE
  5
8589
330
8584
100
AcDbEntity
  8
3
 62
     0
370
    -2
100
AcDbLine
 10
1858.217971633641
 20
4845.294362889877
 30
0.0
 11
2478.217971633641
 21
4845.294362889877
 31
0.0
  0
INSERT
  5
858A
330
8584
100
AcDbEntity
  8
3
 62
     0
370
    -2
100
AcDbBlockReference
  2
_OPEN
 10
1788.21797163364
 20
4845.294362889877
 30
0.0
 41
70.0
 42
70.0
 43
70.0
 50
180.0
  0
INSERT
  5
858B
330
8584
100
AcDbEntity
  8
3
 62
     0
370
    -2
100
AcDbBlockReference
  2
_OPEN
 10
2548.217971633641
 20
4845.294362889877
 30
0.0
 41
70.0
 42
70.0
 43
70.0
  0
MTEXT
  5
858C
330
8584
100
AcDbEntity
  8
3
 62
     0
100
AcDbMText
 10
2168.217971633641
 20
4932.794362889876
 30
0.0
 40
105.0
 41
0.0
 71
     5
 72
     1
  1
\A1;760
 73
     1
 44
1.0
1001
ACAD
1000
MTEXTBEGIN
1070
    73
1070
     1
1070
    44
1040
1.0
1070
    74
1070
     0
1000
MTEXTEND
  0
POINT
  5
858D
330
8584
100
AcDbEntity
  8
DEFPOINTS
 62
     0
100
AcDbPoint
 10
1788.21797163364
 20
3819.867032643557
 30
0.0
  0
POINT
  5
858E
330
8584
100
AcDbEntity
  8
DEFPOINTS
 62
     0
100
AcDbPoint
 10
2548.217971633641
 20
4680.935226323958
 30
0.0
  0
POINT
  5
858F
330
8584
100
AcDbEntity
  8
DEFPOINTS
 62
     0
100
AcDbPoint
 10
2548.217971633641
 20
4845.294362889877
 30
0.0
  0
ENDBLK
  5
8586
330
8584
100
AcDbEntity
  8
0
100
AcDbBlockEnd
  0
BLOCK
  5
8592
330
8591
100
AcDbEntity
  8
0
100
AcDbBlockBegin
  2
*D51
 70
     1
 10
0.0
 20
0.0
 30
0.0
  3
*D51
  1

  0
LINE
  5
8594
330
8591
100
AcDbEntity
  8
3
 62
     0
370
    -2
100
AcDbLine
 10
2548.217971633641
 20
4698.435226323957
 30
0.0
 11
2548.217971633641
 21
4880.294362889877
 31
0.0
  0
LINE
  5
8595
330
8591
100
AcDbEntity
  8
3
 62
     0
370
    -2
100
AcDbLine
 10
3517.217971633641
 20
3750.367032643558
 30
0.0
 11
3517.217971633641
 21
4880.294362889877
 31
0.0
  0
LINE
  5
8596
330
8591
100
AcDbEntity
  8
3
 62
     0
370
    -2
100
AcDbLine
 10
2618.217971633641
 20
4845.294362889877
 30
0.0
 11
3447.217971633641
 21
4845.294362889877
 31
0.0
  0
INSERT
  5
8597
330
8591
100
AcDbEntity
  8
3
 62
     0
370
    -2
100
AcDbBlockReference
  2
_OPEN
 10
2548.217971633641
 20
4845.294362889877
 30
0.0
 41
70.0
 42
70.0
 43
70.0
 50
180.0
  0
INSERT
  5
8598
330
8591
100
AcDbEntity
  8
3
 62
     0
370
    -2
100
AcDbBlockReference
  2
_OPEN
 10
3517.217971633641
 20
4845.294362889877
 30
0.0
 41
70.0
 42
70.0
 43
70.0
  0
MTEXT
  5
8599
330
8591
100
AcDbEntity
  8
3
 62
     0
100
AcDbMText
 10
3032.717971633641
 20
4932.794362889876
 30
0.0
 40
105.0
 41
0.0
 71
     5
 72
     1
  1
\A1;969
 73
     1
 44
1.0
1001
ACAD
1000
MTEXTBEGIN
1070
    73
1070
     1
1070
    44
1040
1.0
1070
    74
1070
     0
1000
MTEXTEND
  0
POINT
  5
859A
330
8591
100
AcDbEntity
  8
DEFPOINTS
 62
     0
100
AcDbPoint
 10
2548.217971633641
 20
4680.935226323958
 30
0.0
  0
POINT
  5
859B
330
8591
100
AcDbEntity
  8
DEFPOINTS
 62
     0
100
AcDbPoint
 10
3517.217971633641
 20
3732.867032643557
 30
0.0
  0
POINT
  5
859C
330
8591
100
AcDbEntity
  8
DEFPOINTS
 62
     0
100
AcDbPoint
 10
3517.217971633641
 20
4845.294362889877
 30
0.0
  0
ENDBLK
  5
8593
330
8591
100
AcDbEntity
  8
0
100
AcDbBlockEnd
  0
BLOCK
  5
859F
330
859E
100
AcDbEntity
  8
0
100
AcDbBlockBegin
  2
*D52
 70
     1
 10
0.0
 20
0.0
 30
0.0
  3
*D52
  1

  0
LINE
  5
85A1
330
859E
100
AcDbEntity
  8
3
 62
     0
370
    -2
100
AcDbLine
 10
1888.21797163364
 20
2272.367032643556
 30
0.0
 11
1888.21797163364
 21
2031.406442439319
 31
0.0
  0
LINE
  5
85A2
330
859E
100
AcDbEntity
  8
3
 62
     0
370
    -2
100
AcDbLine
 10
2548.217971633642
 20
2272.367032643556
 30
0.0
 11
2548.217971633642
 21
2031.406442439319
 31
0.0
  0
LINE
  5
85A3
330
859E
100
AcDbEntity
  8
3
 62
     0
370
    -2
100
AcDbLine
 10
1958.217971633641
 20
2066.406442439319
 30
0.0
 11
2478.217971633642
 21
2066.406442439319
 31
0.0
  0
INSERT
  5
85A4
330
859E
100
AcDbEntity
  8
3
 62
     0
370
    -2
100
AcDbBlockReference
  2
_OPEN
 10
1888.21797163364
 20
2066.406442439319
 30
0.0
 41
70.0
 42
70.0
 43
70.0
 50
180.0
  0
INSERT
  5
85A5
330
859E
100
AcDbEntity
  8
3
 62
     0
370
    -2
100
AcDbBlockReference
  2
_OPEN
 10
2548.217971633642
 20
2066.406442439319
 30
0.0
 41
70.0
 42
70.0
 43
70.0
  0
MTEXT
  5
85A6
330
859E
100
AcDbEntity
  8
3
 62
     0
100
AcDbMText
 10
2218.217971633641
 20
2153.906442439319
 30
0.0
 40
105.0
 41
0.0
 71
     5
 72
     1
  1
\A1;660
 73
     1
 44
1.0
1001
ACAD
1000
MTEXTBEGIN
1070
    73
1070
     1
1070
    44
1040
1.0
1070
    74
1070
     0
1000
MTEXTEND
  0
POINT
  5
85A7
330
859E
100
AcDbEntity
  8
DEFPOINTS
 62
     0
100
AcDbPoint
 10
1888.21797163364
 20
2289.867032643556
 30
0.0
  0
POINT
  5
85A8
330
859E
100
AcDbEntity
  8
DEFPOINTS
 62
     0
100
AcDbPoint
 10
2548.217971633642
 20
2289.867032643556
 30
0.0
  0
POINT
  5
85A9
330
859E
100
AcDbEntity
  8
DEFPOINTS
 62
     0
100
AcDbPoint
 10
2548.217971633642
 20
2066.406442439319
 30
0.0
  0
ENDBLK
  5
85A0
330
859E
100
AcDbEntity
  8
0
100
AcDbBlockEnd
  0
BLOCK
  5
85AC
330
85AB
100
AcDbEntity
  8
0
100
AcDbBlockBegin
  2
*D53
 70
     1
 10
0.0
 20
0.0
 30
0.0
  3
*D53
  1

  0
LINE
  5
85AE
330
85AB
100
AcDbEntity
  8
3
 62
     0
370
    -2
100
AcDbLine
 10
2548.217971633642
 20
2272.367032643556
 30
0.0
 11
2548.217971633642
 21
2031.406442439319
 31
0.0
  0
LINE
  5
85AF
330
85AB
100
AcDbEntity
  8
3
 62
     0
370
    -2
100
AcDbLine
 10
4148.21797163364
 20
2272.367032643556
 30
0.0
 11
4148.21797163364
 21
2031.406442439319
 31
0.0
  0
LINE
  5
85B0
330
85AB
100
AcDbEntity
  8
3
 62
     0
370
    -2
100
AcDbLine
 10
2618.217971633642
 20
2066.406442439319
 30
0.0
 11
4078.21797163364
 21
2066.406442439319
 31
0.0
  0
INSERT
  5
85B1
330
85AB
100
AcDbEntity
  8
3
 62
     0
370
    -2
100
AcDbBlockReference
  2
_OPEN
 10
2548.217971633642
 20
2066.406442439319
 30
0.0
 41
70.0
 42
70.0
 43
70.0
 50
180.0
  0
INSERT
  5
85B2
330
85AB
100
AcDbEntity
  8
3
 62
     0
370
    -2
100
AcDbBlockReference
  2
_OPEN
 10
4148.21797163364
 20
2066.406442439319
 30
0.0
 41
70.0
 42
70.0
 43
70.0
  0
MTEXT
  5
85B3
330
85AB
100
AcDbEntity
  8
3
 62
     0
100
AcDbMText
 10
3348.217971633641
 20
2153.906442439319
 30
0.0
 40
105.0
 41
0.0
 71
     5
 72
     1
  1
\A1;1600
 73
     1
 44
1.0
1001
ACAD
1000
MTEXTBEGIN
1070
    73
1070
     1
1070
    44
1040
1.0
1070
    74
1070
     0
1000
MTEXTEND
  0
POINT
  5
85B4
330
85AB
100
AcDbEntity
  8
DEFPOINTS
 62
     0
100
AcDbPoint
 10
2548.217971633642
 20
2289.867032643556
 30
0.0
  0
POINT
  5
85B5
330
85AB
100
AcDbEntity
  8
DEFPOINTS
 62
     0
100
AcDbPoint
 10
4148.21797163364
 20
2289.867032643556
 30
0.0
  0
POINT
  5
85B6
330
85AB
100
AcDbEntity
  8
DEFPOINTS
 62
     0
100
AcDbPoint
 10
4148.21797163364
 20
2066.406442439319
 30
0.0
  0
ENDBLK
  5
85AD
330
85AB
100
AcDbEntity
  8
0
100
AcDbBlockEnd
  0
BLOCK
  5
85B9
330
85B8
100
AcDbEntity
  8
0
100
AcDbBlockBegin
  2
*D54
 70
     1
 10
0.0
 20
0.0
 30
0.0
  3
*D54
  1

  0
LINE
  5
85BB
330
85B8
100
AcDbEntity
  8
3
 62
     0
370
    -2
100
AcDbLine
 10
1770.717971633641
 20
3766.867032643556
 30
0.0
 11
1553.109655349375
 21
3766.867032643556
 31
0.0
  0
LINE
  5
85BC
330
85B8
100
AcDbEntity
  8
3
 62
     0
370
    -2
100
AcDbLine
 10
1770.717971633641
 20
2616.867032643556
 30
0.0
 11
1553.109655349375
 21
2616.867032643556
 31
0.0
  0
LINE
  5
85BD
330
85B8
100
AcDbEntity
  8
3
 62
     0
370
    -2
100
AcDbLine
 10
1588.109655349375
 20
3696.867032643556
 30
0.0
 11
1588.109655349375
 21
2686.867032643556
 31
0.0
  0
INSERT
  5
85BE
330
85B8
100
AcDbEntity
  8
3
 62
     0
370
    -2
100
AcDbBlockReference
  2
_OPEN
 10
1588.109655349375
 20
3766.867032643556
 30
0.0
 41
70.0
 42
70.0
 43
70.0
 50
90.0
  0
INSERT
  5
85BF
330
85B8
100
AcDbEntity
  8
3
 62
     0
370
    -2
100
AcDbBlockReference
  2
_OPEN
 10
1588.109655349375
 20
2616.867032643556
 30
0.0
 41
70.0
 42
70.0
 43
70.0
 50
270.0
  0
MTEXT
  5
85C0
330
85B8
100
AcDbEntity
  8
3
 62
     0
100
AcDbMText
 10
1500.609655349375
 20
3191.867032643556
 30
0.0
 40
105.0
 41
0.0
 71
     5
 72
     1
  1
\A1;1150
 11
0.0000000000000001
 21
1.0
 31
0.0
 73
     1
 44
1.0
1001
ACAD
1000
MTEXTBEGIN
1070
    73
1070
     1
1070
    44
1040
1.0
1070
    74
1070
     0
1000
MTEXTEND
  0
POINT
  5
85C1
330
85B8
100
AcDbEntity
  8
DEFPOINTS
 62
     0
100
AcDbPoint
 10
1788.21797163364
 20
3766.867032643556
 30
0.0
  0
POINT
  5
85C2
330
85B8
100
AcDbEntity
  8
DEFPOINTS
 62
     0
100
AcDbPoint
 10
1788.21797163364
 20
2616.867032643556
 30
0.0
  0
POINT
  5
85C3
330
85B8
100
AcDbEntity
  8
DEFPOINTS
 62
     0
100
AcDbPoint
 10
1588.109655349375
 20
2616.867032643556
 30
0.0
  0
ENDBLK
  5
85BA
330
85B8
100
AcDbEntity
  8
0
100
AcDbBlockEnd
  0
BLOCK
  5
85C6
330
85C5
100
AcDbEntity
  8
0
100
AcDbBlockBegin
  2
*D55
 70
     1
 10
0.0
 20
0.0
 30
0.0
  3
*D55
  1

  0
LINE
  5
85C8
330
85C5
100
AcDbEntity
  8
3
 62
     0
370
    -2
100
AcDbLine
 10
1770.717971633641
 20
2616.867032643556
 30
0.0
 11
1352.958004487872
 21
2616.867032643556
 31
0.0
  0
LINE
  5
85C9
330
85C5
100
AcDbEntity
  8
3
 62
     0
370
    -2
100
AcDbLine
 10
1623.937320180664
 20
3814.867032643557
 30
0.0
 11
1352.958004487873
 21
3814.867032643557
 31
0.0
  0
LINE
  5
85CA
330
85C5
100
AcDbEntity
  8
3
 62
     0
370
    -2
100
AcDbLine
 10
1387.958004487872
 20
2686.867032643556
 30
0.0
 11
1387.958004487873
 21
3744.867032643558
 31
0.0
  0
INSERT
  5
85CB
330
85C5
100
AcDbEntity
  8
3
 62
     0
370
    -2
100
AcDbBlockReference
  2
_OPEN
 10
1387.958004487872
 20
2616.867032643556
 30
0.0
 41
70.0
 42
70.0
 43
70.0
 50
270.0
  0
INSERT
  5
85CC
330
85C5
100
AcDbEntity
  8
3
 62
     0
370
    -2
100
AcDbBlockReference
  2
_OPEN
 10
1387.958004487873
 20
3814.867032643557
 30
0.0
 41
70.0
 42
70.0
 43
70.0
 50
90.0
  0
MTEXT
  5
85CD
330
85C5
100
AcDbEntity
  8
3
 62
     0
100
AcDbMText
 10
1300.458004487872
 20
3215.867032643557
 30
0.0
 40
105.0
 41
0.0
 71
     5
 72
     1
  1
\A1;1198
 11
0.0000000000000001
 21
1.0
 31
0.0
 73
     1
 44
1.0
1001
ACAD
1000
MTEXTBEGIN
1070
    73
1070
     1
1070
    44
1040
1.0
1070
    74
1070
     0
1000
MTEXTEND
  0
POINT
  5
85CE
330
85C5
100
AcDbEntity
  8
DEFPOINTS
 62
     0
100
AcDbPoint
 10
1788.21797163364
 20
2616.867032643556
 30
0.0
  0
POINT
  5
85CF
330
85C5
100
AcDbEntity
  8
DEFPOINTS
 62
     0
100
AcDbPoint
 10
1641.437320180664
 20
3814.867032643557
 30
0.0
  0
POINT
  5
85D0
330
85C5
100
AcDbEntity
  8
DEFPOINTS
 62
     0
100
AcDbPoint
 10
1387.958004487873
 20
3814.867032643557
 30
0.0
  0
ENDBLK
  5
85C7
330
85C5
100
AcDbEntity
  8
0
100
AcDbBlockEnd
  0
BLOCK
  5
85D3
330
85D2
100
AcDbEntity
  8
0
100
AcDbBlockBegin
  2
*D56
 70
     1
 10
0.0
 20
0.0
 30
0.0
  3
*D56
  1

  0
LINE
  5
85D5
330
85D2
100
AcDbEntity
  8
3
 62
     0
370
    -2
100
AcDbLine
 10
2612.717971633641
 20
4619.867032643557
 30
0.0
 11
1149.008057762067
 21
4619.867032643557
 31
0.0
  0
LINE
  5
85D6
330
85D2
100
AcDbEntity
  8
3
 62
     0
370
    -2
100
AcDbLine
 10
1623.937320180664
 20
3814.867032643557
 30
0.0
 11
1149.008057762067
 21
3814.867032643557
 31
0.0
  0
LINE
  5
85D7
330
85D2
100
AcDbEntity
  8
3
 62
     0
370
    -2
100
AcDbLine
 10
1184.008057762067
 20
4549.867032643557
 30
0.0
 11
1184.008057762067
 21
3884.867032643557
 31
0.0
  0
INSERT
  5
85D8
330
85D2
100
AcDbEntity
  8
3
 62
     0
370
    -2
100
AcDbBlockReference
  2
_OPEN
 10
1184.008057762067
 20
4619.867032643557
 30
0.0
 41
70.0
 42
70.0
 43
70.0
 50
90.0
  0
INSERT
  5
85D9
330
85D2
100
AcDbEntity
  8
3
 62
     0
370
    -2
100
AcDbBlockReference
  2
_OPEN
 10
1184.008057762067
 20
3814.867032643557
 30
0.0
 41
70.0
 42
70.0
 43
70.0
 50
270.0
  0
MTEXT
  5
85DA
330
85D2
100
AcDbEntity
  8
3
 62
     0
100
AcDbMText
 10
1096.508057762066
 20
4217.367032643557
 30
0.0
 40
105.0
 41
0.0
 71
     5
 72
     1
  1
\A1;805
 11
0.0000000000000001
 21
1.0
 31
0.0
 73
     1
 44
1.0
1001
ACAD
1000
MTEXTBEGIN
1070
    73
1070
     1
1070
    44
1040
1.0
1070
    74
1070
     0
1000
MTEXTEND
  0
POINT
  5
85DB
330
85D2
100
AcDbEntity
  8
DEFPOINTS
 62
     0
100
AcDbPoint
 10
2630.217971633641
 20
4619.867032643557
 30
0.0
  0
POINT
  5
85DC
330
85D2
100
AcDbEntity
  8
DEFPOINTS
 62
     0
100
AcDbPoint
 10
1641.437320180664
 20
3814.867032643557
 30
0.0
  0
POINT
  5
85DD
330
85D2
100
AcDbEntity
  8
DEFPOINTS
 62
     0
100
AcDbPoint
 10
1184.008057762067
 20
3814.867032643557
 30
0.0
  0
ENDBLK
  5
85D4
330
85D2
100
AcDbEntity
  8
0
100
AcDbBlockEnd
  0
BLOCK
  5
85E0
330
85DF
100
AcDbEntity
  8
0
100
AcDbBlockBegin
  2
*D57
 70
     1
 10
0.0
 20
0.0
 30
0.0
  3
*D57
  1

  0
LINE
  5
85E2
330
85DF
100
AcDbEntity
  8
3
 62
     0
370
    -2
100
AcDbLine
 10
1623.937320180664
 20
3814.867032643557
 30
0.0
 11
1149.008057762067
 21
3814.867032643557
 31
0.0
  0
LINE
  5
85E3
330
85DF
100
AcDbEntity
  8
3
 62
     0
370
    -2
100
AcDbLine
 10
1870.717971633641
 20
2459.867032643556
 30
0.0
 11
1149.008057762066
 21
2459.867032643556
 31
0.0
  0
LINE
  5
85E4
330
85DF
100
AcDbEntity
  8
3
 62
     0
370
    -2
100
AcDbLine
 10
1184.008057762067
 20
3744.867032643558
 30
0.0
 11
1184.008057762066
 21
2529.867032643556
 31
0.0
  0
INSERT
  5
85E5
330
85DF
100
AcDbEntity
  8
3
 62
     0
370
    -2
100
AcDbBlockReference
  2
_OPEN
 10
1184.008057762067
 20
3814.867032643557
 30
0.0
 41
70.0
 42
70.0
 43
70.0
 50
90.0
  0
INSERT
  5
85E6
330
85DF
100
AcDbEntity
  8
3
 62
     0
370
    -2
100
AcDbBlockReference
  2
_OPEN
 10
1184.008057762066
 20
2459.867032643556
 30
0.0
 41
70.0
 42
70.0
 43
70.0
 50
270.0
  0
MTEXT
  5
85E7
330
85DF
100
AcDbEntity
  8
3
 62
     0
100
AcDbMText
 10
1096.508057762066
 20
3137.367032643557
 30
0.0
 40
105.0
 41
0.0
 71
     5
 72
     1
  1
\A1;1355
 11
0.0000000000000001
 21
1.0
 31
0.0
 73
     1
 44
1.0
1001
ACAD
1000
MTEXTBEGIN
1070
    73
1070
     1
1070
    44
1040
1.0
1070
    74
1070
     0
1000
MTEXTEND
  0
POINT
  5
85E8
330
85DF
100
AcDbEntity
  8
DEFPOINTS
 62
     0
100
AcDbPoint
 10
1641.437320180664
 20
3814.867032643557
 30
0.0
  0
POINT
  5
85E9
330
85DF
100
AcDbEntity
  8
DEFPOINTS
 62
     0
100
AcDbPoint
 10
1888.21797163364
 20
2459.867032643556
 30
0.0
  0
POINT
  5
85EA
330
85DF
100
AcDbEntity
  8
DEFPOINTS
 62
     0
100
AcDbPoint
 10
1184.008057762066
 20
2459.867032643556
 30
0.0
  0
ENDBLK
  5
85E1
330
85DF
100
AcDbEntity
  8
0
100
AcDbBlockEnd
  0
BLOCK
  5
85ED
330
85EC
100
AcDbEntity
  8
0
100
AcDbBlockBegin
  2
*D58
 70
     1
 10
0.0
 20
0.0
 30
0.0
  3
*D58
  1

  0
LINE
  5
86C5
330
85EC
100
AcDbEntity
  8
3
 62
     0
370
    -2
100
AcDbLine
 10
1870.717971633641
 20
2459.867032643556
 30
0.0
 11
1149.008057762066
 21
2459.867032643556
 31
0.0
  0
LINE
  5
86C6
330
85EC
100
AcDbEntity
  8
3
 62
     0
370
    -2
100
AcDbLine
 10
1870.717971633641
 20
2354.867032643557
 30
0.0
 11
1149.008057762066
 21
2354.867032643557
 31
0.0
  0
LINE
  5
86C7
330
85EC
100
AcDbEntity
  8
3
 62
     0
370
    -2
100
AcDbLine
 10
1184.008057762066
 20
2529.867032643556
 30
0.0
 11
1184.008057762067
 21
2599.867032643556
 31
0.0
  0
LINE
  5
86C8
330
85EC
100
AcDbEntity
  8
3
 62
     0
370
    -2
100
AcDbLine
 10
1184.008057762066
 20
2354.867032643557
 30
0.0
 11
1184.008057762066
 21
2284.867032643557
 31
0.0
  0
LINE
  5
86C9
330
85EC
100
AcDbEntity
  8
3
 62
     0
370
    -2
100
AcDbLine
 10
1184.008057762066
 20
2407.367032643557
 30
0.0
 11
1016.508057762067
 21
2457.617032643557
 31
0.0
  0
LINE
  5
86CA
330
85EC
100
AcDbEntity
  8
3
 62
     0
370
    -2
100
AcDbLine
 10
1016.508057762067
 20
2457.617032643557
 30
0.0
 11
1016.508057762067
 21
2912.617032643557
 31
0.0
  0
MTEXT
  5
86CB
330
85EC
100
AcDbEntity
  8
3
 62
     0
100
AcDbMText
 10
901.5080577620661
 20
2685.117032643557
 30
0.0
 40
105.0
 41
0.0
 71
     5
 72
     1
  1
\A1;(105)
 11
0.0000000000000001
 21
1.0
 31
0.0
 73
     1
 44
1.0
1001
ACAD
1000
MTEXTBEGIN
1070
    73
1070
     1
1070
    44
1040
1.0
1070
    74
1070
     0
1000
MTEXTEND
  0
LINE
  5
86CC
330
85EC
100
AcDbEntity
  8
3
 62
     0
370
    -2
100
AcDbLine
 10
1184.008057762066
 20
2459.867032643556
 30
0.0
 11
1184.008057762066
 21
2354.867032643557
 31
0.0
  0
LINE
  5
86CD
330
85EC
100
AcDbEntity
  8
3
 62
     0
370
    -2
100
AcDbLine
 10
1184.008057762066
 20
2459.867032643556
 30
0.0
 11
1184.008057762066
 21
2354.867032643557
 31
0.0
  0
INSERT
  5
86CE
330
85EC
100
AcDbEntity
  8
3
 62
     0
370
    -2
100
AcDbBlockReference
  2
_OPEN
 10
1184.008057762066
 20
2459.867032643556
 30
0.0
 41
70.0
 42
70.0
 43
70.0
 50
270.0
  0
INSERT
  5
86CF
330
85EC
100
AcDbEntity
  8
3
 62
     0
370
    -2
100
AcDbBlockReference
  2
_DotSmall
 10
1184.008057762066
 20
2354.867032643557
 30
0.0
 41
70.0
 42
70.0
 43
70.0
 50
90.0
  0
POINT
  5
86D0
330
85EC
100
AcDbEntity
  8
DEFPOINTS
 62
     0
100
AcDbPoint
 10
1888.21797163364
 20
2459.867032643556
 30
0.0
  0
POINT
  5
86D1
330
85EC
100
AcDbEntity
  8
DEFPOINTS
 62
     0
100
AcDbPoint
 10
1888.21797163364
 20
2354.867032643557
 30
0.0
  0
POINT
  5
86D2
330
85EC
100
AcDbEntity
  8
DEFPOINTS
 62
     0
100
AcDbPoint
 10
1184.008057762066
 20
2354.867032643557
 30
0.0
  0
ENDBLK
  5
85EE
330
85EC
100
AcDbEntity
  8
0
100
AcDbBlockEnd
  0
BLOCK
  5
85FF
330
85FE
100
AcDbEntity
  8
0
100
AcDbBlockBegin
  2
*D59
 70
     1
 10
0.0
 20
0.0
 30
0.0
  3
*D59
  1

  0
LINE
  5
872C
330
85FE
100
AcDbEntity
  8
3
 62
     0
370
    -2
100
AcDbLine
 10
1870.717971633641
 20
2354.867032643557
 30
0.0
 11
1149.008057762066
 21
2354.867032643557
 31
0.0
  0
LINE
  5
872D
330
85FE
100
AcDbEntity
  8
3
 62
     0
370
    -2
100
AcDbLine
 10
1870.717971633641
 20
2289.867032643556
 30
0.0
 11
1149.008057762066
 21
2289.867032643556
 31
0.0
  0
LINE
  5
872E
330
85FE
100
AcDbEntity
  8
3
 62
     0
370
    -2
100
AcDbLine
 10
1184.008057762066
 20
2354.867032643557
 30
0.0
 11
1184.008057762066
 21
2424.867032643557
 31
0.0
  0
LINE
  5
872F
330
85FE
100
AcDbEntity
  8
3
 62
     0
370
    -2
100
AcDbLine
 10
1184.008057762066
 20
2219.867032643556
 30
0.0
 11
1184.008057762066
 21
2149.867032643556
 31
0.0
  0
MTEXT
  5
8730
330
85FE
100
AcDbEntity
  8
3
 62
     0
100
AcDbMText
 10
1096.508057762066
 20
2149.867032643556
 30
0.0
 40
105.0
 41
0.0
 71
     5
 72
     1
  1
\A1;65
 11
0.0000000000000001
 21
1.0
 31
0.0
 73
     1
 44
1.0
1001
ACAD
1000
MTEXTBEGIN
1070
    73
1070
     1
1070
    44
1040
1.0
1070
    74
1070
     0
1000
MTEXTEND
  0
LINE
  5
8731
330
85FE
100
AcDbEntity
  8
3
 62
     0
370
    -2
100
AcDbLine
 10
1184.008057762066
 20
2354.867032643557
 30
0.0
 11
1184.008057762066
 21
2289.867032643556
 31
0.0
  0
INSERT
  5
8732
330
85FE
100
AcDbEntity
  8
3
 62
     0
370
    -2
100
AcDbBlockReference
  2
_DotSmall
 10
1184.008057762066
 20
2354.867032643557
 30
0.0
 41
70.0
 42
70.0
 43
70.0
 50
270.0
  0
INSERT
  5
8733
330
85FE
100
AcDbEntity
  8
3
 62
     0
370
    -2
100
AcDbBlockReference
  2
_OPEN
 10
1184.008057762066
 20
2289.867032643556
 30
0.0
 41
70.0
 42
70.0
 43
70.0
 50
90.0
  0
POINT
  5
8734
330
85FE
100
AcDbEntity
  8
DEFPOINTS
 62
     0
100
AcDbPoint
 10
1888.21797163364
 20
2354.867032643557
 30
0.0
  0
POINT
  5
8735
330
85FE
100
AcDbEntity
  8
DEFPOINTS
 62
     0
100
AcDbPoint
 10
1888.21797163364
 20
2289.867032643556
 30
0.0
  0
POINT
  5
8736
330
85FE
100
AcDbEntity
  8
DEFPOINTS
 62
     0
100
AcDbPoint
 10
1184.008057762066
 20
2289.867032643556
 30
0.0
  0
ENDBLK
  5
8600
330
85FE
100
AcDbEntity
  8
0
100
AcDbBlockEnd
  0
BLOCK
  5
8611
330
8610
100
AcDbEntity
  8
0
100
AcDbBlockBegin
  2
*D60
 70
     1
 10
0.0
 20
0.0
 30
0.0
  3
*D60
  1

  0
LINE
  5
8657
330
8610
100
AcDbEntity
  8
3
 62
     0
370
    -2
100
AcDbLine
 10
1870.717971633641
 20
2289.867032643556
 30
0.0
 11
762.2060532734899
 21
2289.867032643556
 31
0.0
  0
LINE
  5
8658
330
8610
100
AcDbEntity
  8
3
 62
     0
370
    -2
100
AcDbLine
 10
2612.717971633641
 20
4619.867032643557
 30
0.0
 11
762.2060532734905
 21
4619.867032643557
 31
0.0
  0
LINE
  5
8659
330
8610
100
AcDbEntity
  8
3
 62
     0
370
    -2
100
AcDbLine
 10
797.20605327349
 20
2359.867032643556
 30
0.0
 11
797.2060532734905
 21
4549.867032643557
 31
0.0
  0
INSERT
  5
865A
330
8610
100
AcDbEntity
  8
3
 62
     0
370
    -2
100
AcDbBlockReference
  2
_OPEN
 10
797.2060532734899
 20
2289.867032643556
 30
0.0
 41
70.0
 42
70.0
 43
70.0
 50
270.0
  0
INSERT
  5
865B
330
8610
100
AcDbEntity
  8
3
 62
     0
370
    -2
100
AcDbBlockReference
  2
_OPEN
 10
797.2060532734905
 20
4619.867032643557
 30
0.0
 41
70.0
 42
70.0
 43
70.0
 50
90.0
  0
MTEXT
  5
865C
330
8610
100
AcDbEntity
  8
3
 62
     0
100
AcDbMText
 10
682.2060532734897
 20
3454.867032643557
 30
0.0
 40
105.0
 41
0.0
 71
     5
 72
     1
  1
\A1;(2330)
 11
0.0000000000000001
 21
1.0
 31
0.0
 73
     1
 44
1.0
1001
ACAD
1000
MTEXTBEGIN
1070
    73
1070
     1
1070
    44
1040
1.0
1070
    74
1070
     0
1000
MTEXTEND
  0
POINT
  5
865D
330
8610
100
AcDbEntity
  8
DEFPOINTS
 62
     0
100
AcDbPoint
 10
1888.21797163364
 20
2289.867032643556
 30
0.0
  0
POINT
  5
865E
330
8610
100
AcDbEntity
  8
DEFPOINTS
 62
     0
100
AcDbPoint
 10
2630.217971633641
 20
4619.867032643557
 30
0.0
  0
POINT
  5
865F
330
8610
100
AcDbEntity
  8
DEFPOINTS
 62
     0
100
AcDbPoint
 10
797.2060532734905
 20
4619.867032643557
 30
0.0
  0
ENDBLK
  5
8612
330
8610
100
AcDbEntity
  8
0
100
AcDbBlockEnd
  0
BLOCK
  5
86C3
330
86C1
100
AcDbEntity
  8
0
100
AcDbBlockBegin
  2
_DotSmall
 70
     0
 10
0.0
 20
0.0
 30
0.0
  3
_DotSmall
  1

  0
LWPOLYLINE
  5
86C2
330
86C1
100
AcDbEntity
  8
0
  6
ByBlock
 62
     0
100
AcDbPolyline
 90
        2
 70
     1
 43
0.5
 10
-0.0625
 20
0.0
 42
1.0
 10
0.0625
 20
0.0
 42
1.0
  0
ENDBLK
  5
86C4
330
86C1
100
AcDbEntity
  8
0
100
AcDbBlockEnd
  0
ENDSEC
  0
SECTION
  2
ENTITIES
  0
INSERT
  5
7C22
330
83D6
100
AcDbEntity
  8
0
100
AcDbBlockReference
  2
YA_N
 10
6.0
 20
5.0
 30
0.0
  0
LINE
  5
7C24
330
83D6
100
AcDbEntity
  8
2
100
AcDbLine
 10
1641.437320180664
 20
3814.867032643557
 30
0.0
 11
3614.592312747312
 21
3814.867032643557
 31
0.0
  0
LINE
  5
7C25
330
83D6
100
AcDbEntity
  8
2
100
AcDbLine
 10
2548.217971633641
 20
2354.867032643557
 30
0.0
 11
2548.217971633641
 21
4680.935226323958
 31
0.0
  0
LINE
  5
7C26
330
83D6
100
AcDbEntity
  8
1
100
AcDbLine
 10
1788.21797163364
 20
3819.867032643557
 30
0.0
 11
1788.21797163364
 21
2563.867032643557
 31
0.0
  0
LINE
  5
7C27
330
83D6
100
AcDbEntity
  8
1
100
AcDbLine
 10
1788.21797163364
 20
2563.867032643557
 30
0.0
 11
1792.217971633641
 21
2563.867032643557
 31
0.0
  0
LINE
  5
7C28
330
83D6
100
AcDbEntity
  8
1
100
AcDbLine
 10
1788.21797163364
 20
3819.867032643557
 30
0.0
 11
1792.217971633641
 21
3819.867032643557
 31
0.0
  0
LINE
  5
7C29
330
83D6
100
AcDbEntity
  8
1
100
AcDbLine
 10
1838.21797163364
 20
3766.867032643556
 30
0.0
 11
1838.217971633642
 21
2621.354120878995
 31
0.0
  0
LINE
  5
7C2A
330
83D6
100
AcDbEntity
  8
1
100
AcDbLine
 10
1792.217971633641
 20
3819.867032643557
 30
0.0
 11
1792.217971633641
 21
2563.867032643557
 31
0.0
  0
LINE
  5
7C2B
330
83D6
100
AcDbEntity
  8
1
100
AcDbLine
 10
1888.21797163364
 20
2459.867032643556
 30
0.0
 11
4148.21797163364
 21
2459.867032643556
 31
0.0
1001
ACAD
1000
ASC_BOUNDS
1002
{
1070
    19
1005
0
1002
}
  0
LINE
  5
7C2C
330
83D6
100
AcDbEntity
  8
1
100
AcDbLine
 10
1888.21797163364
 20
2584.867032643556
 30
0.0
 11
1888.21797163364
 21
2459.867032643556
 31
0.0
  0
LINE
  5
7C2D
330
83D6
100
AcDbEntity
  8
1
100
AcDbLine
 10
4148.21797163364
 20
2584.867032643556
 30
0.0
 11
4148.21797163364
 21
2459.867032643556
 31
0.0
  0
LINE
  5
7C2E
330
83D6
100
AcDbEntity
  8
1
100
AcDbLine
 10
1888.21797163364
 20
2584.867032643556
 30
0.0
 11
4148.21797163364
 21
2584.867032643556
 31
0.0
  0
ARC
  5
7C2F
330
83D6
100
AcDbEntity
  8
1
100
AcDbCircle
 10
2466.217971633641
 20
3732.867032643557
 30
0.0
 40
1051.0
100
AcDbArc
 50
274.4748178985337
 51
4.474817898533836
  0
ARC
  5
7C30
330
83D6
100
AcDbEntity
  8
1
100
AcDbCircle
 10
2630.217971633641
 20
3732.867032643557
 30
0.0
 40
887.0
100
AcDbArc
 50
5.304365207795823
 51
95.30436520779584
  0
ARC
  5
7C31
330
83D6
100
AcDbEntity
  8
1
100
AcDbCircle
 10
2616.717971633641
 20
3883.367032643556
 30
0.0
 40
736.5
100
AcDbArc
 50
95.33664832138349
 51
185.3366483213833
  0
LINE
  5
7C32
330
83D6
100
AcDbEntity
  8
1
100
AcDbLine
 10
1788.21797163364
 20
2616.867032643556
 30
0.0
 11
2548.217971633641
 21
2685.070773822214
 31
0.0
  0
LINE
  5
7C33
330
83D6
100
AcDbEntity
  8
1
100
AcDbLine
 10
1788.21797163364
 20
3766.867032643556
 30
0.0
 11
1881.944754402151
 21
3766.867032643556
 31
0.0
  0
LINE
  5
7C34
330
83D6
100
AcDbEntity
  8
2
100
AcDbLine
 10
3858.217971633641
 20
3158.725308799501
 30
0.0
 11
3858.21797163364
 21
2354.867032643557
 31
0.0
  0
LINE
  5
7C35
330
83D6
100
AcDbEntity
  8
2
100
AcDbLine
 10
3622.891676774662
 20
2844.867032643557
 30
0.0
 11
4122.3825976159
 21
2844.867032643557
 31
0.0
  0
LINE
  5
7C36
330
83D6
100
AcDbEntity
  8
1
100
AcDbLine
 10
4555.400400804151
 20
2459.867032643556
 30
0.0
 11
4620.400400804152
 21
2459.867032643556
 31
0.0
1001
ACAD
1000
ASC_BOUNDS
1002
{
1070
    19
1002
}
  0
LINE
  5
7C37
330
83D6
100
AcDbEntity
  8
1
100
AcDbLine
 10
4555.400400804152
 20
2584.867032643556
 30
0.0
 11
6455.40040080415
 21
2584.867032643556
 31
0.0
  0
LINE
  5
7C38
330
83D6
100
AcDbEntity
  8
1
100
AcDbLine
 10
4620.400400804153
 20
2459.867032643556
 30
0.0
 11
6455.40040080415
 21
2459.867032643556
 31
0.0
1001
ACAD
1000
ASC_BOUNDS
1002
{
1070
    19
1002
}
  0
LINE
  5
7C39
330
83D6
100
AcDbEntity
  8
2
100
AcDbLine
 10
4530.223650737053
 20
3814.867032643557
 30
0.0
 11
6562.388387880893
 21
3814.867032643557
 31
0.0
  0
LINE
  5
7C3A
330
83D6
100
AcDbEntity
  8
1
100
AcDbLine
 10
4552.400400804152
 20
4068.867032643557
 30
0.0
 11
4552.400400804152
 21
2726.867032643558
 31
0.0
  0
LINE
  5
7C3B
330
83D6
100
AcDbEntity
  8
1
100
AcDbLine
 10
4662.900400804153
 20
4068.867032643557
 30
0.0
 11
4662.900400804151
 21
2726.867032643558
 31
0.0
  0
LINE
  5
7C3C
330
83D6
100
AcDbEntity
  8
2
100
AcDbLine
 10
4531.481461585022
 20
2844.867032643557
 30
0.0
 11
5409.521147892139
 21
2844.867032643557
 31
0.0
  0
LINE
  5
7C3D
330
83D6
100
AcDbEntity
  8
1
100
AcDbLine
 10
4517.400400804151
 20
4194.867032643556
 30
0.0
 11
4517.400400804151
 21
2624.867032643557
 31
0.0
  0
LINE
  5
7C3E
330
83D6
100
AcDbEntity
  8
1
100
AcDbLine
 10
4714.700400804152
 20
4194.867032643556
 30
0.0
 11
4714.700400804151
 21
4174.867032643557
 31
0.0
  0
LINE
  5
7C3F
330
83D6
100
AcDbEntity
  8
2
100
AcDbLine
 10
2548.217971633641
 20
7559.114361450955
 30
0.0
 11
2548.217971633641
 21
5716.535950910814
 31
0.0
  0
LINE
  5
7C40
330
83D6
100
AcDbEntity
  8
2
100
AcDbLine
 10
1701.872858290997
 20
6875.481934815962
 30
0.0
 11
3638.135409496288
 21
6875.481934815962
 31
0.0
  0
LINE
  5
7C41
330
83D6
100
AcDbEntity
  8
2
100
AcDbLine
 10
5637.400400804152
 20
4829.049358809385
 30
0.0
 11
5637.400400804152
 21
2289.867032643556
 31
0.0
  0
POINT
  5
7C42
330
83D6
100
AcDbEntity
  8
1
100
AcDbPoint
 10
1747.01640913502
 20
3814.867032643557
 30
0.0
  0
INSERT
  5
7C43
330
83D6
100
AcDbEntity
  8
0
100
AcDbBlockReference
  2
YA_N
 10
-1074.779326041182
 20
-1311.669320613289
 30
0.0
 41
25.0
 42
25.0
 43
25.0
  0
LINE
  5
7C45
330
83D6
100
AcDbEntity
  8
1
100
AcDbLine
 10
1888.21797163364
 20
2354.867032643557
 30
0.0
 11
4148.21797163364
 21
2354.867032643557
 31
0.0
1001
ACAD
1000
ASC_BOUNDS
1002
{
1070
    19
1005
0
1002
}
  0
LINE
  5
7C46
330
83D6
100
AcDbEntity
  8
1
100
AcDbLine
 10
1888.21797163364
 20
2354.867032643557
 30
0.0
 11
1888.21797163364
 21
2289.867032643556
 31
0.0
  0
LINE
  5
7C47
330
83D6
100
AcDbEntity
  8
1
100
AcDbLine
 10
4148.21797163364
 20
2354.867032643557
 30
0.0
 11
4148.21797163364
 21
2289.867032643556
 31
0.0
  0
LINE
  5
7C48
330
83D6
100
AcDbEntity
  8
1
100
AcDbLine
 10
1888.21797163364
 20
2289.867032643556
 30
0.0
 11
4148.21797163364
 21
2289.867032643556
 31
0.0
1001
ACAD
1000
ASC_BOUNDS
1002
{
1070
    19
1002
}
  0
LINE
  5
7C49
330
83D6
100
AcDbEntity
  8
1
100
AcDbLine
 10
4557.900400804153
 20
2354.867032643557
 30
0.0
 11
6455.400400804153
 21
2354.867032643557
 31
0.0
1001
ACAD
1000
ASC_BOUNDS
1002
{
1070
    19
1002
}
  0
LINE
  5
7C4A
330
83D6
100
AcDbEntity
  8
1
100
AcDbLine
 10
4555.400400804152
 20
2354.867032643557
 30
0.0
 11
4555.400400804141
 21
2289.867032643556
 31
0.0
  0
LINE
  5
7C4B
330
83D6
100
AcDbEntity
  8
1
100
AcDbLine
 10
4555.40040080414
 20
2289.867032643556
 30
0.0
 11
6455.400400804132
 21
2289.867032643556
 31
0.0
  0
INSERT
  5
7C4C
330
83D6
100
AcDbEntity
  8
0
100
AcDbBlockReference
  2
YA_N
 10
-346.9416476423939
 20
-375.8074592043958
 30
0.0
 41
25.0
 42
25.0
 43
25.0
  0
ARC
  5
7C51
330
83D6
100
AcDbEntity
  8
1
100
AcDbCircle
 10
3858.217971633641
 20
2844.867032643557
 30
0.0
 40
203.5
100
AcDbArc
 50
285.60376
 51
254.396301
  0
LINE
  5
7C52
330
83D6
100
AcDbEntity
  8
1
100
AcDbLine
 10
3912.956008633641
 20
2648.867032643556
 30
0.0
 11
3803.47993463364
 21
2648.867032643556
 31
0.0
  0
ARC
  5
7C53
330
83D6
100
AcDbEntity
  8
1
100
AcDbCircle
 10
3672.217971633641
 20
2661.867032643556
 30
0.0
 40
3.0
100
AcDbArc
 50
90.0
 51
180.0
  0
ARC
  5
7C54
330
83D6
100
AcDbEntity
  8
1
100
AcDbCircle
 10
3674.217971633641
 20
2719.193693643557
 30
0.0
 40
5.000066999999999
100
AcDbArc
 50
124.943665
 51
180.0
  0
LINE
  5
7C55
330
83D6
100
AcDbEntity
  8
1
100
AcDbLine
 10
3669.217971633641
 20
2719.193693643557
 30
0.0
 11
3669.217971633641
 21
2644.867032643556
 31
0.0
  0
LINE
  5
7C59
330
83D6
100
AcDbEntity
  8
1
100
AcDbLine
 10
3754.11540163364
 20
2670.010221643557
 30
0.0
 11
3748.717971633641
 21
2649.867032643558
 31
0.0
  0
LINE
  5
7C5A
330
83D6
100
AcDbEntity
  8
1
100
AcDbLine
 10
3748.717971633641
 20
2661.867032643556
 30
0.0
 11
3748.717971633641
 21
2644.867032643556
 31
0.0
  0
LINE
  5
7C5B
330
83D6
100
AcDbEntity
  8
1
100
AcDbLine
 10
3745.717971633641
 20
2664.867032643556
 30
0.0
 11
3672.217971633641
 21
2664.867032643556
 31
0.0
  0
ARC
  5
7C5C
330
83D6
100
AcDbEntity
  8
1
100
AcDbCircle
 10
3745.717971633641
 20
2661.867032643556
 30
0.0
 40
3.0
100
AcDbArc
 50
0.0
 51
90.0
  0
LINE
  5
7C5D
330
83D6
100
AcDbEntity
  8
1
100
AcDbLine
 10
3671.354201633641
 20
2723.292325643557
 30
0.0
 11
3687.292067633641
 21
2734.428800643556
 31
0.0
  0
LINE
  5
7C5E
330
83D6
100
AcDbEntity
  8
1
100
AcDbLine
 10
4047.217971633641
 20
2719.193693643557
 30
0.0
 11
4047.217971633641
 21
2644.867032643556
 31
0.0
  0
LINE
  5
7C62
330
83D6
100
AcDbEntity
  8
1
100
AcDbLine
 10
3962.32075463364
 20
2670.010343643556
 30
0.0
 11
3967.717971633641
 21
2649.867032643558
 31
0.0
  0
LINE
  5
7C63
330
83D6
100
AcDbEntity
  8
1
100
AcDbLine
 10
3967.717971633641
 20
2661.867032643556
 30
0.0
 11
3967.717971633641
 21
2644.867032643556
 31
0.0
  0
LINE
  5
7C64
330
83D6
100
AcDbEntity
  8
1
100
AcDbLine
 10
3970.717971633641
 20
2664.867032643556
 30
0.0
 11
4044.217971633641
 21
2664.867032643556
 31
0.0
  0
ARC
  5
7C65
330
83D6
100
AcDbEntity
  8
1
100
AcDbCircle
 10
3970.717971633641
 20
2661.867032643556
 30
0.0
 40
3.0
100
AcDbArc
 50
90.0
 51
180.0
  0
ARC
  5
7C66
330
83D6
100
AcDbEntity
  8
1
100
AcDbCircle
 10
4044.217971633641
 20
2661.867032643556
 30
0.0
 40
3.0
100
AcDbArc
 50
0.0
 51
90.0
  0
LINE
  5
7C67
330
83D6
100
AcDbEntity
  8
1
100
AcDbLine
 10
4045.081862633639
 20
2723.292325643557
 30
0.0
 11
4029.14399663364
 21
2734.428800643556
 31
0.0
  0
ARC
  5
7C68
330
83D6
100
AcDbEntity
  8
1
100
AcDbCircle
 10
4042.217971633641
 20
2719.193693643557
 30
0.0
 40
5.0
100
AcDbArc
 50
0.0
 51
55.05633899999998
  0
LINE
  5
7C69
330
83D6
100
AcDbEntity
  8
1
100
AcDbLine
 10
3614.155715585552
 20
2644.867032643556
 30
0.0
 11
3788.217971633641
 21
2644.867032643556
 31
0.0
  0
LINE
  5
7C6A
330
83D6
100
AcDbEntity
  8
1
100
AcDbLine
 10
3598.217971633639
 20
2584.867032643556
 30
0.0
 11
3614.155715585552
 21
2644.867032643556
 31
0.0
  0
LINE
  5
7C6B
330
83D6
100
AcDbEntity
  8
1
100
AcDbLine
 10
4118.217971633638
 20
2584.867032643556
 30
0.0
 11
4102.232961727276
 21
2644.867032643556
 31
0.0
  0
LINE
  5
7C6D
330
83D6
100
AcDbEntity
  8
1
100
AcDbLine
 10
3788.217971633641
 20
2634.867032643557
 30
0.0
 11
3928.217971633641
 21
2634.867032643557
 31
0.0
  0
LINE
  5
7C6E
330
83D6
100
AcDbEntity
  8
1
100
AcDbLine
 10
3928.217971633641
 20
2644.867032643556
 30
0.0
 11
3928.217971633639
 21
2634.867032643557
 31
0.0
  0
LINE
  5
7C6F
330
83D6
100
AcDbEntity
  8
1
100
AcDbLine
 10
3788.217971633641
 20
2644.867032643556
 30
0.0
 11
3788.217971633641
 21
2634.867032643557
 31
0.0
  0
LINE
  5
7C72
330
83D6
100
AcDbEntity
  8
1
100
AcDbLine
 10
3928.217971633641
 20
2644.867032643556
 30
0.0
 11
4102.232961727276
 21
2644.867032643556
 31
0.0
  0
CIRCLE
  5
7C73
330
83D6
100
AcDbEntity
  8
1
100
AcDbCircle
 10
3858.217971633641
 20
2844.867032643557
 30
0.0
 40
118.0
  0
LINE
  5
7C74
330
83D6
100
AcDbEntity
  8
1
100
AcDbLine
 10
4552.400400804152
 20
2962.867032643556
 30
0.0
 11
4662.900400804152
 21
2962.867032643556
 31
0.0
  0
LINE
  5
7C75
330
83D6
100
AcDbEntity
  8
1
100
AcDbLine
 10
4552.400400804152
 20
2726.867032643558
 30
0.0
 11
4662.900400804152
 21
2726.867032643558
 31
0.0
  0
LINE
  5
7C76
330
83D6
100
AcDbEntity
  8
1
100
AcDbLine
 10
4517.400400804151
 20
2624.867032643557
 30
0.0
 11
4714.700400804152
 21
2624.867032643557
 31
0.0
  0
INSERT
  5
7C78
330
83D6
100
AcDbEntity
  8
0
100
AcDbBlockReference
  2
YA_N
 10
-394.4722692372305
 20
-430.898429998433
 30
0.0
 41
25.0
 42
25.0
 43
25.0
  0
LINE
  5
7C7B
330
83D6
100
AcDbEntity
  8
1
100
AcDbLine
 10
6387.40040080415
 20
2616.867032643556
 30
0.0
 11
6387.400400804153
 21
3814.867032643557
 31
0.0
  0
LINE
  5
7C7C
330
83D6
100
AcDbEntity
  8
1
100
AcDbLine
 10
4887.400400804152
 20
4619.867032643557
 30
0.0
 11
6387.400400804152
 21
4619.867032643557
 31
0.0
  0
LINE
  5
7C7D
330
83D6
100
AcDbEntity
  8
1
100
AcDbLine
 10
4887.400400804152
 20
3814.867032643557
 30
0.0
 11
4887.400400804152
 21
4619.867032643557
 31
0.0
  0
LINE
  5
7C7E
330
83D6
100
AcDbEntity
  8
1
100
AcDbLine
 10
6387.400400804152
 20
3814.867032643557
 30
0.0
 11
6387.400400804152
 21
4619.867032643557
 31
0.0
  0
LINE
  5
7C7F
330
83D6
100
AcDbEntity
  8
1
100
AcDbLine
 10
4729.900400804151
 20
3751.867032643556
 30
0.0
 11
4820.100400804152
 21
3751.867032643556
 31
0.0
  0
LINE
  5
7C80
330
83D6
100
AcDbEntity
  8
1
100
AcDbLine
 10
4719.900400804151
 20
3741.867032643556
 30
0.0
 11
4719.900400804151
 21
3611.867032643557
 31
0.0
  0
LINE
  5
7C81
330
83D6
100
AcDbEntity
  8
1
100
AcDbLine
 10
4859.900400804151
 20
3751.867032643556
 30
0.0
 11
4859.90040080415
 21
3601.867032643556
 31
0.0
  0
LINE
  5
7C82
330
83D6
100
AcDbEntity
  8
1
100
AcDbLine
 10
4729.900400804151
 20
3601.867032643556
 30
0.0
 11
4820.100400804152
 21
3601.867032643556
 31
0.0
  0
ARC
  5
7C83
330
83D6
100
AcDbEntity
  8
1
100
AcDbCircle
 10
4729.900400804151
 20
3741.867032643556
 30
0.0
 40
10.0
100
AcDbArc
 50
90.0
 51
180.0
  0
ARC
  5
7C84
330
83D6
100
AcDbEntity
  8
1
100
AcDbCircle
 10
4729.900400804151
 20
3611.867032643557
 30
0.0
 40
10.0
100
AcDbArc
 50
180.0
 51
270.0
  0
LINE
  5
7C85
330
83D6
100
AcDbEntity
  8
1
100
AcDbLine
 10
6414.90040080415
 20
3751.867032643556
 30
0.0
 11
6414.90040080415
 21
3601.867032643556
 31
0.0
  0
LINE
  5
7C86
330
83D6
100
AcDbEntity
  8
1
100
AcDbLine
 10
6567.40040080415
 20
3741.867032643556
 30
0.0
 11
6567.40040080415
 21
3611.867032643557
 31
0.0
  0
LINE
  5
7C87
330
83D6
100
AcDbEntity
  8
1
100
AcDbLine
 10
6557.40040080415
 20
3601.867032643556
 30
0.0
 11
6454.700400804154
 21
3601.867032643556
 31
0.0
  0
ARC
  5
7C88
330
83D6
100
AcDbEntity
  8
1
100
AcDbCircle
 10
6557.40040080415
 20
3611.867032643557
 30
0.0
 40
10.0
100
AcDbArc
 50
270.0
 51
0.0
  0
LINE
  5
7C89
330
83D6
100
AcDbEntity
  8
1
100
AcDbLine
 10
6557.40040080415
 20
3751.867032643556
 30
0.0
 11
6454.700400804154
 21
3751.867032643556
 31
0.0
  0
ARC
  5
7C8A
330
83D6
100
AcDbEntity
  8
1
100
AcDbCircle
 10
6557.40040080415
 20
3741.867032643556
 30
0.0
 40
10.0
100
AcDbArc
 50
0.0
 51
90.0
  0
LINE
  5
7C8B
330
83D6
100
AcDbEntity
  8
1
100
AcDbLine
 10
4692.400400804151
 20
3854.867032643557
 30
0.0
 11
4887.400400804151
 21
3854.867032643557
 31
0.0
  0
LINE
  5
7C8C
330
83D6
100
AcDbEntity
  8
1
100
AcDbLine
 10
4692.400400804152
 20
3774.867032643556
 30
0.0
 11
4887.400400804153
 21
3774.867032643556
 31
0.0
  0
LINE
  5
7C8D
330
83D6
100
AcDbEntity
  8
1
100
AcDbLine
 10
4692.400400804152
 20
3854.867032643557
 30
0.0
 11
4692.400400804152
 21
3774.867032643556
 31
0.0
  0
LINE
  5
7C8E
330
83D6
100
AcDbEntity
  8
1
100
AcDbLine
 10
4662.900400804153
 20
3847.367032643557
 30
0.0
 11
4692.400400804152
 21
3847.367032643557
 31
0.0
  0
LINE
  5
7C8F
330
83D6
100
AcDbEntity
  8
1
100
AcDbLine
 10
4662.900400804152
 20
3782.367032643558
 30
0.0
 11
4692.400400804152
 21
3782.367032643558
 31
0.0
  0
LINE
  5
7C94
330
83D6
100
AcDbEntity
  8
1
100
AcDbLine
 10
6454.700400804153
 20
3751.867032643556
 30
0.0
 11
6414.90040080415
 21
3751.867032643556
 31
0.0
  0
LINE
  5
7C95
330
83D6
100
AcDbEntity
  8
1
100
AcDbLine
 10
6454.700400804154
 20
3601.867032643556
 30
0.0
 11
6414.90040080415
 21
3601.867032643556
 31
0.0
  0
LINE
  5
7C96
330
83D6
100
AcDbEntity
  8
1
100
AcDbLine
 10
4820.100400804152
 20
3751.867032643556
 30
0.0
 11
4859.900400804151
 21
3751.867032643556
 31
0.0
  0
LINE
  5
7C97
330
83D6
100
AcDbEntity
  8
1
100
AcDbLine
 10
4820.100400804152
 20
3601.867032643556
 30
0.0
 11
4859.900400804151
 21
3601.867032643556
 31
0.0
  0
ARC
  5
7C99
330
83D6
100
AcDbEntity
  8
1
100
AcDbCircle
 10
2548.217971633641
 20
3814.867032643557
 30
0.0
 40
668.0
100
AcDbArc
 50
180.0
 51
184.12061321395
  0
LINE
  5
7C9B
330
83D6
100
AcDbEntity
  8
1
100
AcDbLine
 10
6455.40040080415
 20
2584.867032643558
 30
0.0
 11
6455.40040080415
 21
2459.867032643556
 31
0.0
  0
LINE
  5
7C9C
330
83D6
100
AcDbEntity
  8
1
100
AcDbLine
 10
4555.400400804152
 20
2584.867032643556
 30
0.0
 11
4555.400400804152
 21
2459.867032643556
 31
0.0
  0
LINE
  5
7C9D
330
83D6
100
AcDbEntity
  8
1
100
AcDbLine
 10
6455.400400804153
 20
2354.86703264356
 30
0.0
 11
6455.400400804132
 21
2289.867032643556
 31
0.0
  0
INSERT
  5
7C9F
330
83D6
100
AcDbEntity
  8
0
100
AcDbBlockReference
  2
YA_N
 10
4305.350442567148
 20
-1988.400780944633
 30
0.0
  0
POINT
  5
7CA1
330
83D6
100
AcDbEntity
  8
1
100
AcDbPoint
 10
1888.21797163364
 20
2354.867032643557
 30
0.0
  0
POINT
  5
7CA3
330
83D6
100
AcDbEntity
  8
1
100
AcDbPoint
 10
1888.21797163364
 20
2354.867032643557
 30
0.0
  0
POINT
  5
7CA4
330
83D6
100
AcDbEntity
  8
1
100
AcDbPoint
 10
1888.21797163364
 20
2459.867032643556
 30
0.0
  0
ARC
  5
7CA7
330
83D6
100
AcDbEntity
  8
1
100
AcDbCircle
 10
2548.217971633641
 20
3814.867032643557
 30
0.0
 40
380.0
100
AcDbArc
 50
43.48529361421837
 51
239.1146961056485
  0
CIRCLE
  5
7CA8
330
83D6
100
AcDbEntity
  8
1
100
AcDbCircle
 10
2548.217971633641
 20
3814.867032643557
 30
0.0
 40
254.0
  0
ARC
  5
7CA9
330
83D6
100
AcDbEntity
  8
1
100
AcDbCircle
 10
3858.21797163364
 20
2844.867032643557
 30
0.0
 40
220.0
100
AcDbArc
 50
239.1146961056485
 51
47.84851548241022
  0
LINE
  5
7CAA
330
83D6
100
AcDbEntity
  8
1
100
AcDbLine
 10
4552.400400804152
 20
4068.867032643557
 30
0.0
 11
4662.900400804153
 21
4068.867032643557
 31
0.0
  0
LINE
  5
7CAB
330
83D6
100
AcDbEntity
  8
1
100
AcDbLine
 10
4552.400400804152
 20
3560.867032643556
 30
0.0
 11
4662.900400804152
 21
3560.867032643556
 31
0.0
  0
LINE
  5
7CAC
330
83D6
100
AcDbEntity
  8
1
100
AcDbLine
 10
4517.400400804151
 20
4194.867032643556
 30
0.0
 11
4714.700400804152
 21
4194.867032643556
 31
0.0
  0
LINE
  5
7CAD
330
83D6
100
AcDbEntity
  8
1
100
AcDbLine
 10
4714.700400804151
 20
2644.867032643556
 30
0.0
 11
4714.700400804152
 21
2624.867032643557
 31
0.0
  0
LINE
  5
7CAF
330
83D6
100
AcDbEntity
  8
1
100
AcDbLine
 10
1888.21797163364
 20
7693.481934815962
 30
0.0
 11
3208.217971633641
 21
7693.481934815962
 31
0.0
  0
LINE
  5
7CB0
330
83D6
100
AcDbEntity
  8
1
100
AcDbLine
 10
1888.21797163364
 20
5793.481934815962
 30
0.0
 11
4148.21797163364
 21
5793.481934815962
 31
0.0
  0
LINE
  5
7CB1
330
83D6
100
AcDbEntity
  8
1
100
AcDbLine
 10
1888.21797163364
 20
7693.481934815962
 30
0.0
 11
1888.21797163364
 21
7625.481934815962
 31
0.0
  0
LINE
  5
7CB2
330
83D6
100
AcDbEntity
  8
1
100
AcDbLine
 10
4148.21797163364
 20
6693.481934815962
 30
0.0
 11
4148.21797163364
 21
5793.481934815961
 31
0.0
  0
LINE
  5
7CB3
330
83D6
100
AcDbEntity
  8
1
100
AcDbLine
 10
3208.217971633641
 20
7693.481934815962
 30
0.0
 11
3208.217971633641
 21
7625.481934815962
 31
0.0
  0
LINE
  5
7CB4
330
83D6
100
AcDbEntity
  8
1
100
AcDbLine
 10
3517.217971633641
 20
6693.48193481596
 30
0.0
 11
4148.21797163364
 21
6693.481934815962
 31
0.0
  0
LINE
  5
7CB5
330
83D6
100
AcDbEntity
  8
2
100
AcDbLine
 10
3858.217971633641
 20
6561.204511974287
 30
0.0
 11
3858.217971633639
 21
5716.535950910814
 31
0.0
  0
CIRCLE
  5
7CBE
330
83D6
100
AcDbEntity
  8
1
100
AcDbCircle
 10
2548.217971633641
 20
3814.867032643557
 30
0.0
 40
560.0
  0
CIRCLE
  5
7CBF
330
83D6
100
AcDbEntity
  8
1
100
AcDbCircle
 10
2548.217971633641
 20
3814.867032643557
 30
0.0
 40
610.0
  0
LINE
  5
7CC0
330
83D6
100
AcDbEntity
  8
1
100
AcDbLine
 10
2168.21797163364
 20
5755.481934815962
 30
0.0
 11
4078.21797163364
 21
5755.481934815962
 31
0.0
  0
LINE
  5
7CC1
330
83D6
100
AcDbEntity
  8
1
100
AcDbLine
 10
2168.21797163364
 20
5925.481934815962
 30
0.0
 11
4078.21797163364
 21
5925.481934815962
 31
0.0
  0
LINE
  5
7CC2
330
83D6
100
AcDbEntity
  8
1
100
AcDbLine
 10
2168.217971633641
 20
5755.481934815962
 30
0.0
 11
2168.21797163364
 21
5925.481934815962
 31
0.0
  0
LINE
  5
7CC3
330
83D6
100
AcDbEntity
  8
1
100
AcDbLine
 10
4078.21797163364
 20
5755.481934815962
 30
0.0
 11
4078.21797163364
 21
5925.481934815962
 31
0.0
  0
LINE
  5
7CC4
330
83D6
100
AcDbEntity
  8
1
100
AcDbLine
 10
2294.217971633641
 20
5793.18193481596
 30
0.0
 11
2294.217971633641
 21
5903.681934815961
 31
0.0
  0
LINE
  5
7CC5
330
83D6
100
AcDbEntity
  8
1
100
AcDbLine
 10
2802.217971633641
 20
5793.18193481596
 30
0.0
 11
2802.217971633641
 21
5903.681934815961
 31
0.0
  0
LINE
  5
7CC6
330
83D6
100
AcDbEntity
  8
1
100
AcDbLine
 10
3740.217971633641
 20
5793.181934815961
 30
0.0
 11
3740.217971633641
 21
5903.681934815961
 31
0.0
  0
LINE
  5
7CC7
330
83D6
100
AcDbEntity
  8
1
100
AcDbLine
 10
3976.217971633641
 20
5793.18193481596
 30
0.0
 11
3976.217971633641
 21
5903.681934815961
 31
0.0
  0
LINE
  5
7CC8
330
83D6
100
AcDbEntity
  8
1
100
AcDbLine
 10
2294.217971633641
 20
5793.181934815961
 30
0.0
 11
2802.21797163364
 21
5793.181934815961
 31
0.0
  0
LINE
  5
7CC9
330
83D6
100
AcDbEntity
  8
1
100
AcDbLine
 10
2294.217971633641
 20
5903.681934815961
 30
0.0
 11
2802.217971633641
 21
5903.681934815961
 31
0.0
  0
LINE
  5
7CCA
330
83D6
100
AcDbEntity
  8
1
100
AcDbLine
 10
3740.217971633641
 20
5903.681934815961
 30
0.0
 11
3976.217971633641
 21
5903.681934815961
 31
0.0
  0
LINE
  5
7CCB
330
83D6
100
AcDbEntity
  8
1
100
AcDbLine
 10
3740.217971633641
 20
5793.181934815961
 30
0.0
 11
3976.217971633641
 21
5793.18193481596
 31
0.0
  0
LINE
  5
7CCC
330
83D6
100
AcDbEntity
  8
1
100
AcDbLine
 10
1788.21797163364
 20
7675.481934815961
 30
0.0
 11
1788.21797163364
 21
6075.481934815961
 31
0.0
  0
LINE
  5
7CCD
330
83D6
100
AcDbEntity
  8
1
100
AcDbLine
 10
3517.217971633641
 20
7625.481934815962
 30
0.0
 11
3517.217971633641
 21
6125.481934815962
 31
0.0
  0
LINE
  5
7CCE
330
83D6
100
AcDbEntity
  8
1
100
AcDbLine
 10
1788.21797163364
 20
7625.481934815962
 30
0.0
 11
3517.217971633641
 21
7625.481934815962
 31
0.0
  0
LINE
  5
7CCF
330
83D6
100
AcDbEntity
  8
1
100
AcDbLine
 10
1788.21797163364
 20
6125.481934815961
 30
0.0
 11
3517.217971633641
 21
6125.481934815962
 31
0.0
  0
LINE
  5
7CD0
330
83D6
100
AcDbEntity
  8
1
100
AcDbLine
 10
1788.21797163364
 20
7675.481934815961
 30
0.0
 11
1792.217971633641
 21
7675.481934815961
 31
0.0
  0
LINE
  5
7CD1
330
83D6
100
AcDbEntity
  8
1
100
AcDbLine
 10
1788.21797163364
 20
6075.481934815961
 30
0.0
 11
1792.217971633641
 21
6075.481934815961
 31
0.0
  0
LINE
  5
7CD2
330
83D6
100
AcDbEntity
  8
1
100
AcDbLine
 10
1792.217971633641
 20
7675.481934815961
 30
0.0
 11
1792.217971633641
 21
6075.481934815961
 31
0.0
  0
LINE
  5
7CD3
330
83D6
100
AcDbEntity
  8
1
100
AcDbLine
 10
2513.217971633641
 20
6125.481934815962
 30
0.0
 11
2513.217971633641
 21
5903.681934815961
 31
0.0
  0
LINE
  5
7CD4
330
83D6
100
AcDbEntity
  8
1
100
AcDbLine
 10
2583.217971633641
 20
6125.481934815962
 30
0.0
 11
2583.217971633641
 21
5903.681934815961
 31
0.0
  0
LINE
  5
7CD5
330
83D6
100
AcDbEntity
  8
1
100
AcDbLine
 10
3659.217971633641
 20
6595.681934815961
 30
0.0
 11
3659.217971633639
 21
5938.181934815961
 31
0.0
  0
LINE
  5
7CD6
330
83D6
100
AcDbEntity
  8
1
100
AcDbLine
 10
4057.217971633639
 20
6595.68193481596
 30
0.0
 11
4057.217971633639
 21
5938.181934815959
 31
0.0
  0
LINE
  5
7CD7
330
83D6
100
AcDbEntity
  8
1
100
AcDbLine
 10
3659.217971633641
 20
6595.681934815961
 30
0.0
 11
4057.21797163364
 21
6595.68193481596
 31
0.0
  0
LINE
  5
7CD8
330
83D6
100
AcDbEntity
  8
1
100
AcDbLine
 10
3659.217971633637
 20
5938.181934815961
 30
0.0
 11
4057.217971633638
 21
5938.181934815959
 31
0.0
  0
LINE
  5
7CD9
330
83D6
100
AcDbEntity
  8
1
100
AcDbLine
 10
3830.71797163364
 20
5938.181934815959
 30
0.0
 11
3830.71797163364
 21
5903.681934815961
 31
0.0
  0
LINE
  5
7CDA
330
83D6
100
AcDbEntity
  8
1
100
AcDbLine
 10
3885.717971633639
 20
5938.181934815959
 30
0.0
 11
3885.717971633639
 21
5903.681934815961
 31
0.0
  0
LINE
  5
7CDB
330
83D6
100
AcDbEntity
  8
1
100
AcDbLine
 10
5354.900400804149
 20
3043.867032643558
 30
0.0
 11
4697.40040080415
 21
3043.867032643558
 31
0.0
  0
LINE
  5
7CDC
330
83D6
100
AcDbEntity
  8
1
100
AcDbLine
 10
5354.900400804153
 20
2645.867032643558
 30
0.0
 11
4697.400400804153
 21
2645.867032643558
 31
0.0
  0
LINE
  5
7CDD
330
83D6
100
AcDbEntity
  8
1
100
AcDbLine
 10
4697.400400804153
 20
2645.867032643556
 30
0.0
 11
4697.400400804151
 21
3043.867032643556
 31
0.0
  0
LINE
  5
7CDE
330
83D6
100
AcDbEntity
  8
1
100
AcDbLine
 10
4697.400400804151
 20
2817.367032643558
 30
0.0
 11
4662.900400804152
 21
2817.367032643558
 31
0.0
  0
LINE
  5
7CDF
330
83D6
100
AcDbEntity
  8
1
100
AcDbLine
 10
4697.400400804151
 20
2872.367032643558
 30
0.0
 11
4662.900400804152
 21
2872.367032643558
 31
0.0
  0
LINE
  5
7CED
330
83D6
100
AcDbEntity
  8
1
100
AcDbLine
 10
2803.233337725091
 20
4096.588815715515
 30
0.0
 11
4005.858446739217
 21
3007.969117579953
 31
0.0
  0
LINE
  5
7CEE
330
83D6
100
AcDbEntity
  8
1
100
AcDbLine
 10
2353.155936366428
 20
3488.752325220827
 30
0.0
 11
3745.287319636833
 21
2656.063780977765
 31
0.0
  0
LINE
  5
7CEF
330
83D6
100
AcDbEntity
  8
1
100
AcDbLine
 10
2715.872964603492
 20
4005.675322118303
 30
0.0
 11
3936.104936871604
 21
2933.510253738124
 31
0.0
  0
LINE
  5
7CF0
330
83D6
100
AcDbEntity
  8
1
100
AcDbLine
 10
2414.625936887349
 20
3598.836552728462
 30
0.0
 11
3796.155530294814
 21
2744.506415990088
 31
0.0
  0
LINE
  5
7CF1
330
83D6
100
AcDbEntity
  8
1
100
AcDbLine
 10
5290.166101963095
 20
2616.867032643556
 30
0.0
 11
6387.40040080415
 21
2616.867032643556
 31
0.0
  0
LINE
  5
7CF5
330
83D6
100
AcDbEntity
  8
1
100
AcDbLine
 10
1888.21797163364
 20
6125.481934815961
 30
0.0
 11
1888.21797163364
 21
5793.481934815962
 31
0.0
  0
LINE
  5
7CF6
330
83D6
100
AcDbEntity
  8
1
100
AcDbLine
 10
5354.900400804153
 20
2645.867032643559
 30
0.0
 11
5354.900400804151
 21
3043.867032643559
 31
0.0
  0
LINE
  5
7CF7
330
83D6
100
AcDbEntity
  8
1
100
AcDbLine
 10
4887.400400804152
 20
3043.867032643558
 30
0.0
 11
4887.400400804153
 21
3814.867032643557
 31
0.0
  0
LINE
  5
7CF8
330
83D6
100
AcDbEntity
  8
1
100
AcDbLine
 10
5290.166101963095
 20
2645.867032643558
 30
0.0
 11
5290.166101963095
 21
2584.867032643556
 31
0.0
  0
LINE
  5
7CF9
330
83D6
100
AcDbEntity
  8
1
100
AcDbLine
 10
4784.467551281657
 20
2645.867032643558
 30
0.0
 11
4784.467551281657
 21
2584.867032643556
 31
0.0
  0
LINE
  5
7F3B
330
83D6
100
AcDbEntity
  8
4
100
AcDbLine
 10
6475.0
 20
1750.0
 30
0.0
 11
6475.0
 21
1050.0
 31
0.0
  0
LINE
  5
7F3C
330
83D6
100
AcDbEntity
  8
4
100
AcDbLine
 10
4025.0
 20
1750.0
 30
0.0
 11
4025.0
 21
1050.0
 31
0.0
  0
LINE
  5
7F3D
330
83D6
100
AcDbEntity
  8
4
100
AcDbLine
 10
2275.0
 20
1750.0
 30
0.0
 11
2275.0
 21
1050.0
 31
0.0
  0
LINE
  5
7F40
330
83D6
100
AcDbEntity
  8
4
100
AcDbLine
 10
2275.0
 20
1050.0
 30
0.0
 11
6475.0
 21
1050.0
 31
0.0
  0
LINE
  5
7F41
330
83D6
100
AcDbEntity
  8
4
100
AcDbLine
 10
2275.0
 20
1400.0
 30
0.0
 11
6475.0
 21
1400.0
 31
0.0
  0
TEXT
  5
7F42
330
83D6
100
AcDbEntity
  8
4
100
AcDbText
 10
2409.757282964156
 20
1510.400590533145
 30
0.0
 40
175.0
  1
機器名称
100
AcDbText
  0
TEXT
  5
7F43
330
83D6
100
AcDbEntity
  8
4
100
AcDbText
 10
2401.903371086791
 20
1125.758048562038
 30
0.0
 40
175.0
  1
機器型番
100
AcDbText
  0
TEXT
  5
7F44
330
83D6
100
AcDbEntity
  8
4
100
AcDbText
 10
4121.875609206827
 20
1479.00119135149
 30
0.0
 40
175.0
  1
ミツヤ多翼送風機
100
AcDbText
  0
TEXT
  5
7F45
330
83D6
100
AcDbEntity
  8
4
100
AcDbText
 10
4153.290734549183
 20
1110.058544979801
 30
0.0
 40
175.0
  1
MF#7-5
100
AcDbText
  0
TEXT
  5
7F47
330
83D6
100
AcDbEntity
  8
4
100
AcDbText
 10
2871.045700049421
 20
8342.000944663805
 30
0.0
 40
188.9999999999998
  1
床置防振ベット
100
AcDbText
  0
TEXT
  5
7F48
330
83D6
100
AcDbEntity
  8
4
100
AcDbText
 10
1106.586576653062
 20
8868.583416697545
 30
0.0
 40
252.0
  1
遠心式両吸込両持多翼ファン
100
AcDbText
  0
LINE
  5
7F49
330
83D6
100
AcDbEntity
  8
4
100
AcDbLine
 10
875.0
 20
8642.930639926817
 30
0.0
 11
6475.0
 21
8642.930639926817
 31
0.0
  0
LINE
  5
7F4A
330
83D6
100
AcDbEntity
  8
4
100
AcDbLine
 10
875.0
 20
9342.930639926818
 30
0.0
 11
6475.0
 21
9342.930639926818
 31
0.0
  0
LINE
  5
7F4B
330
83D6
100
AcDbEntity
  8
4
100
AcDbLine
 10
2275.0
 20
1750.0
 30
0.0
 11
6475.0
 21
1750.0
 31
0.0
  0
LINE
  5
7F4C
330
83D6
100
AcDbEntity
  8
4
100
AcDbLine
 10
875.0
 20
9342.930639926818
 30
0.0
 11
875.0
 21
8642.930639926817
 31
0.0
  0
TEXT
  5
7F4D
330
83D6
100
AcDbEntity
  8
4
100
AcDbText
 10
1345.539787199963
 20
8338.118171412203
 30
0.0
 40
188.9999999999998
  1
右回転左横向
100
AcDbText
  0
TEXT
  5
7F4E
330
83D6
100
AcDbEntity
  8
4
100
AcDbText
 10
5141.393457372513
 20
9471.21378523358
 30
0.0
 40
196.0
  1
No.
100
AcDbText
  0
TEXT
  5
7F4F
330
83D6
100
AcDbEntity
  8
4
100
AcDbText
 10
4589.536219100046
 20
8342.000944663805
 30
0.0
 40
188.9999999999998
  1
縮尺：1/35
100
AcDbText
  0
LINE
  5
7F50
330
83D6
100
AcDbEntity
  8
4
100
AcDbLine
 10
6475.0
 20
9342.930639926818
 30
0.0
 11
6475.0
 21
8642.930639926817
 31
0.0
  0
LINE
  5
7F51
330
83D6
100
AcDbEntity
  8
4
100
AcDbLine
 10
7350.0
 20
10325.0
 30
0.0
 11
7350.0
 21
10325.0
 31
0.0
  0
LINE
  5
7F52
330
83D6
100
AcDbEntity
  8
4
100
AcDbLine
 10
5042.160978259526
 20
9384.422540938905
 30
0.0
 11
5042.160978259526
 21
9753.282915424136
 31
0.0
  0
LINE
  5
7F53
330
83D6
100
AcDbEntity
  8
4
100
AcDbLine
 10
5042.160978259526
 20
9753.282915424136
 30
0.0
 11
6475.0
 21
9753.282915424136
 31
0.0
  0
LINE
  5
7F54
330
83D6
100
AcDbEntity
  8
4
100
AcDbLine
 10
6475.0
 20
9753.282915424136
 30
0.0
 11
6475.0
 21
9384.422540938905
 31
0.0
  0
LINE
  5
7F55
330
83D6
100
AcDbEntity
  8
4
100
AcDbLine
 10
6475.0
 20
9384.422540938905
 30
0.0
 11
5042.160978259526
 21
9384.422540938905
 31
0.0
  0
LINE
  5
7F56
330
83D6
100
AcDbEntity
  8
4
100
AcDbLine
 10
0.0
 20
0.0
 30
0.0
 11
0.0
 21
10325.0
 31
0.0
  0
LINE
  5
7F57
330
83D6
100
AcDbEntity
  8
4
100
AcDbLine
 10
0.0
 20
10325.0
 30
0.0
 11
7350.0
 21
10325.0
 31
0.0
  0
LINE
  5
7F58
330
83D6
100
AcDbEntity
  8
4
100
AcDbLine
 10
7350.0
 20
10325.0
 30
0.0
 11
7350.0
 21
0.0
 31
0.0
  0
LINE
  5
7F59
330
83D6
100
AcDbEntity
  8
4
100
AcDbLine
 10
7350.0
 20
0.0
 30
0.0
 11
0.0
 21
0.0
 31
0.0
  0
DIMENSION
  5
849C
330
83D6
100
AcDbEntity
  8
3
100
AcDbDimension
  2
*D38
 10
6830.588864662408
 20
3254.867032643557
 30
0.0
 11
6743.088864662407
 21
3814.867032643558
 31
0.0
 70
    32
  1
\U+03C6<>
 71
     5
 42
1120.0
  3
IGA
100
AcDbAlignedDimension
 13
6387.400400804152
 23
4374.867032643556
 33
0.0
 14
6387.400400804152
 24
3254.867032643557
 34
0.0
 50
90.0
100
AcDbRotatedDimension
1001
ACAD
1000
DSTYLE
1002
{
1070
    40
1040
35.0
1070
   143
1040
0.039
1070
   172
1070
     1
1070
   271
1070
     4
1070
   272
1070
     4
1070
   279
1070
     0
1070
   284
1070
     0
1070
   285
1070
     0
1070
   286
1070
     0
1070
   341
1005
83E9
1070
   343
1005
83E9
1070
   344
1005
83E9
1002
}
  0
DIMENSION
  5
84BE
330
83D6
100
AcDbEntity
  8
3
100
AcDbDimension
  2
*D39
 10
6387.400400804152
 20
4873.306671695954
 30
0.0
 11
5637.400400804152
 21
4960.806671695954
 31
0.0
 70
    32
 71
     5
 42
1500.0
  3
IGA
100
AcDbAlignedDimension
 13
4887.400400804152
 23
4619.867032643557
 33
0.0
 14
6387.400400804152
 24
4619.867032643557
 34
0.0
100
AcDbRotatedDimension
1001
ACAD
1000
DSTYLE
1002
{
1070
    40
1040
35.0
1070
   143
1040
0.039
1070
   172
1070
     1
1070
   271
1070
     4
1070
   272
1070
     4
1070
   279
1070
     0
1070
   284
1070
     0
1070
   285
1070
     0
1070
   286
1070
     0
1070
   341
1005
83E9
1070
   343
1005
83E9
1070
   344
1005
83E9
1002
}
  0
DIMENSION
  5
84CB
330
83D6
100
AcDbEntity
  8
3
100
AcDbDimension
  2
*D40
 10
5637.400400804152
 20
5070.297380820517
 30
0.0
 11
5077.400400804152
 21
5185.297380820517
 31
0.0
 70
    32
  1
(<>)
 71
     5
 42
1120.0
  3
IGA
100
AcDbAlignedDimension
 13
4517.400400804151
 23
4194.867032643556
 33
0.0
 14
5637.400400804152
 24
5013.306671695954
 34
0.0
100
AcDbRotatedDimension
1001
ACAD
1000
DSTYLE
1002
{
1070
    40
1040
35.0
1070
   143
1040
0.039
1070
   172
1070
     1
1070
   271
1070
     4
1070
   272
1070
     4
1070
   279
1070
     0
1070
   284
1070
     0
1070
   285
1070
     0
1070
   286
1070
     0
1070
   341
1005
83E9
1070
   343
1005
83E9
1070
   344
1005
83E9
1002
}
  0
DIMENSION
  5
84D8
330
83D6
100
AcDbEntity
  8
3
100
AcDbDimension
  2
*D41
 10
6567.40040080415
 20
5070.297380820517
 30
0.0
 11
6102.400400804151
 21
5185.297380820517
 31
0.0
 70
    32
  1
(<>)
 71
     5
 42
929.9999999999981
  3
IGA
100
AcDbAlignedDimension
 13
5637.400400804152
 23
5013.306671695954
 33
0.0
 14
6567.40040080415
 24
3741.867032643556
 34
0.0
100
AcDbRotatedDimension
1001
ACAD
1000
DSTYLE
1002
{
1070
    40
1040
35.0
1070
   143
1040
0.039
1070
   172
1070
     1
1070
   271
1070
     4
1070
   272
1070
     4
1070
   279
1070
     1
1070
   284
1070
     0
1070
   285
1070
     0
1070
   286
1070
     0
1070
   341
1005
83E9
1070
   343
1005
83E9
1070
   344
1005
83E9
1002
}
  0
DIMENSION
  5
84E5
330
83D6
100
AcDbEntity
  8
3
100
AcDbDimension
  2
*D42
 10
5637.400400804152
 20
2066.406442439319
 30
0.0
 11
5096.400400804146
 21
2153.906442439319
 31
0.0
 70
    32
 71
     5
 42
1082.000000000012
  3
IGA
100
AcDbAlignedDimension
 13
4555.40040080414
 23
2289.867032643556
 33
0.0
 14
5637.400400804152
 24
2289.867032643556
 34
0.0
100
AcDbRotatedDimension
1001
ACAD
1000
DSTYLE
1002
{
1070
    40
1040
35.0
1070
   143
1040
0.039
1070
   172
1070
     1
1070
   271
1070
     4
1070
   272
1070
     4
1070
   279
1070
     0
1070
   284
1070
     0
1070
   285
1070
     0
1070
   286
1070
     0
1070
   341
1005
83E9
1070
   343
1005
83E9
1070
   344
1005
83E9
1002
}
  0
DIMENSION
  5
84F2
330
83D6
100
AcDbEntity
  8
3
100
AcDbDimension
  2
*D43
 10
6455.400400804132
 20
2066.406442439319
 30
0.0
 11
6046.400400804142
 21
2153.906442439319
 31
0.0
 70
    32
 71
     5
 42
817.99999999998
  3
IGA
100
AcDbAlignedDimension
 13
5637.400400804152
 23
2289.867032643556
 33
0.0
 14
6455.400400804132
 24
2289.867032643556
 34
0.0
100
AcDbRotatedDimension
1001
ACAD
1000
DSTYLE
1002
{
1070
    40
1040
35.0
1070
   143
1040
0.039
1070
   172
1070
     1
1070
   271
1070
     4
1070
   272
1070
     4
1070
   279
1070
     1
1070
   284
1070
     0
1070
   285
1070
     0
1070
   286
1070
     0
1070
   341
1005
83E9
1070
   343
1005
83E9
1070
   344
1005
83E9
1002
}
  0
DIMENSION
  5
8535
330
83D6
100
AcDbEntity
  8
3
100
AcDbDimension
  2
*D44
 10
1489.445716662588
 20
5793.481934815962
 30
0.0
 11
1401.945716662587
 21
6743.481934815962
 31
0.0
 70
    32
 71
     5
 42
1900.0
  3
IGA
100
AcDbAlignedDimension
 13
1888.21797163364
 23
7693.481934815962
 33
0.0
 14
1888.21797163364
 24
5793.481934815962
 34
0.0
 50
90.0
100
AcDbRotatedDimension
1001
ACAD
1000
DSTYLE
1002
{
1070
    40
1040
35.0
1070
   143
1040
0.039
1070
   172
1070
     1
1070
   271
1070
     4
1070
   272
1070
     4
1070
   279
1070
     0
1070
   284
1070
     0
1070
   285
1070
     0
1070
   286
1070
     0
1070
   341
1005
83E9
1070
   343
1005
83E9
1070
   344
1005
83E9
1002
}
  0
DIMENSION
  5
8542
330
83D6
100
AcDbEntity
  8
3
100
AcDbDimension
  2
*D45
 10
4148.21797163364
 20
5502.236742722015
 30
0.0
 11
3018.217971633641
 21
5589.736742722015
 31
0.0
 70
    32
 71
     5
 42
2260.0
  3
IGA
100
AcDbAlignedDimension
 13
1888.21797163364
 23
5793.481934815962
 33
0.0
 14
4148.21797163364
 24
5793.481934815961
 34
0.0
100
AcDbRotatedDimension
1001
ACAD
1000
DSTYLE
1002
{
1070
    40
1040
35.0
1070
   143
1040
0.039
1070
   172
1070
     1
1070
   271
1070
     4
1070
   272
1070
     4
1070
   279
1070
     0
1070
   284
1070
     0
1070
   285
1070
     0
1070
   286
1070
     0
1070
   341
1005
83E9
1070
   343
1005
83E9
1070
   344
1005
83E9
1002
}
  0
DIMENSION
  5
854F
330
83D6
100
AcDbEntity
  8
3
100
AcDbDimension
  2
*D46
 10
4548.848380927505
 20
6693.481934815962
 30
0.0
 11
4461.348380927502
 21
6243.481934815962
 31
0.0
 70
    32
 71
     5
 42
900.0000000000008
  3
IGA
100
AcDbAlignedDimension
 13
4148.21797163364
 23
5793.481934815961
 33
0.0
 14
4148.21797163364
 24
6693.481934815962
 34
0.0
 50
90.0
100
AcDbRotatedDimension
1001
ACAD
1000
DSTYLE
1002
{
1070
    40
1040
35.0
1070
   143
1040
0.039
1070
   172
1070
     1
1070
   271
1070
     4
1070
   272
1070
     4
1070
   279
1070
     0
1070
   284
1070
     0
1070
   285
1070
     0
1070
   286
1070
     0
1070
   341
1005
83E9
1070
   343
1005
83E9
1070
   344
1005
83E9
1002
}
  0
DIMENSION
  5
855C
330
83D6
100
AcDbEntity
  8
3
100
AcDbDimension
  2
*D47
 10
3208.217971633641
 20
7867.489295287082
 30
0.0
 11
3678.217971633641
 21
7954.989295287082
 31
0.0
 70
    32
 71
     5
 42
939.9999999999995
  3
IGA
100
AcDbAlignedDimension
 13
4148.21797163364
 23
6693.481934815962
 33
0.0
 14
3208.217971633641
 24
7693.481934815962
 34
0.0
100
AcDbRotatedDimension
1001
ACAD
1000
DSTYLE
1002
{
1070
    40
1040
35.0
1070
   143
1040
0.039
1070
   172
1070
     1
1070
   271
1070
     4
1070
   272
1070
     4
1070
   279
1070
     0
1070
   284
1070
     0
1070
   285
1070
     0
1070
   286
1070
     0
1070
   341
1005
83E9
1070
   343
1005
83E9
1070
   344
1005
83E9
1002
}
  0
DIMENSION
  5
8569
330
83D6
100
AcDbEntity
  8
3
100
AcDbDimension
  2
*D48
 10
1888.21797163364
 20
7867.489295287082
 30
0.0
 11
2548.217971633641
 21
7954.989295287082
 31
0.0
 70
    32
 71
     5
 42
1320.0
  3
IGA
100
AcDbAlignedDimension
 13
3208.217971633641
 23
7693.481934815962
 33
0.0
 14
1888.21797163364
 24
7693.481934815962
 34
0.0
100
AcDbRotatedDimension
1001
ACAD
1000
DSTYLE
1002
{
1070
    40
1040
35.0
1070
   143
1040
0.039
1070
   172
1070
     1
1070
   271
1070
     4
1070
   272
1070
     4
1070
   279
1070
     1
1070
   284
1070
     0
1070
   285
1070
     0
1070
   286
1070
     0
1070
   341
1005
83E9
1070
   343
1005
83E9
1070
   344
1005
83E9
1002
}
  0
DIMENSION
  5
8576
330
83D6
100
AcDbEntity
  8
3
100
AcDbDimension
  2
*D49
 10
4148.21797163364
 20
5072.874531832272
 30
0.0
 11
2968.217971633641
 21
5160.374531832271
 31
0.0
 70
    32
 71
     5
 42
2360.0
  3
IGA
100
AcDbAlignedDimension
 13
1788.21797163364
 23
3819.867032643557
 33
0.0
 14
4148.21797163364
 24
2584.867032643556
 34
0.0
100
AcDbRotatedDimension
1001
ACAD
1000
DSTYLE
1002
{
1070
    40
1040
35.0
1070
   143
1040
0.039
1070
   172
1070
     1
1070
   271
1070
     4
1070
   272
1070
     4
1070
   279
1070
     0
1070
   284
1070
     0
1070
   285
1070
     0
1070
   286
1070
     0
1070
   341
1005
83E9
1070
   343
1005
83E9
1070
   344
1005
83E9
1002
}
  0
DIMENSION
  5
8583
330
83D6
100
AcDbEntity
  8
3
100
AcDbDimension
  2
*D50
 10
2548.217971633641
 20
4845.294362889877
 30
0.0
 11
2168.217971633641
 21
4932.794362889876
 31
0.0
 70
    32
 71
     5
 42
760.0000000000002
  3
IGA
100
AcDbAlignedDimension
 13
1788.21797163364
 23
3819.867032643557
 33
0.0
 14
2548.217971633641
 24
4680.935226323958
 34
0.0
100
AcDbRotatedDimension
1001
ACAD
1000
DSTYLE
1002
{
1070
    40
1040
35.0
1070
   143
1040
0.039
1070
   172
1070
     1
1070
   271
1070
     4
1070
   272
1070
     4
1070
   279
1070
     0
1070
   284
1070
     0
1070
   285
1070
     0
1070
   286
1070
     0
1070
   341
1005
83E9
1070
   343
1005
83E9
1070
   344
1005
83E9
1002
}
  0
DIMENSION
  5
8590
330
83D6
100
AcDbEntity
  8
3
100
AcDbDimension
  2
*D51
 10
3517.217971633641
 20
4845.294362889877
 30
0.0
 11
3032.717971633641
 21
4932.794362889876
 31
0.0
 70
    32
 71
     5
 42
969.0
  3
IGA
100
AcDbAlignedDimension
 13
2548.217971633641
 23
4680.935226323958
 33
0.0
 14
3517.217971633641
 24
3732.867032643557
 34
0.0
100
AcDbRotatedDimension
1001
ACAD
1000
DSTYLE
1002
{
1070
    40
1040
35.0
1070
   143
1040
0.039
1070
   172
1070
     1
1070
   271
1070
     4
1070
   272
1070
     4
1070
   279
1070
     1
1070
   284
1070
     0
1070
   285
1070
     0
1070
   286
1070
     0
1070
   341
1005
83E9
1070
   343
1005
83E9
1070
   344
1005
83E9
1002
}
  0
DIMENSION
  5
859D
330
83D6
100
AcDbEntity
  8
3
100
AcDbDimension
  2
*D52
 10
2548.217971633642
 20
2066.406442439319
 30
0.0
 11
2218.217971633641
 21
2153.906442439319
 31
0.0
 70
    32
 71
     5
 42
660.0000000000006
  3
IGA
100
AcDbAlignedDimension
 13
1888.21797163364
 23
2289.867032643556
 33
0.0
 14
2548.217971633642
 24
2289.867032643556
 34
0.0
100
AcDbRotatedDimension
1001
ACAD
1000
DSTYLE
1002
{
1070
    40
1040
35.0
1070
   143
1040
0.039
1070
   172
1070
     1
1070
   271
1070
     4
1070
   272
1070
     4
1070
   279
1070
     0
1070
   284
1070
     0
1070
   285
1070
     0
1070
   286
1070
     0
1070
   341
1005
83E9
1070
   343
1005
83E9
1070
   344
1005
83E9
1002
}
  0
DIMENSION
  5
85AA
330
83D6
100
AcDbEntity
  8
3
100
AcDbDimension
  2
*D53
 10
4148.21797163364
 20
2066.406442439319
 30
0.0
 11
3348.217971633641
 21
2153.906442439319
 31
0.0
 70
    32
 71
     5
 42
1599.999999999999
  3
IGA
100
AcDbAlignedDimension
 13
2548.217971633642
 23
2289.867032643556
 33
0.0
 14
4148.21797163364
 24
2289.867032643556
 34
0.0
100
AcDbRotatedDimension
1001
ACAD
1000
DSTYLE
1002
{
1070
    40
1040
35.0
1070
   143
1040
0.039
1070
   172
1070
     1
1070
   271
1070
     4
1070
   272
1070
     4
1070
   279
1070
     1
1070
   284
1070
     0
1070
   285
1070
     0
1070
   286
1070
     0
1070
   341
1005
83E9
1070
   343
1005
83E9
1070
   344
1005
83E9
1002
}
  0
DIMENSION
  5
85B7
330
83D6
100
AcDbEntity
  8
3
100
AcDbDimension
  2
*D54
 10
1588.109655349375
 20
2616.867032643556
 30
0.0
 11
1500.609655349375
 21
3191.867032643556
 31
0.0
 70
    32
 71
     5
 42
1150.0
  3
IGA
100
AcDbAlignedDimension
 13
1788.21797163364
 23
3766.867032643556
 33
0.0
 14
1788.21797163364
 24
2616.867032643556
 34
0.0
 50
90.0
100
AcDbRotatedDimension
1001
ACAD
1000
DSTYLE
1002
{
1070
    40
1040
35.0
1070
   143
1040
0.039
1070
   172
1070
     1
1070
   271
1070
     4
1070
   272
1070
     4
1070
   279
1070
     0
1070
   284
1070
     0
1070
   285
1070
     0
1070
   286
1070
     0
1070
   341
1005
83E9
1070
   343
1005
83E9
1070
   344
1005
83E9
1002
}
  0
DIMENSION
  5
85C4
330
83D6
100
AcDbEntity
  8
3
100
AcDbDimension
  2
*D55
 10
1387.958004487873
 20
3814.867032643557
 30
0.0
 11
1300.458004487872
 21
3215.867032643557
 31
0.0
 70
    32
 71
     5
 42
1198.000000000001
  3
IGA
100
AcDbAlignedDimension
 13
1788.21797163364
 23
2616.867032643556
 33
0.0
 14
1641.437320180664
 24
3814.867032643557
 34
0.0
 50
90.0
100
AcDbRotatedDimension
1001
ACAD
1000
DSTYLE
1002
{
1070
    40
1040
35.0
1070
   143
1040
0.039
1070
   172
1070
     1
1070
   271
1070
     4
1070
   272
1070
     4
1070
   279
1070
     0
1070
   284
1070
     0
1070
   285
1070
     0
1070
   286
1070
     0
1070
   341
1005
83E9
1070
   343
1005
83E9
1070
   344
1005
83E9
1002
}
  0
DIMENSION
  5
85D1
330
83D6
100
AcDbEntity
  8
3
100
AcDbDimension
  2
*D56
 10
1184.008057762067
 20
3814.867032643557
 30
0.0
 11
1096.508057762066
 21
4217.367032643557
 31
0.0
 70
    32
 71
     5
 42
805.0
  3
IGA
100
AcDbAlignedDimension
 13
2630.217971633641
 23
4619.867032643557
 33
0.0
 14
1641.437320180664
 24
3814.867032643557
 34
0.0
 50
90.0
100
AcDbRotatedDimension
1001
ACAD
1000
DSTYLE
1002
{
1070
    40
1040
35.0
1070
   143
1040
0.039
1070
   172
1070
     1
1070
   271
1070
     4
1070
   272
1070
     4
1070
   279
1070
     0
1070
   284
1070
     0
1070
   285
1070
     0
1070
   286
1070
     0
1070
   341
1005
83E9
1070
   343
1005
83E9
1070
   344
1005
83E9
1002
}
  0
DIMENSION
  5
85DE
330
83D6
100
AcDbEntity
  8
3
100
AcDbDimension
  2
*D57
 10
1184.008057762066
 20
2459.867032643556
 30
0.0
 11
1096.508057762066
 21
3137.367032643557
 31
0.0
 70
    32
 71
     5
 42
1355.000000000001
  3
IGA
100
AcDbAlignedDimension
 13
1641.437320180664
 23
3814.867032643557
 33
0.0
 14
1888.21797163364
 24
2459.867032643556
 34
0.0
 50
90.0
100
AcDbRotatedDimension
1001
ACAD
1000
DSTYLE
1002
{
1070
    40
1040
35.0
1070
   143
1040
0.039
1070
   172
1070
     1
1070
   271
1070
     4
1070
   272
1070
     4
1070
   279
1070
     1
1070
   284
1070
     0
1070
   285
1070
     0
1070
   286
1070
     0
1070
   341
1005
83E9
1070
   343
1005
83E9
1070
   344
1005
83E9
1002
}
  0
DIMENSION
  5
85EB
330
83D6
100
AcDbEntity
  8
3
100
AcDbDimension
  2
*D58
 10
1184.008057762066
 20
2354.867032643557
 30
0.0
 11
901.5080577620661
 21
2492.617032643557
 31
0.0
 70
    32
  1
(<>)
 71
     5
 42
104.9999999999986
  3
IGA
100
AcDbAlignedDimension
 13
1888.21797163364
 23
2459.867032643556
 33
0.0
 14
1888.21797163364
 24
2354.867032643557
 34
0.0
 50
90.0
100
AcDbRotatedDimension
1001
ACAD
1000
DSTYLE
1002
{
1070
    40
1040
35.0
1070
   143
1040
0.039
1070
   172
1070
     1
1070
   271
1070
     4
1070
   272
1070
     4
1070
   279
1070
     1
1070
   284
1070
     0
1070
   285
1070
     0
1070
   286
1070
     0
1070
   341
1005
83E9
1070
   343
1005
83E9
1070
   344
1005
86C1
1002
}
  0
DIMENSION
  5
85FD
330
83D6
100
AcDbEntity
  8
3
100
AcDbDimension
  2
*D59
 10
1184.008057762066
 20
2289.867032643556
 30
0.0
 11
1184.008057762066
 21
2149.867032643556
 31
0.0
 70
   160
 71
     5
 42
65.00000000000136
  3
IGA
100
AcDbAlignedDimension
 13
1888.21797163364
 23
2354.867032643557
 33
0.0
 14
1888.21797163364
 24
2289.867032643556
 34
0.0
 50
90.0
100
AcDbRotatedDimension
1001
ACAD
1000
DSTYLE
1002
{
1070
    40
1040
35.0
1070
   143
1040
0.039
1070
   172
1070
     1
1070
   271
1070
     4
1070
   272
1070
     4
1070
   279
1070
     1
1070
   284
1070
     0
1070
   285
1070
     0
1070
   286
1070
     0
1070
   341
1005
83E9
1070
   343
1005
86C1
1070
   344
1005
83E9
1002
}
  0
DIMENSION
  5
860F
330
83D6
100
AcDbEntity
  8
3
100
AcDbDimension
  2
*D60
 10
797.2060532734905
 20
4619.867032643557
 30
0.0
 11
682.2060532734897
 21
3454.867032643557
 31
0.0
 70
    32
  1
(<>)
 71
     5
 42
2330.000000000001
  3
IGA
100
AcDbAlignedDimension
 13
1888.21797163364
 23
2289.867032643556
 33
0.0
 14
2630.217971633641
 24
4619.867032643557
 34
0.0
 50
90.0
100
AcDbRotatedDimension
1001
ACAD
1000
DSTYLE
1002
{
1070
    40
1040
35.0
1070
   143
1040
0.039
1070
   172
1070
     1
1070
   271
1070
     4
1070
   272
1070
     4
1070
   279
1070
     0
1070
   284
1070
     0
1070
   285
1070
     0
1070
   286
1070
     0
1070
   341
1005
83E9
1070
   343
1005
83E9
1070
   344
1005
83E9
1002
}
  0
ENDSEC
  0
SECTION
  2
OBJECTS
  0
DICTIONARY
  5
8373
330
0
100
AcDbDictionary
281
     1
  3
ACAD_CIP_PREVIOUS_PRODUCT_INFO
350
841F
  3
ACAD_COLOR
350
83C9
  3
ACAD_DETAILVIEWSTYLE
350
83D0
  3
ACAD_GROUP
350
8374
  3
ACAD_LAYOUT
350
83C8
  3
ACAD_MATERIAL
350
8377
  3
ACAD_MLEADERSTYLE
350
83CC
  3
ACAD_MLINESTYLE
350
83C5
  3
ACAD_PLOTSETTINGS
350
83C7
  3
ACAD_PLOTSTYLENAME
350
8375
  3
ACAD_SCALELIST
350
83A9
  3
ACAD_SECTIONVIEWSTYLE
350
83CE
  3
ACAD_TABLESTYLE
350
83CA
  3
ACAD_VISUALSTYLE
350
8390
  3
ACDB_RECOMPOSE_DATA
350
878F
  3
AcDbVariableDictionary
350
8741
  3
DWGPROPS
350
8790
  0
DICTIONARY
  5
8737
330
83BB
100
AcDbDictionary
280
     1
281
     1
  3
ADSK_XREC_LAYER_RECONCILED
360
8738
  0
DICTIONARY
  5
8739
330
83DA
100
AcDbDictionary
280
     1
281
     1
  3
ADSK_XREC_LAYER_RECONCILED
360
873A
  0
DICTIONARY
  5
873B
330
83DD
100
AcDbDictionary
280
     1
281
     1
  3
ADSK_XREC_LAYER_RECONCILED
360
873C
  0
DICTIONARY
  5
873D
330
83DE
100
AcDbDictionary
280
     1
281
     1
  3
ADSK_XREC_LAYER_RECONCILED
360
873E
  0
DICTIONARY
  5
873F
330
83DF
100
AcDbDictionary
280
     1
281
     1
  3
ADSK_XREC_LAYER_RECONCILED
360
8740
  0
DICTIONARY
  5
8494
330
83D6
100
AcDbDictionary
280
     1
281
     1
  3
ACAD_SORTENTS
360
8495
  0
XRECORD
  5
841F
102
{ACAD_REACTORS
330
8373
102
}
330
8373
100
AcDbXrecord
280
     1
300
ACDLT
300
2015
300
INVLTS_F_S
  0
DICTIONARY
  5
83C9
102
{ACAD_REACTORS
330
8373
102
}
330
8373
100
AcDbDictionary
281
     1
  0
DICTIONARY
  5
83D0
102
{ACAD_REACTORS
330
8373
102
}
330
8373
100
AcDbDictionary
281
     1
  3
Imperial24
350
83D1
  0
DICTIONARY
  5
8374
102
{ACAD_REACTORS
330
8373
102
}
330
8373
100
AcDbDictionary
281
     1
  0
DICTIONARY
  5
83C8
102
{ACAD_REACTORS
330
8373
102
}
330
8373
100
AcDbDictionary
281
     1
  3
Model
350
83D9
  3
レイアウト1
350
83D5
  0
DICTIONARY
  5
8377
102
{ACAD_REACTORS
330
8373
102
}
330
8373
100
AcDbDictionary
281
     1
  3
ByBlock
350
8380
  3
ByLayer
350
8378
  3
Global
350
8388
  0
DICTIONARY
  5
83CC
102
{ACAD_REACTORS
330
8373
102
}
330
8373
100
AcDbDictionary
281
     1
  3
Standard
350
83CD
  0
DICTIONARY
  5
83C5
102
{ACAD_REACTORS
330
8373
102
}
330
8373
100
AcDbDictionary
281
     1
  3
Standard
350
83C6
  0
DICTIONARY
  5
83C7
102
{ACAD_REACTORS
330
8373
102
}
330
8373
100
AcDbDictionary
281
     1
  0
ACDBDICTIONARYWDFLT
  5
8375
102
{ACAD_REACTORS
330
8373
102
}
330
8373
100
AcDbDictionary
281
     1
  3
Normal
350
8376
100
AcDbDictionaryWithDefault
340
8376
  0
DICTIONARY
  5
83A9
102
{ACAD_REACTORS
330
8373
102
}
330
8373
100
AcDbDictionary
281
     1
  3
A0
350
83AA
  3
A1
350
83AB
  3
A2
350
83AC
  3
A3
350
83AD
  3
A4
350
83AE
  3
A5
350
83AF
  3
A6
350
83B0
  3
A7
350
83B1
  3
A8
350
83B2
  3
A9
350
83B3
  3
B0
350
83B4
  3
B1
350
83B5
  3
B2
350
83B6
  3
B3
350
83B7
  3
B4
350
83B8
  3
B5
350
83B9
  3
B6
350
83BA
  0
DICTIONARY
  5
83CE
102
{ACAD_REACTORS
330
8373
102
}
330
8373
100
AcDbDictionary
281
     1
  3
Imperial24
350
83CF
  0
DICTIONARY
  5
83CA
102
{ACAD_REACTORS
330
8373
102
}
330
8373
100
AcDbDictionary
281
     1
  3
Standard
350
83CB
  0
DICTIONARY
  5
8390
102
{ACAD_REACTORS
330
8373
102
}
330
8373
100
AcDbDictionary
281
     1
  3
2dWireframe
350
8396
  3
Basic
350
8395
  3
Brighten
350
839C
  3
ColorChange
350
83A0
  3
Conceptual
350
8399
  3
Dim
350
839B
  3
EdgeColorOff
350
83A8
  3
Facepattern
350
839F
  3
Flat
350
8391
  3
FlatWithEdges
350
8392
  3
Gouraud
350
8393
  3
GouraudWithEdges
350
8394
  3
Hidden
350
8398
  3
JitterOff
350
83A6
  3
Linepattern
350
839E
  3
OverhangOff
350
83A7
  3
Realistic
350
839A
  3
Shaded
350
83A5
  3
Shaded with edges
350
83A4
  3
Shades of Gray
350
83A1
  3
Sketchy
350
83A2
  3
Thicken
350
839D
  3
Wireframe
350
8397
  3
X-Ray
350
83A3
  0
XRECORD
  5
878F
102
{ACAD_REACTORS
330
8373
102
}
330
8373
100
AcDbXrecord
280
     1
 90
        1
330
83CB
  0
DICTIONARY
  5
8741
102
{ACAD_REACTORS
330
8373
102
}
330
8373
100
AcDbDictionary
281
     1
  3
CANNOSCALE
350
8746
  3
CMLEADERSTYLE
350
8743
  3
CTABLESTYLE
350
8742
  3
CVIEWDETAILSTYLE
350
8744
  3
CVIEWSECTIONSTYLE
350
8745
  3
DIMASSOC
350
8749
  3
INDEXCTL
350
8748
  3
SORTENTS
350
8747
  3
XCLIPFRAME
350
874A
  0
XRECORD
  5
8790
102
{ACAD_REACTORS
330
8373
102
}
330
8373
100
AcDbXrecord
280
     1
  1
DWGPROPS COOKIE
  2

  3

  4

  6

  7

  8
yasukiyo.ogawa
  9

300
=
301
=
302
=
303
=
304
=
305
=
306
=
307
=
308
=
309
=
 40
0.024501712962963
 41
2451390.40461713
 42
2460273.626638819
  1

 90
        0
  0
XRECORD
  5
8738
102
{ACAD_REACTORS
330
8737
102
}
330
8737
100
AcDbXrecord
280
     1
290
     1
  0
XRECORD
  5
873A
102
{ACAD_REACTORS
330
8739
102
}
330
8739
100
AcDbXrecord
280
     1
290
     1
  0
XRECORD
  5
873C
102
{ACAD_REACTORS
330
873B
102
}
330
873B
100
AcDbXrecord
280
     1
290
     1
  0
XRECORD
  5
873E
102
{ACAD_REACTORS
330
873D
102
}
330
873D
100
AcDbXrecord
280
     1
290
     1
  0
XRECORD
  5
8740
102
{ACAD_REACTORS
330
873F
102
}
330
873F
100
AcDbXrecord
280
     1
290
     1
  0
SORTENTSTABLE
  5
8495
102
{ACAD_REACTORS
330
8494
102
}
330
8494
100
AcDbSortentsTable
330
83D6
331
7F52
  5
7F54
331
7CEF
  5
7CF1
331
7CDE
  5
7CE6
331
7CCD
  5
7CCF
331
7CAB
  5
7CAD
331
7C80
  5
7C82
331
7C6F
  5
7C73
331
7C5E
  5
7C63
331
7C3C
  5
7C3E
331
7C2B
  5
7C2B
331
7F53
  5
7F55
331
7CF0
  5
7CF5
331
7CDF
  5
7CE7
331
7CCE
  5
7CD0
331
7CAC
  5
7CAE
331
7C9B
  5
7C9D
331
7C81
  5
7C83
331
7C3D
  5
7C3F
331
7C2C
  5
7C2C
331
7F54
  5
7F56
331
7CF1
  5
7CF6
331
7CCF
  5
7CD1
331
7CBE
  5
7CC0
331
7CAD
  5
7CAF
331
7C9C
  5
7C9F
331
7C82
  5
7C84
331
7C3E
  5
7C40
331
7C2D
  5
7C2D
331
7CBF
  5
7CC1
331
7C9D
  5
7CA1
331
7C94
  5
7C96
331
7C83
  5
7C85
331
7C72
  5
7C74
331
7F55
  5
7F57
331
7F3B
  5
7F3D
331
7CD0
  5
7CD2
331
7C3F
  5
7C41
331
7C2E
  5
7C2E
331
7F56
  5
7F58
331
7F3C
  5
7F40
331
7CD1
  5
7CD3
331
7CC0
  5
7CC2
331
7CAF
  5
7CB1
331
7C95
  5
7C97
331
7C84
  5
7C86
331
7C73
  5
7C75
331
7C62
  5
7C64
331
7C51
  5
7C53
331
7C40
  5
7C42
331
7C2F
  5
7C2F
331
7C41
  5
7C43
331
7F57
  5
7F59
331
7F3D
  5
7F41
331
7CD2
  5
7CD4
331
7CC1
  5
7CC3
331
7CB0
  5
7CB2
331
7C9F
  5
7CA3
331
7C96
  5
7C99
331
7C85
  5
7C87
331
7C74
  5
7C76
331
7C63
  5
7C65
331
7C52
  5
7C54
331
7C30
  5
7C30
331
7F58
  5
8131
331
7CD3
  5
7CD5
331
7CC2
  5
7CC4
331
7CB1
  5
7CB3
331
7C97
  5
7C9A
331
7C86
  5
7C88
331
7C75
  5
7C78
331
7C64
  5
7C66
331
7C53
  5
7C55
331
7C42
  5
7C45
331
7CF5
  5
7CF7
331
7C31
  5
7C31
331
7F59
  5
813E
331
7F48
  5
7F4A
331
7CB2
  5
7CB4
331
7CA1
  5
7CA4
331
7C87
  5
7C89
331
7C76
  5
7C7B
331
7C65
  5
7C67
331
7C54
  5
7C59
331
7C43
  5
7C46
331
7CF6
  5
7CF8
331
7CD4
  5
7CD6
331
7CC3
  5
7CC5
331
7C32
  5
7C32
331
7F49
  5
7F4B
331
7F40
  5
7F42
331
7CF7
  5
7CF9
331
7CD5
  5
7CD7
331
7CC4
  5
7CC6
331
7CB3
  5
7CB5
331
7C88
  5
7C8A
331
7C66
  5
7C68
331
7C55
  5
7C5A
331
7C33
  5
7C33
331
7C22
  5
7C22
331
7F4A
  5
7F4C
331
7F41
  5
7F43
331
7CF8
  5
7F3B
331
7CD6
  5
7CD8
331
7CC5
  5
7CC7
331
7CB4
  5
7CB6
331
7CA3
  5
7CA7
331
7C89
  5
7C8B
331
7C78
  5
7C7C
331
7C67
  5
7C69
331
7C45
  5
7C47
331
7C34
  5
7C34
331
7F4B
  5
7F4D
331
7F42
  5
7F44
331
7CF9
  5
7F3C
331
7CD7
  5
7CD9
331
7CC6
  5
7CC8
331
7CB5
  5
7CB7
331
7CA4
  5
7CA8
331
7C8A
  5
7C8C
331
7C68
  5
7C6A
331
7C46
  5
7C48
331
7C35
  5
7C35
331
7C24
  5
7C24
331
7F4C
  5
7F4E
331
7F43
  5
7F45
331
7CD8
  5
7CDA
331
7C8B
  5
7C8D
331
7C69
  5
7C6B
331
7C47
  5
7C49
331
7CC7
  5
7CC9
331
7C36
  5
7C36
331
7C25
  5
7C25
331
7F4D
  5
7F4F
331
7F44
  5
7F47
331
7CD9
  5
7CDB
331
7CC8
  5
7CCA
331
7C8C
  5
7C8E
331
7C7B
  5
7C7D
331
7C6A
  5
7C6D
331
7C59
  5
7C5B
331
7C48
  5
7C4A
331
7C37
  5
7C37
331
7C26
  5
7C26
331
7F4E
  5
7F50
331
7F45
  5
7F48
331
7CDA
  5
7CDC
331
7CC9
  5
7CCB
331
7CA7
  5
7CA9
331
7C8D
  5
7C8F
331
7C7C
  5
7C7E
331
7C6B
  5
7C6E
331
7C5A
  5
7C5C
331
7C49
  5
7C4B
331
7C38
  5
7C38
331
7C27
  5
7C27
331
7F4F
  5
7F51
331
7CDB
  5
7CDD
331
7CCA
  5
7CCC
331
7CA8
  5
7CAA
331
7C8E
  5
7C90
331
7C7D
  5
7C7F
331
7C5B
  5
7C5D
331
7C4A
  5
7C4C
331
7C39
  5
7C39
331
7C28
  5
7C28
331
7F50
  5
7F52
331
7F47
  5
7F49
331
7CED
  5
7CEF
331
7CDC
  5
7CDE
331
7CCB
  5
7CCD
331
7CA9
  5
7CAB
331
7C8F
  5
7C92
331
7C7E
  5
7C80
331
7C6D
  5
7C6F
331
7C5C
  5
7C5E
331
7C4B
  5
7C4E
331
7C3A
  5
7C3C
331
7C29
  5
7C29
331
7F51
  5
7F53
331
7CEE
  5
7CF0
331
7CDD
  5
7CDF
331
7CCC
  5
7CCE
331
7CAA
  5
7CAC
331
7C99
  5
7C9B
331
7C7F
  5
7C81
331
7C6E
  5
7C72
331
7C5D
  5
7C62
331
7C4C
  5
7C4F
331
7C3B
  5
7C3D
331
7C2A
  5
7C2A
  0
ACDBDETAILVIEWSTYLE
  5
83D1
102
{ACAD_XDICTIONARY
360
87C8
102
}
102
{ACAD_REACTORS
330
83D0
102
}
330
83D0
100
AcDbModelDocViewStyle
 70
     0
  3
Imperial24
290
     0
100
AcDbDetailViewStyle
 70
     0
 71
     0
 90
        3
 71
     1
340
83BC
 40
0.24
340
0
 40
0.24
300

 40
0.36
280
     3
 71
     2
340
83C3
 90
       25
 71
     3
340
83BC
 40
0.24
 90
        1
 40
0.75
 90
        1
300
%<\AcVar ViewType \f "%tc1">% %<\AcVar ViewDetailId>%\PSCALE %<\AcVar ViewScale \f "%sn">%
 71
     4
340
83C3
 90
       25
340
83C3
 90
       25
280
     0
  0
LAYOUT
  5
83D9
102
{ACAD_XDICTIONARY
360
87CC
102
}
102
{ACAD_REACTORS
330
83C8
102
}
330
83C8
100
AcDbPlotSettings
  1

  2
RICOH imagio MP W3600 RPCS
  4

  6

 40
0.0
 41
0.0
 42
0.0
 43
0.0
 44
0.0
 45
0.0
 46
0.0
 47
0.0
 48
0.0
 49
0.0
140
0.0
141
0.0
142
1.0
143
1.0
 70
  1712
 72
     0
 73
     0
 74
     0
  7

 75
     0
147
1.0
148
0.0
149
0.0
100
AcDbLayout
  1
Model
 70
     1
 71
     0
 10
0.0
 20
0.0
 11
12.0
 21
9.0
 12
0.0
 22
0.0
 32
0.0
 14
0.0
 24
0.0
 34
0.0
 15
0.0
 25
0.0
 35
0.0
146
0.0
 13
0.0
 23
0.0
 33
0.0
 16
1.0
 26
0.0
 36
0.0
 17
0.0
 27
1.0
 37
0.0
 76
     0
330
83D6
331
83DB
  0
LAYOUT
  5
83D5
102
{ACAD_XDICTIONARY
360
87CA
102
}
102
{ACAD_REACTORS
330
83C8
102
}
330
83C8
100
AcDbPlotSettings
  1

  2
RICOH imagio MP W3600 RPCS
  4

  6

 40
0.0
 41
0.0
 42
0.0
 43
0.0
 44
0.0
 45
0.0
 46
0.0
 47
0.0
 48
0.0
 49
0.0
140
0.0
141
0.0
142
1.0
143
1.0
 70
   688
 72
     0
 73
     0
 74
     5
  7

 75
    16
147
1.0
148
0.0
149
0.0
100
AcDbLayout
  1
レイアウト1
 70
     1
 71
     1
 10
0.0
 20
0.0
 11
12.0
 21
9.0
 12
0.0
 22
0.0
 32
0.0
 14
1.000000000000000E+20
 24
1.000000000000000E+20
 34
1.000000000000000E+20
 15
-1.000000000000000E+20
 25
-1.000000000000000E+20
 35
-1.000000000000000E+20
146
0.0
 13
0.0
 23
0.0
 33
0.0
 16
1.0
 26
0.0
 36
0.0
 17
0.0
 27
1.0
 37
0.0
 76
     0
330
83D2
  0
MATERIAL
  5
8380
102
{ACAD_XDICTIONARY
360
8381
102
}
102
{ACAD_REACTORS
330
8377
102
}
330
8377
100
AcDbMaterial
  1
ByBlock
 72
     0
 43
0.0208333333333333
 43
0.0
 43
0.0
 43
0.0
 43
0.0
 43
0.0208333333333333
 43
0.0
 43
0.0
 43
0.0
 43
0.0
 43
1.0
 43
0.0
 43
0.0
 43
0.0
 43
0.0
 43
1.0
 77
     0
 47
0.0208333333333333
 47
0.0
 47
0.0
 47
0.0
 47
0.0
 47
0.0208333333333333
 47
0.0
 47
0.0
 47
0.0
 47
0.0
 47
1.0
 47
0.0
 47
0.0
 47
0.0
 47
0.0
 47
1.0
171
     0
 49
0.0208333333333333
 49
0.0
 49
0.0
 49
0.0
 49
0.0
 49
0.0208333333333333
 49
0.0
 49
0.0
 49
0.0
 49
0.0
 49
1.0
 49
0.0
 49
0.0
 49
0.0
 49
0.0
 49
1.0
175
     0
142
0.0208333333333333
142
0.0
142
0.0
142
0.0
142
0.0
142
0.0208333333333333
142
0.0
142
0.0
142
0.0
142
0.0
142
1.0
142
0.0
142
0.0
142
0.0
142
0.0
142
1.0
179
     0
144
0.0208333333333333
144
0.0
144
0.0
144
0.0
144
0.0
144
0.0208333333333333
144
0.0
144
0.0
144
0.0
144
0.0
144
1.0
144
0.0
144
0.0
144
0.0
144
0.0
144
1.0
147
0.0208333333333333
147
0.0
147
0.0
147
0.0
147
0.0
147
0.0208333333333333
147
0.0
147
0.0
147
0.0
147
0.0
147
1.0
147
0.0
147
0.0
147
0.0
147
0.0
147
1.0
  0
MATERIAL
  5
8378
102
{ACAD_XDICTIONARY
360
8379
102
}
102
{ACAD_REACTORS
330
8377
102
}
330
8377
100
AcDbMaterial
  1
ByLayer
 72
     0
 43
0.0208333333333333
 43
0.0
 43
0.0
 43
0.0
 43
0.0
 43
0.0208333333333333
 43
0.0
 43
0.0
 43
0.0
 43
0.0
 43
1.0
 43
0.0
 43
0.0
 43
0.0
 43
0.0
 43
1.0
 77
     0
 47
0.0208333333333333
 47
0.0
 47
0.0
 47
0.0
 47
0.0
 47
0.0208333333333333
 47
0.0
 47
0.0
 47
0.0
 47
0.0
 47
1.0
 47
0.0
 47
0.0
 47
0.0
 47
0.0
 47
1.0
171
     0
 49
0.0208333333333333
 49
0.0
 49
0.0
 49
0.0
 49
0.0
 49
0.0208333333333333
 49
0.0
 49
0.0
 49
0.0
 49
0.0
 49
1.0
 49
0.0
 49
0.0
 49
0.0
 49
0.0
 49
1.0
175
     0
142
0.0208333333333333
142
0.0
142
0.0
142
0.0
142
0.0
142
0.0208333333333333
142
0.0
142
0.0
142
0.0
142
0.0
142
1.0
142
0.0
142
0.0
142
0.0
142
0.0
142
1.0
179
     0
144
0.0208333333333333
144
0.0
144
0.0
144
0.0
144
0.0
144
0.0208333333333333
144
0.0
144
0.0
144
0.0
144
0.0
144
1.0
144
0.0
144
0.0
144
0.0
144
0.0
144
1.0
147
0.0208333333333333
147
0.0
147
0.0
147
0.0
147
0.0
147
0.0208333333333333
147
0.0
147
0.0
147
0.0
147
0.0
147
1.0
147
0.0
147
0.0
147
0.0
147
0.0
147
1.0
  0
MATERIAL
  5
8388
102
{ACAD_XDICTIONARY
360
8389
102
}
102
{ACAD_REACTORS
330
8377
102
}
330
8377
100
AcDbMaterial
  1
Global
 72
     0
 43
0.0208333333333333
 43
0.0
 43
0.0
 43
0.0
 43
0.0
 43
0.0208333333333333
 43
0.0
 43
0.0
 43
0.0
 43
0.0
 43
1.0
 43
0.0
 43
0.0
 43
0.0
 43
0.0
 43
1.0
 77
     0
 47
0.0208333333333333
 47
0.0
 47
0.0
 47
0.0
 47
0.0
 47
0.0208333333333333
 47
0.0
 47
0.0
 47
0.0
 47
0.0
 47
1.0
 47
0.0
 47
0.0
 47
0.0
 47
0.0
 47
1.0
171
     0
 49
0.0208333333333333
 49
0.0
 49
0.0
 49
0.0
 49
0.0
 49
0.0208333333333333
 49
0.0
 49
0.0
 49
0.0
 49
0.0
 49
1.0
 49
0.0
 49
0.0
 49
0.0
 49
0.0
 49
1.0
175
     0
142
0.0208333333333333
142
0.0
142
0.0
142
0.0
142
0.0
142
0.0208333333333333
142
0.0
142
0.0
142
0.0
142
0.0
142
1.0
142
0.0
142
0.0
142
0.0
142
0.0
142
1.0
179
     0
144
0.0208333333333333
144
0.0
144
0.0
144
0.0
144
0.0
144
0.0208333333333333
144
0.0
144
0.0
144
0.0
144
0.0
144
1.0
144
0.0
144
0.0
144
0.0
144
0.0
144
1.0
147
0.0208333333333333
147
0.0
147
0.0
147
0.0
147
0.0
147
0.0208333333333333
147
0.0
147
0.0
147
0.0
147
0.0
147
1.0
147
0.0
147
0.0
147
0.0
147
0.0
147
1.0
  0
MLEADERSTYLE
  5
83CD
102
{ACAD_REACTORS
330
83CC
102
}
330
83CC
100
AcDbMLeaderStyle
170
     2
171
     1
172
     0
 90
        2
 40
0.0
 41
0.0
173
     1
 91
-1056964608
340
83C1
 92
       -2
290
     1
 42
0.09
291
     1
 43
0.36
  3
Standard
 44
0.18
300

342
83BC
174
     1
178
     6
175
     1
176
     0
 93
-1056964608
 45
0.18
292
     0
297
     0
 46
0.18
 94
-1056964608
 47
1.0
 49
1.0
140
1.0
293
     1
141
0.0
294
     1
177
     0
142
1.0
295
     0
296
     0
143
0.125
1001
ACAD_MLEADERVER
1070
     2
  0
MLINESTYLE
  5
83C6
102
{ACAD_REACTORS
330
83C5
102
}
330
83C5
100
AcDbMlineStyle
  2
STANDARD
 70
     0
  3

 62
   256
 51
90.0
 52
90.0
 71
     2
 49
0.5
 62
   256
  6
BYLAYER
 49
-0.5
 62
   256
  6
BYLAYER
  0
ACDBPLACEHOLDER
  5
8376
102
{ACAD_REACTORS
330
8375
102
}
330
8375
  0
SCALE
  5
83AA
102
{ACAD_REACTORS
330
83A9
102
}
330
83A9
100
AcDbScale
 70
     0
300
1:1
140
1.0
141
1.0
290
     1
  0
SCALE
  5
83AB
102
{ACAD_REACTORS
330
83A9
102
}
330
83A9
100
AcDbScale
 70
     0
300
1/128" = 1'-0"
140
0.0078125
141
12.0
290
     0
  0
SCALE
  5
83AC
102
{ACAD_REACTORS
330
83A9
102
}
330
83A9
100
AcDbScale
 70
     0
300
1/64" = 1'-0"
140
0.015625
141
12.0
290
     0
  0
SCALE
  5
83AD
102
{ACAD_REACTORS
330
83A9
102
}
330
83A9
100
AcDbScale
 70
     0
300
1/32" = 1'-0"
140
0.03125
141
12.0
290
     0
  0
SCALE
  5
83AE
102
{ACAD_REACTORS
330
83A9
102
}
330
83A9
100
AcDbScale
 70
     0
300
1/16" = 1'-0"
140
0.0625
141
12.0
290
     0
  0
SCALE
  5
83AF
102
{ACAD_REACTORS
330
83A9
102
}
330
83A9
100
AcDbScale
 70
     0
300
3/32" = 1'-0"
140
0.09375
141
12.0
290
     0
  0
SCALE
  5
83B0
102
{ACAD_REACTORS
330
83A9
102
}
330
83A9
100
AcDbScale
 70
     0
300
1/8" = 1'-0"
140
0.125
141
12.0
290
     0
  0
SCALE
  5
83B1
102
{ACAD_REACTORS
330
83A9
102
}
330
83A9
100
AcDbScale
 70
     0
300
3/16" = 1'-0"
140
0.1875
141
12.0
290
     0
  0
SCALE
  5
83B2
102
{ACAD_REACTORS
330
83A9
102
}
330
83A9
100
AcDbScale
 70
     0
300
1/4" = 1'-0"
140
0.25
141
12.0
290
     0
  0
SCALE
  5
83B3
102
{ACAD_REACTORS
330
83A9
102
}
330
83A9
100
AcDbScale
 70
     0
300
3/8" = 1'-0"
140
0.375
141
12.0
290
     0
  0
SCALE
  5
83B4
102
{ACAD_REACTORS
330
83A9
102
}
330
83A9
100
AcDbScale
 70
     0
300
1/2" = 1'-0"
140
0.5
141
12.0
290
     0
  0
SCALE
  5
83B5
102
{ACAD_REACTORS
330
83A9
102
}
330
83A9
100
AcDbScale
 70
     0
300
3/4" = 1'-0"
140
0.75
141
12.0
290
     0
  0
SCALE
  5
83B6
102
{ACAD_REACTORS
330
83A9
102
}
330
83A9
100
AcDbScale
 70
     0
300
1" = 1'-0"
140
1.0
141
12.0
290
     0
  0
SCALE
  5
83B7
102
{ACAD_REACTORS
330
83A9
102
}
330
83A9
100
AcDbScale
 70
     0
300
1-1/2" = 1'-0"
140
1.5
141
12.0
290
     0
  0
SCALE
  5
83B8
102
{ACAD_REACTORS
330
83A9
102
}
330
83A9
100
AcDbScale
 70
     0
300
3" = 1'-0"
140
3.0
141
12.0
290
     0
  0
SCALE
  5
83B9
102
{ACAD_REACTORS
330
83A9
102
}
330
83A9
100
AcDbScale
 70
     0
300
6" = 1'-0"
140
6.0
141
12.0
290
     0
  0
SCALE
  5
83BA
102
{ACAD_REACTORS
330
83A9
102
}
330
83A9
100
AcDbScale
 70
     0
300
1'-0" = 1'-0"
140
12.0
141
12.0
290
     0
  0
ACDBSECTIONVIEWSTYLE
  5
83CF
102
{ACAD_XDICTIONARY
360
87C6
102
}
102
{ACAD_REACTORS
330
83CE
102
}
330
83CE
100
AcDbModelDocViewStyle
 70
     0
  3
Imperial24
290
     0
100
AcDbSectionViewStyle
 70
     0
 71
     0
 90
       78
 71
     1
340
83BC
 40
0.24
340
0
340
0
 40
0.24
300
I, O, Q, S, X, Z
 40
0.48
 90
        3
 40
0.18
 90
        1
 71
     2
340
83C3
 90
       25
340
83C3
 90
       50
 40
0.24
 40
0.0
 40
0.24
 71
     3
340
83BC
 40
0.24
 90
        1
 40
0.75
 90
        1
300
%<\AcVar ViewType \f "%tc1">% %<\AcVar ViewSectionStartId>%-%<\AcVar ViewSectionEndId>%\PSCALE %<\AcVar ViewScale \f "%sn">%
 71
     4
300
ANSI31
 40
1.0
 90
        0
290
     0
290
     0
 90
        6
 40
0.0
 40
1.570796326794896
 40
0.2617993877991494
 40
1.308996938995747
 40
-0.2617993877991494
 40
1.832595714594046
  0
TABLESTYLE
  5
83CB
102
{ACAD_XDICTIONARY
360
878D
102
}
102
{ACAD_REACTORS
330
83CA
102
}
330
83CA
100
AcDbTableStyle
  3
Standard
 70
     0
 71
     0
 40
0.06
 41
0.06
280
     0
281
     0
  7
STANDARD
140
0.18
170
     2
 62
     0
 63
     7
283
     0
274
    -2
284
     1
 64
     0
275
    -2
285
     1
 65
     0
276
    -2
286
     1
 66
     0
277
    -2
287
     1
 67
     0
278
    -2
288
     1
 68
     0
279
    -2
289
     1
 69
     0
  7
STANDARD
140
0.25
170
     5
 62
     0
 63
     7
283
     0
274
    -2
284
     1
 64
     0
275
    -2
285
     1
 65
     0
276
    -2
286
     1
 66
     0
277
    -2
287
     1
 67
     0
278
    -2
288
     1
 68
     0
279
    -2
289
     1
 69
     0
  7
STANDARD
140
0.18
170
     5
 62
     0
 63
     7
283
     0
274
    -2
284
     1
 64
     0
275
    -2
285
     1
 65
     0
276
    -2
286
     1
 66
     0
277
    -2
287
     1
 67
     0
278
    -2
288
     1
 68
     0
279
    -2
289
     1
 69
     0
  0
VISUALSTYLE
  5
8396
102
{ACAD_XDICTIONARY
360
879E
102
}
102
{ACAD_REACTORS
330
8390
102
}
330
8390
100
AcDbVisualStyle
  2
2dWireframe
 70
     4
 71
     0
 72
     2
 73
     0
 90
        0
 40
-0.6
 41
-30.0
 62
     5
 63
     7
 74
     1
 91
        4
 64
     7
 65
   257
 75
     1
175
     1
 42
1.0
 92
        0
 66
   257
 43
1.0
 76
     1
 77
     6
 78
     2
 67
     7
 79
     5
170
     0
171
     0
290
     0
174
     0
 93
        1
 44
0.0
173
     0
291
     0
 45
0.0
1001
ACAD
1000
AcDbSavedByObjectVersion
1070
     0
  0
VISUALSTYLE
  5
8395
102
{ACAD_XDICTIONARY
360
879C
102
}
102
{ACAD_REACTORS
330
8390
102
}
330
8390
100
AcDbVisualStyle
  2
Basic
 70
     7
 71
     1
 72
     0
 73
     1
 90
        0
 40
-0.6
 41
-30.0
 62
     5
 63
     7
 74
     0
 91
        4
 64
     7
 65
   257
 75
     1
175
     1
 42
1.0
 92
        8
 66
     7
 43
1.0
 76
     1
 77
     6
 78
     2
 67
     7
 79
     5
170
     0
171
     0
290
     0
174
     0
 93
        1
 44
0.0
173
     0
291
     1
 45
0.0
1001
ACAD
1000
AcDbSavedByObjectVersion
1070
     0
  0
VISUALSTYLE
  5
839C
102
{ACAD_XDICTIONARY
360
87AA
102
}
102
{ACAD_REACTORS
330
8390
102
}
330
8390
100
AcDbVisualStyle
  2
Brighten
 70
    12
 71
     2
 72
     2
 73
     0
 90
        0
 40
-0.6
 41
-30.0
 62
     5
 63
     7
 74
     1
 91
        4
 64
     7
 65
   257
 75
     1
175
     1
 42
1.0
 92
        8
 66
     7
 43
1.0
 76
     1
 77
     6
 78
     2
 67
     7
 79
     5
170
     0
171
     0
290
     0
174
     0
 93
        1
 44
50.0
173
     0
291
     1
 45
0.0
1001
ACAD
1000
AcDbSavedByObjectVersion
1070
     0
  0
VISUALSTYLE
  5
83A0
102
{ACAD_XDICTIONARY
360
87B2
102
}
102
{ACAD_REACTORS
330
8390
102
}
330
8390
100
AcDbVisualStyle
  2
ColorChange
 70
    16
 71
     2
 72
     2
 73
     3
 90
        0
 40
-0.6
 41
-30.0
 62
     5
 63
     8
 74
     1
 91
        4
 64
     7
 65
   257
 75
     1
175
     1
 42
1.0
 92
        8
 66
     8
 43
1.0
 76
     1
 77
     6
 78
     2
 67
     7
 79
     5
170
     0
171
     0
290
     0
174
     0
 93
        1
 44
0.0
173
     0
291
     1
 45
0.0
1001
ACAD
1000
AcDbSavedByObjectVersion
1070
     0
  0
VISUALSTYLE
  5
8399
102
{ACAD_XDICTIONARY
360
87A4
102
}
102
{ACAD_REACTORS
330
8390
102
}
330
8390
100
AcDbVisualStyle
  2
Conceptual
 70
     9
 71
     3
 72
     2
 73
     0
 90
        0
 40
-0.6
 41
-30.0
 62
     5
 63
     7
 74
     2
 91
        2
 64
     7
 65
   257
 75
     1
175
     1
 42
179.0
 92
        8
 66
     7
 43
1.0
 76
     1
 77
     6
 78
     2
 67
     7
 79
     3
170
     0
171
     0
290
     0
174
     0
 93
        1
 44
0.0
173
     0
291
     0
 45
0.0
1001
ACAD
1000
AcDbSavedByObjectVersion
1070
     0
  0
VISUALSTYLE
  5
839B
102
{ACAD_XDICTIONARY
360
87A8
102
}
102
{ACAD_REACTORS
330
8390
102
}
330
8390
100
AcDbVisualStyle
  2
Dim
 70
    11
 71
     2
 72
     2
 73
     0
 90
        0
 40
-0.6
 41
-30.0
 62
     5
 63
     7
 74
     1
 91
        4
 64
     7
 65
   257
 75
     1
175
     1
 42
1.0
 92
        8
 66
     7
 43
1.0
 76
     1
 77
     6
 78
     2
 67
     7
 79
     5
170
     0
171
     0
290
     0
174
     0
 93
        1
 44
-50.0
173
     0
291
     1
 45
0.0
1001
ACAD
1000
AcDbSavedByObjectVersion
1070
     0
  0
VISUALSTYLE
  5
83A8
102
{ACAD_XDICTIONARY
360
87C2
102
}
102
{ACAD_REACTORS
330
8390
102
}
330
8390
100
AcDbVisualStyle
  2
EdgeColorOff
 70
    22
 71
     2
 72
     2
 73
     0
 90
        0
 40
-0.6
 41
-30.0
 62
     5
 63
     7
 74
     1
 91
        4
 64
     7
 65
   257
 75
     1
175
     1
 42
1.0
 92
        8
 66
     7
 43
1.0
 76
     1
 77
     6
 78
     2
 67
     7
 79
     5
170
     0
171
     0
290
     0
174
     0
 93
        1
 44
0.0
173
     0
291
     1
 45
0.0
1001
ACAD
1000
AcDbSavedByObjectVersion
1070
     0
  0
VISUALSTYLE
  5
839F
102
{ACAD_XDICTIONARY
360
87B0
102
}
102
{ACAD_REACTORS
330
8390
102
}
330
8390
100
AcDbVisualStyle
  2
Facepattern
 70
    15
 71
     2
 72
     2
 73
     0
 90
        0
 40
-0.6
 41
-30.0
 62
     5
 63
     7
 74
     1
 91
        4
 64
     7
 65
   257
 75
     1
175
     1
 42
1.0
 92
        8
 66
     7
 43
1.0
 76
     1
 77
     6
 78
     2
 67
     7
 79
     5
170
     0
171
     0
290
     0
174
     0
 93
        1
 44
0.0
173
     0
291
     1
 45
0.0
1001
ACAD
1000
AcDbSavedByObjectVersion
1070
     0
  0
VISUALSTYLE
  5
8391
102
{ACAD_XDICTIONARY
360
8794
102
}
102
{ACAD_REACTORS
330
8390
102
}
330
8390
100
AcDbVisualStyle
  2
Flat
 70
     0
 71
     2
 72
     1
 73
     1
 90
        2
 40
-0.6
 41
30.0
 62
     5
 63
     7
 74
     0
 91
        0
 64
     7
 65
   257
 75
     1
175
     1
 42
1.0
 92
        8
 66
     7
 43
1.0
 76
     1
 77
     6
 78
     2
 67
     7
 79
     5
170
     0
171
     0
290
     0
174
     0
 93
       13
 44
0.0
173
     0
291
     1
 45
0.0
1001
ACAD
1000
AcDbSavedByObjectVersion
1070
     0
  0
VISUALSTYLE
  5
8392
102
{ACAD_XDICTIONARY
360
8796
102
}
102
{ACAD_REACTORS
330
8390
102
}
330
8390
100
AcDbVisualStyle
  2
FlatWithEdges
 70
     1
 71
     2
 72
     1
 73
     1
 90
        2
 40
-0.6
 41
30.0
 62
     5
 63
     7
 74
     1
 91
        0
 64
     7
 65
   257
 75
     1
175
     1
 42
1.0
 92
        0
 66
   257
 43
1.0
 76
     1
 77
     6
 78
     2
 67
     7
 79
     5
170
     0
171
     0
290
     0
174
     0
 93
       13
 44
0.0
173
     0
291
     1
 45
0.0
1001
ACAD
1000
AcDbSavedByObjectVersion
1070
     0
  0
VISUALSTYLE
  5
8393
102
{ACAD_XDICTIONARY
360
8798
102
}
102
{ACAD_REACTORS
330
8390
102
}
330
8390
100
AcDbVisualStyle
  2
Gouraud
 70
     2
 71
     2
 72
     2
 73
     1
 90
        2
 40
-0.6
 41
30.0
 62
     5
 63
     7
 74
     0
 91
        0
 64
     7
 65
   257
 75
     1
175
     1
 42
1.0
 92
        0
 66
     7
 43
1.0
 76
     1
 77
     6
 78
     2
 67
     7
 79
     5
170
     0
171
     0
290
     0
174
     0
 93
       13
 44
0.0
173
     0
291
     1
 45
0.0
1001
ACAD
1000
AcDbSavedByObjectVersion
1070
     0
  0
VISUALSTYLE
  5
8394
102
{ACAD_XDICTIONARY
360
879A
102
}
102
{ACAD_REACTORS
330
8390
102
}
330
8390
100
AcDbVisualStyle
  2
GouraudWithEdges
 70
     3
 71
     2
 72
     2
 73
     1
 90
        2
 40
-0.6
 41
30.0
 62
     5
 63
     7
 74
     1
 91
        0
 64
     7
 65
   257
 75
     1
175
     1
 42
1.0
 92
        0
 66
   257
 43
1.0
 76
     1
 77
     6
 78
     2
 67
     7
 79
     5
170
     0
171
     0
290
     0
174
     0
 93
       13
 44
0.0
173
     0
291
     1
 45
0.0
1001
ACAD
1000
AcDbSavedByObjectVersion
1070
     0
  0
VISUALSTYLE
  5
8398
102
{ACAD_XDICTIONARY
360
87A2
102
}
102
{ACAD_REACTORS
330
8390
102
}
330
8390
100
AcDbVisualStyle
  2
Hidden
 70
     6
 71
     1
 72
     2
 73
     2
 90
        0
 40
-0.6
 41
-30.0
 62
     5
 63
     7
 74
     2
 91
        2
 64
     7
 65
   257
 75
     2
175
     1
 42
40.0
 92
        0
 66
   257
 43
1.0
 76
     1
 77
     6
 78
     2
 67
     7
 79
     3
170
     0
171
     0
290
     0
174
     0
 93
        1
 44
0.0
173
     0
291
     0
 45
0.0
1001
ACAD
1000
AcDbSavedByObjectVersion
1070
     0
  0
VISUALSTYLE
  5
83A6
102
{ACAD_XDICTIONARY
360
87BE
102
}
102
{ACAD_REACTORS
330
8390
102
}
330
8390
100
AcDbVisualStyle
  2
JitterOff
 70
    20
 71
     2
 72
     2
 73
     0
 90
        0
 40
-0.6
 41
-30.0
 62
     5
 63
     7
 74
     1
 91
        4
 64
     7
 65
   257
 75
     1
175
     1
 42
1.0
 92
       10
 66
     7
 43
1.0
 76
     1
 77
     6
 78
     2
 67
     7
 79
     5
170
     0
171
     0
290
     0
174
     0
 93
        1
 44
0.0
173
     0
291
     1
 45
0.0
1001
ACAD
1000
AcDbSavedByObjectVersion
1070
     0
  0
VISUALSTYLE
  5
839E
102
{ACAD_XDICTIONARY
360
87AE
102
}
102
{ACAD_REACTORS
330
8390
102
}
330
8390
100
AcDbVisualStyle
  2
Linepattern
 70
    14
 71
     2
 72
     2
 73
     0
 90
        0
 40
-0.6
 41
-30.0
 62
     5
 63
     7
 74
     1
 91
        4
 64
     7
 65
   257
 75
     7
175
     7
 42
1.0
 92
        8
 66
     7
 43
1.0
 76
     1
 77
     6
 78
     2
 67
     7
 79
     5
170
     0
171
     0
290
     0
174
     0
 93
        1
 44
0.0
173
     0
291
     1
 45
0.0
1001
ACAD
1000
AcDbSavedByObjectVersion
1070
     0
  0
VISUALSTYLE
  5
83A7
102
{ACAD_XDICTIONARY
360
87C0
102
}
102
{ACAD_REACTORS
330
8390
102
}
330
8390
100
AcDbVisualStyle
  2
OverhangOff
 70
    21
 71
     2
 72
     2
 73
     0
 90
        0
 40
-0.6
 41
-30.0
 62
     5
 63
     7
 74
     1
 91
        4
 64
     7
 65
   257
 75
     1
175
     1
 42
1.0
 92
        9
 66
     7
 43
1.0
 76
     1
 77
     6
 78
     2
 67
     7
 79
     5
170
     0
171
     0
290
     0
174
     0
 93
        1
 44
0.0
173
     0
291
     1
 45
0.0
1001
ACAD
1000
AcDbSavedByObjectVersion
1070
     0
  0
VISUALSTYLE
  5
839A
102
{ACAD_XDICTIONARY
360
87A6
102
}
102
{ACAD_REACTORS
330
8390
102
}
330
8390
100
AcDbVisualStyle
  2
Realistic
 70
     8
 71
     2
 72
     3
 73
     0
 90
        2
 40
-0.6
 41
30.0
 62
     5
 63
     7
 74
     0
 91
        0
 64
     7
 65
   257
 75
     1
175
     1
 42
1.0
 92
        8
 66
   257
 43
1.0
 76
     1
 77
     6
 78
     2
 67
     7
 79
     3
170
     0
171
     0
290
     0
174
     0
 93
       13
 44
0.0
173
     0
291
     0
 45
0.0
1001
ACAD
1000
AcDbSavedByObjectVersion
1070
     0
  0
VISUALSTYLE
  5
83A5
102
{ACAD_XDICTIONARY
360
87BC
102
}
102
{ACAD_REACTORS
330
8390
102
}
330
8390
100
AcDbVisualStyle
  2
Shaded
 70
    27
 71
     2
 72
     2
 73
     1
 90
        2
 40
-0.6
 41
30.0
 62
     5
 63
     7
 74
     0
 91
        4
 64
     7
 65
   257
 75
     1
175
     1
 42
1.0
 92
        8
 66
   257
 43
1.0
 76
     1
 77
     6
 78
     2
 67
     8
 79
     3
170
     0
171
     0
290
     0
174
     0
 93
        5
 44
0.0
173
     0
291
     0
 45
0.0
1001
ACAD
1000
AcDbSavedByObjectVersion
1070
     0
  0
VISUALSTYLE
  5
83A4
102
{ACAD_XDICTIONARY
360
87BA
102
}
102
{ACAD_REACTORS
330
8390
102
}
330
8390
100
AcDbVisualStyle
  2
Shaded with edges
 70
    26
 71
     2
 72
     2
 73
     1
 90
        2
 40
-0.6
 41
30.0
 62
     5
 63
     7
 74
     1
 91
       10
 64
     7
 65
   257
 75
     2
175
     1
 42
1.0
 92
        8
 66
   257
 43
1.0
 76
     1
 77
     6
 78
     2
 67
     7
 79
     3
170
     0
171
     0
290
     0
174
     0
 93
        5
 44
0.0
173
     0
291
     0
 45
0.0
1001
ACAD
1000
AcDbSavedByObjectVersion
1070
     0
  0
VISUALSTYLE
  5
83A1
102
{ACAD_XDICTIONARY
360
87B4
102
}
102
{ACAD_REACTORS
330
8390
102
}
330
8390
100
AcDbVisualStyle
  2
Shades of Gray
 70
    23
 71
     2
 72
     2
 73
     3
 90
        0
 40
-0.6
 41
-30.0
 62
     5
 63
     7
 74
     2
 91
        2
 64
     7
 65
     7
 75
     1
175
     1
 42
40.0
 92
        8
 66
     7
 43
1.0
 76
     1
 77
     6
 78
     2
 67
     7
 79
     3
170
     0
171
     0
290
     0
174
     0
 93
        1
 44
0.0
173
     0
291
     0
 45
0.0
1001
ACAD
1000
AcDbSavedByObjectVersion
1070
     0
  0
VISUALSTYLE
  5
83A2
102
{ACAD_XDICTIONARY
360
87B6
102
}
102
{ACAD_REACTORS
330
8390
102
}
330
8390
100
AcDbVisualStyle
  2
Sketchy
 70
    24
 71
     1
 72
     2
 73
     2
 90
        0
 40
-0.6
 41
-30.0
 62
     5
 63
     7
 74
     2
 91
        2
 64
     7
 65
     7
 75
     1
175
     1
 42
40.0
 92
       11
 66
     7
 43
1.0
 76
     1
 77
     6
 78
     2
 67
     7
 79
     6
170
     0
171
     0
290
     0
174
     0
 93
        1
 44
0.0
173
     0
291
     0
 45
0.0
1001
ACAD
1000
AcDbSavedByObjectVersion
1070
     0
  0
VISUALSTYLE
  5
839D
102
{ACAD_XDICTIONARY
360
87AC
102
}
102
{ACAD_REACTORS
330
8390
102
}
330
8390
100
AcDbVisualStyle
  2
Thicken
 70
    13
 71
     2
 72
     2
 73
     0
 90
        0
 40
-0.6
 41
-30.0
 62
     5
 63
     7
 74
     1
 91
        4
 64
     7
 65
   257
 75
     1
175
     1
 42
1.0
 92
       12
 66
     7
 43
1.0
 76
     1
 77
     6
 78
     2
 67
     7
 79
     5
170
     0
171
     0
290
     0
174
     0
 93
        1
 44
0.0
173
     0
291
     1
 45
0.0
1001
ACAD
1000
AcDbSavedByObjectVersion
1070
     0
  0
VISUALSTYLE
  5
8397
102
{ACAD_XDICTIONARY
360
87A0
102
}
102
{ACAD_REACTORS
330
8390
102
}
330
8390
100
AcDbVisualStyle
  2
Wireframe
 70
     5
 71
     0
 72
     2
 73
     0
 90
        0
 40
-0.6
 41
-30.0
 62
     5
 63
     7
 74
     1
 91
        4
 64
     7
 65
   257
 75
     1
175
     1
 42
1.0
 92
        0
 66
   257
 43
1.0
 76
     1
 77
     6
 78
     2
 67
     7
 79
     3
170
     0
171
     0
290
     0
174
     0
 93
        1
 44
0.0
173
     0
291
     0
 45
0.0
1001
ACAD
1000
AcDbSavedByObjectVersion
1070
     0
  0
VISUALSTYLE
  5
83A3
102
{ACAD_XDICTIONARY
360
87B8
102
}
102
{ACAD_REACTORS
330
8390
102
}
330
8390
100
AcDbVisualStyle
  2
X-Ray
 70
    25
 71
     2
 72
     2
 73
     1
 90
        1
 40
0.5
 41
-30.0
 62
     5
 63
     7
 74
     1
 91
        0
 64
     7
 65
   257
 75
     1
175
     1
 42
1.0
 92
        8
 66
     7
 43
1.0
 76
     1
 77
     6
 78
     2
 67
     7
 79
     3
170
     0
171
     0
290
     0
174
     0
 93
       13
 44
0.0
173
     0
291
     0
 45
0.0
1001
ACAD
1000
AcDbSavedByObjectVersion
1070
     0
  0
DICTIONARYVAR
  5
8746
102
{ACAD_REACTORS
330
8741
102
}
330
8741
100
DictionaryVariables
280
     0
  1
1:1
  0
DICTIONARYVAR
  5
8743
102
{ACAD_REACTORS
330
8741
102
}
330
8741
100
DictionaryVariables
280
     0
  1
STANDARD
  0
DICTIONARYVAR
  5
8742
102
{ACAD_REACTORS
330
8741
102
}
330
8741
100
DictionaryVariables
280
     0
  1
STANDARD
  0
DICTIONARYVAR
  5
8744
102
{ACAD_REACTORS
330
8741
102
}
330
8741
100
DictionaryVariables
280
     0
  1
Imperial24
  0
DICTIONARYVAR
  5
8745
102
{ACAD_REACTORS
330
8741
102
}
330
8741
100
DictionaryVariables
280
     0
  1
Imperial24
  0
DICTIONARYVAR
  5
8749
102
{ACAD_REACTORS
330
8741
102
}
330
8741
100
DictionaryVariables
280
     0
  1
1
  0
DICTIONARYVAR
  5
8748
102
{ACAD_REACTORS
330
8741
102
}
330
8741
100
DictionaryVariables
280
     0
  1
0
  0
DICTIONARYVAR
  5
8747
102
{ACAD_REACTORS
330
8741
102
}
330
8741
100
DictionaryVariables
280
     0
  1
127
  0
DICTIONARYVAR
  5
874A
102
{ACAD_REACTORS
330
8741
102
}
330
8741
100
DictionaryVariables
280
     0
  1
2
  0
DICTIONARY
  5
87C8
330
83D1
100
AcDbDictionary
280
     1
281
     1
  3
ACAD_XREC_ROUNDTRIP
360
87C9
  0
DICTIONARY
  5
87CC
330
83D9
100
AcDbDictionary
280
     1
281
     1
  3
ACAD_XREC_ROUNDTRIP
360
87CD
  0
DICTIONARY
  5
87CA
330
83D5
100
AcDbDictionary
280
     1
281
     1
  3
ACAD_XREC_ROUNDTRIP
360
87CB
  0
DICTIONARY
  5
8381
330
8380
100
AcDbDictionary
280
     1
281
     1
  3
ACAD_XREC_ROUNDTRIP
360
8792
  3
BUMPTILE
360
8383
  3
DIFFUSETILE
360
8382
  3
OPACITYTILE
360
8386
  3
REFLECTIONTILE
360
8385
  3
REFRACTIONTILE
360
8387
  3
SPECULARTILE
360
8384
  0
DICTIONARY
  5
8379
330
8378
100
AcDbDictionary
280
     1
281
     1
  3
ACAD_XREC_ROUNDTRIP
360
8791
  3
BUMPTILE
360
837B
  3
DIFFUSETILE
360
837A
  3
OPACITYTILE
360
837E
  3
REFLECTIONTILE
360
837D
  3
REFRACTIONTILE
360
837F
  3
SPECULARTILE
360
837C
  0
DICTIONARY
  5
8389
330
8388
100
AcDbDictionary
280
     1
281
     1
  3
ACAD_XREC_ROUNDTRIP
360
8793
  3
BUMPTILE
360
838B
  3
DIFFUSETILE
360
838A
  3
FBXASSET
360
8499
  3
OPACITYTILE
360
838E
  3
REFLECTIONTILE
360
838D
  3
REFRACTIONTILE
360
838F
  3
SPECULARTILE
360
838C
  0
DICTIONARY
  5
87C6
330
83CF
100
AcDbDictionary
280
     1
281
     1
  3
ACAD_XREC_ROUNDTRIP
360
87C7
  0
DICTIONARY
  5
878D
330
83CB
100
AcDbDictionary
280
     1
281
     1
  3
ACAD_ROUNDTRIP_2008_TABLESTYLE_CELLSTYLEMAP
360
878E
  3
ACAD_XREC_ROUNDTRIP
360
87C4
  0
DICTIONARY
  5
879E
330
8396
100
AcDbDictionary
280
     1
281
     1
  3
ACAD_XREC_ROUNDTRIP
360
879F
  0
DICTIONARY
  5
879C
330
8395
100
AcDbDictionary
280
     1
281
     1
  3
ACAD_XREC_ROUNDTRIP
360
879D
  0
DICTIONARY
  5
87AA
330
839C
100
AcDbDictionary
280
     1
281
     1
  3
ACAD_XREC_ROUNDTRIP
360
87AB
  0
DICTIONARY
  5
87B2
330
83A0
100
AcDbDictionary
280
     1
281
     1
  3
ACAD_XREC_ROUNDTRIP
360
87B3
  0
DICTIONARY
  5
87A4
330
8399
100
AcDbDictionary
280
     1
281
     1
  3
ACAD_XREC_ROUNDTRIP
360
87A5
  0
DICTIONARY
  5
87A8
330
839B
100
AcDbDictionary
280
     1
281
     1
  3
ACAD_XREC_ROUNDTRIP
360
87A9
  0
DICTIONARY
  5
87C2
330
83A8
100
AcDbDictionary
280
     1
281
     1
  3
ACAD_XREC_ROUNDTRIP
360
87C3
  0
DICTIONARY
  5
87B0
330
839F
100
AcDbDictionary
280
     1
281
     1
  3
ACAD_XREC_ROUNDTRIP
360
87B1
  0
DICTIONARY
  5
8794
330
8391
100
AcDbDictionary
280
     1
281
     1
  3
ACAD_XREC_ROUNDTRIP
360
8795
  0
DICTIONARY
  5
8796
330
8392
100
AcDbDictionary
280
     1
281
     1
  3
ACAD_XREC_ROUNDTRIP
360
8797
  0
DICTIONARY
  5
8798
330
8393
100
AcDbDictionary
280
     1
281
     1
  3
ACAD_XREC_ROUNDTRIP
360
8799
  0
DICTIONARY
  5
879A
330
8394
100
AcDbDictionary
280
     1
281
     1
  3
ACAD_XREC_ROUNDTRIP
360
879B
  0
DICTIONARY
  5
87A2
330
8398
100
AcDbDictionary
280
     1
281
     1
  3
ACAD_XREC_ROUNDTRIP
360
87A3
  0
DICTIONARY
  5
87BE
330
83A6
100
AcDbDictionary
280
     1
281
     1
  3
ACAD_XREC_ROUNDTRIP
360
87BF
  0
DICTIONARY
  5
87AE
330
839E
100
AcDbDictionary
280
     1
281
     1
  3
ACAD_XREC_ROUNDTRIP
360
87AF
  0
DICTIONARY
  5
87C0
330
83A7
100
AcDbDictionary
280
     1
281
     1
  3
ACAD_XREC_ROUNDTRIP
360
87C1
  0
DICTIONARY
  5
87A6
330
839A
100
AcDbDictionary
280
     1
281
     1
  3
ACAD_XREC_ROUNDTRIP
360
87A7
  0
DICTIONARY
  5
87BC
330
83A5
100
AcDbDictionary
280
     1
281
     1
  3
ACAD_XREC_ROUNDTRIP
360
87BD
  0
DICTIONARY
  5
87BA
330
83A4
100
AcDbDictionary
280
     1
281
     1
  3
ACAD_XREC_ROUNDTRIP
360
87BB
  0
DICTIONARY
  5
87B4
330
83A1
100
AcDbDictionary
280
     1
281
     1
  3
ACAD_XREC_ROUNDTRIP
360
87B5
  0
DICTIONARY
  5
87B6
330
83A2
100
AcDbDictionary
280
     1
281
     1
  3
ACAD_XREC_ROUNDTRIP
360
87B7
  0
DICTIONARY
  5
87AC
330
839D
100
AcDbDictionary
280
     1
281
     1
  3
ACAD_XREC_ROUNDTRIP
360
87AD
  0
DICTIONARY
  5
87A0
330
8397
100
AcDbDictionary
280
     1
281
     1
  3
ACAD_XREC_ROUNDTRIP
360
87A1
  0
DICTIONARY
  5
87B8
330
83A3
100
AcDbDictionary
280
     1
281
     1
  3
ACAD_XREC_ROUNDTRIP
360
87B9
  0
XRECORD
  5
87C9
102
{ACAD_REACTORS
330
87C8
102
}
330
87C8
100
AcDbXrecord
280
     1
102
DISPLAYNAME
  1
Imperial24
102
FLAGS
 90
        0
  0
XRECORD
  5
87CD
102
{ACAD_REACTORS
330
87CC
102
}
330
87CC
100
AcDbXrecord
280
     1
102
SHADEPLOT
 70
     0
102
SHADEPLOTRESLEVEL
 70
     2
102
SHADEPLOTCUSTOMDPI
 70
   300
  0
XRECORD
  5
87CB
102
{ACAD_REACTORS
330
87CA
102
}
330
87CA
100
AcDbXrecord
280
     1
102
SHADEPLOT
 70
     0
102
SHADEPLOTRESLEVEL
 70
     2
102
SHADEPLOTCUSTOMDPI
 70
   300
  0
XRECORD
  5
8792
102
{ACAD_REACTORS
330
8381
102
}
330
8381
100
AcDbXrecord
280
     1
102
MATERIAL
148
0.0
149
0.0
149
0.0
 93
        0
 94
      127
282
     0
 72
     0
 77
     0
171
     0
175
     0
179
     0
273
     0
  0
XRECORD
  5
8383
102
{ACAD_REACTORS
330
8381
102
}
330
8381
100
AcDbXrecord
280
     1
270
     1
271
     1
  0
XRECORD
  5
8382
102
{ACAD_REACTORS
330
8381
102
}
330
8381
100
AcDbXrecord
280
     1
270
     1
271
     1
  0
XRECORD
  5
8386
102
{ACAD_REACTORS
330
8381
102
}
330
8381
100
AcDbXrecord
280
     1
270
     1
271
     1
  0
XRECORD
  5
8385
102
{ACAD_REACTORS
330
8381
102
}
330
8381
100
AcDbXrecord
280
     1
270
     1
271
     1
  0
XRECORD
  5
8387
102
{ACAD_REACTORS
330
8381
102
}
330
8381
100
AcDbXrecord
280
     1
270
     1
271
     1
  0
XRECORD
  5
8384
102
{ACAD_REACTORS
330
8381
102
}
330
8381
100
AcDbXrecord
280
     1
270
     1
271
     1
  0
XRECORD
  5
8791
102
{ACAD_REACTORS
330
8379
102
}
330
8379
100
AcDbXrecord
280
     1
102
MATERIAL
148
0.0
149
0.0
149
0.0
 93
        0
 94
      127
282
     0
 72
     0
 77
     0
171
     0
175
     0
179
     0
273
     0
  0
XRECORD
  5
837B
102
{ACAD_REACTORS
330
8379
102
}
330
8379
100
AcDbXrecord
280
     1
270
     1
271
     1
  0
XRECORD
  5
837A
102
{ACAD_REACTORS
330
8379
102
}
330
8379
100
AcDbXrecord
280
     1
270
     1
271
     1
  0
XRECORD
  5
837E
102
{ACAD_REACTORS
330
8379
102
}
330
8379
100
AcDbXrecord
280
     1
270
     1
271
     1
  0
XRECORD
  5
837D
102
{ACAD_REACTORS
330
8379
102
}
330
8379
100
AcDbXrecord
280
     1
270
     1
271
     1
  0
XRECORD
  5
837F
102
{ACAD_REACTORS
330
8379
102
}
330
8379
100
AcDbXrecord
280
     1
270
     1
271
     1
  0
XRECORD
  5
837C
102
{ACAD_REACTORS
330
8379
102
}
330
8379
100
AcDbXrecord
280
     1
270
     1
271
     1
  0
XRECORD
  5
8793
102
{ACAD_REACTORS
330
8389
102
}
330
8389
100
AcDbXrecord
280
     1
102
MATERIAL
148
0.0
149
0.0
149
0.0
 93
        0
 94
      127
282
     0
 72
     0
 77
     0
171
     0
175
     0
179
     0
273
     0
  0
XRECORD
  5
838B
102
{ACAD_REACTORS
330
8389
102
}
330
8389
100
AcDbXrecord
280
     1
270
     1
271
     1
  0
XRECORD
  5
838A
102
{ACAD_REACTORS
330
8389
102
}
330
8389
100
AcDbXrecord
280
     1
270
     1
271
     1
  0
XRECORD
  5
8499
102
{ACAD_REACTORS
330
8389
102
}
330
8389
100
AcDbXrecord
280
     1
 70
     1
 90
1959938040
 71
     1
  1
2DC38BC7-45E6-48F0-94E9-0D4FC3E295C5
311
504B030414000608080063767857E0BE6268BF000000200100004F00000038303239433530412D433044312D343839382D424430462D4143453041423245464542302F4173736574446174612F446566696E6974696F6E4974657261746F7250726F706572746965732E62696EEB606060F80F0540260323103700495E20ED
311
9E9A975A94991C9C9C919A9BC8C00612C9C94F4ACC6147C831019920AE4B6A5A62694E0948976F6671726A4E4E625E6A7E69B12042A9426E6209D0B8C41C3D90264E20860914834C48875806B2DF0F88414E02D189290556F689C5C5A925B6FA694915FACE064606C6CE2EAEBAA6AEC62EBA26E6466EBA4E2E2E26BACE864E
311
AE46262616E626A616FA45A9C5F9A545C9A9C5FA46FA06F15093E30BF2D2191834426F3254031D00720308130200504B030414000608080063767857213AD0F916010000300200004500000038303239433530412D433044312D343839382D424430462D4143453041423245464542302F4173736574446174612F496E7374
311
616E636550726F706572746965732E62696EEB606060F80F0540260323103700495E20ED9E9A975A94991C9C9C919A9BA8021430727136B6707236D735317535D335B17033D0B53471B5D43570317173367635B2347536654768046931363471713532B5D435353131D635313332D475727372D13534373670367376B67474
311
B5042A03DBCBA019D37FE8ABC6157B20CD04146B0062181F4C03F940F0C11EA29A8141C08141002C0426541C106CAC2CA046088033B02A030AC2157C6006F21A8018AAF50194E6010A610250382264E08660284CD9E98021862280A91564B406929A0FF62C401E28B6F88038B83CB1243943D7A928312F25350524F364D2B3
311
D555C0407CD30FA1BFF440E83F9D109AA51D42F3B440689146082D5307A155AA21B44E0584362985D000504B03041400060808006376785728BB58AF800100009E0500003D00000038303239433530412D433044312D343839382D424430462D4143453041423245464542302F536368656D61732F436F6D6D6F6E53636865
311
6D612E786D6CBD544D4FC23018BEFB2B96DE15493C78601010A34B880709DEDFB52FD0D8B54BD70DF6EFED3AC0B12E6442E2716BFB3CEFF3D18E26FB440405EA8C2B1992E1C323095052C5B8DC842437EBFB673219DF8DA659866649B798C078B48AE6410122242F2A4994AC7F93815DF85C049C8564CA0A901499DD886B2E
311
B9B1E02448F358701A9235880C49A0119892A20C89D1B9FD768815CAD268CB5E0355B40B1E47F3E37A2020464BED06AA57CE8FCC20C3C3446D46761A2632A8C1283D07031EFF2AE7CCB1BFEEE916E406DFAC8E36FFD99A9D60A6944090EEDC3B670C7DC13DE86B6B2C5C240D6E503BB85ACD579D513F1B9F9A69DC9CC22AFA
311
80C426D40AF0B21EA168559156B6276F0F726A6BFF04DCD513A87A62CAD41FB24FCB2858B3952E3D852084DA25B9303C15687973CC8E8AAE11DF2836C38C6A9E765E8C1BA1BFB1DC29CDFE518C8B5A7655A4ED7E77291ABEB80DBD82EC866ADE1B8D05AF9E35CF09D7A061F38A986D9EC412B8F0F65E5D81534D9B231D1E5A
311
8FE577A241F3A5FD01504B0304140006080800637678572CCEBD668A040000E01200003E00000038303239433530412D433044312D343839382D424430462D4143453041423245464542302F536368656D61732F47656E65726963536368656D612E786D6CD5586D6FDB380CFE7EBF42F0F7A649B70E1B90744856B4970F45
311
0FCD7A5F05459613EDE4174872DADCAF3F522F8ED3B88D2F1D06AC4050DBA2493EE4438AF2F8EB73AEC8466823CB62928C06C384888297A92C5693A4B6D9D9E7E4EBD51FE3A931C22EF85AE4EC6AFC38BF261BA626C9AD288496DC3F4FCEAFC63366845F7A10452AF41DB320C0D44EC26EAB20918735565582695670811A6A
311
49643A49A6E9069FA4604A64B29016DC4B48552F95E4932463CA888468C1D2B250DB4962750DF7CE273069CE8363F1FF4EDB00E0A21999574AE4A2B00C353B93F3BD4777B8A61ED8F604ABFEDD79CE56A2B7BDFBDBC50996E0ADDE16FED26223C5D30956C29BDF4A55EA686E5E58B112DA45CE67F76F4FA27EFA3FB672FD73
311
72FC388FAECDCA5209E693CAD167BADCD272F943701B3812F8A3D852008B1D2E32DB927B2F833C6EA95879925356D254582695095A3CE982924720BE5774A3CB9CDCDB350427D2DF20DA1B5532EBE2D5D6288D75D4F7E4FD9890A0EF8E3D93EBB8F8BA4758158EF6FB90A6F9520281C93DE7AAC6D24607DA296BB96018123F
311
821A7D6A5C5884050C475DA4865442732C8B95684A50165CBB3A32F25F783A4A480ED59AD7F924B968AEA50131F46303223E6A397B0E52976030DC1DCA81D7E7C1EDEEA42C19FF27635C505E2BD5198A599020DF50A2330FCB3AAF28CB0124108429553EF1B228802E2265D8F7CC2401042B155BCC7070F1E5C55F13B4A957
311
7362CCCE46C32174E010C3C378C44841A4BDA00FE3A12006CE11EE6AEC59894D3526DDE1CD59D503ECC324017F8061B7F162162FA62EDD81AE3308617770796DCBDAD2B2625C5AE8A63DE20B2C8AA5E95E76E5730823955956E33E705425A2187C185D36489A1B44D3DCEC2172F6BA2105C3546287A7194B2331768EBBE64F
311
6E70A9930ABE0ADEA89E9E2C38523B810287AD67A54A039C1606EAFE68F8304610BB9093DBDDABC0B2AE4E290DCDA15376D7E39F72B556F0B32EAB5D3D498B4C41ABADEC3A1434C422D87E8025A84BDCB2B1417ED750FAE4DA8976863974C577C7F902D3F156AD354DEA3540DE6BEAE2BEA52F7A2EB4CA43802ECE5BF2CE2E
311
DC9347179FFB023CE412E60BE16DA0BE29B374988A553F561DC04615DD35F7D2C8979F60E5955CE93DF29DED8AFA1EE6642D53418086C03C47C377910F75F7E8F5EF665F70B60FFB22AEDF897D119E8423C773E819A3C1E55E550599EE6EDCA34D0C86FD72057DF2CD46F16A470682471C164E4346D5306BF12D7D12D82CFF
311
673D41636C347443FEB51B50D72EA171A8E4A58623A4A16E0FA2B8B10A0D23268D87C33896EE8FB73305A74BF224EDBADFA0BD674AB354D63DB7BD5D83426761C077DE767728235446A552754EB93B755891C3C4CC6CADE37CF0E912A7BB38DBA010F9DE1282EDF470CA69A9CDA482E334C4A6EA4107987980B17E72F31730
311
EBF88BBD39E7C629F56797A3C0009C2C5AE7951D9A05A02773440F02EEB4DE396A3B6A570C72CCFBCD823B0B8ED3F1D5CEDDFED772FA70236C83FB7D86C385D570B87107535572A60A96035F8F7C6A7192F13007246BBE0521855E6AC46F3E27689CEE7D186A6FD679D98CDCAD13333E04EBE7ED6F55FF01504B0304140006
311
080800637678576180134D5F0100006B0300004500000038303239433530412D433044312D343839382D424430462D4143453041423245464542302F536368656D61732F52656E6465724D6174657269616C536368656D612E786D6CA5934D6FC2300C86EFFB1551EEE343DBA41D1A103009551ADAD40EAE28A4A68D942628
311
4961FCFBE5A340113B2071746D3F765EBF4DC6BFB5407BD0862B49F0B037C0082453059725C18DDD3EBFE3F1E829991803366715D474942CD30FB4A782E00C64017A412D684E454CE3FE28995203B162A6EA5AC94B66997D225E109CD63B0135484BAD1B3C07E9080CA35DB3119C11BCA5C200461A68A1A438126C75E3E230
311
D40FF81FB3F03C91D1E3A3A0AF79FE28E25BC39EC3E17E4C2A2D94A0833A51AF55BCCA7D88572FCBAC529C4140B020FC3AAFA886621DCED7EAD7664CC86024E806DC297DA1BB393E4156543457A4537DB8817349A70F8ACBF09B3EEE2CB2F33E91B65D60786E4E3B39B77E3FEEEF5650424525DA657FB8B46BE6BF064646F0
311
A0F7327C0BC1BC1B4CBBC1C419FA3CCB23500007872A2580CAAE5461865565294E4EDB4617B62FF579DF9A5B2F54E834076A597573A020912FED777F9B3F504B0304140006080800637678573B76529651000000570000004700000038303239433530412D433044312D343839382D424430462D4143453041423245464542
311
302F4173736574446174612F41737365745461626C654F66436F6E74656E74732E62696E5361606030727136B6707236D735317535D335B17033D0B53471B5D43570317173367635B23475361502AACB4D2C492DCA4CCC492C28484D2C4ACC4B4E050A82012F90744FCD03CA26072767A4E6260200504B0304140006080800
311
63767857F865834058000000680000004500000038303239433530412D433044312D343839382D424430462D4143453041423245464542302F4173736574446174612F53747265616D56657273696F6E5461626C652E696E66558CBD0A80300C06F73E4B117FB66E451741D041DC5BF98480A492E4FDD18EAEC7DD4555D89E
311
F28DF51A0B1BD8340C4DE7DD848B988C0ACF0649566493F2408C508DDEBB99D5129FF8F1AF8CF5B9503E20FAE5A16B5AF702504B030414000608080063767857ADA733C1350100009A0400003600000038303239433530412D433044312D343839382D424430462D4143453041423245464542302F4173736574446174612F
311
636E782E786D6CCD94314FC3301085FF4AE43D76120A4295E30AC1D209242A06B6AB7369AD3A76645F10FC7BEC3603A888A943D7F3BBF3F327BF93ABCFC1161F18A2F1AE6535AF58814EFBCEB85DCB26EACB7B56AC940CDED30F192B1C0CD8B25C664AEE829FC6B9D4610F93CD556BDC612E3EC488B481ADC5E7FED13B4247
311
9115DA428C2D8B7A8F037098C877180FBC03025EF380D14F41639A4466C079920E08841D534DD5DC94755D368B4DBD58DED6CBEAEE5D8AAC5472EBBD9DF5265D16FC58E8D3AD4C5552E46325A760664D7E0B537F79E45BE3A4484A252385C464EEA0AF3175C0385AA381123AE13521954984304871122B2932835F249EB037
311
CEE496753206E4C34BB287810C5E1D91FFBC5E9ECCDA4502A7F17A799C3BBC3C85D7E30F7A3B05F298986BCBC9B9436E5C7F819488E31A49A1C95B457D03504B0304140006080800637678572B9B4F69090100004F0300003400000038303239433530412D433044312D343839382D424430462D4143453041423245464542
311
302F536368656D61732F636E782E786D6CCD93BD4E042114855F85D00FCC8CAB311B862D2CAC6CD4CA0EE1EE2E59863BE1C7E8DB0B23C56E62A7C57670F842CE395CC4EE7376E40342B4E8273AB09E12F01A8DF58789E6B4EFEE29D9491110D319468957334CB4CA548A43C0BC34C9C05E65575567FDA9890F38CFE85FF411
311
664589762AC689C675CB544E68209E985149B18105889883867243B233B41B740095C05039F6E34D370CDDB8791D36DBDB61DBDFBD095E4929DE115DE3AD4F1070211ACBC2173BBDE0F5588A1C6C636A062ACFBDB1D286E0859022A6503A6864FA5A0AA996C559AD52A98AAFE00F2305AF512F023F828760F57526BE30F76F
311
919FC11B084FE5958255EE3A93FFE6F16F05F075F6CB08D4AF20BF01504B030414000608080063767857410A3D5871000000A40000002C00000038303239433530412D433044312D343839382D424430462D4143453041423245464542302F636E782E786D6C55CC4D0E82301086E1AB34B31774E7A22D31F1069E60020334
311
B633A63FC6E34B0909B07DDE2F9FEE7EC1AB2FC5E4840DDC9A2B28E25E06C7938192C7CB1D54677514C9871928C640062A83D55394F2D968A0118BAFEA1DBF377CA444F98919176EAB9FEAAB9F2960DA5BBB1E2ED3FA6FFF504B03041400060808006376785713D8F5477E000000A300000007000000636E782E786D6C4D8C
311
D10A832018465F45FE7BB7BFD8C0400D337B8F581632D36839F6F8D3D1C5AE3E387CE7F0F6B37AF2B6FBCBC520A0BA20101B1E71726111908E993220ADE47B8CC7DF0D4818572BA060907CD963DA4E34D9794CBE50EFC2F3840CEB46DF51518D7D456FAC61B4EB71A04A1B545D6D06D36136AE45C9F3EBE52D79F905504B03
311
041400060808006376785716E99B5DA600000035010000130000005B436F6E74656E745F54797065735D2E786D6C9590410E82301045AFD2740F4517C6180A0BF5065E60AC53688469D30E066F6F91AD9AB89CF9FFFD3F99BA9DC7413C3026E749CB4D59498164FCCD51A7E5C4B6D84BD136F5E5193089ECA5A465CF1C0E4A
311
25D3E308A9F401292BD6C711388FB15301CC1D3A54DBAADA29E38991B8E0254336F5092D4C038BF39CD76B6FC6A538AEBEA54A4B08617006389FA516557DE4AE8E7E70DE30729138228C5F021CD93F02D4FB0DCD0B504B0304140006080800637678573DEE336E64000000790000001B0000006175746F6465736B2D646573
311
69676E2D7061636B6167652E786D6C35CBC10E83200C00D05F21DCA56CA76D41FC96062B120735B69A7DBE268BB7777961F8D5AF396893C2ADB70FE7ADA196782C2DF776D7A97B5933C430F15651E5469C55D70F80A4992A3ADC954792C525AE70A1E4D6AD9816CC044FEFDF01FE3FDE907802504B03041400060808006376
311
7857A3D54A2DF9000000960100003700000038303239433530412D433044312D343839382D424430462D4143453041423245464542302F4173736574446174612F636F72652E786D6C8550CB6E833010FC15B477830D9492C8384221FD829E7AB36C87580936F2A3EAE7D70E546A4F3DED6A76767667E8E96B79149FCA796D
311
CD00A4C4502823ACD4661E20862BEAA13831EAAC0DBF685018BEA801320C8CCECEC67587843541998C1A2BD50E72EF5580423C5233801737B5F092C79018FE5EAE5CDCF9AC4A526E3C4663D4725FD532A9E9AB560E18992EA4C38733222D3EA0167723EACF871E8D5DD3936EBABCBE3523ADF232A3412F3FD785533C2809AC
311
C67583084175FB4EDAE30B39E2EE835699C9A80F2E79DE8F6677C0C6FCF5C403A7D536FDA31A57F9BF6AD42634F5AEBA6DF8E4233DF91C305AE594527946986A4E947D03504B030414000608080063767857790B48B3F8000000940100003500000038303239433530412D433044312D343839382D424430462D4143453041
311
423245464542302F536368656D61732F636F72652E786D6C8550CB6E833010FC15B477830D9492C8384249FA03EDA937CB76A89560233FAA7E7E6DA0527BEA6957B3B3B33B434F5FF3A3F854CE6B6B06202586421961A536D30031DC500FC58951676DF84583C2F0590D9061607472362E3B24AC09CA64D458A976907BAF02
311
14E2919A01BCF850332F790C89E1EFE5C2C59D4FAA24E5C66334462DF7552D939ABE69E58091CB9574F87046A4C507D4E26E44FDF9D0A3B16B7AD25DAECF2FCD48ABBCCC68D0F3CF75E1140F4A02AB71DD204250DDBE91F6F8448EB87BA7556632EA834B9EF7A3D91DB0D7F54F4FAB6DF647332EF27FCDA84D68EA5D73DBF0
311
C9457A711D305AE58C5259034C35E7C9BE01504B0304140006080800637678575FD5C36E02010000D70100002D00000038303239433530412D433044312D343839382D424430462D4143453041423245464542302F636F72652E786D6C9591C172832010865FC5D93B0A443B268364D4244FD0536F543686490447B0D3C72F
311
563B6D6FED09E6E7FB77F977C5F17D78246F3879E36C052CA590A0ED9C36B6AF600E575242729462722EFCC020B16AC00A1619A4E827378F9BD4391BD02EAA751A3751798F0192EE112F15F8EE86834AD51C22E1EFE9A8BABBEA3165E9CA4911CCF065ED26540135484EF98E304678FECCF243C10EF4E945640B29C56C6CD8
311
F1AD190EAFA813378618096421B2F53552B3D11B6374FCA3B91A9C409694EFDB82D6A4A52746F2725F92E6442FA46ECFB46EF8F9726E682C12CD52F830C5C96C459619FCD5BE1A7F259B47FDCF64ABC38364DFA1B265CC52649F3B88E7B212F901504B030414000608080063767857CFC84E1E07010000B201000008000000
311
636F72652E786D6C8D504B6EC32014BC0A628F0DB6EBDA1126B292F4045D75470D71516CB0F844EDED0B3195DA5D570FCDCC7B330C3D7EAE0BB84BEB94D10324058640EAC908A5E701067F451D044746AD31FE970C02CD5739C0044346676BC296A1C9682F7542B5113283DC39E9219896F818A09B3EE4CA0B1E7C54B85BB1
311
F1E9C667599062D731EAD5FAB33A59C9BD149055B8AA1121A86A5E4973782207DCBED13229190D41896CA544745757252D64E47C212DEE4F8834B8470D6E47D49DFA0E8D6DDD91F67C797EA9475AA665469DB7F1CFF948CCE981E3F7E44BCB9D62F4DD98250B6228018C5EBE20C3B44CC49FD06113FF08ADB4AFAB7C70DF70
311
31730CF420A2716A308E47BD71A6B6D937504B0102140014000608080063767857E0BE6268BF000000200100004F000000000000000000000000000000000038303239433530412D433044312D343839382D424430462D4143453041423245464542302F4173736574446174612F446566696E6974696F6E4974657261746F
311
7250726F706572746965732E62696E504B0102140014000608080063767857213AD0F9160100003002000045000000000000000000000000002C01000038303239433530412D433044312D343839382D424430462D4143453041423245464542302F4173736574446174612F496E7374616E636550726F706572746965732E
311
62696E504B010214001400060808006376785728BB58AF800100009E0500003D00000000000000000000000000A502000038303239433530412D433044312D343839382D424430462D4143453041423245464542302F536368656D61732F436F6D6D6F6E536368656D612E786D6C504B01021400140006080800637678572C
311
CEBD668A040000E01200003E000000000000000000000000008004000038303239433530412D433044312D343839382D424430462D4143453041423245464542302F536368656D61732F47656E65726963536368656D612E786D6C504B01021400140006080800637678576180134D5F0100006B0300004500000000000000
311
0000000000006609000038303239433530412D433044312D343839382D424430462D4143453041423245464542302F536368656D61732F52656E6465724D6174657269616C536368656D612E786D6C504B01021400140006080800637678573B76529651000000570000004700000000000000000000000000280B00003830
311
3239433530412D433044312D343839382D424430462D4143453041423245464542302F4173736574446174612F41737365745461626C654F66436F6E74656E74732E62696E504B0102140014000608080063767857F865834058000000680000004500000000000000000000000000DE0B000038303239433530412D433044
311
312D343839382D424430462D4143453041423245464542302F4173736574446174612F53747265616D56657273696F6E5461626C652E696E66504B0102140014000608080063767857ADA733C1350100009A0400003600000000000000000000000000990C000038303239433530412D433044312D343839382D424430462D
311
4143453041423245464542302F4173736574446174612F636E782E786D6C504B01021400140006080800637678572B9B4F69090100004F0300003400000000000000000000000000220E000038303239433530412D433044312D343839382D424430462D4143453041423245464542302F536368656D61732F636E782E786D
311
6C504B0102140014000608080063767857410A3D5871000000A40000002C000000000000000000000000007D0F000038303239433530412D433044312D343839382D424430462D4143453041423245464542302F636E782E786D6C504B010214001400060808006376785713D8F5477E000000A30000000700000000000000
311
00000000000038100000636E782E786D6C504B010214001400060808006376785716E99B5DA6000000350100001300000000000000000000000000DB1000005B436F6E74656E745F54797065735D2E786D6C504B01021400140006080800637678573DEE336E64000000790000001B00000000000000000000000000B21100
311
006175746F6465736B2D64657369676E2D7061636B6167652E786D6C504B0102140014000608080063767857A3D54A2DF90000009601000037000000000000000000000000004F12000038303239433530412D433044312D343839382D424430462D4143453041423245464542302F4173736574446174612F636F72652E78
311
6D6C504B0102140014000608080063767857790B48B3F80000009401000035000000000000000000000000009D13000038303239433530412D433044312D343839382D424430462D4143453041423245464542302F536368656D61732F636F72652E786D6C504B01021400140006080800637678575FD5C36E02010000D701
311
00002D00000000000000000000000000E814000038303239433530412D433044312D343839382D424430462D4143453041423245464542302F636F72652E786D6C504B0102140014000608080063767857CFC84E1E07010000B2010000080000000000000000000000000035160000636F72652E786D6C504B050600000000
311
110011005A060000621700000000
310
504B030414000608080063767857000000000000000000000000370000006662782F31323544333036332D463343322D344445302D423544442D3932364631343630343933352F617474726962757465732E62696E504B030414000608080063767857000000000000000000000000350000006662782F3132354433303633
310
2D463343322D344445302D423544442D3932364631343630343933352F76657274696365732E62696E504B030414000608080063767857F270F1330600000004000000360000006662782F31323544333036332D463343322D344445302D423544442D3932364631343630343933352F747269616E676C65732E62696E6366
310
60600000504B03041400060808006376785751464CB48900000043010000360000006662782F31323544333036332D463343322D344445302D423544442D3932364631343630343933352F6469726563746F72792E786D6C9D8F310EC2300C45AF127987122606C71DD918B841D4B851A43646695A717C52A85029031293A5
310
A76FBF6FACEF7DA7264E43906840EF0FA03836E242F406C6DCEE4EA06AC22492573150D1F66C60C640E8938CB705396EEDD86DE9B5042FE27813D640EA63BB001C722AF6E55CB61E4863F58284D5D3F53DD715CE1C3985E63FD7F1B7EBDD617E9F1E504B0304140006080800637678577166689137070000201C0000340000
310
006662782F31323544333036332D463343322D344445302D423544442D3932364631343630343933352F6F626A656374732E786D6CDD595B6FDB3614FE2B84F6B23DE866CB895D282E1ADB298C226D51A3C3DE045AA61D2EBA81941267BF7E8714294BB26C2B590B144B8058A1C9C373BE733FF2DFEFE3083D11C6699ADC18
310
AEE518882461BAA1C9EEC628F2AD3936D0FB29F2599AE6B57D064A704C6E0CB16C4CFD1D4B8B4C2D6DC81617517BF5EEF62FC4439210038511E6FCC6E0E10389B1858B3CDD10FE686D708EADDD766FB956B9B14976C770F6D0BA2AC38C2439B00AEB0950511CB8CD7F41247BEADB624363DBA0DFB6E1996DB614BCC9284D78
310
8E93F088AB169D413FAE86AE375F0C461373E47943D3BB1AB8E6EDDDEDDC74AF87CEEC6A369B7C584C0C34F5D7691A550AC848B2012DBE1853D7B7C53795F80A852EBEC3344948A8D0ECDAB0218A2E25BC8D490358578A565348296B6D61D853F813DB7A81D260A981B6164E7FD6AD375DFF0D20F03E56CA381156CE7306BA
310
56D897FEE0F876B9DAD00BE528C63961144728A26B86192808B6960A6A9011DE2248218199D4A2A657E7150CFBB22F7571B92DA248F8AF31959E16803F929C4BCEE83F841DB8AFDF063C81B4054DF2B112367FC980C4C4B7E562F9DD70A0BE2C8144DB08EFC05A404CB1693868E13513B1603937A69FEED6FB95880FDD9767
310
2CCD08CB85E54967567EA73558332D30BE1EA094B836757740E51B40FF1990AF78413E688ED1BDB7F7B4EC0C277C9BB218B4831C643AF0C741E2F1E8C9B7ABC353841AB1F214A6E0B63F08D386188DBB6B904EFD2730FA940D9570AB104760D3F734117E0E8682A2149620DE6FD77B63BA84600A8B700A47203DFCFAB67844
310
F051D28178D3D25057F8EDA128ED306D3F3BE8EA23D80CA361A5AA868CA7F01DFD107C3FCC579F5605DBE290DC2BC79E932D4D680EC9B49BA106E80D97FFBEFC2C3DF2489EC6AE10EED9A5227074E865A5F482A462801591874BD5C8957B0AEE1E45382169C1D57A57A00AD32865C1FA25287DB8F3AE3FB5119497817F0B0B
310
E80C6690DD434633018A3155E25591D03AE024E2A032C05DA9D4608DC347016F1042C47A0B1F60B598B589167116E0382D1211BE8FCDBB2D9A3574E48FEB4E06CE64309E5C6961B924AFBD4787868A79714F8CB31397CC1ADA525143532EFDC88368D9254108355391076986439A77DB424B08E5A100F659963774BB2D3804
310
F54E585A1C5B4377849CDADFEA92F3DCAB4B021AE31D09B65864B8CEFB1A0055C4B5049DC8ECA294739A102E2B94A3C8D542C5B120109476ABA9761821E5414C72FC16FB9329AF657E8C6CA3006AA95C54B397AD4F33A8B2E7298AA2724B9340CAFF12701C675159A55DC2C01DB46EE8C455302DAE78027B0B701E381B228B
310
EE4BD4ABB8A0F1ED457DF266F227E061F8A7C3A3AFA0507A438EBCAC59D71AB913F13386A072357287D75A1197B0D257E5A206890AA89AC297E099D0DD43BF80D6EB1E4EA26D40A3A88883321FE42486120CE705EBE5AF5723E748F92A2EB41CA276D396465020F70E9AB2F6D0D50748258B8F5341B3760D084513E8D17A09
310
722445A7094B5DC87E54B45D97B5FF7AAAFF395ED6FB9447F2F29CB24D27A7CD32425760BA6010E15265B8CA8E24E5A95F77BE58362E9771F0341115DFCA2E415908234F540C266407D4D93FF0679C87104857F2D3BC058FD890CDA1A6689053630E630A976A6ABA4EAD773A10EC44FA68145E4B1150639836601167EFC543
310
F40D83AAA1F2E3B6AA6AEC727D29129B058395031F67687DF9B86A518195DEA7BF0A8CC8738B825A9D8942EE0CA9EFCB43BDDAA2A024FABE3C733C7F28E27582A9C88CC22CF0267BF75EF6923736340AF6CC1938C3D97C618E16C3B9E95D0FEECCDBF9DC3367EEED62E079E36B6F34B619E169C142C2ED81ED04BA76CA929D
310
368C12BA3E1D054C152EB77EDA9EDB0AFE1F771451BAC6A76CF1576D28AA724F14642D5FECDB507406EAF5EBAA7FF728507727B15755CEE5AC401BF8F9B405C148E7FBFEA58526AD2B896E9E6B19F19589F764B7F2D3734C23A077E687C68EAE90DF8CC5307BEAC852BABB95716D309F0DC7B7B36BD31B2DAE4C6F7CE79813
310
6F31319DB977371B2E0693D1ECD047A85CD837AFFC123154335B1BA3C13498A71185A13CD9A01D49A10382A9438FF8CA62C265670305804AE3FA8D408FD34FE54C35C7EB489F0E1F300CA62395918B1086A2D075DC186A1DFD066350318994C329EB11128FB27603158CDE1860023985FC62AD619C258787927A6B5C096AC3
310
C94EF44CE5A9EAFFC331810ED8CA41AE6A4F1F5C94640DEB84E14026DF1340B4D305C9DB45D7EC209CC3E3BAC82B610E0B07691408FA8540291C4CFD1E15BC7B083CE7E5722DB9A70149AFC9FC593B28A99A39663B395EAFE1FD61FED51693F1E5179445C54EA8F35CBE6F5032459D1115E510CA07C350626658F4E1B377F6
310
5796C22BA618DD513002F4FB7E7CF5873D4BE3384DCA25FB837A5185560FF0DA6963EB911F142E8E3BB265DDA3C6FA30B7E2C4C21BFE080BA05A46C56CB484B861005578AA1980D688D0051C6BEC5FCE914A02B512B65EBA0A78E44C1F8123897739C26DEA1B6A0348F005E0AA9CD3560F7AC1B7190CC1A7FF02504B030414
310
000608080063767857F51F68FE3E01000046050000300000006662782F31323544333036332D463343322D344445302D423544442D3932364631343630343933352F636E782E786D6CCD94C14EC3300C865FA5CABD4D3B0642539A491C78020E885B9A7A252C8DABC445ECED494636406888C324768B9CDFD2FFD9BF2CD66F
310
A32D5EC10783AE654D55B3029CC6DEB8A165336DCA5B56ACA5F088F445C60AA74668592A3329068FF3944B3D6CD46C53D51AB7CD4545E44D3713045668AB426859D0CF30AA4ACD843D846DD52B5255537908387B0DB19FCC08B95F7B50043D938B7A7155364DB9583E34CBD575B3AA6F9E044F4A293A449BF5C611789C0A8D
310
F1E1A2995AF0F42DC5EC4DD62402263F9D559D7182C77F294274EB86ACA3DD9474D3648D5614C7C45113501945A046C13FC452F0C4FB8DFAFEEEF1E0A0E88D074DE877FF3480E6D4008EC6AA9884BFF1EF85BF6363F71271FF6BDB2761B3ADB3A11ED21A625C7FEE3FA648B9C15E5EE88FC6CE9FF9784AC8E8CB433EF83A13
310
31DF9FBCB8F47401E53B504B03041400060808006376785768BB5E6D7E000000A30000000B0000006662782F636E782E786D6C4D8CDF0AC2201C465F457EF796FF69A00ECAF61EA3B921391D6B468FDF8C5D74F5C1E13B47B79F39A2B75F5F212703F44400F9F4C843489381B28DF802A8B57ACD79FBBB014AFDEC0D540C56
310
4F6B2ECB81063FF625561A437A1E9032E938511C77FCC6B0707782AFD239DC30D551A18868B8DC8D7355F6F9F5F6AD79FB05504B030414000608080063767857A6D797065F0000008200000007000000636E782E786D6C4DCB3B0E80201045D1AD90E9FD7516806B51190811670C8A61F982B1B0BAC9C97B72CA7B1037C6D3
310
332918DA1E04D2CAC69353902EDB8C20262D23F3F59B81A079470595414B17391D1F19B4730A5583A7ED43BBE4025D9592775E5ADFFA01504B0304140006080800637678574FEB6A7CA0000000F4000000130000005B436F6E74656E745F54797065735D2E786D6C7D8F4B0EC2300C44AF1279DFA6B0400835ED02B8011730
310
C16D239A8F121795DB93D02D6269CFBC19BBED573B8B17C564BC53B0AB1B10E4B47F18372A5878A88E20FAAEBDBD032591BD2E299898C349CAA427B2986A1FC86565F0D122E7318E32A07EE24872DF3407A9BD63725C71C980AEBDD080CBCCE2BAE6F5D69B7110E7CD57AA146008B3D1C8F92C5954F993BB1BF787F39A89AB
310
C491D09600F9FDA2FB00504B0304140006080800637678573DEE336E64000000790000001B0000006175746F6465736B2D64657369676E2D7061636B6167652E786D6C35CBC10E83200C00D05F21DCA56CA76D41FC96062B120735B69A7DBE268BB7777961F8D5AF396893C2ADB70FE7ADA196782C2DF776D7A97B5933C430
310
F15651E5469C55D70F80A4992A3ADC954792C525AE70A1E4D6AD9816CC044FEFDF01FE3FDE907802504B030414000608080063767857D3D03551F8000000960100003B0000006662782F31323544333036332D463343322D344445302D423544442D3932364631343630343933352F7265736F75726365732F636F72652E78
310
6D6C8550496EC3300CFC8AC1BB1779699D405610B5E90B7AEA4D901847482C195A8A3EBF52E202EDA92712C3992139F4F0B5DC8A4F745E5B3301A91A28D048ABB4992788E15C8E501C1875D6865F34288C5870820C03A3B3B371DD20694D40935163156EA0F01E0314F2969A09BCBCE0222A114362F86BB50A79153356A47A
310
F0188D51AB4DAA5572D3678D0ED8F03A8C3D1F48D936C358F6C7E7B6E4DDE9A57CEBC971D772CE4F7C47EB2C6634E8E567BB7428022A606DD3762549F2FE9DF4FB81EC9BA70F5A6726A33EB8F4F3B6347F07CCA1B7D149F4B47E4CFFB8C655FDEF1AB5095DBBB93E141E184947DE078CD639A554EE11A69A1365DF504B0304
310
140006080800637678575DCDA71BF1000000B1010000310000006662782F31323544333036332D463343322D344445302D423544442D3932364631343630343933352F636F72652E786D6C8D504B6EC32014BC8AC51ECCC7B69A0813A9757382AEBA43401C94182C3E558F5F885DA9DD65F5D0BC1966DEF0D3F7726FBE4C88
310
D6BB11108441639CF2DABA7904395DE00B684E8207EFD31F1A689C5CCC082A0C049F83CFEB0E29EF927115755E9B1D94319A041A752F8F114475358B4432A7C28837B44A7593B341046D3CC1935D7EA52A18998C068262CA202190761FA43BF6E488874FDE56A6E0395BBD5B595DDCEDC59A0004A1FDC4F0C0E099BD51D84D
310
EF18BEF6D3040F7438936EC0DD81F5BCAD62C1630AE5E6FD937ADDB3F24DF82F735EF51399AD4B8CEE869B2216CF92E7B110BCAD0596F168B7CC5AB6F801504B030414000608080063767857C7977A8F54010000DD0200000C0000006662782F636F72652E786D6C8D52CB6E833010FC15E43B0F1368D3C8380A6DFA053DF5
310
E618875A011B191BE5F3BBE621CAA1698564ACD99DD9D991C9F1DE36C1204C2FB52A108E121408C57525555D2067AFE11E05474A8CD6F6471B0A146B45813C8C28A98D76DD0C71ADAC501E55BA1233C8FA5E5814F0062E05EAF9976859C49C858EFE16758CDF582D221C4D7D943827AB992A2B509357290CA2F95BBECFCA1C
310
876992EFC3ECF49C86E5EEFC1ABE67F8F4929665792E5F48ECC99458D92ED3B911CC8A0AD134497721067AF681B3438E0FC9D327897D2725BD35B0F33CD46F87E8F57227F1846FF45C57FDADE7A4B2BB74D69B183DA218EC8D054A629F0FFCC6F0B619C260C8CFB24BB3AC70036810DC6A9341A5D26E2D0DAC7102A49360FC
310
483C55417914F84D277DA0F358038262AA066BCCC2F5E2AC9FBEF5D409130EF61E286D5AD6ACE6268BEBB90EDAACB4D0B96EB4F90F7B59750933F60F937E03504B0304140006080800637678570F3BD36E07010000B201000008000000636F72652E786D6C8D50CB6EC32010FC15B4776C83ED3689305168D32FE8A9376A88
310
8B62836570D4FE7D21A6527BEB69D13C768665C7CF694437BD78E36C07A4A80069DB3B65ECD0C11A2E7807E8C8D9E25CF8250364E5A43B483070362C6E9D33D43B1BB44DA8754A67507AAF03A07E8C8F0E7CFFA12759C8354485BF16B3ECAF72D00529361D67C14C3FD67ED13268059C56B4C68460DABC92E6D09243F5F0C6
310
CAA4E46C5D8DCA5146C57473317A01DE3EB7BB46B4D153B53BDC9C1E2916F5F909BF34E4B4A74288B3D8B3329939F361897FCE4B62CF80BCBCA55C566E1467EFCE8D59104B29E4ECF805BC626522FE945E67F58FD2C6869AE6859BC30327B1D09D88C1E98271DCCF1B67BA36FF06504B010214001400060808006376785700
310
00000000000000000000003700000000000000000000000000000000006662782F31323544333036332D463343322D344445302D423544442D3932364631343630343933352F617474726962757465732E62696E504B0102140014000608080063767857000000000000000000000000350000000000000000000000000055
310
0000006662782F31323544333036332D463343322D344445302D423544442D3932364631343630343933352F76657274696365732E62696E504B0102140014000608080063767857F270F13306000000040000003600000000000000000000000000A80000006662782F31323544333036332D463343322D344445302D4235
310
44442D3932364631343630343933352F747269616E676C65732E62696E504B010214001400060808006376785751464CB489000000430100003600000000000000000000000000020100006662782F31323544333036332D463343322D344445302D423544442D3932364631343630343933352F6469726563746F72792E78
310
6D6C504B01021400140006080800637678577166689137070000201C00003400000000000000000000000000DF0100006662782F31323544333036332D463343322D344445302D423544442D3932364631343630343933352F6F626A656374732E786D6C504B0102140014000608080063767857F51F68FE3E010000460500
310
003000000000000000000000000000680900006662782F31323544333036332D463343322D344445302D423544442D3932364631343630343933352F636E782E786D6C504B010214001400060808006376785768BB5E6D7E000000A30000000B00000000000000000000000000F40A00006662782F636E782E786D6C504B01
310
02140014000608080063767857A6D797065F0000008200000007000000000000000000000000009B0B0000636E782E786D6C504B01021400140006080800637678574FEB6A7CA0000000F400000013000000000000000000000000001F0C00005B436F6E74656E745F54797065735D2E786D6C504B01021400140006080800
310
637678573DEE336E64000000790000001B00000000000000000000000000F00C00006175746F6465736B2D64657369676E2D7061636B6167652E786D6C504B0102140014000608080063767857D3D03551F8000000960100003B000000000000000000000000008D0D00006662782F31323544333036332D463343322D3444
310
45302D423544442D3932364631343630343933352F7265736F75726365732F636F72652E786D6C504B01021400140006080800637678575DCDA71BF1000000B10100003100000000000000000000000000DE0E00006662782F31323544333036332D463343322D344445302D423544442D3932364631343630343933352F63
310
6F72652E786D6C504B0102140014000608080063767857C7977A8F54010000DD0200000C000000000000000000000000001E1000006662782F636F72652E786D6C504B01021400140006080800637678570F3BD36E07010000B201000008000000000000000000000000009C110000636F72652E786D6C504B050600000000
310
0E000E0080040000C91200000000
  0
XRECORD
  5
838E
102
{ACAD_REACTORS
330
8389
102
}
330
8389
100
AcDbXrecord
280
     1
270
     1
271
     1
  0
XRECORD
  5
838D
102
{ACAD_REACTORS
330
8389
102
}
330
8389
100
AcDbXrecord
280
     1
270
     1
271
     1
  0
XRECORD
  5
838F
102
{ACAD_REACTORS
330
8389
102
}
330
8389
100
AcDbXrecord
280
     1
270
     1
271
     1
  0
XRECORD
  5
838C
102
{ACAD_REACTORS
330
8389
102
}
330
8389
100
AcDbXrecord
280
     1
270
     1
271
     1
  0
XRECORD
  5
87C7
102
{ACAD_REACTORS
330
87C6
102
}
330
87C6
100
AcDbXrecord
280
     1
102
DISPLAYNAME
  1
Imperial24
102
FLAGS
 90
        0
  0
CELLSTYLEMAP
  5
878E
102
{ACAD_REACTORS
330
878D
102
}
330
878D
100
AcDbCellStyleMap
 90
        3
300
CELLSTYLE
  1
TABLEFORMAT_BEGIN
 90
        5
170
     1
 91
        0
 92
    32768
 62
   257
 93
        1
300
CONTENTFORMAT
  1
CONTENTFORMAT_BEGIN
 90
        0
 91
        0
 92
      512
 93
        0
300

 40
0.0
140
1.0
 94
        5
 62
     0
340
83BC
144
0.25
309
CONTENTFORMAT_END
171
     0
 94
        0
309
TABLEFORMAT_END
  1
CELLSTYLE_BEGIN
 90
        1
 91
        1
300
_TITLE
309
CELLSTYLE_END
300
CELLSTYLE
  1
TABLEFORMAT_BEGIN
 90
        5
170
     1
 91
        0
 92
        0
 62
   257
 93
        1
300
CONTENTFORMAT
  1
CONTENTFORMAT_BEGIN
 90
        0
 91
        0
 92
      512
 93
        0
300

 40
0.0
140
1.0
 94
        5
 62
     0
340
83BC
144
0.18
309
CONTENTFORMAT_END
171
     0
 94
        0
309
TABLEFORMAT_END
  1
CELLSTYLE_BEGIN
 90
        2
 91
        1
300
_HEADER
309
CELLSTYLE_END
300
CELLSTYLE
  1
TABLEFORMAT_BEGIN
 90
        5
170
     1
 91
        0
 92
        0
 62
   257
 93
        1
300
CONTENTFORMAT
  1
CONTENTFORMAT_BEGIN
 90
        0
 91
        0
 92
      512
 93
        0
300

 40
0.0
140
1.0
 94
        2
 62
     0
340
83BC
144
0.18
309
CONTENTFORMAT_END
171
     0
 94
        0
309
TABLEFORMAT_END
  1
CELLSTYLE_BEGIN
 90
        3
 91
        2
300
_DATA
309
CELLSTYLE_END
  0
XRECORD
  5
87C4
102
{ACAD_REACTORS
330
878D
102
}
330
878D
100
AcDbXrecord
280
     1
102
ACAD_ROUNDTRIP_PRE2007_TABLESTYLE
 90
      512
 91
        0
  1

 92
      512
 93
        0
  2

 94
      512
 95
        0
  3

  0
XRECORD
  5
879F
102
{ACAD_REACTORS
330
879E
102
}
330
879E
100
AcDbXrecord
280
     1
102
RTVSPost2010Prop28
280
     1
102
RTVSPost2010PropOp28
 70
     1
102
RTVSPost2010Prop29
280
     1
102
RTVSPost2010PropOp29
 70
     1
102
RTVSPost2010Prop30
280
     0
102
RTVSPost2010PropOp30
 70
     1
102
RTVSPost2010Prop31
280
     0
102
RTVSPost2010PropOp31
 70
     1
102
RTVSPost2010Prop32
280
     0
102
RTVSPost2010PropOp32
 70
     1
102
RTVSPost2010Prop33
280
     0
102
RTVSPost2010PropOp33
 70
     1
102
RTVSPost2010Prop34
280
     0
102
RTVSPost2010PropOp34
 70
     1
102
RTVSPost2010Prop35
280
     0
102
RTVSPost2010PropOp35
 70
     1
102
RTVSPost2010Prop36
280
     0
102
RTVSPost2010PropOp36
 70
     1
102
RTVSPost2010Prop37
 90
       50
102
RTVSPost2010PropOp37
 70
     1
102
RTVSPost2010Prop38
140
0.0
102
RTVSPost2010PropOp38
 70
     1
102
RTVSPost2010Prop39
140
1.0
102
RTVSPost2010PropOp39
 70
     1
102
RTVSPost2010Prop40
 90
        0
102
RTVSPost2010PropOp40
 70
     1
102
RTVSPost2010Prop41ColorIndex
 90
       18
102
RTVSPost2010Prop41ColorRGB
 90
        0
102
RTVSPost2010PropOp41
 70
     1
102
RTVSPost2010Prop42
 90
       50
102
RTVSPost2010PropOp42
 70
     1
102
RTVSPost2010Prop43
 90
        3
102
RTVSPost2010PropOp43
 70
     1
102
RTVSPost2010Prop44ColorIndex
 90
        5
102
RTVSPost2010Prop44ColorRGB
 90
      255
102
RTVSPost2010PropOp44
 70
     1
102
RTVSPost2010Prop45
280
     0
102
RTVSPost2010PropOp45
 70
     1
102
RTVSPost2010Prop46
 90
       50
102
RTVSPost2010PropOp46
 70
     1
102
RTVSPost2010Prop47
 90
       50
102
RTVSPost2010PropOp47
 70
     1
102
RTVSPost2010Prop48
 90
       50
102
RTVSPost2010PropOp48
 70
     1
102
RTVSPost2010Prop49
280
     0
102
RTVSPost2010PropOp49
 70
     1
102
RTVSPost2010Prop50
 90
       50
102
RTVSPost2010PropOp50
 70
     1
102
RTVSPost2010Prop51ColorIndex
 90
      256
102
RTVSPost2010Prop51ColorRGB
 90
-16777216
102
RTVSPost2010PropOp51
 70
     0
102
RTVSPost2010Prop52
140
1.0
102
RTVSPost2010PropOp52
 70
     0
102
RTVSPost2010Prop53
 90
        2
102
RTVSPost2010PropOp53
 70
     1
102
RTVSPost2010Prop54
  1
strokes_ogs.tif
102
RTVSPost2010PropOp54
 70
     1
102
RTVSPost2010Prop55
280
     0
102
RTVSPost2010PropOp55
 70
     1
102
RTVSPost2010Prop56
140
1.0
102
RTVSPost2010PropOp56
 70
     1
102
RTVSPost2010Prop57
140
1.0
102
RTVSPost2010PropOp57
 70
     1
102
RTVSPropertyOp0
 70
     1
102
RTVSPropertyOp1
 70
     1
102
RTVSPropertyOp2
 70
     1
102
RTVSPropertyOp3
 70
     1
102
RTVSPropertyOp4
 70
     1
102
RTVSPropertyOp5
 70
     1
102
RTVSPropertyOp6
 70
     1
102
RTVSPropertyOp7
 70
     1
102
RTVSPropertyOp8
 70
     1
102
RTVSPropertyOp9
 70
     1
102
RTVSPropertyOp10
 70
     1
102
RTVSPropertyOp11
 70
     1
102
RTVSPropertyOp12
 70
     1
102
RTVSPropertyOp13
 70
     1
102
RTVSPropertyOp14
 70
     1
102
RTVSPropertyOp15
 70
     1
102
RTVSPropertyOp16
 70
     1
102
RTVSPropertyOp17
 70
     1
102
RTVSPropertyOp18
 70
     1
102
RTVSPropertyOp19
 70
     1
102
RTVSPropertyOp20
 70
     1
102
RTVSPropertyOp21
 70
     1
102
RTVSPropertyOp22
 70
     1
102
RTVSPropertyOp23
 70
     1
102
RTVSPropertyOp24
 70
     1
102
RTVSPropertyOp25
 70
     1
102
RTVSPropertyOp26
 70
     1
102
RTVSPropertyOp27
 70
     1
102
RTVSPropertyOp28
 70
     1
102
RTVSPropertyOp29
 70
     1
102
RTVSPropertyOp30
 70
     1
102
RTVSPropertyOp31
 70
     1
102
RTVSPropertyOp32
 70
     1
102
RTVSPropertyOp33
 70
     1
102
RTVSPropertyOp34
 70
     1
102
RTVSPropertyOp35
 70
     1
102
RTVSPropertyOp36
 70
     1
102
RTVSPropertyOp37
 70
     1
102
RTVSPropertyOp38
 70
     1
102
RTVSPropertyOp39
 70
     1
102
RTVSPropertyOp40
 70
     1
102
RTVSPropertyOp41
 70
     1
102
RTVSPropertyOp42
 70
     1
102
RTVSPropertyOp43
 70
     1
102
RTVSPropertyOp44
 70
     1
102
RTVSPropertyOp45
 70
     1
102
RTVSPropertyOp46
 70
     1
102
RTVSPropertyOp47
 70
     1
102
RTVSPropertyOp48
 70
     1
102
RTVSPropertyOp49
 70
     1
102
RTVSPropertyOp50
 70
     1
102
RTVSPropertyOp51
 70
     0
102
RTVSPropertyOp52
 70
     0
102
RTVSPropertyOp53
 70
     1
102
RTVSPropertyOp54
 70
     1
102
RTVSPropertyOp55
 70
     1
102
RTVSPropertyOp56
 70
     1
102
RTVSPropertyOp57
 70
     1
102
RTVSPropertyOp58
 70
     1
102
RTVSPropertyOp59
 70
     1
102
RTVSPropertyOp60
 70
     1
102
RTVSPropertyOp61
 70
     1
102
RTVSPropertyOp62
 70
     1
  0
XRECORD
  5
879D
102
{ACAD_REACTORS
330
879C
102
}
330
879C
100
AcDbXrecord
280
     1
102
RTVSPost2010Prop28
280
     0
102
RTVSPost2010PropOp28
 70
     1
102
RTVSPost2010Prop29
280
     1
102
RTVSPost2010PropOp29
 70
     1
102
RTVSPost2010Prop30
280
     1
102
RTVSPost2010PropOp30
 70
     1
102
RTVSPost2010Prop31
280
     0
102
RTVSPost2010PropOp31
 70
     1
102
RTVSPost2010Prop32
280
     0
102
RTVSPost2010PropOp32
 70
     1
102
RTVSPost2010Prop33
280
     0
102
RTVSPost2010PropOp33
 70
     1
102
RTVSPost2010Prop34
280
     0
102
RTVSPost2010PropOp34
 70
     1
102
RTVSPost2010Prop35
280
     0
102
RTVSPost2010PropOp35
 70
     1
102
RTVSPost2010Prop36
280
     0
102
RTVSPost2010PropOp36
 70
     1
102
RTVSPost2010Prop37
 90
       50
102
RTVSPost2010PropOp37
 70
     1
102
RTVSPost2010Prop38
140
0.0
102
RTVSPost2010PropOp38
 70
     1
102
RTVSPost2010Prop39
140
1.0
102
RTVSPost2010PropOp39
 70
     1
102
RTVSPost2010Prop40
 90
        0
102
RTVSPost2010PropOp40
 70
     1
102
RTVSPost2010Prop41ColorIndex
 90
       18
102
RTVSPost2010Prop41ColorRGB
 90
        0
102
RTVSPost2010PropOp41
 70
     1
102
RTVSPost2010Prop42
 90
       50
102
RTVSPost2010PropOp42
 70
     1
102
RTVSPost2010Prop43
 90
        3
102
RTVSPost2010PropOp43
 70
     1
102
RTVSPost2010Prop44ColorIndex
 90
        5
102
RTVSPost2010Prop44ColorRGB
 90
      255
102
RTVSPost2010PropOp44
 70
     1
102
RTVSPost2010Prop45
280
     0
102
RTVSPost2010PropOp45
 70
     1
102
RTVSPost2010Prop46
 90
       50
102
RTVSPost2010PropOp46
 70
     1
102
RTVSPost2010Prop47
 90
       50
102
RTVSPost2010PropOp47
 70
     1
102
RTVSPost2010Prop48
 90
       50
102
RTVSPost2010PropOp48
 70
     1
102
RTVSPost2010Prop49
280
     0
102
RTVSPost2010PropOp49
 70
     1
102
RTVSPost2010Prop50
 90
       50
102
RTVSPost2010PropOp50
 70
     1
102
RTVSPost2010Prop51ColorIndex
 90
      256
102
RTVSPost2010Prop51ColorRGB
 90
-16777216
102
RTVSPost2010PropOp51
 70
     0
102
RTVSPost2010Prop52
140
1.0
102
RTVSPost2010PropOp52
 70
     0
102
RTVSPost2010Prop53
 90
        2
102
RTVSPost2010PropOp53
 70
     1
102
RTVSPost2010Prop54
  1
strokes_ogs.tif
102
RTVSPost2010PropOp54
 70
     1
102
RTVSPost2010Prop55
280
     0
102
RTVSPost2010PropOp55
 70
     1
102
RTVSPost2010Prop56
140
1.0
102
RTVSPost2010PropOp56
 70
     1
102
RTVSPost2010Prop57
140
1.0
102
RTVSPost2010PropOp57
 70
     1
102
RTVSPropertyOp0
 70
     1
102
RTVSPropertyOp1
 70
     1
102
RTVSPropertyOp2
 70
     1
102
RTVSPropertyOp3
 70
     1
102
RTVSPropertyOp4
 70
     1
102
RTVSPropertyOp5
 70
     1
102
RTVSPropertyOp6
 70
     1
102
RTVSPropertyOp7
 70
     1
102
RTVSPropertyOp8
 70
     1
102
RTVSPropertyOp9
 70
     1
102
RTVSPropertyOp10
 70
     1
102
RTVSPropertyOp11
 70
     1
102
RTVSPropertyOp12
 70
     1
102
RTVSPropertyOp13
 70
     1
102
RTVSPropertyOp14
 70
     1
102
RTVSPropertyOp15
 70
     1
102
RTVSPropertyOp16
 70
     1
102
RTVSPropertyOp17
 70
     1
102
RTVSPropertyOp18
 70
     1
102
RTVSPropertyOp19
 70
     1
102
RTVSPropertyOp20
 70
     1
102
RTVSPropertyOp21
 70
     1
102
RTVSPropertyOp22
 70
     1
102
RTVSPropertyOp23
 70
     1
102
RTVSPropertyOp24
 70
     1
102
RTVSPropertyOp25
 70
     1
102
RTVSPropertyOp26
 70
     1
102
RTVSPropertyOp27
 70
     1
102
RTVSPropertyOp28
 70
     1
102
RTVSPropertyOp29
 70
     1
102
RTVSPropertyOp30
 70
     1
102
RTVSPropertyOp31
 70
     1
102
RTVSPropertyOp32
 70
     1
102
RTVSPropertyOp33
 70
     1
102
RTVSPropertyOp34
 70
     1
102
RTVSPropertyOp35
 70
     1
102
RTVSPropertyOp36
 70
     1
102
RTVSPropertyOp37
 70
     1
102
RTVSPropertyOp38
 70
     1
102
RTVSPropertyOp39
 70
     1
102
RTVSPropertyOp40
 70
     1
102
RTVSPropertyOp41
 70
     1
102
RTVSPropertyOp42
 70
     1
102
RTVSPropertyOp43
 70
     1
102
RTVSPropertyOp44
 70
     1
102
RTVSPropertyOp45
 70
     1
102
RTVSPropertyOp46
 70
     1
102
RTVSPropertyOp47
 70
     1
102
RTVSPropertyOp48
 70
     1
102
RTVSPropertyOp49
 70
     1
102
RTVSPropertyOp50
 70
     1
102
RTVSPropertyOp51
 70
     0
102
RTVSPropertyOp52
 70
     0
102
RTVSPropertyOp53
 70
     1
102
RTVSPropertyOp54
 70
     1
102
RTVSPropertyOp55
 70
     1
102
RTVSPropertyOp56
 70
     1
102
RTVSPropertyOp57
 70
     1
102
RTVSPropertyOp58
 70
     1
102
RTVSPropertyOp59
 70
     1
102
RTVSPropertyOp60
 70
     1
102
RTVSPropertyOp61
 70
     1
102
RTVSPropertyOp62
 70
     1
  0
XRECORD
  5
87AB
102
{ACAD_REACTORS
330
87AA
102
}
330
87AA
100
AcDbXrecord
280
     1
102
RTVSPost2010Prop28
280
     0
102
RTVSPost2010PropOp28
 70
     1
102
RTVSPost2010Prop29
280
     1
102
RTVSPost2010PropOp29
 70
     1
102
RTVSPost2010Prop30
280
     1
102
RTVSPost2010PropOp30
 70
     1
102
RTVSPost2010Prop31
280
     0
102
RTVSPost2010PropOp31
 70
     1
102
RTVSPost2010Prop32
280
     0
102
RTVSPost2010PropOp32
 70
     1
102
RTVSPost2010Prop33
280
     0
102
RTVSPost2010PropOp33
 70
     1
102
RTVSPost2010Prop34
280
     0
102
RTVSPost2010PropOp34
 70
     1
102
RTVSPost2010Prop35
280
     0
102
RTVSPost2010PropOp35
 70
     1
102
RTVSPost2010Prop36
280
     0
102
RTVSPost2010PropOp36
 70
     1
102
RTVSPost2010Prop37
 90
       50
102
RTVSPost2010PropOp37
 70
     1
102
RTVSPost2010Prop38
140
0.0
102
RTVSPost2010PropOp38
 70
     1
102
RTVSPost2010Prop39
140
1.0
102
RTVSPost2010PropOp39
 70
     1
102
RTVSPost2010Prop40
 90
        0
102
RTVSPost2010PropOp40
 70
     1
102
RTVSPost2010Prop41ColorIndex
 90
       18
102
RTVSPost2010Prop41ColorRGB
 90
        0
102
RTVSPost2010PropOp41
 70
     1
102
RTVSPost2010Prop42
 90
       50
102
RTVSPost2010PropOp42
 70
     1
102
RTVSPost2010Prop43
 90
        3
102
RTVSPost2010PropOp43
 70
     1
102
RTVSPost2010Prop44ColorIndex
 90
        5
102
RTVSPost2010Prop44ColorRGB
 90
      255
102
RTVSPost2010PropOp44
 70
     1
102
RTVSPost2010Prop45
280
     0
102
RTVSPost2010PropOp45
 70
     1
102
RTVSPost2010Prop46
 90
       50
102
RTVSPost2010PropOp46
 70
     1
102
RTVSPost2010Prop47
 90
       50
102
RTVSPost2010PropOp47
 70
     1
102
RTVSPost2010Prop48
 90
       50
102
RTVSPost2010PropOp48
 70
     1
102
RTVSPost2010Prop49
280
     0
102
RTVSPost2010PropOp49
 70
     1
102
RTVSPost2010Prop50
 90
       50
102
RTVSPost2010PropOp50
 70
     1
102
RTVSPost2010Prop51ColorIndex
 90
      256
102
RTVSPost2010Prop51ColorRGB
 90
-16777216
102
RTVSPost2010PropOp51
 70
     0
102
RTVSPost2010Prop52
140
1.0
102
RTVSPost2010PropOp52
 70
     0
102
RTVSPost2010Prop53
 90
        2
102
RTVSPost2010PropOp53
 70
     1
102
RTVSPost2010Prop54
  1
strokes_ogs.tif
102
RTVSPost2010PropOp54
 70
     1
102
RTVSPost2010Prop55
280
     0
102
RTVSPost2010PropOp55
 70
     1
102
RTVSPost2010Prop56
140
1.0
102
RTVSPost2010PropOp56
 70
     1
102
RTVSPost2010Prop57
140
1.0
102
RTVSPost2010PropOp57
 70
     1
102
RTVSPropertyOp0
 70
     1
102
RTVSPropertyOp1
 70
     1
102
RTVSPropertyOp2
 70
     1
102
RTVSPropertyOp3
 70
     1
102
RTVSPropertyOp4
 70
     1
102
RTVSPropertyOp5
 70
     1
102
RTVSPropertyOp6
 70
     1
102
RTVSPropertyOp7
 70
     1
102
RTVSPropertyOp8
 70
     1
102
RTVSPropertyOp9
 70
     1
102
RTVSPropertyOp10
 70
     1
102
RTVSPropertyOp11
 70
     1
102
RTVSPropertyOp12
 70
     1
102
RTVSPropertyOp13
 70
     1
102
RTVSPropertyOp14
 70
     1
102
RTVSPropertyOp15
 70
     1
102
RTVSPropertyOp16
 70
     1
102
RTVSPropertyOp17
 70
     1
102
RTVSPropertyOp18
 70
     1
102
RTVSPropertyOp19
 70
     1
102
RTVSPropertyOp20
 70
     1
102
RTVSPropertyOp21
 70
     1
102
RTVSPropertyOp22
 70
     1
102
RTVSPropertyOp23
 70
     1
102
RTVSPropertyOp24
 70
     1
102
RTVSPropertyOp25
 70
     1
102
RTVSPropertyOp26
 70
     1
102
RTVSPropertyOp27
 70
     1
102
RTVSPropertyOp28
 70
     1
102
RTVSPropertyOp29
 70
     1
102
RTVSPropertyOp30
 70
     1
102
RTVSPropertyOp31
 70
     1
102
RTVSPropertyOp32
 70
     1
102
RTVSPropertyOp33
 70
     1
102
RTVSPropertyOp34
 70
     1
102
RTVSPropertyOp35
 70
     1
102
RTVSPropertyOp36
 70
     1
102
RTVSPropertyOp37
 70
     1
102
RTVSPropertyOp38
 70
     1
102
RTVSPropertyOp39
 70
     1
102
RTVSPropertyOp40
 70
     1
102
RTVSPropertyOp41
 70
     1
102
RTVSPropertyOp42
 70
     1
102
RTVSPropertyOp43
 70
     1
102
RTVSPropertyOp44
 70
     1
102
RTVSPropertyOp45
 70
     1
102
RTVSPropertyOp46
 70
     1
102
RTVSPropertyOp47
 70
     1
102
RTVSPropertyOp48
 70
     1
102
RTVSPropertyOp49
 70
     1
102
RTVSPropertyOp50
 70
     1
102
RTVSPropertyOp51
 70
     0
102
RTVSPropertyOp52
 70
     0
102
RTVSPropertyOp53
 70
     1
102
RTVSPropertyOp54
 70
     1
102
RTVSPropertyOp55
 70
     1
102
RTVSPropertyOp56
 70
     1
102
RTVSPropertyOp57
 70
     1
102
RTVSPropertyOp58
 70
     1
102
RTVSPropertyOp59
 70
     1
102
RTVSPropertyOp60
 70
     1
102
RTVSPropertyOp61
 70
     1
102
RTVSPropertyOp62
 70
     1
  0
XRECORD
  5
87B3
102
{ACAD_REACTORS
330
87B2
102
}
330
87B2
100
AcDbXrecord
280
     1
102
RTVSPost2010Prop28
280
     0
102
RTVSPost2010PropOp28
 70
     1
102
RTVSPost2010Prop29
280
     1
102
RTVSPost2010PropOp29
 70
     1
102
RTVSPost2010Prop30
280
     1
102
RTVSPost2010PropOp30
 70
     1
102
RTVSPost2010Prop31
280
     0
102
RTVSPost2010PropOp31
 70
     1
102
RTVSPost2010Prop32
280
     0
102
RTVSPost2010PropOp32
 70
     1
102
RTVSPost2010Prop33
280
     0
102
RTVSPost2010PropOp33
 70
     1
102
RTVSPost2010Prop34
280
     0
102
RTVSPost2010PropOp34
 70
     1
102
RTVSPost2010Prop35
280
     0
102
RTVSPost2010PropOp35
 70
     1
102
RTVSPost2010Prop36
280
     0
102
RTVSPost2010PropOp36
 70
     1
102
RTVSPost2010Prop37
 90
       50
102
RTVSPost2010PropOp37
 70
     1
102
RTVSPost2010Prop38
140
0.0
102
RTVSPost2010PropOp38
 70
     1
102
RTVSPost2010Prop39
140
1.0
102
RTVSPost2010PropOp39
 70
     1
102
RTVSPost2010Prop40
 90
        0
102
RTVSPost2010PropOp40
 70
     1
102
RTVSPost2010Prop41ColorIndex
 90
       18
102
RTVSPost2010Prop41ColorRGB
 90
        0
102
RTVSPost2010PropOp41
 70
     1
102
RTVSPost2010Prop42
 90
       50
102
RTVSPost2010PropOp42
 70
     1
102
RTVSPost2010Prop43
 90
        3
102
RTVSPost2010PropOp43
 70
     1
102
RTVSPost2010Prop44ColorIndex
 90
        5
102
RTVSPost2010Prop44ColorRGB
 90
      255
102
RTVSPost2010PropOp44
 70
     1
102
RTVSPost2010Prop45
280
     0
102
RTVSPost2010PropOp45
 70
     1
102
RTVSPost2010Prop46
 90
       50
102
RTVSPost2010PropOp46
 70
     1
102
RTVSPost2010Prop47
 90
       50
102
RTVSPost2010PropOp47
 70
     1
102
RTVSPost2010Prop48
 90
       50
102
RTVSPost2010PropOp48
 70
     1
102
RTVSPost2010Prop49
280
     0
102
RTVSPost2010PropOp49
 70
     1
102
RTVSPost2010Prop50
 90
       50
102
RTVSPost2010PropOp50
 70
     1
102
RTVSPost2010Prop51ColorIndex
 90
      256
102
RTVSPost2010Prop51ColorRGB
 90
-16777216
102
RTVSPost2010PropOp51
 70
     0
102
RTVSPost2010Prop52
140
1.0
102
RTVSPost2010PropOp52
 70
     0
102
RTVSPost2010Prop53
 90
        2
102
RTVSPost2010PropOp53
 70
     1
102
RTVSPost2010Prop54
  1
strokes_ogs.tif
102
RTVSPost2010PropOp54
 70
     1
102
RTVSPost2010Prop55
280
     0
102
RTVSPost2010PropOp55
 70
     1
102
RTVSPost2010Prop56
140
1.0
102
RTVSPost2010PropOp56
 70
     1
102
RTVSPost2010Prop57
140
1.0
102
RTVSPost2010PropOp57
 70
     1
102
RTVSPropertyOp0
 70
     1
102
RTVSPropertyOp1
 70
     1
102
RTVSPropertyOp2
 70
     1
102
RTVSPropertyOp3
 70
     1
102
RTVSPropertyOp4
 70
     1
102
RTVSPropertyOp5
 70
     1
102
RTVSPropertyOp6
 70
     1
102
RTVSPropertyOp7
 70
     1
102
RTVSPropertyOp8
 70
     1
102
RTVSPropertyOp9
 70
     1
102
RTVSPropertyOp10
 70
     1
102
RTVSPropertyOp11
 70
     1
102
RTVSPropertyOp12
 70
     1
102
RTVSPropertyOp13
 70
     1
102
RTVSPropertyOp14
 70
     1
102
RTVSPropertyOp15
 70
     1
102
RTVSPropertyOp16
 70
     1
102
RTVSPropertyOp17
 70
     1
102
RTVSPropertyOp18
 70
     1
102
RTVSPropertyOp19
 70
     1
102
RTVSPropertyOp20
 70
     1
102
RTVSPropertyOp21
 70
     1
102
RTVSPropertyOp22
 70
     1
102
RTVSPropertyOp23
 70
     1
102
RTVSPropertyOp24
 70
     1
102
RTVSPropertyOp25
 70
     1
102
RTVSPropertyOp26
 70
     1
102
RTVSPropertyOp27
 70
     1
102
RTVSPropertyOp28
 70
     1
102
RTVSPropertyOp29
 70
     1
102
RTVSPropertyOp30
 70
     1
102
RTVSPropertyOp31
 70
     1
102
RTVSPropertyOp32
 70
     1
102
RTVSPropertyOp33
 70
     1
102
RTVSPropertyOp34
 70
     1
102
RTVSPropertyOp35
 70
     1
102
RTVSPropertyOp36
 70
     1
102
RTVSPropertyOp37
 70
     1
102
RTVSPropertyOp38
 70
     1
102
RTVSPropertyOp39
 70
     1
102
RTVSPropertyOp40
 70
     1
102
RTVSPropertyOp41
 70
     1
102
RTVSPropertyOp42
 70
     1
102
RTVSPropertyOp43
 70
     1
102
RTVSPropertyOp44
 70
     1
102
RTVSPropertyOp45
 70
     1
102
RTVSPropertyOp46
 70
     1
102
RTVSPropertyOp47
 70
     1
102
RTVSPropertyOp48
 70
     1
102
RTVSPropertyOp49
 70
     1
102
RTVSPropertyOp50
 70
     1
102
RTVSPropertyOp51
 70
     0
102
RTVSPropertyOp52
 70
     0
102
RTVSPropertyOp53
 70
     1
102
RTVSPropertyOp54
 70
     1
102
RTVSPropertyOp55
 70
     1
102
RTVSPropertyOp56
 70
     1
102
RTVSPropertyOp57
 70
     1
102
RTVSPropertyOp58
 70
     1
102
RTVSPropertyOp59
 70
     1
102
RTVSPropertyOp60
 70
     1
102
RTVSPropertyOp61
 70
     1
102
RTVSPropertyOp62
 70
     1
  0
XRECORD
  5
87A5
102
{ACAD_REACTORS
330
87A4
102
}
330
87A4
100
AcDbXrecord
280
     1
102
RTVSPost2010Prop28
280
     0
102
RTVSPost2010PropOp28
 70
     1
102
RTVSPost2010Prop29
280
     1
102
RTVSPost2010PropOp29
 70
     1
102
RTVSPost2010Prop30
280
     1
102
RTVSPost2010PropOp30
 70
     1
102
RTVSPost2010Prop31
280
     0
102
RTVSPost2010PropOp31
 70
     1
102
RTVSPost2010Prop32
280
     0
102
RTVSPost2010PropOp32
 70
     1
102
RTVSPost2010Prop33
280
     0
102
RTVSPost2010PropOp33
 70
     1
102
RTVSPost2010Prop34
280
     0
102
RTVSPost2010PropOp34
 70
     1
102
RTVSPost2010Prop35
280
     0
102
RTVSPost2010PropOp35
 70
     1
102
RTVSPost2010Prop36
280
     0
102
RTVSPost2010PropOp36
 70
     1
102
RTVSPost2010Prop37
 90
       50
102
RTVSPost2010PropOp37
 70
     1
102
RTVSPost2010Prop38
140
0.0
102
RTVSPost2010PropOp38
 70
     1
102
RTVSPost2010Prop39
140
1.0
102
RTVSPost2010PropOp39
 70
     1
102
RTVSPost2010Prop40
 90
        0
102
RTVSPost2010PropOp40
 70
     1
102
RTVSPost2010Prop41ColorIndex
 90
       18
102
RTVSPost2010Prop41ColorRGB
 90
        0
102
RTVSPost2010PropOp41
 70
     1
102
RTVSPost2010Prop42
 90
       50
102
RTVSPost2010PropOp42
 70
     1
102
RTVSPost2010Prop43
 90
        3
102
RTVSPost2010PropOp43
 70
     1
102
RTVSPost2010Prop44ColorIndex
 90
        5
102
RTVSPost2010Prop44ColorRGB
 90
      255
102
RTVSPost2010PropOp44
 70
     1
102
RTVSPost2010Prop45
280
     0
102
RTVSPost2010PropOp45
 70
     1
102
RTVSPost2010Prop46
 90
       50
102
RTVSPost2010PropOp46
 70
     1
102
RTVSPost2010Prop47
 90
       50
102
RTVSPost2010PropOp47
 70
     1
102
RTVSPost2010Prop48
 90
       50
102
RTVSPost2010PropOp48
 70
     1
102
RTVSPost2010Prop49
280
     0
102
RTVSPost2010PropOp49
 70
     1
102
RTVSPost2010Prop50
 90
       50
102
RTVSPost2010PropOp50
 70
     1
102
RTVSPost2010Prop51ColorIndex
 90
      256
102
RTVSPost2010Prop51ColorRGB
 90
-16777216
102
RTVSPost2010PropOp51
 70
     0
102
RTVSPost2010Prop52
140
1.0
102
RTVSPost2010PropOp52
 70
     0
102
RTVSPost2010Prop53
 90
        2
102
RTVSPost2010PropOp53
 70
     1
102
RTVSPost2010Prop54
  1
strokes_ogs.tif
102
RTVSPost2010PropOp54
 70
     1
102
RTVSPost2010Prop55
280
     0
102
RTVSPost2010PropOp55
 70
     1
102
RTVSPost2010Prop56
140
1.0
102
RTVSPost2010PropOp56
 70
     1
102
RTVSPost2010Prop57
140
1.0
102
RTVSPost2010PropOp57
 70
     1
102
RTVSPropertyOp0
 70
     1
102
RTVSPropertyOp1
 70
     1
102
RTVSPropertyOp2
 70
     1
102
RTVSPropertyOp3
 70
     1
102
RTVSPropertyOp4
 70
     1
102
RTVSPropertyOp5
 70
     1
102
RTVSPropertyOp6
 70
     1
102
RTVSPropertyOp7
 70
     1
102
RTVSPropertyOp8
 70
     1
102
RTVSPropertyOp9
 70
     1
102
RTVSPropertyOp10
 70
     1
102
RTVSPropertyOp11
 70
     1
102
RTVSPropertyOp12
 70
     1
102
RTVSPropertyOp13
 70
     1
102
RTVSPropertyOp14
 70
     1
102
RTVSPropertyOp15
 70
     1
102
RTVSPropertyOp16
 70
     1
102
RTVSPropertyOp17
 70
     1
102
RTVSPropertyOp18
 70
     1
102
RTVSPropertyOp19
 70
     1
102
RTVSPropertyOp20
 70
     1
102
RTVSPropertyOp21
 70
     1
102
RTVSPropertyOp22
 70
     1
102
RTVSPropertyOp23
 70
     1
102
RTVSPropertyOp24
 70
     1
102
RTVSPropertyOp25
 70
     1
102
RTVSPropertyOp26
 70
     1
102
RTVSPropertyOp27
 70
     1
102
RTVSPropertyOp28
 70
     1
102
RTVSPropertyOp29
 70
     1
102
RTVSPropertyOp30
 70
     1
102
RTVSPropertyOp31
 70
     1
102
RTVSPropertyOp32
 70
     1
102
RTVSPropertyOp33
 70
     1
102
RTVSPropertyOp34
 70
     1
102
RTVSPropertyOp35
 70
     1
102
RTVSPropertyOp36
 70
     1
102
RTVSPropertyOp37
 70
     1
102
RTVSPropertyOp38
 70
     1
102
RTVSPropertyOp39
 70
     1
102
RTVSPropertyOp40
 70
     1
102
RTVSPropertyOp41
 70
     1
102
RTVSPropertyOp42
 70
     1
102
RTVSPropertyOp43
 70
     1
102
RTVSPropertyOp44
 70
     1
102
RTVSPropertyOp45
 70
     1
102
RTVSPropertyOp46
 70
     1
102
RTVSPropertyOp47
 70
     1
102
RTVSPropertyOp48
 70
     1
102
RTVSPropertyOp49
 70
     1
102
RTVSPropertyOp50
 70
     1
102
RTVSPropertyOp51
 70
     0
102
RTVSPropertyOp52
 70
     0
102
RTVSPropertyOp53
 70
     1
102
RTVSPropertyOp54
 70
     1
102
RTVSPropertyOp55
 70
     1
102
RTVSPropertyOp56
 70
     1
102
RTVSPropertyOp57
 70
     1
102
RTVSPropertyOp58
 70
     1
102
RTVSPropertyOp59
 70
     1
102
RTVSPropertyOp60
 70
     1
102
RTVSPropertyOp61
 70
     1
102
RTVSPropertyOp62
 70
     1
  0
XRECORD
  5
87A9
102
{ACAD_REACTORS
330
87A8
102
}
330
87A8
100
AcDbXrecord
280
     1
102
RTVSPost2010Prop28
280
     0
102
RTVSPost2010PropOp28
 70
     1
102
RTVSPost2010Prop29
280
     1
102
RTVSPost2010PropOp29
 70
     1
102
RTVSPost2010Prop30
280
     1
102
RTVSPost2010PropOp30
 70
     1
102
RTVSPost2010Prop31
280
     0
102
RTVSPost2010PropOp31
 70
     1
102
RTVSPost2010Prop32
280
     0
102
RTVSPost2010PropOp32
 70
     1
102
RTVSPost2010Prop33
280
     0
102
RTVSPost2010PropOp33
 70
     1
102
RTVSPost2010Prop34
280
     0
102
RTVSPost2010PropOp34
 70
     1
102
RTVSPost2010Prop35
280
     0
102
RTVSPost2010PropOp35
 70
     1
102
RTVSPost2010Prop36
280
     0
102
RTVSPost2010PropOp36
 70
     1
102
RTVSPost2010Prop37
 90
       50
102
RTVSPost2010PropOp37
 70
     1
102
RTVSPost2010Prop38
140
0.0
102
RTVSPost2010PropOp38
 70
     1
102
RTVSPost2010Prop39
140
1.0
102
RTVSPost2010PropOp39
 70
     1
102
RTVSPost2010Prop40
 90
        0
102
RTVSPost2010PropOp40
 70
     1
102
RTVSPost2010Prop41ColorIndex
 90
       18
102
RTVSPost2010Prop41ColorRGB
 90
        0
102
RTVSPost2010PropOp41
 70
     1
102
RTVSPost2010Prop42
 90
       50
102
RTVSPost2010PropOp42
 70
     1
102
RTVSPost2010Prop43
 90
        3
102
RTVSPost2010PropOp43
 70
     1
102
RTVSPost2010Prop44ColorIndex
 90
        5
102
RTVSPost2010Prop44ColorRGB
 90
      255
102
RTVSPost2010PropOp44
 70
     1
102
RTVSPost2010Prop45
280
     0
102
RTVSPost2010PropOp45
 70
     1
102
RTVSPost2010Prop46
 90
       50
102
RTVSPost2010PropOp46
 70
     1
102
RTVSPost2010Prop47
 90
       50
102
RTVSPost2010PropOp47
 70
     1
102
RTVSPost2010Prop48
 90
       50
102
RTVSPost2010PropOp48
 70
     1
102
RTVSPost2010Prop49
280
     0
102
RTVSPost2010PropOp49
 70
     1
102
RTVSPost2010Prop50
 90
       50
102
RTVSPost2010PropOp50
 70
     1
102
RTVSPost2010Prop51ColorIndex
 90
      256
102
RTVSPost2010Prop51ColorRGB
 90
-16777216
102
RTVSPost2010PropOp51
 70
     0
102
RTVSPost2010Prop52
140
1.0
102
RTVSPost2010PropOp52
 70
     0
102
RTVSPost2010Prop53
 90
        2
102
RTVSPost2010PropOp53
 70
     1
102
RTVSPost2010Prop54
  1
strokes_ogs.tif
102
RTVSPost2010PropOp54
 70
     1
102
RTVSPost2010Prop55
280
     0
102
RTVSPost2010PropOp55
 70
     1
102
RTVSPost2010Prop56
140
1.0
102
RTVSPost2010PropOp56
 70
     1
102
RTVSPost2010Prop57
140
1.0
102
RTVSPost2010PropOp57
 70
     1
102
RTVSPropertyOp0
 70
     1
102
RTVSPropertyOp1
 70
     1
102
RTVSPropertyOp2
 70
     1
102
RTVSPropertyOp3
 70
     1
102
RTVSPropertyOp4
 70
     1
102
RTVSPropertyOp5
 70
     1
102
RTVSPropertyOp6
 70
     1
102
RTVSPropertyOp7
 70
     1
102
RTVSPropertyOp8
 70
     1
102
RTVSPropertyOp9
 70
     1
102
RTVSPropertyOp10
 70
     1
102
RTVSPropertyOp11
 70
     1
102
RTVSPropertyOp12
 70
     1
102
RTVSPropertyOp13
 70
     1
102
RTVSPropertyOp14
 70
     1
102
RTVSPropertyOp15
 70
     1
102
RTVSPropertyOp16
 70
     1
102
RTVSPropertyOp17
 70
     1
102
RTVSPropertyOp18
 70
     1
102
RTVSPropertyOp19
 70
     1
102
RTVSPropertyOp20
 70
     1
102
RTVSPropertyOp21
 70
     1
102
RTVSPropertyOp22
 70
     1
102
RTVSPropertyOp23
 70
     1
102
RTVSPropertyOp24
 70
     1
102
RTVSPropertyOp25
 70
     1
102
RTVSPropertyOp26
 70
     1
102
RTVSPropertyOp27
 70
     1
102
RTVSPropertyOp28
 70
     1
102
RTVSPropertyOp29
 70
     1
102
RTVSPropertyOp30
 70
     1
102
RTVSPropertyOp31
 70
     1
102
RTVSPropertyOp32
 70
     1
102
RTVSPropertyOp33
 70
     1
102
RTVSPropertyOp34
 70
     1
102
RTVSPropertyOp35
 70
     1
102
RTVSPropertyOp36
 70
     1
102
RTVSPropertyOp37
 70
     1
102
RTVSPropertyOp38
 70
     1
102
RTVSPropertyOp39
 70
     1
102
RTVSPropertyOp40
 70
     1
102
RTVSPropertyOp41
 70
     1
102
RTVSPropertyOp42
 70
     1
102
RTVSPropertyOp43
 70
     1
102
RTVSPropertyOp44
 70
     1
102
RTVSPropertyOp45
 70
     1
102
RTVSPropertyOp46
 70
     1
102
RTVSPropertyOp47
 70
     1
102
RTVSPropertyOp48
 70
     1
102
RTVSPropertyOp49
 70
     1
102
RTVSPropertyOp50
 70
     1
102
RTVSPropertyOp51
 70
     0
102
RTVSPropertyOp52
 70
     0
102
RTVSPropertyOp53
 70
     1
102
RTVSPropertyOp54
 70
     1
102
RTVSPropertyOp55
 70
     1
102
RTVSPropertyOp56
 70
     1
102
RTVSPropertyOp57
 70
     1
102
RTVSPropertyOp58
 70
     1
102
RTVSPropertyOp59
 70
     1
102
RTVSPropertyOp60
 70
     1
102
RTVSPropertyOp61
 70
     1
102
RTVSPropertyOp62
 70
     1
  0
XRECORD
  5
87C3
102
{ACAD_REACTORS
330
87C2
102
}
330
87C2
100
AcDbXrecord
280
     1
102
RTVSPost2010Prop28
280
     0
102
RTVSPost2010PropOp28
 70
     1
102
RTVSPost2010Prop29
280
     1
102
RTVSPost2010PropOp29
 70
     1
102
RTVSPost2010Prop30
280
     1
102
RTVSPost2010PropOp30
 70
     1
102
RTVSPost2010Prop31
280
     0
102
RTVSPost2010PropOp31
 70
     1
102
RTVSPost2010Prop32
280
     0
102
RTVSPost2010PropOp32
 70
     1
102
RTVSPost2010Prop33
280
     0
102
RTVSPost2010PropOp33
 70
     1
102
RTVSPost2010Prop34
280
     0
102
RTVSPost2010PropOp34
 70
     1
102
RTVSPost2010Prop35
280
     0
102
RTVSPost2010PropOp35
 70
     1
102
RTVSPost2010Prop36
280
     0
102
RTVSPost2010PropOp36
 70
     1
102
RTVSPost2010Prop37
 90
       50
102
RTVSPost2010PropOp37
 70
     0
102
RTVSPost2010Prop38
140
0.0
102
RTVSPost2010PropOp38
 70
     0
102
RTVSPost2010Prop39
140
1.0
102
RTVSPost2010PropOp39
 70
     0
102
RTVSPost2010Prop40
 90
        0
102
RTVSPost2010PropOp40
 70
     0
102
RTVSPost2010Prop41ColorIndex
 90
       18
102
RTVSPost2010Prop41ColorRGB
 90
        0
102
RTVSPost2010PropOp41
 70
     0
102
RTVSPost2010Prop42
 90
       50
102
RTVSPost2010PropOp42
 70
     0
102
RTVSPost2010Prop43
 90
        3
102
RTVSPost2010PropOp43
 70
     0
102
RTVSPost2010Prop44ColorIndex
 90
        5
102
RTVSPost2010Prop44ColorRGB
 90
      255
102
RTVSPost2010PropOp44
 70
     0
102
RTVSPost2010Prop45
280
     0
102
RTVSPost2010PropOp45
 70
     1
102
RTVSPost2010Prop46
 90
       50
102
RTVSPost2010PropOp46
 70
     0
102
RTVSPost2010Prop47
 90
       50
102
RTVSPost2010PropOp47
 70
     0
102
RTVSPost2010Prop48
 90
       50
102
RTVSPost2010PropOp48
 70
     0
102
RTVSPost2010Prop49
280
     0
102
RTVSPost2010PropOp49
 70
     1
102
RTVSPost2010Prop50
 90
       50
102
RTVSPost2010PropOp50
 70
     0
102
RTVSPost2010Prop51ColorIndex
 90
      256
102
RTVSPost2010Prop51ColorRGB
 90
-16777216
102
RTVSPost2010PropOp51
 70
     0
102
RTVSPost2010Prop52
140
1.0
102
RTVSPost2010PropOp52
 70
     0
102
RTVSPost2010Prop53
 90
        2
102
RTVSPost2010PropOp53
 70
     0
102
RTVSPost2010Prop54
  1
strokes_ogs.tif
102
RTVSPost2010PropOp54
 70
     0
102
RTVSPost2010Prop55
280
     0
102
RTVSPost2010PropOp55
 70
     1
102
RTVSPost2010Prop56
140
1.0
102
RTVSPost2010PropOp56
 70
     0
102
RTVSPost2010Prop57
140
1.0
102
RTVSPost2010PropOp57
 70
     0
102
RTVSPropertyOp0
 70
     0
102
RTVSPropertyOp1
 70
     0
102
RTVSPropertyOp2
 70
     0
102
RTVSPropertyOp3
 70
     0
102
RTVSPropertyOp4
 70
     0
102
RTVSPropertyOp5
 70
     0
102
RTVSPropertyOp6
 70
     0
102
RTVSPropertyOp7
 70
     0
102
RTVSPropertyOp8
 70
     0
102
RTVSPropertyOp9
 70
     0
102
RTVSPropertyOp10
 70
     0
102
RTVSPropertyOp11
 70
     0
102
RTVSPropertyOp12
 70
     0
102
RTVSPropertyOp13
 70
     0
102
RTVSPropertyOp14
 70
     2
102
RTVSPropertyOp15
 70
     0
102
RTVSPropertyOp16
 70
     0
102
RTVSPropertyOp17
 70
     0
102
RTVSPropertyOp18
 70
     0
102
RTVSPropertyOp19
 70
     0
102
RTVSPropertyOp20
 70
     0
102
RTVSPropertyOp21
 70
     0
102
RTVSPropertyOp22
 70
     0
102
RTVSPropertyOp23
 70
     0
102
RTVSPropertyOp24
 70
     0
102
RTVSPropertyOp25
 70
     0
102
RTVSPropertyOp26
 70
     0
102
RTVSPropertyOp27
 70
     0
102
RTVSPropertyOp28
 70
     1
102
RTVSPropertyOp29
 70
     1
102
RTVSPropertyOp30
 70
     1
102
RTVSPropertyOp31
 70
     1
102
RTVSPropertyOp32
 70
     1
102
RTVSPropertyOp33
 70
     1
102
RTVSPropertyOp34
 70
     1
102
RTVSPropertyOp35
 70
     1
102
RTVSPropertyOp36
 70
     1
102
RTVSPropertyOp37
 70
     0
102
RTVSPropertyOp38
 70
     0
102
RTVSPropertyOp39
 70
     0
102
RTVSPropertyOp40
 70
     0
102
RTVSPropertyOp41
 70
     0
102
RTVSPropertyOp42
 70
     0
102
RTVSPropertyOp43
 70
     0
102
RTVSPropertyOp44
 70
     0
102
RTVSPropertyOp45
 70
     1
102
RTVSPropertyOp46
 70
     0
102
RTVSPropertyOp47
 70
     0
102
RTVSPropertyOp48
 70
     0
102
RTVSPropertyOp49
 70
     1
102
RTVSPropertyOp50
 70
     0
102
RTVSPropertyOp51
 70
     0
102
RTVSPropertyOp52
 70
     0
102
RTVSPropertyOp53
 70
     0
102
RTVSPropertyOp54
 70
     0
102
RTVSPropertyOp55
 70
     1
102
RTVSPropertyOp56
 70
     0
102
RTVSPropertyOp57
 70
     0
102
RTVSPropertyOp58
 70
     0
102
RTVSPropertyOp59
 70
     0
102
RTVSPropertyOp60
 70
     0
102
RTVSPropertyOp61
 70
     0
102
RTVSPropertyOp62
 70
     0
  0
XRECORD
  5
87B1
102
{ACAD_REACTORS
330
87B0
102
}
330
87B0
100
AcDbXrecord
280
     1
102
RTVSPost2010Prop28
280
     0
102
RTVSPost2010PropOp28
 70
     1
102
RTVSPost2010Prop29
280
     1
102
RTVSPost2010PropOp29
 70
     1
102
RTVSPost2010Prop30
280
     1
102
RTVSPost2010PropOp30
 70
     1
102
RTVSPost2010Prop31
280
     0
102
RTVSPost2010PropOp31
 70
     1
102
RTVSPost2010Prop32
280
     0
102
RTVSPost2010PropOp32
 70
     1
102
RTVSPost2010Prop33
280
     0
102
RTVSPost2010PropOp33
 70
     1
102
RTVSPost2010Prop34
280
     0
102
RTVSPost2010PropOp34
 70
     1
102
RTVSPost2010Prop35
280
     0
102
RTVSPost2010PropOp35
 70
     1
102
RTVSPost2010Prop36
280
     0
102
RTVSPost2010PropOp36
 70
     1
102
RTVSPost2010Prop37
 90
       50
102
RTVSPost2010PropOp37
 70
     1
102
RTVSPost2010Prop38
140
0.0
102
RTVSPost2010PropOp38
 70
     1
102
RTVSPost2010Prop39
140
1.0
102
RTVSPost2010PropOp39
 70
     1
102
RTVSPost2010Prop40
 90
        0
102
RTVSPost2010PropOp40
 70
     1
102
RTVSPost2010Prop41ColorIndex
 90
       18
102
RTVSPost2010Prop41ColorRGB
 90
        0
102
RTVSPost2010PropOp41
 70
     1
102
RTVSPost2010Prop42
 90
       50
102
RTVSPost2010PropOp42
 70
     1
102
RTVSPost2010Prop43
 90
        3
102
RTVSPost2010PropOp43
 70
     1
102
RTVSPost2010Prop44ColorIndex
 90
        5
102
RTVSPost2010Prop44ColorRGB
 90
      255
102
RTVSPost2010PropOp44
 70
     1
102
RTVSPost2010Prop45
280
     0
102
RTVSPost2010PropOp45
 70
     1
102
RTVSPost2010Prop46
 90
       50
102
RTVSPost2010PropOp46
 70
     1
102
RTVSPost2010Prop47
 90
       50
102
RTVSPost2010PropOp47
 70
     1
102
RTVSPost2010Prop48
 90
       50
102
RTVSPost2010PropOp48
 70
     1
102
RTVSPost2010Prop49
280
     0
102
RTVSPost2010PropOp49
 70
     1
102
RTVSPost2010Prop50
 90
       50
102
RTVSPost2010PropOp50
 70
     1
102
RTVSPost2010Prop51ColorIndex
 90
      256
102
RTVSPost2010Prop51ColorRGB
 90
-16777216
102
RTVSPost2010PropOp51
 70
     0
102
RTVSPost2010Prop52
140
1.0
102
RTVSPost2010PropOp52
 70
     0
102
RTVSPost2010Prop53
 90
        2
102
RTVSPost2010PropOp53
 70
     1
102
RTVSPost2010Prop54
  1
strokes_ogs.tif
102
RTVSPost2010PropOp54
 70
     1
102
RTVSPost2010Prop55
280
     0
102
RTVSPost2010PropOp55
 70
     1
102
RTVSPost2010Prop56
140
1.0
102
RTVSPost2010PropOp56
 70
     1
102
RTVSPost2010Prop57
140
1.0
102
RTVSPost2010PropOp57
 70
     1
102
RTVSPropertyOp0
 70
     1
102
RTVSPropertyOp1
 70
     1
102
RTVSPropertyOp2
 70
     1
102
RTVSPropertyOp3
 70
     1
102
RTVSPropertyOp4
 70
     1
102
RTVSPropertyOp5
 70
     1
102
RTVSPropertyOp6
 70
     1
102
RTVSPropertyOp7
 70
     1
102
RTVSPropertyOp8
 70
     1
102
RTVSPropertyOp9
 70
     1
102
RTVSPropertyOp10
 70
     1
102
RTVSPropertyOp11
 70
     1
102
RTVSPropertyOp12
 70
     1
102
RTVSPropertyOp13
 70
     1
102
RTVSPropertyOp14
 70
     1
102
RTVSPropertyOp15
 70
     1
102
RTVSPropertyOp16
 70
     1
102
RTVSPropertyOp17
 70
     1
102
RTVSPropertyOp18
 70
     1
102
RTVSPropertyOp19
 70
     1
102
RTVSPropertyOp20
 70
     1
102
RTVSPropertyOp21
 70
     1
102
RTVSPropertyOp22
 70
     1
102
RTVSPropertyOp23
 70
     1
102
RTVSPropertyOp24
 70
     1
102
RTVSPropertyOp25
 70
     1
102
RTVSPropertyOp26
 70
     1
102
RTVSPropertyOp27
 70
     1
102
RTVSPropertyOp28
 70
     1
102
RTVSPropertyOp29
 70
     1
102
RTVSPropertyOp30
 70
     1
102
RTVSPropertyOp31
 70
     1
102
RTVSPropertyOp32
 70
     1
102
RTVSPropertyOp33
 70
     1
102
RTVSPropertyOp34
 70
     1
102
RTVSPropertyOp35
 70
     1
102
RTVSPropertyOp36
 70
     1
102
RTVSPropertyOp37
 70
     1
102
RTVSPropertyOp38
 70
     1
102
RTVSPropertyOp39
 70
     1
102
RTVSPropertyOp40
 70
     1
102
RTVSPropertyOp41
 70
     1
102
RTVSPropertyOp42
 70
     1
102
RTVSPropertyOp43
 70
     1
102
RTVSPropertyOp44
 70
     1
102
RTVSPropertyOp45
 70
     1
102
RTVSPropertyOp46
 70
     1
102
RTVSPropertyOp47
 70
     1
102
RTVSPropertyOp48
 70
     1
102
RTVSPropertyOp49
 70
     1
102
RTVSPropertyOp50
 70
     1
102
RTVSPropertyOp51
 70
     0
102
RTVSPropertyOp52
 70
     0
102
RTVSPropertyOp53
 70
     1
102
RTVSPropertyOp54
 70
     1
102
RTVSPropertyOp55
 70
     1
102
RTVSPropertyOp56
 70
     1
102
RTVSPropertyOp57
 70
     1
102
RTVSPropertyOp58
 70
     1
102
RTVSPropertyOp59
 70
     1
102
RTVSPropertyOp60
 70
     1
102
RTVSPropertyOp61
 70
     1
102
RTVSPropertyOp62
 70
     1
  0
XRECORD
  5
8795
102
{ACAD_REACTORS
330
8794
102
}
330
8794
100
AcDbXrecord
280
     1
102
RTVSPost2010Prop28
280
     0
102
RTVSPost2010PropOp28
 70
     1
102
RTVSPost2010Prop29
280
     1
102
RTVSPost2010PropOp29
 70
     1
102
RTVSPost2010Prop30
280
     1
102
RTVSPost2010PropOp30
 70
     1
102
RTVSPost2010Prop31
280
     0
102
RTVSPost2010PropOp31
 70
     1
102
RTVSPost2010Prop32
280
     0
102
RTVSPost2010PropOp32
 70
     1
102
RTVSPost2010Prop33
280
     0
102
RTVSPost2010PropOp33
 70
     1
102
RTVSPost2010Prop34
280
     0
102
RTVSPost2010PropOp34
 70
     1
102
RTVSPost2010Prop35
280
     0
102
RTVSPost2010PropOp35
 70
     1
102
RTVSPost2010Prop36
280
     0
102
RTVSPost2010PropOp36
 70
     1
102
RTVSPost2010Prop37
 90
       50
102
RTVSPost2010PropOp37
 70
     1
102
RTVSPost2010Prop38
140
0.0
102
RTVSPost2010PropOp38
 70
     1
102
RTVSPost2010Prop39
140
1.0
102
RTVSPost2010PropOp39
 70
     1
102
RTVSPost2010Prop40
 90
        0
102
RTVSPost2010PropOp40
 70
     1
102
RTVSPost2010Prop41ColorIndex
 90
       18
102
RTVSPost2010Prop41ColorRGB
 90
        0
102
RTVSPost2010PropOp41
 70
     1
102
RTVSPost2010Prop42
 90
       50
102
RTVSPost2010PropOp42
 70
     1
102
RTVSPost2010Prop43
 90
        3
102
RTVSPost2010PropOp43
 70
     1
102
RTVSPost2010Prop44ColorIndex
 90
        5
102
RTVSPost2010Prop44ColorRGB
 90
      255
102
RTVSPost2010PropOp44
 70
     1
102
RTVSPost2010Prop45
280
     0
102
RTVSPost2010PropOp45
 70
     1
102
RTVSPost2010Prop46
 90
       50
102
RTVSPost2010PropOp46
 70
     1
102
RTVSPost2010Prop47
 90
       50
102
RTVSPost2010PropOp47
 70
     1
102
RTVSPost2010Prop48
 90
       50
102
RTVSPost2010PropOp48
 70
     1
102
RTVSPost2010Prop49
280
     0
102
RTVSPost2010PropOp49
 70
     1
102
RTVSPost2010Prop50
 90
       50
102
RTVSPost2010PropOp50
 70
     1
102
RTVSPost2010Prop51ColorIndex
 90
      256
102
RTVSPost2010Prop51ColorRGB
 90
-16777216
102
RTVSPost2010PropOp51
 70
     0
102
RTVSPost2010Prop52
140
1.0
102
RTVSPost2010PropOp52
 70
     0
102
RTVSPost2010Prop53
 90
        2
102
RTVSPost2010PropOp53
 70
     1
102
RTVSPost2010Prop54
  1
strokes_ogs.tif
102
RTVSPost2010PropOp54
 70
     1
102
RTVSPost2010Prop55
280
     0
102
RTVSPost2010PropOp55
 70
     1
102
RTVSPost2010Prop56
140
1.0
102
RTVSPost2010PropOp56
 70
     1
102
RTVSPost2010Prop57
140
1.0
102
RTVSPost2010PropOp57
 70
     1
102
RTVSPropertyOp0
 70
     1
102
RTVSPropertyOp1
 70
     1
102
RTVSPropertyOp2
 70
     1
102
RTVSPropertyOp3
 70
     1
102
RTVSPropertyOp4
 70
     1
102
RTVSPropertyOp5
 70
     1
102
RTVSPropertyOp6
 70
     1
102
RTVSPropertyOp7
 70
     1
102
RTVSPropertyOp8
 70
     1
102
RTVSPropertyOp9
 70
     1
102
RTVSPropertyOp10
 70
     1
102
RTVSPropertyOp11
 70
     1
102
RTVSPropertyOp12
 70
     1
102
RTVSPropertyOp13
 70
     1
102
RTVSPropertyOp14
 70
     1
102
RTVSPropertyOp15
 70
     1
102
RTVSPropertyOp16
 70
     1
102
RTVSPropertyOp17
 70
     1
102
RTVSPropertyOp18
 70
     1
102
RTVSPropertyOp19
 70
     1
102
RTVSPropertyOp20
 70
     1
102
RTVSPropertyOp21
 70
     1
102
RTVSPropertyOp22
 70
     1
102
RTVSPropertyOp23
 70
     1
102
RTVSPropertyOp24
 70
     1
102
RTVSPropertyOp25
 70
     1
102
RTVSPropertyOp26
 70
     1
102
RTVSPropertyOp27
 70
     1
102
RTVSPropertyOp28
 70
     1
102
RTVSPropertyOp29
 70
     1
102
RTVSPropertyOp30
 70
     1
102
RTVSPropertyOp31
 70
     1
102
RTVSPropertyOp32
 70
     1
102
RTVSPropertyOp33
 70
     1
102
RTVSPropertyOp34
 70
     1
102
RTVSPropertyOp35
 70
     1
102
RTVSPropertyOp36
 70
     1
102
RTVSPropertyOp37
 70
     1
102
RTVSPropertyOp38
 70
     1
102
RTVSPropertyOp39
 70
     1
102
RTVSPropertyOp40
 70
     1
102
RTVSPropertyOp41
 70
     1
102
RTVSPropertyOp42
 70
     1
102
RTVSPropertyOp43
 70
     1
102
RTVSPropertyOp44
 70
     1
102
RTVSPropertyOp45
 70
     1
102
RTVSPropertyOp46
 70
     1
102
RTVSPropertyOp47
 70
     1
102
RTVSPropertyOp48
 70
     1
102
RTVSPropertyOp49
 70
     1
102
RTVSPropertyOp50
 70
     1
102
RTVSPropertyOp51
 70
     0
102
RTVSPropertyOp52
 70
     0
102
RTVSPropertyOp53
 70
     1
102
RTVSPropertyOp54
 70
     1
102
RTVSPropertyOp55
 70
     1
102
RTVSPropertyOp56
 70
     1
102
RTVSPropertyOp57
 70
     1
102
RTVSPropertyOp58
 70
     1
102
RTVSPropertyOp59
 70
     1
102
RTVSPropertyOp60
 70
     1
102
RTVSPropertyOp61
 70
     1
102
RTVSPropertyOp62
 70
     1
  0
XRECORD
  5
8797
102
{ACAD_REACTORS
330
8796
102
}
330
8796
100
AcDbXrecord
280
     1
102
RTVSPost2010Prop28
280
     0
102
RTVSPost2010PropOp28
 70
     1
102
RTVSPost2010Prop29
280
     1
102
RTVSPost2010PropOp29
 70
     1
102
RTVSPost2010Prop30
280
     1
102
RTVSPost2010PropOp30
 70
     1
102
RTVSPost2010Prop31
280
     0
102
RTVSPost2010PropOp31
 70
     1
102
RTVSPost2010Prop32
280
     0
102
RTVSPost2010PropOp32
 70
     1
102
RTVSPost2010Prop33
280
     0
102
RTVSPost2010PropOp33
 70
     1
102
RTVSPost2010Prop34
280
     0
102
RTVSPost2010PropOp34
 70
     1
102
RTVSPost2010Prop35
280
     0
102
RTVSPost2010PropOp35
 70
     1
102
RTVSPost2010Prop36
280
     0
102
RTVSPost2010PropOp36
 70
     1
102
RTVSPost2010Prop37
 90
       50
102
RTVSPost2010PropOp37
 70
     1
102
RTVSPost2010Prop38
140
0.0
102
RTVSPost2010PropOp38
 70
     1
102
RTVSPost2010Prop39
140
1.0
102
RTVSPost2010PropOp39
 70
     1
102
RTVSPost2010Prop40
 90
        0
102
RTVSPost2010PropOp40
 70
     1
102
RTVSPost2010Prop41ColorIndex
 90
       18
102
RTVSPost2010Prop41ColorRGB
 90
        0
102
RTVSPost2010PropOp41
 70
     1
102
RTVSPost2010Prop42
 90
       50
102
RTVSPost2010PropOp42
 70
     1
102
RTVSPost2010Prop43
 90
        3
102
RTVSPost2010PropOp43
 70
     1
102
RTVSPost2010Prop44ColorIndex
 90
        5
102
RTVSPost2010Prop44ColorRGB
 90
      255
102
RTVSPost2010PropOp44
 70
     1
102
RTVSPost2010Prop45
280
     0
102
RTVSPost2010PropOp45
 70
     1
102
RTVSPost2010Prop46
 90
       50
102
RTVSPost2010PropOp46
 70
     1
102
RTVSPost2010Prop47
 90
       50
102
RTVSPost2010PropOp47
 70
     1
102
RTVSPost2010Prop48
 90
       50
102
RTVSPost2010PropOp48
 70
     1
102
RTVSPost2010Prop49
280
     0
102
RTVSPost2010PropOp49
 70
     1
102
RTVSPost2010Prop50
 90
       50
102
RTVSPost2010PropOp50
 70
     1
102
RTVSPost2010Prop51ColorIndex
 90
      256
102
RTVSPost2010Prop51ColorRGB
 90
-16777216
102
RTVSPost2010PropOp51
 70
     0
102
RTVSPost2010Prop52
140
1.0
102
RTVSPost2010PropOp52
 70
     0
102
RTVSPost2010Prop53
 90
        2
102
RTVSPost2010PropOp53
 70
     1
102
RTVSPost2010Prop54
  1
strokes_ogs.tif
102
RTVSPost2010PropOp54
 70
     1
102
RTVSPost2010Prop55
280
     0
102
RTVSPost2010PropOp55
 70
     1
102
RTVSPost2010Prop56
140
1.0
102
RTVSPost2010PropOp56
 70
     1
102
RTVSPost2010Prop57
140
1.0
102
RTVSPost2010PropOp57
 70
     1
102
RTVSPropertyOp0
 70
     1
102
RTVSPropertyOp1
 70
     1
102
RTVSPropertyOp2
 70
     1
102
RTVSPropertyOp3
 70
     1
102
RTVSPropertyOp4
 70
     1
102
RTVSPropertyOp5
 70
     1
102
RTVSPropertyOp6
 70
     1
102
RTVSPropertyOp7
 70
     1
102
RTVSPropertyOp8
 70
     1
102
RTVSPropertyOp9
 70
     1
102
RTVSPropertyOp10
 70
     1
102
RTVSPropertyOp11
 70
     1
102
RTVSPropertyOp12
 70
     1
102
RTVSPropertyOp13
 70
     1
102
RTVSPropertyOp14
 70
     1
102
RTVSPropertyOp15
 70
     1
102
RTVSPropertyOp16
 70
     1
102
RTVSPropertyOp17
 70
     1
102
RTVSPropertyOp18
 70
     1
102
RTVSPropertyOp19
 70
     1
102
RTVSPropertyOp20
 70
     1
102
RTVSPropertyOp21
 70
     1
102
RTVSPropertyOp22
 70
     1
102
RTVSPropertyOp23
 70
     1
102
RTVSPropertyOp24
 70
     1
102
RTVSPropertyOp25
 70
     1
102
RTVSPropertyOp26
 70
     1
102
RTVSPropertyOp27
 70
     1
102
RTVSPropertyOp28
 70
     1
102
RTVSPropertyOp29
 70
     1
102
RTVSPropertyOp30
 70
     1
102
RTVSPropertyOp31
 70
     1
102
RTVSPropertyOp32
 70
     1
102
RTVSPropertyOp33
 70
     1
102
RTVSPropertyOp34
 70
     1
102
RTVSPropertyOp35
 70
     1
102
RTVSPropertyOp36
 70
     1
102
RTVSPropertyOp37
 70
     1
102
RTVSPropertyOp38
 70
     1
102
RTVSPropertyOp39
 70
     1
102
RTVSPropertyOp40
 70
     1
102
RTVSPropertyOp41
 70
     1
102
RTVSPropertyOp42
 70
     1
102
RTVSPropertyOp43
 70
     1
102
RTVSPropertyOp44
 70
     1
102
RTVSPropertyOp45
 70
     1
102
RTVSPropertyOp46
 70
     1
102
RTVSPropertyOp47
 70
     1
102
RTVSPropertyOp48
 70
     1
102
RTVSPropertyOp49
 70
     1
102
RTVSPropertyOp50
 70
     1
102
RTVSPropertyOp51
 70
     0
102
RTVSPropertyOp52
 70
     0
102
RTVSPropertyOp53
 70
     1
102
RTVSPropertyOp54
 70
     1
102
RTVSPropertyOp55
 70
     1
102
RTVSPropertyOp56
 70
     1
102
RTVSPropertyOp57
 70
     1
102
RTVSPropertyOp58
 70
     1
102
RTVSPropertyOp59
 70
     1
102
RTVSPropertyOp60
 70
     1
102
RTVSPropertyOp61
 70
     1
102
RTVSPropertyOp62
 70
     1
  0
XRECORD
  5
8799
102
{ACAD_REACTORS
330
8798
102
}
330
8798
100
AcDbXrecord
280
     1
102
RTVSPost2010Prop28
280
     0
102
RTVSPost2010PropOp28
 70
     1
102
RTVSPost2010Prop29
280
     1
102
RTVSPost2010PropOp29
 70
     1
102
RTVSPost2010Prop30
280
     1
102
RTVSPost2010PropOp30
 70
     1
102
RTVSPost2010Prop31
280
     0
102
RTVSPost2010PropOp31
 70
     1
102
RTVSPost2010Prop32
280
     0
102
RTVSPost2010PropOp32
 70
     1
102
RTVSPost2010Prop33
280
     0
102
RTVSPost2010PropOp33
 70
     1
102
RTVSPost2010Prop34
280
     0
102
RTVSPost2010PropOp34
 70
     1
102
RTVSPost2010Prop35
280
     0
102
RTVSPost2010PropOp35
 70
     1
102
RTVSPost2010Prop36
280
     0
102
RTVSPost2010PropOp36
 70
     1
102
RTVSPost2010Prop37
 90
       50
102
RTVSPost2010PropOp37
 70
     1
102
RTVSPost2010Prop38
140
0.0
102
RTVSPost2010PropOp38
 70
     1
102
RTVSPost2010Prop39
140
1.0
102
RTVSPost2010PropOp39
 70
     1
102
RTVSPost2010Prop40
 90
        0
102
RTVSPost2010PropOp40
 70
     1
102
RTVSPost2010Prop41ColorIndex
 90
       18
102
RTVSPost2010Prop41ColorRGB
 90
        0
102
RTVSPost2010PropOp41
 70
     1
102
RTVSPost2010Prop42
 90
       50
102
RTVSPost2010PropOp42
 70
     1
102
RTVSPost2010Prop43
 90
        3
102
RTVSPost2010PropOp43
 70
     1
102
RTVSPost2010Prop44ColorIndex
 90
        5
102
RTVSPost2010Prop44ColorRGB
 90
      255
102
RTVSPost2010PropOp44
 70
     1
102
RTVSPost2010Prop45
280
     0
102
RTVSPost2010PropOp45
 70
     1
102
RTVSPost2010Prop46
 90
       50
102
RTVSPost2010PropOp46
 70
     1
102
RTVSPost2010Prop47
 90
       50
102
RTVSPost2010PropOp47
 70
     1
102
RTVSPost2010Prop48
 90
       50
102
RTVSPost2010PropOp48
 70
     1
102
RTVSPost2010Prop49
280
     0
102
RTVSPost2010PropOp49
 70
     1
102
RTVSPost2010Prop50
 90
       50
102
RTVSPost2010PropOp50
 70
     1
102
RTVSPost2010Prop51ColorIndex
 90
      256
102
RTVSPost2010Prop51ColorRGB
 90
-16777216
102
RTVSPost2010PropOp51
 70
     0
102
RTVSPost2010Prop52
140
1.0
102
RTVSPost2010PropOp52
 70
     0
102
RTVSPost2010Prop53
 90
        2
102
RTVSPost2010PropOp53
 70
     1
102
RTVSPost2010Prop54
  1
strokes_ogs.tif
102
RTVSPost2010PropOp54
 70
     1
102
RTVSPost2010Prop55
280
     0
102
RTVSPost2010PropOp55
 70
     1
102
RTVSPost2010Prop56
140
1.0
102
RTVSPost2010PropOp56
 70
     1
102
RTVSPost2010Prop57
140
1.0
102
RTVSPost2010PropOp57
 70
     1
102
RTVSPropertyOp0
 70
     1
102
RTVSPropertyOp1
 70
     1
102
RTVSPropertyOp2
 70
     1
102
RTVSPropertyOp3
 70
     1
102
RTVSPropertyOp4
 70
     1
102
RTVSPropertyOp5
 70
     1
102
RTVSPropertyOp6
 70
     1
102
RTVSPropertyOp7
 70
     1
102
RTVSPropertyOp8
 70
     1
102
RTVSPropertyOp9
 70
     1
102
RTVSPropertyOp10
 70
     1
102
RTVSPropertyOp11
 70
     1
102
RTVSPropertyOp12
 70
     1
102
RTVSPropertyOp13
 70
     1
102
RTVSPropertyOp14
 70
     1
102
RTVSPropertyOp15
 70
     1
102
RTVSPropertyOp16
 70
     1
102
RTVSPropertyOp17
 70
     1
102
RTVSPropertyOp18
 70
     1
102
RTVSPropertyOp19
 70
     1
102
RTVSPropertyOp20
 70
     1
102
RTVSPropertyOp21
 70
     1
102
RTVSPropertyOp22
 70
     1
102
RTVSPropertyOp23
 70
     1
102
RTVSPropertyOp24
 70
     1
102
RTVSPropertyOp25
 70
     1
102
RTVSPropertyOp26
 70
     1
102
RTVSPropertyOp27
 70
     1
102
RTVSPropertyOp28
 70
     1
102
RTVSPropertyOp29
 70
     1
102
RTVSPropertyOp30
 70
     1
102
RTVSPropertyOp31
 70
     1
102
RTVSPropertyOp32
 70
     1
102
RTVSPropertyOp33
 70
     1
102
RTVSPropertyOp34
 70
     1
102
RTVSPropertyOp35
 70
     1
102
RTVSPropertyOp36
 70
     1
102
RTVSPropertyOp37
 70
     1
102
RTVSPropertyOp38
 70
     1
102
RTVSPropertyOp39
 70
     1
102
RTVSPropertyOp40
 70
     1
102
RTVSPropertyOp41
 70
     1
102
RTVSPropertyOp42
 70
     1
102
RTVSPropertyOp43
 70
     1
102
RTVSPropertyOp44
 70
     1
102
RTVSPropertyOp45
 70
     1
102
RTVSPropertyOp46
 70
     1
102
RTVSPropertyOp47
 70
     1
102
RTVSPropertyOp48
 70
     1
102
RTVSPropertyOp49
 70
     1
102
RTVSPropertyOp50
 70
     1
102
RTVSPropertyOp51
 70
     0
102
RTVSPropertyOp52
 70
     0
102
RTVSPropertyOp53
 70
     1
102
RTVSPropertyOp54
 70
     1
102
RTVSPropertyOp55
 70
     1
102
RTVSPropertyOp56
 70
     1
102
RTVSPropertyOp57
 70
     1
102
RTVSPropertyOp58
 70
     1
102
RTVSPropertyOp59
 70
     1
102
RTVSPropertyOp60
 70
     1
102
RTVSPropertyOp61
 70
     1
102
RTVSPropertyOp62
 70
     1
  0
XRECORD
  5
879B
102
{ACAD_REACTORS
330
879A
102
}
330
879A
100
AcDbXrecord
280
     1
102
RTVSPost2010Prop28
280
     0
102
RTVSPost2010PropOp28
 70
     1
102
RTVSPost2010Prop29
280
     1
102
RTVSPost2010PropOp29
 70
     1
102
RTVSPost2010Prop30
280
     1
102
RTVSPost2010PropOp30
 70
     1
102
RTVSPost2010Prop31
280
     0
102
RTVSPost2010PropOp31
 70
     1
102
RTVSPost2010Prop32
280
     0
102
RTVSPost2010PropOp32
 70
     1
102
RTVSPost2010Prop33
280
     0
102
RTVSPost2010PropOp33
 70
     1
102
RTVSPost2010Prop34
280
     0
102
RTVSPost2010PropOp34
 70
     1
102
RTVSPost2010Prop35
280
     0
102
RTVSPost2010PropOp35
 70
     1
102
RTVSPost2010Prop36
280
     0
102
RTVSPost2010PropOp36
 70
     1
102
RTVSPost2010Prop37
 90
       50
102
RTVSPost2010PropOp37
 70
     1
102
RTVSPost2010Prop38
140
0.0
102
RTVSPost2010PropOp38
 70
     1
102
RTVSPost2010Prop39
140
1.0
102
RTVSPost2010PropOp39
 70
     1
102
RTVSPost2010Prop40
 90
        0
102
RTVSPost2010PropOp40
 70
     1
102
RTVSPost2010Prop41ColorIndex
 90
       18
102
RTVSPost2010Prop41ColorRGB
 90
        0
102
RTVSPost2010PropOp41
 70
     1
102
RTVSPost2010Prop42
 90
       50
102
RTVSPost2010PropOp42
 70
     1
102
RTVSPost2010Prop43
 90
        3
102
RTVSPost2010PropOp43
 70
     1
102
RTVSPost2010Prop44ColorIndex
 90
        5
102
RTVSPost2010Prop44ColorRGB
 90
      255
102
RTVSPost2010PropOp44
 70
     1
102
RTVSPost2010Prop45
280
     0
102
RTVSPost2010PropOp45
 70
     1
102
RTVSPost2010Prop46
 90
       50
102
RTVSPost2010PropOp46
 70
     1
102
RTVSPost2010Prop47
 90
       50
102
RTVSPost2010PropOp47
 70
     1
102
RTVSPost2010Prop48
 90
       50
102
RTVSPost2010PropOp48
 70
     1
102
RTVSPost2010Prop49
280
     0
102
RTVSPost2010PropOp49
 70
     1
102
RTVSPost2010Prop50
 90
       50
102
RTVSPost2010PropOp50
 70
     1
102
RTVSPost2010Prop51ColorIndex
 90
      256
102
RTVSPost2010Prop51ColorRGB
 90
-16777216
102
RTVSPost2010PropOp51
 70
     0
102
RTVSPost2010Prop52
140
1.0
102
RTVSPost2010PropOp52
 70
     0
102
RTVSPost2010Prop53
 90
        2
102
RTVSPost2010PropOp53
 70
     1
102
RTVSPost2010Prop54
  1
strokes_ogs.tif
102
RTVSPost2010PropOp54
 70
     1
102
RTVSPost2010Prop55
280
     0
102
RTVSPost2010PropOp55
 70
     1
102
RTVSPost2010Prop56
140
1.0
102
RTVSPost2010PropOp56
 70
     1
102
RTVSPost2010Prop57
140
1.0
102
RTVSPost2010PropOp57
 70
     1
102
RTVSPropertyOp0
 70
     1
102
RTVSPropertyOp1
 70
     1
102
RTVSPropertyOp2
 70
     1
102
RTVSPropertyOp3
 70
     1
102
RTVSPropertyOp4
 70
     1
102
RTVSPropertyOp5
 70
     1
102
RTVSPropertyOp6
 70
     1
102
RTVSPropertyOp7
 70
     1
102
RTVSPropertyOp8
 70
     1
102
RTVSPropertyOp9
 70
     1
102
RTVSPropertyOp10
 70
     1
102
RTVSPropertyOp11
 70
     1
102
RTVSPropertyOp12
 70
     1
102
RTVSPropertyOp13
 70
     1
102
RTVSPropertyOp14
 70
     1
102
RTVSPropertyOp15
 70
     1
102
RTVSPropertyOp16
 70
     1
102
RTVSPropertyOp17
 70
     1
102
RTVSPropertyOp18
 70
     1
102
RTVSPropertyOp19
 70
     1
102
RTVSPropertyOp20
 70
     1
102
RTVSPropertyOp21
 70
     1
102
RTVSPropertyOp22
 70
     1
102
RTVSPropertyOp23
 70
     1
102
RTVSPropertyOp24
 70
     1
102
RTVSPropertyOp25
 70
     1
102
RTVSPropertyOp26
 70
     1
102
RTVSPropertyOp27
 70
     1
102
RTVSPropertyOp28
 70
     1
102
RTVSPropertyOp29
 70
     1
102
RTVSPropertyOp30
 70
     1
102
RTVSPropertyOp31
 70
     1
102
RTVSPropertyOp32
 70
     1
102
RTVSPropertyOp33
 70
     1
102
RTVSPropertyOp34
 70
     1
102
RTVSPropertyOp35
 70
     1
102
RTVSPropertyOp36
 70
     1
102
RTVSPropertyOp37
 70
     1
102
RTVSPropertyOp38
 70
     1
102
RTVSPropertyOp39
 70
     1
102
RTVSPropertyOp40
 70
     1
102
RTVSPropertyOp41
 70
     1
102
RTVSPropertyOp42
 70
     1
102
RTVSPropertyOp43
 70
     1
102
RTVSPropertyOp44
 70
     1
102
RTVSPropertyOp45
 70
     1
102
RTVSPropertyOp46
 70
     1
102
RTVSPropertyOp47
 70
     1
102
RTVSPropertyOp48
 70
     1
102
RTVSPropertyOp49
 70
     1
102
RTVSPropertyOp50
 70
     1
102
RTVSPropertyOp51
 70
     0
102
RTVSPropertyOp52
 70
     0
102
RTVSPropertyOp53
 70
     1
102
RTVSPropertyOp54
 70
     1
102
RTVSPropertyOp55
 70
     1
102
RTVSPropertyOp56
 70
     1
102
RTVSPropertyOp57
 70
     1
102
RTVSPropertyOp58
 70
     1
102
RTVSPropertyOp59
 70
     1
102
RTVSPropertyOp60
 70
     1
102
RTVSPropertyOp61
 70
     1
102
RTVSPropertyOp62
 70
     1
  0
XRECORD
  5
87A3
102
{ACAD_REACTORS
330
87A2
102
}
330
87A2
100
AcDbXrecord
280
     1
102
RTVSPost2010Prop28
280
     0
102
RTVSPost2010PropOp28
 70
     1
102
RTVSPost2010Prop29
280
     1
102
RTVSPost2010PropOp29
 70
     1
102
RTVSPost2010Prop30
280
     1
102
RTVSPost2010PropOp30
 70
     1
102
RTVSPost2010Prop31
280
     0
102
RTVSPost2010PropOp31
 70
     1
102
RTVSPost2010Prop32
280
     0
102
RTVSPost2010PropOp32
 70
     1
102
RTVSPost2010Prop33
280
     0
102
RTVSPost2010PropOp33
 70
     1
102
RTVSPost2010Prop34
280
     0
102
RTVSPost2010PropOp34
 70
     1
102
RTVSPost2010Prop35
280
     0
102
RTVSPost2010PropOp35
 70
     1
102
RTVSPost2010Prop36
280
     0
102
RTVSPost2010PropOp36
 70
     1
102
RTVSPost2010Prop37
 90
       50
102
RTVSPost2010PropOp37
 70
     1
102
RTVSPost2010Prop38
140
0.0
102
RTVSPost2010PropOp38
 70
     1
102
RTVSPost2010Prop39
140
1.0
102
RTVSPost2010PropOp39
 70
     1
102
RTVSPost2010Prop40
 90
        0
102
RTVSPost2010PropOp40
 70
     1
102
RTVSPost2010Prop41ColorIndex
 90
       18
102
RTVSPost2010Prop41ColorRGB
 90
        0
102
RTVSPost2010PropOp41
 70
     1
102
RTVSPost2010Prop42
 90
       50
102
RTVSPost2010PropOp42
 70
     1
102
RTVSPost2010Prop43
 90
        3
102
RTVSPost2010PropOp43
 70
     1
102
RTVSPost2010Prop44ColorIndex
 90
        5
102
RTVSPost2010Prop44ColorRGB
 90
      255
102
RTVSPost2010PropOp44
 70
     1
102
RTVSPost2010Prop45
280
     0
102
RTVSPost2010PropOp45
 70
     1
102
RTVSPost2010Prop46
 90
       50
102
RTVSPost2010PropOp46
 70
     1
102
RTVSPost2010Prop47
 90
       50
102
RTVSPost2010PropOp47
 70
     1
102
RTVSPost2010Prop48
 90
       50
102
RTVSPost2010PropOp48
 70
     1
102
RTVSPost2010Prop49
280
     0
102
RTVSPost2010PropOp49
 70
     1
102
RTVSPost2010Prop50
 90
       50
102
RTVSPost2010PropOp50
 70
     1
102
RTVSPost2010Prop51ColorIndex
 90
      256
102
RTVSPost2010Prop51ColorRGB
 90
-16777216
102
RTVSPost2010PropOp51
 70
     0
102
RTVSPost2010Prop52
140
1.0
102
RTVSPost2010PropOp52
 70
     0
102
RTVSPost2010Prop53
 90
        2
102
RTVSPost2010PropOp53
 70
     1
102
RTVSPost2010Prop54
  1
strokes_ogs.tif
102
RTVSPost2010PropOp54
 70
     1
102
RTVSPost2010Prop55
280
     0
102
RTVSPost2010PropOp55
 70
     1
102
RTVSPost2010Prop56
140
1.0
102
RTVSPost2010PropOp56
 70
     1
102
RTVSPost2010Prop57
140
1.0
102
RTVSPost2010PropOp57
 70
     1
102
RTVSPropertyOp0
 70
     1
102
RTVSPropertyOp1
 70
     1
102
RTVSPropertyOp2
 70
     1
102
RTVSPropertyOp3
 70
     1
102
RTVSPropertyOp4
 70
     1
102
RTVSPropertyOp5
 70
     1
102
RTVSPropertyOp6
 70
     1
102
RTVSPropertyOp7
 70
     1
102
RTVSPropertyOp8
 70
     1
102
RTVSPropertyOp9
 70
     1
102
RTVSPropertyOp10
 70
     1
102
RTVSPropertyOp11
 70
     1
102
RTVSPropertyOp12
 70
     1
102
RTVSPropertyOp13
 70
     1
102
RTVSPropertyOp14
 70
     1
102
RTVSPropertyOp15
 70
     1
102
RTVSPropertyOp16
 70
     1
102
RTVSPropertyOp17
 70
     1
102
RTVSPropertyOp18
 70
     1
102
RTVSPropertyOp19
 70
     1
102
RTVSPropertyOp20
 70
     1
102
RTVSPropertyOp21
 70
     1
102
RTVSPropertyOp22
 70
     1
102
RTVSPropertyOp23
 70
     1
102
RTVSPropertyOp24
 70
     1
102
RTVSPropertyOp25
 70
     1
102
RTVSPropertyOp26
 70
     1
102
RTVSPropertyOp27
 70
     1
102
RTVSPropertyOp28
 70
     1
102
RTVSPropertyOp29
 70
     1
102
RTVSPropertyOp30
 70
     1
102
RTVSPropertyOp31
 70
     1
102
RTVSPropertyOp32
 70
     1
102
RTVSPropertyOp33
 70
     1
102
RTVSPropertyOp34
 70
     1
102
RTVSPropertyOp35
 70
     1
102
RTVSPropertyOp36
 70
     1
102
RTVSPropertyOp37
 70
     1
102
RTVSPropertyOp38
 70
     1
102
RTVSPropertyOp39
 70
     1
102
RTVSPropertyOp40
 70
     1
102
RTVSPropertyOp41
 70
     1
102
RTVSPropertyOp42
 70
     1
102
RTVSPropertyOp43
 70
     1
102
RTVSPropertyOp44
 70
     1
102
RTVSPropertyOp45
 70
     1
102
RTVSPropertyOp46
 70
     1
102
RTVSPropertyOp47
 70
     1
102
RTVSPropertyOp48
 70
     1
102
RTVSPropertyOp49
 70
     1
102
RTVSPropertyOp50
 70
     1
102
RTVSPropertyOp51
 70
     0
102
RTVSPropertyOp52
 70
     0
102
RTVSPropertyOp53
 70
     1
102
RTVSPropertyOp54
 70
     1
102
RTVSPropertyOp55
 70
     1
102
RTVSPropertyOp56
 70
     1
102
RTVSPropertyOp57
 70
     1
102
RTVSPropertyOp58
 70
     1
102
RTVSPropertyOp59
 70
     1
102
RTVSPropertyOp60
 70
     1
102
RTVSPropertyOp61
 70
     1
102
RTVSPropertyOp62
 70
     1
  0
XRECORD
  5
87BF
102
{ACAD_REACTORS
330
87BE
102
}
330
87BE
100
AcDbXrecord
280
     1
102
RTVSPost2010Prop28
280
     0
102
RTVSPost2010PropOp28
 70
     1
102
RTVSPost2010Prop29
280
     1
102
RTVSPost2010PropOp29
 70
     1
102
RTVSPost2010Prop30
280
     1
102
RTVSPost2010PropOp30
 70
     1
102
RTVSPost2010Prop31
280
     0
102
RTVSPost2010PropOp31
 70
     1
102
RTVSPost2010Prop32
280
     0
102
RTVSPost2010PropOp32
 70
     1
102
RTVSPost2010Prop33
280
     0
102
RTVSPost2010PropOp33
 70
     1
102
RTVSPost2010Prop34
280
     0
102
RTVSPost2010PropOp34
 70
     1
102
RTVSPost2010Prop35
280
     0
102
RTVSPost2010PropOp35
 70
     1
102
RTVSPost2010Prop36
280
     0
102
RTVSPost2010PropOp36
 70
     1
102
RTVSPost2010Prop37
 90
       50
102
RTVSPost2010PropOp37
 70
     0
102
RTVSPost2010Prop38
140
0.0
102
RTVSPost2010PropOp38
 70
     0
102
RTVSPost2010Prop39
140
1.0
102
RTVSPost2010PropOp39
 70
     0
102
RTVSPost2010Prop40
 90
        0
102
RTVSPost2010PropOp40
 70
     0
102
RTVSPost2010Prop41ColorIndex
 90
       18
102
RTVSPost2010Prop41ColorRGB
 90
        0
102
RTVSPost2010PropOp41
 70
     0
102
RTVSPost2010Prop42
 90
       50
102
RTVSPost2010PropOp42
 70
     0
102
RTVSPost2010Prop43
 90
        3
102
RTVSPost2010PropOp43
 70
     0
102
RTVSPost2010Prop44ColorIndex
 90
        5
102
RTVSPost2010Prop44ColorRGB
 90
      255
102
RTVSPost2010PropOp44
 70
     0
102
RTVSPost2010Prop45
280
     0
102
RTVSPost2010PropOp45
 70
     1
102
RTVSPost2010Prop46
 90
       50
102
RTVSPost2010PropOp46
 70
     0
102
RTVSPost2010Prop47
 90
       50
102
RTVSPost2010PropOp47
 70
     0
102
RTVSPost2010Prop48
 90
       50
102
RTVSPost2010PropOp48
 70
     0
102
RTVSPost2010Prop49
280
     0
102
RTVSPost2010PropOp49
 70
     1
102
RTVSPost2010Prop50
 90
       50
102
RTVSPost2010PropOp50
 70
     0
102
RTVSPost2010Prop51ColorIndex
 90
      256
102
RTVSPost2010Prop51ColorRGB
 90
-16777216
102
RTVSPost2010PropOp51
 70
     0
102
RTVSPost2010Prop52
140
1.0
102
RTVSPost2010PropOp52
 70
     0
102
RTVSPost2010Prop53
 90
        2
102
RTVSPost2010PropOp53
 70
     0
102
RTVSPost2010Prop54
  1
strokes_ogs.tif
102
RTVSPost2010PropOp54
 70
     0
102
RTVSPost2010Prop55
280
     0
102
RTVSPost2010PropOp55
 70
     1
102
RTVSPost2010Prop56
140
1.0
102
RTVSPost2010PropOp56
 70
     0
102
RTVSPost2010Prop57
140
1.0
102
RTVSPost2010PropOp57
 70
     0
102
RTVSPropertyOp0
 70
     0
102
RTVSPropertyOp1
 70
     0
102
RTVSPropertyOp2
 70
     0
102
RTVSPropertyOp3
 70
     0
102
RTVSPropertyOp4
 70
     0
102
RTVSPropertyOp5
 70
     0
102
RTVSPropertyOp6
 70
     0
102
RTVSPropertyOp7
 70
     0
102
RTVSPropertyOp8
 70
     0
102
RTVSPropertyOp9
 70
     0
102
RTVSPropertyOp10
 70
     0
102
RTVSPropertyOp11
 70
     0
102
RTVSPropertyOp12
 70
     0
102
RTVSPropertyOp13
 70
     0
102
RTVSPropertyOp14
 70
     2
102
RTVSPropertyOp15
 70
     0
102
RTVSPropertyOp16
 70
     0
102
RTVSPropertyOp17
 70
     0
102
RTVSPropertyOp18
 70
     0
102
RTVSPropertyOp19
 70
     0
102
RTVSPropertyOp20
 70
     0
102
RTVSPropertyOp21
 70
     0
102
RTVSPropertyOp22
 70
     0
102
RTVSPropertyOp23
 70
     0
102
RTVSPropertyOp24
 70
     0
102
RTVSPropertyOp25
 70
     0
102
RTVSPropertyOp26
 70
     0
102
RTVSPropertyOp27
 70
     0
102
RTVSPropertyOp28
 70
     1
102
RTVSPropertyOp29
 70
     1
102
RTVSPropertyOp30
 70
     1
102
RTVSPropertyOp31
 70
     1
102
RTVSPropertyOp32
 70
     1
102
RTVSPropertyOp33
 70
     1
102
RTVSPropertyOp34
 70
     1
102
RTVSPropertyOp35
 70
     1
102
RTVSPropertyOp36
 70
     1
102
RTVSPropertyOp37
 70
     0
102
RTVSPropertyOp38
 70
     0
102
RTVSPropertyOp39
 70
     0
102
RTVSPropertyOp40
 70
     0
102
RTVSPropertyOp41
 70
     0
102
RTVSPropertyOp42
 70
     0
102
RTVSPropertyOp43
 70
     0
102
RTVSPropertyOp44
 70
     0
102
RTVSPropertyOp45
 70
     1
102
RTVSPropertyOp46
 70
     0
102
RTVSPropertyOp47
 70
     0
102
RTVSPropertyOp48
 70
     0
102
RTVSPropertyOp49
 70
     1
102
RTVSPropertyOp50
 70
     0
102
RTVSPropertyOp51
 70
     0
102
RTVSPropertyOp52
 70
     0
102
RTVSPropertyOp53
 70
     0
102
RTVSPropertyOp54
 70
     0
102
RTVSPropertyOp55
 70
     1
102
RTVSPropertyOp56
 70
     0
102
RTVSPropertyOp57
 70
     0
102
RTVSPropertyOp58
 70
     0
102
RTVSPropertyOp59
 70
     0
102
RTVSPropertyOp60
 70
     0
102
RTVSPropertyOp61
 70
     0
102
RTVSPropertyOp62
 70
     0
  0
XRECORD
  5
87AF
102
{ACAD_REACTORS
330
87AE
102
}
330
87AE
100
AcDbXrecord
280
     1
102
RTVSPost2010Prop28
280
     0
102
RTVSPost2010PropOp28
 70
     1
102
RTVSPost2010Prop29
280
     1
102
RTVSPost2010PropOp29
 70
     1
102
RTVSPost2010Prop30
280
     1
102
RTVSPost2010PropOp30
 70
     1
102
RTVSPost2010Prop31
280
     0
102
RTVSPost2010PropOp31
 70
     1
102
RTVSPost2010Prop32
280
     0
102
RTVSPost2010PropOp32
 70
     1
102
RTVSPost2010Prop33
280
     0
102
RTVSPost2010PropOp33
 70
     1
102
RTVSPost2010Prop34
280
     0
102
RTVSPost2010PropOp34
 70
     1
102
RTVSPost2010Prop35
280
     0
102
RTVSPost2010PropOp35
 70
     1
102
RTVSPost2010Prop36
280
     0
102
RTVSPost2010PropOp36
 70
     1
102
RTVSPost2010Prop37
 90
       50
102
RTVSPost2010PropOp37
 70
     1
102
RTVSPost2010Prop38
140
0.0
102
RTVSPost2010PropOp38
 70
     1
102
RTVSPost2010Prop39
140
1.0
102
RTVSPost2010PropOp39
 70
     1
102
RTVSPost2010Prop40
 90
        0
102
RTVSPost2010PropOp40
 70
     1
102
RTVSPost2010Prop41ColorIndex
 90
       18
102
RTVSPost2010Prop41ColorRGB
 90
        0
102
RTVSPost2010PropOp41
 70
     1
102
RTVSPost2010Prop42
 90
       50
102
RTVSPost2010PropOp42
 70
     1
102
RTVSPost2010Prop43
 90
        3
102
RTVSPost2010PropOp43
 70
     1
102
RTVSPost2010Prop44ColorIndex
 90
        5
102
RTVSPost2010Prop44ColorRGB
 90
      255
102
RTVSPost2010PropOp44
 70
     1
102
RTVSPost2010Prop45
280
     0
102
RTVSPost2010PropOp45
 70
     1
102
RTVSPost2010Prop46
 90
       50
102
RTVSPost2010PropOp46
 70
     1
102
RTVSPost2010Prop47
 90
       50
102
RTVSPost2010PropOp47
 70
     1
102
RTVSPost2010Prop48
 90
       50
102
RTVSPost2010PropOp48
 70
     1
102
RTVSPost2010Prop49
280
     0
102
RTVSPost2010PropOp49
 70
     1
102
RTVSPost2010Prop50
 90
       50
102
RTVSPost2010PropOp50
 70
     1
102
RTVSPost2010Prop51ColorIndex
 90
      256
102
RTVSPost2010Prop51ColorRGB
 90
-16777216
102
RTVSPost2010PropOp51
 70
     0
102
RTVSPost2010Prop52
140
1.0
102
RTVSPost2010PropOp52
 70
     0
102
RTVSPost2010Prop53
 90
        2
102
RTVSPost2010PropOp53
 70
     1
102
RTVSPost2010Prop54
  1
strokes_ogs.tif
102
RTVSPost2010PropOp54
 70
     1
102
RTVSPost2010Prop55
280
     0
102
RTVSPost2010PropOp55
 70
     1
102
RTVSPost2010Prop56
140
1.0
102
RTVSPost2010PropOp56
 70
     1
102
RTVSPost2010Prop57
140
1.0
102
RTVSPost2010PropOp57
 70
     1
102
RTVSPropertyOp0
 70
     1
102
RTVSPropertyOp1
 70
     1
102
RTVSPropertyOp2
 70
     1
102
RTVSPropertyOp3
 70
     1
102
RTVSPropertyOp4
 70
     1
102
RTVSPropertyOp5
 70
     1
102
RTVSPropertyOp6
 70
     1
102
RTVSPropertyOp7
 70
     1
102
RTVSPropertyOp8
 70
     1
102
RTVSPropertyOp9
 70
     1
102
RTVSPropertyOp10
 70
     1
102
RTVSPropertyOp11
 70
     1
102
RTVSPropertyOp12
 70
     1
102
RTVSPropertyOp13
 70
     1
102
RTVSPropertyOp14
 70
     1
102
RTVSPropertyOp15
 70
     1
102
RTVSPropertyOp16
 70
     1
102
RTVSPropertyOp17
 70
     1
102
RTVSPropertyOp18
 70
     1
102
RTVSPropertyOp19
 70
     1
102
RTVSPropertyOp20
 70
     1
102
RTVSPropertyOp21
 70
     1
102
RTVSPropertyOp22
 70
     1
102
RTVSPropertyOp23
 70
     1
102
RTVSPropertyOp24
 70
     1
102
RTVSPropertyOp25
 70
     1
102
RTVSPropertyOp26
 70
     1
102
RTVSPropertyOp27
 70
     1
102
RTVSPropertyOp28
 70
     1
102
RTVSPropertyOp29
 70
     1
102
RTVSPropertyOp30
 70
     1
102
RTVSPropertyOp31
 70
     1
102
RTVSPropertyOp32
 70
     1
102
RTVSPropertyOp33
 70
     1
102
RTVSPropertyOp34
 70
     1
102
RTVSPropertyOp35
 70
     1
102
RTVSPropertyOp36
 70
     1
102
RTVSPropertyOp37
 70
     1
102
RTVSPropertyOp38
 70
     1
102
RTVSPropertyOp39
 70
     1
102
RTVSPropertyOp40
 70
     1
102
RTVSPropertyOp41
 70
     1
102
RTVSPropertyOp42
 70
     1
102
RTVSPropertyOp43
 70
     1
102
RTVSPropertyOp44
 70
     1
102
RTVSPropertyOp45
 70
     1
102
RTVSPropertyOp46
 70
     1
102
RTVSPropertyOp47
 70
     1
102
RTVSPropertyOp48
 70
     1
102
RTVSPropertyOp49
 70
     1
102
RTVSPropertyOp50
 70
     1
102
RTVSPropertyOp51
 70
     0
102
RTVSPropertyOp52
 70
     0
102
RTVSPropertyOp53
 70
     1
102
RTVSPropertyOp54
 70
     1
102
RTVSPropertyOp55
 70
     1
102
RTVSPropertyOp56
 70
     1
102
RTVSPropertyOp57
 70
     1
102
RTVSPropertyOp58
 70
     1
102
RTVSPropertyOp59
 70
     1
102
RTVSPropertyOp60
 70
     1
102
RTVSPropertyOp61
 70
     1
102
RTVSPropertyOp62
 70
     1
  0
XRECORD
  5
87C1
102
{ACAD_REACTORS
330
87C0
102
}
330
87C0
100
AcDbXrecord
280
     1
102
RTVSPost2010Prop28
280
     0
102
RTVSPost2010PropOp28
 70
     1
102
RTVSPost2010Prop29
280
     1
102
RTVSPost2010PropOp29
 70
     1
102
RTVSPost2010Prop30
280
     1
102
RTVSPost2010PropOp30
 70
     1
102
RTVSPost2010Prop31
280
     0
102
RTVSPost2010PropOp31
 70
     1
102
RTVSPost2010Prop32
280
     0
102
RTVSPost2010PropOp32
 70
     1
102
RTVSPost2010Prop33
280
     0
102
RTVSPost2010PropOp33
 70
     1
102
RTVSPost2010Prop34
280
     0
102
RTVSPost2010PropOp34
 70
     1
102
RTVSPost2010Prop35
280
     0
102
RTVSPost2010PropOp35
 70
     1
102
RTVSPost2010Prop36
280
     0
102
RTVSPost2010PropOp36
 70
     1
102
RTVSPost2010Prop37
 90
       50
102
RTVSPost2010PropOp37
 70
     0
102
RTVSPost2010Prop38
140
0.0
102
RTVSPost2010PropOp38
 70
     0
102
RTVSPost2010Prop39
140
1.0
102
RTVSPost2010PropOp39
 70
     0
102
RTVSPost2010Prop40
 90
        0
102
RTVSPost2010PropOp40
 70
     0
102
RTVSPost2010Prop41ColorIndex
 90
       18
102
RTVSPost2010Prop41ColorRGB
 90
        0
102
RTVSPost2010PropOp41
 70
     0
102
RTVSPost2010Prop42
 90
       50
102
RTVSPost2010PropOp42
 70
     0
102
RTVSPost2010Prop43
 90
        3
102
RTVSPost2010PropOp43
 70
     0
102
RTVSPost2010Prop44ColorIndex
 90
        5
102
RTVSPost2010Prop44ColorRGB
 90
      255
102
RTVSPost2010PropOp44
 70
     0
102
RTVSPost2010Prop45
280
     0
102
RTVSPost2010PropOp45
 70
     1
102
RTVSPost2010Prop46
 90
       50
102
RTVSPost2010PropOp46
 70
     0
102
RTVSPost2010Prop47
 90
       50
102
RTVSPost2010PropOp47
 70
     0
102
RTVSPost2010Prop48
 90
       50
102
RTVSPost2010PropOp48
 70
     0
102
RTVSPost2010Prop49
280
     0
102
RTVSPost2010PropOp49
 70
     1
102
RTVSPost2010Prop50
 90
       50
102
RTVSPost2010PropOp50
 70
     0
102
RTVSPost2010Prop51ColorIndex
 90
      256
102
RTVSPost2010Prop51ColorRGB
 90
-16777216
102
RTVSPost2010PropOp51
 70
     0
102
RTVSPost2010Prop52
140
1.0
102
RTVSPost2010PropOp52
 70
     0
102
RTVSPost2010Prop53
 90
        2
102
RTVSPost2010PropOp53
 70
     0
102
RTVSPost2010Prop54
  1
strokes_ogs.tif
102
RTVSPost2010PropOp54
 70
     0
102
RTVSPost2010Prop55
280
     0
102
RTVSPost2010PropOp55
 70
     1
102
RTVSPost2010Prop56
140
1.0
102
RTVSPost2010PropOp56
 70
     0
102
RTVSPost2010Prop57
140
1.0
102
RTVSPost2010PropOp57
 70
     0
102
RTVSPropertyOp0
 70
     0
102
RTVSPropertyOp1
 70
     0
102
RTVSPropertyOp2
 70
     0
102
RTVSPropertyOp3
 70
     0
102
RTVSPropertyOp4
 70
     0
102
RTVSPropertyOp5
 70
     0
102
RTVSPropertyOp6
 70
     0
102
RTVSPropertyOp7
 70
     0
102
RTVSPropertyOp8
 70
     0
102
RTVSPropertyOp9
 70
     0
102
RTVSPropertyOp10
 70
     0
102
RTVSPropertyOp11
 70
     0
102
RTVSPropertyOp12
 70
     0
102
RTVSPropertyOp13
 70
     0
102
RTVSPropertyOp14
 70
     2
102
RTVSPropertyOp15
 70
     0
102
RTVSPropertyOp16
 70
     0
102
RTVSPropertyOp17
 70
     0
102
RTVSPropertyOp18
 70
     0
102
RTVSPropertyOp19
 70
     0
102
RTVSPropertyOp20
 70
     0
102
RTVSPropertyOp21
 70
     0
102
RTVSPropertyOp22
 70
     0
102
RTVSPropertyOp23
 70
     0
102
RTVSPropertyOp24
 70
     0
102
RTVSPropertyOp25
 70
     0
102
RTVSPropertyOp26
 70
     0
102
RTVSPropertyOp27
 70
     0
102
RTVSPropertyOp28
 70
     1
102
RTVSPropertyOp29
 70
     1
102
RTVSPropertyOp30
 70
     1
102
RTVSPropertyOp31
 70
     1
102
RTVSPropertyOp32
 70
     1
102
RTVSPropertyOp33
 70
     1
102
RTVSPropertyOp34
 70
     1
102
RTVSPropertyOp35
 70
     1
102
RTVSPropertyOp36
 70
     1
102
RTVSPropertyOp37
 70
     0
102
RTVSPropertyOp38
 70
     0
102
RTVSPropertyOp39
 70
     0
102
RTVSPropertyOp40
 70
     0
102
RTVSPropertyOp41
 70
     0
102
RTVSPropertyOp42
 70
     0
102
RTVSPropertyOp43
 70
     0
102
RTVSPropertyOp44
 70
     0
102
RTVSPropertyOp45
 70
     1
102
RTVSPropertyOp46
 70
     0
102
RTVSPropertyOp47
 70
     0
102
RTVSPropertyOp48
 70
     0
102
RTVSPropertyOp49
 70
     1
102
RTVSPropertyOp50
 70
     0
102
RTVSPropertyOp51
 70
     0
102
RTVSPropertyOp52
 70
     0
102
RTVSPropertyOp53
 70
     0
102
RTVSPropertyOp54
 70
     0
102
RTVSPropertyOp55
 70
     1
102
RTVSPropertyOp56
 70
     0
102
RTVSPropertyOp57
 70
     0
102
RTVSPropertyOp58
 70
     0
102
RTVSPropertyOp59
 70
     0
102
RTVSPropertyOp60
 70
     0
102
RTVSPropertyOp61
 70
     0
102
RTVSPropertyOp62
 70
     0
  0
XRECORD
  5
87A7
102
{ACAD_REACTORS
330
87A6
102
}
330
87A6
100
AcDbXrecord
280
     1
102
RTVSPost2010Prop28
280
     0
102
RTVSPost2010PropOp28
 70
     1
102
RTVSPost2010Prop29
280
     1
102
RTVSPost2010PropOp29
 70
     1
102
RTVSPost2010Prop30
280
     1
102
RTVSPost2010PropOp30
 70
     1
102
RTVSPost2010Prop31
280
     0
102
RTVSPost2010PropOp31
 70
     1
102
RTVSPost2010Prop32
280
     0
102
RTVSPost2010PropOp32
 70
     1
102
RTVSPost2010Prop33
280
     0
102
RTVSPost2010PropOp33
 70
     1
102
RTVSPost2010Prop34
280
     0
102
RTVSPost2010PropOp34
 70
     1
102
RTVSPost2010Prop35
280
     0
102
RTVSPost2010PropOp35
 70
     1
102
RTVSPost2010Prop36
280
     0
102
RTVSPost2010PropOp36
 70
     1
102
RTVSPost2010Prop37
 90
       50
102
RTVSPost2010PropOp37
 70
     1
102
RTVSPost2010Prop38
140
0.0
102
RTVSPost2010PropOp38
 70
     1
102
RTVSPost2010Prop39
140
1.0
102
RTVSPost2010PropOp39
 70
     1
102
RTVSPost2010Prop40
 90
        0
102
RTVSPost2010PropOp40
 70
     1
102
RTVSPost2010Prop41ColorIndex
 90
       18
102
RTVSPost2010Prop41ColorRGB
 90
        0
102
RTVSPost2010PropOp41
 70
     1
102
RTVSPost2010Prop42
 90
       50
102
RTVSPost2010PropOp42
 70
     1
102
RTVSPost2010Prop43
 90
        3
102
RTVSPost2010PropOp43
 70
     1
102
RTVSPost2010Prop44ColorIndex
 90
        5
102
RTVSPost2010Prop44ColorRGB
 90
      255
102
RTVSPost2010PropOp44
 70
     1
102
RTVSPost2010Prop45
280
     0
102
RTVSPost2010PropOp45
 70
     1
102
RTVSPost2010Prop46
 90
       50
102
RTVSPost2010PropOp46
 70
     1
102
RTVSPost2010Prop47
 90
       50
102
RTVSPost2010PropOp47
 70
     1
102
RTVSPost2010Prop48
 90
       50
102
RTVSPost2010PropOp48
 70
     1
102
RTVSPost2010Prop49
280
     0
102
RTVSPost2010PropOp49
 70
     1
102
RTVSPost2010Prop50
 90
       50
102
RTVSPost2010PropOp50
 70
     1
102
RTVSPost2010Prop51ColorIndex
 90
      256
102
RTVSPost2010Prop51ColorRGB
 90
-16777216
102
RTVSPost2010PropOp51
 70
     0
102
RTVSPost2010Prop52
140
1.0
102
RTVSPost2010PropOp52
 70
     0
102
RTVSPost2010Prop53
 90
        2
102
RTVSPost2010PropOp53
 70
     1
102
RTVSPost2010Prop54
  1
strokes_ogs.tif
102
RTVSPost2010PropOp54
 70
     1
102
RTVSPost2010Prop55
280
     0
102
RTVSPost2010PropOp55
 70
     1
102
RTVSPost2010Prop56
140
1.0
102
RTVSPost2010PropOp56
 70
     1
102
RTVSPost2010Prop57
140
1.0
102
RTVSPost2010PropOp57
 70
     1
102
RTVSPropertyOp0
 70
     1
102
RTVSPropertyOp1
 70
     1
102
RTVSPropertyOp2
 70
     1
102
RTVSPropertyOp3
 70
     1
102
RTVSPropertyOp4
 70
     1
102
RTVSPropertyOp5
 70
     1
102
RTVSPropertyOp6
 70
     1
102
RTVSPropertyOp7
 70
     1
102
RTVSPropertyOp8
 70
     1
102
RTVSPropertyOp9
 70
     1
102
RTVSPropertyOp10
 70
     1
102
RTVSPropertyOp11
 70
     1
102
RTVSPropertyOp12
 70
     1
102
RTVSPropertyOp13
 70
     1
102
RTVSPropertyOp14
 70
     1
102
RTVSPropertyOp15
 70
     1
102
RTVSPropertyOp16
 70
     1
102
RTVSPropertyOp17
 70
     1
102
RTVSPropertyOp18
 70
     1
102
RTVSPropertyOp19
 70
     1
102
RTVSPropertyOp20
 70
     1
102
RTVSPropertyOp21
 70
     1
102
RTVSPropertyOp22
 70
     1
102
RTVSPropertyOp23
 70
     1
102
RTVSPropertyOp24
 70
     1
102
RTVSPropertyOp25
 70
     1
102
RTVSPropertyOp26
 70
     1
102
RTVSPropertyOp27
 70
     1
102
RTVSPropertyOp28
 70
     1
102
RTVSPropertyOp29
 70
     1
102
RTVSPropertyOp30
 70
     1
102
RTVSPropertyOp31
 70
     1
102
RTVSPropertyOp32
 70
     1
102
RTVSPropertyOp33
 70
     1
102
RTVSPropertyOp34
 70
     1
102
RTVSPropertyOp35
 70
     1
102
RTVSPropertyOp36
 70
     1
102
RTVSPropertyOp37
 70
     1
102
RTVSPropertyOp38
 70
     1
102
RTVSPropertyOp39
 70
     1
102
RTVSPropertyOp40
 70
     1
102
RTVSPropertyOp41
 70
     1
102
RTVSPropertyOp42
 70
     1
102
RTVSPropertyOp43
 70
     1
102
RTVSPropertyOp44
 70
     1
102
RTVSPropertyOp45
 70
     1
102
RTVSPropertyOp46
 70
     1
102
RTVSPropertyOp47
 70
     1
102
RTVSPropertyOp48
 70
     1
102
RTVSPropertyOp49
 70
     1
102
RTVSPropertyOp50
 70
     1
102
RTVSPropertyOp51
 70
     0
102
RTVSPropertyOp52
 70
     0
102
RTVSPropertyOp53
 70
     1
102
RTVSPropertyOp54
 70
     1
102
RTVSPropertyOp55
 70
     1
102
RTVSPropertyOp56
 70
     1
102
RTVSPropertyOp57
 70
     1
102
RTVSPropertyOp58
 70
     1
102
RTVSPropertyOp59
 70
     1
102
RTVSPropertyOp60
 70
     1
102
RTVSPropertyOp61
 70
     1
102
RTVSPropertyOp62
 70
     1
  0
XRECORD
  5
87BD
102
{ACAD_REACTORS
330
87BC
102
}
330
87BC
100
AcDbXrecord
280
     1
102
RTVSPost2010Prop28
280
     0
102
RTVSPost2010PropOp28
 70
     1
102
RTVSPost2010Prop29
280
     1
102
RTVSPost2010PropOp29
 70
     1
102
RTVSPost2010Prop30
280
     1
102
RTVSPost2010PropOp30
 70
     1
102
RTVSPost2010Prop31
280
     0
102
RTVSPost2010PropOp31
 70
     1
102
RTVSPost2010Prop32
280
     0
102
RTVSPost2010PropOp32
 70
     1
102
RTVSPost2010Prop33
280
     0
102
RTVSPost2010PropOp33
 70
     1
102
RTVSPost2010Prop34
280
     0
102
RTVSPost2010PropOp34
 70
     1
102
RTVSPost2010Prop35
280
     0
102
RTVSPost2010PropOp35
 70
     1
102
RTVSPost2010Prop36
280
     0
102
RTVSPost2010PropOp36
 70
     1
102
RTVSPost2010Prop37
 90
       50
102
RTVSPost2010PropOp37
 70
     1
102
RTVSPost2010Prop38
140
0.0
102
RTVSPost2010PropOp38
 70
     1
102
RTVSPost2010Prop39
140
1.0
102
RTVSPost2010PropOp39
 70
     1
102
RTVSPost2010Prop40
 90
        0
102
RTVSPost2010PropOp40
 70
     1
102
RTVSPost2010Prop41ColorIndex
 90
       18
102
RTVSPost2010Prop41ColorRGB
 90
        0
102
RTVSPost2010PropOp41
 70
     1
102
RTVSPost2010Prop42
 90
       50
102
RTVSPost2010PropOp42
 70
     1
102
RTVSPost2010Prop43
 90
        3
102
RTVSPost2010PropOp43
 70
     1
102
RTVSPost2010Prop44ColorIndex
 90
        5
102
RTVSPost2010Prop44ColorRGB
 90
      255
102
RTVSPost2010PropOp44
 70
     1
102
RTVSPost2010Prop45
280
     0
102
RTVSPost2010PropOp45
 70
     1
102
RTVSPost2010Prop46
 90
       50
102
RTVSPost2010PropOp46
 70
     1
102
RTVSPost2010Prop47
 90
       50
102
RTVSPost2010PropOp47
 70
     1
102
RTVSPost2010Prop48
 90
       50
102
RTVSPost2010PropOp48
 70
     1
102
RTVSPost2010Prop49
280
     0
102
RTVSPost2010PropOp49
 70
     1
102
RTVSPost2010Prop50
 90
       50
102
RTVSPost2010PropOp50
 70
     1
102
RTVSPost2010Prop51ColorIndex
 90
      256
102
RTVSPost2010Prop51ColorRGB
 90
-16777216
102
RTVSPost2010PropOp51
 70
     0
102
RTVSPost2010Prop52
140
1.0
102
RTVSPost2010PropOp52
 70
     0
102
RTVSPost2010Prop53
 90
        2
102
RTVSPost2010PropOp53
 70
     1
102
RTVSPost2010Prop54
  1
strokes_ogs.tif
102
RTVSPost2010PropOp54
 70
     1
102
RTVSPost2010Prop55
280
     0
102
RTVSPost2010PropOp55
 70
     1
102
RTVSPost2010Prop56
140
1.0
102
RTVSPost2010PropOp56
 70
     1
102
RTVSPost2010Prop57
140
1.0
102
RTVSPost2010PropOp57
 70
     1
102
RTVSPropertyOp0
 70
     1
102
RTVSPropertyOp1
 70
     1
102
RTVSPropertyOp2
 70
     1
102
RTVSPropertyOp3
 70
     1
102
RTVSPropertyOp4
 70
     1
102
RTVSPropertyOp5
 70
     1
102
RTVSPropertyOp6
 70
     1
102
RTVSPropertyOp7
 70
     1
102
RTVSPropertyOp8
 70
     1
102
RTVSPropertyOp9
 70
     1
102
RTVSPropertyOp10
 70
     1
102
RTVSPropertyOp11
 70
     1
102
RTVSPropertyOp12
 70
     1
102
RTVSPropertyOp13
 70
     1
102
RTVSPropertyOp14
 70
     1
102
RTVSPropertyOp15
 70
     1
102
RTVSPropertyOp16
 70
     1
102
RTVSPropertyOp17
 70
     1
102
RTVSPropertyOp18
 70
     1
102
RTVSPropertyOp19
 70
     1
102
RTVSPropertyOp20
 70
     1
102
RTVSPropertyOp21
 70
     1
102
RTVSPropertyOp22
 70
     1
102
RTVSPropertyOp23
 70
     1
102
RTVSPropertyOp24
 70
     1
102
RTVSPropertyOp25
 70
     1
102
RTVSPropertyOp26
 70
     1
102
RTVSPropertyOp27
 70
     1
102
RTVSPropertyOp28
 70
     1
102
RTVSPropertyOp29
 70
     1
102
RTVSPropertyOp30
 70
     1
102
RTVSPropertyOp31
 70
     1
102
RTVSPropertyOp32
 70
     1
102
RTVSPropertyOp33
 70
     1
102
RTVSPropertyOp34
 70
     1
102
RTVSPropertyOp35
 70
     1
102
RTVSPropertyOp36
 70
     1
102
RTVSPropertyOp37
 70
     1
102
RTVSPropertyOp38
 70
     1
102
RTVSPropertyOp39
 70
     1
102
RTVSPropertyOp40
 70
     1
102
RTVSPropertyOp41
 70
     1
102
RTVSPropertyOp42
 70
     1
102
RTVSPropertyOp43
 70
     1
102
RTVSPropertyOp44
 70
     1
102
RTVSPropertyOp45
 70
     1
102
RTVSPropertyOp46
 70
     1
102
RTVSPropertyOp47
 70
     1
102
RTVSPropertyOp48
 70
     1
102
RTVSPropertyOp49
 70
     1
102
RTVSPropertyOp50
 70
     1
102
RTVSPropertyOp51
 70
     0
102
RTVSPropertyOp52
 70
     0
102
RTVSPropertyOp53
 70
     1
102
RTVSPropertyOp54
 70
     1
102
RTVSPropertyOp55
 70
     1
102
RTVSPropertyOp56
 70
     1
102
RTVSPropertyOp57
 70
     1
102
RTVSPropertyOp58
 70
     1
102
RTVSPropertyOp59
 70
     1
102
RTVSPropertyOp60
 70
     1
102
RTVSPropertyOp61
 70
     1
102
RTVSPropertyOp62
 70
     1
  0
XRECORD
  5
87BB
102
{ACAD_REACTORS
330
87BA
102
}
330
87BA
100
AcDbXrecord
280
     1
102
RTVSPost2010Prop28
280
     0
102
RTVSPost2010PropOp28
 70
     1
102
RTVSPost2010Prop29
280
     1
102
RTVSPost2010PropOp29
 70
     1
102
RTVSPost2010Prop30
280
     1
102
RTVSPost2010PropOp30
 70
     1
102
RTVSPost2010Prop31
280
     0
102
RTVSPost2010PropOp31
 70
     1
102
RTVSPost2010Prop32
280
     0
102
RTVSPost2010PropOp32
 70
     1
102
RTVSPost2010Prop33
280
     0
102
RTVSPost2010PropOp33
 70
     1
102
RTVSPost2010Prop34
280
     0
102
RTVSPost2010PropOp34
 70
     1
102
RTVSPost2010Prop35
280
     0
102
RTVSPost2010PropOp35
 70
     1
102
RTVSPost2010Prop36
280
     0
102
RTVSPost2010PropOp36
 70
     1
102
RTVSPost2010Prop37
 90
       50
102
RTVSPost2010PropOp37
 70
     1
102
RTVSPost2010Prop38
140
0.0
102
RTVSPost2010PropOp38
 70
     1
102
RTVSPost2010Prop39
140
1.0
102
RTVSPost2010PropOp39
 70
     1
102
RTVSPost2010Prop40
 90
        0
102
RTVSPost2010PropOp40
 70
     1
102
RTVSPost2010Prop41ColorIndex
 90
       18
102
RTVSPost2010Prop41ColorRGB
 90
        0
102
RTVSPost2010PropOp41
 70
     1
102
RTVSPost2010Prop42
 90
       50
102
RTVSPost2010PropOp42
 70
     1
102
RTVSPost2010Prop43
 90
        3
102
RTVSPost2010PropOp43
 70
     1
102
RTVSPost2010Prop44ColorIndex
 90
        5
102
RTVSPost2010Prop44ColorRGB
 90
      255
102
RTVSPost2010PropOp44
 70
     1
102
RTVSPost2010Prop45
280
     0
102
RTVSPost2010PropOp45
 70
     1
102
RTVSPost2010Prop46
 90
       50
102
RTVSPost2010PropOp46
 70
     1
102
RTVSPost2010Prop47
 90
       50
102
RTVSPost2010PropOp47
 70
     1
102
RTVSPost2010Prop48
 90
       50
102
RTVSPost2010PropOp48
 70
     1
102
RTVSPost2010Prop49
280
     0
102
RTVSPost2010PropOp49
 70
     1
102
RTVSPost2010Prop50
 90
       50
102
RTVSPost2010PropOp50
 70
     1
102
RTVSPost2010Prop51ColorIndex
 90
      256
102
RTVSPost2010Prop51ColorRGB
 90
-16777216
102
RTVSPost2010PropOp51
 70
     0
102
RTVSPost2010Prop52
140
1.0
102
RTVSPost2010PropOp52
 70
     0
102
RTVSPost2010Prop53
 90
        2
102
RTVSPost2010PropOp53
 70
     1
102
RTVSPost2010Prop54
  1
strokes_ogs.tif
102
RTVSPost2010PropOp54
 70
     1
102
RTVSPost2010Prop55
280
     0
102
RTVSPost2010PropOp55
 70
     1
102
RTVSPost2010Prop56
140
1.0
102
RTVSPost2010PropOp56
 70
     1
102
RTVSPost2010Prop57
140
1.0
102
RTVSPost2010PropOp57
 70
     1
102
RTVSPropertyOp0
 70
     1
102
RTVSPropertyOp1
 70
     1
102
RTVSPropertyOp2
 70
     1
102
RTVSPropertyOp3
 70
     1
102
RTVSPropertyOp4
 70
     1
102
RTVSPropertyOp5
 70
     1
102
RTVSPropertyOp6
 70
     1
102
RTVSPropertyOp7
 70
     1
102
RTVSPropertyOp8
 70
     1
102
RTVSPropertyOp9
 70
     1
102
RTVSPropertyOp10
 70
     1
102
RTVSPropertyOp11
 70
     1
102
RTVSPropertyOp12
 70
     1
102
RTVSPropertyOp13
 70
     1
102
RTVSPropertyOp14
 70
     1
102
RTVSPropertyOp15
 70
     1
102
RTVSPropertyOp16
 70
     1
102
RTVSPropertyOp17
 70
     1
102
RTVSPropertyOp18
 70
     1
102
RTVSPropertyOp19
 70
     1
102
RTVSPropertyOp20
 70
     1
102
RTVSPropertyOp21
 70
     1
102
RTVSPropertyOp22
 70
     1
102
RTVSPropertyOp23
 70
     1
102
RTVSPropertyOp24
 70
     1
102
RTVSPropertyOp25
 70
     1
102
RTVSPropertyOp26
 70
     1
102
RTVSPropertyOp27
 70
     1
102
RTVSPropertyOp28
 70
     1
102
RTVSPropertyOp29
 70
     1
102
RTVSPropertyOp30
 70
     1
102
RTVSPropertyOp31
 70
     1
102
RTVSPropertyOp32
 70
     1
102
RTVSPropertyOp33
 70
     1
102
RTVSPropertyOp34
 70
     1
102
RTVSPropertyOp35
 70
     1
102
RTVSPropertyOp36
 70
     1
102
RTVSPropertyOp37
 70
     1
102
RTVSPropertyOp38
 70
     1
102
RTVSPropertyOp39
 70
     1
102
RTVSPropertyOp40
 70
     1
102
RTVSPropertyOp41
 70
     1
102
RTVSPropertyOp42
 70
     1
102
RTVSPropertyOp43
 70
     1
102
RTVSPropertyOp44
 70
     1
102
RTVSPropertyOp45
 70
     1
102
RTVSPropertyOp46
 70
     1
102
RTVSPropertyOp47
 70
     1
102
RTVSPropertyOp48
 70
     1
102
RTVSPropertyOp49
 70
     1
102
RTVSPropertyOp50
 70
     1
102
RTVSPropertyOp51
 70
     0
102
RTVSPropertyOp52
 70
     0
102
RTVSPropertyOp53
 70
     1
102
RTVSPropertyOp54
 70
     1
102
RTVSPropertyOp55
 70
     1
102
RTVSPropertyOp56
 70
     1
102
RTVSPropertyOp57
 70
     1
102
RTVSPropertyOp58
 70
     1
102
RTVSPropertyOp59
 70
     1
102
RTVSPropertyOp60
 70
     1
102
RTVSPropertyOp61
 70
     1
102
RTVSPropertyOp62
 70
     1
  0
XRECORD
  5
87B5
102
{ACAD_REACTORS
330
87B4
102
}
330
87B4
100
AcDbXrecord
280
     1
102
RTVSPost2010Prop28
280
     0
102
RTVSPost2010PropOp28
 70
     1
102
RTVSPost2010Prop29
280
     1
102
RTVSPost2010PropOp29
 70
     1
102
RTVSPost2010Prop30
280
     1
102
RTVSPost2010PropOp30
 70
     1
102
RTVSPost2010Prop31
280
     0
102
RTVSPost2010PropOp31
 70
     1
102
RTVSPost2010Prop32
280
     0
102
RTVSPost2010PropOp32
 70
     1
102
RTVSPost2010Prop33
280
     0
102
RTVSPost2010PropOp33
 70
     1
102
RTVSPost2010Prop34
280
     0
102
RTVSPost2010PropOp34
 70
     1
102
RTVSPost2010Prop35
280
     0
102
RTVSPost2010PropOp35
 70
     1
102
RTVSPost2010Prop36
280
     0
102
RTVSPost2010PropOp36
 70
     1
102
RTVSPost2010Prop37
 90
       50
102
RTVSPost2010PropOp37
 70
     1
102
RTVSPost2010Prop38
140
0.0
102
RTVSPost2010PropOp38
 70
     1
102
RTVSPost2010Prop39
140
1.0
102
RTVSPost2010PropOp39
 70
     1
102
RTVSPost2010Prop40
 90
        0
102
RTVSPost2010PropOp40
 70
     1
102
RTVSPost2010Prop41ColorIndex
 90
       18
102
RTVSPost2010Prop41ColorRGB
 90
        0
102
RTVSPost2010PropOp41
 70
     1
102
RTVSPost2010Prop42
 90
       50
102
RTVSPost2010PropOp42
 70
     1
102
RTVSPost2010Prop43
 90
        3
102
RTVSPost2010PropOp43
 70
     1
102
RTVSPost2010Prop44ColorIndex
 90
        5
102
RTVSPost2010Prop44ColorRGB
 90
      255
102
RTVSPost2010PropOp44
 70
     1
102
RTVSPost2010Prop45
280
     0
102
RTVSPost2010PropOp45
 70
     1
102
RTVSPost2010Prop46
 90
       50
102
RTVSPost2010PropOp46
 70
     1
102
RTVSPost2010Prop47
 90
       50
102
RTVSPost2010PropOp47
 70
     1
102
RTVSPost2010Prop48
 90
       50
102
RTVSPost2010PropOp48
 70
     1
102
RTVSPost2010Prop49
280
     0
102
RTVSPost2010PropOp49
 70
     1
102
RTVSPost2010Prop50
 90
       50
102
RTVSPost2010PropOp50
 70
     1
102
RTVSPost2010Prop51ColorIndex
 90
      256
102
RTVSPost2010Prop51ColorRGB
 90
-16777216
102
RTVSPost2010PropOp51
 70
     0
102
RTVSPost2010Prop52
140
1.0
102
RTVSPost2010PropOp52
 70
     0
102
RTVSPost2010Prop53
 90
        2
102
RTVSPost2010PropOp53
 70
     1
102
RTVSPost2010Prop54
  1
strokes_ogs.tif
102
RTVSPost2010PropOp54
 70
     1
102
RTVSPost2010Prop55
280
     0
102
RTVSPost2010PropOp55
 70
     1
102
RTVSPost2010Prop56
140
1.0
102
RTVSPost2010PropOp56
 70
     1
102
RTVSPost2010Prop57
140
1.0
102
RTVSPost2010PropOp57
 70
     1
102
RTVSPropertyOp0
 70
     1
102
RTVSPropertyOp1
 70
     1
102
RTVSPropertyOp2
 70
     1
102
RTVSPropertyOp3
 70
     1
102
RTVSPropertyOp4
 70
     1
102
RTVSPropertyOp5
 70
     1
102
RTVSPropertyOp6
 70
     1
102
RTVSPropertyOp7
 70
     1
102
RTVSPropertyOp8
 70
     1
102
RTVSPropertyOp9
 70
     1
102
RTVSPropertyOp10
 70
     1
102
RTVSPropertyOp11
 70
     1
102
RTVSPropertyOp12
 70
     1
102
RTVSPropertyOp13
 70
     1
102
RTVSPropertyOp14
 70
     1
102
RTVSPropertyOp15
 70
     1
102
RTVSPropertyOp16
 70
     1
102
RTVSPropertyOp17
 70
     1
102
RTVSPropertyOp18
 70
     1
102
RTVSPropertyOp19
 70
     1
102
RTVSPropertyOp20
 70
     1
102
RTVSPropertyOp21
 70
     1
102
RTVSPropertyOp22
 70
     1
102
RTVSPropertyOp23
 70
     1
102
RTVSPropertyOp24
 70
     1
102
RTVSPropertyOp25
 70
     1
102
RTVSPropertyOp26
 70
     1
102
RTVSPropertyOp27
 70
     1
102
RTVSPropertyOp28
 70
     1
102
RTVSPropertyOp29
 70
     1
102
RTVSPropertyOp30
 70
     1
102
RTVSPropertyOp31
 70
     1
102
RTVSPropertyOp32
 70
     1
102
RTVSPropertyOp33
 70
     1
102
RTVSPropertyOp34
 70
     1
102
RTVSPropertyOp35
 70
     1
102
RTVSPropertyOp36
 70
     1
102
RTVSPropertyOp37
 70
     1
102
RTVSPropertyOp38
 70
     1
102
RTVSPropertyOp39
 70
     1
102
RTVSPropertyOp40
 70
     1
102
RTVSPropertyOp41
 70
     1
102
RTVSPropertyOp42
 70
     1
102
RTVSPropertyOp43
 70
     1
102
RTVSPropertyOp44
 70
     1
102
RTVSPropertyOp45
 70
     1
102
RTVSPropertyOp46
 70
     1
102
RTVSPropertyOp47
 70
     1
102
RTVSPropertyOp48
 70
     1
102
RTVSPropertyOp49
 70
     1
102
RTVSPropertyOp50
 70
     1
102
RTVSPropertyOp51
 70
     0
102
RTVSPropertyOp52
 70
     0
102
RTVSPropertyOp53
 70
     1
102
RTVSPropertyOp54
 70
     1
102
RTVSPropertyOp55
 70
     1
102
RTVSPropertyOp56
 70
     1
102
RTVSPropertyOp57
 70
     1
102
RTVSPropertyOp58
 70
     1
102
RTVSPropertyOp59
 70
     1
102
RTVSPropertyOp60
 70
     1
102
RTVSPropertyOp61
 70
     1
102
RTVSPropertyOp62
 70
     1
  0
XRECORD
  5
87B7
102
{ACAD_REACTORS
330
87B6
102
}
330
87B6
100
AcDbXrecord
280
     1
102
RTVSPost2010Prop28
280
     0
102
RTVSPost2010PropOp28
 70
     1
102
RTVSPost2010Prop29
280
     1
102
RTVSPost2010PropOp29
 70
     1
102
RTVSPost2010Prop30
280
     1
102
RTVSPost2010PropOp30
 70
     1
102
RTVSPost2010Prop31
280
     0
102
RTVSPost2010PropOp31
 70
     1
102
RTVSPost2010Prop32
280
     0
102
RTVSPost2010PropOp32
 70
     1
102
RTVSPost2010Prop33
280
     0
102
RTVSPost2010PropOp33
 70
     1
102
RTVSPost2010Prop34
280
     0
102
RTVSPost2010PropOp34
 70
     1
102
RTVSPost2010Prop35
280
     0
102
RTVSPost2010PropOp35
 70
     1
102
RTVSPost2010Prop36
280
     0
102
RTVSPost2010PropOp36
 70
     1
102
RTVSPost2010Prop37
 90
       50
102
RTVSPost2010PropOp37
 70
     1
102
RTVSPost2010Prop38
140
0.0
102
RTVSPost2010PropOp38
 70
     1
102
RTVSPost2010Prop39
140
1.0
102
RTVSPost2010PropOp39
 70
     1
102
RTVSPost2010Prop40
 90
        0
102
RTVSPost2010PropOp40
 70
     1
102
RTVSPost2010Prop41ColorIndex
 90
       18
102
RTVSPost2010Prop41ColorRGB
 90
        0
102
RTVSPost2010PropOp41
 70
     1
102
RTVSPost2010Prop42
 90
       50
102
RTVSPost2010PropOp42
 70
     1
102
RTVSPost2010Prop43
 90
        3
102
RTVSPost2010PropOp43
 70
     1
102
RTVSPost2010Prop44ColorIndex
 90
        5
102
RTVSPost2010Prop44ColorRGB
 90
      255
102
RTVSPost2010PropOp44
 70
     1
102
RTVSPost2010Prop45
280
     0
102
RTVSPost2010PropOp45
 70
     1
102
RTVSPost2010Prop46
 90
       50
102
RTVSPost2010PropOp46
 70
     1
102
RTVSPost2010Prop47
 90
       50
102
RTVSPost2010PropOp47
 70
     1
102
RTVSPost2010Prop48
 90
       50
102
RTVSPost2010PropOp48
 70
     1
102
RTVSPost2010Prop49
280
     0
102
RTVSPost2010PropOp49
 70
     1
102
RTVSPost2010Prop50
 90
       50
102
RTVSPost2010PropOp50
 70
     1
102
RTVSPost2010Prop51ColorIndex
 90
      256
102
RTVSPost2010Prop51ColorRGB
 90
-16777216
102
RTVSPost2010PropOp51
 70
     0
102
RTVSPost2010Prop52
140
1.0
102
RTVSPost2010PropOp52
 70
     0
102
RTVSPost2010Prop53
 90
        2
102
RTVSPost2010PropOp53
 70
     1
102
RTVSPost2010Prop54
  1
strokes_ogs.tif
102
RTVSPost2010PropOp54
 70
     1
102
RTVSPost2010Prop55
280
     0
102
RTVSPost2010PropOp55
 70
     1
102
RTVSPost2010Prop56
140
1.0
102
RTVSPost2010PropOp56
 70
     1
102
RTVSPost2010Prop57
140
1.0
102
RTVSPost2010PropOp57
 70
     1
102
RTVSPropertyOp0
 70
     1
102
RTVSPropertyOp1
 70
     1
102
RTVSPropertyOp2
 70
     1
102
RTVSPropertyOp3
 70
     1
102
RTVSPropertyOp4
 70
     1
102
RTVSPropertyOp5
 70
     1
102
RTVSPropertyOp6
 70
     1
102
RTVSPropertyOp7
 70
     1
102
RTVSPropertyOp8
 70
     1
102
RTVSPropertyOp9
 70
     1
102
RTVSPropertyOp10
 70
     1
102
RTVSPropertyOp11
 70
     1
102
RTVSPropertyOp12
 70
     1
102
RTVSPropertyOp13
 70
     1
102
RTVSPropertyOp14
 70
     1
102
RTVSPropertyOp15
 70
     1
102
RTVSPropertyOp16
 70
     1
102
RTVSPropertyOp17
 70
     1
102
RTVSPropertyOp18
 70
     1
102
RTVSPropertyOp19
 70
     1
102
RTVSPropertyOp20
 70
     1
102
RTVSPropertyOp21
 70
     1
102
RTVSPropertyOp22
 70
     1
102
RTVSPropertyOp23
 70
     1
102
RTVSPropertyOp24
 70
     1
102
RTVSPropertyOp25
 70
     1
102
RTVSPropertyOp26
 70
     1
102
RTVSPropertyOp27
 70
     1
102
RTVSPropertyOp28
 70
     1
102
RTVSPropertyOp29
 70
     1
102
RTVSPropertyOp30
 70
     1
102
RTVSPropertyOp31
 70
     1
102
RTVSPropertyOp32
 70
     1
102
RTVSPropertyOp33
 70
     1
102
RTVSPropertyOp34
 70
     1
102
RTVSPropertyOp35
 70
     1
102
RTVSPropertyOp36
 70
     1
102
RTVSPropertyOp37
 70
     1
102
RTVSPropertyOp38
 70
     1
102
RTVSPropertyOp39
 70
     1
102
RTVSPropertyOp40
 70
     1
102
RTVSPropertyOp41
 70
     1
102
RTVSPropertyOp42
 70
     1
102
RTVSPropertyOp43
 70
     1
102
RTVSPropertyOp44
 70
     1
102
RTVSPropertyOp45
 70
     1
102
RTVSPropertyOp46
 70
     1
102
RTVSPropertyOp47
 70
     1
102
RTVSPropertyOp48
 70
     1
102
RTVSPropertyOp49
 70
     1
102
RTVSPropertyOp50
 70
     1
102
RTVSPropertyOp51
 70
     0
102
RTVSPropertyOp52
 70
     0
102
RTVSPropertyOp53
 70
     1
102
RTVSPropertyOp54
 70
     1
102
RTVSPropertyOp55
 70
     1
102
RTVSPropertyOp56
 70
     1
102
RTVSPropertyOp57
 70
     1
102
RTVSPropertyOp58
 70
     1
102
RTVSPropertyOp59
 70
     1
102
RTVSPropertyOp60
 70
     1
102
RTVSPropertyOp61
 70
     1
102
RTVSPropertyOp62
 70
     1
  0
XRECORD
  5
87AD
102
{ACAD_REACTORS
330
87AC
102
}
330
87AC
100
AcDbXrecord
280
     1
102
RTVSPost2010Prop28
280
     0
102
RTVSPost2010PropOp28
 70
     1
102
RTVSPost2010Prop29
280
     1
102
RTVSPost2010PropOp29
 70
     1
102
RTVSPost2010Prop30
280
     1
102
RTVSPost2010PropOp30
 70
     1
102
RTVSPost2010Prop31
280
     0
102
RTVSPost2010PropOp31
 70
     1
102
RTVSPost2010Prop32
280
     0
102
RTVSPost2010PropOp32
 70
     1
102
RTVSPost2010Prop33
280
     0
102
RTVSPost2010PropOp33
 70
     1
102
RTVSPost2010Prop34
280
     0
102
RTVSPost2010PropOp34
 70
     1
102
RTVSPost2010Prop35
280
     0
102
RTVSPost2010PropOp35
 70
     1
102
RTVSPost2010Prop36
280
     0
102
RTVSPost2010PropOp36
 70
     1
102
RTVSPost2010Prop37
 90
       50
102
RTVSPost2010PropOp37
 70
     1
102
RTVSPost2010Prop38
140
0.0
102
RTVSPost2010PropOp38
 70
     1
102
RTVSPost2010Prop39
140
1.0
102
RTVSPost2010PropOp39
 70
     1
102
RTVSPost2010Prop40
 90
        0
102
RTVSPost2010PropOp40
 70
     1
102
RTVSPost2010Prop41ColorIndex
 90
       18
102
RTVSPost2010Prop41ColorRGB
 90
        0
102
RTVSPost2010PropOp41
 70
     1
102
RTVSPost2010Prop42
 90
       50
102
RTVSPost2010PropOp42
 70
     1
102
RTVSPost2010Prop43
 90
        3
102
RTVSPost2010PropOp43
 70
     1
102
RTVSPost2010Prop44ColorIndex
 90
        5
102
RTVSPost2010Prop44ColorRGB
 90
      255
102
RTVSPost2010PropOp44
 70
     1
102
RTVSPost2010Prop45
280
     0
102
RTVSPost2010PropOp45
 70
     1
102
RTVSPost2010Prop46
 90
       50
102
RTVSPost2010PropOp46
 70
     1
102
RTVSPost2010Prop47
 90
       50
102
RTVSPost2010PropOp47
 70
     1
102
RTVSPost2010Prop48
 90
       50
102
RTVSPost2010PropOp48
 70
     1
102
RTVSPost2010Prop49
280
     0
102
RTVSPost2010PropOp49
 70
     1
102
RTVSPost2010Prop50
 90
       50
102
RTVSPost2010PropOp50
 70
     1
102
RTVSPost2010Prop51ColorIndex
 90
      256
102
RTVSPost2010Prop51ColorRGB
 90
-16777216
102
RTVSPost2010PropOp51
 70
     0
102
RTVSPost2010Prop52
140
1.0
102
RTVSPost2010PropOp52
 70
     0
102
RTVSPost2010Prop53
 90
        2
102
RTVSPost2010PropOp53
 70
     1
102
RTVSPost2010Prop54
  1
strokes_ogs.tif
102
RTVSPost2010PropOp54
 70
     1
102
RTVSPost2010Prop55
280
     0
102
RTVSPost2010PropOp55
 70
     1
102
RTVSPost2010Prop56
140
1.0
102
RTVSPost2010PropOp56
 70
     1
102
RTVSPost2010Prop57
140
1.0
102
RTVSPost2010PropOp57
 70
     1
102
RTVSPropertyOp0
 70
     1
102
RTVSPropertyOp1
 70
     1
102
RTVSPropertyOp2
 70
     1
102
RTVSPropertyOp3
 70
     1
102
RTVSPropertyOp4
 70
     1
102
RTVSPropertyOp5
 70
     1
102
RTVSPropertyOp6
 70
     1
102
RTVSPropertyOp7
 70
     1
102
RTVSPropertyOp8
 70
     1
102
RTVSPropertyOp9
 70
     1
102
RTVSPropertyOp10
 70
     1
102
RTVSPropertyOp11
 70
     1
102
RTVSPropertyOp12
 70
     1
102
RTVSPropertyOp13
 70
     1
102
RTVSPropertyOp14
 70
     1
102
RTVSPropertyOp15
 70
     1
102
RTVSPropertyOp16
 70
     1
102
RTVSPropertyOp17
 70
     1
102
RTVSPropertyOp18
 70
     1
102
RTVSPropertyOp19
 70
     1
102
RTVSPropertyOp20
 70
     1
102
RTVSPropertyOp21
 70
     1
102
RTVSPropertyOp22
 70
     1
102
RTVSPropertyOp23
 70
     1
102
RTVSPropertyOp24
 70
     1
102
RTVSPropertyOp25
 70
     1
102
RTVSPropertyOp26
 70
     1
102
RTVSPropertyOp27
 70
     1
102
RTVSPropertyOp28
 70
     1
102
RTVSPropertyOp29
 70
     1
102
RTVSPropertyOp30
 70
     1
102
RTVSPropertyOp31
 70
     1
102
RTVSPropertyOp32
 70
     1
102
RTVSPropertyOp33
 70
     1
102
RTVSPropertyOp34
 70
     1
102
RTVSPropertyOp35
 70
     1
102
RTVSPropertyOp36
 70
     1
102
RTVSPropertyOp37
 70
     1
102
RTVSPropertyOp38
 70
     1
102
RTVSPropertyOp39
 70
     1
102
RTVSPropertyOp40
 70
     1
102
RTVSPropertyOp41
 70
     1
102
RTVSPropertyOp42
 70
     1
102
RTVSPropertyOp43
 70
     1
102
RTVSPropertyOp44
 70
     1
102
RTVSPropertyOp45
 70
     1
102
RTVSPropertyOp46
 70
     1
102
RTVSPropertyOp47
 70
     1
102
RTVSPropertyOp48
 70
     1
102
RTVSPropertyOp49
 70
     1
102
RTVSPropertyOp50
 70
     1
102
RTVSPropertyOp51
 70
     0
102
RTVSPropertyOp52
 70
     0
102
RTVSPropertyOp53
 70
     1
102
RTVSPropertyOp54
 70
     1
102
RTVSPropertyOp55
 70
     1
102
RTVSPropertyOp56
 70
     1
102
RTVSPropertyOp57
 70
     1
102
RTVSPropertyOp58
 70
     1
102
RTVSPropertyOp59
 70
     1
102
RTVSPropertyOp60
 70
     1
102
RTVSPropertyOp61
 70
     1
102
RTVSPropertyOp62
 70
     1
  0
XRECORD
  5
87A1
102
{ACAD_REACTORS
330
87A0
102
}
330
87A0
100
AcDbXrecord
280
     1
102
RTVSPost2010Prop28
280
     0
102
RTVSPost2010PropOp28
 70
     1
102
RTVSPost2010Prop29
280
     1
102
RTVSPost2010PropOp29
 70
     1
102
RTVSPost2010Prop30
280
     1
102
RTVSPost2010PropOp30
 70
     1
102
RTVSPost2010Prop31
280
     0
102
RTVSPost2010PropOp31
 70
     1
102
RTVSPost2010Prop32
280
     0
102
RTVSPost2010PropOp32
 70
     1
102
RTVSPost2010Prop33
280
     0
102
RTVSPost2010PropOp33
 70
     1
102
RTVSPost2010Prop34
280
     0
102
RTVSPost2010PropOp34
 70
     1
102
RTVSPost2010Prop35
280
     0
102
RTVSPost2010PropOp35
 70
     1
102
RTVSPost2010Prop36
280
     0
102
RTVSPost2010PropOp36
 70
     1
102
RTVSPost2010Prop37
 90
       50
102
RTVSPost2010PropOp37
 70
     1
102
RTVSPost2010Prop38
140
0.0
102
RTVSPost2010PropOp38
 70
     1
102
RTVSPost2010Prop39
140
1.0
102
RTVSPost2010PropOp39
 70
     1
102
RTVSPost2010Prop40
 90
        0
102
RTVSPost2010PropOp40
 70
     1
102
RTVSPost2010Prop41ColorIndex
 90
       18
102
RTVSPost2010Prop41ColorRGB
 90
        0
102
RTVSPost2010PropOp41
 70
     1
102
RTVSPost2010Prop42
 90
       50
102
RTVSPost2010PropOp42
 70
     1
102
RTVSPost2010Prop43
 90
        3
102
RTVSPost2010PropOp43
 70
     1
102
RTVSPost2010Prop44ColorIndex
 90
        5
102
RTVSPost2010Prop44ColorRGB
 90
      255
102
RTVSPost2010PropOp44
 70
     1
102
RTVSPost2010Prop45
280
     0
102
RTVSPost2010PropOp45
 70
     1
102
RTVSPost2010Prop46
 90
       50
102
RTVSPost2010PropOp46
 70
     1
102
RTVSPost2010Prop47
 90
       50
102
RTVSPost2010PropOp47
 70
     1
102
RTVSPost2010Prop48
 90
       50
102
RTVSPost2010PropOp48
 70
     1
102
RTVSPost2010Prop49
280
     0
102
RTVSPost2010PropOp49
 70
     1
102
RTVSPost2010Prop50
 90
       50
102
RTVSPost2010PropOp50
 70
     1
102
RTVSPost2010Prop51ColorIndex
 90
      256
102
RTVSPost2010Prop51ColorRGB
 90
-16777216
102
RTVSPost2010PropOp51
 70
     0
102
RTVSPost2010Prop52
140
1.0
102
RTVSPost2010PropOp52
 70
     0
102
RTVSPost2010Prop53
 90
        2
102
RTVSPost2010PropOp53
 70
     1
102
RTVSPost2010Prop54
  1
strokes_ogs.tif
102
RTVSPost2010PropOp54
 70
     1
102
RTVSPost2010Prop55
280
     0
102
RTVSPost2010PropOp55
 70
     1
102
RTVSPost2010Prop56
140
1.0
102
RTVSPost2010PropOp56
 70
     1
102
RTVSPost2010Prop57
140
1.0
102
RTVSPost2010PropOp57
 70
     1
102
RTVSPropertyOp0
 70
     1
102
RTVSPropertyOp1
 70
     1
102
RTVSPropertyOp2
 70
     1
102
RTVSPropertyOp3
 70
     1
102
RTVSPropertyOp4
 70
     1
102
RTVSPropertyOp5
 70
     1
102
RTVSPropertyOp6
 70
     1
102
RTVSPropertyOp7
 70
     1
102
RTVSPropertyOp8
 70
     1
102
RTVSPropertyOp9
 70
     1
102
RTVSPropertyOp10
 70
     1
102
RTVSPropertyOp11
 70
     1
102
RTVSPropertyOp12
 70
     1
102
RTVSPropertyOp13
 70
     1
102
RTVSPropertyOp14
 70
     1
102
RTVSPropertyOp15
 70
     1
102
RTVSPropertyOp16
 70
     1
102
RTVSPropertyOp17
 70
     1
102
RTVSPropertyOp18
 70
     1
102
RTVSPropertyOp19
 70
     1
102
RTVSPropertyOp20
 70
     1
102
RTVSPropertyOp21
 70
     1
102
RTVSPropertyOp22
 70
     1
102
RTVSPropertyOp23
 70
     1
102
RTVSPropertyOp24
 70
     1
102
RTVSPropertyOp25
 70
     1
102
RTVSPropertyOp26
 70
     1
102
RTVSPropertyOp27
 70
     1
102
RTVSPropertyOp28
 70
     1
102
RTVSPropertyOp29
 70
     1
102
RTVSPropertyOp30
 70
     1
102
RTVSPropertyOp31
 70
     1
102
RTVSPropertyOp32
 70
     1
102
RTVSPropertyOp33
 70
     1
102
RTVSPropertyOp34
 70
     1
102
RTVSPropertyOp35
 70
     1
102
RTVSPropertyOp36
 70
     1
102
RTVSPropertyOp37
 70
     1
102
RTVSPropertyOp38
 70
     1
102
RTVSPropertyOp39
 70
     1
102
RTVSPropertyOp40
 70
     1
102
RTVSPropertyOp41
 70
     1
102
RTVSPropertyOp42
 70
     1
102
RTVSPropertyOp43
 70
     1
102
RTVSPropertyOp44
 70
     1
102
RTVSPropertyOp45
 70
     1
102
RTVSPropertyOp46
 70
     1
102
RTVSPropertyOp47
 70
     1
102
RTVSPropertyOp48
 70
     1
102
RTVSPropertyOp49
 70
     1
102
RTVSPropertyOp50
 70
     1
102
RTVSPropertyOp51
 70
     0
102
RTVSPropertyOp52
 70
     0
102
RTVSPropertyOp53
 70
     1
102
RTVSPropertyOp54
 70
     1
102
RTVSPropertyOp55
 70
     1
102
RTVSPropertyOp56
 70
     1
102
RTVSPropertyOp57
 70
     1
102
RTVSPropertyOp58
 70
     1
102
RTVSPropertyOp59
 70
     1
102
RTVSPropertyOp60
 70
     1
102
RTVSPropertyOp61
 70
     1
102
RTVSPropertyOp62
 70
     1
  0
XRECORD
  5
87B9
102
{ACAD_REACTORS
330
87B8
102
}
330
87B8
100
AcDbXrecord
280
     1
102
RTVSPost2010Prop28
280
     0
102
RTVSPost2010PropOp28
 70
     1
102
RTVSPost2010Prop29
280
     1
102
RTVSPost2010PropOp29
 70
     1
102
RTVSPost2010Prop30
280
     1
102
RTVSPost2010PropOp30
 70
     1
102
RTVSPost2010Prop31
280
     0
102
RTVSPost2010PropOp31
 70
     1
102
RTVSPost2010Prop32
280
     0
102
RTVSPost2010PropOp32
 70
     1
102
RTVSPost2010Prop33
280
     0
102
RTVSPost2010PropOp33
 70
     1
102
RTVSPost2010Prop34
280
     0
102
RTVSPost2010PropOp34
 70
     1
102
RTVSPost2010Prop35
280
     0
102
RTVSPost2010PropOp35
 70
     1
102
RTVSPost2010Prop36
280
     0
102
RTVSPost2010PropOp36
 70
     1
102
RTVSPost2010Prop37
 90
       50
102
RTVSPost2010PropOp37
 70
     1
102
RTVSPost2010Prop38
140
0.0
102
RTVSPost2010PropOp38
 70
     1
102
RTVSPost2010Prop39
140
1.0
102
RTVSPost2010PropOp39
 70
     1
102
RTVSPost2010Prop40
 90
        0
102
RTVSPost2010PropOp40
 70
     1
102
RTVSPost2010Prop41ColorIndex
 90
       18
102
RTVSPost2010Prop41ColorRGB
 90
        0
102
RTVSPost2010PropOp41
 70
     1
102
RTVSPost2010Prop42
 90
       50
102
RTVSPost2010PropOp42
 70
     1
102
RTVSPost2010Prop43
 90
        3
102
RTVSPost2010PropOp43
 70
     1
102
RTVSPost2010Prop44ColorIndex
 90
        5
102
RTVSPost2010Prop44ColorRGB
 90
      255
102
RTVSPost2010PropOp44
 70
     1
102
RTVSPost2010Prop45
280
     0
102
RTVSPost2010PropOp45
 70
     1
102
RTVSPost2010Prop46
 90
       50
102
RTVSPost2010PropOp46
 70
     1
102
RTVSPost2010Prop47
 90
       50
102
RTVSPost2010PropOp47
 70
     1
102
RTVSPost2010Prop48
 90
       50
102
RTVSPost2010PropOp48
 70
     1
102
RTVSPost2010Prop49
280
     0
102
RTVSPost2010PropOp49
 70
     1
102
RTVSPost2010Prop50
 90
       50
102
RTVSPost2010PropOp50
 70
     1
102
RTVSPost2010Prop51ColorIndex
 90
      256
102
RTVSPost2010Prop51ColorRGB
 90
-16777216
102
RTVSPost2010PropOp51
 70
     0
102
RTVSPost2010Prop52
140
1.0
102
RTVSPost2010PropOp52
 70
     0
102
RTVSPost2010Prop53
 90
        2
102
RTVSPost2010PropOp53
 70
     1
102
RTVSPost2010Prop54
  1
strokes_ogs.tif
102
RTVSPost2010PropOp54
 70
     1
102
RTVSPost2010Prop55
280
     0
102
RTVSPost2010PropOp55
 70
     1
102
RTVSPost2010Prop56
140
1.0
102
RTVSPost2010PropOp56
 70
     1
102
RTVSPost2010Prop57
140
1.0
102
RTVSPost2010PropOp57
 70
     1
102
RTVSPropertyOp0
 70
     1
102
RTVSPropertyOp1
 70
     1
102
RTVSPropertyOp2
 70
     1
102
RTVSPropertyOp3
 70
     1
102
RTVSPropertyOp4
 70
     1
102
RTVSPropertyOp5
 70
     1
102
RTVSPropertyOp6
 70
     1
102
RTVSPropertyOp7
 70
     1
102
RTVSPropertyOp8
 70
     1
102
RTVSPropertyOp9
 70
     1
102
RTVSPropertyOp10
 70
     1
102
RTVSPropertyOp11
 70
     1
102
RTVSPropertyOp12
 70
     1
102
RTVSPropertyOp13
 70
     1
102
RTVSPropertyOp14
 70
     1
102
RTVSPropertyOp15
 70
     1
102
RTVSPropertyOp16
 70
     1
102
RTVSPropertyOp17
 70
     1
102
RTVSPropertyOp18
 70
     1
102
RTVSPropertyOp19
 70
     1
102
RTVSPropertyOp20
 70
     1
102
RTVSPropertyOp21
 70
     1
102
RTVSPropertyOp22
 70
     1
102
RTVSPropertyOp23
 70
     1
102
RTVSPropertyOp24
 70
     1
102
RTVSPropertyOp25
 70
     1
102
RTVSPropertyOp26
 70
     1
102
RTVSPropertyOp27
 70
     1
102
RTVSPropertyOp28
 70
     1
102
RTVSPropertyOp29
 70
     1
102
RTVSPropertyOp30
 70
     1
102
RTVSPropertyOp31
 70
     1
102
RTVSPropertyOp32
 70
     1
102
RTVSPropertyOp33
 70
     1
102
RTVSPropertyOp34
 70
     1
102
RTVSPropertyOp35
 70
     1
102
RTVSPropertyOp36
 70
     1
102
RTVSPropertyOp37
 70
     1
102
RTVSPropertyOp38
 70
     1
102
RTVSPropertyOp39
 70
     1
102
RTVSPropertyOp40
 70
     1
102
RTVSPropertyOp41
 70
     1
102
RTVSPropertyOp42
 70
     1
102
RTVSPropertyOp43
 70
     1
102
RTVSPropertyOp44
 70
     1
102
RTVSPropertyOp45
 70
     1
102
RTVSPropertyOp46
 70
     1
102
RTVSPropertyOp47
 70
     1
102
RTVSPropertyOp48
 70
     1
102
RTVSPropertyOp49
 70
     1
102
RTVSPropertyOp50
 70
     1
102
RTVSPropertyOp51
 70
     0
102
RTVSPropertyOp52
 70
     0
102
RTVSPropertyOp53
 70
     1
102
RTVSPropertyOp54
 70
     1
102
RTVSPropertyOp55
 70
     1
102
RTVSPropertyOp56
 70
     1
102
RTVSPropertyOp57
 70
     1
102
RTVSPropertyOp58
 70
     1
102
RTVSPropertyOp59
 70
     1
102
RTVSPropertyOp60
 70
     1
102
RTVSPropertyOp61
 70
     1
102
RTVSPropertyOp62
 70
     1
  0
ENDSEC
  0
EOF
