  0
SECTION
  2
HEADER
  9
$ACADVER
  1
AC1015
  9
$ACADMAINTVER
 70
    20
  9
$DWGCODEPAGE
  3
ANSI_932
  9
$INSBASE
 10
0.0
 20
0.0
 30
0.0
  9
$EXTMIN
 10
-0.2242870864283759
 20
-0.3150699547441036
 30
-0.0015258207003583
  9
$EXTMAX
 10
7350.224321312532
 20
10325.31511803427
 30
0.0000000349246037
  9
$LIMMIN
 10
0.0
 20
0.0
  9
$LIMMAX
 10
297.0
 20
210.0
  9
$ORTHOMODE
 70
     1
  9
$REGENMODE
 70
     1
  9
$FILLMODE
 70
     0
  9
$QTEXTMODE
 70
     0
  9
$MIRRTEXT
 70
     1
  9
$LTSCALE
 40
100.0
  9
$ATTMODE
 70
     1
  9
$TEXTSIZE
 40
180.0
  9
$TRACEWID
 40
0.05
  9
$TEXTSTYLE
  7
STANDARD
  9
$CLAYER
  8
3
  9
$CELTYPE
  6
ByLayer
  9
$CECOLOR
 62
   256
  9
$CELTSCALE
 40
1.0
  9
$DISPSILH
 70
     0
  9
$DIMSCALE
 40
35.0
  9
$DIMASZ
 40
2.0
  9
$DIMEXO
 40
0.5
  9
$DIMDLI
 40
10.0
  9
$DIMRND
 40
0.0
  9
$DIMDLE
 40
0.0
  9
$DIMEXE
 40
1.0
  9
$DIMTP
 40
1.0
  9
$DIMTM
 40
1.0
  9
$DIMTXT
 40
3.0
  9
$DIMCEN
 40
0.0
  9
$DIMTSZ
 40
0.0
  9
$DIMTOL
 70
     0
  9
$DIMLIM
 70
     0
  9
$DIMTIH
 70
     0
  9
$DIMTOH
 70
     0
  9
$DIMSE1
 70
     0
  9
$DIMSE2
 70
     0
  9
$DIMTAD
 70
     1
  9
$DIMZIN
 70
     8
  9
$DIMBLK
  1

  9
$DIMASO
 70
     1
  9
$DIMSHO
 70
     1
  9
$DIMPOST
  1

  9
$DIMAPOST
  1

  9
$DIMALT
 70
     0
  9
$DIMALTD
 70
     2
  9
$DIMALTF
 40
0.039
  9
$DIMLFAC
 40
1.0
  9
$DIMTOFL
 70
     1
  9
$DIMTVP
 40
0.0
  9
$DIMTIX
 70
     0
  9
$DIMSOXD
 70
     0
  9
$DIMSAH
 70
     1
  9
$DIMBLK1
  1
OPEN
  9
$DIMBLK2
  1
OPEN
  9
$DIMSTYLE
  2
IGA
  9
$DIMCLRD
 70
     0
  9
$DIMCLRE
 70
     0
  9
$DIMCLRT
 70
     0
  9
$DIMTFAC
 40
10.0
  9
$DIMGAP
 40
1.0
  9
$DIMJUST
 70
     0
  9
$DIMSD1
 70
     0
  9
$DIMSD2
 70
     0
  9
$DIMTOLJ
 70
     1
  9
$DIMTZIN
 70
     0
  9
$DIMALTZ
 70
     0
  9
$DIMALTTZ
 70
     0
  9
$DIMUPT
 70
     0
  9
$DIMDEC
 70
     4
  9
$DIMTDEC
 70
     4
  9
$DIMALTU
 70
     2
  9
$DIMALTTD
 70
     2
  9
$DIMTXSTY
  7
STANDARD
  9
$DIMAUNIT
 70
     0
  9
$DIMADEC
 70
     0
  9
$DIMALTRND
 40
0.0
  9
$DIMAZIN
 70
     0
  9
$DIMDSEP
 70
    46
  9
$DIMATFIT
 70
     3
  9
$DIMFRAC
 70
     0
  9
$DIMLDRBLK
  1
OPEN
  9
$DIMLUNIT
 70
     2
  9
$DIMLWD
 70
    -2
  9
$DIMLWE
 70
    -2
  9
$DIMTMOVE
 70
     0
  9
$LUNITS
 70
     2
  9
$LUPREC
 70
     3
  9
$SKETCHINC
 40
0.1
  9
$FILLETRAD
 40
50.0
  9
$AUNITS
 70
     0
  9
$AUPREC
 70
     0
  9
$MENU
  1
acad
  9
$ELEVATION
 40
0.0
  9
$PELEVATION
 40
0.0
  9
$THICKNESS
 40
0.0
  9
$LIMCHECK
 70
     0
  9
$CHAMFERA
 40
0.5
  9
$CHAMFERB
 40
0.5
  9
$CHAMFERC
 40
0.0
  9
$CHAMFERD
 40
0.0
  9
$SKPOLY
 70
     0
  9
$TDCREATE
 40
2451390.397703704
  9
$TDUCREATE
 40
2451390.022703704
  9
$TDUPDATE
 40
2460273.617338577
  9
$TDUUPDATE
 40
2460273.242338577
  9
$TDINDWG
 40
0.0441541551
  9
$TDUSRTIMER
 40
0.0441537963
  9
$USRTIMER
 70
     1
  9
$ANGBASE
 50
0.0
  9
$ANGDIR
 70
     0
  9
$PDMODE
 70
     0
  9
$PDSIZE
 40
0.0
  9
$PLINEWID
 40
0.0
  9
$SPLFRAME
 70
     0
  9
$SPLINETYPE
 70
     6
  9
$SPLINESEGS
 70
     8
  9
$HANDSEED
  5
8785
  9
$SURFTAB1
 70
     6
  9
$SURFTAB2
 70
     6
  9
$SURFTYPE
 70
     6
  9
$SURFU
 70
     6
  9
$SURFV
 70
     6
  9
$UCSBASE
  2

  9
$UCSNAME
  2

  9
$UCSORG
 10
0.0
 20
0.0
 30
0.0
  9
$UCSXDIR
 10
1.0
 20
0.0
 30
0.0
  9
$UCSYDIR
 10
0.0
 20
1.0
 30
0.0
  9
$UCSORTHOREF
  2

  9
$UCSORTHOVIEW
 70
     0
  9
$UCSORGTOP
 10
0.0
 20
0.0
 30
0.0
  9
$UCSORGBOTTOM
 10
0.0
 20
0.0
 30
0.0
  9
$UCSORGLEFT
 10
0.0
 20
0.0
 30
0.0
  9
$UCSORGRIGHT
 10
0.0
 20
0.0
 30
0.0
  9
$UCSORGFRONT
 10
0.0
 20
0.0
 30
0.0
  9
$UCSORGBACK
 10
0.0
 20
0.0
 30
0.0
  9
$PUCSBASE
  2

  9
$PUCSNAME
  2

  9
$PUCSORG
 10
0.0
 20
0.0
 30
0.0
  9
$PUCSXDIR
 10
1.0
 20
0.0
 30
0.0
  9
$PUCSYDIR
 10
0.0
 20
1.0
 30
0.0
  9
$PUCSORTHOREF
  2

  9
$PUCSORTHOVIEW
 70
     0
  9
$PUCSORGTOP
 10
0.0
 20
0.0
 30
0.0
  9
$PUCSORGBOTTOM
 10
0.0
 20
0.0
 30
0.0
  9
$PUCSORGLEFT
 10
0.0
 20
0.0
 30
0.0
  9
$PUCSORGRIGHT
 10
0.0
 20
0.0
 30
0.0
  9
$PUCSORGFRONT
 10
0.0
 20
0.0
 30
0.0
  9
$PUCSORGBACK
 10
0.0
 20
0.0
 30
0.0
  9
$USERI1
 70
     0
  9
$USERI2
 70
     0
  9
$USERI3
 70
     0
  9
$USERI4
 70
     0
  9
$USERI5
 70
     0
  9
$USERR1
 40
0.0
  9
$USERR2
 40
0.0
  9
$USERR3
 40
0.0
  9
$USERR4
 40
0.0
  9
$USERR5
 40
0.0
  9
$WORLDVIEW
 70
     1
  9
$SHADEDGE
 70
     3
  9
$SHADEDIF
 70
    70
  9
$TILEMODE
 70
     1
  9
$MAXACTVP
 70
    16
  9
$PINSBASE
 10
0.0
 20
0.0
 30
0.0
  9
$PLIMCHECK
 70
     0
  9
$PEXTMIN
 10
1.000000000000000E+20
 20
1.000000000000000E+20
 30
1.000000000000000E+20
  9
$PEXTMAX
 10
-1.000000000000000E+20
 20
-1.000000000000000E+20
 30
-1.000000000000000E+20
  9
$PLIMMIN
 10
0.0
 20
0.0
  9
$PLIMMAX
 10
12.0
 20
9.0
  9
$UNITMODE
 70
     0
  9
$VISRETAIN
 70
     0
  9
$PLINEGEN
 70
     0
  9
$PSLTSCALE
 70
     1
  9
$TREEDEPTH
 70
  3020
  9
$CMLSTYLE
  2
Standard
  9
$CMLJUST
 70
     0
  9
$CMLSCALE
 40
1.0
  9
$PROXYGRAPHICS
 70
     1
  9
$MEASUREMENT
 70
     0
  9
$CELWEIGHT
370
    -1
  9
$ENDCAPS
280
     0
  9
$JOINSTYLE
280
     0
  9
$LWDISPLAY
290
     0
  9
$INSUNITS
 70
     0
  9
$HYPERLINKBASE
  1

  9
$STYLESHEET
  1

  9
$XEDIT
290
     1
  9
$CEPSNTYPE
380
     0
  9
$PSTYLEMODE
290
     1
  9
$FINGERPRINTGUID
  2
{9010E13F-1E25-4BD8-8F0B-9B1F8C3192A2}
  9
$VERSIONGUID
  2
{5F875B45-60C7-4BEA-8422-1C0B50603C92}
  9
$EXTNAMES
290
     1
  9
$PSVPSCALE
 40
0.0
  9
$OLESTARTUP
290
     0
  0
ENDSEC
  0
SECTION
  2
CLASSES
  0
CLASS
  1
ACDBDICTIONARYWDFLT
  2
AcDbDictionaryWithDefault
  3
ObjectDBX Classes
 90
        0
280
     0
281
     0
  0
CLASS
  1
MATERIAL
  2
AcDbMaterial
  3
ObjectDBX Classes
 90
     1153
280
     0
281
     0
  0
CLASS
  1
VISUALSTYLE
  2
AcDbVisualStyle
  3
ObjectDBX Classes
 90
     4095
280
     0
281
     0
  0
CLASS
  1
SCALE
  2
AcDbScale
  3
ObjectDBX Classes
 90
     1153
280
     0
281
     0
  0
CLASS
  1
TABLESTYLE
  2
AcDbTableStyle
  3
ObjectDBX Classes
 90
     4095
280
     0
281
     0
  0
CLASS
  1
MLEADERSTYLE
  2
AcDbMLeaderStyle
  3
ACDB_MLEADERSTYLE_CLASS
 90
     4095
280
     0
281
     0
  0
CLASS
  1
ACDBSECTIONVIEWSTYLE
  2
AcDbSectionViewStyle
  3
ObjectDBX Classes
 90
     1025
280
     0
281
     0
  0
CLASS
  1
ACDBDETAILVIEWSTYLE
  2
AcDbDetailViewStyle
  3
ObjectDBX Classes
 90
     1025
280
     0
281
     0
  0
CLASS
  1
SORTENTSTABLE
  2
AcDbSortentsTable
  3
ObjectDBX Classes
 90
        0
280
     0
281
     0
  0
CLASS
  1
DICTIONARYVAR
  2
AcDbDictionaryVar
  3
ObjectDBX Classes
 90
        0
280
     0
281
     0
  0
CLASS
  1
CELLSTYLEMAP
  2
AcDbCellStyleMap
  3
ObjectDBX Classes
 90
     1152
280
     0
281
     0
  0
CLASS
  1
ACDBPLACEHOLDER
  2
AcDbPlaceHolder
  3
ObjectDBX Classes
 90
        0
280
     0
281
     0
  0
CLASS
  1
LAYOUT
  2
AcDbLayout
  3
ObjectDBX Classes
 90
        0
280
     0
281
     0
  0
ENDSEC
  0
SECTION
  2
TABLES
  0
TABLE
  2
VPORT
  5
8377
330
0
100
AcDbSymbolTable
 70
     1
  0
VPORT
  5
83E3
330
8377
100
AcDbSymbolTableRecord
100
AcDbViewportTableRecord
  2
*ACTIVE
 70
     0
 10
0.0
 20
0.0
 11
1.0
 21
1.0
 12
3675.000017113053
 22
5162.500024039763
 13
0.0
 23
0.0
 14
10.0
 24
10.0
 15
10.0
 25
10.0
 16
0.0
 26
0.0
 36
1.0
 17
0.0
 27
0.0
 37
0.0
 40
10391.74948481712
 41
2.050213675213675
 42
50.0
 43
0.0
 44
0.0
 50
0.0
 51
0.0
 71
     0
 72
   100
 73
     1
 74
     0
 75
     0
 76
     0
 77
     0
 78
     0
281
     0
 65
     1
110
0.0
120
0.0
130
0.0
111
1.0
121
0.0
131
0.0
112
0.0
122
1.0
132
0.0
 79
     0
146
0.0
1001
ACAD_NAV_VCDISPLAY
1070
     3
  0
ENDTAB
  0
TABLE
  2
LTYPE
  5
8374
330
0
100
AcDbSymbolTable
 70
     3
  0
LTYPE
  5
83C9
330
8374
100
AcDbSymbolTableRecord
100
AcDbLinetypeTableRecord
  2
ByBlock
 70
     0
  3

 72
    65
 73
     0
 40
0.0
  0
LTYPE
  5
83CA
330
8374
100
AcDbSymbolTableRecord
100
AcDbLinetypeTableRecord
  2
ByLayer
 70
     0
  3

 72
    65
 73
     0
 40
0.0
  0
LTYPE
  5
83CB
330
8374
100
AcDbSymbolTableRecord
100
AcDbLinetypeTableRecord
  2
CONTINUOUS
 70
     0
  3
Solid line
 72
    65
 73
     0
 40
0.0
  0
LTYPE
  5
83E4
330
8374
100
AcDbSymbolTableRecord
100
AcDbLinetypeTableRecord
  2
CENTER
 70
     0
  3
____ _ ____ _ ____ _ ____ _ ____ _ ____ _ ____ 
 72
    65
 73
     4
 40
2.0
 49
1.25
 74
     0
 49
-0.25
 74
     0
 49
0.25
 74
     0
 49
-0.25
 74
     0
  0
ENDTAB
  0
TABLE
  2
LAYER
  5
8371
330
0
100
AcDbSymbolTable
 70
     6
  0
LAYER
  5
83C3
102
{ACAD_XDICTIONARY
360
872F
102
}
330
8371
100
AcDbSymbolTableRecord
100
AcDbLayerTableRecord
  2
0
 70
     0
 62
     7
  6
CONTINUOUS
370
    -3
390
837E
  0
LAYER
  5
83E2
102
{ACAD_XDICTIONARY
360
8731
102
}
330
8371
100
AcDbSymbolTableRecord
100
AcDbLayerTableRecord
  2
3
 70
     0
 62
     2
  6
CONTINUOUS
370
    -3
390
837E
  0
LAYER
  5
83E5
102
{ACAD_XDICTIONARY
360
8733
102
}
330
8371
100
AcDbSymbolTableRecord
100
AcDbLayerTableRecord
  2
2
 70
     0
 62
     3
  6
CENTER
370
    -3
390
837E
  0
LAYER
  5
83E6
102
{ACAD_XDICTIONARY
360
8735
102
}
330
8371
100
AcDbSymbolTableRecord
100
AcDbLayerTableRecord
  2
1
 70
     0
 62
     4
  6
CONTINUOUS
370
    -3
390
837E
  0
LAYER
  5
83E7
102
{ACAD_XDICTIONARY
360
8737
102
}
330
8371
100
AcDbSymbolTableRecord
100
AcDbLayerTableRecord
  2
4
 70
     0
 62
     7
  6
CONTINUOUS
370
    -3
390
837E
  0
LAYER
  5
83E8
330
8371
100
AcDbSymbolTableRecord
100
AcDbLayerTableRecord
  2
DEFPOINTS
 70
     0
 62
     7
  6
CONTINUOUS
290
     0
370
    -3
390
837E
  0
ENDTAB
  0
TABLE
  2
STYLE
  5
8372
330
0
100
AcDbSymbolTable
 70
     2
  0
STYLE
  5
83C4
330
8372
100
AcDbSymbolTableRecord
100
AcDbTextStyleTableRecord
  2
STANDARD
 70
     0
 40
0.0
 41
1.0
 50
0.0
 71
     0
 42
180.0
  3
simplex.shx
  4
extfont.shx
  0
STYLE
  5
83C8
330
8372
100
AcDbSymbolTableRecord
100
AcDbTextStyleTableRecord
  2
Annotative
 70
     0
 40
0.0
 41
1.0
 50
0.0
 71
     0
 42
0.2
  3
txt
  4

1001
AcadAnnotative
1000
AnnotativeData
1002
{
1070
     1
1070
     1
1002
}
  0
ENDTAB
  0
TABLE
  2
VIEW
  5
8375
330
0
100
AcDbSymbolTable
 70
     0
  0
ENDTAB
  0
TABLE
  2
UCS
  5
8376
330
0
100
AcDbSymbolTable
 70
     0
  0
ENDTAB
  0
TABLE
  2
APPID
  5
8378
330
0
100
AcDbSymbolTable
 70
     8
  0
APPID
  5
83C5
330
8378
100
AcDbSymbolTableRecord
100
AcDbRegAppTableRecord
  2
ACAD
 70
     0
  0
APPID
  5
83CC
330
8378
100
AcDbSymbolTableRecord
100
AcDbRegAppTableRecord
  2
AcadAnnotative
 70
     0
  0
APPID
  5
849E
330
8378
100
AcDbSymbolTableRecord
100
AcDbRegAppTableRecord
  2
ACAD_DSTYLE_DIMJAG
 70
     0
  0
APPID
  5
849F
330
8378
100
AcDbSymbolTableRecord
100
AcDbRegAppTableRecord
  2
ACAD_DSTYLE_DIMTALN
 70
     0
  0
APPID
  5
84AD
330
8378
100
AcDbSymbolTableRecord
100
AcDbRegAppTableRecord
  2
AcadAnnoMonitorAlertIconDisabled
 70
     0
  0
APPID
  5
84AE
330
8378
100
AcDbSymbolTableRecord
100
AcDbRegAppTableRecord
  2
ACAD_EXEMPT_FROM_CAD_STANDARDS
 70
     0
  0
APPID
  5
8743
330
8378
100
AcDbSymbolTableRecord
100
AcDbRegAppTableRecord
  2
ACAD_NAV_VCDISPLAY
 70
     0
  0
APPID
  5
877C
330
8378
100
AcDbSymbolTableRecord
100
AcDbRegAppTableRecord
  2
ACAD_MLEADERVER
 70
     0
  0
ENDTAB
  0
TABLE
  2
DIMSTYLE
  5
8379
330
0
100
AcDbSymbolTable
 70
     3
100
AcDbDimStyleTable
 71
     1
340
83E9
  0
DIMSTYLE
105
83C6
330
8379
100
AcDbSymbolTableRecord
100
AcDbDimStyleTableRecord
  2
Standard
 70
     0
340
83C4
  0
DIMSTYLE
105
83C7
330
8379
100
AcDbSymbolTableRecord
100
AcDbDimStyleTableRecord
  2
Annotative
 70
     0
340
83C4
1001
AcadAnnotative
1000
AnnotativeData
1002
{
1070
     1
1070
     1
1002
}
  0
DIMSTYLE
105
83E9
102
{ACAD_REACTORS
330
84A0
330
84C2
330
84CF
330
84DC
330
84E9
330
84F6
330
854B
330
8558
330
8565
330
8572
330
857F
330
858C
330
8599
330
85A6
330
85B3
330
85C0
330
85CD
330
85DA
330
85E7
330
85F4
330
8606
330
8618
102
}
330
8379
100
AcDbSymbolTableRecord
100
AcDbDimStyleTableRecord
  2
IGA
 70
     0
 40
2.0
 41
2.0
 42
0.5
 43
10.0
 44
1.0
 47
1.0
 48
1.0
 73
     0
 74
     0
 77
     1
 78
     8
140
3.0
141
0.0
143
0.03937
146
10.0
147
1.0
173
     1
271
     3
272
     3
279
     2
284
     8
285
     8
286
     8
340
83C4
  0
ENDTAB
  0
TABLE
  2
BLOCK_RECORD
  5
8370
330
0
100
AcDbSymbolTable
 70
    60
  0
BLOCK_RECORD
  5
83DE
102
{ACAD_XDICTIONARY
360
849A
102
}
330
8370
100
AcDbSymbolTableRecord
100
AcDbBlockTableRecord
  2
*Model_Space
340
83E1
  0
BLOCK_RECORD
  5
83DA
330
8370
100
AcDbSymbolTableRecord
100
AcDbBlockTableRecord
  2
*Paper_Space
340
83DD
  0
BLOCK_RECORD
  5
83ED
330
8370
100
AcDbSymbolTableRecord
100
AcDbBlockTableRecord
  2
$MODEL_SPACE
340
0
  0
BLOCK_RECORD
  5
83EF
330
8370
100
AcDbSymbolTableRecord
100
AcDbBlockTableRecord
  2
$PAPER_SPACE
340
0
  0
BLOCK_RECORD
  5
83F1
330
8370
100
AcDbSymbolTableRecord
100
AcDbBlockTableRecord
  2
_OPEN
340
0
102
{BLKREFS
331
8300
331
8308
331
8309
331
8311
331
8312
331
831A
331
831B
331
8323
331
8324
331
832C
331
832D
331
8335
331
8336
331
833E
331
833F
331
8347
331
8348
331
8353
331
84BC
331
84BD
331
84C9
331
84CA
331
82A5
331
82A6
331
82AE
331
82AF
331
82B7
331
82B8
331
82C0
331
82C1
331
82C9
331
82CA
331
82D2
331
82D3
331
82DB
331
82DC
331
82E4
331
82E5
331
82ED
331
82EE
331
82F6
331
82F7
331
82FF
331
8185
331
8186
331
84F0
331
84F1
331
84FD
331
84FE
331
8533
331
8534
331
8545
331
8546
331
8552
331
8553
331
855F
331
8560
331
856C
331
856D
331
8579
331
857A
331
8586
331
8587
331
8593
331
8594
331
85A0
331
85A1
331
85AD
331
85AE
331
85BA
331
85BB
331
85C7
331
85C8
331
85D4
331
85D5
331
85E1
331
85E2
331
85EE
331
85EF
331
864F
331
8650
331
86D1
331
872B
102
}
  0
BLOCK_RECORD
  5
83F3
330
8370
100
AcDbSymbolTableRecord
100
AcDbBlockTableRecord
  2
YA_N
340
0
102
{BLKREFS
331
7C11
331
7C32
331
7C3B
331
7C67
331
7C8E
102
}
  0
BLOCK_RECORD
  5
83F5
330
8370
100
AcDbSymbolTableRecord
100
AcDbBlockTableRecord
  2
*D4
340
0
  0
BLOCK_RECORD
  5
83F7
330
8370
100
AcDbSymbolTableRecord
100
AcDbBlockTableRecord
  2
*D5
340
0
  0
BLOCK_RECORD
  5
83F9
330
8370
100
AcDbSymbolTableRecord
100
AcDbBlockTableRecord
  2
*D6
340
0
  0
BLOCK_RECORD
  5
83FB
330
8370
100
AcDbSymbolTableRecord
100
AcDbBlockTableRecord
  2
*D7
340
0
  0
BLOCK_RECORD
  5
83FD
330
8370
100
AcDbSymbolTableRecord
100
AcDbBlockTableRecord
  2
*D8
340
0
  0
BLOCK_RECORD
  5
83FF
330
8370
100
AcDbSymbolTableRecord
100
AcDbBlockTableRecord
  2
*D9
340
0
  0
BLOCK_RECORD
  5
8401
330
8370
100
AcDbSymbolTableRecord
100
AcDbBlockTableRecord
  2
*D10
340
0
  0
BLOCK_RECORD
  5
8403
330
8370
100
AcDbSymbolTableRecord
100
AcDbBlockTableRecord
  2
*D11
340
0
  0
BLOCK_RECORD
  5
8405
330
8370
100
AcDbSymbolTableRecord
100
AcDbBlockTableRecord
  2
*D12
340
0
  0
BLOCK_RECORD
  5
8407
330
8370
100
AcDbSymbolTableRecord
100
AcDbBlockTableRecord
  2
*D13
340
0
  0
BLOCK_RECORD
  5
8409
330
8370
100
AcDbSymbolTableRecord
100
AcDbBlockTableRecord
  2
*D14
340
0
  0
BLOCK_RECORD
  5
840B
330
8370
100
AcDbSymbolTableRecord
100
AcDbBlockTableRecord
  2
*D15
340
0
  0
BLOCK_RECORD
  5
840D
330
8370
100
AcDbSymbolTableRecord
100
AcDbBlockTableRecord
  2
*D16
340
0
  0
BLOCK_RECORD
  5
840F
330
8370
100
AcDbSymbolTableRecord
100
AcDbBlockTableRecord
  2
*D17
340
0
  0
BLOCK_RECORD
  5
8411
330
8370
100
AcDbSymbolTableRecord
100
AcDbBlockTableRecord
  2
*D18
340
0
  0
BLOCK_RECORD
  5
8413
330
8370
100
AcDbSymbolTableRecord
100
AcDbBlockTableRecord
  2
*D19
340
0
  0
BLOCK_RECORD
  5
8415
330
8370
100
AcDbSymbolTableRecord
100
AcDbBlockTableRecord
  2
*D20
340
0
  0
BLOCK_RECORD
  5
8417
330
8370
100
AcDbSymbolTableRecord
100
AcDbBlockTableRecord
  2
*D21
340
0
  0
BLOCK_RECORD
  5
8419
330
8370
100
AcDbSymbolTableRecord
100
AcDbBlockTableRecord
  2
*D22
340
0
  0
BLOCK_RECORD
  5
841B
330
8370
100
AcDbSymbolTableRecord
100
AcDbBlockTableRecord
  2
*D23
340
0
  0
BLOCK_RECORD
  5
841D
330
8370
100
AcDbSymbolTableRecord
100
AcDbBlockTableRecord
  2
_DOT
340
0
102
{BLKREFS
331
8352
102
}
  0
BLOCK_RECORD
  5
841F
330
8370
100
AcDbSymbolTableRecord
100
AcDbBlockTableRecord
  2
_NONE
340
0
  0
BLOCK_RECORD
  5
8421
330
8370
100
AcDbSymbolTableRecord
100
AcDbBlockTableRecord
  2
*D26
340
0
  0
BLOCK_RECORD
  5
8423
330
8370
100
AcDbSymbolTableRecord
100
AcDbBlockTableRecord
  2
*D27
340
0
  0
BLOCK_RECORD
  5
8426
330
8370
100
AcDbSymbolTableRecord
100
AcDbBlockTableRecord
  2
*D28
340
0
  0
BLOCK_RECORD
  5
8433
330
8370
100
AcDbSymbolTableRecord
100
AcDbBlockTableRecord
  2
*D29
340
0
  0
BLOCK_RECORD
  5
8440
330
8370
100
AcDbSymbolTableRecord
100
AcDbBlockTableRecord
  2
*D30
340
0
  0
BLOCK_RECORD
  5
844D
330
8370
100
AcDbSymbolTableRecord
100
AcDbBlockTableRecord
  2
*D31
340
0
  0
BLOCK_RECORD
  5
8458
330
8370
100
AcDbSymbolTableRecord
100
AcDbBlockTableRecord
  2
*D32
340
0
  0
BLOCK_RECORD
  5
8465
330
8370
100
AcDbSymbolTableRecord
100
AcDbBlockTableRecord
  2
*D33
340
0
  0
BLOCK_RECORD
  5
8472
330
8370
100
AcDbSymbolTableRecord
100
AcDbBlockTableRecord
  2
*D34
340
0
  0
BLOCK_RECORD
  5
847F
330
8370
100
AcDbSymbolTableRecord
100
AcDbBlockTableRecord
  2
*D35
340
0
  0
BLOCK_RECORD
  5
848C
330
8370
100
AcDbSymbolTableRecord
100
AcDbBlockTableRecord
  2
*D36
340
0
  0
BLOCK_RECORD
  5
84A1
330
8370
100
AcDbSymbolTableRecord
100
AcDbBlockTableRecord
  2
*D37
340
0
  0
BLOCK_RECORD
  5
84C3
330
8370
100
AcDbSymbolTableRecord
100
AcDbBlockTableRecord
  2
*D38
340
0
  0
BLOCK_RECORD
  5
84D0
330
8370
100
AcDbSymbolTableRecord
100
AcDbBlockTableRecord
  2
*D39
340
0
  0
BLOCK_RECORD
  5
84DD
330
8370
100
AcDbSymbolTableRecord
100
AcDbBlockTableRecord
  2
*D40
340
0
  0
BLOCK_RECORD
  5
84EA
330
8370
100
AcDbSymbolTableRecord
100
AcDbBlockTableRecord
  2
*D41
340
0
  0
BLOCK_RECORD
  5
84F7
330
8370
100
AcDbSymbolTableRecord
100
AcDbBlockTableRecord
  2
*D42
340
0
  0
BLOCK_RECORD
  5
854C
330
8370
100
AcDbSymbolTableRecord
100
AcDbBlockTableRecord
  2
*D43
340
0
  0
BLOCK_RECORD
  5
8559
330
8370
100
AcDbSymbolTableRecord
100
AcDbBlockTableRecord
  2
*D44
340
0
  0
BLOCK_RECORD
  5
8566
330
8370
100
AcDbSymbolTableRecord
100
AcDbBlockTableRecord
  2
*D45
340
0
  0
BLOCK_RECORD
  5
8573
330
8370
100
AcDbSymbolTableRecord
100
AcDbBlockTableRecord
  2
*D46
340
0
  0
BLOCK_RECORD
  5
8580
330
8370
100
AcDbSymbolTableRecord
100
AcDbBlockTableRecord
  2
*D47
340
0
  0
BLOCK_RECORD
  5
858D
330
8370
100
AcDbSymbolTableRecord
100
AcDbBlockTableRecord
  2
*D48
340
0
  0
BLOCK_RECORD
  5
859A
330
8370
100
AcDbSymbolTableRecord
100
AcDbBlockTableRecord
  2
*D49
340
0
  0
BLOCK_RECORD
  5
85A7
330
8370
100
AcDbSymbolTableRecord
100
AcDbBlockTableRecord
  2
*D50
340
0
  0
BLOCK_RECORD
  5
85B4
330
8370
100
AcDbSymbolTableRecord
100
AcDbBlockTableRecord
  2
*D51
340
0
  0
BLOCK_RECORD
  5
85C1
330
8370
100
AcDbSymbolTableRecord
100
AcDbBlockTableRecord
  2
*D52
340
0
  0
BLOCK_RECORD
  5
85CE
330
8370
100
AcDbSymbolTableRecord
100
AcDbBlockTableRecord
  2
*D53
340
0
  0
BLOCK_RECORD
  5
85DB
330
8370
100
AcDbSymbolTableRecord
100
AcDbBlockTableRecord
  2
*D54
340
0
  0
BLOCK_RECORD
  5
85E8
330
8370
100
AcDbSymbolTableRecord
100
AcDbBlockTableRecord
  2
*D55
340
0
  0
BLOCK_RECORD
  5
85F5
330
8370
100
AcDbSymbolTableRecord
100
AcDbBlockTableRecord
  2
*D56
340
0
  0
BLOCK_RECORD
  5
8607
330
8370
100
AcDbSymbolTableRecord
100
AcDbBlockTableRecord
  2
*D57
340
0
  0
BLOCK_RECORD
  5
8619
330
8370
100
AcDbSymbolTableRecord
100
AcDbBlockTableRecord
  2
*D58
340
0
  0
BLOCK_RECORD
  5
86C4
330
8370
100
AcDbSymbolTableRecord
100
AcDbBlockTableRecord
  2
_DotSmall
340
0
102
{BLKREFS
331
86D2
331
872A
102
}
  0
ENDTAB
  0
ENDSEC
  0
SECTION
  2
BLOCKS
  0
BLOCK
  5
83DF
330
83DE
100
AcDbEntity
  8
0
100
AcDbBlockBegin
  2
*Model_Space
 70
     0
 10
0.0
 20
0.0
 30
0.0
  3
*Model_Space
  1

  0
ENDBLK
  5
83E0
330
83DE
100
AcDbEntity
  8
0
100
AcDbBlockEnd
  0
BLOCK
  5
83DB
330
83DA
100
AcDbEntity
 67
     1
  8
0
100
AcDbBlockBegin
  2
*Paper_Space
 70
     0
 10
0.0
 20
0.0
 30
0.0
  3
*Paper_Space
  1

  0
ENDBLK
  5
83DC
330
83DA
100
AcDbEntity
 67
     1
  8
0
100
AcDbBlockEnd
  0
BLOCK
  5
83EE
330
83ED
100
AcDbEntity
  8
0
100
AcDbBlockBegin
  2
$MODEL_SPACE
 70
     0
 10
0.0
 20
0.0
 30
0.0
  3
$MODEL_SPACE
  1

  0
ENDBLK
  5
1B
330
83ED
100
AcDbEntity
  8
0
100
AcDbBlockEnd
  0
BLOCK
  5
83F0
330
83EF
100
AcDbEntity
  8
0
100
AcDbBlockBegin
  2
$PAPER_SPACE
 70
     0
 10
0.0
 20
0.0
 30
0.0
  3
$PAPER_SPACE
  1

  0
ENDBLK
  5
18
330
83EF
100
AcDbEntity
  8
0
100
AcDbBlockEnd
  0
BLOCK
  5
83F2
330
83F1
100
AcDbEntity
  8
0
100
AcDbBlockBegin
  2
_OPEN
 70
     0
 10
0.0
 20
0.0
 30
0.0
  3
_OPEN
  1

  0
LINE
  5
79FD
330
83F1
100
AcDbEntity
  8
0
  6
ByBlock
 62
     0
100
AcDbLine
 10
-1.0
 20
0.1666666666666666
 30
0.0
 11
0.0
 21
0.0
 31
0.0
  0
LINE
  5
79FE
330
83F1
100
AcDbEntity
  8
0
  6
ByBlock
 62
     0
100
AcDbLine
 10
0.0
 20
0.0
 30
0.0
 11
-1.0
 21
-0.1666666666666666
 31
0.0
  0
LINE
  5
79FF
330
83F1
100
AcDbEntity
  8
0
  6
ByBlock
 62
     0
100
AcDbLine
 10
0.0
 20
0.0
 30
0.0
 11
-1.0
 21
0.0
 31
0.0
  0
ENDBLK
  5
7A01
330
83F1
100
AcDbEntity
  8
0
100
AcDbBlockEnd
  0
BLOCK
  5
83F4
330
83F3
100
AcDbEntity
  8
0
100
AcDbBlockBegin
  2
YA_N
 70
     0
 10
0.0
 20
0.0
 30
0.0
  3
YA_N
  1

  0
ENDBLK
  5
7A0C
330
83F3
100
AcDbEntity
  8
0
100
AcDbBlockEnd
  0
BLOCK
  5
83F6
330
83F5
100
AcDbEntity
  8
0
100
AcDbBlockBegin
  2
*D4
 70
     1
 10
0.0
 20
0.0
 30
0.0
  3
*D4
  1

  0
LINE
  5
82A2
330
83F5
100
AcDbEntity
  8
3
 62
     0
100
AcDbLine
 10
1238.826826817035
 20
4205.824713053003
 30
0.0
 11
1238.826826817035
 21
4423.433029337269
 31
0.0
  0
LINE
  5
82A3
330
83F5
100
AcDbEntity
  8
3
 62
     0
100
AcDbLine
 10
2388.826826817036
 20
4205.824713053003
 30
0.0
 11
2388.826826817036
 21
4423.433029337269
 31
0.0
  0
LINE
  5
82A4
330
83F5
100
AcDbEntity
  8
3
 62
     0
100
AcDbLine
 10
1308.826826817035
 20
4388.433029337271
 30
0.0
 11
2318.826826817035
 21
4388.433029337271
 31
0.0
  0
INSERT
  5
82A5
330
83F5
100
AcDbEntity
  8
3
 62
     0
100
AcDbBlockReference
  2
_OPEN
 10
1238.826826817035
 20
4388.433029337271
 30
0.0
 41
70.0
 42
70.0
 43
70.0
 50
180.0
  0
INSERT
  5
82A6
330
83F5
100
AcDbEntity
  8
3
 62
     0
100
AcDbBlockReference
  2
_OPEN
 10
2388.826826817036
 20
4388.433029337271
 30
0.0
 41
70.0
 42
70.0
 43
70.0
  0
TEXT
  5
835B
330
83F5
100
AcDbEntity
  8
3
 62
     0
100
AcDbText
 10
1603.83
 20
4290.079999999999
 30
0.0
 40
105.0
  1
1150
100
AcDbText
  0
POINT
  5
82A8
330
83F5
100
AcDbEntity
  8
DEFPOINTS
 62
     0
100
AcDbPoint
 10
1238.826826817035
 20
4188.324713053003
 30
0.0
  0
POINT
  5
82A9
330
83F5
100
AcDbEntity
  8
DEFPOINTS
 62
     0
100
AcDbPoint
 10
2388.826826817036
 20
4188.324713053003
 30
0.0
  0
POINT
  5
82AA
330
83F5
100
AcDbEntity
  8
DEFPOINTS
 62
     0
100
AcDbPoint
 10
2388.826826817036
 20
4388.433029337271
 30
0.0
  0
ENDBLK
  5
7F65
330
83F5
100
AcDbEntity
  8
0
100
AcDbBlockEnd
  0
BLOCK
  5
83F8
330
83F7
100
AcDbEntity
  8
0
100
AcDbBlockBegin
  2
*D5
 70
     1
 10
0.0
 20
0.0
 30
0.0
  3
*D5
  1

  0
LINE
  5
82AB
330
83F7
100
AcDbEntity
  8
3
 62
     0
100
AcDbLine
 10
1238.826826817035
 20
4205.824713053003
 30
0.0
 11
1238.826826817035
 21
4623.584680198772
 31
0.0
  0
LINE
  5
82AC
330
83F7
100
AcDbEntity
  8
3
 62
     0
100
AcDbLine
 10
2436.826826817036
 20
4291.663713951737
 30
0.0
 11
2436.826826817036
 21
4623.584680198772
 31
0.0
  0
LINE
  5
82AD
330
83F7
100
AcDbEntity
  8
3
 62
     0
100
AcDbLine
 10
1308.826826817035
 20
4588.58468019877
 30
0.0
 11
2366.826826817035
 21
4588.58468019877
 31
0.0
  0
INSERT
  5
82AE
330
83F7
100
AcDbEntity
  8
3
 62
     0
100
AcDbBlockReference
  2
_OPEN
 10
1238.826826817035
 20
4588.58468019877
 30
0.0
 41
70.0
 42
70.0
 43
70.0
 50
180.0
  0
INSERT
  5
82AF
330
83F7
100
AcDbEntity
  8
3
 62
     0
100
AcDbBlockReference
  2
_OPEN
 10
2436.826826817036
 20
4588.58468019877
 30
0.0
 41
70.0
 42
70.0
 43
70.0
  0
TEXT
  5
835C
330
83F7
100
AcDbEntity
  8
3
 62
     0
100
AcDbText
 10
1627.83
 20
4490.229999999999
 30
0.0
 40
105.0
  1
1198
100
AcDbText
  0
POINT
  5
82B1
330
83F7
100
AcDbEntity
  8
DEFPOINTS
 62
     0
100
AcDbPoint
 10
1238.826826817035
 20
4188.324713053003
 30
0.0
  0
POINT
  5
82B2
330
83F7
100
AcDbEntity
  8
DEFPOINTS
 62
     0
100
AcDbPoint
 10
2436.826826817036
 20
4274.163713951737
 30
0.0
  0
POINT
  5
82B3
330
83F7
100
AcDbEntity
  8
DEFPOINTS
 62
     0
100
AcDbPoint
 10
2436.826826817036
 20
4588.58468019877
 30
0.0
  0
ENDBLK
  5
7F5A
330
83F7
100
AcDbEntity
  8
0
100
AcDbBlockEnd
  0
BLOCK
  5
83FA
330
83F9
100
AcDbEntity
  8
0
100
AcDbBlockBegin
  2
*D6
 70
     1
 10
0.0
 20
0.0
 30
0.0
  3
*D6
  1

  0
LINE
  5
82B4
330
83F9
100
AcDbEntity
  8
3
 62
     0
100
AcDbLine
 10
3096.826826817036
 20
2220.824713053003
 30
0.0
 11
3096.826826817036
 21
1943.450225277922
 31
0.0
  0
LINE
  5
82B5
330
83F9
100
AcDbEntity
  8
3
 62
     0
100
AcDbLine
 10
2436.826826817036
 20
2220.824713053003
 30
0.0
 11
2436.826826817036
 21
1943.450225277922
 31
0.0
  0
LINE
  5
82B6
330
83F9
100
AcDbEntity
  8
3
 62
     0
100
AcDbLine
 10
3026.826826817035
 20
1978.450225277922
 30
0.0
 11
2506.826826817036
 21
1978.450225277922
 31
0.0
  0
INSERT
  5
82B7
330
83F9
100
AcDbEntity
  8
3
 62
     0
100
AcDbBlockReference
  2
_OPEN
 10
3096.826826817036
 20
1978.450225277922
 30
0.0
 41
70.0
 42
70.0
 43
70.0
  0
INSERT
  5
82B8
330
83F9
100
AcDbEntity
  8
3
 62
     0
100
AcDbBlockReference
  2
_OPEN
 10
2436.826826817036
 20
1978.450225277922
 30
0.0
 41
70.0
 42
70.0
 43
70.0
 50
180.0
  0
TEXT
  5
835D
330
83F9
100
AcDbEntity
  8
3
 62
     0
100
AcDbText
 10
2556.83
 20
1880.1
 30
0.0
 40
105.0
  1
660
100
AcDbText
  0
POINT
  5
82BA
330
83F9
100
AcDbEntity
  8
DEFPOINTS
 62
     0
100
AcDbPoint
 10
3096.826826817036
 20
2238.324713053003
 30
0.0
  0
POINT
  5
82BB
330
83F9
100
AcDbEntity
  8
DEFPOINTS
 62
     0
100
AcDbPoint
 10
2436.826826817036
 20
2238.324713053003
 30
0.0
  0
POINT
  5
82BC
330
83F9
100
AcDbEntity
  8
DEFPOINTS
 62
     0
100
AcDbPoint
 10
2436.826826817036
 20
1978.450225277922
 30
0.0
  0
ENDBLK
  5
80E4
330
83F9
100
AcDbEntity
  8
0
100
AcDbBlockEnd
  0
BLOCK
  5
83FC
330
83FB
100
AcDbEntity
  8
0
100
AcDbBlockBegin
  2
*D7
 70
     1
 10
0.0
 20
0.0
 30
0.0
  3
*D7
  1

  0
LINE
  5
82BD
330
83FB
100
AcDbEntity
  8
3
 62
     0
100
AcDbLine
 10
4706.51705109929
 20
4201.164986255099
 30
0.0
 11
4706.51705109929
 21
4483.443004574665
 31
0.0
  0
LINE
  5
82BE
330
83FB
100
AcDbEntity
  8
3
 62
     0
100
AcDbLine
 10
6206.517051099289
 20
4195.316049593485
 30
0.0
 11
6206.517051099289
 21
4483.443004574665
 31
0.0
  0
LINE
  5
82BF
330
83FB
100
AcDbEntity
  8
3
 62
     0
100
AcDbLine
 10
4776.51705109929
 20
4448.443004574665
 30
0.0
 11
6136.517051099289
 21
4448.443004574665
 31
0.0
  0
INSERT
  5
82C0
330
83FB
100
AcDbEntity
  8
3
 62
     0
100
AcDbBlockReference
  2
_OPEN
 10
4706.51705109929
 20
4448.443004574665
 30
0.0
 41
70.0
 42
70.0
 43
70.0
 50
180.0
  0
INSERT
  5
82C1
330
83FB
100
AcDbEntity
  8
3
 62
     0
100
AcDbBlockReference
  2
_OPEN
 10
6206.517051099289
 20
4448.443004574665
 30
0.0
 41
70.0
 42
70.0
 43
70.0
  0
TEXT
  5
835E
330
83FB
100
AcDbEntity
  8
3
 62
     0
100
AcDbText
 10
5246.52
 20
4350.09
 30
0.0
 40
105.0
  1
1500
100
AcDbText
  0
POINT
  5
82C3
330
83FB
100
AcDbEntity
  8
DEFPOINTS
 62
     0
100
AcDbPoint
 10
4706.51705109929
 20
4183.664986255098
 30
0.0
  0
POINT
  5
82C4
330
83FB
100
AcDbEntity
  8
DEFPOINTS
 62
     0
100
AcDbPoint
 10
6206.517051099289
 20
4177.816049593485
 30
0.0
  0
POINT
  5
82C5
330
83FB
100
AcDbEntity
  8
DEFPOINTS
 62
     0
100
AcDbPoint
 10
6206.517051099289
 20
4448.443004574665
 30
0.0
  0
ENDBLK
  5
8019
330
83FB
100
AcDbEntity
  8
0
100
AcDbBlockEnd
  0
BLOCK
  5
83FE
330
83FD
100
AcDbEntity
  8
0
100
AcDbBlockBegin
  2
*D8
 70
     1
 10
0.0
 20
0.0
 30
0.0
  3
*D8
  1

  0
LINE
  5
82C6
330
83FD
100
AcDbEntity
  8
3
 62
     0
100
AcDbLine
 10
5456.517051099289
 20
4632.420770395445
 30
0.0
 11
5456.517051099289
 21
4714.226996529467
 31
0.0
  0
LINE
  5
82C7
330
83FD
100
AcDbEntity
  8
3
 62
     0
100
AcDbLine
 10
6371.517051099289
 20
3358.864190158198
 30
0.0
 11
6371.517051099289
 21
4714.226996529467
 31
0.0
  0
LINE
  5
82C8
330
83FD
100
AcDbEntity
  8
3
 62
     0
100
AcDbLine
 10
5526.51705109929
 20
4679.226996529467
 30
0.0
 11
6301.517051099287
 21
4679.226996529467
 31
0.0
  0
INSERT
  5
82C9
330
83FD
100
AcDbEntity
  8
3
 62
     0
100
AcDbBlockReference
  2
_OPEN
 10
5456.517051099289
 20
4679.226996529467
 30
0.0
 41
70.0
 42
70.0
 43
70.0
 50
180.0
  0
INSERT
  5
82CA
330
83FD
100
AcDbEntity
  8
3
 62
     0
100
AcDbBlockReference
  2
_OPEN
 10
6371.517051099289
 20
4679.226996529467
 30
0.0
 41
70.0
 42
70.0
 43
70.0
  0
TEXT
  5
835F
330
83FD
100
AcDbEntity
  8
3
 62
     0
100
AcDbText
 10
5704.02
 20
4608.38
 30
0.0
 40
105.0
  1
(930)
100
AcDbText
  0
POINT
  5
82CC
330
83FD
100
AcDbEntity
  8
DEFPOINTS
 62
     0
100
AcDbPoint
 10
5456.517051099289
 20
4614.920770395445
 30
0.0
  0
POINT
  5
82CD
330
83FD
100
AcDbEntity
  8
DEFPOINTS
 62
     0
100
AcDbPoint
 10
6371.517051099289
 20
3341.364190158197
 30
0.0
  0
POINT
  5
82CE
330
83FD
100
AcDbEntity
  8
DEFPOINTS
 62
     0
100
AcDbPoint
 10
6371.517051099289
 20
4679.226996529467
 30
0.0
  0
ENDBLK
  5
811B
330
83FD
100
AcDbEntity
  8
0
100
AcDbBlockEnd
  0
BLOCK
  5
8400
330
83FF
100
AcDbEntity
  8
0
100
AcDbBlockBegin
  2
*D9
 70
     1
 10
0.0
 20
0.0
 30
0.0
  3
*D9
  1

  0
LINE
  5
82CF
330
83FF
100
AcDbEntity
  8
3
 62
     0
100
AcDbLine
 10
6229.517051099293
 20
2868.324713053003
 30
0.0
 11
6609.299817454804
 21
2868.324713053003
 31
0.0
  0
LINE
  5
82D0
330
83FF
100
AcDbEntity
  8
3
 62
     0
100
AcDbLine
 10
6229.517051099293
 20
3988.324713053003
 30
0.0
 11
6609.299817454804
 21
3988.324713053003
 31
0.0
  0
LINE
  5
82D1
330
83FF
100
AcDbEntity
  8
3
 62
     0
100
AcDbLine
 10
6574.299817454805
 20
2938.324713053003
 30
0.0
 11
6574.299817454805
 21
3918.324713053003
 31
0.0
  0
INSERT
  5
82D2
330
83FF
100
AcDbEntity
  8
3
 62
     0
100
AcDbBlockReference
  2
_OPEN
 10
6574.299817454805
 20
2868.324713053003
 30
0.0
 41
70.0
 42
70.0
 43
70.0
 50
270.0
  0
INSERT
  5
82D3
330
83FF
100
AcDbEntity
  8
3
 62
     0
100
AcDbBlockReference
  2
_OPEN
 10
6574.299817454805
 20
3988.324713053003
 30
0.0
 41
70.0
 42
70.0
 43
70.0
 50
90.0
  0
TEXT
  5
8360
330
83FF
100
AcDbEntity
  8
3
 62
     0
100
AcDbText
 10
6276.8
 20
3242.47
 30
0.0
 40
105.0
  1
\U+03C61120
100
AcDbText
  0
POINT
  5
82D5
330
83FF
100
AcDbEntity
  8
DEFPOINTS
 62
     0
100
AcDbPoint
 10
6212.017051099293
 20
2868.324713053003
 30
0.0
  0
POINT
  5
82D6
330
83FF
100
AcDbEntity
  8
DEFPOINTS
 62
     0
100
AcDbPoint
 10
6212.017051099293
 20
3988.324713053003
 30
0.0
  0
POINT
  5
82D7
330
83FF
100
AcDbEntity
  8
DEFPOINTS
 62
     0
100
AcDbPoint
 10
6574.299817454805
 20
3988.324713053003
 30
0.0
  0
ENDBLK
  5
7FF8
330
83FF
100
AcDbEntity
  8
0
100
AcDbBlockEnd
  0
BLOCK
  5
8402
330
8401
100
AcDbEntity
  8
0
100
AcDbBlockBegin
  2
*D10
 70
     1
 10
0.0
 20
0.0
 30
0.0
  3
*D10
  1

  0
LINE
  5
82D8
330
8401
100
AcDbEntity
  8
3
 62
     0
100
AcDbLine
 10
5456.51705109929
 20
2220.824713053003
 30
0.0
 11
5456.51705109929
 21
1931.885317261793
 31
0.0
  0
LINE
  5
82D9
330
8401
100
AcDbEntity
  8
3
 62
     0
100
AcDbLine
 10
6274.51705109927
 20
2220.824713053003
 30
0.0
 11
6274.51705109927
 21
1931.885317261793
 31
0.0
  0
LINE
  5
82DA
330
8401
100
AcDbEntity
  8
3
 62
     0
100
AcDbLine
 10
5526.51705109929
 20
1966.885317261793
 30
0.0
 11
6204.517051099268
 21
1966.885317261793
 31
0.0
  0
INSERT
  5
82DB
330
8401
100
AcDbEntity
  8
3
 62
     0
100
AcDbBlockReference
  2
_OPEN
 10
5456.51705109929
 20
1966.885317261793
 30
0.0
 41
70.0
 42
70.0
 43
70.0
 50
180.0
  0
INSERT
  5
82DC
330
8401
100
AcDbEntity
  8
3
 62
     0
100
AcDbBlockReference
  2
_OPEN
 10
6274.51705109927
 20
1966.885317261793
 30
0.0
 41
70.0
 42
70.0
 43
70.0
  0
TEXT
  5
8361
330
8401
100
AcDbEntity
  8
3
 62
     0
100
AcDbText
 10
5655.52
 20
1868.54
 30
0.0
 40
105.0
  1
818
100
AcDbText
  0
POINT
  5
82DE
330
8401
100
AcDbEntity
  8
DEFPOINTS
 62
     0
100
AcDbPoint
 10
5456.51705109929
 20
2238.324713053003
 30
0.0
  0
POINT
  5
82DF
330
8401
100
AcDbEntity
  8
DEFPOINTS
 62
     0
100
AcDbPoint
 10
6274.51705109927
 20
2238.324713053003
 30
0.0
  0
POINT
  5
82E0
330
8401
100
AcDbEntity
  8
DEFPOINTS
 62
     0
100
AcDbPoint
 10
6274.51705109927
 20
1966.885317261793
 30
0.0
  0
ENDBLK
  5
80EF
330
8401
100
AcDbEntity
  8
0
100
AcDbBlockEnd
  0
BLOCK
  5
8404
330
8403
100
AcDbEntity
  8
0
100
AcDbBlockBegin
  2
*D11
 70
     1
 10
0.0
 20
0.0
 30
0.0
  3
*D11
  1

  0
LINE
  5
82E1
330
8403
100
AcDbEntity
  8
3
 62
     0
100
AcDbLine
 10
836.8268268170357
 20
2220.824713053003
 30
0.0
 11
836.8268268170357
 21
1944.307229117808
 31
0.0
  0
LINE
  5
82E2
330
8403
100
AcDbEntity
  8
3
 62
     0
100
AcDbLine
 10
2436.826826817036
 20
2220.824713053003
 30
0.0
 11
2436.826826817036
 21
1944.307229117808
 31
0.0
  0
LINE
  5
82E3
330
8403
100
AcDbEntity
  8
3
 62
     0
100
AcDbLine
 10
906.8268268170356
 20
1979.307229117808
 30
0.0
 11
2366.826826817035
 21
1979.307229117808
 31
0.0
  0
INSERT
  5
82E4
330
8403
100
AcDbEntity
  8
3
 62
     0
100
AcDbBlockReference
  2
_OPEN
 10
836.8268268170357
 20
1979.307229117808
 30
0.0
 41
70.0
 42
70.0
 43
70.0
 50
180.0
  0
INSERT
  5
82E5
330
8403
100
AcDbEntity
  8
3
 62
     0
100
AcDbBlockReference
  2
_OPEN
 10
2436.826826817036
 20
1979.307229117808
 30
0.0
 41
70.0
 42
70.0
 43
70.0
  0
TEXT
  5
8362
330
8403
100
AcDbEntity
  8
3
 62
     0
100
AcDbText
 10
1426.83
 20
1880.96
 30
0.0
 40
105.0
  1
1600
100
AcDbText
  0
POINT
  5
82E7
330
8403
100
AcDbEntity
  8
DEFPOINTS
 62
     0
100
AcDbPoint
 10
836.8268268170357
 20
2238.324713053003
 30
0.0
  0
POINT
  5
82E8
330
8403
100
AcDbEntity
  8
DEFPOINTS
 62
     0
100
AcDbPoint
 10
2436.826826817036
 20
2238.324713053003
 30
0.0
  0
POINT
  5
82E9
330
8403
100
AcDbEntity
  8
DEFPOINTS
 62
     0
100
AcDbPoint
 10
2436.826826817036
 20
1979.307229117808
 30
0.0
  0
ENDBLK
  5
80D9
330
8403
100
AcDbEntity
  8
0
100
AcDbBlockEnd
  0
BLOCK
  5
8406
330
8405
100
AcDbEntity
  8
0
100
AcDbBlockBegin
  2
*D12
 70
     1
 10
0.0
 20
0.0
 30
0.0
  3
*D12
  1

  0
LINE
  5
82EA
330
8405
100
AcDbEntity
  8
3
 62
     0
100
AcDbLine
 10
4333.817051099289
 20
3825.824713053004
 30
0.0
 11
4333.817051099289
 21
4713.210345261056
 31
0.0
  0
LINE
  5
82EB
330
8405
100
AcDbEntity
  8
3
 62
     0
100
AcDbLine
 10
5456.517051099289
 20
4632.420770395445
 30
0.0
 11
5456.517051099289
 21
4713.210345261056
 31
0.0
  0
LINE
  5
82EC
330
8405
100
AcDbEntity
  8
3
 62
     0
100
AcDbLine
 10
4403.817051099291
 20
4678.210345261056
 30
0.0
 11
5386.517051099289
 21
4678.210345261056
 31
0.0
  0
INSERT
  5
82ED
330
8405
100
AcDbEntity
  8
3
 62
     0
100
AcDbBlockReference
  2
_OPEN
 10
4333.817051099289
 20
4678.210345261056
 30
0.0
 41
70.0
 42
70.0
 43
70.0
 50
180.0
  0
INSERT
  5
82EE
330
8405
100
AcDbEntity
  8
3
 62
     0
100
AcDbBlockReference
  2
_OPEN
 10
5456.517051099289
 20
4678.210345261056
 30
0.0
 41
70.0
 42
70.0
 43
70.0
  0
TEXT
  5
8363
330
8405
100
AcDbEntity
  8
3
 62
     0
100
AcDbText
 10
4685.17
 20
4667.36
 30
0.0
 40
105.0
  1
MAX
100
AcDbText
  0
TEXT
  5
8364
330
8405
100
AcDbEntity
  8
3
 62
     0
100
AcDbText
 10
4685.17
 20
4530.859999999999
 30
0.0
 40
105.0
  1
1120
100
AcDbText
  0
POINT
  5
82F0
330
8405
100
AcDbEntity
  8
DEFPOINTS
 62
     0
100
AcDbPoint
 10
4333.817051099289
 20
3808.324713053004
 30
0.0
  0
POINT
  5
82F1
330
8405
100
AcDbEntity
  8
DEFPOINTS
 62
     0
100
AcDbPoint
 10
5456.517051099289
 20
4614.920770395445
 30
0.0
  0
POINT
  5
82F2
330
8405
100
AcDbEntity
  8
DEFPOINTS
 62
     0
100
AcDbPoint
 10
5456.517051099289
 20
4678.210345261056
 30
0.0
  0
ENDBLK
  5
8126
330
8405
100
AcDbEntity
  8
0
100
AcDbBlockEnd
  0
BLOCK
  5
8408
330
8407
100
AcDbEntity
  8
0
100
AcDbBlockBegin
  2
*D13
 70
     1
 10
0.0
 20
0.0
 30
0.0
  3
*D13
  1

  0
LINE
  5
82F3
330
8407
100
AcDbEntity
  8
3
 62
     0
100
AcDbLine
 10
1776.826826817035
 20
7668.223803734342
 30
0.0
 11
1776.826826817035
 21
7859.731164205459
 31
0.0
  0
LINE
  5
82F4
330
8407
100
AcDbEntity
  8
3
 62
     0
100
AcDbLine
 10
3096.826826817036
 20
7668.223803734344
 30
0.0
 11
3096.826826817036
 21
7859.731164205459
 31
0.0
  0
LINE
  5
82F5
330
8407
100
AcDbEntity
  8
3
 62
     0
100
AcDbLine
 10
1846.826826817036
 20
7824.731164205461
 30
0.0
 11
3026.826826817035
 21
7824.731164205461
 31
0.0
  0
INSERT
  5
82F6
330
8407
100
AcDbEntity
  8
3
 62
     0
100
AcDbBlockReference
  2
_OPEN
 10
1776.826826817035
 20
7824.731164205461
 30
0.0
 41
70.0
 42
70.0
 43
70.0
 50
180.0
  0
INSERT
  5
82F7
330
8407
100
AcDbEntity
  8
3
 62
     0
100
AcDbBlockReference
  2
_OPEN
 10
3096.826826817036
 20
7824.731164205461
 30
0.0
 41
70.0
 42
70.0
 43
70.0
  0
TEXT
  5
8365
330
8407
100
AcDbEntity
  8
3
 62
     0
100
AcDbText
 10
2226.83
 20
7726.38
 30
0.0
 40
105.0
  1
1320
100
AcDbText
  0
POINT
  5
82F9
330
8407
100
AcDbEntity
  8
DEFPOINTS
 62
     0
100
AcDbPoint
 10
1776.826826817035
 20
7650.723803734343
 30
0.0
  0
POINT
  5
82FA
330
8407
100
AcDbEntity
  8
DEFPOINTS
 62
     0
100
AcDbPoint
 10
3096.826826817036
 20
7650.723803734343
 30
0.0
  0
POINT
  5
82FB
330
8407
100
AcDbEntity
  8
DEFPOINTS
 62
     0
100
AcDbPoint
 10
3096.826826817036
 20
7824.731164205461
 30
0.0
  0
ENDBLK
  5
7F2E
330
8407
100
AcDbEntity
  8
0
100
AcDbBlockEnd
  0
BLOCK
  5
840A
330
8409
100
AcDbEntity
  8
0
100
AcDbBlockBegin
  2
*D14
 70
     1
 10
0.0
 20
0.0
 30
0.0
  3
*D14
  1

  0
LINE
  5
82FC
330
8409
100
AcDbEntity
  8
3
 62
     0
100
AcDbLine
 10
819.3268268170358
 20
6650.72380373434
 30
0.0
 11
586.0116974813247
 21
6650.72380373434
 31
0.0
  0
LINE
  5
82FD
330
8409
100
AcDbEntity
  8
3
 62
     0
100
AcDbLine
 10
819.3268268170358
 20
5750.723803734341
 30
0.0
 11
586.0116974813244
 21
5750.723803734341
 31
0.0
  0
LINE
  5
82FE
330
8409
100
AcDbEntity
  8
3
 62
     0
100
AcDbLine
 10
621.0116974813247
 20
6580.723803734341
 30
0.0
 11
621.0116974813245
 21
5820.723803734341
 31
0.0
  0
INSERT
  5
82FF
330
8409
100
AcDbEntity
  8
3
 62
     0
100
AcDbBlockReference
  2
_OPEN
 10
621.0116974813247
 20
6650.72380373434
 30
0.0
 41
70.0
 42
70.0
 43
70.0
 50
90.0
  0
INSERT
  5
8300
330
8409
100
AcDbEntity
  8
3
 62
     0
100
AcDbBlockReference
  2
_OPEN
 10
621.0116974813245
 20
5750.723803734341
 30
0.0
 41
70.0
 42
70.0
 43
70.0
 50
270.0
  0
TEXT
  5
8366
330
8409
100
AcDbEntity
  8
3
 62
     0
100
AcDbText
 10
323.512
 20
6014.87
 30
0.0
 40
105.0
  1
900
100
AcDbText
  0
POINT
  5
8302
330
8409
100
AcDbEntity
  8
DEFPOINTS
 62
     0
100
AcDbPoint
 10
836.8268268170357
 20
6650.72380373434
 30
0.0
  0
POINT
  5
8303
330
8409
100
AcDbEntity
  8
DEFPOINTS
 62
     0
100
AcDbPoint
 10
836.8268268170357
 20
5750.723803734341
 30
0.0
  0
POINT
  5
8304
330
8409
100
AcDbEntity
  8
DEFPOINTS
 62
     0
100
AcDbPoint
 10
621.0116974813245
 20
5750.723803734341
 30
0.0
  0
ENDBLK
  5
80B4
330
8409
100
AcDbEntity
  8
0
100
AcDbBlockEnd
  0
BLOCK
  5
840C
330
840B
100
AcDbEntity
  8
0
100
AcDbBlockBegin
  2
*D15
 70
     1
 10
0.0
 20
0.0
 30
0.0
  3
*D15
  1

  0
LINE
  5
8305
330
840B
100
AcDbEntity
  8
3
 62
     0
100
AcDbLine
 10
836.8268268170357
 20
5733.223803734341
 30
0.0
 11
836.8268268170357
 21
5424.478611640394
 31
0.0
  0
LINE
  5
8306
330
840B
100
AcDbEntity
  8
3
 62
     0
100
AcDbLine
 10
3096.826826817036
 20
5733.223803734341
 30
0.0
 11
3096.826826817036
 21
5424.478611640394
 31
0.0
  0
LINE
  5
8307
330
840B
100
AcDbEntity
  8
3
 62
     0
100
AcDbLine
 10
906.8268268170356
 20
5459.478611640394
 30
0.0
 11
3026.826826817035
 21
5459.478611640394
 31
0.0
  0
INSERT
  5
8308
330
840B
100
AcDbEntity
  8
3
 62
     0
100
AcDbBlockReference
  2
_OPEN
 10
836.8268268170357
 20
5459.478611640394
 30
0.0
 41
70.0
 42
70.0
 43
70.0
 50
180.0
  0
INSERT
  5
8309
330
840B
100
AcDbEntity
  8
3
 62
     0
100
AcDbBlockReference
  2
_OPEN
 10
3096.826826817036
 20
5459.478611640394
 30
0.0
 41
70.0
 42
70.0
 43
70.0
  0
TEXT
  5
8367
330
840B
100
AcDbEntity
  8
3
 62
     0
100
AcDbText
 10
1756.83
 20
5361.13
 30
0.0
 40
105.0
  1
2260
100
AcDbText
  0
POINT
  5
830B
330
840B
100
AcDbEntity
  8
DEFPOINTS
 62
     0
100
AcDbPoint
 10
836.8268268170357
 20
5750.723803734341
 30
0.0
  0
POINT
  5
830C
330
840B
100
AcDbEntity
  8
DEFPOINTS
 62
     0
100
AcDbPoint
 10
3096.826826817036
 20
5750.723803734341
 30
0.0
  0
POINT
  5
830D
330
840B
100
AcDbEntity
  8
DEFPOINTS
 62
     0
100
AcDbPoint
 10
3096.826826817036
 20
5459.478611640394
 30
0.0
  0
ENDBLK
  5
7F44
330
840B
100
AcDbEntity
  8
0
100
AcDbBlockEnd
  0
BLOCK
  5
840E
330
840D
100
AcDbEntity
  8
0
100
AcDbBlockBegin
  2
*D16
 70
     1
 10
0.0
 20
0.0
 30
0.0
  3
*D16
  1

  0
LINE
  5
830E
330
840D
100
AcDbEntity
  8
3
 62
     0
100
AcDbLine
 10
3114.326826817036
 20
7650.723803734343
 30
0.0
 11
3612.125907775743
 21
7650.723803734343
 31
0.0
  0
LINE
  5
830F
330
840D
100
AcDbEntity
  8
3
 62
     0
100
AcDbLine
 10
3114.326826817036
 20
5750.723803734341
 30
0.0
 11
3612.125907775742
 21
5750.723803734341
 31
0.0
  0
LINE
  5
8310
330
840D
100
AcDbEntity
  8
3
 62
     0
100
AcDbLine
 10
3577.125907775743
 20
7580.723803734342
 30
0.0
 11
3577.125907775742
 21
5820.723803734342
 31
0.0
  0
INSERT
  5
8311
330
840D
100
AcDbEntity
  8
3
 62
     0
100
AcDbBlockReference
  2
_OPEN
 10
3577.125907775743
 20
7650.723803734343
 30
0.0
 41
70.0
 42
70.0
 43
70.0
 50
90.0
  0
INSERT
  5
8312
330
840D
100
AcDbEntity
  8
3
 62
     0
100
AcDbBlockReference
  2
_OPEN
 10
3577.125907775742
 20
5750.723803734341
 30
0.0
 41
70.0
 42
70.0
 43
70.0
 50
270.0
  0
TEXT
  5
8368
330
840D
100
AcDbEntity
  8
3
 62
     0
100
AcDbText
 10
3279.63
 20
6514.870000000001
 30
0.0
 40
105.0
  1
1900
100
AcDbText
  0
POINT
  5
8314
330
840D
100
AcDbEntity
  8
DEFPOINTS
 62
     0
100
AcDbPoint
 10
3096.826826817036
 20
7650.723803734343
 30
0.0
  0
POINT
  5
8315
330
840D
100
AcDbEntity
  8
DEFPOINTS
 62
     0
100
AcDbPoint
 10
3096.826826817036
 20
5750.723803734341
 30
0.0
  0
POINT
  5
8316
330
840D
100
AcDbEntity
  8
DEFPOINTS
 62
     0
100
AcDbPoint
 10
3577.125907775742
 20
5750.723803734341
 30
0.0
  0
ENDBLK
  5
8131
330
840D
100
AcDbEntity
  8
0
100
AcDbBlockEnd
  0
BLOCK
  5
8410
330
840F
100
AcDbEntity
  8
0
100
AcDbBlockBegin
  2
*D17
 70
     1
 10
0.0
 20
0.0
 30
0.0
  3
*D17
  1

  0
LINE
  5
8317
330
840F
100
AcDbEntity
  8
3
 62
     0
100
AcDbLine
 10
836.8268268170357
 20
6668.223803734341
 30
0.0
 11
836.8268268170361
 21
7859.731164205459
 31
0.0
  0
LINE
  5
8318
330
840F
100
AcDbEntity
  8
3
 62
     0
100
AcDbLine
 10
1776.826826817035
 20
7668.223803734341
 30
0.0
 11
1776.826826817035
 21
7859.731164205459
 31
0.0
  0
LINE
  5
8319
330
840F
100
AcDbEntity
  8
3
 62
     0
100
AcDbLine
 10
906.826826817036
 20
7824.731164205461
 30
0.0
 11
1706.826826817036
 21
7824.731164205461
 31
0.0
  0
INSERT
  5
831A
330
840F
100
AcDbEntity
  8
3
 62
     0
100
AcDbBlockReference
  2
_OPEN
 10
836.8268268170361
 20
7824.731164205461
 30
0.0
 41
70.0
 42
70.0
 43
70.0
 50
180.0
  0
INSERT
  5
831B
330
840F
100
AcDbEntity
  8
3
 62
     0
100
AcDbBlockReference
  2
_OPEN
 10
1776.826826817035
 20
7824.731164205461
 30
0.0
 41
70.0
 42
70.0
 43
70.0
  0
TEXT
  5
8369
330
840F
100
AcDbEntity
  8
3
 62
     0
100
AcDbText
 10
1096.83
 20
7726.38
 30
0.0
 40
105.0
  1
940
100
AcDbText
  0
POINT
  5
831D
330
840F
100
AcDbEntity
  8
DEFPOINTS
 62
     0
100
AcDbPoint
 10
836.8268268170357
 20
6650.72380373434
 30
0.0
  0
POINT
  5
831E
330
840F
100
AcDbEntity
  8
DEFPOINTS
 62
     0
100
AcDbPoint
 10
1776.826826817035
 20
7650.723803734341
 30
0.0
  0
POINT
  5
831F
330
840F
100
AcDbEntity
  8
DEFPOINTS
 62
     0
100
AcDbPoint
 10
1776.826826817035
 20
7824.731164205461
 30
0.0
  0
ENDBLK
  5
7F23
330
840F
100
AcDbEntity
  8
0
100
AcDbBlockEnd
  0
BLOCK
  5
8412
330
8411
100
AcDbEntity
  8
0
100
AcDbBlockBegin
  2
*D18
 70
     1
 10
0.0
 20
0.0
 30
0.0
  3
*D18
  1

  0
LINE
  5
8320
330
8411
100
AcDbEntity
  8
3
 62
     0
100
AcDbLine
 10
4374.517051099278
 20
2220.824713053003
 30
0.0
 11
4374.517051099278
 21
1932.46907111784
 31
0.0
  0
LINE
  5
8321
330
8411
100
AcDbEntity
  8
3
 62
     0
100
AcDbLine
 10
5456.51705109929
 20
2220.824713053003
 30
0.0
 11
5456.51705109929
 21
1932.46907111784
 31
0.0
  0
LINE
  5
8322
330
8411
100
AcDbEntity
  8
3
 62
     0
100
AcDbLine
 10
4444.517051099278
 20
1967.469071117841
 30
0.0
 11
5386.51705109929
 21
1967.469071117841
 31
0.0
  0
INSERT
  5
8323
330
8411
100
AcDbEntity
  8
3
 62
     0
100
AcDbBlockReference
  2
_OPEN
 10
4374.517051099278
 20
1967.469071117841
 30
0.0
 41
70.0
 42
70.0
 43
70.0
 50
180.0
  0
INSERT
  5
8324
330
8411
100
AcDbEntity
  8
3
 62
     0
100
AcDbBlockReference
  2
_OPEN
 10
5456.51705109929
 20
1967.469071117841
 30
0.0
 41
70.0
 42
70.0
 43
70.0
  0
TEXT
  5
836A
330
8411
100
AcDbEntity
  8
3
 62
     0
100
AcDbText
 10
4705.52
 20
1869.12
 30
0.0
 40
105.0
  1
1082
100
AcDbText
  0
POINT
  5
8326
330
8411
100
AcDbEntity
  8
DEFPOINTS
 62
     0
100
AcDbPoint
 10
4374.517051099278
 20
2238.324713053003
 30
0.0
  0
POINT
  5
8327
330
8411
100
AcDbEntity
  8
DEFPOINTS
 62
     0
100
AcDbPoint
 10
5456.51705109929
 20
2238.324713053003
 30
0.0
  0
POINT
  5
8328
330
8411
100
AcDbEntity
  8
DEFPOINTS
 62
     0
100
AcDbPoint
 10
5456.51705109929
 20
1967.469071117841
 30
0.0
  0
ENDBLK
  5
80FA
330
8411
100
AcDbEntity
  8
0
100
AcDbBlockEnd
  0
BLOCK
  5
8414
330
8413
100
AcDbEntity
  8
0
100
AcDbBlockBegin
  2
*D19
 70
     1
 10
0.0
 20
0.0
 30
0.0
  3
*D19
  1

  0
LINE
  5
8329
330
8413
100
AcDbEntity
  8
3
 62
     0
100
AcDbLine
 10
2436.826826817036
 20
4291.663713951737
 30
0.0
 11
2436.826826817036
 21
4623.584680198772
 31
0.0
  0
LINE
  5
832A
330
8413
100
AcDbEntity
  8
3
 62
     0
100
AcDbLine
 10
3241.826826817035
 20
3363.824713053003
 30
0.0
 11
3241.826826817035
 21
4623.584680198772
 31
0.0
  0
LINE
  5
832B
330
8413
100
AcDbEntity
  8
3
 62
     0
100
AcDbLine
 10
2506.826826817036
 20
4588.58468019877
 30
0.0
 11
3171.826826817035
 21
4588.58468019877
 31
0.0
  0
INSERT
  5
832C
330
8413
100
AcDbEntity
  8
3
 62
     0
100
AcDbBlockReference
  2
_OPEN
 10
2436.826826817036
 20
4588.58468019877
 30
0.0
 41
70.0
 42
70.0
 43
70.0
 50
180.0
  0
INSERT
  5
832D
330
8413
100
AcDbEntity
  8
3
 62
     0
100
AcDbBlockReference
  2
_OPEN
 10
3241.826826817035
 20
4588.58468019877
 30
0.0
 41
70.0
 42
70.0
 43
70.0
  0
TEXT
  5
836B
330
8413
100
AcDbEntity
  8
3
 62
     0
100
AcDbText
 10
2629.33
 20
4490.229999999999
 30
0.0
 40
105.0
  1
805
100
AcDbText
  0
POINT
  5
832F
330
8413
100
AcDbEntity
  8
DEFPOINTS
 62
     0
100
AcDbPoint
 10
2436.826826817036
 20
4274.163713951737
 30
0.0
  0
POINT
  5
8330
330
8413
100
AcDbEntity
  8
DEFPOINTS
 62
     0
100
AcDbPoint
 10
3241.826826817035
 20
3346.324713053003
 30
0.0
  0
POINT
  5
8331
330
8413
100
AcDbEntity
  8
DEFPOINTS
 62
     0
100
AcDbPoint
 10
3241.826826817035
 20
4588.58468019877
 30
0.0
  0
ENDBLK
  5
7F70
330
8413
100
AcDbEntity
  8
0
100
AcDbBlockEnd
  0
BLOCK
  5
8416
330
8415
100
AcDbEntity
  8
0
100
AcDbBlockBegin
  2
*D20
 70
     1
 10
0.0
 20
0.0
 30
0.0
  3
*D20
  1

  0
LINE
  5
8332
330
8415
100
AcDbEntity
  8
3
 62
     0
100
AcDbLine
 10
3241.826826817035
 20
3363.824713053003
 30
0.0
 11
3241.826826817035
 21
4855.526081803353
 31
0.0
  0
LINE
  5
8333
330
8415
100
AcDbEntity
  8
3
 62
     0
100
AcDbLine
 10
836.8268268170357
 20
2560.824713053003
 30
0.0
 11
836.8268268170361
 21
4855.526081803353
 31
0.0
  0
LINE
  5
8334
330
8415
100
AcDbEntity
  8
3
 62
     0
100
AcDbLine
 10
3171.826826817035
 20
4820.526081803353
 30
0.0
 11
906.826826817036
 21
4820.526081803353
 31
0.0
  0
INSERT
  5
8335
330
8415
100
AcDbEntity
  8
3
 62
     0
100
AcDbBlockReference
  2
_OPEN
 10
3241.826826817035
 20
4820.526081803353
 30
0.0
 41
70.0
 42
70.0
 43
70.0
  0
INSERT
  5
8336
330
8415
100
AcDbEntity
  8
3
 62
     0
100
AcDbBlockReference
  2
_OPEN
 10
836.8268268170361
 20
4820.526081803353
 30
0.0
 41
70.0
 42
70.0
 43
70.0
 50
180.0
  0
TEXT
  5
836C
330
8415
100
AcDbEntity
  8
3
 62
     0
100
AcDbText
 10
1829.33
 20
4722.18
 30
0.0
 40
105.0
  1
2405
100
AcDbText
  0
POINT
  5
8338
330
8415
100
AcDbEntity
  8
DEFPOINTS
 62
     0
100
AcDbPoint
 10
3241.826826817035
 20
3346.324713053003
 30
0.0
  0
POINT
  5
8339
330
8415
100
AcDbEntity
  8
DEFPOINTS
 62
     0
100
AcDbPoint
 10
836.8268268170357
 20
2543.324713053003
 30
0.0
  0
POINT
  5
833A
330
8415
100
AcDbEntity
  8
DEFPOINTS
 62
     0
100
AcDbPoint
 10
836.8268268170361
 20
4820.526081803353
 30
0.0
  0
ENDBLK
  5
7F4F
330
8415
100
AcDbEntity
  8
0
100
AcDbBlockEnd
  0
BLOCK
  5
8418
330
8417
100
AcDbEntity
  8
0
100
AcDbBlockBegin
  2
*D21
 70
     1
 10
0.0
 20
0.0
 30
0.0
  3
*D21
  1

  0
LINE
  5
833B
330
8417
100
AcDbEntity
  8
3
 62
     0
100
AcDbLine
 10
2459.326826817036
 20
4188.324713053003
 30
0.0
 11
3542.813709636106
 21
4188.324713053003
 31
0.0
  0
LINE
  5
833C
330
8417
100
AcDbEntity
  8
3
 62
     0
100
AcDbLine
 10
3361.107478270012
 20
3428.324713053003
 30
0.0
 11
3542.813709636106
 21
3428.324713053003
 31
0.0
  0
LINE
  5
833D
330
8417
100
AcDbEntity
  8
3
 62
     0
100
AcDbLine
 10
3507.813709636106
 20
4118.324713053002
 30
0.0
 11
3507.813709636106
 21
3498.324713053003
 31
0.0
  0
INSERT
  5
833E
330
8417
100
AcDbEntity
  8
3
 62
     0
100
AcDbBlockReference
  2
_OPEN
 10
3507.813709636106
 20
4188.324713053003
 30
0.0
 41
70.0
 42
70.0
 43
70.0
 50
90.0
  0
INSERT
  5
833F
330
8417
100
AcDbEntity
  8
3
 62
     0
100
AcDbBlockReference
  2
_OPEN
 10
3507.813709636106
 20
3428.324713053003
 30
0.0
 41
70.0
 42
70.0
 43
70.0
 50
270.0
  0
TEXT
  5
836D
330
8417
100
AcDbEntity
  8
3
 62
     0
100
AcDbText
 10
3210.31
 20
3622.47
 30
0.0
 40
105.0
  1
760
100
AcDbText
  0
POINT
  5
8341
330
8417
100
AcDbEntity
  8
DEFPOINTS
 62
     0
100
AcDbPoint
 10
2441.826826817036
 20
4188.324713053003
 30
0.0
  0
POINT
  5
8342
330
8417
100
AcDbEntity
  8
DEFPOINTS
 62
     0
100
AcDbPoint
 10
3343.607478270012
 20
3428.324713053003
 30
0.0
  0
POINT
  5
8343
330
8417
100
AcDbEntity
  8
DEFPOINTS
 62
     0
100
AcDbPoint
 10
3507.813709636106
 20
3428.324713053003
 30
0.0
  0
ENDBLK
  5
7F7B
330
8417
100
AcDbEntity
  8
0
100
AcDbBlockEnd
  0
BLOCK
  5
841A
330
8419
100
AcDbEntity
  8
0
100
AcDbBlockBegin
  2
*D22
 70
     1
 10
0.0
 20
0.0
 30
0.0
  3
*D22
  1

  0
LINE
  5
8344
330
8419
100
AcDbEntity
  8
3
 62
     0
100
AcDbLine
 10
3361.107478270012
 20
3428.324713053003
 30
0.0
 11
3542.813709636106
 21
3428.324713053003
 31
0.0
  0
LINE
  5
8345
330
8419
100
AcDbEntity
  8
3
 62
     0
100
AcDbLine
 10
3114.326826817036
 20
2418.324713053003
 30
0.0
 11
3542.813709636106
 21
2418.324713053003
 31
0.0
  0
LINE
  5
8346
330
8419
100
AcDbEntity
  8
3
 62
     0
100
AcDbLine
 10
3507.813709636106
 20
3358.324713053003
 30
0.0
 11
3507.813709636106
 21
2488.324713053003
 31
0.0
  0
INSERT
  5
8347
330
8419
100
AcDbEntity
  8
3
 62
     0
100
AcDbBlockReference
  2
_OPEN
 10
3507.813709636106
 20
3428.324713053003
 30
0.0
 41
70.0
 42
70.0
 43
70.0
 50
90.0
  0
INSERT
  5
8348
330
8419
100
AcDbEntity
  8
3
 62
     0
100
AcDbBlockReference
  2
_OPEN
 10
3507.813709636106
 20
2418.324713053003
 30
0.0
 41
70.0
 42
70.0
 43
70.0
 50
270.0
  0
TEXT
  5
836E
330
8419
100
AcDbEntity
  8
3
 62
     0
100
AcDbText
 10
3210.31
 20
2737.47
 30
0.0
 40
105.0
  1
1010
100
AcDbText
  0
POINT
  5
834A
330
8419
100
AcDbEntity
  8
DEFPOINTS
 62
     0
100
AcDbPoint
 10
3343.607478270012
 20
3428.324713053003
 30
0.0
  0
POINT
  5
834B
330
8419
100
AcDbEntity
  8
DEFPOINTS
 62
     0
100
AcDbPoint
 10
3096.826826817036
 20
2418.324713053003
 30
0.0
  0
POINT
  5
834C
330
8419
100
AcDbEntity
  8
DEFPOINTS
 62
     0
100
AcDbPoint
 10
3507.813709636106
 20
2418.324713053003
 30
0.0
  0
ENDBLK
  5
7F86
330
8419
100
AcDbEntity
  8
0
100
AcDbBlockEnd
  0
BLOCK
  5
841C
330
841B
100
AcDbEntity
  8
0
100
AcDbBlockBegin
  2
*D23
 70
     1
 10
0.0
 20
0.0
 30
0.0
  3
*D23
  1

  0
LINE
  5
834D
330
841B
100
AcDbEntity
  8
3
 62
     0
100
AcDbLine
 10
3114.326826817036
 20
2303.324713053003
 30
0.0
 11
3542.813709636106
 21
2303.324713053003
 31
0.0
  0
LINE
  5
834E
330
841B
100
AcDbEntity
  8
3
 62
     0
100
AcDbLine
 10
3114.326826817036
 20
2238.324713053003
 30
0.0
 11
3542.813709636106
 21
2238.324713053003
 31
0.0
  0
LINE
  5
834F
330
841B
100
AcDbEntity
  8
3
 62
     0
100
AcDbLine
 10
3507.813709636106
 20
2373.324713053003
 30
0.0
 11
3507.813709636106
 21
2443.324713053003
 31
0.0
  0
LINE
  5
8350
330
841B
100
AcDbEntity
  8
3
 62
     0
100
AcDbLine
 10
3507.813709636106
 20
2168.324713053003
 30
0.0
 11
3507.813709636106
 21
1858.324713053003
 31
0.0
  0
LINE
  5
8351
330
841B
100
AcDbEntity
  8
3
 62
     0
100
AcDbLine
 10
3507.813709636106
 20
2303.324713053003
 30
0.0
 11
3507.813709636106
 21
2238.324713053003
 31
0.0
  0
INSERT
  5
8352
330
841B
100
AcDbEntity
  8
3
 62
     0
100
AcDbBlockReference
  2
_DOT
 10
3507.813709636106
 20
2303.324713053003
 30
0.0
 41
70.0
 42
70.0
 43
70.0
 50
270.0
  0
INSERT
  5
8353
330
841B
100
AcDbEntity
  8
3
 62
     0
100
AcDbBlockReference
  2
_OPEN
 10
3507.813709636106
 20
2238.324713053003
 30
0.0
 41
70.0
 42
70.0
 43
70.0
 50
90.0
  0
TEXT
  5
836F
330
841B
100
AcDbEntity
  8
3
 62
     0
100
AcDbText
 10
3210.31
 20
1792.47
 30
0.0
 40
105.0
  1
65
100
AcDbText
  0
POINT
  5
8355
330
841B
100
AcDbEntity
  8
DEFPOINTS
 62
     0
100
AcDbPoint
 10
3096.826826817036
 20
2303.324713053003
 30
0.0
  0
POINT
  5
8356
330
841B
100
AcDbEntity
  8
DEFPOINTS
 62
     0
100
AcDbPoint
 10
3096.826826817036
 20
2238.324713053003
 30
0.0
  0
POINT
  5
8357
330
841B
100
AcDbEntity
  8
DEFPOINTS
 62
     0
100
AcDbPoint
 10
3507.813709636106
 20
2238.324713053003
 30
0.0
  0
ENDBLK
  5
8099
330
841B
100
AcDbEntity
  8
0
100
AcDbBlockEnd
  0
BLOCK
  5
841E
330
841D
100
AcDbEntity
  8
0
100
AcDbBlockBegin
  2
_DOT
 70
     0
 10
0.0
 20
0.0
 30
0.0
  3
_DOT
  1

  0
LWPOLYLINE
  5
809D
330
841D
100
AcDbEntity
  8
0
  6
ByBlock
 62
     0
100
AcDbPolyline
 90
        2
 70
     1
 43
0.25
 10
-0.125
 20
0.0
 42
1.0
 10
0.125
 20
0.0
 42
1.0
  0
LINE
  5
80A1
330
841D
100
AcDbEntity
  8
0
  6
ByBlock
 62
     0
100
AcDbLine
 10
-0.25
 20
0.0
 30
0.0
 11
-1.0
 21
0.0
 31
0.0
  0
ENDBLK
  5
807F
330
841D
100
AcDbEntity
  8
0
100
AcDbBlockEnd
  0
BLOCK
  5
8420
330
841F
100
AcDbEntity
  8
0
100
AcDbBlockBegin
  2
_NONE
 70
     0
 10
0.0
 20
0.0
 30
0.0
  3
_NONE
  1

  0
CIRCLE
  5
8140
330
841F
100
AcDbEntity
  8
0
  6
ByBlock
 62
     0
100
AcDbCircle
 10
0.0
 20
0.0
 30
0.0
 40
0.25
  0
ENDBLK
  5
8141
330
841F
100
AcDbEntity
  8
0
100
AcDbBlockEnd
  0
BLOCK
  5
8422
330
8421
100
AcDbEntity
  8
0
100
AcDbBlockBegin
  2
*D26
 70
     1
 10
0.0
 20
0.0
 30
0.0
  3
*D26
  1

  0
LINE
  5
819C
330
8421
100
AcDbEntity
  8
0
  6
ByBlock
 62
     0
100
AcDbLine
 10
3505.361308989602
 20
2303.324713053003
 30
0.0
 11
3505.361308989602
 21
2418.324713053003
 31
0.0
  0
TEXT
  5
819D
330
8421
100
AcDbEntity
  8
3
 62
     0
100
AcDbText
 10
3707.861308989602
 20
2083.824713053003
 30
0.0
 40
105.0
  1
   (115)
 50
90.0
100
AcDbText
  0
POINT
  5
819E
330
8421
100
AcDbEntity
  8
DEFPOINTS
  6
ByBlock
 62
     0
100
AcDbPoint
 10
3096.826826817036
 20
2303.324713053003
 30
0.0
  0
POINT
  5
819F
330
8421
100
AcDbEntity
  8
DEFPOINTS
  6
ByBlock
 62
     0
100
AcDbPoint
 10
3096.826826817036
 20
2418.324713053003
 30
0.0
  0
POINT
  5
81A0
330
8421
100
AcDbEntity
  8
DEFPOINTS
  6
ByBlock
 62
     0
100
AcDbPoint
 10
3505.361308989602
 20
2418.324713053003
 30
0.0
  0
ENDBLK
  5
81A1
330
8421
100
AcDbEntity
  8
0
100
AcDbBlockEnd
  0
BLOCK
  5
8424
330
8423
100
AcDbEntity
  8
0
100
AcDbBlockBegin
  2
*D27
 70
     1
 10
0.0
 20
0.0
 30
0.0
  3
*D27
  1

  0
LINE
  5
8182
330
8423
100
AcDbEntity
  8
0
  6
ByBlock
 62
     0
100
AcDbLine
 10
3114.326826817036
 20
2238.324713053003
 30
0.0
 11
3819.48192660691
 21
2238.324713053003
 31
0.0
  0
LINE
  5
8183
330
8423
100
AcDbEntity
  8
0
  6
ByBlock
 62
     0
100
AcDbLine
 10
2476.826826817036
 20
4188.324713053003
 30
0.0
 11
3819.48192660691
 21
4188.324713053003
 31
0.0
  0
LINE
  5
8184
330
8423
100
AcDbEntity
  8
0
  6
ByBlock
 62
     0
100
AcDbLine
 10
3784.48192660691
 20
2308.324713053003
 30
0.0
 11
3784.48192660691
 21
4118.324713053002
 31
0.0
  0
INSERT
  5
8185
330
8423
100
AcDbEntity
  8
0
  6
ByBlock
 62
     0
100
AcDbBlockReference
  2
_OPEN
 10
3784.48192660691
 20
2238.324713053003
 30
0.0
 41
70.0
 42
70.0
 43
70.0
 50
270.0
  0
INSERT
  5
8186
330
8423
100
AcDbEntity
  8
0
  6
ByBlock
 62
     0
100
AcDbBlockReference
  2
_OPEN
 10
3784.48192660691
 20
4188.324713053003
 30
0.0
 41
70.0
 42
70.0
 43
70.0
 50
90.0
  0
TEXT
  5
8187
330
8423
100
AcDbEntity
  8
3
 62
     0
100
AcDbText
 10
3704.48192660691
 20
2970.824713053003
 30
0.0
 40
105.0
  1
(1950)
 50
90.0
100
AcDbText
  0
POINT
  5
8188
330
8423
100
AcDbEntity
  8
DEFPOINTS
  6
ByBlock
 62
     0
100
AcDbPoint
 10
3096.826826817036
 20
2238.324713053003
 30
0.0
  0
POINT
  5
8189
330
8423
100
AcDbEntity
  8
DEFPOINTS
  6
ByBlock
 62
     0
100
AcDbPoint
 10
2459.326826817036
 20
4188.324713053003
 30
0.0
  0
POINT
  5
818A
330
8423
100
AcDbEntity
  8
DEFPOINTS
  6
ByBlock
 62
     0
100
AcDbPoint
 10
3784.48192660691
 20
4188.324713053003
 30
0.0
  0
ENDBLK
  5
818B
330
8423
100
AcDbEntity
  8
0
100
AcDbBlockEnd
  0
BLOCK
  5
8427
330
8426
100
AcDbEntity
  8
0
100
AcDbBlockBegin
  2
*D28
 70
     1
 10
0.0
 20
0.0
 30
0.0
  3
*D28
  1

  0
LINE
  5
8429
330
8426
100
AcDbEntity
  8
3
 62
     0
370
    -2
100
AcDbLine
 10
4336.517051099289
 20
3810.512213053004
 30
0.0
 11
4336.517051099289
 21
4684.510345261056
 31
0.0
  0
LINE
  5
842A
330
8426
100
AcDbEntity
  8
3
 62
     0
370
    -2
100
AcDbLine
 10
5456.517051099289
 20
4617.108270395445
 30
0.0
 11
5456.517051099289
 21
4684.510345261056
 31
0.0
  0
LINE
  5
842B
330
8426
100
AcDbEntity
  8
3
 62
     0
370
    -2
100
AcDbLine
 10
4342.81705109929
 20
4678.210345261056
 30
0.0
 11
4883.467051099289
 21
4678.210345261056
 31
0.0
  0
LINE
  5
842C
330
8426
100
AcDbEntity
  8
3
 62
     0
370
    -2
100
AcDbLine
 10
5450.217051099289
 20
4678.210345261056
 30
0.0
 11
4909.56705109929
 21
4678.210345261056
 31
0.0
  0
SOLID
  5
842D
330
8426
100
AcDbEntity
  8
3
 62
     0
100
AcDbTrace
 10
4342.81705109929
 20
4679.260345261056
 30
0.0
 11
4342.81705109929
 21
4677.160345261056
 31
0.0
 12
4336.517051099289
 22
4678.210345261056
 32
0.0
 13
4336.517051099289
 23
4678.210345261056
 33
0.0
  0
SOLID
  5
842E
330
8426
100
AcDbEntity
  8
3
 62
     0
100
AcDbTrace
 10
5450.217051099289
 20
4679.260345261056
 30
0.0
 11
5450.217051099289
 21
4677.160345261056
 31
0.0
 12
5456.517051099289
 22
4678.210345261056
 32
0.0
 13
5456.517051099289
 23
4678.210345261056
 33
0.0
  0
MTEXT
  5
842F
330
8426
100
AcDbEntity
  8
3
 62
     0
100
AcDbMText
 10
4896.517051099289
 20
4678.210345261056
 30
0.0
 40
6.299999999999999
 41
0.0
 71
     5
 72
     1
  1
\A1;MAX\P1120
 73
     1
 44
1.0
1001
ACAD
1000
MTEXTBEGIN
1070
    73
1070
     1
1070
    44
1040
1.0
1070
    74
1070
     0
1000
MTEXTEND
  0
POINT
  5
8430
330
8426
100
AcDbEntity
  8
DEFPOINTS
 62
     0
100
AcDbPoint
 10
4336.517051099289
 20
3808.324713053004
 30
0.0
  0
POINT
  5
8431
330
8426
100
AcDbEntity
  8
DEFPOINTS
 62
     0
100
AcDbPoint
 10
5456.517051099289
 20
4614.920770395445
 30
0.0
  0
POINT
  5
8432
330
8426
100
AcDbEntity
  8
DEFPOINTS
 62
     0
100
AcDbPoint
 10
5456.517051099289
 20
4678.210345261056
 30
0.0
  0
ENDBLK
  5
8428
330
8426
100
AcDbEntity
  8
0
100
AcDbBlockEnd
  0
BLOCK
  5
8434
330
8433
100
AcDbEntity
  8
0
100
AcDbBlockBegin
  2
*D29
 70
     1
 10
0.0
 20
0.0
 30
0.0
  3
*D29
  1

  0
LINE
  5
8436
330
8433
100
AcDbEntity
  8
3
 62
     0
370
    -2
100
AcDbLine
 10
5456.517051099289
 20
4617.108270395445
 30
0.0
 11
5456.517051099289
 21
4685.526996529467
 31
0.0
  0
LINE
  5
8437
330
8433
100
AcDbEntity
  8
3
 62
     0
370
    -2
100
AcDbLine
 10
6384.017051099288
 20
3343.551690158197
 30
0.0
 11
6384.017051099288
 21
4685.526996529467
 31
0.0
  0
LINE
  5
8438
330
8433
100
AcDbEntity
  8
3
 62
     0
370
    -2
100
AcDbLine
 10
5462.817051099289
 20
4679.226996529467
 30
0.0
 11
5904.967051099288
 21
4679.226996529467
 31
0.0
  0
LINE
  5
8439
330
8433
100
AcDbEntity
  8
3
 62
     0
370
    -2
100
AcDbLine
 10
6377.717051099288
 20
4679.226996529467
 30
0.0
 11
5935.567051099289
 21
4679.226996529467
 31
0.0
  0
SOLID
  5
843A
330
8433
100
AcDbEntity
  8
3
 62
     0
100
AcDbTrace
 10
5462.817051099289
 20
4680.276996529467
 30
0.0
 11
5462.817051099289
 21
4678.176996529467
 31
0.0
 12
5456.517051099289
 22
4679.226996529467
 32
0.0
 13
5456.517051099289
 23
4679.226996529467
 33
0.0
  0
SOLID
  5
843B
330
8433
100
AcDbEntity
  8
3
 62
     0
100
AcDbTrace
 10
6377.717051099288
 20
4680.276996529467
 30
0.0
 11
6377.717051099288
 21
4678.176996529467
 31
0.0
 12
6384.017051099288
 22
4679.226996529467
 32
0.0
 13
6384.017051099288
 23
4679.226996529467
 33
0.0
  0
MTEXT
  5
843C
330
8433
100
AcDbEntity
  8
3
 62
     0
100
AcDbMText
 10
5920.267051099289
 20
4679.226996529467
 30
0.0
 40
6.299999999999999
 41
0.0
 71
     5
 72
     1
  1
\A1;(930)
 73
     1
 44
1.0
1001
ACAD
1000
MTEXTBEGIN
1070
    73
1070
     1
1070
    44
1040
1.0
1070
    74
1070
     0
1000
MTEXTEND
  0
POINT
  5
843D
330
8433
100
AcDbEntity
  8
DEFPOINTS
 62
     0
100
AcDbPoint
 10
5456.517051099289
 20
4614.920770395445
 30
0.0
  0
POINT
  5
843E
330
8433
100
AcDbEntity
  8
DEFPOINTS
 62
     0
100
AcDbPoint
 10
6384.017051099288
 20
3341.364190158197
 30
0.0
  0
POINT
  5
843F
330
8433
100
AcDbEntity
  8
DEFPOINTS
 62
     0
100
AcDbPoint
 10
6384.017051099288
 20
4679.226996529467
 30
0.0
  0
ENDBLK
  5
8435
330
8433
100
AcDbEntity
  8
0
100
AcDbBlockEnd
  0
BLOCK
  5
8441
330
8440
100
AcDbEntity
  8
0
100
AcDbBlockBegin
  2
*D30
 70
     1
 10
0.0
 20
0.0
 30
0.0
  3
*D30
  1

  0
LINE
  5
8443
330
8440
100
AcDbEntity
  8
3
 62
     0
370
    -2
100
AcDbLine
 10
3099.014326817036
 20
2248.324713053003
 30
0.0
 11
3790.78192660691
 21
2248.324713053003
 31
0.0
  0
LINE
  5
8444
330
8440
100
AcDbEntity
  8
3
 62
     0
370
    -2
100
AcDbLine
 10
2461.514326817036
 20
4188.324713053003
 30
0.0
 11
3790.781926606911
 21
4188.324713053003
 31
0.0
  0
LINE
  5
8445
330
8440
100
AcDbEntity
  8
3
 62
     0
370
    -2
100
AcDbLine
 10
3784.48192660691
 20
2254.624713053003
 30
0.0
 11
3784.48192660691
 21
3210.374713053003
 31
0.0
  0
LINE
  5
8446
330
8440
100
AcDbEntity
  8
3
 62
     0
370
    -2
100
AcDbLine
 10
3784.48192660691
 20
4182.024713053002
 30
0.0
 11
3784.48192660691
 21
3226.274713053002
 31
0.0
  0
SOLID
  5
8447
330
8440
100
AcDbEntity
  8
3
 62
     0
100
AcDbTrace
 10
3783.43192660691
 20
2254.624713053003
 30
0.0
 11
3785.53192660691
 21
2254.624713053003
 31
0.0
 12
3784.48192660691
 22
2248.324713053003
 32
0.0
 13
3784.48192660691
 23
2248.324713053003
 33
0.0
  0
SOLID
  5
8448
330
8440
100
AcDbEntity
  8
3
 62
     0
100
AcDbTrace
 10
3783.43192660691
 20
4182.024713053002
 30
0.0
 11
3785.53192660691
 21
4182.024713053002
 31
0.0
 12
3784.48192660691
 22
4188.324713053003
 32
0.0
 13
3784.48192660691
 23
4188.324713053003
 33
0.0
  0
MTEXT
  5
8449
330
8440
100
AcDbEntity
  8
3
 62
     0
100
AcDbMText
 10
3784.481926606909
 20
3218.324713053004
 30
0.0
 40
6.299999999999999
 41
0.0
 71
     5
 72
     1
  1
\A1;(1940)
 73
     1
 44
1.0
1001
ACAD
1000
MTEXTBEGIN
1070
    73
1070
     1
1070
    44
1040
1.0
1070
    74
1070
     0
1000
MTEXTEND
  0
POINT
  5
844A
330
8440
100
AcDbEntity
  8
DEFPOINTS
 62
     0
100
AcDbPoint
 10
3096.826826817036
 20
2248.324713053003
 30
0.0
  0
POINT
  5
844B
330
8440
100
AcDbEntity
  8
DEFPOINTS
 62
     0
100
AcDbPoint
 10
2459.326826817036
 20
4188.324713053003
 30
0.0
  0
POINT
  5
844C
330
8440
100
AcDbEntity
  8
DEFPOINTS
 62
     0
100
AcDbPoint
 10
3784.48192660691
 20
4188.324713053003
 30
0.0
  0
ENDBLK
  5
8442
330
8440
100
AcDbEntity
  8
0
100
AcDbBlockEnd
  0
BLOCK
  5
844E
330
844D
100
AcDbEntity
  8
0
100
AcDbBlockBegin
  2
*D31
 70
     1
 10
0.0
 20
0.0
 30
0.0
  3
*D31
  1

  0
LINE
  5
8450
330
844D
100
AcDbEntity
  8
3
 62
     0
370
    -2
100
AcDbLine
 10
3505.361308989602
 20
2319.624713053003
 30
0.0
 11
3505.361308989602
 21
2357.874713053004
 31
0.0
  0
LINE
  5
8451
330
844D
100
AcDbEntity
  8
3
 62
     0
370
    -2
100
AcDbLine
 10
3505.361308989602
 20
2412.024713053003
 30
0.0
 11
3505.361308989602
 21
2373.774713053003
 31
0.0
  0
SOLID
  5
8452
330
844D
100
AcDbEntity
  8
3
 62
     0
100
AcDbTrace
 10
3504.311308989602
 20
2319.624713053003
 30
0.0
 11
3506.411308989603
 21
2319.624713053003
 31
0.0
 12
3505.361308989602
 22
2313.324713053003
 32
0.0
 13
3505.361308989602
 23
2313.324713053003
 33
0.0
  0
SOLID
  5
8453
330
844D
100
AcDbEntity
  8
3
 62
     0
100
AcDbTrace
 10
3504.311308989602
 20
2412.024713053003
 30
0.0
 11
3506.411308989603
 21
2412.024713053003
 31
0.0
 12
3505.361308989602
 22
2418.324713053003
 32
0.0
 13
3505.361308989602
 23
2418.324713053003
 33
0.0
  0
MTEXT
  5
8454
330
844D
100
AcDbEntity
  8
3
 62
     0
100
AcDbMText
 10
3505.361308989602
 20
2365.824713053004
 30
0.0
 40
6.299999999999999
 41
0.0
 71
     5
 72
     1
  1
\A1;   (105)
 73
     1
 44
1.0
1001
ACAD
1000
MTEXTBEGIN
1070
    73
1070
     1
1070
    44
1040
1.0
1070
    74
1070
     0
1000
MTEXTEND
  0
POINT
  5
8455
330
844D
100
AcDbEntity
  8
DEFPOINTS
 62
     0
100
AcDbPoint
 10
3096.826826817036
 20
2313.324713053003
 30
0.0
  0
POINT
  5
8456
330
844D
100
AcDbEntity
  8
DEFPOINTS
 62
     0
100
AcDbPoint
 10
3096.826826817036
 20
2418.324713053003
 30
0.0
  0
POINT
  5
8457
330
844D
100
AcDbEntity
  8
DEFPOINTS
 62
     0
100
AcDbPoint
 10
3505.361308989602
 20
2418.324713053003
 30
0.0
  0
ENDBLK
  5
844F
330
844D
100
AcDbEntity
  8
0
100
AcDbBlockEnd
  0
BLOCK
  5
8459
330
8458
100
AcDbEntity
  8
0
100
AcDbBlockBegin
  2
*D32
 70
     1
 10
0.0
 20
0.0
 30
0.0
  3
*D32
  1

  0
LINE
  5
845B
330
8458
100
AcDbEntity
  8
3
 62
     0
370
    -2
100
AcDbLine
 10
3096.826826817036
 20
2246.137213053003
 30
0.0
 11
3096.826826817036
 21
1982.150225277922
 31
0.0
  0
LINE
  5
845C
330
8458
100
AcDbEntity
  8
3
 62
     0
370
    -2
100
AcDbLine
 10
2436.826826817036
 20
2246.137213053003
 30
0.0
 11
2436.826826817036
 21
1982.150225277922
 31
0.0
  0
LINE
  5
845D
330
8458
100
AcDbEntity
  8
3
 62
     0
370
    -2
100
AcDbLine
 10
3090.526826817036
 20
1988.450225277922
 30
0.0
 11
2778.076826817036
 21
1988.450225277922
 31
0.0
  0
LINE
  5
845E
330
8458
100
AcDbEntity
  8
3
 62
     0
370
    -2
100
AcDbLine
 10
2443.126826817036
 20
1988.450225277922
 30
0.0
 11
2755.576826817036
 21
1988.450225277922
 31
0.0
  0
SOLID
  5
845F
330
8458
100
AcDbEntity
  8
3
 62
     0
100
AcDbTrace
 10
3090.526826817036
 20
1989.500225277922
 30
0.0
 11
3090.526826817036
 21
1987.400225277922
 31
0.0
 12
3096.826826817036
 22
1988.450225277922
 32
0.0
 13
3096.826826817036
 23
1988.450225277922
 33
0.0
  0
SOLID
  5
8460
330
8458
100
AcDbEntity
  8
3
 62
     0
100
AcDbTrace
 10
2443.126826817036
 20
1989.500225277922
 30
0.0
 11
2443.126826817036
 21
1987.400225277922
 31
0.0
 12
2436.826826817036
 22
1988.450225277922
 32
0.0
 13
2436.826826817036
 23
1988.450225277922
 33
0.0
  0
MTEXT
  5
8461
330
8458
100
AcDbEntity
  8
3
 62
     0
100
AcDbMText
 10
2766.826826817036
 20
1988.450225277922
 30
0.0
 40
6.299999999999999
 41
0.0
 71
     5
 72
     1
  1
\A1;660
 73
     1
 44
1.0
1001
ACAD
1000
MTEXTBEGIN
1070
    73
1070
     1
1070
    44
1040
1.0
1070
    74
1070
     0
1000
MTEXTEND
  0
POINT
  5
8462
330
8458
100
AcDbEntity
  8
DEFPOINTS
 62
     0
100
AcDbPoint
 10
3096.826826817036
 20
2248.324713053003
 30
0.0
  0
POINT
  5
8463
330
8458
100
AcDbEntity
  8
DEFPOINTS
 62
     0
100
AcDbPoint
 10
2436.826826817036
 20
2248.324713053003
 30
0.0
  0
POINT
  5
8464
330
8458
100
AcDbEntity
  8
DEFPOINTS
 62
     0
100
AcDbPoint
 10
2436.826826817036
 20
1988.450225277922
 30
0.0
  0
ENDBLK
  5
845A
330
8458
100
AcDbEntity
  8
0
100
AcDbBlockEnd
  0
BLOCK
  5
8466
330
8465
100
AcDbEntity
  8
0
100
AcDbBlockBegin
  2
*D33
 70
     1
 10
0.0
 20
0.0
 30
0.0
  3
*D33
  1

  0
LINE
  5
8468
330
8465
100
AcDbEntity
  8
3
 62
     0
370
    -2
100
AcDbLine
 10
5456.51705109929
 20
2246.137213053003
 30
0.0
 11
5456.51705109929
 21
1970.585317261793
 31
0.0
  0
LINE
  5
8469
330
8465
100
AcDbEntity
  8
3
 62
     0
370
    -2
100
AcDbLine
 10
6274.51705109927
 20
2246.137213053003
 30
0.0
 11
6274.51705109927
 21
1970.585317261793
 31
0.0
  0
LINE
  5
846A
330
8465
100
AcDbEntity
  8
3
 62
     0
370
    -2
100
AcDbLine
 10
5462.81705109929
 20
1976.885317261793
 30
0.0
 11
5854.86705109928
 21
1976.885317261793
 31
0.0
  0
LINE
  5
846B
330
8465
100
AcDbEntity
  8
3
 62
     0
370
    -2
100
AcDbLine
 10
6268.21705109927
 20
1976.885317261793
 30
0.0
 11
5876.16705109928
 21
1976.885317261793
 31
0.0
  0
SOLID
  5
846C
330
8465
100
AcDbEntity
  8
3
 62
     0
100
AcDbTrace
 10
5462.81705109929
 20
1977.935317261793
 30
0.0
 11
5462.81705109929
 21
1975.835317261793
 31
0.0
 12
5456.51705109929
 22
1976.885317261793
 32
0.0
 13
5456.51705109929
 23
1976.885317261793
 33
0.0
  0
SOLID
  5
846D
330
8465
100
AcDbEntity
  8
3
 62
     0
100
AcDbTrace
 10
6268.21705109927
 20
1977.935317261793
 30
0.0
 11
6268.21705109927
 21
1975.835317261793
 31
0.0
 12
6274.51705109927
 22
1976.885317261793
 32
0.0
 13
6274.51705109927
 23
1976.885317261793
 33
0.0
  0
MTEXT
  5
846E
330
8465
100
AcDbEntity
  8
3
 62
     0
100
AcDbMText
 10
5865.51705109928
 20
1976.885317261793
 30
0.0
 40
6.299999999999999
 41
0.0
 71
     5
 72
     1
  1
\A1;818
 73
     1
 44
1.0
1001
ACAD
1000
MTEXTBEGIN
1070
    73
1070
     1
1070
    44
1040
1.0
1070
    74
1070
     0
1000
MTEXTEND
  0
POINT
  5
846F
330
8465
100
AcDbEntity
  8
DEFPOINTS
 62
     0
100
AcDbPoint
 10
5456.51705109929
 20
2248.324713053003
 30
0.0
  0
POINT
  5
8470
330
8465
100
AcDbEntity
  8
DEFPOINTS
 62
     0
100
AcDbPoint
 10
6274.51705109927
 20
2248.324713053003
 30
0.0
  0
POINT
  5
8471
330
8465
100
AcDbEntity
  8
DEFPOINTS
 62
     0
100
AcDbPoint
 10
6274.51705109927
 20
1976.885317261793
 30
0.0
  0
ENDBLK
  5
8467
330
8465
100
AcDbEntity
  8
0
100
AcDbBlockEnd
  0
BLOCK
  5
8473
330
8472
100
AcDbEntity
  8
0
100
AcDbBlockBegin
  2
*D34
 70
     1
 10
0.0
 20
0.0
 30
0.0
  3
*D34
  1

  0
LINE
  5
8475
330
8472
100
AcDbEntity
  8
3
 62
     0
370
    -2
100
AcDbLine
 10
836.8268268170357
 20
2246.137213053003
 30
0.0
 11
836.8268268170357
 21
1983.007229117808
 31
0.0
  0
LINE
  5
8476
330
8472
100
AcDbEntity
  8
3
 62
     0
370
    -2
100
AcDbLine
 10
2436.826826817036
 20
2246.137213053003
 30
0.0
 11
2436.826826817036
 21
1983.007229117808
 31
0.0
  0
LINE
  5
8477
330
8472
100
AcDbEntity
  8
3
 62
     0
370
    -2
100
AcDbLine
 10
843.1268268170358
 20
1989.307229117808
 30
0.0
 11
1623.176826817035
 21
1989.307229117808
 31
0.0
  0
LINE
  5
8478
330
8472
100
AcDbEntity
  8
3
 62
     0
370
    -2
100
AcDbLine
 10
2430.526826817036
 20
1989.307229117808
 30
0.0
 11
1650.476826817036
 21
1989.307229117808
 31
0.0
  0
SOLID
  5
8479
330
8472
100
AcDbEntity
  8
3
 62
     0
100
AcDbTrace
 10
843.1268268170358
 20
1990.357229117808
 30
0.0
 11
843.1268268170358
 21
1988.257229117808
 31
0.0
 12
836.8268268170357
 22
1989.307229117808
 32
0.0
 13
836.8268268170357
 23
1989.307229117808
 33
0.0
  0
SOLID
  5
847A
330
8472
100
AcDbEntity
  8
3
 62
     0
100
AcDbTrace
 10
2430.526826817036
 20
1990.357229117808
 30
0.0
 11
2430.526826817036
 21
1988.257229117808
 31
0.0
 12
2436.826826817036
 22
1989.307229117808
 32
0.0
 13
2436.826826817036
 23
1989.307229117808
 33
0.0
  0
MTEXT
  5
847B
330
8472
100
AcDbEntity
  8
3
 62
     0
100
AcDbMText
 10
1636.826826817036
 20
1989.307229117808
 30
0.0
 40
6.299999999999999
 41
0.0
 71
     5
 72
     1
  1
\A1;1600
 73
     1
 44
1.0
1001
ACAD
1000
MTEXTBEGIN
1070
    73
1070
     1
1070
    44
1040
1.0
1070
    74
1070
     0
1000
MTEXTEND
  0
POINT
  5
847C
330
8472
100
AcDbEntity
  8
DEFPOINTS
 62
     0
100
AcDbPoint
 10
836.8268268170357
 20
2248.324713053003
 30
0.0
  0
POINT
  5
847D
330
8472
100
AcDbEntity
  8
DEFPOINTS
 62
     0
100
AcDbPoint
 10
2436.826826817036
 20
2248.324713053003
 30
0.0
  0
POINT
  5
847E
330
8472
100
AcDbEntity
  8
DEFPOINTS
 62
     0
100
AcDbPoint
 10
2436.826826817036
 20
1989.307229117808
 30
0.0
  0
ENDBLK
  5
8474
330
8472
100
AcDbEntity
  8
0
100
AcDbBlockEnd
  0
BLOCK
  5
8480
330
847F
100
AcDbEntity
  8
0
100
AcDbBlockBegin
  2
*D35
 70
     1
 10
0.0
 20
0.0
 30
0.0
  3
*D35
  1

  0
LINE
  5
8482
330
847F
100
AcDbEntity
  8
3
 62
     0
370
    -2
100
AcDbLine
 10
4374.517051099278
 20
2246.137213053003
 30
0.0
 11
4374.517051099278
 21
1971.169071117841
 31
0.0
  0
LINE
  5
8483
330
847F
100
AcDbEntity
  8
3
 62
     0
370
    -2
100
AcDbLine
 10
5456.51705109929
 20
2246.137213053003
 30
0.0
 11
5456.51705109929
 21
1971.169071117841
 31
0.0
  0
LINE
  5
8484
330
847F
100
AcDbEntity
  8
3
 62
     0
370
    -2
100
AcDbLine
 10
4380.817051099278
 20
1977.469071117841
 30
0.0
 11
4901.867051099285
 21
1977.469071117841
 31
0.0
  0
LINE
  5
8485
330
847F
100
AcDbEntity
  8
3
 62
     0
370
    -2
100
AcDbLine
 10
5450.21705109929
 20
1977.469071117841
 30
0.0
 11
4929.167051099284
 21
1977.469071117841
 31
0.0
  0
SOLID
  5
8486
330
847F
100
AcDbEntity
  8
3
 62
     0
100
AcDbTrace
 10
4380.817051099278
 20
1978.519071117841
 30
0.0
 11
4380.817051099278
 21
1976.419071117841
 31
0.0
 12
4374.517051099278
 22
1977.469071117841
 32
0.0
 13
4374.517051099278
 23
1977.469071117841
 33
0.0
  0
SOLID
  5
8487
330
847F
100
AcDbEntity
  8
3
 62
     0
100
AcDbTrace
 10
5450.21705109929
 20
1978.519071117841
 30
0.0
 11
5450.21705109929
 21
1976.419071117841
 31
0.0
 12
5456.51705109929
 22
1977.469071117841
 32
0.0
 13
5456.51705109929
 23
1977.469071117841
 33
0.0
  0
MTEXT
  5
8488
330
847F
100
AcDbEntity
  8
3
 62
     0
100
AcDbMText
 10
4915.517051099285
 20
1977.469071117841
 30
0.0
 40
6.299999999999999
 41
0.0
 71
     5
 72
     1
  1
\A1;1082
 73
     1
 44
1.0
1001
ACAD
1000
MTEXTBEGIN
1070
    73
1070
     1
1070
    44
1040
1.0
1070
    74
1070
     0
1000
MTEXTEND
  0
POINT
  5
8489
330
847F
100
AcDbEntity
  8
DEFPOINTS
 62
     0
100
AcDbPoint
 10
4374.517051099278
 20
2248.324713053003
 30
0.0
  0
POINT
  5
848A
330
847F
100
AcDbEntity
  8
DEFPOINTS
 62
     0
100
AcDbPoint
 10
5456.51705109929
 20
2248.324713053003
 30
0.0
  0
POINT
  5
848B
330
847F
100
AcDbEntity
  8
DEFPOINTS
 62
     0
100
AcDbPoint
 10
5456.51705109929
 20
1977.469071117841
 30
0.0
  0
ENDBLK
  5
8481
330
847F
100
AcDbEntity
  8
0
100
AcDbBlockEnd
  0
BLOCK
  5
848D
330
848C
100
AcDbEntity
  8
0
100
AcDbBlockBegin
  2
*D36
 70
     1
 10
0.0
 20
0.0
 30
0.0
  3
*D36
  1

  0
LINE
  5
848F
330
848C
100
AcDbEntity
  8
3
 62
     0
370
    -2
100
AcDbLine
 10
3099.014326817036
 20
2313.324713053003
 30
0.0
 11
3514.113709636106
 21
2313.324713053003
 31
0.0
  0
LINE
  5
8490
330
848C
100
AcDbEntity
  8
3
 62
     0
370
    -2
100
AcDbLine
 10
3099.014326817036
 20
2248.324713053003
 30
0.0
 11
3514.113709636106
 21
2248.324713053003
 31
0.0
  0
LINE
  5
8491
330
848C
100
AcDbEntity
  8
3
 62
     0
370
    -2
100
AcDbLine
 10
3507.813709636106
 20
2307.024713053003
 30
0.0
 11
3507.813709636106
 21
2287.124713053003
 31
0.0
  0
LINE
  5
8492
330
848C
100
AcDbEntity
  8
3
 62
     0
370
    -2
100
AcDbLine
 10
3507.813709636106
 20
2254.624713053003
 30
0.0
 11
3507.813709636106
 21
2274.524713053003
 31
0.0
  0
SOLID
  5
8493
330
848C
100
AcDbEntity
  8
3
 62
     0
100
AcDbTrace
 10
3506.763709636106
 20
2307.024713053003
 30
0.0
 11
3508.863709636106
 21
2307.024713053003
 31
0.0
 12
3507.813709636106
 22
2313.324713053003
 32
0.0
 13
3507.813709636106
 23
2313.324713053003
 33
0.0
  0
SOLID
  5
8494
330
848C
100
AcDbEntity
  8
3
 62
     0
100
AcDbTrace
 10
3506.763709636106
 20
2254.624713053003
 30
0.0
 11
3508.863709636106
 21
2254.624713053003
 31
0.0
 12
3507.813709636106
 22
2248.324713053003
 32
0.0
 13
3507.813709636106
 23
2248.324713053003
 33
0.0
  0
MTEXT
  5
8495
330
848C
100
AcDbEntity
  8
3
 62
     0
100
AcDbMText
 10
3507.813709636105
 20
2280.824713053004
 30
0.0
 40
6.299999999999999
 41
0.0
 71
     5
 72
     1
  1
\A1;65
 73
     1
 44
1.0
1001
ACAD
1000
MTEXTBEGIN
1070
    73
1070
     1
1070
    44
1040
1.0
1070
    74
1070
     0
1000
MTEXTEND
  0
POINT
  5
8496
330
848C
100
AcDbEntity
  8
DEFPOINTS
 62
     0
100
AcDbPoint
 10
3096.826826817036
 20
2313.324713053003
 30
0.0
  0
POINT
  5
8497
330
848C
100
AcDbEntity
  8
DEFPOINTS
 62
     0
100
AcDbPoint
 10
3096.826826817036
 20
2248.324713053003
 30
0.0
  0
POINT
  5
8498
330
848C
100
AcDbEntity
  8
DEFPOINTS
 62
     0
100
AcDbPoint
 10
3507.813709636106
 20
2248.324713053003
 30
0.0
  0
ENDBLK
  5
848E
330
848C
100
AcDbEntity
  8
0
100
AcDbBlockEnd
  0
BLOCK
  5
84A2
330
84A1
100
AcDbEntity
  8
0
100
AcDbBlockBegin
  2
*D37
 70
     1
 10
0.0
 20
0.0
 30
0.0
  3
*D37
  1

  0
LINE
  5
84B9
330
84A1
100
AcDbEntity
  8
3
 62
     0
370
    -2
100
AcDbLine
 10
6224.01705109929
 20
3988.324713053003
 30
0.0
 11
6700.004042651439
 21
3988.324713053003
 31
0.0
  0
LINE
  5
84BA
330
84A1
100
AcDbEntity
  8
3
 62
     0
370
    -2
100
AcDbLine
 10
6224.01705109929
 20
2868.324713053003
 30
0.0
 11
6700.004042651439
 21
2868.324713053003
 31
0.0
  0
LINE
  5
84BB
330
84A1
100
AcDbEntity
  8
3
 62
     0
370
    -2
100
AcDbLine
 10
6665.004042651439
 20
3918.324713053003
 30
0.0
 11
6665.004042651439
 21
2938.324713053003
 31
0.0
  0
INSERT
  5
84BC
330
84A1
100
AcDbEntity
  8
3
 62
     0
370
    -2
100
AcDbBlockReference
  2
_OPEN
 10
6665.004042651439
 20
3988.324713053003
 30
0.0
 41
70.0
 42
70.0
 43
70.0
 50
90.0
  0
INSERT
  5
84BD
330
84A1
100
AcDbEntity
  8
3
 62
     0
370
    -2
100
AcDbBlockReference
  2
_OPEN
 10
6665.004042651439
 20
2868.324713053003
 30
0.0
 41
70.0
 42
70.0
 43
70.0
 50
270.0
  0
MTEXT
  5
84BE
330
84A1
100
AcDbEntity
  8
3
 62
     0
100
AcDbMText
 10
6577.504042651438
 20
3428.324713053005
 30
0.0
 40
105.0
 41
0.0
 71
     5
 72
     1
  1
\A1;\U+03C61120
 11
0.0000000000000001
 21
1.0
 31
0.0
 73
     1
 44
1.0
1001
ACAD
1000
MTEXTBEGIN
1070
    73
1070
     1
1070
    44
1040
1.0
1070
    74
1070
     0
1000
MTEXTEND
  0
POINT
  5
84BF
330
84A1
100
AcDbEntity
  8
DEFPOINTS
 62
     0
100
AcDbPoint
 10
6206.517051099289
 20
3988.324713053003
 30
0.0
  0
POINT
  5
84C0
330
84A1
100
AcDbEntity
  8
DEFPOINTS
 62
     0
100
AcDbPoint
 10
6206.51705109929
 20
2868.324713053003
 30
0.0
  0
POINT
  5
84C1
330
84A1
100
AcDbEntity
  8
DEFPOINTS
 62
     0
100
AcDbPoint
 10
6665.004042651439
 20
2868.324713053003
 30
0.0
  0
ENDBLK
  5
84A3
330
84A1
100
AcDbEntity
  8
0
100
AcDbBlockEnd
  0
BLOCK
  5
84C4
330
84C3
100
AcDbEntity
  8
0
100
AcDbBlockBegin
  2
*D38
 70
     1
 10
0.0
 20
0.0
 30
0.0
  3
*D38
  1

  0
LINE
  5
84C6
330
84C3
100
AcDbEntity
  8
3
 62
     0
370
    -2
100
AcDbLine
 10
4706.517051099289
 20
4205.824713053003
 30
0.0
 11
4706.517051099289
 21
4483.443004574665
 31
0.0
  0
LINE
  5
84C7
330
84C3
100
AcDbEntity
  8
3
 62
     0
370
    -2
100
AcDbLine
 10
6206.517051099289
 20
4205.824713053003
 30
0.0
 11
6206.517051099289
 21
4483.443004574665
 31
0.0
  0
LINE
  5
84C8
330
84C3
100
AcDbEntity
  8
3
 62
     0
370
    -2
100
AcDbLine
 10
4776.517051099289
 20
4448.443004574665
 30
0.0
 11
6136.517051099289
 21
4448.443004574665
 31
0.0
  0
INSERT
  5
84C9
330
84C3
100
AcDbEntity
  8
3
 62
     0
370
    -2
100
AcDbBlockReference
  2
_OPEN
 10
4706.517051099289
 20
4448.443004574665
 30
0.0
 41
70.0
 42
70.0
 43
70.0
 50
180.0
  0
INSERT
  5
84CA
330
84C3
100
AcDbEntity
  8
3
 62
     0
370
    -2
100
AcDbBlockReference
  2
_OPEN
 10
6206.517051099289
 20
4448.443004574665
 30
0.0
 41
70.0
 42
70.0
 43
70.0
  0
MTEXT
  5
84CB
330
84C3
100
AcDbEntity
  8
3
 62
     0
100
AcDbMText
 10
5456.517051099289
 20
4535.943004574664
 30
0.0
 40
105.0
 41
0.0
 71
     5
 72
     1
  1
\A1;1500
 73
     1
 44
1.0
1001
ACAD
1000
MTEXTBEGIN
1070
    73
1070
     1
1070
    44
1040
1.0
1070
    74
1070
     0
1000
MTEXTEND
  0
POINT
  5
84CC
330
84C3
100
AcDbEntity
  8
DEFPOINTS
 62
     0
100
AcDbPoint
 10
4706.517051099289
 20
4188.324713053003
 30
0.0
  0
POINT
  5
84CD
330
84C3
100
AcDbEntity
  8
DEFPOINTS
 62
     0
100
AcDbPoint
 10
6206.517051099289
 20
4188.324713053003
 30
0.0
  0
POINT
  5
84CE
330
84C3
100
AcDbEntity
  8
DEFPOINTS
 62
     0
100
AcDbPoint
 10
6206.517051099289
 20
4448.443004574665
 30
0.0
  0
ENDBLK
  5
84C5
330
84C3
100
AcDbEntity
  8
0
100
AcDbBlockEnd
  0
BLOCK
  5
84D1
330
84D0
100
AcDbEntity
  8
0
100
AcDbBlockBegin
  2
*D39
 70
     1
 10
0.0
 20
0.0
 30
0.0
  3
*D39
  1

  0
LINE
  5
8530
330
84D0
100
AcDbEntity
  8
3
 62
     0
370
    -2
100
AcDbLine
 10
4336.517051099289
 20
3825.824713053003
 30
0.0
 11
4336.517051099289
 21
4713.210345261056
 31
0.0
  0
LINE
  5
8531
330
84D0
100
AcDbEntity
  8
3
 62
     0
370
    -2
100
AcDbLine
 10
5456.51705109929
 20
4609.727088870029
 30
0.0
 11
5456.51705109929
 21
4713.210345261056
 31
0.0
  0
LINE
  5
8532
330
84D0
100
AcDbEntity
  8
3
 62
     0
370
    -2
100
AcDbLine
 10
4406.517051099289
 20
4678.210345261056
 30
0.0
 11
5386.51705109929
 21
4678.210345261056
 31
0.0
  0
INSERT
  5
8533
330
84D0
100
AcDbEntity
  8
3
 62
     0
370
    -2
100
AcDbBlockReference
  2
_OPEN
 10
4336.517051099289
 20
4678.210345261056
 30
0.0
 41
70.0
 42
70.0
 43
70.0
 50
180.0
  0
INSERT
  5
8534
330
84D0
100
AcDbEntity
  8
3
 62
     0
370
    -2
100
AcDbBlockReference
  2
_OPEN
 10
5456.51705109929
 20
4678.210345261056
 30
0.0
 41
70.0
 42
70.0
 43
70.0
  0
MTEXT
  5
8535
330
84D0
100
AcDbEntity
  8
3
 62
     0
100
AcDbMText
 10
4896.517051099291
 20
4793.210345261056
 30
0.0
 40
105.0
 41
0.0
 71
     5
 72
     1
  1
\A1;(1120)
 73
     1
 44
1.0
1001
ACAD
1000
MTEXTBEGIN
1070
    73
1070
     1
1070
    44
1040
1.0
1070
    74
1070
     0
1000
MTEXTEND
  0
POINT
  5
8536
330
84D0
100
AcDbEntity
  8
DEFPOINTS
 62
     0
100
AcDbPoint
 10
4336.517051099289
 20
3808.324713053004
 30
0.0
  0
POINT
  5
8537
330
84D0
100
AcDbEntity
  8
DEFPOINTS
 62
     0
100
AcDbPoint
 10
5456.51705109929
 20
4592.227088870029
 30
0.0
  0
POINT
  5
8538
330
84D0
100
AcDbEntity
  8
DEFPOINTS
 62
     0
100
AcDbPoint
 10
5456.51705109929
 20
4678.210345261056
 30
0.0
  0
ENDBLK
  5
84D2
330
84D0
100
AcDbEntity
  8
0
100
AcDbBlockEnd
  0
BLOCK
  5
84DE
330
84DD
100
AcDbEntity
  8
0
100
AcDbBlockBegin
  2
*D40
 70
     1
 10
0.0
 20
0.0
 30
0.0
  3
*D40
  1

  0
LINE
  5
8542
330
84DD
100
AcDbEntity
  8
3
 62
     0
370
    -2
100
AcDbLine
 10
5456.51705109929
 20
4609.727088870029
 30
0.0
 11
5456.51705109929
 21
4713.210345261056
 31
0.0
  0
LINE
  5
8543
330
84DD
100
AcDbEntity
  8
3
 62
     0
370
    -2
100
AcDbLine
 10
6386.517051099289
 20
3372.824713053005
 30
0.0
 11
6386.517051099289
 21
4713.210345261056
 31
0.0
  0
LINE
  5
8544
330
84DD
100
AcDbEntity
  8
3
 62
     0
370
    -2
100
AcDbLine
 10
5526.51705109929
 20
4678.210345261056
 30
0.0
 11
6316.517051099289
 21
4678.210345261056
 31
0.0
  0
INSERT
  5
8545
330
84DD
100
AcDbEntity
  8
3
 62
     0
370
    -2
100
AcDbBlockReference
  2
_OPEN
 10
5456.51705109929
 20
4678.210345261056
 30
0.0
 41
70.0
 42
70.0
 43
70.0
 50
180.0
  0
INSERT
  5
8546
330
84DD
100
AcDbEntity
  8
3
 62
     0
370
    -2
100
AcDbBlockReference
  2
_OPEN
 10
6386.517051099289
 20
4678.210345261056
 30
0.0
 41
70.0
 42
70.0
 43
70.0
  0
MTEXT
  5
8547
330
84DD
100
AcDbEntity
  8
3
 62
     0
100
AcDbMText
 10
5921.51705109929
 20
4793.210345261056
 30
0.0
 40
105.0
 41
0.0
 71
     5
 72
     1
  1
\A1;(930)
 73
     1
 44
1.0
1001
ACAD
1000
MTEXTBEGIN
1070
    73
1070
     1
1070
    44
1040
1.0
1070
    74
1070
     0
1000
MTEXTEND
  0
POINT
  5
8548
330
84DD
100
AcDbEntity
  8
DEFPOINTS
 62
     0
100
AcDbPoint
 10
5456.51705109929
 20
4592.227088870029
 30
0.0
  0
POINT
  5
8549
330
84DD
100
AcDbEntity
  8
DEFPOINTS
 62
     0
100
AcDbPoint
 10
6386.517051099289
 20
3355.324713053004
 30
0.0
  0
POINT
  5
854A
330
84DD
100
AcDbEntity
  8
DEFPOINTS
 62
     0
100
AcDbPoint
 10
6386.517051099289
 20
4678.210345261056
 30
0.0
  0
ENDBLK
  5
84DF
330
84DD
100
AcDbEntity
  8
0
100
AcDbBlockEnd
  0
BLOCK
  5
84EB
330
84EA
100
AcDbEntity
  8
0
100
AcDbBlockBegin
  2
*D41
 70
     1
 10
0.0
 20
0.0
 30
0.0
  3
*D41
  1

  0
LINE
  5
84ED
330
84EA
100
AcDbEntity
  8
3
 62
     0
370
    -2
100
AcDbLine
 10
4374.517051099278
 20
2230.824713053003
 30
0.0
 11
4374.517051099278
 21
1942.469071117841
 31
0.0
  0
LINE
  5
84EE
330
84EA
100
AcDbEntity
  8
3
 62
     0
370
    -2
100
AcDbLine
 10
5456.517051099291
 20
2230.824713053003
 30
0.0
 11
5456.517051099291
 21
1942.469071117841
 31
0.0
  0
LINE
  5
84EF
330
84EA
100
AcDbEntity
  8
3
 62
     0
370
    -2
100
AcDbLine
 10
4444.517051099278
 20
1977.469071117841
 30
0.0
 11
5386.517051099291
 21
1977.469071117841
 31
0.0
  0
INSERT
  5
84F0
330
84EA
100
AcDbEntity
  8
3
 62
     0
370
    -2
100
AcDbBlockReference
  2
_OPEN
 10
4374.517051099278
 20
1977.469071117841
 30
0.0
 41
70.0
 42
70.0
 43
70.0
 50
180.0
  0
INSERT
  5
84F1
330
84EA
100
AcDbEntity
  8
3
 62
     0
370
    -2
100
AcDbBlockReference
  2
_OPEN
 10
5456.517051099291
 20
1977.469071117841
 30
0.0
 41
70.0
 42
70.0
 43
70.0
  0
MTEXT
  5
84F2
330
84EA
100
AcDbEntity
  8
3
 62
     0
100
AcDbMText
 10
4915.517051099285
 20
2064.969071117841
 30
0.0
 40
105.0
 41
0.0
 71
     5
 72
     1
  1
\A1;1082
 73
     1
 44
1.0
1001
ACAD
1000
MTEXTBEGIN
1070
    73
1070
     1
1070
    44
1040
1.0
1070
    74
1070
     0
1000
MTEXTEND
  0
POINT
  5
84F3
330
84EA
100
AcDbEntity
  8
DEFPOINTS
 62
     0
100
AcDbPoint
 10
4374.517051099278
 20
2248.324713053003
 30
0.0
  0
POINT
  5
84F4
330
84EA
100
AcDbEntity
  8
DEFPOINTS
 62
     0
100
AcDbPoint
 10
5456.517051099291
 20
2248.324713053003
 30
0.0
  0
POINT
  5
84F5
330
84EA
100
AcDbEntity
  8
DEFPOINTS
 62
     0
100
AcDbPoint
 10
5456.517051099291
 20
1977.469071117841
 30
0.0
  0
ENDBLK
  5
84EC
330
84EA
100
AcDbEntity
  8
0
100
AcDbBlockEnd
  0
BLOCK
  5
84F8
330
84F7
100
AcDbEntity
  8
0
100
AcDbBlockBegin
  2
*D42
 70
     1
 10
0.0
 20
0.0
 30
0.0
  3
*D42
  1

  0
LINE
  5
84FA
330
84F7
100
AcDbEntity
  8
3
 62
     0
370
    -2
100
AcDbLine
 10
5456.517051099291
 20
2230.824713053003
 30
0.0
 11
5456.517051099291
 21
1942.469071117841
 31
0.0
  0
LINE
  5
84FB
330
84F7
100
AcDbEntity
  8
3
 62
     0
370
    -2
100
AcDbLine
 10
6274.51705109927
 20
2230.824713053003
 30
0.0
 11
6274.51705109927
 21
1942.469071117841
 31
0.0
  0
LINE
  5
84FC
330
84F7
100
AcDbEntity
  8
3
 62
     0
370
    -2
100
AcDbLine
 10
5526.517051099291
 20
1977.469071117841
 30
0.0
 11
6204.51705109927
 21
1977.469071117841
 31
0.0
  0
INSERT
  5
84FD
330
84F7
100
AcDbEntity
  8
3
 62
     0
370
    -2
100
AcDbBlockReference
  2
_OPEN
 10
5456.517051099291
 20
1977.469071117841
 30
0.0
 41
70.0
 42
70.0
 43
70.0
 50
180.0
  0
INSERT
  5
84FE
330
84F7
100
AcDbEntity
  8
3
 62
     0
370
    -2
100
AcDbBlockReference
  2
_OPEN
 10
6274.51705109927
 20
1977.469071117841
 30
0.0
 41
70.0
 42
70.0
 43
70.0
  0
MTEXT
  5
84FF
330
84F7
100
AcDbEntity
  8
3
 62
     0
100
AcDbMText
 10
5865.517051099281
 20
2064.969071117841
 30
0.0
 40
105.0
 41
0.0
 71
     5
 72
     1
  1
\A1;818
 73
     1
 44
1.0
1001
ACAD
1000
MTEXTBEGIN
1070
    73
1070
     1
1070
    44
1040
1.0
1070
    74
1070
     0
1000
MTEXTEND
  0
POINT
  5
8500
330
84F7
100
AcDbEntity
  8
DEFPOINTS
 62
     0
100
AcDbPoint
 10
5456.517051099291
 20
2248.324713053003
 30
0.0
  0
POINT
  5
8501
330
84F7
100
AcDbEntity
  8
DEFPOINTS
 62
     0
100
AcDbPoint
 10
6274.51705109927
 20
2248.324713053003
 30
0.0
  0
POINT
  5
8502
330
84F7
100
AcDbEntity
  8
DEFPOINTS
 62
     0
100
AcDbPoint
 10
6274.51705109927
 20
1977.469071117841
 30
0.0
  0
ENDBLK
  5
84F9
330
84F7
100
AcDbEntity
  8
0
100
AcDbBlockEnd
  0
BLOCK
  5
854D
330
854C
100
AcDbEntity
  8
0
100
AcDbBlockBegin
  2
*D43
 70
     1
 10
0.0
 20
0.0
 30
0.0
  3
*D43
  1

  0
LINE
  5
854F
330
854C
100
AcDbEntity
  8
3
 62
     0
370
    -2
100
AcDbLine
 10
819.3268268170358
 20
6650.72380373434
 30
0.0
 11
586.0116974813247
 21
6650.72380373434
 31
0.0
  0
LINE
  5
8550
330
854C
100
AcDbEntity
  8
3
 62
     0
370
    -2
100
AcDbLine
 10
819.3268268170358
 20
5750.723803734341
 30
0.0
 11
586.0116974813244
 21
5750.723803734341
 31
0.0
  0
LINE
  5
8551
330
854C
100
AcDbEntity
  8
3
 62
     0
370
    -2
100
AcDbLine
 10
621.0116974813247
 20
6580.723803734341
 30
0.0
 11
621.0116974813245
 21
5820.723803734341
 31
0.0
  0
INSERT
  5
8552
330
854C
100
AcDbEntity
  8
3
 62
     0
370
    -2
100
AcDbBlockReference
  2
_OPEN
 10
621.0116974813247
 20
6650.72380373434
 30
0.0
 41
70.0
 42
70.0
 43
70.0
 50
90.0
  0
INSERT
  5
8553
330
854C
100
AcDbEntity
  8
3
 62
     0
370
    -2
100
AcDbBlockReference
  2
_OPEN
 10
621.0116974813245
 20
5750.723803734341
 30
0.0
 41
70.0
 42
70.0
 43
70.0
 50
270.0
  0
MTEXT
  5
8554
330
854C
100
AcDbEntity
  8
3
 62
     0
100
AcDbMText
 10
533.5116974813236
 20
6200.723803734341
 30
0.0
 40
105.0
 41
0.0
 71
     5
 72
     1
  1
\A1;900
 11
0.0000000000000001
 21
1.0
 31
0.0
 73
     1
 44
1.0
1001
ACAD
1000
MTEXTBEGIN
1070
    73
1070
     1
1070
    44
1040
1.0
1070
    74
1070
     0
1000
MTEXTEND
  0
POINT
  5
8555
330
854C
100
AcDbEntity
  8
DEFPOINTS
 62
     0
100
AcDbPoint
 10
836.8268268170357
 20
6650.72380373434
 30
0.0
  0
POINT
  5
8556
330
854C
100
AcDbEntity
  8
DEFPOINTS
 62
     0
100
AcDbPoint
 10
836.8268268170357
 20
5750.723803734341
 30
0.0
  0
POINT
  5
8557
330
854C
100
AcDbEntity
  8
DEFPOINTS
 62
     0
100
AcDbPoint
 10
621.0116974813245
 20
5750.723803734341
 30
0.0
  0
ENDBLK
  5
854E
330
854C
100
AcDbEntity
  8
0
100
AcDbBlockEnd
  0
BLOCK
  5
855A
330
8559
100
AcDbEntity
  8
0
100
AcDbBlockBegin
  2
*D44
 70
     1
 10
0.0
 20
0.0
 30
0.0
  3
*D44
  1

  0
LINE
  5
855C
330
8559
100
AcDbEntity
  8
3
 62
     0
370
    -2
100
AcDbLine
 10
836.8268268170357
 20
5733.223803734341
 30
0.0
 11
836.8268268170357
 21
5424.478611640394
 31
0.0
  0
LINE
  5
855D
330
8559
100
AcDbEntity
  8
3
 62
     0
370
    -2
100
AcDbLine
 10
3096.826826817036
 20
5733.223803734341
 30
0.0
 11
3096.826826817036
 21
5424.478611640394
 31
0.0
  0
LINE
  5
855E
330
8559
100
AcDbEntity
  8
3
 62
     0
370
    -2
100
AcDbLine
 10
906.8268268170358
 20
5459.478611640394
 30
0.0
 11
3026.826826817036
 21
5459.478611640394
 31
0.0
  0
INSERT
  5
855F
330
8559
100
AcDbEntity
  8
3
 62
     0
370
    -2
100
AcDbBlockReference
  2
_OPEN
 10
836.8268268170357
 20
5459.478611640394
 30
0.0
 41
70.0
 42
70.0
 43
70.0
 50
180.0
  0
INSERT
  5
8560
330
8559
100
AcDbEntity
  8
3
 62
     0
370
    -2
100
AcDbBlockReference
  2
_OPEN
 10
3096.826826817036
 20
5459.478611640394
 30
0.0
 41
70.0
 42
70.0
 43
70.0
  0
MTEXT
  5
8561
330
8559
100
AcDbEntity
  8
3
 62
     0
100
AcDbMText
 10
1966.826826817036
 20
5546.978611640394
 30
0.0
 40
105.0
 41
0.0
 71
     5
 72
     1
  1
\A1;2260
 73
     1
 44
1.0
1001
ACAD
1000
MTEXTBEGIN
1070
    73
1070
     1
1070
    44
1040
1.0
1070
    74
1070
     0
1000
MTEXTEND
  0
POINT
  5
8562
330
8559
100
AcDbEntity
  8
DEFPOINTS
 62
     0
100
AcDbPoint
 10
836.8268268170357
 20
5750.723803734341
 30
0.0
  0
POINT
  5
8563
330
8559
100
AcDbEntity
  8
DEFPOINTS
 62
     0
100
AcDbPoint
 10
3096.826826817036
 20
5750.723803734341
 30
0.0
  0
POINT
  5
8564
330
8559
100
AcDbEntity
  8
DEFPOINTS
 62
     0
100
AcDbPoint
 10
3096.826826817036
 20
5459.478611640394
 30
0.0
  0
ENDBLK
  5
855B
330
8559
100
AcDbEntity
  8
0
100
AcDbBlockEnd
  0
BLOCK
  5
8567
330
8566
100
AcDbEntity
  8
0
100
AcDbBlockBegin
  2
*D45
 70
     1
 10
0.0
 20
0.0
 30
0.0
  3
*D45
  1

  0
LINE
  5
8569
330
8566
100
AcDbEntity
  8
3
 62
     0
370
    -2
100
AcDbLine
 10
3114.326826817036
 20
5750.723803734341
 30
0.0
 11
3612.125907775742
 21
5750.723803734341
 31
0.0
  0
LINE
  5
856A
330
8566
100
AcDbEntity
  8
3
 62
     0
370
    -2
100
AcDbLine
 10
3114.326826817036
 20
7650.723803734343
 30
0.0
 11
3612.125907775743
 21
7650.723803734343
 31
0.0
  0
LINE
  5
856B
330
8566
100
AcDbEntity
  8
3
 62
     0
370
    -2
100
AcDbLine
 10
3577.125907775742
 20
5820.723803734341
 30
0.0
 11
3577.125907775743
 21
7580.723803734342
 31
0.0
  0
INSERT
  5
856C
330
8566
100
AcDbEntity
  8
3
 62
     0
370
    -2
100
AcDbBlockReference
  2
_OPEN
 10
3577.125907775742
 20
5750.723803734341
 30
0.0
 41
70.0
 42
70.0
 43
70.0
 50
270.0
  0
INSERT
  5
856D
330
8566
100
AcDbEntity
  8
3
 62
     0
370
    -2
100
AcDbBlockReference
  2
_OPEN
 10
3577.125907775743
 20
7650.723803734343
 30
0.0
 41
70.0
 42
70.0
 43
70.0
 50
90.0
  0
MTEXT
  5
856E
330
8566
100
AcDbEntity
  8
3
 62
     0
100
AcDbMText
 10
3489.625907775741
 20
6700.723803734343
 30
0.0
 40
105.0
 41
0.0
 71
     5
 72
     1
  1
\A1;1900
 11
0.0000000000000001
 21
1.0
 31
0.0
 73
     1
 44
1.0
1001
ACAD
1000
MTEXTBEGIN
1070
    73
1070
     1
1070
    44
1040
1.0
1070
    74
1070
     0
1000
MTEXTEND
  0
POINT
  5
856F
330
8566
100
AcDbEntity
  8
DEFPOINTS
 62
     0
100
AcDbPoint
 10
3096.826826817036
 20
5750.723803734341
 30
0.0
  0
POINT
  5
8570
330
8566
100
AcDbEntity
  8
DEFPOINTS
 62
     0
100
AcDbPoint
 10
3096.826826817036
 20
7650.723803734343
 30
0.0
  0
POINT
  5
8571
330
8566
100
AcDbEntity
  8
DEFPOINTS
 62
     0
100
AcDbPoint
 10
3577.125907775743
 20
7650.723803734343
 30
0.0
  0
ENDBLK
  5
8568
330
8566
100
AcDbEntity
  8
0
100
AcDbBlockEnd
  0
BLOCK
  5
8574
330
8573
100
AcDbEntity
  8
0
100
AcDbBlockBegin
  2
*D46
 70
     1
 10
0.0
 20
0.0
 30
0.0
  3
*D46
  1

  0
LINE
  5
8576
330
8573
100
AcDbEntity
  8
3
 62
     0
370
    -2
100
AcDbLine
 10
3096.826826817036
 20
7668.223803734342
 30
0.0
 11
3096.826826817036
 21
7859.73116420546
 31
0.0
  0
LINE
  5
8577
330
8573
100
AcDbEntity
  8
3
 62
     0
370
    -2
100
AcDbLine
 10
1776.826826817035
 20
7668.223803734341
 30
0.0
 11
1776.826826817035
 21
7859.73116420546
 31
0.0
  0
LINE
  5
8578
330
8573
100
AcDbEntity
  8
3
 62
     0
370
    -2
100
AcDbLine
 10
3026.826826817036
 20
7824.731164205461
 30
0.0
 11
1846.826826817035
 21
7824.731164205461
 31
0.0
  0
INSERT
  5
8579
330
8573
100
AcDbEntity
  8
3
 62
     0
370
    -2
100
AcDbBlockReference
  2
_OPEN
 10
3096.826826817036
 20
7824.731164205461
 30
0.0
 41
70.0
 42
70.0
 43
70.0
  0
INSERT
  5
857A
330
8573
100
AcDbEntity
  8
3
 62
     0
370
    -2
100
AcDbBlockReference
  2
_OPEN
 10
1776.826826817035
 20
7824.731164205461
 30
0.0
 41
70.0
 42
70.0
 43
70.0
 50
180.0
  0
MTEXT
  5
857B
330
8573
100
AcDbEntity
  8
3
 62
     0
100
AcDbMText
 10
2436.826826817036
 20
7912.231164205461
 30
0.0
 40
105.0
 41
0.0
 71
     5
 72
     1
  1
\A1;1320
 73
     1
 44
1.0
1001
ACAD
1000
MTEXTBEGIN
1070
    73
1070
     1
1070
    44
1040
1.0
1070
    74
1070
     0
1000
MTEXTEND
  0
POINT
  5
857C
330
8573
100
AcDbEntity
  8
DEFPOINTS
 62
     0
100
AcDbPoint
 10
3096.826826817036
 20
7650.723803734343
 30
0.0
  0
POINT
  5
857D
330
8573
100
AcDbEntity
  8
DEFPOINTS
 62
     0
100
AcDbPoint
 10
1776.826826817035
 20
7650.723803734341
 30
0.0
  0
POINT
  5
857E
330
8573
100
AcDbEntity
  8
DEFPOINTS
 62
     0
100
AcDbPoint
 10
1776.826826817035
 20
7824.731164205461
 30
0.0
  0
ENDBLK
  5
8575
330
8573
100
AcDbEntity
  8
0
100
AcDbBlockEnd
  0
BLOCK
  5
8581
330
8580
100
AcDbEntity
  8
0
100
AcDbBlockBegin
  2
*D47
 70
     1
 10
0.0
 20
0.0
 30
0.0
  3
*D47
  1

  0
LINE
  5
8583
330
8580
100
AcDbEntity
  8
3
 62
     0
370
    -2
100
AcDbLine
 10
1776.826826817035
 20
7668.223803734341
 30
0.0
 11
1776.826826817035
 21
7859.73116420546
 31
0.0
  0
LINE
  5
8584
330
8580
100
AcDbEntity
  8
3
 62
     0
370
    -2
100
AcDbLine
 10
836.8268268170357
 20
6668.223803734341
 30
0.0
 11
836.8268268170359
 21
7859.73116420546
 31
0.0
  0
LINE
  5
8585
330
8580
100
AcDbEntity
  8
3
 62
     0
370
    -2
100
AcDbLine
 10
1706.826826817035
 20
7824.731164205461
 30
0.0
 11
906.8268268170358
 21
7824.731164205461
 31
0.0
  0
INSERT
  5
8586
330
8580
100
AcDbEntity
  8
3
 62
     0
370
    -2
100
AcDbBlockReference
  2
_OPEN
 10
1776.826826817035
 20
7824.731164205461
 30
0.0
 41
70.0
 42
70.0
 43
70.0
  0
INSERT
  5
8587
330
8580
100
AcDbEntity
  8
3
 62
     0
370
    -2
100
AcDbBlockReference
  2
_OPEN
 10
836.8268268170359
 20
7824.731164205461
 30
0.0
 41
70.0
 42
70.0
 43
70.0
 50
180.0
  0
MTEXT
  5
8588
330
8580
100
AcDbEntity
  8
3
 62
     0
100
AcDbMText
 10
1306.826826817035
 20
7912.231164205461
 30
0.0
 40
105.0
 41
0.0
 71
     5
 72
     1
  1
\A1;940
 73
     1
 44
1.0
1001
ACAD
1000
MTEXTBEGIN
1070
    73
1070
     1
1070
    44
1040
1.0
1070
    74
1070
     0
1000
MTEXTEND
  0
POINT
  5
8589
330
8580
100
AcDbEntity
  8
DEFPOINTS
 62
     0
100
AcDbPoint
 10
1776.826826817035
 20
7650.723803734341
 30
0.0
  0
POINT
  5
858A
330
8580
100
AcDbEntity
  8
DEFPOINTS
 62
     0
100
AcDbPoint
 10
836.8268268170357
 20
6650.72380373434
 30
0.0
  0
POINT
  5
858B
330
8580
100
AcDbEntity
  8
DEFPOINTS
 62
     0
100
AcDbPoint
 10
836.8268268170359
 20
7824.731164205461
 30
0.0
  0
ENDBLK
  5
8582
330
8580
100
AcDbEntity
  8
0
100
AcDbBlockEnd
  0
BLOCK
  5
858E
330
858D
100
AcDbEntity
  8
0
100
AcDbBlockBegin
  2
*D48
 70
     1
 10
0.0
 20
0.0
 30
0.0
  3
*D48
  1

  0
LINE
  5
8590
330
858D
100
AcDbEntity
  8
3
 62
     0
370
    -2
100
AcDbLine
 10
836.8268268170357
 20
2560.824713053003
 30
0.0
 11
836.8268268170359
 21
4855.526081803353
 31
0.0
  0
LINE
  5
8591
330
858D
100
AcDbEntity
  8
3
 62
     0
370
    -2
100
AcDbLine
 10
3241.826826817036
 20
3363.824713053003
 30
0.0
 11
3241.826826817036
 21
4855.526081803353
 31
0.0
  0
LINE
  5
8592
330
858D
100
AcDbEntity
  8
3
 62
     0
370
    -2
100
AcDbLine
 10
906.8268268170358
 20
4820.526081803353
 30
0.0
 11
3171.826826817036
 21
4820.526081803353
 31
0.0
  0
INSERT
  5
8593
330
858D
100
AcDbEntity
  8
3
 62
     0
370
    -2
100
AcDbBlockReference
  2
_OPEN
 10
836.8268268170359
 20
4820.526081803353
 30
0.0
 41
70.0
 42
70.0
 43
70.0
 50
180.0
  0
INSERT
  5
8594
330
858D
100
AcDbEntity
  8
3
 62
     0
370
    -2
100
AcDbBlockReference
  2
_OPEN
 10
3241.826826817036
 20
4820.526081803353
 30
0.0
 41
70.0
 42
70.0
 43
70.0
  0
MTEXT
  5
8595
330
858D
100
AcDbEntity
  8
3
 62
     0
100
AcDbMText
 10
2039.326826817036
 20
4908.026081803352
 30
0.0
 40
105.0
 41
0.0
 71
     5
 72
     1
  1
\A1;2405
 73
     1
 44
1.0
1001
ACAD
1000
MTEXTBEGIN
1070
    73
1070
     1
1070
    44
1040
1.0
1070
    74
1070
     0
1000
MTEXTEND
  0
POINT
  5
8596
330
858D
100
AcDbEntity
  8
DEFPOINTS
 62
     0
100
AcDbPoint
 10
836.8268268170357
 20
2543.324713053003
 30
0.0
  0
POINT
  5
8597
330
858D
100
AcDbEntity
  8
DEFPOINTS
 62
     0
100
AcDbPoint
 10
3241.826826817036
 20
3346.324713053003
 30
0.0
  0
POINT
  5
8598
330
858D
100
AcDbEntity
  8
DEFPOINTS
 62
     0
100
AcDbPoint
 10
3241.826826817036
 20
4820.526081803353
 30
0.0
  0
ENDBLK
  5
858F
330
858D
100
AcDbEntity
  8
0
100
AcDbBlockEnd
  0
BLOCK
  5
859B
330
859A
100
AcDbEntity
  8
0
100
AcDbBlockBegin
  2
*D49
 70
     1
 10
0.0
 20
0.0
 30
0.0
  3
*D49
  1

  0
LINE
  5
859D
330
859A
100
AcDbEntity
  8
3
 62
     0
370
    -2
100
AcDbLine
 10
1238.826826817035
 20
4205.824713053003
 30
0.0
 11
1238.826826817035
 21
4423.433029337271
 31
0.0
  0
LINE
  5
859E
330
859A
100
AcDbEntity
  8
3
 62
     0
370
    -2
100
AcDbLine
 10
2388.826826817036
 20
4205.824713053003
 30
0.0
 11
2388.826826817036
 21
4423.433029337271
 31
0.0
  0
LINE
  5
859F
330
859A
100
AcDbEntity
  8
3
 62
     0
370
    -2
100
AcDbLine
 10
1308.826826817035
 20
4388.433029337271
 30
0.0
 11
2318.826826817036
 21
4388.433029337271
 31
0.0
  0
INSERT
  5
85A0
330
859A
100
AcDbEntity
  8
3
 62
     0
370
    -2
100
AcDbBlockReference
  2
_OPEN
 10
1238.826826817035
 20
4388.433029337271
 30
0.0
 41
70.0
 42
70.0
 43
70.0
 50
180.0
  0
INSERT
  5
85A1
330
859A
100
AcDbEntity
  8
3
 62
     0
370
    -2
100
AcDbBlockReference
  2
_OPEN
 10
2388.826826817036
 20
4388.433029337271
 30
0.0
 41
70.0
 42
70.0
 43
70.0
  0
MTEXT
  5
85A2
330
859A
100
AcDbEntity
  8
3
 62
     0
100
AcDbMText
 10
1813.826826817035
 20
4475.933029337271
 30
0.0
 40
105.0
 41
0.0
 71
     5
 72
     1
  1
\A1;1150
 73
     1
 44
1.0
1001
ACAD
1000
MTEXTBEGIN
1070
    73
1070
     1
1070
    44
1040
1.0
1070
    74
1070
     0
1000
MTEXTEND
  0
POINT
  5
85A3
330
859A
100
AcDbEntity
  8
DEFPOINTS
 62
     0
100
AcDbPoint
 10
1238.826826817035
 20
4188.324713053003
 30
0.0
  0
POINT
  5
85A4
330
859A
100
AcDbEntity
  8
DEFPOINTS
 62
     0
100
AcDbPoint
 10
2388.826826817036
 20
4188.324713053003
 30
0.0
  0
POINT
  5
85A5
330
859A
100
AcDbEntity
  8
DEFPOINTS
 62
     0
100
AcDbPoint
 10
2388.826826817036
 20
4388.433029337271
 30
0.0
  0
ENDBLK
  5
859C
330
859A
100
AcDbEntity
  8
0
100
AcDbBlockEnd
  0
BLOCK
  5
85A8
330
85A7
100
AcDbEntity
  8
0
100
AcDbBlockBegin
  2
*D50
 70
     1
 10
0.0
 20
0.0
 30
0.0
  3
*D50
  1

  0
LINE
  5
85AA
330
85A7
100
AcDbEntity
  8
3
 62
     0
370
    -2
100
AcDbLine
 10
1238.826826817035
 20
4205.824713053003
 30
0.0
 11
1238.826826817035
 21
4623.58468019877
 31
0.0
  0
LINE
  5
85AB
330
85A7
100
AcDbEntity
  8
3
 62
     0
370
    -2
100
AcDbLine
 10
2436.826826817036
 20
4273.716972783115
 30
0.0
 11
2436.826826817036
 21
4623.58468019877
 31
0.0
  0
LINE
  5
85AC
330
85A7
100
AcDbEntity
  8
3
 62
     0
370
    -2
100
AcDbLine
 10
1308.826826817035
 20
4588.58468019877
 30
0.0
 11
2366.826826817036
 21
4588.58468019877
 31
0.0
  0
INSERT
  5
85AD
330
85A7
100
AcDbEntity
  8
3
 62
     0
370
    -2
100
AcDbBlockReference
  2
_OPEN
 10
1238.826826817035
 20
4588.58468019877
 30
0.0
 41
70.0
 42
70.0
 43
70.0
 50
180.0
  0
INSERT
  5
85AE
330
85A7
100
AcDbEntity
  8
3
 62
     0
370
    -2
100
AcDbBlockReference
  2
_OPEN
 10
2436.826826817036
 20
4588.58468019877
 30
0.0
 41
70.0
 42
70.0
 43
70.0
  0
MTEXT
  5
85AF
330
85A7
100
AcDbEntity
  8
3
 62
     0
100
AcDbMText
 10
1837.826826817035
 20
4676.08468019877
 30
0.0
 40
105.0
 41
0.0
 71
     5
 72
     1
  1
\A1;1198
 73
     1
 44
1.0
1001
ACAD
1000
MTEXTBEGIN
1070
    73
1070
     1
1070
    44
1040
1.0
1070
    74
1070
     0
1000
MTEXTEND
  0
POINT
  5
85B0
330
85A7
100
AcDbEntity
  8
DEFPOINTS
 62
     0
100
AcDbPoint
 10
1238.826826817035
 20
4188.324713053003
 30
0.0
  0
POINT
  5
85B1
330
85A7
100
AcDbEntity
  8
DEFPOINTS
 62
     0
100
AcDbPoint
 10
2436.826826817036
 20
4256.216972783115
 30
0.0
  0
POINT
  5
85B2
330
85A7
100
AcDbEntity
  8
DEFPOINTS
 62
     0
100
AcDbPoint
 10
2436.826826817036
 20
4588.58468019877
 30
0.0
  0
ENDBLK
  5
85A9
330
85A7
100
AcDbEntity
  8
0
100
AcDbBlockEnd
  0
BLOCK
  5
85B5
330
85B4
100
AcDbEntity
  8
0
100
AcDbBlockBegin
  2
*D51
 70
     1
 10
0.0
 20
0.0
 30
0.0
  3
*D51
  1

  0
LINE
  5
85B7
330
85B4
100
AcDbEntity
  8
3
 62
     0
370
    -2
100
AcDbLine
 10
2436.826826817036
 20
4273.716972783115
 30
0.0
 11
2436.826826817036
 21
4623.58468019877
 31
0.0
  0
LINE
  5
85B8
330
85B4
100
AcDbEntity
  8
3
 62
     0
370
    -2
100
AcDbLine
 10
3241.826826817036
 20
3363.824713053003
 30
0.0
 11
3241.826826817036
 21
4623.58468019877
 31
0.0
  0
LINE
  5
85B9
330
85B4
100
AcDbEntity
  8
3
 62
     0
370
    -2
100
AcDbLine
 10
2506.826826817036
 20
4588.58468019877
 30
0.0
 11
3171.826826817036
 21
4588.58468019877
 31
0.0
  0
INSERT
  5
85BA
330
85B4
100
AcDbEntity
  8
3
 62
     0
370
    -2
100
AcDbBlockReference
  2
_OPEN
 10
2436.826826817036
 20
4588.58468019877
 30
0.0
 41
70.0
 42
70.0
 43
70.0
 50
180.0
  0
INSERT
  5
85BB
330
85B4
100
AcDbEntity
  8
3
 62
     0
370
    -2
100
AcDbBlockReference
  2
_OPEN
 10
3241.826826817036
 20
4588.58468019877
 30
0.0
 41
70.0
 42
70.0
 43
70.0
  0
MTEXT
  5
85BC
330
85B4
100
AcDbEntity
  8
3
 62
     0
100
AcDbMText
 10
2839.326826817036
 20
4676.08468019877
 30
0.0
 40
105.0
 41
0.0
 71
     5
 72
     1
  1
\A1;805
 73
     1
 44
1.0
1001
ACAD
1000
MTEXTBEGIN
1070
    73
1070
     1
1070
    44
1040
1.0
1070
    74
1070
     0
1000
MTEXTEND
  0
POINT
  5
85BD
330
85B4
100
AcDbEntity
  8
DEFPOINTS
 62
     0
100
AcDbPoint
 10
2436.826826817036
 20
4256.216972783115
 30
0.0
  0
POINT
  5
85BE
330
85B4
100
AcDbEntity
  8
DEFPOINTS
 62
     0
100
AcDbPoint
 10
3241.826826817036
 20
3346.324713053003
 30
0.0
  0
POINT
  5
85BF
330
85B4
100
AcDbEntity
  8
DEFPOINTS
 62
     0
100
AcDbPoint
 10
3241.826826817036
 20
4588.58468019877
 30
0.0
  0
ENDBLK
  5
85B6
330
85B4
100
AcDbEntity
  8
0
100
AcDbBlockEnd
  0
BLOCK
  5
85C2
330
85C1
100
AcDbEntity
  8
0
100
AcDbBlockBegin
  2
*D52
 70
     1
 10
0.0
 20
0.0
 30
0.0
  3
*D52
  1

  0
LINE
  5
85C4
330
85C1
100
AcDbEntity
  8
3
 62
     0
370
    -2
100
AcDbLine
 10
836.8268268170357
 20
2230.824713053003
 30
0.0
 11
836.8268268170357
 21
1953.450225277922
 31
0.0
  0
LINE
  5
85C5
330
85C1
100
AcDbEntity
  8
3
 62
     0
370
    -2
100
AcDbLine
 10
2436.826826817035
 20
2230.824713053003
 30
0.0
 11
2436.826826817035
 21
1953.450225277922
 31
0.0
  0
LINE
  5
85C6
330
85C1
100
AcDbEntity
  8
3
 62
     0
370
    -2
100
AcDbLine
 10
906.8268268170358
 20
1988.450225277922
 30
0.0
 11
2366.826826817035
 21
1988.450225277922
 31
0.0
  0
INSERT
  5
85C7
330
85C1
100
AcDbEntity
  8
3
 62
     0
370
    -2
100
AcDbBlockReference
  2
_OPEN
 10
836.8268268170357
 20
1988.450225277922
 30
0.0
 41
70.0
 42
70.0
 43
70.0
 50
180.0
  0
INSERT
  5
85C8
330
85C1
100
AcDbEntity
  8
3
 62
     0
370
    -2
100
AcDbBlockReference
  2
_OPEN
 10
2436.826826817035
 20
1988.450225277922
 30
0.0
 41
70.0
 42
70.0
 43
70.0
  0
MTEXT
  5
85C9
330
85C1
100
AcDbEntity
  8
3
 62
     0
100
AcDbMText
 10
1636.826826817035
 20
2075.950225277922
 30
0.0
 40
105.0
 41
0.0
 71
     5
 72
     1
  1
\A1;1600
 73
     1
 44
1.0
1001
ACAD
1000
MTEXTBEGIN
1070
    73
1070
     1
1070
    44
1040
1.0
1070
    74
1070
     0
1000
MTEXTEND
  0
POINT
  5
85CA
330
85C1
100
AcDbEntity
  8
DEFPOINTS
 62
     0
100
AcDbPoint
 10
836.8268268170357
 20
2248.324713053003
 30
0.0
  0
POINT
  5
85CB
330
85C1
100
AcDbEntity
  8
DEFPOINTS
 62
     0
100
AcDbPoint
 10
2436.826826817035
 20
2248.324713053003
 30
0.0
  0
POINT
  5
85CC
330
85C1
100
AcDbEntity
  8
DEFPOINTS
 62
     0
100
AcDbPoint
 10
2436.826826817035
 20
1988.450225277922
 30
0.0
  0
ENDBLK
  5
85C3
330
85C1
100
AcDbEntity
  8
0
100
AcDbBlockEnd
  0
BLOCK
  5
85CF
330
85CE
100
AcDbEntity
  8
0
100
AcDbBlockBegin
  2
*D53
 70
     1
 10
0.0
 20
0.0
 30
0.0
  3
*D53
  1

  0
LINE
  5
85D1
330
85CE
100
AcDbEntity
  8
3
 62
     0
370
    -2
100
AcDbLine
 10
2436.826826817035
 20
2230.824713053003
 30
0.0
 11
2436.826826817035
 21
1953.450225277922
 31
0.0
  0
LINE
  5
85D2
330
85CE
100
AcDbEntity
  8
3
 62
     0
370
    -2
100
AcDbLine
 10
3096.826826817036
 20
2230.824713053003
 30
0.0
 11
3096.826826817036
 21
1953.450225277922
 31
0.0
  0
LINE
  5
85D3
330
85CE
100
AcDbEntity
  8
3
 62
     0
370
    -2
100
AcDbLine
 10
2506.826826817035
 20
1988.450225277922
 30
0.0
 11
3026.826826817036
 21
1988.450225277922
 31
0.0
  0
INSERT
  5
85D4
330
85CE
100
AcDbEntity
  8
3
 62
     0
370
    -2
100
AcDbBlockReference
  2
_OPEN
 10
2436.826826817035
 20
1988.450225277922
 30
0.0
 41
70.0
 42
70.0
 43
70.0
 50
180.0
  0
INSERT
  5
85D5
330
85CE
100
AcDbEntity
  8
3
 62
     0
370
    -2
100
AcDbBlockReference
  2
_OPEN
 10
3096.826826817036
 20
1988.450225277922
 30
0.0
 41
70.0
 42
70.0
 43
70.0
  0
MTEXT
  5
85D6
330
85CE
100
AcDbEntity
  8
3
 62
     0
100
AcDbMText
 10
2766.826826817036
 20
2075.950225277922
 30
0.0
 40
105.0
 41
0.0
 71
     5
 72
     1
  1
\A1;660
 73
     1
 44
1.0
1001
ACAD
1000
MTEXTBEGIN
1070
    73
1070
     1
1070
    44
1040
1.0
1070
    74
1070
     0
1000
MTEXTEND
  0
POINT
  5
85D7
330
85CE
100
AcDbEntity
  8
DEFPOINTS
 62
     0
100
AcDbPoint
 10
2436.826826817035
 20
2248.324713053003
 30
0.0
  0
POINT
  5
85D8
330
85CE
100
AcDbEntity
  8
DEFPOINTS
 62
     0
100
AcDbPoint
 10
3096.826826817036
 20
2248.324713053003
 30
0.0
  0
POINT
  5
85D9
330
85CE
100
AcDbEntity
  8
DEFPOINTS
 62
     0
100
AcDbPoint
 10
3096.826826817036
 20
1988.450225277922
 30
0.0
  0
ENDBLK
  5
85D0
330
85CE
100
AcDbEntity
  8
0
100
AcDbBlockEnd
  0
BLOCK
  5
85DC
330
85DB
100
AcDbEntity
  8
0
100
AcDbBlockBegin
  2
*D54
 70
     1
 10
0.0
 20
0.0
 30
0.0
  3
*D54
  1

  0
LINE
  5
85DE
330
85DB
100
AcDbEntity
  8
3
 62
     0
370
    -2
100
AcDbLine
 10
2459.326826817036
 20
4188.324713053003
 30
0.0
 11
3542.813709636106
 21
4188.324713053003
 31
0.0
  0
LINE
  5
85DF
330
85DB
100
AcDbEntity
  8
3
 62
     0
370
    -2
100
AcDbLine
 10
3361.107478270012
 20
3428.324713053003
 30
0.0
 11
3542.813709636106
 21
3428.324713053003
 31
0.0
  0
LINE
  5
85E0
330
85DB
100
AcDbEntity
  8
3
 62
     0
370
    -2
100
AcDbLine
 10
3507.813709636106
 20
4118.324713053002
 30
0.0
 11
3507.813709636106
 21
3498.324713053003
 31
0.0
  0
INSERT
  5
85E1
330
85DB
100
AcDbEntity
  8
3
 62
     0
370
    -2
100
AcDbBlockReference
  2
_OPEN
 10
3507.813709636106
 20
4188.324713053003
 30
0.0
 41
70.0
 42
70.0
 43
70.0
 50
90.0
  0
INSERT
  5
85E2
330
85DB
100
AcDbEntity
  8
3
 62
     0
370
    -2
100
AcDbBlockReference
  2
_OPEN
 10
3507.813709636106
 20
3428.324713053003
 30
0.0
 41
70.0
 42
70.0
 43
70.0
 50
270.0
  0
MTEXT
  5
85E3
330
85DB
100
AcDbEntity
  8
3
 62
     0
100
AcDbMText
 10
3420.313709636106
 20
3808.324713053004
 30
0.0
 40
105.0
 41
0.0
 71
     5
 72
     1
  1
\A1;760
 11
0.0000000000000001
 21
1.0
 31
0.0
 73
     1
 44
1.0
1001
ACAD
1000
MTEXTBEGIN
1070
    73
1070
     1
1070
    44
1040
1.0
1070
    74
1070
     0
1000
MTEXTEND
  0
POINT
  5
85E4
330
85DB
100
AcDbEntity
  8
DEFPOINTS
 62
     0
100
AcDbPoint
 10
2441.826826817036
 20
4188.324713053003
 30
0.0
  0
POINT
  5
85E5
330
85DB
100
AcDbEntity
  8
DEFPOINTS
 62
     0
100
AcDbPoint
 10
3343.607478270012
 20
3428.324713053003
 30
0.0
  0
POINT
  5
85E6
330
85DB
100
AcDbEntity
  8
DEFPOINTS
 62
     0
100
AcDbPoint
 10
3507.813709636106
 20
3428.324713053003
 30
0.0
  0
ENDBLK
  5
85DD
330
85DB
100
AcDbEntity
  8
0
100
AcDbBlockEnd
  0
BLOCK
  5
85E9
330
85E8
100
AcDbEntity
  8
0
100
AcDbBlockBegin
  2
*D55
 70
     1
 10
0.0
 20
0.0
 30
0.0
  3
*D55
  1

  0
LINE
  5
85EB
330
85E8
100
AcDbEntity
  8
3
 62
     0
370
    -2
100
AcDbLine
 10
3361.107478270012
 20
3428.324713053003
 30
0.0
 11
3542.813709636106
 21
3428.324713053003
 31
0.0
  0
LINE
  5
85EC
330
85E8
100
AcDbEntity
  8
3
 62
     0
370
    -2
100
AcDbLine
 10
3114.326826817036
 20
2418.324713053003
 30
0.0
 11
3542.813709636106
 21
2418.324713053003
 31
0.0
  0
LINE
  5
85ED
330
85E8
100
AcDbEntity
  8
3
 62
     0
370
    -2
100
AcDbLine
 10
3507.813709636106
 20
3358.324713053003
 30
0.0
 11
3507.813709636105
 21
2488.324713053003
 31
0.0
  0
INSERT
  5
85EE
330
85E8
100
AcDbEntity
  8
3
 62
     0
370
    -2
100
AcDbBlockReference
  2
_OPEN
 10
3507.813709636106
 20
3428.324713053003
 30
0.0
 41
70.0
 42
70.0
 43
70.0
 50
90.0
  0
INSERT
  5
85EF
330
85E8
100
AcDbEntity
  8
3
 62
     0
370
    -2
100
AcDbBlockReference
  2
_OPEN
 10
3507.813709636105
 20
2418.324713053003
 30
0.0
 41
70.0
 42
70.0
 43
70.0
 50
270.0
  0
MTEXT
  5
85F0
330
85E8
100
AcDbEntity
  8
3
 62
     0
100
AcDbMText
 10
3420.313709636106
 20
2923.324713053004
 30
0.0
 40
105.0
 41
0.0
 71
     5
 72
     1
  1
\A1;1010
 11
0.0000000000000001
 21
1.0
 31
0.0
 73
     1
 44
1.0
1001
ACAD
1000
MTEXTBEGIN
1070
    73
1070
     1
1070
    44
1040
1.0
1070
    74
1070
     0
1000
MTEXTEND
  0
POINT
  5
85F1
330
85E8
100
AcDbEntity
  8
DEFPOINTS
 62
     0
100
AcDbPoint
 10
3343.607478270012
 20
3428.324713053003
 30
0.0
  0
POINT
  5
85F2
330
85E8
100
AcDbEntity
  8
DEFPOINTS
 62
     0
100
AcDbPoint
 10
3096.826826817036
 20
2418.324713053003
 30
0.0
  0
POINT
  5
85F3
330
85E8
100
AcDbEntity
  8
DEFPOINTS
 62
     0
100
AcDbPoint
 10
3507.813709636105
 20
2418.324713053003
 30
0.0
  0
ENDBLK
  5
85EA
330
85E8
100
AcDbEntity
  8
0
100
AcDbBlockEnd
  0
BLOCK
  5
85F6
330
85F5
100
AcDbEntity
  8
0
100
AcDbBlockBegin
  2
*D56
 70
     1
 10
0.0
 20
0.0
 30
0.0
  3
*D56
  1

  0
LINE
  5
86C8
330
85F5
100
AcDbEntity
  8
3
 62
     0
370
    -2
100
AcDbLine
 10
3114.326826817036
 20
2418.324713053003
 30
0.0
 11
3542.813709636106
 21
2418.324713053003
 31
0.0
  0
LINE
  5
86C9
330
85F5
100
AcDbEntity
  8
3
 62
     0
370
    -2
100
AcDbLine
 10
3114.326826817036
 20
2313.324713053003
 30
0.0
 11
3542.813709636106
 21
2313.324713053003
 31
0.0
  0
LINE
  5
86CA
330
85F5
100
AcDbEntity
  8
3
 62
     0
370
    -2
100
AcDbLine
 10
3507.813709636105
 20
2488.324713053003
 30
0.0
 11
3507.813709636105
 21
2558.324713053003
 31
0.0
  0
LINE
  5
86CB
330
85F5
100
AcDbEntity
  8
3
 62
     0
370
    -2
100
AcDbLine
 10
3507.813709636105
 20
2313.324713053003
 30
0.0
 11
3507.813709636105
 21
2243.324713053003
 31
0.0
  0
LINE
  5
86CC
330
85F5
100
AcDbEntity
  8
3
 62
     0
370
    -2
100
AcDbLine
 10
3507.813709636105
 20
2365.824713053003
 30
0.0
 11
3835.313709636106
 21
2464.074713053003
 31
0.0
  0
LINE
  5
86CD
330
85F5
100
AcDbEntity
  8
3
 62
     0
370
    -2
100
AcDbLine
 10
3835.313709636106
 20
2464.074713053003
 30
0.0
 11
3835.313709636106
 21
2919.074713053003
 31
0.0
  0
MTEXT
  5
86CE
330
85F5
100
AcDbEntity
  8
3
 62
     0
100
AcDbMText
 10
3720.313709636105
 20
2691.574713053004
 30
0.0
 40
105.0
 41
0.0
 71
     5
 72
     1
  1
\A1;(105)
 11
0.0000000000000001
 21
1.0
 31
0.0
 73
     1
 44
1.0
1001
ACAD
1000
MTEXTBEGIN
1070
    73
1070
     1
1070
    44
1040
1.0
1070
    74
1070
     0
1000
MTEXTEND
  0
LINE
  5
86CF
330
85F5
100
AcDbEntity
  8
3
 62
     0
370
    -2
100
AcDbLine
 10
3507.813709636105
 20
2418.324713053003
 30
0.0
 11
3507.813709636105
 21
2313.324713053003
 31
0.0
  0
LINE
  5
86D0
330
85F5
100
AcDbEntity
  8
3
 62
     0
370
    -2
100
AcDbLine
 10
3507.813709636105
 20
2418.324713053003
 30
0.0
 11
3507.813709636105
 21
2313.324713053003
 31
0.0
  0
INSERT
  5
86D1
330
85F5
100
AcDbEntity
  8
3
 62
     0
370
    -2
100
AcDbBlockReference
  2
_OPEN
 10
3507.813709636105
 20
2418.324713053003
 30
0.0
 41
70.0
 42
70.0
 43
70.0
 50
270.0
  0
INSERT
  5
86D2
330
85F5
100
AcDbEntity
  8
3
 62
     0
370
    -2
100
AcDbBlockReference
  2
_DotSmall
 10
3507.813709636105
 20
2313.324713053003
 30
0.0
 41
70.0
 42
70.0
 43
70.0
 50
90.0
  0
POINT
  5
86D3
330
85F5
100
AcDbEntity
  8
DEFPOINTS
 62
     0
100
AcDbPoint
 10
3096.826826817036
 20
2418.324713053003
 30
0.0
  0
POINT
  5
86D4
330
85F5
100
AcDbEntity
  8
DEFPOINTS
 62
     0
100
AcDbPoint
 10
3096.826826817036
 20
2313.324713053003
 30
0.0
  0
POINT
  5
86D5
330
85F5
100
AcDbEntity
  8
DEFPOINTS
 62
     0
100
AcDbPoint
 10
3507.813709636105
 20
2313.324713053003
 30
0.0
  0
ENDBLK
  5
85F7
330
85F5
100
AcDbEntity
  8
0
100
AcDbBlockEnd
  0
BLOCK
  5
8608
330
8607
100
AcDbEntity
  8
0
100
AcDbBlockBegin
  2
*D57
 70
     1
 10
0.0
 20
0.0
 30
0.0
  3
*D57
  1

  0
LINE
  5
8724
330
8607
100
AcDbEntity
  8
3
 62
     0
370
    -2
100
AcDbLine
 10
3114.326826817036
 20
2313.324713053003
 30
0.0
 11
3542.813709636106
 21
2313.324713053003
 31
0.0
  0
LINE
  5
8725
330
8607
100
AcDbEntity
  8
3
 62
     0
370
    -2
100
AcDbLine
 10
3114.326826817036
 20
2248.324713053003
 30
0.0
 11
3542.813709636106
 21
2248.324713053003
 31
0.0
  0
LINE
  5
8726
330
8607
100
AcDbEntity
  8
3
 62
     0
370
    -2
100
AcDbLine
 10
3507.813709636105
 20
2313.324713053003
 30
0.0
 11
3507.813709636105
 21
2383.324713053003
 31
0.0
  0
LINE
  5
8727
330
8607
100
AcDbEntity
  8
3
 62
     0
370
    -2
100
AcDbLine
 10
3507.813709636105
 20
2178.324713053003
 30
0.0
 11
3507.813709636105
 21
2108.324713053003
 31
0.0
  0
MTEXT
  5
8728
330
8607
100
AcDbEntity
  8
3
 62
     0
100
AcDbMText
 10
3392.922102268378
 20
2121.078837599343
 30
0.0
 40
105.0
 41
0.0
 71
     5
 72
     1
  1
\A1;65
 11
0.0000000000000001
 21
1.0
 31
0.0
 73
     1
 44
1.0
1001
ACAD
1000
MTEXTBEGIN
1070
    73
1070
     1
1070
    44
1040
1.0
1070
    74
1070
     0
1000
MTEXTEND
  0
LINE
  5
8729
330
8607
100
AcDbEntity
  8
3
 62
     0
370
    -2
100
AcDbLine
 10
3507.813709636105
 20
2313.324713053003
 30
0.0
 11
3507.813709636105
 21
2248.324713053003
 31
0.0
  0
INSERT
  5
872A
330
8607
100
AcDbEntity
  8
3
 62
     0
370
    -2
100
AcDbBlockReference
  2
_DotSmall
 10
3507.813709636105
 20
2313.324713053003
 30
0.0
 41
70.0
 42
70.0
 43
70.0
 50
270.0
  0
INSERT
  5
872B
330
8607
100
AcDbEntity
  8
3
 62
     0
370
    -2
100
AcDbBlockReference
  2
_OPEN
 10
3507.813709636105
 20
2248.324713053003
 30
0.0
 41
70.0
 42
70.0
 43
70.0
 50
90.0
  0
POINT
  5
872C
330
8607
100
AcDbEntity
  8
DEFPOINTS
 62
     0
100
AcDbPoint
 10
3096.826826817036
 20
2313.324713053003
 30
0.0
  0
POINT
  5
872D
330
8607
100
AcDbEntity
  8
DEFPOINTS
 62
     0
100
AcDbPoint
 10
3096.826826817036
 20
2248.324713053003
 30
0.0
  0
POINT
  5
872E
330
8607
100
AcDbEntity
  8
DEFPOINTS
 62
     0
100
AcDbPoint
 10
3507.813709636105
 20
2248.324713053003
 30
0.0
  0
ENDBLK
  5
8609
330
8607
100
AcDbEntity
  8
0
100
AcDbBlockEnd
  0
BLOCK
  5
861A
330
8619
100
AcDbEntity
  8
0
100
AcDbBlockBegin
  2
*D58
 70
     1
 10
0.0
 20
0.0
 30
0.0
  3
*D58
  1

  0
LINE
  5
864C
330
8619
100
AcDbEntity
  8
3
 62
     0
370
    -2
100
AcDbLine
 10
3114.326826817036
 20
2248.324713053003
 30
0.0
 11
3938.366379978783
 21
2248.324713053003
 31
0.0
  0
LINE
  5
864D
330
8619
100
AcDbEntity
  8
3
 62
     0
370
    -2
100
AcDbLine
 10
2459.326826817036
 20
4188.324713053003
 30
0.0
 11
3938.366379978783
 21
4188.324713053003
 31
0.0
  0
LINE
  5
864E
330
8619
100
AcDbEntity
  8
3
 62
     0
370
    -2
100
AcDbLine
 10
3903.366379978783
 20
2318.324713053003
 30
0.0
 11
3903.366379978783
 21
4118.324713053002
 31
0.0
  0
INSERT
  5
864F
330
8619
100
AcDbEntity
  8
3
 62
     0
370
    -2
100
AcDbBlockReference
  2
_OPEN
 10
3903.366379978783
 20
2248.324713053003
 30
0.0
 41
70.0
 42
70.0
 43
70.0
 50
270.0
  0
INSERT
  5
8650
330
8619
100
AcDbEntity
  8
3
 62
     0
370
    -2
100
AcDbBlockReference
  2
_OPEN
 10
3903.366379978783
 20
4188.324713053003
 30
0.0
 41
70.0
 42
70.0
 43
70.0
 50
90.0
  0
MTEXT
  5
8651
330
8619
100
AcDbEntity
  8
3
 62
     0
100
AcDbMText
 10
3815.866379978782
 20
3218.324713053004
 30
0.0
 40
105.0
 41
0.0
 71
     5
 72
     1
  1
\A1;1940
 11
0.0000000000000001
 21
1.0
 31
0.0
 73
     1
 44
1.0
1001
ACAD
1000
MTEXTBEGIN
1070
    73
1070
     1
1070
    44
1040
1.0
1070
    74
1070
     0
1000
MTEXTEND
  0
POINT
  5
8652
330
8619
100
AcDbEntity
  8
DEFPOINTS
 62
     0
100
AcDbPoint
 10
3096.826826817036
 20
2248.324713053003
 30
0.0
  0
POINT
  5
8653
330
8619
100
AcDbEntity
  8
DEFPOINTS
 62
     0
100
AcDbPoint
 10
2441.826826817036
 20
4188.324713053003
 30
0.0
  0
POINT
  5
8654
330
8619
100
AcDbEntity
  8
DEFPOINTS
 62
     0
100
AcDbPoint
 10
3903.366379978783
 20
4188.324713053003
 30
0.0
  0
ENDBLK
  5
861B
330
8619
100
AcDbEntity
  8
0
100
AcDbBlockEnd
  0
BLOCK
  5
86C6
330
86C4
100
AcDbEntity
  8
0
100
AcDbBlockBegin
  2
_DotSmall
 70
     0
 10
0.0
 20
0.0
 30
0.0
  3
_DotSmall
  1

  0
LWPOLYLINE
  5
86C5
330
86C4
100
AcDbEntity
  8
0
  6
ByBlock
 62
     0
100
AcDbPolyline
 90
        2
 70
     1
 43
0.5
 10
-0.0625
 20
0.0
 42
1.0
 10
0.0625
 20
0.0
 42
1.0
  0
ENDBLK
  5
86C7
330
86C4
100
AcDbEntity
  8
0
100
AcDbBlockEnd
  0
ENDSEC
  0
SECTION
  2
ENTITIES
  0
INSERT
  5
7C11
330
83DE
100
AcDbEntity
  8
0
100
AcDbBlockReference
  2
YA_N
 10
6.0
 20
5.0
 30
0.0
  0
LINE
  5
7C13
330
83DE
100
AcDbEntity
  8
2
100
AcDbLine
 10
3343.607478270012
 20
3428.324713053003
 30
0.0
 11
1192.330092535178
 21
3428.324713053003
 31
0.0
  0
LINE
  5
7C14
330
83DE
100
AcDbEntity
  8
2
100
AcDbLine
 10
2436.826826817035
 20
2248.324713053003
 30
0.0
 11
2436.826826817036
 21
4256.216972783115
 31
0.0
  0
LINE
  5
7C15
330
83DE
100
AcDbEntity
  8
1
100
AcDbLine
 10
2441.826826817036
 20
4188.324713053003
 30
0.0
 11
1185.826826817035
 21
4188.324713053003
 31
0.0
  0
LINE
  5
7C16
330
83DE
100
AcDbEntity
  8
1
100
AcDbLine
 10
1185.826826817035
 20
4188.324713053003
 30
0.0
 11
1185.826826817035
 21
4184.324713053004
 31
0.0
  0
LINE
  5
7C17
330
83DE
100
AcDbEntity
  8
1
100
AcDbLine
 10
2441.826826817036
 20
4188.324713053003
 30
0.0
 11
2441.826826817036
 21
4184.324713053004
 31
0.0
  0
LINE
  5
7C18
330
83DE
100
AcDbEntity
  8
1
100
AcDbLine
 10
2388.826826817036
 20
4138.324713053004
 30
0.0
 11
1243.313915052475
 21
4138.324713053003
 31
0.0
  0
LINE
  5
7C19
330
83DE
100
AcDbEntity
  8
1
100
AcDbLine
 10
2441.826826817036
 20
4184.324713053004
 30
0.0
 11
1185.826826817035
 21
4184.324713053004
 31
0.0
  0
LINE
  5
7C1A
330
83DE
100
AcDbEntity
  8
1
100
AcDbLine
 10
3096.826826817036
 20
2418.324713053003
 30
0.0
 11
836.8268268170357
 21
2418.324713053003
 31
0.0
1001
ACAD
1000
ASC_BOUNDS
1002
{
1070
    19
1005
0
1002
}
  0
LINE
  5
7C1B
330
83DE
100
AcDbEntity
  8
1
100
AcDbLine
 10
3096.826826817036
 20
2543.324713053003
 30
0.0
 11
3096.826826817036
 21
2418.324713053003
 31
0.0
  0
LINE
  5
7C1C
330
83DE
100
AcDbEntity
  8
1
100
AcDbLine
 10
836.8268268170357
 20
2543.324713053003
 30
0.0
 11
836.8268268170357
 21
2418.324713053003
 31
0.0
  0
LINE
  5
7C1D
330
83DE
100
AcDbEntity
  8
1
100
AcDbLine
 10
3096.826826817036
 20
2543.324713053003
 30
0.0
 11
836.8268268170357
 21
2543.324713053003
 31
0.0
  0
ARC
  5
7C1E
330
83DE
100
AcDbEntity
  8
1
100
AcDbCircle
 10
2354.826826817036
 20
3510.324713053003
 30
0.0
 40
1051.0
100
AcDbArc
 50
184.4748178985337
 51
246.9372123999963
  0
ARC
  5
7C1F
330
83DE
100
AcDbEntity
  8
1
100
AcDbCircle
 10
2354.826826817036
 20
3346.324713053003
 30
0.0
 40
887.0
100
AcDbArc
 50
295.136448907875
 51
5.3043652077959
  0
ARC
  5
7C20
330
83DE
100
AcDbEntity
  8
1
100
AcDbCircle
 10
2505.326826817036
 20
3359.824713053003
 30
0.0
 40
736.5
100
AcDbArc
 50
5.336648321383482
 51
95.33664832138349
  0
LINE
  5
7C21
330
83DE
100
AcDbEntity
  8
1
100
AcDbLine
 10
1238.826826817035
 20
4188.324713053003
 30
0.0
 11
1307.030567995694
 21
3428.324713053003
 31
0.0
  0
LINE
  5
7C22
330
83DE
100
AcDbEntity
  8
1
100
AcDbLine
 10
2388.826826817036
 20
4188.324713053003
 30
0.0
 11
2388.826826817036
 21
4094.597930284492
 31
0.0
  0
LINE
  5
7C23
330
83DE
100
AcDbEntity
  8
2
100
AcDbLine
 10
1126.826826817036
 20
3117.182989208948
 30
0.0
 11
1126.826826817038
 21
2248.324713053003
 31
0.0
  0
LINE
  5
7C24
330
83DE
100
AcDbEntity
  8
2
100
AcDbLine
 10
1362.153121676016
 20
2803.324713053003
 30
0.0
 11
862.6622008347768
 21
2803.324713053003
 31
0.0
  0
LINE
  5
7C25
330
83DE
100
AcDbEntity
  8
1
100
AcDbLine
 10
4374.517051099289
 20
2418.324713053003
 30
0.0
 11
4439.517051099289
 21
2418.324713053003
 31
0.0
1001
ACAD
1000
ASC_BOUNDS
1002
{
1070
    19
1002
}
  0
LINE
  5
7C26
330
83DE
100
AcDbEntity
  8
1
100
AcDbLine
 10
4374.517051099291
 20
2543.324713053003
 30
0.0
 11
6274.517051099289
 21
2543.324713053003
 31
0.0
  0
LINE
  5
7C27
330
83DE
100
AcDbEntity
  8
1
100
AcDbLine
 10
4439.517051099291
 20
2418.324713053003
 30
0.0
 11
6274.517051099291
 21
2418.324713053003
 31
0.0
1001
ACAD
1000
ASC_BOUNDS
1002
{
1070
    19
1002
}
  0
LINE
  5
7C28
330
83DE
100
AcDbEntity
  8
2
100
AcDbLine
 10
4349.340301032191
 20
3428.324713053003
 30
0.0
 11
6381.50503817603
 21
3428.324713053003
 31
0.0
  0
LINE
  5
7C29
330
83DE
100
AcDbEntity
  8
1
100
AcDbLine
 10
4371.517051099291
 20
3682.324713053003
 30
0.0
 11
4371.517051099291
 21
2685.324713053003
 31
0.0
  0
LINE
  5
7C2A
330
83DE
100
AcDbEntity
  8
1
100
AcDbLine
 10
4482.01705109929
 20
3682.324713053003
 30
0.0
 11
4482.01705109929
 21
2685.324713053003
 31
0.0
  0
LINE
  5
7C2B
330
83DE
100
AcDbEntity
  8
2
100
AcDbLine
 10
4350.598111880162
 20
2803.324713053003
 30
0.0
 11
4813.462741034167
 21
2803.324713053003
 31
0.0
  0
LINE
  5
7C2C
330
83DE
100
AcDbEntity
  8
1
100
AcDbLine
 10
4336.517051099289
 20
3808.324713053004
 30
0.0
 11
4336.517051099288
 21
2583.324713053003
 31
0.0
  0
LINE
  5
7C2D
330
83DE
100
AcDbEntity
  8
1
100
AcDbLine
 10
4533.81705109929
 20
3808.324713053004
 30
0.0
 11
4533.81705109929
 21
3788.324713053004
 31
0.0
  0
LINE
  5
7C2E
330
83DE
100
AcDbEntity
  8
2
100
AcDbLine
 10
2436.826826817036
 20
7516.356230369336
 30
0.0
 11
2436.826826817036
 21
5673.777819829195
 31
0.0
  0
LINE
  5
7C2F
330
83DE
100
AcDbEntity
  8
2
100
AcDbLine
 10
3312.028022879291
 20
6832.723803734342
 30
0.0
 11
1090.421539384013
 21
6832.723803734342
 31
0.0
  0
LINE
  5
7C30
330
83DE
100
AcDbEntity
  8
2
100
AcDbLine
 10
5456.51705109929
 20
4404.185691688095
 30
0.0
 11
5456.517051099291
 21
2248.324713053003
 31
0.0
  0
POINT
  5
7C31
330
83DE
100
AcDbEntity
  8
1
100
AcDbPoint
 10
2436.826826817036
 20
4229.526275551623
 30
0.0
  0
INSERT
  5
7C32
330
83DE
100
AcDbEntity
  8
0
100
AcDbBlockReference
  2
YA_N
 10
-1074.779326041182
 20
-1311.669320613289
 30
0.0
 41
25.0
 42
25.0
 43
25.0
  0
LINE
  5
7C34
330
83DE
100
AcDbEntity
  8
1
100
AcDbLine
 10
3096.826826817036
 20
2313.324713053003
 30
0.0
 11
836.8268268170357
 21
2313.324713053003
 31
0.0
1001
ACAD
1000
ASC_BOUNDS
1002
{
1070
    19
1005
0
1002
}
  0
LINE
  5
7C35
330
83DE
100
AcDbEntity
  8
1
100
AcDbLine
 10
3096.826826817036
 20
2313.324713053003
 30
0.0
 11
3096.826826817036
 21
2248.324713053003
 31
0.0
  0
LINE
  5
7C36
330
83DE
100
AcDbEntity
  8
1
100
AcDbLine
 10
836.8268268170357
 20
2313.324713053003
 30
0.0
 11
836.8268268170357
 21
2248.324713053003
 31
0.0
  0
LINE
  5
7C37
330
83DE
100
AcDbEntity
  8
1
100
AcDbLine
 10
3096.826826817036
 20
2248.324713053003
 30
0.0
 11
836.8268268170357
 21
2248.324713053003
 31
0.0
1001
ACAD
1000
ASC_BOUNDS
1002
{
1070
    19
1002
}
  0
LINE
  5
7C38
330
83DE
100
AcDbEntity
  8
1
100
AcDbLine
 10
4377.017051099292
 20
2313.324713053003
 30
0.0
 11
6274.517051099291
 21
2313.324713053003
 31
0.0
1001
ACAD
1000
ASC_BOUNDS
1002
{
1070
    19
1002
}
  0
LINE
  5
7C39
330
83DE
100
AcDbEntity
  8
1
100
AcDbLine
 10
4374.517051099291
 20
2313.324713053003
 30
0.0
 11
4374.517051099279
 21
2248.324713053003
 31
0.0
  0
LINE
  5
7C3A
330
83DE
100
AcDbEntity
  8
1
100
AcDbLine
 10
4374.517051099278
 20
2248.324713053003
 30
0.0
 11
6274.51705109927
 21
2248.324713053003
 31
0.0
  0
INSERT
  5
7C3B
330
83DE
100
AcDbEntity
  8
0
100
AcDbBlockReference
  2
YA_N
 10
-346.9416476423939
 20
-375.8074592043958
 30
0.0
 41
25.0
 42
25.0
 43
25.0
  0
ARC
  5
7C40
330
83DE
100
AcDbEntity
  8
1
100
AcDbCircle
 10
1126.826826817036
 20
2803.324713053003
 30
0.0
 40
203.5
100
AcDbArc
 50
285.603699
 51
254.39624
  0
LINE
  5
7C41
330
83DE
100
AcDbEntity
  8
1
100
AcDbLine
 10
1072.088789817036
 20
2607.324713053003
 30
0.0
 11
1181.564863817037
 21
2607.324713053003
 31
0.0
  0
ARC
  5
7C42
330
83DE
100
AcDbEntity
  8
1
100
AcDbCircle
 10
1312.826826817035
 20
2620.324713053003
 30
0.0
 40
3.0
100
AcDbArc
 50
0.0
 51
90.0
  0
ARC
  5
7C43
330
83DE
100
AcDbEntity
  8
1
100
AcDbCircle
 10
1310.826826817035
 20
2677.651374053003
 30
0.0
 40
5.000066999999999
100
AcDbArc
 50
0.0
 51
55.056335
  0
LINE
  5
7C44
330
83DE
100
AcDbEntity
  8
1
100
AcDbLine
 10
1315.826826817036
 20
2677.651374053003
 30
0.0
 11
1315.826826817036
 21
2603.324713053003
 31
0.0
  0
LINE
  5
7C48
330
83DE
100
AcDbEntity
  8
1
100
AcDbLine
 10
1230.929396817036
 20
2628.467902053003
 30
0.0
 11
1236.326826817035
 21
2608.324713053003
 31
0.0
  0
LINE
  5
7C49
330
83DE
100
AcDbEntity
  8
1
100
AcDbLine
 10
1236.326826817035
 20
2620.324713053003
 30
0.0
 11
1236.326826817035
 21
2603.324713053003
 31
0.0
  0
LINE
  5
7C4A
330
83DE
100
AcDbEntity
  8
1
100
AcDbLine
 10
1239.326826817036
 20
2623.324713053003
 30
0.0
 11
1312.826826817035
 21
2623.324713053003
 31
0.0
  0
ARC
  5
7C4B
330
83DE
100
AcDbEntity
  8
1
100
AcDbCircle
 10
1239.326826817036
 20
2620.324713053003
 30
0.0
 40
3.0
100
AcDbArc
 50
90.0
 51
180.0
  0
LINE
  5
7C4C
330
83DE
100
AcDbEntity
  8
1
100
AcDbLine
 10
1313.690596817036
 20
2681.750006053003
 30
0.0
 11
1297.752730817035
 21
2692.886481053003
 31
0.0
  0
LINE
  5
7C4D
330
83DE
100
AcDbEntity
  8
1
100
AcDbLine
 10
937.826826817036
 20
2677.651374053003
 30
0.0
 11
937.826826817036
 21
2603.324713053003
 31
0.0
  0
LINE
  5
7C51
330
83DE
100
AcDbEntity
  8
1
100
AcDbLine
 10
1022.724043817037
 20
2628.468024053003
 30
0.0
 11
1017.326826817035
 21
2608.324713053003
 31
0.0
  0
LINE
  5
7C52
330
83DE
100
AcDbEntity
  8
1
100
AcDbLine
 10
1017.326826817035
 20
2620.324713053003
 30
0.0
 11
1017.326826817035
 21
2603.324713053003
 31
0.0
  0
LINE
  5
7C53
330
83DE
100
AcDbEntity
  8
1
100
AcDbLine
 10
1014.326826817036
 20
2623.324713053003
 30
0.0
 11
940.8268268170356
 21
2623.324713053003
 31
0.0
  0
ARC
  5
7C54
330
83DE
100
AcDbEntity
  8
1
100
AcDbCircle
 10
1014.326826817036
 20
2620.324713053003
 30
0.0
 40
3.0
100
AcDbArc
 50
0.0
 51
90.0
  0
ARC
  5
7C55
330
83DE
100
AcDbEntity
  8
1
100
AcDbCircle
 10
940.8268268170356
 20
2620.324713053003
 30
0.0
 40
3.0
100
AcDbArc
 50
90.0
 51
180.0
  0
LINE
  5
7C56
330
83DE
100
AcDbEntity
  8
1
100
AcDbLine
 10
939.9629358170367
 20
2681.750006053003
 30
0.0
 11
955.9008018170366
 21
2692.886481053003
 31
0.0
  0
ARC
  5
7C57
330
83DE
100
AcDbEntity
  8
1
100
AcDbCircle
 10
942.8268268170359
 20
2677.651374053003
 30
0.0
 40
5.0
100
AcDbArc
 50
124.943661
 51
180.0
  0
LINE
  5
7C58
330
83DE
100
AcDbEntity
  8
1
100
AcDbLine
 10
1370.889082865125
 20
2603.324713053003
 30
0.0
 11
1196.826826817035
 21
2603.324713053003
 31
0.0
  0
LINE
  5
7C59
330
83DE
100
AcDbEntity
  8
1
100
AcDbLine
 10
1386.826826817037
 20
2543.324713053003
 30
0.0
 11
1370.889082865127
 21
2603.324713053003
 31
0.0
  0
LINE
  5
7C5A
330
83DE
100
AcDbEntity
  8
1
100
AcDbLine
 10
866.8268268170377
 20
2543.324713053003
 30
0.0
 11
882.8118367234019
 21
2603.324713053003
 31
0.0
  0
LINE
  5
7C5C
330
83DE
100
AcDbEntity
  8
1
100
AcDbLine
 10
1196.826826817035
 20
2593.324713053003
 30
0.0
 11
1056.826826817035
 21
2593.324713053003
 31
0.0
  0
LINE
  5
7C5D
330
83DE
100
AcDbEntity
  8
1
100
AcDbLine
 10
1056.826826817035
 20
2603.324713053003
 30
0.0
 11
1056.826826817037
 21
2593.324713053003
 31
0.0
  0
LINE
  5
7C5E
330
83DE
100
AcDbEntity
  8
1
100
AcDbLine
 10
1196.826826817035
 20
2603.324713053003
 30
0.0
 11
1196.826826817035
 21
2593.324713053003
 31
0.0
  0
LINE
  5
7C61
330
83DE
100
AcDbEntity
  8
1
100
AcDbLine
 10
1056.826826817035
 20
2603.324713053003
 30
0.0
 11
882.8118367234019
 21
2603.324713053003
 31
0.0
  0
CIRCLE
  5
7C62
330
83DE
100
AcDbEntity
  8
1
100
AcDbCircle
 10
1126.826826817036
 20
2803.324713053003
 30
0.0
 40
118.0
  0
LINE
  5
7C63
330
83DE
100
AcDbEntity
  8
1
100
AcDbLine
 10
4371.517051099289
 20
2921.324713053003
 30
0.0
 11
4482.01705109929
 21
2921.324713053003
 31
0.0
  0
LINE
  5
7C64
330
83DE
100
AcDbEntity
  8
1
100
AcDbLine
 10
4371.517051099291
 20
2685.324713053003
 30
0.0
 11
4482.01705109929
 21
2685.324713053003
 31
0.0
  0
LINE
  5
7C65
330
83DE
100
AcDbEntity
  8
1
100
AcDbLine
 10
4336.517051099289
 20
2583.324713053003
 30
0.0
 11
4533.81705109929
 21
2583.324713053003
 31
0.0
  0
POINT
  5
7C66
330
83DE
100
AcDbEntity
  8
1
100
AcDbPoint
 10
3096.826826817036
 20
2212.324713053003
 30
0.0
  0
INSERT
  5
7C67
330
83DE
100
AcDbEntity
  8
0
100
AcDbBlockReference
  2
YA_N
 10
-394.4722692372305
 20
-430.898429998433
 30
0.0
 41
25.0
 42
25.0
 43
25.0
  0
POINT
  5
7C69
330
83DE
100
AcDbEntity
  8
1
100
AcDbPoint
 10
3096.826826817036
 20
2212.324713053003
 30
0.0
  0
LINE
  5
7C6A
330
83DE
100
AcDbEntity
  8
1
100
AcDbLine
 10
4706.517051099291
 20
2543.324713053003
 30
0.0
 11
4706.517051099292
 21
3428.324713053003
 31
0.0
  0
LINE
  5
7C6B
330
83DE
100
AcDbEntity
  8
1
100
AcDbLine
 10
6206.517051099289
 20
2543.324713053003
 30
0.0
 11
6206.517051099291
 21
3428.324713053003
 31
0.0
  0
LINE
  5
7C6C
330
83DE
100
AcDbEntity
  8
1
100
AcDbLine
 10
4706.51705109929
 20
3428.324713053003
 30
0.0
 11
4706.517051099289
 21
4188.324713053003
 31
0.0
  0
LINE
  5
7C6D
330
83DE
100
AcDbEntity
  8
1
100
AcDbLine
 10
6206.517051099289
 20
3428.324713053003
 30
0.0
 11
6206.517051099289
 21
4188.324713053003
 31
0.0
  0
LINE
  5
7C6E
330
83DE
100
AcDbEntity
  8
1
100
AcDbLine
 10
4549.01705109929
 20
3365.324713053003
 30
0.0
 11
4639.21705109929
 21
3365.324713053002
 31
0.0
  0
LINE
  5
7C6F
330
83DE
100
AcDbEntity
  8
1
100
AcDbLine
 10
4539.017051099289
 20
3355.324713053004
 30
0.0
 11
4539.017051099289
 21
3225.324713053003
 31
0.0
  0
LINE
  5
7C70
330
83DE
100
AcDbEntity
  8
1
100
AcDbLine
 10
4679.017051099289
 20
3365.324713053002
 30
0.0
 11
4679.017051099289
 21
3215.324713053002
 31
0.0
  0
LINE
  5
7C71
330
83DE
100
AcDbEntity
  8
1
100
AcDbLine
 10
4549.01705109929
 20
3215.324713053004
 30
0.0
 11
4639.21705109929
 21
3215.324713053002
 31
0.0
  0
ARC
  5
7C72
330
83DE
100
AcDbEntity
  8
1
100
AcDbCircle
 10
4549.01705109929
 20
3355.324713053004
 30
0.0
 40
10.0
100
AcDbArc
 50
90.0
 51
180.0
  0
ARC
  5
7C73
330
83DE
100
AcDbEntity
  8
1
100
AcDbCircle
 10
4549.01705109929
 20
3225.324713053003
 30
0.0
 40
10.0
100
AcDbArc
 50
180.0
 51
270.0
  0
LINE
  5
7C74
330
83DE
100
AcDbEntity
  8
1
100
AcDbLine
 10
6234.017051099289
 20
3365.324713053002
 30
0.0
 11
6234.017051099289
 21
3215.324713053002
 31
0.0
  0
LINE
  5
7C75
330
83DE
100
AcDbEntity
  8
1
100
AcDbLine
 10
6386.517051099289
 20
3355.324713053004
 30
0.0
 11
6386.517051099289
 21
3225.324713053003
 31
0.0
  0
LINE
  5
7C76
330
83DE
100
AcDbEntity
  8
1
100
AcDbLine
 10
6376.517051099289
 20
3215.324713053004
 30
0.0
 11
6273.817051099292
 21
3215.324713053002
 31
0.0
  0
ARC
  5
7C77
330
83DE
100
AcDbEntity
  8
1
100
AcDbCircle
 10
6376.517051099289
 20
3225.324713053003
 30
0.0
 40
10.0
100
AcDbArc
 50
270.0
 51
0.0
  0
LINE
  5
7C78
330
83DE
100
AcDbEntity
  8
1
100
AcDbLine
 10
6376.517051099289
 20
3365.324713053003
 30
0.0
 11
6273.817051099292
 21
3365.324713053002
 31
0.0
  0
ARC
  5
7C79
330
83DE
100
AcDbEntity
  8
1
100
AcDbCircle
 10
6376.517051099289
 20
3355.324713053004
 30
0.0
 40
10.0
100
AcDbArc
 50
0.0
 51
90.0
  0
LINE
  5
7C7A
330
83DE
100
AcDbEntity
  8
1
100
AcDbLine
 10
4511.517051099289
 20
3468.324713053004
 30
0.0
 11
4706.517051099289
 21
3468.324713053004
 31
0.0
  0
LINE
  5
7C7B
330
83DE
100
AcDbEntity
  8
1
100
AcDbLine
 10
4511.51705109929
 20
3388.324713053004
 30
0.0
 11
4706.517051099292
 21
3388.324713053004
 31
0.0
  0
LINE
  5
7C7C
330
83DE
100
AcDbEntity
  8
1
100
AcDbLine
 10
4511.51705109929
 20
3468.324713053004
 30
0.0
 11
4511.51705109929
 21
3388.324713053004
 31
0.0
  0
LINE
  5
7C7D
330
83DE
100
AcDbEntity
  8
1
100
AcDbLine
 10
4482.01705109929
 20
3460.824713053003
 30
0.0
 11
4511.51705109929
 21
3460.824713053003
 31
0.0
  0
LINE
  5
7C7E
330
83DE
100
AcDbEntity
  8
1
100
AcDbLine
 10
4482.01705109929
 20
3395.824713053003
 30
0.0
 11
4511.51705109929
 21
3395.824713053003
 31
0.0
  0
LINE
  5
7C83
330
83DE
100
AcDbEntity
  8
1
100
AcDbLine
 10
6273.817051099292
 20
3365.324713053002
 30
0.0
 11
6234.017051099289
 21
3365.324713053002
 31
0.0
  0
LINE
  5
7C84
330
83DE
100
AcDbEntity
  8
1
100
AcDbLine
 10
6273.817051099292
 20
3215.324713053002
 30
0.0
 11
6234.017051099289
 21
3215.324713053002
 31
0.0
  0
LINE
  5
7C85
330
83DE
100
AcDbEntity
  8
1
100
AcDbLine
 10
4639.21705109929
 20
3365.324713053002
 30
0.0
 11
4679.017051099289
 21
3365.324713053002
 31
0.0
  0
LINE
  5
7C86
330
83DE
100
AcDbEntity
  8
1
100
AcDbLine
 10
4639.21705109929
 20
3215.324713053002
 30
0.0
 11
4679.017051099289
 21
3215.324713053002
 31
0.0
  0
POINT
  5
7C87
330
83DE
100
AcDbEntity
  8
1
100
AcDbPoint
 10
3096.826826817036
 20
2212.324713053003
 30
0.0
  0
ARC
  5
7C88
330
83DE
100
AcDbEntity
  8
1
100
AcDbCircle
 10
2436.826826817036
 20
3428.324713053003
 30
0.0
 40
668.0
100
AcDbArc
 50
90.0
 51
94.12061321395006
  0
LINE
  5
7C89
330
83DE
100
AcDbEntity
  8
1
100
AcDbLine
 10
926.8268268170359
 20
2250.324713053003
 30
0.0
 11
926.8268268170359
 21
2248.324713053003
 31
0.0
  0
LINE
  5
7C8A
330
83DE
100
AcDbEntity
  8
1
100
AcDbLine
 10
6274.517051099291
 20
2543.324713053003
 30
0.0
 11
6274.517051099291
 21
2418.324713053003
 31
0.0
  0
LINE
  5
7C8B
330
83DE
100
AcDbEntity
  8
1
100
AcDbLine
 10
4374.517051099291
 20
2543.324713053003
 30
0.0
 11
4374.517051099291
 21
2418.324713053003
 31
0.0
  0
LINE
  5
7C8C
330
83DE
100
AcDbEntity
  8
1
100
AcDbLine
 10
6274.517051099291
 20
2313.324713053007
 30
0.0
 11
6274.51705109927
 21
2248.324713053003
 31
0.0
  0
INSERT
  5
7C8E
330
83DE
100
AcDbEntity
  8
0
100
AcDbBlockReference
  2
YA_N
 10
4305.350442567148
 20
-1988.400780944633
 30
0.0
  0
POINT
  5
7C90
330
83DE
100
AcDbEntity
  8
1
100
AcDbPoint
 10
3096.826826817036
 20
2313.324713053003
 30
0.0
  0
POINT
  5
7C91
330
83DE
100
AcDbEntity
  8
1
100
AcDbPoint
 10
3096.826826817036
 20
2248.324713053003
 30
0.0
  0
POINT
  5
7C92
330
83DE
100
AcDbEntity
  8
1
100
AcDbPoint
 10
3096.826826817036
 20
2313.324713053003
 30
0.0
  0
POINT
  5
7C93
330
83DE
100
AcDbEntity
  8
1
100
AcDbPoint
 10
3096.826826817036
 20
2418.324713053003
 30
0.0
  0
ARC
  5
7C96
330
83DE
100
AcDbEntity
  8
1
100
AcDbCircle
 10
2436.826826817036
 20
3428.324713053003
 30
0.0
 40
380.0
100
AcDbArc
 50
282.5282342404732
 51
115.778882395325
  0
CIRCLE
  5
7C97
330
83DE
100
AcDbEntity
  8
1
100
AcDbCircle
 10
2436.826826817036
 20
3428.324713053003
 30
0.0
 40
254.0
  0
ARC
  5
7C98
330
83DE
100
AcDbEntity
  8
1
100
AcDbCircle
 10
1126.826826817036
 20
2803.324713053003
 30
0.0
 40
220.0
100
AcDbArc
 50
115.778882395325
 51
282.5282342404732
  0
LINE
  5
7C99
330
83DE
100
AcDbEntity
  8
1
100
AcDbLine
 10
2271.565116464755
 20
3770.50678022111
 30
0.0
 11
1031.148994507821
 21
3001.430120360854
 31
0.0
  0
LINE
  5
7C9A
330
83DE
100
AcDbEntity
  8
1
100
AcDbLine
 10
2330.36009757588
 20
3658.934417022048
 30
0.0
 11
1077.365905358547
 21
2910.45835505437
 31
0.0
  0
LINE
  5
7C9B
330
83DE
100
AcDbEntity
  8
1
100
AcDbLine
 10
2496.23198699742
 20
3181.369196929263
 30
0.0
 11
1154.424499656741
 21
2688.597347294729
 31
0.0
  0
LINE
  5
7C9C
330
83DE
100
AcDbEntity
  8
1
100
AcDbLine
 10
2519.256687965548
 20
3057.372805130915
 30
0.0
 11
1174.549378008279
 21
2588.563082150741
 31
0.0
  0
LINE
  5
7C9D
330
83DE
100
AcDbEntity
  8
1
100
AcDbLine
 10
4371.517051099291
 20
3682.324713053003
 30
0.0
 11
4482.01705109929
 21
3682.324713053003
 31
0.0
  0
LINE
  5
7C9E
330
83DE
100
AcDbEntity
  8
1
100
AcDbLine
 10
4371.517051099291
 20
3174.324713053003
 30
0.0
 11
4482.01705109929
 21
3174.324713053003
 31
0.0
  0
LINE
  5
7C9F
330
83DE
100
AcDbEntity
  8
1
100
AcDbLine
 10
4336.517051099289
 20
3808.324713053004
 30
0.0
 11
4533.81705109929
 21
3808.324713053004
 31
0.0
  0
LINE
  5
7CA0
330
83DE
100
AcDbEntity
  8
1
100
AcDbLine
 10
4533.81705109929
 20
2603.324713053003
 30
0.0
 11
4533.81705109929
 21
2583.324713053003
 31
0.0
  0
LINE
  5
7CA2
330
83DE
100
AcDbEntity
  8
1
100
AcDbLine
 10
3096.826826817036
 20
7650.723803734343
 30
0.0
 11
1776.826826817035
 21
7650.723803734341
 31
0.0
  0
LINE
  5
7CA3
330
83DE
100
AcDbEntity
  8
1
100
AcDbLine
 10
3096.826826817036
 20
5750.723803734341
 30
0.0
 11
836.8268268170357
 21
5750.723803734341
 31
0.0
  0
LINE
  5
7CA4
330
83DE
100
AcDbEntity
  8
1
100
AcDbLine
 10
3096.826826817036
 20
7650.723803734343
 30
0.0
 11
3096.826826817036
 21
7582.723803734342
 31
0.0
  0
LINE
  5
7CA5
330
83DE
100
AcDbEntity
  8
1
100
AcDbLine
 10
836.8268268170357
 20
6650.72380373434
 30
0.0
 11
836.8268268170357
 21
5750.723803734341
 31
0.0
  0
LINE
  5
7CA6
330
83DE
100
AcDbEntity
  8
1
100
AcDbLine
 10
1776.826826817035
 20
7650.723803734343
 30
0.0
 11
1776.826826817035
 21
7582.723803734339
 31
0.0
  0
LINE
  5
7CA7
330
83DE
100
AcDbEntity
  8
1
100
AcDbLine
 10
1238.826826817035
 20
6650.72380373434
 30
0.0
 11
836.8268268170357
 21
6650.72380373434
 31
0.0
  0
LINE
  5
7CA8
330
83DE
100
AcDbEntity
  8
2
100
AcDbLine
 10
1126.826826817036
 20
6518.446380892666
 30
0.0
 11
1126.826826817039
 21
5673.777819829195
 31
0.0
  0
CIRCLE
  5
7CB0
330
83DE
100
AcDbEntity
  8
1
100
AcDbCircle
 10
2436.826826817036
 20
3428.324713053003
 30
0.0
 40
560.0
  0
CIRCLE
  5
7CB1
330
83DE
100
AcDbEntity
  8
1
100
AcDbCircle
 10
2436.826826817036
 20
3428.324713053003
 30
0.0
 40
610.0
  0
LINE
  5
7CB2
330
83DE
100
AcDbEntity
  8
1
100
AcDbLine
 10
2816.826826817036
 20
5712.72380373434
 30
0.0
 11
906.8268268170356
 21
5712.72380373434
 31
0.0
  0
LINE
  5
7CB3
330
83DE
100
AcDbEntity
  8
1
100
AcDbLine
 10
2816.826826817036
 20
5882.72380373434
 30
0.0
 11
906.8268268170356
 21
5882.72380373434
 31
0.0
  0
LINE
  5
7CB4
330
83DE
100
AcDbEntity
  8
1
100
AcDbLine
 10
2816.826826817036
 20
5712.72380373434
 30
0.0
 11
2816.826826817036
 21
5882.72380373434
 31
0.0
  0
LINE
  5
7CB5
330
83DE
100
AcDbEntity
  8
1
100
AcDbLine
 10
906.8268268170356
 20
5712.72380373434
 30
0.0
 11
906.8268268170356
 21
5882.72380373434
 31
0.0
  0
LINE
  5
7CB6
330
83DE
100
AcDbEntity
  8
1
100
AcDbLine
 10
2690.826826817036
 20
5750.423803734339
 30
0.0
 11
2690.826826817036
 21
5860.92380373434
 31
0.0
  0
LINE
  5
7CB7
330
83DE
100
AcDbEntity
  8
1
100
AcDbLine
 10
2182.826826817036
 20
5750.423803734339
 30
0.0
 11
2182.826826817036
 21
5860.92380373434
 31
0.0
  0
LINE
  5
7CB8
330
83DE
100
AcDbEntity
  8
1
100
AcDbLine
 10
1244.826826817035
 20
5750.423803734341
 30
0.0
 11
1244.826826817035
 21
5860.92380373434
 31
0.0
  0
LINE
  5
7CB9
330
83DE
100
AcDbEntity
  8
1
100
AcDbLine
 10
1008.826826817035
 20
5750.423803734339
 30
0.0
 11
1008.826826817035
 21
5860.92380373434
 31
0.0
  0
LINE
  5
7CBA
330
83DE
100
AcDbEntity
  8
1
100
AcDbLine
 10
2690.826826817036
 20
5750.423803734341
 30
0.0
 11
2182.826826817036
 21
5750.423803734341
 31
0.0
  0
LINE
  5
7CBB
330
83DE
100
AcDbEntity
  8
1
100
AcDbLine
 10
2690.826826817036
 20
5860.92380373434
 30
0.0
 11
2182.826826817036
 21
5860.92380373434
 31
0.0
  0
LINE
  5
7CBC
330
83DE
100
AcDbEntity
  8
1
100
AcDbLine
 10
1244.826826817035
 20
5860.92380373434
 30
0.0
 11
1008.826826817035
 21
5860.92380373434
 31
0.0
  0
LINE
  5
7CBD
330
83DE
100
AcDbEntity
  8
1
100
AcDbLine
 10
1244.826826817035
 20
5750.423803734341
 30
0.0
 11
1008.826826817035
 21
5750.423803734339
 31
0.0
  0
LINE
  5
7CBE
330
83DE
100
AcDbEntity
  8
1
100
AcDbLine
 10
3241.826826817035
 20
7582.723803734339
 30
0.0
 11
1238.826826817035
 21
7582.723803734342
 31
0.0
  0
LINE
  5
7CBF
330
83DE
100
AcDbEntity
  8
1
100
AcDbLine
 10
3241.826826817035
 20
6082.72380373434
 30
0.0
 11
1238.826826817035
 21
6082.72380373434
 31
0.0
  0
LINE
  5
7CC0
330
83DE
100
AcDbEntity
  8
1
100
AcDbLine
 10
2471.826826817036
 20
6082.72380373434
 30
0.0
 11
2471.826826817036
 21
5860.92380373434
 31
0.0
  0
LINE
  5
7CC1
330
83DE
100
AcDbEntity
  8
1
100
AcDbLine
 10
2401.826826817035
 20
6082.72380373434
 30
0.0
 11
2401.826826817035
 21
5860.92380373434
 31
0.0
  0
LINE
  5
7CC2
330
83DE
100
AcDbEntity
  8
1
100
AcDbLine
 10
1325.826826817037
 20
6082.72380373434
 30
0.0
 11
1325.826826817037
 21
5895.423803734342
 31
0.0
  0
LINE
  5
7CC3
330
83DE
100
AcDbEntity
  8
1
100
AcDbLine
 10
927.8268268170361
 20
6552.923803734339
 30
0.0
 11
927.8268268170377
 21
5895.423803734338
 31
0.0
  0
LINE
  5
7CC4
330
83DE
100
AcDbEntity
  8
1
100
AcDbLine
 10
1238.826826817035
 20
6552.923803734339
 30
0.0
 11
927.8268268170361
 21
6552.923803734339
 31
0.0
  0
LINE
  5
7CC5
330
83DE
100
AcDbEntity
  8
1
100
AcDbLine
 10
1325.826826817039
 20
5895.423803734342
 30
0.0
 11
927.8268268170393
 21
5895.423803734339
 31
0.0
  0
LINE
  5
7CC6
330
83DE
100
AcDbEntity
  8
1
100
AcDbLine
 10
1154.326826817037
 20
5895.423803734342
 30
0.0
 11
1154.326826817037
 21
5860.92380373434
 31
0.0
  0
LINE
  5
7CC7
330
83DE
100
AcDbEntity
  8
1
100
AcDbLine
 10
1099.326826817037
 20
5895.423803734342
 30
0.0
 11
1099.326826817037
 21
5860.92380373434
 31
0.0
  0
LINE
  5
7CC8
330
83DE
100
AcDbEntity
  8
1
100
AcDbLine
 10
4706.517051099292
 20
3002.324713053005
 30
0.0
 11
4516.517051099287
 21
3002.324713053005
 31
0.0
  0
LINE
  5
7CC9
330
83DE
100
AcDbEntity
  8
1
100
AcDbLine
 10
4706.517051099292
 20
2604.324713053005
 30
0.0
 11
4516.517051099291
 21
2604.324713053005
 31
0.0
  0
LINE
  5
7CCA
330
83DE
100
AcDbEntity
  8
1
100
AcDbLine
 10
4516.517051099291
 20
2604.324713053003
 30
0.0
 11
4516.517051099289
 21
3002.324713053003
 31
0.0
  0
LINE
  5
7CCB
330
83DE
100
AcDbEntity
  8
1
100
AcDbLine
 10
4516.51705109929
 20
2775.824713053005
 30
0.0
 11
4482.01705109929
 21
2775.824713053005
 31
0.0
  0
LINE
  5
7CCC
330
83DE
100
AcDbEntity
  8
1
100
AcDbLine
 10
4516.51705109929
 20
2830.824713053005
 30
0.0
 11
4482.01705109929
 21
2830.824713053005
 31
0.0
  0
LINE
  5
7CD3
330
83DE
100
AcDbEntity
  8
1
100
AcDbLine
 10
3096.826826817036
 20
6082.72380373434
 30
0.0
 11
3096.826826817036
 21
5750.723803734341
 31
0.0
  0
LINE
  5
7CDB
330
83DE
100
AcDbEntity
  8
1
100
AcDbLine
 10
4656.517051099288
 20
4188.324713053003
 30
0.0
 11
6256.517051099291
 21
4188.324713053003
 31
0.0
  0
LINE
  5
7CDC
330
83DE
100
AcDbEntity
  8
1
100
AcDbLine
 10
4656.517051099288
 20
4184.324713053004
 30
0.0
 11
6256.517051099291
 21
4184.324713053004
 31
0.0
  0
LINE
  5
7CDD
330
83DE
100
AcDbEntity
  8
1
100
AcDbLine
 10
4656.517051099289
 20
4184.324713053004
 30
0.0
 11
4656.517051099289
 21
4188.324713053003
 31
0.0
  0
LINE
  5
7CDE
330
83DE
100
AcDbEntity
  8
1
100
AcDbLine
 10
6256.517051099291
 20
4184.324713053004
 30
0.0
 11
6256.517051099289
 21
4188.324713053003
 31
0.0
  0
LINE
  5
7CDF
330
83DE
100
AcDbEntity
  8
1
100
AcDbLine
 10
1238.826826817035
 20
7582.723803734342
 30
0.0
 11
1238.826826817035
 21
6082.72380373434
 31
0.0
  0
LINE
  5
7CE0
330
83DE
100
AcDbEntity
  8
1
100
AcDbLine
 10
3241.826826817035
 20
7582.723803734339
 30
0.0
 11
3241.826826817035
 21
6082.72380373434
 31
0.0
  0
LINE
  5
7CE1
330
83DE
100
AcDbEntity
  8
1
100
AcDbLine
 10
2388.826826817036
 20
7582.723803734342
 30
0.0
 11
2388.826826817036
 21
6082.72380373434
 31
0.0
  0
LINE
  5
7CE2
330
83DE
100
AcDbEntity
  8
1
100
AcDbLine
 10
2388.826826817036
 20
7582.723803734339
 30
0.0
 11
1238.826826817035
 21
6082.72380373434
 31
0.0
  0
LINE
  5
7CE3
330
83DE
100
AcDbEntity
  8
1
100
AcDbLine
 10
1238.826826817035
 20
7582.723803734342
 30
0.0
 11
2388.826826817036
 21
6082.72380373434
 31
0.0
  0
LINE
  5
801A
330
83DE
100
AcDbEntity
  8
4
100
AcDbLine
 10
6475.0
 20
1411.801532643661
 30
0.0
 11
6475.0
 21
711.8015326436618
 31
0.0
  0
LINE
  5
801B
330
83DE
100
AcDbEntity
  8
4
100
AcDbLine
 10
4025.0
 20
1411.801532643661
 30
0.0
 11
4025.0
 21
711.8015326436618
 31
0.0
  0
LINE
  5
801C
330
83DE
100
AcDbEntity
  8
4
100
AcDbLine
 10
2275.0
 20
1411.801532643661
 30
0.0
 11
2275.0
 21
711.8015326436618
 31
0.0
  0
LINE
  5
801F
330
83DE
100
AcDbEntity
  8
4
100
AcDbLine
 10
2275.0
 20
711.8015326436616
 30
0.0
 11
6475.0
 21
711.8015326436616
 31
0.0
  0
LINE
  5
8020
330
83DE
100
AcDbEntity
  8
4
100
AcDbLine
 10
2275.0
 20
1061.80153264366
 30
0.0
 11
6475.0
 21
1061.80153264366
 31
0.0
  0
TEXT
  5
8021
330
83DE
100
AcDbEntity
  8
4
100
AcDbText
 10
2409.757282964156
 20
1172.202123176806
 30
0.0
 40
175.0
  1
機器名称
100
AcDbText
  0
TEXT
  5
8022
330
83DE
100
AcDbEntity
  8
4
100
AcDbText
 10
2401.903371086791
 20
787.5595812056999
 30
0.0
 40
175.0
  1
機器型番
100
AcDbText
  0
TEXT
  5
8023
330
83DE
100
AcDbEntity
  8
4
100
AcDbText
 10
4121.875609206827
 20
1140.80272399515
 30
0.0
 40
175.0
  1
ミツヤ多翼送風機
100
AcDbText
  0
TEXT
  5
8024
330
83DE
100
AcDbEntity
  8
4
100
AcDbText
 10
4153.290734549183
 20
771.8600776234634
 30
0.0
 40
175.0
  1
MF#7-5
100
AcDbText
  0
TEXT
  5
8026
330
83DE
100
AcDbEntity
  8
4
100
AcDbText
 10
2834.082641067674
 20
8342.000944663805
 30
0.0
 40
188.9999999999998
  1
床置防振ベット
100
AcDbText
  0
TEXT
  5
8027
330
83DE
100
AcDbEntity
  8
4
100
AcDbText
 10
1106.586576653062
 20
8868.583416697545
 30
0.0
 40
252.0
  1
遠心式両吸込両持多翼ファン
100
AcDbText
  0
LINE
  5
8028
330
83DE
100
AcDbEntity
  8
4
100
AcDbLine
 10
875.0
 20
8642.930639926817
 30
0.0
 11
6475.0
 21
8642.930639926817
 31
0.0
  0
LINE
  5
8029
330
83DE
100
AcDbEntity
  8
4
100
AcDbLine
 10
875.0
 20
9342.930639926818
 30
0.0
 11
6475.0
 21
9342.930639926818
 31
0.0
  0
LINE
  5
802A
330
83DE
100
AcDbEntity
  8
4
100
AcDbLine
 10
2275.0
 20
1411.801532643661
 30
0.0
 11
6475.0
 21
1411.801532643661
 31
0.0
  0
LINE
  5
802B
330
83DE
100
AcDbEntity
  8
4
100
AcDbLine
 10
875.0
 20
9342.930639926818
 30
0.0
 11
875.0
 21
8642.930639926817
 31
0.0
  0
TEXT
  5
802C
330
83DE
100
AcDbEntity
  8
4
100
AcDbText
 10
1308.576728218217
 20
8338.118171412203
 30
0.0
 40
188.9999999999998
  1
右回転上向
100
AcDbText
  0
TEXT
  5
802D
330
83DE
100
AcDbEntity
  8
4
100
AcDbText
 10
5141.393457372513
 20
9471.21378523358
 30
0.0
 40
196.0
  1
No.
100
AcDbText
  0
TEXT
  5
802E
330
83DE
100
AcDbEntity
  8
4
100
AcDbText
 10
4589.536219100046
 20
8342.000944663805
 30
0.0
 40
188.9999999999998
  1
縮尺：1/35
100
AcDbText
  0
LINE
  5
802F
330
83DE
100
AcDbEntity
  8
4
100
AcDbLine
 10
6475.0
 20
9342.930639926818
 30
0.0
 11
6475.0
 21
8642.930639926817
 31
0.0
  0
LINE
  5
8030
330
83DE
100
AcDbEntity
  8
4
100
AcDbLine
 10
7350.0
 20
10325.0
 30
0.0
 11
7350.0
 21
10325.0
 31
0.0
  0
LINE
  5
8031
330
83DE
100
AcDbEntity
  8
4
100
AcDbLine
 10
5042.160978259526
 20
9384.422540938905
 30
0.0
 11
5042.160978259526
 21
9753.282915424136
 31
0.0
  0
LINE
  5
8032
330
83DE
100
AcDbEntity
  8
4
100
AcDbLine
 10
5042.160978259526
 20
9753.282915424136
 30
0.0
 11
6475.0
 21
9753.282915424136
 31
0.0
  0
LINE
  5
8033
330
83DE
100
AcDbEntity
  8
4
100
AcDbLine
 10
6475.0
 20
9753.282915424136
 30
0.0
 11
6475.0
 21
9384.422540938905
 31
0.0
  0
LINE
  5
8034
330
83DE
100
AcDbEntity
  8
4
100
AcDbLine
 10
6475.0
 20
9384.422540938905
 30
0.0
 11
5042.160978259526
 21
9384.422540938905
 31
0.0
  0
LINE
  5
8035
330
83DE
100
AcDbEntity
  8
4
100
AcDbLine
 10
0.0
 20
0.0
 30
0.0
 11
0.0
 21
10325.0
 31
0.0
  0
LINE
  5
8036
330
83DE
100
AcDbEntity
  8
4
100
AcDbLine
 10
0.0
 20
10325.0
 30
0.0
 11
7350.0
 21
10325.0
 31
0.0
  0
LINE
  5
8037
330
83DE
100
AcDbEntity
  8
4
100
AcDbLine
 10
7350.0
 20
10325.0
 30
0.0
 11
7350.0
 21
0.0
 31
0.0
  0
LINE
  5
8038
330
83DE
100
AcDbEntity
  8
4
100
AcDbLine
 10
7350.0
 20
0.0
 30
0.0
 11
0.0
 21
0.0
 31
0.0
  0
DIMENSION
  5
84A0
330
83DE
100
AcDbEntity
  8
3
100
AcDbDimension
  2
*D37
 10
6665.004042651439
 20
2868.324713053003
 30
0.0
 11
6577.504042651438
 21
3428.324713053005
 31
0.0
 70
    32
  1
\U+03C6<>
 71
     5
 42
1120.0
  3
IGA
100
AcDbAlignedDimension
 13
6206.517051099289
 23
3988.324713053003
 33
0.0
 14
6206.51705109929
 24
2868.324713053003
 34
0.0
 50
90.0
100
AcDbRotatedDimension
1001
ACAD
1000
DSTYLE
1002
{
1070
    40
1040
35.0
1070
   143
1040
0.039
1070
   172
1070
     1
1070
   271
1070
     4
1070
   272
1070
     4
1070
   279
1070
     0
1070
   284
1070
     0
1070
   285
1070
     0
1070
   286
1070
     0
1070
   341
1005
83F1
1070
   343
1005
83F1
1070
   344
1005
83F1
1002
}
  0
DIMENSION
  5
84C2
330
83DE
100
AcDbEntity
  8
3
100
AcDbDimension
  2
*D38
 10
6206.517051099289
 20
4448.443004574665
 30
0.0
 11
5456.517051099289
 21
4535.943004574664
 31
0.0
 70
    32
 71
     5
 42
1500.0
  3
IGA
100
AcDbAlignedDimension
 13
4706.517051099289
 23
4188.324713053003
 33
0.0
 14
6206.517051099289
 24
4188.324713053003
 34
0.0
100
AcDbRotatedDimension
1001
ACAD
1000
DSTYLE
1002
{
1070
    40
1040
35.0
1070
   143
1040
0.039
1070
   172
1070
     1
1070
   271
1070
     4
1070
   272
1070
     4
1070
   279
1070
     0
1070
   284
1070
     0
1070
   285
1070
     0
1070
   286
1070
     0
1070
   341
1005
83F1
1070
   343
1005
83F1
1070
   344
1005
83F1
1002
}
  0
DIMENSION
  5
84CF
330
83DE
100
AcDbEntity
  8
3
100
AcDbDimension
  2
*D39
 10
5456.51705109929
 20
4678.210345261056
 30
0.0
 11
4896.517051099291
 21
4793.210345261056
 31
0.0
 70
    32
  1
(<>)
 71
     5
 42
1120.000000000001
  3
IGA
100
AcDbAlignedDimension
 13
4336.517051099289
 23
3808.324713053004
 33
0.0
 14
5456.51705109929
 24
4592.227088870029
 34
0.0
100
AcDbRotatedDimension
1001
ACAD
1000
DSTYLE
1002
{
1070
    40
1040
35.0
1070
   143
1040
0.039
1070
   172
1070
     1
1070
   271
1070
     4
1070
   272
1070
     4
1070
   279
1070
     0
1070
   284
1070
     0
1070
   285
1070
     0
1070
   286
1070
     0
1070
   341
1005
83F1
1070
   343
1005
83F1
1070
   344
1005
83F1
1002
}
  0
DIMENSION
  5
84DC
330
83DE
100
AcDbEntity
  8
3
100
AcDbDimension
  2
*D40
 10
6386.517051099289
 20
4678.210345261056
 30
0.0
 11
5921.51705109929
 21
4793.210345261056
 31
0.0
 70
    32
  1
(<>)
 71
     5
 42
929.9999999999991
  3
IGA
100
AcDbAlignedDimension
 13
5456.51705109929
 23
4592.227088870029
 33
0.0
 14
6386.517051099289
 24
3355.324713053004
 34
0.0
100
AcDbRotatedDimension
1001
ACAD
1000
DSTYLE
1002
{
1070
    40
1040
35.0
1070
   143
1040
0.039
1070
   172
1070
     1
1070
   271
1070
     4
1070
   272
1070
     4
1070
   279
1070
     1
1070
   284
1070
     0
1070
   285
1070
     0
1070
   286
1070
     0
1070
   341
1005
83F1
1070
   343
1005
83F1
1070
   344
1005
83F1
1002
}
  0
DIMENSION
  5
84E9
330
83DE
100
AcDbEntity
  8
3
100
AcDbDimension
  2
*D41
 10
5456.517051099291
 20
1977.469071117841
 30
0.0
 11
4915.517051099285
 21
2064.969071117841
 31
0.0
 70
    32
 71
     5
 42
1082.000000000013
  3
IGA
100
AcDbAlignedDimension
 13
4374.517051099278
 23
2248.324713053003
 33
0.0
 14
5456.517051099291
 24
2248.324713053003
 34
0.0
100
AcDbRotatedDimension
1001
ACAD
1000
DSTYLE
1002
{
1070
    40
1040
35.0
1070
   143
1040
0.039
1070
   172
1070
     1
1070
   271
1070
     4
1070
   272
1070
     4
1070
   279
1070
     0
1070
   284
1070
     0
1070
   285
1070
     0
1070
   286
1070
     0
1070
   341
1005
83F1
1070
   343
1005
83F1
1070
   344
1005
83F1
1002
}
  0
DIMENSION
  5
84F6
330
83DE
100
AcDbEntity
  8
3
100
AcDbDimension
  2
*D42
 10
6274.51705109927
 20
1977.469071117841
 30
0.0
 11
5865.517051099281
 21
2064.969071117841
 31
0.0
 70
    32
 71
     5
 42
817.999999999979
  3
IGA
100
AcDbAlignedDimension
 13
5456.517051099291
 23
2248.324713053003
 33
0.0
 14
6274.51705109927
 24
2248.324713053003
 34
0.0
100
AcDbRotatedDimension
1001
ACAD
1000
DSTYLE
1002
{
1070
    40
1040
35.0
1070
   143
1040
0.039
1070
   172
1070
     1
1070
   271
1070
     4
1070
   272
1070
     4
1070
   279
1070
     1
1070
   284
1070
     0
1070
   285
1070
     0
1070
   286
1070
     0
1070
   341
1005
83F1
1070
   343
1005
83F1
1070
   344
1005
83F1
1002
}
  0
DIMENSION
  5
854B
330
83DE
100
AcDbEntity
  8
3
100
AcDbDimension
  2
*D43
 10
621.0116974813245
 20
5750.723803734341
 30
0.0
 11
533.5116974813236
 21
6200.723803734341
 31
0.0
 70
    32
 71
     5
 42
900.0
  3
IGA
100
AcDbAlignedDimension
 13
836.8268268170357
 23
6650.72380373434
 33
0.0
 14
836.8268268170357
 24
5750.723803734341
 34
0.0
 50
90.0
100
AcDbRotatedDimension
1001
ACAD
1000
DSTYLE
1002
{
1070
    40
1040
35.0
1070
   143
1040
0.039
1070
   172
1070
     1
1070
   271
1070
     4
1070
   272
1070
     4
1070
   279
1070
     0
1070
   284
1070
     0
1070
   285
1070
     0
1070
   286
1070
     0
1070
   341
1005
83F1
1070
   343
1005
83F1
1070
   344
1005
83F1
1002
}
  0
DIMENSION
  5
8558
330
83DE
100
AcDbEntity
  8
3
100
AcDbDimension
  2
*D44
 10
3096.826826817036
 20
5459.478611640394
 30
0.0
 11
1966.826826817036
 21
5546.978611640394
 31
0.0
 70
    32
 71
     5
 42
2260.0
  3
IGA
100
AcDbAlignedDimension
 13
836.8268268170357
 23
5750.723803734341
 33
0.0
 14
3096.826826817036
 24
5750.723803734341
 34
0.0
100
AcDbRotatedDimension
1001
ACAD
1000
DSTYLE
1002
{
1070
    40
1040
35.0
1070
   143
1040
0.039
1070
   172
1070
     1
1070
   271
1070
     4
1070
   272
1070
     4
1070
   279
1070
     0
1070
   284
1070
     0
1070
   285
1070
     0
1070
   286
1070
     0
1070
   341
1005
83F1
1070
   343
1005
83F1
1070
   344
1005
83F1
1002
}
  0
DIMENSION
  5
8565
330
83DE
100
AcDbEntity
  8
3
100
AcDbDimension
  2
*D45
 10
3577.125907775743
 20
7650.723803734343
 30
0.0
 11
3489.625907775741
 21
6700.723803734343
 31
0.0
 70
    32
 71
     5
 42
1900.000000000002
  3
IGA
100
AcDbAlignedDimension
 13
3096.826826817036
 23
5750.723803734341
 33
0.0
 14
3096.826826817036
 24
7650.723803734343
 34
0.0
 50
90.0
100
AcDbRotatedDimension
1001
ACAD
1000
DSTYLE
1002
{
1070
    40
1040
35.0
1070
   143
1040
0.039
1070
   172
1070
     1
1070
   271
1070
     4
1070
   272
1070
     4
1070
   279
1070
     0
1070
   284
1070
     0
1070
   285
1070
     0
1070
   286
1070
     0
1070
   341
1005
83F1
1070
   343
1005
83F1
1070
   344
1005
83F1
1002
}
  0
DIMENSION
  5
8572
330
83DE
100
AcDbEntity
  8
3
100
AcDbDimension
  2
*D46
 10
1776.826826817035
 20
7824.731164205461
 30
0.0
 11
2436.826826817036
 21
7912.231164205461
 31
0.0
 70
    32
 71
     5
 42
1320.000000000001
  3
IGA
100
AcDbAlignedDimension
 13
3096.826826817036
 23
7650.723803734343
 33
0.0
 14
1776.826826817035
 24
7650.723803734341
 34
0.0
100
AcDbRotatedDimension
1001
ACAD
1000
DSTYLE
1002
{
1070
    40
1040
35.0
1070
   143
1040
0.039
1070
   172
1070
     1
1070
   271
1070
     4
1070
   272
1070
     4
1070
   279
1070
     0
1070
   284
1070
     0
1070
   285
1070
     0
1070
   286
1070
     0
1070
   341
1005
83F1
1070
   343
1005
83F1
1070
   344
1005
83F1
1002
}
  0
DIMENSION
  5
857F
330
83DE
100
AcDbEntity
  8
3
100
AcDbDimension
  2
*D47
 10
836.8268268170359
 20
7824.731164205461
 30
0.0
 11
1306.826826817035
 21
7912.231164205461
 31
0.0
 70
    32
 71
     5
 42
939.9999999999991
  3
IGA
100
AcDbAlignedDimension
 13
1776.826826817035
 23
7650.723803734341
 33
0.0
 14
836.8268268170357
 24
6650.72380373434
 34
0.0
100
AcDbRotatedDimension
1001
ACAD
1000
DSTYLE
1002
{
1070
    40
1040
35.0
1070
   143
1040
0.039
1070
   172
1070
     1
1070
   271
1070
     4
1070
   272
1070
     4
1070
   279
1070
     1
1070
   284
1070
     0
1070
   285
1070
     0
1070
   286
1070
     0
1070
   341
1005
83F1
1070
   343
1005
83F1
1070
   344
1005
83F1
1002
}
  0
DIMENSION
  5
858C
330
83DE
100
AcDbEntity
  8
3
100
AcDbDimension
  2
*D48
 10
3241.826826817036
 20
4820.526081803353
 30
0.0
 11
2039.326826817036
 21
4908.026081803352
 31
0.0
 70
    32
 71
     5
 42
2405.0
  3
IGA
100
AcDbAlignedDimension
 13
836.8268268170357
 23
2543.324713053003
 33
0.0
 14
3241.826826817036
 24
3346.324713053003
 34
0.0
100
AcDbRotatedDimension
1001
ACAD
1000
DSTYLE
1002
{
1070
    40
1040
35.0
1070
   143
1040
0.039
1070
   172
1070
     1
1070
   271
1070
     4
1070
   272
1070
     4
1070
   279
1070
     0
1070
   284
1070
     0
1070
   285
1070
     0
1070
   286
1070
     0
1070
   341
1005
83F1
1070
   343
1005
83F1
1070
   344
1005
83F1
1002
}
  0
DIMENSION
  5
8599
330
83DE
100
AcDbEntity
  8
3
100
AcDbDimension
  2
*D49
 10
2388.826826817036
 20
4388.433029337271
 30
0.0
 11
1813.826826817035
 21
4475.933029337271
 31
0.0
 70
    32
 71
     5
 42
1150.000000000001
  3
IGA
100
AcDbAlignedDimension
 13
1238.826826817035
 23
4188.324713053003
 33
0.0
 14
2388.826826817036
 24
4188.324713053003
 34
0.0
100
AcDbRotatedDimension
1001
ACAD
1000
DSTYLE
1002
{
1070
    40
1040
35.0
1070
   143
1040
0.039
1070
   172
1070
     1
1070
   271
1070
     4
1070
   272
1070
     4
1070
   279
1070
     0
1070
   284
1070
     0
1070
   285
1070
     0
1070
   286
1070
     0
1070
   341
1005
83F1
1070
   343
1005
83F1
1070
   344
1005
83F1
1002
}
  0
DIMENSION
  5
85A6
330
83DE
100
AcDbEntity
  8
3
100
AcDbDimension
  2
*D50
 10
2436.826826817036
 20
4588.58468019877
 30
0.0
 11
1837.826826817035
 21
4676.08468019877
 31
0.0
 70
    32
 71
     5
 42
1198.000000000001
  3
IGA
100
AcDbAlignedDimension
 13
1238.826826817035
 23
4188.324713053003
 33
0.0
 14
2436.826826817036
 24
4256.216972783115
 34
0.0
100
AcDbRotatedDimension
1001
ACAD
1000
DSTYLE
1002
{
1070
    40
1040
35.0
1070
   143
1040
0.039
1070
   172
1070
     1
1070
   271
1070
     4
1070
   272
1070
     4
1070
   279
1070
     0
1070
   284
1070
     0
1070
   285
1070
     0
1070
   286
1070
     0
1070
   341
1005
83F1
1070
   343
1005
83F1
1070
   344
1005
83F1
1002
}
  0
DIMENSION
  5
85B3
330
83DE
100
AcDbEntity
  8
3
100
AcDbDimension
  2
*D51
 10
3241.826826817036
 20
4588.58468019877
 30
0.0
 11
2839.326826817036
 21
4676.08468019877
 31
0.0
 70
    32
 71
     5
 42
805.0
  3
IGA
100
AcDbAlignedDimension
 13
2436.826826817036
 23
4256.216972783115
 33
0.0
 14
3241.826826817036
 24
3346.324713053003
 34
0.0
100
AcDbRotatedDimension
1001
ACAD
1000
DSTYLE
1002
{
1070
    40
1040
35.0
1070
   143
1040
0.039
1070
   172
1070
     1
1070
   271
1070
     4
1070
   272
1070
     4
1070
   279
1070
     1
1070
   284
1070
     0
1070
   285
1070
     0
1070
   286
1070
     0
1070
   341
1005
83F1
1070
   343
1005
83F1
1070
   344
1005
83F1
1002
}
  0
DIMENSION
  5
85C0
330
83DE
100
AcDbEntity
  8
3
100
AcDbDimension
  2
*D52
 10
2436.826826817035
 20
1988.450225277922
 30
0.0
 11
1636.826826817035
 21
2075.950225277922
 31
0.0
 70
    32
 71
     5
 42
1599.999999999999
  3
IGA
100
AcDbAlignedDimension
 13
836.8268268170357
 23
2248.324713053003
 33
0.0
 14
2436.826826817035
 24
2248.324713053003
 34
0.0
100
AcDbRotatedDimension
1001
ACAD
1000
DSTYLE
1002
{
1070
    40
1040
35.0
1070
   143
1040
0.039
1070
   172
1070
     1
1070
   271
1070
     4
1070
   272
1070
     4
1070
   279
1070
     0
1070
   284
1070
     0
1070
   285
1070
     0
1070
   286
1070
     0
1070
   341
1005
83F1
1070
   343
1005
83F1
1070
   344
1005
83F1
1002
}
  0
DIMENSION
  5
85CD
330
83DE
100
AcDbEntity
  8
3
100
AcDbDimension
  2
*D53
 10
3096.826826817036
 20
1988.450225277922
 30
0.0
 11
2766.826826817036
 21
2075.950225277922
 31
0.0
 70
    32
 71
     5
 42
660.0000000000009
  3
IGA
100
AcDbAlignedDimension
 13
2436.826826817035
 23
2248.324713053003
 33
0.0
 14
3096.826826817036
 24
2248.324713053003
 34
0.0
100
AcDbRotatedDimension
1001
ACAD
1000
DSTYLE
1002
{
1070
    40
1040
35.0
1070
   143
1040
0.039
1070
   172
1070
     1
1070
   271
1070
     4
1070
   272
1070
     4
1070
   279
1070
     1
1070
   284
1070
     0
1070
   285
1070
     0
1070
   286
1070
     0
1070
   341
1005
83F1
1070
   343
1005
83F1
1070
   344
1005
83F1
1002
}
  0
DIMENSION
  5
85DA
330
83DE
100
AcDbEntity
  8
3
100
AcDbDimension
  2
*D54
 10
3507.813709636106
 20
3428.324713053003
 30
0.0
 11
3420.313709636106
 21
3808.324713053004
 31
0.0
 70
    32
 71
     5
 42
759.9999999999995
  3
IGA
100
AcDbAlignedDimension
 13
2441.826826817036
 23
4188.324713053003
 33
0.0
 14
3343.607478270012
 24
3428.324713053003
 34
0.0
 50
90.0
100
AcDbRotatedDimension
1001
ACAD
1000
DSTYLE
1002
{
1070
    40
1040
35.0
1070
   143
1040
0.039
1070
   172
1070
     1
1070
   271
1070
     4
1070
   272
1070
     4
1070
   279
1070
     0
1070
   284
1070
     0
1070
   285
1070
     0
1070
   286
1070
     0
1070
   341
1005
83F1
1070
   343
1005
83F1
1070
   344
1005
83F1
1002
}
  0
DIMENSION
  5
85E7
330
83DE
100
AcDbEntity
  8
3
100
AcDbDimension
  2
*D55
 10
3507.813709636105
 20
2418.324713053003
 30
0.0
 11
3420.313709636106
 21
2923.324713053004
 31
0.0
 70
    32
 71
     5
 42
1010.0
  3
IGA
100
AcDbAlignedDimension
 13
3343.607478270012
 23
3428.324713053003
 33
0.0
 14
3096.826826817036
 24
2418.324713053003
 34
0.0
 50
90.0
100
AcDbRotatedDimension
1001
ACAD
1000
DSTYLE
1002
{
1070
    40
1040
35.0
1070
   143
1040
0.039
1070
   172
1070
     1
1070
   271
1070
     4
1070
   272
1070
     4
1070
   279
1070
     1
1070
   284
1070
     0
1070
   285
1070
     0
1070
   286
1070
     0
1070
   341
1005
83F1
1070
   343
1005
83F1
1070
   344
1005
83F1
1002
}
  0
DIMENSION
  5
85F4
330
83DE
100
AcDbEntity
  8
3
100
AcDbDimension
  2
*D56
 10
3507.813709636105
 20
2313.324713053003
 30
0.0
 11
3720.313709636105
 21
2499.074713053003
 31
0.0
 70
    32
  1
(<>)
 71
     5
 42
105.0
  3
IGA
100
AcDbAlignedDimension
 13
3096.826826817036
 23
2418.324713053003
 33
0.0
 14
3096.826826817036
 24
2313.324713053003
 34
0.0
 50
90.0
100
AcDbRotatedDimension
1001
ACAD
1000
DSTYLE
1002
{
1070
    40
1040
35.0
1070
   143
1040
0.039
1070
   172
1070
     1
1070
   271
1070
     4
1070
   272
1070
     4
1070
   279
1070
     1
1070
   284
1070
     0
1070
   285
1070
     0
1070
   286
1070
     0
1070
   341
1005
83F1
1070
   343
1005
83F1
1070
   344
1005
86C4
1002
}
  0
DIMENSION
  5
8606
330
83DE
100
AcDbEntity
  8
3
100
AcDbDimension
  2
*D57
 10
3507.813709636105
 20
2248.324713053003
 30
0.0
 11
3480.422102268378
 21
2121.078837599343
 31
0.0
 70
   160
 71
     5
 42
65.0
  3
IGA
100
AcDbAlignedDimension
 13
3096.826826817036
 23
2313.324713053003
 33
0.0
 14
3096.826826817036
 24
2248.324713053003
 34
0.0
 50
90.0
100
AcDbRotatedDimension
1001
ACAD
1000
DSTYLE
1002
{
1070
    40
1040
35.0
1070
   143
1040
0.039
1070
   172
1070
     1
1070
   271
1070
     4
1070
   272
1070
     4
1070
   279
1070
     1
1070
   284
1070
     0
1070
   285
1070
     0
1070
   286
1070
     0
1070
   341
1005
83F1
1070
   343
1005
86C4
1070
   344
1005
83F1
1002
}
  0
DIMENSION
  5
8618
330
83DE
100
AcDbEntity
  8
3
100
AcDbDimension
  2
*D58
 10
3903.366379978783
 20
4188.324713053003
 30
0.0
 11
3815.866379978782
 21
3218.324713053004
 31
0.0
 70
    32
 71
     5
 42
1939.999999999999
  3
IGA
100
AcDbAlignedDimension
 13
3096.826826817036
 23
2248.324713053003
 33
0.0
 14
2441.826826817036
 24
4188.324713053003
 34
0.0
 50
90.0
100
AcDbRotatedDimension
1001
ACAD
1000
DSTYLE
1002
{
1070
    40
1040
35.0
1070
   143
1040
0.039
1070
   172
1070
     1
1070
   271
1070
     4
1070
   272
1070
     4
1070
   279
1070
     0
1070
   284
1070
     0
1070
   285
1070
     0
1070
   286
1070
     0
1070
   341
1005
83F1
1070
   343
1005
83F1
1070
   344
1005
83F1
1002
}
  0
ENDSEC
  0
SECTION
  2
OBJECTS
  0
DICTIONARY
  5
837B
330
0
100
AcDbDictionary
281
     1
  3
ACAD_CIP_PREVIOUS_PRODUCT_INFO
350
8425
  3
ACAD_COLOR
350
83D1
  3
ACAD_DETAILVIEWSTYLE
350
83D8
  3
ACAD_GROUP
350
837C
  3
ACAD_LAYOUT
350
83D0
  3
ACAD_MATERIAL
350
837F
  3
ACAD_MLEADERSTYLE
350
83D4
  3
ACAD_MLINESTYLE
350
83CD
  3
ACAD_PLOTSETTINGS
350
83CF
  3
ACAD_PLOTSTYLENAME
350
837D
  3
ACAD_SCALELIST
350
83B1
  3
ACAD_SECTIONVIEWSTYLE
350
83D6
  3
ACAD_TABLESTYLE
350
83D2
  3
ACAD_VISUALSTYLE
350
8398
  3
ACDB_RECOMPOSE_DATA
350
8746
  3
AcDbVariableDictionary
350
8739
  3
DWGPROPS
350
8747
  0
DICTIONARY
  5
872F
330
83C3
100
AcDbDictionary
280
     1
281
     1
  3
ADSK_XREC_LAYER_RECONCILED
360
8730
  0
DICTIONARY
  5
8731
330
83E2
100
AcDbDictionary
280
     1
281
     1
  3
ADSK_XREC_LAYER_RECONCILED
360
8732
  0
DICTIONARY
  5
8733
330
83E5
100
AcDbDictionary
280
     1
281
     1
  3
ADSK_XREC_LAYER_RECONCILED
360
8734
  0
DICTIONARY
  5
8735
330
83E6
100
AcDbDictionary
280
     1
281
     1
  3
ADSK_XREC_LAYER_RECONCILED
360
8736
  0
DICTIONARY
  5
8737
330
83E7
100
AcDbDictionary
280
     1
281
     1
  3
ADSK_XREC_LAYER_RECONCILED
360
8738
  0
DICTIONARY
  5
849A
330
83DE
100
AcDbDictionary
280
     1
281
     1
  3
ACAD_SORTENTS
360
849B
  0
XRECORD
  5
8425
102
{ACAD_REACTORS
330
837B
102
}
330
837B
100
AcDbXrecord
280
     1
300
ACDLT
300
2015
300
INVLTS_F_S
  0
DICTIONARY
  5
83D1
102
{ACAD_REACTORS
330
837B
102
}
330
837B
100
AcDbDictionary
281
     1
  0
DICTIONARY
  5
83D8
102
{ACAD_REACTORS
330
837B
102
}
330
837B
100
AcDbDictionary
281
     1
  3
Imperial24
350
83D9
  0
DICTIONARY
  5
837C
102
{ACAD_REACTORS
330
837B
102
}
330
837B
100
AcDbDictionary
281
     1
  0
DICTIONARY
  5
83D0
102
{ACAD_REACTORS
330
837B
102
}
330
837B
100
AcDbDictionary
281
     1
  3
Model
350
83E1
  3
レイアウト1
350
83DD
  0
DICTIONARY
  5
837F
102
{ACAD_REACTORS
330
837B
102
}
330
837B
100
AcDbDictionary
281
     1
  3
ByBlock
350
8388
  3
ByLayer
350
8380
  3
Global
350
8390
  0
DICTIONARY
  5
83D4
102
{ACAD_REACTORS
330
837B
102
}
330
837B
100
AcDbDictionary
281
     1
  3
Standard
350
83D5
  0
DICTIONARY
  5
83CD
102
{ACAD_REACTORS
330
837B
102
}
330
837B
100
AcDbDictionary
281
     1
  3
Standard
350
83CE
  0
DICTIONARY
  5
83CF
102
{ACAD_REACTORS
330
837B
102
}
330
837B
100
AcDbDictionary
281
     1
  0
ACDBDICTIONARYWDFLT
  5
837D
102
{ACAD_REACTORS
330
837B
102
}
330
837B
100
AcDbDictionary
281
     1
  3
Normal
350
837E
100
AcDbDictionaryWithDefault
340
837E
  0
DICTIONARY
  5
83B1
102
{ACAD_REACTORS
330
837B
102
}
330
837B
100
AcDbDictionary
281
     1
  3
A0
350
83B2
  3
A1
350
83B3
  3
A2
350
83B4
  3
A3
350
83B5
  3
A4
350
83B6
  3
A5
350
83B7
  3
A6
350
83B8
  3
A7
350
83B9
  3
A8
350
83BA
  3
A9
350
83BB
  3
B0
350
83BC
  3
B1
350
83BD
  3
B2
350
83BE
  3
B3
350
83BF
  3
B4
350
83C0
  3
B5
350
83C1
  3
B6
350
83C2
  0
DICTIONARY
  5
83D6
102
{ACAD_REACTORS
330
837B
102
}
330
837B
100
AcDbDictionary
281
     1
  3
Imperial24
350
83D7
  0
DICTIONARY
  5
83D2
102
{ACAD_REACTORS
330
837B
102
}
330
837B
100
AcDbDictionary
281
     1
  3
Standard
350
83D3
  0
DICTIONARY
  5
8398
102
{ACAD_REACTORS
330
837B
102
}
330
837B
100
AcDbDictionary
281
     1
  3
2dWireframe
350
839E
  3
Basic
350
839D
  3
Brighten
350
83A4
  3
ColorChange
350
83A8
  3
Conceptual
350
83A1
  3
Dim
350
83A3
  3
EdgeColorOff
350
83B0
  3
Facepattern
350
83A7
  3
Flat
350
8399
  3
FlatWithEdges
350
839A
  3
Gouraud
350
839B
  3
GouraudWithEdges
350
839C
  3
Hidden
350
83A0
  3
JitterOff
350
83AE
  3
Linepattern
350
83A6
  3
OverhangOff
350
83AF
  3
Realistic
350
83A2
  3
Shaded
350
83AD
  3
Shaded with edges
350
83AC
  3
Shades of Gray
350
83A9
  3
Sketchy
350
83AA
  3
Thicken
350
83A5
  3
Wireframe
350
839F
  3
X-Ray
350
83AB
  0
XRECORD
  5
8746
102
{ACAD_REACTORS
330
837B
102
}
330
837B
100
AcDbXrecord
280
     1
 90
        1
330
83D3
  0
DICTIONARY
  5
8739
102
{ACAD_REACTORS
330
837B
102
}
330
837B
100
AcDbDictionary
281
     1
  3
CANNOSCALE
350
873E
  3
CMLEADERSTYLE
350
873B
  3
CTABLESTYLE
350
873A
  3
CVIEWDETAILSTYLE
350
873C
  3
CVIEWSECTIONSTYLE
350
873D
  3
DIMASSOC
350
8741
  3
INDEXCTL
350
8740
  3
SORTENTS
350
873F
  3
XCLIPFRAME
350
8742
  0
XRECORD
  5
8747
102
{ACAD_REACTORS
330
837B
102
}
330
837B
100
AcDbXrecord
280
     1
  1
DWGPROPS COOKIE
  2

  3

  4

  6

  7

  8
yasukiyo.ogawa
  9

300
=
301
=
302
=
303
=
304
=
305
=
306
=
307
=
308
=
309
=
 40
0.0441533564814815
 41
2451390.397703704
 42
2460273.617338577
  1

 90
        0
  0
XRECORD
  5
8730
102
{ACAD_REACTORS
330
872F
102
}
330
872F
100
AcDbXrecord
280
     1
290
     1
  0
XRECORD
  5
8732
102
{ACAD_REACTORS
330
8731
102
}
330
8731
100
AcDbXrecord
280
     1
290
     1
  0
XRECORD
  5
8734
102
{ACAD_REACTORS
330
8733
102
}
330
8733
100
AcDbXrecord
280
     1
290
     1
  0
XRECORD
  5
8736
102
{ACAD_REACTORS
330
8735
102
}
330
8735
100
AcDbXrecord
280
     1
290
     1
  0
XRECORD
  5
8738
102
{ACAD_REACTORS
330
8737
102
}
330
8737
100
AcDbXrecord
280
     1
290
     1
  0
SORTENTSTABLE
  5
849B
102
{ACAD_REACTORS
330
849A
102
}
330
849A
100
AcDbSortentsTable
330
83DE
331
801C
  5
8020
331
7C9B
  5
7C9D
331
7C8A
  5
7C8C
331
7C70
  5
7C72
331
8028
  5
802A
331
7CDF
  5
7CE1
331
7CBD
  5
7CBF
331
7C2C
  5
7C2E
331
7C1B
  5
7C1B
331
8029
  5
802B
331
7CE0
  5
7CE2
331
7CBE
  5
7CC0
331
7C9C
  5
7C9E
331
7C8B
  5
7C8D
331
7C71
  5
7C73
331
7C2D
  5
7C2F
331
7C1C
  5
7C1C
331
802A
  5
802C
331
7CE1
  5
7CE3
331
7CBF
  5
7CC1
331
7C9D
  5
7C9F
331
7C8C
  5
7C8E
331
7C83
  5
7C85
331
7C72
  5
7C74
331
7C61
  5
7C63
331
7C2E
  5
7C30
331
7C1D
  5
7C1D
331
7C84
  5
7C86
331
7C73
  5
7C75
331
7C62
  5
7C64
331
7C51
  5
7C53
331
7C40
  5
7C42
331
801F
  5
8021
331
7C9E
  5
7CA0
331
802B
  5
802D
331
7CE2
  5
801A
331
7CC0
  5
7CC2
331
7C2F
  5
7C31
331
7C1E
  5
7C1E
331
802C
  5
802E
331
7CE3
  5
801B
331
7CC1
  5
7CC3
331
7CB0
  5
7CB2
331
7C9F
  5
7CA1
331
7C8E
  5
7C91
331
7C85
  5
7C87
331
7C74
  5
7C76
331
7C63
  5
7C65
331
7C52
  5
7C54
331
7C41
  5
7C43
331
7C30
  5
7C32
331
7C1F
  5
7C1F
331
7C86
  5
7C88
331
7C75
  5
7C77
331
7C64
  5
7C66
331
7C53
  5
7C55
331
7C42
  5
7C44
331
7C31
  5
7C34
331
802D
  5
802F
331
7CD3
  5
7CD5
331
7CC2
  5
7CC4
331
7CB1
  5
7CB3
331
7CA0
  5
7CA2
331
7C20
  5
7C20
331
802E
  5
8030
331
7CC3
  5
7CC5
331
7CB2
  5
7CB4
331
7C90
  5
7C92
331
7C87
  5
7C89
331
7C76
  5
7C78
331
7C65
  5
7C67
331
7C54
  5
7C56
331
7C43
  5
7C48
331
7C32
  5
7C35
331
7C21
  5
7C21
331
8038
  5
818C
331
7C77
  5
7C79
331
7C66
  5
7C69
331
7C55
  5
7C57
331
7C44
  5
7C49
331
802F
  5
8031
331
7CC4
  5
7CC6
331
7CB3
  5
7CB5
331
7CA2
  5
7CA4
331
7C91
  5
7C93
331
7C22
  5
7C22
331
7C11
  5
7C11
331
8030
  5
8032
331
7CC5
  5
7CC7
331
7CB4
  5
7CB6
331
7CA3
  5
7CA5
331
7C92
  5
7C94
331
7C78
  5
7C7A
331
7C67
  5
7C6A
331
7C56
  5
7C58
331
7C34
  5
7C36
331
7C23
  5
7C23
331
8031
  5
8033
331
8020
  5
8022
331
7CC6
  5
7CC8
331
7CB5
  5
7CB7
331
7CA4
  5
7CA6
331
7C93
  5
7C96
331
7C79
  5
7C7B
331
7C57
  5
7C59
331
7C35
  5
7C37
331
7C24
  5
7C24
331
7C13
  5
7C13
331
8032
  5
8034
331
8021
  5
8023
331
7CC7
  5
7CC9
331
7CB6
  5
7CB8
331
7CA5
  5
7CA7
331
7C7A
  5
7C7C
331
7C69
  5
7C6B
331
7C58
  5
7C5A
331
7C36
  5
7C38
331
7C25
  5
7C25
331
7C14
  5
7C14
331
8033
  5
8035
331
8022
  5
8024
331
7CC8
  5
7CCA
331
7CB7
  5
7CB9
331
7CA6
  5
7CA8
331
7C7B
  5
7C7D
331
7C6A
  5
7C6C
331
7C59
  5
7C5C
331
7C48
  5
7C4A
331
7C37
  5
7C39
331
7C26
  5
7C26
331
7C15
  5
7C15
331
8034
  5
8036
331
8023
  5
8026
331
7CC9
  5
7CCB
331
7CB8
  5
7CBA
331
7CA7
  5
7CA9
331
7C96
  5
7C98
331
7C7C
  5
7C7E
331
7C6B
  5
7C6D
331
7C5A
  5
7C5D
331
7C49
  5
7C4B
331
7C38
  5
7C3A
331
7C27
  5
7C27
331
7C16
  5
7C16
331
8035
  5
8037
331
8024
  5
8027
331
7CDB
  5
7CDD
331
7CCA
  5
7CCC
331
7CB9
  5
7CBB
331
7CA8
  5
7CAA
331
7C97
  5
7C99
331
7C7D
  5
7C7F
331
7C6C
  5
7C6E
331
7C4A
  5
7C4C
331
7C39
  5
7C3B
331
7C28
  5
7C28
331
7C17
  5
7C17
331
8036
  5
8038
331
7CDC
  5
7CDE
331
7CCB
  5
7CD3
331
7CBA
  5
7CBC
331
7C98
  5
7C9A
331
7C7E
  5
7C81
331
7C6D
  5
7C6F
331
7C5C
  5
7C5E
331
7C4B
  5
7C4D
331
7C3A
  5
7C3D
331
7C29
  5
7C2B
331
7C18
  5
7C18
331
801A
  5
801C
331
7C99
  5
7C9B
331
7C88
  5
7C8A
331
8037
  5
817F
331
8026
  5
8028
331
7CDD
  5
7CDF
331
7CCC
  5
7CD4
331
7CBB
  5
7CBD
331
7C6E
  5
7C70
331
7C5D
  5
7C61
331
7C4C
  5
7C51
331
7C3B
  5
7C3E
331
7C2A
  5
7C2C
331
7C19
  5
7C19
331
801B
  5
801F
331
7C9A
  5
7C9C
331
7C89
  5
7C8B
331
8027
  5
8029
331
7CDE
  5
7CE0
331
7CBC
  5
7CBE
331
7C6F
  5
7C71
331
7C5E
  5
7C62
331
7C4D
  5
7C52
331
7C2B
  5
7C2D
331
7C1A
  5
7C1A
  0
ACDBDETAILVIEWSTYLE
  5
83D9
102
{ACAD_XDICTIONARY
360
877F
102
}
102
{ACAD_REACTORS
330
83D8
102
}
330
83D8
100
AcDbModelDocViewStyle
 70
     0
  3
Imperial24
290
     0
100
AcDbDetailViewStyle
 70
     0
 71
     0
 90
        3
 71
     1
340
83C4
 40
0.24
340
0
 40
0.24
300

 40
0.36
280
     3
 71
     2
340
83CB
 90
       25
 71
     3
340
83C4
 40
0.24
 90
        1
 40
0.75
 90
        1
300
%<\AcVar ViewType \f "%tc1">% %<\AcVar ViewDetailId>%\PSCALE %<\AcVar ViewScale \f "%sn">%
 71
     4
340
83CB
 90
       25
340
83CB
 90
       25
280
     0
  0
LAYOUT
  5
83E1
102
{ACAD_XDICTIONARY
360
8783
102
}
102
{ACAD_REACTORS
330
83D0
102
}
330
83D0
100
AcDbPlotSettings
  1

  2
RICOH imagio MP W3600 RPCS
  4

  6

 40
0.0
 41
0.0
 42
0.0
 43
0.0
 44
0.0
 45
0.0
 46
0.0
 47
0.0
 48
0.0
 49
0.0
140
0.0
141
0.0
142
1.0
143
1.0
 70
  1712
 72
     0
 73
     0
 74
     0
  7

 75
     0
147
1.0
148
0.0
149
0.0
100
AcDbLayout
  1
Model
 70
     1
 71
     0
 10
0.0
 20
0.0
 11
12.0
 21
9.0
 12
0.0
 22
0.0
 32
0.0
 14
0.0
 24
0.0
 34
0.0
 15
0.0
 25
0.0
 35
0.0
146
0.0
 13
0.0
 23
0.0
 33
0.0
 16
1.0
 26
0.0
 36
0.0
 17
0.0
 27
1.0
 37
0.0
 76
     0
330
83DE
331
83E3
  0
LAYOUT
  5
83DD
102
{ACAD_XDICTIONARY
360
8781
102
}
102
{ACAD_REACTORS
330
83D0
102
}
330
83D0
100
AcDbPlotSettings
  1

  2
RICOH imagio MP W3600 RPCS
  4

  6

 40
0.0
 41
0.0
 42
0.0
 43
0.0
 44
0.0
 45
0.0
 46
0.0
 47
0.0
 48
0.0
 49
0.0
140
0.0
141
0.0
142
1.0
143
1.0
 70
   688
 72
     0
 73
     0
 74
     5
  7

 75
    16
147
1.0
148
0.0
149
0.0
100
AcDbLayout
  1
レイアウト1
 70
     1
 71
     1
 10
0.0
 20
0.0
 11
12.0
 21
9.0
 12
0.0
 22
0.0
 32
0.0
 14
1.000000000000000E+20
 24
1.000000000000000E+20
 34
1.000000000000000E+20
 15
-1.000000000000000E+20
 25
-1.000000000000000E+20
 35
-1.000000000000000E+20
146
0.0
 13
0.0
 23
0.0
 33
0.0
 16
1.0
 26
0.0
 36
0.0
 17
0.0
 27
1.0
 37
0.0
 76
     0
330
83DA
  0
MATERIAL
  5
8388
102
{ACAD_XDICTIONARY
360
8389
102
}
102
{ACAD_REACTORS
330
837F
102
}
330
837F
100
AcDbMaterial
  1
ByBlock
 72
     0
 43
0.0208333333333333
 43
0.0
 43
0.0
 43
0.0
 43
0.0
 43
0.0208333333333333
 43
0.0
 43
0.0
 43
0.0
 43
0.0
 43
1.0
 43
0.0
 43
0.0
 43
0.0
 43
0.0
 43
1.0
 77
     0
 47
0.0208333333333333
 47
0.0
 47
0.0
 47
0.0
 47
0.0
 47
0.0208333333333333
 47
0.0
 47
0.0
 47
0.0
 47
0.0
 47
1.0
 47
0.0
 47
0.0
 47
0.0
 47
0.0
 47
1.0
171
     0
 49
0.0208333333333333
 49
0.0
 49
0.0
 49
0.0
 49
0.0
 49
0.0208333333333333
 49
0.0
 49
0.0
 49
0.0
 49
0.0
 49
1.0
 49
0.0
 49
0.0
 49
0.0
 49
0.0
 49
1.0
175
     0
142
0.0208333333333333
142
0.0
142
0.0
142
0.0
142
0.0
142
0.0208333333333333
142
0.0
142
0.0
142
0.0
142
0.0
142
1.0
142
0.0
142
0.0
142
0.0
142
0.0
142
1.0
179
     0
144
0.0208333333333333
144
0.0
144
0.0
144
0.0
144
0.0
144
0.0208333333333333
144
0.0
144
0.0
144
0.0
144
0.0
144
1.0
144
0.0
144
0.0
144
0.0
144
0.0
144
1.0
147
0.0208333333333333
147
0.0
147
0.0
147
0.0
147
0.0
147
0.0208333333333333
147
0.0
147
0.0
147
0.0
147
0.0
147
1.0
147
0.0
147
0.0
147
0.0
147
0.0
147
1.0
  0
MATERIAL
  5
8380
102
{ACAD_XDICTIONARY
360
8381
102
}
102
{ACAD_REACTORS
330
837F
102
}
330
837F
100
AcDbMaterial
  1
ByLayer
 72
     0
 43
0.0208333333333333
 43
0.0
 43
0.0
 43
0.0
 43
0.0
 43
0.0208333333333333
 43
0.0
 43
0.0
 43
0.0
 43
0.0
 43
1.0
 43
0.0
 43
0.0
 43
0.0
 43
0.0
 43
1.0
 77
     0
 47
0.0208333333333333
 47
0.0
 47
0.0
 47
0.0
 47
0.0
 47
0.0208333333333333
 47
0.0
 47
0.0
 47
0.0
 47
0.0
 47
1.0
 47
0.0
 47
0.0
 47
0.0
 47
0.0
 47
1.0
171
     0
 49
0.0208333333333333
 49
0.0
 49
0.0
 49
0.0
 49
0.0
 49
0.0208333333333333
 49
0.0
 49
0.0
 49
0.0
 49
0.0
 49
1.0
 49
0.0
 49
0.0
 49
0.0
 49
0.0
 49
1.0
175
     0
142
0.0208333333333333
142
0.0
142
0.0
142
0.0
142
0.0
142
0.0208333333333333
142
0.0
142
0.0
142
0.0
142
0.0
142
1.0
142
0.0
142
0.0
142
0.0
142
0.0
142
1.0
179
     0
144
0.0208333333333333
144
0.0
144
0.0
144
0.0
144
0.0
144
0.0208333333333333
144
0.0
144
0.0
144
0.0
144
0.0
144
1.0
144
0.0
144
0.0
144
0.0
144
0.0
144
1.0
147
0.0208333333333333
147
0.0
147
0.0
147
0.0
147
0.0
147
0.0208333333333333
147
0.0
147
0.0
147
0.0
147
0.0
147
1.0
147
0.0
147
0.0
147
0.0
147
0.0
147
1.0
  0
MATERIAL
  5
8390
102
{ACAD_XDICTIONARY
360
8391
102
}
102
{ACAD_REACTORS
330
837F
102
}
330
837F
100
AcDbMaterial
  1
Global
 72
     0
 43
0.0208333333333333
 43
0.0
 43
0.0
 43
0.0
 43
0.0
 43
0.0208333333333333
 43
0.0
 43
0.0
 43
0.0
 43
0.0
 43
1.0
 43
0.0
 43
0.0
 43
0.0
 43
0.0
 43
1.0
 77
     0
 47
0.0208333333333333
 47
0.0
 47
0.0
 47
0.0
 47
0.0
 47
0.0208333333333333
 47
0.0
 47
0.0
 47
0.0
 47
0.0
 47
1.0
 47
0.0
 47
0.0
 47
0.0
 47
0.0
 47
1.0
171
     0
 49
0.0208333333333333
 49
0.0
 49
0.0
 49
0.0
 49
0.0
 49
0.0208333333333333
 49
0.0
 49
0.0
 49
0.0
 49
0.0
 49
1.0
 49
0.0
 49
0.0
 49
0.0
 49
0.0
 49
1.0
175
     0
142
0.0208333333333333
142
0.0
142
0.0
142
0.0
142
0.0
142
0.0208333333333333
142
0.0
142
0.0
142
0.0
142
0.0
142
1.0
142
0.0
142
0.0
142
0.0
142
0.0
142
1.0
179
     0
144
0.0208333333333333
144
0.0
144
0.0
144
0.0
144
0.0
144
0.0208333333333333
144
0.0
144
0.0
144
0.0
144
0.0
144
1.0
144
0.0
144
0.0
144
0.0
144
0.0
144
1.0
147
0.0208333333333333
147
0.0
147
0.0
147
0.0
147
0.0
147
0.0208333333333333
147
0.0
147
0.0
147
0.0
147
0.0
147
1.0
147
0.0
147
0.0
147
0.0
147
0.0
147
1.0
  0
MLEADERSTYLE
  5
83D5
102
{ACAD_REACTORS
330
83D4
102
}
330
83D4
100
AcDbMLeaderStyle
170
     2
171
     1
172
     0
 90
        2
 40
0.0
 41
0.0
173
     1
 91
-1056964608
340
83C9
 92
       -2
290
     1
 42
0.09
291
     1
 43
0.36
  3
Standard
 44
0.18
300

342
83C4
174
     1
178
     6
175
     1
176
     0
 93
-1056964608
 45
0.18
292
     0
297
     0
 46
0.18
 94
-1056964608
 47
1.0
 49
1.0
140
1.0
293
     1
141
0.0
294
     1
177
     0
142
1.0
295
     0
296
     0
143
0.125
1001
ACAD_MLEADERVER
1070
     2
  0
MLINESTYLE
  5
83CE
102
{ACAD_REACTORS
330
83CD
102
}
330
83CD
100
AcDbMlineStyle
  2
STANDARD
 70
     0
  3

 62
   256
 51
90.0
 52
90.0
 71
     2
 49
0.5
 62
   256
  6
BYLAYER
 49
-0.5
 62
   256
  6
BYLAYER
  0
ACDBPLACEHOLDER
  5
837E
102
{ACAD_REACTORS
330
837D
102
}
330
837D
  0
SCALE
  5
83B2
102
{ACAD_REACTORS
330
83B1
102
}
330
83B1
100
AcDbScale
 70
     0
300
1:1
140
1.0
141
1.0
290
     1
  0
SCALE
  5
83B3
102
{ACAD_REACTORS
330
83B1
102
}
330
83B1
100
AcDbScale
 70
     0
300
1/128" = 1'-0"
140
0.0078125
141
12.0
290
     0
  0
SCALE
  5
83B4
102
{ACAD_REACTORS
330
83B1
102
}
330
83B1
100
AcDbScale
 70
     0
300
1/64" = 1'-0"
140
0.015625
141
12.0
290
     0
  0
SCALE
  5
83B5
102
{ACAD_REACTORS
330
83B1
102
}
330
83B1
100
AcDbScale
 70
     0
300
1/32" = 1'-0"
140
0.03125
141
12.0
290
     0
  0
SCALE
  5
83B6
102
{ACAD_REACTORS
330
83B1
102
}
330
83B1
100
AcDbScale
 70
     0
300
1/16" = 1'-0"
140
0.0625
141
12.0
290
     0
  0
SCALE
  5
83B7
102
{ACAD_REACTORS
330
83B1
102
}
330
83B1
100
AcDbScale
 70
     0
300
3/32" = 1'-0"
140
0.09375
141
12.0
290
     0
  0
SCALE
  5
83B8
102
{ACAD_REACTORS
330
83B1
102
}
330
83B1
100
AcDbScale
 70
     0
300
1/8" = 1'-0"
140
0.125
141
12.0
290
     0
  0
SCALE
  5
83B9
102
{ACAD_REACTORS
330
83B1
102
}
330
83B1
100
AcDbScale
 70
     0
300
3/16" = 1'-0"
140
0.1875
141
12.0
290
     0
  0
SCALE
  5
83BA
102
{ACAD_REACTORS
330
83B1
102
}
330
83B1
100
AcDbScale
 70
     0
300
1/4" = 1'-0"
140
0.25
141
12.0
290
     0
  0
SCALE
  5
83BB
102
{ACAD_REACTORS
330
83B1
102
}
330
83B1
100
AcDbScale
 70
     0
300
3/8" = 1'-0"
140
0.375
141
12.0
290
     0
  0
SCALE
  5
83BC
102
{ACAD_REACTORS
330
83B1
102
}
330
83B1
100
AcDbScale
 70
     0
300
1/2" = 1'-0"
140
0.5
141
12.0
290
     0
  0
SCALE
  5
83BD
102
{ACAD_REACTORS
330
83B1
102
}
330
83B1
100
AcDbScale
 70
     0
300
3/4" = 1'-0"
140
0.75
141
12.0
290
     0
  0
SCALE
  5
83BE
102
{ACAD_REACTORS
330
83B1
102
}
330
83B1
100
AcDbScale
 70
     0
300
1" = 1'-0"
140
1.0
141
12.0
290
     0
  0
SCALE
  5
83BF
102
{ACAD_REACTORS
330
83B1
102
}
330
83B1
100
AcDbScale
 70
     0
300
1-1/2" = 1'-0"
140
1.5
141
12.0
290
     0
  0
SCALE
  5
83C0
102
{ACAD_REACTORS
330
83B1
102
}
330
83B1
100
AcDbScale
 70
     0
300
3" = 1'-0"
140
3.0
141
12.0
290
     0
  0
SCALE
  5
83C1
102
{ACAD_REACTORS
330
83B1
102
}
330
83B1
100
AcDbScale
 70
     0
300
6" = 1'-0"
140
6.0
141
12.0
290
     0
  0
SCALE
  5
83C2
102
{ACAD_REACTORS
330
83B1
102
}
330
83B1
100
AcDbScale
 70
     0
300
1'-0" = 1'-0"
140
12.0
141
12.0
290
     0
  0
ACDBSECTIONVIEWSTYLE
  5
83D7
102
{ACAD_XDICTIONARY
360
877D
102
}
102
{ACAD_REACTORS
330
83D6
102
}
330
83D6
100
AcDbModelDocViewStyle
 70
     0
  3
Imperial24
290
     0
100
AcDbSectionViewStyle
 70
     0
 71
     0
 90
       78
 71
     1
340
83C4
 40
0.24
340
0
340
0
 40
0.24
300
I, O, Q, S, X, Z
 40
0.48
 90
        3
 40
0.18
 90
        1
 71
     2
340
83CB
 90
       25
340
83CB
 90
       50
 40
0.24
 40
0.0
 40
0.24
 71
     3
340
83C4
 40
0.24
 90
        1
 40
0.75
 90
        1
300
%<\AcVar ViewType \f "%tc1">% %<\AcVar ViewSectionStartId>%-%<\AcVar ViewSectionEndId>%\PSCALE %<\AcVar ViewScale \f "%sn">%
 71
     4
300
ANSI31
 40
1.0
 90
        0
290
     0
290
     0
 90
        6
 40
0.0
 40
1.570796326794896
 40
0.2617993877991494
 40
1.308996938995747
 40
-0.2617993877991494
 40
1.832595714594046
  0
TABLESTYLE
  5
83D3
102
{ACAD_XDICTIONARY
360
8744
102
}
102
{ACAD_REACTORS
330
83D2
102
}
330
83D2
100
AcDbTableStyle
  3
Standard
 70
     0
 71
     0
 40
0.06
 41
0.06
280
     0
281
     0
  7
STANDARD
140
0.18
170
     2
 62
     0
 63
     7
283
     0
274
    -2
284
     1
 64
     0
275
    -2
285
     1
 65
     0
276
    -2
286
     1
 66
     0
277
    -2
287
     1
 67
     0
278
    -2
288
     1
 68
     0
279
    -2
289
     1
 69
     0
  7
STANDARD
140
0.25
170
     5
 62
     0
 63
     7
283
     0
274
    -2
284
     1
 64
     0
275
    -2
285
     1
 65
     0
276
    -2
286
     1
 66
     0
277
    -2
287
     1
 67
     0
278
    -2
288
     1
 68
     0
279
    -2
289
     1
 69
     0
  7
STANDARD
140
0.18
170
     5
 62
     0
 63
     7
283
     0
274
    -2
284
     1
 64
     0
275
    -2
285
     1
 65
     0
276
    -2
286
     1
 66
     0
277
    -2
287
     1
 67
     0
278
    -2
288
     1
 68
     0
279
    -2
289
     1
 69
     0
  0
VISUALSTYLE
  5
839E
102
{ACAD_XDICTIONARY
360
8755
102
}
102
{ACAD_REACTORS
330
8398
102
}
330
8398
100
AcDbVisualStyle
  2
2dWireframe
 70
     4
 71
     0
 72
     2
 73
     0
 90
        0
 40
-0.6
 41
-30.0
 62
     5
 63
     7
 74
     1
 91
        4
 64
     7
 65
   257
 75
     1
175
     1
 42
1.0
 92
        0
 66
   257
 43
1.0
 76
     1
 77
     6
 78
     2
 67
     7
 79
     5
170
     0
171
     0
290
     0
174
     0
 93
        1
 44
0.0
173
     0
291
     0
 45
0.0
1001
ACAD
1000
AcDbSavedByObjectVersion
1070
     0
  0
VISUALSTYLE
  5
839D
102
{ACAD_XDICTIONARY
360
8753
102
}
102
{ACAD_REACTORS
330
8398
102
}
330
8398
100
AcDbVisualStyle
  2
Basic
 70
     7
 71
     1
 72
     0
 73
     1
 90
        0
 40
-0.6
 41
-30.0
 62
     5
 63
     7
 74
     0
 91
        4
 64
     7
 65
   257
 75
     1
175
     1
 42
1.0
 92
        8
 66
     7
 43
1.0
 76
     1
 77
     6
 78
     2
 67
     7
 79
     5
170
     0
171
     0
290
     0
174
     0
 93
        1
 44
0.0
173
     0
291
     1
 45
0.0
1001
ACAD
1000
AcDbSavedByObjectVersion
1070
     0
  0
VISUALSTYLE
  5
83A4
102
{ACAD_XDICTIONARY
360
8761
102
}
102
{ACAD_REACTORS
330
8398
102
}
330
8398
100
AcDbVisualStyle
  2
Brighten
 70
    12
 71
     2
 72
     2
 73
     0
 90
        0
 40
-0.6
 41
-30.0
 62
     5
 63
     7
 74
     1
 91
        4
 64
     7
 65
   257
 75
     1
175
     1
 42
1.0
 92
        8
 66
     7
 43
1.0
 76
     1
 77
     6
 78
     2
 67
     7
 79
     5
170
     0
171
     0
290
     0
174
     0
 93
        1
 44
50.0
173
     0
291
     1
 45
0.0
1001
ACAD
1000
AcDbSavedByObjectVersion
1070
     0
  0
VISUALSTYLE
  5
83A8
102
{ACAD_XDICTIONARY
360
8769
102
}
102
{ACAD_REACTORS
330
8398
102
}
330
8398
100
AcDbVisualStyle
  2
ColorChange
 70
    16
 71
     2
 72
     2
 73
     3
 90
        0
 40
-0.6
 41
-30.0
 62
     5
 63
     8
 74
     1
 91
        4
 64
     7
 65
   257
 75
     1
175
     1
 42
1.0
 92
        8
 66
     8
 43
1.0
 76
     1
 77
     6
 78
     2
 67
     7
 79
     5
170
     0
171
     0
290
     0
174
     0
 93
        1
 44
0.0
173
     0
291
     1
 45
0.0
1001
ACAD
1000
AcDbSavedByObjectVersion
1070
     0
  0
VISUALSTYLE
  5
83A1
102
{ACAD_XDICTIONARY
360
875B
102
}
102
{ACAD_REACTORS
330
8398
102
}
330
8398
100
AcDbVisualStyle
  2
Conceptual
 70
     9
 71
     3
 72
     2
 73
     0
 90
        0
 40
-0.6
 41
-30.0
 62
     5
 63
     7
 74
     2
 91
        2
 64
     7
 65
   257
 75
     1
175
     1
 42
179.0
 92
        8
 66
     7
 43
1.0
 76
     1
 77
     6
 78
     2
 67
     7
 79
     3
170
     0
171
     0
290
     0
174
     0
 93
        1
 44
0.0
173
     0
291
     0
 45
0.0
1001
ACAD
1000
AcDbSavedByObjectVersion
1070
     0
  0
VISUALSTYLE
  5
83A3
102
{ACAD_XDICTIONARY
360
875F
102
}
102
{ACAD_REACTORS
330
8398
102
}
330
8398
100
AcDbVisualStyle
  2
Dim
 70
    11
 71
     2
 72
     2
 73
     0
 90
        0
 40
-0.6
 41
-30.0
 62
     5
 63
     7
 74
     1
 91
        4
 64
     7
 65
   257
 75
     1
175
     1
 42
1.0
 92
        8
 66
     7
 43
1.0
 76
     1
 77
     6
 78
     2
 67
     7
 79
     5
170
     0
171
     0
290
     0
174
     0
 93
        1
 44
-50.0
173
     0
291
     1
 45
0.0
1001
ACAD
1000
AcDbSavedByObjectVersion
1070
     0
  0
VISUALSTYLE
  5
83B0
102
{ACAD_XDICTIONARY
360
8779
102
}
102
{ACAD_REACTORS
330
8398
102
}
330
8398
100
AcDbVisualStyle
  2
EdgeColorOff
 70
    22
 71
     2
 72
     2
 73
     0
 90
        0
 40
-0.6
 41
-30.0
 62
     5
 63
     7
 74
     1
 91
        4
 64
     7
 65
   257
 75
     1
175
     1
 42
1.0
 92
        8
 66
     7
 43
1.0
 76
     1
 77
     6
 78
     2
 67
     7
 79
     5
170
     0
171
     0
290
     0
174
     0
 93
        1
 44
0.0
173
     0
291
     1
 45
0.0
1001
ACAD
1000
AcDbSavedByObjectVersion
1070
     0
  0
VISUALSTYLE
  5
83A7
102
{ACAD_XDICTIONARY
360
8767
102
}
102
{ACAD_REACTORS
330
8398
102
}
330
8398
100
AcDbVisualStyle
  2
Facepattern
 70
    15
 71
     2
 72
     2
 73
     0
 90
        0
 40
-0.6
 41
-30.0
 62
     5
 63
     7
 74
     1
 91
        4
 64
     7
 65
   257
 75
     1
175
     1
 42
1.0
 92
        8
 66
     7
 43
1.0
 76
     1
 77
     6
 78
     2
 67
     7
 79
     5
170
     0
171
     0
290
     0
174
     0
 93
        1
 44
0.0
173
     0
291
     1
 45
0.0
1001
ACAD
1000
AcDbSavedByObjectVersion
1070
     0
  0
VISUALSTYLE
  5
8399
102
{ACAD_XDICTIONARY
360
874B
102
}
102
{ACAD_REACTORS
330
8398
102
}
330
8398
100
AcDbVisualStyle
  2
Flat
 70
     0
 71
     2
 72
     1
 73
     1
 90
        2
 40
-0.6
 41
30.0
 62
     5
 63
     7
 74
     0
 91
        0
 64
     7
 65
   257
 75
     1
175
     1
 42
1.0
 92
        8
 66
     7
 43
1.0
 76
     1
 77
     6
 78
     2
 67
     7
 79
     5
170
     0
171
     0
290
     0
174
     0
 93
       13
 44
0.0
173
     0
291
     1
 45
0.0
1001
ACAD
1000
AcDbSavedByObjectVersion
1070
     0
  0
VISUALSTYLE
  5
839A
102
{ACAD_XDICTIONARY
360
874D
102
}
102
{ACAD_REACTORS
330
8398
102
}
330
8398
100
AcDbVisualStyle
  2
FlatWithEdges
 70
     1
 71
     2
 72
     1
 73
     1
 90
        2
 40
-0.6
 41
30.0
 62
     5
 63
     7
 74
     1
 91
        0
 64
     7
 65
   257
 75
     1
175
     1
 42
1.0
 92
        0
 66
   257
 43
1.0
 76
     1
 77
     6
 78
     2
 67
     7
 79
     5
170
     0
171
     0
290
     0
174
     0
 93
       13
 44
0.0
173
     0
291
     1
 45
0.0
1001
ACAD
1000
AcDbSavedByObjectVersion
1070
     0
  0
VISUALSTYLE
  5
839B
102
{ACAD_XDICTIONARY
360
874F
102
}
102
{ACAD_REACTORS
330
8398
102
}
330
8398
100
AcDbVisualStyle
  2
Gouraud
 70
     2
 71
     2
 72
     2
 73
     1
 90
        2
 40
-0.6
 41
30.0
 62
     5
 63
     7
 74
     0
 91
        0
 64
     7
 65
   257
 75
     1
175
     1
 42
1.0
 92
        0
 66
     7
 43
1.0
 76
     1
 77
     6
 78
     2
 67
     7
 79
     5
170
     0
171
     0
290
     0
174
     0
 93
       13
 44
0.0
173
     0
291
     1
 45
0.0
1001
ACAD
1000
AcDbSavedByObjectVersion
1070
     0
  0
VISUALSTYLE
  5
839C
102
{ACAD_XDICTIONARY
360
8751
102
}
102
{ACAD_REACTORS
330
8398
102
}
330
8398
100
AcDbVisualStyle
  2
GouraudWithEdges
 70
     3
 71
     2
 72
     2
 73
     1
 90
        2
 40
-0.6
 41
30.0
 62
     5
 63
     7
 74
     1
 91
        0
 64
     7
 65
   257
 75
     1
175
     1
 42
1.0
 92
        0
 66
   257
 43
1.0
 76
     1
 77
     6
 78
     2
 67
     7
 79
     5
170
     0
171
     0
290
     0
174
     0
 93
       13
 44
0.0
173
     0
291
     1
 45
0.0
1001
ACAD
1000
AcDbSavedByObjectVersion
1070
     0
  0
VISUALSTYLE
  5
83A0
102
{ACAD_XDICTIONARY
360
8759
102
}
102
{ACAD_REACTORS
330
8398
102
}
330
8398
100
AcDbVisualStyle
  2
Hidden
 70
     6
 71
     1
 72
     2
 73
     2
 90
        0
 40
-0.6
 41
-30.0
 62
     5
 63
     7
 74
     2
 91
        2
 64
     7
 65
   257
 75
     2
175
     1
 42
40.0
 92
        0
 66
   257
 43
1.0
 76
     1
 77
     6
 78
     2
 67
     7
 79
     3
170
     0
171
     0
290
     0
174
     0
 93
        1
 44
0.0
173
     0
291
     0
 45
0.0
1001
ACAD
1000
AcDbSavedByObjectVersion
1070
     0
  0
VISUALSTYLE
  5
83AE
102
{ACAD_XDICTIONARY
360
8775
102
}
102
{ACAD_REACTORS
330
8398
102
}
330
8398
100
AcDbVisualStyle
  2
JitterOff
 70
    20
 71
     2
 72
     2
 73
     0
 90
        0
 40
-0.6
 41
-30.0
 62
     5
 63
     7
 74
     1
 91
        4
 64
     7
 65
   257
 75
     1
175
     1
 42
1.0
 92
       10
 66
     7
 43
1.0
 76
     1
 77
     6
 78
     2
 67
     7
 79
     5
170
     0
171
     0
290
     0
174
     0
 93
        1
 44
0.0
173
     0
291
     1
 45
0.0
1001
ACAD
1000
AcDbSavedByObjectVersion
1070
     0
  0
VISUALSTYLE
  5
83A6
102
{ACAD_XDICTIONARY
360
8765
102
}
102
{ACAD_REACTORS
330
8398
102
}
330
8398
100
AcDbVisualStyle
  2
Linepattern
 70
    14
 71
     2
 72
     2
 73
     0
 90
        0
 40
-0.6
 41
-30.0
 62
     5
 63
     7
 74
     1
 91
        4
 64
     7
 65
   257
 75
     7
175
     7
 42
1.0
 92
        8
 66
     7
 43
1.0
 76
     1
 77
     6
 78
     2
 67
     7
 79
     5
170
     0
171
     0
290
     0
174
     0
 93
        1
 44
0.0
173
     0
291
     1
 45
0.0
1001
ACAD
1000
AcDbSavedByObjectVersion
1070
     0
  0
VISUALSTYLE
  5
83AF
102
{ACAD_XDICTIONARY
360
8777
102
}
102
{ACAD_REACTORS
330
8398
102
}
330
8398
100
AcDbVisualStyle
  2
OverhangOff
 70
    21
 71
     2
 72
     2
 73
     0
 90
        0
 40
-0.6
 41
-30.0
 62
     5
 63
     7
 74
     1
 91
        4
 64
     7
 65
   257
 75
     1
175
     1
 42
1.0
 92
        9
 66
     7
 43
1.0
 76
     1
 77
     6
 78
     2
 67
     7
 79
     5
170
     0
171
     0
290
     0
174
     0
 93
        1
 44
0.0
173
     0
291
     1
 45
0.0
1001
ACAD
1000
AcDbSavedByObjectVersion
1070
     0
  0
VISUALSTYLE
  5
83A2
102
{ACAD_XDICTIONARY
360
875D
102
}
102
{ACAD_REACTORS
330
8398
102
}
330
8398
100
AcDbVisualStyle
  2
Realistic
 70
     8
 71
     2
 72
     3
 73
     0
 90
        2
 40
-0.6
 41
30.0
 62
     5
 63
     7
 74
     0
 91
        0
 64
     7
 65
   257
 75
     1
175
     1
 42
1.0
 92
        8
 66
   257
 43
1.0
 76
     1
 77
     6
 78
     2
 67
     7
 79
     3
170
     0
171
     0
290
     0
174
     0
 93
       13
 44
0.0
173
     0
291
     0
 45
0.0
1001
ACAD
1000
AcDbSavedByObjectVersion
1070
     0
  0
VISUALSTYLE
  5
83AD
102
{ACAD_XDICTIONARY
360
8773
102
}
102
{ACAD_REACTORS
330
8398
102
}
330
8398
100
AcDbVisualStyle
  2
Shaded
 70
    27
 71
     2
 72
     2
 73
     1
 90
        2
 40
-0.6
 41
30.0
 62
     5
 63
     7
 74
     0
 91
        4
 64
     7
 65
   257
 75
     1
175
     1
 42
1.0
 92
        8
 66
   257
 43
1.0
 76
     1
 77
     6
 78
     2
 67
     8
 79
     3
170
     0
171
     0
290
     0
174
     0
 93
        5
 44
0.0
173
     0
291
     0
 45
0.0
1001
ACAD
1000
AcDbSavedByObjectVersion
1070
     0
  0
VISUALSTYLE
  5
83AC
102
{ACAD_XDICTIONARY
360
8771
102
}
102
{ACAD_REACTORS
330
8398
102
}
330
8398
100
AcDbVisualStyle
  2
Shaded with edges
 70
    26
 71
     2
 72
     2
 73
     1
 90
        2
 40
-0.6
 41
30.0
 62
     5
 63
     7
 74
     1
 91
       10
 64
     7
 65
   257
 75
     2
175
     1
 42
1.0
 92
        8
 66
   257
 43
1.0
 76
     1
 77
     6
 78
     2
 67
     7
 79
     3
170
     0
171
     0
290
     0
174
     0
 93
        5
 44
0.0
173
     0
291
     0
 45
0.0
1001
ACAD
1000
AcDbSavedByObjectVersion
1070
     0
  0
VISUALSTYLE
  5
83A9
102
{ACAD_XDICTIONARY
360
876B
102
}
102
{ACAD_REACTORS
330
8398
102
}
330
8398
100
AcDbVisualStyle
  2
Shades of Gray
 70
    23
 71
     2
 72
     2
 73
     3
 90
        0
 40
-0.6
 41
-30.0
 62
     5
 63
     7
 74
     2
 91
        2
 64
     7
 65
     7
 75
     1
175
     1
 42
40.0
 92
        8
 66
     7
 43
1.0
 76
     1
 77
     6
 78
     2
 67
     7
 79
     3
170
     0
171
     0
290
     0
174
     0
 93
        1
 44
0.0
173
     0
291
     0
 45
0.0
1001
ACAD
1000
AcDbSavedByObjectVersion
1070
     0
  0
VISUALSTYLE
  5
83AA
102
{ACAD_XDICTIONARY
360
876D
102
}
102
{ACAD_REACTORS
330
8398
102
}
330
8398
100
AcDbVisualStyle
  2
Sketchy
 70
    24
 71
     1
 72
     2
 73
     2
 90
        0
 40
-0.6
 41
-30.0
 62
     5
 63
     7
 74
     2
 91
        2
 64
     7
 65
     7
 75
     1
175
     1
 42
40.0
 92
       11
 66
     7
 43
1.0
 76
     1
 77
     6
 78
     2
 67
     7
 79
     6
170
     0
171
     0
290
     0
174
     0
 93
        1
 44
0.0
173
     0
291
     0
 45
0.0
1001
ACAD
1000
AcDbSavedByObjectVersion
1070
     0
  0
VISUALSTYLE
  5
83A5
102
{ACAD_XDICTIONARY
360
8763
102
}
102
{ACAD_REACTORS
330
8398
102
}
330
8398
100
AcDbVisualStyle
  2
Thicken
 70
    13
 71
     2
 72
     2
 73
     0
 90
        0
 40
-0.6
 41
-30.0
 62
     5
 63
     7
 74
     1
 91
        4
 64
     7
 65
   257
 75
     1
175
     1
 42
1.0
 92
       12
 66
     7
 43
1.0
 76
     1
 77
     6
 78
     2
 67
     7
 79
     5
170
     0
171
     0
290
     0
174
     0
 93
        1
 44
0.0
173
     0
291
     1
 45
0.0
1001
ACAD
1000
AcDbSavedByObjectVersion
1070
     0
  0
VISUALSTYLE
  5
839F
102
{ACAD_XDICTIONARY
360
8757
102
}
102
{ACAD_REACTORS
330
8398
102
}
330
8398
100
AcDbVisualStyle
  2
Wireframe
 70
     5
 71
     0
 72
     2
 73
     0
 90
        0
 40
-0.6
 41
-30.0
 62
     5
 63
     7
 74
     1
 91
        4
 64
     7
 65
   257
 75
     1
175
     1
 42
1.0
 92
        0
 66
   257
 43
1.0
 76
     1
 77
     6
 78
     2
 67
     7
 79
     3
170
     0
171
     0
290
     0
174
     0
 93
        1
 44
0.0
173
     0
291
     0
 45
0.0
1001
ACAD
1000
AcDbSavedByObjectVersion
1070
     0
  0
VISUALSTYLE
  5
83AB
102
{ACAD_XDICTIONARY
360
876F
102
}
102
{ACAD_REACTORS
330
8398
102
}
330
8398
100
AcDbVisualStyle
  2
X-Ray
 70
    25
 71
     2
 72
     2
 73
     1
 90
        1
 40
0.5
 41
-30.0
 62
     5
 63
     7
 74
     1
 91
        0
 64
     7
 65
   257
 75
     1
175
     1
 42
1.0
 92
        8
 66
     7
 43
1.0
 76
     1
 77
     6
 78
     2
 67
     7
 79
     3
170
     0
171
     0
290
     0
174
     0
 93
       13
 44
0.0
173
     0
291
     0
 45
0.0
1001
ACAD
1000
AcDbSavedByObjectVersion
1070
     0
  0
DICTIONARYVAR
  5
873E
102
{ACAD_REACTORS
330
8739
102
}
330
8739
100
DictionaryVariables
280
     0
  1
1:1
  0
DICTIONARYVAR
  5
873B
102
{ACAD_REACTORS
330
8739
102
}
330
8739
100
DictionaryVariables
280
     0
  1
STANDARD
  0
DICTIONARYVAR
  5
873A
102
{ACAD_REACTORS
330
8739
102
}
330
8739
100
DictionaryVariables
280
     0
  1
STANDARD
  0
DICTIONARYVAR
  5
873C
102
{ACAD_REACTORS
330
8739
102
}
330
8739
100
DictionaryVariables
280
     0
  1
Imperial24
  0
DICTIONARYVAR
  5
873D
102
{ACAD_REACTORS
330
8739
102
}
330
8739
100
DictionaryVariables
280
     0
  1
Imperial24
  0
DICTIONARYVAR
  5
8741
102
{ACAD_REACTORS
330
8739
102
}
330
8739
100
DictionaryVariables
280
     0
  1
1
  0
DICTIONARYVAR
  5
8740
102
{ACAD_REACTORS
330
8739
102
}
330
8739
100
DictionaryVariables
280
     0
  1
0
  0
DICTIONARYVAR
  5
873F
102
{ACAD_REACTORS
330
8739
102
}
330
8739
100
DictionaryVariables
280
     0
  1
127
  0
DICTIONARYVAR
  5
8742
102
{ACAD_REACTORS
330
8739
102
}
330
8739
100
DictionaryVariables
280
     0
  1
2
  0
DICTIONARY
  5
877F
330
83D9
100
AcDbDictionary
280
     1
281
     1
  3
ACAD_XREC_ROUNDTRIP
360
8780
  0
DICTIONARY
  5
8783
330
83E1
100
AcDbDictionary
280
     1
281
     1
  3
ACAD_XREC_ROUNDTRIP
360
8784
  0
DICTIONARY
  5
8781
330
83DD
100
AcDbDictionary
280
     1
281
     1
  3
ACAD_XREC_ROUNDTRIP
360
8782
  0
DICTIONARY
  5
8389
330
8388
100
AcDbDictionary
280
     1
281
     1
  3
ACAD_XREC_ROUNDTRIP
360
8749
  3
BUMPTILE
360
838B
  3
DIFFUSETILE
360
838A
  3
OPACITYTILE
360
838E
  3
REFLECTIONTILE
360
838D
  3
REFRACTIONTILE
360
838F
  3
SPECULARTILE
360
838C
  0
DICTIONARY
  5
8381
330
8380
100
AcDbDictionary
280
     1
281
     1
  3
ACAD_XREC_ROUNDTRIP
360
8748
  3
BUMPTILE
360
8383
  3
DIFFUSETILE
360
8382
  3
OPACITYTILE
360
8386
  3
REFLECTIONTILE
360
8385
  3
REFRACTIONTILE
360
8387
  3
SPECULARTILE
360
8384
  0
DICTIONARY
  5
8391
330
8390
100
AcDbDictionary
280
     1
281
     1
  3
ACAD_XREC_ROUNDTRIP
360
874A
  3
BUMPTILE
360
8393
  3
DIFFUSETILE
360
8392
  3
FBXASSET
360
849D
  3
OPACITYTILE
360
8396
  3
REFLECTIONTILE
360
8395
  3
REFRACTIONTILE
360
8397
  3
SPECULARTILE
360
8394
  0
DICTIONARY
  5
877D
330
83D7
100
AcDbDictionary
280
     1
281
     1
  3
ACAD_XREC_ROUNDTRIP
360
877E
  0
DICTIONARY
  5
8744
330
83D3
100
AcDbDictionary
280
     1
281
     1
  3
ACAD_ROUNDTRIP_2008_TABLESTYLE_CELLSTYLEMAP
360
8745
  3
ACAD_XREC_ROUNDTRIP
360
877B
  0
DICTIONARY
  5
8755
330
839E
100
AcDbDictionary
280
     1
281
     1
  3
ACAD_XREC_ROUNDTRIP
360
8756
  0
DICTIONARY
  5
8753
330
839D
100
AcDbDictionary
280
     1
281
     1
  3
ACAD_XREC_ROUNDTRIP
360
8754
  0
DICTIONARY
  5
8761
330
83A4
100
AcDbDictionary
280
     1
281
     1
  3
ACAD_XREC_ROUNDTRIP
360
8762
  0
DICTIONARY
  5
8769
330
83A8
100
AcDbDictionary
280
     1
281
     1
  3
ACAD_XREC_ROUNDTRIP
360
876A
  0
DICTIONARY
  5
875B
330
83A1
100
AcDbDictionary
280
     1
281
     1
  3
ACAD_XREC_ROUNDTRIP
360
875C
  0
DICTIONARY
  5
875F
330
83A3
100
AcDbDictionary
280
     1
281
     1
  3
ACAD_XREC_ROUNDTRIP
360
8760
  0
DICTIONARY
  5
8779
330
83B0
100
AcDbDictionary
280
     1
281
     1
  3
ACAD_XREC_ROUNDTRIP
360
877A
  0
DICTIONARY
  5
8767
330
83A7
100
AcDbDictionary
280
     1
281
     1
  3
ACAD_XREC_ROUNDTRIP
360
8768
  0
DICTIONARY
  5
874B
330
8399
100
AcDbDictionary
280
     1
281
     1
  3
ACAD_XREC_ROUNDTRIP
360
874C
  0
DICTIONARY
  5
874D
330
839A
100
AcDbDictionary
280
     1
281
     1
  3
ACAD_XREC_ROUNDTRIP
360
874E
  0
DICTIONARY
  5
874F
330
839B
100
AcDbDictionary
280
     1
281
     1
  3
ACAD_XREC_ROUNDTRIP
360
8750
  0
DICTIONARY
  5
8751
330
839C
100
AcDbDictionary
280
     1
281
     1
  3
ACAD_XREC_ROUNDTRIP
360
8752
  0
DICTIONARY
  5
8759
330
83A0
100
AcDbDictionary
280
     1
281
     1
  3
ACAD_XREC_ROUNDTRIP
360
875A
  0
DICTIONARY
  5
8775
330
83AE
100
AcDbDictionary
280
     1
281
     1
  3
ACAD_XREC_ROUNDTRIP
360
8776
  0
DICTIONARY
  5
8765
330
83A6
100
AcDbDictionary
280
     1
281
     1
  3
ACAD_XREC_ROUNDTRIP
360
8766
  0
DICTIONARY
  5
8777
330
83AF
100
AcDbDictionary
280
     1
281
     1
  3
ACAD_XREC_ROUNDTRIP
360
8778
  0
DICTIONARY
  5
875D
330
83A2
100
AcDbDictionary
280
     1
281
     1
  3
ACAD_XREC_ROUNDTRIP
360
875E
  0
DICTIONARY
  5
8773
330
83AD
100
AcDbDictionary
280
     1
281
     1
  3
ACAD_XREC_ROUNDTRIP
360
8774
  0
DICTIONARY
  5
8771
330
83AC
100
AcDbDictionary
280
     1
281
     1
  3
ACAD_XREC_ROUNDTRIP
360
8772
  0
DICTIONARY
  5
876B
330
83A9
100
AcDbDictionary
280
     1
281
     1
  3
ACAD_XREC_ROUNDTRIP
360
876C
  0
DICTIONARY
  5
876D
330
83AA
100
AcDbDictionary
280
     1
281
     1
  3
ACAD_XREC_ROUNDTRIP
360
876E
  0
DICTIONARY
  5
8763
330
83A5
100
AcDbDictionary
280
     1
281
     1
  3
ACAD_XREC_ROUNDTRIP
360
8764
  0
DICTIONARY
  5
8757
330
839F
100
AcDbDictionary
280
     1
281
     1
  3
ACAD_XREC_ROUNDTRIP
360
8758
  0
DICTIONARY
  5
876F
330
83AB
100
AcDbDictionary
280
     1
281
     1
  3
ACAD_XREC_ROUNDTRIP
360
8770
  0
XRECORD
  5
8780
102
{ACAD_REACTORS
330
877F
102
}
330
877F
100
AcDbXrecord
280
     1
102
DISPLAYNAME
  1
Imperial24
102
FLAGS
 90
        0
  0
XRECORD
  5
8784
102
{ACAD_REACTORS
330
8783
102
}
330
8783
100
AcDbXrecord
280
     1
102
SHADEPLOT
 70
     0
102
SHADEPLOTRESLEVEL
 70
     2
102
SHADEPLOTCUSTOMDPI
 70
   300
  0
XRECORD
  5
8782
102
{ACAD_REACTORS
330
8781
102
}
330
8781
100
AcDbXrecord
280
     1
102
SHADEPLOT
 70
     0
102
SHADEPLOTRESLEVEL
 70
     2
102
SHADEPLOTCUSTOMDPI
 70
   300
  0
XRECORD
  5
8749
102
{ACAD_REACTORS
330
8389
102
}
330
8389
100
AcDbXrecord
280
     1
102
MATERIAL
148
0.0
149
0.0
149
0.0
 93
        0
 94
      127
282
     0
 72
     0
 77
     0
171
     0
175
     0
179
     0
273
     0
  0
XRECORD
  5
838B
102
{ACAD_REACTORS
330
8389
102
}
330
8389
100
AcDbXrecord
280
     1
270
     1
271
     1
  0
XRECORD
  5
838A
102
{ACAD_REACTORS
330
8389
102
}
330
8389
100
AcDbXrecord
280
     1
270
     1
271
     1
  0
XRECORD
  5
838E
102
{ACAD_REACTORS
330
8389
102
}
330
8389
100
AcDbXrecord
280
     1
270
     1
271
     1
  0
XRECORD
  5
838D
102
{ACAD_REACTORS
330
8389
102
}
330
8389
100
AcDbXrecord
280
     1
270
     1
271
     1
  0
XRECORD
  5
838F
102
{ACAD_REACTORS
330
8389
102
}
330
8389
100
AcDbXrecord
280
     1
270
     1
271
     1
  0
XRECORD
  5
838C
102
{ACAD_REACTORS
330
8389
102
}
330
8389
100
AcDbXrecord
280
     1
270
     1
271
     1
  0
XRECORD
  5
8748
102
{ACAD_REACTORS
330
8381
102
}
330
8381
100
AcDbXrecord
280
     1
102
MATERIAL
148
0.0
149
0.0
149
0.0
 93
        0
 94
      127
282
     0
 72
     0
 77
     0
171
     0
175
     0
179
     0
273
     0
  0
XRECORD
  5
8383
102
{ACAD_REACTORS
330
8381
102
}
330
8381
100
AcDbXrecord
280
     1
270
     1
271
     1
  0
XRECORD
  5
8382
102
{ACAD_REACTORS
330
8381
102
}
330
8381
100
AcDbXrecord
280
     1
270
     1
271
     1
  0
XRECORD
  5
8386
102
{ACAD_REACTORS
330
8381
102
}
330
8381
100
AcDbXrecord
280
     1
270
     1
271
     1
  0
XRECORD
  5
8385
102
{ACAD_REACTORS
330
8381
102
}
330
8381
100
AcDbXrecord
280
     1
270
     1
271
     1
  0
XRECORD
  5
8387
102
{ACAD_REACTORS
330
8381
102
}
330
8381
100
AcDbXrecord
280
     1
270
     1
271
     1
  0
XRECORD
  5
8384
102
{ACAD_REACTORS
330
8381
102
}
330
8381
100
AcDbXrecord
280
     1
270
     1
271
     1
  0
XRECORD
  5
874A
102
{ACAD_REACTORS
330
8391
102
}
330
8391
100
AcDbXrecord
280
     1
102
MATERIAL
148
0.0
149
0.0
149
0.0
 93
        0
 94
      127
282
     0
 72
     0
 77
     0
171
     0
175
     0
179
     0
273
     0
  0
XRECORD
  5
8393
102
{ACAD_REACTORS
330
8391
102
}
330
8391
100
AcDbXrecord
280
     1
270
     1
271
     1
  0
XRECORD
  5
8392
102
{ACAD_REACTORS
330
8391
102
}
330
8391
100
AcDbXrecord
280
     1
270
     1
271
     1
  0
XRECORD
  5
849D
102
{ACAD_REACTORS
330
8391
102
}
330
8391
100
AcDbXrecord
280
     1
 70
     1
 90
1959938040
 71
     1
  1
D5FAD411-C1B7-43C3-94E2-A83A49496470
311
504B03041400060808006375785757D62836D9000000200100004F00000042364643353239422D434537342D343537372D413442312D4232453443363444394439442F4173736574446174612F446566696E6974696F6E4974657261746F7250726F706572746965732E62696E454E3D4FC33010350C200606FE41D5DDD871
311
5CA58ADA22350E4CB0D0A94B7575AE2592935471223132F2AFE14E14F5A477EF3EDFDDB710E2E76C148A2BC217F97BE2176CB1AFFDBBFFC006C40D5742B787707BE95D53C8A9C3038C61E0ADD73A7A0C015AECC6F870199D3430901C84475EBA23FC17222B1CFF8EF1FD3702BFC40CD5297F82187158AAC3FE5315DAE8B470
311
A59C95A9933633CF72ED9C9545B22E8DB5F3CCCEE6AAC7D88DBDC7A88CD2BBB3F2EED41EEB6AB518EA06272D34B89CFA1EE9A76ABA32DAA43249A4B19BC4E636CD75B65D289EFC05504B03041400060808006375785744BCC9B5EC000000300200004500000042364643353239422D434537342D343537372D413442312D42
311
32453443363444394439442F4173736574446174612F496E7374616E636550726F706572746965732E62696EEB606060F80F0540260323103700495E20ED9E9A975A94991C9C9C919A9BA802147031757374313134D475367432D735317636D6B5347135D275B4307634B134B134333137604768046931363471713532B5D4
311
35353131D635313332D475727372D13534373670367376B67474B5042A03DBCBA019D37FE8ABC6157B20CD04146B0062181F4C03F940F0C11EA29A8141C08141002C0426541C106CAC2CA046088033B02A030AC2157C6006F21A8018AAF50194E6010A610250382264E08660284CD9E98021862280A91564B406929A0FF62C
311
401E28B6F88038B83CB1243943D7A928312F25350524432B0000504B03041400060808006375785728BB58AF800100009E0500003D00000042364643353239422D434537342D343537372D413442312D4232453443363444394439442F536368656D61732F436F6D6D6F6E536368656D612E786D6CBD544D4FC23018BEFB2B
311
96DE15493C78601010A34B880709DEDFB52FD0D8B54BD70DF6EFED3AC0B12E6442E2716BFB3CEFF3D18E26FB440405EA8C2B1992E1C323095052C5B8DC842437EBFB673219DF8DA659866649B798C078B48AE6410122242F2A4994AC7F93815DF85C049C8564CA0A901499DD886B2EB9B1E02448F358701A9235880C49A011
311
9892A20C89D1B9FD768815CAD268CB5E0355B40B1E47F3E37A2020464BED06AA57CE8FCC20C3C3446D46761A2632A8C1283D07031EFF2AE7CCB1BFEEE916E406DFAC8E36FFD99A9D60A6944090EEDC3B670C7DC13DE86B6B2C5C240D6E503BB85ACD579D513F1B9F9A69DC9CC22AFA80C426D40AF0B21EA168559156B6276F
311
0F726A6BFF04DCD513A87A62CAD41FB24FCB2858B3952E3D852084DA25B9303C15687973CC8E8AAE11DF2836C38C6A9E765E8C1BA1BFB1DC29CDFE518C8B5A7655A4ED7E77291ABEB80DBD82EC866ADE1B8D05AF9E35CF09D7A061F38A986D9EC412B8F0F65E5D81534D9B231D1E5A8FE577A241F3A5FD01504B0304140006
311
080800637578572CCEBD668A040000E01200003E00000042364643353239422D434537342D343537372D413442312D4232453443363444394439442F536368656D61732F47656E65726963536368656D612E786D6CD5586D6FDB380CFE7EBF42F0F7A649B70E1B90744856B4970F450FCD7A5F05459613EDE4174872DADCAF
311
3F522F8ED3B88D2F1D06AC4050DBA2493EE4438AF2F8EB73AEC8466823CB62928C06C384888297A92C5693A4B6D9D9E7E4EBD51FE3A931C22EF85AE4EC6AFC38BF261BA626C9AD288496DC3F4FCEAFC63366845F7A10452AF41DB320C0D44EC26EAB20918735565582695670811A6A49643A49A6E9069FA4604A64B29016DC
311
4B48552F95E4932463CA888468C1D2B250DB4962750DF7CE273069CE8363F1FF4EDB00E0A21999574AE4A2B00C353B93F3BD4777B8A61ED8F604ABFEDD79CE56A2B7BDFBDBC50996E0ADDE16FED26223C5D30956C29BDF4A55EA686E5E58B112DA45CE67F76F4FA27EFA3FB672FD7372FC388FAECDCA5209E693CAD167BADC
311
D272F943701B3812F8A3D852008B1D2E32DB927B2F833C6EA95879925356D254582695095A3CE982924720BE5774A3CB9CDCDB350427D2DF20DA1B5532EBE2D5D6288D75D4F7E4FD9890A0EF8E3D93EBB8F8BA4758158EF6FB90A6F9520281C93DE7AAC6D24607DA296BB96018123F821A7D6A5C5884050C475DA486544273
311
2C8B95684A50165CBB3A32F25F783A4A480ED59AD7F924B968AEA50131F46303223E6A397B0E52976030DC1DCA81D7E7C1EDEEA42C19FF27635C505E2BD5198A599020DF50A2330FCB3AAF28CB0124108429553EF1B228802E2265D8F7CC2401042B155BCC7070F1E5C55F13B4A9577362CCCE46C32174E010C3C378C44841
311
A4BDA00FE3A12006CE11EE6AEC59894D3526DDE1CD59D503ECC324017F8061B7F162162FA62EDD81AE3308617770796DCBDAD2B2625C5AE8A63DE20B2C8AA5E95E76E5730823955956E33E705425A2187C185D36489A1B44D3DCEC2172F6BA2105C3546287A7194B2331768EBBE64F6E70A9930ABE0ADEA89E9E2C38523B81
311
0287AD67A54A039C1606EAFE68F8304610BB9093DBDDABC0B2AE4E290DCDA15376D7E39F72B556F0B32EAB5D3D498B4C41ABADEC3A1434C422D87E8025A84BDCB2B1417ED750FAE4DA8976863974C577C7F902D3F156AD354DEA3540DE6BEAE2BEA52F7A2EB4CA43802ECE5BF2CE2EDC9347179FFB023CE412E60BE16DA0BE
311
29B374988A553F561DC04615DD35F7D2C8979F60E5955CE93DF29DED8AFA1EE6642D53418086C03C47C377910F75F7E8F5EF665F70B60FFB22AEDF897D119E8423C773E819A3C1E55E550599EE6EDCA34D0C86FD72057DF2CD46F16A470682471C164E4346D5306BF12D7D12D82CFF673D41636C347443FEB51B50D72EA171
311
A8E4A58623A4A16E0FA2B8B10A0D23268D87C33896EE8FB73305A74BF224EDBADFA0BD674AB354D63DB7BD5D83426761C077DE767728235446A552754EB93B755891C3C4CC6CADE37CF0E912A7BB38DBA010F9DE1282EDF470CA69A9CDA482E334C4A6EA4107987980B17E72F31730EBF88BBD39E7C629F56797A3C0009C2C
311
5AE7951D9A05A02773440F02EEB4DE396A3B6A570C72CCFBCD823B0B8ED3F1D5CEDDFED772FA70236C83FB7D86C385D570B87107535572A60A96035F8F7C6A7192F13007246BBE0521855E6AC46F3E27689CEE7D186A6FD679D98CDCAD13333E04EBE7ED6F55FF01504B0304140006080800637578576180134D5F0100006B
311
0300004500000042364643353239422D434537342D343537372D413442312D4232453443363444394439442F536368656D61732F52656E6465724D6174657269616C536368656D612E786D6CA5934D6FC2300C86EFFB1551EEE343DBA41D1A103009551ADAD40EAE28A4A68D9426284961FCFBE5A340113B2071746D3F765E
311
BF4DC6BFB5407BD0862B49F0B037C0082453059725C18DDD3EBFE3F1E829991803366715D474942CD30FB4A782E00C64017A412D684E454CE3FE28995203B162A6EA5AC94B66997D225E109CD63B0135484BAD1B3C07E9080CA35DB3119C11BCA5C200461A68A1A438126C75E3E230D40FF81FB3F03C91D1E3A3A0AF79FE28
311
E25BC39EC3E17E4C2A2D94A0833A51AF55BCCA7D88572FCBAC529C4140B020FC3AAFA886621DCED7EAD7664CC86024E806DC297DA1BB393E4156543457A4537DB8817349A70F8ACBF09B3EEE2CB2F33E91B65D60786E4E3B39B77E3FEEEF5650424525DA657FB8B46BE6BF064646F0A0F7327C0BC1BC1B4CBBC1C419FA3CCB
311
23500007872A2580CAAE5461865565294E4EDB4617B62FF579DF9A5B2F54E834076A597573A020912FED777F9B3F504B030414000608080063757857C09BA83651000000570000004700000042364643353239422D434537342D343537372D413442312D4232453443363444394439442F4173736574446174612F41737365
311
745461626C654F66436F6E74656E74732E62696E536160607031757374313134D475367432D735317636D6B5347135D275B4307634B134B1343331371002AACB4D2C492DCA4CCC492C28484D2C4ACC4B4E050A82012F90744FCD03CA26072767A4E6260200504B030414000608080063757857F86583405800000068000000
311
4500000042364643353239422D434537342D343537372D413442312D4232453443363444394439442F4173736574446174612F53747265616D56657273696F6E5461626C652E696E66558CBD0A80300C06F73E4B117FB66E451741D041DC5BF98480A492E4FDD18EAEC7DD4555D89EF28DF51A0B1BD8340C4DE7DD848B988C
311
0ACF0649566493F2408C508DDEBB99D5129FF8F1AF8CF5B9503E20FAE5A16B5AF702504B030414000608080063757857DD33E839350100009A0400003600000042364643353239422D434537342D343537372D413442312D4232453443363444394439442F4173736574446174612F636E782E786D6CCD94314FC3301085FF
311
4AE43D76925602558E2B044B2790A818D8AECEA5B5EAD8917D41F0EFB1DB0CA022A60E5DCFEFCECF9FFC4EAE3F075B7C6088C6BB96D5BC62053AED3BE3F62D9BA82FEF59B15632784F3F64AC703060CB729929B90F7E1AE752873D4C3657AD71C7B9F81023D21676169FFB47EF081D4556680B31B62CEA030EC06122DF613C
311
F20E0878CD03463F058D69129901E7493A2010764C3555B328EBBA6C96DB7AB95A2E56D5DDBB1459A9E4CE7B3BEB4DBA2CF8B1D0E75B99AAA4C8C74A4EC1CC9AFC16A6FEF2C877C64991944A460A89C9DC415F63EA8071B446032574C26B422A93086190E22C56526406BF483C616F9CC92D9B640CC88797640F0319BC3922
311
FF79BD3E998D8B044EE3EDF2B874787D0AAFA71FF4760EE42931B796934B87DCB8FE0A2911A735924293B78AFA06504B03041400060808006375785717D83A4A090100004F0300003400000042364643353239422D434537342D343537372D413442312D4232453443363444394439442F536368656D61732F636E782E786D
311
6CCD93BD6EC32014855FC5620FD88EA556112643874E5DDA4EDD28DC2428C0B5F8A9DAB72FB80C89D4AD1DB2C1E1133AE770E1FB4F67BB0F08D1A09FC9407BD28157A88D3FCE24A7C3E69E747BC10362BAC048E7A583995499087E0C9897266938C86CAB6A8D3F37F1019D43FFA24EE024E9949531CE24AE5B2A73420DF14C
311
B54C920E3440C41C14941B9271D06E500164024DC4D88FDBCD306CC6E9759876D376D7DFBD715649C1DF116DE38D4F1070E91496852F767ACEEAB1E03998C6D40C445C7AA3A50DCE0A21784CA174D0C8F4B514522E8B354AA652155BC11F467056A35E057E040FC1A8DB4C7C65EEDF223F83D7109ECA2B0523ED6D26FFCDE3
311
DF0A60EBEC9711A85F417C03504B030414000608080063757857410A3D5871000000A40000002C00000042364643353239422D434537342D343537372D413442312D4232453443363444394439442F636E782E786D6C55CC4D0E82301086E1AB34B31774E7A22D31F1069E60020334B633A63FC6E34B0909B07DDE2F9FEE7E
311
C1AB2FC5E4840DDC9A2B28E25E06C7938192C7CB1D54677514C9871928C640062A83D55394F2D968A0118BAFEA1DBF377CA444F98919176EAB9FEAAB9F2960DA5BBB1E2ED3FA6FFF504B0304140006080800637578571BCD4B007F000000A300000007000000636E782E786D6C4D8CD10AC22018855F45FE7BAB0D371BA823
311
6DBDC7686E48EE376C468F9FC62EE25C7CF071CE11FD67F5E46DE3CB0594501D4E402CDEC3E4709190B6999E81F44AC410B6BF1A101C572BA168506289213D7735D9794CBE58EFF0B14BDDDE4C53779A9A8133CA1ACEE985E98AEA7A60A665D72E272F8E6592F1FBCB2CF7EA0B504B03041400060808006375785716E99B5D
311
A600000035010000130000005B436F6E74656E745F54797065735D2E786D6C9590410E82301045AFD2740F4517C6180A0BF5065E60AC53688469D30E066F6F91AD9AB89CF9FFFD3F99BA9DC7413C3026E749CB4D59498164FCCD51A7E5C4B6D84BD136F5E5193089ECA5A465CF1C0E4A25D3E308A9F401292BD6C711388FB1
311
5301CC1D3A54DBAADA29E38991B8E0254336F5092D4C038BF39CD76B6FC6A538AEBEA54A4B08617006389FA516557DE4AE8E7E70DE30729138228C5F021CD93F02D4FB0DCD0B504B0304140006080800637578573DEE336E64000000790000001B0000006175746F6465736B2D64657369676E2D7061636B6167652E786D6C
311
35CBC10E83200C00D05F21DCA56CA76D41FC96062B120735B69A7DBE268BB7777961F8D5AF396893C2ADB70FE7ADA196782C2DF776D7A97B5933C430F15651E5469C55D70F80A4992A3ADC954792C525AE70A1E4D6AD9816CC044FEFDF01FE3FDE907802504B030414000608080063757857AA760884FA0000009601000037
311
00000042364643353239422D434537342D343537372D413442312D4232453443363444394439442F4173736574446174612F636F72652E786D6C8550CB6E833010FC15B4770306973C641C11285FD0536F9671A89560233FAA7E7EED40A5F6D4D3AE66676677875EBE9647F629AD5346B780F31232A98599949E5B08FE868E
311
905D18B5C6F85F34C8345F640B090646676BC2BA43C2682F7542B599E40E72E7A4874C3C62D382131F72E1390F3E32DC3D5FB9B8F359E638DF788C86A0A65DAAA6E8A66E4A5A60D7A6EE4FE4D8A3711C1A444E2F0DBA36AF253A0D43D7D587A6EBC9488B2466D4ABE567BBB0927B3901ABCAAA4618A38ABC617226F5B93CBC
311
D322311975DEC69FF7A5E93B605DBA7AE09ED3629BFE710DEBF4BF6B50DAD7D5EEBA291C301C8F7C0E182D524AB13C238C3525CABE01504B0304140006080800637578574504A464F9000000940100003500000042364643353239422D434537342D343537372D413442312D4232453443363444394439442F536368656D61
311
732F636F72652E786D6C8550CB6E833010FC15B4770306973C641C11283FD09E7AB3B043AC041B61BBEAE7D7062AB5A79E76353B33BB3BF4F2353D934FB95865740D38CD21917A3042E9B106EF6EE808C985D1C518F78B0689E693AC21C2C0E8B8183FEFD060B4933AA2DA08B983DC5AE920199EA1A9C10E7739F1947B1718
311
F691CE7C78F051A638DD788C7AAFC42E5522B8A99B920BB06B55B627726C51DF771522A7970A5DABD71C9DBAAE69CA43D5B4A4A7591433EAD4F4B37D58247752002BF2A24418A382BC637226E5393F7CD02C3219B56E093FEF4BE377C0DED63B2DCDB6D91F4F3F8BFF3DBDD2AE2C76CF4D6181E170E23A60348B1985B20618
311
6ACC937D03504B03041400060808006375785705FC063F02010000D70100002D00000042364643353239422D434537342D343537372D413442312D4232453443363444394439442F636F72652E786D6C9591C14EC42010865FA5993BEDD2D2ADBBA16C6C5D9FC093372CB395EC161AA0C6C7176C8D7AD37080FC7CFFC03FC3
311
4FEFD32D7B43E7B5352DD07C07199AC12A6DC61696702177909D0477D6861F1864464ED8429241F0D1D965DEA4C19A8026A9C62ADC44E93D06C8865B3CB4E087579C642E9710097FCD67395CE58839CD574EF0A0A72FEBE050065420CA5D59114A49C99E283BB2EAB86B9E799148C1176D42556E8FE1F4822AB373889140D4
311
BC586F23B568B5315AC53FEA8B4607A2DB3FF67579E8487F6E186175D3907BD651D29567D6EFD9C321AE58249A05F7C1C5CE6C45520FFE6A5F8DBF922DB3FA67B2D5E141D0EF50456AB3E0C5E70CE29E46223E00504B030414000608080063757857B139BFAB08010000B201000008000000636F72652E786D6C8D50CB6EC3
311
2010FC15B477FCAE134798C8B1EB2FE8A9376A888362836570D4FE7D21A6527BEB69D1CCECCE30E4FC394FE8215623B5AA218D1240420D9A4B35D6B0D92B3E023A53B26A6D7FC90029368B1A3C0C948CABDE96000D5A59A13CAA34170164C6080B6898DCA30633DCC4CC22B659A730F76861C39D8D224AA35D478995F3CFEA
311
B00A6605079A25598ED31467C55B5A9C8AFC941CDE49EC95946C9BE4C14A72E72EAF52AC402F65DE56C5B1C57DDF95B8A85E4A7C295F135C755DD3E487B2698B9EC47E99126357F7E770C4E5B4C8B087F725F14E51F2A1F514042E14475A4D5F4013127BE24FE86DE1FF082D95CDB37070DF30405317E8493863DFA01BCF7A
311
DDF46DD36F504B010214001400060808006375785757D62836D9000000200100004F000000000000000000000000000000000042364643353239422D434537342D343537372D413442312D4232453443363444394439442F4173736574446174612F446566696E6974696F6E4974657261746F7250726F706572746965732E
311
62696E504B010214001400060808006375785744BCC9B5EC0000003002000045000000000000000000000000004601000042364643353239422D434537342D343537372D413442312D4232453443363444394439442F4173736574446174612F496E7374616E636550726F706572746965732E62696E504B01021400140006
311
0808006375785728BB58AF800100009E0500003D000000000000000000000000009502000042364643353239422D434537342D343537372D413442312D4232453443363444394439442F536368656D61732F436F6D6D6F6E536368656D612E786D6C504B01021400140006080800637578572CCEBD668A040000E01200003E
311
000000000000000000000000007004000042364643353239422D434537342D343537372D413442312D4232453443363444394439442F536368656D61732F47656E65726963536368656D612E786D6C504B01021400140006080800637578576180134D5F0100006B0300004500000000000000000000000000560900004236
311
4643353239422D434537342D343537372D413442312D4232453443363444394439442F536368656D61732F52656E6465724D6174657269616C536368656D612E786D6C504B0102140014000608080063757857C09BA83651000000570000004700000000000000000000000000180B000042364643353239422D434537342D
311
343537372D413442312D4232453443363444394439442F4173736574446174612F41737365745461626C654F66436F6E74656E74732E62696E504B0102140014000608080063757857F865834058000000680000004500000000000000000000000000CE0B000042364643353239422D434537342D343537372D413442312D
311
4232453443363444394439442F4173736574446174612F53747265616D56657273696F6E5461626C652E696E66504B0102140014000608080063757857DD33E839350100009A0400003600000000000000000000000000890C000042364643353239422D434537342D343537372D413442312D423245344336344439443944
311
2F4173736574446174612F636E782E786D6C504B010214001400060808006375785717D83A4A090100004F0300003400000000000000000000000000120E000042364643353239422D434537342D343537372D413442312D4232453443363444394439442F536368656D61732F636E782E786D6C504B010214001400060808
311
0063757857410A3D5871000000A40000002C000000000000000000000000006D0F000042364643353239422D434537342D343537372D413442312D4232453443363444394439442F636E782E786D6C504B01021400140006080800637578571BCD4B007F000000A3000000070000000000000000000000000028100000636E
311
782E786D6C504B010214001400060808006375785716E99B5DA6000000350100001300000000000000000000000000CC1000005B436F6E74656E745F54797065735D2E786D6C504B01021400140006080800637578573DEE336E64000000790000001B00000000000000000000000000A31100006175746F6465736B2D6465
311
7369676E2D7061636B6167652E786D6C504B0102140014000608080063757857AA760884FA0000009601000037000000000000000000000000004012000042364643353239422D434537342D343537372D413442312D4232453443363444394439442F4173736574446174612F636F72652E786D6C504B0102140014000608
311
0800637578574504A464F90000009401000035000000000000000000000000008F13000042364643353239422D434537342D343537372D413442312D4232453443363444394439442F536368656D61732F636F72652E786D6C504B010214001400060808006375785705FC063F02010000D70100002D000000000000000000
311
00000000DB14000042364643353239422D434537342D343537372D413442312D4232453443363444394439442F636F72652E786D6C504B0102140014000608080063757857B139BFAB08010000B2010000080000000000000000000000000028160000636F72652E786D6C504B050600000000110011005A06000056170000
311
0000
310
504B030414000608080063757857000000000000000000000000370000006662782F41354343463344452D383045432D343032412D393233302D3944413641364430364345432F617474726962757465732E62696E504B030414000608080063757857000000000000000000000000350000006662782F4135434346334445
310
2D383045432D343032412D393233302D3944413641364430364345432F76657274696365732E62696E504B030414000608080063757857F270F1330600000004000000360000006662782F41354343463344452D383045432D343032412D393233302D3944413641364430364345432F747269616E676C65732E62696E6366
310
60600000504B03041400060808006375785751464CB48900000043010000360000006662782F41354343463344452D383045432D343032412D393233302D3944413641364430364345432F6469726563746F72792E786D6C9D8F310EC2300C45AF127987122606C71DD918B841D4B851A43646695A717C52A85029031293A5
310
A76FBF6FACEF7DA7264E43906840EF0FA03836E242F406C6DCEE4EA06AC22492573150D1F66C60C640E8938CB705396EEDD86DE9B5042FE27813D640EA63BB001C722AF6E55CB61E4863F58284D5D3F53DD715CE1C3985E63FD7F1B7EBDD617E9F1E504B030414000608080063757857A80BB8B13C070000201C0000340000
310
006662782F41354343463344452D383045432D343032412D393233302D3944413641364430364345432F6F626A656374732E786D6CDD595B6FE23814FE2B56F665F7212421A1851165D4423B42A3CE8C06CD6ADF22130CF5D6B9C8495ABABF7E8F1D3BC46980742ED26A5BA950C73E3EE73BF793E9FB7DCCD013E1394D932B
310
CB1BB8162249946E68B2BBB2CA626B8F2DF47E86A63C4D8BC63E0B253826579658B666D31D4FCB4C2D6DC81697ACBD7A77F317CA2392100B450CE7F99595470F24C6035C16E986E48F830D2EF060B7DD0FBC41B5D124BBE3387B685D95614E92025885F504A8280E3CF35F10C9994D1DB1C1D8E6F7DB363CB1CD91829B8CD2
310
242F7012BDE2AA75DDF00857ADEB7C2F58DC0E47137B1404BE1D5C0C3DFBE6EE66617B97BE3BBF98CF27D7B7130BCDA6EB3465B50232926C408B2FD6CC9B3AE2492DBE42A18BEF284D12122934BB366C88A24B49DEC6C400D693A2351452C9DA58F07B0A7F645B2F500C960CB4B570FAB369BDE9FA6F0021EF63A53C27C2CA
310
F38283AE15F6953FB853A75A35F4427314E382708A196274CD310705C1D64A410619E12D82141298492D6A7A4D5EC1B0CFFB521797DB9231E1BFD64C7A5A08FE488A5C7246FF21FCC07DF336E009A42D69528C95B0C54B06242653472E56CFFCA17A580189B60CEFC05A404CB1C91FB6F09A8B58B05C58B38F77EBFD4AC487
310
EECB339E668417C2F2A4332BBFD31A6C9816185F0F502A5C4DDD1D50F90AD07F02E46B5ED01434C7E93ED8075A768E937C9BF218B4835C64BBF0C745E2EBAB6F53A73E3C43C88895C73005B7FD49981A62187737209D4D9FC0E853EE2BE156116660D3F734117E0E8682580A4B10EFB7EBBD355B42308545388519480FBF53
310
477C45F051D18178D3D25057F8EDA128ED306D3F3BE8EA03D80CA751AD2A43C663F88E7E0ABED78BD5C755C9B73822F7CAB117644B135A4032ED66C800DD70F96FCB4FD2233FB0748DD9E1B4B129826B76A9881B1D6A5929B520A917E044A4E14A3372E59E82B73386139296B95AEF8A5351CA521EAE5FC2CA853BEFFA53DB
310
4075993280CE5806C93DE23413985833A5AD3A100E1A82828561AE2C705769355C977116E2382D13116A5F9B629B0F8833C21281AAA4A60D5B7BAD26BBA1DB6D9943F0EA2439378054FEAC0957161E401CEBE297932DC79044D324A49083C1593A6F302EA8C13BCD734ED836A48C9571B8A50CF24818E3EC08FD9E123433D7
310
2379794EF9A693A06959DA27B50D09C015B01A249DADAA98AF74CAC9131565A6CC673A1B183B541D6ACD8223E942648A0E40B53156863FBABB5E049E67CFBD9B4B3BF0E7BE3D096E87F6F5D8BF0E26C1E422B83C588944E010AD9AF90E5429CA1CC3FF8A87325E2798327820C4C69BECDD7B993DAF1C088DCEDC1DBAFE7C71
310
6B8F6EFD851D5C0EEFEC9BC52210ACDC0E83607C198CC60E27795AF288E4CED071436D9259B26BA3773E864259733ED9697DB585F91FC7D0764E3094F85F0DA2B5557614847D83A838DA0EA1387A14292A8CA0EAEB749F56106DF3D115E7DE1897DD81EFCA1FCF9B0CDDC9703CB9A88DFD64A096F7FC709CEB922082BEB32C
310
C234C3112DBA136A0B979E71FA4DB965E07B2304E8D47FEB4B4EE71975494863BC23E1168B2EA123309E93A03387ED589AE73421B9ECF25E557F2D9AEE008A2933E7761821CDC39814F87BEC4FB60D2D9B86D8CC42E8470B3111385B15D406AD3A90631445F70B895BCAFF12E638CE58D5E99EC3C01B6A08748FD365718269
310
71C513D85B888BD0DD1039B83847BD665FD7079D5A6B539F7C37F923F0E8BAE617C2A3AFE85F3A0D46DE44FC8C21A85C8C3CFF522BE21C56FAAA42F471AC84CE337A099F09DD3DF42A34FBE9A451B2554575416268637151F25EFE7A31725F5DA4E242CB211A37BDB13894FD9BEEE0003DD9C01D2B6F1BD7401D4A139873F5
310
12E495149D262C7521677A6274F506BF3EA9EC26D51F8E97BFBC626E3A5F2C873FE771806AB90AC02AFA18357567D56DD443F9332E2208A42BF969DF80476CC8E6D09819E4BA4A745DA79EAB9E9722A0C630B1C522CEDE8B2FEC2B065543F79C3B1FAAA2CDA9D69722B10D60387DE0C360DAA4F5F9C3AA4505567A9FFE2230
310
22CF2D0A6A752EBAE113A4BE2D0F3D7F8B8292E8DBF2C4F1FF4447A115D818A3C134384F1985A13CD9A01D49217BC3D8A147B7C16392CBAC0CC6AB82947E23D0E3F45335532DF09AE9D3D10386C13453BD5819C1501432E695A5D6D16F3006159348399C1A3C421BA66298854A4EAF2CB0D88242B73558C3384B0E0F25F5D6
310
B8121C1B273B91EFAB53F5FF8763021D884A07B9EA3D7D70519219CE04856D26DF1340D5573D984DBF5F74CD0EC2057C5D97452DCC61E1208D0241BF10A88483A9DFA382770F05C569B9BC81DC6340D26B327FD20E2AAA7681F94E8ED71B785F2FBE386232BEFC8C3256EE843A4F75BF06255B74DDACACA65053300C256686
310
450D397FE77CE129BC628AD11D052340BFEFC7177F38F3348ED3A45A72AED58B2AB47A80D74E1B478FFCA08D77BD9123A7006AAC1FAE714E0678933FC202A89653311BAD20360CA08EA60D03D01A11BA8063C6FEE502A9DAA8312169865D018F9CE9237024F12E47B84D7343630009BE005CC987872F7A61EA701882CFFE05
310
504B0304140006080800637578572308E28F3E01000046050000300000006662782F41354343463344452D383045432D343032412D393233302D3944413641364430364345432F636E782E786D6CCD94C14A033110865F25E4BEC96E5B504A36050F3E8107F196CD4ED7D86CB22413B16F6F52B755918A8742BD85C93FF07F
310
333F23366FA325AF10A2F1AEA50DAB2901A77D6FDCD0D284DBEA96928D14C17BFC22A3C4A9115A5ACA548A21F834CDA51EB62AD952B5C6EDE6A2420CA64B0891126D558C2D8DFA1946C55442DF43DCB15EA1620D0B107D0A1A723F9A11E67E1D4021F4542EEAC5B26A9A6AB17A6856EBD5725DDF3C095E945274DEDB596F1C
310
42F013D13E3F5C36530B5EBEA548C1CC9A4240E5A733D6192778FE972266B76E9875B89F8A6E9AACD10AF398B8D708586511A851F00FB114BCF07EA3BEBF7B3C3A20BD09A0D187FD9506D09C1BC0C918CB49F81BFF41F83BB6EF5E32EEB5B67D1676B67531D4635A638EEBCFFDE7142937D8FF17FA93B1CB673E9F1234FAFF
310
211F7D5D88981F4E5E5E7AB980F21D504B030414000608080063757857278D650D7E000000A30000000B0000006662782F636E782E786D6C4D8CD10AC22018465F45FE7BCBB6920DD4216AEF319A1B92D361337AFC3476D1D50787EF1C367C568FDE36BD5C0C1C2E2702C886479C5C5838E47DC61DA041B014E3FE770314C6
310
D572A818045B52CCDB81263B8FD957EA5D781E50DE94BAB7DAE08E1885AFA491B86F5A827B2DA9A49A50655431CE5529F3EB95AD79F105504B030414000608080063757857A6D797065F0000008200000007000000636E782E786D6C4DCB3B0E80201045D1AD90E9FD7516806B51190811670C8A61F982B1B0BAC9C97B72CA
310
7B1037C6D3332918DA1E04D2CAC69353902EDB8C20262D23F3F59B81A079470595414B17391D1F19B4730A5583A7ED43BBE4025D9592775E5ADFFA01504B0304140006080800637578574FEB6A7CA0000000F4000000130000005B436F6E74656E745F54797065735D2E786D6C7D8F4B0EC2300C44AF1279DFA6B0400835ED
310
02B8011730C16D239A8F121795DB93D02D6269CFBC19BBED573B8B17C564BC53B0AB1B10E4B47F18372A5878A88E20FAAEBDBD032591BD2E299898C349CAA427B2986A1FC86565F0D122E7318E32A07EE24872DF3407A9BD63725C71C980AEBDD080CBCCE2BAE6F5D69B7110E7CD57AA146008B3D1C8F92C5954F993BB1BF7
310
87F39A89ABC491D09600F9FDA2FB00504B0304140006080800637578573DEE336E64000000790000001B0000006175746F6465736B2D64657369676E2D7061636B6167652E786D6C35CBC10E83200C00D05F21DCA56CA76D41FC96062B120735B69A7DBE268BB7777961F8D5AF396893C2ADB70FE7ADA196782C2DF776D7A9
310
7B5933C430F15651E5469C55D70F80A4992A3ADC954792C525AE70A1E4D6AD9816CC044FEFDF01FE3FDE907802504B030414000608080063757857F844C3B9F9000000960100003B0000006662782F41354343463344452D383045432D343032412D393233302D3944413641364430364345432F7265736F75726365732F63
310
6F72652E786D6C8550CB6E833010FC15B4770336B424917144DAE40B7AEACD321B6A25D8C88FAA9F5F3B50A93DF5B4ABD999D9DDE1C7AFF95E7CA2F3DA9A1E6859438146D9519BA98718AE6407C55170676DF84583C2C8197BC830083E391B970D52D60434193576C40D94DE638042DD53D383571F38CB52C69018FE562E52
310
DDE484252D579EE031EA7193EA31B9E9AB4607E2D4BDEC87FD8E92CBE9F44C5A7AE9C8D0D09674AFF5B93B77036BD813AFB258F0A0E79FEDCAA10C388260356B08A584B56FB43DB4CDA1EEDE79959982FBE0D2CFDBD2FC1D0887DE46A7D0F36A9DFE718DCBF8BF6BD426346C735D151E044D473E06825739A5541E11A69A13
310
15DF504B03041400060808006375785779C423CDF3000000B1010000310000006662782F41354343463344452D383045432D343032412D393233302D3944413641364430364345432F636F72652E786D6C8D50CB6EC32010FC156BEFD8805D3789309165BB5FD0536F08131725068B47D5CF2F24AED4DE725A343BC3CC0E3B
310
7FAFB7E24B39AFADE98094180A65A49DB5593A88E1820E509C3973D6863F34288C5855071906CE1667E3B643D29AA04C468D9DD50E0AEF558042DED2A3032F3FD52A4A114362F86BB90979158B2A49F9E07116F4FA2B954E89A066E014D31A118268F34E9A53539FF0EB07AB3293B318F5BC5BE939B9EB8B560E78FF320C6F
310
F538A1039E06D460DAA323AD313A8E7DDBB7236E876960551673E6834B37EF9FE4EB9E953F84FF32C76D7E22B336A1A6BBE143E1819394E7BEE0ACCA05A6716F37CD5C36FF01504B030414000608080063757857D510A9D854010000DD0200000C0000006662782F636F72652E786D6C8D525D6F832014FD2B867754D4CDB6
310
419A766B7FC19EF646111DA9824130FDF9033FE27C58B7982039F7DE73EE39011F1F6D130C5CF742C902A0300601974C9542D605B0A6823B101C09D64A991F6D2090B4E505F03020B8D6CA7633C494345C7A54AA92CF20ED7B6E40C01A772940CFBE784B436A8DEBE8EF6147D99DD63C44E1D447B0B5A29C4745E9D84425B8
310
06E49CBFED4FFB1D82D7F3F91566E89AC3538A3298BFC797FC929F923479C1911F26D8887651679A53C34B40923849214230C93E5076C8D2439C7FE2C87712DC1BED3CCFA2DE1D20D5ED81A309DFF0D9AEFC9BCF0A69D264E69B267A40905B6F2C101CF97CDC6F0C6F9BA11376F9197A6B160B77070D9C19A5335729955D4B
310
036D2C77D471307E389AAA8E7924F88D2779C2F39CC3054565ED56A3C65D6FD678F5ED4E1DD770308F402ADDD2665D6E5A713D57A18DA5659CA946E9FF4C2F56973023FF30C937504B03041400060808006375785751F8DAE808010000B201000008000000636F72652E786D6C8D50CB6E833010FC156BEF060CB424917104
310
6DF2053DF5E6628758011BF911B57F5F3B50A9BDF5B4D6CCECCE78E8F1739ED05D5AA78C6E81640520A90723941E5B08FE8277808E8C5A63FC2F1920CD67D9428281D1D19AB06CD060B4973AA1DA08B981DC39E9010D537CB4E086AB9C79C6838F0A77CB163EDCF8283392AD3A46BD9A7F56072BB9970258599415260497F5
310
1BA90F7575289A779A2725A32128B1592911DDD545490BAC6F5EF6DD7E47F0B9EF9F714DCE0DEE2A52E3E6B53835A7A62BABF289E6699951E76DFCF37624E6F4C8F17BF2A5F94A31FA61CCB4096228818C9EBE8015344FC49FD06111FF08ADB4AFCAEDE0BAE1809118E84144E3D4601C8F7AE34C6DB36F504B010214001400
310
06080800637578570000000000000000000000003700000000000000000000000000000000006662782F41354343463344452D383045432D343032412D393233302D3944413641364430364345432F617474726962757465732E62696E504B0102140014000608080063757857000000000000000000000000350000000000
310
0000000000000000550000006662782F41354343463344452D383045432D343032412D393233302D3944413641364430364345432F76657274696365732E62696E504B0102140014000608080063757857F270F13306000000040000003600000000000000000000000000A80000006662782F41354343463344452D383045
310
432D343032412D393233302D3944413641364430364345432F747269616E676C65732E62696E504B010214001400060808006375785751464CB489000000430100003600000000000000000000000000020100006662782F41354343463344452D383045432D343032412D393233302D3944413641364430364345432F6469
310
726563746F72792E786D6C504B0102140014000608080063757857A80BB8B13C070000201C00003400000000000000000000000000DF0100006662782F41354343463344452D383045432D343032412D393233302D3944413641364430364345432F6F626A656374732E786D6C504B01021400140006080800637578572308
310
E28F3E0100004605000030000000000000000000000000006D0900006662782F41354343463344452D383045432D343032412D393233302D3944413641364430364345432F636E782E786D6C504B0102140014000608080063757857278D650D7E000000A30000000B00000000000000000000000000F90A00006662782F63
310
6E782E786D6C504B0102140014000608080063757857A6D797065F000000820000000700000000000000000000000000A00B0000636E782E786D6C504B01021400140006080800637578574FEB6A7CA0000000F40000001300000000000000000000000000240C00005B436F6E74656E745F54797065735D2E786D6C504B01
310
021400140006080800637578573DEE336E64000000790000001B00000000000000000000000000F50C00006175746F6465736B2D64657369676E2D7061636B6167652E786D6C504B0102140014000608080063757857F844C3B9F9000000960100003B00000000000000000000000000920D00006662782F41354343463344
310
452D383045432D343032412D393233302D3944413641364430364345432F7265736F75726365732F636F72652E786D6C504B010214001400060808006375785779C423CDF3000000B10100003100000000000000000000000000E40E00006662782F41354343463344452D383045432D343032412D393233302D3944413641
310
364430364345432F636F72652E786D6C504B0102140014000608080063757857D510A9D854010000DD0200000C00000000000000000000000000261000006662782F636F72652E786D6C504B010214001400060808006375785751F8DAE808010000B20100000800000000000000000000000000A4110000636F72652E786D
310
6C504B0506000000000E000E0080040000D21200000000
  0
XRECORD
  5
8396
102
{ACAD_REACTORS
330
8391
102
}
330
8391
100
AcDbXrecord
280
     1
270
     1
271
     1
  0
XRECORD
  5
8395
102
{ACAD_REACTORS
330
8391
102
}
330
8391
100
AcDbXrecord
280
     1
270
     1
271
     1
  0
XRECORD
  5
8397
102
{ACAD_REACTORS
330
8391
102
}
330
8391
100
AcDbXrecord
280
     1
270
     1
271
     1
  0
XRECORD
  5
8394
102
{ACAD_REACTORS
330
8391
102
}
330
8391
100
AcDbXrecord
280
     1
270
     1
271
     1
  0
XRECORD
  5
877E
102
{ACAD_REACTORS
330
877D
102
}
330
877D
100
AcDbXrecord
280
     1
102
DISPLAYNAME
  1
Imperial24
102
FLAGS
 90
        0
  0
CELLSTYLEMAP
  5
8745
102
{ACAD_REACTORS
330
8744
102
}
330
8744
100
AcDbCellStyleMap
 90
        3
300
CELLSTYLE
  1
TABLEFORMAT_BEGIN
 90
        5
170
     1
 91
        0
 92
    32768
 62
   257
 93
        1
300
CONTENTFORMAT
  1
CONTENTFORMAT_BEGIN
 90
        0
 91
        0
 92
      512
 93
        0
300

 40
0.0
140
1.0
 94
        5
 62
     0
340
83C4
144
0.25
309
CONTENTFORMAT_END
171
     0
 94
        0
309
TABLEFORMAT_END
  1
CELLSTYLE_BEGIN
 90
        1
 91
        1
300
_TITLE
309
CELLSTYLE_END
300
CELLSTYLE
  1
TABLEFORMAT_BEGIN
 90
        5
170
     1
 91
        0
 92
        0
 62
   257
 93
        1
300
CONTENTFORMAT
  1
CONTENTFORMAT_BEGIN
 90
        0
 91
        0
 92
      512
 93
        0
300

 40
0.0
140
1.0
 94
        5
 62
     0
340
83C4
144
0.18
309
CONTENTFORMAT_END
171
     0
 94
        0
309
TABLEFORMAT_END
  1
CELLSTYLE_BEGIN
 90
        2
 91
        1
300
_HEADER
309
CELLSTYLE_END
300
CELLSTYLE
  1
TABLEFORMAT_BEGIN
 90
        5
170
     1
 91
        0
 92
        0
 62
   257
 93
        1
300
CONTENTFORMAT
  1
CONTENTFORMAT_BEGIN
 90
        0
 91
        0
 92
      512
 93
        0
300

 40
0.0
140
1.0
 94
        2
 62
     0
340
83C4
144
0.18
309
CONTENTFORMAT_END
171
     0
 94
        0
309
TABLEFORMAT_END
  1
CELLSTYLE_BEGIN
 90
        3
 91
        2
300
_DATA
309
CELLSTYLE_END
  0
XRECORD
  5
877B
102
{ACAD_REACTORS
330
8744
102
}
330
8744
100
AcDbXrecord
280
     1
102
ACAD_ROUNDTRIP_PRE2007_TABLESTYLE
 90
      512
 91
        0
  1

 92
      512
 93
        0
  2

 94
      512
 95
        0
  3

  0
XRECORD
  5
8756
102
{ACAD_REACTORS
330
8755
102
}
330
8755
100
AcDbXrecord
280
     1
102
RTVSPost2010Prop28
280
     1
102
RTVSPost2010PropOp28
 70
     1
102
RTVSPost2010Prop29
280
     1
102
RTVSPost2010PropOp29
 70
     1
102
RTVSPost2010Prop30
280
     0
102
RTVSPost2010PropOp30
 70
     1
102
RTVSPost2010Prop31
280
     0
102
RTVSPost2010PropOp31
 70
     1
102
RTVSPost2010Prop32
280
     0
102
RTVSPost2010PropOp32
 70
     1
102
RTVSPost2010Prop33
280
     0
102
RTVSPost2010PropOp33
 70
     1
102
RTVSPost2010Prop34
280
     0
102
RTVSPost2010PropOp34
 70
     1
102
RTVSPost2010Prop35
280
     0
102
RTVSPost2010PropOp35
 70
     1
102
RTVSPost2010Prop36
280
     0
102
RTVSPost2010PropOp36
 70
     1
102
RTVSPost2010Prop37
 90
       50
102
RTVSPost2010PropOp37
 70
     1
102
RTVSPost2010Prop38
140
0.0
102
RTVSPost2010PropOp38
 70
     1
102
RTVSPost2010Prop39
140
1.0
102
RTVSPost2010PropOp39
 70
     1
102
RTVSPost2010Prop40
 90
        0
102
RTVSPost2010PropOp40
 70
     1
102
RTVSPost2010Prop41ColorIndex
 90
       18
102
RTVSPost2010Prop41ColorRGB
 90
        0
102
RTVSPost2010PropOp41
 70
     1
102
RTVSPost2010Prop42
 90
       50
102
RTVSPost2010PropOp42
 70
     1
102
RTVSPost2010Prop43
 90
        3
102
RTVSPost2010PropOp43
 70
     1
102
RTVSPost2010Prop44ColorIndex
 90
        5
102
RTVSPost2010Prop44ColorRGB
 90
      255
102
RTVSPost2010PropOp44
 70
     1
102
RTVSPost2010Prop45
280
     0
102
RTVSPost2010PropOp45
 70
     1
102
RTVSPost2010Prop46
 90
       50
102
RTVSPost2010PropOp46
 70
     1
102
RTVSPost2010Prop47
 90
       50
102
RTVSPost2010PropOp47
 70
     1
102
RTVSPost2010Prop48
 90
       50
102
RTVSPost2010PropOp48
 70
     1
102
RTVSPost2010Prop49
280
     0
102
RTVSPost2010PropOp49
 70
     1
102
RTVSPost2010Prop50
 90
       50
102
RTVSPost2010PropOp50
 70
     1
102
RTVSPost2010Prop51ColorIndex
 90
      256
102
RTVSPost2010Prop51ColorRGB
 90
-16777216
102
RTVSPost2010PropOp51
 70
     0
102
RTVSPost2010Prop52
140
1.0
102
RTVSPost2010PropOp52
 70
     0
102
RTVSPost2010Prop53
 90
        2
102
RTVSPost2010PropOp53
 70
     1
102
RTVSPost2010Prop54
  1
strokes_ogs.tif
102
RTVSPost2010PropOp54
 70
     1
102
RTVSPost2010Prop55
280
     0
102
RTVSPost2010PropOp55
 70
     1
102
RTVSPost2010Prop56
140
1.0
102
RTVSPost2010PropOp56
 70
     1
102
RTVSPost2010Prop57
140
1.0
102
RTVSPost2010PropOp57
 70
     1
102
RTVSPropertyOp0
 70
     1
102
RTVSPropertyOp1
 70
     1
102
RTVSPropertyOp2
 70
     1
102
RTVSPropertyOp3
 70
     1
102
RTVSPropertyOp4
 70
     1
102
RTVSPropertyOp5
 70
     1
102
RTVSPropertyOp6
 70
     1
102
RTVSPropertyOp7
 70
     1
102
RTVSPropertyOp8
 70
     1
102
RTVSPropertyOp9
 70
     1
102
RTVSPropertyOp10
 70
     1
102
RTVSPropertyOp11
 70
     1
102
RTVSPropertyOp12
 70
     1
102
RTVSPropertyOp13
 70
     1
102
RTVSPropertyOp14
 70
     1
102
RTVSPropertyOp15
 70
     1
102
RTVSPropertyOp16
 70
     1
102
RTVSPropertyOp17
 70
     1
102
RTVSPropertyOp18
 70
     1
102
RTVSPropertyOp19
 70
     1
102
RTVSPropertyOp20
 70
     1
102
RTVSPropertyOp21
 70
     1
102
RTVSPropertyOp22
 70
     1
102
RTVSPropertyOp23
 70
     1
102
RTVSPropertyOp24
 70
     1
102
RTVSPropertyOp25
 70
     1
102
RTVSPropertyOp26
 70
     1
102
RTVSPropertyOp27
 70
     1
102
RTVSPropertyOp28
 70
     1
102
RTVSPropertyOp29
 70
     1
102
RTVSPropertyOp30
 70
     1
102
RTVSPropertyOp31
 70
     1
102
RTVSPropertyOp32
 70
     1
102
RTVSPropertyOp33
 70
     1
102
RTVSPropertyOp34
 70
     1
102
RTVSPropertyOp35
 70
     1
102
RTVSPropertyOp36
 70
     1
102
RTVSPropertyOp37
 70
     1
102
RTVSPropertyOp38
 70
     1
102
RTVSPropertyOp39
 70
     1
102
RTVSPropertyOp40
 70
     1
102
RTVSPropertyOp41
 70
     1
102
RTVSPropertyOp42
 70
     1
102
RTVSPropertyOp43
 70
     1
102
RTVSPropertyOp44
 70
     1
102
RTVSPropertyOp45
 70
     1
102
RTVSPropertyOp46
 70
     1
102
RTVSPropertyOp47
 70
     1
102
RTVSPropertyOp48
 70
     1
102
RTVSPropertyOp49
 70
     1
102
RTVSPropertyOp50
 70
     1
102
RTVSPropertyOp51
 70
     0
102
RTVSPropertyOp52
 70
     0
102
RTVSPropertyOp53
 70
     1
102
RTVSPropertyOp54
 70
     1
102
RTVSPropertyOp55
 70
     1
102
RTVSPropertyOp56
 70
     1
102
RTVSPropertyOp57
 70
     1
102
RTVSPropertyOp58
 70
     1
102
RTVSPropertyOp59
 70
     1
102
RTVSPropertyOp60
 70
     1
102
RTVSPropertyOp61
 70
     1
102
RTVSPropertyOp62
 70
     1
  0
XRECORD
  5
8754
102
{ACAD_REACTORS
330
8753
102
}
330
8753
100
AcDbXrecord
280
     1
102
RTVSPost2010Prop28
280
     0
102
RTVSPost2010PropOp28
 70
     1
102
RTVSPost2010Prop29
280
     1
102
RTVSPost2010PropOp29
 70
     1
102
RTVSPost2010Prop30
280
     1
102
RTVSPost2010PropOp30
 70
     1
102
RTVSPost2010Prop31
280
     0
102
RTVSPost2010PropOp31
 70
     1
102
RTVSPost2010Prop32
280
     0
102
RTVSPost2010PropOp32
 70
     1
102
RTVSPost2010Prop33
280
     0
102
RTVSPost2010PropOp33
 70
     1
102
RTVSPost2010Prop34
280
     0
102
RTVSPost2010PropOp34
 70
     1
102
RTVSPost2010Prop35
280
     0
102
RTVSPost2010PropOp35
 70
     1
102
RTVSPost2010Prop36
280
     0
102
RTVSPost2010PropOp36
 70
     1
102
RTVSPost2010Prop37
 90
       50
102
RTVSPost2010PropOp37
 70
     1
102
RTVSPost2010Prop38
140
0.0
102
RTVSPost2010PropOp38
 70
     1
102
RTVSPost2010Prop39
140
1.0
102
RTVSPost2010PropOp39
 70
     1
102
RTVSPost2010Prop40
 90
        0
102
RTVSPost2010PropOp40
 70
     1
102
RTVSPost2010Prop41ColorIndex
 90
       18
102
RTVSPost2010Prop41ColorRGB
 90
        0
102
RTVSPost2010PropOp41
 70
     1
102
RTVSPost2010Prop42
 90
       50
102
RTVSPost2010PropOp42
 70
     1
102
RTVSPost2010Prop43
 90
        3
102
RTVSPost2010PropOp43
 70
     1
102
RTVSPost2010Prop44ColorIndex
 90
        5
102
RTVSPost2010Prop44ColorRGB
 90
      255
102
RTVSPost2010PropOp44
 70
     1
102
RTVSPost2010Prop45
280
     0
102
RTVSPost2010PropOp45
 70
     1
102
RTVSPost2010Prop46
 90
       50
102
RTVSPost2010PropOp46
 70
     1
102
RTVSPost2010Prop47
 90
       50
102
RTVSPost2010PropOp47
 70
     1
102
RTVSPost2010Prop48
 90
       50
102
RTVSPost2010PropOp48
 70
     1
102
RTVSPost2010Prop49
280
     0
102
RTVSPost2010PropOp49
 70
     1
102
RTVSPost2010Prop50
 90
       50
102
RTVSPost2010PropOp50
 70
     1
102
RTVSPost2010Prop51ColorIndex
 90
      256
102
RTVSPost2010Prop51ColorRGB
 90
-16777216
102
RTVSPost2010PropOp51
 70
     0
102
RTVSPost2010Prop52
140
1.0
102
RTVSPost2010PropOp52
 70
     0
102
RTVSPost2010Prop53
 90
        2
102
RTVSPost2010PropOp53
 70
     1
102
RTVSPost2010Prop54
  1
strokes_ogs.tif
102
RTVSPost2010PropOp54
 70
     1
102
RTVSPost2010Prop55
280
     0
102
RTVSPost2010PropOp55
 70
     1
102
RTVSPost2010Prop56
140
1.0
102
RTVSPost2010PropOp56
 70
     1
102
RTVSPost2010Prop57
140
1.0
102
RTVSPost2010PropOp57
 70
     1
102
RTVSPropertyOp0
 70
     1
102
RTVSPropertyOp1
 70
     1
102
RTVSPropertyOp2
 70
     1
102
RTVSPropertyOp3
 70
     1
102
RTVSPropertyOp4
 70
     1
102
RTVSPropertyOp5
 70
     1
102
RTVSPropertyOp6
 70
     1
102
RTVSPropertyOp7
 70
     1
102
RTVSPropertyOp8
 70
     1
102
RTVSPropertyOp9
 70
     1
102
RTVSPropertyOp10
 70
     1
102
RTVSPropertyOp11
 70
     1
102
RTVSPropertyOp12
 70
     1
102
RTVSPropertyOp13
 70
     1
102
RTVSPropertyOp14
 70
     1
102
RTVSPropertyOp15
 70
     1
102
RTVSPropertyOp16
 70
     1
102
RTVSPropertyOp17
 70
     1
102
RTVSPropertyOp18
 70
     1
102
RTVSPropertyOp19
 70
     1
102
RTVSPropertyOp20
 70
     1
102
RTVSPropertyOp21
 70
     1
102
RTVSPropertyOp22
 70
     1
102
RTVSPropertyOp23
 70
     1
102
RTVSPropertyOp24
 70
     1
102
RTVSPropertyOp25
 70
     1
102
RTVSPropertyOp26
 70
     1
102
RTVSPropertyOp27
 70
     1
102
RTVSPropertyOp28
 70
     1
102
RTVSPropertyOp29
 70
     1
102
RTVSPropertyOp30
 70
     1
102
RTVSPropertyOp31
 70
     1
102
RTVSPropertyOp32
 70
     1
102
RTVSPropertyOp33
 70
     1
102
RTVSPropertyOp34
 70
     1
102
RTVSPropertyOp35
 70
     1
102
RTVSPropertyOp36
 70
     1
102
RTVSPropertyOp37
 70
     1
102
RTVSPropertyOp38
 70
     1
102
RTVSPropertyOp39
 70
     1
102
RTVSPropertyOp40
 70
     1
102
RTVSPropertyOp41
 70
     1
102
RTVSPropertyOp42
 70
     1
102
RTVSPropertyOp43
 70
     1
102
RTVSPropertyOp44
 70
     1
102
RTVSPropertyOp45
 70
     1
102
RTVSPropertyOp46
 70
     1
102
RTVSPropertyOp47
 70
     1
102
RTVSPropertyOp48
 70
     1
102
RTVSPropertyOp49
 70
     1
102
RTVSPropertyOp50
 70
     1
102
RTVSPropertyOp51
 70
     0
102
RTVSPropertyOp52
 70
     0
102
RTVSPropertyOp53
 70
     1
102
RTVSPropertyOp54
 70
     1
102
RTVSPropertyOp55
 70
     1
102
RTVSPropertyOp56
 70
     1
102
RTVSPropertyOp57
 70
     1
102
RTVSPropertyOp58
 70
     1
102
RTVSPropertyOp59
 70
     1
102
RTVSPropertyOp60
 70
     1
102
RTVSPropertyOp61
 70
     1
102
RTVSPropertyOp62
 70
     1
  0
XRECORD
  5
8762
102
{ACAD_REACTORS
330
8761
102
}
330
8761
100
AcDbXrecord
280
     1
102
RTVSPost2010Prop28
280
     0
102
RTVSPost2010PropOp28
 70
     1
102
RTVSPost2010Prop29
280
     1
102
RTVSPost2010PropOp29
 70
     1
102
RTVSPost2010Prop30
280
     1
102
RTVSPost2010PropOp30
 70
     1
102
RTVSPost2010Prop31
280
     0
102
RTVSPost2010PropOp31
 70
     1
102
RTVSPost2010Prop32
280
     0
102
RTVSPost2010PropOp32
 70
     1
102
RTVSPost2010Prop33
280
     0
102
RTVSPost2010PropOp33
 70
     1
102
RTVSPost2010Prop34
280
     0
102
RTVSPost2010PropOp34
 70
     1
102
RTVSPost2010Prop35
280
     0
102
RTVSPost2010PropOp35
 70
     1
102
RTVSPost2010Prop36
280
     0
102
RTVSPost2010PropOp36
 70
     1
102
RTVSPost2010Prop37
 90
       50
102
RTVSPost2010PropOp37
 70
     1
102
RTVSPost2010Prop38
140
0.0
102
RTVSPost2010PropOp38
 70
     1
102
RTVSPost2010Prop39
140
1.0
102
RTVSPost2010PropOp39
 70
     1
102
RTVSPost2010Prop40
 90
        0
102
RTVSPost2010PropOp40
 70
     1
102
RTVSPost2010Prop41ColorIndex
 90
       18
102
RTVSPost2010Prop41ColorRGB
 90
        0
102
RTVSPost2010PropOp41
 70
     1
102
RTVSPost2010Prop42
 90
       50
102
RTVSPost2010PropOp42
 70
     1
102
RTVSPost2010Prop43
 90
        3
102
RTVSPost2010PropOp43
 70
     1
102
RTVSPost2010Prop44ColorIndex
 90
        5
102
RTVSPost2010Prop44ColorRGB
 90
      255
102
RTVSPost2010PropOp44
 70
     1
102
RTVSPost2010Prop45
280
     0
102
RTVSPost2010PropOp45
 70
     1
102
RTVSPost2010Prop46
 90
       50
102
RTVSPost2010PropOp46
 70
     1
102
RTVSPost2010Prop47
 90
       50
102
RTVSPost2010PropOp47
 70
     1
102
RTVSPost2010Prop48
 90
       50
102
RTVSPost2010PropOp48
 70
     1
102
RTVSPost2010Prop49
280
     0
102
RTVSPost2010PropOp49
 70
     1
102
RTVSPost2010Prop50
 90
       50
102
RTVSPost2010PropOp50
 70
     1
102
RTVSPost2010Prop51ColorIndex
 90
      256
102
RTVSPost2010Prop51ColorRGB
 90
-16777216
102
RTVSPost2010PropOp51
 70
     0
102
RTVSPost2010Prop52
140
1.0
102
RTVSPost2010PropOp52
 70
     0
102
RTVSPost2010Prop53
 90
        2
102
RTVSPost2010PropOp53
 70
     1
102
RTVSPost2010Prop54
  1
strokes_ogs.tif
102
RTVSPost2010PropOp54
 70
     1
102
RTVSPost2010Prop55
280
     0
102
RTVSPost2010PropOp55
 70
     1
102
RTVSPost2010Prop56
140
1.0
102
RTVSPost2010PropOp56
 70
     1
102
RTVSPost2010Prop57
140
1.0
102
RTVSPost2010PropOp57
 70
     1
102
RTVSPropertyOp0
 70
     1
102
RTVSPropertyOp1
 70
     1
102
RTVSPropertyOp2
 70
     1
102
RTVSPropertyOp3
 70
     1
102
RTVSPropertyOp4
 70
     1
102
RTVSPropertyOp5
 70
     1
102
RTVSPropertyOp6
 70
     1
102
RTVSPropertyOp7
 70
     1
102
RTVSPropertyOp8
 70
     1
102
RTVSPropertyOp9
 70
     1
102
RTVSPropertyOp10
 70
     1
102
RTVSPropertyOp11
 70
     1
102
RTVSPropertyOp12
 70
     1
102
RTVSPropertyOp13
 70
     1
102
RTVSPropertyOp14
 70
     1
102
RTVSPropertyOp15
 70
     1
102
RTVSPropertyOp16
 70
     1
102
RTVSPropertyOp17
 70
     1
102
RTVSPropertyOp18
 70
     1
102
RTVSPropertyOp19
 70
     1
102
RTVSPropertyOp20
 70
     1
102
RTVSPropertyOp21
 70
     1
102
RTVSPropertyOp22
 70
     1
102
RTVSPropertyOp23
 70
     1
102
RTVSPropertyOp24
 70
     1
102
RTVSPropertyOp25
 70
     1
102
RTVSPropertyOp26
 70
     1
102
RTVSPropertyOp27
 70
     1
102
RTVSPropertyOp28
 70
     1
102
RTVSPropertyOp29
 70
     1
102
RTVSPropertyOp30
 70
     1
102
RTVSPropertyOp31
 70
     1
102
RTVSPropertyOp32
 70
     1
102
RTVSPropertyOp33
 70
     1
102
RTVSPropertyOp34
 70
     1
102
RTVSPropertyOp35
 70
     1
102
RTVSPropertyOp36
 70
     1
102
RTVSPropertyOp37
 70
     1
102
RTVSPropertyOp38
 70
     1
102
RTVSPropertyOp39
 70
     1
102
RTVSPropertyOp40
 70
     1
102
RTVSPropertyOp41
 70
     1
102
RTVSPropertyOp42
 70
     1
102
RTVSPropertyOp43
 70
     1
102
RTVSPropertyOp44
 70
     1
102
RTVSPropertyOp45
 70
     1
102
RTVSPropertyOp46
 70
     1
102
RTVSPropertyOp47
 70
     1
102
RTVSPropertyOp48
 70
     1
102
RTVSPropertyOp49
 70
     1
102
RTVSPropertyOp50
 70
     1
102
RTVSPropertyOp51
 70
     0
102
RTVSPropertyOp52
 70
     0
102
RTVSPropertyOp53
 70
     1
102
RTVSPropertyOp54
 70
     1
102
RTVSPropertyOp55
 70
     1
102
RTVSPropertyOp56
 70
     1
102
RTVSPropertyOp57
 70
     1
102
RTVSPropertyOp58
 70
     1
102
RTVSPropertyOp59
 70
     1
102
RTVSPropertyOp60
 70
     1
102
RTVSPropertyOp61
 70
     1
102
RTVSPropertyOp62
 70
     1
  0
XRECORD
  5
876A
102
{ACAD_REACTORS
330
8769
102
}
330
8769
100
AcDbXrecord
280
     1
102
RTVSPost2010Prop28
280
     0
102
RTVSPost2010PropOp28
 70
     1
102
RTVSPost2010Prop29
280
     1
102
RTVSPost2010PropOp29
 70
     1
102
RTVSPost2010Prop30
280
     1
102
RTVSPost2010PropOp30
 70
     1
102
RTVSPost2010Prop31
280
     0
102
RTVSPost2010PropOp31
 70
     1
102
RTVSPost2010Prop32
280
     0
102
RTVSPost2010PropOp32
 70
     1
102
RTVSPost2010Prop33
280
     0
102
RTVSPost2010PropOp33
 70
     1
102
RTVSPost2010Prop34
280
     0
102
RTVSPost2010PropOp34
 70
     1
102
RTVSPost2010Prop35
280
     0
102
RTVSPost2010PropOp35
 70
     1
102
RTVSPost2010Prop36
280
     0
102
RTVSPost2010PropOp36
 70
     1
102
RTVSPost2010Prop37
 90
       50
102
RTVSPost2010PropOp37
 70
     1
102
RTVSPost2010Prop38
140
0.0
102
RTVSPost2010PropOp38
 70
     1
102
RTVSPost2010Prop39
140
1.0
102
RTVSPost2010PropOp39
 70
     1
102
RTVSPost2010Prop40
 90
        0
102
RTVSPost2010PropOp40
 70
     1
102
RTVSPost2010Prop41ColorIndex
 90
       18
102
RTVSPost2010Prop41ColorRGB
 90
        0
102
RTVSPost2010PropOp41
 70
     1
102
RTVSPost2010Prop42
 90
       50
102
RTVSPost2010PropOp42
 70
     1
102
RTVSPost2010Prop43
 90
        3
102
RTVSPost2010PropOp43
 70
     1
102
RTVSPost2010Prop44ColorIndex
 90
        5
102
RTVSPost2010Prop44ColorRGB
 90
      255
102
RTVSPost2010PropOp44
 70
     1
102
RTVSPost2010Prop45
280
     0
102
RTVSPost2010PropOp45
 70
     1
102
RTVSPost2010Prop46
 90
       50
102
RTVSPost2010PropOp46
 70
     1
102
RTVSPost2010Prop47
 90
       50
102
RTVSPost2010PropOp47
 70
     1
102
RTVSPost2010Prop48
 90
       50
102
RTVSPost2010PropOp48
 70
     1
102
RTVSPost2010Prop49
280
     0
102
RTVSPost2010PropOp49
 70
     1
102
RTVSPost2010Prop50
 90
       50
102
RTVSPost2010PropOp50
 70
     1
102
RTVSPost2010Prop51ColorIndex
 90
      256
102
RTVSPost2010Prop51ColorRGB
 90
-16777216
102
RTVSPost2010PropOp51
 70
     0
102
RTVSPost2010Prop52
140
1.0
102
RTVSPost2010PropOp52
 70
     0
102
RTVSPost2010Prop53
 90
        2
102
RTVSPost2010PropOp53
 70
     1
102
RTVSPost2010Prop54
  1
strokes_ogs.tif
102
RTVSPost2010PropOp54
 70
     1
102
RTVSPost2010Prop55
280
     0
102
RTVSPost2010PropOp55
 70
     1
102
RTVSPost2010Prop56
140
1.0
102
RTVSPost2010PropOp56
 70
     1
102
RTVSPost2010Prop57
140
1.0
102
RTVSPost2010PropOp57
 70
     1
102
RTVSPropertyOp0
 70
     1
102
RTVSPropertyOp1
 70
     1
102
RTVSPropertyOp2
 70
     1
102
RTVSPropertyOp3
 70
     1
102
RTVSPropertyOp4
 70
     1
102
RTVSPropertyOp5
 70
     1
102
RTVSPropertyOp6
 70
     1
102
RTVSPropertyOp7
 70
     1
102
RTVSPropertyOp8
 70
     1
102
RTVSPropertyOp9
 70
     1
102
RTVSPropertyOp10
 70
     1
102
RTVSPropertyOp11
 70
     1
102
RTVSPropertyOp12
 70
     1
102
RTVSPropertyOp13
 70
     1
102
RTVSPropertyOp14
 70
     1
102
RTVSPropertyOp15
 70
     1
102
RTVSPropertyOp16
 70
     1
102
RTVSPropertyOp17
 70
     1
102
RTVSPropertyOp18
 70
     1
102
RTVSPropertyOp19
 70
     1
102
RTVSPropertyOp20
 70
     1
102
RTVSPropertyOp21
 70
     1
102
RTVSPropertyOp22
 70
     1
102
RTVSPropertyOp23
 70
     1
102
RTVSPropertyOp24
 70
     1
102
RTVSPropertyOp25
 70
     1
102
RTVSPropertyOp26
 70
     1
102
RTVSPropertyOp27
 70
     1
102
RTVSPropertyOp28
 70
     1
102
RTVSPropertyOp29
 70
     1
102
RTVSPropertyOp30
 70
     1
102
RTVSPropertyOp31
 70
     1
102
RTVSPropertyOp32
 70
     1
102
RTVSPropertyOp33
 70
     1
102
RTVSPropertyOp34
 70
     1
102
RTVSPropertyOp35
 70
     1
102
RTVSPropertyOp36
 70
     1
102
RTVSPropertyOp37
 70
     1
102
RTVSPropertyOp38
 70
     1
102
RTVSPropertyOp39
 70
     1
102
RTVSPropertyOp40
 70
     1
102
RTVSPropertyOp41
 70
     1
102
RTVSPropertyOp42
 70
     1
102
RTVSPropertyOp43
 70
     1
102
RTVSPropertyOp44
 70
     1
102
RTVSPropertyOp45
 70
     1
102
RTVSPropertyOp46
 70
     1
102
RTVSPropertyOp47
 70
     1
102
RTVSPropertyOp48
 70
     1
102
RTVSPropertyOp49
 70
     1
102
RTVSPropertyOp50
 70
     1
102
RTVSPropertyOp51
 70
     0
102
RTVSPropertyOp52
 70
     0
102
RTVSPropertyOp53
 70
     1
102
RTVSPropertyOp54
 70
     1
102
RTVSPropertyOp55
 70
     1
102
RTVSPropertyOp56
 70
     1
102
RTVSPropertyOp57
 70
     1
102
RTVSPropertyOp58
 70
     1
102
RTVSPropertyOp59
 70
     1
102
RTVSPropertyOp60
 70
     1
102
RTVSPropertyOp61
 70
     1
102
RTVSPropertyOp62
 70
     1
  0
XRECORD
  5
875C
102
{ACAD_REACTORS
330
875B
102
}
330
875B
100
AcDbXrecord
280
     1
102
RTVSPost2010Prop28
280
     0
102
RTVSPost2010PropOp28
 70
     1
102
RTVSPost2010Prop29
280
     1
102
RTVSPost2010PropOp29
 70
     1
102
RTVSPost2010Prop30
280
     1
102
RTVSPost2010PropOp30
 70
     1
102
RTVSPost2010Prop31
280
     0
102
RTVSPost2010PropOp31
 70
     1
102
RTVSPost2010Prop32
280
     0
102
RTVSPost2010PropOp32
 70
     1
102
RTVSPost2010Prop33
280
     0
102
RTVSPost2010PropOp33
 70
     1
102
RTVSPost2010Prop34
280
     0
102
RTVSPost2010PropOp34
 70
     1
102
RTVSPost2010Prop35
280
     0
102
RTVSPost2010PropOp35
 70
     1
102
RTVSPost2010Prop36
280
     0
102
RTVSPost2010PropOp36
 70
     1
102
RTVSPost2010Prop37
 90
       50
102
RTVSPost2010PropOp37
 70
     1
102
RTVSPost2010Prop38
140
0.0
102
RTVSPost2010PropOp38
 70
     1
102
RTVSPost2010Prop39
140
1.0
102
RTVSPost2010PropOp39
 70
     1
102
RTVSPost2010Prop40
 90
        0
102
RTVSPost2010PropOp40
 70
     1
102
RTVSPost2010Prop41ColorIndex
 90
       18
102
RTVSPost2010Prop41ColorRGB
 90
        0
102
RTVSPost2010PropOp41
 70
     1
102
RTVSPost2010Prop42
 90
       50
102
RTVSPost2010PropOp42
 70
     1
102
RTVSPost2010Prop43
 90
        3
102
RTVSPost2010PropOp43
 70
     1
102
RTVSPost2010Prop44ColorIndex
 90
        5
102
RTVSPost2010Prop44ColorRGB
 90
      255
102
RTVSPost2010PropOp44
 70
     1
102
RTVSPost2010Prop45
280
     0
102
RTVSPost2010PropOp45
 70
     1
102
RTVSPost2010Prop46
 90
       50
102
RTVSPost2010PropOp46
 70
     1
102
RTVSPost2010Prop47
 90
       50
102
RTVSPost2010PropOp47
 70
     1
102
RTVSPost2010Prop48
 90
       50
102
RTVSPost2010PropOp48
 70
     1
102
RTVSPost2010Prop49
280
     0
102
RTVSPost2010PropOp49
 70
     1
102
RTVSPost2010Prop50
 90
       50
102
RTVSPost2010PropOp50
 70
     1
102
RTVSPost2010Prop51ColorIndex
 90
      256
102
RTVSPost2010Prop51ColorRGB
 90
-16777216
102
RTVSPost2010PropOp51
 70
     0
102
RTVSPost2010Prop52
140
1.0
102
RTVSPost2010PropOp52
 70
     0
102
RTVSPost2010Prop53
 90
        2
102
RTVSPost2010PropOp53
 70
     1
102
RTVSPost2010Prop54
  1
strokes_ogs.tif
102
RTVSPost2010PropOp54
 70
     1
102
RTVSPost2010Prop55
280
     0
102
RTVSPost2010PropOp55
 70
     1
102
RTVSPost2010Prop56
140
1.0
102
RTVSPost2010PropOp56
 70
     1
102
RTVSPost2010Prop57
140
1.0
102
RTVSPost2010PropOp57
 70
     1
102
RTVSPropertyOp0
 70
     1
102
RTVSPropertyOp1
 70
     1
102
RTVSPropertyOp2
 70
     1
102
RTVSPropertyOp3
 70
     1
102
RTVSPropertyOp4
 70
     1
102
RTVSPropertyOp5
 70
     1
102
RTVSPropertyOp6
 70
     1
102
RTVSPropertyOp7
 70
     1
102
RTVSPropertyOp8
 70
     1
102
RTVSPropertyOp9
 70
     1
102
RTVSPropertyOp10
 70
     1
102
RTVSPropertyOp11
 70
     1
102
RTVSPropertyOp12
 70
     1
102
RTVSPropertyOp13
 70
     1
102
RTVSPropertyOp14
 70
     1
102
RTVSPropertyOp15
 70
     1
102
RTVSPropertyOp16
 70
     1
102
RTVSPropertyOp17
 70
     1
102
RTVSPropertyOp18
 70
     1
102
RTVSPropertyOp19
 70
     1
102
RTVSPropertyOp20
 70
     1
102
RTVSPropertyOp21
 70
     1
102
RTVSPropertyOp22
 70
     1
102
RTVSPropertyOp23
 70
     1
102
RTVSPropertyOp24
 70
     1
102
RTVSPropertyOp25
 70
     1
102
RTVSPropertyOp26
 70
     1
102
RTVSPropertyOp27
 70
     1
102
RTVSPropertyOp28
 70
     1
102
RTVSPropertyOp29
 70
     1
102
RTVSPropertyOp30
 70
     1
102
RTVSPropertyOp31
 70
     1
102
RTVSPropertyOp32
 70
     1
102
RTVSPropertyOp33
 70
     1
102
RTVSPropertyOp34
 70
     1
102
RTVSPropertyOp35
 70
     1
102
RTVSPropertyOp36
 70
     1
102
RTVSPropertyOp37
 70
     1
102
RTVSPropertyOp38
 70
     1
102
RTVSPropertyOp39
 70
     1
102
RTVSPropertyOp40
 70
     1
102
RTVSPropertyOp41
 70
     1
102
RTVSPropertyOp42
 70
     1
102
RTVSPropertyOp43
 70
     1
102
RTVSPropertyOp44
 70
     1
102
RTVSPropertyOp45
 70
     1
102
RTVSPropertyOp46
 70
     1
102
RTVSPropertyOp47
 70
     1
102
RTVSPropertyOp48
 70
     1
102
RTVSPropertyOp49
 70
     1
102
RTVSPropertyOp50
 70
     1
102
RTVSPropertyOp51
 70
     0
102
RTVSPropertyOp52
 70
     0
102
RTVSPropertyOp53
 70
     1
102
RTVSPropertyOp54
 70
     1
102
RTVSPropertyOp55
 70
     1
102
RTVSPropertyOp56
 70
     1
102
RTVSPropertyOp57
 70
     1
102
RTVSPropertyOp58
 70
     1
102
RTVSPropertyOp59
 70
     1
102
RTVSPropertyOp60
 70
     1
102
RTVSPropertyOp61
 70
     1
102
RTVSPropertyOp62
 70
     1
  0
XRECORD
  5
8760
102
{ACAD_REACTORS
330
875F
102
}
330
875F
100
AcDbXrecord
280
     1
102
RTVSPost2010Prop28
280
     0
102
RTVSPost2010PropOp28
 70
     1
102
RTVSPost2010Prop29
280
     1
102
RTVSPost2010PropOp29
 70
     1
102
RTVSPost2010Prop30
280
     1
102
RTVSPost2010PropOp30
 70
     1
102
RTVSPost2010Prop31
280
     0
102
RTVSPost2010PropOp31
 70
     1
102
RTVSPost2010Prop32
280
     0
102
RTVSPost2010PropOp32
 70
     1
102
RTVSPost2010Prop33
280
     0
102
RTVSPost2010PropOp33
 70
     1
102
RTVSPost2010Prop34
280
     0
102
RTVSPost2010PropOp34
 70
     1
102
RTVSPost2010Prop35
280
     0
102
RTVSPost2010PropOp35
 70
     1
102
RTVSPost2010Prop36
280
     0
102
RTVSPost2010PropOp36
 70
     1
102
RTVSPost2010Prop37
 90
       50
102
RTVSPost2010PropOp37
 70
     1
102
RTVSPost2010Prop38
140
0.0
102
RTVSPost2010PropOp38
 70
     1
102
RTVSPost2010Prop39
140
1.0
102
RTVSPost2010PropOp39
 70
     1
102
RTVSPost2010Prop40
 90
        0
102
RTVSPost2010PropOp40
 70
     1
102
RTVSPost2010Prop41ColorIndex
 90
       18
102
RTVSPost2010Prop41ColorRGB
 90
        0
102
RTVSPost2010PropOp41
 70
     1
102
RTVSPost2010Prop42
 90
       50
102
RTVSPost2010PropOp42
 70
     1
102
RTVSPost2010Prop43
 90
        3
102
RTVSPost2010PropOp43
 70
     1
102
RTVSPost2010Prop44ColorIndex
 90
        5
102
RTVSPost2010Prop44ColorRGB
 90
      255
102
RTVSPost2010PropOp44
 70
     1
102
RTVSPost2010Prop45
280
     0
102
RTVSPost2010PropOp45
 70
     1
102
RTVSPost2010Prop46
 90
       50
102
RTVSPost2010PropOp46
 70
     1
102
RTVSPost2010Prop47
 90
       50
102
RTVSPost2010PropOp47
 70
     1
102
RTVSPost2010Prop48
 90
       50
102
RTVSPost2010PropOp48
 70
     1
102
RTVSPost2010Prop49
280
     0
102
RTVSPost2010PropOp49
 70
     1
102
RTVSPost2010Prop50
 90
       50
102
RTVSPost2010PropOp50
 70
     1
102
RTVSPost2010Prop51ColorIndex
 90
      256
102
RTVSPost2010Prop51ColorRGB
 90
-16777216
102
RTVSPost2010PropOp51
 70
     0
102
RTVSPost2010Prop52
140
1.0
102
RTVSPost2010PropOp52
 70
     0
102
RTVSPost2010Prop53
 90
        2
102
RTVSPost2010PropOp53
 70
     1
102
RTVSPost2010Prop54
  1
strokes_ogs.tif
102
RTVSPost2010PropOp54
 70
     1
102
RTVSPost2010Prop55
280
     0
102
RTVSPost2010PropOp55
 70
     1
102
RTVSPost2010Prop56
140
1.0
102
RTVSPost2010PropOp56
 70
     1
102
RTVSPost2010Prop57
140
1.0
102
RTVSPost2010PropOp57
 70
     1
102
RTVSPropertyOp0
 70
     1
102
RTVSPropertyOp1
 70
     1
102
RTVSPropertyOp2
 70
     1
102
RTVSPropertyOp3
 70
     1
102
RTVSPropertyOp4
 70
     1
102
RTVSPropertyOp5
 70
     1
102
RTVSPropertyOp6
 70
     1
102
RTVSPropertyOp7
 70
     1
102
RTVSPropertyOp8
 70
     1
102
RTVSPropertyOp9
 70
     1
102
RTVSPropertyOp10
 70
     1
102
RTVSPropertyOp11
 70
     1
102
RTVSPropertyOp12
 70
     1
102
RTVSPropertyOp13
 70
     1
102
RTVSPropertyOp14
 70
     1
102
RTVSPropertyOp15
 70
     1
102
RTVSPropertyOp16
 70
     1
102
RTVSPropertyOp17
 70
     1
102
RTVSPropertyOp18
 70
     1
102
RTVSPropertyOp19
 70
     1
102
RTVSPropertyOp20
 70
     1
102
RTVSPropertyOp21
 70
     1
102
RTVSPropertyOp22
 70
     1
102
RTVSPropertyOp23
 70
     1
102
RTVSPropertyOp24
 70
     1
102
RTVSPropertyOp25
 70
     1
102
RTVSPropertyOp26
 70
     1
102
RTVSPropertyOp27
 70
     1
102
RTVSPropertyOp28
 70
     1
102
RTVSPropertyOp29
 70
     1
102
RTVSPropertyOp30
 70
     1
102
RTVSPropertyOp31
 70
     1
102
RTVSPropertyOp32
 70
     1
102
RTVSPropertyOp33
 70
     1
102
RTVSPropertyOp34
 70
     1
102
RTVSPropertyOp35
 70
     1
102
RTVSPropertyOp36
 70
     1
102
RTVSPropertyOp37
 70
     1
102
RTVSPropertyOp38
 70
     1
102
RTVSPropertyOp39
 70
     1
102
RTVSPropertyOp40
 70
     1
102
RTVSPropertyOp41
 70
     1
102
RTVSPropertyOp42
 70
     1
102
RTVSPropertyOp43
 70
     1
102
RTVSPropertyOp44
 70
     1
102
RTVSPropertyOp45
 70
     1
102
RTVSPropertyOp46
 70
     1
102
RTVSPropertyOp47
 70
     1
102
RTVSPropertyOp48
 70
     1
102
RTVSPropertyOp49
 70
     1
102
RTVSPropertyOp50
 70
     1
102
RTVSPropertyOp51
 70
     0
102
RTVSPropertyOp52
 70
     0
102
RTVSPropertyOp53
 70
     1
102
RTVSPropertyOp54
 70
     1
102
RTVSPropertyOp55
 70
     1
102
RTVSPropertyOp56
 70
     1
102
RTVSPropertyOp57
 70
     1
102
RTVSPropertyOp58
 70
     1
102
RTVSPropertyOp59
 70
     1
102
RTVSPropertyOp60
 70
     1
102
RTVSPropertyOp61
 70
     1
102
RTVSPropertyOp62
 70
     1
  0
XRECORD
  5
877A
102
{ACAD_REACTORS
330
8779
102
}
330
8779
100
AcDbXrecord
280
     1
102
RTVSPost2010Prop28
280
     0
102
RTVSPost2010PropOp28
 70
     1
102
RTVSPost2010Prop29
280
     1
102
RTVSPost2010PropOp29
 70
     1
102
RTVSPost2010Prop30
280
     1
102
RTVSPost2010PropOp30
 70
     1
102
RTVSPost2010Prop31
280
     0
102
RTVSPost2010PropOp31
 70
     1
102
RTVSPost2010Prop32
280
     0
102
RTVSPost2010PropOp32
 70
     1
102
RTVSPost2010Prop33
280
     0
102
RTVSPost2010PropOp33
 70
     1
102
RTVSPost2010Prop34
280
     0
102
RTVSPost2010PropOp34
 70
     1
102
RTVSPost2010Prop35
280
     0
102
RTVSPost2010PropOp35
 70
     1
102
RTVSPost2010Prop36
280
     0
102
RTVSPost2010PropOp36
 70
     1
102
RTVSPost2010Prop37
 90
       50
102
RTVSPost2010PropOp37
 70
     0
102
RTVSPost2010Prop38
140
0.0
102
RTVSPost2010PropOp38
 70
     0
102
RTVSPost2010Prop39
140
1.0
102
RTVSPost2010PropOp39
 70
     0
102
RTVSPost2010Prop40
 90
        0
102
RTVSPost2010PropOp40
 70
     0
102
RTVSPost2010Prop41ColorIndex
 90
       18
102
RTVSPost2010Prop41ColorRGB
 90
        0
102
RTVSPost2010PropOp41
 70
     0
102
RTVSPost2010Prop42
 90
       50
102
RTVSPost2010PropOp42
 70
     0
102
RTVSPost2010Prop43
 90
        3
102
RTVSPost2010PropOp43
 70
     0
102
RTVSPost2010Prop44ColorIndex
 90
        5
102
RTVSPost2010Prop44ColorRGB
 90
      255
102
RTVSPost2010PropOp44
 70
     0
102
RTVSPost2010Prop45
280
     0
102
RTVSPost2010PropOp45
 70
     1
102
RTVSPost2010Prop46
 90
       50
102
RTVSPost2010PropOp46
 70
     0
102
RTVSPost2010Prop47
 90
       50
102
RTVSPost2010PropOp47
 70
     0
102
RTVSPost2010Prop48
 90
       50
102
RTVSPost2010PropOp48
 70
     0
102
RTVSPost2010Prop49
280
     0
102
RTVSPost2010PropOp49
 70
     1
102
RTVSPost2010Prop50
 90
       50
102
RTVSPost2010PropOp50
 70
     0
102
RTVSPost2010Prop51ColorIndex
 90
      256
102
RTVSPost2010Prop51ColorRGB
 90
-16777216
102
RTVSPost2010PropOp51
 70
     0
102
RTVSPost2010Prop52
140
1.0
102
RTVSPost2010PropOp52
 70
     0
102
RTVSPost2010Prop53
 90
        2
102
RTVSPost2010PropOp53
 70
     0
102
RTVSPost2010Prop54
  1
strokes_ogs.tif
102
RTVSPost2010PropOp54
 70
     0
102
RTVSPost2010Prop55
280
     0
102
RTVSPost2010PropOp55
 70
     1
102
RTVSPost2010Prop56
140
1.0
102
RTVSPost2010PropOp56
 70
     0
102
RTVSPost2010Prop57
140
1.0
102
RTVSPost2010PropOp57
 70
     0
102
RTVSPropertyOp0
 70
     0
102
RTVSPropertyOp1
 70
     0
102
RTVSPropertyOp2
 70
     0
102
RTVSPropertyOp3
 70
     0
102
RTVSPropertyOp4
 70
     0
102
RTVSPropertyOp5
 70
     0
102
RTVSPropertyOp6
 70
     0
102
RTVSPropertyOp7
 70
     0
102
RTVSPropertyOp8
 70
     0
102
RTVSPropertyOp9
 70
     0
102
RTVSPropertyOp10
 70
     0
102
RTVSPropertyOp11
 70
     0
102
RTVSPropertyOp12
 70
     0
102
RTVSPropertyOp13
 70
     0
102
RTVSPropertyOp14
 70
     2
102
RTVSPropertyOp15
 70
     0
102
RTVSPropertyOp16
 70
     0
102
RTVSPropertyOp17
 70
     0
102
RTVSPropertyOp18
 70
     0
102
RTVSPropertyOp19
 70
     0
102
RTVSPropertyOp20
 70
     0
102
RTVSPropertyOp21
 70
     0
102
RTVSPropertyOp22
 70
     0
102
RTVSPropertyOp23
 70
     0
102
RTVSPropertyOp24
 70
     0
102
RTVSPropertyOp25
 70
     0
102
RTVSPropertyOp26
 70
     0
102
RTVSPropertyOp27
 70
     0
102
RTVSPropertyOp28
 70
     1
102
RTVSPropertyOp29
 70
     1
102
RTVSPropertyOp30
 70
     1
102
RTVSPropertyOp31
 70
     1
102
RTVSPropertyOp32
 70
     1
102
RTVSPropertyOp33
 70
     1
102
RTVSPropertyOp34
 70
     1
102
RTVSPropertyOp35
 70
     1
102
RTVSPropertyOp36
 70
     1
102
RTVSPropertyOp37
 70
     0
102
RTVSPropertyOp38
 70
     0
102
RTVSPropertyOp39
 70
     0
102
RTVSPropertyOp40
 70
     0
102
RTVSPropertyOp41
 70
     0
102
RTVSPropertyOp42
 70
     0
102
RTVSPropertyOp43
 70
     0
102
RTVSPropertyOp44
 70
     0
102
RTVSPropertyOp45
 70
     1
102
RTVSPropertyOp46
 70
     0
102
RTVSPropertyOp47
 70
     0
102
RTVSPropertyOp48
 70
     0
102
RTVSPropertyOp49
 70
     1
102
RTVSPropertyOp50
 70
     0
102
RTVSPropertyOp51
 70
     0
102
RTVSPropertyOp52
 70
     0
102
RTVSPropertyOp53
 70
     0
102
RTVSPropertyOp54
 70
     0
102
RTVSPropertyOp55
 70
     1
102
RTVSPropertyOp56
 70
     0
102
RTVSPropertyOp57
 70
     0
102
RTVSPropertyOp58
 70
     0
102
RTVSPropertyOp59
 70
     0
102
RTVSPropertyOp60
 70
     0
102
RTVSPropertyOp61
 70
     0
102
RTVSPropertyOp62
 70
     0
  0
XRECORD
  5
8768
102
{ACAD_REACTORS
330
8767
102
}
330
8767
100
AcDbXrecord
280
     1
102
RTVSPost2010Prop28
280
     0
102
RTVSPost2010PropOp28
 70
     1
102
RTVSPost2010Prop29
280
     1
102
RTVSPost2010PropOp29
 70
     1
102
RTVSPost2010Prop30
280
     1
102
RTVSPost2010PropOp30
 70
     1
102
RTVSPost2010Prop31
280
     0
102
RTVSPost2010PropOp31
 70
     1
102
RTVSPost2010Prop32
280
     0
102
RTVSPost2010PropOp32
 70
     1
102
RTVSPost2010Prop33
280
     0
102
RTVSPost2010PropOp33
 70
     1
102
RTVSPost2010Prop34
280
     0
102
RTVSPost2010PropOp34
 70
     1
102
RTVSPost2010Prop35
280
     0
102
RTVSPost2010PropOp35
 70
     1
102
RTVSPost2010Prop36
280
     0
102
RTVSPost2010PropOp36
 70
     1
102
RTVSPost2010Prop37
 90
       50
102
RTVSPost2010PropOp37
 70
     1
102
RTVSPost2010Prop38
140
0.0
102
RTVSPost2010PropOp38
 70
     1
102
RTVSPost2010Prop39
140
1.0
102
RTVSPost2010PropOp39
 70
     1
102
RTVSPost2010Prop40
 90
        0
102
RTVSPost2010PropOp40
 70
     1
102
RTVSPost2010Prop41ColorIndex
 90
       18
102
RTVSPost2010Prop41ColorRGB
 90
        0
102
RTVSPost2010PropOp41
 70
     1
102
RTVSPost2010Prop42
 90
       50
102
RTVSPost2010PropOp42
 70
     1
102
RTVSPost2010Prop43
 90
        3
102
RTVSPost2010PropOp43
 70
     1
102
RTVSPost2010Prop44ColorIndex
 90
        5
102
RTVSPost2010Prop44ColorRGB
 90
      255
102
RTVSPost2010PropOp44
 70
     1
102
RTVSPost2010Prop45
280
     0
102
RTVSPost2010PropOp45
 70
     1
102
RTVSPost2010Prop46
 90
       50
102
RTVSPost2010PropOp46
 70
     1
102
RTVSPost2010Prop47
 90
       50
102
RTVSPost2010PropOp47
 70
     1
102
RTVSPost2010Prop48
 90
       50
102
RTVSPost2010PropOp48
 70
     1
102
RTVSPost2010Prop49
280
     0
102
RTVSPost2010PropOp49
 70
     1
102
RTVSPost2010Prop50
 90
       50
102
RTVSPost2010PropOp50
 70
     1
102
RTVSPost2010Prop51ColorIndex
 90
      256
102
RTVSPost2010Prop51ColorRGB
 90
-16777216
102
RTVSPost2010PropOp51
 70
     0
102
RTVSPost2010Prop52
140
1.0
102
RTVSPost2010PropOp52
 70
     0
102
RTVSPost2010Prop53
 90
        2
102
RTVSPost2010PropOp53
 70
     1
102
RTVSPost2010Prop54
  1
strokes_ogs.tif
102
RTVSPost2010PropOp54
 70
     1
102
RTVSPost2010Prop55
280
     0
102
RTVSPost2010PropOp55
 70
     1
102
RTVSPost2010Prop56
140
1.0
102
RTVSPost2010PropOp56
 70
     1
102
RTVSPost2010Prop57
140
1.0
102
RTVSPost2010PropOp57
 70
     1
102
RTVSPropertyOp0
 70
     1
102
RTVSPropertyOp1
 70
     1
102
RTVSPropertyOp2
 70
     1
102
RTVSPropertyOp3
 70
     1
102
RTVSPropertyOp4
 70
     1
102
RTVSPropertyOp5
 70
     1
102
RTVSPropertyOp6
 70
     1
102
RTVSPropertyOp7
 70
     1
102
RTVSPropertyOp8
 70
     1
102
RTVSPropertyOp9
 70
     1
102
RTVSPropertyOp10
 70
     1
102
RTVSPropertyOp11
 70
     1
102
RTVSPropertyOp12
 70
     1
102
RTVSPropertyOp13
 70
     1
102
RTVSPropertyOp14
 70
     1
102
RTVSPropertyOp15
 70
     1
102
RTVSPropertyOp16
 70
     1
102
RTVSPropertyOp17
 70
     1
102
RTVSPropertyOp18
 70
     1
102
RTVSPropertyOp19
 70
     1
102
RTVSPropertyOp20
 70
     1
102
RTVSPropertyOp21
 70
     1
102
RTVSPropertyOp22
 70
     1
102
RTVSPropertyOp23
 70
     1
102
RTVSPropertyOp24
 70
     1
102
RTVSPropertyOp25
 70
     1
102
RTVSPropertyOp26
 70
     1
102
RTVSPropertyOp27
 70
     1
102
RTVSPropertyOp28
 70
     1
102
RTVSPropertyOp29
 70
     1
102
RTVSPropertyOp30
 70
     1
102
RTVSPropertyOp31
 70
     1
102
RTVSPropertyOp32
 70
     1
102
RTVSPropertyOp33
 70
     1
102
RTVSPropertyOp34
 70
     1
102
RTVSPropertyOp35
 70
     1
102
RTVSPropertyOp36
 70
     1
102
RTVSPropertyOp37
 70
     1
102
RTVSPropertyOp38
 70
     1
102
RTVSPropertyOp39
 70
     1
102
RTVSPropertyOp40
 70
     1
102
RTVSPropertyOp41
 70
     1
102
RTVSPropertyOp42
 70
     1
102
RTVSPropertyOp43
 70
     1
102
RTVSPropertyOp44
 70
     1
102
RTVSPropertyOp45
 70
     1
102
RTVSPropertyOp46
 70
     1
102
RTVSPropertyOp47
 70
     1
102
RTVSPropertyOp48
 70
     1
102
RTVSPropertyOp49
 70
     1
102
RTVSPropertyOp50
 70
     1
102
RTVSPropertyOp51
 70
     0
102
RTVSPropertyOp52
 70
     0
102
RTVSPropertyOp53
 70
     1
102
RTVSPropertyOp54
 70
     1
102
RTVSPropertyOp55
 70
     1
102
RTVSPropertyOp56
 70
     1
102
RTVSPropertyOp57
 70
     1
102
RTVSPropertyOp58
 70
     1
102
RTVSPropertyOp59
 70
     1
102
RTVSPropertyOp60
 70
     1
102
RTVSPropertyOp61
 70
     1
102
RTVSPropertyOp62
 70
     1
  0
XRECORD
  5
874C
102
{ACAD_REACTORS
330
874B
102
}
330
874B
100
AcDbXrecord
280
     1
102
RTVSPost2010Prop28
280
     0
102
RTVSPost2010PropOp28
 70
     1
102
RTVSPost2010Prop29
280
     1
102
RTVSPost2010PropOp29
 70
     1
102
RTVSPost2010Prop30
280
     1
102
RTVSPost2010PropOp30
 70
     1
102
RTVSPost2010Prop31
280
     0
102
RTVSPost2010PropOp31
 70
     1
102
RTVSPost2010Prop32
280
     0
102
RTVSPost2010PropOp32
 70
     1
102
RTVSPost2010Prop33
280
     0
102
RTVSPost2010PropOp33
 70
     1
102
RTVSPost2010Prop34
280
     0
102
RTVSPost2010PropOp34
 70
     1
102
RTVSPost2010Prop35
280
     0
102
RTVSPost2010PropOp35
 70
     1
102
RTVSPost2010Prop36
280
     0
102
RTVSPost2010PropOp36
 70
     1
102
RTVSPost2010Prop37
 90
       50
102
RTVSPost2010PropOp37
 70
     1
102
RTVSPost2010Prop38
140
0.0
102
RTVSPost2010PropOp38
 70
     1
102
RTVSPost2010Prop39
140
1.0
102
RTVSPost2010PropOp39
 70
     1
102
RTVSPost2010Prop40
 90
        0
102
RTVSPost2010PropOp40
 70
     1
102
RTVSPost2010Prop41ColorIndex
 90
       18
102
RTVSPost2010Prop41ColorRGB
 90
        0
102
RTVSPost2010PropOp41
 70
     1
102
RTVSPost2010Prop42
 90
       50
102
RTVSPost2010PropOp42
 70
     1
102
RTVSPost2010Prop43
 90
        3
102
RTVSPost2010PropOp43
 70
     1
102
RTVSPost2010Prop44ColorIndex
 90
        5
102
RTVSPost2010Prop44ColorRGB
 90
      255
102
RTVSPost2010PropOp44
 70
     1
102
RTVSPost2010Prop45
280
     0
102
RTVSPost2010PropOp45
 70
     1
102
RTVSPost2010Prop46
 90
       50
102
RTVSPost2010PropOp46
 70
     1
102
RTVSPost2010Prop47
 90
       50
102
RTVSPost2010PropOp47
 70
     1
102
RTVSPost2010Prop48
 90
       50
102
RTVSPost2010PropOp48
 70
     1
102
RTVSPost2010Prop49
280
     0
102
RTVSPost2010PropOp49
 70
     1
102
RTVSPost2010Prop50
 90
       50
102
RTVSPost2010PropOp50
 70
     1
102
RTVSPost2010Prop51ColorIndex
 90
      256
102
RTVSPost2010Prop51ColorRGB
 90
-16777216
102
RTVSPost2010PropOp51
 70
     0
102
RTVSPost2010Prop52
140
1.0
102
RTVSPost2010PropOp52
 70
     0
102
RTVSPost2010Prop53
 90
        2
102
RTVSPost2010PropOp53
 70
     1
102
RTVSPost2010Prop54
  1
strokes_ogs.tif
102
RTVSPost2010PropOp54
 70
     1
102
RTVSPost2010Prop55
280
     0
102
RTVSPost2010PropOp55
 70
     1
102
RTVSPost2010Prop56
140
1.0
102
RTVSPost2010PropOp56
 70
     1
102
RTVSPost2010Prop57
140
1.0
102
RTVSPost2010PropOp57
 70
     1
102
RTVSPropertyOp0
 70
     1
102
RTVSPropertyOp1
 70
     1
102
RTVSPropertyOp2
 70
     1
102
RTVSPropertyOp3
 70
     1
102
RTVSPropertyOp4
 70
     1
102
RTVSPropertyOp5
 70
     1
102
RTVSPropertyOp6
 70
     1
102
RTVSPropertyOp7
 70
     1
102
RTVSPropertyOp8
 70
     1
102
RTVSPropertyOp9
 70
     1
102
RTVSPropertyOp10
 70
     1
102
RTVSPropertyOp11
 70
     1
102
RTVSPropertyOp12
 70
     1
102
RTVSPropertyOp13
 70
     1
102
RTVSPropertyOp14
 70
     1
102
RTVSPropertyOp15
 70
     1
102
RTVSPropertyOp16
 70
     1
102
RTVSPropertyOp17
 70
     1
102
RTVSPropertyOp18
 70
     1
102
RTVSPropertyOp19
 70
     1
102
RTVSPropertyOp20
 70
     1
102
RTVSPropertyOp21
 70
     1
102
RTVSPropertyOp22
 70
     1
102
RTVSPropertyOp23
 70
     1
102
RTVSPropertyOp24
 70
     1
102
RTVSPropertyOp25
 70
     1
102
RTVSPropertyOp26
 70
     1
102
RTVSPropertyOp27
 70
     1
102
RTVSPropertyOp28
 70
     1
102
RTVSPropertyOp29
 70
     1
102
RTVSPropertyOp30
 70
     1
102
RTVSPropertyOp31
 70
     1
102
RTVSPropertyOp32
 70
     1
102
RTVSPropertyOp33
 70
     1
102
RTVSPropertyOp34
 70
     1
102
RTVSPropertyOp35
 70
     1
102
RTVSPropertyOp36
 70
     1
102
RTVSPropertyOp37
 70
     1
102
RTVSPropertyOp38
 70
     1
102
RTVSPropertyOp39
 70
     1
102
RTVSPropertyOp40
 70
     1
102
RTVSPropertyOp41
 70
     1
102
RTVSPropertyOp42
 70
     1
102
RTVSPropertyOp43
 70
     1
102
RTVSPropertyOp44
 70
     1
102
RTVSPropertyOp45
 70
     1
102
RTVSPropertyOp46
 70
     1
102
RTVSPropertyOp47
 70
     1
102
RTVSPropertyOp48
 70
     1
102
RTVSPropertyOp49
 70
     1
102
RTVSPropertyOp50
 70
     1
102
RTVSPropertyOp51
 70
     0
102
RTVSPropertyOp52
 70
     0
102
RTVSPropertyOp53
 70
     1
102
RTVSPropertyOp54
 70
     1
102
RTVSPropertyOp55
 70
     1
102
RTVSPropertyOp56
 70
     1
102
RTVSPropertyOp57
 70
     1
102
RTVSPropertyOp58
 70
     1
102
RTVSPropertyOp59
 70
     1
102
RTVSPropertyOp60
 70
     1
102
RTVSPropertyOp61
 70
     1
102
RTVSPropertyOp62
 70
     1
  0
XRECORD
  5
874E
102
{ACAD_REACTORS
330
874D
102
}
330
874D
100
AcDbXrecord
280
     1
102
RTVSPost2010Prop28
280
     0
102
RTVSPost2010PropOp28
 70
     1
102
RTVSPost2010Prop29
280
     1
102
RTVSPost2010PropOp29
 70
     1
102
RTVSPost2010Prop30
280
     1
102
RTVSPost2010PropOp30
 70
     1
102
RTVSPost2010Prop31
280
     0
102
RTVSPost2010PropOp31
 70
     1
102
RTVSPost2010Prop32
280
     0
102
RTVSPost2010PropOp32
 70
     1
102
RTVSPost2010Prop33
280
     0
102
RTVSPost2010PropOp33
 70
     1
102
RTVSPost2010Prop34
280
     0
102
RTVSPost2010PropOp34
 70
     1
102
RTVSPost2010Prop35
280
     0
102
RTVSPost2010PropOp35
 70
     1
102
RTVSPost2010Prop36
280
     0
102
RTVSPost2010PropOp36
 70
     1
102
RTVSPost2010Prop37
 90
       50
102
RTVSPost2010PropOp37
 70
     1
102
RTVSPost2010Prop38
140
0.0
102
RTVSPost2010PropOp38
 70
     1
102
RTVSPost2010Prop39
140
1.0
102
RTVSPost2010PropOp39
 70
     1
102
RTVSPost2010Prop40
 90
        0
102
RTVSPost2010PropOp40
 70
     1
102
RTVSPost2010Prop41ColorIndex
 90
       18
102
RTVSPost2010Prop41ColorRGB
 90
        0
102
RTVSPost2010PropOp41
 70
     1
102
RTVSPost2010Prop42
 90
       50
102
RTVSPost2010PropOp42
 70
     1
102
RTVSPost2010Prop43
 90
        3
102
RTVSPost2010PropOp43
 70
     1
102
RTVSPost2010Prop44ColorIndex
 90
        5
102
RTVSPost2010Prop44ColorRGB
 90
      255
102
RTVSPost2010PropOp44
 70
     1
102
RTVSPost2010Prop45
280
     0
102
RTVSPost2010PropOp45
 70
     1
102
RTVSPost2010Prop46
 90
       50
102
RTVSPost2010PropOp46
 70
     1
102
RTVSPost2010Prop47
 90
       50
102
RTVSPost2010PropOp47
 70
     1
102
RTVSPost2010Prop48
 90
       50
102
RTVSPost2010PropOp48
 70
     1
102
RTVSPost2010Prop49
280
     0
102
RTVSPost2010PropOp49
 70
     1
102
RTVSPost2010Prop50
 90
       50
102
RTVSPost2010PropOp50
 70
     1
102
RTVSPost2010Prop51ColorIndex
 90
      256
102
RTVSPost2010Prop51ColorRGB
 90
-16777216
102
RTVSPost2010PropOp51
 70
     0
102
RTVSPost2010Prop52
140
1.0
102
RTVSPost2010PropOp52
 70
     0
102
RTVSPost2010Prop53
 90
        2
102
RTVSPost2010PropOp53
 70
     1
102
RTVSPost2010Prop54
  1
strokes_ogs.tif
102
RTVSPost2010PropOp54
 70
     1
102
RTVSPost2010Prop55
280
     0
102
RTVSPost2010PropOp55
 70
     1
102
RTVSPost2010Prop56
140
1.0
102
RTVSPost2010PropOp56
 70
     1
102
RTVSPost2010Prop57
140
1.0
102
RTVSPost2010PropOp57
 70
     1
102
RTVSPropertyOp0
 70
     1
102
RTVSPropertyOp1
 70
     1
102
RTVSPropertyOp2
 70
     1
102
RTVSPropertyOp3
 70
     1
102
RTVSPropertyOp4
 70
     1
102
RTVSPropertyOp5
 70
     1
102
RTVSPropertyOp6
 70
     1
102
RTVSPropertyOp7
 70
     1
102
RTVSPropertyOp8
 70
     1
102
RTVSPropertyOp9
 70
     1
102
RTVSPropertyOp10
 70
     1
102
RTVSPropertyOp11
 70
     1
102
RTVSPropertyOp12
 70
     1
102
RTVSPropertyOp13
 70
     1
102
RTVSPropertyOp14
 70
     1
102
RTVSPropertyOp15
 70
     1
102
RTVSPropertyOp16
 70
     1
102
RTVSPropertyOp17
 70
     1
102
RTVSPropertyOp18
 70
     1
102
RTVSPropertyOp19
 70
     1
102
RTVSPropertyOp20
 70
     1
102
RTVSPropertyOp21
 70
     1
102
RTVSPropertyOp22
 70
     1
102
RTVSPropertyOp23
 70
     1
102
RTVSPropertyOp24
 70
     1
102
RTVSPropertyOp25
 70
     1
102
RTVSPropertyOp26
 70
     1
102
RTVSPropertyOp27
 70
     1
102
RTVSPropertyOp28
 70
     1
102
RTVSPropertyOp29
 70
     1
102
RTVSPropertyOp30
 70
     1
102
RTVSPropertyOp31
 70
     1
102
RTVSPropertyOp32
 70
     1
102
RTVSPropertyOp33
 70
     1
102
RTVSPropertyOp34
 70
     1
102
RTVSPropertyOp35
 70
     1
102
RTVSPropertyOp36
 70
     1
102
RTVSPropertyOp37
 70
     1
102
RTVSPropertyOp38
 70
     1
102
RTVSPropertyOp39
 70
     1
102
RTVSPropertyOp40
 70
     1
102
RTVSPropertyOp41
 70
     1
102
RTVSPropertyOp42
 70
     1
102
RTVSPropertyOp43
 70
     1
102
RTVSPropertyOp44
 70
     1
102
RTVSPropertyOp45
 70
     1
102
RTVSPropertyOp46
 70
     1
102
RTVSPropertyOp47
 70
     1
102
RTVSPropertyOp48
 70
     1
102
RTVSPropertyOp49
 70
     1
102
RTVSPropertyOp50
 70
     1
102
RTVSPropertyOp51
 70
     0
102
RTVSPropertyOp52
 70
     0
102
RTVSPropertyOp53
 70
     1
102
RTVSPropertyOp54
 70
     1
102
RTVSPropertyOp55
 70
     1
102
RTVSPropertyOp56
 70
     1
102
RTVSPropertyOp57
 70
     1
102
RTVSPropertyOp58
 70
     1
102
RTVSPropertyOp59
 70
     1
102
RTVSPropertyOp60
 70
     1
102
RTVSPropertyOp61
 70
     1
102
RTVSPropertyOp62
 70
     1
  0
XRECORD
  5
8750
102
{ACAD_REACTORS
330
874F
102
}
330
874F
100
AcDbXrecord
280
     1
102
RTVSPost2010Prop28
280
     0
102
RTVSPost2010PropOp28
 70
     1
102
RTVSPost2010Prop29
280
     1
102
RTVSPost2010PropOp29
 70
     1
102
RTVSPost2010Prop30
280
     1
102
RTVSPost2010PropOp30
 70
     1
102
RTVSPost2010Prop31
280
     0
102
RTVSPost2010PropOp31
 70
     1
102
RTVSPost2010Prop32
280
     0
102
RTVSPost2010PropOp32
 70
     1
102
RTVSPost2010Prop33
280
     0
102
RTVSPost2010PropOp33
 70
     1
102
RTVSPost2010Prop34
280
     0
102
RTVSPost2010PropOp34
 70
     1
102
RTVSPost2010Prop35
280
     0
102
RTVSPost2010PropOp35
 70
     1
102
RTVSPost2010Prop36
280
     0
102
RTVSPost2010PropOp36
 70
     1
102
RTVSPost2010Prop37
 90
       50
102
RTVSPost2010PropOp37
 70
     1
102
RTVSPost2010Prop38
140
0.0
102
RTVSPost2010PropOp38
 70
     1
102
RTVSPost2010Prop39
140
1.0
102
RTVSPost2010PropOp39
 70
     1
102
RTVSPost2010Prop40
 90
        0
102
RTVSPost2010PropOp40
 70
     1
102
RTVSPost2010Prop41ColorIndex
 90
       18
102
RTVSPost2010Prop41ColorRGB
 90
        0
102
RTVSPost2010PropOp41
 70
     1
102
RTVSPost2010Prop42
 90
       50
102
RTVSPost2010PropOp42
 70
     1
102
RTVSPost2010Prop43
 90
        3
102
RTVSPost2010PropOp43
 70
     1
102
RTVSPost2010Prop44ColorIndex
 90
        5
102
RTVSPost2010Prop44ColorRGB
 90
      255
102
RTVSPost2010PropOp44
 70
     1
102
RTVSPost2010Prop45
280
     0
102
RTVSPost2010PropOp45
 70
     1
102
RTVSPost2010Prop46
 90
       50
102
RTVSPost2010PropOp46
 70
     1
102
RTVSPost2010Prop47
 90
       50
102
RTVSPost2010PropOp47
 70
     1
102
RTVSPost2010Prop48
 90
       50
102
RTVSPost2010PropOp48
 70
     1
102
RTVSPost2010Prop49
280
     0
102
RTVSPost2010PropOp49
 70
     1
102
RTVSPost2010Prop50
 90
       50
102
RTVSPost2010PropOp50
 70
     1
102
RTVSPost2010Prop51ColorIndex
 90
      256
102
RTVSPost2010Prop51ColorRGB
 90
-16777216
102
RTVSPost2010PropOp51
 70
     0
102
RTVSPost2010Prop52
140
1.0
102
RTVSPost2010PropOp52
 70
     0
102
RTVSPost2010Prop53
 90
        2
102
RTVSPost2010PropOp53
 70
     1
102
RTVSPost2010Prop54
  1
strokes_ogs.tif
102
RTVSPost2010PropOp54
 70
     1
102
RTVSPost2010Prop55
280
     0
102
RTVSPost2010PropOp55
 70
     1
102
RTVSPost2010Prop56
140
1.0
102
RTVSPost2010PropOp56
 70
     1
102
RTVSPost2010Prop57
140
1.0
102
RTVSPost2010PropOp57
 70
     1
102
RTVSPropertyOp0
 70
     1
102
RTVSPropertyOp1
 70
     1
102
RTVSPropertyOp2
 70
     1
102
RTVSPropertyOp3
 70
     1
102
RTVSPropertyOp4
 70
     1
102
RTVSPropertyOp5
 70
     1
102
RTVSPropertyOp6
 70
     1
102
RTVSPropertyOp7
 70
     1
102
RTVSPropertyOp8
 70
     1
102
RTVSPropertyOp9
 70
     1
102
RTVSPropertyOp10
 70
     1
102
RTVSPropertyOp11
 70
     1
102
RTVSPropertyOp12
 70
     1
102
RTVSPropertyOp13
 70
     1
102
RTVSPropertyOp14
 70
     1
102
RTVSPropertyOp15
 70
     1
102
RTVSPropertyOp16
 70
     1
102
RTVSPropertyOp17
 70
     1
102
RTVSPropertyOp18
 70
     1
102
RTVSPropertyOp19
 70
     1
102
RTVSPropertyOp20
 70
     1
102
RTVSPropertyOp21
 70
     1
102
RTVSPropertyOp22
 70
     1
102
RTVSPropertyOp23
 70
     1
102
RTVSPropertyOp24
 70
     1
102
RTVSPropertyOp25
 70
     1
102
RTVSPropertyOp26
 70
     1
102
RTVSPropertyOp27
 70
     1
102
RTVSPropertyOp28
 70
     1
102
RTVSPropertyOp29
 70
     1
102
RTVSPropertyOp30
 70
     1
102
RTVSPropertyOp31
 70
     1
102
RTVSPropertyOp32
 70
     1
102
RTVSPropertyOp33
 70
     1
102
RTVSPropertyOp34
 70
     1
102
RTVSPropertyOp35
 70
     1
102
RTVSPropertyOp36
 70
     1
102
RTVSPropertyOp37
 70
     1
102
RTVSPropertyOp38
 70
     1
102
RTVSPropertyOp39
 70
     1
102
RTVSPropertyOp40
 70
     1
102
RTVSPropertyOp41
 70
     1
102
RTVSPropertyOp42
 70
     1
102
RTVSPropertyOp43
 70
     1
102
RTVSPropertyOp44
 70
     1
102
RTVSPropertyOp45
 70
     1
102
RTVSPropertyOp46
 70
     1
102
RTVSPropertyOp47
 70
     1
102
RTVSPropertyOp48
 70
     1
102
RTVSPropertyOp49
 70
     1
102
RTVSPropertyOp50
 70
     1
102
RTVSPropertyOp51
 70
     0
102
RTVSPropertyOp52
 70
     0
102
RTVSPropertyOp53
 70
     1
102
RTVSPropertyOp54
 70
     1
102
RTVSPropertyOp55
 70
     1
102
RTVSPropertyOp56
 70
     1
102
RTVSPropertyOp57
 70
     1
102
RTVSPropertyOp58
 70
     1
102
RTVSPropertyOp59
 70
     1
102
RTVSPropertyOp60
 70
     1
102
RTVSPropertyOp61
 70
     1
102
RTVSPropertyOp62
 70
     1
  0
XRECORD
  5
8752
102
{ACAD_REACTORS
330
8751
102
}
330
8751
100
AcDbXrecord
280
     1
102
RTVSPost2010Prop28
280
     0
102
RTVSPost2010PropOp28
 70
     1
102
RTVSPost2010Prop29
280
     1
102
RTVSPost2010PropOp29
 70
     1
102
RTVSPost2010Prop30
280
     1
102
RTVSPost2010PropOp30
 70
     1
102
RTVSPost2010Prop31
280
     0
102
RTVSPost2010PropOp31
 70
     1
102
RTVSPost2010Prop32
280
     0
102
RTVSPost2010PropOp32
 70
     1
102
RTVSPost2010Prop33
280
     0
102
RTVSPost2010PropOp33
 70
     1
102
RTVSPost2010Prop34
280
     0
102
RTVSPost2010PropOp34
 70
     1
102
RTVSPost2010Prop35
280
     0
102
RTVSPost2010PropOp35
 70
     1
102
RTVSPost2010Prop36
280
     0
102
RTVSPost2010PropOp36
 70
     1
102
RTVSPost2010Prop37
 90
       50
102
RTVSPost2010PropOp37
 70
     1
102
RTVSPost2010Prop38
140
0.0
102
RTVSPost2010PropOp38
 70
     1
102
RTVSPost2010Prop39
140
1.0
102
RTVSPost2010PropOp39
 70
     1
102
RTVSPost2010Prop40
 90
        0
102
RTVSPost2010PropOp40
 70
     1
102
RTVSPost2010Prop41ColorIndex
 90
       18
102
RTVSPost2010Prop41ColorRGB
 90
        0
102
RTVSPost2010PropOp41
 70
     1
102
RTVSPost2010Prop42
 90
       50
102
RTVSPost2010PropOp42
 70
     1
102
RTVSPost2010Prop43
 90
        3
102
RTVSPost2010PropOp43
 70
     1
102
RTVSPost2010Prop44ColorIndex
 90
        5
102
RTVSPost2010Prop44ColorRGB
 90
      255
102
RTVSPost2010PropOp44
 70
     1
102
RTVSPost2010Prop45
280
     0
102
RTVSPost2010PropOp45
 70
     1
102
RTVSPost2010Prop46
 90
       50
102
RTVSPost2010PropOp46
 70
     1
102
RTVSPost2010Prop47
 90
       50
102
RTVSPost2010PropOp47
 70
     1
102
RTVSPost2010Prop48
 90
       50
102
RTVSPost2010PropOp48
 70
     1
102
RTVSPost2010Prop49
280
     0
102
RTVSPost2010PropOp49
 70
     1
102
RTVSPost2010Prop50
 90
       50
102
RTVSPost2010PropOp50
 70
     1
102
RTVSPost2010Prop51ColorIndex
 90
      256
102
RTVSPost2010Prop51ColorRGB
 90
-16777216
102
RTVSPost2010PropOp51
 70
     0
102
RTVSPost2010Prop52
140
1.0
102
RTVSPost2010PropOp52
 70
     0
102
RTVSPost2010Prop53
 90
        2
102
RTVSPost2010PropOp53
 70
     1
102
RTVSPost2010Prop54
  1
strokes_ogs.tif
102
RTVSPost2010PropOp54
 70
     1
102
RTVSPost2010Prop55
280
     0
102
RTVSPost2010PropOp55
 70
     1
102
RTVSPost2010Prop56
140
1.0
102
RTVSPost2010PropOp56
 70
     1
102
RTVSPost2010Prop57
140
1.0
102
RTVSPost2010PropOp57
 70
     1
102
RTVSPropertyOp0
 70
     1
102
RTVSPropertyOp1
 70
     1
102
RTVSPropertyOp2
 70
     1
102
RTVSPropertyOp3
 70
     1
102
RTVSPropertyOp4
 70
     1
102
RTVSPropertyOp5
 70
     1
102
RTVSPropertyOp6
 70
     1
102
RTVSPropertyOp7
 70
     1
102
RTVSPropertyOp8
 70
     1
102
RTVSPropertyOp9
 70
     1
102
RTVSPropertyOp10
 70
     1
102
RTVSPropertyOp11
 70
     1
102
RTVSPropertyOp12
 70
     1
102
RTVSPropertyOp13
 70
     1
102
RTVSPropertyOp14
 70
     1
102
RTVSPropertyOp15
 70
     1
102
RTVSPropertyOp16
 70
     1
102
RTVSPropertyOp17
 70
     1
102
RTVSPropertyOp18
 70
     1
102
RTVSPropertyOp19
 70
     1
102
RTVSPropertyOp20
 70
     1
102
RTVSPropertyOp21
 70
     1
102
RTVSPropertyOp22
 70
     1
102
RTVSPropertyOp23
 70
     1
102
RTVSPropertyOp24
 70
     1
102
RTVSPropertyOp25
 70
     1
102
RTVSPropertyOp26
 70
     1
102
RTVSPropertyOp27
 70
     1
102
RTVSPropertyOp28
 70
     1
102
RTVSPropertyOp29
 70
     1
102
RTVSPropertyOp30
 70
     1
102
RTVSPropertyOp31
 70
     1
102
RTVSPropertyOp32
 70
     1
102
RTVSPropertyOp33
 70
     1
102
RTVSPropertyOp34
 70
     1
102
RTVSPropertyOp35
 70
     1
102
RTVSPropertyOp36
 70
     1
102
RTVSPropertyOp37
 70
     1
102
RTVSPropertyOp38
 70
     1
102
RTVSPropertyOp39
 70
     1
102
RTVSPropertyOp40
 70
     1
102
RTVSPropertyOp41
 70
     1
102
RTVSPropertyOp42
 70
     1
102
RTVSPropertyOp43
 70
     1
102
RTVSPropertyOp44
 70
     1
102
RTVSPropertyOp45
 70
     1
102
RTVSPropertyOp46
 70
     1
102
RTVSPropertyOp47
 70
     1
102
RTVSPropertyOp48
 70
     1
102
RTVSPropertyOp49
 70
     1
102
RTVSPropertyOp50
 70
     1
102
RTVSPropertyOp51
 70
     0
102
RTVSPropertyOp52
 70
     0
102
RTVSPropertyOp53
 70
     1
102
RTVSPropertyOp54
 70
     1
102
RTVSPropertyOp55
 70
     1
102
RTVSPropertyOp56
 70
     1
102
RTVSPropertyOp57
 70
     1
102
RTVSPropertyOp58
 70
     1
102
RTVSPropertyOp59
 70
     1
102
RTVSPropertyOp60
 70
     1
102
RTVSPropertyOp61
 70
     1
102
RTVSPropertyOp62
 70
     1
  0
XRECORD
  5
875A
102
{ACAD_REACTORS
330
8759
102
}
330
8759
100
AcDbXrecord
280
     1
102
RTVSPost2010Prop28
280
     0
102
RTVSPost2010PropOp28
 70
     1
102
RTVSPost2010Prop29
280
     1
102
RTVSPost2010PropOp29
 70
     1
102
RTVSPost2010Prop30
280
     1
102
RTVSPost2010PropOp30
 70
     1
102
RTVSPost2010Prop31
280
     0
102
RTVSPost2010PropOp31
 70
     1
102
RTVSPost2010Prop32
280
     0
102
RTVSPost2010PropOp32
 70
     1
102
RTVSPost2010Prop33
280
     0
102
RTVSPost2010PropOp33
 70
     1
102
RTVSPost2010Prop34
280
     0
102
RTVSPost2010PropOp34
 70
     1
102
RTVSPost2010Prop35
280
     0
102
RTVSPost2010PropOp35
 70
     1
102
RTVSPost2010Prop36
280
     0
102
RTVSPost2010PropOp36
 70
     1
102
RTVSPost2010Prop37
 90
       50
102
RTVSPost2010PropOp37
 70
     1
102
RTVSPost2010Prop38
140
0.0
102
RTVSPost2010PropOp38
 70
     1
102
RTVSPost2010Prop39
140
1.0
102
RTVSPost2010PropOp39
 70
     1
102
RTVSPost2010Prop40
 90
        0
102
RTVSPost2010PropOp40
 70
     1
102
RTVSPost2010Prop41ColorIndex
 90
       18
102
RTVSPost2010Prop41ColorRGB
 90
        0
102
RTVSPost2010PropOp41
 70
     1
102
RTVSPost2010Prop42
 90
       50
102
RTVSPost2010PropOp42
 70
     1
102
RTVSPost2010Prop43
 90
        3
102
RTVSPost2010PropOp43
 70
     1
102
RTVSPost2010Prop44ColorIndex
 90
        5
102
RTVSPost2010Prop44ColorRGB
 90
      255
102
RTVSPost2010PropOp44
 70
     1
102
RTVSPost2010Prop45
280
     0
102
RTVSPost2010PropOp45
 70
     1
102
RTVSPost2010Prop46
 90
       50
102
RTVSPost2010PropOp46
 70
     1
102
RTVSPost2010Prop47
 90
       50
102
RTVSPost2010PropOp47
 70
     1
102
RTVSPost2010Prop48
 90
       50
102
RTVSPost2010PropOp48
 70
     1
102
RTVSPost2010Prop49
280
     0
102
RTVSPost2010PropOp49
 70
     1
102
RTVSPost2010Prop50
 90
       50
102
RTVSPost2010PropOp50
 70
     1
102
RTVSPost2010Prop51ColorIndex
 90
      256
102
RTVSPost2010Prop51ColorRGB
 90
-16777216
102
RTVSPost2010PropOp51
 70
     0
102
RTVSPost2010Prop52
140
1.0
102
RTVSPost2010PropOp52
 70
     0
102
RTVSPost2010Prop53
 90
        2
102
RTVSPost2010PropOp53
 70
     1
102
RTVSPost2010Prop54
  1
strokes_ogs.tif
102
RTVSPost2010PropOp54
 70
     1
102
RTVSPost2010Prop55
280
     0
102
RTVSPost2010PropOp55
 70
     1
102
RTVSPost2010Prop56
140
1.0
102
RTVSPost2010PropOp56
 70
     1
102
RTVSPost2010Prop57
140
1.0
102
RTVSPost2010PropOp57
 70
     1
102
RTVSPropertyOp0
 70
     1
102
RTVSPropertyOp1
 70
     1
102
RTVSPropertyOp2
 70
     1
102
RTVSPropertyOp3
 70
     1
102
RTVSPropertyOp4
 70
     1
102
RTVSPropertyOp5
 70
     1
102
RTVSPropertyOp6
 70
     1
102
RTVSPropertyOp7
 70
     1
102
RTVSPropertyOp8
 70
     1
102
RTVSPropertyOp9
 70
     1
102
RTVSPropertyOp10
 70
     1
102
RTVSPropertyOp11
 70
     1
102
RTVSPropertyOp12
 70
     1
102
RTVSPropertyOp13
 70
     1
102
RTVSPropertyOp14
 70
     1
102
RTVSPropertyOp15
 70
     1
102
RTVSPropertyOp16
 70
     1
102
RTVSPropertyOp17
 70
     1
102
RTVSPropertyOp18
 70
     1
102
RTVSPropertyOp19
 70
     1
102
RTVSPropertyOp20
 70
     1
102
RTVSPropertyOp21
 70
     1
102
RTVSPropertyOp22
 70
     1
102
RTVSPropertyOp23
 70
     1
102
RTVSPropertyOp24
 70
     1
102
RTVSPropertyOp25
 70
     1
102
RTVSPropertyOp26
 70
     1
102
RTVSPropertyOp27
 70
     1
102
RTVSPropertyOp28
 70
     1
102
RTVSPropertyOp29
 70
     1
102
RTVSPropertyOp30
 70
     1
102
RTVSPropertyOp31
 70
     1
102
RTVSPropertyOp32
 70
     1
102
RTVSPropertyOp33
 70
     1
102
RTVSPropertyOp34
 70
     1
102
RTVSPropertyOp35
 70
     1
102
RTVSPropertyOp36
 70
     1
102
RTVSPropertyOp37
 70
     1
102
RTVSPropertyOp38
 70
     1
102
RTVSPropertyOp39
 70
     1
102
RTVSPropertyOp40
 70
     1
102
RTVSPropertyOp41
 70
     1
102
RTVSPropertyOp42
 70
     1
102
RTVSPropertyOp43
 70
     1
102
RTVSPropertyOp44
 70
     1
102
RTVSPropertyOp45
 70
     1
102
RTVSPropertyOp46
 70
     1
102
RTVSPropertyOp47
 70
     1
102
RTVSPropertyOp48
 70
     1
102
RTVSPropertyOp49
 70
     1
102
RTVSPropertyOp50
 70
     1
102
RTVSPropertyOp51
 70
     0
102
RTVSPropertyOp52
 70
     0
102
RTVSPropertyOp53
 70
     1
102
RTVSPropertyOp54
 70
     1
102
RTVSPropertyOp55
 70
     1
102
RTVSPropertyOp56
 70
     1
102
RTVSPropertyOp57
 70
     1
102
RTVSPropertyOp58
 70
     1
102
RTVSPropertyOp59
 70
     1
102
RTVSPropertyOp60
 70
     1
102
RTVSPropertyOp61
 70
     1
102
RTVSPropertyOp62
 70
     1
  0
XRECORD
  5
8776
102
{ACAD_REACTORS
330
8775
102
}
330
8775
100
AcDbXrecord
280
     1
102
RTVSPost2010Prop28
280
     0
102
RTVSPost2010PropOp28
 70
     1
102
RTVSPost2010Prop29
280
     1
102
RTVSPost2010PropOp29
 70
     1
102
RTVSPost2010Prop30
280
     1
102
RTVSPost2010PropOp30
 70
     1
102
RTVSPost2010Prop31
280
     0
102
RTVSPost2010PropOp31
 70
     1
102
RTVSPost2010Prop32
280
     0
102
RTVSPost2010PropOp32
 70
     1
102
RTVSPost2010Prop33
280
     0
102
RTVSPost2010PropOp33
 70
     1
102
RTVSPost2010Prop34
280
     0
102
RTVSPost2010PropOp34
 70
     1
102
RTVSPost2010Prop35
280
     0
102
RTVSPost2010PropOp35
 70
     1
102
RTVSPost2010Prop36
280
     0
102
RTVSPost2010PropOp36
 70
     1
102
RTVSPost2010Prop37
 90
       50
102
RTVSPost2010PropOp37
 70
     0
102
RTVSPost2010Prop38
140
0.0
102
RTVSPost2010PropOp38
 70
     0
102
RTVSPost2010Prop39
140
1.0
102
RTVSPost2010PropOp39
 70
     0
102
RTVSPost2010Prop40
 90
        0
102
RTVSPost2010PropOp40
 70
     0
102
RTVSPost2010Prop41ColorIndex
 90
       18
102
RTVSPost2010Prop41ColorRGB
 90
        0
102
RTVSPost2010PropOp41
 70
     0
102
RTVSPost2010Prop42
 90
       50
102
RTVSPost2010PropOp42
 70
     0
102
RTVSPost2010Prop43
 90
        3
102
RTVSPost2010PropOp43
 70
     0
102
RTVSPost2010Prop44ColorIndex
 90
        5
102
RTVSPost2010Prop44ColorRGB
 90
      255
102
RTVSPost2010PropOp44
 70
     0
102
RTVSPost2010Prop45
280
     0
102
RTVSPost2010PropOp45
 70
     1
102
RTVSPost2010Prop46
 90
       50
102
RTVSPost2010PropOp46
 70
     0
102
RTVSPost2010Prop47
 90
       50
102
RTVSPost2010PropOp47
 70
     0
102
RTVSPost2010Prop48
 90
       50
102
RTVSPost2010PropOp48
 70
     0
102
RTVSPost2010Prop49
280
     0
102
RTVSPost2010PropOp49
 70
     1
102
RTVSPost2010Prop50
 90
       50
102
RTVSPost2010PropOp50
 70
     0
102
RTVSPost2010Prop51ColorIndex
 90
      256
102
RTVSPost2010Prop51ColorRGB
 90
-16777216
102
RTVSPost2010PropOp51
 70
     0
102
RTVSPost2010Prop52
140
1.0
102
RTVSPost2010PropOp52
 70
     0
102
RTVSPost2010Prop53
 90
        2
102
RTVSPost2010PropOp53
 70
     0
102
RTVSPost2010Prop54
  1
strokes_ogs.tif
102
RTVSPost2010PropOp54
 70
     0
102
RTVSPost2010Prop55
280
     0
102
RTVSPost2010PropOp55
 70
     1
102
RTVSPost2010Prop56
140
1.0
102
RTVSPost2010PropOp56
 70
     0
102
RTVSPost2010Prop57
140
1.0
102
RTVSPost2010PropOp57
 70
     0
102
RTVSPropertyOp0
 70
     0
102
RTVSPropertyOp1
 70
     0
102
RTVSPropertyOp2
 70
     0
102
RTVSPropertyOp3
 70
     0
102
RTVSPropertyOp4
 70
     0
102
RTVSPropertyOp5
 70
     0
102
RTVSPropertyOp6
 70
     0
102
RTVSPropertyOp7
 70
     0
102
RTVSPropertyOp8
 70
     0
102
RTVSPropertyOp9
 70
     0
102
RTVSPropertyOp10
 70
     0
102
RTVSPropertyOp11
 70
     0
102
RTVSPropertyOp12
 70
     0
102
RTVSPropertyOp13
 70
     0
102
RTVSPropertyOp14
 70
     2
102
RTVSPropertyOp15
 70
     0
102
RTVSPropertyOp16
 70
     0
102
RTVSPropertyOp17
 70
     0
102
RTVSPropertyOp18
 70
     0
102
RTVSPropertyOp19
 70
     0
102
RTVSPropertyOp20
 70
     0
102
RTVSPropertyOp21
 70
     0
102
RTVSPropertyOp22
 70
     0
102
RTVSPropertyOp23
 70
     0
102
RTVSPropertyOp24
 70
     0
102
RTVSPropertyOp25
 70
     0
102
RTVSPropertyOp26
 70
     0
102
RTVSPropertyOp27
 70
     0
102
RTVSPropertyOp28
 70
     1
102
RTVSPropertyOp29
 70
     1
102
RTVSPropertyOp30
 70
     1
102
RTVSPropertyOp31
 70
     1
102
RTVSPropertyOp32
 70
     1
102
RTVSPropertyOp33
 70
     1
102
RTVSPropertyOp34
 70
     1
102
RTVSPropertyOp35
 70
     1
102
RTVSPropertyOp36
 70
     1
102
RTVSPropertyOp37
 70
     0
102
RTVSPropertyOp38
 70
     0
102
RTVSPropertyOp39
 70
     0
102
RTVSPropertyOp40
 70
     0
102
RTVSPropertyOp41
 70
     0
102
RTVSPropertyOp42
 70
     0
102
RTVSPropertyOp43
 70
     0
102
RTVSPropertyOp44
 70
     0
102
RTVSPropertyOp45
 70
     1
102
RTVSPropertyOp46
 70
     0
102
RTVSPropertyOp47
 70
     0
102
RTVSPropertyOp48
 70
     0
102
RTVSPropertyOp49
 70
     1
102
RTVSPropertyOp50
 70
     0
102
RTVSPropertyOp51
 70
     0
102
RTVSPropertyOp52
 70
     0
102
RTVSPropertyOp53
 70
     0
102
RTVSPropertyOp54
 70
     0
102
RTVSPropertyOp55
 70
     1
102
RTVSPropertyOp56
 70
     0
102
RTVSPropertyOp57
 70
     0
102
RTVSPropertyOp58
 70
     0
102
RTVSPropertyOp59
 70
     0
102
RTVSPropertyOp60
 70
     0
102
RTVSPropertyOp61
 70
     0
102
RTVSPropertyOp62
 70
     0
  0
XRECORD
  5
8766
102
{ACAD_REACTORS
330
8765
102
}
330
8765
100
AcDbXrecord
280
     1
102
RTVSPost2010Prop28
280
     0
102
RTVSPost2010PropOp28
 70
     1
102
RTVSPost2010Prop29
280
     1
102
RTVSPost2010PropOp29
 70
     1
102
RTVSPost2010Prop30
280
     1
102
RTVSPost2010PropOp30
 70
     1
102
RTVSPost2010Prop31
280
     0
102
RTVSPost2010PropOp31
 70
     1
102
RTVSPost2010Prop32
280
     0
102
RTVSPost2010PropOp32
 70
     1
102
RTVSPost2010Prop33
280
     0
102
RTVSPost2010PropOp33
 70
     1
102
RTVSPost2010Prop34
280
     0
102
RTVSPost2010PropOp34
 70
     1
102
RTVSPost2010Prop35
280
     0
102
RTVSPost2010PropOp35
 70
     1
102
RTVSPost2010Prop36
280
     0
102
RTVSPost2010PropOp36
 70
     1
102
RTVSPost2010Prop37
 90
       50
102
RTVSPost2010PropOp37
 70
     1
102
RTVSPost2010Prop38
140
0.0
102
RTVSPost2010PropOp38
 70
     1
102
RTVSPost2010Prop39
140
1.0
102
RTVSPost2010PropOp39
 70
     1
102
RTVSPost2010Prop40
 90
        0
102
RTVSPost2010PropOp40
 70
     1
102
RTVSPost2010Prop41ColorIndex
 90
       18
102
RTVSPost2010Prop41ColorRGB
 90
        0
102
RTVSPost2010PropOp41
 70
     1
102
RTVSPost2010Prop42
 90
       50
102
RTVSPost2010PropOp42
 70
     1
102
RTVSPost2010Prop43
 90
        3
102
RTVSPost2010PropOp43
 70
     1
102
RTVSPost2010Prop44ColorIndex
 90
        5
102
RTVSPost2010Prop44ColorRGB
 90
      255
102
RTVSPost2010PropOp44
 70
     1
102
RTVSPost2010Prop45
280
     0
102
RTVSPost2010PropOp45
 70
     1
102
RTVSPost2010Prop46
 90
       50
102
RTVSPost2010PropOp46
 70
     1
102
RTVSPost2010Prop47
 90
       50
102
RTVSPost2010PropOp47
 70
     1
102
RTVSPost2010Prop48
 90
       50
102
RTVSPost2010PropOp48
 70
     1
102
RTVSPost2010Prop49
280
     0
102
RTVSPost2010PropOp49
 70
     1
102
RTVSPost2010Prop50
 90
       50
102
RTVSPost2010PropOp50
 70
     1
102
RTVSPost2010Prop51ColorIndex
 90
      256
102
RTVSPost2010Prop51ColorRGB
 90
-16777216
102
RTVSPost2010PropOp51
 70
     0
102
RTVSPost2010Prop52
140
1.0
102
RTVSPost2010PropOp52
 70
     0
102
RTVSPost2010Prop53
 90
        2
102
RTVSPost2010PropOp53
 70
     1
102
RTVSPost2010Prop54
  1
strokes_ogs.tif
102
RTVSPost2010PropOp54
 70
     1
102
RTVSPost2010Prop55
280
     0
102
RTVSPost2010PropOp55
 70
     1
102
RTVSPost2010Prop56
140
1.0
102
RTVSPost2010PropOp56
 70
     1
102
RTVSPost2010Prop57
140
1.0
102
RTVSPost2010PropOp57
 70
     1
102
RTVSPropertyOp0
 70
     1
102
RTVSPropertyOp1
 70
     1
102
RTVSPropertyOp2
 70
     1
102
RTVSPropertyOp3
 70
     1
102
RTVSPropertyOp4
 70
     1
102
RTVSPropertyOp5
 70
     1
102
RTVSPropertyOp6
 70
     1
102
RTVSPropertyOp7
 70
     1
102
RTVSPropertyOp8
 70
     1
102
RTVSPropertyOp9
 70
     1
102
RTVSPropertyOp10
 70
     1
102
RTVSPropertyOp11
 70
     1
102
RTVSPropertyOp12
 70
     1
102
RTVSPropertyOp13
 70
     1
102
RTVSPropertyOp14
 70
     1
102
RTVSPropertyOp15
 70
     1
102
RTVSPropertyOp16
 70
     1
102
RTVSPropertyOp17
 70
     1
102
RTVSPropertyOp18
 70
     1
102
RTVSPropertyOp19
 70
     1
102
RTVSPropertyOp20
 70
     1
102
RTVSPropertyOp21
 70
     1
102
RTVSPropertyOp22
 70
     1
102
RTVSPropertyOp23
 70
     1
102
RTVSPropertyOp24
 70
     1
102
RTVSPropertyOp25
 70
     1
102
RTVSPropertyOp26
 70
     1
102
RTVSPropertyOp27
 70
     1
102
RTVSPropertyOp28
 70
     1
102
RTVSPropertyOp29
 70
     1
102
RTVSPropertyOp30
 70
     1
102
RTVSPropertyOp31
 70
     1
102
RTVSPropertyOp32
 70
     1
102
RTVSPropertyOp33
 70
     1
102
RTVSPropertyOp34
 70
     1
102
RTVSPropertyOp35
 70
     1
102
RTVSPropertyOp36
 70
     1
102
RTVSPropertyOp37
 70
     1
102
RTVSPropertyOp38
 70
     1
102
RTVSPropertyOp39
 70
     1
102
RTVSPropertyOp40
 70
     1
102
RTVSPropertyOp41
 70
     1
102
RTVSPropertyOp42
 70
     1
102
RTVSPropertyOp43
 70
     1
102
RTVSPropertyOp44
 70
     1
102
RTVSPropertyOp45
 70
     1
102
RTVSPropertyOp46
 70
     1
102
RTVSPropertyOp47
 70
     1
102
RTVSPropertyOp48
 70
     1
102
RTVSPropertyOp49
 70
     1
102
RTVSPropertyOp50
 70
     1
102
RTVSPropertyOp51
 70
     0
102
RTVSPropertyOp52
 70
     0
102
RTVSPropertyOp53
 70
     1
102
RTVSPropertyOp54
 70
     1
102
RTVSPropertyOp55
 70
     1
102
RTVSPropertyOp56
 70
     1
102
RTVSPropertyOp57
 70
     1
102
RTVSPropertyOp58
 70
     1
102
RTVSPropertyOp59
 70
     1
102
RTVSPropertyOp60
 70
     1
102
RTVSPropertyOp61
 70
     1
102
RTVSPropertyOp62
 70
     1
  0
XRECORD
  5
8778
102
{ACAD_REACTORS
330
8777
102
}
330
8777
100
AcDbXrecord
280
     1
102
RTVSPost2010Prop28
280
     0
102
RTVSPost2010PropOp28
 70
     1
102
RTVSPost2010Prop29
280
     1
102
RTVSPost2010PropOp29
 70
     1
102
RTVSPost2010Prop30
280
     1
102
RTVSPost2010PropOp30
 70
     1
102
RTVSPost2010Prop31
280
     0
102
RTVSPost2010PropOp31
 70
     1
102
RTVSPost2010Prop32
280
     0
102
RTVSPost2010PropOp32
 70
     1
102
RTVSPost2010Prop33
280
     0
102
RTVSPost2010PropOp33
 70
     1
102
RTVSPost2010Prop34
280
     0
102
RTVSPost2010PropOp34
 70
     1
102
RTVSPost2010Prop35
280
     0
102
RTVSPost2010PropOp35
 70
     1
102
RTVSPost2010Prop36
280
     0
102
RTVSPost2010PropOp36
 70
     1
102
RTVSPost2010Prop37
 90
       50
102
RTVSPost2010PropOp37
 70
     0
102
RTVSPost2010Prop38
140
0.0
102
RTVSPost2010PropOp38
 70
     0
102
RTVSPost2010Prop39
140
1.0
102
RTVSPost2010PropOp39
 70
     0
102
RTVSPost2010Prop40
 90
        0
102
RTVSPost2010PropOp40
 70
     0
102
RTVSPost2010Prop41ColorIndex
 90
       18
102
RTVSPost2010Prop41ColorRGB
 90
        0
102
RTVSPost2010PropOp41
 70
     0
102
RTVSPost2010Prop42
 90
       50
102
RTVSPost2010PropOp42
 70
     0
102
RTVSPost2010Prop43
 90
        3
102
RTVSPost2010PropOp43
 70
     0
102
RTVSPost2010Prop44ColorIndex
 90
        5
102
RTVSPost2010Prop44ColorRGB
 90
      255
102
RTVSPost2010PropOp44
 70
     0
102
RTVSPost2010Prop45
280
     0
102
RTVSPost2010PropOp45
 70
     1
102
RTVSPost2010Prop46
 90
       50
102
RTVSPost2010PropOp46
 70
     0
102
RTVSPost2010Prop47
 90
       50
102
RTVSPost2010PropOp47
 70
     0
102
RTVSPost2010Prop48
 90
       50
102
RTVSPost2010PropOp48
 70
     0
102
RTVSPost2010Prop49
280
     0
102
RTVSPost2010PropOp49
 70
     1
102
RTVSPost2010Prop50
 90
       50
102
RTVSPost2010PropOp50
 70
     0
102
RTVSPost2010Prop51ColorIndex
 90
      256
102
RTVSPost2010Prop51ColorRGB
 90
-16777216
102
RTVSPost2010PropOp51
 70
     0
102
RTVSPost2010Prop52
140
1.0
102
RTVSPost2010PropOp52
 70
     0
102
RTVSPost2010Prop53
 90
        2
102
RTVSPost2010PropOp53
 70
     0
102
RTVSPost2010Prop54
  1
strokes_ogs.tif
102
RTVSPost2010PropOp54
 70
     0
102
RTVSPost2010Prop55
280
     0
102
RTVSPost2010PropOp55
 70
     1
102
RTVSPost2010Prop56
140
1.0
102
RTVSPost2010PropOp56
 70
     0
102
RTVSPost2010Prop57
140
1.0
102
RTVSPost2010PropOp57
 70
     0
102
RTVSPropertyOp0
 70
     0
102
RTVSPropertyOp1
 70
     0
102
RTVSPropertyOp2
 70
     0
102
RTVSPropertyOp3
 70
     0
102
RTVSPropertyOp4
 70
     0
102
RTVSPropertyOp5
 70
     0
102
RTVSPropertyOp6
 70
     0
102
RTVSPropertyOp7
 70
     0
102
RTVSPropertyOp8
 70
     0
102
RTVSPropertyOp9
 70
     0
102
RTVSPropertyOp10
 70
     0
102
RTVSPropertyOp11
 70
     0
102
RTVSPropertyOp12
 70
     0
102
RTVSPropertyOp13
 70
     0
102
RTVSPropertyOp14
 70
     2
102
RTVSPropertyOp15
 70
     0
102
RTVSPropertyOp16
 70
     0
102
RTVSPropertyOp17
 70
     0
102
RTVSPropertyOp18
 70
     0
102
RTVSPropertyOp19
 70
     0
102
RTVSPropertyOp20
 70
     0
102
RTVSPropertyOp21
 70
     0
102
RTVSPropertyOp22
 70
     0
102
RTVSPropertyOp23
 70
     0
102
RTVSPropertyOp24
 70
     0
102
RTVSPropertyOp25
 70
     0
102
RTVSPropertyOp26
 70
     0
102
RTVSPropertyOp27
 70
     0
102
RTVSPropertyOp28
 70
     1
102
RTVSPropertyOp29
 70
     1
102
RTVSPropertyOp30
 70
     1
102
RTVSPropertyOp31
 70
     1
102
RTVSPropertyOp32
 70
     1
102
RTVSPropertyOp33
 70
     1
102
RTVSPropertyOp34
 70
     1
102
RTVSPropertyOp35
 70
     1
102
RTVSPropertyOp36
 70
     1
102
RTVSPropertyOp37
 70
     0
102
RTVSPropertyOp38
 70
     0
102
RTVSPropertyOp39
 70
     0
102
RTVSPropertyOp40
 70
     0
102
RTVSPropertyOp41
 70
     0
102
RTVSPropertyOp42
 70
     0
102
RTVSPropertyOp43
 70
     0
102
RTVSPropertyOp44
 70
     0
102
RTVSPropertyOp45
 70
     1
102
RTVSPropertyOp46
 70
     0
102
RTVSPropertyOp47
 70
     0
102
RTVSPropertyOp48
 70
     0
102
RTVSPropertyOp49
 70
     1
102
RTVSPropertyOp50
 70
     0
102
RTVSPropertyOp51
 70
     0
102
RTVSPropertyOp52
 70
     0
102
RTVSPropertyOp53
 70
     0
102
RTVSPropertyOp54
 70
     0
102
RTVSPropertyOp55
 70
     1
102
RTVSPropertyOp56
 70
     0
102
RTVSPropertyOp57
 70
     0
102
RTVSPropertyOp58
 70
     0
102
RTVSPropertyOp59
 70
     0
102
RTVSPropertyOp60
 70
     0
102
RTVSPropertyOp61
 70
     0
102
RTVSPropertyOp62
 70
     0
  0
XRECORD
  5
875E
102
{ACAD_REACTORS
330
875D
102
}
330
875D
100
AcDbXrecord
280
     1
102
RTVSPost2010Prop28
280
     0
102
RTVSPost2010PropOp28
 70
     1
102
RTVSPost2010Prop29
280
     1
102
RTVSPost2010PropOp29
 70
     1
102
RTVSPost2010Prop30
280
     1
102
RTVSPost2010PropOp30
 70
     1
102
RTVSPost2010Prop31
280
     0
102
RTVSPost2010PropOp31
 70
     1
102
RTVSPost2010Prop32
280
     0
102
RTVSPost2010PropOp32
 70
     1
102
RTVSPost2010Prop33
280
     0
102
RTVSPost2010PropOp33
 70
     1
102
RTVSPost2010Prop34
280
     0
102
RTVSPost2010PropOp34
 70
     1
102
RTVSPost2010Prop35
280
     0
102
RTVSPost2010PropOp35
 70
     1
102
RTVSPost2010Prop36
280
     0
102
RTVSPost2010PropOp36
 70
     1
102
RTVSPost2010Prop37
 90
       50
102
RTVSPost2010PropOp37
 70
     1
102
RTVSPost2010Prop38
140
0.0
102
RTVSPost2010PropOp38
 70
     1
102
RTVSPost2010Prop39
140
1.0
102
RTVSPost2010PropOp39
 70
     1
102
RTVSPost2010Prop40
 90
        0
102
RTVSPost2010PropOp40
 70
     1
102
RTVSPost2010Prop41ColorIndex
 90
       18
102
RTVSPost2010Prop41ColorRGB
 90
        0
102
RTVSPost2010PropOp41
 70
     1
102
RTVSPost2010Prop42
 90
       50
102
RTVSPost2010PropOp42
 70
     1
102
RTVSPost2010Prop43
 90
        3
102
RTVSPost2010PropOp43
 70
     1
102
RTVSPost2010Prop44ColorIndex
 90
        5
102
RTVSPost2010Prop44ColorRGB
 90
      255
102
RTVSPost2010PropOp44
 70
     1
102
RTVSPost2010Prop45
280
     0
102
RTVSPost2010PropOp45
 70
     1
102
RTVSPost2010Prop46
 90
       50
102
RTVSPost2010PropOp46
 70
     1
102
RTVSPost2010Prop47
 90
       50
102
RTVSPost2010PropOp47
 70
     1
102
RTVSPost2010Prop48
 90
       50
102
RTVSPost2010PropOp48
 70
     1
102
RTVSPost2010Prop49
280
     0
102
RTVSPost2010PropOp49
 70
     1
102
RTVSPost2010Prop50
 90
       50
102
RTVSPost2010PropOp50
 70
     1
102
RTVSPost2010Prop51ColorIndex
 90
      256
102
RTVSPost2010Prop51ColorRGB
 90
-16777216
102
RTVSPost2010PropOp51
 70
     0
102
RTVSPost2010Prop52
140
1.0
102
RTVSPost2010PropOp52
 70
     0
102
RTVSPost2010Prop53
 90
        2
102
RTVSPost2010PropOp53
 70
     1
102
RTVSPost2010Prop54
  1
strokes_ogs.tif
102
RTVSPost2010PropOp54
 70
     1
102
RTVSPost2010Prop55
280
     0
102
RTVSPost2010PropOp55
 70
     1
102
RTVSPost2010Prop56
140
1.0
102
RTVSPost2010PropOp56
 70
     1
102
RTVSPost2010Prop57
140
1.0
102
RTVSPost2010PropOp57
 70
     1
102
RTVSPropertyOp0
 70
     1
102
RTVSPropertyOp1
 70
     1
102
RTVSPropertyOp2
 70
     1
102
RTVSPropertyOp3
 70
     1
102
RTVSPropertyOp4
 70
     1
102
RTVSPropertyOp5
 70
     1
102
RTVSPropertyOp6
 70
     1
102
RTVSPropertyOp7
 70
     1
102
RTVSPropertyOp8
 70
     1
102
RTVSPropertyOp9
 70
     1
102
RTVSPropertyOp10
 70
     1
102
RTVSPropertyOp11
 70
     1
102
RTVSPropertyOp12
 70
     1
102
RTVSPropertyOp13
 70
     1
102
RTVSPropertyOp14
 70
     1
102
RTVSPropertyOp15
 70
     1
102
RTVSPropertyOp16
 70
     1
102
RTVSPropertyOp17
 70
     1
102
RTVSPropertyOp18
 70
     1
102
RTVSPropertyOp19
 70
     1
102
RTVSPropertyOp20
 70
     1
102
RTVSPropertyOp21
 70
     1
102
RTVSPropertyOp22
 70
     1
102
RTVSPropertyOp23
 70
     1
102
RTVSPropertyOp24
 70
     1
102
RTVSPropertyOp25
 70
     1
102
RTVSPropertyOp26
 70
     1
102
RTVSPropertyOp27
 70
     1
102
RTVSPropertyOp28
 70
     1
102
RTVSPropertyOp29
 70
     1
102
RTVSPropertyOp30
 70
     1
102
RTVSPropertyOp31
 70
     1
102
RTVSPropertyOp32
 70
     1
102
RTVSPropertyOp33
 70
     1
102
RTVSPropertyOp34
 70
     1
102
RTVSPropertyOp35
 70
     1
102
RTVSPropertyOp36
 70
     1
102
RTVSPropertyOp37
 70
     1
102
RTVSPropertyOp38
 70
     1
102
RTVSPropertyOp39
 70
     1
102
RTVSPropertyOp40
 70
     1
102
RTVSPropertyOp41
 70
     1
102
RTVSPropertyOp42
 70
     1
102
RTVSPropertyOp43
 70
     1
102
RTVSPropertyOp44
 70
     1
102
RTVSPropertyOp45
 70
     1
102
RTVSPropertyOp46
 70
     1
102
RTVSPropertyOp47
 70
     1
102
RTVSPropertyOp48
 70
     1
102
RTVSPropertyOp49
 70
     1
102
RTVSPropertyOp50
 70
     1
102
RTVSPropertyOp51
 70
     0
102
RTVSPropertyOp52
 70
     0
102
RTVSPropertyOp53
 70
     1
102
RTVSPropertyOp54
 70
     1
102
RTVSPropertyOp55
 70
     1
102
RTVSPropertyOp56
 70
     1
102
RTVSPropertyOp57
 70
     1
102
RTVSPropertyOp58
 70
     1
102
RTVSPropertyOp59
 70
     1
102
RTVSPropertyOp60
 70
     1
102
RTVSPropertyOp61
 70
     1
102
RTVSPropertyOp62
 70
     1
  0
XRECORD
  5
8774
102
{ACAD_REACTORS
330
8773
102
}
330
8773
100
AcDbXrecord
280
     1
102
RTVSPost2010Prop28
280
     0
102
RTVSPost2010PropOp28
 70
     1
102
RTVSPost2010Prop29
280
     1
102
RTVSPost2010PropOp29
 70
     1
102
RTVSPost2010Prop30
280
     1
102
RTVSPost2010PropOp30
 70
     1
102
RTVSPost2010Prop31
280
     0
102
RTVSPost2010PropOp31
 70
     1
102
RTVSPost2010Prop32
280
     0
102
RTVSPost2010PropOp32
 70
     1
102
RTVSPost2010Prop33
280
     0
102
RTVSPost2010PropOp33
 70
     1
102
RTVSPost2010Prop34
280
     0
102
RTVSPost2010PropOp34
 70
     1
102
RTVSPost2010Prop35
280
     0
102
RTVSPost2010PropOp35
 70
     1
102
RTVSPost2010Prop36
280
     0
102
RTVSPost2010PropOp36
 70
     1
102
RTVSPost2010Prop37
 90
       50
102
RTVSPost2010PropOp37
 70
     1
102
RTVSPost2010Prop38
140
0.0
102
RTVSPost2010PropOp38
 70
     1
102
RTVSPost2010Prop39
140
1.0
102
RTVSPost2010PropOp39
 70
     1
102
RTVSPost2010Prop40
 90
        0
102
RTVSPost2010PropOp40
 70
     1
102
RTVSPost2010Prop41ColorIndex
 90
       18
102
RTVSPost2010Prop41ColorRGB
 90
        0
102
RTVSPost2010PropOp41
 70
     1
102
RTVSPost2010Prop42
 90
       50
102
RTVSPost2010PropOp42
 70
     1
102
RTVSPost2010Prop43
 90
        3
102
RTVSPost2010PropOp43
 70
     1
102
RTVSPost2010Prop44ColorIndex
 90
        5
102
RTVSPost2010Prop44ColorRGB
 90
      255
102
RTVSPost2010PropOp44
 70
     1
102
RTVSPost2010Prop45
280
     0
102
RTVSPost2010PropOp45
 70
     1
102
RTVSPost2010Prop46
 90
       50
102
RTVSPost2010PropOp46
 70
     1
102
RTVSPost2010Prop47
 90
       50
102
RTVSPost2010PropOp47
 70
     1
102
RTVSPost2010Prop48
 90
       50
102
RTVSPost2010PropOp48
 70
     1
102
RTVSPost2010Prop49
280
     0
102
RTVSPost2010PropOp49
 70
     1
102
RTVSPost2010Prop50
 90
       50
102
RTVSPost2010PropOp50
 70
     1
102
RTVSPost2010Prop51ColorIndex
 90
      256
102
RTVSPost2010Prop51ColorRGB
 90
-16777216
102
RTVSPost2010PropOp51
 70
     0
102
RTVSPost2010Prop52
140
1.0
102
RTVSPost2010PropOp52
 70
     0
102
RTVSPost2010Prop53
 90
        2
102
RTVSPost2010PropOp53
 70
     1
102
RTVSPost2010Prop54
  1
strokes_ogs.tif
102
RTVSPost2010PropOp54
 70
     1
102
RTVSPost2010Prop55
280
     0
102
RTVSPost2010PropOp55
 70
     1
102
RTVSPost2010Prop56
140
1.0
102
RTVSPost2010PropOp56
 70
     1
102
RTVSPost2010Prop57
140
1.0
102
RTVSPost2010PropOp57
 70
     1
102
RTVSPropertyOp0
 70
     1
102
RTVSPropertyOp1
 70
     1
102
RTVSPropertyOp2
 70
     1
102
RTVSPropertyOp3
 70
     1
102
RTVSPropertyOp4
 70
     1
102
RTVSPropertyOp5
 70
     1
102
RTVSPropertyOp6
 70
     1
102
RTVSPropertyOp7
 70
     1
102
RTVSPropertyOp8
 70
     1
102
RTVSPropertyOp9
 70
     1
102
RTVSPropertyOp10
 70
     1
102
RTVSPropertyOp11
 70
     1
102
RTVSPropertyOp12
 70
     1
102
RTVSPropertyOp13
 70
     1
102
RTVSPropertyOp14
 70
     1
102
RTVSPropertyOp15
 70
     1
102
RTVSPropertyOp16
 70
     1
102
RTVSPropertyOp17
 70
     1
102
RTVSPropertyOp18
 70
     1
102
RTVSPropertyOp19
 70
     1
102
RTVSPropertyOp20
 70
     1
102
RTVSPropertyOp21
 70
     1
102
RTVSPropertyOp22
 70
     1
102
RTVSPropertyOp23
 70
     1
102
RTVSPropertyOp24
 70
     1
102
RTVSPropertyOp25
 70
     1
102
RTVSPropertyOp26
 70
     1
102
RTVSPropertyOp27
 70
     1
102
RTVSPropertyOp28
 70
     1
102
RTVSPropertyOp29
 70
     1
102
RTVSPropertyOp30
 70
     1
102
RTVSPropertyOp31
 70
     1
102
RTVSPropertyOp32
 70
     1
102
RTVSPropertyOp33
 70
     1
102
RTVSPropertyOp34
 70
     1
102
RTVSPropertyOp35
 70
     1
102
RTVSPropertyOp36
 70
     1
102
RTVSPropertyOp37
 70
     1
102
RTVSPropertyOp38
 70
     1
102
RTVSPropertyOp39
 70
     1
102
RTVSPropertyOp40
 70
     1
102
RTVSPropertyOp41
 70
     1
102
RTVSPropertyOp42
 70
     1
102
RTVSPropertyOp43
 70
     1
102
RTVSPropertyOp44
 70
     1
102
RTVSPropertyOp45
 70
     1
102
RTVSPropertyOp46
 70
     1
102
RTVSPropertyOp47
 70
     1
102
RTVSPropertyOp48
 70
     1
102
RTVSPropertyOp49
 70
     1
102
RTVSPropertyOp50
 70
     1
102
RTVSPropertyOp51
 70
     0
102
RTVSPropertyOp52
 70
     0
102
RTVSPropertyOp53
 70
     1
102
RTVSPropertyOp54
 70
     1
102
RTVSPropertyOp55
 70
     1
102
RTVSPropertyOp56
 70
     1
102
RTVSPropertyOp57
 70
     1
102
RTVSPropertyOp58
 70
     1
102
RTVSPropertyOp59
 70
     1
102
RTVSPropertyOp60
 70
     1
102
RTVSPropertyOp61
 70
     1
102
RTVSPropertyOp62
 70
     1
  0
XRECORD
  5
8772
102
{ACAD_REACTORS
330
8771
102
}
330
8771
100
AcDbXrecord
280
     1
102
RTVSPost2010Prop28
280
     0
102
RTVSPost2010PropOp28
 70
     1
102
RTVSPost2010Prop29
280
     1
102
RTVSPost2010PropOp29
 70
     1
102
RTVSPost2010Prop30
280
     1
102
RTVSPost2010PropOp30
 70
     1
102
RTVSPost2010Prop31
280
     0
102
RTVSPost2010PropOp31
 70
     1
102
RTVSPost2010Prop32
280
     0
102
RTVSPost2010PropOp32
 70
     1
102
RTVSPost2010Prop33
280
     0
102
RTVSPost2010PropOp33
 70
     1
102
RTVSPost2010Prop34
280
     0
102
RTVSPost2010PropOp34
 70
     1
102
RTVSPost2010Prop35
280
     0
102
RTVSPost2010PropOp35
 70
     1
102
RTVSPost2010Prop36
280
     0
102
RTVSPost2010PropOp36
 70
     1
102
RTVSPost2010Prop37
 90
       50
102
RTVSPost2010PropOp37
 70
     1
102
RTVSPost2010Prop38
140
0.0
102
RTVSPost2010PropOp38
 70
     1
102
RTVSPost2010Prop39
140
1.0
102
RTVSPost2010PropOp39
 70
     1
102
RTVSPost2010Prop40
 90
        0
102
RTVSPost2010PropOp40
 70
     1
102
RTVSPost2010Prop41ColorIndex
 90
       18
102
RTVSPost2010Prop41ColorRGB
 90
        0
102
RTVSPost2010PropOp41
 70
     1
102
RTVSPost2010Prop42
 90
       50
102
RTVSPost2010PropOp42
 70
     1
102
RTVSPost2010Prop43
 90
        3
102
RTVSPost2010PropOp43
 70
     1
102
RTVSPost2010Prop44ColorIndex
 90
        5
102
RTVSPost2010Prop44ColorRGB
 90
      255
102
RTVSPost2010PropOp44
 70
     1
102
RTVSPost2010Prop45
280
     0
102
RTVSPost2010PropOp45
 70
     1
102
RTVSPost2010Prop46
 90
       50
102
RTVSPost2010PropOp46
 70
     1
102
RTVSPost2010Prop47
 90
       50
102
RTVSPost2010PropOp47
 70
     1
102
RTVSPost2010Prop48
 90
       50
102
RTVSPost2010PropOp48
 70
     1
102
RTVSPost2010Prop49
280
     0
102
RTVSPost2010PropOp49
 70
     1
102
RTVSPost2010Prop50
 90
       50
102
RTVSPost2010PropOp50
 70
     1
102
RTVSPost2010Prop51ColorIndex
 90
      256
102
RTVSPost2010Prop51ColorRGB
 90
-16777216
102
RTVSPost2010PropOp51
 70
     0
102
RTVSPost2010Prop52
140
1.0
102
RTVSPost2010PropOp52
 70
     0
102
RTVSPost2010Prop53
 90
        2
102
RTVSPost2010PropOp53
 70
     1
102
RTVSPost2010Prop54
  1
strokes_ogs.tif
102
RTVSPost2010PropOp54
 70
     1
102
RTVSPost2010Prop55
280
     0
102
RTVSPost2010PropOp55
 70
     1
102
RTVSPost2010Prop56
140
1.0
102
RTVSPost2010PropOp56
 70
     1
102
RTVSPost2010Prop57
140
1.0
102
RTVSPost2010PropOp57
 70
     1
102
RTVSPropertyOp0
 70
     1
102
RTVSPropertyOp1
 70
     1
102
RTVSPropertyOp2
 70
     1
102
RTVSPropertyOp3
 70
     1
102
RTVSPropertyOp4
 70
     1
102
RTVSPropertyOp5
 70
     1
102
RTVSPropertyOp6
 70
     1
102
RTVSPropertyOp7
 70
     1
102
RTVSPropertyOp8
 70
     1
102
RTVSPropertyOp9
 70
     1
102
RTVSPropertyOp10
 70
     1
102
RTVSPropertyOp11
 70
     1
102
RTVSPropertyOp12
 70
     1
102
RTVSPropertyOp13
 70
     1
102
RTVSPropertyOp14
 70
     1
102
RTVSPropertyOp15
 70
     1
102
RTVSPropertyOp16
 70
     1
102
RTVSPropertyOp17
 70
     1
102
RTVSPropertyOp18
 70
     1
102
RTVSPropertyOp19
 70
     1
102
RTVSPropertyOp20
 70
     1
102
RTVSPropertyOp21
 70
     1
102
RTVSPropertyOp22
 70
     1
102
RTVSPropertyOp23
 70
     1
102
RTVSPropertyOp24
 70
     1
102
RTVSPropertyOp25
 70
     1
102
RTVSPropertyOp26
 70
     1
102
RTVSPropertyOp27
 70
     1
102
RTVSPropertyOp28
 70
     1
102
RTVSPropertyOp29
 70
     1
102
RTVSPropertyOp30
 70
     1
102
RTVSPropertyOp31
 70
     1
102
RTVSPropertyOp32
 70
     1
102
RTVSPropertyOp33
 70
     1
102
RTVSPropertyOp34
 70
     1
102
RTVSPropertyOp35
 70
     1
102
RTVSPropertyOp36
 70
     1
102
RTVSPropertyOp37
 70
     1
102
RTVSPropertyOp38
 70
     1
102
RTVSPropertyOp39
 70
     1
102
RTVSPropertyOp40
 70
     1
102
RTVSPropertyOp41
 70
     1
102
RTVSPropertyOp42
 70
     1
102
RTVSPropertyOp43
 70
     1
102
RTVSPropertyOp44
 70
     1
102
RTVSPropertyOp45
 70
     1
102
RTVSPropertyOp46
 70
     1
102
RTVSPropertyOp47
 70
     1
102
RTVSPropertyOp48
 70
     1
102
RTVSPropertyOp49
 70
     1
102
RTVSPropertyOp50
 70
     1
102
RTVSPropertyOp51
 70
     0
102
RTVSPropertyOp52
 70
     0
102
RTVSPropertyOp53
 70
     1
102
RTVSPropertyOp54
 70
     1
102
RTVSPropertyOp55
 70
     1
102
RTVSPropertyOp56
 70
     1
102
RTVSPropertyOp57
 70
     1
102
RTVSPropertyOp58
 70
     1
102
RTVSPropertyOp59
 70
     1
102
RTVSPropertyOp60
 70
     1
102
RTVSPropertyOp61
 70
     1
102
RTVSPropertyOp62
 70
     1
  0
XRECORD
  5
876C
102
{ACAD_REACTORS
330
876B
102
}
330
876B
100
AcDbXrecord
280
     1
102
RTVSPost2010Prop28
280
     0
102
RTVSPost2010PropOp28
 70
     1
102
RTVSPost2010Prop29
280
     1
102
RTVSPost2010PropOp29
 70
     1
102
RTVSPost2010Prop30
280
     1
102
RTVSPost2010PropOp30
 70
     1
102
RTVSPost2010Prop31
280
     0
102
RTVSPost2010PropOp31
 70
     1
102
RTVSPost2010Prop32
280
     0
102
RTVSPost2010PropOp32
 70
     1
102
RTVSPost2010Prop33
280
     0
102
RTVSPost2010PropOp33
 70
     1
102
RTVSPost2010Prop34
280
     0
102
RTVSPost2010PropOp34
 70
     1
102
RTVSPost2010Prop35
280
     0
102
RTVSPost2010PropOp35
 70
     1
102
RTVSPost2010Prop36
280
     0
102
RTVSPost2010PropOp36
 70
     1
102
RTVSPost2010Prop37
 90
       50
102
RTVSPost2010PropOp37
 70
     1
102
RTVSPost2010Prop38
140
0.0
102
RTVSPost2010PropOp38
 70
     1
102
RTVSPost2010Prop39
140
1.0
102
RTVSPost2010PropOp39
 70
     1
102
RTVSPost2010Prop40
 90
        0
102
RTVSPost2010PropOp40
 70
     1
102
RTVSPost2010Prop41ColorIndex
 90
       18
102
RTVSPost2010Prop41ColorRGB
 90
        0
102
RTVSPost2010PropOp41
 70
     1
102
RTVSPost2010Prop42
 90
       50
102
RTVSPost2010PropOp42
 70
     1
102
RTVSPost2010Prop43
 90
        3
102
RTVSPost2010PropOp43
 70
     1
102
RTVSPost2010Prop44ColorIndex
 90
        5
102
RTVSPost2010Prop44ColorRGB
 90
      255
102
RTVSPost2010PropOp44
 70
     1
102
RTVSPost2010Prop45
280
     0
102
RTVSPost2010PropOp45
 70
     1
102
RTVSPost2010Prop46
 90
       50
102
RTVSPost2010PropOp46
 70
     1
102
RTVSPost2010Prop47
 90
       50
102
RTVSPost2010PropOp47
 70
     1
102
RTVSPost2010Prop48
 90
       50
102
RTVSPost2010PropOp48
 70
     1
102
RTVSPost2010Prop49
280
     0
102
RTVSPost2010PropOp49
 70
     1
102
RTVSPost2010Prop50
 90
       50
102
RTVSPost2010PropOp50
 70
     1
102
RTVSPost2010Prop51ColorIndex
 90
      256
102
RTVSPost2010Prop51ColorRGB
 90
-16777216
102
RTVSPost2010PropOp51
 70
     0
102
RTVSPost2010Prop52
140
1.0
102
RTVSPost2010PropOp52
 70
     0
102
RTVSPost2010Prop53
 90
        2
102
RTVSPost2010PropOp53
 70
     1
102
RTVSPost2010Prop54
  1
strokes_ogs.tif
102
RTVSPost2010PropOp54
 70
     1
102
RTVSPost2010Prop55
280
     0
102
RTVSPost2010PropOp55
 70
     1
102
RTVSPost2010Prop56
140
1.0
102
RTVSPost2010PropOp56
 70
     1
102
RTVSPost2010Prop57
140
1.0
102
RTVSPost2010PropOp57
 70
     1
102
RTVSPropertyOp0
 70
     1
102
RTVSPropertyOp1
 70
     1
102
RTVSPropertyOp2
 70
     1
102
RTVSPropertyOp3
 70
     1
102
RTVSPropertyOp4
 70
     1
102
RTVSPropertyOp5
 70
     1
102
RTVSPropertyOp6
 70
     1
102
RTVSPropertyOp7
 70
     1
102
RTVSPropertyOp8
 70
     1
102
RTVSPropertyOp9
 70
     1
102
RTVSPropertyOp10
 70
     1
102
RTVSPropertyOp11
 70
     1
102
RTVSPropertyOp12
 70
     1
102
RTVSPropertyOp13
 70
     1
102
RTVSPropertyOp14
 70
     1
102
RTVSPropertyOp15
 70
     1
102
RTVSPropertyOp16
 70
     1
102
RTVSPropertyOp17
 70
     1
102
RTVSPropertyOp18
 70
     1
102
RTVSPropertyOp19
 70
     1
102
RTVSPropertyOp20
 70
     1
102
RTVSPropertyOp21
 70
     1
102
RTVSPropertyOp22
 70
     1
102
RTVSPropertyOp23
 70
     1
102
RTVSPropertyOp24
 70
     1
102
RTVSPropertyOp25
 70
     1
102
RTVSPropertyOp26
 70
     1
102
RTVSPropertyOp27
 70
     1
102
RTVSPropertyOp28
 70
     1
102
RTVSPropertyOp29
 70
     1
102
RTVSPropertyOp30
 70
     1
102
RTVSPropertyOp31
 70
     1
102
RTVSPropertyOp32
 70
     1
102
RTVSPropertyOp33
 70
     1
102
RTVSPropertyOp34
 70
     1
102
RTVSPropertyOp35
 70
     1
102
RTVSPropertyOp36
 70
     1
102
RTVSPropertyOp37
 70
     1
102
RTVSPropertyOp38
 70
     1
102
RTVSPropertyOp39
 70
     1
102
RTVSPropertyOp40
 70
     1
102
RTVSPropertyOp41
 70
     1
102
RTVSPropertyOp42
 70
     1
102
RTVSPropertyOp43
 70
     1
102
RTVSPropertyOp44
 70
     1
102
RTVSPropertyOp45
 70
     1
102
RTVSPropertyOp46
 70
     1
102
RTVSPropertyOp47
 70
     1
102
RTVSPropertyOp48
 70
     1
102
RTVSPropertyOp49
 70
     1
102
RTVSPropertyOp50
 70
     1
102
RTVSPropertyOp51
 70
     0
102
RTVSPropertyOp52
 70
     0
102
RTVSPropertyOp53
 70
     1
102
RTVSPropertyOp54
 70
     1
102
RTVSPropertyOp55
 70
     1
102
RTVSPropertyOp56
 70
     1
102
RTVSPropertyOp57
 70
     1
102
RTVSPropertyOp58
 70
     1
102
RTVSPropertyOp59
 70
     1
102
RTVSPropertyOp60
 70
     1
102
RTVSPropertyOp61
 70
     1
102
RTVSPropertyOp62
 70
     1
  0
XRECORD
  5
876E
102
{ACAD_REACTORS
330
876D
102
}
330
876D
100
AcDbXrecord
280
     1
102
RTVSPost2010Prop28
280
     0
102
RTVSPost2010PropOp28
 70
     1
102
RTVSPost2010Prop29
280
     1
102
RTVSPost2010PropOp29
 70
     1
102
RTVSPost2010Prop30
280
     1
102
RTVSPost2010PropOp30
 70
     1
102
RTVSPost2010Prop31
280
     0
102
RTVSPost2010PropOp31
 70
     1
102
RTVSPost2010Prop32
280
     0
102
RTVSPost2010PropOp32
 70
     1
102
RTVSPost2010Prop33
280
     0
102
RTVSPost2010PropOp33
 70
     1
102
RTVSPost2010Prop34
280
     0
102
RTVSPost2010PropOp34
 70
     1
102
RTVSPost2010Prop35
280
     0
102
RTVSPost2010PropOp35
 70
     1
102
RTVSPost2010Prop36
280
     0
102
RTVSPost2010PropOp36
 70
     1
102
RTVSPost2010Prop37
 90
       50
102
RTVSPost2010PropOp37
 70
     1
102
RTVSPost2010Prop38
140
0.0
102
RTVSPost2010PropOp38
 70
     1
102
RTVSPost2010Prop39
140
1.0
102
RTVSPost2010PropOp39
 70
     1
102
RTVSPost2010Prop40
 90
        0
102
RTVSPost2010PropOp40
 70
     1
102
RTVSPost2010Prop41ColorIndex
 90
       18
102
RTVSPost2010Prop41ColorRGB
 90
        0
102
RTVSPost2010PropOp41
 70
     1
102
RTVSPost2010Prop42
 90
       50
102
RTVSPost2010PropOp42
 70
     1
102
RTVSPost2010Prop43
 90
        3
102
RTVSPost2010PropOp43
 70
     1
102
RTVSPost2010Prop44ColorIndex
 90
        5
102
RTVSPost2010Prop44ColorRGB
 90
      255
102
RTVSPost2010PropOp44
 70
     1
102
RTVSPost2010Prop45
280
     0
102
RTVSPost2010PropOp45
 70
     1
102
RTVSPost2010Prop46
 90
       50
102
RTVSPost2010PropOp46
 70
     1
102
RTVSPost2010Prop47
 90
       50
102
RTVSPost2010PropOp47
 70
     1
102
RTVSPost2010Prop48
 90
       50
102
RTVSPost2010PropOp48
 70
     1
102
RTVSPost2010Prop49
280
     0
102
RTVSPost2010PropOp49
 70
     1
102
RTVSPost2010Prop50
 90
       50
102
RTVSPost2010PropOp50
 70
     1
102
RTVSPost2010Prop51ColorIndex
 90
      256
102
RTVSPost2010Prop51ColorRGB
 90
-16777216
102
RTVSPost2010PropOp51
 70
     0
102
RTVSPost2010Prop52
140
1.0
102
RTVSPost2010PropOp52
 70
     0
102
RTVSPost2010Prop53
 90
        2
102
RTVSPost2010PropOp53
 70
     1
102
RTVSPost2010Prop54
  1
strokes_ogs.tif
102
RTVSPost2010PropOp54
 70
     1
102
RTVSPost2010Prop55
280
     0
102
RTVSPost2010PropOp55
 70
     1
102
RTVSPost2010Prop56
140
1.0
102
RTVSPost2010PropOp56
 70
     1
102
RTVSPost2010Prop57
140
1.0
102
RTVSPost2010PropOp57
 70
     1
102
RTVSPropertyOp0
 70
     1
102
RTVSPropertyOp1
 70
     1
102
RTVSPropertyOp2
 70
     1
102
RTVSPropertyOp3
 70
     1
102
RTVSPropertyOp4
 70
     1
102
RTVSPropertyOp5
 70
     1
102
RTVSPropertyOp6
 70
     1
102
RTVSPropertyOp7
 70
     1
102
RTVSPropertyOp8
 70
     1
102
RTVSPropertyOp9
 70
     1
102
RTVSPropertyOp10
 70
     1
102
RTVSPropertyOp11
 70
     1
102
RTVSPropertyOp12
 70
     1
102
RTVSPropertyOp13
 70
     1
102
RTVSPropertyOp14
 70
     1
102
RTVSPropertyOp15
 70
     1
102
RTVSPropertyOp16
 70
     1
102
RTVSPropertyOp17
 70
     1
102
RTVSPropertyOp18
 70
     1
102
RTVSPropertyOp19
 70
     1
102
RTVSPropertyOp20
 70
     1
102
RTVSPropertyOp21
 70
     1
102
RTVSPropertyOp22
 70
     1
102
RTVSPropertyOp23
 70
     1
102
RTVSPropertyOp24
 70
     1
102
RTVSPropertyOp25
 70
     1
102
RTVSPropertyOp26
 70
     1
102
RTVSPropertyOp27
 70
     1
102
RTVSPropertyOp28
 70
     1
102
RTVSPropertyOp29
 70
     1
102
RTVSPropertyOp30
 70
     1
102
RTVSPropertyOp31
 70
     1
102
RTVSPropertyOp32
 70
     1
102
RTVSPropertyOp33
 70
     1
102
RTVSPropertyOp34
 70
     1
102
RTVSPropertyOp35
 70
     1
102
RTVSPropertyOp36
 70
     1
102
RTVSPropertyOp37
 70
     1
102
RTVSPropertyOp38
 70
     1
102
RTVSPropertyOp39
 70
     1
102
RTVSPropertyOp40
 70
     1
102
RTVSPropertyOp41
 70
     1
102
RTVSPropertyOp42
 70
     1
102
RTVSPropertyOp43
 70
     1
102
RTVSPropertyOp44
 70
     1
102
RTVSPropertyOp45
 70
     1
102
RTVSPropertyOp46
 70
     1
102
RTVSPropertyOp47
 70
     1
102
RTVSPropertyOp48
 70
     1
102
RTVSPropertyOp49
 70
     1
102
RTVSPropertyOp50
 70
     1
102
RTVSPropertyOp51
 70
     0
102
RTVSPropertyOp52
 70
     0
102
RTVSPropertyOp53
 70
     1
102
RTVSPropertyOp54
 70
     1
102
RTVSPropertyOp55
 70
     1
102
RTVSPropertyOp56
 70
     1
102
RTVSPropertyOp57
 70
     1
102
RTVSPropertyOp58
 70
     1
102
RTVSPropertyOp59
 70
     1
102
RTVSPropertyOp60
 70
     1
102
RTVSPropertyOp61
 70
     1
102
RTVSPropertyOp62
 70
     1
  0
XRECORD
  5
8764
102
{ACAD_REACTORS
330
8763
102
}
330
8763
100
AcDbXrecord
280
     1
102
RTVSPost2010Prop28
280
     0
102
RTVSPost2010PropOp28
 70
     1
102
RTVSPost2010Prop29
280
     1
102
RTVSPost2010PropOp29
 70
     1
102
RTVSPost2010Prop30
280
     1
102
RTVSPost2010PropOp30
 70
     1
102
RTVSPost2010Prop31
280
     0
102
RTVSPost2010PropOp31
 70
     1
102
RTVSPost2010Prop32
280
     0
102
RTVSPost2010PropOp32
 70
     1
102
RTVSPost2010Prop33
280
     0
102
RTVSPost2010PropOp33
 70
     1
102
RTVSPost2010Prop34
280
     0
102
RTVSPost2010PropOp34
 70
     1
102
RTVSPost2010Prop35
280
     0
102
RTVSPost2010PropOp35
 70
     1
102
RTVSPost2010Prop36
280
     0
102
RTVSPost2010PropOp36
 70
     1
102
RTVSPost2010Prop37
 90
       50
102
RTVSPost2010PropOp37
 70
     1
102
RTVSPost2010Prop38
140
0.0
102
RTVSPost2010PropOp38
 70
     1
102
RTVSPost2010Prop39
140
1.0
102
RTVSPost2010PropOp39
 70
     1
102
RTVSPost2010Prop40
 90
        0
102
RTVSPost2010PropOp40
 70
     1
102
RTVSPost2010Prop41ColorIndex
 90
       18
102
RTVSPost2010Prop41ColorRGB
 90
        0
102
RTVSPost2010PropOp41
 70
     1
102
RTVSPost2010Prop42
 90
       50
102
RTVSPost2010PropOp42
 70
     1
102
RTVSPost2010Prop43
 90
        3
102
RTVSPost2010PropOp43
 70
     1
102
RTVSPost2010Prop44ColorIndex
 90
        5
102
RTVSPost2010Prop44ColorRGB
 90
      255
102
RTVSPost2010PropOp44
 70
     1
102
RTVSPost2010Prop45
280
     0
102
RTVSPost2010PropOp45
 70
     1
102
RTVSPost2010Prop46
 90
       50
102
RTVSPost2010PropOp46
 70
     1
102
RTVSPost2010Prop47
 90
       50
102
RTVSPost2010PropOp47
 70
     1
102
RTVSPost2010Prop48
 90
       50
102
RTVSPost2010PropOp48
 70
     1
102
RTVSPost2010Prop49
280
     0
102
RTVSPost2010PropOp49
 70
     1
102
RTVSPost2010Prop50
 90
       50
102
RTVSPost2010PropOp50
 70
     1
102
RTVSPost2010Prop51ColorIndex
 90
      256
102
RTVSPost2010Prop51ColorRGB
 90
-16777216
102
RTVSPost2010PropOp51
 70
     0
102
RTVSPost2010Prop52
140
1.0
102
RTVSPost2010PropOp52
 70
     0
102
RTVSPost2010Prop53
 90
        2
102
RTVSPost2010PropOp53
 70
     1
102
RTVSPost2010Prop54
  1
strokes_ogs.tif
102
RTVSPost2010PropOp54
 70
     1
102
RTVSPost2010Prop55
280
     0
102
RTVSPost2010PropOp55
 70
     1
102
RTVSPost2010Prop56
140
1.0
102
RTVSPost2010PropOp56
 70
     1
102
RTVSPost2010Prop57
140
1.0
102
RTVSPost2010PropOp57
 70
     1
102
RTVSPropertyOp0
 70
     1
102
RTVSPropertyOp1
 70
     1
102
RTVSPropertyOp2
 70
     1
102
RTVSPropertyOp3
 70
     1
102
RTVSPropertyOp4
 70
     1
102
RTVSPropertyOp5
 70
     1
102
RTVSPropertyOp6
 70
     1
102
RTVSPropertyOp7
 70
     1
102
RTVSPropertyOp8
 70
     1
102
RTVSPropertyOp9
 70
     1
102
RTVSPropertyOp10
 70
     1
102
RTVSPropertyOp11
 70
     1
102
RTVSPropertyOp12
 70
     1
102
RTVSPropertyOp13
 70
     1
102
RTVSPropertyOp14
 70
     1
102
RTVSPropertyOp15
 70
     1
102
RTVSPropertyOp16
 70
     1
102
RTVSPropertyOp17
 70
     1
102
RTVSPropertyOp18
 70
     1
102
RTVSPropertyOp19
 70
     1
102
RTVSPropertyOp20
 70
     1
102
RTVSPropertyOp21
 70
     1
102
RTVSPropertyOp22
 70
     1
102
RTVSPropertyOp23
 70
     1
102
RTVSPropertyOp24
 70
     1
102
RTVSPropertyOp25
 70
     1
102
RTVSPropertyOp26
 70
     1
102
RTVSPropertyOp27
 70
     1
102
RTVSPropertyOp28
 70
     1
102
RTVSPropertyOp29
 70
     1
102
RTVSPropertyOp30
 70
     1
102
RTVSPropertyOp31
 70
     1
102
RTVSPropertyOp32
 70
     1
102
RTVSPropertyOp33
 70
     1
102
RTVSPropertyOp34
 70
     1
102
RTVSPropertyOp35
 70
     1
102
RTVSPropertyOp36
 70
     1
102
RTVSPropertyOp37
 70
     1
102
RTVSPropertyOp38
 70
     1
102
RTVSPropertyOp39
 70
     1
102
RTVSPropertyOp40
 70
     1
102
RTVSPropertyOp41
 70
     1
102
RTVSPropertyOp42
 70
     1
102
RTVSPropertyOp43
 70
     1
102
RTVSPropertyOp44
 70
     1
102
RTVSPropertyOp45
 70
     1
102
RTVSPropertyOp46
 70
     1
102
RTVSPropertyOp47
 70
     1
102
RTVSPropertyOp48
 70
     1
102
RTVSPropertyOp49
 70
     1
102
RTVSPropertyOp50
 70
     1
102
RTVSPropertyOp51
 70
     0
102
RTVSPropertyOp52
 70
     0
102
RTVSPropertyOp53
 70
     1
102
RTVSPropertyOp54
 70
     1
102
RTVSPropertyOp55
 70
     1
102
RTVSPropertyOp56
 70
     1
102
RTVSPropertyOp57
 70
     1
102
RTVSPropertyOp58
 70
     1
102
RTVSPropertyOp59
 70
     1
102
RTVSPropertyOp60
 70
     1
102
RTVSPropertyOp61
 70
     1
102
RTVSPropertyOp62
 70
     1
  0
XRECORD
  5
8758
102
{ACAD_REACTORS
330
8757
102
}
330
8757
100
AcDbXrecord
280
     1
102
RTVSPost2010Prop28
280
     0
102
RTVSPost2010PropOp28
 70
     1
102
RTVSPost2010Prop29
280
     1
102
RTVSPost2010PropOp29
 70
     1
102
RTVSPost2010Prop30
280
     1
102
RTVSPost2010PropOp30
 70
     1
102
RTVSPost2010Prop31
280
     0
102
RTVSPost2010PropOp31
 70
     1
102
RTVSPost2010Prop32
280
     0
102
RTVSPost2010PropOp32
 70
     1
102
RTVSPost2010Prop33
280
     0
102
RTVSPost2010PropOp33
 70
     1
102
RTVSPost2010Prop34
280
     0
102
RTVSPost2010PropOp34
 70
     1
102
RTVSPost2010Prop35
280
     0
102
RTVSPost2010PropOp35
 70
     1
102
RTVSPost2010Prop36
280
     0
102
RTVSPost2010PropOp36
 70
     1
102
RTVSPost2010Prop37
 90
       50
102
RTVSPost2010PropOp37
 70
     1
102
RTVSPost2010Prop38
140
0.0
102
RTVSPost2010PropOp38
 70
     1
102
RTVSPost2010Prop39
140
1.0
102
RTVSPost2010PropOp39
 70
     1
102
RTVSPost2010Prop40
 90
        0
102
RTVSPost2010PropOp40
 70
     1
102
RTVSPost2010Prop41ColorIndex
 90
       18
102
RTVSPost2010Prop41ColorRGB
 90
        0
102
RTVSPost2010PropOp41
 70
     1
102
RTVSPost2010Prop42
 90
       50
102
RTVSPost2010PropOp42
 70
     1
102
RTVSPost2010Prop43
 90
        3
102
RTVSPost2010PropOp43
 70
     1
102
RTVSPost2010Prop44ColorIndex
 90
        5
102
RTVSPost2010Prop44ColorRGB
 90
      255
102
RTVSPost2010PropOp44
 70
     1
102
RTVSPost2010Prop45
280
     0
102
RTVSPost2010PropOp45
 70
     1
102
RTVSPost2010Prop46
 90
       50
102
RTVSPost2010PropOp46
 70
     1
102
RTVSPost2010Prop47
 90
       50
102
RTVSPost2010PropOp47
 70
     1
102
RTVSPost2010Prop48
 90
       50
102
RTVSPost2010PropOp48
 70
     1
102
RTVSPost2010Prop49
280
     0
102
RTVSPost2010PropOp49
 70
     1
102
RTVSPost2010Prop50
 90
       50
102
RTVSPost2010PropOp50
 70
     1
102
RTVSPost2010Prop51ColorIndex
 90
      256
102
RTVSPost2010Prop51ColorRGB
 90
-16777216
102
RTVSPost2010PropOp51
 70
     0
102
RTVSPost2010Prop52
140
1.0
102
RTVSPost2010PropOp52
 70
     0
102
RTVSPost2010Prop53
 90
        2
102
RTVSPost2010PropOp53
 70
     1
102
RTVSPost2010Prop54
  1
strokes_ogs.tif
102
RTVSPost2010PropOp54
 70
     1
102
RTVSPost2010Prop55
280
     0
102
RTVSPost2010PropOp55
 70
     1
102
RTVSPost2010Prop56
140
1.0
102
RTVSPost2010PropOp56
 70
     1
102
RTVSPost2010Prop57
140
1.0
102
RTVSPost2010PropOp57
 70
     1
102
RTVSPropertyOp0
 70
     1
102
RTVSPropertyOp1
 70
     1
102
RTVSPropertyOp2
 70
     1
102
RTVSPropertyOp3
 70
     1
102
RTVSPropertyOp4
 70
     1
102
RTVSPropertyOp5
 70
     1
102
RTVSPropertyOp6
 70
     1
102
RTVSPropertyOp7
 70
     1
102
RTVSPropertyOp8
 70
     1
102
RTVSPropertyOp9
 70
     1
102
RTVSPropertyOp10
 70
     1
102
RTVSPropertyOp11
 70
     1
102
RTVSPropertyOp12
 70
     1
102
RTVSPropertyOp13
 70
     1
102
RTVSPropertyOp14
 70
     1
102
RTVSPropertyOp15
 70
     1
102
RTVSPropertyOp16
 70
     1
102
RTVSPropertyOp17
 70
     1
102
RTVSPropertyOp18
 70
     1
102
RTVSPropertyOp19
 70
     1
102
RTVSPropertyOp20
 70
     1
102
RTVSPropertyOp21
 70
     1
102
RTVSPropertyOp22
 70
     1
102
RTVSPropertyOp23
 70
     1
102
RTVSPropertyOp24
 70
     1
102
RTVSPropertyOp25
 70
     1
102
RTVSPropertyOp26
 70
     1
102
RTVSPropertyOp27
 70
     1
102
RTVSPropertyOp28
 70
     1
102
RTVSPropertyOp29
 70
     1
102
RTVSPropertyOp30
 70
     1
102
RTVSPropertyOp31
 70
     1
102
RTVSPropertyOp32
 70
     1
102
RTVSPropertyOp33
 70
     1
102
RTVSPropertyOp34
 70
     1
102
RTVSPropertyOp35
 70
     1
102
RTVSPropertyOp36
 70
     1
102
RTVSPropertyOp37
 70
     1
102
RTVSPropertyOp38
 70
     1
102
RTVSPropertyOp39
 70
     1
102
RTVSPropertyOp40
 70
     1
102
RTVSPropertyOp41
 70
     1
102
RTVSPropertyOp42
 70
     1
102
RTVSPropertyOp43
 70
     1
102
RTVSPropertyOp44
 70
     1
102
RTVSPropertyOp45
 70
     1
102
RTVSPropertyOp46
 70
     1
102
RTVSPropertyOp47
 70
     1
102
RTVSPropertyOp48
 70
     1
102
RTVSPropertyOp49
 70
     1
102
RTVSPropertyOp50
 70
     1
102
RTVSPropertyOp51
 70
     0
102
RTVSPropertyOp52
 70
     0
102
RTVSPropertyOp53
 70
     1
102
RTVSPropertyOp54
 70
     1
102
RTVSPropertyOp55
 70
     1
102
RTVSPropertyOp56
 70
     1
102
RTVSPropertyOp57
 70
     1
102
RTVSPropertyOp58
 70
     1
102
RTVSPropertyOp59
 70
     1
102
RTVSPropertyOp60
 70
     1
102
RTVSPropertyOp61
 70
     1
102
RTVSPropertyOp62
 70
     1
  0
XRECORD
  5
8770
102
{ACAD_REACTORS
330
876F
102
}
330
876F
100
AcDbXrecord
280
     1
102
RTVSPost2010Prop28
280
     0
102
RTVSPost2010PropOp28
 70
     1
102
RTVSPost2010Prop29
280
     1
102
RTVSPost2010PropOp29
 70
     1
102
RTVSPost2010Prop30
280
     1
102
RTVSPost2010PropOp30
 70
     1
102
RTVSPost2010Prop31
280
     0
102
RTVSPost2010PropOp31
 70
     1
102
RTVSPost2010Prop32
280
     0
102
RTVSPost2010PropOp32
 70
     1
102
RTVSPost2010Prop33
280
     0
102
RTVSPost2010PropOp33
 70
     1
102
RTVSPost2010Prop34
280
     0
102
RTVSPost2010PropOp34
 70
     1
102
RTVSPost2010Prop35
280
     0
102
RTVSPost2010PropOp35
 70
     1
102
RTVSPost2010Prop36
280
     0
102
RTVSPost2010PropOp36
 70
     1
102
RTVSPost2010Prop37
 90
       50
102
RTVSPost2010PropOp37
 70
     1
102
RTVSPost2010Prop38
140
0.0
102
RTVSPost2010PropOp38
 70
     1
102
RTVSPost2010Prop39
140
1.0
102
RTVSPost2010PropOp39
 70
     1
102
RTVSPost2010Prop40
 90
        0
102
RTVSPost2010PropOp40
 70
     1
102
RTVSPost2010Prop41ColorIndex
 90
       18
102
RTVSPost2010Prop41ColorRGB
 90
        0
102
RTVSPost2010PropOp41
 70
     1
102
RTVSPost2010Prop42
 90
       50
102
RTVSPost2010PropOp42
 70
     1
102
RTVSPost2010Prop43
 90
        3
102
RTVSPost2010PropOp43
 70
     1
102
RTVSPost2010Prop44ColorIndex
 90
        5
102
RTVSPost2010Prop44ColorRGB
 90
      255
102
RTVSPost2010PropOp44
 70
     1
102
RTVSPost2010Prop45
280
     0
102
RTVSPost2010PropOp45
 70
     1
102
RTVSPost2010Prop46
 90
       50
102
RTVSPost2010PropOp46
 70
     1
102
RTVSPost2010Prop47
 90
       50
102
RTVSPost2010PropOp47
 70
     1
102
RTVSPost2010Prop48
 90
       50
102
RTVSPost2010PropOp48
 70
     1
102
RTVSPost2010Prop49
280
     0
102
RTVSPost2010PropOp49
 70
     1
102
RTVSPost2010Prop50
 90
       50
102
RTVSPost2010PropOp50
 70
     1
102
RTVSPost2010Prop51ColorIndex
 90
      256
102
RTVSPost2010Prop51ColorRGB
 90
-16777216
102
RTVSPost2010PropOp51
 70
     0
102
RTVSPost2010Prop52
140
1.0
102
RTVSPost2010PropOp52
 70
     0
102
RTVSPost2010Prop53
 90
        2
102
RTVSPost2010PropOp53
 70
     1
102
RTVSPost2010Prop54
  1
strokes_ogs.tif
102
RTVSPost2010PropOp54
 70
     1
102
RTVSPost2010Prop55
280
     0
102
RTVSPost2010PropOp55
 70
     1
102
RTVSPost2010Prop56
140
1.0
102
RTVSPost2010PropOp56
 70
     1
102
RTVSPost2010Prop57
140
1.0
102
RTVSPost2010PropOp57
 70
     1
102
RTVSPropertyOp0
 70
     1
102
RTVSPropertyOp1
 70
     1
102
RTVSPropertyOp2
 70
     1
102
RTVSPropertyOp3
 70
     1
102
RTVSPropertyOp4
 70
     1
102
RTVSPropertyOp5
 70
     1
102
RTVSPropertyOp6
 70
     1
102
RTVSPropertyOp7
 70
     1
102
RTVSPropertyOp8
 70
     1
102
RTVSPropertyOp9
 70
     1
102
RTVSPropertyOp10
 70
     1
102
RTVSPropertyOp11
 70
     1
102
RTVSPropertyOp12
 70
     1
102
RTVSPropertyOp13
 70
     1
102
RTVSPropertyOp14
 70
     1
102
RTVSPropertyOp15
 70
     1
102
RTVSPropertyOp16
 70
     1
102
RTVSPropertyOp17
 70
     1
102
RTVSPropertyOp18
 70
     1
102
RTVSPropertyOp19
 70
     1
102
RTVSPropertyOp20
 70
     1
102
RTVSPropertyOp21
 70
     1
102
RTVSPropertyOp22
 70
     1
102
RTVSPropertyOp23
 70
     1
102
RTVSPropertyOp24
 70
     1
102
RTVSPropertyOp25
 70
     1
102
RTVSPropertyOp26
 70
     1
102
RTVSPropertyOp27
 70
     1
102
RTVSPropertyOp28
 70
     1
102
RTVSPropertyOp29
 70
     1
102
RTVSPropertyOp30
 70
     1
102
RTVSPropertyOp31
 70
     1
102
RTVSPropertyOp32
 70
     1
102
RTVSPropertyOp33
 70
     1
102
RTVSPropertyOp34
 70
     1
102
RTVSPropertyOp35
 70
     1
102
RTVSPropertyOp36
 70
     1
102
RTVSPropertyOp37
 70
     1
102
RTVSPropertyOp38
 70
     1
102
RTVSPropertyOp39
 70
     1
102
RTVSPropertyOp40
 70
     1
102
RTVSPropertyOp41
 70
     1
102
RTVSPropertyOp42
 70
     1
102
RTVSPropertyOp43
 70
     1
102
RTVSPropertyOp44
 70
     1
102
RTVSPropertyOp45
 70
     1
102
RTVSPropertyOp46
 70
     1
102
RTVSPropertyOp47
 70
     1
102
RTVSPropertyOp48
 70
     1
102
RTVSPropertyOp49
 70
     1
102
RTVSPropertyOp50
 70
     1
102
RTVSPropertyOp51
 70
     0
102
RTVSPropertyOp52
 70
     0
102
RTVSPropertyOp53
 70
     1
102
RTVSPropertyOp54
 70
     1
102
RTVSPropertyOp55
 70
     1
102
RTVSPropertyOp56
 70
     1
102
RTVSPropertyOp57
 70
     1
102
RTVSPropertyOp58
 70
     1
102
RTVSPropertyOp59
 70
     1
102
RTVSPropertyOp60
 70
     1
102
RTVSPropertyOp61
 70
     1
102
RTVSPropertyOp62
 70
     1
  0
ENDSEC
  0
EOF
