  0
SECTION
  2
HEADER
  9
$ACADVER
  1
AC1015
  9
$ACADMAINTVER
 70
    20
  9
$DWGCODEPAGE
  3
ANSI_932
  9
$INSBASE
 10
0.0
 20
0.0
 30
0.0
  9
$EXTMIN
 10
-0.2242870864283759
 20
-0.3150699547441036
 30
-0.0015258207003583
  9
$EXTMAX
 10
7350.224321312532
 20
10325.31511803427
 30
0.0000000349246037
  9
$LIMMIN
 10
0.0
 20
0.0
  9
$LIMMAX
 10
297.0
 20
210.0
  9
$ORTHOMODE
 70
     1
  9
$REGENMODE
 70
     1
  9
$FILLMODE
 70
     0
  9
$QTEXTMODE
 70
     0
  9
$MIRRTEXT
 70
     1
  9
$LTSCALE
 40
100.0
  9
$ATTMODE
 70
     1
  9
$TEXTSIZE
 40
180.0
  9
$TRACEWID
 40
0.05
  9
$TEXTSTYLE
  7
STANDARD
  9
$CLAYER
  8
3
  9
$CELTYPE
  6
ByLayer
  9
$CECOLOR
 62
   256
  9
$CELTSCALE
 40
1.0
  9
$DISPSILH
 70
     0
  9
$DIMSCALE
 40
35.0
  9
$DIMASZ
 40
2.0
  9
$DIMEXO
 40
0.5
  9
$DIMDLI
 40
10.0
  9
$DIMRND
 40
0.0
  9
$DIMDLE
 40
0.0
  9
$DIMEXE
 40
1.0
  9
$DIMTP
 40
1.0
  9
$DIMTM
 40
1.0
  9
$DIMTXT
 40
3.0
  9
$DIMCEN
 40
0.0
  9
$DIMTSZ
 40
0.0
  9
$DIMTOL
 70
     0
  9
$DIMLIM
 70
     0
  9
$DIMTIH
 70
     0
  9
$DIMTOH
 70
     0
  9
$DIMSE1
 70
     0
  9
$DIMSE2
 70
     0
  9
$DIMTAD
 70
     1
  9
$DIMZIN
 70
     8
  9
$DIMBLK
  1

  9
$DIMASO
 70
     1
  9
$DIMSHO
 70
     1
  9
$DIMPOST
  1

  9
$DIMAPOST
  1

  9
$DIMALT
 70
     0
  9
$DIMALTD
 70
     2
  9
$DIMALTF
 40
0.039
  9
$DIMLFAC
 40
1.0
  9
$DIMTOFL
 70
     1
  9
$DIMTVP
 40
0.0
  9
$DIMTIX
 70
     0
  9
$DIMSOXD
 70
     0
  9
$DIMSAH
 70
     1
  9
$DIMBLK1
  1
OPEN
  9
$DIMBLK2
  1
OPEN
  9
$DIMSTYLE
  2
IGA
  9
$DIMCLRD
 70
     0
  9
$DIMCLRE
 70
     0
  9
$DIMCLRT
 70
     0
  9
$DIMTFAC
 40
10.0
  9
$DIMGAP
 40
1.0
  9
$DIMJUST
 70
     0
  9
$DIMSD1
 70
     0
  9
$DIMSD2
 70
     0
  9
$DIMTOLJ
 70
     1
  9
$DIMTZIN
 70
     0
  9
$DIMALTZ
 70
     0
  9
$DIMALTTZ
 70
     0
  9
$DIMUPT
 70
     0
  9
$DIMDEC
 70
     4
  9
$DIMTDEC
 70
     4
  9
$DIMALTU
 70
     2
  9
$DIMALTTD
 70
     2
  9
$DIMTXSTY
  7
STANDARD
  9
$DIMAUNIT
 70
     0
  9
$DIMADEC
 70
     0
  9
$DIMALTRND
 40
0.0
  9
$DIMAZIN
 70
     0
  9
$DIMDSEP
 70
    46
  9
$DIMATFIT
 70
     3
  9
$DIMFRAC
 70
     0
  9
$DIMLDRBLK
  1
OPEN
  9
$DIMLUNIT
 70
     2
  9
$DIMLWD
 70
    -2
  9
$DIMLWE
 70
    -2
  9
$DIMTMOVE
 70
     0
  9
$LUNITS
 70
     2
  9
$LUPREC
 70
     3
  9
$SKETCHINC
 40
0.1
  9
$FILLETRAD
 40
50.0
  9
$AUNITS
 70
     0
  9
$AUPREC
 70
     0
  9
$MENU
  1
acad
  9
$ELEVATION
 40
0.0
  9
$PELEVATION
 40
0.0
  9
$THICKNESS
 40
0.0
  9
$LIMCHECK
 70
     0
  9
$CHAMFERA
 40
0.5
  9
$CHAMFERB
 40
0.5
  9
$CHAMFERC
 40
0.0
  9
$CHAMFERD
 40
0.0
  9
$SKPOLY
 70
     0
  9
$TDCREATE
 40
2451390.386212616
  9
$TDUCREATE
 40
2451390.011212616
  9
$TDUPDATE
 40
2460273.627023461
  9
$TDUUPDATE
 40
2460273.252023461
  9
$TDINDWG
 40
0.0370630903
  9
$TDUSRTIMER
 40
0.0370630903
  9
$USRTIMER
 70
     1
  9
$ANGBASE
 50
0.0
  9
$ANGDIR
 70
     0
  9
$PDMODE
 70
     0
  9
$PDSIZE
 40
0.0
  9
$PLINEWID
 40
0.0
  9
$SPLFRAME
 70
     0
  9
$SPLINETYPE
 70
     6
  9
$SPLINESEGS
 70
     8
  9
$HANDSEED
  5
8856
  9
$SURFTAB1
 70
     6
  9
$SURFTAB2
 70
     6
  9
$SURFTYPE
 70
     6
  9
$SURFU
 70
     6
  9
$SURFV
 70
     6
  9
$UCSBASE
  2

  9
$UCSNAME
  2

  9
$UCSORG
 10
0.0
 20
0.0
 30
0.0
  9
$UCSXDIR
 10
1.0
 20
0.0
 30
0.0
  9
$UCSYDIR
 10
0.0
 20
1.0
 30
0.0
  9
$UCSORTHOREF
  2

  9
$UCSORTHOVIEW
 70
     0
  9
$UCSORGTOP
 10
0.0
 20
0.0
 30
0.0
  9
$UCSORGBOTTOM
 10
0.0
 20
0.0
 30
0.0
  9
$UCSORGLEFT
 10
0.0
 20
0.0
 30
0.0
  9
$UCSORGRIGHT
 10
0.0
 20
0.0
 30
0.0
  9
$UCSORGFRONT
 10
0.0
 20
0.0
 30
0.0
  9
$UCSORGBACK
 10
0.0
 20
0.0
 30
0.0
  9
$PUCSBASE
  2

  9
$PUCSNAME
  2

  9
$PUCSORG
 10
0.0
 20
0.0
 30
0.0
  9
$PUCSXDIR
 10
1.0
 20
0.0
 30
0.0
  9
$PUCSYDIR
 10
0.0
 20
1.0
 30
0.0
  9
$PUCSORTHOREF
  2

  9
$PUCSORTHOVIEW
 70
     0
  9
$PUCSORGTOP
 10
0.0
 20
0.0
 30
0.0
  9
$PUCSORGBOTTOM
 10
0.0
 20
0.0
 30
0.0
  9
$PUCSORGLEFT
 10
0.0
 20
0.0
 30
0.0
  9
$PUCSORGRIGHT
 10
0.0
 20
0.0
 30
0.0
  9
$PUCSORGFRONT
 10
0.0
 20
0.0
 30
0.0
  9
$PUCSORGBACK
 10
0.0
 20
0.0
 30
0.0
  9
$USERI1
 70
     0
  9
$USERI2
 70
     0
  9
$USERI3
 70
     0
  9
$USERI4
 70
     0
  9
$USERI5
 70
     0
  9
$USERR1
 40
0.0
  9
$USERR2
 40
0.0
  9
$USERR3
 40
0.0
  9
$USERR4
 40
0.0
  9
$USERR5
 40
0.0
  9
$WORLDVIEW
 70
     1
  9
$SHADEDGE
 70
     3
  9
$SHADEDIF
 70
    70
  9
$TILEMODE
 70
     1
  9
$MAXACTVP
 70
    16
  9
$PINSBASE
 10
0.0
 20
0.0
 30
0.0
  9
$PLIMCHECK
 70
     0
  9
$PEXTMIN
 10
1.000000000000000E+20
 20
1.000000000000000E+20
 30
1.000000000000000E+20
  9
$PEXTMAX
 10
-1.000000000000000E+20
 20
-1.000000000000000E+20
 30
-1.000000000000000E+20
  9
$PLIMMIN
 10
0.0
 20
0.0
  9
$PLIMMAX
 10
12.0
 20
9.0
  9
$UNITMODE
 70
     0
  9
$VISRETAIN
 70
     0
  9
$PLINEGEN
 70
     0
  9
$PSLTSCALE
 70
     1
  9
$TREEDEPTH
 70
  3020
  9
$CMLSTYLE
  2
Standard
  9
$CMLJUST
 70
     0
  9
$CMLSCALE
 40
1.0
  9
$PROXYGRAPHICS
 70
     1
  9
$MEASUREMENT
 70
     0
  9
$CELWEIGHT
370
    -1
  9
$ENDCAPS
280
     0
  9
$JOINSTYLE
280
     0
  9
$LWDISPLAY
290
     0
  9
$INSUNITS
 70
     0
  9
$HYPERLINKBASE
  1

  9
$STYLESHEET
  1

  9
$XEDIT
290
     1
  9
$CEPSNTYPE
380
     0
  9
$PSTYLEMODE
290
     1
  9
$FINGERPRINTGUID
  2
{2F87A985-9EC7-405A-9B32-83C0209FA824}
  9
$VERSIONGUID
  2
{987D0328-C883-4BB2-B978-DF06CEA5F48D}
  9
$EXTNAMES
290
     1
  9
$PSVPSCALE
 40
0.0
  9
$OLESTARTUP
290
     0
  0
ENDSEC
  0
SECTION
  2
CLASSES
  0
CLASS
  1
ACDBDICTIONARYWDFLT
  2
AcDbDictionaryWithDefault
  3
ObjectDBX Classes
 90
        0
280
     0
281
     0
  0
CLASS
  1
MATERIAL
  2
AcDbMaterial
  3
ObjectDBX Classes
 90
     1153
280
     0
281
     0
  0
CLASS
  1
VISUALSTYLE
  2
AcDbVisualStyle
  3
ObjectDBX Classes
 90
     4095
280
     0
281
     0
  0
CLASS
  1
SCALE
  2
AcDbScale
  3
ObjectDBX Classes
 90
     1153
280
     0
281
     0
  0
CLASS
  1
TABLESTYLE
  2
AcDbTableStyle
  3
ObjectDBX Classes
 90
     4095
280
     0
281
     0
  0
CLASS
  1
MLEADERSTYLE
  2
AcDbMLeaderStyle
  3
ACDB_MLEADERSTYLE_CLASS
 90
     4095
280
     0
281
     0
  0
CLASS
  1
ACDBSECTIONVIEWSTYLE
  2
AcDbSectionViewStyle
  3
ObjectDBX Classes
 90
     1025
280
     0
281
     0
  0
CLASS
  1
ACDBDETAILVIEWSTYLE
  2
AcDbDetailViewStyle
  3
ObjectDBX Classes
 90
     1025
280
     0
281
     0
  0
CLASS
  1
SORTENTSTABLE
  2
AcDbSortentsTable
  3
ObjectDBX Classes
 90
        0
280
     0
281
     0
  0
CLASS
  1
DICTIONARYVAR
  2
AcDbDictionaryVar
  3
ObjectDBX Classes
 90
        0
280
     0
281
     0
  0
CLASS
  1
CELLSTYLEMAP
  2
AcDbCellStyleMap
  3
ObjectDBX Classes
 90
     1152
280
     0
281
     0
  0
CLASS
  1
ACDBPLACEHOLDER
  2
AcDbPlaceHolder
  3
ObjectDBX Classes
 90
        0
280
     0
281
     0
  0
CLASS
  1
LAYOUT
  2
AcDbLayout
  3
ObjectDBX Classes
 90
        0
280
     0
281
     0
  0
ENDSEC
  0
SECTION
  2
TABLES
  0
TABLE
  2
VPORT
  5
83FA
330
0
100
AcDbSymbolTable
 70
     1
  0
VPORT
  5
8466
330
83FA
100
AcDbSymbolTableRecord
100
AcDbViewportTableRecord
  2
*ACTIVE
 70
     0
 10
0.0
 20
0.0
 11
1.0
 21
1.0
 12
3675.000017113053
 22
5162.500024039763
 13
0.0
 23
0.0
 14
10.0
 24
10.0
 15
10.0
 25
10.0
 16
0.0
 26
0.0
 36
1.0
 17
0.0
 27
0.0
 37
0.0
 40
10393.41499019142
 41
2.050213675213675
 42
50.0
 43
0.0
 44
0.0
 50
0.0
 51
0.0
 71
     0
 72
   100
 73
     1
 74
     0
 75
     0
 76
     0
 77
     0
 78
     0
281
     0
 65
     1
110
0.0
120
0.0
130
0.0
111
1.0
121
0.0
131
0.0
112
0.0
122
1.0
132
0.0
 79
     0
146
0.0
1001
ACAD_NAV_VCDISPLAY
1070
     3
  0
ENDTAB
  0
TABLE
  2
LTYPE
  5
83F7
330
0
100
AcDbSymbolTable
 70
     3
  0
LTYPE
  5
844C
330
83F7
100
AcDbSymbolTableRecord
100
AcDbLinetypeTableRecord
  2
ByBlock
 70
     0
  3

 72
    65
 73
     0
 40
0.0
  0
LTYPE
  5
844D
330
83F7
100
AcDbSymbolTableRecord
100
AcDbLinetypeTableRecord
  2
ByLayer
 70
     0
  3

 72
    65
 73
     0
 40
0.0
  0
LTYPE
  5
844E
330
83F7
100
AcDbSymbolTableRecord
100
AcDbLinetypeTableRecord
  2
CONTINUOUS
 70
     0
  3
Solid line
 72
    65
 73
     0
 40
0.0
  0
LTYPE
  5
8467
330
83F7
100
AcDbSymbolTableRecord
100
AcDbLinetypeTableRecord
  2
CENTER
 70
     0
  3
____ _ ____ _ ____ _ ____ _ ____ _ ____ _ ____ 
 72
    65
 73
     4
 40
2.0
 49
1.25
 74
     0
 49
-0.25
 74
     0
 49
0.25
 74
     0
 49
-0.25
 74
     0
  0
ENDTAB
  0
TABLE
  2
LAYER
  5
83F4
330
0
100
AcDbSymbolTable
 70
     6
  0
LAYER
  5
8446
102
{ACAD_XDICTIONARY
360
87B6
102
}
330
83F4
100
AcDbSymbolTableRecord
100
AcDbLayerTableRecord
  2
0
 70
     0
 62
     7
  6
CONTINUOUS
370
    -3
390
8401
  0
LAYER
  5
8465
102
{ACAD_XDICTIONARY
360
87B8
102
}
330
83F4
100
AcDbSymbolTableRecord
100
AcDbLayerTableRecord
  2
3
 70
     0
 62
     2
  6
CONTINUOUS
370
    -3
390
8401
  0
LAYER
  5
8468
102
{ACAD_XDICTIONARY
360
87BA
102
}
330
83F4
100
AcDbSymbolTableRecord
100
AcDbLayerTableRecord
  2
2
 70
     0
 62
     3
  6
CENTER
370
    -3
390
8401
  0
LAYER
  5
8469
102
{ACAD_XDICTIONARY
360
87BC
102
}
330
83F4
100
AcDbSymbolTableRecord
100
AcDbLayerTableRecord
  2
1
 70
     0
 62
     4
  6
CONTINUOUS
370
    -3
390
8401
  0
LAYER
  5
846A
102
{ACAD_XDICTIONARY
360
87BE
102
}
330
83F4
100
AcDbSymbolTableRecord
100
AcDbLayerTableRecord
  2
4
 70
     0
 62
     7
  6
CONTINUOUS
370
    -3
390
8401
  0
LAYER
  5
846B
330
83F4
100
AcDbSymbolTableRecord
100
AcDbLayerTableRecord
  2
DEFPOINTS
 70
     0
 62
     7
  6
CONTINUOUS
290
     0
370
    -3
390
8401
  0
ENDTAB
  0
TABLE
  2
STYLE
  5
83F5
330
0
100
AcDbSymbolTable
 70
     2
  0
STYLE
  5
8447
330
83F5
100
AcDbSymbolTableRecord
100
AcDbTextStyleTableRecord
  2
STANDARD
 70
     0
 40
0.0
 41
1.0
 50
0.0
 71
     0
 42
180.0
  3
simplex.shx
  4
extfont.shx
  0
STYLE
  5
844B
330
83F5
100
AcDbSymbolTableRecord
100
AcDbTextStyleTableRecord
  2
Annotative
 70
     0
 40
0.0
 41
1.0
 50
0.0
 71
     0
 42
0.2
  3
txt
  4

1001
AcadAnnotative
1000
AnnotativeData
1002
{
1070
     1
1070
     1
1002
}
  0
ENDTAB
  0
TABLE
  2
VIEW
  5
83F8
330
0
100
AcDbSymbolTable
 70
     0
  0
ENDTAB
  0
TABLE
  2
UCS
  5
83F9
330
0
100
AcDbSymbolTable
 70
     0
  0
ENDTAB
  0
TABLE
  2
APPID
  5
83FB
330
0
100
AcDbSymbolTable
 70
     8
  0
APPID
  5
8448
330
83FB
100
AcDbSymbolTableRecord
100
AcDbRegAppTableRecord
  2
ACAD
 70
     0
  0
APPID
  5
844F
330
83FB
100
AcDbSymbolTableRecord
100
AcDbRegAppTableRecord
  2
AcadAnnotative
 70
     0
  0
APPID
  5
8521
330
83FB
100
AcDbSymbolTableRecord
100
AcDbRegAppTableRecord
  2
ACAD_DSTYLE_DIMJAG
 70
     0
  0
APPID
  5
8522
330
83FB
100
AcDbSymbolTableRecord
100
AcDbRegAppTableRecord
  2
ACAD_DSTYLE_DIMTALN
 70
     0
  0
APPID
  5
8530
330
83FB
100
AcDbSymbolTableRecord
100
AcDbRegAppTableRecord
  2
AcadAnnoMonitorAlertIconDisabled
 70
     0
  0
APPID
  5
8531
330
83FB
100
AcDbSymbolTableRecord
100
AcDbRegAppTableRecord
  2
ACAD_EXEMPT_FROM_CAD_STANDARDS
 70
     0
  0
APPID
  5
87CA
330
83FB
100
AcDbSymbolTableRecord
100
AcDbRegAppTableRecord
  2
ACAD_NAV_VCDISPLAY
 70
     0
  0
APPID
  5
884D
330
83FB
100
AcDbSymbolTableRecord
100
AcDbRegAppTableRecord
  2
ACAD_MLEADERVER
 70
     0
  0
ENDTAB
  0
TABLE
  2
DIMSTYLE
  5
83FC
330
0
100
AcDbSymbolTable
 70
     3
100
AcDbDimStyleTable
 71
     1
340
846C
  0
DIMSTYLE
105
8449
330
83FC
100
AcDbSymbolTableRecord
100
AcDbDimStyleTableRecord
  2
Standard
 70
     0
340
8447
  0
DIMSTYLE
105
844A
330
83FC
100
AcDbSymbolTableRecord
100
AcDbDimStyleTableRecord
  2
Annotative
 70
     0
340
8447
1001
AcadAnnotative
1000
AnnotativeData
1002
{
1070
     1
1070
     1
1002
}
  0
DIMSTYLE
105
846C
102
{ACAD_REACTORS
330
8523
330
8545
330
8552
330
855F
330
856C
330
8579
330
85CE
330
85DB
330
85E8
330
85F5
330
8602
330
860F
330
861C
330
8629
330
8636
330
8643
330
8650
330
865D
330
866F
330
8681
330
868E
330
869B
102
}
330
83FC
100
AcDbSymbolTableRecord
100
AcDbDimStyleTableRecord
  2
IGA
 70
     0
 40
2.0
 41
2.0
 42
0.5
 43
10.0
 44
1.0
 47
1.0
 48
1.0
 73
     0
 74
     0
 77
     1
 78
     8
140
3.0
141
0.0
143
0.03937
146
10.0
147
1.0
173
     1
271
     3
272
     3
279
     2
284
     8
285
     8
286
     8
340
8447
  0
ENDTAB
  0
TABLE
  2
BLOCK_RECORD
  5
83F3
330
0
100
AcDbSymbolTable
 70
    60
  0
BLOCK_RECORD
  5
8461
102
{ACAD_XDICTIONARY
360
851D
102
}
330
83F3
100
AcDbSymbolTableRecord
100
AcDbBlockTableRecord
  2
*Model_Space
340
8464
  0
BLOCK_RECORD
  5
845D
330
83F3
100
AcDbSymbolTableRecord
100
AcDbBlockTableRecord
  2
*Paper_Space
340
8460
  0
BLOCK_RECORD
  5
8470
330
83F3
100
AcDbSymbolTableRecord
100
AcDbBlockTableRecord
  2
$MODEL_SPACE
340
0
  0
BLOCK_RECORD
  5
8472
330
83F3
100
AcDbSymbolTableRecord
100
AcDbBlockTableRecord
  2
$PAPER_SPACE
340
0
  0
BLOCK_RECORD
  5
8474
330
83F3
100
AcDbSymbolTableRecord
100
AcDbBlockTableRecord
  2
_OPEN
340
0
102
{BLKREFS
331
8398
331
8399
331
83A1
331
83A2
331
83AA
331
83AB
331
83B3
331
83B4
331
83BC
331
83BD
331
83C5
331
83C6
331
83CE
331
83CF
331
83DA
331
81C0
331
81C1
331
81CD
331
81CE
331
81DA
331
81DB
331
81E7
331
81E8
331
837D
331
837E
331
853F
331
8540
331
854C
331
854D
331
8573
331
8574
331
8386
331
8387
331
838F
331
8390
331
8254
331
8255
331
85E2
331
85E3
331
85EF
331
85F0
331
85FC
331
85FD
331
8609
331
860A
331
8616
331
8617
331
8623
331
8624
331
8630
331
8631
331
863D
331
863E
331
864A
331
864B
331
8657
331
8580
331
8581
331
85B6
331
85B7
331
85C8
331
85C9
331
85D5
331
85D6
331
8350
331
8351
331
8359
331
835A
331
8362
331
8363
331
836B
331
836C
331
8374
331
8375
331
8658
331
8695
331
8696
331
86A2
331
86A3
331
86E4
331
86E5
331
8758
331
87B2
102
}
  0
BLOCK_RECORD
  5
8476
330
83F3
100
AcDbSymbolTableRecord
100
AcDbBlockTableRecord
  2
YA_N
340
0
102
{BLKREFS
331
7C13
331
7C34
331
7C3D
331
7C69
331
7C93
102
}
  0
BLOCK_RECORD
  5
8478
330
83F3
100
AcDbSymbolTableRecord
100
AcDbBlockTableRecord
  2
*D4
340
0
  0
BLOCK_RECORD
  5
847A
330
83F3
100
AcDbSymbolTableRecord
100
AcDbBlockTableRecord
  2
*D5
340
0
  0
BLOCK_RECORD
  5
847C
330
83F3
100
AcDbSymbolTableRecord
100
AcDbBlockTableRecord
  2
*D6
340
0
  0
BLOCK_RECORD
  5
847E
330
83F3
100
AcDbSymbolTableRecord
100
AcDbBlockTableRecord
  2
*D7
340
0
  0
BLOCK_RECORD
  5
8480
330
83F3
100
AcDbSymbolTableRecord
100
AcDbBlockTableRecord
  2
*D8
340
0
  0
BLOCK_RECORD
  5
8482
330
83F3
100
AcDbSymbolTableRecord
100
AcDbBlockTableRecord
  2
*D9
340
0
  0
BLOCK_RECORD
  5
8484
330
83F3
100
AcDbSymbolTableRecord
100
AcDbBlockTableRecord
  2
*D10
340
0
  0
BLOCK_RECORD
  5
8486
330
83F3
100
AcDbSymbolTableRecord
100
AcDbBlockTableRecord
  2
*D11
340
0
  0
BLOCK_RECORD
  5
8488
330
83F3
100
AcDbSymbolTableRecord
100
AcDbBlockTableRecord
  2
*D12
340
0
  0
BLOCK_RECORD
  5
848A
330
83F3
100
AcDbSymbolTableRecord
100
AcDbBlockTableRecord
  2
*D13
340
0
  0
BLOCK_RECORD
  5
848C
330
83F3
100
AcDbSymbolTableRecord
100
AcDbBlockTableRecord
  2
*D14
340
0
  0
BLOCK_RECORD
  5
848E
330
83F3
100
AcDbSymbolTableRecord
100
AcDbBlockTableRecord
  2
*D15
340
0
  0
BLOCK_RECORD
  5
8490
330
83F3
100
AcDbSymbolTableRecord
100
AcDbBlockTableRecord
  2
*D16
340
0
  0
BLOCK_RECORD
  5
8492
330
83F3
100
AcDbSymbolTableRecord
100
AcDbBlockTableRecord
  2
*D17
340
0
  0
BLOCK_RECORD
  5
8494
330
83F3
100
AcDbSymbolTableRecord
100
AcDbBlockTableRecord
  2
*D18
340
0
  0
BLOCK_RECORD
  5
8496
330
83F3
100
AcDbSymbolTableRecord
100
AcDbBlockTableRecord
  2
*D19
340
0
  0
BLOCK_RECORD
  5
8498
330
83F3
100
AcDbSymbolTableRecord
100
AcDbBlockTableRecord
  2
_DOT
340
0
102
{BLKREFS
331
83D9
102
}
  0
BLOCK_RECORD
  5
849A
330
83F3
100
AcDbSymbolTableRecord
100
AcDbBlockTableRecord
  2
*D21
340
0
  0
BLOCK_RECORD
  5
849C
330
83F3
100
AcDbSymbolTableRecord
100
AcDbBlockTableRecord
  2
*D22
340
0
  0
BLOCK_RECORD
  5
849E
330
83F3
100
AcDbSymbolTableRecord
100
AcDbBlockTableRecord
  2
*D23
340
0
  0
BLOCK_RECORD
  5
84A0
330
83F3
100
AcDbSymbolTableRecord
100
AcDbBlockTableRecord
  2
*D24
340
0
  0
BLOCK_RECORD
  5
84A2
330
83F3
100
AcDbSymbolTableRecord
100
AcDbBlockTableRecord
  2
_NONE
340
0
  0
BLOCK_RECORD
  5
84A4
330
83F3
100
AcDbSymbolTableRecord
100
AcDbBlockTableRecord
  2
*D26
340
0
  0
BLOCK_RECORD
  5
84A6
330
83F3
100
AcDbSymbolTableRecord
100
AcDbBlockTableRecord
  2
*D27
340
0
  0
BLOCK_RECORD
  5
84A9
330
83F3
100
AcDbSymbolTableRecord
100
AcDbBlockTableRecord
  2
*D28
340
0
  0
BLOCK_RECORD
  5
84B6
330
83F3
100
AcDbSymbolTableRecord
100
AcDbBlockTableRecord
  2
*D29
340
0
  0
BLOCK_RECORD
  5
84C3
330
83F3
100
AcDbSymbolTableRecord
100
AcDbBlockTableRecord
  2
*D30
340
0
  0
BLOCK_RECORD
  5
84D0
330
83F3
100
AcDbSymbolTableRecord
100
AcDbBlockTableRecord
  2
*D31
340
0
  0
BLOCK_RECORD
  5
84DD
330
83F3
100
AcDbSymbolTableRecord
100
AcDbBlockTableRecord
  2
*D32
340
0
  0
BLOCK_RECORD
  5
84EA
330
83F3
100
AcDbSymbolTableRecord
100
AcDbBlockTableRecord
  2
*D33
340
0
  0
BLOCK_RECORD
  5
84F7
330
83F3
100
AcDbSymbolTableRecord
100
AcDbBlockTableRecord
  2
*D34
340
0
  0
BLOCK_RECORD
  5
8504
330
83F3
100
AcDbSymbolTableRecord
100
AcDbBlockTableRecord
  2
*D35
340
0
  0
BLOCK_RECORD
  5
8511
330
83F3
100
AcDbSymbolTableRecord
100
AcDbBlockTableRecord
  2
*D36
340
0
  0
BLOCK_RECORD
  5
8524
330
83F3
100
AcDbSymbolTableRecord
100
AcDbBlockTableRecord
  2
*D37
340
0
  0
BLOCK_RECORD
  5
8546
330
83F3
100
AcDbSymbolTableRecord
100
AcDbBlockTableRecord
  2
*D38
340
0
  0
BLOCK_RECORD
  5
8553
330
83F3
100
AcDbSymbolTableRecord
100
AcDbBlockTableRecord
  2
*D39
340
0
  0
BLOCK_RECORD
  5
8560
330
83F3
100
AcDbSymbolTableRecord
100
AcDbBlockTableRecord
  2
*D40
340
0
  0
BLOCK_RECORD
  5
856D
330
83F3
100
AcDbSymbolTableRecord
100
AcDbBlockTableRecord
  2
*D41
340
0
  0
BLOCK_RECORD
  5
857A
330
83F3
100
AcDbSymbolTableRecord
100
AcDbBlockTableRecord
  2
*D42
340
0
  0
BLOCK_RECORD
  5
85CF
330
83F3
100
AcDbSymbolTableRecord
100
AcDbBlockTableRecord
  2
*D43
340
0
  0
BLOCK_RECORD
  5
85DC
330
83F3
100
AcDbSymbolTableRecord
100
AcDbBlockTableRecord
  2
*D44
340
0
  0
BLOCK_RECORD
  5
85E9
330
83F3
100
AcDbSymbolTableRecord
100
AcDbBlockTableRecord
  2
*D45
340
0
  0
BLOCK_RECORD
  5
85F6
330
83F3
100
AcDbSymbolTableRecord
100
AcDbBlockTableRecord
  2
*D46
340
0
  0
BLOCK_RECORD
  5
8603
330
83F3
100
AcDbSymbolTableRecord
100
AcDbBlockTableRecord
  2
*D47
340
0
  0
BLOCK_RECORD
  5
8610
330
83F3
100
AcDbSymbolTableRecord
100
AcDbBlockTableRecord
  2
*D48
340
0
  0
BLOCK_RECORD
  5
861D
330
83F3
100
AcDbSymbolTableRecord
100
AcDbBlockTableRecord
  2
*D49
340
0
  0
BLOCK_RECORD
  5
862A
330
83F3
100
AcDbSymbolTableRecord
100
AcDbBlockTableRecord
  2
*D50
340
0
  0
BLOCK_RECORD
  5
8637
330
83F3
100
AcDbSymbolTableRecord
100
AcDbBlockTableRecord
  2
*D51
340
0
  0
BLOCK_RECORD
  5
8644
330
83F3
100
AcDbSymbolTableRecord
100
AcDbBlockTableRecord
  2
*D52
340
0
  0
BLOCK_RECORD
  5
8651
330
83F3
100
AcDbSymbolTableRecord
100
AcDbBlockTableRecord
  2
*D53
340
0
  0
BLOCK_RECORD
  5
865E
330
83F3
100
AcDbSymbolTableRecord
100
AcDbBlockTableRecord
  2
*D54
340
0
  0
BLOCK_RECORD
  5
8670
330
83F3
100
AcDbSymbolTableRecord
100
AcDbBlockTableRecord
  2
*D55
340
0
  0
BLOCK_RECORD
  5
8682
330
83F3
100
AcDbSymbolTableRecord
100
AcDbBlockTableRecord
  2
*D56
340
0
  0
BLOCK_RECORD
  5
868F
330
83F3
100
AcDbSymbolTableRecord
100
AcDbBlockTableRecord
  2
*D57
340
0
  0
BLOCK_RECORD
  5
869C
330
83F3
100
AcDbSymbolTableRecord
100
AcDbBlockTableRecord
  2
*D58
340
0
  0
BLOCK_RECORD
  5
874B
330
83F3
100
AcDbSymbolTableRecord
100
AcDbBlockTableRecord
  2
_DotSmall
340
0
102
{BLKREFS
331
8759
331
87B1
102
}
  0
ENDTAB
  0
ENDSEC
  0
SECTION
  2
BLOCKS
  0
BLOCK
  5
8462
330
8461
100
AcDbEntity
  8
0
100
AcDbBlockBegin
  2
*Model_Space
 70
     0
 10
0.0
 20
0.0
 30
0.0
  3
*Model_Space
  1

  0
ENDBLK
  5
8463
330
8461
100
AcDbEntity
  8
0
100
AcDbBlockEnd
  0
BLOCK
  5
845E
330
845D
100
AcDbEntity
 67
     1
  8
0
100
AcDbBlockBegin
  2
*Paper_Space
 70
     0
 10
0.0
 20
0.0
 30
0.0
  3
*Paper_Space
  1

  0
ENDBLK
  5
845F
330
845D
100
AcDbEntity
 67
     1
  8
0
100
AcDbBlockEnd
  0
BLOCK
  5
8471
330
8470
100
AcDbEntity
  8
0
100
AcDbBlockBegin
  2
$MODEL_SPACE
 70
     0
 10
0.0
 20
0.0
 30
0.0
  3
$MODEL_SPACE
  1

  0
ENDBLK
  5
1B
330
8470
100
AcDbEntity
  8
0
100
AcDbBlockEnd
  0
BLOCK
  5
8473
330
8472
100
AcDbEntity
  8
0
100
AcDbBlockBegin
  2
$PAPER_SPACE
 70
     0
 10
0.0
 20
0.0
 30
0.0
  3
$PAPER_SPACE
  1

  0
ENDBLK
  5
18
330
8472
100
AcDbEntity
  8
0
100
AcDbBlockEnd
  0
BLOCK
  5
8475
330
8474
100
AcDbEntity
  8
0
100
AcDbBlockBegin
  2
_OPEN
 70
     0
 10
0.0
 20
0.0
 30
0.0
  3
_OPEN
  1

  0
LINE
  5
79FD
330
8474
100
AcDbEntity
  8
0
  6
ByBlock
 62
     0
100
AcDbLine
 10
-1.0
 20
0.1666666666666666
 30
0.0
 11
0.0
 21
0.0
 31
0.0
  0
LINE
  5
79FE
330
8474
100
AcDbEntity
  8
0
  6
ByBlock
 62
     0
100
AcDbLine
 10
0.0
 20
0.0
 30
0.0
 11
-1.0
 21
-0.1666666666666666
 31
0.0
  0
LINE
  5
79FF
330
8474
100
AcDbEntity
  8
0
  6
ByBlock
 62
     0
100
AcDbLine
 10
0.0
 20
0.0
 30
0.0
 11
-1.0
 21
0.0
 31
0.0
  0
ENDBLK
  5
7A01
330
8474
100
AcDbEntity
  8
0
100
AcDbBlockEnd
  0
BLOCK
  5
8477
330
8476
100
AcDbEntity
  8
0
100
AcDbBlockBegin
  2
YA_N
 70
     0
 10
0.0
 20
0.0
 30
0.0
  3
YA_N
  1

  0
ENDBLK
  5
7A0C
330
8476
100
AcDbEntity
  8
0
100
AcDbBlockEnd
  0
BLOCK
  5
8479
330
8478
100
AcDbEntity
  8
0
100
AcDbBlockBegin
  2
*D4
 70
     1
 10
0.0
 20
0.0
 30
0.0
  3
*D4
  1

  0
LINE
  5
834D
330
8478
100
AcDbEntity
  8
3
 62
     0
100
AcDbLine
 10
3401.562617025251
 20
4554.192209343379
 30
0.0
 11
3619.170933309518
 21
4554.192209343379
 31
0.0
  0
LINE
  5
834E
330
8478
100
AcDbEntity
  8
3
 62
     0
100
AcDbLine
 10
3401.562617025251
 20
3404.192209343379
 30
0.0
 11
3619.170933309518
 21
3404.192209343379
 31
0.0
  0
LINE
  5
834F
330
8478
100
AcDbEntity
  8
3
 62
     0
100
AcDbLine
 10
3584.170933309517
 20
4484.192209343379
 30
0.0
 11
3584.170933309517
 21
3474.192209343379
 31
0.0
  0
INSERT
  5
8350
330
8478
100
AcDbEntity
  8
3
 62
     0
100
AcDbBlockReference
  2
_OPEN
 10
3584.170933309517
 20
4554.192209343379
 30
0.0
 41
70.0
 42
70.0
 43
70.0
 50
90.0
  0
INSERT
  5
8351
330
8478
100
AcDbEntity
  8
3
 62
     0
100
AcDbBlockReference
  2
_OPEN
 10
3584.170933309517
 20
3404.192209343379
 30
0.0
 41
70.0
 42
70.0
 43
70.0
 50
270.0
  0
TEXT
  5
83E2
330
8478
100
AcDbEntity
  8
3
 62
     0
100
AcDbText
 10
3286.67
 20
3793.34
 30
0.0
 40
105.0
  1
1150
100
AcDbText
  0
POINT
  5
8353
330
8478
100
AcDbEntity
  8
DEFPOINTS
 62
     0
100
AcDbPoint
 10
3384.062617025249
 20
4554.192209343379
 30
0.0
  0
POINT
  5
8354
330
8478
100
AcDbEntity
  8
DEFPOINTS
 62
     0
100
AcDbPoint
 10
3384.062617025249
 20
3404.192209343379
 30
0.0
  0
POINT
  5
8355
330
8478
100
AcDbEntity
  8
DEFPOINTS
 62
     0
100
AcDbPoint
 10
3584.170933309517
 20
3404.192209343379
 30
0.0
  0
ENDBLK
  5
7F74
330
8478
100
AcDbEntity
  8
0
100
AcDbBlockEnd
  0
BLOCK
  5
847B
330
847A
100
AcDbEntity
  8
0
100
AcDbBlockBegin
  2
*D5
 70
     1
 10
0.0
 20
0.0
 30
0.0
  3
*D5
  1

  0
LINE
  5
8356
330
847A
100
AcDbEntity
  8
3
 62
     0
100
AcDbLine
 10
3401.562617025251
 20
4554.192209343379
 30
0.0
 11
3819.32258417102
 21
4554.192209343379
 31
0.0
  0
LINE
  5
8357
330
847A
100
AcDbEntity
  8
3
 62
     0
100
AcDbLine
 10
3487.401617923984
 20
3356.192209343378
 30
0.0
 11
3819.32258417102
 21
3356.192209343378
 31
0.0
  0
LINE
  5
8358
330
847A
100
AcDbEntity
  8
3
 62
     0
100
AcDbLine
 10
3784.322584171019
 20
4484.192209343379
 30
0.0
 11
3784.322584171019
 21
3426.192209343378
 31
0.0
  0
INSERT
  5
8359
330
847A
100
AcDbEntity
  8
3
 62
     0
100
AcDbBlockReference
  2
_OPEN
 10
3784.322584171019
 20
4554.192209343379
 30
0.0
 41
70.0
 42
70.0
 43
70.0
 50
90.0
  0
INSERT
  5
835A
330
847A
100
AcDbEntity
  8
3
 62
     0
100
AcDbBlockReference
  2
_OPEN
 10
3784.322584171019
 20
3356.192209343378
 30
0.0
 41
70.0
 42
70.0
 43
70.0
 50
270.0
  0
TEXT
  5
83E3
330
847A
100
AcDbEntity
  8
3
 62
     0
100
AcDbText
 10
3486.82
 20
3769.340000000001
 30
0.0
 40
105.0
  1
1198
100
AcDbText
  0
POINT
  5
835C
330
847A
100
AcDbEntity
  8
DEFPOINTS
 62
     0
100
AcDbPoint
 10
3384.062617025249
 20
4554.192209343379
 30
0.0
  0
POINT
  5
835D
330
847A
100
AcDbEntity
  8
DEFPOINTS
 62
     0
100
AcDbPoint
 10
3469.901617923984
 20
3356.192209343378
 30
0.0
  0
POINT
  5
835E
330
847A
100
AcDbEntity
  8
DEFPOINTS
 62
     0
100
AcDbPoint
 10
3784.322584171019
 20
3356.192209343378
 30
0.0
  0
ENDBLK
  5
7F7F
330
847A
100
AcDbEntity
  8
0
100
AcDbBlockEnd
  0
BLOCK
  5
847D
330
847C
100
AcDbEntity
  8
0
100
AcDbBlockBegin
  2
*D6
 70
     1
 10
0.0
 20
0.0
 30
0.0
  3
*D6
  1

  0
LINE
  5
835F
330
847C
100
AcDbEntity
  8
3
 62
     0
100
AcDbLine
 10
3384.062617025249
 20
4624.692209343378
 30
0.0
 11
3384.062617025249
 21
4845.525596269836
 31
0.0
  0
LINE
  5
8360
330
847C
100
AcDbEntity
  8
3
 62
     0
100
AcDbLine
 10
2624.062617025249
 20
4687.605732334349
 30
0.0
 11
2624.062617025249
 21
4845.525596269836
 31
0.0
  0
LINE
  5
8361
330
847C
100
AcDbEntity
  8
3
 62
     0
100
AcDbLine
 10
3314.062617025251
 20
4810.525596269836
 30
0.0
 11
2694.062617025251
 21
4810.525596269836
 31
0.0
  0
INSERT
  5
8362
330
847C
100
AcDbEntity
  8
3
 62
     0
100
AcDbBlockReference
  2
_OPEN
 10
3384.062617025249
 20
4810.525596269836
 30
0.0
 41
70.0
 42
70.0
 43
70.0
  0
INSERT
  5
8363
330
847C
100
AcDbEntity
  8
3
 62
     0
100
AcDbBlockReference
  2
_OPEN
 10
2624.062617025249
 20
4810.525596269836
 30
0.0
 41
70.0
 42
70.0
 43
70.0
 50
180.0
  0
TEXT
  5
83E4
330
847C
100
AcDbEntity
  8
3
 62
     0
100
AcDbText
 10
2794.06
 20
4712.18
 30
0.0
 40
105.0
  1
760
100
AcDbText
  0
POINT
  5
8365
330
847C
100
AcDbEntity
  8
DEFPOINTS
 62
     0
100
AcDbPoint
 10
3384.062617025249
 20
4607.192209343378
 30
0.0
  0
POINT
  5
8366
330
847C
100
AcDbEntity
  8
DEFPOINTS
 62
     0
100
AcDbPoint
 10
2624.062617025249
 20
4670.105732334348
 30
0.0
  0
POINT
  5
8367
330
847C
100
AcDbEntity
  8
DEFPOINTS
 62
     0
100
AcDbPoint
 10
2624.062617025249
 20
4810.525596269836
 30
0.0
  0
ENDBLK
  5
819E
330
847C
100
AcDbEntity
  8
0
100
AcDbBlockEnd
  0
BLOCK
  5
847F
330
847E
100
AcDbEntity
  8
0
100
AcDbBlockBegin
  2
*D7
 70
     1
 10
0.0
 20
0.0
 30
0.0
  3
*D7
  1

  0
LINE
  5
8368
330
847E
100
AcDbEntity
  8
3
 62
     0
100
AcDbLine
 10
2624.062617025249
 20
4687.605732334349
 30
0.0
 11
2624.062617025249
 21
4845.525596269836
 31
0.0
  0
LINE
  5
8369
330
847E
100
AcDbEntity
  8
3
 62
     0
100
AcDbLine
 10
1658.861054526632
 20
3373.692209343379
 30
0.0
 11
1658.861054526632
 21
4845.525596269836
 31
0.0
  0
LINE
  5
836A
330
847E
100
AcDbEntity
  8
3
 62
     0
100
AcDbLine
 10
2554.06261702525
 20
4810.525596269836
 30
0.0
 11
1728.861054526633
 21
4810.525596269836
 31
0.0
  0
INSERT
  5
836B
330
847E
100
AcDbEntity
  8
3
 62
     0
100
AcDbBlockReference
  2
_OPEN
 10
2624.062617025249
 20
4810.525596269836
 30
0.0
 41
70.0
 42
70.0
 43
70.0
  0
INSERT
  5
836C
330
847E
100
AcDbEntity
  8
3
 62
     0
100
AcDbBlockReference
  2
_OPEN
 10
1658.861054526632
 20
4810.525596269836
 30
0.0
 41
70.0
 42
70.0
 43
70.0
 50
180.0
  0
TEXT
  5
83E5
330
847E
100
AcDbEntity
  8
3
 62
     0
100
AcDbText
 10
1931.46
 20
4712.18
 30
0.0
 40
105.0
  1
969
100
AcDbText
  0
POINT
  5
836E
330
847E
100
AcDbEntity
  8
DEFPOINTS
 62
     0
100
AcDbPoint
 10
2624.062617025249
 20
4670.105732334348
 30
0.0
  0
POINT
  5
836F
330
847E
100
AcDbEntity
  8
DEFPOINTS
 62
     0
100
AcDbPoint
 10
1658.861054526632
 20
3356.19220934338
 30
0.0
  0
POINT
  5
8370
330
847E
100
AcDbEntity
  8
DEFPOINTS
 62
     0
100
AcDbPoint
 10
1658.861054526632
 20
4810.525596269836
 30
0.0
  0
ENDBLK
  5
81A9
330
847E
100
AcDbEntity
  8
0
100
AcDbBlockEnd
  0
BLOCK
  5
8481
330
8480
100
AcDbEntity
  8
0
100
AcDbBlockBegin
  2
*D8
 70
     1
 10
0.0
 20
0.0
 30
0.0
  3
*D8
  1

  0
LINE
  5
8371
330
8480
100
AcDbEntity
  8
3
 62
     0
100
AcDbLine
 10
4893.752841307505
 20
4560.353830076209
 30
0.0
 11
4893.752841307505
 21
4842.631848395775
 31
0.0
  0
LINE
  5
8372
330
8480
100
AcDbEntity
  8
3
 62
     0
100
AcDbLine
 10
6393.752841307505
 20
4554.504893414596
 30
0.0
 11
6393.752841307505
 21
4842.631848395775
 31
0.0
  0
LINE
  5
8373
330
8480
100
AcDbEntity
  8
3
 62
     0
100
AcDbLine
 10
4963.752841307505
 20
4807.631848395777
 30
0.0
 11
6323.752841307506
 21
4807.631848395777
 31
0.0
  0
INSERT
  5
8374
330
8480
100
AcDbEntity
  8
3
 62
     0
100
AcDbBlockReference
  2
_OPEN
 10
4893.752841307505
 20
4807.631848395777
 30
0.0
 41
70.0
 42
70.0
 43
70.0
 50
180.0
  0
INSERT
  5
8375
330
8480
100
AcDbEntity
  8
3
 62
     0
100
AcDbBlockReference
  2
_OPEN
 10
6393.752841307505
 20
4807.631848395777
 30
0.0
 41
70.0
 42
70.0
 43
70.0
  0
TEXT
  5
83E6
330
8480
100
AcDbEntity
  8
3
 62
     0
100
AcDbText
 10
5433.749999999999
 20
4709.279999999999
 30
0.0
 40
105.0
  1
1500
100
AcDbText
  0
POINT
  5
8377
330
8480
100
AcDbEntity
  8
DEFPOINTS
 62
     0
100
AcDbPoint
 10
4893.752841307505
 20
4542.853830076209
 30
0.0
  0
POINT
  5
8378
330
8480
100
AcDbEntity
  8
DEFPOINTS
 62
     0
100
AcDbPoint
 10
6393.752841307505
 20
4537.004893414596
 30
0.0
  0
POINT
  5
8379
330
8480
100
AcDbEntity
  8
DEFPOINTS
 62
     0
100
AcDbPoint
 10
6393.752841307505
 20
4807.631848395777
 30
0.0
  0
ENDBLK
  5
8005
330
8480
100
AcDbEntity
  8
0
100
AcDbBlockEnd
  0
BLOCK
  5
8483
330
8482
100
AcDbEntity
  8
0
100
AcDbBlockBegin
  2
*D9
 70
     1
 10
0.0
 20
0.0
 30
0.0
  3
*D9
  1

  0
LINE
  5
837A
330
8482
100
AcDbEntity
  8
3
 62
     0
100
AcDbLine
 10
5643.752841307503
 20
4969.368152189137
 30
0.0
 11
5643.752841307503
 21
5082.767764100376
 31
0.0
  0
LINE
  5
837B
330
8482
100
AcDbEntity
  8
3
 62
     0
100
AcDbLine
 10
6558.752841307502
 20
3286.731686448574
 30
0.0
 11
6558.752841307502
 21
5082.767764100376
 31
0.0
  0
LINE
  5
837C
330
8482
100
AcDbEntity
  8
3
 62
     0
100
AcDbLine
 10
5713.752841307503
 20
5047.767764100376
 30
0.0
 11
6488.752841307503
 21
5047.767764100376
 31
0.0
  0
INSERT
  5
837D
330
8482
100
AcDbEntity
  8
3
 62
     0
100
AcDbBlockReference
  2
_OPEN
 10
5643.752841307503
 20
5047.767764100376
 30
0.0
 41
70.0
 42
70.0
 43
70.0
 50
180.0
  0
INSERT
  5
837E
330
8482
100
AcDbEntity
  8
3
 62
     0
100
AcDbBlockReference
  2
_OPEN
 10
6558.752841307502
 20
5047.767764100376
 30
0.0
 41
70.0
 42
70.0
 43
70.0
  0
TEXT
  5
83E7
330
8482
100
AcDbEntity
  8
3
 62
     0
100
AcDbText
 10
5891.25
 20
4976.92
 30
0.0
 40
105.0
  1
(930)
100
AcDbText
  0
POINT
  5
8380
330
8482
100
AcDbEntity
  8
DEFPOINTS
 62
     0
100
AcDbPoint
 10
5643.752841307503
 20
4951.868152189138
 30
0.0
  0
POINT
  5
8381
330
8482
100
AcDbEntity
  8
DEFPOINTS
 62
     0
100
AcDbPoint
 10
6558.752841307502
 20
3269.231686448573
 30
0.0
  0
POINT
  5
8382
330
8482
100
AcDbEntity
  8
DEFPOINTS
 62
     0
100
AcDbPoint
 10
6558.752841307502
 20
5047.767764100376
 30
0.0
  0
ENDBLK
  5
8192
330
8482
100
AcDbEntity
  8
0
100
AcDbBlockEnd
  0
BLOCK
  5
8485
330
8484
100
AcDbEntity
  8
0
100
AcDbBlockBegin
  2
*D10
 70
     1
 10
0.0
 20
0.0
 30
0.0
  3
*D10
  1

  0
LINE
  5
8383
330
8484
100
AcDbEntity
  8
3
 62
     0
100
AcDbLine
 10
6416.752841307507
 20
2796.192209343379
 30
0.0
 11
6871.612169487121
 21
2796.192209343379
 31
0.0
  0
LINE
  5
8384
330
8484
100
AcDbEntity
  8
3
 62
     0
100
AcDbLine
 10
6416.752841307507
 20
3916.192209343378
 30
0.0
 11
6871.612169487121
 21
3916.192209343378
 31
0.0
  0
LINE
  5
8385
330
8484
100
AcDbEntity
  8
3
 62
     0
100
AcDbLine
 10
6836.612169487122
 20
2866.192209343378
 30
0.0
 11
6836.612169487122
 21
3846.192209343378
 31
0.0
  0
INSERT
  5
8386
330
8484
100
AcDbEntity
  8
3
 62
     0
100
AcDbBlockReference
  2
_OPEN
 10
6836.612169487122
 20
2796.192209343379
 30
0.0
 41
70.0
 42
70.0
 43
70.0
 50
270.0
  0
INSERT
  5
8387
330
8484
100
AcDbEntity
  8
3
 62
     0
100
AcDbBlockReference
  2
_OPEN
 10
6836.612169487122
 20
3916.192209343378
 30
0.0
 41
70.0
 42
70.0
 43
70.0
 50
90.0
  0
TEXT
  5
83E8
330
8484
100
AcDbEntity
  8
3
 62
     0
100
AcDbText
 10
6539.109999999999
 20
3170.34
 30
0.0
 40
105.0
  1
\U+03C61120
100
AcDbText
  0
POINT
  5
8389
330
8484
100
AcDbEntity
  8
DEFPOINTS
 62
     0
100
AcDbPoint
 10
6399.252841307507
 20
2796.192209343379
 30
0.0
  0
POINT
  5
838A
330
8484
100
AcDbEntity
  8
DEFPOINTS
 62
     0
100
AcDbPoint
 10
6399.252841307507
 20
3916.192209343378
 30
0.0
  0
POINT
  5
838B
330
8484
100
AcDbEntity
  8
DEFPOINTS
 62
     0
100
AcDbPoint
 10
6836.612169487122
 20
3916.192209343378
 30
0.0
  0
ENDBLK
  5
813D
330
8484
100
AcDbEntity
  8
0
100
AcDbBlockEnd
  0
BLOCK
  5
8487
330
8486
100
AcDbEntity
  8
0
100
AcDbBlockBegin
  2
*D11
 70
     1
 10
0.0
 20
0.0
 30
0.0
  3
*D11
  1

  0
LINE
  5
838C
330
8486
100
AcDbEntity
  8
3
 62
     0
100
AcDbLine
 10
3487.401617923984
 20
3356.192209343378
 30
0.0
 11
3817.735283578247
 21
3356.192209343378
 31
0.0
  0
LINE
  5
838D
330
8486
100
AcDbEntity
  8
3
 62
     0
100
AcDbLine
 10
3301.562617025251
 20
2516.192209343379
 30
0.0
 11
3817.735283578247
 21
2516.192209343379
 31
0.0
  0
LINE
  5
838E
330
8486
100
AcDbEntity
  8
3
 62
     0
100
AcDbLine
 10
3782.735283578249
 20
3286.192209343379
 30
0.0
 11
3782.735283578247
 21
2586.192209343379
 31
0.0
  0
INSERT
  5
838F
330
8486
100
AcDbEntity
  8
3
 62
     0
100
AcDbBlockReference
  2
_OPEN
 10
3782.735283578249
 20
3356.192209343378
 30
0.0
 41
70.0
 42
70.0
 43
70.0
 50
90.0
  0
INSERT
  5
8390
330
8486
100
AcDbEntity
  8
3
 62
     0
100
AcDbBlockReference
  2
_OPEN
 10
3782.735283578247
 20
2516.192209343379
 30
0.0
 41
70.0
 42
70.0
 43
70.0
 50
270.0
  0
TEXT
  5
83E9
330
8486
100
AcDbEntity
  8
3
 62
     0
100
AcDbText
 10
3485.24
 20
2750.34
 30
0.0
 40
105.0
  1
840
100
AcDbText
  0
POINT
  5
8392
330
8486
100
AcDbEntity
  8
DEFPOINTS
 62
     0
100
AcDbPoint
 10
3469.901617923984
 20
3356.192209343378
 30
0.0
  0
POINT
  5
8393
330
8486
100
AcDbEntity
  8
DEFPOINTS
 62
     0
100
AcDbPoint
 10
3284.062617025249
 20
2516.192209343379
 30
0.0
  0
POINT
  5
8394
330
8486
100
AcDbEntity
  8
DEFPOINTS
 62
     0
100
AcDbPoint
 10
3782.735283578247
 20
2516.192209343379
 30
0.0
  0
ENDBLK
  5
7F95
330
8486
100
AcDbEntity
  8
0
100
AcDbBlockEnd
  0
BLOCK
  5
8489
330
8488
100
AcDbEntity
  8
0
100
AcDbBlockBegin
  2
*D12
 70
     1
 10
0.0
 20
0.0
 30
0.0
  3
*D12
  1

  0
LINE
  5
8395
330
8488
100
AcDbEntity
  8
3
 62
     0
100
AcDbLine
 10
4521.052841307505
 20
3753.692209343379
 30
0.0
 11
4521.052841307505
 21
5081.751112831963
 31
0.0
  0
LINE
  5
8396
330
8488
100
AcDbEntity
  8
3
 62
     0
100
AcDbLine
 10
5643.752841307503
 20
4969.368152189137
 30
0.0
 11
5643.752841307503
 21
5081.751112831963
 31
0.0
  0
LINE
  5
8397
330
8488
100
AcDbEntity
  8
3
 62
     0
100
AcDbLine
 10
4591.052841307505
 20
5046.751112831964
 30
0.0
 11
5573.752841307503
 21
5046.751112831964
 31
0.0
  0
INSERT
  5
8398
330
8488
100
AcDbEntity
  8
3
 62
     0
100
AcDbBlockReference
  2
_OPEN
 10
4521.052841307505
 20
5046.751112831964
 30
0.0
 41
70.0
 42
70.0
 43
70.0
 50
180.0
  0
INSERT
  5
8399
330
8488
100
AcDbEntity
  8
3
 62
     0
100
AcDbBlockReference
  2
_OPEN
 10
5643.752841307503
 20
5046.751112831964
 30
0.0
 41
70.0
 42
70.0
 43
70.0
  0
TEXT
  5
83EA
330
8488
100
AcDbEntity
  8
3
 62
     0
100
AcDbText
 10
4872.399999999999
 20
5035.899999999999
 30
0.0
 40
105.0
  1
MAX
100
AcDbText
  0
TEXT
  5
83EB
330
8488
100
AcDbEntity
  8
3
 62
     0
100
AcDbText
 10
4872.399999999999
 20
4899.399999999999
 30
0.0
 40
105.0
  1
1120
100
AcDbText
  0
POINT
  5
839B
330
8488
100
AcDbEntity
  8
DEFPOINTS
 62
     0
100
AcDbPoint
 10
4521.052841307505
 20
3736.192209343379
 30
0.0
  0
POINT
  5
839C
330
8488
100
AcDbEntity
  8
DEFPOINTS
 62
     0
100
AcDbPoint
 10
5643.752841307503
 20
4951.868152189138
 30
0.0
  0
POINT
  5
839D
330
8488
100
AcDbEntity
  8
DEFPOINTS
 62
     0
100
AcDbPoint
 10
5643.752841307503
 20
5046.751112831964
 30
0.0
  0
ENDBLK
  5
8187
330
8488
100
AcDbEntity
  8
0
100
AcDbBlockEnd
  0
BLOCK
  5
848B
330
848A
100
AcDbEntity
  8
0
100
AcDbBlockBegin
  2
*D13
 70
     1
 10
0.0
 20
0.0
 30
0.0
  3
*D13
  1

  0
LINE
  5
839E
330
848A
100
AcDbEntity
  8
3
 62
     0
100
AcDbLine
 10
1964.062617025251
 20
7596.091300024716
 30
0.0
 11
1964.062617025251
 21
7843.010105037642
 31
0.0
  0
LINE
  5
839F
330
848A
100
AcDbEntity
  8
3
 62
     0
100
AcDbLine
 10
3284.062617025249
 20
7596.091300024719
 30
0.0
 11
3284.062617025249
 21
7843.010105037642
 31
0.0
  0
LINE
  5
83A0
330
848A
100
AcDbEntity
  8
3
 62
     0
100
AcDbLine
 10
2034.06261702525
 20
7808.010105037642
 30
0.0
 11
3214.062617025251
 21
7808.010105037642
 31
0.0
  0
INSERT
  5
83A1
330
848A
100
AcDbEntity
  8
3
 62
     0
100
AcDbBlockReference
  2
_OPEN
 10
1964.062617025251
 20
7808.010105037642
 30
0.0
 41
70.0
 42
70.0
 43
70.0
 50
180.0
  0
INSERT
  5
83A2
330
848A
100
AcDbEntity
  8
3
 62
     0
100
AcDbBlockReference
  2
_OPEN
 10
3284.062617025249
 20
7808.010105037642
 30
0.0
 41
70.0
 42
70.0
 43
70.0
  0
TEXT
  5
83EC
330
848A
100
AcDbEntity
  8
3
 62
     0
100
AcDbText
 10
2414.06
 20
7709.659999999999
 30
0.0
 40
105.0
  1
1320
100
AcDbText
  0
POINT
  5
83A4
330
848A
100
AcDbEntity
  8
DEFPOINTS
 62
     0
100
AcDbPoint
 10
1964.062617025251
 20
7578.591300024716
 30
0.0
  0
POINT
  5
83A5
330
848A
100
AcDbEntity
  8
DEFPOINTS
 62
     0
100
AcDbPoint
 10
3284.062617025249
 20
7578.591300024719
 30
0.0
  0
POINT
  5
83A6
330
848A
100
AcDbEntity
  8
DEFPOINTS
 62
     0
100
AcDbPoint
 10
3284.062617025249
 20
7808.010105037642
 30
0.0
  0
ENDBLK
  5
808B
330
848A
100
AcDbEntity
  8
0
100
AcDbBlockEnd
  0
BLOCK
  5
848D
330
848C
100
AcDbEntity
  8
0
100
AcDbBlockBegin
  2
*D14
 70
     1
 10
0.0
 20
0.0
 30
0.0
  3
*D14
  1

  0
LINE
  5
83A7
330
848C
100
AcDbEntity
  8
3
 62
     0
100
AcDbLine
 10
1006.56261702525
 20
6578.591300024716
 30
0.0
 11
773.2474876895395
 21
6578.591300024716
 31
0.0
  0
LINE
  5
83A8
330
848C
100
AcDbEntity
  8
3
 62
     0
100
AcDbLine
 10
1006.56261702525
 20
5678.591300024716
 30
0.0
 11
773.2474876895393
 21
5678.591300024716
 31
0.0
  0
LINE
  5
83A9
330
848C
100
AcDbEntity
  8
3
 62
     0
100
AcDbLine
 10
808.2474876895394
 20
6508.591300024716
 30
0.0
 11
808.2474876895393
 21
5748.591300024716
 31
0.0
  0
INSERT
  5
83AA
330
848C
100
AcDbEntity
  8
3
 62
     0
100
AcDbBlockReference
  2
_OPEN
 10
808.2474876895394
 20
6578.591300024716
 30
0.0
 41
70.0
 42
70.0
 43
70.0
 50
90.0
  0
INSERT
  5
83AB
330
848C
100
AcDbEntity
  8
3
 62
     0
100
AcDbBlockReference
  2
_OPEN
 10
808.2474876895393
 20
5678.591300024716
 30
0.0
 41
70.0
 42
70.0
 43
70.0
 50
270.0
  0
TEXT
  5
83ED
330
848C
100
AcDbEntity
  8
3
 62
     0
100
AcDbText
 10
510.7469999999999
 20
5942.74
 30
0.0
 40
105.0
  1
900
100
AcDbText
  0
POINT
  5
83AD
330
848C
100
AcDbEntity
  8
DEFPOINTS
 62
     0
100
AcDbPoint
 10
1024.06261702525
 20
6578.591300024716
 30
0.0
  0
POINT
  5
83AE
330
848C
100
AcDbEntity
  8
DEFPOINTS
 62
     0
100
AcDbPoint
 10
1024.06261702525
 20
5678.591300024716
 30
0.0
  0
POINT
  5
83AF
330
848C
100
AcDbEntity
  8
DEFPOINTS
 62
     0
100
AcDbPoint
 10
808.2474876895393
 20
5678.591300024716
 30
0.0
  0
ENDBLK
  5
814C
330
848C
100
AcDbEntity
  8
0
100
AcDbBlockEnd
  0
BLOCK
  5
848F
330
848E
100
AcDbEntity
  8
0
100
AcDbBlockBegin
  2
*D15
 70
     1
 10
0.0
 20
0.0
 30
0.0
  3
*D15
  1

  0
LINE
  5
83B0
330
848E
100
AcDbEntity
  8
3
 62
     0
100
AcDbLine
 10
1024.06261702525
 20
5661.091300024716
 30
0.0
 11
1024.06261702525
 21
5296.934663388967
 31
0.0
  0
LINE
  5
83B1
330
848E
100
AcDbEntity
  8
3
 62
     0
100
AcDbLine
 10
3284.062617025251
 20
5661.091300024716
 30
0.0
 11
3284.062617025251
 21
5296.934663388967
 31
0.0
  0
LINE
  5
83B2
330
848E
100
AcDbEntity
  8
3
 62
     0
100
AcDbLine
 10
1094.06261702525
 20
5331.934663388967
 30
0.0
 11
3214.062617025251
 21
5331.934663388967
 31
0.0
  0
INSERT
  5
83B3
330
848E
100
AcDbEntity
  8
3
 62
     0
100
AcDbBlockReference
  2
_OPEN
 10
1024.06261702525
 20
5331.934663388967
 30
0.0
 41
70.0
 42
70.0
 43
70.0
 50
180.0
  0
INSERT
  5
83B4
330
848E
100
AcDbEntity
  8
3
 62
     0
100
AcDbBlockReference
  2
_OPEN
 10
3284.062617025251
 20
5331.934663388967
 30
0.0
 41
70.0
 42
70.0
 43
70.0
  0
TEXT
  5
83EE
330
848E
100
AcDbEntity
  8
3
 62
     0
100
AcDbText
 10
1944.06
 20
5233.579999999999
 30
0.0
 40
105.0
  1
2260
100
AcDbText
  0
POINT
  5
83B6
330
848E
100
AcDbEntity
  8
DEFPOINTS
 62
     0
100
AcDbPoint
 10
1024.06261702525
 20
5678.591300024717
 30
0.0
  0
POINT
  5
83B7
330
848E
100
AcDbEntity
  8
DEFPOINTS
 62
     0
100
AcDbPoint
 10
3284.062617025251
 20
5678.591300024717
 30
0.0
  0
POINT
  5
83B8
330
848E
100
AcDbEntity
  8
DEFPOINTS
 62
     0
100
AcDbPoint
 10
3284.062617025251
 20
5331.934663388967
 30
0.0
  0
ENDBLK
  5
8096
330
848E
100
AcDbEntity
  8
0
100
AcDbBlockEnd
  0
BLOCK
  5
8491
330
8490
100
AcDbEntity
  8
0
100
AcDbBlockBegin
  2
*D16
 70
     1
 10
0.0
 20
0.0
 30
0.0
  3
*D16
  1

  0
LINE
  5
83B9
330
8490
100
AcDbEntity
  8
3
 62
     0
100
AcDbLine
 10
3301.562617025251
 20
7578.591300024719
 30
0.0
 11
3754.797915355994
 21
7578.591300024719
 31
0.0
  0
LINE
  5
83BA
330
8490
100
AcDbEntity
  8
3
 62
     0
100
AcDbLine
 10
3301.562617025251
 20
5678.591300024717
 30
0.0
 11
3754.797915355993
 21
5678.591300024717
 31
0.0
  0
LINE
  5
83BB
330
8490
100
AcDbEntity
  8
3
 62
     0
100
AcDbLine
 10
3719.797915355993
 20
7508.591300024718
 30
0.0
 11
3719.797915355993
 21
5748.591300024717
 31
0.0
  0
INSERT
  5
83BC
330
8490
100
AcDbEntity
  8
3
 62
     0
100
AcDbBlockReference
  2
_OPEN
 10
3719.797915355993
 20
7578.591300024719
 30
0.0
 41
70.0
 42
70.0
 43
70.0
 50
90.0
  0
INSERT
  5
83BD
330
8490
100
AcDbEntity
  8
3
 62
     0
100
AcDbBlockReference
  2
_OPEN
 10
3719.797915355993
 20
5678.591300024717
 30
0.0
 41
70.0
 42
70.0
 43
70.0
 50
270.0
  0
TEXT
  5
83EF
330
8490
100
AcDbEntity
  8
3
 62
     0
100
AcDbText
 10
3422.300000000001
 20
6442.74
 30
0.0
 40
105.0
  1
1900
100
AcDbText
  0
POINT
  5
83BF
330
8490
100
AcDbEntity
  8
DEFPOINTS
 62
     0
100
AcDbPoint
 10
3284.062617025249
 20
7578.591300024719
 30
0.0
  0
POINT
  5
83C0
330
8490
100
AcDbEntity
  8
DEFPOINTS
 62
     0
100
AcDbPoint
 10
3284.062617025251
 20
5678.591300024717
 30
0.0
  0
POINT
  5
83C1
330
8490
100
AcDbEntity
  8
DEFPOINTS
 62
     0
100
AcDbPoint
 10
3719.797915355993
 20
5678.591300024717
 30
0.0
  0
ENDBLK
  5
80A1
330
8490
100
AcDbEntity
  8
0
100
AcDbBlockEnd
  0
BLOCK
  5
8493
330
8492
100
AcDbEntity
  8
0
100
AcDbBlockBegin
  2
*D17
 70
     1
 10
0.0
 20
0.0
 30
0.0
  3
*D17
  1

  0
LINE
  5
83C2
330
8492
100
AcDbEntity
  8
3
 62
     0
100
AcDbLine
 10
1024.06261702525
 20
6596.091300024716
 30
0.0
 11
1024.06261702525
 21
7843.010105037642
 31
0.0
  0
LINE
  5
83C3
330
8492
100
AcDbEntity
  8
3
 62
     0
100
AcDbLine
 10
1964.062617025251
 20
7596.091300024716
 30
0.0
 11
1964.062617025251
 21
7843.010105037642
 31
0.0
  0
LINE
  5
83C4
330
8492
100
AcDbEntity
  8
3
 62
     0
100
AcDbLine
 10
1094.06261702525
 20
7808.010105037642
 30
0.0
 11
1894.06261702525
 21
7808.010105037642
 31
0.0
  0
INSERT
  5
83C5
330
8492
100
AcDbEntity
  8
3
 62
     0
100
AcDbBlockReference
  2
_OPEN
 10
1024.06261702525
 20
7808.010105037642
 30
0.0
 41
70.0
 42
70.0
 43
70.0
 50
180.0
  0
INSERT
  5
83C6
330
8492
100
AcDbEntity
  8
3
 62
     0
100
AcDbBlockReference
  2
_OPEN
 10
1964.062617025251
 20
7808.010105037642
 30
0.0
 41
70.0
 42
70.0
 43
70.0
  0
TEXT
  5
83F0
330
8492
100
AcDbEntity
  8
3
 62
     0
100
AcDbText
 10
1284.06
 20
7709.659999999999
 30
0.0
 40
105.0
  1
940
100
AcDbText
  0
POINT
  5
83C8
330
8492
100
AcDbEntity
  8
DEFPOINTS
 62
     0
100
AcDbPoint
 10
1024.06261702525
 20
6578.591300024716
 30
0.0
  0
POINT
  5
83C9
330
8492
100
AcDbEntity
  8
DEFPOINTS
 62
     0
100
AcDbPoint
 10
1964.062617025251
 20
7578.591300024716
 30
0.0
  0
POINT
  5
83CA
330
8492
100
AcDbEntity
  8
DEFPOINTS
 62
     0
100
AcDbPoint
 10
1964.062617025251
 20
7808.010105037642
 30
0.0
  0
ENDBLK
  5
8080
330
8492
100
AcDbEntity
  8
0
100
AcDbBlockEnd
  0
BLOCK
  5
8495
330
8494
100
AcDbEntity
  8
0
100
AcDbBlockBegin
  2
*D18
 70
     1
 10
0.0
 20
0.0
 30
0.0
  3
*D18
  1

  0
LINE
  5
83CB
330
8494
100
AcDbEntity
  8
3
 62
     0
100
AcDbLine
 10
3384.062617025249
 20
4624.692209343378
 30
0.0
 11
3384.062617025249
 21
5037.684932965962
 31
0.0
  0
LINE
  5
83CC
330
8494
100
AcDbEntity
  8
3
 62
     0
100
AcDbLine
 10
1024.062617025251
 20
2658.692209343379
 30
0.0
 11
1024.062617025252
 21
5037.684932965962
 31
0.0
  0
LINE
  5
83CD
330
8494
100
AcDbEntity
  8
3
 62
     0
100
AcDbLine
 10
3314.062617025251
 20
5002.684932965962
 30
0.0
 11
1094.062617025252
 21
5002.684932965962
 31
0.0
  0
INSERT
  5
83CE
330
8494
100
AcDbEntity
  8
3
 62
     0
100
AcDbBlockReference
  2
_OPEN
 10
3384.062617025249
 20
5002.684932965962
 30
0.0
 41
70.0
 42
70.0
 43
70.0
  0
INSERT
  5
83CF
330
8494
100
AcDbEntity
  8
3
 62
     0
100
AcDbBlockReference
  2
_OPEN
 10
1024.062617025252
 20
5002.684932965962
 30
0.0
 41
70.0
 42
70.0
 43
70.0
 50
180.0
  0
TEXT
  5
83F1
330
8494
100
AcDbEntity
  8
3
 62
     0
100
AcDbText
 10
1994.06
 20
4904.33
 30
0.0
 40
105.0
  1
2360
100
AcDbText
  0
POINT
  5
83D1
330
8494
100
AcDbEntity
  8
DEFPOINTS
 62
     0
100
AcDbPoint
 10
3384.062617025249
 20
4607.192209343378
 30
0.0
  0
POINT
  5
83D2
330
8494
100
AcDbEntity
  8
DEFPOINTS
 62
     0
100
AcDbPoint
 10
1024.062617025251
 20
2641.192209343379
 30
0.0
  0
POINT
  5
83D3
330
8494
100
AcDbEntity
  8
DEFPOINTS
 62
     0
100
AcDbPoint
 10
1024.062617025252
 20
5002.684932965962
 30
0.0
  0
ENDBLK
  5
7FD9
330
8494
100
AcDbEntity
  8
0
100
AcDbBlockEnd
  0
BLOCK
  5
8497
330
8496
100
AcDbEntity
  8
0
100
AcDbBlockBegin
  2
*D19
 70
     1
 10
0.0
 20
0.0
 30
0.0
  3
*D19
  1

  0
LINE
  5
83D4
330
8496
100
AcDbEntity
  8
3
 62
     0
100
AcDbLine
 10
3301.562617025251
 20
2401.192209343379
 30
0.0
 11
3817.735283578247
 21
2401.192209343379
 31
0.0
  0
LINE
  5
83D5
330
8496
100
AcDbEntity
  8
3
 62
     0
100
AcDbLine
 10
3301.56261702525
 20
2336.192209343379
 30
0.0
 11
3817.735283578247
 21
2336.192209343379
 31
0.0
  0
LINE
  5
83D6
330
8496
100
AcDbEntity
  8
3
 62
     0
100
AcDbLine
 10
3782.735283578247
 20
2471.192209343379
 30
0.0
 11
3782.735283578247
 21
2541.192209343379
 31
0.0
  0
LINE
  5
83D7
330
8496
100
AcDbEntity
  8
3
 62
     0
100
AcDbLine
 10
3782.735283578247
 20
2266.192209343379
 30
0.0
 11
3782.735283578247
 21
1956.192209343378
 31
0.0
  0
LINE
  5
83D8
330
8496
100
AcDbEntity
  8
3
 62
     0
100
AcDbLine
 10
3782.735283578247
 20
2401.192209343379
 30
0.0
 11
3782.735283578247
 21
2336.192209343379
 31
0.0
  0
INSERT
  5
83D9
330
8496
100
AcDbEntity
  8
3
 62
     0
100
AcDbBlockReference
  2
_DOT
 10
3782.735283578247
 20
2401.192209343379
 30
0.0
 41
70.0
 42
70.0
 43
70.0
 50
270.0
  0
INSERT
  5
83DA
330
8496
100
AcDbEntity
  8
3
 62
     0
100
AcDbBlockReference
  2
_OPEN
 10
3782.735283578247
 20
2336.192209343379
 30
0.0
 41
70.0
 42
70.0
 43
70.0
 50
90.0
  0
TEXT
  5
83F2
330
8496
100
AcDbEntity
  8
3
 62
     0
100
AcDbText
 10
3485.24
 20
1890.34
 30
0.0
 40
105.0
  1
65
100
AcDbText
  0
POINT
  5
83DC
330
8496
100
AcDbEntity
  8
DEFPOINTS
 62
     0
100
AcDbPoint
 10
3284.062617025249
 20
2401.192209343379
 30
0.0
  0
POINT
  5
83DD
330
8496
100
AcDbEntity
  8
DEFPOINTS
 62
     0
100
AcDbPoint
 10
3284.062617025249
 20
2336.192209343379
 30
0.0
  0
POINT
  5
83DE
330
8496
100
AcDbEntity
  8
DEFPOINTS
 62
     0
100
AcDbPoint
 10
3782.735283578247
 20
2336.192209343379
 30
0.0
  0
ENDBLK
  5
810C
330
8496
100
AcDbEntity
  8
0
100
AcDbBlockEnd
  0
BLOCK
  5
8499
330
8498
100
AcDbEntity
  8
0
100
AcDbBlockBegin
  2
_DOT
 70
     0
 10
0.0
 20
0.0
 30
0.0
  3
_DOT
  1

  0
LWPOLYLINE
  5
812A
330
8498
100
AcDbEntity
  8
0
  6
ByBlock
 62
     0
100
AcDbPolyline
 90
        2
 70
     1
 43
0.25
 10
-0.125
 20
0.0
 42
1.0
 10
0.125
 20
0.0
 42
1.0
  0
LINE
  5
812E
330
8498
100
AcDbEntity
  8
0
  6
ByBlock
 62
     0
100
AcDbLine
 10
-0.25
 20
0.0
 30
0.0
 11
-1.0
 21
0.0
 31
0.0
  0
ENDBLK
  5
80F2
330
8498
100
AcDbEntity
  8
0
100
AcDbBlockEnd
  0
BLOCK
  5
849B
330
849A
100
AcDbEntity
  8
0
100
AcDbBlockBegin
  2
*D21
 70
     1
 10
0.0
 20
0.0
 30
0.0
  3
*D21
  1

  0
LINE
  5
81BD
330
849A
100
AcDbEntity
  8
0
  6
ByBlock
 62
     0
100
AcDbLine
 10
1024.062617025251
 20
2413.692209343379
 30
0.0
 11
1024.062617025251
 21
2155.52784082877
 31
0.0
  0
LINE
  5
81BE
330
849A
100
AcDbEntity
  8
0
  6
ByBlock
 62
     0
100
AcDbLine
 10
2624.062617025251
 20
2413.692209343379
 30
0.0
 11
2624.062617025251
 21
2155.52784082877
 31
0.0
  0
LINE
  5
81BF
330
849A
100
AcDbEntity
  8
0
  6
ByBlock
 62
     0
100
AcDbLine
 10
1094.062617025251
 20
2190.52784082877
 30
0.0
 11
2554.062617025251
 21
2190.52784082877
 31
0.0
  0
INSERT
  5
81C0
330
849A
100
AcDbEntity
  8
0
  6
ByBlock
 62
     0
100
AcDbBlockReference
  2
_OPEN
 10
1024.062617025251
 20
2190.52784082877
 30
0.0
 41
70.0
 42
70.0
 43
70.0
 50
180.0
  0
INSERT
  5
81C1
330
849A
100
AcDbEntity
  8
0
  6
ByBlock
 62
     0
100
AcDbBlockReference
  2
_OPEN
 10
2624.062617025251
 20
2190.52784082877
 30
0.0
 41
70.0
 42
70.0
 43
70.0
  0
TEXT
  5
81C2
330
849A
100
AcDbEntity
  8
3
 62
     0
100
AcDbText
 10
1649.062617025251
 20
2225.52784082877
 30
0.0
 40
105.0
  1
1600
100
AcDbText
  0
POINT
  5
81C3
330
849A
100
AcDbEntity
  8
DEFPOINTS
  6
ByBlock
 62
     0
100
AcDbPoint
 10
1024.062617025251
 20
2431.192209343379
 30
0.0
  0
POINT
  5
81C4
330
849A
100
AcDbEntity
  8
DEFPOINTS
  6
ByBlock
 62
     0
100
AcDbPoint
 10
2624.062617025251
 20
2431.192209343379
 30
0.0
  0
POINT
  5
81C5
330
849A
100
AcDbEntity
  8
DEFPOINTS
  6
ByBlock
 62
     0
100
AcDbPoint
 10
2624.062617025251
 20
2190.52784082877
 30
0.0
  0
ENDBLK
  5
81C6
330
849A
100
AcDbEntity
  8
0
100
AcDbBlockEnd
  0
BLOCK
  5
849D
330
849C
100
AcDbEntity
  8
0
100
AcDbBlockBegin
  2
*D22
 70
     1
 10
0.0
 20
0.0
 30
0.0
  3
*D22
  1

  0
LINE
  5
81CA
330
849C
100
AcDbEntity
  8
0
  6
ByBlock
 62
     0
100
AcDbLine
 10
2624.062617025251
 20
2413.692209343379
 30
0.0
 11
2624.062617025251
 21
2155.52784082877
 31
0.0
  0
LINE
  5
81CB
330
849C
100
AcDbEntity
  8
0
  6
ByBlock
 62
     0
100
AcDbLine
 10
3284.062617025249
 20
2413.692209343379
 30
0.0
 11
3284.062617025249
 21
2155.52784082877
 31
0.0
  0
LINE
  5
81CC
330
849C
100
AcDbEntity
  8
0
  6
ByBlock
 62
     0
100
AcDbLine
 10
2694.062617025251
 20
2190.52784082877
 30
0.0
 11
3214.06261702525
 21
2190.52784082877
 31
0.0
  0
INSERT
  5
81CD
330
849C
100
AcDbEntity
  8
0
  6
ByBlock
 62
     0
100
AcDbBlockReference
  2
_OPEN
 10
2624.062617025251
 20
2190.52784082877
 30
0.0
 41
70.0
 42
70.0
 43
70.0
 50
180.0
  0
INSERT
  5
81CE
330
849C
100
AcDbEntity
  8
0
  6
ByBlock
 62
     0
100
AcDbBlockReference
  2
_OPEN
 10
3284.062617025249
 20
2190.52784082877
 30
0.0
 41
70.0
 42
70.0
 43
70.0
  0
TEXT
  5
81CF
330
849C
100
AcDbEntity
  8
3
 62
     0
100
AcDbText
 10
2819.062617025251
 20
2225.52784082877
 30
0.0
 40
105.0
  1
660
100
AcDbText
  0
POINT
  5
81D0
330
849C
100
AcDbEntity
  8
DEFPOINTS
  6
ByBlock
 62
     0
100
AcDbPoint
 10
2624.062617025251
 20
2431.192209343379
 30
0.0
  0
POINT
  5
81D1
330
849C
100
AcDbEntity
  8
DEFPOINTS
  6
ByBlock
 62
     0
100
AcDbPoint
 10
3284.062617025249
 20
2431.192209343379
 30
0.0
  0
POINT
  5
81D2
330
849C
100
AcDbEntity
  8
DEFPOINTS
  6
ByBlock
 62
     0
100
AcDbPoint
 10
3284.062617025249
 20
2190.52784082877
 30
0.0
  0
ENDBLK
  5
81D3
330
849C
100
AcDbEntity
  8
0
100
AcDbBlockEnd
  0
BLOCK
  5
849F
330
849E
100
AcDbEntity
  8
0
100
AcDbBlockBegin
  2
*D23
 70
     1
 10
0.0
 20
0.0
 30
0.0
  3
*D23
  1

  0
LINE
  5
81D7
330
849E
100
AcDbEntity
  8
0
  6
ByBlock
 62
     0
100
AcDbLine
 10
4561.752841307494
 20
2413.692209343379
 30
0.0
 11
4561.752841307494
 21
2155.52784082877
 31
0.0
  0
LINE
  5
81D8
330
849E
100
AcDbEntity
  8
0
  6
ByBlock
 62
     0
100
AcDbLine
 10
5643.752841307506
 20
2413.692209343379
 30
0.0
 11
5643.752841307506
 21
2155.52784082877
 31
0.0
  0
LINE
  5
81D9
330
849E
100
AcDbEntity
  8
0
  6
ByBlock
 62
     0
100
AcDbLine
 10
4631.752841307494
 20
2190.52784082877
 30
0.0
 11
5573.752841307506
 21
2190.52784082877
 31
0.0
  0
INSERT
  5
81DA
330
849E
100
AcDbEntity
  8
0
  6
ByBlock
 62
     0
100
AcDbBlockReference
  2
_OPEN
 10
4561.752841307494
 20
2190.52784082877
 30
0.0
 41
70.0
 42
70.0
 43
70.0
 50
180.0
  0
INSERT
  5
81DB
330
849E
100
AcDbEntity
  8
0
  6
ByBlock
 62
     0
100
AcDbBlockReference
  2
_OPEN
 10
5643.752841307506
 20
2190.52784082877
 30
0.0
 41
70.0
 42
70.0
 43
70.0
  0
TEXT
  5
81DC
330
849E
100
AcDbEntity
  8
3
 62
     0
100
AcDbText
 10
4927.7528413075
 20
2225.52784082877
 30
0.0
 40
105.0
  1
1082
100
AcDbText
  0
POINT
  5
81DD
330
849E
100
AcDbEntity
  8
DEFPOINTS
  6
ByBlock
 62
     0
100
AcDbPoint
 10
4561.752841307494
 20
2431.192209343379
 30
0.0
  0
POINT
  5
81DE
330
849E
100
AcDbEntity
  8
DEFPOINTS
  6
ByBlock
 62
     0
100
AcDbPoint
 10
5643.752841307506
 20
2431.192209343379
 30
0.0
  0
POINT
  5
81DF
330
849E
100
AcDbEntity
  8
DEFPOINTS
  6
ByBlock
 62
     0
100
AcDbPoint
 10
5643.752841307506
 20
2190.52784082877
 30
0.0
  0
ENDBLK
  5
81E0
330
849E
100
AcDbEntity
  8
0
100
AcDbBlockEnd
  0
BLOCK
  5
84A1
330
84A0
100
AcDbEntity
  8
0
100
AcDbBlockBegin
  2
*D24
 70
     1
 10
0.0
 20
0.0
 30
0.0
  3
*D24
  1

  0
LINE
  5
81E4
330
84A0
100
AcDbEntity
  8
0
  6
ByBlock
 62
     0
100
AcDbLine
 10
5643.752841307506
 20
2413.692209343379
 30
0.0
 11
5643.752841307506
 21
2155.52784082877
 31
0.0
  0
LINE
  5
81E5
330
84A0
100
AcDbEntity
  8
0
  6
ByBlock
 62
     0
100
AcDbLine
 10
6461.752841307485
 20
2413.692209343379
 30
0.0
 11
6461.752841307485
 21
2155.52784082877
 31
0.0
  0
LINE
  5
81E6
330
84A0
100
AcDbEntity
  8
0
  6
ByBlock
 62
     0
100
AcDbLine
 10
5713.752841307506
 20
2190.52784082877
 30
0.0
 11
6391.752841307487
 21
2190.52784082877
 31
0.0
  0
INSERT
  5
81E7
330
84A0
100
AcDbEntity
  8
0
  6
ByBlock
 62
     0
100
AcDbBlockReference
  2
_OPEN
 10
5643.752841307506
 20
2190.52784082877
 30
0.0
 41
70.0
 42
70.0
 43
70.0
 50
180.0
  0
INSERT
  5
81E8
330
84A0
100
AcDbEntity
  8
0
  6
ByBlock
 62
     0
100
AcDbBlockReference
  2
_OPEN
 10
6461.752841307485
 20
2190.52784082877
 30
0.0
 41
70.0
 42
70.0
 43
70.0
  0
TEXT
  5
81E9
330
84A0
100
AcDbEntity
  8
3
 62
     0
100
AcDbText
 10
5927.752841307496
 20
2225.52784082877
 30
0.0
 40
105.0
  1
818
100
AcDbText
  0
POINT
  5
81EA
330
84A0
100
AcDbEntity
  8
DEFPOINTS
  6
ByBlock
 62
     0
100
AcDbPoint
 10
5643.752841307506
 20
2431.192209343379
 30
0.0
  0
POINT
  5
81EB
330
84A0
100
AcDbEntity
  8
DEFPOINTS
  6
ByBlock
 62
     0
100
AcDbPoint
 10
6461.752841307485
 20
2431.192209343379
 30
0.0
  0
POINT
  5
81EC
330
84A0
100
AcDbEntity
  8
DEFPOINTS
  6
ByBlock
 62
     0
100
AcDbPoint
 10
6461.752841307485
 20
2190.52784082877
 30
0.0
  0
ENDBLK
  5
81ED
330
84A0
100
AcDbEntity
  8
0
100
AcDbBlockEnd
  0
BLOCK
  5
84A3
330
84A2
100
AcDbEntity
  8
0
100
AcDbBlockBegin
  2
_NONE
 70
     0
 10
0.0
 20
0.0
 30
0.0
  3
_NONE
  1

  0
CIRCLE
  5
81F1
330
84A2
100
AcDbEntity
  8
0
  6
ByBlock
 62
     0
100
AcDbCircle
 10
0.0
 20
0.0
 30
0.0
 40
0.25
  0
ENDBLK
  5
81F2
330
84A2
100
AcDbEntity
  8
0
100
AcDbBlockEnd
  0
BLOCK
  5
84A5
330
84A4
100
AcDbEntity
  8
0
100
AcDbBlockBegin
  2
*D26
 70
     1
 10
0.0
 20
0.0
 30
0.0
  3
*D26
  1

  0
LINE
  5
826B
330
84A4
100
AcDbEntity
  8
0
  6
ByBlock
 62
     0
100
AcDbLine
 10
3779.871415084257
 20
2401.192209343379
 30
0.0
 11
3779.871415084257
 21
2516.192209343379
 31
0.0
  0
TEXT
  5
826C
330
84A4
100
AcDbEntity
  8
3
 62
     0
100
AcDbText
 10
3982.371415084257
 20
2213.192209343379
 30
0.0
 40
105.0
  1
  (115)
 50
90.0
100
AcDbText
  0
POINT
  5
826D
330
84A4
100
AcDbEntity
  8
DEFPOINTS
  6
ByBlock
 62
     0
100
AcDbPoint
 10
3284.062617025249
 20
2401.192209343379
 30
0.0
  0
POINT
  5
826E
330
84A4
100
AcDbEntity
  8
DEFPOINTS
  6
ByBlock
 62
     0
100
AcDbPoint
 10
3284.062617025249
 20
2516.192209343379
 30
0.0
  0
POINT
  5
826F
330
84A4
100
AcDbEntity
  8
DEFPOINTS
  6
ByBlock
 62
     0
100
AcDbPoint
 10
3779.871415084257
 20
2516.192209343379
 30
0.0
  0
ENDBLK
  5
8270
330
84A4
100
AcDbEntity
  8
0
100
AcDbBlockEnd
  0
BLOCK
  5
84A7
330
84A6
100
AcDbEntity
  8
0
100
AcDbBlockBegin
  2
*D27
 70
     1
 10
0.0
 20
0.0
 30
0.0
  3
*D27
  1

  0
LINE
  5
8251
330
84A6
100
AcDbEntity
  8
0
  6
ByBlock
 62
     0
100
AcDbLine
 10
3301.56261702525
 20
2336.192209343379
 30
0.0
 11
4104.891524691136
 21
2336.192209343379
 31
0.0
  0
LINE
  5
8252
330
84A6
100
AcDbEntity
  8
0
  6
ByBlock
 62
     0
100
AcDbLine
 10
3419.062617025249
 20
4554.192209343379
 30
0.0
 11
4104.891524691136
 21
4554.192209343379
 31
0.0
  0
LINE
  5
8253
330
84A6
100
AcDbEntity
  8
0
  6
ByBlock
 62
     0
100
AcDbLine
 10
4069.891524691136
 20
2406.192209343379
 30
0.0
 11
4069.891524691136
 21
4484.192209343379
 31
0.0
  0
INSERT
  5
8254
330
84A6
100
AcDbEntity
  8
0
  6
ByBlock
 62
     0
100
AcDbBlockReference
  2
_OPEN
 10
4069.891524691136
 20
2336.192209343379
 30
0.0
 41
70.0
 42
70.0
 43
70.0
 50
270.0
  0
INSERT
  5
8255
330
84A6
100
AcDbEntity
  8
0
  6
ByBlock
 62
     0
100
AcDbBlockReference
  2
_OPEN
 10
4069.891524691136
 20
4554.192209343379
 30
0.0
 41
70.0
 42
70.0
 43
70.0
 50
90.0
  0
TEXT
  5
8256
330
84A6
100
AcDbEntity
  8
3
 62
     0
100
AcDbText
 10
3989.891524691135
 20
3202.692209343378
 30
0.0
 40
105.0
  1
(2218)
 50
90.0
100
AcDbText
  0
POINT
  5
8257
330
84A6
100
AcDbEntity
  8
DEFPOINTS
  6
ByBlock
 62
     0
100
AcDbPoint
 10
3284.062617025249
 20
2336.192209343379
 30
0.0
  0
POINT
  5
8258
330
84A6
100
AcDbEntity
  8
DEFPOINTS
  6
ByBlock
 62
     0
100
AcDbPoint
 10
3401.562617025251
 20
4554.192209343379
 30
0.0
  0
POINT
  5
8259
330
84A6
100
AcDbEntity
  8
DEFPOINTS
  6
ByBlock
 62
     0
100
AcDbPoint
 10
4069.891524691136
 20
4554.192209343379
 30
0.0
  0
ENDBLK
  5
825A
330
84A6
100
AcDbEntity
  8
0
100
AcDbBlockEnd
  0
BLOCK
  5
84AA
330
84A9
100
AcDbEntity
  8
0
100
AcDbBlockBegin
  2
*D28
 70
     1
 10
0.0
 20
0.0
 30
0.0
  3
*D28
  1

  0
LINE
  5
84AC
330
84A9
100
AcDbEntity
  8
3
 62
     0
370
    -2
100
AcDbLine
 10
4523.752841307505
 20
3738.379709343379
 30
0.0
 11
4523.752841307505
 21
5053.051112831964
 31
0.0
  0
LINE
  5
84AD
330
84A9
100
AcDbEntity
  8
3
 62
     0
370
    -2
100
AcDbLine
 10
5643.752841307503
 20
4954.055652189139
 30
0.0
 11
5643.752841307503
 21
5053.051112831964
 31
0.0
  0
LINE
  5
84AE
330
84A9
100
AcDbEntity
  8
3
 62
     0
370
    -2
100
AcDbLine
 10
4530.052841307505
 20
5046.751112831964
 30
0.0
 11
5070.702841307504
 21
5046.751112831964
 31
0.0
  0
LINE
  5
84AF
330
84A9
100
AcDbEntity
  8
3
 62
     0
370
    -2
100
AcDbLine
 10
5637.452841307503
 20
5046.751112831964
 30
0.0
 11
5096.802841307504
 21
5046.751112831964
 31
0.0
  0
SOLID
  5
84B0
330
84A9
100
AcDbEntity
  8
3
 62
     0
100
AcDbTrace
 10
4530.052841307505
 20
5047.801112831964
 30
0.0
 11
4530.052841307505
 21
5045.701112831963
 31
0.0
 12
4523.752841307505
 22
5046.751112831964
 32
0.0
 13
4523.752841307505
 23
5046.751112831964
 33
0.0
  0
SOLID
  5
84B1
330
84A9
100
AcDbEntity
  8
3
 62
     0
100
AcDbTrace
 10
5637.452841307503
 20
5047.801112831964
 30
0.0
 11
5637.452841307503
 21
5045.701112831963
 31
0.0
 12
5643.752841307503
 22
5046.751112831964
 32
0.0
 13
5643.752841307503
 23
5046.751112831964
 33
0.0
  0
MTEXT
  5
84B2
330
84A9
100
AcDbEntity
  8
3
 62
     0
100
AcDbMText
 10
5083.752841307504
 20
5046.751112831964
 30
0.0
 40
6.299999999999999
 41
0.0
 71
     5
 72
     1
  1
\A1;MAX\P1120
 73
     1
 44
1.0
1001
ACAD
1000
MTEXTBEGIN
1070
    73
1070
     1
1070
    44
1040
1.0
1070
    74
1070
     0
1000
MTEXTEND
  0
POINT
  5
84B3
330
84A9
100
AcDbEntity
  8
DEFPOINTS
 62
     0
100
AcDbPoint
 10
4523.752841307505
 20
3736.192209343379
 30
0.0
  0
POINT
  5
84B4
330
84A9
100
AcDbEntity
  8
DEFPOINTS
 62
     0
100
AcDbPoint
 10
5643.752841307503
 20
4951.868152189138
 30
0.0
  0
POINT
  5
84B5
330
84A9
100
AcDbEntity
  8
DEFPOINTS
 62
     0
100
AcDbPoint
 10
5643.752841307503
 20
5046.751112831964
 30
0.0
  0
ENDBLK
  5
84AB
330
84A9
100
AcDbEntity
  8
0
100
AcDbBlockEnd
  0
BLOCK
  5
84B7
330
84B6
100
AcDbEntity
  8
0
100
AcDbBlockBegin
  2
*D29
 70
     1
 10
0.0
 20
0.0
 30
0.0
  3
*D29
  1

  0
LINE
  5
84B9
330
84B6
100
AcDbEntity
  8
3
 62
     0
370
    -2
100
AcDbLine
 10
5643.752841307503
 20
4954.055652189139
 30
0.0
 11
5643.752841307503
 21
5054.067764100376
 31
0.0
  0
LINE
  5
84BA
330
84B6
100
AcDbEntity
  8
3
 62
     0
370
    -2
100
AcDbLine
 10
6571.252841307502
 20
3271.419186448573
 30
0.0
 11
6571.252841307502
 21
5054.067764100376
 31
0.0
  0
LINE
  5
84BB
330
84B6
100
AcDbEntity
  8
3
 62
     0
370
    -2
100
AcDbLine
 10
5650.052841307504
 20
5047.767764100376
 30
0.0
 11
6092.202841307504
 21
5047.767764100376
 31
0.0
  0
LINE
  5
84BC
330
84B6
100
AcDbEntity
  8
3
 62
     0
370
    -2
100
AcDbLine
 10
6564.952841307501
 20
5047.767764100376
 30
0.0
 11
6122.802841307503
 21
5047.767764100376
 31
0.0
  0
SOLID
  5
84BD
330
84B6
100
AcDbEntity
  8
3
 62
     0
100
AcDbTrace
 10
5650.052841307504
 20
5048.817764100376
 30
0.0
 11
5650.052841307504
 21
5046.717764100375
 31
0.0
 12
5643.752841307503
 22
5047.767764100376
 32
0.0
 13
5643.752841307503
 23
5047.767764100376
 33
0.0
  0
SOLID
  5
84BE
330
84B6
100
AcDbEntity
  8
3
 62
     0
100
AcDbTrace
 10
6564.952841307501
 20
5048.817764100376
 30
0.0
 11
6564.952841307501
 21
5046.717764100375
 31
0.0
 12
6571.252841307502
 22
5047.767764100376
 32
0.0
 13
6571.252841307502
 23
5047.767764100376
 33
0.0
  0
MTEXT
  5
84BF
330
84B6
100
AcDbEntity
  8
3
 62
     0
100
AcDbMText
 10
6107.502841307503
 20
5047.767764100376
 30
0.0
 40
6.299999999999999
 41
0.0
 71
     5
 72
     1
  1
\A1;(930)
 73
     1
 44
1.0
1001
ACAD
1000
MTEXTBEGIN
1070
    73
1070
     1
1070
    44
1040
1.0
1070
    74
1070
     0
1000
MTEXTEND
  0
POINT
  5
84C0
330
84B6
100
AcDbEntity
  8
DEFPOINTS
 62
     0
100
AcDbPoint
 10
5643.752841307503
 20
4951.868152189138
 30
0.0
  0
POINT
  5
84C1
330
84B6
100
AcDbEntity
  8
DEFPOINTS
 62
     0
100
AcDbPoint
 10
6571.252841307502
 20
3269.231686448573
 30
0.0
  0
POINT
  5
84C2
330
84B6
100
AcDbEntity
  8
DEFPOINTS
 62
     0
100
AcDbPoint
 10
6571.252841307502
 20
5047.767764100376
 30
0.0
  0
ENDBLK
  5
84B8
330
84B6
100
AcDbEntity
  8
0
100
AcDbBlockEnd
  0
BLOCK
  5
84C4
330
84C3
100
AcDbEntity
  8
0
100
AcDbBlockBegin
  2
*D30
 70
     1
 10
0.0
 20
0.0
 30
0.0
  3
*D30
  1

  0
LINE
  5
84C6
330
84C3
100
AcDbEntity
  8
3
 62
     0
370
    -2
100
AcDbLine
 10
3286.250117025249
 20
2411.192209343379
 30
0.0
 11
3789.035283578247
 21
2411.192209343379
 31
0.0
  0
LINE
  5
84C7
330
84C3
100
AcDbEntity
  8
3
 62
     0
370
    -2
100
AcDbLine
 10
3286.250117025249
 20
2346.192209343379
 30
0.0
 11
3789.035283578247
 21
2346.192209343379
 31
0.0
  0
LINE
  5
84C8
330
84C3
100
AcDbEntity
  8
3
 62
     0
370
    -2
100
AcDbLine
 10
3782.735283578247
 20
2404.892209343378
 30
0.0
 11
3782.735283578247
 21
2384.992209343379
 31
0.0
  0
LINE
  5
84C9
330
84C3
100
AcDbEntity
  8
3
 62
     0
370
    -2
100
AcDbLine
 10
3782.735283578247
 20
2352.492209343379
 30
0.0
 11
3782.735283578247
 21
2372.392209343379
 31
0.0
  0
SOLID
  5
84CA
330
84C3
100
AcDbEntity
  8
3
 62
     0
100
AcDbTrace
 10
3781.685283578247
 20
2404.892209343378
 30
0.0
 11
3783.785283578248
 21
2404.892209343378
 31
0.0
 12
3782.735283578247
 22
2411.192209343379
 32
0.0
 13
3782.735283578247
 23
2411.192209343379
 33
0.0
  0
SOLID
  5
84CB
330
84C3
100
AcDbEntity
  8
3
 62
     0
100
AcDbTrace
 10
3781.685283578247
 20
2352.492209343379
 30
0.0
 11
3783.785283578248
 21
2352.492209343379
 31
0.0
 12
3782.735283578247
 22
2346.192209343379
 32
0.0
 13
3782.735283578247
 23
2346.192209343379
 33
0.0
  0
MTEXT
  5
84CC
330
84C3
100
AcDbEntity
  8
3
 62
     0
100
AcDbMText
 10
3782.735283578247
 20
2378.692209343379
 30
0.0
 40
6.299999999999999
 41
0.0
 71
     5
 72
     1
  1
\A1;65
 73
     1
 44
1.0
1001
ACAD
1000
MTEXTBEGIN
1070
    73
1070
     1
1070
    44
1040
1.0
1070
    74
1070
     0
1000
MTEXTEND
  0
POINT
  5
84CD
330
84C3
100
AcDbEntity
  8
DEFPOINTS
 62
     0
100
AcDbPoint
 10
3284.062617025249
 20
2411.192209343379
 30
0.0
  0
POINT
  5
84CE
330
84C3
100
AcDbEntity
  8
DEFPOINTS
 62
     0
100
AcDbPoint
 10
3284.062617025249
 20
2346.192209343379
 30
0.0
  0
POINT
  5
84CF
330
84C3
100
AcDbEntity
  8
DEFPOINTS
 62
     0
100
AcDbPoint
 10
3782.735283578247
 20
2346.192209343379
 30
0.0
  0
ENDBLK
  5
84C5
330
84C3
100
AcDbEntity
  8
0
100
AcDbBlockEnd
  0
BLOCK
  5
84D1
330
84D0
100
AcDbEntity
  8
0
100
AcDbBlockBegin
  2
*D31
 70
     1
 10
0.0
 20
0.0
 30
0.0
  3
*D31
  1

  0
LINE
  5
84D3
330
84D0
100
AcDbEntity
  8
3
 62
     0
370
    -2
100
AcDbLine
 10
1024.062617025251
 20
2344.004709343379
 30
0.0
 11
1024.062617025251
 21
2099.22784082877
 31
0.0
  0
LINE
  5
84D4
330
84D0
100
AcDbEntity
  8
3
 62
     0
370
    -2
100
AcDbLine
 10
2624.062617025251
 20
2344.004709343379
 30
0.0
 11
2624.062617025251
 21
2099.22784082877
 31
0.0
  0
LINE
  5
84D5
330
84D0
100
AcDbEntity
  8
3
 62
     0
370
    -2
100
AcDbLine
 10
1030.362617025251
 20
2105.52784082877
 30
0.0
 11
1810.41261702525
 21
2105.52784082877
 31
0.0
  0
LINE
  5
84D6
330
84D0
100
AcDbEntity
  8
3
 62
     0
370
    -2
100
AcDbLine
 10
2617.762617025251
 20
2105.52784082877
 30
0.0
 11
1837.712617025251
 21
2105.52784082877
 31
0.0
  0
SOLID
  5
84D7
330
84D0
100
AcDbEntity
  8
3
 62
     0
100
AcDbTrace
 10
1030.362617025251
 20
2106.57784082877
 30
0.0
 11
1030.362617025251
 21
2104.47784082877
 31
0.0
 12
1024.062617025251
 22
2105.52784082877
 32
0.0
 13
1024.062617025251
 23
2105.52784082877
 33
0.0
  0
SOLID
  5
84D8
330
84D0
100
AcDbEntity
  8
3
 62
     0
100
AcDbTrace
 10
2617.762617025251
 20
2106.57784082877
 30
0.0
 11
2617.762617025251
 21
2104.47784082877
 31
0.0
 12
2624.062617025251
 22
2105.52784082877
 32
0.0
 13
2624.062617025251
 23
2105.52784082877
 33
0.0
  0
MTEXT
  5
84D9
330
84D0
100
AcDbEntity
  8
3
 62
     0
100
AcDbMText
 10
1824.062617025251
 20
2105.52784082877
 30
0.0
 40
6.299999999999999
 41
0.0
 71
     5
 72
     1
  1
\A1;1600
 73
     1
 44
1.0
1001
ACAD
1000
MTEXTBEGIN
1070
    73
1070
     1
1070
    44
1040
1.0
1070
    74
1070
     0
1000
MTEXTEND
  0
POINT
  5
84DA
330
84D0
100
AcDbEntity
  8
DEFPOINTS
 62
     0
100
AcDbPoint
 10
1024.062617025251
 20
2346.192209343379
 30
0.0
  0
POINT
  5
84DB
330
84D0
100
AcDbEntity
  8
DEFPOINTS
 62
     0
100
AcDbPoint
 10
2624.062617025251
 20
2346.192209343379
 30
0.0
  0
POINT
  5
84DC
330
84D0
100
AcDbEntity
  8
DEFPOINTS
 62
     0
100
AcDbPoint
 10
2624.062617025251
 20
2105.52784082877
 30
0.0
  0
ENDBLK
  5
84D2
330
84D0
100
AcDbEntity
  8
0
100
AcDbBlockEnd
  0
BLOCK
  5
84DE
330
84DD
100
AcDbEntity
  8
0
100
AcDbBlockBegin
  2
*D32
 70
     1
 10
0.0
 20
0.0
 30
0.0
  3
*D32
  1

  0
LINE
  5
84E0
330
84DD
100
AcDbEntity
  8
3
 62
     0
370
    -2
100
AcDbLine
 10
2624.062617025251
 20
2344.004709343379
 30
0.0
 11
2624.062617025251
 21
2099.22784082877
 31
0.0
  0
LINE
  5
84E1
330
84DD
100
AcDbEntity
  8
3
 62
     0
370
    -2
100
AcDbLine
 10
3284.062617025249
 20
2344.004709343379
 30
0.0
 11
3284.062617025249
 21
2099.22784082877
 31
0.0
  0
LINE
  5
84E2
330
84DD
100
AcDbEntity
  8
3
 62
     0
370
    -2
100
AcDbLine
 10
2630.362617025251
 20
2105.52784082877
 30
0.0
 11
2942.81261702525
 21
2105.52784082877
 31
0.0
  0
LINE
  5
84E3
330
84DD
100
AcDbEntity
  8
3
 62
     0
370
    -2
100
AcDbLine
 10
3277.76261702525
 20
2105.52784082877
 30
0.0
 11
2965.31261702525
 21
2105.52784082877
 31
0.0
  0
SOLID
  5
84E4
330
84DD
100
AcDbEntity
  8
3
 62
     0
100
AcDbTrace
 10
2630.362617025251
 20
2106.57784082877
 30
0.0
 11
2630.362617025251
 21
2104.47784082877
 31
0.0
 12
2624.062617025251
 22
2105.52784082877
 32
0.0
 13
2624.062617025251
 23
2105.52784082877
 33
0.0
  0
SOLID
  5
84E5
330
84DD
100
AcDbEntity
  8
3
 62
     0
100
AcDbTrace
 10
3277.76261702525
 20
2106.57784082877
 30
0.0
 11
3277.76261702525
 21
2104.47784082877
 31
0.0
 12
3284.062617025249
 22
2105.52784082877
 32
0.0
 13
3284.062617025249
 23
2105.52784082877
 33
0.0
  0
MTEXT
  5
84E6
330
84DD
100
AcDbEntity
  8
3
 62
     0
100
AcDbMText
 10
2954.06261702525
 20
2105.52784082877
 30
0.0
 40
6.299999999999999
 41
0.0
 71
     5
 72
     1
  1
\A1;660
 73
     1
 44
1.0
1001
ACAD
1000
MTEXTBEGIN
1070
    73
1070
     1
1070
    44
1040
1.0
1070
    74
1070
     0
1000
MTEXTEND
  0
POINT
  5
84E7
330
84DD
100
AcDbEntity
  8
DEFPOINTS
 62
     0
100
AcDbPoint
 10
2624.062617025251
 20
2346.192209343379
 30
0.0
  0
POINT
  5
84E8
330
84DD
100
AcDbEntity
  8
DEFPOINTS
 62
     0
100
AcDbPoint
 10
3284.062617025249
 20
2346.192209343379
 30
0.0
  0
POINT
  5
84E9
330
84DD
100
AcDbEntity
  8
DEFPOINTS
 62
     0
100
AcDbPoint
 10
3284.062617025249
 20
2105.52784082877
 30
0.0
  0
ENDBLK
  5
84DF
330
84DD
100
AcDbEntity
  8
0
100
AcDbBlockEnd
  0
BLOCK
  5
84EB
330
84EA
100
AcDbEntity
  8
0
100
AcDbBlockBegin
  2
*D33
 70
     1
 10
0.0
 20
0.0
 30
0.0
  3
*D33
  1

  0
LINE
  5
84ED
330
84EA
100
AcDbEntity
  8
3
 62
     0
370
    -2
100
AcDbLine
 10
4561.752841307494
 20
2344.004709343379
 30
0.0
 11
4561.752841307494
 21
2099.22784082877
 31
0.0
  0
LINE
  5
84EE
330
84EA
100
AcDbEntity
  8
3
 62
     0
370
    -2
100
AcDbLine
 10
5643.752841307506
 20
2344.004709343379
 30
0.0
 11
5643.752841307506
 21
2099.22784082877
 31
0.0
  0
LINE
  5
84EF
330
84EA
100
AcDbEntity
  8
3
 62
     0
370
    -2
100
AcDbLine
 10
4568.052841307494
 20
2105.52784082877
 30
0.0
 11
5089.1028413075
 21
2105.52784082877
 31
0.0
  0
LINE
  5
84F0
330
84EA
100
AcDbEntity
  8
3
 62
     0
370
    -2
100
AcDbLine
 10
5637.452841307506
 20
2105.52784082877
 30
0.0
 11
5116.4028413075
 21
2105.52784082877
 31
0.0
  0
SOLID
  5
84F1
330
84EA
100
AcDbEntity
  8
3
 62
     0
100
AcDbTrace
 10
4568.052841307494
 20
2106.57784082877
 30
0.0
 11
4568.052841307494
 21
2104.47784082877
 31
0.0
 12
4561.752841307494
 22
2105.52784082877
 32
0.0
 13
4561.752841307494
 23
2105.52784082877
 33
0.0
  0
SOLID
  5
84F2
330
84EA
100
AcDbEntity
  8
3
 62
     0
100
AcDbTrace
 10
5637.452841307506
 20
2106.57784082877
 30
0.0
 11
5637.452841307506
 21
2104.47784082877
 31
0.0
 12
5643.752841307506
 22
2105.52784082877
 32
0.0
 13
5643.752841307506
 23
2105.52784082877
 33
0.0
  0
MTEXT
  5
84F3
330
84EA
100
AcDbEntity
  8
3
 62
     0
100
AcDbMText
 10
5102.752841307499
 20
2105.52784082877
 30
0.0
 40
6.299999999999999
 41
0.0
 71
     5
 72
     1
  1
\A1;1082
 73
     1
 44
1.0
1001
ACAD
1000
MTEXTBEGIN
1070
    73
1070
     1
1070
    44
1040
1.0
1070
    74
1070
     0
1000
MTEXTEND
  0
POINT
  5
84F4
330
84EA
100
AcDbEntity
  8
DEFPOINTS
 62
     0
100
AcDbPoint
 10
4561.752841307494
 20
2346.192209343379
 30
0.0
  0
POINT
  5
84F5
330
84EA
100
AcDbEntity
  8
DEFPOINTS
 62
     0
100
AcDbPoint
 10
5643.752841307506
 20
2346.192209343379
 30
0.0
  0
POINT
  5
84F6
330
84EA
100
AcDbEntity
  8
DEFPOINTS
 62
     0
100
AcDbPoint
 10
5643.752841307506
 20
2105.52784082877
 30
0.0
  0
ENDBLK
  5
84EC
330
84EA
100
AcDbEntity
  8
0
100
AcDbBlockEnd
  0
BLOCK
  5
84F8
330
84F7
100
AcDbEntity
  8
0
100
AcDbBlockBegin
  2
*D34
 70
     1
 10
0.0
 20
0.0
 30
0.0
  3
*D34
  1

  0
LINE
  5
84FA
330
84F7
100
AcDbEntity
  8
3
 62
     0
370
    -2
100
AcDbLine
 10
5643.752841307506
 20
2344.004709343379
 30
0.0
 11
5643.752841307506
 21
2099.22784082877
 31
0.0
  0
LINE
  5
84FB
330
84F7
100
AcDbEntity
  8
3
 62
     0
370
    -2
100
AcDbLine
 10
6461.752841307485
 20
2344.004709343379
 30
0.0
 11
6461.752841307485
 21
2099.22784082877
 31
0.0
  0
LINE
  5
84FC
330
84F7
100
AcDbEntity
  8
3
 62
     0
370
    -2
100
AcDbLine
 10
5650.052841307506
 20
2105.52784082877
 30
0.0
 11
6042.102841307496
 21
2105.52784082877
 31
0.0
  0
LINE
  5
84FD
330
84F7
100
AcDbEntity
  8
3
 62
     0
370
    -2
100
AcDbLine
 10
6455.452841307485
 20
2105.52784082877
 30
0.0
 11
6063.402841307496
 21
2105.52784082877
 31
0.0
  0
SOLID
  5
84FE
330
84F7
100
AcDbEntity
  8
3
 62
     0
100
AcDbTrace
 10
5650.052841307506
 20
2106.57784082877
 30
0.0
 11
5650.052841307506
 21
2104.47784082877
 31
0.0
 12
5643.752841307506
 22
2105.52784082877
 32
0.0
 13
5643.752841307506
 23
2105.52784082877
 33
0.0
  0
SOLID
  5
84FF
330
84F7
100
AcDbEntity
  8
3
 62
     0
100
AcDbTrace
 10
6455.452841307485
 20
2106.57784082877
 30
0.0
 11
6455.452841307485
 21
2104.47784082877
 31
0.0
 12
6461.752841307485
 22
2105.52784082877
 32
0.0
 13
6461.752841307485
 23
2105.52784082877
 33
0.0
  0
MTEXT
  5
8500
330
84F7
100
AcDbEntity
  8
3
 62
     0
100
AcDbMText
 10
6052.752841307496
 20
2105.52784082877
 30
0.0
 40
6.299999999999999
 41
0.0
 71
     5
 72
     1
  1
\A1;818
 73
     1
 44
1.0
1001
ACAD
1000
MTEXTBEGIN
1070
    73
1070
     1
1070
    44
1040
1.0
1070
    74
1070
     0
1000
MTEXTEND
  0
POINT
  5
8501
330
84F7
100
AcDbEntity
  8
DEFPOINTS
 62
     0
100
AcDbPoint
 10
5643.752841307506
 20
2346.192209343379
 30
0.0
  0
POINT
  5
8502
330
84F7
100
AcDbEntity
  8
DEFPOINTS
 62
     0
100
AcDbPoint
 10
6461.752841307485
 20
2346.192209343379
 30
0.0
  0
POINT
  5
8503
330
84F7
100
AcDbEntity
  8
DEFPOINTS
 62
     0
100
AcDbPoint
 10
6461.752841307485
 20
2105.52784082877
 30
0.0
  0
ENDBLK
  5
84F9
330
84F7
100
AcDbEntity
  8
0
100
AcDbBlockEnd
  0
BLOCK
  5
8505
330
8504
100
AcDbEntity
  8
0
100
AcDbBlockBegin
  2
*D35
 70
     1
 10
0.0
 20
0.0
 30
0.0
  3
*D35
  1

  0
LINE
  5
8507
330
8504
100
AcDbEntity
  8
3
 62
     0
370
    -2
100
AcDbLine
 10
3286.250117025249
 20
2346.192209343379
 30
0.0
 11
4076.191524691134
 21
2346.192209343379
 31
0.0
  0
LINE
  5
8508
330
8504
100
AcDbEntity
  8
3
 62
     0
370
    -2
100
AcDbLine
 10
3403.750117025251
 20
4554.192209343379
 30
0.0
 11
4076.191524691135
 21
4554.192209343379
 31
0.0
  0
LINE
  5
8509
330
8504
100
AcDbEntity
  8
3
 62
     0
370
    -2
100
AcDbLine
 10
4069.891524691135
 20
2352.492209343379
 30
0.0
 11
4069.891524691136
 21
3442.242209343379
 31
0.0
  0
LINE
  5
850A
330
8504
100
AcDbEntity
  8
3
 62
     0
370
    -2
100
AcDbLine
 10
4069.891524691136
 20
4547.892209343379
 30
0.0
 11
4069.891524691136
 21
3458.142209343379
 31
0.0
  0
SOLID
  5
850B
330
8504
100
AcDbEntity
  8
3
 62
     0
100
AcDbTrace
 10
4068.841524691134
 20
2352.492209343379
 30
0.0
 11
4070.941524691135
 21
2352.492209343379
 31
0.0
 12
4069.891524691135
 22
2346.192209343379
 32
0.0
 13
4069.891524691135
 23
2346.192209343379
 33
0.0
  0
SOLID
  5
850C
330
8504
100
AcDbEntity
  8
3
 62
     0
100
AcDbTrace
 10
4068.841524691134
 20
4547.892209343379
 30
0.0
 11
4070.941524691135
 21
4547.892209343379
 31
0.0
 12
4069.891524691136
 22
4554.192209343379
 32
0.0
 13
4069.891524691136
 23
4554.192209343379
 33
0.0
  0
MTEXT
  5
850D
330
8504
100
AcDbEntity
  8
3
 62
     0
100
AcDbMText
 10
4069.891524691134
 20
3450.192209343379
 30
0.0
 40
6.299999999999999
 41
0.0
 71
     5
 72
     1
  1
\A1;(2208)
 73
     1
 44
1.0
1001
ACAD
1000
MTEXTBEGIN
1070
    73
1070
     1
1070
    44
1040
1.0
1070
    74
1070
     0
1000
MTEXTEND
  0
POINT
  5
850E
330
8504
100
AcDbEntity
  8
DEFPOINTS
 62
     0
100
AcDbPoint
 10
3284.062617025249
 20
2346.192209343379
 30
0.0
  0
POINT
  5
850F
330
8504
100
AcDbEntity
  8
DEFPOINTS
 62
     0
100
AcDbPoint
 10
3401.562617025251
 20
4554.192209343379
 30
0.0
  0
POINT
  5
8510
330
8504
100
AcDbEntity
  8
DEFPOINTS
 62
     0
100
AcDbPoint
 10
4069.891524691136
 20
4554.192209343379
 30
0.0
  0
ENDBLK
  5
8506
330
8504
100
AcDbEntity
  8
0
100
AcDbBlockEnd
  0
BLOCK
  5
8512
330
8511
100
AcDbEntity
  8
0
100
AcDbBlockBegin
  2
*D36
 70
     1
 10
0.0
 20
0.0
 30
0.0
  3
*D36
  1

  0
LINE
  5
8514
330
8511
100
AcDbEntity
  8
3
 62
     0
370
    -2
100
AcDbLine
 10
3779.871415084257
 20
2417.492209343379
 30
0.0
 11
3779.871415084257
 21
2455.742209343379
 31
0.0
  0
LINE
  5
8515
330
8511
100
AcDbEntity
  8
3
 62
     0
370
    -2
100
AcDbLine
 10
3779.871415084257
 20
2509.892209343379
 30
0.0
 11
3779.871415084257
 21
2471.642209343379
 31
0.0
  0
SOLID
  5
8516
330
8511
100
AcDbEntity
  8
3
 62
     0
100
AcDbTrace
 10
3778.821415084257
 20
2417.492209343379
 30
0.0
 11
3780.921415084257
 21
2417.492209343379
 31
0.0
 12
3779.871415084257
 22
2411.192209343379
 32
0.0
 13
3779.871415084257
 23
2411.192209343379
 33
0.0
  0
SOLID
  5
8517
330
8511
100
AcDbEntity
  8
3
 62
     0
100
AcDbTrace
 10
3778.821415084257
 20
2509.892209343379
 30
0.0
 11
3780.921415084257
 21
2509.892209343379
 31
0.0
 12
3779.871415084257
 22
2516.192209343379
 32
0.0
 13
3779.871415084257
 23
2516.192209343379
 33
0.0
  0
MTEXT
  5
8518
330
8511
100
AcDbEntity
  8
3
 62
     0
100
AcDbMText
 10
3779.871415084257
 20
2463.692209343379
 30
0.0
 40
6.299999999999999
 41
0.0
 71
     5
 72
     1
  1
\A1;  (105)
 73
     1
 44
1.0
1001
ACAD
1000
MTEXTBEGIN
1070
    73
1070
     1
1070
    44
1040
1.0
1070
    74
1070
     0
1000
MTEXTEND
  0
POINT
  5
8519
330
8511
100
AcDbEntity
  8
DEFPOINTS
 62
     0
100
AcDbPoint
 10
3284.062617025249
 20
2411.192209343379
 30
0.0
  0
POINT
  5
851A
330
8511
100
AcDbEntity
  8
DEFPOINTS
 62
     0
100
AcDbPoint
 10
3284.062617025249
 20
2516.192209343379
 30
0.0
  0
POINT
  5
851B
330
8511
100
AcDbEntity
  8
DEFPOINTS
 62
     0
100
AcDbPoint
 10
3779.871415084257
 20
2516.192209343379
 30
0.0
  0
ENDBLK
  5
8513
330
8511
100
AcDbEntity
  8
0
100
AcDbBlockEnd
  0
BLOCK
  5
8525
330
8524
100
AcDbEntity
  8
0
100
AcDbBlockBegin
  2
*D37
 70
     1
 10
0.0
 20
0.0
 30
0.0
  3
*D37
  1

  0
LINE
  5
853C
330
8524
100
AcDbEntity
  8
3
 62
     0
370
    -2
100
AcDbLine
 10
6411.252841307505
 20
3916.192209343378
 30
0.0
 11
6923.852116444883
 21
3916.192209343378
 31
0.0
  0
LINE
  5
853D
330
8524
100
AcDbEntity
  8
3
 62
     0
370
    -2
100
AcDbLine
 10
6411.252841307504
 20
2796.192209343378
 30
0.0
 11
6923.852116444883
 21
2796.192209343378
 31
0.0
  0
LINE
  5
853E
330
8524
100
AcDbEntity
  8
3
 62
     0
370
    -2
100
AcDbLine
 10
6888.852116444883
 20
3846.192209343378
 30
0.0
 11
6888.852116444883
 21
2866.192209343378
 31
0.0
  0
INSERT
  5
853F
330
8524
100
AcDbEntity
  8
3
 62
     0
370
    -2
100
AcDbBlockReference
  2
_OPEN
 10
6888.852116444883
 20
3916.192209343378
 30
0.0
 41
70.0
 42
70.0
 43
70.0
 50
90.0
  0
INSERT
  5
8540
330
8524
100
AcDbEntity
  8
3
 62
     0
370
    -2
100
AcDbBlockReference
  2
_OPEN
 10
6888.852116444883
 20
2796.192209343378
 30
0.0
 41
70.0
 42
70.0
 43
70.0
 50
270.0
  0
MTEXT
  5
8541
330
8524
100
AcDbEntity
  8
3
 62
     0
100
AcDbMText
 10
6801.352116444881
 20
3356.19220934338
 30
0.0
 40
105.0
 41
0.0
 71
     5
 72
     1
  1
\A1;\U+03C61120
 11
0.0000000000000001
 21
1.0
 31
0.0
 73
     1
 44
1.0
1001
ACAD
1000
MTEXTBEGIN
1070
    73
1070
     1
1070
    44
1040
1.0
1070
    74
1070
     0
1000
MTEXTEND
  0
POINT
  5
8542
330
8524
100
AcDbEntity
  8
DEFPOINTS
 62
     0
100
AcDbPoint
 10
6393.752841307505
 20
3916.192209343378
 30
0.0
  0
POINT
  5
8543
330
8524
100
AcDbEntity
  8
DEFPOINTS
 62
     0
100
AcDbPoint
 10
6393.752841307504
 20
2796.192209343378
 30
0.0
  0
POINT
  5
8544
330
8524
100
AcDbEntity
  8
DEFPOINTS
 62
     0
100
AcDbPoint
 10
6888.852116444883
 20
2796.192209343378
 30
0.0
  0
ENDBLK
  5
8526
330
8524
100
AcDbEntity
  8
0
100
AcDbBlockEnd
  0
BLOCK
  5
8547
330
8546
100
AcDbEntity
  8
0
100
AcDbBlockBegin
  2
*D38
 70
     1
 10
0.0
 20
0.0
 30
0.0
  3
*D38
  1

  0
LINE
  5
8549
330
8546
100
AcDbEntity
  8
3
 62
     0
370
    -2
100
AcDbLine
 10
4893.752841307505
 20
4571.692209343378
 30
0.0
 11
4893.752841307505
 21
4842.631848395776
 31
0.0
  0
LINE
  5
854A
330
8546
100
AcDbEntity
  8
3
 62
     0
370
    -2
100
AcDbLine
 10
6393.752841307505
 20
4571.692209343378
 30
0.0
 11
6393.752841307505
 21
4842.631848395776
 31
0.0
  0
LINE
  5
854B
330
8546
100
AcDbEntity
  8
3
 62
     0
370
    -2
100
AcDbLine
 10
4963.752841307505
 20
4807.631848395777
 30
0.0
 11
6323.752841307506
 21
4807.631848395777
 31
0.0
  0
INSERT
  5
854C
330
8546
100
AcDbEntity
  8
3
 62
     0
370
    -2
100
AcDbBlockReference
  2
_OPEN
 10
4893.752841307505
 20
4807.631848395777
 30
0.0
 41
70.0
 42
70.0
 43
70.0
 50
180.0
  0
INSERT
  5
854D
330
8546
100
AcDbEntity
  8
3
 62
     0
370
    -2
100
AcDbBlockReference
  2
_OPEN
 10
6393.752841307505
 20
4807.631848395777
 30
0.0
 41
70.0
 42
70.0
 43
70.0
  0
MTEXT
  5
854E
330
8546
100
AcDbEntity
  8
3
 62
     0
100
AcDbMText
 10
5643.752841307505
 20
4895.131848395777
 30
0.0
 40
105.0
 41
0.0
 71
     5
 72
     1
  1
\A1;1500
 73
     1
 44
1.0
1001
ACAD
1000
MTEXTBEGIN
1070
    73
1070
     1
1070
    44
1040
1.0
1070
    74
1070
     0
1000
MTEXTEND
  0
POINT
  5
854F
330
8546
100
AcDbEntity
  8
DEFPOINTS
 62
     0
100
AcDbPoint
 10
4893.752841307505
 20
4554.192209343379
 30
0.0
  0
POINT
  5
8550
330
8546
100
AcDbEntity
  8
DEFPOINTS
 62
     0
100
AcDbPoint
 10
6393.752841307505
 20
4554.192209343379
 30
0.0
  0
POINT
  5
8551
330
8546
100
AcDbEntity
  8
DEFPOINTS
 62
     0
100
AcDbPoint
 10
6393.752841307505
 20
4807.631848395777
 30
0.0
  0
ENDBLK
  5
8548
330
8546
100
AcDbEntity
  8
0
100
AcDbBlockEnd
  0
BLOCK
  5
8554
330
8553
100
AcDbEntity
  8
0
100
AcDbBlockBegin
  2
*D39
 70
     1
 10
0.0
 20
0.0
 30
0.0
  3
*D39
  1

  0
LINE
  5
85B3
330
8553
100
AcDbEntity
  8
3
 62
     0
370
    -2
100
AcDbLine
 10
4523.752841307505
 20
3753.692209343379
 30
0.0
 11
4523.752841307505
 21
5081.751112831963
 31
0.0
  0
LINE
  5
85B4
330
8553
100
AcDbEntity
  8
3
 62
     0
370
    -2
100
AcDbLine
 10
5643.752841307505
 20
4986.104585675719
 30
0.0
 11
5643.752841307505
 21
5081.751112831963
 31
0.0
  0
LINE
  5
85B5
330
8553
100
AcDbEntity
  8
3
 62
     0
370
    -2
100
AcDbLine
 10
4593.752841307504
 20
5046.751112831964
 30
0.0
 11
5573.752841307506
 21
5046.751112831964
 31
0.0
  0
INSERT
  5
85B6
330
8553
100
AcDbEntity
  8
3
 62
     0
370
    -2
100
AcDbBlockReference
  2
_OPEN
 10
4523.752841307505
 20
5046.751112831964
 30
0.0
 41
70.0
 42
70.0
 43
70.0
 50
180.0
  0
INSERT
  5
85B7
330
8553
100
AcDbEntity
  8
3
 62
     0
370
    -2
100
AcDbBlockReference
  2
_OPEN
 10
5643.752841307505
 20
5046.751112831964
 30
0.0
 41
70.0
 42
70.0
 43
70.0
  0
MTEXT
  5
85B8
330
8553
100
AcDbEntity
  8
3
 62
     0
100
AcDbMText
 10
5083.752841307505
 20
5161.751112831964
 30
0.0
 40
105.0
 41
0.0
 71
     5
 72
     1
  1
\A1;(1120)
 73
     1
 44
1.0
1001
ACAD
1000
MTEXTBEGIN
1070
    73
1070
     1
1070
    44
1040
1.0
1070
    74
1070
     0
1000
MTEXTEND
  0
POINT
  5
85B9
330
8553
100
AcDbEntity
  8
DEFPOINTS
 62
     0
100
AcDbPoint
 10
4523.752841307505
 20
3736.192209343379
 30
0.0
  0
POINT
  5
85BA
330
8553
100
AcDbEntity
  8
DEFPOINTS
 62
     0
100
AcDbPoint
 10
5643.752841307505
 20
4968.604585675719
 30
0.0
  0
POINT
  5
85BB
330
8553
100
AcDbEntity
  8
DEFPOINTS
 62
     0
100
AcDbPoint
 10
5643.752841307505
 20
5046.751112831964
 30
0.0
  0
ENDBLK
  5
8555
330
8553
100
AcDbEntity
  8
0
100
AcDbBlockEnd
  0
BLOCK
  5
8561
330
8560
100
AcDbEntity
  8
0
100
AcDbBlockBegin
  2
*D40
 70
     1
 10
0.0
 20
0.0
 30
0.0
  3
*D40
  1

  0
LINE
  5
85C5
330
8560
100
AcDbEntity
  8
3
 62
     0
370
    -2
100
AcDbLine
 10
5643.752841307505
 20
4986.104585675719
 30
0.0
 11
5643.752841307505
 21
5081.751112831963
 31
0.0
  0
LINE
  5
85C6
330
8560
100
AcDbEntity
  8
3
 62
     0
370
    -2
100
AcDbLine
 10
6573.752841307506
 20
3300.69220934338
 30
0.0
 11
6573.752841307506
 21
5081.751112831963
 31
0.0
  0
LINE
  5
85C7
330
8560
100
AcDbEntity
  8
3
 62
     0
370
    -2
100
AcDbLine
 10
5713.752841307505
 20
5046.751112831964
 30
0.0
 11
6503.752841307505
 21
5046.751112831964
 31
0.0
  0
INSERT
  5
85C8
330
8560
100
AcDbEntity
  8
3
 62
     0
370
    -2
100
AcDbBlockReference
  2
_OPEN
 10
5643.752841307505
 20
5046.751112831964
 30
0.0
 41
70.0
 42
70.0
 43
70.0
 50
180.0
  0
INSERT
  5
85C9
330
8560
100
AcDbEntity
  8
3
 62
     0
370
    -2
100
AcDbBlockReference
  2
_OPEN
 10
6573.752841307506
 20
5046.751112831964
 30
0.0
 41
70.0
 42
70.0
 43
70.0
  0
MTEXT
  5
85CA
330
8560
100
AcDbEntity
  8
3
 62
     0
100
AcDbMText
 10
6108.752841307506
 20
5161.751112831964
 30
0.0
 40
105.0
 41
0.0
 71
     5
 72
     1
  1
\A1;(930)
 73
     1
 44
1.0
1001
ACAD
1000
MTEXTBEGIN
1070
    73
1070
     1
1070
    44
1040
1.0
1070
    74
1070
     0
1000
MTEXTEND
  0
POINT
  5
85CB
330
8560
100
AcDbEntity
  8
DEFPOINTS
 62
     0
100
AcDbPoint
 10
5643.752841307505
 20
4968.604585675719
 30
0.0
  0
POINT
  5
85CC
330
8560
100
AcDbEntity
  8
DEFPOINTS
 62
     0
100
AcDbPoint
 10
6573.752841307506
 20
3283.192209343379
 30
0.0
  0
POINT
  5
85CD
330
8560
100
AcDbEntity
  8
DEFPOINTS
 62
     0
100
AcDbPoint
 10
6573.752841307506
 20
5046.751112831964
 30
0.0
  0
ENDBLK
  5
8562
330
8560
100
AcDbEntity
  8
0
100
AcDbBlockEnd
  0
BLOCK
  5
856E
330
856D
100
AcDbEntity
  8
0
100
AcDbBlockBegin
  2
*D41
 70
     1
 10
0.0
 20
0.0
 30
0.0
  3
*D41
  1

  0
LINE
  5
8570
330
856D
100
AcDbEntity
  8
3
 62
     0
370
    -2
100
AcDbLine
 10
4561.752841307494
 20
2328.692209343379
 30
0.0
 11
4561.752841307494
 21
2070.52784082877
 31
0.0
  0
LINE
  5
8571
330
856D
100
AcDbEntity
  8
3
 62
     0
370
    -2
100
AcDbLine
 10
5643.752841307505
 20
2328.692209343379
 30
0.0
 11
5643.752841307505
 21
2070.52784082877
 31
0.0
  0
LINE
  5
8572
330
856D
100
AcDbEntity
  8
3
 62
     0
370
    -2
100
AcDbLine
 10
4631.752841307494
 20
2105.52784082877
 30
0.0
 11
5573.752841307506
 21
2105.52784082877
 31
0.0
  0
INSERT
  5
8573
330
856D
100
AcDbEntity
  8
3
 62
     0
370
    -2
100
AcDbBlockReference
  2
_OPEN
 10
4561.752841307494
 20
2105.52784082877
 30
0.0
 41
70.0
 42
70.0
 43
70.0
 50
180.0
  0
INSERT
  5
8574
330
856D
100
AcDbEntity
  8
3
 62
     0
370
    -2
100
AcDbBlockReference
  2
_OPEN
 10
5643.752841307505
 20
2105.52784082877
 30
0.0
 41
70.0
 42
70.0
 43
70.0
  0
MTEXT
  5
8575
330
856D
100
AcDbEntity
  8
3
 62
     0
100
AcDbMText
 10
5102.752841307499
 20
2193.02784082877
 30
0.0
 40
105.0
 41
0.0
 71
     5
 72
     1
  1
\A1;1082
 73
     1
 44
1.0
1001
ACAD
1000
MTEXTBEGIN
1070
    73
1070
     1
1070
    44
1040
1.0
1070
    74
1070
     0
1000
MTEXTEND
  0
POINT
  5
8576
330
856D
100
AcDbEntity
  8
DEFPOINTS
 62
     0
100
AcDbPoint
 10
4561.752841307494
 20
2346.192209343379
 30
0.0
  0
POINT
  5
8577
330
856D
100
AcDbEntity
  8
DEFPOINTS
 62
     0
100
AcDbPoint
 10
5643.752841307505
 20
2346.192209343379
 30
0.0
  0
POINT
  5
8578
330
856D
100
AcDbEntity
  8
DEFPOINTS
 62
     0
100
AcDbPoint
 10
5643.752841307505
 20
2105.52784082877
 30
0.0
  0
ENDBLK
  5
856F
330
856D
100
AcDbEntity
  8
0
100
AcDbBlockEnd
  0
BLOCK
  5
857B
330
857A
100
AcDbEntity
  8
0
100
AcDbBlockBegin
  2
*D42
 70
     1
 10
0.0
 20
0.0
 30
0.0
  3
*D42
  1

  0
LINE
  5
857D
330
857A
100
AcDbEntity
  8
3
 62
     0
370
    -2
100
AcDbLine
 10
5643.752841307505
 20
2328.692209343379
 30
0.0
 11
5643.752841307505
 21
2070.52784082877
 31
0.0
  0
LINE
  5
857E
330
857A
100
AcDbEntity
  8
3
 62
     0
370
    -2
100
AcDbLine
 10
6461.752841307483
 20
2328.692209343379
 30
0.0
 11
6461.752841307483
 21
2070.52784082877
 31
0.0
  0
LINE
  5
857F
330
857A
100
AcDbEntity
  8
3
 62
     0
370
    -2
100
AcDbLine
 10
5713.752841307505
 20
2105.52784082877
 30
0.0
 11
6391.752841307483
 21
2105.52784082877
 31
0.0
  0
INSERT
  5
8580
330
857A
100
AcDbEntity
  8
3
 62
     0
370
    -2
100
AcDbBlockReference
  2
_OPEN
 10
5643.752841307505
 20
2105.52784082877
 30
0.0
 41
70.0
 42
70.0
 43
70.0
 50
180.0
  0
INSERT
  5
8581
330
857A
100
AcDbEntity
  8
3
 62
     0
370
    -2
100
AcDbBlockReference
  2
_OPEN
 10
6461.752841307483
 20
2105.52784082877
 30
0.0
 41
70.0
 42
70.0
 43
70.0
  0
MTEXT
  5
8582
330
857A
100
AcDbEntity
  8
3
 62
     0
100
AcDbMText
 10
6052.752841307494
 20
2193.02784082877
 30
0.0
 40
105.0
 41
0.0
 71
     5
 72
     1
  1
\A1;818
 73
     1
 44
1.0
1001
ACAD
1000
MTEXTBEGIN
1070
    73
1070
     1
1070
    44
1040
1.0
1070
    74
1070
     0
1000
MTEXTEND
  0
POINT
  5
8583
330
857A
100
AcDbEntity
  8
DEFPOINTS
 62
     0
100
AcDbPoint
 10
5643.752841307505
 20
2346.192209343379
 30
0.0
  0
POINT
  5
8584
330
857A
100
AcDbEntity
  8
DEFPOINTS
 62
     0
100
AcDbPoint
 10
6461.752841307483
 20
2346.192209343379
 30
0.0
  0
POINT
  5
8585
330
857A
100
AcDbEntity
  8
DEFPOINTS
 62
     0
100
AcDbPoint
 10
6461.752841307483
 20
2105.52784082877
 30
0.0
  0
ENDBLK
  5
857C
330
857A
100
AcDbEntity
  8
0
100
AcDbBlockEnd
  0
BLOCK
  5
85D0
330
85CF
100
AcDbEntity
  8
0
100
AcDbBlockBegin
  2
*D43
 70
     1
 10
0.0
 20
0.0
 30
0.0
  3
*D43
  1

  0
LINE
  5
85D2
330
85CF
100
AcDbEntity
  8
3
 62
     0
370
    -2
100
AcDbLine
 10
1006.56261702525
 20
5678.591300024717
 30
0.0
 11
773.2474876895393
 21
5678.591300024717
 31
0.0
  0
LINE
  5
85D3
330
85CF
100
AcDbEntity
  8
3
 62
     0
370
    -2
100
AcDbLine
 10
1006.56261702525
 20
6578.591300024716
 30
0.0
 11
773.2474876895395
 21
6578.591300024716
 31
0.0
  0
LINE
  5
85D4
330
85CF
100
AcDbEntity
  8
3
 62
     0
370
    -2
100
AcDbLine
 10
808.2474876895393
 20
5748.591300024717
 30
0.0
 11
808.2474876895394
 21
6508.591300024716
 31
0.0
  0
INSERT
  5
85D5
330
85CF
100
AcDbEntity
  8
3
 62
     0
370
    -2
100
AcDbBlockReference
  2
_OPEN
 10
808.2474876895393
 20
5678.591300024717
 30
0.0
 41
70.0
 42
70.0
 43
70.0
 50
270.0
  0
INSERT
  5
85D6
330
85CF
100
AcDbEntity
  8
3
 62
     0
370
    -2
100
AcDbBlockReference
  2
_OPEN
 10
808.2474876895394
 20
6578.591300024716
 30
0.0
 41
70.0
 42
70.0
 43
70.0
 50
90.0
  0
MTEXT
  5
85D7
330
85CF
100
AcDbEntity
  8
3
 62
     0
100
AcDbMText
 10
720.7474876895384
 20
6128.591300024716
 30
0.0
 40
105.0
 41
0.0
 71
     5
 72
     1
  1
\A1;900
 11
0.0000000000000001
 21
1.0
 31
0.0
 73
     1
 44
1.0
1001
ACAD
1000
MTEXTBEGIN
1070
    73
1070
     1
1070
    44
1040
1.0
1070
    74
1070
     0
1000
MTEXTEND
  0
POINT
  5
85D8
330
85CF
100
AcDbEntity
  8
DEFPOINTS
 62
     0
100
AcDbPoint
 10
1024.06261702525
 20
5678.591300024717
 30
0.0
  0
POINT
  5
85D9
330
85CF
100
AcDbEntity
  8
DEFPOINTS
 62
     0
100
AcDbPoint
 10
1024.06261702525
 20
6578.591300024716
 30
0.0
  0
POINT
  5
85DA
330
85CF
100
AcDbEntity
  8
DEFPOINTS
 62
     0
100
AcDbPoint
 10
808.2474876895394
 20
6578.591300024716
 30
0.0
  0
ENDBLK
  5
85D1
330
85CF
100
AcDbEntity
  8
0
100
AcDbBlockEnd
  0
BLOCK
  5
85DD
330
85DC
100
AcDbEntity
  8
0
100
AcDbBlockBegin
  2
*D44
 70
     1
 10
0.0
 20
0.0
 30
0.0
  3
*D44
  1

  0
LINE
  5
85DF
330
85DC
100
AcDbEntity
  8
3
 62
     0
370
    -2
100
AcDbLine
 10
1024.06261702525
 20
5661.091300024716
 30
0.0
 11
1024.06261702525
 21
5296.934663388967
 31
0.0
  0
LINE
  5
85E0
330
85DC
100
AcDbEntity
  8
3
 62
     0
370
    -2
100
AcDbLine
 10
3284.062617025249
 20
5661.091300024716
 30
0.0
 11
3284.062617025249
 21
5296.934663388967
 31
0.0
  0
LINE
  5
85E1
330
85DC
100
AcDbEntity
  8
3
 62
     0
370
    -2
100
AcDbLine
 10
1094.06261702525
 20
5331.934663388967
 30
0.0
 11
3214.06261702525
 21
5331.934663388967
 31
0.0
  0
INSERT
  5
85E2
330
85DC
100
AcDbEntity
  8
3
 62
     0
370
    -2
100
AcDbBlockReference
  2
_OPEN
 10
1024.06261702525
 20
5331.934663388967
 30
0.0
 41
70.0
 42
70.0
 43
70.0
 50
180.0
  0
INSERT
  5
85E3
330
85DC
100
AcDbEntity
  8
3
 62
     0
370
    -2
100
AcDbBlockReference
  2
_OPEN
 10
3284.062617025249
 20
5331.934663388967
 30
0.0
 41
70.0
 42
70.0
 43
70.0
  0
MTEXT
  5
85E4
330
85DC
100
AcDbEntity
  8
3
 62
     0
100
AcDbMText
 10
2154.06261702525
 20
5419.434663388967
 30
0.0
 40
105.0
 41
0.0
 71
     5
 72
     1
  1
\A1;2260
 73
     1
 44
1.0
1001
ACAD
1000
MTEXTBEGIN
1070
    73
1070
     1
1070
    44
1040
1.0
1070
    74
1070
     0
1000
MTEXTEND
  0
POINT
  5
85E5
330
85DC
100
AcDbEntity
  8
DEFPOINTS
 62
     0
100
AcDbPoint
 10
1024.06261702525
 20
5678.591300024717
 30
0.0
  0
POINT
  5
85E6
330
85DC
100
AcDbEntity
  8
DEFPOINTS
 62
     0
100
AcDbPoint
 10
3284.062617025249
 20
5678.591300024717
 30
0.0
  0
POINT
  5
85E7
330
85DC
100
AcDbEntity
  8
DEFPOINTS
 62
     0
100
AcDbPoint
 10
3284.062617025249
 20
5331.934663388967
 30
0.0
  0
ENDBLK
  5
85DE
330
85DC
100
AcDbEntity
  8
0
100
AcDbBlockEnd
  0
BLOCK
  5
85EA
330
85E9
100
AcDbEntity
  8
0
100
AcDbBlockBegin
  2
*D45
 70
     1
 10
0.0
 20
0.0
 30
0.0
  3
*D45
  1

  0
LINE
  5
85EC
330
85E9
100
AcDbEntity
  8
3
 62
     0
370
    -2
100
AcDbLine
 10
3301.56261702525
 20
5678.591300024717
 30
0.0
 11
3754.797915355993
 21
5678.591300024717
 31
0.0
  0
LINE
  5
85ED
330
85E9
100
AcDbEntity
  8
3
 62
     0
370
    -2
100
AcDbLine
 10
3301.56261702525
 20
7578.591300024719
 30
0.0
 11
3754.797915355994
 21
7578.591300024719
 31
0.0
  0
LINE
  5
85EE
330
85E9
100
AcDbEntity
  8
3
 62
     0
370
    -2
100
AcDbLine
 10
3719.797915355993
 20
5748.591300024717
 30
0.0
 11
3719.797915355993
 21
7508.591300024718
 31
0.0
  0
INSERT
  5
85EF
330
85E9
100
AcDbEntity
  8
3
 62
     0
370
    -2
100
AcDbBlockReference
  2
_OPEN
 10
3719.797915355993
 20
5678.591300024717
 30
0.0
 41
70.0
 42
70.0
 43
70.0
 50
270.0
  0
INSERT
  5
85F0
330
85E9
100
AcDbEntity
  8
3
 62
     0
370
    -2
100
AcDbBlockReference
  2
_OPEN
 10
3719.797915355993
 20
7578.591300024719
 30
0.0
 41
70.0
 42
70.0
 43
70.0
 50
90.0
  0
MTEXT
  5
85F1
330
85E9
100
AcDbEntity
  8
3
 62
     0
100
AcDbMText
 10
3632.297915355992
 20
6628.591300024718
 30
0.0
 40
105.0
 41
0.0
 71
     5
 72
     1
  1
\A1;1900
 11
0.0000000000000001
 21
1.0
 31
0.0
 73
     1
 44
1.0
1001
ACAD
1000
MTEXTBEGIN
1070
    73
1070
     1
1070
    44
1040
1.0
1070
    74
1070
     0
1000
MTEXTEND
  0
POINT
  5
85F2
330
85E9
100
AcDbEntity
  8
DEFPOINTS
 62
     0
100
AcDbPoint
 10
3284.062617025249
 20
5678.591300024717
 30
0.0
  0
POINT
  5
85F3
330
85E9
100
AcDbEntity
  8
DEFPOINTS
 62
     0
100
AcDbPoint
 10
3284.062617025249
 20
7578.591300024719
 30
0.0
  0
POINT
  5
85F4
330
85E9
100
AcDbEntity
  8
DEFPOINTS
 62
     0
100
AcDbPoint
 10
3719.797915355993
 20
7578.591300024719
 30
0.0
  0
ENDBLK
  5
85EB
330
85E9
100
AcDbEntity
  8
0
100
AcDbBlockEnd
  0
BLOCK
  5
85F7
330
85F6
100
AcDbEntity
  8
0
100
AcDbBlockBegin
  2
*D46
 70
     1
 10
0.0
 20
0.0
 30
0.0
  3
*D46
  1

  0
LINE
  5
85F9
330
85F6
100
AcDbEntity
  8
3
 62
     0
370
    -2
100
AcDbLine
 10
3284.062617025249
 20
7596.091300024719
 30
0.0
 11
3284.062617025249
 21
7843.010105037642
 31
0.0
  0
LINE
  5
85FA
330
85F6
100
AcDbEntity
  8
3
 62
     0
370
    -2
100
AcDbLine
 10
1964.062617025251
 20
7596.091300024716
 30
0.0
 11
1964.062617025251
 21
7843.010105037642
 31
0.0
  0
LINE
  5
85FB
330
85F6
100
AcDbEntity
  8
3
 62
     0
370
    -2
100
AcDbLine
 10
3214.06261702525
 20
7808.010105037642
 30
0.0
 11
2034.062617025251
 21
7808.010105037642
 31
0.0
  0
INSERT
  5
85FC
330
85F6
100
AcDbEntity
  8
3
 62
     0
370
    -2
100
AcDbBlockReference
  2
_OPEN
 10
3284.062617025249
 20
7808.010105037642
 30
0.0
 41
70.0
 42
70.0
 43
70.0
  0
INSERT
  5
85FD
330
85F6
100
AcDbEntity
  8
3
 62
     0
370
    -2
100
AcDbBlockReference
  2
_OPEN
 10
1964.062617025251
 20
7808.010105037642
 30
0.0
 41
70.0
 42
70.0
 43
70.0
 50
180.0
  0
MTEXT
  5
85FE
330
85F6
100
AcDbEntity
  8
3
 62
     0
100
AcDbMText
 10
2624.06261702525
 20
7895.510105037641
 30
0.0
 40
105.0
 41
0.0
 71
     5
 72
     1
  1
\A1;1320
 73
     1
 44
1.0
1001
ACAD
1000
MTEXTBEGIN
1070
    73
1070
     1
1070
    44
1040
1.0
1070
    74
1070
     0
1000
MTEXTEND
  0
POINT
  5
85FF
330
85F6
100
AcDbEntity
  8
DEFPOINTS
 62
     0
100
AcDbPoint
 10
3284.062617025249
 20
7578.591300024719
 30
0.0
  0
POINT
  5
8600
330
85F6
100
AcDbEntity
  8
DEFPOINTS
 62
     0
100
AcDbPoint
 10
1964.062617025251
 20
7578.591300024716
 30
0.0
  0
POINT
  5
8601
330
85F6
100
AcDbEntity
  8
DEFPOINTS
 62
     0
100
AcDbPoint
 10
1964.062617025251
 20
7808.010105037642
 30
0.0
  0
ENDBLK
  5
85F8
330
85F6
100
AcDbEntity
  8
0
100
AcDbBlockEnd
  0
BLOCK
  5
8604
330
8603
100
AcDbEntity
  8
0
100
AcDbBlockBegin
  2
*D47
 70
     1
 10
0.0
 20
0.0
 30
0.0
  3
*D47
  1

  0
LINE
  5
8606
330
8603
100
AcDbEntity
  8
3
 62
     0
370
    -2
100
AcDbLine
 10
1964.062617025251
 20
7596.091300024716
 30
0.0
 11
1964.062617025251
 21
7843.010105037642
 31
0.0
  0
LINE
  5
8607
330
8603
100
AcDbEntity
  8
3
 62
     0
370
    -2
100
AcDbLine
 10
1024.06261702525
 20
6596.091300024716
 30
0.0
 11
1024.06261702525
 21
7843.010105037642
 31
0.0
  0
LINE
  5
8608
330
8603
100
AcDbEntity
  8
3
 62
     0
370
    -2
100
AcDbLine
 10
1894.062617025251
 20
7808.010105037642
 30
0.0
 11
1094.06261702525
 21
7808.010105037642
 31
0.0
  0
INSERT
  5
8609
330
8603
100
AcDbEntity
  8
3
 62
     0
370
    -2
100
AcDbBlockReference
  2
_OPEN
 10
1964.062617025251
 20
7808.010105037642
 30
0.0
 41
70.0
 42
70.0
 43
70.0
  0
INSERT
  5
860A
330
8603
100
AcDbEntity
  8
3
 62
     0
370
    -2
100
AcDbBlockReference
  2
_OPEN
 10
1024.06261702525
 20
7808.010105037642
 30
0.0
 41
70.0
 42
70.0
 43
70.0
 50
180.0
  0
MTEXT
  5
860B
330
8603
100
AcDbEntity
  8
3
 62
     0
100
AcDbMText
 10
1494.06261702525
 20
7895.510105037641
 30
0.0
 40
105.0
 41
0.0
 71
     5
 72
     1
  1
\A1;940
 73
     1
 44
1.0
1001
ACAD
1000
MTEXTBEGIN
1070
    73
1070
     1
1070
    44
1040
1.0
1070
    74
1070
     0
1000
MTEXTEND
  0
POINT
  5
860C
330
8603
100
AcDbEntity
  8
DEFPOINTS
 62
     0
100
AcDbPoint
 10
1964.062617025251
 20
7578.591300024716
 30
0.0
  0
POINT
  5
860D
330
8603
100
AcDbEntity
  8
DEFPOINTS
 62
     0
100
AcDbPoint
 10
1024.06261702525
 20
6578.591300024716
 30
0.0
  0
POINT
  5
860E
330
8603
100
AcDbEntity
  8
DEFPOINTS
 62
     0
100
AcDbPoint
 10
1024.06261702525
 20
7808.010105037642
 30
0.0
  0
ENDBLK
  5
8605
330
8603
100
AcDbEntity
  8
0
100
AcDbBlockEnd
  0
BLOCK
  5
8611
330
8610
100
AcDbEntity
  8
0
100
AcDbBlockBegin
  2
*D48
 70
     1
 10
0.0
 20
0.0
 30
0.0
  3
*D48
  1

  0
LINE
  5
8613
330
8610
100
AcDbEntity
  8
3
 62
     0
370
    -2
100
AcDbLine
 10
1024.062617025251
 20
2658.692209343379
 30
0.0
 11
1024.062617025251
 21
5037.684932965962
 31
0.0
  0
LINE
  5
8614
330
8610
100
AcDbEntity
  8
3
 62
     0
370
    -2
100
AcDbLine
 10
3384.062617025249
 20
4624.692209343378
 30
0.0
 11
3384.062617025249
 21
5037.684932965962
 31
0.0
  0
LINE
  5
8615
330
8610
100
AcDbEntity
  8
3
 62
     0
370
    -2
100
AcDbLine
 10
1094.062617025251
 20
5002.684932965962
 30
0.0
 11
3314.06261702525
 21
5002.684932965962
 31
0.0
  0
INSERT
  5
8616
330
8610
100
AcDbEntity
  8
3
 62
     0
370
    -2
100
AcDbBlockReference
  2
_OPEN
 10
1024.062617025251
 20
5002.684932965962
 30
0.0
 41
70.0
 42
70.0
 43
70.0
 50
180.0
  0
INSERT
  5
8617
330
8610
100
AcDbEntity
  8
3
 62
     0
370
    -2
100
AcDbBlockReference
  2
_OPEN
 10
3384.062617025249
 20
5002.684932965962
 30
0.0
 41
70.0
 42
70.0
 43
70.0
  0
MTEXT
  5
8618
330
8610
100
AcDbEntity
  8
3
 62
     0
100
AcDbMText
 10
2204.06261702525
 20
5090.184932965962
 30
0.0
 40
105.0
 41
0.0
 71
     5
 72
     1
  1
\A1;2360
 73
     1
 44
1.0
1001
ACAD
1000
MTEXTBEGIN
1070
    73
1070
     1
1070
    44
1040
1.0
1070
    74
1070
     0
1000
MTEXTEND
  0
POINT
  5
8619
330
8610
100
AcDbEntity
  8
DEFPOINTS
 62
     0
100
AcDbPoint
 10
1024.062617025251
 20
2641.192209343379
 30
0.0
  0
POINT
  5
861A
330
8610
100
AcDbEntity
  8
DEFPOINTS
 62
     0
100
AcDbPoint
 10
3384.062617025249
 20
4607.192209343378
 30
0.0
  0
POINT
  5
861B
330
8610
100
AcDbEntity
  8
DEFPOINTS
 62
     0
100
AcDbPoint
 10
3384.062617025249
 20
5002.684932965962
 30
0.0
  0
ENDBLK
  5
8612
330
8610
100
AcDbEntity
  8
0
100
AcDbBlockEnd
  0
BLOCK
  5
861E
330
861D
100
AcDbEntity
  8
0
100
AcDbBlockBegin
  2
*D49
 70
     1
 10
0.0
 20
0.0
 30
0.0
  3
*D49
  1

  0
LINE
  5
8620
330
861D
100
AcDbEntity
  8
3
 62
     0
370
    -2
100
AcDbLine
 10
3384.062617025249
 20
4624.692209343378
 30
0.0
 11
3384.062617025249
 21
4845.525596269836
 31
0.0
  0
LINE
  5
8621
330
861D
100
AcDbEntity
  8
3
 62
     0
370
    -2
100
AcDbLine
 10
2624.062617025249
 20
4687.605732334349
 30
0.0
 11
2624.062617025249
 21
4845.525596269836
 31
0.0
  0
LINE
  5
8622
330
861D
100
AcDbEntity
  8
3
 62
     0
370
    -2
100
AcDbLine
 10
3314.06261702525
 20
4810.525596269836
 30
0.0
 11
2694.06261702525
 21
4810.525596269836
 31
0.0
  0
INSERT
  5
8623
330
861D
100
AcDbEntity
  8
3
 62
     0
370
    -2
100
AcDbBlockReference
  2
_OPEN
 10
3384.062617025249
 20
4810.525596269836
 30
0.0
 41
70.0
 42
70.0
 43
70.0
  0
INSERT
  5
8624
330
861D
100
AcDbEntity
  8
3
 62
     0
370
    -2
100
AcDbBlockReference
  2
_OPEN
 10
2624.062617025249
 20
4810.525596269836
 30
0.0
 41
70.0
 42
70.0
 43
70.0
 50
180.0
  0
MTEXT
  5
8625
330
861D
100
AcDbEntity
  8
3
 62
     0
100
AcDbMText
 10
3004.06261702525
 20
4898.025596269835
 30
0.0
 40
105.0
 41
0.0
 71
     5
 72
     1
  1
\A1;760
 73
     1
 44
1.0
1001
ACAD
1000
MTEXTBEGIN
1070
    73
1070
     1
1070
    44
1040
1.0
1070
    74
1070
     0
1000
MTEXTEND
  0
POINT
  5
8626
330
861D
100
AcDbEntity
  8
DEFPOINTS
 62
     0
100
AcDbPoint
 10
3384.062617025249
 20
4607.192209343378
 30
0.0
  0
POINT
  5
8627
330
861D
100
AcDbEntity
  8
DEFPOINTS
 62
     0
100
AcDbPoint
 10
2624.062617025249
 20
4670.105732334348
 30
0.0
  0
POINT
  5
8628
330
861D
100
AcDbEntity
  8
DEFPOINTS
 62
     0
100
AcDbPoint
 10
2624.062617025249
 20
4810.525596269836
 30
0.0
  0
ENDBLK
  5
861F
330
861D
100
AcDbEntity
  8
0
100
AcDbBlockEnd
  0
BLOCK
  5
862B
330
862A
100
AcDbEntity
  8
0
100
AcDbBlockBegin
  2
*D50
 70
     1
 10
0.0
 20
0.0
 30
0.0
  3
*D50
  1

  0
LINE
  5
862D
330
862A
100
AcDbEntity
  8
3
 62
     0
370
    -2
100
AcDbLine
 10
2624.062617025249
 20
4687.605732334349
 30
0.0
 11
2624.062617025249
 21
4845.525596269836
 31
0.0
  0
LINE
  5
862E
330
862A
100
AcDbEntity
  8
3
 62
     0
370
    -2
100
AcDbLine
 10
1655.06261702525
 20
3455.692209343379
 30
0.0
 11
1655.06261702525
 21
4845.525596269836
 31
0.0
  0
LINE
  5
862F
330
862A
100
AcDbEntity
  8
3
 62
     0
370
    -2
100
AcDbLine
 10
2554.06261702525
 20
4810.525596269836
 30
0.0
 11
1725.062617025251
 21
4810.525596269836
 31
0.0
  0
INSERT
  5
8630
330
862A
100
AcDbEntity
  8
3
 62
     0
370
    -2
100
AcDbBlockReference
  2
_OPEN
 10
2624.062617025249
 20
4810.525596269836
 30
0.0
 41
70.0
 42
70.0
 43
70.0
  0
INSERT
  5
8631
330
862A
100
AcDbEntity
  8
3
 62
     0
370
    -2
100
AcDbBlockReference
  2
_OPEN
 10
1655.06261702525
 20
4810.525596269836
 30
0.0
 41
70.0
 42
70.0
 43
70.0
 50
180.0
  0
MTEXT
  5
8632
330
862A
100
AcDbEntity
  8
3
 62
     0
100
AcDbMText
 10
2139.56261702525
 20
4898.025596269835
 30
0.0
 40
105.0
 41
0.0
 71
     5
 72
     1
  1
\A1;969
 73
     1
 44
1.0
1001
ACAD
1000
MTEXTBEGIN
1070
    73
1070
     1
1070
    44
1040
1.0
1070
    74
1070
     0
1000
MTEXTEND
  0
POINT
  5
8633
330
862A
100
AcDbEntity
  8
DEFPOINTS
 62
     0
100
AcDbPoint
 10
2624.062617025249
 20
4670.105732334348
 30
0.0
  0
POINT
  5
8634
330
862A
100
AcDbEntity
  8
DEFPOINTS
 62
     0
100
AcDbPoint
 10
1655.06261702525
 20
3438.192209343378
 30
0.0
  0
POINT
  5
8635
330
862A
100
AcDbEntity
  8
DEFPOINTS
 62
     0
100
AcDbPoint
 10
1655.06261702525
 20
4810.525596269836
 30
0.0
  0
ENDBLK
  5
862C
330
862A
100
AcDbEntity
  8
0
100
AcDbBlockEnd
  0
BLOCK
  5
8638
330
8637
100
AcDbEntity
  8
0
100
AcDbBlockBegin
  2
*D51
 70
     1
 10
0.0
 20
0.0
 30
0.0
  3
*D51
  1

  0
LINE
  5
863A
330
8637
100
AcDbEntity
  8
3
 62
     0
370
    -2
100
AcDbLine
 10
3401.56261702525
 20
4554.192209343379
 30
0.0
 11
3619.170933309518
 21
4554.192209343379
 31
0.0
  0
LINE
  5
863B
330
8637
100
AcDbEntity
  8
3
 62
     0
370
    -2
100
AcDbLine
 10
3401.56261702525
 20
3404.192209343379
 30
0.0
 11
3619.170933309518
 21
3404.192209343379
 31
0.0
  0
LINE
  5
863C
330
8637
100
AcDbEntity
  8
3
 62
     0
370
    -2
100
AcDbLine
 10
3584.170933309517
 20
4484.192209343379
 30
0.0
 11
3584.170933309517
 21
3474.192209343379
 31
0.0
  0
INSERT
  5
863D
330
8637
100
AcDbEntity
  8
3
 62
     0
370
    -2
100
AcDbBlockReference
  2
_OPEN
 10
3584.170933309517
 20
4554.192209343379
 30
0.0
 41
70.0
 42
70.0
 43
70.0
 50
90.0
  0
INSERT
  5
863E
330
8637
100
AcDbEntity
  8
3
 62
     0
370
    -2
100
AcDbBlockReference
  2
_OPEN
 10
3584.170933309517
 20
3404.192209343379
 30
0.0
 41
70.0
 42
70.0
 43
70.0
 50
270.0
  0
MTEXT
  5
863F
330
8637
100
AcDbEntity
  8
3
 62
     0
100
AcDbMText
 10
3496.670933309517
 20
3979.19220934338
 30
0.0
 40
105.0
 41
0.0
 71
     5
 72
     1
  1
\A1;1150
 11
0.0000000000000001
 21
1.0
 31
0.0
 73
     1
 44
1.0
1001
ACAD
1000
MTEXTBEGIN
1070
    73
1070
     1
1070
    44
1040
1.0
1070
    74
1070
     0
1000
MTEXTEND
  0
POINT
  5
8640
330
8637
100
AcDbEntity
  8
DEFPOINTS
 62
     0
100
AcDbPoint
 10
3384.062617025249
 20
4554.192209343379
 30
0.0
  0
POINT
  5
8641
330
8637
100
AcDbEntity
  8
DEFPOINTS
 62
     0
100
AcDbPoint
 10
3384.062617025249
 20
3404.192209343379
 30
0.0
  0
POINT
  5
8642
330
8637
100
AcDbEntity
  8
DEFPOINTS
 62
     0
100
AcDbPoint
 10
3584.170933309517
 20
3404.192209343379
 30
0.0
  0
ENDBLK
  5
8639
330
8637
100
AcDbEntity
  8
0
100
AcDbBlockEnd
  0
BLOCK
  5
8645
330
8644
100
AcDbEntity
  8
0
100
AcDbBlockBegin
  2
*D52
 70
     1
 10
0.0
 20
0.0
 30
0.0
  3
*D52
  1

  0
LINE
  5
8647
330
8644
100
AcDbEntity
  8
3
 62
     0
370
    -2
100
AcDbLine
 10
3401.56261702525
 20
4554.192209343379
 30
0.0
 11
3819.32258417102
 21
4554.192209343379
 31
0.0
  0
LINE
  5
8648
330
8644
100
AcDbEntity
  8
3
 62
     0
370
    -2
100
AcDbLine
 10
3548.343268478227
 20
3356.192209343378
 30
0.0
 11
3819.32258417102
 21
3356.192209343378
 31
0.0
  0
LINE
  5
8649
330
8644
100
AcDbEntity
  8
3
 62
     0
370
    -2
100
AcDbLine
 10
3784.322584171019
 20
4484.192209343379
 30
0.0
 11
3784.322584171019
 21
3426.192209343378
 31
0.0
  0
INSERT
  5
864A
330
8644
100
AcDbEntity
  8
3
 62
     0
370
    -2
100
AcDbBlockReference
  2
_OPEN
 10
3784.322584171019
 20
4554.192209343379
 30
0.0
 41
70.0
 42
70.0
 43
70.0
 50
90.0
  0
INSERT
  5
864B
330
8644
100
AcDbEntity
  8
3
 62
     0
370
    -2
100
AcDbBlockReference
  2
_OPEN
 10
3784.322584171019
 20
3356.192209343378
 30
0.0
 41
70.0
 42
70.0
 43
70.0
 50
270.0
  0
MTEXT
  5
864C
330
8644
100
AcDbEntity
  8
3
 62
     0
100
AcDbMText
 10
3696.822584171019
 20
3955.19220934338
 30
0.0
 40
105.0
 41
0.0
 71
     5
 72
     1
  1
\A1;1198
 11
0.0000000000000001
 21
1.0
 31
0.0
 73
     1
 44
1.0
1001
ACAD
1000
MTEXTBEGIN
1070
    73
1070
     1
1070
    44
1040
1.0
1070
    74
1070
     0
1000
MTEXTEND
  0
POINT
  5
864D
330
8644
100
AcDbEntity
  8
DEFPOINTS
 62
     0
100
AcDbPoint
 10
3384.062617025249
 20
4554.192209343379
 30
0.0
  0
POINT
  5
864E
330
8644
100
AcDbEntity
  8
DEFPOINTS
 62
     0
100
AcDbPoint
 10
3530.843268478227
 20
3356.192209343378
 30
0.0
  0
POINT
  5
864F
330
8644
100
AcDbEntity
  8
DEFPOINTS
 62
     0
100
AcDbPoint
 10
3784.322584171019
 20
3356.192209343378
 30
0.0
  0
ENDBLK
  5
8646
330
8644
100
AcDbEntity
  8
0
100
AcDbBlockEnd
  0
BLOCK
  5
8652
330
8651
100
AcDbEntity
  8
0
100
AcDbBlockBegin
  2
*D53
 70
     1
 10
0.0
 20
0.0
 30
0.0
  3
*D53
  1

  0
LINE
  5
8654
330
8651
100
AcDbEntity
  8
3
 62
     0
370
    -2
100
AcDbLine
 10
3548.343268478227
 20
3356.192209343378
 30
0.0
 11
3819.32258417102
 21
3356.192209343378
 31
0.0
  0
LINE
  5
8655
330
8651
100
AcDbEntity
  8
3
 62
     0
370
    -2
100
AcDbLine
 10
3301.56261702525
 20
2516.192209343379
 30
0.0
 11
3819.322584171019
 21
2516.192209343379
 31
0.0
  0
LINE
  5
8656
330
8651
100
AcDbEntity
  8
3
 62
     0
370
    -2
100
AcDbLine
 10
3784.322584171019
 20
3286.192209343378
 30
0.0
 11
3784.322584171019
 21
2586.192209343379
 31
0.0
  0
INSERT
  5
8657
330
8651
100
AcDbEntity
  8
3
 62
     0
370
    -2
100
AcDbBlockReference
  2
_OPEN
 10
3784.322584171019
 20
3356.192209343378
 30
0.0
 41
70.0
 42
70.0
 43
70.0
 50
90.0
  0
INSERT
  5
8658
330
8651
100
AcDbEntity
  8
3
 62
     0
370
    -2
100
AcDbBlockReference
  2
_OPEN
 10
3784.322584171019
 20
2516.192209343379
 30
0.0
 41
70.0
 42
70.0
 43
70.0
 50
270.0
  0
MTEXT
  5
8659
330
8651
100
AcDbEntity
  8
3
 62
     0
100
AcDbMText
 10
3696.822584171019
 20
2936.19220934338
 30
0.0
 40
105.0
 41
0.0
 71
     5
 72
     1
  1
\A1;840
 11
0.0000000000000001
 21
1.0
 31
0.0
 73
     1
 44
1.0
1001
ACAD
1000
MTEXTBEGIN
1070
    73
1070
     1
1070
    44
1040
1.0
1070
    74
1070
     0
1000
MTEXTEND
  0
POINT
  5
865A
330
8651
100
AcDbEntity
  8
DEFPOINTS
 62
     0
100
AcDbPoint
 10
3530.843268478227
 20
3356.192209343378
 30
0.0
  0
POINT
  5
865B
330
8651
100
AcDbEntity
  8
DEFPOINTS
 62
     0
100
AcDbPoint
 10
3284.062617025249
 20
2516.192209343379
 30
0.0
  0
POINT
  5
865C
330
8651
100
AcDbEntity
  8
DEFPOINTS
 62
     0
100
AcDbPoint
 10
3784.322584171019
 20
2516.192209343379
 30
0.0
  0
ENDBLK
  5
8653
330
8651
100
AcDbEntity
  8
0
100
AcDbBlockEnd
  0
BLOCK
  5
865F
330
865E
100
AcDbEntity
  8
0
100
AcDbBlockBegin
  2
*D54
 70
     1
 10
0.0
 20
0.0
 30
0.0
  3
*D54
  1

  0
LINE
  5
874F
330
865E
100
AcDbEntity
  8
3
 62
     0
370
    -2
100
AcDbLine
 10
3301.56261702525
 20
2516.192209343379
 30
0.0
 11
3819.322584171019
 21
2516.192209343379
 31
0.0
  0
LINE
  5
8750
330
865E
100
AcDbEntity
  8
3
 62
     0
370
    -2
100
AcDbLine
 10
3301.56261702525
 20
2411.192209343379
 30
0.0
 11
3819.322584171019
 21
2411.192209343379
 31
0.0
  0
LINE
  5
8751
330
865E
100
AcDbEntity
  8
3
 62
     0
370
    -2
100
AcDbLine
 10
3784.322584171019
 20
2586.192209343379
 30
0.0
 11
3784.322584171019
 21
2656.192209343379
 31
0.0
  0
LINE
  5
8752
330
865E
100
AcDbEntity
  8
3
 62
     0
370
    -2
100
AcDbLine
 10
3784.322584171019
 20
2411.192209343379
 30
0.0
 11
3784.322584171019
 21
2341.192209343379
 31
0.0
  0
LINE
  5
8753
330
865E
100
AcDbEntity
  8
3
 62
     0
370
    -2
100
AcDbLine
 10
3784.322584171019
 20
2463.692209343379
 30
0.0
 11
4111.822584171019
 21
2561.942209343379
 31
0.0
  0
LINE
  5
8754
330
865E
100
AcDbEntity
  8
3
 62
     0
370
    -2
100
AcDbLine
 10
4111.822584171019
 20
2561.942209343379
 30
0.0
 11
4111.822584171019
 21
3016.942209343379
 31
0.0
  0
MTEXT
  5
8755
330
865E
100
AcDbEntity
  8
3
 62
     0
100
AcDbMText
 10
3996.822584171019
 20
2789.442209343379
 30
0.0
 40
105.0
 41
0.0
 71
     5
 72
     1
  1
\A1;(105)
 11
0.0000000000000001
 21
1.0
 31
0.0
 73
     1
 44
1.0
1001
ACAD
1000
MTEXTBEGIN
1070
    73
1070
     1
1070
    44
1040
1.0
1070
    74
1070
     0
1000
MTEXTEND
  0
LINE
  5
8756
330
865E
100
AcDbEntity
  8
3
 62
     0
370
    -2
100
AcDbLine
 10
3784.322584171019
 20
2516.192209343379
 30
0.0
 11
3784.322584171019
 21
2411.192209343379
 31
0.0
  0
LINE
  5
8757
330
865E
100
AcDbEntity
  8
3
 62
     0
370
    -2
100
AcDbLine
 10
3784.322584171019
 20
2516.192209343379
 30
0.0
 11
3784.322584171019
 21
2411.192209343379
 31
0.0
  0
INSERT
  5
8758
330
865E
100
AcDbEntity
  8
3
 62
     0
370
    -2
100
AcDbBlockReference
  2
_OPEN
 10
3784.322584171019
 20
2516.192209343379
 30
0.0
 41
70.0
 42
70.0
 43
70.0
 50
270.0
  0
INSERT
  5
8759
330
865E
100
AcDbEntity
  8
3
 62
     0
370
    -2
100
AcDbBlockReference
  2
_DotSmall
 10
3784.322584171019
 20
2411.192209343379
 30
0.0
 41
70.0
 42
70.0
 43
70.0
 50
90.0
  0
POINT
  5
875A
330
865E
100
AcDbEntity
  8
DEFPOINTS
 62
     0
100
AcDbPoint
 10
3284.062617025249
 20
2516.192209343379
 30
0.0
  0
POINT
  5
875B
330
865E
100
AcDbEntity
  8
DEFPOINTS
 62
     0
100
AcDbPoint
 10
3284.062617025249
 20
2411.192209343379
 30
0.0
  0
POINT
  5
875C
330
865E
100
AcDbEntity
  8
DEFPOINTS
 62
     0
100
AcDbPoint
 10
3784.322584171019
 20
2411.192209343379
 30
0.0
  0
ENDBLK
  5
8660
330
865E
100
AcDbEntity
  8
0
100
AcDbBlockEnd
  0
BLOCK
  5
8671
330
8670
100
AcDbEntity
  8
0
100
AcDbBlockBegin
  2
*D55
 70
     1
 10
0.0
 20
0.0
 30
0.0
  3
*D55
  1

  0
LINE
  5
87AB
330
8670
100
AcDbEntity
  8
3
 62
     0
370
    -2
100
AcDbLine
 10
3301.56261702525
 20
2411.192209343379
 30
0.0
 11
3819.322584171019
 21
2411.192209343379
 31
0.0
  0
LINE
  5
87AC
330
8670
100
AcDbEntity
  8
3
 62
     0
370
    -2
100
AcDbLine
 10
3301.56261702525
 20
2346.192209343379
 30
0.0
 11
3819.322584171019
 21
2346.192209343379
 31
0.0
  0
LINE
  5
87AD
330
8670
100
AcDbEntity
  8
3
 62
     0
370
    -2
100
AcDbLine
 10
3784.322584171019
 20
2411.192209343379
 30
0.0
 11
3784.322584171019
 21
2481.192209343379
 31
0.0
  0
LINE
  5
87AE
330
8670
100
AcDbEntity
  8
3
 62
     0
370
    -2
100
AcDbLine
 10
3784.322584171019
 20
2276.192209343379
 30
0.0
 11
3784.322584171019
 21
2206.192209343379
 31
0.0
  0
MTEXT
  5
87AF
330
8670
100
AcDbEntity
  8
3
 62
     0
100
AcDbMText
 10
3663.232793239644
 20
2208.915430821803
 30
0.0
 40
105.0
 41
0.0
 71
     5
 72
     1
  1
\A1;65
 11
0.0000000000000001
 21
1.0
 31
0.0
 73
     1
 44
1.0
1001
ACAD
1000
MTEXTBEGIN
1070
    73
1070
     1
1070
    44
1040
1.0
1070
    74
1070
     0
1000
MTEXTEND
  0
LINE
  5
87B0
330
8670
100
AcDbEntity
  8
3
 62
     0
370
    -2
100
AcDbLine
 10
3784.322584171019
 20
2411.192209343379
 30
0.0
 11
3784.322584171019
 21
2346.192209343379
 31
0.0
  0
INSERT
  5
87B1
330
8670
100
AcDbEntity
  8
3
 62
     0
370
    -2
100
AcDbBlockReference
  2
_DotSmall
 10
3784.322584171019
 20
2411.192209343379
 30
0.0
 41
70.0
 42
70.0
 43
70.0
 50
270.0
  0
INSERT
  5
87B2
330
8670
100
AcDbEntity
  8
3
 62
     0
370
    -2
100
AcDbBlockReference
  2
_OPEN
 10
3784.322584171019
 20
2346.192209343379
 30
0.0
 41
70.0
 42
70.0
 43
70.0
 50
90.0
  0
POINT
  5
87B3
330
8670
100
AcDbEntity
  8
DEFPOINTS
 62
     0
100
AcDbPoint
 10
3284.062617025249
 20
2411.192209343379
 30
0.0
  0
POINT
  5
87B4
330
8670
100
AcDbEntity
  8
DEFPOINTS
 62
     0
100
AcDbPoint
 10
3284.062617025249
 20
2346.192209343379
 30
0.0
  0
POINT
  5
87B5
330
8670
100
AcDbEntity
  8
DEFPOINTS
 62
     0
100
AcDbPoint
 10
3784.322584171019
 20
2346.192209343379
 30
0.0
  0
ENDBLK
  5
8672
330
8670
100
AcDbEntity
  8
0
100
AcDbBlockEnd
  0
BLOCK
  5
8683
330
8682
100
AcDbEntity
  8
0
100
AcDbBlockBegin
  2
*D56
 70
     1
 10
0.0
 20
0.0
 30
0.0
  3
*D56
  1

  0
LINE
  5
86E1
330
8682
100
AcDbEntity
  8
3
 62
     0
370
    -2
100
AcDbLine
 10
3301.56261702525
 20
2346.192209343379
 30
0.0
 11
4185.780962333425
 21
2346.192209343379
 31
0.0
  0
LINE
  5
86E2
330
8682
100
AcDbEntity
  8
3
 62
     0
370
    -2
100
AcDbLine
 10
3401.56261702525
 20
4554.192209343379
 30
0.0
 11
4185.780962333425
 21
4554.192209343379
 31
0.0
  0
LINE
  5
86E3
330
8682
100
AcDbEntity
  8
3
 62
     0
370
    -2
100
AcDbLine
 10
4150.780962333425
 20
2416.192209343379
 30
0.0
 11
4150.780962333425
 21
4484.192209343379
 31
0.0
  0
INSERT
  5
86E4
330
8682
100
AcDbEntity
  8
3
 62
     0
370
    -2
100
AcDbBlockReference
  2
_OPEN
 10
4150.780962333425
 20
2346.192209343379
 30
0.0
 41
70.0
 42
70.0
 43
70.0
 50
270.0
  0
INSERT
  5
86E5
330
8682
100
AcDbEntity
  8
3
 62
     0
370
    -2
100
AcDbBlockReference
  2
_OPEN
 10
4150.780962333425
 20
4554.192209343379
 30
0.0
 41
70.0
 42
70.0
 43
70.0
 50
90.0
  0
MTEXT
  5
86E6
330
8682
100
AcDbEntity
  8
3
 62
     0
100
AcDbMText
 10
4035.780962333424
 20
3450.192209343379
 30
0.0
 40
105.0
 41
0.0
 71
     5
 72
     1
  1
\A1;(2208)
 11
0.0000000000000001
 21
1.0
 31
0.0
 73
     1
 44
1.0
1001
ACAD
1000
MTEXTBEGIN
1070
    73
1070
     1
1070
    44
1040
1.0
1070
    74
1070
     0
1000
MTEXTEND
  0
POINT
  5
86E7
330
8682
100
AcDbEntity
  8
DEFPOINTS
 62
     0
100
AcDbPoint
 10
3284.062617025249
 20
2346.192209343379
 30
0.0
  0
POINT
  5
86E8
330
8682
100
AcDbEntity
  8
DEFPOINTS
 62
     0
100
AcDbPoint
 10
3384.062617025249
 20
4554.192209343379
 30
0.0
  0
POINT
  5
86E9
330
8682
100
AcDbEntity
  8
DEFPOINTS
 62
     0
100
AcDbPoint
 10
4150.780962333425
 20
4554.192209343379
 30
0.0
  0
ENDBLK
  5
8684
330
8682
100
AcDbEntity
  8
0
100
AcDbBlockEnd
  0
BLOCK
  5
8690
330
868F
100
AcDbEntity
  8
0
100
AcDbBlockBegin
  2
*D57
 70
     1
 10
0.0
 20
0.0
 30
0.0
  3
*D57
  1

  0
LINE
  5
8692
330
868F
100
AcDbEntity
  8
3
 62
     0
370
    -2
100
AcDbLine
 10
1024.062617025251
 20
2328.692209343379
 30
0.0
 11
1024.062617025251
 21
2070.52784082877
 31
0.0
  0
LINE
  5
8693
330
868F
100
AcDbEntity
  8
3
 62
     0
370
    -2
100
AcDbLine
 10
2624.062617025251
 20
2328.692209343379
 30
0.0
 11
2624.062617025251
 21
2070.52784082877
 31
0.0
  0
LINE
  5
8694
330
868F
100
AcDbEntity
  8
3
 62
     0
370
    -2
100
AcDbLine
 10
1094.062617025251
 20
2105.52784082877
 30
0.0
 11
2554.062617025251
 21
2105.52784082877
 31
0.0
  0
INSERT
  5
8695
330
868F
100
AcDbEntity
  8
3
 62
     0
370
    -2
100
AcDbBlockReference
  2
_OPEN
 10
1024.062617025251
 20
2105.52784082877
 30
0.0
 41
70.0
 42
70.0
 43
70.0
 50
180.0
  0
INSERT
  5
8696
330
868F
100
AcDbEntity
  8
3
 62
     0
370
    -2
100
AcDbBlockReference
  2
_OPEN
 10
2624.062617025251
 20
2105.52784082877
 30
0.0
 41
70.0
 42
70.0
 43
70.0
  0
MTEXT
  5
8697
330
868F
100
AcDbEntity
  8
3
 62
     0
100
AcDbMText
 10
1824.062617025251
 20
2193.02784082877
 30
0.0
 40
105.0
 41
0.0
 71
     5
 72
     1
  1
\A1;1600
 73
     1
 44
1.0
1001
ACAD
1000
MTEXTBEGIN
1070
    73
1070
     1
1070
    44
1040
1.0
1070
    74
1070
     0
1000
MTEXTEND
  0
POINT
  5
8698
330
868F
100
AcDbEntity
  8
DEFPOINTS
 62
     0
100
AcDbPoint
 10
1024.062617025251
 20
2346.192209343379
 30
0.0
  0
POINT
  5
8699
330
868F
100
AcDbEntity
  8
DEFPOINTS
 62
     0
100
AcDbPoint
 10
2624.062617025251
 20
2346.192209343379
 30
0.0
  0
POINT
  5
869A
330
868F
100
AcDbEntity
  8
DEFPOINTS
 62
     0
100
AcDbPoint
 10
2624.062617025251
 20
2105.52784082877
 30
0.0
  0
ENDBLK
  5
8691
330
868F
100
AcDbEntity
  8
0
100
AcDbBlockEnd
  0
BLOCK
  5
869D
330
869C
100
AcDbEntity
  8
0
100
AcDbBlockBegin
  2
*D58
 70
     1
 10
0.0
 20
0.0
 30
0.0
  3
*D58
  1

  0
LINE
  5
869F
330
869C
100
AcDbEntity
  8
3
 62
     0
370
    -2
100
AcDbLine
 10
2624.062617025251
 20
2328.692209343379
 30
0.0
 11
2624.062617025251
 21
2070.52784082877
 31
0.0
  0
LINE
  5
86A0
330
869C
100
AcDbEntity
  8
3
 62
     0
370
    -2
100
AcDbLine
 10
3284.062617025249
 20
2328.692209343379
 30
0.0
 11
3284.062617025249
 21
2070.52784082877
 31
0.0
  0
LINE
  5
86A1
330
869C
100
AcDbEntity
  8
3
 62
     0
370
    -2
100
AcDbLine
 10
2694.062617025251
 20
2105.52784082877
 30
0.0
 11
3214.06261702525
 21
2105.52784082877
 31
0.0
  0
INSERT
  5
86A2
330
869C
100
AcDbEntity
  8
3
 62
     0
370
    -2
100
AcDbBlockReference
  2
_OPEN
 10
2624.062617025251
 20
2105.52784082877
 30
0.0
 41
70.0
 42
70.0
 43
70.0
 50
180.0
  0
INSERT
  5
86A3
330
869C
100
AcDbEntity
  8
3
 62
     0
370
    -2
100
AcDbBlockReference
  2
_OPEN
 10
3284.062617025249
 20
2105.52784082877
 30
0.0
 41
70.0
 42
70.0
 43
70.0
  0
MTEXT
  5
86A4
330
869C
100
AcDbEntity
  8
3
 62
     0
100
AcDbMText
 10
2954.06261702525
 20
2193.02784082877
 30
0.0
 40
105.0
 41
0.0
 71
     5
 72
     1
  1
\A1;660
 73
     1
 44
1.0
1001
ACAD
1000
MTEXTBEGIN
1070
    73
1070
     1
1070
    44
1040
1.0
1070
    74
1070
     0
1000
MTEXTEND
  0
POINT
  5
86A5
330
869C
100
AcDbEntity
  8
DEFPOINTS
 62
     0
100
AcDbPoint
 10
2624.062617025251
 20
2346.192209343379
 30
0.0
  0
POINT
  5
86A6
330
869C
100
AcDbEntity
  8
DEFPOINTS
 62
     0
100
AcDbPoint
 10
3284.062617025249
 20
2346.192209343379
 30
0.0
  0
POINT
  5
86A7
330
869C
100
AcDbEntity
  8
DEFPOINTS
 62
     0
100
AcDbPoint
 10
3284.062617025249
 20
2105.52784082877
 30
0.0
  0
ENDBLK
  5
869E
330
869C
100
AcDbEntity
  8
0
100
AcDbBlockEnd
  0
BLOCK
  5
874D
330
874B
100
AcDbEntity
  8
0
100
AcDbBlockBegin
  2
_DotSmall
 70
     0
 10
0.0
 20
0.0
 30
0.0
  3
_DotSmall
  1

  0
LWPOLYLINE
  5
874C
330
874B
100
AcDbEntity
  8
0
  6
ByBlock
 62
     0
100
AcDbPolyline
 90
        2
 70
     1
 43
0.5
 10
-0.0625
 20
0.0
 42
1.0
 10
0.0625
 20
0.0
 42
1.0
  0
ENDBLK
  5
874E
330
874B
100
AcDbEntity
  8
0
100
AcDbBlockEnd
  0
ENDSEC
  0
SECTION
  2
ENTITIES
  0
INSERT
  5
7C13
330
8461
100
AcDbEntity
  8
0
100
AcDbBlockReference
  2
YA_N
 10
6.0
 20
5.0
 30
0.0
  0
LINE
  5
7C15
330
8461
100
AcDbEntity
  8
2
100
AcDbLine
 10
3530.843268478227
 20
3356.192209343378
 30
0.0
 11
1557.688275911579
 21
3356.192209343378
 31
0.0
  0
LINE
  5
7C16
330
8461
100
AcDbEntity
  8
2
100
AcDbLine
 10
2624.062617025251
 20
2346.192209343379
 30
0.0
 11
2624.062617025249
 21
4670.105732334348
 31
0.0
  0
LINE
  5
7C17
330
8461
100
AcDbEntity
  8
1
100
AcDbLine
 10
3384.062617025249
 20
3351.192209343379
 30
0.0
 11
3384.062617025249
 21
4607.192209343378
 31
0.0
  0
LINE
  5
7C18
330
8461
100
AcDbEntity
  8
1
100
AcDbLine
 10
3384.062617025249
 20
4607.192209343378
 30
0.0
 11
3380.062617025251
 21
4607.192209343378
 31
0.0
  0
LINE
  5
7C19
330
8461
100
AcDbEntity
  8
1
100
AcDbLine
 10
3384.062617025249
 20
3351.192209343379
 30
0.0
 11
3380.062617025251
 21
3351.192209343379
 31
0.0
  0
LINE
  5
7C1A
330
8461
100
AcDbEntity
  8
1
100
AcDbLine
 10
3334.062617025249
 20
3404.192209343379
 30
0.0
 11
3334.062617025249
 21
4549.70512110794
 31
0.0
  0
LINE
  5
7C1B
330
8461
100
AcDbEntity
  8
1
100
AcDbLine
 10
3380.062617025251
 20
3351.192209343379
 30
0.0
 11
3380.062617025251
 21
4607.192209343378
 31
0.0
  0
LINE
  5
7C1C
330
8461
100
AcDbEntity
  8
1
100
AcDbLine
 10
3284.062617025249
 20
2516.192209343379
 30
0.0
 11
1024.062617025251
 21
2516.192209343379
 31
0.0
1001
ACAD
1000
ASC_BOUNDS
1002
{
1070
    19
1005
0
1002
}
  0
LINE
  5
7C1D
330
8461
100
AcDbEntity
  8
1
100
AcDbLine
 10
3284.062617025251
 20
2641.192209343379
 30
0.0
 11
3284.062617025249
 21
2516.192209343379
 31
0.0
  0
LINE
  5
7C1E
330
8461
100
AcDbEntity
  8
1
100
AcDbLine
 10
1024.062617025251
 20
2641.192209343379
 30
0.0
 11
1024.062617025251
 21
2516.192209343379
 31
0.0
  0
LINE
  5
7C1F
330
8461
100
AcDbEntity
  8
1
100
AcDbLine
 10
3284.062617025249
 20
2641.192209343379
 30
0.0
 11
1024.062617025251
 21
2641.192209343379
 31
0.0
  0
ARC
  5
7C20
330
8461
100
AcDbEntity
  8
1
100
AcDbCircle
 10
2706.062617025251
 20
3438.192209343378
 30
0.0
 40
1051.0
100
AcDbArc
 50
94.47481789853384
 51
184.4748178985337
  0
ARC
  5
7C21
330
8461
100
AcDbEntity
  8
1
100
AcDbCircle
 10
2542.06261702525
 20
3438.192209343378
 30
0.0
 40
887.0
100
AcDbArc
 50
185.3043652077958
 51
243.9660825265812
  0
ARC
  5
7C22
330
8461
100
AcDbEntity
  8
1
100
AcDbCircle
 10
2555.562617025251
 20
3287.692209343378
 30
0.0
 40
736.5
100
AcDbArc
 50
298.6218443773359
 51
5.336648321383473
  0
LINE
  5
7C23
330
8461
100
AcDbEntity
  8
1
100
AcDbLine
 10
3384.062617025249
 20
4554.192209343379
 30
0.0
 11
2624.062617025249
 21
4485.988468164721
 31
0.0
  0
LINE
  5
7C24
330
8461
100
AcDbEntity
  8
1
100
AcDbLine
 10
3384.062617025249
 20
3404.192209343379
 30
0.0
 11
3290.33583425674
 21
3404.192209343379
 31
0.0
  0
LINE
  5
7C25
330
8461
100
AcDbEntity
  8
2
100
AcDbLine
 10
1314.06261702525
 20
3215.050485499323
 30
0.0
 11
1314.062617025252
 21
2346.192209343379
 31
0.0
  0
LINE
  5
7C26
330
8461
100
AcDbEntity
  8
2
100
AcDbLine
 10
1549.388911884229
 20
2901.192209343378
 30
0.0
 11
1049.897991042991
 21
2901.192209343378
 31
0.0
  0
LINE
  5
7C27
330
8461
100
AcDbEntity
  8
1
100
AcDbLine
 10
4561.752841307504
 20
2516.192209343379
 30
0.0
 11
4626.752841307506
 21
2516.192209343379
 31
0.0
1001
ACAD
1000
ASC_BOUNDS
1002
{
1070
    19
1002
}
  0
LINE
  5
7C28
330
8461
100
AcDbEntity
  8
1
100
AcDbLine
 10
4561.752841307504
 20
2641.192209343379
 30
0.0
 11
6461.752841307505
 21
2641.192209343379
 31
0.0
  0
LINE
  5
7C29
330
8461
100
AcDbEntity
  8
1
100
AcDbLine
 10
4626.752841307506
 20
2516.192209343379
 30
0.0
 11
6461.752841307505
 21
2516.192209343379
 31
0.0
1001
ACAD
1000
ASC_BOUNDS
1002
{
1070
    19
1002
}
  0
LINE
  5
7C2A
330
8461
100
AcDbEntity
  8
2
100
AcDbLine
 10
4536.576091240408
 20
3356.192209343378
 30
0.0
 11
6568.740828384246
 21
3356.192209343378
 31
0.0
  0
LINE
  5
7C2B
330
8461
100
AcDbEntity
  8
1
100
AcDbLine
 10
4558.752841307506
 20
3610.192209343378
 30
0.0
 11
4558.752841307506
 21
2808.192209343378
 31
0.0
  0
LINE
  5
7C2C
330
8461
100
AcDbEntity
  8
1
100
AcDbLine
 10
4669.252841307506
 20
3610.192209343378
 30
0.0
 11
4669.252841307505
 21
2808.192209343378
 31
0.0
  0
LINE
  5
7C2D
330
8461
100
AcDbEntity
  8
2
100
AcDbLine
 10
4537.833902088377
 20
2926.192209343378
 30
0.0
 11
5000.698531242382
 21
2926.192209343378
 31
0.0
  0
LINE
  5
7C2E
330
8461
100
AcDbEntity
  8
1
100
AcDbLine
 10
4523.752841307505
 20
3736.192209343379
 30
0.0
 11
4523.752841307505
 21
2706.192209343379
 31
0.0
  0
LINE
  5
7C2F
330
8461
100
AcDbEntity
  8
1
100
AcDbLine
 10
4721.052841307505
 20
3736.192209343379
 30
0.0
 11
4721.052841307504
 21
3716.192209343379
 31
0.0
  0
LINE
  5
7C30
330
8461
100
AcDbEntity
  8
2
100
AcDbLine
 10
2624.062617025249
 20
7444.223726659709
 30
0.0
 11
2624.062617025249
 21
5601.64531611957
 31
0.0
  0
LINE
  5
7C31
330
8461
100
AcDbEntity
  8
2
100
AcDbLine
 10
3454.700030357467
 20
6760.591300024717
 30
0.0
 11
1559.200892146
 21
6760.591300024717
 31
0.0
  0
LINE
  5
7C32
330
8461
100
AcDbEntity
  8
2
100
AcDbLine
 10
5643.752841307505
 20
4763.374535509206
 30
0.0
 11
5643.752841307505
 21
2346.192209343379
 31
0.0
  0
POINT
  5
7C33
330
8461
100
AcDbEntity
  8
1
100
AcDbPoint
 10
3425.264179523871
 20
3356.192209343378
 30
0.0
  0
INSERT
  5
7C34
330
8461
100
AcDbEntity
  8
0
100
AcDbBlockReference
  2
YA_N
 10
-1074.779326041182
 20
-1311.669320613289
 30
0.0
 41
25.0
 42
25.0
 43
25.0
  0
LINE
  5
7C36
330
8461
100
AcDbEntity
  8
1
100
AcDbLine
 10
3284.062617025249
 20
2411.192209343379
 30
0.0
 11
1024.062617025251
 21
2411.192209343379
 31
0.0
1001
ACAD
1000
ASC_BOUNDS
1002
{
1070
    19
1005
0
1002
}
  0
LINE
  5
7C37
330
8461
100
AcDbEntity
  8
1
100
AcDbLine
 10
3284.062617025249
 20
2411.192209343379
 30
0.0
 11
3284.062617025249
 21
2346.192209343379
 31
0.0
  0
LINE
  5
7C38
330
8461
100
AcDbEntity
  8
1
100
AcDbLine
 10
1024.062617025251
 20
2411.192209343379
 30
0.0
 11
1024.062617025251
 21
2346.192209343379
 31
0.0
  0
LINE
  5
7C39
330
8461
100
AcDbEntity
  8
1
100
AcDbLine
 10
3284.062617025249
 20
2346.192209343379
 30
0.0
 11
1024.062617025251
 21
2346.192209343379
 31
0.0
1001
ACAD
1000
ASC_BOUNDS
1002
{
1070
    19
1002
}
  0
LINE
  5
7C3A
330
8461
100
AcDbEntity
  8
1
100
AcDbLine
 10
4564.252841307506
 20
2411.192209343379
 30
0.0
 11
6461.752841307506
 21
2411.192209343379
 31
0.0
1001
ACAD
1000
ASC_BOUNDS
1002
{
1070
    19
1002
}
  0
LINE
  5
7C3B
330
8461
100
AcDbEntity
  8
1
100
AcDbLine
 10
4561.752841307504
 20
2411.192209343379
 30
0.0
 11
4561.752841307494
 21
2346.192209343379
 31
0.0
  0
LINE
  5
7C3C
330
8461
100
AcDbEntity
  8
1
100
AcDbLine
 10
4561.752841307494
 20
2346.192209343379
 30
0.0
 11
6461.752841307483
 21
2346.192209343379
 31
0.0
  0
INSERT
  5
7C3D
330
8461
100
AcDbEntity
  8
0
100
AcDbBlockReference
  2
YA_N
 10
-346.9416476423939
 20
-375.8074592043958
 30
0.0
 41
25.0
 42
25.0
 43
25.0
  0
ARC
  5
7C42
330
8461
100
AcDbEntity
  8
1
100
AcDbCircle
 10
1314.06261702525
 20
2901.192209343378
 30
0.0
 40
203.5
100
AcDbArc
 50
285.603699
 51
254.39624
  0
LINE
  5
7C43
330
8461
100
AcDbEntity
  8
1
100
AcDbLine
 10
1259.324580025251
 20
2705.192209343379
 30
0.0
 11
1368.800654025251
 21
2705.192209343379
 31
0.0
  0
ARC
  5
7C44
330
8461
100
AcDbEntity
  8
1
100
AcDbCircle
 10
1500.06261702525
 20
2718.192209343379
 30
0.0
 40
3.0
100
AcDbArc
 50
0.0
 51
90.0
  0
ARC
  5
7C45
330
8461
100
AcDbEntity
  8
1
100
AcDbCircle
 10
1498.06261702525
 20
2775.518870343379
 30
0.0
 40
5.000066999999999
100
AcDbArc
 50
0.0
 51
55.056335
  0
LINE
  5
7C46
330
8461
100
AcDbEntity
  8
1
100
AcDbLine
 10
1503.062617025251
 20
2775.518870343379
 30
0.0
 11
1503.062617025251
 21
2701.192209343379
 31
0.0
  0
LINE
  5
7C4A
330
8461
100
AcDbEntity
  8
1
100
AcDbLine
 10
1418.165187025251
 20
2726.335398343379
 30
0.0
 11
1423.56261702525
 21
2706.192209343379
 31
0.0
  0
LINE
  5
7C4B
330
8461
100
AcDbEntity
  8
1
100
AcDbLine
 10
1423.56261702525
 20
2718.192209343379
 30
0.0
 11
1423.56261702525
 21
2701.192209343379
 31
0.0
  0
LINE
  5
7C4C
330
8461
100
AcDbEntity
  8
1
100
AcDbLine
 10
1426.562617025251
 20
2721.192209343379
 30
0.0
 11
1500.06261702525
 21
2721.192209343379
 31
0.0
  0
ARC
  5
7C4D
330
8461
100
AcDbEntity
  8
1
100
AcDbCircle
 10
1426.562617025251
 20
2718.192209343379
 30
0.0
 40
3.0
100
AcDbArc
 50
90.0
 51
180.0
  0
LINE
  5
7C4E
330
8461
100
AcDbEntity
  8
1
100
AcDbLine
 10
1500.92638702525
 20
2779.617502343379
 30
0.0
 11
1484.988521025251
 21
2790.753977343378
 31
0.0
  0
LINE
  5
7C4F
330
8461
100
AcDbEntity
  8
1
100
AcDbLine
 10
1125.06261702525
 20
2775.518870343379
 30
0.0
 11
1125.06261702525
 21
2701.192209343379
 31
0.0
  0
LINE
  5
7C53
330
8461
100
AcDbEntity
  8
1
100
AcDbLine
 10
1209.959834025251
 20
2726.335520343378
 30
0.0
 11
1204.56261702525
 21
2706.192209343379
 31
0.0
  0
LINE
  5
7C54
330
8461
100
AcDbEntity
  8
1
100
AcDbLine
 10
1204.56261702525
 20
2718.192209343379
 30
0.0
 11
1204.56261702525
 21
2701.192209343379
 31
0.0
  0
LINE
  5
7C55
330
8461
100
AcDbEntity
  8
1
100
AcDbLine
 10
1201.56261702525
 20
2721.192209343379
 30
0.0
 11
1128.062617025251
 21
2721.192209343379
 31
0.0
  0
ARC
  5
7C56
330
8461
100
AcDbEntity
  8
1
100
AcDbCircle
 10
1201.56261702525
 20
2718.192209343379
 30
0.0
 40
3.0
100
AcDbArc
 50
0.0
 51
90.0
  0
ARC
  5
7C57
330
8461
100
AcDbEntity
  8
1
100
AcDbCircle
 10
1128.062617025251
 20
2718.192209343379
 30
0.0
 40
3.0
100
AcDbArc
 50
90.0
 51
180.0
  0
LINE
  5
7C58
330
8461
100
AcDbEntity
  8
1
100
AcDbLine
 10
1127.198726025251
 20
2779.617502343379
 30
0.0
 11
1143.136592025251
 21
2790.753977343378
 31
0.0
  0
ARC
  5
7C59
330
8461
100
AcDbEntity
  8
1
100
AcDbCircle
 10
1130.06261702525
 20
2775.518870343379
 30
0.0
 40
5.0
100
AcDbArc
 50
124.943661
 51
180.0
  0
LINE
  5
7C5A
330
8461
100
AcDbEntity
  8
1
100
AcDbLine
 10
1558.12487307334
 20
2701.192209343379
 30
0.0
 11
1384.06261702525
 21
2701.192209343379
 31
0.0
  0
LINE
  5
7C5B
330
8461
100
AcDbEntity
  8
1
100
AcDbLine
 10
1574.062617025252
 20
2641.192209343379
 30
0.0
 11
1558.124873073341
 21
2701.192209343379
 31
0.0
  0
LINE
  5
7C5C
330
8461
100
AcDbEntity
  8
1
100
AcDbLine
 10
1054.062617025252
 20
2641.192209343379
 30
0.0
 11
1070.047626931615
 21
2701.192209343379
 31
0.0
  0
LINE
  5
7C5E
330
8461
100
AcDbEntity
  8
1
100
AcDbLine
 10
1384.06261702525
 20
2691.192209343379
 30
0.0
 11
1244.062617025251
 21
2691.192209343379
 31
0.0
  0
LINE
  5
7C5F
330
8461
100
AcDbEntity
  8
1
100
AcDbLine
 10
1244.062617025251
 20
2701.192209343379
 30
0.0
 11
1244.062617025252
 21
2691.192209343379
 31
0.0
  0
LINE
  5
7C60
330
8461
100
AcDbEntity
  8
1
100
AcDbLine
 10
1384.062617025251
 20
2701.192209343379
 30
0.0
 11
1384.062617025251
 21
2691.192209343379
 31
0.0
  0
LINE
  5
7C63
330
8461
100
AcDbEntity
  8
1
100
AcDbLine
 10
1244.062617025251
 20
2701.192209343379
 30
0.0
 11
1070.047626931615
 21
2701.192209343379
 31
0.0
  0
CIRCLE
  5
7C64
330
8461
100
AcDbEntity
  8
1
100
AcDbCircle
 10
1314.06261702525
 20
2901.192209343378
 30
0.0
 40
118.0
  0
LINE
  5
7C65
330
8461
100
AcDbEntity
  8
1
100
AcDbLine
 10
4558.752841307505
 20
3044.192209343378
 30
0.0
 11
4669.252841307505
 21
3044.192209343378
 31
0.0
  0
LINE
  5
7C66
330
8461
100
AcDbEntity
  8
1
100
AcDbLine
 10
4558.752841307506
 20
2808.192209343378
 30
0.0
 11
4669.252841307505
 21
2808.192209343378
 31
0.0
  0
LINE
  5
7C67
330
8461
100
AcDbEntity
  8
1
100
AcDbLine
 10
4523.752841307505
 20
2706.192209343379
 30
0.0
 11
4721.052841307505
 21
2706.192209343379
 31
0.0
  0
INSERT
  5
7C69
330
8461
100
AcDbEntity
  8
0
100
AcDbBlockReference
  2
YA_N
 10
-394.4722692372305
 20
-430.898429998433
 30
0.0
 41
25.0
 42
25.0
 43
25.0
  0
LINE
  5
7C6C
330
8461
100
AcDbEntity
  8
1
100
AcDbLine
 10
4893.752841307506
 20
2641.192209343379
 30
0.0
 11
4893.752841307507
 21
3356.192209343378
 31
0.0
  0
LINE
  5
7C6D
330
8461
100
AcDbEntity
  8
1
100
AcDbLine
 10
6393.752841307503
 20
2641.192209343379
 30
0.0
 11
6393.752841307506
 21
3356.192209343378
 31
0.0
  0
LINE
  5
7C6E
330
8461
100
AcDbEntity
  8
1
100
AcDbLine
 10
4893.752841307505
 20
4554.192209343379
 30
0.0
 11
6393.752841307505
 21
4554.192209343379
 31
0.0
  0
LINE
  5
7C71
330
8461
100
AcDbEntity
  8
1
100
AcDbLine
 10
4893.752841307505
 20
3356.192209343378
 30
0.0
 11
4893.752841307505
 21
4554.192209343379
 31
0.0
  0
LINE
  5
7C72
330
8461
100
AcDbEntity
  8
1
100
AcDbLine
 10
6393.752841307505
 20
3356.192209343378
 30
0.0
 11
6393.752841307505
 21
4554.192209343379
 31
0.0
  0
LINE
  5
7C73
330
8461
100
AcDbEntity
  8
1
100
AcDbLine
 10
4736.252841307504
 20
3293.192209343378
 30
0.0
 11
4826.452841307505
 21
3293.192209343378
 31
0.0
  0
LINE
  5
7C74
330
8461
100
AcDbEntity
  8
1
100
AcDbLine
 10
4726.252841307505
 20
3283.192209343379
 30
0.0
 11
4726.252841307505
 21
3153.192209343378
 31
0.0
  0
LINE
  5
7C75
330
8461
100
AcDbEntity
  8
1
100
AcDbLine
 10
4866.252841307504
 20
3293.192209343378
 30
0.0
 11
4866.252841307503
 21
3143.192209343377
 31
0.0
  0
LINE
  5
7C76
330
8461
100
AcDbEntity
  8
1
100
AcDbLine
 10
4736.252841307504
 20
3143.192209343379
 30
0.0
 11
4826.452841307505
 21
3143.192209343377
 31
0.0
  0
ARC
  5
7C77
330
8461
100
AcDbEntity
  8
1
100
AcDbCircle
 10
4736.252841307504
 20
3283.192209343379
 30
0.0
 40
10.0
100
AcDbArc
 50
90.0
 51
180.0
  0
ARC
  5
7C78
330
8461
100
AcDbEntity
  8
1
100
AcDbCircle
 10
4736.252841307504
 20
3153.192209343378
 30
0.0
 40
10.0
100
AcDbArc
 50
180.0
 51
270.0
  0
LINE
  5
7C79
330
8461
100
AcDbEntity
  8
1
100
AcDbLine
 10
6421.252841307505
 20
3293.192209343378
 30
0.0
 11
6421.252841307505
 21
3143.192209343377
 31
0.0
  0
LINE
  5
7C7A
330
8461
100
AcDbEntity
  8
1
100
AcDbLine
 10
6573.752841307504
 20
3283.192209343379
 30
0.0
 11
6573.752841307504
 21
3153.192209343378
 31
0.0
  0
LINE
  5
7C7B
330
8461
100
AcDbEntity
  8
1
100
AcDbLine
 10
6563.752841307504
 20
3143.192209343379
 30
0.0
 11
6461.052841307509
 21
3143.192209343377
 31
0.0
  0
ARC
  5
7C7C
330
8461
100
AcDbEntity
  8
1
100
AcDbCircle
 10
6563.752841307504
 20
3153.192209343378
 30
0.0
 40
10.0
100
AcDbArc
 50
270.0
 51
0.0
  0
LINE
  5
7C7D
330
8461
100
AcDbEntity
  8
1
100
AcDbLine
 10
6563.752841307504
 20
3293.192209343378
 30
0.0
 11
6461.052841307509
 21
3293.192209343378
 31
0.0
  0
ARC
  5
7C7E
330
8461
100
AcDbEntity
  8
1
100
AcDbCircle
 10
6563.752841307504
 20
3283.192209343379
 30
0.0
 40
10.0
100
AcDbArc
 50
0.0
 51
90.0
  0
LINE
  5
7C7F
330
8461
100
AcDbEntity
  8
1
100
AcDbLine
 10
4698.752841307504
 20
3396.192209343379
 30
0.0
 11
4893.752841307504
 21
3396.192209343379
 31
0.0
  0
LINE
  5
7C80
330
8461
100
AcDbEntity
  8
1
100
AcDbLine
 10
4698.752841307505
 20
3316.192209343379
 30
0.0
 11
4893.752841307507
 21
3316.192209343379
 31
0.0
  0
LINE
  5
7C81
330
8461
100
AcDbEntity
  8
1
100
AcDbLine
 10
4698.752841307505
 20
3396.192209343379
 30
0.0
 11
4698.752841307505
 21
3316.192209343379
 31
0.0
  0
LINE
  5
7C82
330
8461
100
AcDbEntity
  8
1
100
AcDbLine
 10
4669.252841307506
 20
3388.692209343378
 30
0.0
 11
4698.752841307505
 21
3388.692209343378
 31
0.0
  0
LINE
  5
7C83
330
8461
100
AcDbEntity
  8
1
100
AcDbLine
 10
4669.252841307505
 20
3323.692209343379
 30
0.0
 11
4698.752841307505
 21
3323.692209343379
 31
0.0
  0
LINE
  5
7C88
330
8461
100
AcDbEntity
  8
1
100
AcDbLine
 10
6461.052841307505
 20
3293.192209343378
 30
0.0
 11
6421.252841307505
 21
3293.192209343378
 31
0.0
  0
LINE
  5
7C89
330
8461
100
AcDbEntity
  8
1
100
AcDbLine
 10
6461.052841307507
 20
3143.192209343377
 30
0.0
 11
6421.252841307505
 21
3143.192209343377
 31
0.0
  0
LINE
  5
7C8A
330
8461
100
AcDbEntity
  8
1
100
AcDbLine
 10
4826.452841307505
 20
3293.192209343378
 30
0.0
 11
4866.252841307504
 21
3293.192209343378
 31
0.0
  0
LINE
  5
7C8B
330
8461
100
AcDbEntity
  8
1
100
AcDbLine
 10
4826.452841307505
 20
3143.192209343377
 30
0.0
 11
4866.252841307504
 21
3143.192209343377
 31
0.0
  0
ARC
  5
7C8D
330
8461
100
AcDbEntity
  8
1
100
AcDbCircle
 10
2624.062617025249
 20
3356.192209343378
 30
0.0
 40
668.0
100
AcDbArc
 50
0.0
 51
4.120613213950072
  0
LINE
  5
7C8E
330
8461
100
AcDbEntity
  8
1
100
AcDbLine
 10
1114.062617025251
 20
2348.192209343379
 30
0.0
 11
1114.062617025251
 21
2346.192209343379
 31
0.0
  0
LINE
  5
7C8F
330
8461
100
AcDbEntity
  8
1
100
AcDbLine
 10
6461.752841307505
 20
2641.192209343379
 30
0.0
 11
6461.752841307505
 21
2516.192209343379
 31
0.0
  0
LINE
  5
7C90
330
8461
100
AcDbEntity
  8
1
100
AcDbLine
 10
4561.752841307504
 20
2641.192209343379
 30
0.0
 11
4561.752841307504
 21
2516.192209343379
 31
0.0
  0
LINE
  5
7C91
330
8461
100
AcDbEntity
  8
1
100
AcDbLine
 10
6461.752841307506
 20
2411.192209343381
 30
0.0
 11
6461.752841307485
 21
2346.192209343379
 31
0.0
  0
INSERT
  5
7C93
330
8461
100
AcDbEntity
  8
0
100
AcDbBlockReference
  2
YA_N
 10
4305.350442567148
 20
-1988.400780944633
 30
0.0
  0
POINT
  5
7C96
330
8461
100
AcDbEntity
  8
1
100
AcDbPoint
 10
3284.062617025249
 20
2411.192209343379
 30
0.0
  0
POINT
  5
7C98
330
8461
100
AcDbEntity
  8
1
100
AcDbPoint
 10
3284.062617025249
 20
2411.192209343379
 30
0.0
  0
POINT
  5
7C99
330
8461
100
AcDbEntity
  8
1
100
AcDbPoint
 10
3284.062617025249
 20
2516.192209343379
 30
0.0
  0
ARC
  5
7C9C
330
8461
100
AcDbEntity
  8
1
100
AcDbCircle
 10
2624.062617025251
 20
3356.192209343378
 30
0.0
 40
380.0
100
AcDbArc
 50
282.5282342404732
 51
115.778882395325
  0
CIRCLE
  5
7C9D
330
8461
100
AcDbEntity
  8
1
100
AcDbCircle
 10
2624.062617025251
 20
3356.192209343378
 30
0.0
 40
254.0
  0
ARC
  5
7C9E
330
8461
100
AcDbEntity
  8
1
100
AcDbCircle
 10
1314.062617025251
 20
2901.192209343378
 30
0.0
 40
220.0
100
AcDbArc
 50
115.778882395325
 51
282.5282342404732
  0
LINE
  5
7C9F
330
8461
100
AcDbEntity
  8
1
100
AcDbLine
 10
2458.80090667297
 20
3698.374276511486
 30
0.0
 11
1218.384784716036
 21
3099.29761665123
 31
0.0
  0
LINE
  5
7CA0
330
8461
100
AcDbEntity
  8
1
100
AcDbLine
 10
2517.595887784095
 20
3586.801913312423
 30
0.0
 11
1264.601695566761
 21
3008.325851344745
 31
0.0
  0
LINE
  5
7CA1
330
8461
100
AcDbEntity
  8
1
100
AcDbLine
 10
2683.467777205633
 20
3109.236693219637
 30
0.0
 11
1341.660289864956
 21
2786.464843585105
 31
0.0
  0
LINE
  5
7CA2
330
8461
100
AcDbEntity
  8
1
100
AcDbLine
 10
2706.492478173762
 20
2985.24030142129
 30
0.0
 11
1361.785168216494
 21
2686.430578441117
 31
0.0
  0
LINE
  5
7CA3
330
8461
100
AcDbEntity
  8
1
100
AcDbLine
 10
4558.752841307506
 20
3610.192209343378
 30
0.0
 11
4669.252841307506
 21
3610.192209343378
 31
0.0
  0
LINE
  5
7CA4
330
8461
100
AcDbEntity
  8
1
100
AcDbLine
 10
4558.752841307506
 20
3102.192209343379
 30
0.0
 11
4669.252841307505
 21
3102.192209343379
 31
0.0
  0
LINE
  5
7CA5
330
8461
100
AcDbEntity
  8
1
100
AcDbLine
 10
4523.752841307505
 20
3736.192209343379
 30
0.0
 11
4721.052841307505
 21
3736.192209343379
 31
0.0
  0
LINE
  5
7CA6
330
8461
100
AcDbEntity
  8
1
100
AcDbLine
 10
4721.052841307504
 20
2726.192209343379
 30
0.0
 11
4721.052841307505
 21
2706.192209343379
 31
0.0
  0
LINE
  5
7CA8
330
8461
100
AcDbEntity
  8
1
100
AcDbLine
 10
3284.062617025249
 20
7578.591300024716
 30
0.0
 11
1964.062617025251
 21
7578.591300024716
 31
0.0
  0
LINE
  5
7CA9
330
8461
100
AcDbEntity
  8
1
100
AcDbLine
 10
3284.062617025249
 20
5678.591300024717
 30
0.0
 11
1024.06261702525
 21
5678.591300024717
 31
0.0
  0
LINE
  5
7CAA
330
8461
100
AcDbEntity
  8
1
100
AcDbLine
 10
3284.062617025249
 20
7578.591300024719
 30
0.0
 11
3284.062617025251
 21
7510.591300024717
 31
0.0
  0
LINE
  5
7CAB
330
8461
100
AcDbEntity
  8
1
100
AcDbLine
 10
1024.06261702525
 20
6578.591300024716
 30
0.0
 11
1024.06261702525
 21
5678.591300024716
 31
0.0
  0
LINE
  5
7CAC
330
8461
100
AcDbEntity
  8
1
100
AcDbLine
 10
1964.062617025251
 20
7578.591300024716
 30
0.0
 11
1964.062617025251
 21
7510.591300024717
 31
0.0
  0
LINE
  5
7CAD
330
8461
100
AcDbEntity
  8
1
100
AcDbLine
 10
1655.06261702525
 20
6578.591300024716
 30
0.0
 11
1024.06261702525
 21
6578.591300024716
 31
0.0
  0
LINE
  5
7CAE
330
8461
100
AcDbEntity
  8
2
100
AcDbLine
 10
1314.062617025251
 20
6446.313877183041
 30
0.0
 11
1314.062617025253
 21
5601.64531611957
 31
0.0
  0
CIRCLE
  5
7CB8
330
8461
100
AcDbEntity
  8
1
100
AcDbCircle
 10
2624.062617025251
 20
3356.192209343378
 30
0.0
 40
560.0
  0
CIRCLE
  5
7CB9
330
8461
100
AcDbEntity
  8
1
100
AcDbCircle
 10
2624.062617025251
 20
3356.192209343378
 30
0.0
 40
610.0
  0
LINE
  5
7CBA
330
8461
100
AcDbEntity
  8
1
100
AcDbLine
 10
3004.062617025252
 20
5640.591300024715
 30
0.0
 11
1094.062617025251
 21
5640.591300024715
 31
0.0
  0
LINE
  5
7CBB
330
8461
100
AcDbEntity
  8
1
100
AcDbLine
 10
3004.062617025252
 20
5810.591300024715
 30
0.0
 11
1094.062617025251
 21
5810.591300024715
 31
0.0
  0
LINE
  5
7CBC
330
8461
100
AcDbEntity
  8
1
100
AcDbLine
 10
3004.062617025251
 20
5640.591300024715
 30
0.0
 11
3004.062617025252
 21
5810.591300024715
 31
0.0
  0
LINE
  5
7CBD
330
8461
100
AcDbEntity
  8
1
100
AcDbLine
 10
1094.062617025251
 20
5640.591300024715
 30
0.0
 11
1094.062617025251
 21
5810.591300024715
 31
0.0
  0
LINE
  5
7CBE
330
8461
100
AcDbEntity
  8
1
100
AcDbLine
 10
2878.06261702525
 20
5678.291300024715
 30
0.0
 11
2878.06261702525
 21
5788.791300024715
 31
0.0
  0
LINE
  5
7CBF
330
8461
100
AcDbEntity
  8
1
100
AcDbLine
 10
2370.062617025251
 20
5678.291300024715
 30
0.0
 11
2370.062617025251
 21
5788.791300024715
 31
0.0
  0
LINE
  5
7CC0
330
8461
100
AcDbEntity
  8
1
100
AcDbLine
 10
1432.062617025251
 20
5678.291300024715
 30
0.0
 11
1432.06261702525
 21
5788.791300024715
 31
0.0
  0
LINE
  5
7CC1
330
8461
100
AcDbEntity
  8
1
100
AcDbLine
 10
1196.06261702525
 20
5678.291300024715
 30
0.0
 11
1196.06261702525
 21
5788.791300024715
 31
0.0
  0
LINE
  5
7CC2
330
8461
100
AcDbEntity
  8
1
100
AcDbLine
 10
2878.06261702525
 20
5678.291300024715
 30
0.0
 11
2370.062617025251
 21
5678.291300024715
 31
0.0
  0
LINE
  5
7CC3
330
8461
100
AcDbEntity
  8
1
100
AcDbLine
 10
2878.062617025251
 20
5788.791300024715
 30
0.0
 11
2370.062617025251
 21
5788.791300024715
 31
0.0
  0
LINE
  5
7CC4
330
8461
100
AcDbEntity
  8
1
100
AcDbLine
 10
1432.06261702525
 20
5788.791300024715
 30
0.0
 11
1196.06261702525
 21
5788.791300024715
 31
0.0
  0
LINE
  5
7CC5
330
8461
100
AcDbEntity
  8
1
100
AcDbLine
 10
1432.062617025251
 20
5678.291300024715
 30
0.0
 11
1196.06261702525
 21
5678.291300024715
 31
0.0
  0
LINE
  5
7CC6
330
8461
100
AcDbEntity
  8
1
100
AcDbLine
 10
3384.062617025249
 20
7560.591300024717
 30
0.0
 11
3384.062617025249
 21
5960.591300024716
 31
0.0
  0
LINE
  5
7CC7
330
8461
100
AcDbEntity
  8
1
100
AcDbLine
 10
1655.06261702525
 20
7510.591300024717
 30
0.0
 11
1655.06261702525
 21
6010.591300024715
 31
0.0
  0
LINE
  5
7CC8
330
8461
100
AcDbEntity
  8
1
100
AcDbLine
 10
3384.062617025249
 20
7510.591300024717
 30
0.0
 11
1655.06261702525
 21
7510.591300024717
 31
0.0
  0
LINE
  5
7CC9
330
8461
100
AcDbEntity
  8
1
100
AcDbLine
 10
3384.062617025251
 20
6010.591300024715
 30
0.0
 11
1655.06261702525
 21
6010.591300024715
 31
0.0
  0
LINE
  5
7CCA
330
8461
100
AcDbEntity
  8
1
100
AcDbLine
 10
3384.062617025249
 20
7560.591300024717
 30
0.0
 11
3380.062617025251
 21
7560.591300024717
 31
0.0
  0
LINE
  5
7CCB
330
8461
100
AcDbEntity
  8
1
100
AcDbLine
 10
3384.062617025251
 20
5960.591300024716
 30
0.0
 11
3380.062617025251
 21
5960.591300024716
 31
0.0
  0
LINE
  5
7CCC
330
8461
100
AcDbEntity
  8
1
100
AcDbLine
 10
3380.062617025251
 20
7560.591300024717
 30
0.0
 11
3380.062617025251
 21
5960.591300024716
 31
0.0
  0
LINE
  5
7CCD
330
8461
100
AcDbEntity
  8
1
100
AcDbLine
 10
2659.062617025251
 20
6010.591300024715
 30
0.0
 11
2659.062617025251
 21
5788.791300024715
 31
0.0
  0
LINE
  5
7CCE
330
8461
100
AcDbEntity
  8
1
100
AcDbLine
 10
2589.062617025251
 20
6010.591300024715
 30
0.0
 11
2589.062617025251
 21
5788.791300024715
 31
0.0
  0
LINE
  5
7CCF
330
8461
100
AcDbEntity
  8
1
100
AcDbLine
 10
1513.062617025251
 20
6480.791300024716
 30
0.0
 11
1513.062617025252
 21
5823.291300024715
 31
0.0
  0
LINE
  5
7CD0
330
8461
100
AcDbEntity
  8
1
100
AcDbLine
 10
1115.062617025251
 20
6480.791300024716
 30
0.0
 11
1115.062617025253
 21
5823.291300024714
 31
0.0
  0
LINE
  5
7CD1
330
8461
100
AcDbEntity
  8
1
100
AcDbLine
 10
1513.062617025251
 20
6480.791300024716
 30
0.0
 11
1115.062617025251
 21
6480.791300024716
 31
0.0
  0
LINE
  5
7CD2
330
8461
100
AcDbEntity
  8
1
100
AcDbLine
 10
1513.062617025254
 20
5823.291300024715
 30
0.0
 11
1115.062617025254
 21
5823.291300024715
 31
0.0
  0
LINE
  5
7CD3
330
8461
100
AcDbEntity
  8
1
100
AcDbLine
 10
1341.562617025252
 20
5823.291300024715
 30
0.0
 11
1341.562617025252
 21
5788.791300024715
 31
0.0
  0
LINE
  5
7CD4
330
8461
100
AcDbEntity
  8
1
100
AcDbLine
 10
1286.562617025252
 20
5823.291300024715
 30
0.0
 11
1286.562617025252
 21
5788.791300024715
 31
0.0
  0
LINE
  5
7CD5
330
8461
100
AcDbEntity
  8
1
100
AcDbLine
 10
4893.752841307507
 20
3125.19220934338
 30
0.0
 11
4703.752841307504
 21
3125.19220934338
 31
0.0
  0
LINE
  5
7CD6
330
8461
100
AcDbEntity
  8
1
100
AcDbLine
 10
4893.752841307507
 20
2727.19220934338
 30
0.0
 11
4703.752841307506
 21
2727.19220934338
 31
0.0
  0
LINE
  5
7CD7
330
8461
100
AcDbEntity
  8
1
100
AcDbLine
 10
4703.752841307506
 20
2727.192209343379
 30
0.0
 11
4703.752841307504
 21
3125.192209343378
 31
0.0
  0
LINE
  5
7CD8
330
8461
100
AcDbEntity
  8
1
100
AcDbLine
 10
4703.752841307505
 20
2898.69220934338
 30
0.0
 11
4669.252841307505
 21
2898.69220934338
 31
0.0
  0
LINE
  5
7CD9
330
8461
100
AcDbEntity
  8
1
100
AcDbLine
 10
4703.752841307505
 20
2953.69220934338
 30
0.0
 11
4669.252841307505
 21
2953.69220934338
 31
0.0
  0
LINE
  5
7CE2
330
8461
100
AcDbEntity
  8
1
100
AcDbLine
 10
3284.062617025251
 20
6010.591300024715
 30
0.0
 11
3284.062617025251
 21
5678.591300024717
 31
0.0
  0
LINE
  5
7CE3
330
8461
100
AcDbEntity
  8
1
100
AcDbLine
 10
4893.752841307505
 20
3404.192209343379
 30
0.0
 11
6393.752841307505
 21
3404.192209343379
 31
0.0
  0
LINE
  5
7CE4
330
8461
100
AcDbEntity
  8
1
100
AcDbLine
 10
6393.752841307505
 20
4554.192209343379
 30
0.0
 11
4893.752841307505
 21
3404.192209343379
 31
0.0
  0
LINE
  5
7CE5
330
8461
100
AcDbEntity
  8
1
100
AcDbLine
 10
4893.752841307505
 20
4554.192209343379
 30
0.0
 11
6393.752841307505
 21
3404.192209343379
 31
0.0
  0
LINE
  5
7F14
330
8461
100
AcDbEntity
  8
4
100
AcDbLine
 10
6475.0
 20
1411.801532643661
 30
0.0
 11
6475.0
 21
711.8015326436618
 31
0.0
  0
LINE
  5
7F15
330
8461
100
AcDbEntity
  8
4
100
AcDbLine
 10
4025.0
 20
1411.801532643661
 30
0.0
 11
4025.0
 21
711.8015326436618
 31
0.0
  0
LINE
  5
7F16
330
8461
100
AcDbEntity
  8
4
100
AcDbLine
 10
2275.0
 20
1411.801532643661
 30
0.0
 11
2275.0
 21
711.8015326436618
 31
0.0
  0
LINE
  5
7F19
330
8461
100
AcDbEntity
  8
4
100
AcDbLine
 10
2275.0
 20
711.8015326436616
 30
0.0
 11
6475.0
 21
711.8015326436616
 31
0.0
  0
LINE
  5
7F1A
330
8461
100
AcDbEntity
  8
4
100
AcDbLine
 10
2275.0
 20
1061.80153264366
 30
0.0
 11
6475.0
 21
1061.80153264366
 31
0.0
  0
TEXT
  5
7F1B
330
8461
100
AcDbEntity
  8
4
100
AcDbText
 10
2409.757282964156
 20
1172.202123176806
 30
0.0
 40
175.0
  1
機器名称
100
AcDbText
  0
TEXT
  5
7F1C
330
8461
100
AcDbEntity
  8
4
100
AcDbText
 10
2401.903371086791
 20
787.5595812056999
 30
0.0
 40
175.0
  1
機器型番
100
AcDbText
  0
TEXT
  5
7F1D
330
8461
100
AcDbEntity
  8
4
100
AcDbText
 10
4121.875609206827
 20
1140.80272399515
 30
0.0
 40
175.0
  1
ミツヤ多翼送風機
100
AcDbText
  0
TEXT
  5
7F1E
330
8461
100
AcDbEntity
  8
4
100
AcDbText
 10
4153.290734549183
 20
771.8600776234634
 30
0.0
 40
175.0
  1
MF#7-5
100
AcDbText
  0
TEXT
  5
7F20
330
8461
100
AcDbEntity
  8
4
100
AcDbText
 10
2760.156519165358
 20
8342.000944663805
 30
0.0
 40
188.9999999999998
  1
床置防振ベット
100
AcDbText
  0
TEXT
  5
7F21
330
8461
100
AcDbEntity
  8
4
100
AcDbText
 10
1106.586576653062
 20
8868.583416697545
 30
0.0
 40
252.0
  1
遠心式両吸込両持多翼ファン
100
AcDbText
  0
LINE
  5
7F22
330
8461
100
AcDbEntity
  8
4
100
AcDbLine
 10
875.0
 20
8642.930639926817
 30
0.0
 11
6475.0
 21
8642.930639926817
 31
0.0
  0
LINE
  5
7F23
330
8461
100
AcDbEntity
  8
4
100
AcDbLine
 10
875.0
 20
9342.930639926818
 30
0.0
 11
6475.0
 21
9342.930639926818
 31
0.0
  0
LINE
  5
7F24
330
8461
100
AcDbEntity
  8
4
100
AcDbLine
 10
2275.0
 20
1411.801532643661
 30
0.0
 11
6475.0
 21
1411.801532643661
 31
0.0
  0
LINE
  5
7F25
330
8461
100
AcDbEntity
  8
4
100
AcDbLine
 10
875.0
 20
9342.930639926818
 30
0.0
 11
875.0
 21
8642.930639926817
 31
0.0
  0
TEXT
  5
7F26
330
8461
100
AcDbEntity
  8
4
100
AcDbText
 10
1234.650606315899
 20
8338.118171412203
 30
0.0
 40
188.9999999999998
  1
右回転右横向
100
AcDbText
  0
TEXT
  5
7F27
330
8461
100
AcDbEntity
  8
4
100
AcDbText
 10
5141.393457372513
 20
9471.21378523358
 30
0.0
 40
196.0
  1
No.
100
AcDbText
  0
TEXT
  5
7F28
330
8461
100
AcDbEntity
  8
4
100
AcDbText
 10
4589.536219100046
 20
8342.000944663805
 30
0.0
 40
188.9999999999998
  1
縮尺：1/35
100
AcDbText
  0
LINE
  5
7F29
330
8461
100
AcDbEntity
  8
4
100
AcDbLine
 10
6475.0
 20
9342.930639926818
 30
0.0
 11
6475.0
 21
8642.930639926817
 31
0.0
  0
LINE
  5
7F2A
330
8461
100
AcDbEntity
  8
4
100
AcDbLine
 10
7350.0
 20
10325.0
 30
0.0
 11
7350.0
 21
10325.0
 31
0.0
  0
LINE
  5
7F2B
330
8461
100
AcDbEntity
  8
4
100
AcDbLine
 10
5042.160978259526
 20
9384.422540938905
 30
0.0
 11
5042.160978259526
 21
9753.282915424136
 31
0.0
  0
LINE
  5
7F2C
330
8461
100
AcDbEntity
  8
4
100
AcDbLine
 10
5042.160978259526
 20
9753.282915424136
 30
0.0
 11
6475.0
 21
9753.282915424136
 31
0.0
  0
LINE
  5
7F2D
330
8461
100
AcDbEntity
  8
4
100
AcDbLine
 10
6475.0
 20
9753.282915424136
 30
0.0
 11
6475.0
 21
9384.422540938905
 31
0.0
  0
LINE
  5
7F2E
330
8461
100
AcDbEntity
  8
4
100
AcDbLine
 10
6475.0
 20
9384.422540938905
 30
0.0
 11
5042.160978259526
 21
9384.422540938905
 31
0.0
  0
LINE
  5
7F2F
330
8461
100
AcDbEntity
  8
4
100
AcDbLine
 10
0.0
 20
0.0
 30
0.0
 11
0.0
 21
10325.0
 31
0.0
  0
LINE
  5
7F30
330
8461
100
AcDbEntity
  8
4
100
AcDbLine
 10
0.0
 20
10325.0
 30
0.0
 11
7350.0
 21
10325.0
 31
0.0
  0
LINE
  5
7F31
330
8461
100
AcDbEntity
  8
4
100
AcDbLine
 10
7350.0
 20
10325.0
 30
0.0
 11
7350.0
 21
0.0
 31
0.0
  0
LINE
  5
7F32
330
8461
100
AcDbEntity
  8
4
100
AcDbLine
 10
7350.0
 20
0.0
 30
0.0
 11
0.0
 21
0.0
 31
0.0
  0
DIMENSION
  5
8523
330
8461
100
AcDbEntity
  8
3
100
AcDbDimension
  2
*D37
 10
6888.852116444883
 20
2796.192209343378
 30
0.0
 11
6801.352116444881
 21
3356.19220934338
 31
0.0
 70
    32
  1
\U+03C6<>
 71
     5
 42
1120.0
  3
IGA
100
AcDbAlignedDimension
 13
6393.752841307505
 23
3916.192209343378
 33
0.0
 14
6393.752841307504
 24
2796.192209343378
 34
0.0
 50
90.0
100
AcDbRotatedDimension
1001
ACAD
1000
DSTYLE
1002
{
1070
    40
1040
35.0
1070
   143
1040
0.039
1070
   172
1070
     1
1070
   271
1070
     4
1070
   272
1070
     4
1070
   279
1070
     0
1070
   284
1070
     0
1070
   285
1070
     0
1070
   286
1070
     0
1070
   341
1005
8474
1070
   343
1005
8474
1070
   344
1005
8474
1002
}
  0
DIMENSION
  5
8545
330
8461
100
AcDbEntity
  8
3
100
AcDbDimension
  2
*D38
 10
6393.752841307505
 20
4807.631848395777
 30
0.0
 11
5643.752841307505
 21
4895.131848395777
 31
0.0
 70
    32
 71
     5
 42
1500.0
  3
IGA
100
AcDbAlignedDimension
 13
4893.752841307505
 23
4554.192209343379
 33
0.0
 14
6393.752841307505
 24
4554.192209343379
 34
0.0
100
AcDbRotatedDimension
1001
ACAD
1000
DSTYLE
1002
{
1070
    40
1040
35.0
1070
   143
1040
0.039
1070
   172
1070
     1
1070
   271
1070
     4
1070
   272
1070
     4
1070
   279
1070
     0
1070
   284
1070
     0
1070
   285
1070
     0
1070
   286
1070
     0
1070
   341
1005
8474
1070
   343
1005
8474
1070
   344
1005
8474
1002
}
  0
DIMENSION
  5
8552
330
8461
100
AcDbEntity
  8
3
100
AcDbDimension
  2
*D39
 10
5643.752841307505
 20
5046.751112831964
 30
0.0
 11
5083.752841307505
 21
5161.751112831964
 31
0.0
 70
    32
  1
(<>)
 71
     5
 42
1120.0
  3
IGA
100
AcDbAlignedDimension
 13
4523.752841307505
 23
3736.192209343379
 33
0.0
 14
5643.752841307505
 24
4968.604585675719
 34
0.0
100
AcDbRotatedDimension
1001
ACAD
1000
DSTYLE
1002
{
1070
    40
1040
35.0
1070
   143
1040
0.039
1070
   172
1070
     1
1070
   271
1070
     4
1070
   272
1070
     4
1070
   279
1070
     0
1070
   284
1070
     0
1070
   285
1070
     0
1070
   286
1070
     0
1070
   341
1005
8474
1070
   343
1005
8474
1070
   344
1005
8474
1002
}
  0
DIMENSION
  5
855F
330
8461
100
AcDbEntity
  8
3
100
AcDbDimension
  2
*D40
 10
6573.752841307506
 20
5046.751112831964
 30
0.0
 11
6108.752841307506
 21
5161.751112831964
 31
0.0
 70
    32
  1
(<>)
 71
     5
 42
930.0
  3
IGA
100
AcDbAlignedDimension
 13
5643.752841307505
 23
4968.604585675719
 33
0.0
 14
6573.752841307506
 24
3283.192209343379
 34
0.0
100
AcDbRotatedDimension
1001
ACAD
1000
DSTYLE
1002
{
1070
    40
1040
35.0
1070
   143
1040
0.039
1070
   172
1070
     1
1070
   271
1070
     4
1070
   272
1070
     4
1070
   279
1070
     1
1070
   284
1070
     0
1070
   285
1070
     0
1070
   286
1070
     0
1070
   341
1005
8474
1070
   343
1005
8474
1070
   344
1005
8474
1002
}
  0
DIMENSION
  5
856C
330
8461
100
AcDbEntity
  8
3
100
AcDbDimension
  2
*D41
 10
5643.752841307505
 20
2105.52784082877
 30
0.0
 11
5102.752841307499
 21
2193.02784082877
 31
0.0
 70
    32
 71
     5
 42
1082.000000000011
  3
IGA
100
AcDbAlignedDimension
 13
4561.752841307494
 23
2346.192209343379
 33
0.0
 14
5643.752841307505
 24
2346.192209343379
 34
0.0
100
AcDbRotatedDimension
1001
ACAD
1000
DSTYLE
1002
{
1070
    40
1040
35.0
1070
   143
1040
0.039
1070
   172
1070
     1
1070
   271
1070
     4
1070
   272
1070
     4
1070
   279
1070
     0
1070
   284
1070
     0
1070
   285
1070
     0
1070
   286
1070
     0
1070
   341
1005
8474
1070
   343
1005
8474
1070
   344
1005
8474
1002
}
  0
DIMENSION
  5
8579
330
8461
100
AcDbEntity
  8
3
100
AcDbDimension
  2
*D42
 10
6461.752841307483
 20
2105.52784082877
 30
0.0
 11
6052.752841307494
 21
2193.02784082877
 31
0.0
 70
    32
 71
     5
 42
817.9999999999781
  3
IGA
100
AcDbAlignedDimension
 13
5643.752841307505
 23
2346.192209343379
 33
0.0
 14
6461.752841307483
 24
2346.192209343379
 34
0.0
100
AcDbRotatedDimension
1001
ACAD
1000
DSTYLE
1002
{
1070
    40
1040
35.0
1070
   143
1040
0.039
1070
   172
1070
     1
1070
   271
1070
     4
1070
   272
1070
     4
1070
   279
1070
     1
1070
   284
1070
     0
1070
   285
1070
     0
1070
   286
1070
     0
1070
   341
1005
8474
1070
   343
1005
8474
1070
   344
1005
8474
1002
}
  0
DIMENSION
  5
85CE
330
8461
100
AcDbEntity
  8
3
100
AcDbDimension
  2
*D43
 10
808.2474876895394
 20
6578.591300024716
 30
0.0
 11
720.7474876895384
 21
6128.591300024716
 31
0.0
 70
    32
 71
     5
 42
899.9999999999991
  3
IGA
100
AcDbAlignedDimension
 13
1024.06261702525
 23
5678.591300024717
 33
0.0
 14
1024.06261702525
 24
6578.591300024716
 34
0.0
 50
90.0
100
AcDbRotatedDimension
1001
ACAD
1000
DSTYLE
1002
{
1070
    40
1040
35.0
1070
   143
1040
0.039
1070
   172
1070
     1
1070
   271
1070
     4
1070
   272
1070
     4
1070
   279
1070
     0
1070
   284
1070
     0
1070
   285
1070
     0
1070
   286
1070
     0
1070
   341
1005
8474
1070
   343
1005
8474
1070
   344
1005
8474
1002
}
  0
DIMENSION
  5
85DB
330
8461
100
AcDbEntity
  8
3
100
AcDbDimension
  2
*D44
 10
3284.062617025249
 20
5331.934663388967
 30
0.0
 11
2154.06261702525
 21
5419.434663388967
 31
0.0
 70
    32
 71
     5
 42
2259.999999999999
  3
IGA
100
AcDbAlignedDimension
 13
1024.06261702525
 23
5678.591300024717
 33
0.0
 14
3284.062617025249
 24
5678.591300024717
 34
0.0
100
AcDbRotatedDimension
1001
ACAD
1000
DSTYLE
1002
{
1070
    40
1040
35.0
1070
   143
1040
0.039
1070
   172
1070
     1
1070
   271
1070
     4
1070
   272
1070
     4
1070
   279
1070
     0
1070
   284
1070
     0
1070
   285
1070
     0
1070
   286
1070
     0
1070
   341
1005
8474
1070
   343
1005
8474
1070
   344
1005
8474
1002
}
  0
DIMENSION
  5
85E8
330
8461
100
AcDbEntity
  8
3
100
AcDbDimension
  2
*D45
 10
3719.797915355993
 20
7578.591300024719
 30
0.0
 11
3632.297915355992
 21
6628.591300024718
 31
0.0
 70
    32
 71
     5
 42
1900.000000000002
  3
IGA
100
AcDbAlignedDimension
 13
3284.062617025249
 23
5678.591300024717
 33
0.0
 14
3284.062617025249
 24
7578.591300024719
 34
0.0
 50
90.0
100
AcDbRotatedDimension
1001
ACAD
1000
DSTYLE
1002
{
1070
    40
1040
35.0
1070
   143
1040
0.039
1070
   172
1070
     1
1070
   271
1070
     4
1070
   272
1070
     4
1070
   279
1070
     0
1070
   284
1070
     0
1070
   285
1070
     0
1070
   286
1070
     0
1070
   341
1005
8474
1070
   343
1005
8474
1070
   344
1005
8474
1002
}
  0
DIMENSION
  5
85F5
330
8461
100
AcDbEntity
  8
3
100
AcDbDimension
  2
*D46
 10
1964.062617025251
 20
7808.010105037642
 30
0.0
 11
2624.06261702525
 21
7895.510105037641
 31
0.0
 70
    32
 71
     5
 42
1319.999999999998
  3
IGA
100
AcDbAlignedDimension
 13
3284.062617025249
 23
7578.591300024719
 33
0.0
 14
1964.062617025251
 24
7578.591300024716
 34
0.0
100
AcDbRotatedDimension
1001
ACAD
1000
DSTYLE
1002
{
1070
    40
1040
35.0
1070
   143
1040
0.039
1070
   172
1070
     1
1070
   271
1070
     4
1070
   272
1070
     4
1070
   279
1070
     0
1070
   284
1070
     0
1070
   285
1070
     0
1070
   286
1070
     0
1070
   341
1005
8474
1070
   343
1005
8474
1070
   344
1005
8474
1002
}
  0
DIMENSION
  5
8602
330
8461
100
AcDbEntity
  8
3
100
AcDbDimension
  2
*D47
 10
1024.06261702525
 20
7808.010105037642
 30
0.0
 11
1494.06261702525
 21
7895.510105037641
 31
0.0
 70
    32
 71
     5
 42
940.0000000000009
  3
IGA
100
AcDbAlignedDimension
 13
1964.062617025251
 23
7578.591300024716
 33
0.0
 14
1024.06261702525
 24
6578.591300024716
 34
0.0
100
AcDbRotatedDimension
1001
ACAD
1000
DSTYLE
1002
{
1070
    40
1040
35.0
1070
   143
1040
0.039
1070
   172
1070
     1
1070
   271
1070
     4
1070
   272
1070
     4
1070
   279
1070
     1
1070
   284
1070
     0
1070
   285
1070
     0
1070
   286
1070
     0
1070
   341
1005
8474
1070
   343
1005
8474
1070
   344
1005
8474
1002
}
  0
DIMENSION
  5
860F
330
8461
100
AcDbEntity
  8
3
100
AcDbDimension
  2
*D48
 10
3384.062617025249
 20
5002.684932965962
 30
0.0
 11
2204.06261702525
 21
5090.184932965962
 31
0.0
 70
    32
 71
     5
 42
2359.999999999998
  3
IGA
100
AcDbAlignedDimension
 13
1024.062617025251
 23
2641.192209343379
 33
0.0
 14
3384.062617025249
 24
4607.192209343378
 34
0.0
100
AcDbRotatedDimension
1001
ACAD
1000
DSTYLE
1002
{
1070
    40
1040
35.0
1070
   143
1040
0.039
1070
   172
1070
     1
1070
   271
1070
     4
1070
   272
1070
     4
1070
   279
1070
     0
1070
   284
1070
     0
1070
   285
1070
     0
1070
   286
1070
     0
1070
   341
1005
8474
1070
   343
1005
8474
1070
   344
1005
8474
1002
}
  0
DIMENSION
  5
861C
330
8461
100
AcDbEntity
  8
3
100
AcDbDimension
  2
*D49
 10
2624.062617025249
 20
4810.525596269836
 30
0.0
 11
3004.06261702525
 21
4898.025596269835
 31
0.0
 70
    32
 71
     5
 42
760.0
  3
IGA
100
AcDbAlignedDimension
 13
3384.062617025249
 23
4607.192209343378
 33
0.0
 14
2624.062617025249
 24
4670.105732334348
 34
0.0
100
AcDbRotatedDimension
1001
ACAD
1000
DSTYLE
1002
{
1070
    40
1040
35.0
1070
   143
1040
0.039
1070
   172
1070
     1
1070
   271
1070
     4
1070
   272
1070
     4
1070
   279
1070
     0
1070
   284
1070
     0
1070
   285
1070
     0
1070
   286
1070
     0
1070
   341
1005
8474
1070
   343
1005
8474
1070
   344
1005
8474
1002
}
  0
DIMENSION
  5
8629
330
8461
100
AcDbEntity
  8
3
100
AcDbDimension
  2
*D50
 10
1655.06261702525
 20
4810.525596269836
 30
0.0
 11
2139.56261702525
 21
4898.025596269835
 31
0.0
 70
    32
 71
     5
 42
968.9999999999987
  3
IGA
100
AcDbAlignedDimension
 13
2624.062617025249
 23
4670.105732334348
 33
0.0
 14
1655.06261702525
 24
3438.192209343378
 34
0.0
100
AcDbRotatedDimension
1001
ACAD
1000
DSTYLE
1002
{
1070
    40
1040
35.0
1070
   143
1040
0.039
1070
   172
1070
     1
1070
   271
1070
     4
1070
   272
1070
     4
1070
   279
1070
     1
1070
   284
1070
     0
1070
   285
1070
     0
1070
   286
1070
     0
1070
   341
1005
8474
1070
   343
1005
8474
1070
   344
1005
8474
1002
}
  0
DIMENSION
  5
8636
330
8461
100
AcDbEntity
  8
3
100
AcDbDimension
  2
*D51
 10
3584.170933309517
 20
3404.192209343379
 30
0.0
 11
3496.670933309517
 21
3979.19220934338
 31
0.0
 70
    32
 71
     5
 42
1149.999999999999
  3
IGA
100
AcDbAlignedDimension
 13
3384.062617025249
 23
4554.192209343379
 33
0.0
 14
3384.062617025249
 24
3404.192209343379
 34
0.0
 50
90.0
100
AcDbRotatedDimension
1001
ACAD
1000
DSTYLE
1002
{
1070
    40
1040
35.0
1070
   143
1040
0.039
1070
   172
1070
     1
1070
   271
1070
     4
1070
   272
1070
     4
1070
   279
1070
     0
1070
   284
1070
     0
1070
   285
1070
     0
1070
   286
1070
     0
1070
   341
1005
8474
1070
   343
1005
8474
1070
   344
1005
8474
1002
}
  0
DIMENSION
  5
8643
330
8461
100
AcDbEntity
  8
3
100
AcDbDimension
  2
*D52
 10
3784.322584171019
 20
3356.192209343378
 30
0.0
 11
3696.822584171019
 21
3955.19220934338
 31
0.0
 70
    32
 71
     5
 42
1198.0
  3
IGA
100
AcDbAlignedDimension
 13
3384.062617025249
 23
4554.192209343379
 33
0.0
 14
3530.843268478227
 24
3356.192209343378
 34
0.0
 50
90.0
100
AcDbRotatedDimension
1001
ACAD
1000
DSTYLE
1002
{
1070
    40
1040
35.0
1070
   143
1040
0.039
1070
   172
1070
     1
1070
   271
1070
     4
1070
   272
1070
     4
1070
   279
1070
     0
1070
   284
1070
     0
1070
   285
1070
     0
1070
   286
1070
     0
1070
   341
1005
8474
1070
   343
1005
8474
1070
   344
1005
8474
1002
}
  0
DIMENSION
  5
8650
330
8461
100
AcDbEntity
  8
3
100
AcDbDimension
  2
*D53
 10
3784.322584171019
 20
2516.192209343379
 30
0.0
 11
3696.822584171019
 21
2936.19220934338
 31
0.0
 70
    32
 71
     5
 42
839.9999999999995
  3
IGA
100
AcDbAlignedDimension
 13
3530.843268478227
 23
3356.192209343378
 33
0.0
 14
3284.062617025249
 24
2516.192209343379
 34
0.0
 50
90.0
100
AcDbRotatedDimension
1001
ACAD
1000
DSTYLE
1002
{
1070
    40
1040
35.0
1070
   143
1040
0.039
1070
   172
1070
     1
1070
   271
1070
     4
1070
   272
1070
     4
1070
   279
1070
     1
1070
   284
1070
     0
1070
   285
1070
     0
1070
   286
1070
     0
1070
   341
1005
8474
1070
   343
1005
8474
1070
   344
1005
8474
1002
}
  0
DIMENSION
  5
865D
330
8461
100
AcDbEntity
  8
3
100
AcDbDimension
  2
*D54
 10
3784.322584171019
 20
2411.192209343379
 30
0.0
 11
3996.822584171019
 21
2596.942209343379
 31
0.0
 70
    32
  1
(<>)
 71
     5
 42
105.0
  3
IGA
100
AcDbAlignedDimension
 13
3284.062617025249
 23
2516.192209343379
 33
0.0
 14
3284.062617025249
 24
2411.192209343379
 34
0.0
 50
90.0
100
AcDbRotatedDimension
1001
ACAD
1000
DSTYLE
1002
{
1070
    40
1040
35.0
1070
   143
1040
0.039
1070
   172
1070
     1
1070
   271
1070
     4
1070
   272
1070
     4
1070
   279
1070
     1
1070
   284
1070
     0
1070
   285
1070
     0
1070
   286
1070
     0
1070
   341
1005
8474
1070
   343
1005
8474
1070
   344
1005
874B
1002
}
  0
DIMENSION
  5
866F
330
8461
100
AcDbEntity
  8
3
100
AcDbDimension
  2
*D55
 10
3784.322584171019
 20
2346.192209343379
 30
0.0
 11
3750.732793239644
 21
2208.915430821802
 31
0.0
 70
   160
 71
     5
 42
65.0
  3
IGA
100
AcDbAlignedDimension
 13
3284.062617025249
 23
2411.192209343379
 33
0.0
 14
3284.062617025249
 24
2346.192209343379
 34
0.0
 50
90.0
100
AcDbRotatedDimension
1001
ACAD
1000
DSTYLE
1002
{
1070
    40
1040
35.0
1070
   143
1040
0.039
1070
   172
1070
     1
1070
   271
1070
     4
1070
   272
1070
     4
1070
   279
1070
     1
1070
   284
1070
     0
1070
   285
1070
     0
1070
   286
1070
     0
1070
   341
1005
8474
1070
   343
1005
874B
1070
   344
1005
8474
1002
}
  0
DIMENSION
  5
8681
330
8461
100
AcDbEntity
  8
3
100
AcDbDimension
  2
*D56
 10
4150.780962333425
 20
4554.192209343379
 30
0.0
 11
4035.780962333424
 21
3450.192209343379
 31
0.0
 70
    32
  1
(<>)
 71
     5
 42
2208.0
  3
IGA
100
AcDbAlignedDimension
 13
3284.062617025249
 23
2346.192209343379
 33
0.0
 14
3384.062617025249
 24
4554.192209343379
 34
0.0
 50
90.0
100
AcDbRotatedDimension
1001
ACAD
1000
DSTYLE
1002
{
1070
    40
1040
35.0
1070
   143
1040
0.039
1070
   172
1070
     1
1070
   271
1070
     4
1070
   272
1070
     4
1070
   279
1070
     0
1070
   284
1070
     0
1070
   285
1070
     0
1070
   286
1070
     0
1070
   341
1005
8474
1070
   343
1005
8474
1070
   344
1005
8474
1002
}
  0
DIMENSION
  5
868E
330
8461
100
AcDbEntity
  8
3
100
AcDbDimension
  2
*D57
 10
2624.062617025251
 20
2105.52784082877
 30
0.0
 11
1824.062617025251
 21
2193.02784082877
 31
0.0
 70
    32
 71
     5
 42
1600.0
  3
IGA
100
AcDbAlignedDimension
 13
1024.062617025251
 23
2346.192209343379
 33
0.0
 14
2624.062617025251
 24
2346.192209343379
 34
0.0
100
AcDbRotatedDimension
1001
ACAD
1000
DSTYLE
1002
{
1070
    40
1040
35.0
1070
   143
1040
0.039
1070
   172
1070
     1
1070
   271
1070
     4
1070
   272
1070
     4
1070
   279
1070
     0
1070
   284
1070
     0
1070
   285
1070
     0
1070
   286
1070
     0
1070
   341
1005
8474
1070
   343
1005
8474
1070
   344
1005
8474
1002
}
  0
DIMENSION
  5
869B
330
8461
100
AcDbEntity
  8
3
100
AcDbDimension
  2
*D58
 10
3284.062617025249
 20
2105.52784082877
 30
0.0
 11
2954.06261702525
 21
2193.02784082877
 31
0.0
 70
    32
 71
     5
 42
659.9999999999986
  3
IGA
100
AcDbAlignedDimension
 13
2624.062617025251
 23
2346.192209343379
 33
0.0
 14
3284.062617025249
 24
2346.192209343379
 34
0.0
100
AcDbRotatedDimension
1001
ACAD
1000
DSTYLE
1002
{
1070
    40
1040
35.0
1070
   143
1040
0.039
1070
   172
1070
     1
1070
   271
1070
     4
1070
   272
1070
     4
1070
   279
1070
     1
1070
   284
1070
     0
1070
   285
1070
     0
1070
   286
1070
     0
1070
   341
1005
8474
1070
   343
1005
8474
1070
   344
1005
8474
1002
}
  0
ENDSEC
  0
SECTION
  2
OBJECTS
  0
DICTIONARY
  5
83FE
330
0
100
AcDbDictionary
281
     1
  3
ACAD_CIP_PREVIOUS_PRODUCT_INFO
350
84A8
  3
ACAD_COLOR
350
8454
  3
ACAD_DETAILVIEWSTYLE
350
845B
  3
ACAD_GROUP
350
83FF
  3
ACAD_LAYOUT
350
8453
  3
ACAD_MATERIAL
350
8402
  3
ACAD_MLEADERSTYLE
350
8457
  3
ACAD_MLINESTYLE
350
8450
  3
ACAD_PLOTSETTINGS
350
8452
  3
ACAD_PLOTSTYLENAME
350
8400
  3
ACAD_SCALELIST
350
8434
  3
ACAD_SECTIONVIEWSTYLE
350
8459
  3
ACAD_TABLESTYLE
350
8455
  3
ACAD_VISUALSTYLE
350
841B
  3
ACDB_RECOMPOSE_DATA
350
8817
  3
AcDbVariableDictionary
350
87C0
  3
DWGPROPS
350
8818
  0
DICTIONARY
  5
87B6
330
8446
100
AcDbDictionary
280
     1
281
     1
  3
ADSK_XREC_LAYER_RECONCILED
360
87B7
  0
DICTIONARY
  5
87B8
330
8465
100
AcDbDictionary
280
     1
281
     1
  3
ADSK_XREC_LAYER_RECONCILED
360
87B9
  0
DICTIONARY
  5
87BA
330
8468
100
AcDbDictionary
280
     1
281
     1
  3
ADSK_XREC_LAYER_RECONCILED
360
87BB
  0
DICTIONARY
  5
87BC
330
8469
100
AcDbDictionary
280
     1
281
     1
  3
ADSK_XREC_LAYER_RECONCILED
360
87BD
  0
DICTIONARY
  5
87BE
330
846A
100
AcDbDictionary
280
     1
281
     1
  3
ADSK_XREC_LAYER_RECONCILED
360
87BF
  0
DICTIONARY
  5
851D
330
8461
100
AcDbDictionary
280
     1
281
     1
  3
ACAD_SORTENTS
360
851E
  0
XRECORD
  5
84A8
102
{ACAD_REACTORS
330
83FE
102
}
330
83FE
100
AcDbXrecord
280
     1
300
ACDLT
300
2015
300
INVLTS_F_S
  0
DICTIONARY
  5
8454
102
{ACAD_REACTORS
330
83FE
102
}
330
83FE
100
AcDbDictionary
281
     1
  0
DICTIONARY
  5
845B
102
{ACAD_REACTORS
330
83FE
102
}
330
83FE
100
AcDbDictionary
281
     1
  3
Imperial24
350
845C
  0
DICTIONARY
  5
83FF
102
{ACAD_REACTORS
330
83FE
102
}
330
83FE
100
AcDbDictionary
281
     1
  0
DICTIONARY
  5
8453
102
{ACAD_REACTORS
330
83FE
102
}
330
83FE
100
AcDbDictionary
281
     1
  3
Model
350
8464
  3
レイアウト1
350
8460
  0
DICTIONARY
  5
8402
102
{ACAD_REACTORS
330
83FE
102
}
330
83FE
100
AcDbDictionary
281
     1
  3
ByBlock
350
840B
  3
ByLayer
350
8403
  3
Global
350
8413
  0
DICTIONARY
  5
8457
102
{ACAD_REACTORS
330
83FE
102
}
330
83FE
100
AcDbDictionary
281
     1
  3
Standard
350
8458
  0
DICTIONARY
  5
8450
102
{ACAD_REACTORS
330
83FE
102
}
330
83FE
100
AcDbDictionary
281
     1
  3
Standard
350
8451
  0
DICTIONARY
  5
8452
102
{ACAD_REACTORS
330
83FE
102
}
330
83FE
100
AcDbDictionary
281
     1
  0
ACDBDICTIONARYWDFLT
  5
8400
102
{ACAD_REACTORS
330
83FE
102
}
330
83FE
100
AcDbDictionary
281
     1
  3
Normal
350
8401
100
AcDbDictionaryWithDefault
340
8401
  0
DICTIONARY
  5
8434
102
{ACAD_REACTORS
330
83FE
102
}
330
83FE
100
AcDbDictionary
281
     1
  3
A0
350
8435
  3
A1
350
8436
  3
A2
350
8437
  3
A3
350
8438
  3
A4
350
8439
  3
A5
350
843A
  3
A6
350
843B
  3
A7
350
843C
  3
A8
350
843D
  3
A9
350
843E
  3
B0
350
843F
  3
B1
350
8440
  3
B2
350
8441
  3
B3
350
8442
  3
B4
350
8443
  3
B5
350
8444
  3
B6
350
8445
  0
DICTIONARY
  5
8459
102
{ACAD_REACTORS
330
83FE
102
}
330
83FE
100
AcDbDictionary
281
     1
  3
Imperial24
350
845A
  0
DICTIONARY
  5
8455
102
{ACAD_REACTORS
330
83FE
102
}
330
83FE
100
AcDbDictionary
281
     1
  3
Standard
350
8456
  0
DICTIONARY
  5
841B
102
{ACAD_REACTORS
330
83FE
102
}
330
83FE
100
AcDbDictionary
281
     1
  3
2dWireframe
350
8421
  3
Basic
350
8420
  3
Brighten
350
8427
  3
ColorChange
350
842B
  3
Conceptual
350
8424
  3
Dim
350
8426
  3
EdgeColorOff
350
8433
  3
Facepattern
350
842A
  3
Flat
350
841C
  3
FlatWithEdges
350
841D
  3
Gouraud
350
841E
  3
GouraudWithEdges
350
841F
  3
Hidden
350
8423
  3
JitterOff
350
8431
  3
Linepattern
350
8429
  3
OverhangOff
350
8432
  3
Realistic
350
8425
  3
Shaded
350
8430
  3
Shaded with edges
350
842F
  3
Shades of Gray
350
842C
  3
Sketchy
350
842D
  3
Thicken
350
8428
  3
Wireframe
350
8422
  3
X-Ray
350
842E
  0
XRECORD
  5
8817
102
{ACAD_REACTORS
330
83FE
102
}
330
83FE
100
AcDbXrecord
280
     1
 90
        1
330
8456
  0
DICTIONARY
  5
87C0
102
{ACAD_REACTORS
330
83FE
102
}
330
83FE
100
AcDbDictionary
281
     1
  3
CANNOSCALE
350
87C5
  3
CMLEADERSTYLE
350
87C2
  3
CTABLESTYLE
350
87C1
  3
CVIEWDETAILSTYLE
350
87C3
  3
CVIEWSECTIONSTYLE
350
87C4
  3
DIMASSOC
350
87C8
  3
INDEXCTL
350
87C7
  3
SORTENTS
350
87C6
  3
XCLIPFRAME
350
87C9
  0
XRECORD
  5
8818
102
{ACAD_REACTORS
330
83FE
102
}
330
83FE
100
AcDbXrecord
280
     1
  1
DWGPROPS COOKIE
  2

  3

  4

  6

  7

  8
yasukiyo.ogawa
  9

300
=
301
=
302
=
303
=
304
=
305
=
306
=
307
=
308
=
309
=
 40
0.0370621875
 41
2451390.386212616
 42
2460273.627023461
  1

 90
        0
  0
XRECORD
  5
87B7
102
{ACAD_REACTORS
330
87B6
102
}
330
87B6
100
AcDbXrecord
280
     1
290
     1
  0
XRECORD
  5
87B9
102
{ACAD_REACTORS
330
87B8
102
}
330
87B8
100
AcDbXrecord
280
     1
290
     1
  0
XRECORD
  5
87BB
102
{ACAD_REACTORS
330
87BA
102
}
330
87BA
100
AcDbXrecord
280
     1
290
     1
  0
XRECORD
  5
87BD
102
{ACAD_REACTORS
330
87BC
102
}
330
87BC
100
AcDbXrecord
280
     1
290
     1
  0
XRECORD
  5
87BF
102
{ACAD_REACTORS
330
87BE
102
}
330
87BE
100
AcDbXrecord
280
     1
290
     1
  0
SORTENTSTABLE
  5
851E
102
{ACAD_REACTORS
330
851D
102
}
330
851D
100
AcDbSortentsTable
330
8461
331
7F27
  5
7F29
331
7F16
  5
7F1A
331
7CCC
  5
7CCE
331
7CBB
  5
7CBD
331
7CAA
  5
7CAC
331
7C99
  5
7C9D
331
7C88
  5
7C8A
331
7C7F
  5
7C81
331
7C6E
  5
7C70
331
7C4C
  5
7C4E
331
7C3B
  5
7C3D
331
7C2A
  5
7C2A
331
7C19
  5
7C19
331
7F28
  5
7F2A
331
7CCD
  5
7CCF
331
7CBC
  5
7CBE
331
7CAB
  5
7CAD
331
7C89
  5
7C8B
331
7C80
  5
7C82
331
7C5E
  5
7C60
331
7C4D
  5
7C4F
331
7C3C
  5
7C3F
331
7C2B
  5
7C2D
331
7C1A
  5
7C1A
331
7F29
  5
7F2B
331
7CCE
  5
7CD0
331
7CBD
  5
7CBF
331
7CAC
  5
7CAE
331
7C8A
  5
7C8D
331
7C81
  5
7C83
331
7C5F
  5
7C63
331
7C4E
  5
7C53
331
7C3D
  5
7C40
331
7C2C
  5
7C2E
331
7C1B
  5
7C1B
331
7F2A
  5
7F2C
331
7C71
  5
7C73
331
7C60
  5
7C64
331
7F19
  5
7F1B
331
7CCF
  5
7CD1
331
7CBE
  5
7CC0
331
7CAD
  5
7CAF
331
7C9C
  5
7C9E
331
7C8B
  5
7C8E
331
7C82
  5
7C84
331
7C4F
  5
7C54
331
7C2D
  5
7C2F
331
7C1C
  5
7C1C
331
7F2B
  5
7F2D
331
7C72
  5
7C74
331
7F1A
  5
7F1C
331
7CD0
  5
7CD2
331
7CBF
  5
7CC1
331
7CAE
  5
7CB0
331
7C9D
  5
7C9F
331
7C83
  5
7C86
331
7C2E
  5
7C30
331
7C1D
  5
7C1D
331
7F2C
  5
7F2E
331
7C73
  5
7C75
331
7F1B
  5
7F1D
331
7CE2
  5
7CE4
331
7CD1
  5
7CD3
331
7CC0
  5
7CC2
331
7C9E
  5
7CA0
331
7C8D
  5
7C8F
331
7C2F
  5
7C31
331
7C1E
  5
7C1E
331
7C30
  5
7C32
331
7F2D
  5
7F2F
331
7C74
  5
7C76
331
7C63
  5
7C65
331
7F1C
  5
7F1E
331
7CE3
  5
7CE5
331
7CD2
  5
7CD4
331
7CC1
  5
7CC3
331
7C9F
  5
7CA1
331
7C8E
  5
7C90
331
7C1F
  5
7C1F
331
7F2E
  5
7F30
331
7C75
  5
7C77
331
7C64
  5
7C66
331
7C53
  5
7C55
331
7C42
  5
7C44
331
7C31
  5
7C33
331
7F1D
  5
7F20
331
7CE4
  5
7F14
331
7CD3
  5
7CD5
331
7CC2
  5
7CC4
331
7CA0
  5
7CA2
331
7C8F
  5
7C91
331
7C20
  5
7C20
331
7F2F
  5
7F31
331
7C76
  5
7C78
331
7C65
  5
7C67
331
7C54
  5
7C56
331
7C43
  5
7C45
331
7C32
  5
7C34
331
7F1E
  5
7F21
331
7CE5
  5
7F15
331
7CD4
  5
7CD6
331
7CC3
  5
7CC5
331
7CA1
  5
7CA3
331
7C90
  5
7C93
331
7C21
  5
7C21
331
7F30
  5
7F32
331
7C77
  5
7C79
331
7C66
  5
7C69
331
7C55
  5
7C57
331
7C44
  5
7C46
331
7C33
  5
7C36
331
7CD5
  5
7CD7
331
7CC4
  5
7CC6
331
7CA2
  5
7CA4
331
7C91
  5
7C95
331
7C22
  5
7C22
331
7F20
  5
7F22
331
7C78
  5
7C7A
331
7C67
  5
7C6C
331
7C56
  5
7C58
331
7C45
  5
7C4A
331
7C34
  5
7C37
331
7F31
  5
81C7
331
7CD6
  5
7CD8
331
7CC5
  5
7CC7
331
7CA3
  5
7CA5
331
7C23
  5
7C23
331
7F21
  5
7F23
331
7F32
  5
81D4
331
7C79
  5
7C7B
331
7C57
  5
7C59
331
7C46
  5
7C4B
331
7C93
  5
7C96
331
7CD7
  5
7CD9
331
7CC6
  5
7CC8
331
7CA4
  5
7CA6
331
7C24
  5
7C24
331
7C13
  5
7C13
331
7F22
  5
7F24
331
7CD8
  5
7CE1
331
7CC7
  5
7CC9
331
7CA5
  5
7CA7
331
7C7A
  5
7C7C
331
7C69
  5
7C6D
331
7C58
  5
7C5A
331
7C36
  5
7C38
331
7C25
  5
7C25
331
7F23
  5
7F25
331
7CD9
  5
7CE2
331
7CC8
  5
7CCA
331
7CA6
  5
7CA8
331
7C7B
  5
7C7D
331
7C59
  5
7C5B
331
7C37
  5
7C39
331
7C26
  5
7C26
331
7C15
  5
7C15
331
7F24
  5
7F26
331
7CC9
  5
7CCB
331
7CB8
  5
7CBA
331
7C5A
  5
7C5C
331
7C38
  5
7C3A
331
7C7C
  5
7C7E
331
7C96
  5
7C99
331
7C27
  5
7C27
331
7C16
  5
7C16
331
7F25
  5
7F27
331
7F14
  5
7F16
331
7CCA
  5
7CCC
331
7CB9
  5
7CBB
331
7CA8
  5
7CAA
331
7C7D
  5
7C7F
331
7C6C
  5
7C6E
331
7C5B
  5
7C5E
331
7C4A
  5
7C4C
331
7C39
  5
7C3B
331
7C28
  5
7C28
331
7C17
  5
7C17
331
7F26
  5
7F28
331
7F15
  5
7F19
331
7CCB
  5
7CCD
331
7CBA
  5
7CBC
331
7CA9
  5
7CAB
331
7C98
  5
7C9C
331
7C7E
  5
7C80
331
7C6D
  5
7C6F
331
7C5C
  5
7C5F
331
7C4B
  5
7C4D
331
7C3A
  5
7C3C
331
7C29
  5
7C29
331
7C18
  5
7C18
  0
ACDBDETAILVIEWSTYLE
  5
845C
102
{ACAD_XDICTIONARY
360
8850
102
}
102
{ACAD_REACTORS
330
845B
102
}
330
845B
100
AcDbModelDocViewStyle
 70
     0
  3
Imperial24
290
     0
100
AcDbDetailViewStyle
 70
     0
 71
     0
 90
        3
 71
     1
340
8447
 40
0.24
340
0
 40
0.24
300

 40
0.36
280
     3
 71
     2
340
844E
 90
       25
 71
     3
340
8447
 40
0.24
 90
        1
 40
0.75
 90
        1
300
%<\AcVar ViewType \f "%tc1">% %<\AcVar ViewDetailId>%\PSCALE %<\AcVar ViewScale \f "%sn">%
 71
     4
340
844E
 90
       25
340
844E
 90
       25
280
     0
  0
LAYOUT
  5
8464
102
{ACAD_XDICTIONARY
360
8854
102
}
102
{ACAD_REACTORS
330
8453
102
}
330
8453
100
AcDbPlotSettings
  1

  2
RICOH imagio MP W3600 RPCS
  4

  6

 40
0.0
 41
0.0
 42
0.0
 43
0.0
 44
0.0
 45
0.0
 46
0.0
 47
0.0
 48
0.0
 49
0.0
140
0.0
141
0.0
142
1.0
143
1.0
 70
  1712
 72
     0
 73
     0
 74
     0
  7

 75
     0
147
1.0
148
0.0
149
0.0
100
AcDbLayout
  1
Model
 70
     1
 71
     0
 10
0.0
 20
0.0
 11
12.0
 21
9.0
 12
0.0
 22
0.0
 32
0.0
 14
0.0
 24
0.0
 34
0.0
 15
0.0
 25
0.0
 35
0.0
146
0.0
 13
0.0
 23
0.0
 33
0.0
 16
1.0
 26
0.0
 36
0.0
 17
0.0
 27
1.0
 37
0.0
 76
     0
330
8461
331
8466
  0
LAYOUT
  5
8460
102
{ACAD_XDICTIONARY
360
8852
102
}
102
{ACAD_REACTORS
330
8453
102
}
330
8453
100
AcDbPlotSettings
  1

  2
RICOH imagio MP W3600 RPCS
  4

  6

 40
0.0
 41
0.0
 42
0.0
 43
0.0
 44
0.0
 45
0.0
 46
0.0
 47
0.0
 48
0.0
 49
0.0
140
0.0
141
0.0
142
1.0
143
1.0
 70
   688
 72
     0
 73
     0
 74
     5
  7

 75
    16
147
1.0
148
0.0
149
0.0
100
AcDbLayout
  1
レイアウト1
 70
     1
 71
     1
 10
0.0
 20
0.0
 11
12.0
 21
9.0
 12
0.0
 22
0.0
 32
0.0
 14
1.000000000000000E+20
 24
1.000000000000000E+20
 34
1.000000000000000E+20
 15
-1.000000000000000E+20
 25
-1.000000000000000E+20
 35
-1.000000000000000E+20
146
0.0
 13
0.0
 23
0.0
 33
0.0
 16
1.0
 26
0.0
 36
0.0
 17
0.0
 27
1.0
 37
0.0
 76
     0
330
845D
  0
MATERIAL
  5
840B
102
{ACAD_XDICTIONARY
360
840C
102
}
102
{ACAD_REACTORS
330
8402
102
}
330
8402
100
AcDbMaterial
  1
ByBlock
 72
     0
 43
0.0208333333333333
 43
0.0
 43
0.0
 43
0.0
 43
0.0
 43
0.0208333333333333
 43
0.0
 43
0.0
 43
0.0
 43
0.0
 43
1.0
 43
0.0
 43
0.0
 43
0.0
 43
0.0
 43
1.0
 77
     0
 47
0.0208333333333333
 47
0.0
 47
0.0
 47
0.0
 47
0.0
 47
0.0208333333333333
 47
0.0
 47
0.0
 47
0.0
 47
0.0
 47
1.0
 47
0.0
 47
0.0
 47
0.0
 47
0.0
 47
1.0
171
     0
 49
0.0208333333333333
 49
0.0
 49
0.0
 49
0.0
 49
0.0
 49
0.0208333333333333
 49
0.0
 49
0.0
 49
0.0
 49
0.0
 49
1.0
 49
0.0
 49
0.0
 49
0.0
 49
0.0
 49
1.0
175
     0
142
0.0208333333333333
142
0.0
142
0.0
142
0.0
142
0.0
142
0.0208333333333333
142
0.0
142
0.0
142
0.0
142
0.0
142
1.0
142
0.0
142
0.0
142
0.0
142
0.0
142
1.0
179
     0
144
0.0208333333333333
144
0.0
144
0.0
144
0.0
144
0.0
144
0.0208333333333333
144
0.0
144
0.0
144
0.0
144
0.0
144
1.0
144
0.0
144
0.0
144
0.0
144
0.0
144
1.0
147
0.0208333333333333
147
0.0
147
0.0
147
0.0
147
0.0
147
0.0208333333333333
147
0.0
147
0.0
147
0.0
147
0.0
147
1.0
147
0.0
147
0.0
147
0.0
147
0.0
147
1.0
  0
MATERIAL
  5
8403
102
{ACAD_XDICTIONARY
360
8404
102
}
102
{ACAD_REACTORS
330
8402
102
}
330
8402
100
AcDbMaterial
  1
ByLayer
 72
     0
 43
0.0208333333333333
 43
0.0
 43
0.0
 43
0.0
 43
0.0
 43
0.0208333333333333
 43
0.0
 43
0.0
 43
0.0
 43
0.0
 43
1.0
 43
0.0
 43
0.0
 43
0.0
 43
0.0
 43
1.0
 77
     0
 47
0.0208333333333333
 47
0.0
 47
0.0
 47
0.0
 47
0.0
 47
0.0208333333333333
 47
0.0
 47
0.0
 47
0.0
 47
0.0
 47
1.0
 47
0.0
 47
0.0
 47
0.0
 47
0.0
 47
1.0
171
     0
 49
0.0208333333333333
 49
0.0
 49
0.0
 49
0.0
 49
0.0
 49
0.0208333333333333
 49
0.0
 49
0.0
 49
0.0
 49
0.0
 49
1.0
 49
0.0
 49
0.0
 49
0.0
 49
0.0
 49
1.0
175
     0
142
0.0208333333333333
142
0.0
142
0.0
142
0.0
142
0.0
142
0.0208333333333333
142
0.0
142
0.0
142
0.0
142
0.0
142
1.0
142
0.0
142
0.0
142
0.0
142
0.0
142
1.0
179
     0
144
0.0208333333333333
144
0.0
144
0.0
144
0.0
144
0.0
144
0.0208333333333333
144
0.0
144
0.0
144
0.0
144
0.0
144
1.0
144
0.0
144
0.0
144
0.0
144
0.0
144
1.0
147
0.0208333333333333
147
0.0
147
0.0
147
0.0
147
0.0
147
0.0208333333333333
147
0.0
147
0.0
147
0.0
147
0.0
147
1.0
147
0.0
147
0.0
147
0.0
147
0.0
147
1.0
  0
MATERIAL
  5
8413
102
{ACAD_XDICTIONARY
360
8414
102
}
102
{ACAD_REACTORS
330
8402
102
}
330
8402
100
AcDbMaterial
  1
Global
 72
     0
 43
0.0208333333333333
 43
0.0
 43
0.0
 43
0.0
 43
0.0
 43
0.0208333333333333
 43
0.0
 43
0.0
 43
0.0
 43
0.0
 43
1.0
 43
0.0
 43
0.0
 43
0.0
 43
0.0
 43
1.0
 77
     0
 47
0.0208333333333333
 47
0.0
 47
0.0
 47
0.0
 47
0.0
 47
0.0208333333333333
 47
0.0
 47
0.0
 47
0.0
 47
0.0
 47
1.0
 47
0.0
 47
0.0
 47
0.0
 47
0.0
 47
1.0
171
     0
 49
0.0208333333333333
 49
0.0
 49
0.0
 49
0.0
 49
0.0
 49
0.0208333333333333
 49
0.0
 49
0.0
 49
0.0
 49
0.0
 49
1.0
 49
0.0
 49
0.0
 49
0.0
 49
0.0
 49
1.0
175
     0
142
0.0208333333333333
142
0.0
142
0.0
142
0.0
142
0.0
142
0.0208333333333333
142
0.0
142
0.0
142
0.0
142
0.0
142
1.0
142
0.0
142
0.0
142
0.0
142
0.0
142
1.0
179
     0
144
0.0208333333333333
144
0.0
144
0.0
144
0.0
144
0.0
144
0.0208333333333333
144
0.0
144
0.0
144
0.0
144
0.0
144
1.0
144
0.0
144
0.0
144
0.0
144
0.0
144
1.0
147
0.0208333333333333
147
0.0
147
0.0
147
0.0
147
0.0
147
0.0208333333333333
147
0.0
147
0.0
147
0.0
147
0.0
147
1.0
147
0.0
147
0.0
147
0.0
147
0.0
147
1.0
  0
MLEADERSTYLE
  5
8458
102
{ACAD_REACTORS
330
8457
102
}
330
8457
100
AcDbMLeaderStyle
170
     2
171
     1
172
     0
 90
        2
 40
0.0
 41
0.0
173
     1
 91
-1056964608
340
844C
 92
       -2
290
     1
 42
0.09
291
     1
 43
0.36
  3
Standard
 44
0.18
300

342
8447
174
     1
178
     6
175
     1
176
     0
 93
-1056964608
 45
0.18
292
     0
297
     0
 46
0.18
 94
-1056964608
 47
1.0
 49
1.0
140
1.0
293
     1
141
0.0
294
     1
177
     0
142
1.0
295
     0
296
     0
143
0.125
1001
ACAD_MLEADERVER
1070
     2
  0
MLINESTYLE
  5
8451
102
{ACAD_REACTORS
330
8450
102
}
330
8450
100
AcDbMlineStyle
  2
STANDARD
 70
     0
  3

 62
   256
 51
90.0
 52
90.0
 71
     2
 49
0.5
 62
   256
  6
BYLAYER
 49
-0.5
 62
   256
  6
BYLAYER
  0
ACDBPLACEHOLDER
  5
8401
102
{ACAD_REACTORS
330
8400
102
}
330
8400
  0
SCALE
  5
8435
102
{ACAD_REACTORS
330
8434
102
}
330
8434
100
AcDbScale
 70
     0
300
1:1
140
1.0
141
1.0
290
     1
  0
SCALE
  5
8436
102
{ACAD_REACTORS
330
8434
102
}
330
8434
100
AcDbScale
 70
     0
300
1/128" = 1'-0"
140
0.0078125
141
12.0
290
     0
  0
SCALE
  5
8437
102
{ACAD_REACTORS
330
8434
102
}
330
8434
100
AcDbScale
 70
     0
300
1/64" = 1'-0"
140
0.015625
141
12.0
290
     0
  0
SCALE
  5
8438
102
{ACAD_REACTORS
330
8434
102
}
330
8434
100
AcDbScale
 70
     0
300
1/32" = 1'-0"
140
0.03125
141
12.0
290
     0
  0
SCALE
  5
8439
102
{ACAD_REACTORS
330
8434
102
}
330
8434
100
AcDbScale
 70
     0
300
1/16" = 1'-0"
140
0.0625
141
12.0
290
     0
  0
SCALE
  5
843A
102
{ACAD_REACTORS
330
8434
102
}
330
8434
100
AcDbScale
 70
     0
300
3/32" = 1'-0"
140
0.09375
141
12.0
290
     0
  0
SCALE
  5
843B
102
{ACAD_REACTORS
330
8434
102
}
330
8434
100
AcDbScale
 70
     0
300
1/8" = 1'-0"
140
0.125
141
12.0
290
     0
  0
SCALE
  5
843C
102
{ACAD_REACTORS
330
8434
102
}
330
8434
100
AcDbScale
 70
     0
300
3/16" = 1'-0"
140
0.1875
141
12.0
290
     0
  0
SCALE
  5
843D
102
{ACAD_REACTORS
330
8434
102
}
330
8434
100
AcDbScale
 70
     0
300
1/4" = 1'-0"
140
0.25
141
12.0
290
     0
  0
SCALE
  5
843E
102
{ACAD_REACTORS
330
8434
102
}
330
8434
100
AcDbScale
 70
     0
300
3/8" = 1'-0"
140
0.375
141
12.0
290
     0
  0
SCALE
  5
843F
102
{ACAD_REACTORS
330
8434
102
}
330
8434
100
AcDbScale
 70
     0
300
1/2" = 1'-0"
140
0.5
141
12.0
290
     0
  0
SCALE
  5
8440
102
{ACAD_REACTORS
330
8434
102
}
330
8434
100
AcDbScale
 70
     0
300
3/4" = 1'-0"
140
0.75
141
12.0
290
     0
  0
SCALE
  5
8441
102
{ACAD_REACTORS
330
8434
102
}
330
8434
100
AcDbScale
 70
     0
300
1" = 1'-0"
140
1.0
141
12.0
290
     0
  0
SCALE
  5
8442
102
{ACAD_REACTORS
330
8434
102
}
330
8434
100
AcDbScale
 70
     0
300
1-1/2" = 1'-0"
140
1.5
141
12.0
290
     0
  0
SCALE
  5
8443
102
{ACAD_REACTORS
330
8434
102
}
330
8434
100
AcDbScale
 70
     0
300
3" = 1'-0"
140
3.0
141
12.0
290
     0
  0
SCALE
  5
8444
102
{ACAD_REACTORS
330
8434
102
}
330
8434
100
AcDbScale
 70
     0
300
6" = 1'-0"
140
6.0
141
12.0
290
     0
  0
SCALE
  5
8445
102
{ACAD_REACTORS
330
8434
102
}
330
8434
100
AcDbScale
 70
     0
300
1'-0" = 1'-0"
140
12.0
141
12.0
290
     0
  0
ACDBSECTIONVIEWSTYLE
  5
845A
102
{ACAD_XDICTIONARY
360
884E
102
}
102
{ACAD_REACTORS
330
8459
102
}
330
8459
100
AcDbModelDocViewStyle
 70
     0
  3
Imperial24
290
     0
100
AcDbSectionViewStyle
 70
     0
 71
     0
 90
       78
 71
     1
340
8447
 40
0.24
340
0
340
0
 40
0.24
300
I, O, Q, S, X, Z
 40
0.48
 90
        3
 40
0.18
 90
        1
 71
     2
340
844E
 90
       25
340
844E
 90
       50
 40
0.24
 40
0.0
 40
0.24
 71
     3
340
8447
 40
0.24
 90
        1
 40
0.75
 90
        1
300
%<\AcVar ViewType \f "%tc1">% %<\AcVar ViewSectionStartId>%-%<\AcVar ViewSectionEndId>%\PSCALE %<\AcVar ViewScale \f "%sn">%
 71
     4
300
ANSI31
 40
1.0
 90
        0
290
     0
290
     0
 90
        6
 40
0.0
 40
1.570796326794896
 40
0.2617993877991494
 40
1.308996938995747
 40
-0.2617993877991494
 40
1.832595714594046
  0
TABLESTYLE
  5
8456
102
{ACAD_XDICTIONARY
360
8815
102
}
102
{ACAD_REACTORS
330
8455
102
}
330
8455
100
AcDbTableStyle
  3
Standard
 70
     0
 71
     0
 40
0.06
 41
0.06
280
     0
281
     0
  7
STANDARD
140
0.18
170
     2
 62
     0
 63
     7
283
     0
274
    -2
284
     1
 64
     0
275
    -2
285
     1
 65
     0
276
    -2
286
     1
 66
     0
277
    -2
287
     1
 67
     0
278
    -2
288
     1
 68
     0
279
    -2
289
     1
 69
     0
  7
STANDARD
140
0.25
170
     5
 62
     0
 63
     7
283
     0
274
    -2
284
     1
 64
     0
275
    -2
285
     1
 65
     0
276
    -2
286
     1
 66
     0
277
    -2
287
     1
 67
     0
278
    -2
288
     1
 68
     0
279
    -2
289
     1
 69
     0
  7
STANDARD
140
0.18
170
     5
 62
     0
 63
     7
283
     0
274
    -2
284
     1
 64
     0
275
    -2
285
     1
 65
     0
276
    -2
286
     1
 66
     0
277
    -2
287
     1
 67
     0
278
    -2
288
     1
 68
     0
279
    -2
289
     1
 69
     0
  0
VISUALSTYLE
  5
8421
102
{ACAD_XDICTIONARY
360
8826
102
}
102
{ACAD_REACTORS
330
841B
102
}
330
841B
100
AcDbVisualStyle
  2
2dWireframe
 70
     4
 71
     0
 72
     2
 73
     0
 90
        0
 40
-0.6
 41
-30.0
 62
     5
 63
     7
 74
     1
 91
        4
 64
     7
 65
   257
 75
     1
175
     1
 42
1.0
 92
        0
 66
   257
 43
1.0
 76
     1
 77
     6
 78
     2
 67
     7
 79
     5
170
     0
171
     0
290
     0
174
     0
 93
        1
 44
0.0
173
     0
291
     0
 45
0.0
1001
ACAD
1000
AcDbSavedByObjectVersion
1070
     0
  0
VISUALSTYLE
  5
8420
102
{ACAD_XDICTIONARY
360
8824
102
}
102
{ACAD_REACTORS
330
841B
102
}
330
841B
100
AcDbVisualStyle
  2
Basic
 70
     7
 71
     1
 72
     0
 73
     1
 90
        0
 40
-0.6
 41
-30.0
 62
     5
 63
     7
 74
     0
 91
        4
 64
     7
 65
   257
 75
     1
175
     1
 42
1.0
 92
        8
 66
     7
 43
1.0
 76
     1
 77
     6
 78
     2
 67
     7
 79
     5
170
     0
171
     0
290
     0
174
     0
 93
        1
 44
0.0
173
     0
291
     1
 45
0.0
1001
ACAD
1000
AcDbSavedByObjectVersion
1070
     0
  0
VISUALSTYLE
  5
8427
102
{ACAD_XDICTIONARY
360
8832
102
}
102
{ACAD_REACTORS
330
841B
102
}
330
841B
100
AcDbVisualStyle
  2
Brighten
 70
    12
 71
     2
 72
     2
 73
     0
 90
        0
 40
-0.6
 41
-30.0
 62
     5
 63
     7
 74
     1
 91
        4
 64
     7
 65
   257
 75
     1
175
     1
 42
1.0
 92
        8
 66
     7
 43
1.0
 76
     1
 77
     6
 78
     2
 67
     7
 79
     5
170
     0
171
     0
290
     0
174
     0
 93
        1
 44
50.0
173
     0
291
     1
 45
0.0
1001
ACAD
1000
AcDbSavedByObjectVersion
1070
     0
  0
VISUALSTYLE
  5
842B
102
{ACAD_XDICTIONARY
360
883A
102
}
102
{ACAD_REACTORS
330
841B
102
}
330
841B
100
AcDbVisualStyle
  2
ColorChange
 70
    16
 71
     2
 72
     2
 73
     3
 90
        0
 40
-0.6
 41
-30.0
 62
     5
 63
     8
 74
     1
 91
        4
 64
     7
 65
   257
 75
     1
175
     1
 42
1.0
 92
        8
 66
     8
 43
1.0
 76
     1
 77
     6
 78
     2
 67
     7
 79
     5
170
     0
171
     0
290
     0
174
     0
 93
        1
 44
0.0
173
     0
291
     1
 45
0.0
1001
ACAD
1000
AcDbSavedByObjectVersion
1070
     0
  0
VISUALSTYLE
  5
8424
102
{ACAD_XDICTIONARY
360
882C
102
}
102
{ACAD_REACTORS
330
841B
102
}
330
841B
100
AcDbVisualStyle
  2
Conceptual
 70
     9
 71
     3
 72
     2
 73
     0
 90
        0
 40
-0.6
 41
-30.0
 62
     5
 63
     7
 74
     2
 91
        2
 64
     7
 65
   257
 75
     1
175
     1
 42
179.0
 92
        8
 66
     7
 43
1.0
 76
     1
 77
     6
 78
     2
 67
     7
 79
     3
170
     0
171
     0
290
     0
174
     0
 93
        1
 44
0.0
173
     0
291
     0
 45
0.0
1001
ACAD
1000
AcDbSavedByObjectVersion
1070
     0
  0
VISUALSTYLE
  5
8426
102
{ACAD_XDICTIONARY
360
8830
102
}
102
{ACAD_REACTORS
330
841B
102
}
330
841B
100
AcDbVisualStyle
  2
Dim
 70
    11
 71
     2
 72
     2
 73
     0
 90
        0
 40
-0.6
 41
-30.0
 62
     5
 63
     7
 74
     1
 91
        4
 64
     7
 65
   257
 75
     1
175
     1
 42
1.0
 92
        8
 66
     7
 43
1.0
 76
     1
 77
     6
 78
     2
 67
     7
 79
     5
170
     0
171
     0
290
     0
174
     0
 93
        1
 44
-50.0
173
     0
291
     1
 45
0.0
1001
ACAD
1000
AcDbSavedByObjectVersion
1070
     0
  0
VISUALSTYLE
  5
8433
102
{ACAD_XDICTIONARY
360
884A
102
}
102
{ACAD_REACTORS
330
841B
102
}
330
841B
100
AcDbVisualStyle
  2
EdgeColorOff
 70
    22
 71
     2
 72
     2
 73
     0
 90
        0
 40
-0.6
 41
-30.0
 62
     5
 63
     7
 74
     1
 91
        4
 64
     7
 65
   257
 75
     1
175
     1
 42
1.0
 92
        8
 66
     7
 43
1.0
 76
     1
 77
     6
 78
     2
 67
     7
 79
     5
170
     0
171
     0
290
     0
174
     0
 93
        1
 44
0.0
173
     0
291
     1
 45
0.0
1001
ACAD
1000
AcDbSavedByObjectVersion
1070
     0
  0
VISUALSTYLE
  5
842A
102
{ACAD_XDICTIONARY
360
8838
102
}
102
{ACAD_REACTORS
330
841B
102
}
330
841B
100
AcDbVisualStyle
  2
Facepattern
 70
    15
 71
     2
 72
     2
 73
     0
 90
        0
 40
-0.6
 41
-30.0
 62
     5
 63
     7
 74
     1
 91
        4
 64
     7
 65
   257
 75
     1
175
     1
 42
1.0
 92
        8
 66
     7
 43
1.0
 76
     1
 77
     6
 78
     2
 67
     7
 79
     5
170
     0
171
     0
290
     0
174
     0
 93
        1
 44
0.0
173
     0
291
     1
 45
0.0
1001
ACAD
1000
AcDbSavedByObjectVersion
1070
     0
  0
VISUALSTYLE
  5
841C
102
{ACAD_XDICTIONARY
360
881C
102
}
102
{ACAD_REACTORS
330
841B
102
}
330
841B
100
AcDbVisualStyle
  2
Flat
 70
     0
 71
     2
 72
     1
 73
     1
 90
        2
 40
-0.6
 41
30.0
 62
     5
 63
     7
 74
     0
 91
        0
 64
     7
 65
   257
 75
     1
175
     1
 42
1.0
 92
        8
 66
     7
 43
1.0
 76
     1
 77
     6
 78
     2
 67
     7
 79
     5
170
     0
171
     0
290
     0
174
     0
 93
       13
 44
0.0
173
     0
291
     1
 45
0.0
1001
ACAD
1000
AcDbSavedByObjectVersion
1070
     0
  0
VISUALSTYLE
  5
841D
102
{ACAD_XDICTIONARY
360
881E
102
}
102
{ACAD_REACTORS
330
841B
102
}
330
841B
100
AcDbVisualStyle
  2
FlatWithEdges
 70
     1
 71
     2
 72
     1
 73
     1
 90
        2
 40
-0.6
 41
30.0
 62
     5
 63
     7
 74
     1
 91
        0
 64
     7
 65
   257
 75
     1
175
     1
 42
1.0
 92
        0
 66
   257
 43
1.0
 76
     1
 77
     6
 78
     2
 67
     7
 79
     5
170
     0
171
     0
290
     0
174
     0
 93
       13
 44
0.0
173
     0
291
     1
 45
0.0
1001
ACAD
1000
AcDbSavedByObjectVersion
1070
     0
  0
VISUALSTYLE
  5
841E
102
{ACAD_XDICTIONARY
360
8820
102
}
102
{ACAD_REACTORS
330
841B
102
}
330
841B
100
AcDbVisualStyle
  2
Gouraud
 70
     2
 71
     2
 72
     2
 73
     1
 90
        2
 40
-0.6
 41
30.0
 62
     5
 63
     7
 74
     0
 91
        0
 64
     7
 65
   257
 75
     1
175
     1
 42
1.0
 92
        0
 66
     7
 43
1.0
 76
     1
 77
     6
 78
     2
 67
     7
 79
     5
170
     0
171
     0
290
     0
174
     0
 93
       13
 44
0.0
173
     0
291
     1
 45
0.0
1001
ACAD
1000
AcDbSavedByObjectVersion
1070
     0
  0
VISUALSTYLE
  5
841F
102
{ACAD_XDICTIONARY
360
8822
102
}
102
{ACAD_REACTORS
330
841B
102
}
330
841B
100
AcDbVisualStyle
  2
GouraudWithEdges
 70
     3
 71
     2
 72
     2
 73
     1
 90
        2
 40
-0.6
 41
30.0
 62
     5
 63
     7
 74
     1
 91
        0
 64
     7
 65
   257
 75
     1
175
     1
 42
1.0
 92
        0
 66
   257
 43
1.0
 76
     1
 77
     6
 78
     2
 67
     7
 79
     5
170
     0
171
     0
290
     0
174
     0
 93
       13
 44
0.0
173
     0
291
     1
 45
0.0
1001
ACAD
1000
AcDbSavedByObjectVersion
1070
     0
  0
VISUALSTYLE
  5
8423
102
{ACAD_XDICTIONARY
360
882A
102
}
102
{ACAD_REACTORS
330
841B
102
}
330
841B
100
AcDbVisualStyle
  2
Hidden
 70
     6
 71
     1
 72
     2
 73
     2
 90
        0
 40
-0.6
 41
-30.0
 62
     5
 63
     7
 74
     2
 91
        2
 64
     7
 65
   257
 75
     2
175
     1
 42
40.0
 92
        0
 66
   257
 43
1.0
 76
     1
 77
     6
 78
     2
 67
     7
 79
     3
170
     0
171
     0
290
     0
174
     0
 93
        1
 44
0.0
173
     0
291
     0
 45
0.0
1001
ACAD
1000
AcDbSavedByObjectVersion
1070
     0
  0
VISUALSTYLE
  5
8431
102
{ACAD_XDICTIONARY
360
8846
102
}
102
{ACAD_REACTORS
330
841B
102
}
330
841B
100
AcDbVisualStyle
  2
JitterOff
 70
    20
 71
     2
 72
     2
 73
     0
 90
        0
 40
-0.6
 41
-30.0
 62
     5
 63
     7
 74
     1
 91
        4
 64
     7
 65
   257
 75
     1
175
     1
 42
1.0
 92
       10
 66
     7
 43
1.0
 76
     1
 77
     6
 78
     2
 67
     7
 79
     5
170
     0
171
     0
290
     0
174
     0
 93
        1
 44
0.0
173
     0
291
     1
 45
0.0
1001
ACAD
1000
AcDbSavedByObjectVersion
1070
     0
  0
VISUALSTYLE
  5
8429
102
{ACAD_XDICTIONARY
360
8836
102
}
102
{ACAD_REACTORS
330
841B
102
}
330
841B
100
AcDbVisualStyle
  2
Linepattern
 70
    14
 71
     2
 72
     2
 73
     0
 90
        0
 40
-0.6
 41
-30.0
 62
     5
 63
     7
 74
     1
 91
        4
 64
     7
 65
   257
 75
     7
175
     7
 42
1.0
 92
        8
 66
     7
 43
1.0
 76
     1
 77
     6
 78
     2
 67
     7
 79
     5
170
     0
171
     0
290
     0
174
     0
 93
        1
 44
0.0
173
     0
291
     1
 45
0.0
1001
ACAD
1000
AcDbSavedByObjectVersion
1070
     0
  0
VISUALSTYLE
  5
8432
102
{ACAD_XDICTIONARY
360
8848
102
}
102
{ACAD_REACTORS
330
841B
102
}
330
841B
100
AcDbVisualStyle
  2
OverhangOff
 70
    21
 71
     2
 72
     2
 73
     0
 90
        0
 40
-0.6
 41
-30.0
 62
     5
 63
     7
 74
     1
 91
        4
 64
     7
 65
   257
 75
     1
175
     1
 42
1.0
 92
        9
 66
     7
 43
1.0
 76
     1
 77
     6
 78
     2
 67
     7
 79
     5
170
     0
171
     0
290
     0
174
     0
 93
        1
 44
0.0
173
     0
291
     1
 45
0.0
1001
ACAD
1000
AcDbSavedByObjectVersion
1070
     0
  0
VISUALSTYLE
  5
8425
102
{ACAD_XDICTIONARY
360
882E
102
}
102
{ACAD_REACTORS
330
841B
102
}
330
841B
100
AcDbVisualStyle
  2
Realistic
 70
     8
 71
     2
 72
     3
 73
     0
 90
        2
 40
-0.6
 41
30.0
 62
     5
 63
     7
 74
     0
 91
        0
 64
     7
 65
   257
 75
     1
175
     1
 42
1.0
 92
        8
 66
   257
 43
1.0
 76
     1
 77
     6
 78
     2
 67
     7
 79
     3
170
     0
171
     0
290
     0
174
     0
 93
       13
 44
0.0
173
     0
291
     0
 45
0.0
1001
ACAD
1000
AcDbSavedByObjectVersion
1070
     0
  0
VISUALSTYLE
  5
8430
102
{ACAD_XDICTIONARY
360
8844
102
}
102
{ACAD_REACTORS
330
841B
102
}
330
841B
100
AcDbVisualStyle
  2
Shaded
 70
    27
 71
     2
 72
     2
 73
     1
 90
        2
 40
-0.6
 41
30.0
 62
     5
 63
     7
 74
     0
 91
        4
 64
     7
 65
   257
 75
     1
175
     1
 42
1.0
 92
        8
 66
   257
 43
1.0
 76
     1
 77
     6
 78
     2
 67
     8
 79
     3
170
     0
171
     0
290
     0
174
     0
 93
        5
 44
0.0
173
     0
291
     0
 45
0.0
1001
ACAD
1000
AcDbSavedByObjectVersion
1070
     0
  0
VISUALSTYLE
  5
842F
102
{ACAD_XDICTIONARY
360
8842
102
}
102
{ACAD_REACTORS
330
841B
102
}
330
841B
100
AcDbVisualStyle
  2
Shaded with edges
 70
    26
 71
     2
 72
     2
 73
     1
 90
        2
 40
-0.6
 41
30.0
 62
     5
 63
     7
 74
     1
 91
       10
 64
     7
 65
   257
 75
     2
175
     1
 42
1.0
 92
        8
 66
   257
 43
1.0
 76
     1
 77
     6
 78
     2
 67
     7
 79
     3
170
     0
171
     0
290
     0
174
     0
 93
        5
 44
0.0
173
     0
291
     0
 45
0.0
1001
ACAD
1000
AcDbSavedByObjectVersion
1070
     0
  0
VISUALSTYLE
  5
842C
102
{ACAD_XDICTIONARY
360
883C
102
}
102
{ACAD_REACTORS
330
841B
102
}
330
841B
100
AcDbVisualStyle
  2
Shades of Gray
 70
    23
 71
     2
 72
     2
 73
     3
 90
        0
 40
-0.6
 41
-30.0
 62
     5
 63
     7
 74
     2
 91
        2
 64
     7
 65
     7
 75
     1
175
     1
 42
40.0
 92
        8
 66
     7
 43
1.0
 76
     1
 77
     6
 78
     2
 67
     7
 79
     3
170
     0
171
     0
290
     0
174
     0
 93
        1
 44
0.0
173
     0
291
     0
 45
0.0
1001
ACAD
1000
AcDbSavedByObjectVersion
1070
     0
  0
VISUALSTYLE
  5
842D
102
{ACAD_XDICTIONARY
360
883E
102
}
102
{ACAD_REACTORS
330
841B
102
}
330
841B
100
AcDbVisualStyle
  2
Sketchy
 70
    24
 71
     1
 72
     2
 73
     2
 90
        0
 40
-0.6
 41
-30.0
 62
     5
 63
     7
 74
     2
 91
        2
 64
     7
 65
     7
 75
     1
175
     1
 42
40.0
 92
       11
 66
     7
 43
1.0
 76
     1
 77
     6
 78
     2
 67
     7
 79
     6
170
     0
171
     0
290
     0
174
     0
 93
        1
 44
0.0
173
     0
291
     0
 45
0.0
1001
ACAD
1000
AcDbSavedByObjectVersion
1070
     0
  0
VISUALSTYLE
  5
8428
102
{ACAD_XDICTIONARY
360
8834
102
}
102
{ACAD_REACTORS
330
841B
102
}
330
841B
100
AcDbVisualStyle
  2
Thicken
 70
    13
 71
     2
 72
     2
 73
     0
 90
        0
 40
-0.6
 41
-30.0
 62
     5
 63
     7
 74
     1
 91
        4
 64
     7
 65
   257
 75
     1
175
     1
 42
1.0
 92
       12
 66
     7
 43
1.0
 76
     1
 77
     6
 78
     2
 67
     7
 79
     5
170
     0
171
     0
290
     0
174
     0
 93
        1
 44
0.0
173
     0
291
     1
 45
0.0
1001
ACAD
1000
AcDbSavedByObjectVersion
1070
     0
  0
VISUALSTYLE
  5
8422
102
{ACAD_XDICTIONARY
360
8828
102
}
102
{ACAD_REACTORS
330
841B
102
}
330
841B
100
AcDbVisualStyle
  2
Wireframe
 70
     5
 71
     0
 72
     2
 73
     0
 90
        0
 40
-0.6
 41
-30.0
 62
     5
 63
     7
 74
     1
 91
        4
 64
     7
 65
   257
 75
     1
175
     1
 42
1.0
 92
        0
 66
   257
 43
1.0
 76
     1
 77
     6
 78
     2
 67
     7
 79
     3
170
     0
171
     0
290
     0
174
     0
 93
        1
 44
0.0
173
     0
291
     0
 45
0.0
1001
ACAD
1000
AcDbSavedByObjectVersion
1070
     0
  0
VISUALSTYLE
  5
842E
102
{ACAD_XDICTIONARY
360
8840
102
}
102
{ACAD_REACTORS
330
841B
102
}
330
841B
100
AcDbVisualStyle
  2
X-Ray
 70
    25
 71
     2
 72
     2
 73
     1
 90
        1
 40
0.5
 41
-30.0
 62
     5
 63
     7
 74
     1
 91
        0
 64
     7
 65
   257
 75
     1
175
     1
 42
1.0
 92
        8
 66
     7
 43
1.0
 76
     1
 77
     6
 78
     2
 67
     7
 79
     3
170
     0
171
     0
290
     0
174
     0
 93
       13
 44
0.0
173
     0
291
     0
 45
0.0
1001
ACAD
1000
AcDbSavedByObjectVersion
1070
     0
  0
DICTIONARYVAR
  5
87C5
102
{ACAD_REACTORS
330
87C0
102
}
330
87C0
100
DictionaryVariables
280
     0
  1
1:1
  0
DICTIONARYVAR
  5
87C2
102
{ACAD_REACTORS
330
87C0
102
}
330
87C0
100
DictionaryVariables
280
     0
  1
STANDARD
  0
DICTIONARYVAR
  5
87C1
102
{ACAD_REACTORS
330
87C0
102
}
330
87C0
100
DictionaryVariables
280
     0
  1
STANDARD
  0
DICTIONARYVAR
  5
87C3
102
{ACAD_REACTORS
330
87C0
102
}
330
87C0
100
DictionaryVariables
280
     0
  1
Imperial24
  0
DICTIONARYVAR
  5
87C4
102
{ACAD_REACTORS
330
87C0
102
}
330
87C0
100
DictionaryVariables
280
     0
  1
Imperial24
  0
DICTIONARYVAR
  5
87C8
102
{ACAD_REACTORS
330
87C0
102
}
330
87C0
100
DictionaryVariables
280
     0
  1
1
  0
DICTIONARYVAR
  5
87C7
102
{ACAD_REACTORS
330
87C0
102
}
330
87C0
100
DictionaryVariables
280
     0
  1
0
  0
DICTIONARYVAR
  5
87C6
102
{ACAD_REACTORS
330
87C0
102
}
330
87C0
100
DictionaryVariables
280
     0
  1
127
  0
DICTIONARYVAR
  5
87C9
102
{ACAD_REACTORS
330
87C0
102
}
330
87C0
100
DictionaryVariables
280
     0
  1
2
  0
DICTIONARY
  5
8850
330
845C
100
AcDbDictionary
280
     1
281
     1
  3
ACAD_XREC_ROUNDTRIP
360
8851
  0
DICTIONARY
  5
8854
330
8464
100
AcDbDictionary
280
     1
281
     1
  3
ACAD_XREC_ROUNDTRIP
360
8855
  0
DICTIONARY
  5
8852
330
8460
100
AcDbDictionary
280
     1
281
     1
  3
ACAD_XREC_ROUNDTRIP
360
8853
  0
DICTIONARY
  5
840C
330
840B
100
AcDbDictionary
280
     1
281
     1
  3
ACAD_XREC_ROUNDTRIP
360
881A
  3
BUMPTILE
360
840E
  3
DIFFUSETILE
360
840D
  3
OPACITYTILE
360
8411
  3
REFLECTIONTILE
360
8410
  3
REFRACTIONTILE
360
8412
  3
SPECULARTILE
360
840F
  0
DICTIONARY
  5
8404
330
8403
100
AcDbDictionary
280
     1
281
     1
  3
ACAD_XREC_ROUNDTRIP
360
8819
  3
BUMPTILE
360
8406
  3
DIFFUSETILE
360
8405
  3
OPACITYTILE
360
8409
  3
REFLECTIONTILE
360
8408
  3
REFRACTIONTILE
360
840A
  3
SPECULARTILE
360
8407
  0
DICTIONARY
  5
8414
330
8413
100
AcDbDictionary
280
     1
281
     1
  3
ACAD_XREC_ROUNDTRIP
360
881B
  3
BUMPTILE
360
8416
  3
DIFFUSETILE
360
8415
  3
FBXASSET
360
8520
  3
OPACITYTILE
360
8419
  3
REFLECTIONTILE
360
8418
  3
REFRACTIONTILE
360
841A
  3
SPECULARTILE
360
8417
  0
DICTIONARY
  5
884E
330
845A
100
AcDbDictionary
280
     1
281
     1
  3
ACAD_XREC_ROUNDTRIP
360
884F
  0
DICTIONARY
  5
8815
330
8456
100
AcDbDictionary
280
     1
281
     1
  3
ACAD_ROUNDTRIP_2008_TABLESTYLE_CELLSTYLEMAP
360
8816
  3
ACAD_XREC_ROUNDTRIP
360
884C
  0
DICTIONARY
  5
8826
330
8421
100
AcDbDictionary
280
     1
281
     1
  3
ACAD_XREC_ROUNDTRIP
360
8827
  0
DICTIONARY
  5
8824
330
8420
100
AcDbDictionary
280
     1
281
     1
  3
ACAD_XREC_ROUNDTRIP
360
8825
  0
DICTIONARY
  5
8832
330
8427
100
AcDbDictionary
280
     1
281
     1
  3
ACAD_XREC_ROUNDTRIP
360
8833
  0
DICTIONARY
  5
883A
330
842B
100
AcDbDictionary
280
     1
281
     1
  3
ACAD_XREC_ROUNDTRIP
360
883B
  0
DICTIONARY
  5
882C
330
8424
100
AcDbDictionary
280
     1
281
     1
  3
ACAD_XREC_ROUNDTRIP
360
882D
  0
DICTIONARY
  5
8830
330
8426
100
AcDbDictionary
280
     1
281
     1
  3
ACAD_XREC_ROUNDTRIP
360
8831
  0
DICTIONARY
  5
884A
330
8433
100
AcDbDictionary
280
     1
281
     1
  3
ACAD_XREC_ROUNDTRIP
360
884B
  0
DICTIONARY
  5
8838
330
842A
100
AcDbDictionary
280
     1
281
     1
  3
ACAD_XREC_ROUNDTRIP
360
8839
  0
DICTIONARY
  5
881C
330
841C
100
AcDbDictionary
280
     1
281
     1
  3
ACAD_XREC_ROUNDTRIP
360
881D
  0
DICTIONARY
  5
881E
330
841D
100
AcDbDictionary
280
     1
281
     1
  3
ACAD_XREC_ROUNDTRIP
360
881F
  0
DICTIONARY
  5
8820
330
841E
100
AcDbDictionary
280
     1
281
     1
  3
ACAD_XREC_ROUNDTRIP
360
8821
  0
DICTIONARY
  5
8822
330
841F
100
AcDbDictionary
280
     1
281
     1
  3
ACAD_XREC_ROUNDTRIP
360
8823
  0
DICTIONARY
  5
882A
330
8423
100
AcDbDictionary
280
     1
281
     1
  3
ACAD_XREC_ROUNDTRIP
360
882B
  0
DICTIONARY
  5
8846
330
8431
100
AcDbDictionary
280
     1
281
     1
  3
ACAD_XREC_ROUNDTRIP
360
8847
  0
DICTIONARY
  5
8836
330
8429
100
AcDbDictionary
280
     1
281
     1
  3
ACAD_XREC_ROUNDTRIP
360
8837
  0
DICTIONARY
  5
8848
330
8432
100
AcDbDictionary
280
     1
281
     1
  3
ACAD_XREC_ROUNDTRIP
360
8849
  0
DICTIONARY
  5
882E
330
8425
100
AcDbDictionary
280
     1
281
     1
  3
ACAD_XREC_ROUNDTRIP
360
882F
  0
DICTIONARY
  5
8844
330
8430
100
AcDbDictionary
280
     1
281
     1
  3
ACAD_XREC_ROUNDTRIP
360
8845
  0
DICTIONARY
  5
8842
330
842F
100
AcDbDictionary
280
     1
281
     1
  3
ACAD_XREC_ROUNDTRIP
360
8843
  0
DICTIONARY
  5
883C
330
842C
100
AcDbDictionary
280
     1
281
     1
  3
ACAD_XREC_ROUNDTRIP
360
883D
  0
DICTIONARY
  5
883E
330
842D
100
AcDbDictionary
280
     1
281
     1
  3
ACAD_XREC_ROUNDTRIP
360
883F
  0
DICTIONARY
  5
8834
330
8428
100
AcDbDictionary
280
     1
281
     1
  3
ACAD_XREC_ROUNDTRIP
360
8835
  0
DICTIONARY
  5
8828
330
8422
100
AcDbDictionary
280
     1
281
     1
  3
ACAD_XREC_ROUNDTRIP
360
8829
  0
DICTIONARY
  5
8840
330
842E
100
AcDbDictionary
280
     1
281
     1
  3
ACAD_XREC_ROUNDTRIP
360
8841
  0
XRECORD
  5
8851
102
{ACAD_REACTORS
330
8850
102
}
330
8850
100
AcDbXrecord
280
     1
102
DISPLAYNAME
  1
Imperial24
102
FLAGS
 90
        0
  0
XRECORD
  5
8855
102
{ACAD_REACTORS
330
8854
102
}
330
8854
100
AcDbXrecord
280
     1
102
SHADEPLOT
 70
     0
102
SHADEPLOTRESLEVEL
 70
     2
102
SHADEPLOTCUSTOMDPI
 70
   300
  0
XRECORD
  5
8853
102
{ACAD_REACTORS
330
8852
102
}
330
8852
100
AcDbXrecord
280
     1
102
SHADEPLOT
 70
     0
102
SHADEPLOTRESLEVEL
 70
     2
102
SHADEPLOTCUSTOMDPI
 70
   300
  0
XRECORD
  5
881A
102
{ACAD_REACTORS
330
840C
102
}
330
840C
100
AcDbXrecord
280
     1
102
MATERIAL
148
0.0
149
0.0
149
0.0
 93
        0
 94
      127
282
     0
 72
     0
 77
     0
171
     0
175
     0
179
     0
273
     0
  0
XRECORD
  5
840E
102
{ACAD_REACTORS
330
840C
102
}
330
840C
100
AcDbXrecord
280
     1
270
     1
271
     1
  0
XRECORD
  5
840D
102
{ACAD_REACTORS
330
840C
102
}
330
840C
100
AcDbXrecord
280
     1
270
     1
271
     1
  0
XRECORD
  5
8411
102
{ACAD_REACTORS
330
840C
102
}
330
840C
100
AcDbXrecord
280
     1
270
     1
271
     1
  0
XRECORD
  5
8410
102
{ACAD_REACTORS
330
840C
102
}
330
840C
100
AcDbXrecord
280
     1
270
     1
271
     1
  0
XRECORD
  5
8412
102
{ACAD_REACTORS
330
840C
102
}
330
840C
100
AcDbXrecord
280
     1
270
     1
271
     1
  0
XRECORD
  5
840F
102
{ACAD_REACTORS
330
840C
102
}
330
840C
100
AcDbXrecord
280
     1
270
     1
271
     1
  0
XRECORD
  5
8819
102
{ACAD_REACTORS
330
8404
102
}
330
8404
100
AcDbXrecord
280
     1
102
MATERIAL
148
0.0
149
0.0
149
0.0
 93
        0
 94
      127
282
     0
 72
     0
 77
     0
171
     0
175
     0
179
     0
273
     0
  0
XRECORD
  5
8406
102
{ACAD_REACTORS
330
8404
102
}
330
8404
100
AcDbXrecord
280
     1
270
     1
271
     1
  0
XRECORD
  5
8405
102
{ACAD_REACTORS
330
8404
102
}
330
8404
100
AcDbXrecord
280
     1
270
     1
271
     1
  0
XRECORD
  5
8409
102
{ACAD_REACTORS
330
8404
102
}
330
8404
100
AcDbXrecord
280
     1
270
     1
271
     1
  0
XRECORD
  5
8408
102
{ACAD_REACTORS
330
8404
102
}
330
8404
100
AcDbXrecord
280
     1
270
     1
271
     1
  0
XRECORD
  5
840A
102
{ACAD_REACTORS
330
8404
102
}
330
8404
100
AcDbXrecord
280
     1
270
     1
271
     1
  0
XRECORD
  5
8407
102
{ACAD_REACTORS
330
8404
102
}
330
8404
100
AcDbXrecord
280
     1
270
     1
271
     1
  0
XRECORD
  5
881B
102
{ACAD_REACTORS
330
8414
102
}
330
8414
100
AcDbXrecord
280
     1
102
MATERIAL
148
0.0
149
0.0
149
0.0
 93
        0
 94
      127
282
     0
 72
     0
 77
     0
171
     0
175
     0
179
     0
273
     0
  0
XRECORD
  5
8416
102
{ACAD_REACTORS
330
8414
102
}
330
8414
100
AcDbXrecord
280
     1
270
     1
271
     1
  0
XRECORD
  5
8415
102
{ACAD_REACTORS
330
8414
102
}
330
8414
100
AcDbXrecord
280
     1
270
     1
271
     1
  0
XRECORD
  5
8520
102
{ACAD_REACTORS
330
8414
102
}
330
8414
100
AcDbXrecord
280
     1
 70
     1
 90
1959938040
 71
     1
  1
C100F9CD-E5F4-40A6-993C-5EE265D28DAC
311
504B03041400060808007D747857DE14DD4AB9000000200100004F00000035304644324636392D333245372D344132452D383238302D3436374343333138383835392F4173736574446174612F446566696E6974696F6E4974657261746F7250726F706572746965732E62696EEB606060F80F0540260323103700495E20ED
311
9E9A975A94991C9C9C919A9BC8C00612C9C94F4ACC6147C831019920AE4B6A5A62694E0948976F6671726A4E4E625E6A7E69B12042A9426E6209D0B8C41C3D90264E20860914834C48875806B2DF0F88414E02D189290556F689C5C5A925B6FA694915FACE064606C6CE2EAEBAA6AEC62EBA26E6466EBA4E2E2E26BACE864E
311
AE46262616E626A616FA45A9C5F9A545C9A9C5FA46FA06F15093E30BF2D28106E200C86180AC0400504B03041400060808007D7478571145C7C503010000300200004500000035304644324636392D333245372D344132452D383238302D3436374343333138383835392F4173736574446174612F496E7374616E63655072
311
6F706572746965732E62696EEB606060F80F0540260323103700495E20ED9E9A975A94991C9C9C919A9BA802147036343070B37476D175357533D135317034D3B5B43476D63575753532337531B2707174664768046931363471713532B5D435353131D635313332D475727372D13534373670367376B67474B5042A03DBCB
311
A019D37FE8ABC6157B20CD04146B0062181F4C03F940F0C11EA29A8141C08141002C0426541C106CAC2CA046088033B02A030AC2157C6006F21A8018AAF50194E6010A610250382264E08660284CD9E98021862280A91564B406929A0FF62C401E28B6F88038B83CB1243943D7A928312F25350524C3C0A0DD70F56A833698
311
09E6AC0A85B251645054A1A983A947A601504B03041400060808007D74785728BB58AF800100009E0500003D00000035304644324636392D333245372D344132452D383238302D3436374343333138383835392F536368656D61732F436F6D6D6F6E536368656D612E786D6CBD544D4FC23018BEFB2B96DE15493C78601010
311
A34B880709DEDFB52FD0D8B54BD70DF6EFED3AC0B12E6442E2716BFB3CEFF3D18E26FB440405EA8C2B1992E1C323095052C5B8DC842437EBFB673219DF8DA659866649B798C078B48AE6410122242F2A4994AC7F93815DF85C049C8564CA0A901499DD886B2EB9B1E02448F358701A9235880C49A0119892A20C89D1B9FD76
311
8815CAD268CB5E0355B40B1E47F3E37A2020464BED06AA57CE8FCC20C3C3446D46761A2632A8C1283D07031EFF2AE7CCB1BFEEE916E406DFAC8E36FFD99A9D60A6944090EEDC3B670C7DC13DE86B6B2C5C240D6E503BB85ACD579D513F1B9F9A69DC9CC22AFA80C426D40AF0B21EA168559156B6276F0F726A6BFF04DCD513
311
A87A62CAD41FB24FCB2858B3952E3D852084DA25B9303C15687973CC8E8AAE11DF2836C38C6A9E765E8C1BA1BFB1DC29CDFE518C8B5A7655A4ED7E77291ABEB80DBD82EC866ADE1B8D05AF9E35CF09D7A061F38A986D9EC412B8F0F65E5D81534D9B231D1E5A8FE577A241F3A5FD01504B03041400060808007D7478572CCE
311
BD668A040000E01200003E00000035304644324636392D333245372D344132452D383238302D3436374343333138383835392F536368656D61732F47656E65726963536368656D612E786D6CD5586D6FDB380CFE7EBF42F0F7A649B70E1B90744856B4970F450FCD7A5F05459613EDE4174872DADCAF3F522F8ED3B88D2F1D
311
06AC4050DBA2493EE4438AF2F8EB73AEC8466823CB62928C06C384888297A92C5693A4B6D9D9E7E4EBD51FE3A931C22EF85AE4EC6AFC38BF261BA626C9AD288496DC3F4FCEAFC63366845F7A10452AF41DB320C0D44EC26EAB20918735565582695670811A6A49643A49A6E9069FA4604A64B29016DC4B48552F95E4932463
311
CA888468C1D2B250DB4962750DF7CE273069CE8363F1FF4EDB00E0A21999574AE4A2B00C353B93F3BD4777B8A61ED8F604ABFEDD79CE56A2B7BDFBDBC50996E0ADDE16FED26223C5D30956C29BDF4A55EA686E5E58B112DA45CE67F76F4FA27EFA3FB672FD7372FC388FAECDCA5209E693CAD167BADCD272F943701B3812F8
311
A3D852008B1D2E32DB927B2F833C6EA95879925356D254582695095A3CE982924720BE5774A3CB9CDCDB350427D2DF20DA1B5532EBE2D5D6288D75D4F7E4FD9890A0EF8E3D93EBB8F8BA4758158EF6FB90A6F9520281C93DE7AAC6D24607DA296BB96018123F821A7D6A5C5884050C475DA4865442732C8B95684A50165CBB
311
3A32F25F783A4A480ED59AD7F924B968AEA50131F46303223E6A397B0E52976030DC1DCA81D7E7C1EDEEA42C19FF27635C505E2BD5198A599020DF50A2330FCB3AAF28CB0124108429553EF1B228802E2265D8F7CC2401042B155BCC7070F1E5C55F13B4A9577362CCCE46C32174E010C3C378C44841A4BDA00FE3A12006CE
311
11EE6AEC59894D3526DDE1CD59D503ECC324017F8061B7F162162FA62EDD81AE3308617770796DCBDAD2B2625C5AE8A63DE20B2C8AA5E95E76E5730823955956E33E705425A2187C185D36489A1B44D3DCEC2172F6BA2105C3546287A7194B2331768EBBE64F6E70A9930ABE0ADEA89E9E2C38523B810287AD67A54A039C16
311
06EAFE68F8304610BB9093DBDDABC0B2AE4E290DCDA15376D7E39F72B556F0B32EAB5D3D498B4C41ABADEC3A1434C422D87E8025A84BDCB2B1417ED750FAE4DA8976863974C577C7F902D3F156AD354DEA3540DE6BEAE2BEA52F7A2EB4CA43802ECE5BF2CE2EDC9347179FFB023CE412E60BE16DA0BE29B374988A553F561D
311
C04615DD35F7D2C8979F60E5955CE93DF29DED8AFA1EE6642D53418086C03C47C377910F75F7E8F5EF665F70B60FFB22AEDF897D119E8423C773E819A3C1E55E550599EE6EDCA34D0C86FD72057DF2CD46F16A470682471C164E4346D5306BF12D7D12D82CFF673D41636C347443FEB51B50D72EA171A8E4A58623A4A16E0F
311
A2B8B10A0D23268D87C33896EE8FB73305A74BF224EDBADFA0BD674AB354D63DB7BD5D83426761C077DE767728235446A552754EB93B755891C3C4CC6CADE37CF0E912A7BB38DBA010F9DE1282EDF470CA69A9CDA482E334C4A6EA4107987980B17E72F31730EBF88BBD39E7C629F56797A3C0009C2C5AE7951D9A05A02773
311
440F02EEB4DE396A3B6A570C72CCFBCD823B0B8ED3F1D5CEDDFED772FA70236C83FB7D86C385D570B87107535572A60A96035F8F7C6A7192F13007246BBE0521855E6AC46F3E27689CEE7D186A6FD679D98CDCAD13333E04EBE7ED6F55FF01504B03041400060808007D7478576180134D5F0100006B030000450000003530
311
4644324636392D333245372D344132452D383238302D3436374343333138383835392F536368656D61732F52656E6465724D6174657269616C536368656D612E786D6CA5934D6FC2300C86EFFB1551EEE343DBA41D1A103009551ADAD40EAE28A4A68D9426284961FCFBE5A340113B2071746D3F765EBF4DC6BFB5407BD086
311
2B49F0B037C0082453059725C18DDD3EBFE3F1E829991803366715D474942CD30FB4A782E00C64017A412D684E454CE3FE28995203B162A6EA5AC94B66997D225E109CD63B0135484BAD1B3C07E9080CA35DB3119C11BCA5C200461A68A1A438126C75E3E230D40FF81FB3F03C91D1E3A3A0AF79FE28E25BC39EC3E17E4C2A
311
2D94A0833A51AF55BCCA7D88572FCBAC529C4140B020FC3AAFA886621DCED7EAD7664CC86024E806DC297DA1BB393E4156543457A4537DB8817349A70F8ACBF09B3EEE2CB2F33E91B65D60786E4E3B39B77E3FEEEF5650424525DA657FB8B46BE6BF064646F0A0F7327C0BC1BC1B4CBBC1C419FA3CCB23500007872A2580CA
311
AE5461865565294E4EDB4617B62FF579DF9A5B2F54E834076A597573A020912FED777F9B3F504B03041400060808007D747857289894FB51000000570000004700000035304644324636392D333245372D344132452D383238302D3436374343333138383835392F4173736574446174612F41737365745461626C654F6643
311
6F6E74656E74732E62696E536160607036343070B37476D175357533D135317034D3B5B43476D63575753532337531B27071741602AACB4D2C492DCA4CCC492C28484D2C4ACC4B4E050A82012F90744FCD03CA26072767A4E6260200504B03041400060808007D747857F86583405800000068000000450000003530464432
311
4636392D333245372D344132452D383238302D3436374343333138383835392F4173736574446174612F53747265616D56657273696F6E5461626C652E696E66558CBD0A80300C06F73E4B117FB66E451741D041DC5BF98480A492E4FDD18EAEC7DD4555D89EF28DF51A0B1BD8340C4DE7DD848B988C0ACF0649566493F240
311
8C508DDEBB99D5129FF8F1AF8CF5B9503E20FAE5A16B5AF702504B03041400060808007D74785711060A54350100009A0400003600000035304644324636392D333245372D344132452D383238302D3436374343333138383835392F4173736574446174612F636E782E786D6CCD94316FC3201085FF8AC56E889D448A224C
311
54B54BA6566AD4A1DB059F13140C169CABF6DF17120FAD5275CA90F578773C3EF14E6E3E7B5B7C6088C6BB86557CC60A74DAB7C61D1A365257AE58B15132784F3F64AC70D063C372992979087E1CA6528B1D8C3657AD71A7A9F81023D20EF6169FBB47EF081D4556680B31362CEA23F6C06124DF623CF1160878C503463F06
311
8D6912991EA7493A2010B64CD5B37A5E5655592F76D5623D5FAE97AB7729B252C9BDF776D29B7459F043A12FB7323593221F2B39063369F25B98FACB23DF1B2745522A1929242653077D0DA90386C11A0D94D009AF09A94C22845E8A8B58499119FC22F1849D7126B76C9331201F5E923D0C64F0EE88FCE7F5F664B62E1238
311
8DF7CBE3DAE1ED29BC9E7FD0DB2590E7C4DC5B4EAE1D72E3BA1BA4449CD7480A4DDE2AEA1B504B03041400060808007D747857EFF2DB90090100004F0300003400000035304644324636392D333245372D344132452D383238302D3436374343333138383835392F536368656D61732F636E782E786D6CCD93BD6E03211084
311
5FE5446FB83BDB926571B848912A4D922A1D81B58D0CEC899F2879FBC085C296D225853B183EA19961E1874F67BB0F08D1A09FC8407BD28157A88D3F4D24A7E36A47BA83E001315D61A4F3D2C144AA4C043F05CC7393341C65B655B5C65F9AF880CEA17F5167709274CACA182712972D9539A18678A15A2649071A20620E0A
311
CA0DC9386837A80032812662ECC7F56A1856E3E675D8ECD7DBFD76F7C65925057F47B48D373E41C0B9535816BED8E939ABC782E7601A53331071ED8D9636382B84E03185D24123D3D75C4839CFD628994A556C017F18C1598D7A13F8113C04A3EE33F18DB97F8BFC0C5E43782AAF148CB4F799FC378F7F2B802DB35F46A07E
311
05F10D504B03041400060808007D747857410A3D5871000000A40000002C00000035304644324636392D333245372D344132452D383238302D3436374343333138383835392F636E782E786D6C55CC4D0E82301086E1AB34B31774E7A22D31F1069E60020334B633A63FC6E34B0909B07DDE2F9FEE7EC1AB2FC5E4840DDC9A
311
2B28E25E06C7938192C7CB1D54677514C9871928C640062A83D55394F2D968A0118BAFEA1DBF377CA444F98919176EAB9FEAAB9F2960DA5BBB1E2ED3FA6FFF504B03041400060808007D747857C65FE9687F000000A300000007000000636E782E786D6C4D8CCB0E832014057F85DC3D2DE2EB9A00A6B1FA1FA6A231223454
311
9A7E7EA171D1D549266746B49FDD90B7F6AFD55909D98501D1F6E1A6D52E12C2315304D22AE19D3BFE6E40ECB86B090983128B77E179A249CF6330899AD56E272CD970E743D5D09CF7352D6EBCA7C891D1A2AABB2ECF10B16CA2714D4A9C5F2F6ECAAB2F504B03041400060808007D74785716E99B5DA60000003501000013
311
0000005B436F6E74656E745F54797065735D2E786D6C9590410E82301045AFD2740F4517C6180A0BF5065E60AC53688469D30E066F6F91AD9AB89CF9FFFD3F99BA9DC7413C3026E749CB4D59498164FCCD51A7E5C4B6D84BD136F5E5193089ECA5A465CF1C0E4A25D3E308A9F401292BD6C711388FB15301CC1D3A54DBAADA
311
29E38991B8E0254336F5092D4C038BF39CD76B6FC6A538AEBEA54A4B08617006389FA516557DE4AE8E7E70DE30729138228C5F021CD93F02D4FB0DCD0B504B03041400060808007D7478573DEE336E64000000790000001B0000006175746F6465736B2D64657369676E2D7061636B6167652E786D6C35CBC10E83200C00D0
311
5F21DCA56CA76D41FC96062B120735B69A7DBE268BB7777961F8D5AF396893C2ADB70FE7ADA196782C2DF776D7A97B5933C430F15651E5469C55D70F80A4992A3ADC954792C525AE70A1E4D6AD9816CC044FEFDF01FE3FDE907802504B03041400060808007D7478570011AE71F90000009601000037000000353046443246
311
36392D333245372D344132452D383238302D3436374343333138383835392F4173736574446174612F636F72652E786D6C8550CB6E833010FC15B47703361020328E689B7C414FBD59C62156828DFCA8FAF9B50395DA534FBB9A9D99DD1D7AFA5A1ED9A7B44E193D00CE4BC8A41666527A1E20F82BEA203B316A8DF1BF6890
311
69BEC801120C8CCED684758784D15EEA846A33C91DE4CE490F9978C46600276E72E1390F3E32DC3D5FB9B8F359E638DF788C86A0A65DAAA6E8A6AE4A5A608797F3A56FBA1E8DCD85A0BAEF4B34B6AF0784BB735D8D3D69BB16D3228919F56AF9D92EACE45E4EC048492A843122F53BAE8F55736CBA0F5A2426A3CEDBF8F3BE
311
347D076C4C57BF71CF69B14DFFB88675FADF3528ED2BB2BB6E0A072C1DF91C305AA494627946186B4A947D03504B03041400060808007D7478571CE0320AF7000000940100003500000035304644324636392D333245372D344132452D383238302D3436374343333138383835392F536368656D61732F636F72652E786D6C
311
8550CB6E833010FC15B477436C2040641CD12AF981F6D49B651C6225D8C88FAA9F5F1BA8D49E7ADAD5ECCCECEED0F3D7FCCC3EA575CAE81E707E804C6A6146A5A71E82BFA116B233A3D618FF8B0699E6B3EC21C1C0E8644D58764818EDA54EA836A3DC41EE9CF49089676C7A70E22E679EF3E023C33DF2858B079F648EF38D
311
C768086ADCA56A8C6EEAA6A405767CB95CBBBAEDD0505F09AABAEE8086E6F588707BA9CAA1234DDB605A2431A35ECD3FDB8595DCCB1118399012618C48F58EAB53599FEAF6831689C9A8F336FEBC2F4DDF017B5BEF74B4D8667F3CC332FEEF1994F625D93D378503964E5C078C1629A358D600634D79B26F504B0304140006
311
0808007D747857DE2537C901010000D70100002D00000035304644324636392D333245372D344132452D383238302D3436374343333138383835392F636F72652E786D6C95914D6EC3201085AF82D8631B6C2724C244559A9CA0ABEEA899A4283158FC543D7EA176D576D7AE408FEFCDF066C4E17DBAA337F0C1383B605A35
311
18811D9D36F63AE0142F84637490C23B177F60185935C1808B8CA5B87A97E6551A9D8D608B6A9D8655542140C468BCE7CB80C3F80A93AA548A9908B76A56E34D5DA1A2D5C24911CDF4651D3DA8081A4BD6B096504A58F744BB7DDBEF7BFE2CEA424A918C8D2D5B9BC1F4021AB939E64858F6A25E5E33958C5E19A3F31FCDC5
311
80CF44737E64E7CD8EB4ECB425DD033B11CE7843BACDF6786C29E7BCDFE522D92C45883E4F662D5266F057FB62FC952CCDFA9FC91647C0927E87AACB98A5A83F7790CFB212F901504B03041400060808007D747857A088DBBC07010000B201000008000000636F72652E786D6C8D50C16E842014FC15F2EEA8A0AEBA4136B6
311
D9FD829E7AA3C2BA64158CE0A6FDFBC26A93F6D6D32333F3DE0CC34E9FD3881E6A71DA9A1648920152A6B7529BA185D55F710DE8C4D962ADFF250364C4A45A883070362C769D77A8B7C62B135163A5DA41E19CF280FA313C5A70FD4D4D2211AB0F0A774F66D1DFC5A012926C3ACEBC9E7E56FB4509AF24709AD11C138269F1
311
468A635E1ECBFA9DA551C9D9BA6AB95B6919DCF555AB05F8E1E57C69CABAC15D79A1B8689A0C77D5EB0193FA5CE45D43ABBA222C8DCB9C39BF843FEF47424E8F9C78445F966E14671FD68EBB208492C89AF10B78C6D248FC09BDCEF21FA1B5F139DD0F6E1B0E780CF42482716C308C67BD61C6B6F937504B01021400140006
311
0808007D747857DE14DD4AB9000000200100004F000000000000000000000000000000000035304644324636392D333245372D344132452D383238302D3436374343333138383835392F4173736574446174612F446566696E6974696F6E4974657261746F7250726F706572746965732E62696E504B010214001400060808
311
007D7478571145C7C5030100003002000045000000000000000000000000002601000035304644324636392D333245372D344132452D383238302D3436374343333138383835392F4173736574446174612F496E7374616E636550726F706572746965732E62696E504B010214001400060808007D74785728BB58AF800100
311
009E0500003D000000000000000000000000008C02000035304644324636392D333245372D344132452D383238302D3436374343333138383835392F536368656D61732F436F6D6D6F6E536368656D612E786D6C504B010214001400060808007D7478572CCEBD668A040000E01200003E0000000000000000000000000067
311
04000035304644324636392D333245372D344132452D383238302D3436374343333138383835392F536368656D61732F47656E65726963536368656D612E786D6C504B010214001400060808007D7478576180134D5F0100006B03000045000000000000000000000000004D09000035304644324636392D333245372D3441
311
32452D383238302D3436374343333138383835392F536368656D61732F52656E6465724D6174657269616C536368656D612E786D6C504B010214001400060808007D747857289894FB510000005700000047000000000000000000000000000F0B000035304644324636392D333245372D344132452D383238302D34363743
311
43333138383835392F4173736574446174612F41737365745461626C654F66436F6E74656E74732E62696E504B010214001400060808007D747857F865834058000000680000004500000000000000000000000000C50B000035304644324636392D333245372D344132452D383238302D3436374343333138383835392F41
311
73736574446174612F53747265616D56657273696F6E5461626C652E696E66504B010214001400060808007D74785711060A54350100009A0400003600000000000000000000000000800C000035304644324636392D333245372D344132452D383238302D3436374343333138383835392F4173736574446174612F636E78
311
2E786D6C504B010214001400060808007D747857EFF2DB90090100004F0300003400000000000000000000000000090E000035304644324636392D333245372D344132452D383238302D3436374343333138383835392F536368656D61732F636E782E786D6C504B010214001400060808007D747857410A3D5871000000A4
311
0000002C00000000000000000000000000640F000035304644324636392D333245372D344132452D383238302D3436374343333138383835392F636E782E786D6C504B010214001400060808007D747857C65FE9687F000000A300000007000000000000000000000000001F100000636E782E786D6C504B01021400140006
311
0808007D74785716E99B5DA6000000350100001300000000000000000000000000C31000005B436F6E74656E745F54797065735D2E786D6C504B010214001400060808007D7478573DEE336E64000000790000001B000000000000000000000000009A1100006175746F6465736B2D64657369676E2D7061636B6167652E78
311
6D6C504B010214001400060808007D7478570011AE71F90000009601000037000000000000000000000000003712000035304644324636392D333245372D344132452D383238302D3436374343333138383835392F4173736574446174612F636F72652E786D6C504B010214001400060808007D7478571CE0320AF7000000
311
9401000035000000000000000000000000008513000035304644324636392D333245372D344132452D383238302D3436374343333138383835392F536368656D61732F636F72652E786D6C504B010214001400060808007D747857DE2537C901010000D70100002D00000000000000000000000000CF140000353046443246
311
36392D333245372D344132452D383238302D3436374343333138383835392F636F72652E786D6C504B010214001400060808007D747857A088DBBC07010000B201000008000000000000000000000000001B160000636F72652E786D6C504B050600000000110011005A060000481700000000
310
504B03041400060808007D747857000000000000000000000000370000006662782F38464643343737342D464638362D344444412D394235412D3830413142433030393541372F617474726962757465732E62696E504B03041400060808007D747857000000000000000000000000350000006662782F3846464334373734
310
2D464638362D344444412D394235412D3830413142433030393541372F76657274696365732E62696E504B03041400060808007D747857F270F1330600000004000000360000006662782F38464643343737342D464638362D344444412D394235412D3830413142433030393541372F747269616E676C65732E62696E6366
310
60600000504B03041400060808007D74785751464CB48900000043010000360000006662782F38464643343737342D464638362D344444412D394235412D3830413142433030393541372F6469726563746F72792E786D6C9D8F310EC2300C45AF127987122606C71DD918B841D4B851A43646695A717C52A85029031293A5
310
A76FBF6FACEF7DA7264E43906840EF0FA03836E242F406C6DCEE4EA06AC22492573150D1F66C60C640E8938CB705396EEDD86DE9B5042FE27813D640EA63BB001C722AF6E55CB61E4863F58284D5D3F53DD715CE1C3985E63FD7F1B7EBDD617E9F1E504B03041400060808007D7478572EDD414E38070000201C0000340000
310
006662782F38464643343737342D464638362D344444412D394235412D3830413142433030393541372F6F626A656374732E786D6CDD59596FDB3810FE2B84F665F741978FC42E1417899D14469136A8D1C5BE09B44C39DCE8022925CEFEFA1D52A42CC9B2AD645BA0D80488159A1CCE7C738FBC8FBB3842CF84719A265786
310
6B39062249906E68B2BD328A3C342706FA38431E4BD3BCB6CF40098EC99521968D99B7656991A9A50D097111B557EF6EFE423C200931501061CEAF0C1E3C92185BB8C8D30DE14FD606E7D8DA863BCBB5CA8D4DB25B86B3C7D655196624C98155584F808AE2C06DFE0B22D933CF161B1ADB06FDB60D4F6CB3A5E04D4669C273
310
9C04075CB5E80CFA713574478BDBC1786A8E47A3A139BA18B8E6CDDDCDC2742F87CEFC623E9F5EDF4E0D34F3D6691A550AC848B2012DBE1A33D7B3C53795F80A852EBE83344948A0D0ECDAB0218A2E25BC8D490358578A565348296B6D61D853F823DB7A81D260A981B6164E7FD6AD375DFF0D20F03E56CA381156CE7306BA
310
56D897FEE07876B9DAD00BE528C63961144728A26B86192808B6960A6A9011DE2248218199D4A2A657E7150CFBBC2F757119165124FCD798494FF3C11F49CE2567F41FC2F6DCD76F039E40DA8226F944099BBF664062EAD972B1FC6E38505F9640A230C25BB01610536C1A0E5A78CD452C582E8CD9E7BBF56E25E243F7E519
310
4B33C2726179D29995DF690DD64C0B8CAF072825AE4DDDED51F906D07F01E42B5E90079A637437DA8DB4EC0C273C4C590CDA410E321DF8E320F178F0E4D9D5E119428D58790C5370DB1F8469438CC6DD354867DE33187DCA864AB8558023B0E97B9A083F074341510A4B10EFC3F5CE982D2198C2229CC211480FBF9E2D1E11
310
7C947420DEB434D4157E7B284A3B4CDBCFF6BAFA0436C36850A9AA21E3317CC73F04DFEBC5EAF3AA60210EC8BD72EC050969427348A6DD0C35406FB8FCF7E517E99107F234760570CF361581A3432F2BA517241503AC883C5CAA46AEDC5370F728C209490BAED6BB0255904629F3D7AF7EE9C39D77FDA98DA0BC0CFC5B5840
310
673083EC1E309A09508C9912AF8A84D61E27110795016E4BA5FA6B1C3C0978FD0022D67BF800ABC5AC4DB488331FC7699188F07D68DE6DD1ACA1237F5C773A70A683C9F4420BCB2579ED3D3A3454CC8B7B629C1DB964DED0968A1A9A72E9472388965D1204503315B99F6638A079B72DB484501E0A609F647943C3B0E010D4
310
3B6169716C0DDD31726A7FAB4B4E73AF2EF1698CB7C40FB1C8709DF73500AA886B093A91D94629E734215C56280791AB858A63412028ED5653ED3042CAFD98E4F83DF627535ECBFC1809231F6AA95C54B3E7AD4F33A8B2E7318AA2724B135FCAFFEA731C675159A59DC3C01DB46EE8C455302DAE78067BF371EE3B1B228BEE
310
73D4ABB8A0F1ED457DFA6EF247E061F8A7C3A3AFA0507A438E3CAF59D71ABB53F13381A072317687975A11E7B0D257E5A206890AA89A8257FF85D0ED63BF80D6EB1E4EA2D0A75154C47E990F7212430986F382F5F2D78BB173A07C15175A0E51BB29A41114C8BD83A6AC3D74F50152C9E2E358D0AC5D0342D1047AB45E821C
310
48D169C25217B21F156DD779EDBF9DEA7F8E97F53EE589BCBEA46CD3C969B38CD015982E1844B85419AEB2234979E6D59D2F968DCB791C469A888A6F6597A02C8491672A0613B203EAEC1FF80BCE0308A42BF969DE80476CC8665F5334C8A9318731834B35355DA7D63B1D0876227D340AAFA508A8314C1BB088B3F7E221FA
310
8641D550F9715B553576B9BE1489CD82C1CA9E8F13B4BE7E5AB5A8C04AEFD30F0223F2D2A2A056E7A2903B41EAFB725FAFB6282889BE2F4F1CCF1F8B789D602A32A3300BBCC93E7C94BDE4950D8D823D7706CE70BEB835C7B7C38539BA1CDC99378BC5C89CBB37B783D16872391A4F6C46785AB080707B603BBEAE9DB264AB
310
0DA384AE4F47015385F3AD9FB6E7B682FFC71D4594AEF1315BFC551B8AAADC130559CB17FB36149D817AFDB6EADF3D08D4DD49EC4D9573392BD0067E3A6D4130D2F9BE7F69A149EB4AA29BE75A467C63E23DDAADFCF41CD308E89DF9A1B1A32BE4376331CC9E3AB294EE6E655C9BBB8E73379D2FCCDBF1DDC81C39D717E674
310
3A9C4358BB85C26D31982CAEA135527D84CA857DF3CA2F114335B3B5311A4C83791A5118CA930DDA92143A20983AF488AF2C265C76365000A834AEDF08F438FD5CCE5473BC8EF4E9E011C3603A5219B90860280A5DC795A1D6D16F3006159348399CB29E20F1286B3750C1E89501269053C82FD61AC659727828A9B7C695A0
310
369C6C45CF549EAAFEDF1F13E880ADECE5AAF6F4C14549D6B04E180E64F23D01443B5D90BC5F74CD0EC2393CAE8BBC1266BFB0974681A05F0894C2C1D4EF49C1BB83C0735A2ED7927B1A90F49ACC9FB48392AA9963B695E3F51ADED78B075B4CC6975F5116155BA1CE53F9BE41C9147546549443280F0C43899961D187CF3F
310
D80F2C85574C31BAA36004E8F7DDE4E20F7B9EC6719A944BF6B57A5185568FF0DA6963EB911F142E8E3BB665DDA3C6FA30B7E2C4C21BFE040BA05A46C56CB484B861005578AA1980D688D0051C6BEC5F2E904A02B512B65EBA0A78E44C1F8123897739C26DEA1B6A0348F005E0AA9CD3560F7AC1B3190CC167FF02504B0304
310
1400060808007D74785745A690AF3E01000046050000300000006662782F38464643343737342D464638362D344444412D394235412D3830413142433030393541372F636E782E786D6CCD94CF6A032110C65F45BCAF9BCD1F08C135D0439FA087D29BEB4EB636AE2E3A96E6EDABA9495B4A4A0F81F426E337F0FD663E866F
310
DF46435EC107ED6C4B1B36A304AC72BDB6434B23EEAA35255BC1BD73F84546899523B43497A9E08377712AA51E76329A5C35DAEE4B51227ADD458440893232849606F50CA36432A2EB21EC592F51B28679082E7A05A91FF508A55F7990083D15F3D97C51354D355F3E34CBCD62B559AD9F789D958277CE99A2D716C1BB8928
310
971E369999F13A7F0B1EBD2E9A4C40C5A733D669CBEBF42F78486EED50747898B26E9A8C5612D3986AA710B04A229023AF3FC482D799F71BF5FDDDE3C901E9B50785CE1F6E3480E6D200CEC6584AC2DFF88FC2DFB15DF792706FB5ED8BB0C5D6D5504F690D29AE3FF79F5224ED60FE5FE8CFC6AE9FF9744A50ABFF877CF275
310
25E2FA78F2D2D2F30514EF504B03041400060808007D7478574E824DF27E000000A30000000B0000006662782F636E782E786D6C4D8CD10A832018465F45FE7B37039B066A58E17BC4B290990E97638F3F1D5DECEA83C3778EE83FBB476F9B5E2E0609CD8500B2E11E17173609F9583107D42B91623CFE6E80C2BC5B091583
310
125B8AF979A2C5AE73F6957A171E27E4C68C94318A8DE1374CA749E36E6835E64437C34848D76A568C6B55CAFC7A656B5E7D01504B03041400060808007D747857A6D797065F0000008200000007000000636E782E786D6C4DCB3B0E80201045D1AD90E9FD7516806B51190811670C8A61F982B1B0BAC9C97B72CA7B1037C6
310
D3332918DA1E04D2CAC69353902EDB8C20262D23F3F59B81A079470595414B17391D1F19B4730A5583A7ED43BBE4025D9592775E5ADFFA01504B03041400060808007D7478574FEB6A7CA0000000F4000000130000005B436F6E74656E745F54797065735D2E786D6C7D8F4B0EC2300C44AF1279DFA6B0400835ED02B80117
310
30C16D239A8F121795DB93D02D6269CFBC19BBED573B8B17C564BC53B0AB1B10E4B47F18372A5878A88E20FAAEBDBD032591BD2E299898C349CAA427B2986A1FC86565F0D122E7318E32A07EE24872DF3407A9BD63725C71C980AEBDD080CBCCE2BAE6F5D69B7110E7CD57AA146008B3D1C8F92C5954F993BB1BF787F39A89
310
ABC491D09600F9FDA2FB00504B03041400060808007D7478573DEE336E64000000790000001B0000006175746F6465736B2D64657369676E2D7061636B6167652E786D6C35CBC10E83200C00D05F21DCA56CA76D41FC96062B120735B69A7DBE268BB7777961F8D5AF396893C2ADB70FE7ADA196782C2DF776D7A97B5933C4
310
30F15651E5469C55D70F80A4992A3ADC954792C525AE70A1E4D6AD9816CC044FEFDF01FE3FDE907802504B03041400060808007D7478577D5D1C3CF9000000960100003B0000006662782F38464643343737342D464638362D344444412D394235412D3830413142433030393541372F7265736F75726365732F636F72652E
310
786D6C8550CB6E833010FC15B47703069384C8386A1AF50B7AEACD321B6225D8C88FAA9F5F3B50A93DF5B4ABD999D9DDE1A7AFF9517CA2F3DA9A016859438146D9519B698018AEE400C54970676DF84583C2C81907C830083E391B970D52D60434193576C40D94DE6380423D52338057379C652963480C7F2F17A9EE72C292
310
962B4FF018F5B849F598DCF455A30371EE6A56D31D23FDA56584BDD20B7961674AFA86EEEB6EBF6BBAB79E57592C78D0F3CF76E550061C413475D3124A49C3DE293BB6DDB13B7CF02A3305F7C1A59FB7A5F93B100EBD8D4EA1E7D53AFDE31A97F17FD7A84D689BCD75557810341DF91C085EE594527946986A4E547C03504B
310
03041400060808007D7478570E854A17F3000000B1010000310000006662782F38464643343737342D464638362D344444412D394235412D3830413142433030393541372F636F72652E786D6C8D50CB6EC32010FC156BEFD8C68FDA89309193C85FD0536F08888B1283C5A3EAE71762576A6F392D9A9D6166879CBE9747F6
310
25AD53460F80F31232A9B9114ACF03047F433D64274AAC31FE0F0D32CD163940828192D99AB0EE1037DA4B9D506D84DC41E69CF490F1477C0CE0F8A75C58CE828F0C77CF57C6EF6C9639CE371E255E2DBF526E25F35200ADCAAA4618A3AA79C7CDB16E8F6DFF418AC4A4240425762B25A2BBBA296981F6D37469BAAE41D3D4
310
BFA1E67A1DD1E1DC8EA82F477CBE94E5A11D3B52243125CEDB78F3FE49BAEE55F926FC9739ACE285CC4AFBBADA0D3785038A639EE78292221518C7B3DD3853D9F407504B03041400060808007D7478578B2D779652010000DD0200000C0000006662782F636F72652E786D6C8D52DB6E842014FC15C33B2A8A7B0BB2E976D3
310
2FE853DF58642D59058360F6F30B5E627DE8252648E69C33736602393FDB261A84E9A5562540710A22A1B8AEA4AA4BE0EC1D1E4074A6C4686DBFB58148B1569420C08092DA68D7CD10D7CA0A1550A52B3183ACEF8505116FFCA5043DFF142D8B99B3BEA37FC41DE30F568B18C5531F25CEC96A1E9595679377290CA09722C5
310
29DA6178BCE618E25774852FF882E03143FBB4D8EFB2E2ED4892304C8995EDA2CE8D6056548066699643846086DF113EE5C5A9387C90247452D25BE33DCFA2C11DA0F7DB932413BEE1735DF5379F93CAE6D9CC374DF48022BFDE58A02409F9F8DF18DE36432FECF3B3ECD62C161E1E1A04B7DA605FA9B45B4B036B9CF0D469
310
347E2499AA9E7924F88927FB85E7770E1F1453B55F8D597FBD391BD4B73B75C2C0C13E23A54DCB9A75B969C5F55C8536969671AE1B6DFE33BD585DC24CC2C3A45F504B03041400060808007D747857FD15B25607010000B201000008000000636F72652E786D6C8D50416EC32010FC0ADA3BB6C13889234CD434EA0B7AEA8D
310
1AE2A2D860018EDADF1762576A6F3D2D9A99DD19869F3EA711DDB50FC6D90E485101D2B677CAD8A183255EF101D04970EF5CFC250364E5A43BC830083E78B7CC1BD43B1BB5CDA8754A6FA00C414740FD981E1D84FE434FB2904B4C8A702B66D9DFE4A00B52AC3AC1A3997E567BAF65D40A04AD688D09C194BD1276AC9B6373
310
78E365560ABE2C466D564625777335DA83383715ABC88EE1F65233CC9EC9053FB133C12D25FBAAD9EF68F3D2F2322F0B1EA24F7FDE8EA49C110579CFBEBC5C29C1DF9D1B37410AA590B3E317888A9799F8137A99D53F421B1B6BBA1D5C37020892023D88649C1B4CE3516F9AB96DF10D504B010214001400060808007D7478
310
570000000000000000000000003700000000000000000000000000000000006662782F38464643343737342D464638362D344444412D394235412D3830413142433030393541372F617474726962757465732E62696E504B010214001400060808007D74785700000000000000000000000035000000000000000000000000
310
00550000006662782F38464643343737342D464638362D344444412D394235412D3830413142433030393541372F76657274696365732E62696E504B010214001400060808007D747857F270F13306000000040000003600000000000000000000000000A80000006662782F38464643343737342D464638362D344444412D
310
394235412D3830413142433030393541372F747269616E676C65732E62696E504B010214001400060808007D74785751464CB489000000430100003600000000000000000000000000020100006662782F38464643343737342D464638362D344444412D394235412D3830413142433030393541372F6469726563746F7279
310
2E786D6C504B010214001400060808007D7478572EDD414E38070000201C00003400000000000000000000000000DF0100006662782F38464643343737342D464638362D344444412D394235412D3830413142433030393541372F6F626A656374732E786D6C504B010214001400060808007D74785745A690AF3E01000046
310
0500003000000000000000000000000000690900006662782F38464643343737342D464638362D344444412D394235412D3830413142433030393541372F636E782E786D6C504B010214001400060808007D7478574E824DF27E000000A30000000B00000000000000000000000000F50A00006662782F636E782E786D6C50
310
4B010214001400060808007D747857A6D797065F0000008200000007000000000000000000000000009C0B0000636E782E786D6C504B010214001400060808007D7478574FEB6A7CA0000000F40000001300000000000000000000000000200C00005B436F6E74656E745F54797065735D2E786D6C504B0102140014000608
310
08007D7478573DEE336E64000000790000001B00000000000000000000000000F10C00006175746F6465736B2D64657369676E2D7061636B6167652E786D6C504B010214001400060808007D7478577D5D1C3CF9000000960100003B000000000000000000000000008E0D00006662782F38464643343737342D464638362D
310
344444412D394235412D3830413142433030393541372F7265736F75726365732F636F72652E786D6C504B010214001400060808007D7478570E854A17F3000000B10100003100000000000000000000000000E00E00006662782F38464643343737342D464638362D344444412D394235412D383041314243303039354137
310
2F636F72652E786D6C504B010214001400060808007D7478578B2D779652010000DD0200000C00000000000000000000000000221000006662782F636F72652E786D6C504B010214001400060808007D747857FD15B25607010000B201000008000000000000000000000000009E110000636F72652E786D6C504B05060000
310
00000E000E0080040000CB1200000000
  0
XRECORD
  5
8419
102
{ACAD_REACTORS
330
8414
102
}
330
8414
100
AcDbXrecord
280
     1
270
     1
271
     1
  0
XRECORD
  5
8418
102
{ACAD_REACTORS
330
8414
102
}
330
8414
100
AcDbXrecord
280
     1
270
     1
271
     1
  0
XRECORD
  5
841A
102
{ACAD_REACTORS
330
8414
102
}
330
8414
100
AcDbXrecord
280
     1
270
     1
271
     1
  0
XRECORD
  5
8417
102
{ACAD_REACTORS
330
8414
102
}
330
8414
100
AcDbXrecord
280
     1
270
     1
271
     1
  0
XRECORD
  5
884F
102
{ACAD_REACTORS
330
884E
102
}
330
884E
100
AcDbXrecord
280
     1
102
DISPLAYNAME
  1
Imperial24
102
FLAGS
 90
        0
  0
CELLSTYLEMAP
  5
8816
102
{ACAD_REACTORS
330
8815
102
}
330
8815
100
AcDbCellStyleMap
 90
        3
300
CELLSTYLE
  1
TABLEFORMAT_BEGIN
 90
        5
170
     1
 91
        0
 92
    32768
 62
   257
 93
        1
300
CONTENTFORMAT
  1
CONTENTFORMAT_BEGIN
 90
        0
 91
        0
 92
      512
 93
        0
300

 40
0.0
140
1.0
 94
        5
 62
     0
340
8447
144
0.25
309
CONTENTFORMAT_END
171
     0
 94
        0
309
TABLEFORMAT_END
  1
CELLSTYLE_BEGIN
 90
        1
 91
        1
300
_TITLE
309
CELLSTYLE_END
300
CELLSTYLE
  1
TABLEFORMAT_BEGIN
 90
        5
170
     1
 91
        0
 92
        0
 62
   257
 93
        1
300
CONTENTFORMAT
  1
CONTENTFORMAT_BEGIN
 90
        0
 91
        0
 92
      512
 93
        0
300

 40
0.0
140
1.0
 94
        5
 62
     0
340
8447
144
0.18
309
CONTENTFORMAT_END
171
     0
 94
        0
309
TABLEFORMAT_END
  1
CELLSTYLE_BEGIN
 90
        2
 91
        1
300
_HEADER
309
CELLSTYLE_END
300
CELLSTYLE
  1
TABLEFORMAT_BEGIN
 90
        5
170
     1
 91
        0
 92
        0
 62
   257
 93
        1
300
CONTENTFORMAT
  1
CONTENTFORMAT_BEGIN
 90
        0
 91
        0
 92
      512
 93
        0
300

 40
0.0
140
1.0
 94
        2
 62
     0
340
8447
144
0.18
309
CONTENTFORMAT_END
171
     0
 94
        0
309
TABLEFORMAT_END
  1
CELLSTYLE_BEGIN
 90
        3
 91
        2
300
_DATA
309
CELLSTYLE_END
  0
XRECORD
  5
884C
102
{ACAD_REACTORS
330
8815
102
}
330
8815
100
AcDbXrecord
280
     1
102
ACAD_ROUNDTRIP_PRE2007_TABLESTYLE
 90
      512
 91
        0
  1

 92
      512
 93
        0
  2

 94
      512
 95
        0
  3

  0
XRECORD
  5
8827
102
{ACAD_REACTORS
330
8826
102
}
330
8826
100
AcDbXrecord
280
     1
102
RTVSPost2010Prop28
280
     1
102
RTVSPost2010PropOp28
 70
     1
102
RTVSPost2010Prop29
280
     1
102
RTVSPost2010PropOp29
 70
     1
102
RTVSPost2010Prop30
280
     0
102
RTVSPost2010PropOp30
 70
     1
102
RTVSPost2010Prop31
280
     0
102
RTVSPost2010PropOp31
 70
     1
102
RTVSPost2010Prop32
280
     0
102
RTVSPost2010PropOp32
 70
     1
102
RTVSPost2010Prop33
280
     0
102
RTVSPost2010PropOp33
 70
     1
102
RTVSPost2010Prop34
280
     0
102
RTVSPost2010PropOp34
 70
     1
102
RTVSPost2010Prop35
280
     0
102
RTVSPost2010PropOp35
 70
     1
102
RTVSPost2010Prop36
280
     0
102
RTVSPost2010PropOp36
 70
     1
102
RTVSPost2010Prop37
 90
       50
102
RTVSPost2010PropOp37
 70
     1
102
RTVSPost2010Prop38
140
0.0
102
RTVSPost2010PropOp38
 70
     1
102
RTVSPost2010Prop39
140
1.0
102
RTVSPost2010PropOp39
 70
     1
102
RTVSPost2010Prop40
 90
        0
102
RTVSPost2010PropOp40
 70
     1
102
RTVSPost2010Prop41ColorIndex
 90
       18
102
RTVSPost2010Prop41ColorRGB
 90
        0
102
RTVSPost2010PropOp41
 70
     1
102
RTVSPost2010Prop42
 90
       50
102
RTVSPost2010PropOp42
 70
     1
102
RTVSPost2010Prop43
 90
        3
102
RTVSPost2010PropOp43
 70
     1
102
RTVSPost2010Prop44ColorIndex
 90
        5
102
RTVSPost2010Prop44ColorRGB
 90
      255
102
RTVSPost2010PropOp44
 70
     1
102
RTVSPost2010Prop45
280
     0
102
RTVSPost2010PropOp45
 70
     1
102
RTVSPost2010Prop46
 90
       50
102
RTVSPost2010PropOp46
 70
     1
102
RTVSPost2010Prop47
 90
       50
102
RTVSPost2010PropOp47
 70
     1
102
RTVSPost2010Prop48
 90
       50
102
RTVSPost2010PropOp48
 70
     1
102
RTVSPost2010Prop49
280
     0
102
RTVSPost2010PropOp49
 70
     1
102
RTVSPost2010Prop50
 90
       50
102
RTVSPost2010PropOp50
 70
     1
102
RTVSPost2010Prop51ColorIndex
 90
      256
102
RTVSPost2010Prop51ColorRGB
 90
-16777216
102
RTVSPost2010PropOp51
 70
     0
102
RTVSPost2010Prop52
140
1.0
102
RTVSPost2010PropOp52
 70
     0
102
RTVSPost2010Prop53
 90
        2
102
RTVSPost2010PropOp53
 70
     1
102
RTVSPost2010Prop54
  1
strokes_ogs.tif
102
RTVSPost2010PropOp54
 70
     1
102
RTVSPost2010Prop55
280
     0
102
RTVSPost2010PropOp55
 70
     1
102
RTVSPost2010Prop56
140
1.0
102
RTVSPost2010PropOp56
 70
     1
102
RTVSPost2010Prop57
140
1.0
102
RTVSPost2010PropOp57
 70
     1
102
RTVSPropertyOp0
 70
     1
102
RTVSPropertyOp1
 70
     1
102
RTVSPropertyOp2
 70
     1
102
RTVSPropertyOp3
 70
     1
102
RTVSPropertyOp4
 70
     1
102
RTVSPropertyOp5
 70
     1
102
RTVSPropertyOp6
 70
     1
102
RTVSPropertyOp7
 70
     1
102
RTVSPropertyOp8
 70
     1
102
RTVSPropertyOp9
 70
     1
102
RTVSPropertyOp10
 70
     1
102
RTVSPropertyOp11
 70
     1
102
RTVSPropertyOp12
 70
     1
102
RTVSPropertyOp13
 70
     1
102
RTVSPropertyOp14
 70
     1
102
RTVSPropertyOp15
 70
     1
102
RTVSPropertyOp16
 70
     1
102
RTVSPropertyOp17
 70
     1
102
RTVSPropertyOp18
 70
     1
102
RTVSPropertyOp19
 70
     1
102
RTVSPropertyOp20
 70
     1
102
RTVSPropertyOp21
 70
     1
102
RTVSPropertyOp22
 70
     1
102
RTVSPropertyOp23
 70
     1
102
RTVSPropertyOp24
 70
     1
102
RTVSPropertyOp25
 70
     1
102
RTVSPropertyOp26
 70
     1
102
RTVSPropertyOp27
 70
     1
102
RTVSPropertyOp28
 70
     1
102
RTVSPropertyOp29
 70
     1
102
RTVSPropertyOp30
 70
     1
102
RTVSPropertyOp31
 70
     1
102
RTVSPropertyOp32
 70
     1
102
RTVSPropertyOp33
 70
     1
102
RTVSPropertyOp34
 70
     1
102
RTVSPropertyOp35
 70
     1
102
RTVSPropertyOp36
 70
     1
102
RTVSPropertyOp37
 70
     1
102
RTVSPropertyOp38
 70
     1
102
RTVSPropertyOp39
 70
     1
102
RTVSPropertyOp40
 70
     1
102
RTVSPropertyOp41
 70
     1
102
RTVSPropertyOp42
 70
     1
102
RTVSPropertyOp43
 70
     1
102
RTVSPropertyOp44
 70
     1
102
RTVSPropertyOp45
 70
     1
102
RTVSPropertyOp46
 70
     1
102
RTVSPropertyOp47
 70
     1
102
RTVSPropertyOp48
 70
     1
102
RTVSPropertyOp49
 70
     1
102
RTVSPropertyOp50
 70
     1
102
RTVSPropertyOp51
 70
     0
102
RTVSPropertyOp52
 70
     0
102
RTVSPropertyOp53
 70
     1
102
RTVSPropertyOp54
 70
     1
102
RTVSPropertyOp55
 70
     1
102
RTVSPropertyOp56
 70
     1
102
RTVSPropertyOp57
 70
     1
102
RTVSPropertyOp58
 70
     1
102
RTVSPropertyOp59
 70
     1
102
RTVSPropertyOp60
 70
     1
102
RTVSPropertyOp61
 70
     1
102
RTVSPropertyOp62
 70
     1
  0
XRECORD
  5
8825
102
{ACAD_REACTORS
330
8824
102
}
330
8824
100
AcDbXrecord
280
     1
102
RTVSPost2010Prop28
280
     0
102
RTVSPost2010PropOp28
 70
     1
102
RTVSPost2010Prop29
280
     1
102
RTVSPost2010PropOp29
 70
     1
102
RTVSPost2010Prop30
280
     1
102
RTVSPost2010PropOp30
 70
     1
102
RTVSPost2010Prop31
280
     0
102
RTVSPost2010PropOp31
 70
     1
102
RTVSPost2010Prop32
280
     0
102
RTVSPost2010PropOp32
 70
     1
102
RTVSPost2010Prop33
280
     0
102
RTVSPost2010PropOp33
 70
     1
102
RTVSPost2010Prop34
280
     0
102
RTVSPost2010PropOp34
 70
     1
102
RTVSPost2010Prop35
280
     0
102
RTVSPost2010PropOp35
 70
     1
102
RTVSPost2010Prop36
280
     0
102
RTVSPost2010PropOp36
 70
     1
102
RTVSPost2010Prop37
 90
       50
102
RTVSPost2010PropOp37
 70
     1
102
RTVSPost2010Prop38
140
0.0
102
RTVSPost2010PropOp38
 70
     1
102
RTVSPost2010Prop39
140
1.0
102
RTVSPost2010PropOp39
 70
     1
102
RTVSPost2010Prop40
 90
        0
102
RTVSPost2010PropOp40
 70
     1
102
RTVSPost2010Prop41ColorIndex
 90
       18
102
RTVSPost2010Prop41ColorRGB
 90
        0
102
RTVSPost2010PropOp41
 70
     1
102
RTVSPost2010Prop42
 90
       50
102
RTVSPost2010PropOp42
 70
     1
102
RTVSPost2010Prop43
 90
        3
102
RTVSPost2010PropOp43
 70
     1
102
RTVSPost2010Prop44ColorIndex
 90
        5
102
RTVSPost2010Prop44ColorRGB
 90
      255
102
RTVSPost2010PropOp44
 70
     1
102
RTVSPost2010Prop45
280
     0
102
RTVSPost2010PropOp45
 70
     1
102
RTVSPost2010Prop46
 90
       50
102
RTVSPost2010PropOp46
 70
     1
102
RTVSPost2010Prop47
 90
       50
102
RTVSPost2010PropOp47
 70
     1
102
RTVSPost2010Prop48
 90
       50
102
RTVSPost2010PropOp48
 70
     1
102
RTVSPost2010Prop49
280
     0
102
RTVSPost2010PropOp49
 70
     1
102
RTVSPost2010Prop50
 90
       50
102
RTVSPost2010PropOp50
 70
     1
102
RTVSPost2010Prop51ColorIndex
 90
      256
102
RTVSPost2010Prop51ColorRGB
 90
-16777216
102
RTVSPost2010PropOp51
 70
     0
102
RTVSPost2010Prop52
140
1.0
102
RTVSPost2010PropOp52
 70
     0
102
RTVSPost2010Prop53
 90
        2
102
RTVSPost2010PropOp53
 70
     1
102
RTVSPost2010Prop54
  1
strokes_ogs.tif
102
RTVSPost2010PropOp54
 70
     1
102
RTVSPost2010Prop55
280
     0
102
RTVSPost2010PropOp55
 70
     1
102
RTVSPost2010Prop56
140
1.0
102
RTVSPost2010PropOp56
 70
     1
102
RTVSPost2010Prop57
140
1.0
102
RTVSPost2010PropOp57
 70
     1
102
RTVSPropertyOp0
 70
     1
102
RTVSPropertyOp1
 70
     1
102
RTVSPropertyOp2
 70
     1
102
RTVSPropertyOp3
 70
     1
102
RTVSPropertyOp4
 70
     1
102
RTVSPropertyOp5
 70
     1
102
RTVSPropertyOp6
 70
     1
102
RTVSPropertyOp7
 70
     1
102
RTVSPropertyOp8
 70
     1
102
RTVSPropertyOp9
 70
     1
102
RTVSPropertyOp10
 70
     1
102
RTVSPropertyOp11
 70
     1
102
RTVSPropertyOp12
 70
     1
102
RTVSPropertyOp13
 70
     1
102
RTVSPropertyOp14
 70
     1
102
RTVSPropertyOp15
 70
     1
102
RTVSPropertyOp16
 70
     1
102
RTVSPropertyOp17
 70
     1
102
RTVSPropertyOp18
 70
     1
102
RTVSPropertyOp19
 70
     1
102
RTVSPropertyOp20
 70
     1
102
RTVSPropertyOp21
 70
     1
102
RTVSPropertyOp22
 70
     1
102
RTVSPropertyOp23
 70
     1
102
RTVSPropertyOp24
 70
     1
102
RTVSPropertyOp25
 70
     1
102
RTVSPropertyOp26
 70
     1
102
RTVSPropertyOp27
 70
     1
102
RTVSPropertyOp28
 70
     1
102
RTVSPropertyOp29
 70
     1
102
RTVSPropertyOp30
 70
     1
102
RTVSPropertyOp31
 70
     1
102
RTVSPropertyOp32
 70
     1
102
RTVSPropertyOp33
 70
     1
102
RTVSPropertyOp34
 70
     1
102
RTVSPropertyOp35
 70
     1
102
RTVSPropertyOp36
 70
     1
102
RTVSPropertyOp37
 70
     1
102
RTVSPropertyOp38
 70
     1
102
RTVSPropertyOp39
 70
     1
102
RTVSPropertyOp40
 70
     1
102
RTVSPropertyOp41
 70
     1
102
RTVSPropertyOp42
 70
     1
102
RTVSPropertyOp43
 70
     1
102
RTVSPropertyOp44
 70
     1
102
RTVSPropertyOp45
 70
     1
102
RTVSPropertyOp46
 70
     1
102
RTVSPropertyOp47
 70
     1
102
RTVSPropertyOp48
 70
     1
102
RTVSPropertyOp49
 70
     1
102
RTVSPropertyOp50
 70
     1
102
RTVSPropertyOp51
 70
     0
102
RTVSPropertyOp52
 70
     0
102
RTVSPropertyOp53
 70
     1
102
RTVSPropertyOp54
 70
     1
102
RTVSPropertyOp55
 70
     1
102
RTVSPropertyOp56
 70
     1
102
RTVSPropertyOp57
 70
     1
102
RTVSPropertyOp58
 70
     1
102
RTVSPropertyOp59
 70
     1
102
RTVSPropertyOp60
 70
     1
102
RTVSPropertyOp61
 70
     1
102
RTVSPropertyOp62
 70
     1
  0
XRECORD
  5
8833
102
{ACAD_REACTORS
330
8832
102
}
330
8832
100
AcDbXrecord
280
     1
102
RTVSPost2010Prop28
280
     0
102
RTVSPost2010PropOp28
 70
     1
102
RTVSPost2010Prop29
280
     1
102
RTVSPost2010PropOp29
 70
     1
102
RTVSPost2010Prop30
280
     1
102
RTVSPost2010PropOp30
 70
     1
102
RTVSPost2010Prop31
280
     0
102
RTVSPost2010PropOp31
 70
     1
102
RTVSPost2010Prop32
280
     0
102
RTVSPost2010PropOp32
 70
     1
102
RTVSPost2010Prop33
280
     0
102
RTVSPost2010PropOp33
 70
     1
102
RTVSPost2010Prop34
280
     0
102
RTVSPost2010PropOp34
 70
     1
102
RTVSPost2010Prop35
280
     0
102
RTVSPost2010PropOp35
 70
     1
102
RTVSPost2010Prop36
280
     0
102
RTVSPost2010PropOp36
 70
     1
102
RTVSPost2010Prop37
 90
       50
102
RTVSPost2010PropOp37
 70
     1
102
RTVSPost2010Prop38
140
0.0
102
RTVSPost2010PropOp38
 70
     1
102
RTVSPost2010Prop39
140
1.0
102
RTVSPost2010PropOp39
 70
     1
102
RTVSPost2010Prop40
 90
        0
102
RTVSPost2010PropOp40
 70
     1
102
RTVSPost2010Prop41ColorIndex
 90
       18
102
RTVSPost2010Prop41ColorRGB
 90
        0
102
RTVSPost2010PropOp41
 70
     1
102
RTVSPost2010Prop42
 90
       50
102
RTVSPost2010PropOp42
 70
     1
102
RTVSPost2010Prop43
 90
        3
102
RTVSPost2010PropOp43
 70
     1
102
RTVSPost2010Prop44ColorIndex
 90
        5
102
RTVSPost2010Prop44ColorRGB
 90
      255
102
RTVSPost2010PropOp44
 70
     1
102
RTVSPost2010Prop45
280
     0
102
RTVSPost2010PropOp45
 70
     1
102
RTVSPost2010Prop46
 90
       50
102
RTVSPost2010PropOp46
 70
     1
102
RTVSPost2010Prop47
 90
       50
102
RTVSPost2010PropOp47
 70
     1
102
RTVSPost2010Prop48
 90
       50
102
RTVSPost2010PropOp48
 70
     1
102
RTVSPost2010Prop49
280
     0
102
RTVSPost2010PropOp49
 70
     1
102
RTVSPost2010Prop50
 90
       50
102
RTVSPost2010PropOp50
 70
     1
102
RTVSPost2010Prop51ColorIndex
 90
      256
102
RTVSPost2010Prop51ColorRGB
 90
-16777216
102
RTVSPost2010PropOp51
 70
     0
102
RTVSPost2010Prop52
140
1.0
102
RTVSPost2010PropOp52
 70
     0
102
RTVSPost2010Prop53
 90
        2
102
RTVSPost2010PropOp53
 70
     1
102
RTVSPost2010Prop54
  1
strokes_ogs.tif
102
RTVSPost2010PropOp54
 70
     1
102
RTVSPost2010Prop55
280
     0
102
RTVSPost2010PropOp55
 70
     1
102
RTVSPost2010Prop56
140
1.0
102
RTVSPost2010PropOp56
 70
     1
102
RTVSPost2010Prop57
140
1.0
102
RTVSPost2010PropOp57
 70
     1
102
RTVSPropertyOp0
 70
     1
102
RTVSPropertyOp1
 70
     1
102
RTVSPropertyOp2
 70
     1
102
RTVSPropertyOp3
 70
     1
102
RTVSPropertyOp4
 70
     1
102
RTVSPropertyOp5
 70
     1
102
RTVSPropertyOp6
 70
     1
102
RTVSPropertyOp7
 70
     1
102
RTVSPropertyOp8
 70
     1
102
RTVSPropertyOp9
 70
     1
102
RTVSPropertyOp10
 70
     1
102
RTVSPropertyOp11
 70
     1
102
RTVSPropertyOp12
 70
     1
102
RTVSPropertyOp13
 70
     1
102
RTVSPropertyOp14
 70
     1
102
RTVSPropertyOp15
 70
     1
102
RTVSPropertyOp16
 70
     1
102
RTVSPropertyOp17
 70
     1
102
RTVSPropertyOp18
 70
     1
102
RTVSPropertyOp19
 70
     1
102
RTVSPropertyOp20
 70
     1
102
RTVSPropertyOp21
 70
     1
102
RTVSPropertyOp22
 70
     1
102
RTVSPropertyOp23
 70
     1
102
RTVSPropertyOp24
 70
     1
102
RTVSPropertyOp25
 70
     1
102
RTVSPropertyOp26
 70
     1
102
RTVSPropertyOp27
 70
     1
102
RTVSPropertyOp28
 70
     1
102
RTVSPropertyOp29
 70
     1
102
RTVSPropertyOp30
 70
     1
102
RTVSPropertyOp31
 70
     1
102
RTVSPropertyOp32
 70
     1
102
RTVSPropertyOp33
 70
     1
102
RTVSPropertyOp34
 70
     1
102
RTVSPropertyOp35
 70
     1
102
RTVSPropertyOp36
 70
     1
102
RTVSPropertyOp37
 70
     1
102
RTVSPropertyOp38
 70
     1
102
RTVSPropertyOp39
 70
     1
102
RTVSPropertyOp40
 70
     1
102
RTVSPropertyOp41
 70
     1
102
RTVSPropertyOp42
 70
     1
102
RTVSPropertyOp43
 70
     1
102
RTVSPropertyOp44
 70
     1
102
RTVSPropertyOp45
 70
     1
102
RTVSPropertyOp46
 70
     1
102
RTVSPropertyOp47
 70
     1
102
RTVSPropertyOp48
 70
     1
102
RTVSPropertyOp49
 70
     1
102
RTVSPropertyOp50
 70
     1
102
RTVSPropertyOp51
 70
     0
102
RTVSPropertyOp52
 70
     0
102
RTVSPropertyOp53
 70
     1
102
RTVSPropertyOp54
 70
     1
102
RTVSPropertyOp55
 70
     1
102
RTVSPropertyOp56
 70
     1
102
RTVSPropertyOp57
 70
     1
102
RTVSPropertyOp58
 70
     1
102
RTVSPropertyOp59
 70
     1
102
RTVSPropertyOp60
 70
     1
102
RTVSPropertyOp61
 70
     1
102
RTVSPropertyOp62
 70
     1
  0
XRECORD
  5
883B
102
{ACAD_REACTORS
330
883A
102
}
330
883A
100
AcDbXrecord
280
     1
102
RTVSPost2010Prop28
280
     0
102
RTVSPost2010PropOp28
 70
     1
102
RTVSPost2010Prop29
280
     1
102
RTVSPost2010PropOp29
 70
     1
102
RTVSPost2010Prop30
280
     1
102
RTVSPost2010PropOp30
 70
     1
102
RTVSPost2010Prop31
280
     0
102
RTVSPost2010PropOp31
 70
     1
102
RTVSPost2010Prop32
280
     0
102
RTVSPost2010PropOp32
 70
     1
102
RTVSPost2010Prop33
280
     0
102
RTVSPost2010PropOp33
 70
     1
102
RTVSPost2010Prop34
280
     0
102
RTVSPost2010PropOp34
 70
     1
102
RTVSPost2010Prop35
280
     0
102
RTVSPost2010PropOp35
 70
     1
102
RTVSPost2010Prop36
280
     0
102
RTVSPost2010PropOp36
 70
     1
102
RTVSPost2010Prop37
 90
       50
102
RTVSPost2010PropOp37
 70
     1
102
RTVSPost2010Prop38
140
0.0
102
RTVSPost2010PropOp38
 70
     1
102
RTVSPost2010Prop39
140
1.0
102
RTVSPost2010PropOp39
 70
     1
102
RTVSPost2010Prop40
 90
        0
102
RTVSPost2010PropOp40
 70
     1
102
RTVSPost2010Prop41ColorIndex
 90
       18
102
RTVSPost2010Prop41ColorRGB
 90
        0
102
RTVSPost2010PropOp41
 70
     1
102
RTVSPost2010Prop42
 90
       50
102
RTVSPost2010PropOp42
 70
     1
102
RTVSPost2010Prop43
 90
        3
102
RTVSPost2010PropOp43
 70
     1
102
RTVSPost2010Prop44ColorIndex
 90
        5
102
RTVSPost2010Prop44ColorRGB
 90
      255
102
RTVSPost2010PropOp44
 70
     1
102
RTVSPost2010Prop45
280
     0
102
RTVSPost2010PropOp45
 70
     1
102
RTVSPost2010Prop46
 90
       50
102
RTVSPost2010PropOp46
 70
     1
102
RTVSPost2010Prop47
 90
       50
102
RTVSPost2010PropOp47
 70
     1
102
RTVSPost2010Prop48
 90
       50
102
RTVSPost2010PropOp48
 70
     1
102
RTVSPost2010Prop49
280
     0
102
RTVSPost2010PropOp49
 70
     1
102
RTVSPost2010Prop50
 90
       50
102
RTVSPost2010PropOp50
 70
     1
102
RTVSPost2010Prop51ColorIndex
 90
      256
102
RTVSPost2010Prop51ColorRGB
 90
-16777216
102
RTVSPost2010PropOp51
 70
     0
102
RTVSPost2010Prop52
140
1.0
102
RTVSPost2010PropOp52
 70
     0
102
RTVSPost2010Prop53
 90
        2
102
RTVSPost2010PropOp53
 70
     1
102
RTVSPost2010Prop54
  1
strokes_ogs.tif
102
RTVSPost2010PropOp54
 70
     1
102
RTVSPost2010Prop55
280
     0
102
RTVSPost2010PropOp55
 70
     1
102
RTVSPost2010Prop56
140
1.0
102
RTVSPost2010PropOp56
 70
     1
102
RTVSPost2010Prop57
140
1.0
102
RTVSPost2010PropOp57
 70
     1
102
RTVSPropertyOp0
 70
     1
102
RTVSPropertyOp1
 70
     1
102
RTVSPropertyOp2
 70
     1
102
RTVSPropertyOp3
 70
     1
102
RTVSPropertyOp4
 70
     1
102
RTVSPropertyOp5
 70
     1
102
RTVSPropertyOp6
 70
     1
102
RTVSPropertyOp7
 70
     1
102
RTVSPropertyOp8
 70
     1
102
RTVSPropertyOp9
 70
     1
102
RTVSPropertyOp10
 70
     1
102
RTVSPropertyOp11
 70
     1
102
RTVSPropertyOp12
 70
     1
102
RTVSPropertyOp13
 70
     1
102
RTVSPropertyOp14
 70
     1
102
RTVSPropertyOp15
 70
     1
102
RTVSPropertyOp16
 70
     1
102
RTVSPropertyOp17
 70
     1
102
RTVSPropertyOp18
 70
     1
102
RTVSPropertyOp19
 70
     1
102
RTVSPropertyOp20
 70
     1
102
RTVSPropertyOp21
 70
     1
102
RTVSPropertyOp22
 70
     1
102
RTVSPropertyOp23
 70
     1
102
RTVSPropertyOp24
 70
     1
102
RTVSPropertyOp25
 70
     1
102
RTVSPropertyOp26
 70
     1
102
RTVSPropertyOp27
 70
     1
102
RTVSPropertyOp28
 70
     1
102
RTVSPropertyOp29
 70
     1
102
RTVSPropertyOp30
 70
     1
102
RTVSPropertyOp31
 70
     1
102
RTVSPropertyOp32
 70
     1
102
RTVSPropertyOp33
 70
     1
102
RTVSPropertyOp34
 70
     1
102
RTVSPropertyOp35
 70
     1
102
RTVSPropertyOp36
 70
     1
102
RTVSPropertyOp37
 70
     1
102
RTVSPropertyOp38
 70
     1
102
RTVSPropertyOp39
 70
     1
102
RTVSPropertyOp40
 70
     1
102
RTVSPropertyOp41
 70
     1
102
RTVSPropertyOp42
 70
     1
102
RTVSPropertyOp43
 70
     1
102
RTVSPropertyOp44
 70
     1
102
RTVSPropertyOp45
 70
     1
102
RTVSPropertyOp46
 70
     1
102
RTVSPropertyOp47
 70
     1
102
RTVSPropertyOp48
 70
     1
102
RTVSPropertyOp49
 70
     1
102
RTVSPropertyOp50
 70
     1
102
RTVSPropertyOp51
 70
     0
102
RTVSPropertyOp52
 70
     0
102
RTVSPropertyOp53
 70
     1
102
RTVSPropertyOp54
 70
     1
102
RTVSPropertyOp55
 70
     1
102
RTVSPropertyOp56
 70
     1
102
RTVSPropertyOp57
 70
     1
102
RTVSPropertyOp58
 70
     1
102
RTVSPropertyOp59
 70
     1
102
RTVSPropertyOp60
 70
     1
102
RTVSPropertyOp61
 70
     1
102
RTVSPropertyOp62
 70
     1
  0
XRECORD
  5
882D
102
{ACAD_REACTORS
330
882C
102
}
330
882C
100
AcDbXrecord
280
     1
102
RTVSPost2010Prop28
280
     0
102
RTVSPost2010PropOp28
 70
     1
102
RTVSPost2010Prop29
280
     1
102
RTVSPost2010PropOp29
 70
     1
102
RTVSPost2010Prop30
280
     1
102
RTVSPost2010PropOp30
 70
     1
102
RTVSPost2010Prop31
280
     0
102
RTVSPost2010PropOp31
 70
     1
102
RTVSPost2010Prop32
280
     0
102
RTVSPost2010PropOp32
 70
     1
102
RTVSPost2010Prop33
280
     0
102
RTVSPost2010PropOp33
 70
     1
102
RTVSPost2010Prop34
280
     0
102
RTVSPost2010PropOp34
 70
     1
102
RTVSPost2010Prop35
280
     0
102
RTVSPost2010PropOp35
 70
     1
102
RTVSPost2010Prop36
280
     0
102
RTVSPost2010PropOp36
 70
     1
102
RTVSPost2010Prop37
 90
       50
102
RTVSPost2010PropOp37
 70
     1
102
RTVSPost2010Prop38
140
0.0
102
RTVSPost2010PropOp38
 70
     1
102
RTVSPost2010Prop39
140
1.0
102
RTVSPost2010PropOp39
 70
     1
102
RTVSPost2010Prop40
 90
        0
102
RTVSPost2010PropOp40
 70
     1
102
RTVSPost2010Prop41ColorIndex
 90
       18
102
RTVSPost2010Prop41ColorRGB
 90
        0
102
RTVSPost2010PropOp41
 70
     1
102
RTVSPost2010Prop42
 90
       50
102
RTVSPost2010PropOp42
 70
     1
102
RTVSPost2010Prop43
 90
        3
102
RTVSPost2010PropOp43
 70
     1
102
RTVSPost2010Prop44ColorIndex
 90
        5
102
RTVSPost2010Prop44ColorRGB
 90
      255
102
RTVSPost2010PropOp44
 70
     1
102
RTVSPost2010Prop45
280
     0
102
RTVSPost2010PropOp45
 70
     1
102
RTVSPost2010Prop46
 90
       50
102
RTVSPost2010PropOp46
 70
     1
102
RTVSPost2010Prop47
 90
       50
102
RTVSPost2010PropOp47
 70
     1
102
RTVSPost2010Prop48
 90
       50
102
RTVSPost2010PropOp48
 70
     1
102
RTVSPost2010Prop49
280
     0
102
RTVSPost2010PropOp49
 70
     1
102
RTVSPost2010Prop50
 90
       50
102
RTVSPost2010PropOp50
 70
     1
102
RTVSPost2010Prop51ColorIndex
 90
      256
102
RTVSPost2010Prop51ColorRGB
 90
-16777216
102
RTVSPost2010PropOp51
 70
     0
102
RTVSPost2010Prop52
140
1.0
102
RTVSPost2010PropOp52
 70
     0
102
RTVSPost2010Prop53
 90
        2
102
RTVSPost2010PropOp53
 70
     1
102
RTVSPost2010Prop54
  1
strokes_ogs.tif
102
RTVSPost2010PropOp54
 70
     1
102
RTVSPost2010Prop55
280
     0
102
RTVSPost2010PropOp55
 70
     1
102
RTVSPost2010Prop56
140
1.0
102
RTVSPost2010PropOp56
 70
     1
102
RTVSPost2010Prop57
140
1.0
102
RTVSPost2010PropOp57
 70
     1
102
RTVSPropertyOp0
 70
     1
102
RTVSPropertyOp1
 70
     1
102
RTVSPropertyOp2
 70
     1
102
RTVSPropertyOp3
 70
     1
102
RTVSPropertyOp4
 70
     1
102
RTVSPropertyOp5
 70
     1
102
RTVSPropertyOp6
 70
     1
102
RTVSPropertyOp7
 70
     1
102
RTVSPropertyOp8
 70
     1
102
RTVSPropertyOp9
 70
     1
102
RTVSPropertyOp10
 70
     1
102
RTVSPropertyOp11
 70
     1
102
RTVSPropertyOp12
 70
     1
102
RTVSPropertyOp13
 70
     1
102
RTVSPropertyOp14
 70
     1
102
RTVSPropertyOp15
 70
     1
102
RTVSPropertyOp16
 70
     1
102
RTVSPropertyOp17
 70
     1
102
RTVSPropertyOp18
 70
     1
102
RTVSPropertyOp19
 70
     1
102
RTVSPropertyOp20
 70
     1
102
RTVSPropertyOp21
 70
     1
102
RTVSPropertyOp22
 70
     1
102
RTVSPropertyOp23
 70
     1
102
RTVSPropertyOp24
 70
     1
102
RTVSPropertyOp25
 70
     1
102
RTVSPropertyOp26
 70
     1
102
RTVSPropertyOp27
 70
     1
102
RTVSPropertyOp28
 70
     1
102
RTVSPropertyOp29
 70
     1
102
RTVSPropertyOp30
 70
     1
102
RTVSPropertyOp31
 70
     1
102
RTVSPropertyOp32
 70
     1
102
RTVSPropertyOp33
 70
     1
102
RTVSPropertyOp34
 70
     1
102
RTVSPropertyOp35
 70
     1
102
RTVSPropertyOp36
 70
     1
102
RTVSPropertyOp37
 70
     1
102
RTVSPropertyOp38
 70
     1
102
RTVSPropertyOp39
 70
     1
102
RTVSPropertyOp40
 70
     1
102
RTVSPropertyOp41
 70
     1
102
RTVSPropertyOp42
 70
     1
102
RTVSPropertyOp43
 70
     1
102
RTVSPropertyOp44
 70
     1
102
RTVSPropertyOp45
 70
     1
102
RTVSPropertyOp46
 70
     1
102
RTVSPropertyOp47
 70
     1
102
RTVSPropertyOp48
 70
     1
102
RTVSPropertyOp49
 70
     1
102
RTVSPropertyOp50
 70
     1
102
RTVSPropertyOp51
 70
     0
102
RTVSPropertyOp52
 70
     0
102
RTVSPropertyOp53
 70
     1
102
RTVSPropertyOp54
 70
     1
102
RTVSPropertyOp55
 70
     1
102
RTVSPropertyOp56
 70
     1
102
RTVSPropertyOp57
 70
     1
102
RTVSPropertyOp58
 70
     1
102
RTVSPropertyOp59
 70
     1
102
RTVSPropertyOp60
 70
     1
102
RTVSPropertyOp61
 70
     1
102
RTVSPropertyOp62
 70
     1
  0
XRECORD
  5
8831
102
{ACAD_REACTORS
330
8830
102
}
330
8830
100
AcDbXrecord
280
     1
102
RTVSPost2010Prop28
280
     0
102
RTVSPost2010PropOp28
 70
     1
102
RTVSPost2010Prop29
280
     1
102
RTVSPost2010PropOp29
 70
     1
102
RTVSPost2010Prop30
280
     1
102
RTVSPost2010PropOp30
 70
     1
102
RTVSPost2010Prop31
280
     0
102
RTVSPost2010PropOp31
 70
     1
102
RTVSPost2010Prop32
280
     0
102
RTVSPost2010PropOp32
 70
     1
102
RTVSPost2010Prop33
280
     0
102
RTVSPost2010PropOp33
 70
     1
102
RTVSPost2010Prop34
280
     0
102
RTVSPost2010PropOp34
 70
     1
102
RTVSPost2010Prop35
280
     0
102
RTVSPost2010PropOp35
 70
     1
102
RTVSPost2010Prop36
280
     0
102
RTVSPost2010PropOp36
 70
     1
102
RTVSPost2010Prop37
 90
       50
102
RTVSPost2010PropOp37
 70
     1
102
RTVSPost2010Prop38
140
0.0
102
RTVSPost2010PropOp38
 70
     1
102
RTVSPost2010Prop39
140
1.0
102
RTVSPost2010PropOp39
 70
     1
102
RTVSPost2010Prop40
 90
        0
102
RTVSPost2010PropOp40
 70
     1
102
RTVSPost2010Prop41ColorIndex
 90
       18
102
RTVSPost2010Prop41ColorRGB
 90
        0
102
RTVSPost2010PropOp41
 70
     1
102
RTVSPost2010Prop42
 90
       50
102
RTVSPost2010PropOp42
 70
     1
102
RTVSPost2010Prop43
 90
        3
102
RTVSPost2010PropOp43
 70
     1
102
RTVSPost2010Prop44ColorIndex
 90
        5
102
RTVSPost2010Prop44ColorRGB
 90
      255
102
RTVSPost2010PropOp44
 70
     1
102
RTVSPost2010Prop45
280
     0
102
RTVSPost2010PropOp45
 70
     1
102
RTVSPost2010Prop46
 90
       50
102
RTVSPost2010PropOp46
 70
     1
102
RTVSPost2010Prop47
 90
       50
102
RTVSPost2010PropOp47
 70
     1
102
RTVSPost2010Prop48
 90
       50
102
RTVSPost2010PropOp48
 70
     1
102
RTVSPost2010Prop49
280
     0
102
RTVSPost2010PropOp49
 70
     1
102
RTVSPost2010Prop50
 90
       50
102
RTVSPost2010PropOp50
 70
     1
102
RTVSPost2010Prop51ColorIndex
 90
      256
102
RTVSPost2010Prop51ColorRGB
 90
-16777216
102
RTVSPost2010PropOp51
 70
     0
102
RTVSPost2010Prop52
140
1.0
102
RTVSPost2010PropOp52
 70
     0
102
RTVSPost2010Prop53
 90
        2
102
RTVSPost2010PropOp53
 70
     1
102
RTVSPost2010Prop54
  1
strokes_ogs.tif
102
RTVSPost2010PropOp54
 70
     1
102
RTVSPost2010Prop55
280
     0
102
RTVSPost2010PropOp55
 70
     1
102
RTVSPost2010Prop56
140
1.0
102
RTVSPost2010PropOp56
 70
     1
102
RTVSPost2010Prop57
140
1.0
102
RTVSPost2010PropOp57
 70
     1
102
RTVSPropertyOp0
 70
     1
102
RTVSPropertyOp1
 70
     1
102
RTVSPropertyOp2
 70
     1
102
RTVSPropertyOp3
 70
     1
102
RTVSPropertyOp4
 70
     1
102
RTVSPropertyOp5
 70
     1
102
RTVSPropertyOp6
 70
     1
102
RTVSPropertyOp7
 70
     1
102
RTVSPropertyOp8
 70
     1
102
RTVSPropertyOp9
 70
     1
102
RTVSPropertyOp10
 70
     1
102
RTVSPropertyOp11
 70
     1
102
RTVSPropertyOp12
 70
     1
102
RTVSPropertyOp13
 70
     1
102
RTVSPropertyOp14
 70
     1
102
RTVSPropertyOp15
 70
     1
102
RTVSPropertyOp16
 70
     1
102
RTVSPropertyOp17
 70
     1
102
RTVSPropertyOp18
 70
     1
102
RTVSPropertyOp19
 70
     1
102
RTVSPropertyOp20
 70
     1
102
RTVSPropertyOp21
 70
     1
102
RTVSPropertyOp22
 70
     1
102
RTVSPropertyOp23
 70
     1
102
RTVSPropertyOp24
 70
     1
102
RTVSPropertyOp25
 70
     1
102
RTVSPropertyOp26
 70
     1
102
RTVSPropertyOp27
 70
     1
102
RTVSPropertyOp28
 70
     1
102
RTVSPropertyOp29
 70
     1
102
RTVSPropertyOp30
 70
     1
102
RTVSPropertyOp31
 70
     1
102
RTVSPropertyOp32
 70
     1
102
RTVSPropertyOp33
 70
     1
102
RTVSPropertyOp34
 70
     1
102
RTVSPropertyOp35
 70
     1
102
RTVSPropertyOp36
 70
     1
102
RTVSPropertyOp37
 70
     1
102
RTVSPropertyOp38
 70
     1
102
RTVSPropertyOp39
 70
     1
102
RTVSPropertyOp40
 70
     1
102
RTVSPropertyOp41
 70
     1
102
RTVSPropertyOp42
 70
     1
102
RTVSPropertyOp43
 70
     1
102
RTVSPropertyOp44
 70
     1
102
RTVSPropertyOp45
 70
     1
102
RTVSPropertyOp46
 70
     1
102
RTVSPropertyOp47
 70
     1
102
RTVSPropertyOp48
 70
     1
102
RTVSPropertyOp49
 70
     1
102
RTVSPropertyOp50
 70
     1
102
RTVSPropertyOp51
 70
     0
102
RTVSPropertyOp52
 70
     0
102
RTVSPropertyOp53
 70
     1
102
RTVSPropertyOp54
 70
     1
102
RTVSPropertyOp55
 70
     1
102
RTVSPropertyOp56
 70
     1
102
RTVSPropertyOp57
 70
     1
102
RTVSPropertyOp58
 70
     1
102
RTVSPropertyOp59
 70
     1
102
RTVSPropertyOp60
 70
     1
102
RTVSPropertyOp61
 70
     1
102
RTVSPropertyOp62
 70
     1
  0
XRECORD
  5
884B
102
{ACAD_REACTORS
330
884A
102
}
330
884A
100
AcDbXrecord
280
     1
102
RTVSPost2010Prop28
280
     0
102
RTVSPost2010PropOp28
 70
     1
102
RTVSPost2010Prop29
280
     1
102
RTVSPost2010PropOp29
 70
     1
102
RTVSPost2010Prop30
280
     1
102
RTVSPost2010PropOp30
 70
     1
102
RTVSPost2010Prop31
280
     0
102
RTVSPost2010PropOp31
 70
     1
102
RTVSPost2010Prop32
280
     0
102
RTVSPost2010PropOp32
 70
     1
102
RTVSPost2010Prop33
280
     0
102
RTVSPost2010PropOp33
 70
     1
102
RTVSPost2010Prop34
280
     0
102
RTVSPost2010PropOp34
 70
     1
102
RTVSPost2010Prop35
280
     0
102
RTVSPost2010PropOp35
 70
     1
102
RTVSPost2010Prop36
280
     0
102
RTVSPost2010PropOp36
 70
     1
102
RTVSPost2010Prop37
 90
       50
102
RTVSPost2010PropOp37
 70
     0
102
RTVSPost2010Prop38
140
0.0
102
RTVSPost2010PropOp38
 70
     0
102
RTVSPost2010Prop39
140
1.0
102
RTVSPost2010PropOp39
 70
     0
102
RTVSPost2010Prop40
 90
        0
102
RTVSPost2010PropOp40
 70
     0
102
RTVSPost2010Prop41ColorIndex
 90
       18
102
RTVSPost2010Prop41ColorRGB
 90
        0
102
RTVSPost2010PropOp41
 70
     0
102
RTVSPost2010Prop42
 90
       50
102
RTVSPost2010PropOp42
 70
     0
102
RTVSPost2010Prop43
 90
        3
102
RTVSPost2010PropOp43
 70
     0
102
RTVSPost2010Prop44ColorIndex
 90
        5
102
RTVSPost2010Prop44ColorRGB
 90
      255
102
RTVSPost2010PropOp44
 70
     0
102
RTVSPost2010Prop45
280
     0
102
RTVSPost2010PropOp45
 70
     1
102
RTVSPost2010Prop46
 90
       50
102
RTVSPost2010PropOp46
 70
     0
102
RTVSPost2010Prop47
 90
       50
102
RTVSPost2010PropOp47
 70
     0
102
RTVSPost2010Prop48
 90
       50
102
RTVSPost2010PropOp48
 70
     0
102
RTVSPost2010Prop49
280
     0
102
RTVSPost2010PropOp49
 70
     1
102
RTVSPost2010Prop50
 90
       50
102
RTVSPost2010PropOp50
 70
     0
102
RTVSPost2010Prop51ColorIndex
 90
      256
102
RTVSPost2010Prop51ColorRGB
 90
-16777216
102
RTVSPost2010PropOp51
 70
     0
102
RTVSPost2010Prop52
140
1.0
102
RTVSPost2010PropOp52
 70
     0
102
RTVSPost2010Prop53
 90
        2
102
RTVSPost2010PropOp53
 70
     0
102
RTVSPost2010Prop54
  1
strokes_ogs.tif
102
RTVSPost2010PropOp54
 70
     0
102
RTVSPost2010Prop55
280
     0
102
RTVSPost2010PropOp55
 70
     1
102
RTVSPost2010Prop56
140
1.0
102
RTVSPost2010PropOp56
 70
     0
102
RTVSPost2010Prop57
140
1.0
102
RTVSPost2010PropOp57
 70
     0
102
RTVSPropertyOp0
 70
     0
102
RTVSPropertyOp1
 70
     0
102
RTVSPropertyOp2
 70
     0
102
RTVSPropertyOp3
 70
     0
102
RTVSPropertyOp4
 70
     0
102
RTVSPropertyOp5
 70
     0
102
RTVSPropertyOp6
 70
     0
102
RTVSPropertyOp7
 70
     0
102
RTVSPropertyOp8
 70
     0
102
RTVSPropertyOp9
 70
     0
102
RTVSPropertyOp10
 70
     0
102
RTVSPropertyOp11
 70
     0
102
RTVSPropertyOp12
 70
     0
102
RTVSPropertyOp13
 70
     0
102
RTVSPropertyOp14
 70
     2
102
RTVSPropertyOp15
 70
     0
102
RTVSPropertyOp16
 70
     0
102
RTVSPropertyOp17
 70
     0
102
RTVSPropertyOp18
 70
     0
102
RTVSPropertyOp19
 70
     0
102
RTVSPropertyOp20
 70
     0
102
RTVSPropertyOp21
 70
     0
102
RTVSPropertyOp22
 70
     0
102
RTVSPropertyOp23
 70
     0
102
RTVSPropertyOp24
 70
     0
102
RTVSPropertyOp25
 70
     0
102
RTVSPropertyOp26
 70
     0
102
RTVSPropertyOp27
 70
     0
102
RTVSPropertyOp28
 70
     1
102
RTVSPropertyOp29
 70
     1
102
RTVSPropertyOp30
 70
     1
102
RTVSPropertyOp31
 70
     1
102
RTVSPropertyOp32
 70
     1
102
RTVSPropertyOp33
 70
     1
102
RTVSPropertyOp34
 70
     1
102
RTVSPropertyOp35
 70
     1
102
RTVSPropertyOp36
 70
     1
102
RTVSPropertyOp37
 70
     0
102
RTVSPropertyOp38
 70
     0
102
RTVSPropertyOp39
 70
     0
102
RTVSPropertyOp40
 70
     0
102
RTVSPropertyOp41
 70
     0
102
RTVSPropertyOp42
 70
     0
102
RTVSPropertyOp43
 70
     0
102
RTVSPropertyOp44
 70
     0
102
RTVSPropertyOp45
 70
     1
102
RTVSPropertyOp46
 70
     0
102
RTVSPropertyOp47
 70
     0
102
RTVSPropertyOp48
 70
     0
102
RTVSPropertyOp49
 70
     1
102
RTVSPropertyOp50
 70
     0
102
RTVSPropertyOp51
 70
     0
102
RTVSPropertyOp52
 70
     0
102
RTVSPropertyOp53
 70
     0
102
RTVSPropertyOp54
 70
     0
102
RTVSPropertyOp55
 70
     1
102
RTVSPropertyOp56
 70
     0
102
RTVSPropertyOp57
 70
     0
102
RTVSPropertyOp58
 70
     0
102
RTVSPropertyOp59
 70
     0
102
RTVSPropertyOp60
 70
     0
102
RTVSPropertyOp61
 70
     0
102
RTVSPropertyOp62
 70
     0
  0
XRECORD
  5
8839
102
{ACAD_REACTORS
330
8838
102
}
330
8838
100
AcDbXrecord
280
     1
102
RTVSPost2010Prop28
280
     0
102
RTVSPost2010PropOp28
 70
     1
102
RTVSPost2010Prop29
280
     1
102
RTVSPost2010PropOp29
 70
     1
102
RTVSPost2010Prop30
280
     1
102
RTVSPost2010PropOp30
 70
     1
102
RTVSPost2010Prop31
280
     0
102
RTVSPost2010PropOp31
 70
     1
102
RTVSPost2010Prop32
280
     0
102
RTVSPost2010PropOp32
 70
     1
102
RTVSPost2010Prop33
280
     0
102
RTVSPost2010PropOp33
 70
     1
102
RTVSPost2010Prop34
280
     0
102
RTVSPost2010PropOp34
 70
     1
102
RTVSPost2010Prop35
280
     0
102
RTVSPost2010PropOp35
 70
     1
102
RTVSPost2010Prop36
280
     0
102
RTVSPost2010PropOp36
 70
     1
102
RTVSPost2010Prop37
 90
       50
102
RTVSPost2010PropOp37
 70
     1
102
RTVSPost2010Prop38
140
0.0
102
RTVSPost2010PropOp38
 70
     1
102
RTVSPost2010Prop39
140
1.0
102
RTVSPost2010PropOp39
 70
     1
102
RTVSPost2010Prop40
 90
        0
102
RTVSPost2010PropOp40
 70
     1
102
RTVSPost2010Prop41ColorIndex
 90
       18
102
RTVSPost2010Prop41ColorRGB
 90
        0
102
RTVSPost2010PropOp41
 70
     1
102
RTVSPost2010Prop42
 90
       50
102
RTVSPost2010PropOp42
 70
     1
102
RTVSPost2010Prop43
 90
        3
102
RTVSPost2010PropOp43
 70
     1
102
RTVSPost2010Prop44ColorIndex
 90
        5
102
RTVSPost2010Prop44ColorRGB
 90
      255
102
RTVSPost2010PropOp44
 70
     1
102
RTVSPost2010Prop45
280
     0
102
RTVSPost2010PropOp45
 70
     1
102
RTVSPost2010Prop46
 90
       50
102
RTVSPost2010PropOp46
 70
     1
102
RTVSPost2010Prop47
 90
       50
102
RTVSPost2010PropOp47
 70
     1
102
RTVSPost2010Prop48
 90
       50
102
RTVSPost2010PropOp48
 70
     1
102
RTVSPost2010Prop49
280
     0
102
RTVSPost2010PropOp49
 70
     1
102
RTVSPost2010Prop50
 90
       50
102
RTVSPost2010PropOp50
 70
     1
102
RTVSPost2010Prop51ColorIndex
 90
      256
102
RTVSPost2010Prop51ColorRGB
 90
-16777216
102
RTVSPost2010PropOp51
 70
     0
102
RTVSPost2010Prop52
140
1.0
102
RTVSPost2010PropOp52
 70
     0
102
RTVSPost2010Prop53
 90
        2
102
RTVSPost2010PropOp53
 70
     1
102
RTVSPost2010Prop54
  1
strokes_ogs.tif
102
RTVSPost2010PropOp54
 70
     1
102
RTVSPost2010Prop55
280
     0
102
RTVSPost2010PropOp55
 70
     1
102
RTVSPost2010Prop56
140
1.0
102
RTVSPost2010PropOp56
 70
     1
102
RTVSPost2010Prop57
140
1.0
102
RTVSPost2010PropOp57
 70
     1
102
RTVSPropertyOp0
 70
     1
102
RTVSPropertyOp1
 70
     1
102
RTVSPropertyOp2
 70
     1
102
RTVSPropertyOp3
 70
     1
102
RTVSPropertyOp4
 70
     1
102
RTVSPropertyOp5
 70
     1
102
RTVSPropertyOp6
 70
     1
102
RTVSPropertyOp7
 70
     1
102
RTVSPropertyOp8
 70
     1
102
RTVSPropertyOp9
 70
     1
102
RTVSPropertyOp10
 70
     1
102
RTVSPropertyOp11
 70
     1
102
RTVSPropertyOp12
 70
     1
102
RTVSPropertyOp13
 70
     1
102
RTVSPropertyOp14
 70
     1
102
RTVSPropertyOp15
 70
     1
102
RTVSPropertyOp16
 70
     1
102
RTVSPropertyOp17
 70
     1
102
RTVSPropertyOp18
 70
     1
102
RTVSPropertyOp19
 70
     1
102
RTVSPropertyOp20
 70
     1
102
RTVSPropertyOp21
 70
     1
102
RTVSPropertyOp22
 70
     1
102
RTVSPropertyOp23
 70
     1
102
RTVSPropertyOp24
 70
     1
102
RTVSPropertyOp25
 70
     1
102
RTVSPropertyOp26
 70
     1
102
RTVSPropertyOp27
 70
     1
102
RTVSPropertyOp28
 70
     1
102
RTVSPropertyOp29
 70
     1
102
RTVSPropertyOp30
 70
     1
102
RTVSPropertyOp31
 70
     1
102
RTVSPropertyOp32
 70
     1
102
RTVSPropertyOp33
 70
     1
102
RTVSPropertyOp34
 70
     1
102
RTVSPropertyOp35
 70
     1
102
RTVSPropertyOp36
 70
     1
102
RTVSPropertyOp37
 70
     1
102
RTVSPropertyOp38
 70
     1
102
RTVSPropertyOp39
 70
     1
102
RTVSPropertyOp40
 70
     1
102
RTVSPropertyOp41
 70
     1
102
RTVSPropertyOp42
 70
     1
102
RTVSPropertyOp43
 70
     1
102
RTVSPropertyOp44
 70
     1
102
RTVSPropertyOp45
 70
     1
102
RTVSPropertyOp46
 70
     1
102
RTVSPropertyOp47
 70
     1
102
RTVSPropertyOp48
 70
     1
102
RTVSPropertyOp49
 70
     1
102
RTVSPropertyOp50
 70
     1
102
RTVSPropertyOp51
 70
     0
102
RTVSPropertyOp52
 70
     0
102
RTVSPropertyOp53
 70
     1
102
RTVSPropertyOp54
 70
     1
102
RTVSPropertyOp55
 70
     1
102
RTVSPropertyOp56
 70
     1
102
RTVSPropertyOp57
 70
     1
102
RTVSPropertyOp58
 70
     1
102
RTVSPropertyOp59
 70
     1
102
RTVSPropertyOp60
 70
     1
102
RTVSPropertyOp61
 70
     1
102
RTVSPropertyOp62
 70
     1
  0
XRECORD
  5
881D
102
{ACAD_REACTORS
330
881C
102
}
330
881C
100
AcDbXrecord
280
     1
102
RTVSPost2010Prop28
280
     0
102
RTVSPost2010PropOp28
 70
     1
102
RTVSPost2010Prop29
280
     1
102
RTVSPost2010PropOp29
 70
     1
102
RTVSPost2010Prop30
280
     1
102
RTVSPost2010PropOp30
 70
     1
102
RTVSPost2010Prop31
280
     0
102
RTVSPost2010PropOp31
 70
     1
102
RTVSPost2010Prop32
280
     0
102
RTVSPost2010PropOp32
 70
     1
102
RTVSPost2010Prop33
280
     0
102
RTVSPost2010PropOp33
 70
     1
102
RTVSPost2010Prop34
280
     0
102
RTVSPost2010PropOp34
 70
     1
102
RTVSPost2010Prop35
280
     0
102
RTVSPost2010PropOp35
 70
     1
102
RTVSPost2010Prop36
280
     0
102
RTVSPost2010PropOp36
 70
     1
102
RTVSPost2010Prop37
 90
       50
102
RTVSPost2010PropOp37
 70
     1
102
RTVSPost2010Prop38
140
0.0
102
RTVSPost2010PropOp38
 70
     1
102
RTVSPost2010Prop39
140
1.0
102
RTVSPost2010PropOp39
 70
     1
102
RTVSPost2010Prop40
 90
        0
102
RTVSPost2010PropOp40
 70
     1
102
RTVSPost2010Prop41ColorIndex
 90
       18
102
RTVSPost2010Prop41ColorRGB
 90
        0
102
RTVSPost2010PropOp41
 70
     1
102
RTVSPost2010Prop42
 90
       50
102
RTVSPost2010PropOp42
 70
     1
102
RTVSPost2010Prop43
 90
        3
102
RTVSPost2010PropOp43
 70
     1
102
RTVSPost2010Prop44ColorIndex
 90
        5
102
RTVSPost2010Prop44ColorRGB
 90
      255
102
RTVSPost2010PropOp44
 70
     1
102
RTVSPost2010Prop45
280
     0
102
RTVSPost2010PropOp45
 70
     1
102
RTVSPost2010Prop46
 90
       50
102
RTVSPost2010PropOp46
 70
     1
102
RTVSPost2010Prop47
 90
       50
102
RTVSPost2010PropOp47
 70
     1
102
RTVSPost2010Prop48
 90
       50
102
RTVSPost2010PropOp48
 70
     1
102
RTVSPost2010Prop49
280
     0
102
RTVSPost2010PropOp49
 70
     1
102
RTVSPost2010Prop50
 90
       50
102
RTVSPost2010PropOp50
 70
     1
102
RTVSPost2010Prop51ColorIndex
 90
      256
102
RTVSPost2010Prop51ColorRGB
 90
-16777216
102
RTVSPost2010PropOp51
 70
     0
102
RTVSPost2010Prop52
140
1.0
102
RTVSPost2010PropOp52
 70
     0
102
RTVSPost2010Prop53
 90
        2
102
RTVSPost2010PropOp53
 70
     1
102
RTVSPost2010Prop54
  1
strokes_ogs.tif
102
RTVSPost2010PropOp54
 70
     1
102
RTVSPost2010Prop55
280
     0
102
RTVSPost2010PropOp55
 70
     1
102
RTVSPost2010Prop56
140
1.0
102
RTVSPost2010PropOp56
 70
     1
102
RTVSPost2010Prop57
140
1.0
102
RTVSPost2010PropOp57
 70
     1
102
RTVSPropertyOp0
 70
     1
102
RTVSPropertyOp1
 70
     1
102
RTVSPropertyOp2
 70
     1
102
RTVSPropertyOp3
 70
     1
102
RTVSPropertyOp4
 70
     1
102
RTVSPropertyOp5
 70
     1
102
RTVSPropertyOp6
 70
     1
102
RTVSPropertyOp7
 70
     1
102
RTVSPropertyOp8
 70
     1
102
RTVSPropertyOp9
 70
     1
102
RTVSPropertyOp10
 70
     1
102
RTVSPropertyOp11
 70
     1
102
RTVSPropertyOp12
 70
     1
102
RTVSPropertyOp13
 70
     1
102
RTVSPropertyOp14
 70
     1
102
RTVSPropertyOp15
 70
     1
102
RTVSPropertyOp16
 70
     1
102
RTVSPropertyOp17
 70
     1
102
RTVSPropertyOp18
 70
     1
102
RTVSPropertyOp19
 70
     1
102
RTVSPropertyOp20
 70
     1
102
RTVSPropertyOp21
 70
     1
102
RTVSPropertyOp22
 70
     1
102
RTVSPropertyOp23
 70
     1
102
RTVSPropertyOp24
 70
     1
102
RTVSPropertyOp25
 70
     1
102
RTVSPropertyOp26
 70
     1
102
RTVSPropertyOp27
 70
     1
102
RTVSPropertyOp28
 70
     1
102
RTVSPropertyOp29
 70
     1
102
RTVSPropertyOp30
 70
     1
102
RTVSPropertyOp31
 70
     1
102
RTVSPropertyOp32
 70
     1
102
RTVSPropertyOp33
 70
     1
102
RTVSPropertyOp34
 70
     1
102
RTVSPropertyOp35
 70
     1
102
RTVSPropertyOp36
 70
     1
102
RTVSPropertyOp37
 70
     1
102
RTVSPropertyOp38
 70
     1
102
RTVSPropertyOp39
 70
     1
102
RTVSPropertyOp40
 70
     1
102
RTVSPropertyOp41
 70
     1
102
RTVSPropertyOp42
 70
     1
102
RTVSPropertyOp43
 70
     1
102
RTVSPropertyOp44
 70
     1
102
RTVSPropertyOp45
 70
     1
102
RTVSPropertyOp46
 70
     1
102
RTVSPropertyOp47
 70
     1
102
RTVSPropertyOp48
 70
     1
102
RTVSPropertyOp49
 70
     1
102
RTVSPropertyOp50
 70
     1
102
RTVSPropertyOp51
 70
     0
102
RTVSPropertyOp52
 70
     0
102
RTVSPropertyOp53
 70
     1
102
RTVSPropertyOp54
 70
     1
102
RTVSPropertyOp55
 70
     1
102
RTVSPropertyOp56
 70
     1
102
RTVSPropertyOp57
 70
     1
102
RTVSPropertyOp58
 70
     1
102
RTVSPropertyOp59
 70
     1
102
RTVSPropertyOp60
 70
     1
102
RTVSPropertyOp61
 70
     1
102
RTVSPropertyOp62
 70
     1
  0
XRECORD
  5
881F
102
{ACAD_REACTORS
330
881E
102
}
330
881E
100
AcDbXrecord
280
     1
102
RTVSPost2010Prop28
280
     0
102
RTVSPost2010PropOp28
 70
     1
102
RTVSPost2010Prop29
280
     1
102
RTVSPost2010PropOp29
 70
     1
102
RTVSPost2010Prop30
280
     1
102
RTVSPost2010PropOp30
 70
     1
102
RTVSPost2010Prop31
280
     0
102
RTVSPost2010PropOp31
 70
     1
102
RTVSPost2010Prop32
280
     0
102
RTVSPost2010PropOp32
 70
     1
102
RTVSPost2010Prop33
280
     0
102
RTVSPost2010PropOp33
 70
     1
102
RTVSPost2010Prop34
280
     0
102
RTVSPost2010PropOp34
 70
     1
102
RTVSPost2010Prop35
280
     0
102
RTVSPost2010PropOp35
 70
     1
102
RTVSPost2010Prop36
280
     0
102
RTVSPost2010PropOp36
 70
     1
102
RTVSPost2010Prop37
 90
       50
102
RTVSPost2010PropOp37
 70
     1
102
RTVSPost2010Prop38
140
0.0
102
RTVSPost2010PropOp38
 70
     1
102
RTVSPost2010Prop39
140
1.0
102
RTVSPost2010PropOp39
 70
     1
102
RTVSPost2010Prop40
 90
        0
102
RTVSPost2010PropOp40
 70
     1
102
RTVSPost2010Prop41ColorIndex
 90
       18
102
RTVSPost2010Prop41ColorRGB
 90
        0
102
RTVSPost2010PropOp41
 70
     1
102
RTVSPost2010Prop42
 90
       50
102
RTVSPost2010PropOp42
 70
     1
102
RTVSPost2010Prop43
 90
        3
102
RTVSPost2010PropOp43
 70
     1
102
RTVSPost2010Prop44ColorIndex
 90
        5
102
RTVSPost2010Prop44ColorRGB
 90
      255
102
RTVSPost2010PropOp44
 70
     1
102
RTVSPost2010Prop45
280
     0
102
RTVSPost2010PropOp45
 70
     1
102
RTVSPost2010Prop46
 90
       50
102
RTVSPost2010PropOp46
 70
     1
102
RTVSPost2010Prop47
 90
       50
102
RTVSPost2010PropOp47
 70
     1
102
RTVSPost2010Prop48
 90
       50
102
RTVSPost2010PropOp48
 70
     1
102
RTVSPost2010Prop49
280
     0
102
RTVSPost2010PropOp49
 70
     1
102
RTVSPost2010Prop50
 90
       50
102
RTVSPost2010PropOp50
 70
     1
102
RTVSPost2010Prop51ColorIndex
 90
      256
102
RTVSPost2010Prop51ColorRGB
 90
-16777216
102
RTVSPost2010PropOp51
 70
     0
102
RTVSPost2010Prop52
140
1.0
102
RTVSPost2010PropOp52
 70
     0
102
RTVSPost2010Prop53
 90
        2
102
RTVSPost2010PropOp53
 70
     1
102
RTVSPost2010Prop54
  1
strokes_ogs.tif
102
RTVSPost2010PropOp54
 70
     1
102
RTVSPost2010Prop55
280
     0
102
RTVSPost2010PropOp55
 70
     1
102
RTVSPost2010Prop56
140
1.0
102
RTVSPost2010PropOp56
 70
     1
102
RTVSPost2010Prop57
140
1.0
102
RTVSPost2010PropOp57
 70
     1
102
RTVSPropertyOp0
 70
     1
102
RTVSPropertyOp1
 70
     1
102
RTVSPropertyOp2
 70
     1
102
RTVSPropertyOp3
 70
     1
102
RTVSPropertyOp4
 70
     1
102
RTVSPropertyOp5
 70
     1
102
RTVSPropertyOp6
 70
     1
102
RTVSPropertyOp7
 70
     1
102
RTVSPropertyOp8
 70
     1
102
RTVSPropertyOp9
 70
     1
102
RTVSPropertyOp10
 70
     1
102
RTVSPropertyOp11
 70
     1
102
RTVSPropertyOp12
 70
     1
102
RTVSPropertyOp13
 70
     1
102
RTVSPropertyOp14
 70
     1
102
RTVSPropertyOp15
 70
     1
102
RTVSPropertyOp16
 70
     1
102
RTVSPropertyOp17
 70
     1
102
RTVSPropertyOp18
 70
     1
102
RTVSPropertyOp19
 70
     1
102
RTVSPropertyOp20
 70
     1
102
RTVSPropertyOp21
 70
     1
102
RTVSPropertyOp22
 70
     1
102
RTVSPropertyOp23
 70
     1
102
RTVSPropertyOp24
 70
     1
102
RTVSPropertyOp25
 70
     1
102
RTVSPropertyOp26
 70
     1
102
RTVSPropertyOp27
 70
     1
102
RTVSPropertyOp28
 70
     1
102
RTVSPropertyOp29
 70
     1
102
RTVSPropertyOp30
 70
     1
102
RTVSPropertyOp31
 70
     1
102
RTVSPropertyOp32
 70
     1
102
RTVSPropertyOp33
 70
     1
102
RTVSPropertyOp34
 70
     1
102
RTVSPropertyOp35
 70
     1
102
RTVSPropertyOp36
 70
     1
102
RTVSPropertyOp37
 70
     1
102
RTVSPropertyOp38
 70
     1
102
RTVSPropertyOp39
 70
     1
102
RTVSPropertyOp40
 70
     1
102
RTVSPropertyOp41
 70
     1
102
RTVSPropertyOp42
 70
     1
102
RTVSPropertyOp43
 70
     1
102
RTVSPropertyOp44
 70
     1
102
RTVSPropertyOp45
 70
     1
102
RTVSPropertyOp46
 70
     1
102
RTVSPropertyOp47
 70
     1
102
RTVSPropertyOp48
 70
     1
102
RTVSPropertyOp49
 70
     1
102
RTVSPropertyOp50
 70
     1
102
RTVSPropertyOp51
 70
     0
102
RTVSPropertyOp52
 70
     0
102
RTVSPropertyOp53
 70
     1
102
RTVSPropertyOp54
 70
     1
102
RTVSPropertyOp55
 70
     1
102
RTVSPropertyOp56
 70
     1
102
RTVSPropertyOp57
 70
     1
102
RTVSPropertyOp58
 70
     1
102
RTVSPropertyOp59
 70
     1
102
RTVSPropertyOp60
 70
     1
102
RTVSPropertyOp61
 70
     1
102
RTVSPropertyOp62
 70
     1
  0
XRECORD
  5
8821
102
{ACAD_REACTORS
330
8820
102
}
330
8820
100
AcDbXrecord
280
     1
102
RTVSPost2010Prop28
280
     0
102
RTVSPost2010PropOp28
 70
     1
102
RTVSPost2010Prop29
280
     1
102
RTVSPost2010PropOp29
 70
     1
102
RTVSPost2010Prop30
280
     1
102
RTVSPost2010PropOp30
 70
     1
102
RTVSPost2010Prop31
280
     0
102
RTVSPost2010PropOp31
 70
     1
102
RTVSPost2010Prop32
280
     0
102
RTVSPost2010PropOp32
 70
     1
102
RTVSPost2010Prop33
280
     0
102
RTVSPost2010PropOp33
 70
     1
102
RTVSPost2010Prop34
280
     0
102
RTVSPost2010PropOp34
 70
     1
102
RTVSPost2010Prop35
280
     0
102
RTVSPost2010PropOp35
 70
     1
102
RTVSPost2010Prop36
280
     0
102
RTVSPost2010PropOp36
 70
     1
102
RTVSPost2010Prop37
 90
       50
102
RTVSPost2010PropOp37
 70
     1
102
RTVSPost2010Prop38
140
0.0
102
RTVSPost2010PropOp38
 70
     1
102
RTVSPost2010Prop39
140
1.0
102
RTVSPost2010PropOp39
 70
     1
102
RTVSPost2010Prop40
 90
        0
102
RTVSPost2010PropOp40
 70
     1
102
RTVSPost2010Prop41ColorIndex
 90
       18
102
RTVSPost2010Prop41ColorRGB
 90
        0
102
RTVSPost2010PropOp41
 70
     1
102
RTVSPost2010Prop42
 90
       50
102
RTVSPost2010PropOp42
 70
     1
102
RTVSPost2010Prop43
 90
        3
102
RTVSPost2010PropOp43
 70
     1
102
RTVSPost2010Prop44ColorIndex
 90
        5
102
RTVSPost2010Prop44ColorRGB
 90
      255
102
RTVSPost2010PropOp44
 70
     1
102
RTVSPost2010Prop45
280
     0
102
RTVSPost2010PropOp45
 70
     1
102
RTVSPost2010Prop46
 90
       50
102
RTVSPost2010PropOp46
 70
     1
102
RTVSPost2010Prop47
 90
       50
102
RTVSPost2010PropOp47
 70
     1
102
RTVSPost2010Prop48
 90
       50
102
RTVSPost2010PropOp48
 70
     1
102
RTVSPost2010Prop49
280
     0
102
RTVSPost2010PropOp49
 70
     1
102
RTVSPost2010Prop50
 90
       50
102
RTVSPost2010PropOp50
 70
     1
102
RTVSPost2010Prop51ColorIndex
 90
      256
102
RTVSPost2010Prop51ColorRGB
 90
-16777216
102
RTVSPost2010PropOp51
 70
     0
102
RTVSPost2010Prop52
140
1.0
102
RTVSPost2010PropOp52
 70
     0
102
RTVSPost2010Prop53
 90
        2
102
RTVSPost2010PropOp53
 70
     1
102
RTVSPost2010Prop54
  1
strokes_ogs.tif
102
RTVSPost2010PropOp54
 70
     1
102
RTVSPost2010Prop55
280
     0
102
RTVSPost2010PropOp55
 70
     1
102
RTVSPost2010Prop56
140
1.0
102
RTVSPost2010PropOp56
 70
     1
102
RTVSPost2010Prop57
140
1.0
102
RTVSPost2010PropOp57
 70
     1
102
RTVSPropertyOp0
 70
     1
102
RTVSPropertyOp1
 70
     1
102
RTVSPropertyOp2
 70
     1
102
RTVSPropertyOp3
 70
     1
102
RTVSPropertyOp4
 70
     1
102
RTVSPropertyOp5
 70
     1
102
RTVSPropertyOp6
 70
     1
102
RTVSPropertyOp7
 70
     1
102
RTVSPropertyOp8
 70
     1
102
RTVSPropertyOp9
 70
     1
102
RTVSPropertyOp10
 70
     1
102
RTVSPropertyOp11
 70
     1
102
RTVSPropertyOp12
 70
     1
102
RTVSPropertyOp13
 70
     1
102
RTVSPropertyOp14
 70
     1
102
RTVSPropertyOp15
 70
     1
102
RTVSPropertyOp16
 70
     1
102
RTVSPropertyOp17
 70
     1
102
RTVSPropertyOp18
 70
     1
102
RTVSPropertyOp19
 70
     1
102
RTVSPropertyOp20
 70
     1
102
RTVSPropertyOp21
 70
     1
102
RTVSPropertyOp22
 70
     1
102
RTVSPropertyOp23
 70
     1
102
RTVSPropertyOp24
 70
     1
102
RTVSPropertyOp25
 70
     1
102
RTVSPropertyOp26
 70
     1
102
RTVSPropertyOp27
 70
     1
102
RTVSPropertyOp28
 70
     1
102
RTVSPropertyOp29
 70
     1
102
RTVSPropertyOp30
 70
     1
102
RTVSPropertyOp31
 70
     1
102
RTVSPropertyOp32
 70
     1
102
RTVSPropertyOp33
 70
     1
102
RTVSPropertyOp34
 70
     1
102
RTVSPropertyOp35
 70
     1
102
RTVSPropertyOp36
 70
     1
102
RTVSPropertyOp37
 70
     1
102
RTVSPropertyOp38
 70
     1
102
RTVSPropertyOp39
 70
     1
102
RTVSPropertyOp40
 70
     1
102
RTVSPropertyOp41
 70
     1
102
RTVSPropertyOp42
 70
     1
102
RTVSPropertyOp43
 70
     1
102
RTVSPropertyOp44
 70
     1
102
RTVSPropertyOp45
 70
     1
102
RTVSPropertyOp46
 70
     1
102
RTVSPropertyOp47
 70
     1
102
RTVSPropertyOp48
 70
     1
102
RTVSPropertyOp49
 70
     1
102
RTVSPropertyOp50
 70
     1
102
RTVSPropertyOp51
 70
     0
102
RTVSPropertyOp52
 70
     0
102
RTVSPropertyOp53
 70
     1
102
RTVSPropertyOp54
 70
     1
102
RTVSPropertyOp55
 70
     1
102
RTVSPropertyOp56
 70
     1
102
RTVSPropertyOp57
 70
     1
102
RTVSPropertyOp58
 70
     1
102
RTVSPropertyOp59
 70
     1
102
RTVSPropertyOp60
 70
     1
102
RTVSPropertyOp61
 70
     1
102
RTVSPropertyOp62
 70
     1
  0
XRECORD
  5
8823
102
{ACAD_REACTORS
330
8822
102
}
330
8822
100
AcDbXrecord
280
     1
102
RTVSPost2010Prop28
280
     0
102
RTVSPost2010PropOp28
 70
     1
102
RTVSPost2010Prop29
280
     1
102
RTVSPost2010PropOp29
 70
     1
102
RTVSPost2010Prop30
280
     1
102
RTVSPost2010PropOp30
 70
     1
102
RTVSPost2010Prop31
280
     0
102
RTVSPost2010PropOp31
 70
     1
102
RTVSPost2010Prop32
280
     0
102
RTVSPost2010PropOp32
 70
     1
102
RTVSPost2010Prop33
280
     0
102
RTVSPost2010PropOp33
 70
     1
102
RTVSPost2010Prop34
280
     0
102
RTVSPost2010PropOp34
 70
     1
102
RTVSPost2010Prop35
280
     0
102
RTVSPost2010PropOp35
 70
     1
102
RTVSPost2010Prop36
280
     0
102
RTVSPost2010PropOp36
 70
     1
102
RTVSPost2010Prop37
 90
       50
102
RTVSPost2010PropOp37
 70
     1
102
RTVSPost2010Prop38
140
0.0
102
RTVSPost2010PropOp38
 70
     1
102
RTVSPost2010Prop39
140
1.0
102
RTVSPost2010PropOp39
 70
     1
102
RTVSPost2010Prop40
 90
        0
102
RTVSPost2010PropOp40
 70
     1
102
RTVSPost2010Prop41ColorIndex
 90
       18
102
RTVSPost2010Prop41ColorRGB
 90
        0
102
RTVSPost2010PropOp41
 70
     1
102
RTVSPost2010Prop42
 90
       50
102
RTVSPost2010PropOp42
 70
     1
102
RTVSPost2010Prop43
 90
        3
102
RTVSPost2010PropOp43
 70
     1
102
RTVSPost2010Prop44ColorIndex
 90
        5
102
RTVSPost2010Prop44ColorRGB
 90
      255
102
RTVSPost2010PropOp44
 70
     1
102
RTVSPost2010Prop45
280
     0
102
RTVSPost2010PropOp45
 70
     1
102
RTVSPost2010Prop46
 90
       50
102
RTVSPost2010PropOp46
 70
     1
102
RTVSPost2010Prop47
 90
       50
102
RTVSPost2010PropOp47
 70
     1
102
RTVSPost2010Prop48
 90
       50
102
RTVSPost2010PropOp48
 70
     1
102
RTVSPost2010Prop49
280
     0
102
RTVSPost2010PropOp49
 70
     1
102
RTVSPost2010Prop50
 90
       50
102
RTVSPost2010PropOp50
 70
     1
102
RTVSPost2010Prop51ColorIndex
 90
      256
102
RTVSPost2010Prop51ColorRGB
 90
-16777216
102
RTVSPost2010PropOp51
 70
     0
102
RTVSPost2010Prop52
140
1.0
102
RTVSPost2010PropOp52
 70
     0
102
RTVSPost2010Prop53
 90
        2
102
RTVSPost2010PropOp53
 70
     1
102
RTVSPost2010Prop54
  1
strokes_ogs.tif
102
RTVSPost2010PropOp54
 70
     1
102
RTVSPost2010Prop55
280
     0
102
RTVSPost2010PropOp55
 70
     1
102
RTVSPost2010Prop56
140
1.0
102
RTVSPost2010PropOp56
 70
     1
102
RTVSPost2010Prop57
140
1.0
102
RTVSPost2010PropOp57
 70
     1
102
RTVSPropertyOp0
 70
     1
102
RTVSPropertyOp1
 70
     1
102
RTVSPropertyOp2
 70
     1
102
RTVSPropertyOp3
 70
     1
102
RTVSPropertyOp4
 70
     1
102
RTVSPropertyOp5
 70
     1
102
RTVSPropertyOp6
 70
     1
102
RTVSPropertyOp7
 70
     1
102
RTVSPropertyOp8
 70
     1
102
RTVSPropertyOp9
 70
     1
102
RTVSPropertyOp10
 70
     1
102
RTVSPropertyOp11
 70
     1
102
RTVSPropertyOp12
 70
     1
102
RTVSPropertyOp13
 70
     1
102
RTVSPropertyOp14
 70
     1
102
RTVSPropertyOp15
 70
     1
102
RTVSPropertyOp16
 70
     1
102
RTVSPropertyOp17
 70
     1
102
RTVSPropertyOp18
 70
     1
102
RTVSPropertyOp19
 70
     1
102
RTVSPropertyOp20
 70
     1
102
RTVSPropertyOp21
 70
     1
102
RTVSPropertyOp22
 70
     1
102
RTVSPropertyOp23
 70
     1
102
RTVSPropertyOp24
 70
     1
102
RTVSPropertyOp25
 70
     1
102
RTVSPropertyOp26
 70
     1
102
RTVSPropertyOp27
 70
     1
102
RTVSPropertyOp28
 70
     1
102
RTVSPropertyOp29
 70
     1
102
RTVSPropertyOp30
 70
     1
102
RTVSPropertyOp31
 70
     1
102
RTVSPropertyOp32
 70
     1
102
RTVSPropertyOp33
 70
     1
102
RTVSPropertyOp34
 70
     1
102
RTVSPropertyOp35
 70
     1
102
RTVSPropertyOp36
 70
     1
102
RTVSPropertyOp37
 70
     1
102
RTVSPropertyOp38
 70
     1
102
RTVSPropertyOp39
 70
     1
102
RTVSPropertyOp40
 70
     1
102
RTVSPropertyOp41
 70
     1
102
RTVSPropertyOp42
 70
     1
102
RTVSPropertyOp43
 70
     1
102
RTVSPropertyOp44
 70
     1
102
RTVSPropertyOp45
 70
     1
102
RTVSPropertyOp46
 70
     1
102
RTVSPropertyOp47
 70
     1
102
RTVSPropertyOp48
 70
     1
102
RTVSPropertyOp49
 70
     1
102
RTVSPropertyOp50
 70
     1
102
RTVSPropertyOp51
 70
     0
102
RTVSPropertyOp52
 70
     0
102
RTVSPropertyOp53
 70
     1
102
RTVSPropertyOp54
 70
     1
102
RTVSPropertyOp55
 70
     1
102
RTVSPropertyOp56
 70
     1
102
RTVSPropertyOp57
 70
     1
102
RTVSPropertyOp58
 70
     1
102
RTVSPropertyOp59
 70
     1
102
RTVSPropertyOp60
 70
     1
102
RTVSPropertyOp61
 70
     1
102
RTVSPropertyOp62
 70
     1
  0
XRECORD
  5
882B
102
{ACAD_REACTORS
330
882A
102
}
330
882A
100
AcDbXrecord
280
     1
102
RTVSPost2010Prop28
280
     0
102
RTVSPost2010PropOp28
 70
     1
102
RTVSPost2010Prop29
280
     1
102
RTVSPost2010PropOp29
 70
     1
102
RTVSPost2010Prop30
280
     1
102
RTVSPost2010PropOp30
 70
     1
102
RTVSPost2010Prop31
280
     0
102
RTVSPost2010PropOp31
 70
     1
102
RTVSPost2010Prop32
280
     0
102
RTVSPost2010PropOp32
 70
     1
102
RTVSPost2010Prop33
280
     0
102
RTVSPost2010PropOp33
 70
     1
102
RTVSPost2010Prop34
280
     0
102
RTVSPost2010PropOp34
 70
     1
102
RTVSPost2010Prop35
280
     0
102
RTVSPost2010PropOp35
 70
     1
102
RTVSPost2010Prop36
280
     0
102
RTVSPost2010PropOp36
 70
     1
102
RTVSPost2010Prop37
 90
       50
102
RTVSPost2010PropOp37
 70
     1
102
RTVSPost2010Prop38
140
0.0
102
RTVSPost2010PropOp38
 70
     1
102
RTVSPost2010Prop39
140
1.0
102
RTVSPost2010PropOp39
 70
     1
102
RTVSPost2010Prop40
 90
        0
102
RTVSPost2010PropOp40
 70
     1
102
RTVSPost2010Prop41ColorIndex
 90
       18
102
RTVSPost2010Prop41ColorRGB
 90
        0
102
RTVSPost2010PropOp41
 70
     1
102
RTVSPost2010Prop42
 90
       50
102
RTVSPost2010PropOp42
 70
     1
102
RTVSPost2010Prop43
 90
        3
102
RTVSPost2010PropOp43
 70
     1
102
RTVSPost2010Prop44ColorIndex
 90
        5
102
RTVSPost2010Prop44ColorRGB
 90
      255
102
RTVSPost2010PropOp44
 70
     1
102
RTVSPost2010Prop45
280
     0
102
RTVSPost2010PropOp45
 70
     1
102
RTVSPost2010Prop46
 90
       50
102
RTVSPost2010PropOp46
 70
     1
102
RTVSPost2010Prop47
 90
       50
102
RTVSPost2010PropOp47
 70
     1
102
RTVSPost2010Prop48
 90
       50
102
RTVSPost2010PropOp48
 70
     1
102
RTVSPost2010Prop49
280
     0
102
RTVSPost2010PropOp49
 70
     1
102
RTVSPost2010Prop50
 90
       50
102
RTVSPost2010PropOp50
 70
     1
102
RTVSPost2010Prop51ColorIndex
 90
      256
102
RTVSPost2010Prop51ColorRGB
 90
-16777216
102
RTVSPost2010PropOp51
 70
     0
102
RTVSPost2010Prop52
140
1.0
102
RTVSPost2010PropOp52
 70
     0
102
RTVSPost2010Prop53
 90
        2
102
RTVSPost2010PropOp53
 70
     1
102
RTVSPost2010Prop54
  1
strokes_ogs.tif
102
RTVSPost2010PropOp54
 70
     1
102
RTVSPost2010Prop55
280
     0
102
RTVSPost2010PropOp55
 70
     1
102
RTVSPost2010Prop56
140
1.0
102
RTVSPost2010PropOp56
 70
     1
102
RTVSPost2010Prop57
140
1.0
102
RTVSPost2010PropOp57
 70
     1
102
RTVSPropertyOp0
 70
     1
102
RTVSPropertyOp1
 70
     1
102
RTVSPropertyOp2
 70
     1
102
RTVSPropertyOp3
 70
     1
102
RTVSPropertyOp4
 70
     1
102
RTVSPropertyOp5
 70
     1
102
RTVSPropertyOp6
 70
     1
102
RTVSPropertyOp7
 70
     1
102
RTVSPropertyOp8
 70
     1
102
RTVSPropertyOp9
 70
     1
102
RTVSPropertyOp10
 70
     1
102
RTVSPropertyOp11
 70
     1
102
RTVSPropertyOp12
 70
     1
102
RTVSPropertyOp13
 70
     1
102
RTVSPropertyOp14
 70
     1
102
RTVSPropertyOp15
 70
     1
102
RTVSPropertyOp16
 70
     1
102
RTVSPropertyOp17
 70
     1
102
RTVSPropertyOp18
 70
     1
102
RTVSPropertyOp19
 70
     1
102
RTVSPropertyOp20
 70
     1
102
RTVSPropertyOp21
 70
     1
102
RTVSPropertyOp22
 70
     1
102
RTVSPropertyOp23
 70
     1
102
RTVSPropertyOp24
 70
     1
102
RTVSPropertyOp25
 70
     1
102
RTVSPropertyOp26
 70
     1
102
RTVSPropertyOp27
 70
     1
102
RTVSPropertyOp28
 70
     1
102
RTVSPropertyOp29
 70
     1
102
RTVSPropertyOp30
 70
     1
102
RTVSPropertyOp31
 70
     1
102
RTVSPropertyOp32
 70
     1
102
RTVSPropertyOp33
 70
     1
102
RTVSPropertyOp34
 70
     1
102
RTVSPropertyOp35
 70
     1
102
RTVSPropertyOp36
 70
     1
102
RTVSPropertyOp37
 70
     1
102
RTVSPropertyOp38
 70
     1
102
RTVSPropertyOp39
 70
     1
102
RTVSPropertyOp40
 70
     1
102
RTVSPropertyOp41
 70
     1
102
RTVSPropertyOp42
 70
     1
102
RTVSPropertyOp43
 70
     1
102
RTVSPropertyOp44
 70
     1
102
RTVSPropertyOp45
 70
     1
102
RTVSPropertyOp46
 70
     1
102
RTVSPropertyOp47
 70
     1
102
RTVSPropertyOp48
 70
     1
102
RTVSPropertyOp49
 70
     1
102
RTVSPropertyOp50
 70
     1
102
RTVSPropertyOp51
 70
     0
102
RTVSPropertyOp52
 70
     0
102
RTVSPropertyOp53
 70
     1
102
RTVSPropertyOp54
 70
     1
102
RTVSPropertyOp55
 70
     1
102
RTVSPropertyOp56
 70
     1
102
RTVSPropertyOp57
 70
     1
102
RTVSPropertyOp58
 70
     1
102
RTVSPropertyOp59
 70
     1
102
RTVSPropertyOp60
 70
     1
102
RTVSPropertyOp61
 70
     1
102
RTVSPropertyOp62
 70
     1
  0
XRECORD
  5
8847
102
{ACAD_REACTORS
330
8846
102
}
330
8846
100
AcDbXrecord
280
     1
102
RTVSPost2010Prop28
280
     0
102
RTVSPost2010PropOp28
 70
     1
102
RTVSPost2010Prop29
280
     1
102
RTVSPost2010PropOp29
 70
     1
102
RTVSPost2010Prop30
280
     1
102
RTVSPost2010PropOp30
 70
     1
102
RTVSPost2010Prop31
280
     0
102
RTVSPost2010PropOp31
 70
     1
102
RTVSPost2010Prop32
280
     0
102
RTVSPost2010PropOp32
 70
     1
102
RTVSPost2010Prop33
280
     0
102
RTVSPost2010PropOp33
 70
     1
102
RTVSPost2010Prop34
280
     0
102
RTVSPost2010PropOp34
 70
     1
102
RTVSPost2010Prop35
280
     0
102
RTVSPost2010PropOp35
 70
     1
102
RTVSPost2010Prop36
280
     0
102
RTVSPost2010PropOp36
 70
     1
102
RTVSPost2010Prop37
 90
       50
102
RTVSPost2010PropOp37
 70
     0
102
RTVSPost2010Prop38
140
0.0
102
RTVSPost2010PropOp38
 70
     0
102
RTVSPost2010Prop39
140
1.0
102
RTVSPost2010PropOp39
 70
     0
102
RTVSPost2010Prop40
 90
        0
102
RTVSPost2010PropOp40
 70
     0
102
RTVSPost2010Prop41ColorIndex
 90
       18
102
RTVSPost2010Prop41ColorRGB
 90
        0
102
RTVSPost2010PropOp41
 70
     0
102
RTVSPost2010Prop42
 90
       50
102
RTVSPost2010PropOp42
 70
     0
102
RTVSPost2010Prop43
 90
        3
102
RTVSPost2010PropOp43
 70
     0
102
RTVSPost2010Prop44ColorIndex
 90
        5
102
RTVSPost2010Prop44ColorRGB
 90
      255
102
RTVSPost2010PropOp44
 70
     0
102
RTVSPost2010Prop45
280
     0
102
RTVSPost2010PropOp45
 70
     1
102
RTVSPost2010Prop46
 90
       50
102
RTVSPost2010PropOp46
 70
     0
102
RTVSPost2010Prop47
 90
       50
102
RTVSPost2010PropOp47
 70
     0
102
RTVSPost2010Prop48
 90
       50
102
RTVSPost2010PropOp48
 70
     0
102
RTVSPost2010Prop49
280
     0
102
RTVSPost2010PropOp49
 70
     1
102
RTVSPost2010Prop50
 90
       50
102
RTVSPost2010PropOp50
 70
     0
102
RTVSPost2010Prop51ColorIndex
 90
      256
102
RTVSPost2010Prop51ColorRGB
 90
-16777216
102
RTVSPost2010PropOp51
 70
     0
102
RTVSPost2010Prop52
140
1.0
102
RTVSPost2010PropOp52
 70
     0
102
RTVSPost2010Prop53
 90
        2
102
RTVSPost2010PropOp53
 70
     0
102
RTVSPost2010Prop54
  1
strokes_ogs.tif
102
RTVSPost2010PropOp54
 70
     0
102
RTVSPost2010Prop55
280
     0
102
RTVSPost2010PropOp55
 70
     1
102
RTVSPost2010Prop56
140
1.0
102
RTVSPost2010PropOp56
 70
     0
102
RTVSPost2010Prop57
140
1.0
102
RTVSPost2010PropOp57
 70
     0
102
RTVSPropertyOp0
 70
     0
102
RTVSPropertyOp1
 70
     0
102
RTVSPropertyOp2
 70
     0
102
RTVSPropertyOp3
 70
     0
102
RTVSPropertyOp4
 70
     0
102
RTVSPropertyOp5
 70
     0
102
RTVSPropertyOp6
 70
     0
102
RTVSPropertyOp7
 70
     0
102
RTVSPropertyOp8
 70
     0
102
RTVSPropertyOp9
 70
     0
102
RTVSPropertyOp10
 70
     0
102
RTVSPropertyOp11
 70
     0
102
RTVSPropertyOp12
 70
     0
102
RTVSPropertyOp13
 70
     0
102
RTVSPropertyOp14
 70
     2
102
RTVSPropertyOp15
 70
     0
102
RTVSPropertyOp16
 70
     0
102
RTVSPropertyOp17
 70
     0
102
RTVSPropertyOp18
 70
     0
102
RTVSPropertyOp19
 70
     0
102
RTVSPropertyOp20
 70
     0
102
RTVSPropertyOp21
 70
     0
102
RTVSPropertyOp22
 70
     0
102
RTVSPropertyOp23
 70
     0
102
RTVSPropertyOp24
 70
     0
102
RTVSPropertyOp25
 70
     0
102
RTVSPropertyOp26
 70
     0
102
RTVSPropertyOp27
 70
     0
102
RTVSPropertyOp28
 70
     1
102
RTVSPropertyOp29
 70
     1
102
RTVSPropertyOp30
 70
     1
102
RTVSPropertyOp31
 70
     1
102
RTVSPropertyOp32
 70
     1
102
RTVSPropertyOp33
 70
     1
102
RTVSPropertyOp34
 70
     1
102
RTVSPropertyOp35
 70
     1
102
RTVSPropertyOp36
 70
     1
102
RTVSPropertyOp37
 70
     0
102
RTVSPropertyOp38
 70
     0
102
RTVSPropertyOp39
 70
     0
102
RTVSPropertyOp40
 70
     0
102
RTVSPropertyOp41
 70
     0
102
RTVSPropertyOp42
 70
     0
102
RTVSPropertyOp43
 70
     0
102
RTVSPropertyOp44
 70
     0
102
RTVSPropertyOp45
 70
     1
102
RTVSPropertyOp46
 70
     0
102
RTVSPropertyOp47
 70
     0
102
RTVSPropertyOp48
 70
     0
102
RTVSPropertyOp49
 70
     1
102
RTVSPropertyOp50
 70
     0
102
RTVSPropertyOp51
 70
     0
102
RTVSPropertyOp52
 70
     0
102
RTVSPropertyOp53
 70
     0
102
RTVSPropertyOp54
 70
     0
102
RTVSPropertyOp55
 70
     1
102
RTVSPropertyOp56
 70
     0
102
RTVSPropertyOp57
 70
     0
102
RTVSPropertyOp58
 70
     0
102
RTVSPropertyOp59
 70
     0
102
RTVSPropertyOp60
 70
     0
102
RTVSPropertyOp61
 70
     0
102
RTVSPropertyOp62
 70
     0
  0
XRECORD
  5
8837
102
{ACAD_REACTORS
330
8836
102
}
330
8836
100
AcDbXrecord
280
     1
102
RTVSPost2010Prop28
280
     0
102
RTVSPost2010PropOp28
 70
     1
102
RTVSPost2010Prop29
280
     1
102
RTVSPost2010PropOp29
 70
     1
102
RTVSPost2010Prop30
280
     1
102
RTVSPost2010PropOp30
 70
     1
102
RTVSPost2010Prop31
280
     0
102
RTVSPost2010PropOp31
 70
     1
102
RTVSPost2010Prop32
280
     0
102
RTVSPost2010PropOp32
 70
     1
102
RTVSPost2010Prop33
280
     0
102
RTVSPost2010PropOp33
 70
     1
102
RTVSPost2010Prop34
280
     0
102
RTVSPost2010PropOp34
 70
     1
102
RTVSPost2010Prop35
280
     0
102
RTVSPost2010PropOp35
 70
     1
102
RTVSPost2010Prop36
280
     0
102
RTVSPost2010PropOp36
 70
     1
102
RTVSPost2010Prop37
 90
       50
102
RTVSPost2010PropOp37
 70
     1
102
RTVSPost2010Prop38
140
0.0
102
RTVSPost2010PropOp38
 70
     1
102
RTVSPost2010Prop39
140
1.0
102
RTVSPost2010PropOp39
 70
     1
102
RTVSPost2010Prop40
 90
        0
102
RTVSPost2010PropOp40
 70
     1
102
RTVSPost2010Prop41ColorIndex
 90
       18
102
RTVSPost2010Prop41ColorRGB
 90
        0
102
RTVSPost2010PropOp41
 70
     1
102
RTVSPost2010Prop42
 90
       50
102
RTVSPost2010PropOp42
 70
     1
102
RTVSPost2010Prop43
 90
        3
102
RTVSPost2010PropOp43
 70
     1
102
RTVSPost2010Prop44ColorIndex
 90
        5
102
RTVSPost2010Prop44ColorRGB
 90
      255
102
RTVSPost2010PropOp44
 70
     1
102
RTVSPost2010Prop45
280
     0
102
RTVSPost2010PropOp45
 70
     1
102
RTVSPost2010Prop46
 90
       50
102
RTVSPost2010PropOp46
 70
     1
102
RTVSPost2010Prop47
 90
       50
102
RTVSPost2010PropOp47
 70
     1
102
RTVSPost2010Prop48
 90
       50
102
RTVSPost2010PropOp48
 70
     1
102
RTVSPost2010Prop49
280
     0
102
RTVSPost2010PropOp49
 70
     1
102
RTVSPost2010Prop50
 90
       50
102
RTVSPost2010PropOp50
 70
     1
102
RTVSPost2010Prop51ColorIndex
 90
      256
102
RTVSPost2010Prop51ColorRGB
 90
-16777216
102
RTVSPost2010PropOp51
 70
     0
102
RTVSPost2010Prop52
140
1.0
102
RTVSPost2010PropOp52
 70
     0
102
RTVSPost2010Prop53
 90
        2
102
RTVSPost2010PropOp53
 70
     1
102
RTVSPost2010Prop54
  1
strokes_ogs.tif
102
RTVSPost2010PropOp54
 70
     1
102
RTVSPost2010Prop55
280
     0
102
RTVSPost2010PropOp55
 70
     1
102
RTVSPost2010Prop56
140
1.0
102
RTVSPost2010PropOp56
 70
     1
102
RTVSPost2010Prop57
140
1.0
102
RTVSPost2010PropOp57
 70
     1
102
RTVSPropertyOp0
 70
     1
102
RTVSPropertyOp1
 70
     1
102
RTVSPropertyOp2
 70
     1
102
RTVSPropertyOp3
 70
     1
102
RTVSPropertyOp4
 70
     1
102
RTVSPropertyOp5
 70
     1
102
RTVSPropertyOp6
 70
     1
102
RTVSPropertyOp7
 70
     1
102
RTVSPropertyOp8
 70
     1
102
RTVSPropertyOp9
 70
     1
102
RTVSPropertyOp10
 70
     1
102
RTVSPropertyOp11
 70
     1
102
RTVSPropertyOp12
 70
     1
102
RTVSPropertyOp13
 70
     1
102
RTVSPropertyOp14
 70
     1
102
RTVSPropertyOp15
 70
     1
102
RTVSPropertyOp16
 70
     1
102
RTVSPropertyOp17
 70
     1
102
RTVSPropertyOp18
 70
     1
102
RTVSPropertyOp19
 70
     1
102
RTVSPropertyOp20
 70
     1
102
RTVSPropertyOp21
 70
     1
102
RTVSPropertyOp22
 70
     1
102
RTVSPropertyOp23
 70
     1
102
RTVSPropertyOp24
 70
     1
102
RTVSPropertyOp25
 70
     1
102
RTVSPropertyOp26
 70
     1
102
RTVSPropertyOp27
 70
     1
102
RTVSPropertyOp28
 70
     1
102
RTVSPropertyOp29
 70
     1
102
RTVSPropertyOp30
 70
     1
102
RTVSPropertyOp31
 70
     1
102
RTVSPropertyOp32
 70
     1
102
RTVSPropertyOp33
 70
     1
102
RTVSPropertyOp34
 70
     1
102
RTVSPropertyOp35
 70
     1
102
RTVSPropertyOp36
 70
     1
102
RTVSPropertyOp37
 70
     1
102
RTVSPropertyOp38
 70
     1
102
RTVSPropertyOp39
 70
     1
102
RTVSPropertyOp40
 70
     1
102
RTVSPropertyOp41
 70
     1
102
RTVSPropertyOp42
 70
     1
102
RTVSPropertyOp43
 70
     1
102
RTVSPropertyOp44
 70
     1
102
RTVSPropertyOp45
 70
     1
102
RTVSPropertyOp46
 70
     1
102
RTVSPropertyOp47
 70
     1
102
RTVSPropertyOp48
 70
     1
102
RTVSPropertyOp49
 70
     1
102
RTVSPropertyOp50
 70
     1
102
RTVSPropertyOp51
 70
     0
102
RTVSPropertyOp52
 70
     0
102
RTVSPropertyOp53
 70
     1
102
RTVSPropertyOp54
 70
     1
102
RTVSPropertyOp55
 70
     1
102
RTVSPropertyOp56
 70
     1
102
RTVSPropertyOp57
 70
     1
102
RTVSPropertyOp58
 70
     1
102
RTVSPropertyOp59
 70
     1
102
RTVSPropertyOp60
 70
     1
102
RTVSPropertyOp61
 70
     1
102
RTVSPropertyOp62
 70
     1
  0
XRECORD
  5
8849
102
{ACAD_REACTORS
330
8848
102
}
330
8848
100
AcDbXrecord
280
     1
102
RTVSPost2010Prop28
280
     0
102
RTVSPost2010PropOp28
 70
     1
102
RTVSPost2010Prop29
280
     1
102
RTVSPost2010PropOp29
 70
     1
102
RTVSPost2010Prop30
280
     1
102
RTVSPost2010PropOp30
 70
     1
102
RTVSPost2010Prop31
280
     0
102
RTVSPost2010PropOp31
 70
     1
102
RTVSPost2010Prop32
280
     0
102
RTVSPost2010PropOp32
 70
     1
102
RTVSPost2010Prop33
280
     0
102
RTVSPost2010PropOp33
 70
     1
102
RTVSPost2010Prop34
280
     0
102
RTVSPost2010PropOp34
 70
     1
102
RTVSPost2010Prop35
280
     0
102
RTVSPost2010PropOp35
 70
     1
102
RTVSPost2010Prop36
280
     0
102
RTVSPost2010PropOp36
 70
     1
102
RTVSPost2010Prop37
 90
       50
102
RTVSPost2010PropOp37
 70
     0
102
RTVSPost2010Prop38
140
0.0
102
RTVSPost2010PropOp38
 70
     0
102
RTVSPost2010Prop39
140
1.0
102
RTVSPost2010PropOp39
 70
     0
102
RTVSPost2010Prop40
 90
        0
102
RTVSPost2010PropOp40
 70
     0
102
RTVSPost2010Prop41ColorIndex
 90
       18
102
RTVSPost2010Prop41ColorRGB
 90
        0
102
RTVSPost2010PropOp41
 70
     0
102
RTVSPost2010Prop42
 90
       50
102
RTVSPost2010PropOp42
 70
     0
102
RTVSPost2010Prop43
 90
        3
102
RTVSPost2010PropOp43
 70
     0
102
RTVSPost2010Prop44ColorIndex
 90
        5
102
RTVSPost2010Prop44ColorRGB
 90
      255
102
RTVSPost2010PropOp44
 70
     0
102
RTVSPost2010Prop45
280
     0
102
RTVSPost2010PropOp45
 70
     1
102
RTVSPost2010Prop46
 90
       50
102
RTVSPost2010PropOp46
 70
     0
102
RTVSPost2010Prop47
 90
       50
102
RTVSPost2010PropOp47
 70
     0
102
RTVSPost2010Prop48
 90
       50
102
RTVSPost2010PropOp48
 70
     0
102
RTVSPost2010Prop49
280
     0
102
RTVSPost2010PropOp49
 70
     1
102
RTVSPost2010Prop50
 90
       50
102
RTVSPost2010PropOp50
 70
     0
102
RTVSPost2010Prop51ColorIndex
 90
      256
102
RTVSPost2010Prop51ColorRGB
 90
-16777216
102
RTVSPost2010PropOp51
 70
     0
102
RTVSPost2010Prop52
140
1.0
102
RTVSPost2010PropOp52
 70
     0
102
RTVSPost2010Prop53
 90
        2
102
RTVSPost2010PropOp53
 70
     0
102
RTVSPost2010Prop54
  1
strokes_ogs.tif
102
RTVSPost2010PropOp54
 70
     0
102
RTVSPost2010Prop55
280
     0
102
RTVSPost2010PropOp55
 70
     1
102
RTVSPost2010Prop56
140
1.0
102
RTVSPost2010PropOp56
 70
     0
102
RTVSPost2010Prop57
140
1.0
102
RTVSPost2010PropOp57
 70
     0
102
RTVSPropertyOp0
 70
     0
102
RTVSPropertyOp1
 70
     0
102
RTVSPropertyOp2
 70
     0
102
RTVSPropertyOp3
 70
     0
102
RTVSPropertyOp4
 70
     0
102
RTVSPropertyOp5
 70
     0
102
RTVSPropertyOp6
 70
     0
102
RTVSPropertyOp7
 70
     0
102
RTVSPropertyOp8
 70
     0
102
RTVSPropertyOp9
 70
     0
102
RTVSPropertyOp10
 70
     0
102
RTVSPropertyOp11
 70
     0
102
RTVSPropertyOp12
 70
     0
102
RTVSPropertyOp13
 70
     0
102
RTVSPropertyOp14
 70
     2
102
RTVSPropertyOp15
 70
     0
102
RTVSPropertyOp16
 70
     0
102
RTVSPropertyOp17
 70
     0
102
RTVSPropertyOp18
 70
     0
102
RTVSPropertyOp19
 70
     0
102
RTVSPropertyOp20
 70
     0
102
RTVSPropertyOp21
 70
     0
102
RTVSPropertyOp22
 70
     0
102
RTVSPropertyOp23
 70
     0
102
RTVSPropertyOp24
 70
     0
102
RTVSPropertyOp25
 70
     0
102
RTVSPropertyOp26
 70
     0
102
RTVSPropertyOp27
 70
     0
102
RTVSPropertyOp28
 70
     1
102
RTVSPropertyOp29
 70
     1
102
RTVSPropertyOp30
 70
     1
102
RTVSPropertyOp31
 70
     1
102
RTVSPropertyOp32
 70
     1
102
RTVSPropertyOp33
 70
     1
102
RTVSPropertyOp34
 70
     1
102
RTVSPropertyOp35
 70
     1
102
RTVSPropertyOp36
 70
     1
102
RTVSPropertyOp37
 70
     0
102
RTVSPropertyOp38
 70
     0
102
RTVSPropertyOp39
 70
     0
102
RTVSPropertyOp40
 70
     0
102
RTVSPropertyOp41
 70
     0
102
RTVSPropertyOp42
 70
     0
102
RTVSPropertyOp43
 70
     0
102
RTVSPropertyOp44
 70
     0
102
RTVSPropertyOp45
 70
     1
102
RTVSPropertyOp46
 70
     0
102
RTVSPropertyOp47
 70
     0
102
RTVSPropertyOp48
 70
     0
102
RTVSPropertyOp49
 70
     1
102
RTVSPropertyOp50
 70
     0
102
RTVSPropertyOp51
 70
     0
102
RTVSPropertyOp52
 70
     0
102
RTVSPropertyOp53
 70
     0
102
RTVSPropertyOp54
 70
     0
102
RTVSPropertyOp55
 70
     1
102
RTVSPropertyOp56
 70
     0
102
RTVSPropertyOp57
 70
     0
102
RTVSPropertyOp58
 70
     0
102
RTVSPropertyOp59
 70
     0
102
RTVSPropertyOp60
 70
     0
102
RTVSPropertyOp61
 70
     0
102
RTVSPropertyOp62
 70
     0
  0
XRECORD
  5
882F
102
{ACAD_REACTORS
330
882E
102
}
330
882E
100
AcDbXrecord
280
     1
102
RTVSPost2010Prop28
280
     0
102
RTVSPost2010PropOp28
 70
     1
102
RTVSPost2010Prop29
280
     1
102
RTVSPost2010PropOp29
 70
     1
102
RTVSPost2010Prop30
280
     1
102
RTVSPost2010PropOp30
 70
     1
102
RTVSPost2010Prop31
280
     0
102
RTVSPost2010PropOp31
 70
     1
102
RTVSPost2010Prop32
280
     0
102
RTVSPost2010PropOp32
 70
     1
102
RTVSPost2010Prop33
280
     0
102
RTVSPost2010PropOp33
 70
     1
102
RTVSPost2010Prop34
280
     0
102
RTVSPost2010PropOp34
 70
     1
102
RTVSPost2010Prop35
280
     0
102
RTVSPost2010PropOp35
 70
     1
102
RTVSPost2010Prop36
280
     0
102
RTVSPost2010PropOp36
 70
     1
102
RTVSPost2010Prop37
 90
       50
102
RTVSPost2010PropOp37
 70
     1
102
RTVSPost2010Prop38
140
0.0
102
RTVSPost2010PropOp38
 70
     1
102
RTVSPost2010Prop39
140
1.0
102
RTVSPost2010PropOp39
 70
     1
102
RTVSPost2010Prop40
 90
        0
102
RTVSPost2010PropOp40
 70
     1
102
RTVSPost2010Prop41ColorIndex
 90
       18
102
RTVSPost2010Prop41ColorRGB
 90
        0
102
RTVSPost2010PropOp41
 70
     1
102
RTVSPost2010Prop42
 90
       50
102
RTVSPost2010PropOp42
 70
     1
102
RTVSPost2010Prop43
 90
        3
102
RTVSPost2010PropOp43
 70
     1
102
RTVSPost2010Prop44ColorIndex
 90
        5
102
RTVSPost2010Prop44ColorRGB
 90
      255
102
RTVSPost2010PropOp44
 70
     1
102
RTVSPost2010Prop45
280
     0
102
RTVSPost2010PropOp45
 70
     1
102
RTVSPost2010Prop46
 90
       50
102
RTVSPost2010PropOp46
 70
     1
102
RTVSPost2010Prop47
 90
       50
102
RTVSPost2010PropOp47
 70
     1
102
RTVSPost2010Prop48
 90
       50
102
RTVSPost2010PropOp48
 70
     1
102
RTVSPost2010Prop49
280
     0
102
RTVSPost2010PropOp49
 70
     1
102
RTVSPost2010Prop50
 90
       50
102
RTVSPost2010PropOp50
 70
     1
102
RTVSPost2010Prop51ColorIndex
 90
      256
102
RTVSPost2010Prop51ColorRGB
 90
-16777216
102
RTVSPost2010PropOp51
 70
     0
102
RTVSPost2010Prop52
140
1.0
102
RTVSPost2010PropOp52
 70
     0
102
RTVSPost2010Prop53
 90
        2
102
RTVSPost2010PropOp53
 70
     1
102
RTVSPost2010Prop54
  1
strokes_ogs.tif
102
RTVSPost2010PropOp54
 70
     1
102
RTVSPost2010Prop55
280
     0
102
RTVSPost2010PropOp55
 70
     1
102
RTVSPost2010Prop56
140
1.0
102
RTVSPost2010PropOp56
 70
     1
102
RTVSPost2010Prop57
140
1.0
102
RTVSPost2010PropOp57
 70
     1
102
RTVSPropertyOp0
 70
     1
102
RTVSPropertyOp1
 70
     1
102
RTVSPropertyOp2
 70
     1
102
RTVSPropertyOp3
 70
     1
102
RTVSPropertyOp4
 70
     1
102
RTVSPropertyOp5
 70
     1
102
RTVSPropertyOp6
 70
     1
102
RTVSPropertyOp7
 70
     1
102
RTVSPropertyOp8
 70
     1
102
RTVSPropertyOp9
 70
     1
102
RTVSPropertyOp10
 70
     1
102
RTVSPropertyOp11
 70
     1
102
RTVSPropertyOp12
 70
     1
102
RTVSPropertyOp13
 70
     1
102
RTVSPropertyOp14
 70
     1
102
RTVSPropertyOp15
 70
     1
102
RTVSPropertyOp16
 70
     1
102
RTVSPropertyOp17
 70
     1
102
RTVSPropertyOp18
 70
     1
102
RTVSPropertyOp19
 70
     1
102
RTVSPropertyOp20
 70
     1
102
RTVSPropertyOp21
 70
     1
102
RTVSPropertyOp22
 70
     1
102
RTVSPropertyOp23
 70
     1
102
RTVSPropertyOp24
 70
     1
102
RTVSPropertyOp25
 70
     1
102
RTVSPropertyOp26
 70
     1
102
RTVSPropertyOp27
 70
     1
102
RTVSPropertyOp28
 70
     1
102
RTVSPropertyOp29
 70
     1
102
RTVSPropertyOp30
 70
     1
102
RTVSPropertyOp31
 70
     1
102
RTVSPropertyOp32
 70
     1
102
RTVSPropertyOp33
 70
     1
102
RTVSPropertyOp34
 70
     1
102
RTVSPropertyOp35
 70
     1
102
RTVSPropertyOp36
 70
     1
102
RTVSPropertyOp37
 70
     1
102
RTVSPropertyOp38
 70
     1
102
RTVSPropertyOp39
 70
     1
102
RTVSPropertyOp40
 70
     1
102
RTVSPropertyOp41
 70
     1
102
RTVSPropertyOp42
 70
     1
102
RTVSPropertyOp43
 70
     1
102
RTVSPropertyOp44
 70
     1
102
RTVSPropertyOp45
 70
     1
102
RTVSPropertyOp46
 70
     1
102
RTVSPropertyOp47
 70
     1
102
RTVSPropertyOp48
 70
     1
102
RTVSPropertyOp49
 70
     1
102
RTVSPropertyOp50
 70
     1
102
RTVSPropertyOp51
 70
     0
102
RTVSPropertyOp52
 70
     0
102
RTVSPropertyOp53
 70
     1
102
RTVSPropertyOp54
 70
     1
102
RTVSPropertyOp55
 70
     1
102
RTVSPropertyOp56
 70
     1
102
RTVSPropertyOp57
 70
     1
102
RTVSPropertyOp58
 70
     1
102
RTVSPropertyOp59
 70
     1
102
RTVSPropertyOp60
 70
     1
102
RTVSPropertyOp61
 70
     1
102
RTVSPropertyOp62
 70
     1
  0
XRECORD
  5
8845
102
{ACAD_REACTORS
330
8844
102
}
330
8844
100
AcDbXrecord
280
     1
102
RTVSPost2010Prop28
280
     0
102
RTVSPost2010PropOp28
 70
     1
102
RTVSPost2010Prop29
280
     1
102
RTVSPost2010PropOp29
 70
     1
102
RTVSPost2010Prop30
280
     1
102
RTVSPost2010PropOp30
 70
     1
102
RTVSPost2010Prop31
280
     0
102
RTVSPost2010PropOp31
 70
     1
102
RTVSPost2010Prop32
280
     0
102
RTVSPost2010PropOp32
 70
     1
102
RTVSPost2010Prop33
280
     0
102
RTVSPost2010PropOp33
 70
     1
102
RTVSPost2010Prop34
280
     0
102
RTVSPost2010PropOp34
 70
     1
102
RTVSPost2010Prop35
280
     0
102
RTVSPost2010PropOp35
 70
     1
102
RTVSPost2010Prop36
280
     0
102
RTVSPost2010PropOp36
 70
     1
102
RTVSPost2010Prop37
 90
       50
102
RTVSPost2010PropOp37
 70
     1
102
RTVSPost2010Prop38
140
0.0
102
RTVSPost2010PropOp38
 70
     1
102
RTVSPost2010Prop39
140
1.0
102
RTVSPost2010PropOp39
 70
     1
102
RTVSPost2010Prop40
 90
        0
102
RTVSPost2010PropOp40
 70
     1
102
RTVSPost2010Prop41ColorIndex
 90
       18
102
RTVSPost2010Prop41ColorRGB
 90
        0
102
RTVSPost2010PropOp41
 70
     1
102
RTVSPost2010Prop42
 90
       50
102
RTVSPost2010PropOp42
 70
     1
102
RTVSPost2010Prop43
 90
        3
102
RTVSPost2010PropOp43
 70
     1
102
RTVSPost2010Prop44ColorIndex
 90
        5
102
RTVSPost2010Prop44ColorRGB
 90
      255
102
RTVSPost2010PropOp44
 70
     1
102
RTVSPost2010Prop45
280
     0
102
RTVSPost2010PropOp45
 70
     1
102
RTVSPost2010Prop46
 90
       50
102
RTVSPost2010PropOp46
 70
     1
102
RTVSPost2010Prop47
 90
       50
102
RTVSPost2010PropOp47
 70
     1
102
RTVSPost2010Prop48
 90
       50
102
RTVSPost2010PropOp48
 70
     1
102
RTVSPost2010Prop49
280
     0
102
RTVSPost2010PropOp49
 70
     1
102
RTVSPost2010Prop50
 90
       50
102
RTVSPost2010PropOp50
 70
     1
102
RTVSPost2010Prop51ColorIndex
 90
      256
102
RTVSPost2010Prop51ColorRGB
 90
-16777216
102
RTVSPost2010PropOp51
 70
     0
102
RTVSPost2010Prop52
140
1.0
102
RTVSPost2010PropOp52
 70
     0
102
RTVSPost2010Prop53
 90
        2
102
RTVSPost2010PropOp53
 70
     1
102
RTVSPost2010Prop54
  1
strokes_ogs.tif
102
RTVSPost2010PropOp54
 70
     1
102
RTVSPost2010Prop55
280
     0
102
RTVSPost2010PropOp55
 70
     1
102
RTVSPost2010Prop56
140
1.0
102
RTVSPost2010PropOp56
 70
     1
102
RTVSPost2010Prop57
140
1.0
102
RTVSPost2010PropOp57
 70
     1
102
RTVSPropertyOp0
 70
     1
102
RTVSPropertyOp1
 70
     1
102
RTVSPropertyOp2
 70
     1
102
RTVSPropertyOp3
 70
     1
102
RTVSPropertyOp4
 70
     1
102
RTVSPropertyOp5
 70
     1
102
RTVSPropertyOp6
 70
     1
102
RTVSPropertyOp7
 70
     1
102
RTVSPropertyOp8
 70
     1
102
RTVSPropertyOp9
 70
     1
102
RTVSPropertyOp10
 70
     1
102
RTVSPropertyOp11
 70
     1
102
RTVSPropertyOp12
 70
     1
102
RTVSPropertyOp13
 70
     1
102
RTVSPropertyOp14
 70
     1
102
RTVSPropertyOp15
 70
     1
102
RTVSPropertyOp16
 70
     1
102
RTVSPropertyOp17
 70
     1
102
RTVSPropertyOp18
 70
     1
102
RTVSPropertyOp19
 70
     1
102
RTVSPropertyOp20
 70
     1
102
RTVSPropertyOp21
 70
     1
102
RTVSPropertyOp22
 70
     1
102
RTVSPropertyOp23
 70
     1
102
RTVSPropertyOp24
 70
     1
102
RTVSPropertyOp25
 70
     1
102
RTVSPropertyOp26
 70
     1
102
RTVSPropertyOp27
 70
     1
102
RTVSPropertyOp28
 70
     1
102
RTVSPropertyOp29
 70
     1
102
RTVSPropertyOp30
 70
     1
102
RTVSPropertyOp31
 70
     1
102
RTVSPropertyOp32
 70
     1
102
RTVSPropertyOp33
 70
     1
102
RTVSPropertyOp34
 70
     1
102
RTVSPropertyOp35
 70
     1
102
RTVSPropertyOp36
 70
     1
102
RTVSPropertyOp37
 70
     1
102
RTVSPropertyOp38
 70
     1
102
RTVSPropertyOp39
 70
     1
102
RTVSPropertyOp40
 70
     1
102
RTVSPropertyOp41
 70
     1
102
RTVSPropertyOp42
 70
     1
102
RTVSPropertyOp43
 70
     1
102
RTVSPropertyOp44
 70
     1
102
RTVSPropertyOp45
 70
     1
102
RTVSPropertyOp46
 70
     1
102
RTVSPropertyOp47
 70
     1
102
RTVSPropertyOp48
 70
     1
102
RTVSPropertyOp49
 70
     1
102
RTVSPropertyOp50
 70
     1
102
RTVSPropertyOp51
 70
     0
102
RTVSPropertyOp52
 70
     0
102
RTVSPropertyOp53
 70
     1
102
RTVSPropertyOp54
 70
     1
102
RTVSPropertyOp55
 70
     1
102
RTVSPropertyOp56
 70
     1
102
RTVSPropertyOp57
 70
     1
102
RTVSPropertyOp58
 70
     1
102
RTVSPropertyOp59
 70
     1
102
RTVSPropertyOp60
 70
     1
102
RTVSPropertyOp61
 70
     1
102
RTVSPropertyOp62
 70
     1
  0
XRECORD
  5
8843
102
{ACAD_REACTORS
330
8842
102
}
330
8842
100
AcDbXrecord
280
     1
102
RTVSPost2010Prop28
280
     0
102
RTVSPost2010PropOp28
 70
     1
102
RTVSPost2010Prop29
280
     1
102
RTVSPost2010PropOp29
 70
     1
102
RTVSPost2010Prop30
280
     1
102
RTVSPost2010PropOp30
 70
     1
102
RTVSPost2010Prop31
280
     0
102
RTVSPost2010PropOp31
 70
     1
102
RTVSPost2010Prop32
280
     0
102
RTVSPost2010PropOp32
 70
     1
102
RTVSPost2010Prop33
280
     0
102
RTVSPost2010PropOp33
 70
     1
102
RTVSPost2010Prop34
280
     0
102
RTVSPost2010PropOp34
 70
     1
102
RTVSPost2010Prop35
280
     0
102
RTVSPost2010PropOp35
 70
     1
102
RTVSPost2010Prop36
280
     0
102
RTVSPost2010PropOp36
 70
     1
102
RTVSPost2010Prop37
 90
       50
102
RTVSPost2010PropOp37
 70
     1
102
RTVSPost2010Prop38
140
0.0
102
RTVSPost2010PropOp38
 70
     1
102
RTVSPost2010Prop39
140
1.0
102
RTVSPost2010PropOp39
 70
     1
102
RTVSPost2010Prop40
 90
        0
102
RTVSPost2010PropOp40
 70
     1
102
RTVSPost2010Prop41ColorIndex
 90
       18
102
RTVSPost2010Prop41ColorRGB
 90
        0
102
RTVSPost2010PropOp41
 70
     1
102
RTVSPost2010Prop42
 90
       50
102
RTVSPost2010PropOp42
 70
     1
102
RTVSPost2010Prop43
 90
        3
102
RTVSPost2010PropOp43
 70
     1
102
RTVSPost2010Prop44ColorIndex
 90
        5
102
RTVSPost2010Prop44ColorRGB
 90
      255
102
RTVSPost2010PropOp44
 70
     1
102
RTVSPost2010Prop45
280
     0
102
RTVSPost2010PropOp45
 70
     1
102
RTVSPost2010Prop46
 90
       50
102
RTVSPost2010PropOp46
 70
     1
102
RTVSPost2010Prop47
 90
       50
102
RTVSPost2010PropOp47
 70
     1
102
RTVSPost2010Prop48
 90
       50
102
RTVSPost2010PropOp48
 70
     1
102
RTVSPost2010Prop49
280
     0
102
RTVSPost2010PropOp49
 70
     1
102
RTVSPost2010Prop50
 90
       50
102
RTVSPost2010PropOp50
 70
     1
102
RTVSPost2010Prop51ColorIndex
 90
      256
102
RTVSPost2010Prop51ColorRGB
 90
-16777216
102
RTVSPost2010PropOp51
 70
     0
102
RTVSPost2010Prop52
140
1.0
102
RTVSPost2010PropOp52
 70
     0
102
RTVSPost2010Prop53
 90
        2
102
RTVSPost2010PropOp53
 70
     1
102
RTVSPost2010Prop54
  1
strokes_ogs.tif
102
RTVSPost2010PropOp54
 70
     1
102
RTVSPost2010Prop55
280
     0
102
RTVSPost2010PropOp55
 70
     1
102
RTVSPost2010Prop56
140
1.0
102
RTVSPost2010PropOp56
 70
     1
102
RTVSPost2010Prop57
140
1.0
102
RTVSPost2010PropOp57
 70
     1
102
RTVSPropertyOp0
 70
     1
102
RTVSPropertyOp1
 70
     1
102
RTVSPropertyOp2
 70
     1
102
RTVSPropertyOp3
 70
     1
102
RTVSPropertyOp4
 70
     1
102
RTVSPropertyOp5
 70
     1
102
RTVSPropertyOp6
 70
     1
102
RTVSPropertyOp7
 70
     1
102
RTVSPropertyOp8
 70
     1
102
RTVSPropertyOp9
 70
     1
102
RTVSPropertyOp10
 70
     1
102
RTVSPropertyOp11
 70
     1
102
RTVSPropertyOp12
 70
     1
102
RTVSPropertyOp13
 70
     1
102
RTVSPropertyOp14
 70
     1
102
RTVSPropertyOp15
 70
     1
102
RTVSPropertyOp16
 70
     1
102
RTVSPropertyOp17
 70
     1
102
RTVSPropertyOp18
 70
     1
102
RTVSPropertyOp19
 70
     1
102
RTVSPropertyOp20
 70
     1
102
RTVSPropertyOp21
 70
     1
102
RTVSPropertyOp22
 70
     1
102
RTVSPropertyOp23
 70
     1
102
RTVSPropertyOp24
 70
     1
102
RTVSPropertyOp25
 70
     1
102
RTVSPropertyOp26
 70
     1
102
RTVSPropertyOp27
 70
     1
102
RTVSPropertyOp28
 70
     1
102
RTVSPropertyOp29
 70
     1
102
RTVSPropertyOp30
 70
     1
102
RTVSPropertyOp31
 70
     1
102
RTVSPropertyOp32
 70
     1
102
RTVSPropertyOp33
 70
     1
102
RTVSPropertyOp34
 70
     1
102
RTVSPropertyOp35
 70
     1
102
RTVSPropertyOp36
 70
     1
102
RTVSPropertyOp37
 70
     1
102
RTVSPropertyOp38
 70
     1
102
RTVSPropertyOp39
 70
     1
102
RTVSPropertyOp40
 70
     1
102
RTVSPropertyOp41
 70
     1
102
RTVSPropertyOp42
 70
     1
102
RTVSPropertyOp43
 70
     1
102
RTVSPropertyOp44
 70
     1
102
RTVSPropertyOp45
 70
     1
102
RTVSPropertyOp46
 70
     1
102
RTVSPropertyOp47
 70
     1
102
RTVSPropertyOp48
 70
     1
102
RTVSPropertyOp49
 70
     1
102
RTVSPropertyOp50
 70
     1
102
RTVSPropertyOp51
 70
     0
102
RTVSPropertyOp52
 70
     0
102
RTVSPropertyOp53
 70
     1
102
RTVSPropertyOp54
 70
     1
102
RTVSPropertyOp55
 70
     1
102
RTVSPropertyOp56
 70
     1
102
RTVSPropertyOp57
 70
     1
102
RTVSPropertyOp58
 70
     1
102
RTVSPropertyOp59
 70
     1
102
RTVSPropertyOp60
 70
     1
102
RTVSPropertyOp61
 70
     1
102
RTVSPropertyOp62
 70
     1
  0
XRECORD
  5
883D
102
{ACAD_REACTORS
330
883C
102
}
330
883C
100
AcDbXrecord
280
     1
102
RTVSPost2010Prop28
280
     0
102
RTVSPost2010PropOp28
 70
     1
102
RTVSPost2010Prop29
280
     1
102
RTVSPost2010PropOp29
 70
     1
102
RTVSPost2010Prop30
280
     1
102
RTVSPost2010PropOp30
 70
     1
102
RTVSPost2010Prop31
280
     0
102
RTVSPost2010PropOp31
 70
     1
102
RTVSPost2010Prop32
280
     0
102
RTVSPost2010PropOp32
 70
     1
102
RTVSPost2010Prop33
280
     0
102
RTVSPost2010PropOp33
 70
     1
102
RTVSPost2010Prop34
280
     0
102
RTVSPost2010PropOp34
 70
     1
102
RTVSPost2010Prop35
280
     0
102
RTVSPost2010PropOp35
 70
     1
102
RTVSPost2010Prop36
280
     0
102
RTVSPost2010PropOp36
 70
     1
102
RTVSPost2010Prop37
 90
       50
102
RTVSPost2010PropOp37
 70
     1
102
RTVSPost2010Prop38
140
0.0
102
RTVSPost2010PropOp38
 70
     1
102
RTVSPost2010Prop39
140
1.0
102
RTVSPost2010PropOp39
 70
     1
102
RTVSPost2010Prop40
 90
        0
102
RTVSPost2010PropOp40
 70
     1
102
RTVSPost2010Prop41ColorIndex
 90
       18
102
RTVSPost2010Prop41ColorRGB
 90
        0
102
RTVSPost2010PropOp41
 70
     1
102
RTVSPost2010Prop42
 90
       50
102
RTVSPost2010PropOp42
 70
     1
102
RTVSPost2010Prop43
 90
        3
102
RTVSPost2010PropOp43
 70
     1
102
RTVSPost2010Prop44ColorIndex
 90
        5
102
RTVSPost2010Prop44ColorRGB
 90
      255
102
RTVSPost2010PropOp44
 70
     1
102
RTVSPost2010Prop45
280
     0
102
RTVSPost2010PropOp45
 70
     1
102
RTVSPost2010Prop46
 90
       50
102
RTVSPost2010PropOp46
 70
     1
102
RTVSPost2010Prop47
 90
       50
102
RTVSPost2010PropOp47
 70
     1
102
RTVSPost2010Prop48
 90
       50
102
RTVSPost2010PropOp48
 70
     1
102
RTVSPost2010Prop49
280
     0
102
RTVSPost2010PropOp49
 70
     1
102
RTVSPost2010Prop50
 90
       50
102
RTVSPost2010PropOp50
 70
     1
102
RTVSPost2010Prop51ColorIndex
 90
      256
102
RTVSPost2010Prop51ColorRGB
 90
-16777216
102
RTVSPost2010PropOp51
 70
     0
102
RTVSPost2010Prop52
140
1.0
102
RTVSPost2010PropOp52
 70
     0
102
RTVSPost2010Prop53
 90
        2
102
RTVSPost2010PropOp53
 70
     1
102
RTVSPost2010Prop54
  1
strokes_ogs.tif
102
RTVSPost2010PropOp54
 70
     1
102
RTVSPost2010Prop55
280
     0
102
RTVSPost2010PropOp55
 70
     1
102
RTVSPost2010Prop56
140
1.0
102
RTVSPost2010PropOp56
 70
     1
102
RTVSPost2010Prop57
140
1.0
102
RTVSPost2010PropOp57
 70
     1
102
RTVSPropertyOp0
 70
     1
102
RTVSPropertyOp1
 70
     1
102
RTVSPropertyOp2
 70
     1
102
RTVSPropertyOp3
 70
     1
102
RTVSPropertyOp4
 70
     1
102
RTVSPropertyOp5
 70
     1
102
RTVSPropertyOp6
 70
     1
102
RTVSPropertyOp7
 70
     1
102
RTVSPropertyOp8
 70
     1
102
RTVSPropertyOp9
 70
     1
102
RTVSPropertyOp10
 70
     1
102
RTVSPropertyOp11
 70
     1
102
RTVSPropertyOp12
 70
     1
102
RTVSPropertyOp13
 70
     1
102
RTVSPropertyOp14
 70
     1
102
RTVSPropertyOp15
 70
     1
102
RTVSPropertyOp16
 70
     1
102
RTVSPropertyOp17
 70
     1
102
RTVSPropertyOp18
 70
     1
102
RTVSPropertyOp19
 70
     1
102
RTVSPropertyOp20
 70
     1
102
RTVSPropertyOp21
 70
     1
102
RTVSPropertyOp22
 70
     1
102
RTVSPropertyOp23
 70
     1
102
RTVSPropertyOp24
 70
     1
102
RTVSPropertyOp25
 70
     1
102
RTVSPropertyOp26
 70
     1
102
RTVSPropertyOp27
 70
     1
102
RTVSPropertyOp28
 70
     1
102
RTVSPropertyOp29
 70
     1
102
RTVSPropertyOp30
 70
     1
102
RTVSPropertyOp31
 70
     1
102
RTVSPropertyOp32
 70
     1
102
RTVSPropertyOp33
 70
     1
102
RTVSPropertyOp34
 70
     1
102
RTVSPropertyOp35
 70
     1
102
RTVSPropertyOp36
 70
     1
102
RTVSPropertyOp37
 70
     1
102
RTVSPropertyOp38
 70
     1
102
RTVSPropertyOp39
 70
     1
102
RTVSPropertyOp40
 70
     1
102
RTVSPropertyOp41
 70
     1
102
RTVSPropertyOp42
 70
     1
102
RTVSPropertyOp43
 70
     1
102
RTVSPropertyOp44
 70
     1
102
RTVSPropertyOp45
 70
     1
102
RTVSPropertyOp46
 70
     1
102
RTVSPropertyOp47
 70
     1
102
RTVSPropertyOp48
 70
     1
102
RTVSPropertyOp49
 70
     1
102
RTVSPropertyOp50
 70
     1
102
RTVSPropertyOp51
 70
     0
102
RTVSPropertyOp52
 70
     0
102
RTVSPropertyOp53
 70
     1
102
RTVSPropertyOp54
 70
     1
102
RTVSPropertyOp55
 70
     1
102
RTVSPropertyOp56
 70
     1
102
RTVSPropertyOp57
 70
     1
102
RTVSPropertyOp58
 70
     1
102
RTVSPropertyOp59
 70
     1
102
RTVSPropertyOp60
 70
     1
102
RTVSPropertyOp61
 70
     1
102
RTVSPropertyOp62
 70
     1
  0
XRECORD
  5
883F
102
{ACAD_REACTORS
330
883E
102
}
330
883E
100
AcDbXrecord
280
     1
102
RTVSPost2010Prop28
280
     0
102
RTVSPost2010PropOp28
 70
     1
102
RTVSPost2010Prop29
280
     1
102
RTVSPost2010PropOp29
 70
     1
102
RTVSPost2010Prop30
280
     1
102
RTVSPost2010PropOp30
 70
     1
102
RTVSPost2010Prop31
280
     0
102
RTVSPost2010PropOp31
 70
     1
102
RTVSPost2010Prop32
280
     0
102
RTVSPost2010PropOp32
 70
     1
102
RTVSPost2010Prop33
280
     0
102
RTVSPost2010PropOp33
 70
     1
102
RTVSPost2010Prop34
280
     0
102
RTVSPost2010PropOp34
 70
     1
102
RTVSPost2010Prop35
280
     0
102
RTVSPost2010PropOp35
 70
     1
102
RTVSPost2010Prop36
280
     0
102
RTVSPost2010PropOp36
 70
     1
102
RTVSPost2010Prop37
 90
       50
102
RTVSPost2010PropOp37
 70
     1
102
RTVSPost2010Prop38
140
0.0
102
RTVSPost2010PropOp38
 70
     1
102
RTVSPost2010Prop39
140
1.0
102
RTVSPost2010PropOp39
 70
     1
102
RTVSPost2010Prop40
 90
        0
102
RTVSPost2010PropOp40
 70
     1
102
RTVSPost2010Prop41ColorIndex
 90
       18
102
RTVSPost2010Prop41ColorRGB
 90
        0
102
RTVSPost2010PropOp41
 70
     1
102
RTVSPost2010Prop42
 90
       50
102
RTVSPost2010PropOp42
 70
     1
102
RTVSPost2010Prop43
 90
        3
102
RTVSPost2010PropOp43
 70
     1
102
RTVSPost2010Prop44ColorIndex
 90
        5
102
RTVSPost2010Prop44ColorRGB
 90
      255
102
RTVSPost2010PropOp44
 70
     1
102
RTVSPost2010Prop45
280
     0
102
RTVSPost2010PropOp45
 70
     1
102
RTVSPost2010Prop46
 90
       50
102
RTVSPost2010PropOp46
 70
     1
102
RTVSPost2010Prop47
 90
       50
102
RTVSPost2010PropOp47
 70
     1
102
RTVSPost2010Prop48
 90
       50
102
RTVSPost2010PropOp48
 70
     1
102
RTVSPost2010Prop49
280
     0
102
RTVSPost2010PropOp49
 70
     1
102
RTVSPost2010Prop50
 90
       50
102
RTVSPost2010PropOp50
 70
     1
102
RTVSPost2010Prop51ColorIndex
 90
      256
102
RTVSPost2010Prop51ColorRGB
 90
-16777216
102
RTVSPost2010PropOp51
 70
     0
102
RTVSPost2010Prop52
140
1.0
102
RTVSPost2010PropOp52
 70
     0
102
RTVSPost2010Prop53
 90
        2
102
RTVSPost2010PropOp53
 70
     1
102
RTVSPost2010Prop54
  1
strokes_ogs.tif
102
RTVSPost2010PropOp54
 70
     1
102
RTVSPost2010Prop55
280
     0
102
RTVSPost2010PropOp55
 70
     1
102
RTVSPost2010Prop56
140
1.0
102
RTVSPost2010PropOp56
 70
     1
102
RTVSPost2010Prop57
140
1.0
102
RTVSPost2010PropOp57
 70
     1
102
RTVSPropertyOp0
 70
     1
102
RTVSPropertyOp1
 70
     1
102
RTVSPropertyOp2
 70
     1
102
RTVSPropertyOp3
 70
     1
102
RTVSPropertyOp4
 70
     1
102
RTVSPropertyOp5
 70
     1
102
RTVSPropertyOp6
 70
     1
102
RTVSPropertyOp7
 70
     1
102
RTVSPropertyOp8
 70
     1
102
RTVSPropertyOp9
 70
     1
102
RTVSPropertyOp10
 70
     1
102
RTVSPropertyOp11
 70
     1
102
RTVSPropertyOp12
 70
     1
102
RTVSPropertyOp13
 70
     1
102
RTVSPropertyOp14
 70
     1
102
RTVSPropertyOp15
 70
     1
102
RTVSPropertyOp16
 70
     1
102
RTVSPropertyOp17
 70
     1
102
RTVSPropertyOp18
 70
     1
102
RTVSPropertyOp19
 70
     1
102
RTVSPropertyOp20
 70
     1
102
RTVSPropertyOp21
 70
     1
102
RTVSPropertyOp22
 70
     1
102
RTVSPropertyOp23
 70
     1
102
RTVSPropertyOp24
 70
     1
102
RTVSPropertyOp25
 70
     1
102
RTVSPropertyOp26
 70
     1
102
RTVSPropertyOp27
 70
     1
102
RTVSPropertyOp28
 70
     1
102
RTVSPropertyOp29
 70
     1
102
RTVSPropertyOp30
 70
     1
102
RTVSPropertyOp31
 70
     1
102
RTVSPropertyOp32
 70
     1
102
RTVSPropertyOp33
 70
     1
102
RTVSPropertyOp34
 70
     1
102
RTVSPropertyOp35
 70
     1
102
RTVSPropertyOp36
 70
     1
102
RTVSPropertyOp37
 70
     1
102
RTVSPropertyOp38
 70
     1
102
RTVSPropertyOp39
 70
     1
102
RTVSPropertyOp40
 70
     1
102
RTVSPropertyOp41
 70
     1
102
RTVSPropertyOp42
 70
     1
102
RTVSPropertyOp43
 70
     1
102
RTVSPropertyOp44
 70
     1
102
RTVSPropertyOp45
 70
     1
102
RTVSPropertyOp46
 70
     1
102
RTVSPropertyOp47
 70
     1
102
RTVSPropertyOp48
 70
     1
102
RTVSPropertyOp49
 70
     1
102
RTVSPropertyOp50
 70
     1
102
RTVSPropertyOp51
 70
     0
102
RTVSPropertyOp52
 70
     0
102
RTVSPropertyOp53
 70
     1
102
RTVSPropertyOp54
 70
     1
102
RTVSPropertyOp55
 70
     1
102
RTVSPropertyOp56
 70
     1
102
RTVSPropertyOp57
 70
     1
102
RTVSPropertyOp58
 70
     1
102
RTVSPropertyOp59
 70
     1
102
RTVSPropertyOp60
 70
     1
102
RTVSPropertyOp61
 70
     1
102
RTVSPropertyOp62
 70
     1
  0
XRECORD
  5
8835
102
{ACAD_REACTORS
330
8834
102
}
330
8834
100
AcDbXrecord
280
     1
102
RTVSPost2010Prop28
280
     0
102
RTVSPost2010PropOp28
 70
     1
102
RTVSPost2010Prop29
280
     1
102
RTVSPost2010PropOp29
 70
     1
102
RTVSPost2010Prop30
280
     1
102
RTVSPost2010PropOp30
 70
     1
102
RTVSPost2010Prop31
280
     0
102
RTVSPost2010PropOp31
 70
     1
102
RTVSPost2010Prop32
280
     0
102
RTVSPost2010PropOp32
 70
     1
102
RTVSPost2010Prop33
280
     0
102
RTVSPost2010PropOp33
 70
     1
102
RTVSPost2010Prop34
280
     0
102
RTVSPost2010PropOp34
 70
     1
102
RTVSPost2010Prop35
280
     0
102
RTVSPost2010PropOp35
 70
     1
102
RTVSPost2010Prop36
280
     0
102
RTVSPost2010PropOp36
 70
     1
102
RTVSPost2010Prop37
 90
       50
102
RTVSPost2010PropOp37
 70
     1
102
RTVSPost2010Prop38
140
0.0
102
RTVSPost2010PropOp38
 70
     1
102
RTVSPost2010Prop39
140
1.0
102
RTVSPost2010PropOp39
 70
     1
102
RTVSPost2010Prop40
 90
        0
102
RTVSPost2010PropOp40
 70
     1
102
RTVSPost2010Prop41ColorIndex
 90
       18
102
RTVSPost2010Prop41ColorRGB
 90
        0
102
RTVSPost2010PropOp41
 70
     1
102
RTVSPost2010Prop42
 90
       50
102
RTVSPost2010PropOp42
 70
     1
102
RTVSPost2010Prop43
 90
        3
102
RTVSPost2010PropOp43
 70
     1
102
RTVSPost2010Prop44ColorIndex
 90
        5
102
RTVSPost2010Prop44ColorRGB
 90
      255
102
RTVSPost2010PropOp44
 70
     1
102
RTVSPost2010Prop45
280
     0
102
RTVSPost2010PropOp45
 70
     1
102
RTVSPost2010Prop46
 90
       50
102
RTVSPost2010PropOp46
 70
     1
102
RTVSPost2010Prop47
 90
       50
102
RTVSPost2010PropOp47
 70
     1
102
RTVSPost2010Prop48
 90
       50
102
RTVSPost2010PropOp48
 70
     1
102
RTVSPost2010Prop49
280
     0
102
RTVSPost2010PropOp49
 70
     1
102
RTVSPost2010Prop50
 90
       50
102
RTVSPost2010PropOp50
 70
     1
102
RTVSPost2010Prop51ColorIndex
 90
      256
102
RTVSPost2010Prop51ColorRGB
 90
-16777216
102
RTVSPost2010PropOp51
 70
     0
102
RTVSPost2010Prop52
140
1.0
102
RTVSPost2010PropOp52
 70
     0
102
RTVSPost2010Prop53
 90
        2
102
RTVSPost2010PropOp53
 70
     1
102
RTVSPost2010Prop54
  1
strokes_ogs.tif
102
RTVSPost2010PropOp54
 70
     1
102
RTVSPost2010Prop55
280
     0
102
RTVSPost2010PropOp55
 70
     1
102
RTVSPost2010Prop56
140
1.0
102
RTVSPost2010PropOp56
 70
     1
102
RTVSPost2010Prop57
140
1.0
102
RTVSPost2010PropOp57
 70
     1
102
RTVSPropertyOp0
 70
     1
102
RTVSPropertyOp1
 70
     1
102
RTVSPropertyOp2
 70
     1
102
RTVSPropertyOp3
 70
     1
102
RTVSPropertyOp4
 70
     1
102
RTVSPropertyOp5
 70
     1
102
RTVSPropertyOp6
 70
     1
102
RTVSPropertyOp7
 70
     1
102
RTVSPropertyOp8
 70
     1
102
RTVSPropertyOp9
 70
     1
102
RTVSPropertyOp10
 70
     1
102
RTVSPropertyOp11
 70
     1
102
RTVSPropertyOp12
 70
     1
102
RTVSPropertyOp13
 70
     1
102
RTVSPropertyOp14
 70
     1
102
RTVSPropertyOp15
 70
     1
102
RTVSPropertyOp16
 70
     1
102
RTVSPropertyOp17
 70
     1
102
RTVSPropertyOp18
 70
     1
102
RTVSPropertyOp19
 70
     1
102
RTVSPropertyOp20
 70
     1
102
RTVSPropertyOp21
 70
     1
102
RTVSPropertyOp22
 70
     1
102
RTVSPropertyOp23
 70
     1
102
RTVSPropertyOp24
 70
     1
102
RTVSPropertyOp25
 70
     1
102
RTVSPropertyOp26
 70
     1
102
RTVSPropertyOp27
 70
     1
102
RTVSPropertyOp28
 70
     1
102
RTVSPropertyOp29
 70
     1
102
RTVSPropertyOp30
 70
     1
102
RTVSPropertyOp31
 70
     1
102
RTVSPropertyOp32
 70
     1
102
RTVSPropertyOp33
 70
     1
102
RTVSPropertyOp34
 70
     1
102
RTVSPropertyOp35
 70
     1
102
RTVSPropertyOp36
 70
     1
102
RTVSPropertyOp37
 70
     1
102
RTVSPropertyOp38
 70
     1
102
RTVSPropertyOp39
 70
     1
102
RTVSPropertyOp40
 70
     1
102
RTVSPropertyOp41
 70
     1
102
RTVSPropertyOp42
 70
     1
102
RTVSPropertyOp43
 70
     1
102
RTVSPropertyOp44
 70
     1
102
RTVSPropertyOp45
 70
     1
102
RTVSPropertyOp46
 70
     1
102
RTVSPropertyOp47
 70
     1
102
RTVSPropertyOp48
 70
     1
102
RTVSPropertyOp49
 70
     1
102
RTVSPropertyOp50
 70
     1
102
RTVSPropertyOp51
 70
     0
102
RTVSPropertyOp52
 70
     0
102
RTVSPropertyOp53
 70
     1
102
RTVSPropertyOp54
 70
     1
102
RTVSPropertyOp55
 70
     1
102
RTVSPropertyOp56
 70
     1
102
RTVSPropertyOp57
 70
     1
102
RTVSPropertyOp58
 70
     1
102
RTVSPropertyOp59
 70
     1
102
RTVSPropertyOp60
 70
     1
102
RTVSPropertyOp61
 70
     1
102
RTVSPropertyOp62
 70
     1
  0
XRECORD
  5
8829
102
{ACAD_REACTORS
330
8828
102
}
330
8828
100
AcDbXrecord
280
     1
102
RTVSPost2010Prop28
280
     0
102
RTVSPost2010PropOp28
 70
     1
102
RTVSPost2010Prop29
280
     1
102
RTVSPost2010PropOp29
 70
     1
102
RTVSPost2010Prop30
280
     1
102
RTVSPost2010PropOp30
 70
     1
102
RTVSPost2010Prop31
280
     0
102
RTVSPost2010PropOp31
 70
     1
102
RTVSPost2010Prop32
280
     0
102
RTVSPost2010PropOp32
 70
     1
102
RTVSPost2010Prop33
280
     0
102
RTVSPost2010PropOp33
 70
     1
102
RTVSPost2010Prop34
280
     0
102
RTVSPost2010PropOp34
 70
     1
102
RTVSPost2010Prop35
280
     0
102
RTVSPost2010PropOp35
 70
     1
102
RTVSPost2010Prop36
280
     0
102
RTVSPost2010PropOp36
 70
     1
102
RTVSPost2010Prop37
 90
       50
102
RTVSPost2010PropOp37
 70
     1
102
RTVSPost2010Prop38
140
0.0
102
RTVSPost2010PropOp38
 70
     1
102
RTVSPost2010Prop39
140
1.0
102
RTVSPost2010PropOp39
 70
     1
102
RTVSPost2010Prop40
 90
        0
102
RTVSPost2010PropOp40
 70
     1
102
RTVSPost2010Prop41ColorIndex
 90
       18
102
RTVSPost2010Prop41ColorRGB
 90
        0
102
RTVSPost2010PropOp41
 70
     1
102
RTVSPost2010Prop42
 90
       50
102
RTVSPost2010PropOp42
 70
     1
102
RTVSPost2010Prop43
 90
        3
102
RTVSPost2010PropOp43
 70
     1
102
RTVSPost2010Prop44ColorIndex
 90
        5
102
RTVSPost2010Prop44ColorRGB
 90
      255
102
RTVSPost2010PropOp44
 70
     1
102
RTVSPost2010Prop45
280
     0
102
RTVSPost2010PropOp45
 70
     1
102
RTVSPost2010Prop46
 90
       50
102
RTVSPost2010PropOp46
 70
     1
102
RTVSPost2010Prop47
 90
       50
102
RTVSPost2010PropOp47
 70
     1
102
RTVSPost2010Prop48
 90
       50
102
RTVSPost2010PropOp48
 70
     1
102
RTVSPost2010Prop49
280
     0
102
RTVSPost2010PropOp49
 70
     1
102
RTVSPost2010Prop50
 90
       50
102
RTVSPost2010PropOp50
 70
     1
102
RTVSPost2010Prop51ColorIndex
 90
      256
102
RTVSPost2010Prop51ColorRGB
 90
-16777216
102
RTVSPost2010PropOp51
 70
     0
102
RTVSPost2010Prop52
140
1.0
102
RTVSPost2010PropOp52
 70
     0
102
RTVSPost2010Prop53
 90
        2
102
RTVSPost2010PropOp53
 70
     1
102
RTVSPost2010Prop54
  1
strokes_ogs.tif
102
RTVSPost2010PropOp54
 70
     1
102
RTVSPost2010Prop55
280
     0
102
RTVSPost2010PropOp55
 70
     1
102
RTVSPost2010Prop56
140
1.0
102
RTVSPost2010PropOp56
 70
     1
102
RTVSPost2010Prop57
140
1.0
102
RTVSPost2010PropOp57
 70
     1
102
RTVSPropertyOp0
 70
     1
102
RTVSPropertyOp1
 70
     1
102
RTVSPropertyOp2
 70
     1
102
RTVSPropertyOp3
 70
     1
102
RTVSPropertyOp4
 70
     1
102
RTVSPropertyOp5
 70
     1
102
RTVSPropertyOp6
 70
     1
102
RTVSPropertyOp7
 70
     1
102
RTVSPropertyOp8
 70
     1
102
RTVSPropertyOp9
 70
     1
102
RTVSPropertyOp10
 70
     1
102
RTVSPropertyOp11
 70
     1
102
RTVSPropertyOp12
 70
     1
102
RTVSPropertyOp13
 70
     1
102
RTVSPropertyOp14
 70
     1
102
RTVSPropertyOp15
 70
     1
102
RTVSPropertyOp16
 70
     1
102
RTVSPropertyOp17
 70
     1
102
RTVSPropertyOp18
 70
     1
102
RTVSPropertyOp19
 70
     1
102
RTVSPropertyOp20
 70
     1
102
RTVSPropertyOp21
 70
     1
102
RTVSPropertyOp22
 70
     1
102
RTVSPropertyOp23
 70
     1
102
RTVSPropertyOp24
 70
     1
102
RTVSPropertyOp25
 70
     1
102
RTVSPropertyOp26
 70
     1
102
RTVSPropertyOp27
 70
     1
102
RTVSPropertyOp28
 70
     1
102
RTVSPropertyOp29
 70
     1
102
RTVSPropertyOp30
 70
     1
102
RTVSPropertyOp31
 70
     1
102
RTVSPropertyOp32
 70
     1
102
RTVSPropertyOp33
 70
     1
102
RTVSPropertyOp34
 70
     1
102
RTVSPropertyOp35
 70
     1
102
RTVSPropertyOp36
 70
     1
102
RTVSPropertyOp37
 70
     1
102
RTVSPropertyOp38
 70
     1
102
RTVSPropertyOp39
 70
     1
102
RTVSPropertyOp40
 70
     1
102
RTVSPropertyOp41
 70
     1
102
RTVSPropertyOp42
 70
     1
102
RTVSPropertyOp43
 70
     1
102
RTVSPropertyOp44
 70
     1
102
RTVSPropertyOp45
 70
     1
102
RTVSPropertyOp46
 70
     1
102
RTVSPropertyOp47
 70
     1
102
RTVSPropertyOp48
 70
     1
102
RTVSPropertyOp49
 70
     1
102
RTVSPropertyOp50
 70
     1
102
RTVSPropertyOp51
 70
     0
102
RTVSPropertyOp52
 70
     0
102
RTVSPropertyOp53
 70
     1
102
RTVSPropertyOp54
 70
     1
102
RTVSPropertyOp55
 70
     1
102
RTVSPropertyOp56
 70
     1
102
RTVSPropertyOp57
 70
     1
102
RTVSPropertyOp58
 70
     1
102
RTVSPropertyOp59
 70
     1
102
RTVSPropertyOp60
 70
     1
102
RTVSPropertyOp61
 70
     1
102
RTVSPropertyOp62
 70
     1
  0
XRECORD
  5
8841
102
{ACAD_REACTORS
330
8840
102
}
330
8840
100
AcDbXrecord
280
     1
102
RTVSPost2010Prop28
280
     0
102
RTVSPost2010PropOp28
 70
     1
102
RTVSPost2010Prop29
280
     1
102
RTVSPost2010PropOp29
 70
     1
102
RTVSPost2010Prop30
280
     1
102
RTVSPost2010PropOp30
 70
     1
102
RTVSPost2010Prop31
280
     0
102
RTVSPost2010PropOp31
 70
     1
102
RTVSPost2010Prop32
280
     0
102
RTVSPost2010PropOp32
 70
     1
102
RTVSPost2010Prop33
280
     0
102
RTVSPost2010PropOp33
 70
     1
102
RTVSPost2010Prop34
280
     0
102
RTVSPost2010PropOp34
 70
     1
102
RTVSPost2010Prop35
280
     0
102
RTVSPost2010PropOp35
 70
     1
102
RTVSPost2010Prop36
280
     0
102
RTVSPost2010PropOp36
 70
     1
102
RTVSPost2010Prop37
 90
       50
102
RTVSPost2010PropOp37
 70
     1
102
RTVSPost2010Prop38
140
0.0
102
RTVSPost2010PropOp38
 70
     1
102
RTVSPost2010Prop39
140
1.0
102
RTVSPost2010PropOp39
 70
     1
102
RTVSPost2010Prop40
 90
        0
102
RTVSPost2010PropOp40
 70
     1
102
RTVSPost2010Prop41ColorIndex
 90
       18
102
RTVSPost2010Prop41ColorRGB
 90
        0
102
RTVSPost2010PropOp41
 70
     1
102
RTVSPost2010Prop42
 90
       50
102
RTVSPost2010PropOp42
 70
     1
102
RTVSPost2010Prop43
 90
        3
102
RTVSPost2010PropOp43
 70
     1
102
RTVSPost2010Prop44ColorIndex
 90
        5
102
RTVSPost2010Prop44ColorRGB
 90
      255
102
RTVSPost2010PropOp44
 70
     1
102
RTVSPost2010Prop45
280
     0
102
RTVSPost2010PropOp45
 70
     1
102
RTVSPost2010Prop46
 90
       50
102
RTVSPost2010PropOp46
 70
     1
102
RTVSPost2010Prop47
 90
       50
102
RTVSPost2010PropOp47
 70
     1
102
RTVSPost2010Prop48
 90
       50
102
RTVSPost2010PropOp48
 70
     1
102
RTVSPost2010Prop49
280
     0
102
RTVSPost2010PropOp49
 70
     1
102
RTVSPost2010Prop50
 90
       50
102
RTVSPost2010PropOp50
 70
     1
102
RTVSPost2010Prop51ColorIndex
 90
      256
102
RTVSPost2010Prop51ColorRGB
 90
-16777216
102
RTVSPost2010PropOp51
 70
     0
102
RTVSPost2010Prop52
140
1.0
102
RTVSPost2010PropOp52
 70
     0
102
RTVSPost2010Prop53
 90
        2
102
RTVSPost2010PropOp53
 70
     1
102
RTVSPost2010Prop54
  1
strokes_ogs.tif
102
RTVSPost2010PropOp54
 70
     1
102
RTVSPost2010Prop55
280
     0
102
RTVSPost2010PropOp55
 70
     1
102
RTVSPost2010Prop56
140
1.0
102
RTVSPost2010PropOp56
 70
     1
102
RTVSPost2010Prop57
140
1.0
102
RTVSPost2010PropOp57
 70
     1
102
RTVSPropertyOp0
 70
     1
102
RTVSPropertyOp1
 70
     1
102
RTVSPropertyOp2
 70
     1
102
RTVSPropertyOp3
 70
     1
102
RTVSPropertyOp4
 70
     1
102
RTVSPropertyOp5
 70
     1
102
RTVSPropertyOp6
 70
     1
102
RTVSPropertyOp7
 70
     1
102
RTVSPropertyOp8
 70
     1
102
RTVSPropertyOp9
 70
     1
102
RTVSPropertyOp10
 70
     1
102
RTVSPropertyOp11
 70
     1
102
RTVSPropertyOp12
 70
     1
102
RTVSPropertyOp13
 70
     1
102
RTVSPropertyOp14
 70
     1
102
RTVSPropertyOp15
 70
     1
102
RTVSPropertyOp16
 70
     1
102
RTVSPropertyOp17
 70
     1
102
RTVSPropertyOp18
 70
     1
102
RTVSPropertyOp19
 70
     1
102
RTVSPropertyOp20
 70
     1
102
RTVSPropertyOp21
 70
     1
102
RTVSPropertyOp22
 70
     1
102
RTVSPropertyOp23
 70
     1
102
RTVSPropertyOp24
 70
     1
102
RTVSPropertyOp25
 70
     1
102
RTVSPropertyOp26
 70
     1
102
RTVSPropertyOp27
 70
     1
102
RTVSPropertyOp28
 70
     1
102
RTVSPropertyOp29
 70
     1
102
RTVSPropertyOp30
 70
     1
102
RTVSPropertyOp31
 70
     1
102
RTVSPropertyOp32
 70
     1
102
RTVSPropertyOp33
 70
     1
102
RTVSPropertyOp34
 70
     1
102
RTVSPropertyOp35
 70
     1
102
RTVSPropertyOp36
 70
     1
102
RTVSPropertyOp37
 70
     1
102
RTVSPropertyOp38
 70
     1
102
RTVSPropertyOp39
 70
     1
102
RTVSPropertyOp40
 70
     1
102
RTVSPropertyOp41
 70
     1
102
RTVSPropertyOp42
 70
     1
102
RTVSPropertyOp43
 70
     1
102
RTVSPropertyOp44
 70
     1
102
RTVSPropertyOp45
 70
     1
102
RTVSPropertyOp46
 70
     1
102
RTVSPropertyOp47
 70
     1
102
RTVSPropertyOp48
 70
     1
102
RTVSPropertyOp49
 70
     1
102
RTVSPropertyOp50
 70
     1
102
RTVSPropertyOp51
 70
     0
102
RTVSPropertyOp52
 70
     0
102
RTVSPropertyOp53
 70
     1
102
RTVSPropertyOp54
 70
     1
102
RTVSPropertyOp55
 70
     1
102
RTVSPropertyOp56
 70
     1
102
RTVSPropertyOp57
 70
     1
102
RTVSPropertyOp58
 70
     1
102
RTVSPropertyOp59
 70
     1
102
RTVSPropertyOp60
 70
     1
102
RTVSPropertyOp61
 70
     1
102
RTVSPropertyOp62
 70
     1
  0
ENDSEC
  0
EOF
