  0
SECTION
  2
HEADER
  9
$ACADVER
  1
AC1015
  9
$ACADMAINTVER
 70
    20
  9
$DWGCODEPAGE
  3
ANSI_932
  9
$INSBASE
 10
0.0
 20
0.0
 30
0.0
  9
$EXTMIN
 10
-0.2242870864283759
 20
-0.3150699547441036
 30
-0.0015258207003583
  9
$EXTMAX
 10
7350.224321312532
 20
10325.31511803427
 30
0.0000000349246037
  9
$LIMMIN
 10
0.0
 20
0.0
  9
$LIMMAX
 10
297.0
 20
210.0
  9
$ORTHOMODE
 70
     1
  9
$REGENMODE
 70
     1
  9
$FILLMODE
 70
     0
  9
$QTEXTMODE
 70
     0
  9
$MIRRTEXT
 70
     1
  9
$LTSCALE
 40
100.0
  9
$ATTMODE
 70
     1
  9
$TEXTSIZE
 40
180.0
  9
$TRACEWID
 40
0.05
  9
$TEXTSTYLE
  7
STANDARD
  9
$CLAYER
  8
3
  9
$CELTYPE
  6
ByLayer
  9
$CECOLOR
 62
   256
  9
$CELTSCALE
 40
1.0
  9
$DISPSILH
 70
     0
  9
$DIMSCALE
 40
35.0
  9
$DIMASZ
 40
2.0
  9
$DIMEXO
 40
0.5
  9
$DIMDLI
 40
10.0
  9
$DIMRND
 40
0.0
  9
$DIMDLE
 40
0.0
  9
$DIMEXE
 40
1.0
  9
$DIMTP
 40
1.0
  9
$DIMTM
 40
1.0
  9
$DIMTXT
 40
3.0
  9
$DIMCEN
 40
0.0
  9
$DIMTSZ
 40
0.0
  9
$DIMTOL
 70
     0
  9
$DIMLIM
 70
     0
  9
$DIMTIH
 70
     0
  9
$DIMTOH
 70
     0
  9
$DIMSE1
 70
     0
  9
$DIMSE2
 70
     0
  9
$DIMTAD
 70
     1
  9
$DIMZIN
 70
     8
  9
$DIMBLK
  1

  9
$DIMASO
 70
     1
  9
$DIMSHO
 70
     1
  9
$DIMPOST
  1

  9
$DIMAPOST
  1

  9
$DIMALT
 70
     0
  9
$DIMALTD
 70
     2
  9
$DIMALTF
 40
0.039
  9
$DIMLFAC
 40
1.0
  9
$DIMTOFL
 70
     1
  9
$DIMTVP
 40
0.0
  9
$DIMTIX
 70
     0
  9
$DIMSOXD
 70
     0
  9
$DIMSAH
 70
     1
  9
$DIMBLK1
  1
OPEN
  9
$DIMBLK2
  1
OPEN
  9
$DIMSTYLE
  2
IGA
  9
$DIMCLRD
 70
     0
  9
$DIMCLRE
 70
     0
  9
$DIMCLRT
 70
     0
  9
$DIMTFAC
 40
10.0
  9
$DIMGAP
 40
1.0
  9
$DIMJUST
 70
     0
  9
$DIMSD1
 70
     0
  9
$DIMSD2
 70
     0
  9
$DIMTOLJ
 70
     1
  9
$DIMTZIN
 70
     0
  9
$DIMALTZ
 70
     0
  9
$DIMALTTZ
 70
     0
  9
$DIMUPT
 70
     0
  9
$DIMDEC
 70
     4
  9
$DIMTDEC
 70
     4
  9
$DIMALTU
 70
     2
  9
$DIMALTTD
 70
     2
  9
$DIMTXSTY
  7
STANDARD
  9
$DIMAUNIT
 70
     0
  9
$DIMADEC
 70
     0
  9
$DIMALTRND
 40
0.0
  9
$DIMAZIN
 70
     0
  9
$DIMDSEP
 70
    46
  9
$DIMATFIT
 70
     3
  9
$DIMFRAC
 70
     0
  9
$DIMLDRBLK
  1
OPEN
  9
$DIMLUNIT
 70
     2
  9
$DIMLWD
 70
    -2
  9
$DIMLWE
 70
    -2
  9
$DIMTMOVE
 70
     0
  9
$LUNITS
 70
     2
  9
$LUPREC
 70
     3
  9
$SKETCHINC
 40
0.1
  9
$FILLETRAD
 40
50.0
  9
$AUNITS
 70
     0
  9
$AUPREC
 70
     0
  9
$MENU
  1
acad
  9
$ELEVATION
 40
0.0
  9
$PELEVATION
 40
0.0
  9
$THICKNESS
 40
0.0
  9
$LIMCHECK
 70
     0
  9
$CHAMFERA
 40
0.5
  9
$CHAMFERB
 40
0.5
  9
$CHAMFERC
 40
0.0
  9
$CHAMFERD
 40
0.0
  9
$SKPOLY
 70
     0
  9
$TDCREATE
 40
2451390.436124884
  9
$TDUCREATE
 40
2451390.061124884
  9
$TDUPDATE
 40
2460273.627201667
  9
$TDUUPDATE
 40
2460273.252201667
  9
$TDINDWG
 40
0.0385125579
  9
$TDUSRTIMER
 40
0.0385123264
  9
$USRTIMER
 70
     1
  9
$ANGBASE
 50
0.0
  9
$ANGDIR
 70
     0
  9
$PDMODE
 70
     0
  9
$PDSIZE
 40
0.0
  9
$PLINEWID
 40
0.0
  9
$SPLFRAME
 70
     0
  9
$SPLINETYPE
 70
     6
  9
$SPLINESEGS
 70
     8
  9
$HANDSEED
  5
87DC
  9
$SURFTAB1
 70
     6
  9
$SURFTAB2
 70
     6
  9
$SURFTYPE
 70
     6
  9
$SURFU
 70
     6
  9
$SURFV
 70
     6
  9
$UCSBASE
  2

  9
$UCSNAME
  2

  9
$UCSORG
 10
0.0
 20
0.0
 30
0.0
  9
$UCSXDIR
 10
1.0
 20
0.0
 30
0.0
  9
$UCSYDIR
 10
0.0
 20
1.0
 30
0.0
  9
$UCSORTHOREF
  2

  9
$UCSORTHOVIEW
 70
     0
  9
$UCSORGTOP
 10
0.0
 20
0.0
 30
0.0
  9
$UCSORGBOTTOM
 10
0.0
 20
0.0
 30
0.0
  9
$UCSORGLEFT
 10
0.0
 20
0.0
 30
0.0
  9
$UCSORGRIGHT
 10
0.0
 20
0.0
 30
0.0
  9
$UCSORGFRONT
 10
0.0
 20
0.0
 30
0.0
  9
$UCSORGBACK
 10
0.0
 20
0.0
 30
0.0
  9
$PUCSBASE
  2

  9
$PUCSNAME
  2

  9
$PUCSORG
 10
0.0
 20
0.0
 30
0.0
  9
$PUCSXDIR
 10
1.0
 20
0.0
 30
0.0
  9
$PUCSYDIR
 10
0.0
 20
1.0
 30
0.0
  9
$PUCSORTHOREF
  2

  9
$PUCSORTHOVIEW
 70
     0
  9
$PUCSORGTOP
 10
0.0
 20
0.0
 30
0.0
  9
$PUCSORGBOTTOM
 10
0.0
 20
0.0
 30
0.0
  9
$PUCSORGLEFT
 10
0.0
 20
0.0
 30
0.0
  9
$PUCSORGRIGHT
 10
0.0
 20
0.0
 30
0.0
  9
$PUCSORGFRONT
 10
0.0
 20
0.0
 30
0.0
  9
$PUCSORGBACK
 10
0.0
 20
0.0
 30
0.0
  9
$USERI1
 70
     0
  9
$USERI2
 70
     0
  9
$USERI3
 70
     0
  9
$USERI4
 70
     0
  9
$USERI5
 70
     0
  9
$USERR1
 40
0.0
  9
$USERR2
 40
0.0
  9
$USERR3
 40
0.0
  9
$USERR4
 40
0.0
  9
$USERR5
 40
0.0
  9
$WORLDVIEW
 70
     1
  9
$SHADEDGE
 70
     3
  9
$SHADEDIF
 70
    70
  9
$TILEMODE
 70
     1
  9
$MAXACTVP
 70
    16
  9
$PINSBASE
 10
0.0
 20
0.0
 30
0.0
  9
$PLIMCHECK
 70
     0
  9
$PEXTMIN
 10
1.000000000000000E+20
 20
1.000000000000000E+20
 30
1.000000000000000E+20
  9
$PEXTMAX
 10
-1.000000000000000E+20
 20
-1.000000000000000E+20
 30
-1.000000000000000E+20
  9
$PLIMMIN
 10
0.0
 20
0.0
  9
$PLIMMAX
 10
12.0
 20
9.0
  9
$UNITMODE
 70
     0
  9
$VISRETAIN
 70
     0
  9
$PLINEGEN
 70
     0
  9
$PSLTSCALE
 70
     1
  9
$TREEDEPTH
 70
  3020
  9
$CMLSTYLE
  2
Standard
  9
$CMLJUST
 70
     0
  9
$CMLSCALE
 40
1.0
  9
$PROXYGRAPHICS
 70
     1
  9
$MEASUREMENT
 70
     0
  9
$CELWEIGHT
370
    -1
  9
$ENDCAPS
280
     0
  9
$JOINSTYLE
280
     0
  9
$LWDISPLAY
290
     0
  9
$INSUNITS
 70
     0
  9
$HYPERLINKBASE
  1

  9
$STYLESHEET
  1

  9
$XEDIT
290
     1
  9
$CEPSNTYPE
380
     0
  9
$PSTYLEMODE
290
     1
  9
$FINGERPRINTGUID
  2
{511C27B1-0AE4-41AA-8412-8B3B32695DAD}
  9
$VERSIONGUID
  2
{2AA10696-A15B-4F33-B56E-936FF10269F4}
  9
$EXTNAMES
290
     1
  9
$PSVPSCALE
 40
0.0
  9
$OLESTARTUP
290
     0
  0
ENDSEC
  0
SECTION
  2
CLASSES
  0
CLASS
  1
ACDBDICTIONARYWDFLT
  2
AcDbDictionaryWithDefault
  3
ObjectDBX Classes
 90
        0
280
     0
281
     0
  0
CLASS
  1
MATERIAL
  2
AcDbMaterial
  3
ObjectDBX Classes
 90
     1153
280
     0
281
     0
  0
CLASS
  1
VISUALSTYLE
  2
AcDbVisualStyle
  3
ObjectDBX Classes
 90
     4095
280
     0
281
     0
  0
CLASS
  1
SCALE
  2
AcDbScale
  3
ObjectDBX Classes
 90
     1153
280
     0
281
     0
  0
CLASS
  1
TABLESTYLE
  2
AcDbTableStyle
  3
ObjectDBX Classes
 90
     4095
280
     0
281
     0
  0
CLASS
  1
MLEADERSTYLE
  2
AcDbMLeaderStyle
  3
ACDB_MLEADERSTYLE_CLASS
 90
     4095
280
     0
281
     0
  0
CLASS
  1
ACDBSECTIONVIEWSTYLE
  2
AcDbSectionViewStyle
  3
ObjectDBX Classes
 90
     1025
280
     0
281
     0
  0
CLASS
  1
ACDBDETAILVIEWSTYLE
  2
AcDbDetailViewStyle
  3
ObjectDBX Classes
 90
     1025
280
     0
281
     0
  0
CLASS
  1
SORTENTSTABLE
  2
AcDbSortentsTable
  3
ObjectDBX Classes
 90
        0
280
     0
281
     0
  0
CLASS
  1
DICTIONARYVAR
  2
AcDbDictionaryVar
  3
ObjectDBX Classes
 90
        0
280
     0
281
     0
  0
CLASS
  1
CELLSTYLEMAP
  2
AcDbCellStyleMap
  3
ObjectDBX Classes
 90
     1152
280
     0
281
     0
  0
CLASS
  1
ACDBPLACEHOLDER
  2
AcDbPlaceHolder
  3
ObjectDBX Classes
 90
        0
280
     0
281
     0
  0
CLASS
  1
LAYOUT
  2
AcDbLayout
  3
ObjectDBX Classes
 90
        0
280
     0
281
     0
  0
ENDSEC
  0
SECTION
  2
TABLES
  0
TABLE
  2
VPORT
  5
837F
330
0
100
AcDbSymbolTable
 70
     1
  0
VPORT
  5
83EB
330
837F
100
AcDbSymbolTableRecord
100
AcDbViewportTableRecord
  2
*ACTIVE
 70
     0
 10
0.0
 20
0.0
 11
1.0
 21
1.0
 12
3675.000017113053
 22
5162.500024039763
 13
0.0
 23
0.0
 14
10.0
 24
10.0
 15
10.0
 25
10.0
 16
0.0
 26
0.0
 36
1.0
 17
0.0
 27
0.0
 37
0.0
 40
10393.78674094313
 41
2.050213675213675
 42
50.0
 43
0.0
 44
0.0
 50
0.0
 51
0.0
 71
     0
 72
   100
 73
     1
 74
     0
 75
     0
 76
     0
 77
     0
 78
     0
281
     0
 65
     1
110
0.0
120
0.0
130
0.0
111
1.0
121
0.0
131
0.0
112
0.0
122
1.0
132
0.0
 79
     0
146
0.0
1001
ACAD_NAV_VCDISPLAY
1070
     3
  0
ENDTAB
  0
TABLE
  2
LTYPE
  5
837C
330
0
100
AcDbSymbolTable
 70
     3
  0
LTYPE
  5
83D1
330
837C
100
AcDbSymbolTableRecord
100
AcDbLinetypeTableRecord
  2
ByBlock
 70
     0
  3

 72
    65
 73
     0
 40
0.0
  0
LTYPE
  5
83D2
330
837C
100
AcDbSymbolTableRecord
100
AcDbLinetypeTableRecord
  2
ByLayer
 70
     0
  3

 72
    65
 73
     0
 40
0.0
  0
LTYPE
  5
83D3
330
837C
100
AcDbSymbolTableRecord
100
AcDbLinetypeTableRecord
  2
CONTINUOUS
 70
     0
  3
Solid line
 72
    65
 73
     0
 40
0.0
  0
LTYPE
  5
83EC
330
837C
100
AcDbSymbolTableRecord
100
AcDbLinetypeTableRecord
  2
CENTER
 70
     0
  3
____ _ ____ _ ____ _ ____ _ ____ _ ____ _ ____ 
 72
    65
 73
     4
 40
2.0
 49
1.25
 74
     0
 49
-0.25
 74
     0
 49
0.25
 74
     0
 49
-0.25
 74
     0
  0
ENDTAB
  0
TABLE
  2
LAYER
  5
8379
330
0
100
AcDbSymbolTable
 70
     6
  0
LAYER
  5
83CB
102
{ACAD_XDICTIONARY
360
8745
102
}
330
8379
100
AcDbSymbolTableRecord
100
AcDbLayerTableRecord
  2
0
 70
     0
 62
     7
  6
CONTINUOUS
370
    -3
390
8386
  0
LAYER
  5
83EA
102
{ACAD_XDICTIONARY
360
8747
102
}
330
8379
100
AcDbSymbolTableRecord
100
AcDbLayerTableRecord
  2
3
 70
     0
 62
     2
  6
CONTINUOUS
370
    -3
390
8386
  0
LAYER
  5
83ED
102
{ACAD_XDICTIONARY
360
8749
102
}
330
8379
100
AcDbSymbolTableRecord
100
AcDbLayerTableRecord
  2
2
 70
     0
 62
     3
  6
CENTER
370
    -3
390
8386
  0
LAYER
  5
83EE
102
{ACAD_XDICTIONARY
360
874B
102
}
330
8379
100
AcDbSymbolTableRecord
100
AcDbLayerTableRecord
  2
1
 70
     0
 62
     4
  6
CONTINUOUS
370
    -3
390
8386
  0
LAYER
  5
83EF
102
{ACAD_XDICTIONARY
360
874D
102
}
330
8379
100
AcDbSymbolTableRecord
100
AcDbLayerTableRecord
  2
4
 70
     0
 62
     7
  6
CONTINUOUS
370
    -3
390
8386
  0
LAYER
  5
83F0
330
8379
100
AcDbSymbolTableRecord
100
AcDbLayerTableRecord
  2
DEFPOINTS
 70
     0
 62
     7
  6
CONTINUOUS
290
     0
370
    -3
390
8386
  0
ENDTAB
  0
TABLE
  2
STYLE
  5
837A
330
0
100
AcDbSymbolTable
 70
     2
  0
STYLE
  5
83CC
330
837A
100
AcDbSymbolTableRecord
100
AcDbTextStyleTableRecord
  2
STANDARD
 70
     0
 40
0.0
 41
1.0
 50
0.0
 71
     0
 42
180.0
  3
simplex.shx
  4
extfont.shx
  0
STYLE
  5
83D0
330
837A
100
AcDbSymbolTableRecord
100
AcDbTextStyleTableRecord
  2
Annotative
 70
     0
 40
0.0
 41
1.0
 50
0.0
 71
     0
 42
0.2
  3
txt
  4

1001
AcadAnnotative
1000
AnnotativeData
1002
{
1070
     1
1070
     1
1002
}
  0
ENDTAB
  0
TABLE
  2
VIEW
  5
837D
330
0
100
AcDbSymbolTable
 70
     0
  0
ENDTAB
  0
TABLE
  2
UCS
  5
837E
330
0
100
AcDbSymbolTable
 70
     0
  0
ENDTAB
  0
TABLE
  2
APPID
  5
8380
330
0
100
AcDbSymbolTable
 70
     8
  0
APPID
  5
83CD
330
8380
100
AcDbSymbolTableRecord
100
AcDbRegAppTableRecord
  2
ACAD
 70
     0
  0
APPID
  5
83D4
330
8380
100
AcDbSymbolTableRecord
100
AcDbRegAppTableRecord
  2
AcadAnnotative
 70
     0
  0
APPID
  5
8431
330
8380
100
AcDbSymbolTableRecord
100
AcDbRegAppTableRecord
  2
ACAD_DSTYLE_DIMJAG
 70
     0
  0
APPID
  5
8432
330
8380
100
AcDbSymbolTableRecord
100
AcDbRegAppTableRecord
  2
ACAD_DSTYLE_DIMTALN
 70
     0
  0
APPID
  5
84B7
330
8380
100
AcDbSymbolTableRecord
100
AcDbRegAppTableRecord
  2
AcadAnnoMonitorAlertIconDisabled
 70
     0
  0
APPID
  5
84B8
330
8380
100
AcDbSymbolTableRecord
100
AcDbRegAppTableRecord
  2
ACAD_EXEMPT_FROM_CAD_STANDARDS
 70
     0
  0
APPID
  5
8759
330
8380
100
AcDbSymbolTableRecord
100
AcDbRegAppTableRecord
  2
ACAD_NAV_VCDISPLAY
 70
     0
  0
APPID
  5
87D3
330
8380
100
AcDbSymbolTableRecord
100
AcDbRegAppTableRecord
  2
ACAD_MLEADERVER
 70
     0
  0
ENDTAB
  0
TABLE
  2
DIMSTYLE
  5
8381
330
0
100
AcDbSymbolTable
 70
     3
100
AcDbDimStyleTable
 71
     1
340
83F1
  0
DIMSTYLE
105
83CE
330
8381
100
AcDbSymbolTableRecord
100
AcDbDimStyleTableRecord
  2
Standard
 70
     0
340
83CC
  0
DIMSTYLE
105
83CF
330
8381
100
AcDbSymbolTableRecord
100
AcDbDimStyleTableRecord
  2
Annotative
 70
     0
340
83CC
1001
AcadAnnotative
1000
AnnotativeData
1002
{
1070
     1
1070
     1
1002
}
  0
DIMSTYLE
105
83F1
102
{ACAD_REACTORS
330
8451
330
84CC
330
84D9
330
84E6
330
84F3
330
8500
330
8550
330
855D
330
856A
330
8577
330
8584
330
8591
330
859E
330
85AB
330
85B8
330
85C5
330
85D2
330
85DF
330
85EC
330
85FE
330
8610
330
872B
330
8738
102
}
330
8381
100
AcDbSymbolTableRecord
100
AcDbDimStyleTableRecord
  2
IGA
 70
     0
 40
2.0
 41
2.0
 42
0.5
 43
10.0
 44
1.0
 47
1.0
 48
1.0
 73
     0
 74
     0
 77
     1
 78
     8
140
3.0
141
0.0
143
0.03937
146
10.0
147
1.0
173
     1
271
     3
272
     3
279
     2
284
     8
285
     8
286
     8
340
83CC
  0
ENDTAB
  0
TABLE
  2
BLOCK_RECORD
  5
8378
330
0
100
AcDbSymbolTable
 70
    63
  0
BLOCK_RECORD
  5
83E6
102
{ACAD_XDICTIONARY
360
844E
102
}
330
8378
100
AcDbSymbolTableRecord
100
AcDbBlockTableRecord
  2
*Model_Space
340
83E9
  0
BLOCK_RECORD
  5
83E2
330
8378
100
AcDbSymbolTableRecord
100
AcDbBlockTableRecord
  2
*Paper_Space
340
83E5
  0
BLOCK_RECORD
  5
83F5
330
8378
100
AcDbSymbolTableRecord
100
AcDbBlockTableRecord
  2
$MODEL_SPACE
340
0
  0
BLOCK_RECORD
  5
83F7
330
8378
100
AcDbSymbolTableRecord
100
AcDbBlockTableRecord
  2
$PAPER_SPACE
340
0
  0
BLOCK_RECORD
  5
83F9
330
8378
100
AcDbSymbolTableRecord
100
AcDbBlockTableRecord
  2
_OPEN
340
0
102
{BLKREFS
331
85D9
331
85DA
331
85E6
331
85E7
331
82CB
331
82CC
331
82D4
331
82D5
331
82DD
331
82DE
331
82E6
331
82E7
331
82EF
331
8564
331
8565
331
8571
331
8572
331
857E
331
857F
331
858B
331
858C
331
8598
331
8599
331
85A5
331
85A6
331
85B2
331
85B3
331
85BF
331
85C0
331
85CC
331
85CD
331
82F0
331
852B
331
852C
331
853D
331
853E
331
854A
331
854B
331
8557
331
8558
331
82F8
331
82F9
331
8301
331
8302
331
84C6
331
84C7
331
84D3
331
84D4
331
84E0
331
84E1
331
84ED
331
84EE
331
830A
331
830B
331
8313
331
8314
331
831C
331
831D
331
8325
331
8326
331
832E
331
832F
331
8337
331
8338
331
8340
331
8341
331
834C
331
8354
331
8355
331
835D
331
835E
331
81C5
331
81C6
331
814F
331
8150
331
815C
331
815D
331
8169
331
816A
331
8176
331
8177
331
8659
331
865A
331
86CD
331
8727
331
8732
331
8733
331
873F
331
8740
102
}
  0
BLOCK_RECORD
  5
83FB
330
8378
100
AcDbSymbolTableRecord
100
AcDbBlockTableRecord
  2
YA_N
340
0
102
{BLKREFS
331
7C1F
331
7C40
331
7C49
331
7C75
331
7C9D
102
}
  0
BLOCK_RECORD
  5
83FD
330
8378
100
AcDbSymbolTableRecord
100
AcDbBlockTableRecord
  2
*D4
340
0
  0
BLOCK_RECORD
  5
83FF
330
8378
100
AcDbSymbolTableRecord
100
AcDbBlockTableRecord
  2
*D5
340
0
  0
BLOCK_RECORD
  5
8401
330
8378
100
AcDbSymbolTableRecord
100
AcDbBlockTableRecord
  2
*D6
340
0
  0
BLOCK_RECORD
  5
8403
330
8378
100
AcDbSymbolTableRecord
100
AcDbBlockTableRecord
  2
*D7
340
0
  0
BLOCK_RECORD
  5
8405
330
8378
100
AcDbSymbolTableRecord
100
AcDbBlockTableRecord
  2
*D8
340
0
  0
BLOCK_RECORD
  5
8407
330
8378
100
AcDbSymbolTableRecord
100
AcDbBlockTableRecord
  2
*D9
340
0
  0
BLOCK_RECORD
  5
8409
330
8378
100
AcDbSymbolTableRecord
100
AcDbBlockTableRecord
  2
*D10
340
0
  0
BLOCK_RECORD
  5
840B
330
8378
100
AcDbSymbolTableRecord
100
AcDbBlockTableRecord
  2
*D11
340
0
  0
BLOCK_RECORD
  5
840D
330
8378
100
AcDbSymbolTableRecord
100
AcDbBlockTableRecord
  2
*D12
340
0
  0
BLOCK_RECORD
  5
840F
330
8378
100
AcDbSymbolTableRecord
100
AcDbBlockTableRecord
  2
*D13
340
0
  0
BLOCK_RECORD
  5
8411
330
8378
100
AcDbSymbolTableRecord
100
AcDbBlockTableRecord
  2
*D14
340
0
  0
BLOCK_RECORD
  5
8413
330
8378
100
AcDbSymbolTableRecord
100
AcDbBlockTableRecord
  2
*D15
340
0
  0
BLOCK_RECORD
  5
8415
330
8378
100
AcDbSymbolTableRecord
100
AcDbBlockTableRecord
  2
*D16
340
0
  0
BLOCK_RECORD
  5
8417
330
8378
100
AcDbSymbolTableRecord
100
AcDbBlockTableRecord
  2
*D17
340
0
  0
BLOCK_RECORD
  5
8419
330
8378
100
AcDbSymbolTableRecord
100
AcDbBlockTableRecord
  2
*D18
340
0
  0
BLOCK_RECORD
  5
841B
330
8378
100
AcDbSymbolTableRecord
100
AcDbBlockTableRecord
  2
_DOT
340
0
102
{BLKREFS
331
834B
102
}
  0
BLOCK_RECORD
  5
841C
330
8378
100
AcDbSymbolTableRecord
100
AcDbBlockTableRecord
  2
*D20
340
0
  0
BLOCK_RECORD
  5
841E
330
8378
100
AcDbSymbolTableRecord
100
AcDbBlockTableRecord
  2
*D21
340
0
  0
BLOCK_RECORD
  5
8421
330
8378
100
AcDbSymbolTableRecord
100
AcDbBlockTableRecord
  2
*D22
340
0
  0
BLOCK_RECORD
  5
8423
330
8378
100
AcDbSymbolTableRecord
100
AcDbBlockTableRecord
  2
*D23
340
0
  0
BLOCK_RECORD
  5
8425
330
8378
100
AcDbSymbolTableRecord
100
AcDbBlockTableRecord
  2
*D24
340
0
  0
BLOCK_RECORD
  5
8427
330
8378
100
AcDbSymbolTableRecord
100
AcDbBlockTableRecord
  2
*D25
340
0
  0
BLOCK_RECORD
  5
8429
330
8378
100
AcDbSymbolTableRecord
100
AcDbBlockTableRecord
  2
_NONE
340
0
  0
BLOCK_RECORD
  5
842B
330
8378
100
AcDbSymbolTableRecord
100
AcDbBlockTableRecord
  2
*D27
340
0
  0
BLOCK_RECORD
  5
842D
330
8378
100
AcDbSymbolTableRecord
100
AcDbBlockTableRecord
  2
*D28
340
0
  0
BLOCK_RECORD
  5
8433
330
8378
100
AcDbSymbolTableRecord
100
AcDbBlockTableRecord
  2
*D29
340
0
  0
BLOCK_RECORD
  5
8440
330
8378
100
AcDbSymbolTableRecord
100
AcDbBlockTableRecord
  2
*D30
340
0
  0
BLOCK_RECORD
  5
8452
330
8378
100
AcDbSymbolTableRecord
100
AcDbBlockTableRecord
  2
*D31
340
0
  0
BLOCK_RECORD
  5
845E
330
8378
100
AcDbSymbolTableRecord
100
AcDbBlockTableRecord
  2
*D32
340
0
  0
BLOCK_RECORD
  5
846B
330
8378
100
AcDbSymbolTableRecord
100
AcDbBlockTableRecord
  2
*D33
340
0
  0
BLOCK_RECORD
  5
8478
330
8378
100
AcDbSymbolTableRecord
100
AcDbBlockTableRecord
  2
*D34
340
0
  0
BLOCK_RECORD
  5
8485
330
8378
100
AcDbSymbolTableRecord
100
AcDbBlockTableRecord
  2
*D35
340
0
  0
BLOCK_RECORD
  5
8492
330
8378
100
AcDbSymbolTableRecord
100
AcDbBlockTableRecord
  2
*D36
340
0
  0
BLOCK_RECORD
  5
849F
330
8378
100
AcDbSymbolTableRecord
100
AcDbBlockTableRecord
  2
*D37
340
0
  0
BLOCK_RECORD
  5
84AC
330
8378
100
AcDbSymbolTableRecord
100
AcDbBlockTableRecord
  2
*D38
340
0
  0
BLOCK_RECORD
  5
84CD
330
8378
100
AcDbSymbolTableRecord
100
AcDbBlockTableRecord
  2
*D39
340
0
  0
BLOCK_RECORD
  5
84DA
330
8378
100
AcDbSymbolTableRecord
100
AcDbBlockTableRecord
  2
*D40
340
0
  0
BLOCK_RECORD
  5
84E7
330
8378
100
AcDbSymbolTableRecord
100
AcDbBlockTableRecord
  2
*D41
340
0
  0
BLOCK_RECORD
  5
84F4
330
8378
100
AcDbSymbolTableRecord
100
AcDbBlockTableRecord
  2
*D42
340
0
  0
BLOCK_RECORD
  5
8501
330
8378
100
AcDbSymbolTableRecord
100
AcDbBlockTableRecord
  2
*D43
340
0
  0
BLOCK_RECORD
  5
8544
330
8378
100
AcDbSymbolTableRecord
100
AcDbBlockTableRecord
  2
*D44
340
0
  0
BLOCK_RECORD
  5
8551
330
8378
100
AcDbSymbolTableRecord
100
AcDbBlockTableRecord
  2
*D45
340
0
  0
BLOCK_RECORD
  5
855E
330
8378
100
AcDbSymbolTableRecord
100
AcDbBlockTableRecord
  2
*D46
340
0
  0
BLOCK_RECORD
  5
856B
330
8378
100
AcDbSymbolTableRecord
100
AcDbBlockTableRecord
  2
*D47
340
0
  0
BLOCK_RECORD
  5
8578
330
8378
100
AcDbSymbolTableRecord
100
AcDbBlockTableRecord
  2
*D48
340
0
  0
BLOCK_RECORD
  5
8585
330
8378
100
AcDbSymbolTableRecord
100
AcDbBlockTableRecord
  2
*D49
340
0
  0
BLOCK_RECORD
  5
8592
330
8378
100
AcDbSymbolTableRecord
100
AcDbBlockTableRecord
  2
*D50
340
0
  0
BLOCK_RECORD
  5
859F
330
8378
100
AcDbSymbolTableRecord
100
AcDbBlockTableRecord
  2
*D51
340
0
  0
BLOCK_RECORD
  5
85AC
330
8378
100
AcDbSymbolTableRecord
100
AcDbBlockTableRecord
  2
*D52
340
0
  0
BLOCK_RECORD
  5
85B9
330
8378
100
AcDbSymbolTableRecord
100
AcDbBlockTableRecord
  2
*D53
340
0
  0
BLOCK_RECORD
  5
85C6
330
8378
100
AcDbSymbolTableRecord
100
AcDbBlockTableRecord
  2
*D54
340
0
  0
BLOCK_RECORD
  5
85D3
330
8378
100
AcDbSymbolTableRecord
100
AcDbBlockTableRecord
  2
*D55
340
0
  0
BLOCK_RECORD
  5
85E0
330
8378
100
AcDbSymbolTableRecord
100
AcDbBlockTableRecord
  2
*D56
340
0
  0
BLOCK_RECORD
  5
85ED
330
8378
100
AcDbSymbolTableRecord
100
AcDbBlockTableRecord
  2
*D57
340
0
  0
BLOCK_RECORD
  5
85FF
330
8378
100
AcDbSymbolTableRecord
100
AcDbBlockTableRecord
  2
*D58
340
0
  0
BLOCK_RECORD
  5
8611
330
8378
100
AcDbSymbolTableRecord
100
AcDbBlockTableRecord
  2
*D59
340
0
  0
BLOCK_RECORD
  5
86C0
330
8378
100
AcDbSymbolTableRecord
100
AcDbBlockTableRecord
  2
_DotSmall
340
0
102
{BLKREFS
331
86CE
331
8726
102
}
  0
BLOCK_RECORD
  5
872C
330
8378
100
AcDbSymbolTableRecord
100
AcDbBlockTableRecord
  2
*D61
340
0
  0
BLOCK_RECORD
  5
8739
330
8378
100
AcDbSymbolTableRecord
100
AcDbBlockTableRecord
  2
*D62
340
0
  0
ENDTAB
  0
ENDSEC
  0
SECTION
  2
BLOCKS
  0
BLOCK
  5
83E7
330
83E6
100
AcDbEntity
  8
0
100
AcDbBlockBegin
  2
*Model_Space
 70
     0
 10
0.0
 20
0.0
 30
0.0
  3
*Model_Space
  1

  0
ENDBLK
  5
83E8
330
83E6
100
AcDbEntity
  8
0
100
AcDbBlockEnd
  0
BLOCK
  5
83E3
330
83E2
100
AcDbEntity
 67
     1
  8
0
100
AcDbBlockBegin
  2
*Paper_Space
 70
     0
 10
0.0
 20
0.0
 30
0.0
  3
*Paper_Space
  1

  0
ENDBLK
  5
83E4
330
83E2
100
AcDbEntity
 67
     1
  8
0
100
AcDbBlockEnd
  0
BLOCK
  5
83F6
330
83F5
100
AcDbEntity
  8
0
100
AcDbBlockBegin
  2
$MODEL_SPACE
 70
     0
 10
0.0
 20
0.0
 30
0.0
  3
$MODEL_SPACE
  1

  0
ENDBLK
  5
1B
330
83F5
100
AcDbEntity
  8
0
100
AcDbBlockEnd
  0
BLOCK
  5
83F8
330
83F7
100
AcDbEntity
  8
0
100
AcDbBlockBegin
  2
$PAPER_SPACE
 70
     0
 10
0.0
 20
0.0
 30
0.0
  3
$PAPER_SPACE
  1

  0
ENDBLK
  5
18
330
83F7
100
AcDbEntity
  8
0
100
AcDbBlockEnd
  0
BLOCK
  5
83FA
330
83F9
100
AcDbEntity
  8
0
100
AcDbBlockBegin
  2
_OPEN
 70
     0
 10
0.0
 20
0.0
 30
0.0
  3
_OPEN
  1

  0
LINE
  5
79FD
330
83F9
100
AcDbEntity
  8
0
  6
ByBlock
 62
     0
100
AcDbLine
 10
-1.0
 20
0.1666666666666666
 30
0.0
 11
0.0
 21
0.0
 31
0.0
  0
LINE
  5
79FE
330
83F9
100
AcDbEntity
  8
0
  6
ByBlock
 62
     0
100
AcDbLine
 10
0.0
 20
0.0
 30
0.0
 11
-1.0
 21
-0.1666666666666666
 31
0.0
  0
LINE
  5
79FF
330
83F9
100
AcDbEntity
  8
0
  6
ByBlock
 62
     0
100
AcDbLine
 10
0.0
 20
0.0
 30
0.0
 11
-1.0
 21
0.0
 31
0.0
  0
ENDBLK
  5
7A01
330
83F9
100
AcDbEntity
  8
0
100
AcDbBlockEnd
  0
BLOCK
  5
83FC
330
83FB
100
AcDbEntity
  8
0
100
AcDbBlockBegin
  2
YA_N
 70
     0
 10
0.0
 20
0.0
 30
0.0
  3
YA_N
  1

  0
ENDBLK
  5
7A0C
330
83FB
100
AcDbEntity
  8
0
100
AcDbBlockEnd
  0
BLOCK
  5
83FE
330
83FD
100
AcDbEntity
  8
0
100
AcDbBlockBegin
  2
*D4
 70
     1
 10
0.0
 20
0.0
 30
0.0
  3
*D4
  1

  0
LINE
  5
82C8
330
83FD
100
AcDbEntity
  8
3
 62
     0
100
AcDbLine
 10
3436.105211603564
 20
2577.572834317823
 30
0.0
 11
3653.71352788783
 21
2577.572834317823
 31
0.0
  0
LINE
  5
82C9
330
83FD
100
AcDbEntity
  8
3
 62
     0
100
AcDbLine
 10
3436.105211603564
 20
3727.572834317824
 30
0.0
 11
3653.71352788783
 21
3727.572834317824
 31
0.0
  0
LINE
  5
82CA
330
83FD
100
AcDbEntity
  8
3
 62
     0
100
AcDbLine
 10
3618.713527887829
 20
2647.572834317823
 30
0.0
 11
3618.713527887829
 21
3657.572834317824
 31
0.0
  0
INSERT
  5
82CB
330
83FD
100
AcDbEntity
  8
3
 62
     0
100
AcDbBlockReference
  2
_OPEN
 10
3618.713527887829
 20
2577.572834317823
 30
0.0
 41
70.0
 42
70.0
 43
70.0
 50
270.0
  0
INSERT
  5
82CC
330
83FD
100
AcDbEntity
  8
3
 62
     0
100
AcDbBlockReference
  2
_OPEN
 10
3618.713527887829
 20
3727.572834317824
 30
0.0
 41
70.0
 42
70.0
 43
70.0
 50
90.0
  0
TEXT
  5
8366
330
83FD
100
AcDbEntity
  8
3
 62
     0
100
AcDbText
 10
3321.21
 20
2966.72
 30
0.0
 40
105.0
  1
1150
100
AcDbText
  0
POINT
  5
82CE
330
83FD
100
AcDbEntity
  8
DEFPOINTS
 62
     0
100
AcDbPoint
 10
3418.605211603564
 20
2577.572834317823
 30
0.0
  0
POINT
  5
82CF
330
83FD
100
AcDbEntity
  8
DEFPOINTS
 62
     0
100
AcDbPoint
 10
3418.605211603564
 20
3727.572834317824
 30
0.0
  0
POINT
  5
82D0
330
83FD
100
AcDbEntity
  8
DEFPOINTS
 62
     0
100
AcDbPoint
 10
3618.713527887829
 20
3727.572834317824
 30
0.0
  0
ENDBLK
  5
7FD7
330
83FD
100
AcDbEntity
  8
0
100
AcDbBlockEnd
  0
BLOCK
  5
8400
330
83FF
100
AcDbEntity
  8
0
100
AcDbBlockBegin
  2
*D5
 70
     1
 10
0.0
 20
0.0
 30
0.0
  3
*D5
  1

  0
LINE
  5
82D1
330
83FF
100
AcDbEntity
  8
3
 62
     0
100
AcDbLine
 10
3436.105211603564
 20
2577.572834317823
 30
0.0
 11
3853.865178749332
 21
2577.572834317823
 31
0.0
  0
LINE
  5
82D2
330
83FF
100
AcDbEntity
  8
3
 62
     0
100
AcDbLine
 10
3521.944212502297
 20
3775.572834317824
 30
0.0
 11
3853.865178749332
 21
3775.572834317824
 31
0.0
  0
LINE
  5
82D3
330
83FF
100
AcDbEntity
  8
3
 62
     0
100
AcDbLine
 10
3818.865178749332
 20
2647.572834317823
 30
0.0
 11
3818.865178749332
 21
3705.572834317823
 31
0.0
  0
INSERT
  5
82D4
330
83FF
100
AcDbEntity
  8
3
 62
     0
100
AcDbBlockReference
  2
_OPEN
 10
3818.865178749332
 20
2577.572834317823
 30
0.0
 41
70.0
 42
70.0
 43
70.0
 50
270.0
  0
INSERT
  5
82D5
330
83FF
100
AcDbEntity
  8
3
 62
     0
100
AcDbBlockReference
  2
_OPEN
 10
3818.865178749332
 20
3775.572834317824
 30
0.0
 41
70.0
 42
70.0
 43
70.0
 50
90.0
  0
TEXT
  5
8367
330
83FF
100
AcDbEntity
  8
3
 62
     0
100
AcDbText
 10
3521.37
 20
2990.72
 30
0.0
 40
105.0
  1
1198
100
AcDbText
  0
POINT
  5
82D7
330
83FF
100
AcDbEntity
  8
DEFPOINTS
 62
     0
100
AcDbPoint
 10
3418.605211603564
 20
2577.572834317823
 30
0.0
  0
POINT
  5
82D8
330
83FF
100
AcDbEntity
  8
DEFPOINTS
 62
     0
100
AcDbPoint
 10
3504.444212502298
 20
3775.572834317824
 30
0.0
  0
POINT
  5
82D9
330
83FF
100
AcDbEntity
  8
DEFPOINTS
 62
     0
100
AcDbPoint
 10
3818.865178749332
 20
3775.572834317824
 30
0.0
  0
ENDBLK
  5
7FCC
330
83FF
100
AcDbEntity
  8
0
100
AcDbBlockEnd
  0
BLOCK
  5
8402
330
8401
100
AcDbEntity
  8
0
100
AcDbBlockBegin
  2
*D6
 70
     1
 10
0.0
 20
0.0
 30
0.0
  3
*D6
  1

  0
LINE
  5
82DA
330
8401
100
AcDbEntity
  8
3
 62
     0
100
AcDbLine
 10
4893.752841307505
 20
4586.734455050655
 30
0.0
 11
4893.752841307505
 21
4869.01247337022
 31
0.0
  0
LINE
  5
82DB
330
8401
100
AcDbEntity
  8
3
 62
     0
100
AcDbLine
 10
6393.752841307505
 20
4580.885518389041
 30
0.0
 11
6393.752841307505
 21
4869.01247337022
 31
0.0
  0
LINE
  5
82DC
330
8401
100
AcDbEntity
  8
3
 62
     0
100
AcDbLine
 10
4963.752841307505
 20
4834.012473370222
 30
0.0
 11
6323.752841307506
 21
4834.012473370222
 31
0.0
  0
INSERT
  5
82DD
330
8401
100
AcDbEntity
  8
3
 62
     0
100
AcDbBlockReference
  2
_OPEN
 10
4893.752841307505
 20
4834.012473370222
 30
0.0
 41
70.0
 42
70.0
 43
70.0
 50
180.0
  0
INSERT
  5
82DE
330
8401
100
AcDbEntity
  8
3
 62
     0
100
AcDbBlockReference
  2
_OPEN
 10
6393.752841307505
 20
4834.012473370222
 30
0.0
 41
70.0
 42
70.0
 43
70.0
  0
TEXT
  5
8368
330
8401
100
AcDbEntity
  8
3
 62
     0
100
AcDbText
 10
5433.749999999999
 20
4735.66
 30
0.0
 40
105.0
  1
1500
100
AcDbText
  0
POINT
  5
82E0
330
8401
100
AcDbEntity
  8
DEFPOINTS
 62
     0
100
AcDbPoint
 10
4893.752841307505
 20
4569.234455050655
 30
0.0
  0
POINT
  5
82E1
330
8401
100
AcDbEntity
  8
DEFPOINTS
 62
     0
100
AcDbPoint
 10
6393.752841307505
 20
4563.385518389041
 30
0.0
  0
POINT
  5
82E2
330
8401
100
AcDbEntity
  8
DEFPOINTS
 62
     0
100
AcDbPoint
 10
6393.752841307505
 20
4834.012473370222
 30
0.0
  0
ENDBLK
  5
806A
330
8401
100
AcDbEntity
  8
0
100
AcDbBlockEnd
  0
BLOCK
  5
8404
330
8403
100
AcDbEntity
  8
0
100
AcDbBlockBegin
  2
*D7
 70
     1
 10
0.0
 20
0.0
 30
0.0
  3
*D7
  1

  0
LINE
  5
82E3
330
8403
100
AcDbEntity
  8
3
 62
     0
100
AcDbLine
 10
5643.752841307503
 20
5017.990239191
 30
0.0
 11
5643.752841307503
 21
5095.334276454416
 31
0.0
  0
LINE
  5
82E4
330
8403
100
AcDbEntity
  8
3
 62
     0
100
AcDbLine
 10
6558.752841307502
 20
3706.112311423018
 30
0.0
 11
6558.752841307502
 21
5095.334276454416
 31
0.0
  0
LINE
  5
82E5
330
8403
100
AcDbEntity
  8
3
 62
     0
100
AcDbLine
 10
5713.752841307503
 20
5060.334276454418
 30
0.0
 11
6488.752841307503
 21
5060.334276454418
 31
0.0
  0
INSERT
  5
82E6
330
8403
100
AcDbEntity
  8
3
 62
     0
100
AcDbBlockReference
  2
_OPEN
 10
5643.752841307503
 20
5060.334276454418
 30
0.0
 41
70.0
 42
70.0
 43
70.0
 50
180.0
  0
INSERT
  5
82E7
330
8403
100
AcDbEntity
  8
3
 62
     0
100
AcDbBlockReference
  2
_OPEN
 10
6558.752841307502
 20
5060.334276454418
 30
0.0
 41
70.0
 42
70.0
 43
70.0
  0
TEXT
  5
8369
330
8403
100
AcDbEntity
  8
3
 62
     0
100
AcDbText
 10
5891.25
 20
4989.48
 30
0.0
 40
105.0
  1
(930)
100
AcDbText
  0
POINT
  5
82E9
330
8403
100
AcDbEntity
  8
DEFPOINTS
 62
     0
100
AcDbPoint
 10
5643.752841307503
 20
5000.490239191
 30
0.0
  0
POINT
  5
82EA
330
8403
100
AcDbEntity
  8
DEFPOINTS
 62
     0
100
AcDbPoint
 10
6558.752841307502
 20
3688.612311423018
 30
0.0
  0
POINT
  5
82EB
330
8403
100
AcDbEntity
  8
DEFPOINTS
 62
     0
100
AcDbPoint
 10
6558.752841307502
 20
5060.334276454418
 30
0.0
  0
ENDBLK
  5
810A
330
8403
100
AcDbEntity
  8
0
100
AcDbBlockEnd
  0
BLOCK
  5
8406
330
8405
100
AcDbEntity
  8
0
100
AcDbBlockBegin
  2
*D8
 70
     1
 10
0.0
 20
0.0
 30
0.0
  3
*D8
  1

  0
LINE
  5
82EC
330
8405
100
AcDbEntity
  8
3
 62
     0
100
AcDbLine
 10
6416.752841307507
 20
3215.572834317824
 30
0.0
 11
6796.53560766302
 21
3215.572834317824
 31
0.0
  0
LINE
  5
82ED
330
8405
100
AcDbEntity
  8
3
 62
     0
100
AcDbLine
 10
6416.752841307507
 20
4335.572834317824
 30
0.0
 11
6796.53560766302
 21
4335.572834317824
 31
0.0
  0
LINE
  5
82EE
330
8405
100
AcDbEntity
  8
3
 62
     0
100
AcDbLine
 10
6761.535607663017
 20
3285.572834317823
 30
0.0
 11
6761.535607663017
 21
4265.572834317825
 31
0.0
  0
INSERT
  5
82EF
330
8405
100
AcDbEntity
  8
3
 62
     0
100
AcDbBlockReference
  2
_OPEN
 10
6761.535607663017
 20
3215.572834317824
 30
0.0
 41
70.0
 42
70.0
 43
70.0
 50
270.0
  0
INSERT
  5
82F0
330
8405
100
AcDbEntity
  8
3
 62
     0
100
AcDbBlockReference
  2
_OPEN
 10
6761.535607663017
 20
4335.572834317824
 30
0.0
 41
70.0
 42
70.0
 43
70.0
 50
90.0
  0
TEXT
  5
836A
330
8405
100
AcDbEntity
  8
3
 62
     0
100
AcDbText
 10
6464.04
 20
3589.72
 30
0.0
 40
105.0
  1
\U+03C61120
100
AcDbText
  0
POINT
  5
82F2
330
8405
100
AcDbEntity
  8
DEFPOINTS
 62
     0
100
AcDbPoint
 10
6399.252841307507
 20
3215.572834317824
 30
0.0
  0
POINT
  5
82F3
330
8405
100
AcDbEntity
  8
DEFPOINTS
 62
     0
100
AcDbPoint
 10
6399.252841307507
 20
4335.572834317824
 30
0.0
  0
POINT
  5
82F4
330
8405
100
AcDbEntity
  8
DEFPOINTS
 62
     0
100
AcDbPoint
 10
6761.535607663017
 20
4335.572834317824
 30
0.0
  0
ENDBLK
  5
8049
330
8405
100
AcDbEntity
  8
0
100
AcDbBlockEnd
  0
BLOCK
  5
8408
330
8407
100
AcDbEntity
  8
0
100
AcDbBlockBegin
  2
*D9
 70
     1
 10
0.0
 20
0.0
 30
0.0
  3
*D9
  1

  0
LINE
  5
82F5
330
8407
100
AcDbEntity
  8
3
 62
     0
100
AcDbLine
 10
4521.052841307505
 20
4173.072834317824
 30
0.0
 11
4521.052841307505
 21
5094.317625186006
 31
0.0
  0
LINE
  5
82F6
330
8407
100
AcDbEntity
  8
3
 62
     0
100
AcDbLine
 10
5643.752841307503
 20
5017.990239191
 30
0.0
 11
5643.752841307503
 21
5094.317625186006
 31
0.0
  0
LINE
  5
82F7
330
8407
100
AcDbEntity
  8
3
 62
     0
100
AcDbLine
 10
4591.052841307505
 20
5059.317625186006
 30
0.0
 11
5573.752841307503
 21
5059.317625186006
 31
0.0
  0
INSERT
  5
82F8
330
8407
100
AcDbEntity
  8
3
 62
     0
100
AcDbBlockReference
  2
_OPEN
 10
4521.052841307505
 20
5059.317625186006
 30
0.0
 41
70.0
 42
70.0
 43
70.0
 50
180.0
  0
INSERT
  5
82F9
330
8407
100
AcDbEntity
  8
3
 62
     0
100
AcDbBlockReference
  2
_OPEN
 10
5643.752841307503
 20
5059.317625186006
 30
0.0
 41
70.0
 42
70.0
 43
70.0
  0
TEXT
  5
836B
330
8407
100
AcDbEntity
  8
3
 62
     0
100
AcDbText
 10
4872.399999999999
 20
5048.47
 30
0.0
 40
105.0
  1
MAX
100
AcDbText
  0
TEXT
  5
836C
330
8407
100
AcDbEntity
  8
3
 62
     0
100
AcDbText
 10
4872.399999999999
 20
4911.97
 30
0.0
 40
105.0
  1
1120
100
AcDbText
  0
POINT
  5
82FB
330
8407
100
AcDbEntity
  8
DEFPOINTS
 62
     0
100
AcDbPoint
 10
4521.052841307505
 20
4155.572834317824
 30
0.0
  0
POINT
  5
82FC
330
8407
100
AcDbEntity
  8
DEFPOINTS
 62
     0
100
AcDbPoint
 10
5643.752841307503
 20
5000.490239191
 30
0.0
  0
POINT
  5
82FD
330
8407
100
AcDbEntity
  8
DEFPOINTS
 62
     0
100
AcDbPoint
 10
5643.752841307503
 20
5059.317625186006
 30
0.0
  0
ENDBLK
  5
8115
330
8407
100
AcDbEntity
  8
0
100
AcDbBlockEnd
  0
BLOCK
  5
840A
330
8409
100
AcDbEntity
  8
0
100
AcDbBlockBegin
  2
*D10
 70
     1
 10
0.0
 20
0.0
 30
0.0
  3
*D10
  1

  0
LINE
  5
82FE
330
8409
100
AcDbEntity
  8
3
 62
     0
100
AcDbLine
 10
1998.605211603564
 20
7646.062273750783
 30
0.0
 11
1998.605211603564
 21
7837.569634221901
 31
0.0
  0
LINE
  5
82FF
330
8409
100
AcDbEntity
  8
3
 62
     0
100
AcDbLine
 10
3318.605211603564
 20
7646.062273750786
 30
0.0
 11
3318.605211603564
 21
7837.569634221901
 31
0.0
  0
LINE
  5
8300
330
8409
100
AcDbEntity
  8
3
 62
     0
100
AcDbLine
 10
2068.605211603564
 20
7802.569634221902
 30
0.0
 11
3248.605211603564
 21
7802.569634221902
 31
0.0
  0
INSERT
  5
8301
330
8409
100
AcDbEntity
  8
3
 62
     0
100
AcDbBlockReference
  2
_OPEN
 10
1998.605211603564
 20
7802.569634221902
 30
0.0
 41
70.0
 42
70.0
 43
70.0
 50
180.0
  0
INSERT
  5
8302
330
8409
100
AcDbEntity
  8
3
 62
     0
100
AcDbBlockReference
  2
_OPEN
 10
3318.605211603564
 20
7802.569634221902
 30
0.0
 41
70.0
 42
70.0
 43
70.0
  0
TEXT
  5
836D
330
8409
100
AcDbEntity
  8
3
 62
     0
100
AcDbText
 10
2448.61
 20
7704.220000000001
 30
0.0
 40
105.0
  1
1320
100
AcDbText
  0
POINT
  5
8304
330
8409
100
AcDbEntity
  8
DEFPOINTS
 62
     0
100
AcDbPoint
 10
1998.605211603564
 20
7628.562273750784
 30
0.0
  0
POINT
  5
8305
330
8409
100
AcDbEntity
  8
DEFPOINTS
 62
     0
100
AcDbPoint
 10
3318.605211603564
 20
7628.562273750786
 30
0.0
  0
POINT
  5
8306
330
8409
100
AcDbEntity
  8
DEFPOINTS
 62
     0
100
AcDbPoint
 10
3318.605211603564
 20
7802.569634221902
 30
0.0
  0
ENDBLK
  5
7F5E
330
8409
100
AcDbEntity
  8
0
100
AcDbBlockEnd
  0
BLOCK
  5
840C
330
840B
100
AcDbEntity
  8
0
100
AcDbBlockBegin
  2
*D11
 70
     1
 10
0.0
 20
0.0
 30
0.0
  3
*D11
  1

  0
LINE
  5
8307
330
840B
100
AcDbEntity
  8
3
 62
     0
100
AcDbLine
 10
1041.105211603564
 20
6628.562273750784
 30
0.0
 11
844.7531743622132
 21
6628.562273750784
 31
0.0
  0
LINE
  5
8308
330
840B
100
AcDbEntity
  8
3
 62
     0
100
AcDbLine
 10
1041.105211603564
 20
5728.562273750783
 30
0.0
 11
844.753174362213
 21
5728.562273750783
 31
0.0
  0
LINE
  5
8309
330
840B
100
AcDbEntity
  8
3
 62
     0
100
AcDbLine
 10
879.7531743622132
 20
6558.562273750784
 30
0.0
 11
879.753174362213
 21
5798.562273750783
 31
0.0
  0
INSERT
  5
830A
330
840B
100
AcDbEntity
  8
3
 62
     0
100
AcDbBlockReference
  2
_OPEN
 10
879.7531743622132
 20
6628.562273750784
 30
0.0
 41
70.0
 42
70.0
 43
70.0
 50
90.0
  0
INSERT
  5
830B
330
840B
100
AcDbEntity
  8
3
 62
     0
100
AcDbBlockReference
  2
_OPEN
 10
879.753174362213
 20
5728.562273750783
 30
0.0
 41
70.0
 42
70.0
 43
70.0
 50
270.0
  0
TEXT
  5
836E
330
840B
100
AcDbEntity
  8
3
 62
     0
100
AcDbText
 10
582.253
 20
5992.71
 30
0.0
 40
105.0
  1
900
100
AcDbText
  0
POINT
  5
830D
330
840B
100
AcDbEntity
  8
DEFPOINTS
 62
     0
100
AcDbPoint
 10
1058.605211603564
 20
6628.562273750784
 30
0.0
  0
POINT
  5
830E
330
840B
100
AcDbEntity
  8
DEFPOINTS
 62
     0
100
AcDbPoint
 10
1058.605211603564
 20
5728.562273750783
 30
0.0
  0
POINT
  5
830F
330
840B
100
AcDbEntity
  8
DEFPOINTS
 62
     0
100
AcDbPoint
 10
879.753174362213
 20
5728.562273750783
 30
0.0
  0
ENDBLK
  5
80E5
330
840B
100
AcDbEntity
  8
0
100
AcDbBlockEnd
  0
BLOCK
  5
840E
330
840D
100
AcDbEntity
  8
0
100
AcDbBlockBegin
  2
*D12
 70
     1
 10
0.0
 20
0.0
 30
0.0
  3
*D12
  1

  0
LINE
  5
8310
330
840D
100
AcDbEntity
  8
3
 62
     0
100
AcDbLine
 10
1058.605211603564
 20
5711.062273750783
 30
0.0
 11
1058.605211603564
 21
5402.317081656836
 31
0.0
  0
LINE
  5
8311
330
840D
100
AcDbEntity
  8
3
 62
     0
100
AcDbLine
 10
3318.605211603564
 20
5711.062273750783
 30
0.0
 11
3318.605211603564
 21
5402.317081656836
 31
0.0
  0
LINE
  5
8312
330
840D
100
AcDbEntity
  8
3
 62
     0
100
AcDbLine
 10
1128.605211603564
 20
5437.317081656836
 30
0.0
 11
3248.605211603564
 21
5437.317081656836
 31
0.0
  0
INSERT
  5
8313
330
840D
100
AcDbEntity
  8
3
 62
     0
100
AcDbBlockReference
  2
_OPEN
 10
1058.605211603564
 20
5437.317081656836
 30
0.0
 41
70.0
 42
70.0
 43
70.0
 50
180.0
  0
INSERT
  5
8314
330
840D
100
AcDbEntity
  8
3
 62
     0
100
AcDbBlockReference
  2
_OPEN
 10
3318.605211603564
 20
5437.317081656836
 30
0.0
 41
70.0
 42
70.0
 43
70.0
  0
TEXT
  5
836F
330
840D
100
AcDbEntity
  8
3
 62
     0
100
AcDbText
 10
1978.61
 20
5338.97
 30
0.0
 40
105.0
  1
2260
100
AcDbText
  0
POINT
  5
8316
330
840D
100
AcDbEntity
  8
DEFPOINTS
 62
     0
100
AcDbPoint
 10
1058.605211603564
 20
5728.562273750783
 30
0.0
  0
POINT
  5
8317
330
840D
100
AcDbEntity
  8
DEFPOINTS
 62
     0
100
AcDbPoint
 10
3318.605211603564
 20
5728.562273750783
 30
0.0
  0
POINT
  5
8318
330
840D
100
AcDbEntity
  8
DEFPOINTS
 62
     0
100
AcDbPoint
 10
3318.605211603564
 20
5437.317081656836
 30
0.0
  0
ENDBLK
  5
7F7F
330
840D
100
AcDbEntity
  8
0
100
AcDbBlockEnd
  0
BLOCK
  5
8410
330
840F
100
AcDbEntity
  8
0
100
AcDbBlockBegin
  2
*D13
 70
     1
 10
0.0
 20
0.0
 30
0.0
  3
*D13
  1

  0
LINE
  5
8319
330
840F
100
AcDbEntity
  8
3
 62
     0
100
AcDbLine
 10
3336.105211603564
 20
7628.562273750786
 30
0.0
 11
3752.377466574617
 21
7628.562273750786
 31
0.0
  0
LINE
  5
831A
330
840F
100
AcDbEntity
  8
3
 62
     0
100
AcDbLine
 10
3336.105211603564
 20
5728.562273750783
 30
0.0
 11
3752.377466574616
 21
5728.562273750783
 31
0.0
  0
LINE
  5
831B
330
840F
100
AcDbEntity
  8
3
 62
     0
100
AcDbLine
 10
3717.377466574617
 20
7558.562273750786
 30
0.0
 11
3717.377466574617
 21
5798.562273750784
 31
0.0
  0
INSERT
  5
831C
330
840F
100
AcDbEntity
  8
3
 62
     0
100
AcDbBlockReference
  2
_OPEN
 10
3717.377466574617
 20
7628.562273750786
 30
0.0
 41
70.0
 42
70.0
 43
70.0
 50
90.0
  0
INSERT
  5
831D
330
840F
100
AcDbEntity
  8
3
 62
     0
100
AcDbBlockReference
  2
_OPEN
 10
3717.377466574617
 20
5728.562273750783
 30
0.0
 41
70.0
 42
70.0
 43
70.0
 50
270.0
  0
TEXT
  5
8370
330
840F
100
AcDbEntity
  8
3
 62
     0
100
AcDbText
 10
3419.88
 20
6492.709999999999
 30
0.0
 40
105.0
  1
1900
100
AcDbText
  0
POINT
  5
831F
330
840F
100
AcDbEntity
  8
DEFPOINTS
 62
     0
100
AcDbPoint
 10
3318.605211603564
 20
7628.562273750786
 30
0.0
  0
POINT
  5
8320
330
840F
100
AcDbEntity
  8
DEFPOINTS
 62
     0
100
AcDbPoint
 10
3318.605211603564
 20
5728.562273750783
 30
0.0
  0
POINT
  5
8321
330
840F
100
AcDbEntity
  8
DEFPOINTS
 62
     0
100
AcDbPoint
 10
3717.377466574617
 20
5728.562273750783
 30
0.0
  0
ENDBLK
  5
7F8A
330
840F
100
AcDbEntity
  8
0
100
AcDbBlockEnd
  0
BLOCK
  5
8412
330
8411
100
AcDbEntity
  8
0
100
AcDbBlockBegin
  2
*D14
 70
     1
 10
0.0
 20
0.0
 30
0.0
  3
*D14
  1

  0
LINE
  5
8322
330
8411
100
AcDbEntity
  8
3
 62
     0
100
AcDbLine
 10
1058.605211603564
 20
6646.062273750783
 30
0.0
 11
1058.605211603564
 21
7837.569634221901
 31
0.0
  0
LINE
  5
8323
330
8411
100
AcDbEntity
  8
3
 62
     0
100
AcDbLine
 10
1998.605211603564
 20
7646.062273750783
 30
0.0
 11
1998.605211603564
 21
7837.569634221901
 31
0.0
  0
LINE
  5
8324
330
8411
100
AcDbEntity
  8
3
 62
     0
100
AcDbLine
 10
1128.605211603564
 20
7802.569634221902
 30
0.0
 11
1928.605211603564
 21
7802.569634221902
 31
0.0
  0
INSERT
  5
8325
330
8411
100
AcDbEntity
  8
3
 62
     0
100
AcDbBlockReference
  2
_OPEN
 10
1058.605211603564
 20
7802.569634221902
 30
0.0
 41
70.0
 42
70.0
 43
70.0
 50
180.0
  0
INSERT
  5
8326
330
8411
100
AcDbEntity
  8
3
 62
     0
100
AcDbBlockReference
  2
_OPEN
 10
1998.605211603564
 20
7802.569634221902
 30
0.0
 41
70.0
 42
70.0
 43
70.0
  0
TEXT
  5
8371
330
8411
100
AcDbEntity
  8
3
 62
     0
100
AcDbText
 10
1318.61
 20
7704.220000000001
 30
0.0
 40
105.0
  1
940
100
AcDbText
  0
POINT
  5
8328
330
8411
100
AcDbEntity
  8
DEFPOINTS
 62
     0
100
AcDbPoint
 10
1058.605211603564
 20
6628.562273750784
 30
0.0
  0
POINT
  5
8329
330
8411
100
AcDbEntity
  8
DEFPOINTS
 62
     0
100
AcDbPoint
 10
1998.605211603564
 20
7628.562273750784
 30
0.0
  0
POINT
  5
832A
330
8411
100
AcDbEntity
  8
DEFPOINTS
 62
     0
100
AcDbPoint
 10
1998.605211603564
 20
7802.569634221902
 30
0.0
  0
ENDBLK
  5
7F69
330
8411
100
AcDbEntity
  8
0
100
AcDbBlockEnd
  0
BLOCK
  5
8414
330
8413
100
AcDbEntity
  8
0
100
AcDbBlockBegin
  2
*D15
 70
     1
 10
0.0
 20
0.0
 30
0.0
  3
*D15
  1

  0
LINE
  5
832B
330
8413
100
AcDbEntity
  8
3
 62
     0
100
AcDbLine
 10
3418.605211603564
 20
3774.025003066105
 30
0.0
 11
3418.605211603564
 21
5068.580333506538
 31
0.0
  0
LINE
  5
832C
330
8413
100
AcDbEntity
  8
3
 62
     0
100
AcDbLine
 10
1058.605211603565
 20
2563.072834317823
 30
0.0
 11
1058.605211603565
 21
5068.580333506538
 31
0.0
  0
LINE
  5
832D
330
8413
100
AcDbEntity
  8
3
 62
     0
100
AcDbLine
 10
3348.605211603564
 20
5033.580333506538
 30
0.0
 11
1128.605211603565
 21
5033.580333506538
 31
0.0
  0
INSERT
  5
832E
330
8413
100
AcDbEntity
  8
3
 62
     0
100
AcDbBlockReference
  2
_OPEN
 10
3418.605211603564
 20
5033.580333506538
 30
0.0
 41
70.0
 42
70.0
 43
70.0
  0
INSERT
  5
832F
330
8413
100
AcDbEntity
  8
3
 62
     0
100
AcDbBlockReference
  2
_OPEN
 10
1058.605211603565
 20
5033.580333506538
 30
0.0
 41
70.0
 42
70.0
 43
70.0
 50
180.0
  0
TEXT
  5
8372
330
8413
100
AcDbEntity
  8
3
 62
     0
100
AcDbText
 10
2028.61
 20
4935.23
 30
0.0
 40
105.0
  1
2360
100
AcDbText
  0
POINT
  5
8331
330
8413
100
AcDbEntity
  8
DEFPOINTS
 62
     0
100
AcDbPoint
 10
3418.605211603564
 20
3756.525003066105
 30
0.0
  0
POINT
  5
8332
330
8413
100
AcDbEntity
  8
DEFPOINTS
 62
     0
100
AcDbPoint
 10
1058.605211603565
 20
2545.572834317823
 30
0.0
  0
POINT
  5
8333
330
8413
100
AcDbEntity
  8
DEFPOINTS
 62
     0
100
AcDbPoint
 10
1058.605211603565
 20
5033.580333506538
 30
0.0
  0
ENDBLK
  5
7FA0
330
8413
100
AcDbEntity
  8
0
100
AcDbBlockEnd
  0
BLOCK
  5
8416
330
8415
100
AcDbEntity
  8
0
100
AcDbBlockBegin
  2
*D16
 70
     1
 10
0.0
 20
0.0
 30
0.0
  3
*D16
  1

  0
LINE
  5
8334
330
8415
100
AcDbEntity
  8
3
 62
     0
100
AcDbLine
 10
2594.105211603564
 20
4580.572834317824
 30
0.0
 11
4057.815125475139
 21
4580.572834317824
 31
0.0
  0
LINE
  5
8335
330
8415
100
AcDbEntity
  8
3
 62
     0
100
AcDbLine
 10
3551.944212502297
 20
3775.572834317824
 30
0.0
 11
4057.815125475139
 21
3775.572834317824
 31
0.0
  0
LINE
  5
8336
330
8415
100
AcDbEntity
  8
3
 62
     0
100
AcDbLine
 10
4022.81512547514
 20
4510.572834317824
 30
0.0
 11
4022.81512547514
 21
3845.572834317824
 31
0.0
  0
INSERT
  5
8337
330
8415
100
AcDbEntity
  8
3
 62
     0
100
AcDbBlockReference
  2
_OPEN
 10
4022.81512547514
 20
4580.572834317824
 30
0.0
 41
70.0
 42
70.0
 43
70.0
 50
90.0
  0
INSERT
  5
8338
330
8415
100
AcDbEntity
  8
3
 62
     0
100
AcDbBlockReference
  2
_OPEN
 10
4022.81512547514
 20
3775.572834317824
 30
0.0
 41
70.0
 42
70.0
 43
70.0
 50
270.0
  0
TEXT
  5
8373
330
8415
100
AcDbEntity
  8
3
 62
     0
100
AcDbText
 10
3725.32
 20
3992.22
 30
0.0
 40
105.0
  1
805
100
AcDbText
  0
POINT
  5
833A
330
8415
100
AcDbEntity
  8
DEFPOINTS
 62
     0
100
AcDbPoint
 10
2576.605211603564
 20
4580.572834317824
 30
0.0
  0
POINT
  5
833B
330
8415
100
AcDbEntity
  8
DEFPOINTS
 62
     0
100
AcDbPoint
 10
3534.444212502297
 20
3775.572834317824
 30
0.0
  0
POINT
  5
833C
330
8415
100
AcDbEntity
  8
DEFPOINTS
 62
     0
100
AcDbPoint
 10
4022.81512547514
 20
3775.572834317824
 30
0.0
  0
ENDBLK
  5
7FB6
330
8415
100
AcDbEntity
  8
0
100
AcDbBlockEnd
  0
BLOCK
  5
8418
330
8417
100
AcDbEntity
  8
0
100
AcDbBlockBegin
  2
*D17
 70
     1
 10
0.0
 20
0.0
 30
0.0
  3
*D17
  1

  0
LINE
  5
833D
330
8417
100
AcDbEntity
  8
3
 62
     0
100
AcDbLine
 10
3551.944212502297
 20
3775.572834317824
 30
0.0
 11
4057.81512547514
 21
3775.572834317824
 31
0.0
  0
LINE
  5
833E
330
8417
100
AcDbEntity
  8
3
 62
     0
100
AcDbLine
 10
3336.105211603564
 20
2420.572834317823
 30
0.0
 11
4057.815125475139
 21
2420.572834317823
 31
0.0
  0
LINE
  5
833F
330
8417
100
AcDbEntity
  8
3
 62
     0
100
AcDbLine
 10
4022.81512547514
 20
3705.572834317823
 30
0.0
 11
4022.81512547514
 21
2490.572834317823
 31
0.0
  0
INSERT
  5
8340
330
8417
100
AcDbEntity
  8
3
 62
     0
100
AcDbBlockReference
  2
_OPEN
 10
4022.81512547514
 20
3775.572834317824
 30
0.0
 41
70.0
 42
70.0
 43
70.0
 50
90.0
  0
INSERT
  5
8341
330
8417
100
AcDbEntity
  8
3
 62
     0
100
AcDbBlockReference
  2
_OPEN
 10
4022.81512547514
 20
2420.572834317823
 30
0.0
 41
70.0
 42
70.0
 43
70.0
 50
270.0
  0
TEXT
  5
8374
330
8417
100
AcDbEntity
  8
3
 62
     0
100
AcDbText
 10
3725.32
 20
2912.22
 30
0.0
 40
105.0
  1
1355
100
AcDbText
  0
POINT
  5
8343
330
8417
100
AcDbEntity
  8
DEFPOINTS
 62
     0
100
AcDbPoint
 10
3534.444212502297
 20
3775.572834317824
 30
0.0
  0
POINT
  5
8344
330
8417
100
AcDbEntity
  8
DEFPOINTS
 62
     0
100
AcDbPoint
 10
3318.605211603564
 20
2420.572834317823
 30
0.0
  0
POINT
  5
8345
330
8417
100
AcDbEntity
  8
DEFPOINTS
 62
     0
100
AcDbPoint
 10
4022.81512547514
 20
2420.572834317823
 30
0.0
  0
ENDBLK
  5
7FC1
330
8417
100
AcDbEntity
  8
0
100
AcDbBlockEnd
  0
BLOCK
  5
841A
330
8419
100
AcDbEntity
  8
0
100
AcDbBlockBegin
  2
*D18
 70
     1
 10
0.0
 20
0.0
 30
0.0
  3
*D18
  1

  0
LINE
  5
8346
330
8419
100
AcDbEntity
  8
3
 62
     0
100
AcDbLine
 10
3336.105211603564
 20
2305.572834317823
 30
0.0
 11
4057.815125475139
 21
2305.572834317823
 31
0.0
  0
LINE
  5
8347
330
8419
100
AcDbEntity
  8
3
 62
     0
100
AcDbLine
 10
3336.105211603563
 20
2240.572834317823
 30
0.0
 11
4057.815125475139
 21
2240.572834317823
 31
0.0
  0
LINE
  5
8348
330
8419
100
AcDbEntity
  8
3
 62
     0
100
AcDbLine
 10
4022.81512547514
 20
2375.572834317823
 30
0.0
 11
4022.81512547514
 21
2445.572834317824
 31
0.0
  0
LINE
  5
8349
330
8419
100
AcDbEntity
  8
3
 62
     0
100
AcDbLine
 10
4022.81512547514
 20
2170.572834317823
 30
0.0
 11
4022.81512547514
 21
1860.572834317823
 31
0.0
  0
LINE
  5
834A
330
8419
100
AcDbEntity
  8
3
 62
     0
100
AcDbLine
 10
4022.81512547514
 20
2305.572834317823
 30
0.0
 11
4022.81512547514
 21
2240.572834317823
 31
0.0
  0
INSERT
  5
834B
330
8419
100
AcDbEntity
  8
3
 62
     0
100
AcDbBlockReference
  2
_DOT
 10
4022.81512547514
 20
2305.572834317823
 30
0.0
 41
70.0
 42
70.0
 43
70.0
 50
270.0
  0
INSERT
  5
834C
330
8419
100
AcDbEntity
  8
3
 62
     0
100
AcDbBlockReference
  2
_OPEN
 10
4022.81512547514
 20
2240.572834317823
 30
0.0
 41
70.0
 42
70.0
 43
70.0
 50
90.0
  0
TEXT
  5
8375
330
8419
100
AcDbEntity
  8
3
 62
     0
100
AcDbText
 10
3725.32
 20
1794.72
 30
0.0
 40
105.0
  1
65
100
AcDbText
  0
POINT
  5
834E
330
8419
100
AcDbEntity
  8
DEFPOINTS
 62
     0
100
AcDbPoint
 10
3318.605211603564
 20
2305.572834317823
 30
0.0
  0
POINT
  5
834F
330
8419
100
AcDbEntity
  8
DEFPOINTS
 62
     0
100
AcDbPoint
 10
3318.605211603564
 20
2240.572834317823
 30
0.0
  0
POINT
  5
8350
330
8419
100
AcDbEntity
  8
DEFPOINTS
 62
     0
100
AcDbPoint
 10
4022.81512547514
 20
2240.572834317823
 30
0.0
  0
ENDBLK
  5
80CB
330
8419
100
AcDbEntity
  8
0
100
AcDbBlockEnd
  0
BLOCK
  5
8420
330
841B
100
AcDbEntity
  8
0
100
AcDbBlockBegin
  2
_DOT
 70
     0
 10
0.0
 20
0.0
 30
0.0
  3
_DOT
  1

  0
LWPOLYLINE
  5
80CE
330
841B
100
AcDbEntity
  8
0
  6
ByBlock
 62
     0
100
AcDbPolyline
 90
        2
 70
     1
 43
0.25
 10
-0.125
 20
0.0
 42
1.0
 10
0.125
 20
0.0
 42
1.0
  0
LINE
  5
80D2
330
841B
100
AcDbEntity
  8
0
  6
ByBlock
 62
     0
100
AcDbLine
 10
-0.25
 20
0.0
 30
0.0
 11
-1.0
 21
0.0
 31
0.0
  0
ENDBLK
  5
80B1
330
841B
100
AcDbEntity
  8
0
100
AcDbBlockEnd
  0
BLOCK
  5
841D
330
841C
100
AcDbEntity
  8
0
100
AcDbBlockBegin
  2
*D20
 70
     1
 10
0.0
 20
0.0
 30
0.0
  3
*D20
  1

  0
LINE
  5
8351
330
841C
100
AcDbEntity
  8
3
 62
     0
100
AcDbLine
 10
3418.605211603564
 20
3798.072834317823
 30
0.0
 11
3418.605211603564
 21
4841.000164564144
 31
0.0
  0
LINE
  5
8352
330
841C
100
AcDbEntity
  8
3
 62
     0
100
AcDbLine
 10
2658.605211603564
 20
4659.141027998225
 30
0.0
 11
2658.605211603564
 21
4841.000164564144
 31
0.0
  0
LINE
  5
8353
330
841C
100
AcDbEntity
  8
3
 62
     0
100
AcDbLine
 10
3348.605211603564
 20
4806.000164564144
 30
0.0
 11
2728.605211603564
 21
4806.000164564144
 31
0.0
  0
INSERT
  5
8354
330
841C
100
AcDbEntity
  8
3
 62
     0
100
AcDbBlockReference
  2
_OPEN
 10
3418.605211603564
 20
4806.000164564144
 30
0.0
 41
70.0
 42
70.0
 43
70.0
  0
INSERT
  5
8355
330
841C
100
AcDbEntity
  8
3
 62
     0
100
AcDbBlockReference
  2
_OPEN
 10
2658.605211603564
 20
4806.000164564144
 30
0.0
 41
70.0
 42
70.0
 43
70.0
 50
180.0
  0
TEXT
  5
8376
330
841C
100
AcDbEntity
  8
3
 62
     0
100
AcDbText
 10
2828.61
 20
4707.65
 30
0.0
 40
105.0
  1
760
100
AcDbText
  0
POINT
  5
8357
330
841C
100
AcDbEntity
  8
DEFPOINTS
 62
     0
100
AcDbPoint
 10
3418.605211603564
 20
3780.572834317823
 30
0.0
  0
POINT
  5
8358
330
841C
100
AcDbEntity
  8
DEFPOINTS
 62
     0
100
AcDbPoint
 10
2658.605211603564
 20
4641.641027998224
 30
0.0
  0
POINT
  5
8359
330
841C
100
AcDbEntity
  8
DEFPOINTS
 62
     0
100
AcDbPoint
 10
2658.605211603564
 20
4806.000164564144
 30
0.0
  0
ENDBLK
  5
7F95
330
841C
100
AcDbEntity
  8
0
100
AcDbBlockEnd
  0
BLOCK
  5
841F
330
841E
100
AcDbEntity
  8
0
100
AcDbBlockBegin
  2
*D21
 70
     1
 10
0.0
 20
0.0
 30
0.0
  3
*D21
  1

  0
LINE
  5
835A
330
841E
100
AcDbEntity
  8
3
 62
     0
100
AcDbLine
 10
2658.605211603564
 20
4659.141027998225
 30
0.0
 11
2658.605211603564
 21
4841.000164564144
 31
0.0
  0
LINE
  5
835B
330
841E
100
AcDbEntity
  8
3
 62
     0
100
AcDbLine
 10
1689.605211603564
 20
3711.072834317823
 30
0.0
 11
1689.605211603564
 21
4841.000164564144
 31
0.0
  0
LINE
  5
835C
330
841E
100
AcDbEntity
  8
3
 62
     0
100
AcDbLine
 10
2588.605211603564
 20
4806.000164564144
 30
0.0
 11
1759.605211603564
 21
4806.000164564144
 31
0.0
  0
INSERT
  5
835D
330
841E
100
AcDbEntity
  8
3
 62
     0
100
AcDbBlockReference
  2
_OPEN
 10
2658.605211603564
 20
4806.000164564144
 30
0.0
 41
70.0
 42
70.0
 43
70.0
  0
INSERT
  5
835E
330
841E
100
AcDbEntity
  8
3
 62
     0
100
AcDbBlockReference
  2
_OPEN
 10
1689.605211603564
 20
4806.000164564144
 30
0.0
 41
70.0
 42
70.0
 43
70.0
 50
180.0
  0
TEXT
  5
8377
330
841E
100
AcDbEntity
  8
3
 62
     0
100
AcDbText
 10
1964.109999999999
 20
4707.65
 30
0.0
 40
105.0
  1
969
100
AcDbText
  0
POINT
  5
8360
330
841E
100
AcDbEntity
  8
DEFPOINTS
 62
     0
100
AcDbPoint
 10
2658.605211603564
 20
4641.641027998224
 30
0.0
  0
POINT
  5
8361
330
841E
100
AcDbEntity
  8
DEFPOINTS
 62
     0
100
AcDbPoint
 10
1689.605211603564
 20
3693.572834317823
 30
0.0
  0
POINT
  5
8362
330
841E
100
AcDbEntity
  8
DEFPOINTS
 62
     0
100
AcDbPoint
 10
1689.605211603564
 20
4806.000164564144
 30
0.0
  0
ENDBLK
  5
7FAB
330
841E
100
AcDbEntity
  8
0
100
AcDbBlockEnd
  0
BLOCK
  5
8422
330
8421
100
AcDbEntity
  8
0
100
AcDbBlockBegin
  2
*D22
 70
     1
 10
0.0
 20
0.0
 30
0.0
  3
*D22
  1

  0
LINE
  5
814C
330
8421
100
AcDbEntity
  8
0
  6
ByBlock
 62
     0
100
AcDbLine
 10
1058.605211603565
 20
2318.072834317823
 30
0.0
 11
1058.605211603565
 21
2061.993710778868
 31
0.0
  0
LINE
  5
814D
330
8421
100
AcDbEntity
  8
0
  6
ByBlock
 62
     0
100
AcDbLine
 10
2658.605211603564
 20
2318.072834317823
 30
0.0
 11
2658.605211603564
 21
2061.993710778868
 31
0.0
  0
LINE
  5
814E
330
8421
100
AcDbEntity
  8
0
  6
ByBlock
 62
     0
100
AcDbLine
 10
1128.605211603565
 20
2096.993710778868
 30
0.0
 11
2588.605211603565
 21
2096.993710778868
 31
0.0
  0
INSERT
  5
814F
330
8421
100
AcDbEntity
  8
0
  6
ByBlock
 62
     0
100
AcDbBlockReference
  2
_OPEN
 10
1058.605211603565
 20
2096.993710778868
 30
0.0
 41
70.0
 42
70.0
 43
70.0
 50
180.0
  0
INSERT
  5
8150
330
8421
100
AcDbEntity
  8
0
  6
ByBlock
 62
     0
100
AcDbBlockReference
  2
_OPEN
 10
2658.605211603564
 20
2096.993710778868
 30
0.0
 41
70.0
 42
70.0
 43
70.0
  0
TEXT
  5
8151
330
8421
100
AcDbEntity
  8
3
 62
     0
100
AcDbText
 10
1683.605211603565
 20
2131.993710778868
 30
0.0
 40
105.0
  1
1600
100
AcDbText
  0
POINT
  5
8152
330
8421
100
AcDbEntity
  8
DEFPOINTS
  6
ByBlock
 62
     0
100
AcDbPoint
 10
1058.605211603565
 20
2335.572834317823
 30
0.0
  0
POINT
  5
8153
330
8421
100
AcDbEntity
  8
DEFPOINTS
  6
ByBlock
 62
     0
100
AcDbPoint
 10
2658.605211603564
 20
2335.572834317823
 30
0.0
  0
POINT
  5
8154
330
8421
100
AcDbEntity
  8
DEFPOINTS
  6
ByBlock
 62
     0
100
AcDbPoint
 10
2658.605211603564
 20
2096.993710778868
 30
0.0
  0
ENDBLK
  5
8155
330
8421
100
AcDbEntity
  8
0
100
AcDbBlockEnd
  0
BLOCK
  5
8424
330
8423
100
AcDbEntity
  8
0
100
AcDbBlockBegin
  2
*D23
 70
     1
 10
0.0
 20
0.0
 30
0.0
  3
*D23
  1

  0
LINE
  5
8159
330
8423
100
AcDbEntity
  8
0
  6
ByBlock
 62
     0
100
AcDbLine
 10
2658.605211603564
 20
2318.072834317823
 30
0.0
 11
2658.605211603564
 21
2061.993710778868
 31
0.0
  0
LINE
  5
815A
330
8423
100
AcDbEntity
  8
0
  6
ByBlock
 62
     0
100
AcDbLine
 10
3318.605211603564
 20
2318.072834317823
 30
0.0
 11
3318.605211603564
 21
2061.993710778868
 31
0.0
  0
LINE
  5
815B
330
8423
100
AcDbEntity
  8
0
  6
ByBlock
 62
     0
100
AcDbLine
 10
2728.605211603564
 20
2096.993710778868
 30
0.0
 11
3248.605211603563
 21
2096.993710778868
 31
0.0
  0
INSERT
  5
815C
330
8423
100
AcDbEntity
  8
0
  6
ByBlock
 62
     0
100
AcDbBlockReference
  2
_OPEN
 10
2658.605211603564
 20
2096.993710778868
 30
0.0
 41
70.0
 42
70.0
 43
70.0
 50
180.0
  0
INSERT
  5
815D
330
8423
100
AcDbEntity
  8
0
  6
ByBlock
 62
     0
100
AcDbBlockReference
  2
_OPEN
 10
3318.605211603564
 20
2096.993710778868
 30
0.0
 41
70.0
 42
70.0
 43
70.0
  0
TEXT
  5
815E
330
8423
100
AcDbEntity
  8
3
 62
     0
100
AcDbText
 10
2853.605211603564
 20
2131.993710778868
 30
0.0
 40
105.0
  1
660
100
AcDbText
  0
POINT
  5
815F
330
8423
100
AcDbEntity
  8
DEFPOINTS
  6
ByBlock
 62
     0
100
AcDbPoint
 10
2658.605211603564
 20
2335.572834317823
 30
0.0
  0
POINT
  5
8160
330
8423
100
AcDbEntity
  8
DEFPOINTS
  6
ByBlock
 62
     0
100
AcDbPoint
 10
3318.605211603564
 20
2335.572834317823
 30
0.0
  0
POINT
  5
8161
330
8423
100
AcDbEntity
  8
DEFPOINTS
  6
ByBlock
 62
     0
100
AcDbPoint
 10
3318.605211603564
 20
2096.993710778868
 30
0.0
  0
ENDBLK
  5
8162
330
8423
100
AcDbEntity
  8
0
100
AcDbBlockEnd
  0
BLOCK
  5
8426
330
8425
100
AcDbEntity
  8
0
100
AcDbBlockBegin
  2
*D24
 70
     1
 10
0.0
 20
0.0
 30
0.0
  3
*D24
  1

  0
LINE
  5
8166
330
8425
100
AcDbEntity
  8
0
  6
ByBlock
 62
     0
100
AcDbLine
 10
4561.752841307494
 20
2318.072834317823
 30
0.0
 11
4561.752841307494
 21
2061.993710778868
 31
0.0
  0
LINE
  5
8167
330
8425
100
AcDbEntity
  8
0
  6
ByBlock
 62
     0
100
AcDbLine
 10
5643.752841307505
 20
2318.072834317823
 30
0.0
 11
5643.752841307505
 21
2061.993710778868
 31
0.0
  0
LINE
  5
8168
330
8425
100
AcDbEntity
  8
0
  6
ByBlock
 62
     0
100
AcDbLine
 10
4631.752841307494
 20
2096.993710778868
 30
0.0
 11
5573.752841307506
 21
2096.993710778868
 31
0.0
  0
INSERT
  5
8169
330
8425
100
AcDbEntity
  8
0
  6
ByBlock
 62
     0
100
AcDbBlockReference
  2
_OPEN
 10
4561.752841307494
 20
2096.993710778868
 30
0.0
 41
70.0
 42
70.0
 43
70.0
 50
180.0
  0
INSERT
  5
816A
330
8425
100
AcDbEntity
  8
0
  6
ByBlock
 62
     0
100
AcDbBlockReference
  2
_OPEN
 10
5643.752841307505
 20
2096.993710778868
 30
0.0
 41
70.0
 42
70.0
 43
70.0
  0
TEXT
  5
816B
330
8425
100
AcDbEntity
  8
3
 62
     0
100
AcDbText
 10
4927.7528413075
 20
2131.993710778868
 30
0.0
 40
105.0
  1
1082
100
AcDbText
  0
POINT
  5
816C
330
8425
100
AcDbEntity
  8
DEFPOINTS
  6
ByBlock
 62
     0
100
AcDbPoint
 10
4561.752841307494
 20
2335.572834317823
 30
0.0
  0
POINT
  5
816D
330
8425
100
AcDbEntity
  8
DEFPOINTS
  6
ByBlock
 62
     0
100
AcDbPoint
 10
5643.752841307505
 20
2335.572834317823
 30
0.0
  0
POINT
  5
816E
330
8425
100
AcDbEntity
  8
DEFPOINTS
  6
ByBlock
 62
     0
100
AcDbPoint
 10
5643.752841307505
 20
2096.993710778868
 30
0.0
  0
ENDBLK
  5
816F
330
8425
100
AcDbEntity
  8
0
100
AcDbBlockEnd
  0
BLOCK
  5
8428
330
8427
100
AcDbEntity
  8
0
100
AcDbBlockBegin
  2
*D25
 70
     1
 10
0.0
 20
0.0
 30
0.0
  3
*D25
  1

  0
LINE
  5
8173
330
8427
100
AcDbEntity
  8
0
  6
ByBlock
 62
     0
100
AcDbLine
 10
5643.752841307505
 20
2318.072834317823
 30
0.0
 11
5643.752841307505
 21
2061.993710778868
 31
0.0
  0
LINE
  5
8174
330
8427
100
AcDbEntity
  8
0
  6
ByBlock
 62
     0
100
AcDbLine
 10
6461.752841307483
 20
2318.072834317823
 30
0.0
 11
6461.752841307483
 21
2061.993710778868
 31
0.0
  0
LINE
  5
8175
330
8427
100
AcDbEntity
  8
0
  6
ByBlock
 62
     0
100
AcDbLine
 10
5713.752841307505
 20
2096.993710778868
 30
0.0
 11
6391.752841307484
 21
2096.993710778868
 31
0.0
  0
INSERT
  5
8176
330
8427
100
AcDbEntity
  8
0
  6
ByBlock
 62
     0
100
AcDbBlockReference
  2
_OPEN
 10
5643.752841307505
 20
2096.993710778868
 30
0.0
 41
70.0
 42
70.0
 43
70.0
 50
180.0
  0
INSERT
  5
8177
330
8427
100
AcDbEntity
  8
0
  6
ByBlock
 62
     0
100
AcDbBlockReference
  2
_OPEN
 10
6461.752841307483
 20
2096.993710778868
 30
0.0
 41
70.0
 42
70.0
 43
70.0
  0
TEXT
  5
8178
330
8427
100
AcDbEntity
  8
3
 62
     0
100
AcDbText
 10
5927.752841307494
 20
2131.993710778868
 30
0.0
 40
105.0
  1
818
100
AcDbText
  0
POINT
  5
8179
330
8427
100
AcDbEntity
  8
DEFPOINTS
  6
ByBlock
 62
     0
100
AcDbPoint
 10
5643.752841307505
 20
2335.572834317823
 30
0.0
  0
POINT
  5
817A
330
8427
100
AcDbEntity
  8
DEFPOINTS
  6
ByBlock
 62
     0
100
AcDbPoint
 10
6461.752841307483
 20
2335.572834317823
 30
0.0
  0
POINT
  5
817B
330
8427
100
AcDbEntity
  8
DEFPOINTS
  6
ByBlock
 62
     0
100
AcDbPoint
 10
6461.752841307483
 20
2096.993710778868
 30
0.0
  0
ENDBLK
  5
817C
330
8427
100
AcDbEntity
  8
0
100
AcDbBlockEnd
  0
BLOCK
  5
842A
330
8429
100
AcDbEntity
  8
0
100
AcDbBlockBegin
  2
_NONE
 70
     0
 10
0.0
 20
0.0
 30
0.0
  3
_NONE
  1

  0
CIRCLE
  5
8180
330
8429
100
AcDbEntity
  8
0
  6
ByBlock
 62
     0
100
AcDbCircle
 10
0.0
 20
0.0
 30
0.0
 40
0.25
  0
ENDBLK
  5
8181
330
8429
100
AcDbEntity
  8
0
100
AcDbBlockEnd
  0
BLOCK
  5
842C
330
842B
100
AcDbEntity
  8
0
100
AcDbBlockBegin
  2
*D27
 70
     1
 10
0.0
 20
0.0
 30
0.0
  3
*D27
  1

  0
LINE
  5
81DC
330
842B
100
AcDbEntity
  8
0
  6
ByBlock
 62
     0
100
AcDbLine
 10
4022.645227760198
 20
2305.572834317823
 30
0.0
 11
4022.645227760198
 21
2420.572834317823
 31
0.0
  0
TEXT
  5
81DD
330
842B
100
AcDbEntity
  8
3
 62
     0
100
AcDbText
 10
4225.1452277602
 20
2117.572834317823
 30
0.0
 40
105.0
  1
  (115)
 50
90.0
100
AcDbText
  0
POINT
  5
81DE
330
842B
100
AcDbEntity
  8
DEFPOINTS
  6
ByBlock
 62
     0
100
AcDbPoint
 10
3318.605211603564
 20
2305.572834317823
 30
0.0
  0
POINT
  5
81DF
330
842B
100
AcDbEntity
  8
DEFPOINTS
  6
ByBlock
 62
     0
100
AcDbPoint
 10
3318.605211603564
 20
2420.572834317823
 30
0.0
  0
POINT
  5
81E0
330
842B
100
AcDbEntity
  8
DEFPOINTS
  6
ByBlock
 62
     0
100
AcDbPoint
 10
4022.645227760198
 20
2420.572834317823
 30
0.0
  0
ENDBLK
  5
81E1
330
842B
100
AcDbEntity
  8
0
100
AcDbBlockEnd
  0
BLOCK
  5
842E
330
842D
100
AcDbEntity
  8
0
100
AcDbBlockBegin
  2
*D28
 70
     1
 10
0.0
 20
0.0
 30
0.0
  3
*D28
  1

  0
LINE
  5
81C2
330
842D
100
AcDbEntity
  8
0
  6
ByBlock
 62
     0
100
AcDbLine
 10
3336.105211603563
 20
2240.572834317823
 30
0.0
 11
4337.635340807523
 21
2240.572834317823
 31
0.0
  0
LINE
  5
81C3
330
842D
100
AcDbEntity
  8
0
  6
ByBlock
 62
     0
100
AcDbLine
 10
2611.605211603564
 20
4580.572834317824
 30
0.0
 11
4337.635340807523
 21
4580.572834317824
 31
0.0
  0
LINE
  5
81C4
330
842D
100
AcDbEntity
  8
0
  6
ByBlock
 62
     0
100
AcDbLine
 10
4302.635340807523
 20
2310.572834317823
 30
0.0
 11
4302.635340807523
 21
4510.572834317824
 31
0.0
  0
INSERT
  5
81C5
330
842D
100
AcDbEntity
  8
0
  6
ByBlock
 62
     0
100
AcDbBlockReference
  2
_OPEN
 10
4302.635340807523
 20
2240.572834317823
 30
0.0
 41
70.0
 42
70.0
 43
70.0
 50
270.0
  0
INSERT
  5
81C6
330
842D
100
AcDbEntity
  8
0
  6
ByBlock
 62
     0
100
AcDbBlockReference
  2
_OPEN
 10
4302.635340807523
 20
4580.572834317824
 30
0.0
 41
70.0
 42
70.0
 43
70.0
 50
90.0
  0
TEXT
  5
81C7
330
842D
100
AcDbEntity
  8
3
 62
     0
100
AcDbText
 10
4222.635340807523
 20
3158.072834317823
 30
0.0
 40
105.0
  1
(2340)
 50
90.0
100
AcDbText
  0
POINT
  5
81C8
330
842D
100
AcDbEntity
  8
DEFPOINTS
  6
ByBlock
 62
     0
100
AcDbPoint
 10
3318.605211603564
 20
2240.572834317823
 30
0.0
  0
POINT
  5
81C9
330
842D
100
AcDbEntity
  8
DEFPOINTS
  6
ByBlock
 62
     0
100
AcDbPoint
 10
2594.105211603564
 20
4580.572834317824
 30
0.0
  0
POINT
  5
81CA
330
842D
100
AcDbEntity
  8
DEFPOINTS
  6
ByBlock
 62
     0
100
AcDbPoint
 10
4302.635340807523
 20
4580.572834317824
 30
0.0
  0
ENDBLK
  5
81CB
330
842D
100
AcDbEntity
  8
0
100
AcDbBlockEnd
  0
BLOCK
  5
8434
330
8433
100
AcDbEntity
  8
0
100
AcDbBlockBegin
  2
*D29
 70
     1
 10
0.0
 20
0.0
 30
0.0
  3
*D29
  1

  0
LINE
  5
8436
330
8433
100
AcDbEntity
  8
3
 62
     0
370
    -2
100
AcDbLine
 10
4523.752841307505
 20
4157.760334317824
 30
0.0
 11
4523.752841307505
 21
5065.617625186006
 31
0.0
  0
LINE
  5
8437
330
8433
100
AcDbEntity
  8
3
 62
     0
370
    -2
100
AcDbLine
 10
5643.752841307503
 20
5002.677739191
 30
0.0
 11
5643.752841307503
 21
5065.617625186006
 31
0.0
  0
LINE
  5
8438
330
8433
100
AcDbEntity
  8
3
 62
     0
370
    -2
100
AcDbLine
 10
4530.052841307505
 20
5059.317625186006
 30
0.0
 11
5070.702841307504
 21
5059.317625186006
 31
0.0
  0
LINE
  5
8439
330
8433
100
AcDbEntity
  8
3
 62
     0
370
    -2
100
AcDbLine
 10
5637.452841307503
 20
5059.317625186006
 30
0.0
 11
5096.802841307504
 21
5059.317625186006
 31
0.0
  0
SOLID
  5
843A
330
8433
100
AcDbEntity
  8
3
 62
     0
100
AcDbTrace
 10
4530.052841307505
 20
5060.367625186007
 30
0.0
 11
4530.052841307505
 21
5058.267625186005
 31
0.0
 12
4523.752841307505
 22
5059.317625186006
 32
0.0
 13
4523.752841307505
 23
5059.317625186006
 33
0.0
  0
SOLID
  5
843B
330
8433
100
AcDbEntity
  8
3
 62
     0
100
AcDbTrace
 10
5637.452841307503
 20
5060.367625186007
 30
0.0
 11
5637.452841307503
 21
5058.267625186005
 31
0.0
 12
5643.752841307503
 22
5059.317625186006
 32
0.0
 13
5643.752841307503
 23
5059.317625186006
 33
0.0
  0
MTEXT
  5
843C
330
8433
100
AcDbEntity
  8
3
 62
     0
100
AcDbMText
 10
5083.752841307504
 20
5059.317625186006
 30
0.0
 40
6.299999999999999
 41
0.0
 71
     5
 72
     1
  1
\A1;MAX\P1120
 73
     1
 44
1.0
1001
ACAD
1000
MTEXTBEGIN
1070
    73
1070
     1
1070
    44
1040
1.0
1070
    74
1070
     0
1000
MTEXTEND
  0
POINT
  5
843D
330
8433
100
AcDbEntity
  8
DEFPOINTS
 62
     0
100
AcDbPoint
 10
4523.752841307505
 20
4155.572834317824
 30
0.0
  0
POINT
  5
843E
330
8433
100
AcDbEntity
  8
DEFPOINTS
 62
     0
100
AcDbPoint
 10
5643.752841307503
 20
5000.490239191
 30
0.0
  0
POINT
  5
843F
330
8433
100
AcDbEntity
  8
DEFPOINTS
 62
     0
100
AcDbPoint
 10
5643.752841307503
 20
5059.317625186006
 30
0.0
  0
ENDBLK
  5
8435
330
8433
100
AcDbEntity
  8
0
100
AcDbBlockEnd
  0
BLOCK
  5
8441
330
8440
100
AcDbEntity
  8
0
100
AcDbBlockBegin
  2
*D30
 70
     1
 10
0.0
 20
0.0
 30
0.0
  3
*D30
  1

  0
LINE
  5
8443
330
8440
100
AcDbEntity
  8
3
 62
     0
370
    -2
100
AcDbLine
 10
5643.752841307503
 20
5002.677739191
 30
0.0
 11
5643.752841307503
 21
5066.634276454418
 31
0.0
  0
LINE
  5
8444
330
8440
100
AcDbEntity
  8
3
 62
     0
370
    -2
100
AcDbLine
 10
6571.252841307502
 20
3690.799811423018
 30
0.0
 11
6571.252841307502
 21
5066.634276454418
 31
0.0
  0
LINE
  5
8445
330
8440
100
AcDbEntity
  8
3
 62
     0
370
    -2
100
AcDbLine
 10
5650.052841307504
 20
5060.334276454418
 30
0.0
 11
6092.202841307504
 21
5060.334276454418
 31
0.0
  0
LINE
  5
8446
330
8440
100
AcDbEntity
  8
3
 62
     0
370
    -2
100
AcDbLine
 10
6564.952841307501
 20
5060.334276454418
 30
0.0
 11
6122.802841307503
 21
5060.334276454418
 31
0.0
  0
SOLID
  5
8447
330
8440
100
AcDbEntity
  8
3
 62
     0
100
AcDbTrace
 10
5650.052841307504
 20
5061.384276454418
 30
0.0
 11
5650.052841307504
 21
5059.284276454417
 31
0.0
 12
5643.752841307503
 22
5060.334276454418
 32
0.0
 13
5643.752841307503
 23
5060.334276454418
 33
0.0
  0
SOLID
  5
8448
330
8440
100
AcDbEntity
  8
3
 62
     0
100
AcDbTrace
 10
6564.952841307501
 20
5061.384276454418
 30
0.0
 11
6564.952841307501
 21
5059.284276454417
 31
0.0
 12
6571.252841307502
 22
5060.334276454418
 32
0.0
 13
6571.252841307502
 23
5060.334276454418
 33
0.0
  0
MTEXT
  5
8449
330
8440
100
AcDbEntity
  8
3
 62
     0
100
AcDbMText
 10
6107.502841307503
 20
5060.334276454418
 30
0.0
 40
6.299999999999999
 41
0.0
 71
     5
 72
     1
  1
\A1;(930)
 73
     1
 44
1.0
1001
ACAD
1000
MTEXTBEGIN
1070
    73
1070
     1
1070
    44
1040
1.0
1070
    74
1070
     0
1000
MTEXTEND
  0
POINT
  5
844A
330
8440
100
AcDbEntity
  8
DEFPOINTS
 62
     0
100
AcDbPoint
 10
5643.752841307503
 20
5000.490239191
 30
0.0
  0
POINT
  5
844B
330
8440
100
AcDbEntity
  8
DEFPOINTS
 62
     0
100
AcDbPoint
 10
6571.252841307502
 20
3688.612311423018
 30
0.0
  0
POINT
  5
844C
330
8440
100
AcDbEntity
  8
DEFPOINTS
 62
     0
100
AcDbPoint
 10
6571.252841307502
 20
5060.334276454418
 30
0.0
  0
ENDBLK
  5
8442
330
8440
100
AcDbEntity
  8
0
100
AcDbBlockEnd
  0
BLOCK
  5
8453
330
8452
100
AcDbEntity
  8
0
100
AcDbBlockBegin
  2
*D31
 70
     1
 10
0.0
 20
0.0
 30
0.0
  3
*D31
  1

  0
LINE
  5
84C3
330
8452
100
AcDbEntity
  8
3
 62
     0
370
    -2
100
AcDbLine
 10
6411.252841307505
 20
4335.572834317823
 30
0.0
 11
6796.535607663017
 21
4335.572834317823
 31
0.0
  0
LINE
  5
84C4
330
8452
100
AcDbEntity
  8
3
 62
     0
370
    -2
100
AcDbLine
 10
6411.252841307504
 20
3215.572834317824
 30
0.0
 11
6796.535607663017
 21
3215.572834317824
 31
0.0
  0
LINE
  5
84C5
330
8452
100
AcDbEntity
  8
3
 62
     0
370
    -2
100
AcDbLine
 10
6761.535607663017
 20
4265.572834317823
 30
0.0
 11
6761.535607663017
 21
3285.572834317823
 31
0.0
  0
INSERT
  5
84C6
330
8452
100
AcDbEntity
  8
3
 62
     0
370
    -2
100
AcDbBlockReference
  2
_OPEN
 10
6761.535607663017
 20
4335.572834317823
 30
0.0
 41
70.0
 42
70.0
 43
70.0
 50
90.0
  0
INSERT
  5
84C7
330
8452
100
AcDbEntity
  8
3
 62
     0
370
    -2
100
AcDbBlockReference
  2
_OPEN
 10
6761.535607663017
 20
3215.572834317824
 30
0.0
 41
70.0
 42
70.0
 43
70.0
 50
270.0
  0
MTEXT
  5
84C8
330
8452
100
AcDbEntity
  8
3
 62
     0
100
AcDbMText
 10
6674.035607663016
 20
3775.572834317824
 30
0.0
 40
105.0
 41
0.0
 71
     5
 72
     1
  1
\A1;\U+03C61120
 11
0.0000000000000001
 21
1.0
 31
0.0
 73
     1
 44
1.0
1001
ACAD
1000
MTEXTBEGIN
1070
    73
1070
     1
1070
    44
1040
1.0
1070
    74
1070
     0
1000
MTEXTEND
  0
POINT
  5
84C9
330
8452
100
AcDbEntity
  8
DEFPOINTS
 62
     0
100
AcDbPoint
 10
6393.752841307505
 20
4335.572834317823
 30
0.0
  0
POINT
  5
84CA
330
8452
100
AcDbEntity
  8
DEFPOINTS
 62
     0
100
AcDbPoint
 10
6393.752841307504
 20
3215.572834317824
 30
0.0
  0
POINT
  5
84CB
330
8452
100
AcDbEntity
  8
DEFPOINTS
 62
     0
100
AcDbPoint
 10
6761.535607663017
 20
3215.572834317824
 30
0.0
  0
ENDBLK
  5
8454
330
8452
100
AcDbEntity
  8
0
100
AcDbBlockEnd
  0
BLOCK
  5
845F
330
845E
100
AcDbEntity
  8
0
100
AcDbBlockBegin
  2
*D32
 70
     1
 10
0.0
 20
0.0
 30
0.0
  3
*D32
  1

  0
LINE
  5
8461
330
845E
100
AcDbEntity
  8
3
 62
     0
370
    -2
100
AcDbLine
 10
3320.792711603564
 20
2250.572834317823
 30
0.0
 11
4308.935340807523
 21
2250.572834317823
 31
0.0
  0
LINE
  5
8462
330
845E
100
AcDbEntity
  8
3
 62
     0
370
    -2
100
AcDbLine
 10
2596.292711603564
 20
4580.572834317824
 30
0.0
 11
4308.935340807523
 21
4580.572834317824
 31
0.0
  0
LINE
  5
8463
330
845E
100
AcDbEntity
  8
3
 62
     0
370
    -2
100
AcDbLine
 10
4302.635340807523
 20
2256.872834317823
 30
0.0
 11
4302.635340807523
 21
3407.622834317824
 31
0.0
  0
LINE
  5
8464
330
845E
100
AcDbEntity
  8
3
 62
     0
370
    -2
100
AcDbLine
 10
4302.635340807523
 20
4574.272834317824
 30
0.0
 11
4302.635340807523
 21
3423.522834317824
 31
0.0
  0
SOLID
  5
8465
330
845E
100
AcDbEntity
  8
3
 62
     0
100
AcDbTrace
 10
4301.585340807522
 20
2256.872834317823
 30
0.0
 11
4303.685340807523
 21
2256.872834317823
 31
0.0
 12
4302.635340807523
 22
2250.572834317823
 32
0.0
 13
4302.635340807523
 23
2250.572834317823
 33
0.0
  0
SOLID
  5
8466
330
845E
100
AcDbEntity
  8
3
 62
     0
100
AcDbTrace
 10
4301.585340807522
 20
4574.272834317824
 30
0.0
 11
4303.685340807523
 21
4574.272834317824
 31
0.0
 12
4302.635340807523
 22
4580.572834317824
 32
0.0
 13
4302.635340807523
 23
4580.572834317824
 33
0.0
  0
MTEXT
  5
8467
330
845E
100
AcDbEntity
  8
3
 62
     0
100
AcDbMText
 10
4302.635340807522
 20
3415.572834317824
 30
0.0
 40
6.299999999999999
 41
0.0
 71
     5
 72
     1
  1
\A1;(2330)
 73
     1
 44
1.0
1001
ACAD
1000
MTEXTBEGIN
1070
    73
1070
     1
1070
    44
1040
1.0
1070
    74
1070
     0
1000
MTEXTEND
  0
POINT
  5
8468
330
845E
100
AcDbEntity
  8
DEFPOINTS
 62
     0
100
AcDbPoint
 10
3318.605211603564
 20
2250.572834317823
 30
0.0
  0
POINT
  5
8469
330
845E
100
AcDbEntity
  8
DEFPOINTS
 62
     0
100
AcDbPoint
 10
2594.105211603564
 20
4580.572834317824
 30
0.0
  0
POINT
  5
846A
330
845E
100
AcDbEntity
  8
DEFPOINTS
 62
     0
100
AcDbPoint
 10
4302.635340807523
 20
4580.572834317824
 30
0.0
  0
ENDBLK
  5
8460
330
845E
100
AcDbEntity
  8
0
100
AcDbBlockEnd
  0
BLOCK
  5
846C
330
846B
100
AcDbEntity
  8
0
100
AcDbBlockBegin
  2
*D33
 70
     1
 10
0.0
 20
0.0
 30
0.0
  3
*D33
  1

  0
LINE
  5
846E
330
846B
100
AcDbEntity
  8
3
 62
     0
370
    -2
100
AcDbLine
 10
1058.605211603565
 20
2248.385334317823
 30
0.0
 11
1058.605211603565
 21
2005.693710778868
 31
0.0
  0
LINE
  5
846F
330
846B
100
AcDbEntity
  8
3
 62
     0
370
    -2
100
AcDbLine
 10
2658.605211603564
 20
2248.385334317823
 30
0.0
 11
2658.605211603564
 21
2005.693710778868
 31
0.0
  0
LINE
  5
8470
330
846B
100
AcDbEntity
  8
3
 62
     0
370
    -2
100
AcDbLine
 10
1064.905211603565
 20
2011.993710778868
 30
0.0
 11
1844.955211603564
 21
2011.993710778868
 31
0.0
  0
LINE
  5
8471
330
846B
100
AcDbEntity
  8
3
 62
     0
370
    -2
100
AcDbLine
 10
2652.305211603564
 20
2011.993710778868
 30
0.0
 11
1872.255211603564
 21
2011.993710778868
 31
0.0
  0
SOLID
  5
8472
330
846B
100
AcDbEntity
  8
3
 62
     0
100
AcDbTrace
 10
1064.905211603565
 20
2013.043710778868
 30
0.0
 11
1064.905211603565
 21
2010.943710778868
 31
0.0
 12
1058.605211603565
 22
2011.993710778868
 32
0.0
 13
1058.605211603565
 23
2011.993710778868
 33
0.0
  0
SOLID
  5
8473
330
846B
100
AcDbEntity
  8
3
 62
     0
100
AcDbTrace
 10
2652.305211603564
 20
2013.043710778868
 30
0.0
 11
2652.305211603564
 21
2010.943710778868
 31
0.0
 12
2658.605211603564
 22
2011.993710778868
 32
0.0
 13
2658.605211603564
 23
2011.993710778868
 33
0.0
  0
MTEXT
  5
8474
330
846B
100
AcDbEntity
  8
3
 62
     0
100
AcDbMText
 10
1858.605211603564
 20
2011.993710778868
 30
0.0
 40
6.299999999999999
 41
0.0
 71
     5
 72
     1
  1
\A1;1600
 73
     1
 44
1.0
1001
ACAD
1000
MTEXTBEGIN
1070
    73
1070
     1
1070
    44
1040
1.0
1070
    74
1070
     0
1000
MTEXTEND
  0
POINT
  5
8475
330
846B
100
AcDbEntity
  8
DEFPOINTS
 62
     0
100
AcDbPoint
 10
1058.605211603565
 20
2250.572834317823
 30
0.0
  0
POINT
  5
8476
330
846B
100
AcDbEntity
  8
DEFPOINTS
 62
     0
100
AcDbPoint
 10
2658.605211603564
 20
2250.572834317823
 30
0.0
  0
POINT
  5
8477
330
846B
100
AcDbEntity
  8
DEFPOINTS
 62
     0
100
AcDbPoint
 10
2658.605211603564
 20
2011.993710778868
 30
0.0
  0
ENDBLK
  5
846D
330
846B
100
AcDbEntity
  8
0
100
AcDbBlockEnd
  0
BLOCK
  5
8479
330
8478
100
AcDbEntity
  8
0
100
AcDbBlockBegin
  2
*D34
 70
     1
 10
0.0
 20
0.0
 30
0.0
  3
*D34
  1

  0
LINE
  5
847B
330
8478
100
AcDbEntity
  8
3
 62
     0
370
    -2
100
AcDbLine
 10
2658.605211603564
 20
2248.385334317823
 30
0.0
 11
2658.605211603564
 21
2005.693710778868
 31
0.0
  0
LINE
  5
847C
330
8478
100
AcDbEntity
  8
3
 62
     0
370
    -2
100
AcDbLine
 10
3318.605211603564
 20
2248.385334317823
 30
0.0
 11
3318.605211603564
 21
2005.693710778868
 31
0.0
  0
LINE
  5
847D
330
8478
100
AcDbEntity
  8
3
 62
     0
370
    -2
100
AcDbLine
 10
2664.905211603564
 20
2011.993710778868
 30
0.0
 11
2977.355211603564
 21
2011.993710778868
 31
0.0
  0
LINE
  5
847E
330
8478
100
AcDbEntity
  8
3
 62
     0
370
    -2
100
AcDbLine
 10
3312.305211603564
 20
2011.993710778868
 30
0.0
 11
2999.855211603564
 21
2011.993710778868
 31
0.0
  0
SOLID
  5
847F
330
8478
100
AcDbEntity
  8
3
 62
     0
100
AcDbTrace
 10
2664.905211603564
 20
2013.043710778868
 30
0.0
 11
2664.905211603564
 21
2010.943710778868
 31
0.0
 12
2658.605211603564
 22
2011.993710778868
 32
0.0
 13
2658.605211603564
 23
2011.993710778868
 33
0.0
  0
SOLID
  5
8480
330
8478
100
AcDbEntity
  8
3
 62
     0
100
AcDbTrace
 10
3312.305211603564
 20
2013.043710778868
 30
0.0
 11
3312.305211603564
 21
2010.943710778868
 31
0.0
 12
3318.605211603564
 22
2011.993710778868
 32
0.0
 13
3318.605211603564
 23
2011.993710778868
 33
0.0
  0
MTEXT
  5
8481
330
8478
100
AcDbEntity
  8
3
 62
     0
100
AcDbMText
 10
2988.605211603564
 20
2011.993710778868
 30
0.0
 40
6.299999999999999
 41
0.0
 71
     5
 72
     1
  1
\A1;660
 73
     1
 44
1.0
1001
ACAD
1000
MTEXTBEGIN
1070
    73
1070
     1
1070
    44
1040
1.0
1070
    74
1070
     0
1000
MTEXTEND
  0
POINT
  5
8482
330
8478
100
AcDbEntity
  8
DEFPOINTS
 62
     0
100
AcDbPoint
 10
2658.605211603564
 20
2250.572834317823
 30
0.0
  0
POINT
  5
8483
330
8478
100
AcDbEntity
  8
DEFPOINTS
 62
     0
100
AcDbPoint
 10
3318.605211603564
 20
2250.572834317823
 30
0.0
  0
POINT
  5
8484
330
8478
100
AcDbEntity
  8
DEFPOINTS
 62
     0
100
AcDbPoint
 10
3318.605211603564
 20
2011.993710778868
 30
0.0
  0
ENDBLK
  5
847A
330
8478
100
AcDbEntity
  8
0
100
AcDbBlockEnd
  0
BLOCK
  5
8486
330
8485
100
AcDbEntity
  8
0
100
AcDbBlockBegin
  2
*D35
 70
     1
 10
0.0
 20
0.0
 30
0.0
  3
*D35
  1

  0
LINE
  5
8488
330
8485
100
AcDbEntity
  8
3
 62
     0
370
    -2
100
AcDbLine
 10
4561.752841307494
 20
2248.385334317823
 30
0.0
 11
4561.752841307494
 21
2005.693710778868
 31
0.0
  0
LINE
  5
8489
330
8485
100
AcDbEntity
  8
3
 62
     0
370
    -2
100
AcDbLine
 10
5643.752841307505
 20
2248.385334317823
 30
0.0
 11
5643.752841307505
 21
2005.693710778868
 31
0.0
  0
LINE
  5
848A
330
8485
100
AcDbEntity
  8
3
 62
     0
370
    -2
100
AcDbLine
 10
4568.052841307494
 20
2011.993710778868
 30
0.0
 11
5089.1028413075
 21
2011.993710778868
 31
0.0
  0
LINE
  5
848B
330
8485
100
AcDbEntity
  8
3
 62
     0
370
    -2
100
AcDbLine
 10
5637.452841307505
 20
2011.993710778868
 30
0.0
 11
5116.4028413075
 21
2011.993710778868
 31
0.0
  0
SOLID
  5
848C
330
8485
100
AcDbEntity
  8
3
 62
     0
100
AcDbTrace
 10
4568.052841307494
 20
2013.043710778868
 30
0.0
 11
4568.052841307494
 21
2010.943710778868
 31
0.0
 12
4561.752841307494
 22
2011.993710778868
 32
0.0
 13
4561.752841307494
 23
2011.993710778868
 33
0.0
  0
SOLID
  5
848D
330
8485
100
AcDbEntity
  8
3
 62
     0
100
AcDbTrace
 10
5637.452841307505
 20
2013.043710778868
 30
0.0
 11
5637.452841307505
 21
2010.943710778868
 31
0.0
 12
5643.752841307505
 22
2011.993710778868
 32
0.0
 13
5643.752841307505
 23
2011.993710778868
 33
0.0
  0
MTEXT
  5
848E
330
8485
100
AcDbEntity
  8
3
 62
     0
100
AcDbMText
 10
5102.752841307499
 20
2011.993710778868
 30
0.0
 40
6.299999999999999
 41
0.0
 71
     5
 72
     1
  1
\A1;1082
 73
     1
 44
1.0
1001
ACAD
1000
MTEXTBEGIN
1070
    73
1070
     1
1070
    44
1040
1.0
1070
    74
1070
     0
1000
MTEXTEND
  0
POINT
  5
848F
330
8485
100
AcDbEntity
  8
DEFPOINTS
 62
     0
100
AcDbPoint
 10
4561.752841307494
 20
2250.572834317823
 30
0.0
  0
POINT
  5
8490
330
8485
100
AcDbEntity
  8
DEFPOINTS
 62
     0
100
AcDbPoint
 10
5643.752841307505
 20
2250.572834317823
 30
0.0
  0
POINT
  5
8491
330
8485
100
AcDbEntity
  8
DEFPOINTS
 62
     0
100
AcDbPoint
 10
5643.752841307505
 20
2011.993710778868
 30
0.0
  0
ENDBLK
  5
8487
330
8485
100
AcDbEntity
  8
0
100
AcDbBlockEnd
  0
BLOCK
  5
8493
330
8492
100
AcDbEntity
  8
0
100
AcDbBlockBegin
  2
*D36
 70
     1
 10
0.0
 20
0.0
 30
0.0
  3
*D36
  1

  0
LINE
  5
8495
330
8492
100
AcDbEntity
  8
3
 62
     0
370
    -2
100
AcDbLine
 10
5643.752841307505
 20
2248.385334317823
 30
0.0
 11
5643.752841307505
 21
2005.693710778868
 31
0.0
  0
LINE
  5
8496
330
8492
100
AcDbEntity
  8
3
 62
     0
370
    -2
100
AcDbLine
 10
6461.752841307483
 20
2248.385334317823
 30
0.0
 11
6461.752841307483
 21
2005.693710778868
 31
0.0
  0
LINE
  5
8497
330
8492
100
AcDbEntity
  8
3
 62
     0
370
    -2
100
AcDbLine
 10
5650.052841307505
 20
2011.993710778868
 30
0.0
 11
6042.102841307495
 21
2011.993710778868
 31
0.0
  0
LINE
  5
8498
330
8492
100
AcDbEntity
  8
3
 62
     0
370
    -2
100
AcDbLine
 10
6455.452841307483
 20
2011.993710778868
 30
0.0
 11
6063.402841307493
 21
2011.993710778868
 31
0.0
  0
SOLID
  5
8499
330
8492
100
AcDbEntity
  8
3
 62
     0
100
AcDbTrace
 10
5650.052841307505
 20
2013.043710778868
 30
0.0
 11
5650.052841307505
 21
2010.943710778868
 31
0.0
 12
5643.752841307505
 22
2011.993710778868
 32
0.0
 13
5643.752841307505
 23
2011.993710778868
 33
0.0
  0
SOLID
  5
849A
330
8492
100
AcDbEntity
  8
3
 62
     0
100
AcDbTrace
 10
6455.452841307483
 20
2013.043710778868
 30
0.0
 11
6455.452841307483
 21
2010.943710778868
 31
0.0
 12
6461.752841307483
 22
2011.993710778868
 32
0.0
 13
6461.752841307483
 23
2011.993710778868
 33
0.0
  0
MTEXT
  5
849B
330
8492
100
AcDbEntity
  8
3
 62
     0
100
AcDbMText
 10
6052.752841307494
 20
2011.993710778868
 30
0.0
 40
6.299999999999999
 41
0.0
 71
     5
 72
     1
  1
\A1;818
 73
     1
 44
1.0
1001
ACAD
1000
MTEXTBEGIN
1070
    73
1070
     1
1070
    44
1040
1.0
1070
    74
1070
     0
1000
MTEXTEND
  0
POINT
  5
849C
330
8492
100
AcDbEntity
  8
DEFPOINTS
 62
     0
100
AcDbPoint
 10
5643.752841307505
 20
2250.572834317823
 30
0.0
  0
POINT
  5
849D
330
8492
100
AcDbEntity
  8
DEFPOINTS
 62
     0
100
AcDbPoint
 10
6461.752841307483
 20
2250.572834317823
 30
0.0
  0
POINT
  5
849E
330
8492
100
AcDbEntity
  8
DEFPOINTS
 62
     0
100
AcDbPoint
 10
6461.752841307483
 20
2011.993710778868
 30
0.0
  0
ENDBLK
  5
8494
330
8492
100
AcDbEntity
  8
0
100
AcDbBlockEnd
  0
BLOCK
  5
84A0
330
849F
100
AcDbEntity
  8
0
100
AcDbBlockBegin
  2
*D37
 70
     1
 10
0.0
 20
0.0
 30
0.0
  3
*D37
  1

  0
LINE
  5
84A2
330
849F
100
AcDbEntity
  8
3
 62
     0
370
    -2
100
AcDbLine
 10
3320.792711603564
 20
2315.572834317823
 30
0.0
 11
4029.115125475139
 21
2315.572834317823
 31
0.0
  0
LINE
  5
84A3
330
849F
100
AcDbEntity
  8
3
 62
     0
370
    -2
100
AcDbLine
 10
3320.792711603564
 20
2250.572834317823
 30
0.0
 11
4029.115125475139
 21
2250.572834317823
 31
0.0
  0
LINE
  5
84A4
330
849F
100
AcDbEntity
  8
3
 62
     0
370
    -2
100
AcDbLine
 10
4022.81512547514
 20
2309.272834317823
 30
0.0
 11
4022.81512547514
 21
2289.372834317823
 31
0.0
  0
LINE
  5
84A5
330
849F
100
AcDbEntity
  8
3
 62
     0
370
    -2
100
AcDbLine
 10
4022.81512547514
 20
2256.872834317823
 30
0.0
 11
4022.81512547514
 21
2276.772834317823
 31
0.0
  0
SOLID
  5
84A6
330
849F
100
AcDbEntity
  8
3
 62
     0
100
AcDbTrace
 10
4021.765125475139
 20
2309.272834317823
 30
0.0
 11
4023.865125475139
 21
2309.272834317823
 31
0.0
 12
4022.81512547514
 22
2315.572834317823
 32
0.0
 13
4022.81512547514
 23
2315.572834317823
 33
0.0
  0
SOLID
  5
84A7
330
849F
100
AcDbEntity
  8
3
 62
     0
100
AcDbTrace
 10
4021.765125475139
 20
2256.872834317823
 30
0.0
 11
4023.865125475139
 21
2256.872834317823
 31
0.0
 12
4022.81512547514
 22
2250.572834317823
 32
0.0
 13
4022.81512547514
 23
2250.572834317823
 33
0.0
  0
MTEXT
  5
84A8
330
849F
100
AcDbEntity
  8
3
 62
     0
100
AcDbMText
 10
4022.81512547514
 20
2283.072834317823
 30
0.0
 40
6.299999999999999
 41
0.0
 71
     5
 72
     1
  1
\A1;65
 73
     1
 44
1.0
1001
ACAD
1000
MTEXTBEGIN
1070
    73
1070
     1
1070
    44
1040
1.0
1070
    74
1070
     0
1000
MTEXTEND
  0
POINT
  5
84A9
330
849F
100
AcDbEntity
  8
DEFPOINTS
 62
     0
100
AcDbPoint
 10
3318.605211603564
 20
2315.572834317823
 30
0.0
  0
POINT
  5
84AA
330
849F
100
AcDbEntity
  8
DEFPOINTS
 62
     0
100
AcDbPoint
 10
3318.605211603564
 20
2250.572834317823
 30
0.0
  0
POINT
  5
84AB
330
849F
100
AcDbEntity
  8
DEFPOINTS
 62
     0
100
AcDbPoint
 10
4022.81512547514
 20
2250.572834317823
 30
0.0
  0
ENDBLK
  5
84A1
330
849F
100
AcDbEntity
  8
0
100
AcDbBlockEnd
  0
BLOCK
  5
84AD
330
84AC
100
AcDbEntity
  8
0
100
AcDbBlockBegin
  2
*D38
 70
     1
 10
0.0
 20
0.0
 30
0.0
  3
*D38
  1

  0
LINE
  5
84AF
330
84AC
100
AcDbEntity
  8
3
 62
     0
370
    -2
100
AcDbLine
 10
4022.645227760198
 20
2321.872834317823
 30
0.0
 11
4022.645227760198
 21
2360.122834317823
 31
0.0
  0
LINE
  5
84B0
330
84AC
100
AcDbEntity
  8
3
 62
     0
370
    -2
100
AcDbLine
 10
4022.645227760198
 20
2414.272834317823
 30
0.0
 11
4022.645227760198
 21
2376.022834317823
 31
0.0
  0
SOLID
  5
84B1
330
84AC
100
AcDbEntity
  8
3
 62
     0
100
AcDbTrace
 10
4021.595227760198
 20
2321.872834317823
 30
0.0
 11
4023.695227760199
 21
2321.872834317823
 31
0.0
 12
4022.645227760198
 22
2315.572834317823
 32
0.0
 13
4022.645227760198
 23
2315.572834317823
 33
0.0
  0
SOLID
  5
84B2
330
84AC
100
AcDbEntity
  8
3
 62
     0
100
AcDbTrace
 10
4021.595227760198
 20
2414.272834317823
 30
0.0
 11
4023.695227760199
 21
2414.272834317823
 31
0.0
 12
4022.645227760198
 22
2420.572834317823
 32
0.0
 13
4022.645227760198
 23
2420.572834317823
 33
0.0
  0
MTEXT
  5
84B3
330
84AC
100
AcDbEntity
  8
3
 62
     0
100
AcDbMText
 10
4022.645227760198
 20
2368.072834317823
 30
0.0
 40
6.299999999999999
 41
0.0
 71
     5
 72
     1
  1
\A1;  (105)
 73
     1
 44
1.0
1001
ACAD
1000
MTEXTBEGIN
1070
    73
1070
     1
1070
    44
1040
1.0
1070
    74
1070
     0
1000
MTEXTEND
  0
POINT
  5
84B4
330
84AC
100
AcDbEntity
  8
DEFPOINTS
 62
     0
100
AcDbPoint
 10
3318.605211603564
 20
2315.572834317823
 30
0.0
  0
POINT
  5
84B5
330
84AC
100
AcDbEntity
  8
DEFPOINTS
 62
     0
100
AcDbPoint
 10
3318.605211603564
 20
2420.572834317823
 30
0.0
  0
POINT
  5
84B6
330
84AC
100
AcDbEntity
  8
DEFPOINTS
 62
     0
100
AcDbPoint
 10
4022.645227760198
 20
2420.572834317823
 30
0.0
  0
ENDBLK
  5
84AE
330
84AC
100
AcDbEntity
  8
0
100
AcDbBlockEnd
  0
BLOCK
  5
84CE
330
84CD
100
AcDbEntity
  8
0
100
AcDbBlockBegin
  2
*D39
 70
     1
 10
0.0
 20
0.0
 30
0.0
  3
*D39
  1

  0
LINE
  5
84D0
330
84CD
100
AcDbEntity
  8
3
 62
     0
370
    -2
100
AcDbLine
 10
4561.752841307494
 20
2233.072834317823
 30
0.0
 11
4561.752841307494
 21
1976.993710778868
 31
0.0
  0
LINE
  5
84D1
330
84CD
100
AcDbEntity
  8
3
 62
     0
370
    -2
100
AcDbLine
 10
5643.752841307503
 20
2233.072834317823
 30
0.0
 11
5643.752841307503
 21
1976.993710778868
 31
0.0
  0
LINE
  5
84D2
330
84CD
100
AcDbEntity
  8
3
 62
     0
370
    -2
100
AcDbLine
 10
4631.752841307494
 20
2011.993710778868
 30
0.0
 11
5573.752841307503
 21
2011.993710778868
 31
0.0
  0
INSERT
  5
84D3
330
84CD
100
AcDbEntity
  8
3
 62
     0
370
    -2
100
AcDbBlockReference
  2
_OPEN
 10
4561.752841307494
 20
2011.993710778868
 30
0.0
 41
70.0
 42
70.0
 43
70.0
 50
180.0
  0
INSERT
  5
84D4
330
84CD
100
AcDbEntity
  8
3
 62
     0
370
    -2
100
AcDbBlockReference
  2
_OPEN
 10
5643.752841307503
 20
2011.993710778868
 30
0.0
 41
70.0
 42
70.0
 43
70.0
  0
MTEXT
  5
84D5
330
84CD
100
AcDbEntity
  8
3
 62
     0
100
AcDbMText
 10
5102.752841307498
 20
2099.493710778868
 30
0.0
 40
105.0
 41
0.0
 71
     5
 72
     1
  1
\A1;1082
 73
     1
 44
1.0
1001
ACAD
1000
MTEXTBEGIN
1070
    73
1070
     1
1070
    44
1040
1.0
1070
    74
1070
     0
1000
MTEXTEND
  0
POINT
  5
84D6
330
84CD
100
AcDbEntity
  8
DEFPOINTS
 62
     0
100
AcDbPoint
 10
4561.752841307494
 20
2250.572834317823
 30
0.0
  0
POINT
  5
84D7
330
84CD
100
AcDbEntity
  8
DEFPOINTS
 62
     0
100
AcDbPoint
 10
5643.752841307503
 20
2250.572834317823
 30
0.0
  0
POINT
  5
84D8
330
84CD
100
AcDbEntity
  8
DEFPOINTS
 62
     0
100
AcDbPoint
 10
5643.752841307503
 20
2011.993710778868
 30
0.0
  0
ENDBLK
  5
84CF
330
84CD
100
AcDbEntity
  8
0
100
AcDbBlockEnd
  0
BLOCK
  5
84DB
330
84DA
100
AcDbEntity
  8
0
100
AcDbBlockBegin
  2
*D40
 70
     1
 10
0.0
 20
0.0
 30
0.0
  3
*D40
  1

  0
LINE
  5
84DD
330
84DA
100
AcDbEntity
  8
3
 62
     0
370
    -2
100
AcDbLine
 10
5643.752841307503
 20
2233.072834317823
 30
0.0
 11
5643.752841307503
 21
1976.993710778868
 31
0.0
  0
LINE
  5
84DE
330
84DA
100
AcDbEntity
  8
3
 62
     0
370
    -2
100
AcDbLine
 10
6461.752841307483
 20
2233.072834317823
 30
0.0
 11
6461.752841307483
 21
1976.993710778868
 31
0.0
  0
LINE
  5
84DF
330
84DA
100
AcDbEntity
  8
3
 62
     0
370
    -2
100
AcDbLine
 10
5713.752841307503
 20
2011.993710778868
 30
0.0
 11
6391.752841307483
 21
2011.993710778868
 31
0.0
  0
INSERT
  5
84E0
330
84DA
100
AcDbEntity
  8
3
 62
     0
370
    -2
100
AcDbBlockReference
  2
_OPEN
 10
5643.752841307503
 20
2011.993710778868
 30
0.0
 41
70.0
 42
70.0
 43
70.0
 50
180.0
  0
INSERT
  5
84E1
330
84DA
100
AcDbEntity
  8
3
 62
     0
370
    -2
100
AcDbBlockReference
  2
_OPEN
 10
6461.752841307483
 20
2011.993710778868
 30
0.0
 41
70.0
 42
70.0
 43
70.0
  0
MTEXT
  5
84E2
330
84DA
100
AcDbEntity
  8
3
 62
     0
100
AcDbMText
 10
6052.752841307493
 20
2099.493710778868
 30
0.0
 40
105.0
 41
0.0
 71
     5
 72
     1
  1
\A1;818
 73
     1
 44
1.0
1001
ACAD
1000
MTEXTBEGIN
1070
    73
1070
     1
1070
    44
1040
1.0
1070
    74
1070
     0
1000
MTEXTEND
  0
POINT
  5
84E3
330
84DA
100
AcDbEntity
  8
DEFPOINTS
 62
     0
100
AcDbPoint
 10
5643.752841307503
 20
2250.572834317823
 30
0.0
  0
POINT
  5
84E4
330
84DA
100
AcDbEntity
  8
DEFPOINTS
 62
     0
100
AcDbPoint
 10
6461.752841307483
 20
2250.572834317823
 30
0.0
  0
POINT
  5
84E5
330
84DA
100
AcDbEntity
  8
DEFPOINTS
 62
     0
100
AcDbPoint
 10
6461.752841307483
 20
2011.993710778868
 30
0.0
  0
ENDBLK
  5
84DC
330
84DA
100
AcDbEntity
  8
0
100
AcDbBlockEnd
  0
BLOCK
  5
84E8
330
84E7
100
AcDbEntity
  8
0
100
AcDbBlockBegin
  2
*D41
 70
     1
 10
0.0
 20
0.0
 30
0.0
  3
*D41
  1

  0
LINE
  5
84EA
330
84E7
100
AcDbEntity
  8
3
 62
     0
370
    -2
100
AcDbLine
 10
4893.752841307505
 20
4598.072834317824
 30
0.0
 11
4893.752841307505
 21
4869.012473370222
 31
0.0
  0
LINE
  5
84EB
330
84E7
100
AcDbEntity
  8
3
 62
     0
370
    -2
100
AcDbLine
 10
6393.752841307505
 20
4598.072834317824
 30
0.0
 11
6393.752841307505
 21
4869.012473370222
 31
0.0
  0
LINE
  5
84EC
330
84E7
100
AcDbEntity
  8
3
 62
     0
370
    -2
100
AcDbLine
 10
4963.752841307505
 20
4834.012473370222
 30
0.0
 11
6323.752841307506
 21
4834.012473370222
 31
0.0
  0
INSERT
  5
84ED
330
84E7
100
AcDbEntity
  8
3
 62
     0
370
    -2
100
AcDbBlockReference
  2
_OPEN
 10
4893.752841307505
 20
4834.012473370222
 30
0.0
 41
70.0
 42
70.0
 43
70.0
 50
180.0
  0
INSERT
  5
84EE
330
84E7
100
AcDbEntity
  8
3
 62
     0
370
    -2
100
AcDbBlockReference
  2
_OPEN
 10
6393.752841307505
 20
4834.012473370222
 30
0.0
 41
70.0
 42
70.0
 43
70.0
  0
MTEXT
  5
84EF
330
84E7
100
AcDbEntity
  8
3
 62
     0
100
AcDbMText
 10
5643.752841307505
 20
4921.512473370222
 30
0.0
 40
105.0
 41
0.0
 71
     5
 72
     1
  1
\A1;1500
 73
     1
 44
1.0
1001
ACAD
1000
MTEXTBEGIN
1070
    73
1070
     1
1070
    44
1040
1.0
1070
    74
1070
     0
1000
MTEXTEND
  0
POINT
  5
84F0
330
84E7
100
AcDbEntity
  8
DEFPOINTS
 62
     0
100
AcDbPoint
 10
4893.752841307505
 20
4580.572834317824
 30
0.0
  0
POINT
  5
84F1
330
84E7
100
AcDbEntity
  8
DEFPOINTS
 62
     0
100
AcDbPoint
 10
6393.752841307505
 20
4580.572834317824
 30
0.0
  0
POINT
  5
84F2
330
84E7
100
AcDbEntity
  8
DEFPOINTS
 62
     0
100
AcDbPoint
 10
6393.752841307505
 20
4834.012473370222
 30
0.0
  0
ENDBLK
  5
84E9
330
84E7
100
AcDbEntity
  8
0
100
AcDbBlockEnd
  0
BLOCK
  5
84F5
330
84F4
100
AcDbEntity
  8
0
100
AcDbBlockBegin
  2
*D42
 70
     1
 10
0.0
 20
0.0
 30
0.0
  3
*D42
  1

  0
LINE
  5
8528
330
84F4
100
AcDbEntity
  8
3
 62
     0
370
    -2
100
AcDbLine
 10
4523.752841307505
 20
4173.072834317824
 30
0.0
 11
4523.752841307505
 21
5094.317625186006
 31
0.0
  0
LINE
  5
8529
330
84F4
100
AcDbEntity
  8
3
 62
     0
370
    -2
100
AcDbLine
 10
5643.752841307505
 20
4991.512473370222
 30
0.0
 11
5643.752841307505
 21
5094.317625186006
 31
0.0
  0
LINE
  5
852A
330
84F4
100
AcDbEntity
  8
3
 62
     0
370
    -2
100
AcDbLine
 10
4593.752841307504
 20
5059.317625186006
 30
0.0
 11
5573.752841307506
 21
5059.317625186006
 31
0.0
  0
INSERT
  5
852B
330
84F4
100
AcDbEntity
  8
3
 62
     0
370
    -2
100
AcDbBlockReference
  2
_OPEN
 10
4523.752841307505
 20
5059.317625186006
 30
0.0
 41
70.0
 42
70.0
 43
70.0
 50
180.0
  0
INSERT
  5
852C
330
84F4
100
AcDbEntity
  8
3
 62
     0
370
    -2
100
AcDbBlockReference
  2
_OPEN
 10
5643.752841307505
 20
5059.317625186006
 30
0.0
 41
70.0
 42
70.0
 43
70.0
  0
MTEXT
  5
852D
330
84F4
100
AcDbEntity
  8
3
 62
     0
100
AcDbMText
 10
5083.752841307505
 20
5174.317625186006
 30
0.0
 40
105.0
 41
0.0
 71
     5
 72
     1
  1
\A1;(1120)
 73
     1
 44
1.0
1001
ACAD
1000
MTEXTBEGIN
1070
    73
1070
     1
1070
    44
1040
1.0
1070
    74
1070
     0
1000
MTEXTEND
  0
POINT
  5
852E
330
84F4
100
AcDbEntity
  8
DEFPOINTS
 62
     0
100
AcDbPoint
 10
4523.752841307505
 20
4155.572834317824
 30
0.0
  0
POINT
  5
852F
330
84F4
100
AcDbEntity
  8
DEFPOINTS
 62
     0
100
AcDbPoint
 10
5643.752841307505
 20
4974.012473370223
 30
0.0
  0
POINT
  5
8530
330
84F4
100
AcDbEntity
  8
DEFPOINTS
 62
     0
100
AcDbPoint
 10
5643.752841307505
 20
5059.317625186006
 30
0.0
  0
ENDBLK
  5
84F6
330
84F4
100
AcDbEntity
  8
0
100
AcDbBlockEnd
  0
BLOCK
  5
8502
330
8501
100
AcDbEntity
  8
0
100
AcDbBlockBegin
  2
*D43
 70
     1
 10
0.0
 20
0.0
 30
0.0
  3
*D43
  1

  0
LINE
  5
853A
330
8501
100
AcDbEntity
  8
3
 62
     0
370
    -2
100
AcDbLine
 10
5643.752841307505
 20
4991.512473370222
 30
0.0
 11
5643.752841307505
 21
5094.317625186006
 31
0.0
  0
LINE
  5
853B
330
8501
100
AcDbEntity
  8
3
 62
     0
370
    -2
100
AcDbLine
 10
6573.752841307506
 20
3720.072834317824
 30
0.0
 11
6573.752841307506
 21
5094.317625186006
 31
0.0
  0
LINE
  5
853C
330
8501
100
AcDbEntity
  8
3
 62
     0
370
    -2
100
AcDbLine
 10
5713.752841307505
 20
5059.317625186006
 30
0.0
 11
6503.752841307505
 21
5059.317625186006
 31
0.0
  0
INSERT
  5
853D
330
8501
100
AcDbEntity
  8
3
 62
     0
370
    -2
100
AcDbBlockReference
  2
_OPEN
 10
5643.752841307505
 20
5059.317625186006
 30
0.0
 41
70.0
 42
70.0
 43
70.0
 50
180.0
  0
INSERT
  5
853E
330
8501
100
AcDbEntity
  8
3
 62
     0
370
    -2
100
AcDbBlockReference
  2
_OPEN
 10
6573.752841307506
 20
5059.317625186006
 30
0.0
 41
70.0
 42
70.0
 43
70.0
  0
MTEXT
  5
853F
330
8501
100
AcDbEntity
  8
3
 62
     0
100
AcDbMText
 10
6108.752841307506
 20
5174.317625186006
 30
0.0
 40
105.0
 41
0.0
 71
     5
 72
     1
  1
\A1;(930)
 73
     1
 44
1.0
1001
ACAD
1000
MTEXTBEGIN
1070
    73
1070
     1
1070
    44
1040
1.0
1070
    74
1070
     0
1000
MTEXTEND
  0
POINT
  5
8540
330
8501
100
AcDbEntity
  8
DEFPOINTS
 62
     0
100
AcDbPoint
 10
5643.752841307505
 20
4974.012473370223
 30
0.0
  0
POINT
  5
8541
330
8501
100
AcDbEntity
  8
DEFPOINTS
 62
     0
100
AcDbPoint
 10
6573.752841307506
 20
3702.572834317823
 30
0.0
  0
POINT
  5
8542
330
8501
100
AcDbEntity
  8
DEFPOINTS
 62
     0
100
AcDbPoint
 10
6573.752841307506
 20
5059.317625186006
 30
0.0
  0
ENDBLK
  5
8503
330
8501
100
AcDbEntity
  8
0
100
AcDbBlockEnd
  0
BLOCK
  5
8545
330
8544
100
AcDbEntity
  8
0
100
AcDbBlockBegin
  2
*D44
 70
     1
 10
0.0
 20
0.0
 30
0.0
  3
*D44
  1

  0
LINE
  5
8547
330
8544
100
AcDbEntity
  8
3
 62
     0
370
    -2
100
AcDbLine
 10
3512.963443351298
 20
6810.562273750784
 30
0.0
 11
4347.292078950268
 21
6810.562273750784
 31
0.0
  0
LINE
  5
8548
330
8544
100
AcDbEntity
  8
3
 62
     0
370
    -2
100
AcDbLine
 10
3056.105211603564
 20
5690.562273750784
 30
0.0
 11
4347.292078950268
 21
5690.562273750784
 31
0.0
  0
LINE
  5
8549
330
8544
100
AcDbEntity
  8
3
 62
     0
370
    -2
100
AcDbLine
 10
4312.292078950268
 20
6740.562273750784
 30
0.0
 11
4312.292078950267
 21
5760.562273750784
 31
0.0
  0
INSERT
  5
854A
330
8544
100
AcDbEntity
  8
3
 62
     0
370
    -2
100
AcDbBlockReference
  2
_OPEN
 10
4312.292078950268
 20
6810.562273750784
 30
0.0
 41
70.0
 42
70.0
 43
70.0
 50
90.0
  0
INSERT
  5
854B
330
8544
100
AcDbEntity
  8
3
 62
     0
370
    -2
100
AcDbBlockReference
  2
_OPEN
 10
4312.292078950267
 20
5690.562273750784
 30
0.0
 41
70.0
 42
70.0
 43
70.0
 50
270.0
  0
MTEXT
  5
854C
330
8544
100
AcDbEntity
  8
3
 62
     0
100
AcDbMText
 10
4224.792078950267
 20
6250.562273750785
 30
0.0
 40
105.0
 41
0.0
 71
     5
 72
     1
  1
\A1;1120
 11
0.0000000000000001
 21
1.0
 31
0.0
 73
     1
 44
1.0
1001
ACAD
1000
MTEXTBEGIN
1070
    73
1070
     1
1070
    44
1040
1.0
1070
    74
1070
     0
1000
MTEXTEND
  0
POINT
  5
854D
330
8544
100
AcDbEntity
  8
DEFPOINTS
 62
     0
100
AcDbPoint
 10
3495.463443351297
 20
6810.562273750784
 30
0.0
  0
POINT
  5
854E
330
8544
100
AcDbEntity
  8
DEFPOINTS
 62
     0
100
AcDbPoint
 10
3038.605211603564
 20
5690.562273750784
 30
0.0
  0
POINT
  5
854F
330
8544
100
AcDbEntity
  8
DEFPOINTS
 62
     0
100
AcDbPoint
 10
4312.292078950267
 20
5690.562273750784
 30
0.0
  0
ENDBLK
  5
8546
330
8544
100
AcDbEntity
  8
0
100
AcDbBlockEnd
  0
BLOCK
  5
8552
330
8551
100
AcDbEntity
  8
0
100
AcDbBlockBegin
  2
*D45
 70
     1
 10
0.0
 20
0.0
 30
0.0
  3
*D45
  1

  0
LINE
  5
8554
330
8551
100
AcDbEntity
  8
3
 62
     0
370
    -2
100
AcDbLine
 10
3336.105211603564
 20
7628.562273750784
 30
0.0
 11
3752.377466574618
 21
7628.562273750784
 31
0.0
  0
LINE
  5
8555
330
8551
100
AcDbEntity
  8
3
 62
     0
370
    -2
100
AcDbLine
 10
3336.105211603564
 20
5728.562273750783
 30
0.0
 11
3752.377466574617
 21
5728.562273750783
 31
0.0
  0
LINE
  5
8556
330
8551
100
AcDbEntity
  8
3
 62
     0
370
    -2
100
AcDbLine
 10
3717.377466574617
 20
7558.562273750784
 30
0.0
 11
3717.377466574617
 21
5798.562273750783
 31
0.0
  0
INSERT
  5
8557
330
8551
100
AcDbEntity
  8
3
 62
     0
370
    -2
100
AcDbBlockReference
  2
_OPEN
 10
3717.377466574617
 20
7628.562273750784
 30
0.0
 41
70.0
 42
70.0
 43
70.0
 50
90.0
  0
INSERT
  5
8558
330
8551
100
AcDbEntity
  8
3
 62
     0
370
    -2
100
AcDbBlockReference
  2
_OPEN
 10
3717.377466574617
 20
5728.562273750783
 30
0.0
 41
70.0
 42
70.0
 43
70.0
 50
270.0
  0
MTEXT
  5
8559
330
8551
100
AcDbEntity
  8
3
 62
     0
100
AcDbMText
 10
3629.877466574616
 20
6678.562273750784
 30
0.0
 40
105.0
 41
0.0
 71
     5
 72
     1
  1
\A1;1900
 11
0.0000000000000001
 21
1.0
 31
0.0
 73
     1
 44
1.0
1001
ACAD
1000
MTEXTBEGIN
1070
    73
1070
     1
1070
    44
1040
1.0
1070
    74
1070
     0
1000
MTEXTEND
  0
POINT
  5
855A
330
8551
100
AcDbEntity
  8
DEFPOINTS
 62
     0
100
AcDbPoint
 10
3318.605211603564
 20
7628.562273750784
 30
0.0
  0
POINT
  5
855B
330
8551
100
AcDbEntity
  8
DEFPOINTS
 62
     0
100
AcDbPoint
 10
3318.605211603564
 20
5728.562273750783
 30
0.0
  0
POINT
  5
855C
330
8551
100
AcDbEntity
  8
DEFPOINTS
 62
     0
100
AcDbPoint
 10
3717.377466574617
 20
5728.562273750783
 30
0.0
  0
ENDBLK
  5
8553
330
8551
100
AcDbEntity
  8
0
100
AcDbBlockEnd
  0
BLOCK
  5
855F
330
855E
100
AcDbEntity
  8
0
100
AcDbBlockBegin
  2
*D46
 70
     1
 10
0.0
 20
0.0
 30
0.0
  3
*D46
  1

  0
LINE
  5
8561
330
855E
100
AcDbEntity
  8
3
 62
     0
370
    -2
100
AcDbLine
 10
3318.605211603564
 20
7646.062273750783
 30
0.0
 11
3318.605211603564
 21
7837.569634221901
 31
0.0
  0
LINE
  5
8562
330
855E
100
AcDbEntity
  8
3
 62
     0
370
    -2
100
AcDbLine
 10
1998.605211603564
 20
7646.062273750783
 30
0.0
 11
1998.605211603564
 21
7837.569634221901
 31
0.0
  0
LINE
  5
8563
330
855E
100
AcDbEntity
  8
3
 62
     0
370
    -2
100
AcDbLine
 10
3248.605211603564
 20
7802.569634221902
 30
0.0
 11
2068.605211603564
 21
7802.569634221902
 31
0.0
  0
INSERT
  5
8564
330
855E
100
AcDbEntity
  8
3
 62
     0
370
    -2
100
AcDbBlockReference
  2
_OPEN
 10
3318.605211603564
 20
7802.569634221902
 30
0.0
 41
70.0
 42
70.0
 43
70.0
  0
INSERT
  5
8565
330
855E
100
AcDbEntity
  8
3
 62
     0
370
    -2
100
AcDbBlockReference
  2
_OPEN
 10
1998.605211603564
 20
7802.569634221902
 30
0.0
 41
70.0
 42
70.0
 43
70.0
 50
180.0
  0
MTEXT
  5
8566
330
855E
100
AcDbEntity
  8
3
 62
     0
100
AcDbMText
 10
2658.605211603564
 20
7890.069634221902
 30
0.0
 40
105.0
 41
0.0
 71
     5
 72
     1
  1
\A1;1320
 73
     1
 44
1.0
1001
ACAD
1000
MTEXTBEGIN
1070
    73
1070
     1
1070
    44
1040
1.0
1070
    74
1070
     0
1000
MTEXTEND
  0
POINT
  5
8567
330
855E
100
AcDbEntity
  8
DEFPOINTS
 62
     0
100
AcDbPoint
 10
3318.605211603564
 20
7628.562273750784
 30
0.0
  0
POINT
  5
8568
330
855E
100
AcDbEntity
  8
DEFPOINTS
 62
     0
100
AcDbPoint
 10
1998.605211603564
 20
7628.562273750784
 30
0.0
  0
POINT
  5
8569
330
855E
100
AcDbEntity
  8
DEFPOINTS
 62
     0
100
AcDbPoint
 10
1998.605211603564
 20
7802.569634221902
 30
0.0
  0
ENDBLK
  5
8560
330
855E
100
AcDbEntity
  8
0
100
AcDbBlockEnd
  0
BLOCK
  5
856C
330
856B
100
AcDbEntity
  8
0
100
AcDbBlockBegin
  2
*D47
 70
     1
 10
0.0
 20
0.0
 30
0.0
  3
*D47
  1

  0
LINE
  5
856E
330
856B
100
AcDbEntity
  8
3
 62
     0
370
    -2
100
AcDbLine
 10
1998.605211603564
 20
7646.062273750783
 30
0.0
 11
1998.605211603564
 21
7837.569634221901
 31
0.0
  0
LINE
  5
856F
330
856B
100
AcDbEntity
  8
3
 62
     0
370
    -2
100
AcDbLine
 10
1058.605211603564
 20
6646.062273750783
 30
0.0
 11
1058.605211603564
 21
7837.569634221901
 31
0.0
  0
LINE
  5
8570
330
856B
100
AcDbEntity
  8
3
 62
     0
370
    -2
100
AcDbLine
 10
1928.605211603564
 20
7802.569634221902
 30
0.0
 11
1128.605211603564
 21
7802.569634221902
 31
0.0
  0
INSERT
  5
8571
330
856B
100
AcDbEntity
  8
3
 62
     0
370
    -2
100
AcDbBlockReference
  2
_OPEN
 10
1998.605211603564
 20
7802.569634221902
 30
0.0
 41
70.0
 42
70.0
 43
70.0
  0
INSERT
  5
8572
330
856B
100
AcDbEntity
  8
3
 62
     0
370
    -2
100
AcDbBlockReference
  2
_OPEN
 10
1058.605211603564
 20
7802.569634221902
 30
0.0
 41
70.0
 42
70.0
 43
70.0
 50
180.0
  0
MTEXT
  5
8573
330
856B
100
AcDbEntity
  8
3
 62
     0
100
AcDbMText
 10
1528.605211603564
 20
7890.069634221902
 30
0.0
 40
105.0
 41
0.0
 71
     5
 72
     1
  1
\A1;940
 73
     1
 44
1.0
1001
ACAD
1000
MTEXTBEGIN
1070
    73
1070
     1
1070
    44
1040
1.0
1070
    74
1070
     0
1000
MTEXTEND
  0
POINT
  5
8574
330
856B
100
AcDbEntity
  8
DEFPOINTS
 62
     0
100
AcDbPoint
 10
1998.605211603564
 20
7628.562273750784
 30
0.0
  0
POINT
  5
8575
330
856B
100
AcDbEntity
  8
DEFPOINTS
 62
     0
100
AcDbPoint
 10
1058.605211603564
 20
6628.562273750784
 30
0.0
  0
POINT
  5
8576
330
856B
100
AcDbEntity
  8
DEFPOINTS
 62
     0
100
AcDbPoint
 10
1058.605211603564
 20
7802.569634221902
 30
0.0
  0
ENDBLK
  5
856D
330
856B
100
AcDbEntity
  8
0
100
AcDbBlockEnd
  0
BLOCK
  5
8579
330
8578
100
AcDbEntity
  8
0
100
AcDbBlockBegin
  2
*D48
 70
     1
 10
0.0
 20
0.0
 30
0.0
  3
*D48
  1

  0
LINE
  5
857B
330
8578
100
AcDbEntity
  8
3
 62
     0
370
    -2
100
AcDbLine
 10
1041.105211603564
 20
6628.562273750784
 30
0.0
 11
844.7531743622132
 21
6628.562273750784
 31
0.0
  0
LINE
  5
857C
330
8578
100
AcDbEntity
  8
3
 62
     0
370
    -2
100
AcDbLine
 10
1041.105211603564
 20
5728.562273750783
 30
0.0
 11
844.753174362213
 21
5728.562273750783
 31
0.0
  0
LINE
  5
857D
330
8578
100
AcDbEntity
  8
3
 62
     0
370
    -2
100
AcDbLine
 10
879.7531743622132
 20
6558.562273750784
 30
0.0
 11
879.753174362213
 21
5798.562273750783
 31
0.0
  0
INSERT
  5
857E
330
8578
100
AcDbEntity
  8
3
 62
     0
370
    -2
100
AcDbBlockReference
  2
_OPEN
 10
879.7531743622132
 20
6628.562273750784
 30
0.0
 41
70.0
 42
70.0
 43
70.0
 50
90.0
  0
INSERT
  5
857F
330
8578
100
AcDbEntity
  8
3
 62
     0
370
    -2
100
AcDbBlockReference
  2
_OPEN
 10
879.753174362213
 20
5728.562273750783
 30
0.0
 41
70.0
 42
70.0
 43
70.0
 50
270.0
  0
MTEXT
  5
8580
330
8578
100
AcDbEntity
  8
3
 62
     0
100
AcDbMText
 10
792.2531743622121
 20
6178.562273750784
 30
0.0
 40
105.0
 41
0.0
 71
     5
 72
     1
  1
\A1;900
 11
0.0000000000000001
 21
1.0
 31
0.0
 73
     1
 44
1.0
1001
ACAD
1000
MTEXTBEGIN
1070
    73
1070
     1
1070
    44
1040
1.0
1070
    74
1070
     0
1000
MTEXTEND
  0
POINT
  5
8581
330
8578
100
AcDbEntity
  8
DEFPOINTS
 62
     0
100
AcDbPoint
 10
1058.605211603564
 20
6628.562273750784
 30
0.0
  0
POINT
  5
8582
330
8578
100
AcDbEntity
  8
DEFPOINTS
 62
     0
100
AcDbPoint
 10
1058.605211603564
 20
5728.562273750783
 30
0.0
  0
POINT
  5
8583
330
8578
100
AcDbEntity
  8
DEFPOINTS
 62
     0
100
AcDbPoint
 10
879.753174362213
 20
5728.562273750783
 30
0.0
  0
ENDBLK
  5
857A
330
8578
100
AcDbEntity
  8
0
100
AcDbBlockEnd
  0
BLOCK
  5
8586
330
8585
100
AcDbEntity
  8
0
100
AcDbBlockBegin
  2
*D49
 70
     1
 10
0.0
 20
0.0
 30
0.0
  3
*D49
  1

  0
LINE
  5
8588
330
8585
100
AcDbEntity
  8
3
 62
     0
370
    -2
100
AcDbLine
 10
1058.605211603564
 20
5711.062273750783
 30
0.0
 11
1058.605211603564
 21
5402.317081656836
 31
0.0
  0
LINE
  5
8589
330
8585
100
AcDbEntity
  8
3
 62
     0
370
    -2
100
AcDbLine
 10
3318.605211603564
 20
5711.062273750783
 30
0.0
 11
3318.605211603564
 21
5402.317081656836
 31
0.0
  0
LINE
  5
858A
330
8585
100
AcDbEntity
  8
3
 62
     0
370
    -2
100
AcDbLine
 10
1128.605211603564
 20
5437.317081656836
 30
0.0
 11
3248.605211603564
 21
5437.317081656836
 31
0.0
  0
INSERT
  5
858B
330
8585
100
AcDbEntity
  8
3
 62
     0
370
    -2
100
AcDbBlockReference
  2
_OPEN
 10
1058.605211603564
 20
5437.317081656836
 30
0.0
 41
70.0
 42
70.0
 43
70.0
 50
180.0
  0
INSERT
  5
858C
330
8585
100
AcDbEntity
  8
3
 62
     0
370
    -2
100
AcDbBlockReference
  2
_OPEN
 10
3318.605211603564
 20
5437.317081656836
 30
0.0
 41
70.0
 42
70.0
 43
70.0
  0
MTEXT
  5
858D
330
8585
100
AcDbEntity
  8
3
 62
     0
100
AcDbMText
 10
2188.605211603564
 20
5524.817081656836
 30
0.0
 40
105.0
 41
0.0
 71
     5
 72
     1
  1
\A1;2260
 73
     1
 44
1.0
1001
ACAD
1000
MTEXTBEGIN
1070
    73
1070
     1
1070
    44
1040
1.0
1070
    74
1070
     0
1000
MTEXTEND
  0
POINT
  5
858E
330
8585
100
AcDbEntity
  8
DEFPOINTS
 62
     0
100
AcDbPoint
 10
1058.605211603564
 20
5728.562273750783
 30
0.0
  0
POINT
  5
858F
330
8585
100
AcDbEntity
  8
DEFPOINTS
 62
     0
100
AcDbPoint
 10
3318.605211603564
 20
5728.562273750783
 30
0.0
  0
POINT
  5
8590
330
8585
100
AcDbEntity
  8
DEFPOINTS
 62
     0
100
AcDbPoint
 10
3318.605211603564
 20
5437.317081656836
 30
0.0
  0
ENDBLK
  5
8587
330
8585
100
AcDbEntity
  8
0
100
AcDbBlockEnd
  0
BLOCK
  5
8593
330
8592
100
AcDbEntity
  8
0
100
AcDbBlockBegin
  2
*D50
 70
     1
 10
0.0
 20
0.0
 30
0.0
  3
*D50
  1

  0
LINE
  5
8595
330
8592
100
AcDbEntity
  8
3
 62
     0
370
    -2
100
AcDbLine
 10
1058.605211603565
 20
2563.072834317823
 30
0.0
 11
1058.605211603565
 21
5068.580333506538
 31
0.0
  0
LINE
  5
8596
330
8592
100
AcDbEntity
  8
3
 62
     0
370
    -2
100
AcDbLine
 10
3418.605211603564
 20
3798.072834317823
 30
0.0
 11
3418.605211603564
 21
5068.580333506538
 31
0.0
  0
LINE
  5
8597
330
8592
100
AcDbEntity
  8
3
 62
     0
370
    -2
100
AcDbLine
 10
1128.605211603565
 20
5033.580333506538
 30
0.0
 11
3348.605211603564
 21
5033.580333506538
 31
0.0
  0
INSERT
  5
8598
330
8592
100
AcDbEntity
  8
3
 62
     0
370
    -2
100
AcDbBlockReference
  2
_OPEN
 10
1058.605211603565
 20
5033.580333506538
 30
0.0
 41
70.0
 42
70.0
 43
70.0
 50
180.0
  0
INSERT
  5
8599
330
8592
100
AcDbEntity
  8
3
 62
     0
370
    -2
100
AcDbBlockReference
  2
_OPEN
 10
3418.605211603564
 20
5033.580333506538
 30
0.0
 41
70.0
 42
70.0
 43
70.0
  0
MTEXT
  5
859A
330
8592
100
AcDbEntity
  8
3
 62
     0
100
AcDbMText
 10
2238.605211603565
 20
5121.080333506538
 30
0.0
 40
105.0
 41
0.0
 71
     5
 72
     1
  1
\A1;2360
 73
     1
 44
1.0
1001
ACAD
1000
MTEXTBEGIN
1070
    73
1070
     1
1070
    44
1040
1.0
1070
    74
1070
     0
1000
MTEXTEND
  0
POINT
  5
859B
330
8592
100
AcDbEntity
  8
DEFPOINTS
 62
     0
100
AcDbPoint
 10
1058.605211603565
 20
2545.572834317823
 30
0.0
  0
POINT
  5
859C
330
8592
100
AcDbEntity
  8
DEFPOINTS
 62
     0
100
AcDbPoint
 10
3418.605211603564
 20
3780.572834317823
 30
0.0
  0
POINT
  5
859D
330
8592
100
AcDbEntity
  8
DEFPOINTS
 62
     0
100
AcDbPoint
 10
3418.605211603564
 20
5033.580333506538
 30
0.0
  0
ENDBLK
  5
8594
330
8592
100
AcDbEntity
  8
0
100
AcDbBlockEnd
  0
BLOCK
  5
85A0
330
859F
100
AcDbEntity
  8
0
100
AcDbBlockBegin
  2
*D51
 70
     1
 10
0.0
 20
0.0
 30
0.0
  3
*D51
  1

  0
LINE
  5
85A2
330
859F
100
AcDbEntity
  8
3
 62
     0
370
    -2
100
AcDbLine
 10
3418.605211603564
 20
3798.072834317823
 30
0.0
 11
3418.605211603564
 21
4841.000164564144
 31
0.0
  0
LINE
  5
85A3
330
859F
100
AcDbEntity
  8
3
 62
     0
370
    -2
100
AcDbLine
 10
2658.605211603564
 20
4659.141027998224
 30
0.0
 11
2658.605211603564
 21
4841.000164564144
 31
0.0
  0
LINE
  5
85A4
330
859F
100
AcDbEntity
  8
3
 62
     0
370
    -2
100
AcDbLine
 10
3348.605211603564
 20
4806.000164564144
 30
0.0
 11
2728.605211603564
 21
4806.000164564144
 31
0.0
  0
INSERT
  5
85A5
330
859F
100
AcDbEntity
  8
3
 62
     0
370
    -2
100
AcDbBlockReference
  2
_OPEN
 10
3418.605211603564
 20
4806.000164564144
 30
0.0
 41
70.0
 42
70.0
 43
70.0
  0
INSERT
  5
85A6
330
859F
100
AcDbEntity
  8
3
 62
     0
370
    -2
100
AcDbBlockReference
  2
_OPEN
 10
2658.605211603564
 20
4806.000164564144
 30
0.0
 41
70.0
 42
70.0
 43
70.0
 50
180.0
  0
MTEXT
  5
85A7
330
859F
100
AcDbEntity
  8
3
 62
     0
100
AcDbMText
 10
3038.605211603564
 20
4893.500164564144
 30
0.0
 40
105.0
 41
0.0
 71
     5
 72
     1
  1
\A1;760
 73
     1
 44
1.0
1001
ACAD
1000
MTEXTBEGIN
1070
    73
1070
     1
1070
    44
1040
1.0
1070
    74
1070
     0
1000
MTEXTEND
  0
POINT
  5
85A8
330
859F
100
AcDbEntity
  8
DEFPOINTS
 62
     0
100
AcDbPoint
 10
3418.605211603564
 20
3780.572834317823
 30
0.0
  0
POINT
  5
85A9
330
859F
100
AcDbEntity
  8
DEFPOINTS
 62
     0
100
AcDbPoint
 10
2658.605211603564
 20
4641.641027998224
 30
0.0
  0
POINT
  5
85AA
330
859F
100
AcDbEntity
  8
DEFPOINTS
 62
     0
100
AcDbPoint
 10
2658.605211603564
 20
4806.000164564144
 30
0.0
  0
ENDBLK
  5
85A1
330
859F
100
AcDbEntity
  8
0
100
AcDbBlockEnd
  0
BLOCK
  5
85AD
330
85AC
100
AcDbEntity
  8
0
100
AcDbBlockBegin
  2
*D52
 70
     1
 10
0.0
 20
0.0
 30
0.0
  3
*D52
  1

  0
LINE
  5
85AF
330
85AC
100
AcDbEntity
  8
3
 62
     0
370
    -2
100
AcDbLine
 10
2658.605211603564
 20
4659.141027998224
 30
0.0
 11
2658.605211603564
 21
4841.000164564144
 31
0.0
  0
LINE
  5
85B0
330
85AC
100
AcDbEntity
  8
3
 62
     0
370
    -2
100
AcDbLine
 10
1689.605211603564
 20
3711.072834317823
 30
0.0
 11
1689.605211603564
 21
4841.000164564144
 31
0.0
  0
LINE
  5
85B1
330
85AC
100
AcDbEntity
  8
3
 62
     0
370
    -2
100
AcDbLine
 10
2588.605211603564
 20
4806.000164564144
 30
0.0
 11
1759.605211603564
 21
4806.000164564144
 31
0.0
  0
INSERT
  5
85B2
330
85AC
100
AcDbEntity
  8
3
 62
     0
370
    -2
100
AcDbBlockReference
  2
_OPEN
 10
2658.605211603564
 20
4806.000164564144
 30
0.0
 41
70.0
 42
70.0
 43
70.0
  0
INSERT
  5
85B3
330
85AC
100
AcDbEntity
  8
3
 62
     0
370
    -2
100
AcDbBlockReference
  2
_OPEN
 10
1689.605211603564
 20
4806.000164564144
 30
0.0
 41
70.0
 42
70.0
 43
70.0
 50
180.0
  0
MTEXT
  5
85B4
330
85AC
100
AcDbEntity
  8
3
 62
     0
100
AcDbMText
 10
2174.105211603564
 20
4893.500164564144
 30
0.0
 40
105.0
 41
0.0
 71
     5
 72
     1
  1
\A1;969
 73
     1
 44
1.0
1001
ACAD
1000
MTEXTBEGIN
1070
    73
1070
     1
1070
    44
1040
1.0
1070
    74
1070
     0
1000
MTEXTEND
  0
POINT
  5
85B5
330
85AC
100
AcDbEntity
  8
DEFPOINTS
 62
     0
100
AcDbPoint
 10
2658.605211603564
 20
4641.641027998224
 30
0.0
  0
POINT
  5
85B6
330
85AC
100
AcDbEntity
  8
DEFPOINTS
 62
     0
100
AcDbPoint
 10
1689.605211603564
 20
3693.572834317823
 30
0.0
  0
POINT
  5
85B7
330
85AC
100
AcDbEntity
  8
DEFPOINTS
 62
     0
100
AcDbPoint
 10
1689.605211603564
 20
4806.000164564144
 30
0.0
  0
ENDBLK
  5
85AE
330
85AC
100
AcDbEntity
  8
0
100
AcDbBlockEnd
  0
BLOCK
  5
85BA
330
85B9
100
AcDbEntity
  8
0
100
AcDbBlockBegin
  2
*D53
 70
     1
 10
0.0
 20
0.0
 30
0.0
  3
*D53
  1

  0
LINE
  5
85BC
330
85B9
100
AcDbEntity
  8
3
 62
     0
370
    -2
100
AcDbLine
 10
3436.105211603564
 20
3727.572834317824
 30
0.0
 11
3653.71352788783
 21
3727.572834317824
 31
0.0
  0
LINE
  5
85BD
330
85B9
100
AcDbEntity
  8
3
 62
     0
370
    -2
100
AcDbLine
 10
3436.105211603564
 20
2577.572834317823
 30
0.0
 11
3653.71352788783
 21
2577.572834317823
 31
0.0
  0
LINE
  5
85BE
330
85B9
100
AcDbEntity
  8
3
 62
     0
370
    -2
100
AcDbLine
 10
3618.71352788783
 20
3657.572834317824
 30
0.0
 11
3618.713527887829
 21
2647.572834317823
 31
0.0
  0
INSERT
  5
85BF
330
85B9
100
AcDbEntity
  8
3
 62
     0
370
    -2
100
AcDbBlockReference
  2
_OPEN
 10
3618.71352788783
 20
3727.572834317824
 30
0.0
 41
70.0
 42
70.0
 43
70.0
 50
90.0
  0
INSERT
  5
85C0
330
85B9
100
AcDbEntity
  8
3
 62
     0
370
    -2
100
AcDbBlockReference
  2
_OPEN
 10
3618.713527887829
 20
2577.572834317823
 30
0.0
 41
70.0
 42
70.0
 43
70.0
 50
270.0
  0
MTEXT
  5
85C1
330
85B9
100
AcDbEntity
  8
3
 62
     0
100
AcDbMText
 10
3531.21352788783
 20
3152.572834317825
 30
0.0
 40
105.0
 41
0.0
 71
     5
 72
     1
  1
\A1;1150
 11
0.0000000000000001
 21
1.0
 31
0.0
 73
     1
 44
1.0
1001
ACAD
1000
MTEXTBEGIN
1070
    73
1070
     1
1070
    44
1040
1.0
1070
    74
1070
     0
1000
MTEXTEND
  0
POINT
  5
85C2
330
85B9
100
AcDbEntity
  8
DEFPOINTS
 62
     0
100
AcDbPoint
 10
3418.605211603564
 20
3727.572834317824
 30
0.0
  0
POINT
  5
85C3
330
85B9
100
AcDbEntity
  8
DEFPOINTS
 62
     0
100
AcDbPoint
 10
3418.605211603564
 20
2577.572834317823
 30
0.0
  0
POINT
  5
85C4
330
85B9
100
AcDbEntity
  8
DEFPOINTS
 62
     0
100
AcDbPoint
 10
3618.713527887829
 20
2577.572834317823
 30
0.0
  0
ENDBLK
  5
85BB
330
85B9
100
AcDbEntity
  8
0
100
AcDbBlockEnd
  0
BLOCK
  5
85C7
330
85C6
100
AcDbEntity
  8
0
100
AcDbBlockBegin
  2
*D54
 70
     1
 10
0.0
 20
0.0
 30
0.0
  3
*D54
  1

  0
LINE
  5
85C9
330
85C6
100
AcDbEntity
  8
3
 62
     0
370
    -2
100
AcDbLine
 10
3436.105211603564
 20
2577.572834317823
 30
0.0
 11
3853.865178749332
 21
2577.572834317823
 31
0.0
  0
LINE
  5
85CA
330
85C6
100
AcDbEntity
  8
3
 62
     0
370
    -2
100
AcDbLine
 10
3582.88586305654
 20
3775.572834317824
 30
0.0
 11
3853.865178749332
 21
3775.572834317824
 31
0.0
  0
LINE
  5
85CB
330
85C6
100
AcDbEntity
  8
3
 62
     0
370
    -2
100
AcDbLine
 10
3818.865178749332
 20
2647.572834317823
 30
0.0
 11
3818.865178749332
 21
3705.572834317823
 31
0.0
  0
INSERT
  5
85CC
330
85C6
100
AcDbEntity
  8
3
 62
     0
370
    -2
100
AcDbBlockReference
  2
_OPEN
 10
3818.865178749332
 20
2577.572834317823
 30
0.0
 41
70.0
 42
70.0
 43
70.0
 50
270.0
  0
INSERT
  5
85CD
330
85C6
100
AcDbEntity
  8
3
 62
     0
370
    -2
100
AcDbBlockReference
  2
_OPEN
 10
3818.865178749332
 20
3775.572834317824
 30
0.0
 41
70.0
 42
70.0
 43
70.0
 50
90.0
  0
MTEXT
  5
85CE
330
85C6
100
AcDbEntity
  8
3
 62
     0
100
AcDbMText
 10
3731.365178749332
 20
3176.572834317824
 30
0.0
 40
105.0
 41
0.0
 71
     5
 72
     1
  1
\A1;1198
 11
0.0000000000000001
 21
1.0
 31
0.0
 73
     1
 44
1.0
1001
ACAD
1000
MTEXTBEGIN
1070
    73
1070
     1
1070
    44
1040
1.0
1070
    74
1070
     0
1000
MTEXTEND
  0
POINT
  5
85CF
330
85C6
100
AcDbEntity
  8
DEFPOINTS
 62
     0
100
AcDbPoint
 10
3418.605211603564
 20
2577.572834317823
 30
0.0
  0
POINT
  5
85D0
330
85C6
100
AcDbEntity
  8
DEFPOINTS
 62
     0
100
AcDbPoint
 10
3565.38586305654
 20
3775.572834317824
 30
0.0
  0
POINT
  5
85D1
330
85C6
100
AcDbEntity
  8
DEFPOINTS
 62
     0
100
AcDbPoint
 10
3818.865178749332
 20
3775.572834317824
 30
0.0
  0
ENDBLK
  5
85C8
330
85C6
100
AcDbEntity
  8
0
100
AcDbBlockEnd
  0
BLOCK
  5
85D4
330
85D3
100
AcDbEntity
  8
0
100
AcDbBlockBegin
  2
*D55
 70
     1
 10
0.0
 20
0.0
 30
0.0
  3
*D55
  1

  0
LINE
  5
85D6
330
85D3
100
AcDbEntity
  8
3
 62
     0
370
    -2
100
AcDbLine
 10
2594.105211603564
 20
4580.572834317823
 30
0.0
 11
4057.81512547514
 21
4580.572834317823
 31
0.0
  0
LINE
  5
85D7
330
85D3
100
AcDbEntity
  8
3
 62
     0
370
    -2
100
AcDbLine
 10
3582.88586305654
 20
3775.572834317824
 30
0.0
 11
4057.81512547514
 21
3775.572834317824
 31
0.0
  0
LINE
  5
85D8
330
85D3
100
AcDbEntity
  8
3
 62
     0
370
    -2
100
AcDbLine
 10
4022.81512547514
 20
4510.572834317823
 30
0.0
 11
4022.81512547514
 21
3845.572834317823
 31
0.0
  0
INSERT
  5
85D9
330
85D3
100
AcDbEntity
  8
3
 62
     0
370
    -2
100
AcDbBlockReference
  2
_OPEN
 10
4022.81512547514
 20
4580.572834317823
 30
0.0
 41
70.0
 42
70.0
 43
70.0
 50
90.0
  0
INSERT
  5
85DA
330
85D3
100
AcDbEntity
  8
3
 62
     0
370
    -2
100
AcDbBlockReference
  2
_OPEN
 10
4022.81512547514
 20
3775.572834317824
 30
0.0
 41
70.0
 42
70.0
 43
70.0
 50
270.0
  0
MTEXT
  5
85DB
330
85D3
100
AcDbEntity
  8
3
 62
     0
100
AcDbMText
 10
3935.31512547514
 20
4178.072834317824
 30
0.0
 40
105.0
 41
0.0
 71
     5
 72
     1
  1
\A1;805
 11
0.0000000000000001
 21
1.0
 31
0.0
 73
     1
 44
1.0
1001
ACAD
1000
MTEXTBEGIN
1070
    73
1070
     1
1070
    44
1040
1.0
1070
    74
1070
     0
1000
MTEXTEND
  0
POINT
  5
85DC
330
85D3
100
AcDbEntity
  8
DEFPOINTS
 62
     0
100
AcDbPoint
 10
2576.605211603564
 20
4580.572834317823
 30
0.0
  0
POINT
  5
85DD
330
85D3
100
AcDbEntity
  8
DEFPOINTS
 62
     0
100
AcDbPoint
 10
3565.38586305654
 20
3775.572834317824
 30
0.0
  0
POINT
  5
85DE
330
85D3
100
AcDbEntity
  8
DEFPOINTS
 62
     0
100
AcDbPoint
 10
4022.81512547514
 20
3775.572834317824
 30
0.0
  0
ENDBLK
  5
85D5
330
85D3
100
AcDbEntity
  8
0
100
AcDbBlockEnd
  0
BLOCK
  5
85E1
330
85E0
100
AcDbEntity
  8
0
100
AcDbBlockBegin
  2
*D56
 70
     1
 10
0.0
 20
0.0
 30
0.0
  3
*D56
  1

  0
LINE
  5
85E3
330
85E0
100
AcDbEntity
  8
3
 62
     0
370
    -2
100
AcDbLine
 10
3582.88586305654
 20
3775.572834317824
 30
0.0
 11
4057.81512547514
 21
3775.572834317824
 31
0.0
  0
LINE
  5
85E4
330
85E0
100
AcDbEntity
  8
3
 62
     0
370
    -2
100
AcDbLine
 10
3336.105211603564
 20
2420.572834317823
 30
0.0
 11
4057.815125475139
 21
2420.572834317823
 31
0.0
  0
LINE
  5
85E5
330
85E0
100
AcDbEntity
  8
3
 62
     0
370
    -2
100
AcDbLine
 10
4022.81512547514
 20
3705.572834317823
 30
0.0
 11
4022.81512547514
 21
2490.572834317823
 31
0.0
  0
INSERT
  5
85E6
330
85E0
100
AcDbEntity
  8
3
 62
     0
370
    -2
100
AcDbBlockReference
  2
_OPEN
 10
4022.81512547514
 20
3775.572834317824
 30
0.0
 41
70.0
 42
70.0
 43
70.0
 50
90.0
  0
INSERT
  5
85E7
330
85E0
100
AcDbEntity
  8
3
 62
     0
370
    -2
100
AcDbBlockReference
  2
_OPEN
 10
4022.81512547514
 20
2420.572834317823
 30
0.0
 41
70.0
 42
70.0
 43
70.0
 50
270.0
  0
MTEXT
  5
85E8
330
85E0
100
AcDbEntity
  8
3
 62
     0
100
AcDbMText
 10
3935.315125475139
 20
3098.072834317824
 30
0.0
 40
105.0
 41
0.0
 71
     5
 72
     1
  1
\A1;1355
 11
0.0000000000000001
 21
1.0
 31
0.0
 73
     1
 44
1.0
1001
ACAD
1000
MTEXTBEGIN
1070
    73
1070
     1
1070
    44
1040
1.0
1070
    74
1070
     0
1000
MTEXTEND
  0
POINT
  5
85E9
330
85E0
100
AcDbEntity
  8
DEFPOINTS
 62
     0
100
AcDbPoint
 10
3565.38586305654
 20
3775.572834317824
 30
0.0
  0
POINT
  5
85EA
330
85E0
100
AcDbEntity
  8
DEFPOINTS
 62
     0
100
AcDbPoint
 10
3318.605211603564
 20
2420.572834317823
 30
0.0
  0
POINT
  5
85EB
330
85E0
100
AcDbEntity
  8
DEFPOINTS
 62
     0
100
AcDbPoint
 10
4022.81512547514
 20
2420.572834317823
 30
0.0
  0
ENDBLK
  5
85E2
330
85E0
100
AcDbEntity
  8
0
100
AcDbBlockEnd
  0
BLOCK
  5
85EE
330
85ED
100
AcDbEntity
  8
0
100
AcDbBlockBegin
  2
*D57
 70
     1
 10
0.0
 20
0.0
 30
0.0
  3
*D57
  1

  0
LINE
  5
86C4
330
85ED
100
AcDbEntity
  8
3
 62
     0
370
    -2
100
AcDbLine
 10
3336.105211603564
 20
2420.572834317823
 30
0.0
 11
4057.815125475139
 21
2420.572834317823
 31
0.0
  0
LINE
  5
86C5
330
85ED
100
AcDbEntity
  8
3
 62
     0
370
    -2
100
AcDbLine
 10
3336.105211603564
 20
2315.572834317823
 30
0.0
 11
4057.815125475139
 21
2315.572834317823
 31
0.0
  0
LINE
  5
86C6
330
85ED
100
AcDbEntity
  8
3
 62
     0
370
    -2
100
AcDbLine
 10
4022.81512547514
 20
2490.572834317823
 30
0.0
 11
4022.81512547514
 21
2560.572834317823
 31
0.0
  0
LINE
  5
86C7
330
85ED
100
AcDbEntity
  8
3
 62
     0
370
    -2
100
AcDbLine
 10
4022.81512547514
 20
2315.572834317823
 30
0.0
 11
4022.81512547514
 21
2245.572834317823
 31
0.0
  0
LINE
  5
86C8
330
85ED
100
AcDbEntity
  8
3
 62
     0
370
    -2
100
AcDbLine
 10
4022.81512547514
 20
2368.072834317823
 30
0.0
 11
4350.31512547514
 21
2466.322834317823
 31
0.0
  0
LINE
  5
86C9
330
85ED
100
AcDbEntity
  8
3
 62
     0
370
    -2
100
AcDbLine
 10
4350.31512547514
 20
2466.322834317823
 30
0.0
 11
4350.31512547514
 21
2921.322834317823
 31
0.0
  0
MTEXT
  5
86CA
330
85ED
100
AcDbEntity
  8
3
 62
     0
100
AcDbMText
 10
4235.315125475139
 20
2693.822834317824
 30
0.0
 40
105.0
 41
0.0
 71
     5
 72
     1
  1
\A1;(105)
 11
0.0000000000000001
 21
1.0
 31
0.0
 73
     1
 44
1.0
1001
ACAD
1000
MTEXTBEGIN
1070
    73
1070
     1
1070
    44
1040
1.0
1070
    74
1070
     0
1000
MTEXTEND
  0
LINE
  5
86CB
330
85ED
100
AcDbEntity
  8
3
 62
     0
370
    -2
100
AcDbLine
 10
4022.81512547514
 20
2420.572834317823
 30
0.0
 11
4022.81512547514
 21
2315.572834317823
 31
0.0
  0
LINE
  5
86CC
330
85ED
100
AcDbEntity
  8
3
 62
     0
370
    -2
100
AcDbLine
 10
4022.81512547514
 20
2420.572834317823
 30
0.0
 11
4022.81512547514
 21
2315.572834317823
 31
0.0
  0
INSERT
  5
86CD
330
85ED
100
AcDbEntity
  8
3
 62
     0
370
    -2
100
AcDbBlockReference
  2
_OPEN
 10
4022.81512547514
 20
2420.572834317823
 30
0.0
 41
70.0
 42
70.0
 43
70.0
 50
270.0
  0
INSERT
  5
86CE
330
85ED
100
AcDbEntity
  8
3
 62
     0
370
    -2
100
AcDbBlockReference
  2
_DotSmall
 10
4022.81512547514
 20
2315.572834317823
 30
0.0
 41
70.0
 42
70.0
 43
70.0
 50
90.0
  0
POINT
  5
86CF
330
85ED
100
AcDbEntity
  8
DEFPOINTS
 62
     0
100
AcDbPoint
 10
3318.605211603564
 20
2420.572834317823
 30
0.0
  0
POINT
  5
86D0
330
85ED
100
AcDbEntity
  8
DEFPOINTS
 62
     0
100
AcDbPoint
 10
3318.605211603564
 20
2315.572834317823
 30
0.0
  0
POINT
  5
86D1
330
85ED
100
AcDbEntity
  8
DEFPOINTS
 62
     0
100
AcDbPoint
 10
4022.81512547514
 20
2315.572834317823
 30
0.0
  0
ENDBLK
  5
85EF
330
85ED
100
AcDbEntity
  8
0
100
AcDbBlockEnd
  0
BLOCK
  5
8600
330
85FF
100
AcDbEntity
  8
0
100
AcDbBlockBegin
  2
*D58
 70
     1
 10
0.0
 20
0.0
 30
0.0
  3
*D58
  1

  0
LINE
  5
8720
330
85FF
100
AcDbEntity
  8
3
 62
     0
370
    -2
100
AcDbLine
 10
3336.105211603564
 20
2315.572834317823
 30
0.0
 11
4057.815125475139
 21
2315.572834317823
 31
0.0
  0
LINE
  5
8721
330
85FF
100
AcDbEntity
  8
3
 62
     0
370
    -2
100
AcDbLine
 10
3336.105211603564
 20
2250.572834317823
 30
0.0
 11
4057.815125475139
 21
2250.572834317823
 31
0.0
  0
LINE
  5
8722
330
85FF
100
AcDbEntity
  8
3
 62
     0
370
    -2
100
AcDbLine
 10
4022.81512547514
 20
2315.572834317823
 30
0.0
 11
4022.81512547514
 21
2385.572834317823
 31
0.0
  0
LINE
  5
8723
330
85FF
100
AcDbEntity
  8
3
 62
     0
370
    -2
100
AcDbLine
 10
4022.81512547514
 20
2180.572834317823
 30
0.0
 11
4022.81512547514
 21
2110.572834317823
 31
0.0
  0
MTEXT
  5
8724
330
85FF
100
AcDbEntity
  8
3
 62
     0
100
AcDbMText
 10
3935.31512547514
 20
2110.572834317823
 30
0.0
 40
105.0
 41
0.0
 71
     5
 72
     1
  1
\A1;65
 11
0.0000000000000001
 21
1.0
 31
0.0
 73
     1
 44
1.0
1001
ACAD
1000
MTEXTBEGIN
1070
    73
1070
     1
1070
    44
1040
1.0
1070
    74
1070
     0
1000
MTEXTEND
  0
LINE
  5
8725
330
85FF
100
AcDbEntity
  8
3
 62
     0
370
    -2
100
AcDbLine
 10
4022.81512547514
 20
2315.572834317823
 30
0.0
 11
4022.81512547514
 21
2250.572834317823
 31
0.0
  0
INSERT
  5
8726
330
85FF
100
AcDbEntity
  8
3
 62
     0
370
    -2
100
AcDbBlockReference
  2
_DotSmall
 10
4022.81512547514
 20
2315.572834317823
 30
0.0
 41
70.0
 42
70.0
 43
70.0
 50
270.0
  0
INSERT
  5
8727
330
85FF
100
AcDbEntity
  8
3
 62
     0
370
    -2
100
AcDbBlockReference
  2
_OPEN
 10
4022.81512547514
 20
2250.572834317823
 30
0.0
 41
70.0
 42
70.0
 43
70.0
 50
90.0
  0
POINT
  5
8728
330
85FF
100
AcDbEntity
  8
DEFPOINTS
 62
     0
100
AcDbPoint
 10
3318.605211603564
 20
2315.572834317823
 30
0.0
  0
POINT
  5
8729
330
85FF
100
AcDbEntity
  8
DEFPOINTS
 62
     0
100
AcDbPoint
 10
3318.605211603564
 20
2250.572834317823
 30
0.0
  0
POINT
  5
872A
330
85FF
100
AcDbEntity
  8
DEFPOINTS
 62
     0
100
AcDbPoint
 10
4022.81512547514
 20
2250.572834317823
 30
0.0
  0
ENDBLK
  5
8601
330
85FF
100
AcDbEntity
  8
0
100
AcDbBlockEnd
  0
BLOCK
  5
8612
330
8611
100
AcDbEntity
  8
0
100
AcDbBlockBegin
  2
*D59
 70
     1
 10
0.0
 20
0.0
 30
0.0
  3
*D59
  1

  0
LINE
  5
8656
330
8611
100
AcDbEntity
  8
3
 62
     0
370
    -2
100
AcDbLine
 10
2594.105211603564
 20
4580.572834317823
 30
0.0
 11
4421.835949180692
 21
4580.572834317823
 31
0.0
  0
LINE
  5
8657
330
8611
100
AcDbEntity
  8
3
 62
     0
370
    -2
100
AcDbLine
 10
3336.105211603564
 20
2250.572834317823
 30
0.0
 11
4421.835949180692
 21
2250.572834317823
 31
0.0
  0
LINE
  5
8658
330
8611
100
AcDbEntity
  8
3
 62
     0
370
    -2
100
AcDbLine
 10
4386.835949180691
 20
4510.572834317823
 30
0.0
 11
4386.835949180691
 21
2320.572834317823
 31
0.0
  0
INSERT
  5
8659
330
8611
100
AcDbEntity
  8
3
 62
     0
370
    -2
100
AcDbBlockReference
  2
_OPEN
 10
4386.835949180691
 20
4580.572834317823
 30
0.0
 41
70.0
 42
70.0
 43
70.0
 50
90.0
  0
INSERT
  5
865A
330
8611
100
AcDbEntity
  8
3
 62
     0
370
    -2
100
AcDbBlockReference
  2
_OPEN
 10
4386.835949180691
 20
2250.572834317823
 30
0.0
 41
70.0
 42
70.0
 43
70.0
 50
270.0
  0
MTEXT
  5
865B
330
8611
100
AcDbEntity
  8
3
 62
     0
100
AcDbMText
 10
4271.83594918069
 20
3415.572834317824
 30
0.0
 40
105.0
 41
0.0
 71
     5
 72
     1
  1
\A1;(2330)
 11
0.0000000000000001
 21
1.0
 31
0.0
 73
     1
 44
1.0
1001
ACAD
1000
MTEXTBEGIN
1070
    73
1070
     1
1070
    44
1040
1.0
1070
    74
1070
     0
1000
MTEXTEND
  0
POINT
  5
865C
330
8611
100
AcDbEntity
  8
DEFPOINTS
 62
     0
100
AcDbPoint
 10
2576.605211603564
 20
4580.572834317823
 30
0.0
  0
POINT
  5
865D
330
8611
100
AcDbEntity
  8
DEFPOINTS
 62
     0
100
AcDbPoint
 10
3318.605211603564
 20
2250.572834317823
 30
0.0
  0
POINT
  5
865E
330
8611
100
AcDbEntity
  8
DEFPOINTS
 62
     0
100
AcDbPoint
 10
4386.835949180691
 20
2250.572834317823
 30
0.0
  0
ENDBLK
  5
8613
330
8611
100
AcDbEntity
  8
0
100
AcDbBlockEnd
  0
BLOCK
  5
86C2
330
86C0
100
AcDbEntity
  8
0
100
AcDbBlockBegin
  2
_DotSmall
 70
     0
 10
0.0
 20
0.0
 30
0.0
  3
_DotSmall
  1

  0
LWPOLYLINE
  5
86C1
330
86C0
100
AcDbEntity
  8
0
  6
ByBlock
 62
     0
100
AcDbPolyline
 90
        2
 70
     1
 43
0.5
 10
-0.0625
 20
0.0
 42
1.0
 10
0.0625
 20
0.0
 42
1.0
  0
ENDBLK
  5
86C3
330
86C0
100
AcDbEntity
  8
0
100
AcDbBlockEnd
  0
BLOCK
  5
872D
330
872C
100
AcDbEntity
  8
0
100
AcDbBlockBegin
  2
*D61
 70
     1
 10
0.0
 20
0.0
 30
0.0
  3
*D61
  1

  0
LINE
  5
872F
330
872C
100
AcDbEntity
  8
3
 62
     0
370
    -2
100
AcDbLine
 10
1058.605211603565
 20
2233.072834317823
 30
0.0
 11
1058.605211603565
 21
1976.993710778868
 31
0.0
  0
LINE
  5
8730
330
872C
100
AcDbEntity
  8
3
 62
     0
370
    -2
100
AcDbLine
 10
2658.605211603564
 20
2233.072834317823
 30
0.0
 11
2658.605211603564
 21
1976.993710778868
 31
0.0
  0
LINE
  5
8731
330
872C
100
AcDbEntity
  8
3
 62
     0
370
    -2
100
AcDbLine
 10
1128.605211603565
 20
2011.993710778868
 30
0.0
 11
2588.605211603564
 21
2011.993710778868
 31
0.0
  0
INSERT
  5
8732
330
872C
100
AcDbEntity
  8
3
 62
     0
370
    -2
100
AcDbBlockReference
  2
_OPEN
 10
1058.605211603565
 20
2011.993710778868
 30
0.0
 41
70.0
 42
70.0
 43
70.0
 50
180.0
  0
INSERT
  5
8733
330
872C
100
AcDbEntity
  8
3
 62
     0
370
    -2
100
AcDbBlockReference
  2
_OPEN
 10
2658.605211603564
 20
2011.993710778868
 30
0.0
 41
70.0
 42
70.0
 43
70.0
  0
MTEXT
  5
8734
330
872C
100
AcDbEntity
  8
3
 62
     0
100
AcDbMText
 10
1858.605211603564
 20
2099.493710778868
 30
0.0
 40
105.0
 41
0.0
 71
     5
 72
     1
  1
\A1;1600
 73
     1
 44
1.0
1001
ACAD
1000
MTEXTBEGIN
1070
    73
1070
     1
1070
    44
1040
1.0
1070
    74
1070
     0
1000
MTEXTEND
  0
POINT
  5
8735
330
872C
100
AcDbEntity
  8
DEFPOINTS
 62
     0
100
AcDbPoint
 10
1058.605211603565
 20
2250.572834317823
 30
0.0
  0
POINT
  5
8736
330
872C
100
AcDbEntity
  8
DEFPOINTS
 62
     0
100
AcDbPoint
 10
2658.605211603564
 20
2250.572834317823
 30
0.0
  0
POINT
  5
8737
330
872C
100
AcDbEntity
  8
DEFPOINTS
 62
     0
100
AcDbPoint
 10
2658.605211603564
 20
2011.993710778868
 30
0.0
  0
ENDBLK
  5
872E
330
872C
100
AcDbEntity
  8
0
100
AcDbBlockEnd
  0
BLOCK
  5
873A
330
8739
100
AcDbEntity
  8
0
100
AcDbBlockBegin
  2
*D62
 70
     1
 10
0.0
 20
0.0
 30
0.0
  3
*D62
  1

  0
LINE
  5
873C
330
8739
100
AcDbEntity
  8
3
 62
     0
370
    -2
100
AcDbLine
 10
2658.605211603564
 20
2233.072834317823
 30
0.0
 11
2658.605211603564
 21
1976.993710778868
 31
0.0
  0
LINE
  5
873D
330
8739
100
AcDbEntity
  8
3
 62
     0
370
    -2
100
AcDbLine
 10
3318.605211603564
 20
2233.072834317823
 30
0.0
 11
3318.605211603564
 21
1976.993710778868
 31
0.0
  0
LINE
  5
873E
330
8739
100
AcDbEntity
  8
3
 62
     0
370
    -2
100
AcDbLine
 10
2728.605211603564
 20
2011.993710778868
 30
0.0
 11
3248.605211603564
 21
2011.993710778868
 31
0.0
  0
INSERT
  5
873F
330
8739
100
AcDbEntity
  8
3
 62
     0
370
    -2
100
AcDbBlockReference
  2
_OPEN
 10
2658.605211603564
 20
2011.993710778868
 30
0.0
 41
70.0
 42
70.0
 43
70.0
 50
180.0
  0
INSERT
  5
8740
330
8739
100
AcDbEntity
  8
3
 62
     0
370
    -2
100
AcDbBlockReference
  2
_OPEN
 10
3318.605211603564
 20
2011.993710778868
 30
0.0
 41
70.0
 42
70.0
 43
70.0
  0
MTEXT
  5
8741
330
8739
100
AcDbEntity
  8
3
 62
     0
100
AcDbMText
 10
2988.605211603564
 20
2099.493710778868
 30
0.0
 40
105.0
 41
0.0
 71
     5
 72
     1
  1
\A1;660
 73
     1
 44
1.0
1001
ACAD
1000
MTEXTBEGIN
1070
    73
1070
     1
1070
    44
1040
1.0
1070
    74
1070
     0
1000
MTEXTEND
  0
POINT
  5
8742
330
8739
100
AcDbEntity
  8
DEFPOINTS
 62
     0
100
AcDbPoint
 10
2658.605211603564
 20
2250.572834317823
 30
0.0
  0
POINT
  5
8743
330
8739
100
AcDbEntity
  8
DEFPOINTS
 62
     0
100
AcDbPoint
 10
3318.605211603564
 20
2250.572834317823
 30
0.0
  0
POINT
  5
8744
330
8739
100
AcDbEntity
  8
DEFPOINTS
 62
     0
100
AcDbPoint
 10
3318.605211603564
 20
2011.993710778868
 30
0.0
  0
ENDBLK
  5
873B
330
8739
100
AcDbEntity
  8
0
100
AcDbBlockEnd
  0
ENDSEC
  0
SECTION
  2
ENTITIES
  0
INSERT
  5
7C1F
330
83E6
100
AcDbEntity
  8
0
100
AcDbBlockReference
  2
YA_N
 10
6.0
 20
5.0
 30
0.0
  0
LINE
  5
7C21
330
83E6
100
AcDbEntity
  8
2
100
AcDbLine
 10
3565.38586305654
 20
3775.572834317824
 30
0.0
 11
1592.230870489893
 21
3775.572834317824
 31
0.0
  0
LINE
  5
7C22
330
83E6
100
AcDbEntity
  8
2
100
AcDbLine
 10
2658.605211603564
 20
2250.572834317823
 30
0.0
 11
2658.605211603564
 21
4641.641027998224
 31
0.0
  0
LINE
  5
7C23
330
83E6
100
AcDbEntity
  8
1
100
AcDbLine
 10
3418.605211603564
 20
3780.572834317823
 30
0.0
 11
3418.605211603564
 21
2524.572834317823
 31
0.0
  0
LINE
  5
7C24
330
83E6
100
AcDbEntity
  8
1
100
AcDbLine
 10
3418.605211603564
 20
2524.572834317823
 30
0.0
 11
3414.605211603564
 21
2524.572834317823
 31
0.0
  0
LINE
  5
7C25
330
83E6
100
AcDbEntity
  8
1
100
AcDbLine
 10
3418.605211603564
 20
3780.572834317823
 30
0.0
 11
3414.605211603564
 21
3780.572834317823
 31
0.0
  0
LINE
  5
7C26
330
83E6
100
AcDbEntity
  8
1
100
AcDbLine
 10
3368.605211603564
 20
3727.572834317824
 30
0.0
 11
3368.605211603564
 21
2582.059922553261
 31
0.0
  0
LINE
  5
7C27
330
83E6
100
AcDbEntity
  8
1
100
AcDbLine
 10
3414.605211603564
 20
3780.572834317823
 30
0.0
 11
3414.605211603564
 21
2524.572834317823
 31
0.0
  0
LINE
  5
7C28
330
83E6
100
AcDbEntity
  8
1
100
AcDbLine
 10
3318.605211603564
 20
2420.572834317823
 30
0.0
 11
1058.605211603565
 21
2420.572834317823
 31
0.0
1001
ACAD
1000
ASC_BOUNDS
1002
{
1070
    19
1005
0
1002
}
  0
LINE
  5
7C29
330
83E6
100
AcDbEntity
  8
1
100
AcDbLine
 10
3318.605211603564
 20
2545.572834317823
 30
0.0
 11
3318.605211603564
 21
2420.572834317823
 31
0.0
  0
LINE
  5
7C2A
330
83E6
100
AcDbEntity
  8
1
100
AcDbLine
 10
1058.605211603565
 20
2545.572834317823
 30
0.0
 11
1058.605211603565
 21
2420.572834317823
 31
0.0
  0
LINE
  5
7C2B
330
83E6
100
AcDbEntity
  8
1
100
AcDbLine
 10
3318.605211603564
 20
2545.572834317823
 30
0.0
 11
1058.605211603565
 21
2545.572834317823
 31
0.0
  0
ARC
  5
7C2C
330
83E6
100
AcDbEntity
  8
1
100
AcDbCircle
 10
2740.605211603564
 20
3693.572834317823
 30
0.0
 40
1051.0
100
AcDbArc
 50
175.5251821014661
 51
265.5251821014661
  0
ARC
  5
7C2D
330
83E6
100
AcDbEntity
  8
1
100
AcDbCircle
 10
2576.605211603564
 20
3693.572834317823
 30
0.0
 40
887.0
100
AcDbArc
 50
84.69563479220409
 51
174.6956347922041
  0
ARC
  5
7C2E
330
83E6
100
AcDbEntity
  8
1
100
AcDbCircle
 10
2590.105211603564
 20
3844.072834317823
 30
0.0
 40
736.5
100
AcDbArc
 50
354.6633516786164
 51
84.66335167861648
  0
LINE
  5
7C2F
330
83E6
100
AcDbEntity
  8
1
100
AcDbLine
 10
3418.605211603564
 20
2577.572834317823
 30
0.0
 11
2658.605211603564
 21
2645.776575496481
 31
0.0
  0
LINE
  5
7C30
330
83E6
100
AcDbEntity
  8
1
100
AcDbLine
 10
3418.605211603564
 20
3727.572834317824
 30
0.0
 11
3324.878428835055
 21
3727.572834317824
 31
0.0
  0
LINE
  5
7C31
330
83E6
100
AcDbEntity
  8
2
100
AcDbLine
 10
1348.605211603564
 20
3119.431110473767
 30
0.0
 11
1348.605211603566
 21
2250.572834317823
 31
0.0
  0
LINE
  5
7C32
330
83E6
100
AcDbEntity
  8
2
100
AcDbLine
 10
1583.931506462543
 20
2805.572834317823
 30
0.0
 11
1084.440585621305
 21
2805.572834317823
 31
0.0
  0
LINE
  5
7C33
330
83E6
100
AcDbEntity
  8
1
100
AcDbLine
 10
4561.752841307504
 20
2420.572834317823
 30
0.0
 11
4626.752841307506
 21
2420.572834317823
 31
0.0
1001
ACAD
1000
ASC_BOUNDS
1002
{
1070
    19
1002
}
  0
LINE
  5
7C34
330
83E6
100
AcDbEntity
  8
1
100
AcDbLine
 10
4561.752841307504
 20
2545.572834317823
 30
0.0
 11
6461.752841307505
 21
2545.572834317823
 31
0.0
  0
LINE
  5
7C35
330
83E6
100
AcDbEntity
  8
1
100
AcDbLine
 10
4626.752841307506
 20
2420.572834317823
 30
0.0
 11
6461.752841307505
 21
2420.572834317823
 31
0.0
1001
ACAD
1000
ASC_BOUNDS
1002
{
1070
    19
1002
}
  0
LINE
  5
7C36
330
83E6
100
AcDbEntity
  8
2
100
AcDbLine
 10
4539.276091240407
 20
3775.572834317824
 30
0.0
 11
6568.740828384246
 21
3775.572834317824
 31
0.0
  0
LINE
  5
7C37
330
83E6
100
AcDbEntity
  8
1
100
AcDbLine
 10
4558.752841307506
 20
4029.572834317823
 30
0.0
 11
4558.752841307506
 21
2687.572834317823
 31
0.0
  0
LINE
  5
7C38
330
83E6
100
AcDbEntity
  8
1
100
AcDbLine
 10
4669.252841307506
 20
4029.572834317823
 30
0.0
 11
4669.252841307504
 21
2687.572834317823
 31
0.0
  0
LINE
  5
7C39
330
83E6
100
AcDbEntity
  8
2
100
AcDbLine
 10
4540.533902088376
 20
2805.572834317823
 30
0.0
 11
5000.698531242382
 21
2805.572834317823
 31
0.0
  0
LINE
  5
7C3A
330
83E6
100
AcDbEntity
  8
1
100
AcDbLine
 10
4523.752841307505
 20
4155.572834317824
 30
0.0
 11
4523.752841307504
 21
2585.572834317823
 31
0.0
  0
LINE
  5
7C3B
330
83E6
100
AcDbEntity
  8
1
100
AcDbLine
 10
4721.052841307505
 20
4155.572834317824
 30
0.0
 11
4721.052841307504
 21
4135.572834317824
 31
0.0
  0
LINE
  5
7C3C
330
83E6
100
AcDbEntity
  8
2
100
AcDbLine
 10
2658.605211603564
 20
7667.381660545842
 30
0.0
 11
2658.605211603564
 21
5651.616289845637
 31
0.0
  0
LINE
  5
7C3D
330
83E6
100
AcDbEntity
  8
2
100
AcDbLine
 10
3495.463443351297
 20
6810.562273750784
 30
0.0
 11
1559.200892146006
 21
6810.562273750784
 31
0.0
  0
LINE
  5
7C3E
330
83E6
100
AcDbEntity
  8
2
100
AcDbLine
 10
5643.752841307505
 20
4789.755160483649
 30
0.0
 11
5643.752841307503
 21
2250.572834317823
 31
0.0
  0
POINT
  5
7C3F
330
83E6
100
AcDbEntity
  8
1
100
AcDbPoint
 10
3459.806774102184
 20
3775.572834317824
 30
0.0
  0
INSERT
  5
7C40
330
83E6
100
AcDbEntity
  8
0
100
AcDbBlockReference
  2
YA_N
 10
-1074.779326041182
 20
-1311.669320613289
 30
0.0
 41
25.0
 42
25.0
 43
25.0
  0
LINE
  5
7C42
330
83E6
100
AcDbEntity
  8
1
100
AcDbLine
 10
3318.605211603564
 20
2315.572834317823
 30
0.0
 11
1058.605211603565
 21
2315.572834317823
 31
0.0
1001
ACAD
1000
ASC_BOUNDS
1002
{
1070
    19
1005
0
1002
}
  0
LINE
  5
7C43
330
83E6
100
AcDbEntity
  8
1
100
AcDbLine
 10
3318.605211603564
 20
2315.572834317823
 30
0.0
 11
3318.605211603564
 21
2250.572834317823
 31
0.0
  0
LINE
  5
7C44
330
83E6
100
AcDbEntity
  8
1
100
AcDbLine
 10
1058.605211603565
 20
2315.572834317823
 30
0.0
 11
1058.605211603565
 21
2250.572834317823
 31
0.0
  0
LINE
  5
7C45
330
83E6
100
AcDbEntity
  8
1
100
AcDbLine
 10
3318.605211603564
 20
2250.572834317823
 30
0.0
 11
1058.605211603565
 21
2250.572834317823
 31
0.0
1001
ACAD
1000
ASC_BOUNDS
1002
{
1070
    19
1002
}
  0
LINE
  5
7C46
330
83E6
100
AcDbEntity
  8
1
100
AcDbLine
 10
4564.252841307506
 20
2315.572834317823
 30
0.0
 11
6461.752841307506
 21
2315.572834317823
 31
0.0
1001
ACAD
1000
ASC_BOUNDS
1002
{
1070
    19
1002
}
  0
LINE
  5
7C47
330
83E6
100
AcDbEntity
  8
1
100
AcDbLine
 10
4561.752841307504
 20
2315.572834317823
 30
0.0
 11
4561.752841307494
 21
2250.572834317823
 31
0.0
  0
LINE
  5
7C48
330
83E6
100
AcDbEntity
  8
1
100
AcDbLine
 10
4561.752841307494
 20
2250.572834317823
 30
0.0
 11
6461.752841307483
 21
2250.572834317823
 31
0.0
  0
INSERT
  5
7C49
330
83E6
100
AcDbEntity
  8
0
100
AcDbBlockReference
  2
YA_N
 10
-346.9416476423939
 20
-375.8074592043958
 30
0.0
 41
25.0
 42
25.0
 43
25.0
  0
ARC
  5
7C4E
330
83E6
100
AcDbEntity
  8
1
100
AcDbCircle
 10
1348.605211603564
 20
2805.572834317823
 30
0.0
 40
203.5
100
AcDbArc
 50
285.603699
 51
254.39624
  0
LINE
  5
7C4F
330
83E6
100
AcDbEntity
  8
1
100
AcDbLine
 10
1293.867174603565
 20
2609.572834317823
 30
0.0
 11
1403.343248603565
 21
2609.572834317823
 31
0.0
  0
ARC
  5
7C50
330
83E6
100
AcDbEntity
  8
1
100
AcDbCircle
 10
1534.605211603564
 20
2622.572834317823
 30
0.0
 40
3.0
100
AcDbArc
 50
0.0
 51
90.0
  0
ARC
  5
7C51
330
83E6
100
AcDbEntity
  8
1
100
AcDbCircle
 10
1532.605211603564
 20
2679.899495317823
 30
0.0
 40
5.000066999999999
100
AcDbArc
 50
0.0
 51
55.056335
  0
LINE
  5
7C52
330
83E6
100
AcDbEntity
  8
1
100
AcDbLine
 10
1537.605211603564
 20
2679.899495317823
 30
0.0
 11
1537.605211603564
 21
2605.572834317823
 31
0.0
  0
LINE
  5
7C56
330
83E6
100
AcDbEntity
  8
1
100
AcDbLine
 10
1452.707781603565
 20
2630.716023317823
 30
0.0
 11
1458.105211603564
 21
2610.572834317823
 31
0.0
  0
LINE
  5
7C57
330
83E6
100
AcDbEntity
  8
1
100
AcDbLine
 10
1458.105211603564
 20
2622.572834317823
 30
0.0
 11
1458.105211603564
 21
2605.572834317823
 31
0.0
  0
LINE
  5
7C58
330
83E6
100
AcDbEntity
  8
1
100
AcDbLine
 10
1461.105211603564
 20
2625.572834317823
 30
0.0
 11
1534.605211603564
 21
2625.572834317823
 31
0.0
  0
ARC
  5
7C59
330
83E6
100
AcDbEntity
  8
1
100
AcDbCircle
 10
1461.105211603564
 20
2622.572834317823
 30
0.0
 40
3.0
100
AcDbArc
 50
90.0
 51
180.0
  0
LINE
  5
7C5A
330
83E6
100
AcDbEntity
  8
1
100
AcDbLine
 10
1535.468981603564
 20
2683.998127317825
 30
0.0
 11
1519.531115603565
 21
2695.134602317823
 31
0.0
  0
LINE
  5
7C5B
330
83E6
100
AcDbEntity
  8
1
100
AcDbLine
 10
1159.605211603564
 20
2679.899495317823
 30
0.0
 11
1159.605211603564
 21
2605.572834317823
 31
0.0
  0
LINE
  5
7C5F
330
83E6
100
AcDbEntity
  8
1
100
AcDbLine
 10
1244.502428603565
 20
2630.716145317823
 30
0.0
 11
1239.105211603564
 21
2610.572834317823
 31
0.0
  0
LINE
  5
7C60
330
83E6
100
AcDbEntity
  8
1
100
AcDbLine
 10
1239.105211603564
 20
2622.572834317823
 30
0.0
 11
1239.105211603564
 21
2605.572834317823
 31
0.0
  0
LINE
  5
7C61
330
83E6
100
AcDbEntity
  8
1
100
AcDbLine
 10
1236.105211603564
 20
2625.572834317823
 30
0.0
 11
1162.605211603564
 21
2625.572834317823
 31
0.0
  0
ARC
  5
7C62
330
83E6
100
AcDbEntity
  8
1
100
AcDbCircle
 10
1236.105211603564
 20
2622.572834317823
 30
0.0
 40
3.0
100
AcDbArc
 50
0.0
 51
90.0
  0
ARC
  5
7C63
330
83E6
100
AcDbEntity
  8
1
100
AcDbCircle
 10
1162.605211603564
 20
2622.572834317823
 30
0.0
 40
3.0
100
AcDbArc
 50
90.0
 51
180.0
  0
LINE
  5
7C64
330
83E6
100
AcDbEntity
  8
1
100
AcDbLine
 10
1161.741320603565
 20
2683.998127317825
 30
0.0
 11
1177.679186603565
 21
2695.134602317823
 31
0.0
  0
ARC
  5
7C65
330
83E6
100
AcDbEntity
  8
1
100
AcDbCircle
 10
1164.605211603564
 20
2679.899495317823
 30
0.0
 40
5.0
100
AcDbArc
 50
124.943661
 51
180.0
  0
LINE
  5
7C66
330
83E6
100
AcDbEntity
  8
1
100
AcDbLine
 10
1592.667467651654
 20
2605.572834317823
 30
0.0
 11
1418.605211603564
 21
2605.572834317823
 31
0.0
  0
LINE
  5
7C67
330
83E6
100
AcDbEntity
  8
1
100
AcDbLine
 10
1608.605211603566
 20
2545.572834317823
 30
0.0
 11
1592.667467651654
 21
2605.572834317823
 31
0.0
  0
LINE
  5
7C68
330
83E6
100
AcDbEntity
  8
1
100
AcDbLine
 10
1088.605211603566
 20
2545.572834317823
 30
0.0
 11
1104.590221509929
 21
2605.572834317823
 31
0.0
  0
LINE
  5
7C6A
330
83E6
100
AcDbEntity
  8
1
100
AcDbLine
 10
1418.605211603564
 20
2595.572834317823
 30
0.0
 11
1278.605211603565
 21
2595.572834317823
 31
0.0
  0
LINE
  5
7C6B
330
83E6
100
AcDbEntity
  8
1
100
AcDbLine
 10
1278.605211603565
 20
2605.572834317823
 30
0.0
 11
1278.605211603566
 21
2595.572834317823
 31
0.0
  0
LINE
  5
7C6C
330
83E6
100
AcDbEntity
  8
1
100
AcDbLine
 10
1418.605211603565
 20
2605.572834317823
 30
0.0
 11
1418.605211603565
 21
2595.572834317823
 31
0.0
  0
LINE
  5
7C6F
330
83E6
100
AcDbEntity
  8
1
100
AcDbLine
 10
1278.605211603565
 20
2605.572834317823
 30
0.0
 11
1104.590221509929
 21
2605.572834317823
 31
0.0
  0
CIRCLE
  5
7C70
330
83E6
100
AcDbEntity
  8
1
100
AcDbCircle
 10
1348.605211603564
 20
2805.572834317823
 30
0.0
 40
118.0
  0
LINE
  5
7C71
330
83E6
100
AcDbEntity
  8
1
100
AcDbLine
 10
4558.752841307505
 20
2923.572834317823
 30
0.0
 11
4669.252841307505
 21
2923.572834317823
 31
0.0
  0
LINE
  5
7C72
330
83E6
100
AcDbEntity
  8
1
100
AcDbLine
 10
4558.752841307506
 20
2687.572834317823
 30
0.0
 11
4669.252841307505
 21
2687.572834317823
 31
0.0
  0
LINE
  5
7C73
330
83E6
100
AcDbEntity
  8
1
100
AcDbLine
 10
4523.752841307505
 20
2585.572834317823
 30
0.0
 11
4721.052841307505
 21
2585.572834317823
 31
0.0
  0
INSERT
  5
7C75
330
83E6
100
AcDbEntity
  8
0
100
AcDbBlockReference
  2
YA_N
 10
-394.4722692372305
 20
-430.898429998433
 30
0.0
 41
25.0
 42
25.0
 43
25.0
  0
LINE
  5
7C78
330
83E6
100
AcDbEntity
  8
1
100
AcDbLine
 10
4893.752841307505
 20
2577.572834317823
 30
0.0
 11
4893.752841307507
 21
3775.572834317824
 31
0.0
  0
LINE
  5
7C79
330
83E6
100
AcDbEntity
  8
1
100
AcDbLine
 10
6393.752841307502
 20
2577.572834317823
 30
0.0
 11
6393.752841307506
 21
3775.572834317824
 31
0.0
  0
LINE
  5
7C7A
330
83E6
100
AcDbEntity
  8
1
100
AcDbLine
 10
4893.752841307505
 20
4580.572834317824
 30
0.0
 11
6393.752841307505
 21
4580.572834317824
 31
0.0
  0
LINE
  5
7C7B
330
83E6
100
AcDbEntity
  8
1
100
AcDbLine
 10
4893.752841307505
 20
3775.572834317824
 30
0.0
 11
4893.752841307505
 21
4580.572834317824
 31
0.0
  0
LINE
  5
7C7C
330
83E6
100
AcDbEntity
  8
1
100
AcDbLine
 10
6393.752841307505
 20
3775.572834317824
 30
0.0
 11
6393.752841307505
 21
4580.572834317824
 31
0.0
  0
LINE
  5
7C7D
330
83E6
100
AcDbEntity
  8
1
100
AcDbLine
 10
4736.252841307504
 20
3712.572834317823
 30
0.0
 11
4826.452841307505
 21
3712.572834317823
 31
0.0
  0
LINE
  5
7C7E
330
83E6
100
AcDbEntity
  8
1
100
AcDbLine
 10
4726.252841307505
 20
3702.572834317823
 30
0.0
 11
4726.252841307505
 21
3572.572834317823
 31
0.0
  0
LINE
  5
7C7F
330
83E6
100
AcDbEntity
  8
1
100
AcDbLine
 10
4866.252841307504
 20
3712.572834317823
 30
0.0
 11
4866.252841307503
 21
3562.572834317823
 31
0.0
  0
LINE
  5
7C80
330
83E6
100
AcDbEntity
  8
1
100
AcDbLine
 10
4736.252841307504
 20
3562.572834317823
 30
0.0
 11
4826.452841307505
 21
3562.572834317823
 31
0.0
  0
ARC
  5
7C81
330
83E6
100
AcDbEntity
  8
1
100
AcDbCircle
 10
4736.252841307504
 20
3702.572834317823
 30
0.0
 40
10.0
100
AcDbArc
 50
90.0
 51
180.0
  0
ARC
  5
7C82
330
83E6
100
AcDbEntity
  8
1
100
AcDbCircle
 10
4736.252841307504
 20
3572.572834317823
 30
0.0
 40
10.0
100
AcDbArc
 50
180.0
 51
270.0
  0
LINE
  5
7C83
330
83E6
100
AcDbEntity
  8
1
100
AcDbLine
 10
6421.252841307505
 20
3712.572834317823
 30
0.0
 11
6421.252841307505
 21
3562.572834317823
 31
0.0
  0
LINE
  5
7C84
330
83E6
100
AcDbEntity
  8
1
100
AcDbLine
 10
6573.752841307504
 20
3702.572834317823
 30
0.0
 11
6573.752841307504
 21
3572.572834317823
 31
0.0
  0
LINE
  5
7C85
330
83E6
100
AcDbEntity
  8
1
100
AcDbLine
 10
6563.752841307504
 20
3562.572834317823
 30
0.0
 11
6461.052841307509
 21
3562.572834317823
 31
0.0
  0
ARC
  5
7C86
330
83E6
100
AcDbEntity
  8
1
100
AcDbCircle
 10
6563.752841307504
 20
3572.572834317823
 30
0.0
 40
10.0
100
AcDbArc
 50
270.0
 51
0.0
  0
LINE
  5
7C87
330
83E6
100
AcDbEntity
  8
1
100
AcDbLine
 10
6563.752841307504
 20
3712.572834317823
 30
0.0
 11
6461.052841307509
 21
3712.572834317823
 31
0.0
  0
ARC
  5
7C88
330
83E6
100
AcDbEntity
  8
1
100
AcDbCircle
 10
6563.752841307504
 20
3702.572834317823
 30
0.0
 40
10.0
100
AcDbArc
 50
0.0
 51
90.0
  0
LINE
  5
7C89
330
83E6
100
AcDbEntity
  8
1
100
AcDbLine
 10
4698.752841307504
 20
3815.572834317823
 30
0.0
 11
4893.752841307504
 21
3815.572834317823
 31
0.0
  0
LINE
  5
7C8A
330
83E6
100
AcDbEntity
  8
1
100
AcDbLine
 10
4698.752841307505
 20
3735.572834317823
 30
0.0
 11
4893.752841307507
 21
3735.572834317823
 31
0.0
  0
LINE
  5
7C8B
330
83E6
100
AcDbEntity
  8
1
100
AcDbLine
 10
4698.752841307505
 20
3815.572834317823
 30
0.0
 11
4698.752841307505
 21
3735.572834317823
 31
0.0
  0
LINE
  5
7C8C
330
83E6
100
AcDbEntity
  8
1
100
AcDbLine
 10
4669.252841307506
 20
3808.072834317823
 30
0.0
 11
4698.752841307505
 21
3808.072834317823
 31
0.0
  0
LINE
  5
7C8D
330
83E6
100
AcDbEntity
  8
1
100
AcDbLine
 10
4669.252841307505
 20
3743.072834317823
 30
0.0
 11
4698.752841307505
 21
3743.072834317823
 31
0.0
  0
LINE
  5
7C92
330
83E6
100
AcDbEntity
  8
1
100
AcDbLine
 10
6461.052841307505
 20
3712.572834317823
 30
0.0
 11
6421.252841307505
 21
3712.572834317823
 31
0.0
  0
LINE
  5
7C93
330
83E6
100
AcDbEntity
  8
1
100
AcDbLine
 10
6461.052841307507
 20
3562.572834317823
 30
0.0
 11
6421.252841307505
 21
3562.572834317823
 31
0.0
  0
LINE
  5
7C94
330
83E6
100
AcDbEntity
  8
1
100
AcDbLine
 10
4826.452841307505
 20
3712.572834317823
 30
0.0
 11
4866.252841307504
 21
3712.572834317823
 31
0.0
  0
LINE
  5
7C95
330
83E6
100
AcDbEntity
  8
1
100
AcDbLine
 10
4826.452841307505
 20
3562.572834317823
 30
0.0
 11
4866.252841307504
 21
3562.572834317823
 31
0.0
  0
ARC
  5
7C97
330
83E6
100
AcDbEntity
  8
1
100
AcDbCircle
 10
2658.605211603564
 20
3775.572834317824
 30
0.0
 40
668.0
100
AcDbArc
 50
355.87938678605
 51
0.0
  0
LINE
  5
7C98
330
83E6
100
AcDbEntity
  8
1
100
AcDbLine
 10
1148.605211603565
 20
2252.572834317823
 30
0.0
 11
1148.605211603565
 21
2250.572834317823
 31
0.0
  0
LINE
  5
7C99
330
83E6
100
AcDbEntity
  8
1
100
AcDbLine
 10
6461.752841307505
 20
2545.572834317824
 30
0.0
 11
6461.752841307505
 21
2420.572834317823
 31
0.0
  0
LINE
  5
7C9A
330
83E6
100
AcDbEntity
  8
1
100
AcDbLine
 10
4561.752841307504
 20
2545.572834317823
 30
0.0
 11
4561.752841307504
 21
2420.572834317823
 31
0.0
  0
LINE
  5
7C9B
330
83E6
100
AcDbEntity
  8
1
100
AcDbLine
 10
6461.752841307506
 20
2315.572834317827
 30
0.0
 11
6461.752841307485
 21
2250.572834317823
 31
0.0
  0
INSERT
  5
7C9D
330
83E6
100
AcDbEntity
  8
0
100
AcDbBlockReference
  2
YA_N
 10
4305.350442567148
 20
-1988.400780944633
 30
0.0
  0
POINT
  5
7C9F
330
83E6
100
AcDbEntity
  8
1
100
AcDbPoint
 10
3318.605211603564
 20
2315.572834317823
 30
0.0
  0
POINT
  5
7CA0
330
83E6
100
AcDbEntity
  8
1
100
AcDbPoint
 10
3318.605211603564
 20
2250.572834317823
 30
0.0
  0
POINT
  5
7CA1
330
83E6
100
AcDbEntity
  8
1
100
AcDbPoint
 10
3318.605211603564
 20
2315.572834317823
 30
0.0
  0
POINT
  5
7CA2
330
83E6
100
AcDbEntity
  8
1
100
AcDbPoint
 10
3318.605211603564
 20
2420.572834317823
 30
0.0
  0
ARC
  5
7CA5
330
83E6
100
AcDbEntity
  8
1
100
AcDbCircle
 10
2658.605211603564
 20
3775.572834317824
 30
0.0
 40
380.0
100
AcDbArc
 50
300.8853038943515
 51
136.5147063857816
  0
CIRCLE
  5
7CA6
330
83E6
100
AcDbEntity
  8
1
100
AcDbCircle
 10
2658.605211603564
 20
3775.572834317824
 30
0.0
 40
254.0
  0
ARC
  5
7CA7
330
83E6
100
AcDbEntity
  8
1
100
AcDbCircle
 10
1348.605211603565
 20
2805.572834317823
 30
0.0
 40
220.0
100
AcDbArc
 50
132.1514845175897
 51
300.8853038943515
  0
LINE
  5
7CA8
330
83E6
100
AcDbEntity
  8
1
100
AcDbLine
 10
4558.752841307506
 20
4029.572834317823
 30
0.0
 11
4669.252841307506
 21
4029.572834317823
 31
0.0
  0
LINE
  5
7CA9
330
83E6
100
AcDbEntity
  8
1
100
AcDbLine
 10
4558.752841307506
 20
3521.572834317823
 30
0.0
 11
4669.252841307505
 21
3521.572834317823
 31
0.0
  0
LINE
  5
7CAA
330
83E6
100
AcDbEntity
  8
1
100
AcDbLine
 10
4523.752841307505
 20
4155.572834317824
 30
0.0
 11
4721.052841307505
 21
4155.572834317824
 31
0.0
  0
LINE
  5
7CAB
330
83E6
100
AcDbEntity
  8
1
100
AcDbLine
 10
4721.052841307504
 20
2605.572834317823
 30
0.0
 11
4721.052841307505
 21
2585.572834317823
 31
0.0
  0
LINE
  5
7CAD
330
83E6
100
AcDbEntity
  8
1
100
AcDbLine
 10
3318.605211603564
 20
7628.562273750784
 30
0.0
 11
1998.605211603564
 21
7628.562273750784
 31
0.0
  0
LINE
  5
7CAE
330
83E6
100
AcDbEntity
  8
1
100
AcDbLine
 10
3318.605211603564
 20
5728.562273750783
 30
0.0
 11
1058.605211603564
 21
5728.562273750783
 31
0.0
  0
LINE
  5
7CAF
330
83E6
100
AcDbEntity
  8
1
100
AcDbLine
 10
3318.605211603564
 20
7628.562273750786
 30
0.0
 11
3318.605211603564
 21
7560.562273750784
 31
0.0
  0
LINE
  5
7CB0
330
83E6
100
AcDbEntity
  8
1
100
AcDbLine
 10
1058.605211603564
 20
6628.562273750784
 30
0.0
 11
1058.605211603564
 21
5728.562273750783
 31
0.0
  0
LINE
  5
7CB1
330
83E6
100
AcDbEntity
  8
1
100
AcDbLine
 10
1998.605211603564
 20
7628.562273750784
 30
0.0
 11
1998.605211603564
 21
7560.562273750784
 31
0.0
  0
LINE
  5
7CB2
330
83E6
100
AcDbEntity
  8
1
100
AcDbLine
 10
1689.605211603564
 20
6628.562273750784
 30
0.0
 11
1058.605211603564
 21
6628.562273750784
 31
0.0
  0
LINE
  5
7CB3
330
83E6
100
AcDbEntity
  8
2
100
AcDbLine
 10
1348.605211603564
 20
6496.284850909109
 30
0.0
 11
1348.605211603568
 21
5651.616289845637
 31
0.0
  0
CIRCLE
  5
7CBC
330
83E6
100
AcDbEntity
  8
1
100
AcDbCircle
 10
2658.605211603564
 20
3775.572834317824
 30
0.0
 40
560.0
  0
CIRCLE
  5
7CBD
330
83E6
100
AcDbEntity
  8
1
100
AcDbCircle
 10
2658.605211603564
 20
3775.572834317824
 30
0.0
 40
610.0
  0
LINE
  5
7CBE
330
83E6
100
AcDbEntity
  8
1
100
AcDbLine
 10
3038.605211603565
 20
5690.562273750784
 30
0.0
 11
1128.605211603564
 21
5690.562273750784
 31
0.0
  0
LINE
  5
7CBF
330
83E6
100
AcDbEntity
  8
1
100
AcDbLine
 10
3038.605211603565
 20
5860.562273750783
 30
0.0
 11
1128.605211603564
 21
5860.562273750783
 31
0.0
  0
LINE
  5
7CC0
330
83E6
100
AcDbEntity
  8
1
100
AcDbLine
 10
3038.605211603564
 20
5690.562273750784
 30
0.0
 11
3038.605211603565
 21
5860.562273750783
 31
0.0
  0
LINE
  5
7CC1
330
83E6
100
AcDbEntity
  8
1
100
AcDbLine
 10
1128.605211603564
 20
5690.562273750784
 30
0.0
 11
1128.605211603564
 21
5860.562273750783
 31
0.0
  0
LINE
  5
7CC2
330
83E6
100
AcDbEntity
  8
1
100
AcDbLine
 10
2912.605211603564
 20
5728.262273750782
 30
0.0
 11
2912.605211603564
 21
5838.762273750782
 31
0.0
  0
LINE
  5
7CC3
330
83E6
100
AcDbEntity
  8
1
100
AcDbLine
 10
2404.605211603564
 20
5728.262273750782
 30
0.0
 11
2404.605211603564
 21
5838.762273750782
 31
0.0
  0
LINE
  5
7CC4
330
83E6
100
AcDbEntity
  8
1
100
AcDbLine
 10
1466.605211603564
 20
5728.262273750783
 30
0.0
 11
1466.605211603564
 21
5838.762273750782
 31
0.0
  0
LINE
  5
7CC5
330
83E6
100
AcDbEntity
  8
1
100
AcDbLine
 10
1230.605211603564
 20
5728.262273750782
 30
0.0
 11
1230.605211603564
 21
5838.762273750782
 31
0.0
  0
LINE
  5
7CC6
330
83E6
100
AcDbEntity
  8
1
100
AcDbLine
 10
2912.605211603564
 20
5728.262273750783
 30
0.0
 11
2404.605211603565
 21
5728.262273750783
 31
0.0
  0
LINE
  5
7CC7
330
83E6
100
AcDbEntity
  8
1
100
AcDbLine
 10
2912.605211603564
 20
5838.762273750782
 30
0.0
 11
2404.605211603564
 21
5838.762273750782
 31
0.0
  0
LINE
  5
7CC8
330
83E6
100
AcDbEntity
  8
1
100
AcDbLine
 10
1466.605211603564
 20
5838.762273750782
 30
0.0
 11
1230.605211603564
 21
5838.762273750782
 31
0.0
  0
LINE
  5
7CC9
330
83E6
100
AcDbEntity
  8
1
100
AcDbLine
 10
1466.605211603564
 20
5728.262273750783
 30
0.0
 11
1230.605211603564
 21
5728.262273750782
 31
0.0
  0
LINE
  5
7CCA
330
83E6
100
AcDbEntity
  8
1
100
AcDbLine
 10
3418.605211603564
 20
7610.562273750784
 30
0.0
 11
3418.605211603564
 21
6010.562273750783
 31
0.0
  0
LINE
  5
7CCB
330
83E6
100
AcDbEntity
  8
1
100
AcDbLine
 10
1689.605211603564
 20
7560.562273750784
 30
0.0
 11
1689.605211603564
 21
6060.562273750782
 31
0.0
  0
LINE
  5
7CCC
330
83E6
100
AcDbEntity
  8
1
100
AcDbLine
 10
3418.605211603564
 20
7560.562273750784
 30
0.0
 11
1689.605211603564
 21
7560.562273750784
 31
0.0
  0
LINE
  5
7CCD
330
83E6
100
AcDbEntity
  8
1
100
AcDbLine
 10
3418.605211603564
 20
6060.562273750782
 30
0.0
 11
1689.605211603564
 21
6060.562273750782
 31
0.0
  0
LINE
  5
7CCE
330
83E6
100
AcDbEntity
  8
1
100
AcDbLine
 10
3418.605211603564
 20
7610.562273750784
 30
0.0
 11
3414.605211603564
 21
7610.562273750784
 31
0.0
  0
LINE
  5
7CCF
330
83E6
100
AcDbEntity
  8
1
100
AcDbLine
 10
3418.605211603564
 20
6010.562273750783
 30
0.0
 11
3414.605211603564
 21
6010.562273750783
 31
0.0
  0
LINE
  5
7CD0
330
83E6
100
AcDbEntity
  8
1
100
AcDbLine
 10
3414.605211603564
 20
7610.562273750784
 30
0.0
 11
3414.605211603564
 21
6010.562273750783
 31
0.0
  0
LINE
  5
7CD1
330
83E6
100
AcDbEntity
  8
1
100
AcDbLine
 10
2693.605211603564
 20
6060.562273750782
 30
0.0
 11
2693.605211603564
 21
5838.762273750782
 31
0.0
  0
LINE
  5
7CD2
330
83E6
100
AcDbEntity
  8
1
100
AcDbLine
 10
2623.605211603564
 20
6060.562273750782
 30
0.0
 11
2623.605211603564
 21
5838.762273750782
 31
0.0
  0
LINE
  5
7CD3
330
83E6
100
AcDbEntity
  8
1
100
AcDbLine
 10
1547.605211603564
 20
6530.762273750783
 30
0.0
 11
1547.605211603566
 21
5873.262273750782
 31
0.0
  0
LINE
  5
7CD4
330
83E6
100
AcDbEntity
  8
1
100
AcDbLine
 10
1149.605211603564
 20
6530.762273750781
 30
0.0
 11
1149.605211603566
 21
5873.262273750781
 31
0.0
  0
LINE
  5
7CD5
330
83E6
100
AcDbEntity
  8
1
100
AcDbLine
 10
1547.605211603564
 20
6530.762273750783
 30
0.0
 11
1149.605211603564
 21
6530.762273750781
 31
0.0
  0
LINE
  5
7CD6
330
83E6
100
AcDbEntity
  8
1
100
AcDbLine
 10
1547.605211603568
 20
5873.262273750782
 30
0.0
 11
1149.605211603568
 21
5873.262273750782
 31
0.0
  0
LINE
  5
7CD7
330
83E6
100
AcDbEntity
  8
1
100
AcDbLine
 10
1376.105211603566
 20
5873.262273750782
 30
0.0
 11
1376.105211603566
 21
5838.762273750782
 31
0.0
  0
LINE
  5
7CD8
330
83E6
100
AcDbEntity
  8
1
100
AcDbLine
 10
1321.105211603566
 20
5873.262273750782
 30
0.0
 11
1321.105211603566
 21
5838.762273750782
 31
0.0
  0
LINE
  5
7CD9
330
83E6
100
AcDbEntity
  8
1
100
AcDbLine
 10
4893.752841307507
 20
3004.572834317825
 30
0.0
 11
4703.752841307504
 21
3004.572834317825
 31
0.0
  0
LINE
  5
7CDA
330
83E6
100
AcDbEntity
  8
1
100
AcDbLine
 10
4893.752841307507
 20
2606.572834317825
 30
0.0
 11
4703.752841307506
 21
2606.572834317825
 31
0.0
  0
LINE
  5
7CDB
330
83E6
100
AcDbEntity
  8
1
100
AcDbLine
 10
4703.752841307506
 20
2606.572834317823
 30
0.0
 11
4703.752841307504
 21
3004.572834317823
 31
0.0
  0
LINE
  5
7CDC
330
83E6
100
AcDbEntity
  8
1
100
AcDbLine
 10
4703.752841307505
 20
2778.072834317825
 30
0.0
 11
4669.252841307505
 21
2778.072834317825
 31
0.0
  0
LINE
  5
7CDD
330
83E6
100
AcDbEntity
  8
1
100
AcDbLine
 10
4703.752841307505
 20
2833.072834317825
 30
0.0
 11
4669.252841307505
 21
2833.072834317825
 31
0.0
  0
LINE
  5
7CEB
330
83E6
100
AcDbEntity
  8
1
100
AcDbLine
 10
2403.589845512115
 20
4057.294617389781
 30
0.0
 11
1200.964736497988
 21
2968.674919254221
 31
0.0
  0
LINE
  5
7CEC
330
83E6
100
AcDbEntity
  8
1
100
AcDbLine
 10
2853.667246870777
 20
3449.458126895093
 30
0.0
 11
1461.535863600372
 21
2616.769582652032
 31
0.0
  0
LINE
  5
7CED
330
83E6
100
AcDbEntity
  8
1
100
AcDbLine
 10
2490.950218633714
 20
3966.381123792571
 30
0.0
 11
1270.718246365601
 21
2894.216055412391
 31
0.0
  0
LINE
  5
7CEE
330
83E6
100
AcDbEntity
  8
1
100
AcDbLine
 10
2792.197246349855
 20
3559.542354402729
 30
0.0
 11
1410.667652942392
 21
2705.212217664354
 31
0.0
  0
LINE
  5
7CEF
330
83E6
100
AcDbEntity
  8
1
100
AcDbLine
 10
4893.752841307507
 20
2577.572834317823
 30
0.0
 11
6393.752841307502
 21
2577.572834317823
 31
0.0
  0
LINE
  5
7CF0
330
83E6
100
AcDbEntity
  8
1
100
AcDbLine
 10
4893.752841307506
 20
3727.572834317824
 30
0.0
 11
6393.752841307506
 21
3727.572834317824
 31
0.0
  0
LINE
  5
7CF1
330
83E6
100
AcDbEntity
  8
1
100
AcDbLine
 10
6393.752841307506
 20
3727.572834317824
 30
0.0
 11
4893.752841307505
 21
2577.572834317823
 31
0.0
  0
LINE
  5
7CF2
330
83E6
100
AcDbEntity
  8
1
100
AcDbLine
 10
4893.752841307507
 20
3727.572834317824
 30
0.0
 11
6393.752841307502
 21
2577.572834317823
 31
0.0
  0
LINE
  5
7CF3
330
83E6
100
AcDbEntity
  8
1
100
AcDbLine
 10
3318.605211603564
 20
6060.562273750782
 30
0.0
 11
3318.605211603564
 21
5728.562273750783
 31
0.0
  0
LINE
  5
7F35
330
83E6
100
AcDbEntity
  8
4
100
AcDbLine
 10
6475.0
 20
1750.0
 30
0.0
 11
6475.0
 21
1050.0
 31
0.0
  0
LINE
  5
7F36
330
83E6
100
AcDbEntity
  8
4
100
AcDbLine
 10
4025.0
 20
1750.0
 30
0.0
 11
4025.0
 21
1050.0
 31
0.0
  0
LINE
  5
7F37
330
83E6
100
AcDbEntity
  8
4
100
AcDbLine
 10
2275.0
 20
1750.0
 30
0.0
 11
2275.0
 21
1050.0
 31
0.0
  0
LINE
  5
7F3A
330
83E6
100
AcDbEntity
  8
4
100
AcDbLine
 10
2275.0
 20
1050.0
 30
0.0
 11
6475.0
 21
1050.0
 31
0.0
  0
LINE
  5
7F3B
330
83E6
100
AcDbEntity
  8
4
100
AcDbLine
 10
2275.0
 20
1400.0
 30
0.0
 11
6475.0
 21
1400.0
 31
0.0
  0
TEXT
  5
7F3C
330
83E6
100
AcDbEntity
  8
4
100
AcDbText
 10
2409.757282964156
 20
1510.400590533145
 30
0.0
 40
175.0
  1
機器名称
100
AcDbText
  0
TEXT
  5
7F3D
330
83E6
100
AcDbEntity
  8
4
100
AcDbText
 10
2401.903371086791
 20
1125.758048562038
 30
0.0
 40
175.0
  1
機器型番
100
AcDbText
  0
TEXT
  5
7F3E
330
83E6
100
AcDbEntity
  8
4
100
AcDbText
 10
4121.875609206827
 20
1479.00119135149
 30
0.0
 40
175.0
  1
ミツヤ多翼送風機
100
AcDbText
  0
TEXT
  5
7F3F
330
83E6
100
AcDbEntity
  8
4
100
AcDbText
 10
4153.290734549183
 20
1110.058544979801
 30
0.0
 40
175.0
  1
MF#7-5
100
AcDbText
  0
TEXT
  5
7F41
330
83E6
100
AcDbEntity
  8
4
100
AcDbText
 10
2778.638057536896
 20
8342.000944663805
 30
0.0
 40
188.9999999999998
  1
床置防振ベット
100
AcDbText
  0
TEXT
  5
7F42
330
83E6
100
AcDbEntity
  8
4
100
AcDbText
 10
1106.586576653062
 20
8868.583416697545
 30
0.0
 40
252.0
  1
遠心式両吸込両持多翼ファン
100
AcDbText
  0
LINE
  5
7F43
330
83E6
100
AcDbEntity
  8
4
100
AcDbLine
 10
875.0
 20
8642.930639926817
 30
0.0
 11
6475.0
 21
8642.930639926817
 31
0.0
  0
LINE
  5
7F44
330
83E6
100
AcDbEntity
  8
4
100
AcDbLine
 10
875.0
 20
9342.930639926818
 30
0.0
 11
6475.0
 21
9342.930639926818
 31
0.0
  0
LINE
  5
7F45
330
83E6
100
AcDbEntity
  8
4
100
AcDbLine
 10
2275.0
 20
1750.0
 30
0.0
 11
6475.0
 21
1750.0
 31
0.0
  0
LINE
  5
7F46
330
83E6
100
AcDbEntity
  8
4
100
AcDbLine
 10
875.0
 20
9342.930639926818
 30
0.0
 11
875.0
 21
8642.930639926817
 31
0.0
  0
TEXT
  5
7F47
330
83E6
100
AcDbEntity
  8
4
100
AcDbText
 10
1253.132144687439
 20
8338.118171412203
 30
0.0
 40
188.9999999999998
  1
左回転右横向
100
AcDbText
  0
TEXT
  5
7F48
330
83E6
100
AcDbEntity
  8
4
100
AcDbText
 10
5141.393457372513
 20
9471.21378523358
 30
0.0
 40
196.0
  1
No.
100
AcDbText
  0
TEXT
  5
7F49
330
83E6
100
AcDbEntity
  8
4
100
AcDbText
 10
4589.536219100046
 20
8342.000944663805
 30
0.0
 40
188.9999999999998
  1
縮尺：1/35
100
AcDbText
  0
LINE
  5
7F4A
330
83E6
100
AcDbEntity
  8
4
100
AcDbLine
 10
6475.0
 20
9342.930639926818
 30
0.0
 11
6475.0
 21
8642.930639926817
 31
0.0
  0
LINE
  5
7F4B
330
83E6
100
AcDbEntity
  8
4
100
AcDbLine
 10
7350.0
 20
10325.0
 30
0.0
 11
7350.0
 21
10325.0
 31
0.0
  0
LINE
  5
7F4C
330
83E6
100
AcDbEntity
  8
4
100
AcDbLine
 10
5042.160978259526
 20
9384.422540938905
 30
0.0
 11
5042.160978259526
 21
9753.282915424136
 31
0.0
  0
LINE
  5
7F4D
330
83E6
100
AcDbEntity
  8
4
100
AcDbLine
 10
5042.160978259526
 20
9753.282915424136
 30
0.0
 11
6475.0
 21
9753.282915424136
 31
0.0
  0
LINE
  5
7F4E
330
83E6
100
AcDbEntity
  8
4
100
AcDbLine
 10
6475.0
 20
9753.282915424136
 30
0.0
 11
6475.0
 21
9384.422540938905
 31
0.0
  0
LINE
  5
7F4F
330
83E6
100
AcDbEntity
  8
4
100
AcDbLine
 10
6475.0
 20
9384.422540938905
 30
0.0
 11
5042.160978259526
 21
9384.422540938905
 31
0.0
  0
LINE
  5
7F50
330
83E6
100
AcDbEntity
  8
4
100
AcDbLine
 10
0.0
 20
0.0
 30
0.0
 11
0.0
 21
10325.0
 31
0.0
  0
LINE
  5
7F51
330
83E6
100
AcDbEntity
  8
4
100
AcDbLine
 10
0.0
 20
10325.0
 30
0.0
 11
7350.0
 21
10325.0
 31
0.0
  0
LINE
  5
7F52
330
83E6
100
AcDbEntity
  8
4
100
AcDbLine
 10
7350.0
 20
10325.0
 30
0.0
 11
7350.0
 21
0.0
 31
0.0
  0
LINE
  5
7F53
330
83E6
100
AcDbEntity
  8
4
100
AcDbLine
 10
7350.0
 20
0.0
 30
0.0
 11
0.0
 21
0.0
 31
0.0
  0
DIMENSION
  5
8451
330
83E6
100
AcDbEntity
  8
3
100
AcDbDimension
  2
*D31
 10
6761.535607663017
 20
3215.572834317824
 30
0.0
 11
6674.035607663016
 21
3775.572834317824
 31
0.0
 70
    32
  1
\U+03C6<>
 71
     5
 42
1120.000000000001
  3
IGA
100
AcDbAlignedDimension
 13
6393.752841307505
 23
4335.572834317823
 33
0.0
 14
6393.752841307504
 24
3215.572834317824
 34
0.0
 50
90.0
100
AcDbRotatedDimension
1001
ACAD
1000
DSTYLE
1002
{
1070
    40
1040
35.0
1070
   143
1040
0.039
1070
   172
1070
     1
1070
   271
1070
     4
1070
   272
1070
     4
1070
   279
1070
     0
1070
   284
1070
     0
1070
   285
1070
     0
1070
   286
1070
     0
1070
   341
1005
83F9
1070
   343
1005
83F9
1070
   344
1005
83F9
1002
}
  0
DIMENSION
  5
84CC
330
83E6
100
AcDbEntity
  8
3
100
AcDbDimension
  2
*D39
 10
5643.752841307503
 20
2011.993710778868
 30
0.0
 11
5102.752841307498
 21
2099.493710778868
 31
0.0
 70
    32
 71
     5
 42
1082.000000000009
  3
IGA
100
AcDbAlignedDimension
 13
4561.752841307494
 23
2250.572834317823
 33
0.0
 14
5643.752841307503
 24
2250.572834317823
 34
0.0
100
AcDbRotatedDimension
1001
ACAD
1000
DSTYLE
1002
{
1070
    40
1040
35.0
1070
   143
1040
0.039
1070
   172
1070
     1
1070
   271
1070
     4
1070
   272
1070
     4
1070
   279
1070
     0
1070
   284
1070
     0
1070
   285
1070
     0
1070
   286
1070
     0
1070
   341
1005
83F9
1070
   343
1005
83F9
1070
   344
1005
83F9
1002
}
  0
DIMENSION
  5
84D9
330
83E6
100
AcDbEntity
  8
3
100
AcDbDimension
  2
*D40
 10
6461.752841307483
 20
2011.993710778868
 30
0.0
 11
6052.752841307493
 21
2099.493710778868
 31
0.0
 70
    32
 71
     5
 42
817.99999999998
  3
IGA
100
AcDbAlignedDimension
 13
5643.752841307503
 23
2250.572834317823
 33
0.0
 14
6461.752841307483
 24
2250.572834317823
 34
0.0
100
AcDbRotatedDimension
1001
ACAD
1000
DSTYLE
1002
{
1070
    40
1040
35.0
1070
   143
1040
0.039
1070
   172
1070
     1
1070
   271
1070
     4
1070
   272
1070
     4
1070
   279
1070
     1
1070
   284
1070
     0
1070
   285
1070
     0
1070
   286
1070
     0
1070
   341
1005
83F9
1070
   343
1005
83F9
1070
   344
1005
83F9
1002
}
  0
DIMENSION
  5
84E6
330
83E6
100
AcDbEntity
  8
3
100
AcDbDimension
  2
*D41
 10
6393.752841307505
 20
4834.012473370222
 30
0.0
 11
5643.752841307505
 21
4921.512473370222
 31
0.0
 70
    32
 71
     5
 42
1500.0
  3
IGA
100
AcDbAlignedDimension
 13
4893.752841307505
 23
4580.572834317824
 33
0.0
 14
6393.752841307505
 24
4580.572834317824
 34
0.0
100
AcDbRotatedDimension
1001
ACAD
1000
DSTYLE
1002
{
1070
    40
1040
35.0
1070
   143
1040
0.039
1070
   172
1070
     1
1070
   271
1070
     4
1070
   272
1070
     4
1070
   279
1070
     0
1070
   284
1070
     0
1070
   285
1070
     0
1070
   286
1070
     0
1070
   341
1005
83F9
1070
   343
1005
83F9
1070
   344
1005
83F9
1002
}
  0
DIMENSION
  5
84F3
330
83E6
100
AcDbEntity
  8
3
100
AcDbDimension
  2
*D42
 10
5643.752841307505
 20
5059.317625186006
 30
0.0
 11
5083.752841307505
 21
5174.317625186006
 31
0.0
 70
    32
  1
(<>)
 71
     5
 42
1120.0
  3
IGA
100
AcDbAlignedDimension
 13
4523.752841307505
 23
4155.572834317824
 33
0.0
 14
5643.752841307505
 24
4974.012473370223
 34
0.0
100
AcDbRotatedDimension
1001
ACAD
1000
DSTYLE
1002
{
1070
    40
1040
35.0
1070
   143
1040
0.039
1070
   172
1070
     1
1070
   271
1070
     4
1070
   272
1070
     4
1070
   279
1070
     0
1070
   284
1070
     0
1070
   285
1070
     0
1070
   286
1070
     0
1070
   341
1005
83F9
1070
   343
1005
83F9
1070
   344
1005
83F9
1002
}
  0
DIMENSION
  5
8500
330
83E6
100
AcDbEntity
  8
3
100
AcDbDimension
  2
*D43
 10
6573.752841307506
 20
5059.317625186006
 30
0.0
 11
6108.752841307506
 21
5174.317625186006
 31
0.0
 70
    32
  1
(<>)
 71
     5
 42
930.0
  3
IGA
100
AcDbAlignedDimension
 13
5643.752841307505
 23
4974.012473370223
 33
0.0
 14
6573.752841307506
 24
3702.572834317823
 34
0.0
100
AcDbRotatedDimension
1001
ACAD
1000
DSTYLE
1002
{
1070
    40
1040
35.0
1070
   143
1040
0.039
1070
   172
1070
     1
1070
   271
1070
     4
1070
   272
1070
     4
1070
   279
1070
     1
1070
   284
1070
     0
1070
   285
1070
     0
1070
   286
1070
     0
1070
   341
1005
83F9
1070
   343
1005
83F9
1070
   344
1005
83F9
1002
}
  0
DIMENSION
  5
8550
330
83E6
100
AcDbEntity
  8
3
100
AcDbDimension
  2
*D45
 10
3717.377466574617
 20
5728.562273750783
 30
0.0
 11
3629.877466574616
 21
6678.562273750784
 31
0.0
 70
    32
 71
     5
 42
1900.000000000001
  3
IGA
100
AcDbAlignedDimension
 13
3318.605211603564
 23
7628.562273750784
 33
0.0
 14
3318.605211603564
 24
5728.562273750783
 34
0.0
 50
90.0
100
AcDbRotatedDimension
1001
ACAD
1000
DSTYLE
1002
{
1070
    40
1040
35.0
1070
   143
1040
0.039
1070
   172
1070
     1
1070
   271
1070
     4
1070
   272
1070
     4
1070
   279
1070
     0
1070
   284
1070
     0
1070
   285
1070
     0
1070
   286
1070
     0
1070
   341
1005
83F9
1070
   343
1005
83F9
1070
   344
1005
83F9
1002
}
  0
DIMENSION
  5
855D
330
83E6
100
AcDbEntity
  8
3
100
AcDbDimension
  2
*D46
 10
1998.605211603564
 20
7802.569634221902
 30
0.0
 11
2658.605211603564
 21
7890.069634221902
 31
0.0
 70
    32
 71
     5
 42
1320.0
  3
IGA
100
AcDbAlignedDimension
 13
3318.605211603564
 23
7628.562273750784
 33
0.0
 14
1998.605211603564
 24
7628.562273750784
 34
0.0
100
AcDbRotatedDimension
1001
ACAD
1000
DSTYLE
1002
{
1070
    40
1040
35.0
1070
   143
1040
0.039
1070
   172
1070
     1
1070
   271
1070
     4
1070
   272
1070
     4
1070
   279
1070
     0
1070
   284
1070
     0
1070
   285
1070
     0
1070
   286
1070
     0
1070
   341
1005
83F9
1070
   343
1005
83F9
1070
   344
1005
83F9
1002
}
  0
DIMENSION
  5
856A
330
83E6
100
AcDbEntity
  8
3
100
AcDbDimension
  2
*D47
 10
1058.605211603564
 20
7802.569634221902
 30
0.0
 11
1528.605211603564
 21
7890.069634221902
 31
0.0
 70
    32
 71
     5
 42
940.0000000000002
  3
IGA
100
AcDbAlignedDimension
 13
1998.605211603564
 23
7628.562273750784
 33
0.0
 14
1058.605211603564
 24
6628.562273750784
 34
0.0
100
AcDbRotatedDimension
1001
ACAD
1000
DSTYLE
1002
{
1070
    40
1040
35.0
1070
   143
1040
0.039
1070
   172
1070
     1
1070
   271
1070
     4
1070
   272
1070
     4
1070
   279
1070
     1
1070
   284
1070
     0
1070
   285
1070
     0
1070
   286
1070
     0
1070
   341
1005
83F9
1070
   343
1005
83F9
1070
   344
1005
83F9
1002
}
  0
DIMENSION
  5
8577
330
83E6
100
AcDbEntity
  8
3
100
AcDbDimension
  2
*D48
 10
879.753174362213
 20
5728.562273750783
 30
0.0
 11
792.2531743622121
 21
6178.562273750784
 31
0.0
 70
    32
 71
     5
 42
900.0000000000008
  3
IGA
100
AcDbAlignedDimension
 13
1058.605211603564
 23
6628.562273750784
 33
0.0
 14
1058.605211603564
 24
5728.562273750783
 34
0.0
 50
90.0
100
AcDbRotatedDimension
1001
ACAD
1000
DSTYLE
1002
{
1070
    40
1040
35.0
1070
   143
1040
0.039
1070
   172
1070
     1
1070
   271
1070
     4
1070
   272
1070
     4
1070
   279
1070
     0
1070
   284
1070
     0
1070
   285
1070
     0
1070
   286
1070
     0
1070
   341
1005
83F9
1070
   343
1005
83F9
1070
   344
1005
83F9
1002
}
  0
DIMENSION
  5
8584
330
83E6
100
AcDbEntity
  8
3
100
AcDbDimension
  2
*D49
 10
3318.605211603564
 20
5437.317081656836
 30
0.0
 11
2188.605211603564
 21
5524.817081656836
 31
0.0
 70
    32
 71
     5
 42
2260.0
  3
IGA
100
AcDbAlignedDimension
 13
1058.605211603564
 23
5728.562273750783
 33
0.0
 14
3318.605211603564
 24
5728.562273750783
 34
0.0
100
AcDbRotatedDimension
1001
ACAD
1000
DSTYLE
1002
{
1070
    40
1040
35.0
1070
   143
1040
0.039
1070
   172
1070
     1
1070
   271
1070
     4
1070
   272
1070
     4
1070
   279
1070
     0
1070
   284
1070
     0
1070
   285
1070
     0
1070
   286
1070
     0
1070
   341
1005
83F9
1070
   343
1005
83F9
1070
   344
1005
83F9
1002
}
  0
DIMENSION
  5
8591
330
83E6
100
AcDbEntity
  8
3
100
AcDbDimension
  2
*D50
 10
3418.605211603564
 20
5033.580333506538
 30
0.0
 11
2238.605211603565
 21
5121.080333506538
 31
0.0
 70
    32
 71
     5
 42
2359.999999999999
  3
IGA
100
AcDbAlignedDimension
 13
1058.605211603565
 23
2545.572834317823
 33
0.0
 14
3418.605211603564
 24
3780.572834317823
 34
0.0
100
AcDbRotatedDimension
1001
ACAD
1000
DSTYLE
1002
{
1070
    40
1040
35.0
1070
   143
1040
0.039
1070
   172
1070
     1
1070
   271
1070
     4
1070
   272
1070
     4
1070
   279
1070
     0
1070
   284
1070
     0
1070
   285
1070
     0
1070
   286
1070
     0
1070
   341
1005
83F9
1070
   343
1005
83F9
1070
   344
1005
83F9
1002
}
  0
DIMENSION
  5
859E
330
83E6
100
AcDbEntity
  8
3
100
AcDbDimension
  2
*D51
 10
2658.605211603564
 20
4806.000164564144
 30
0.0
 11
3038.605211603564
 21
4893.500164564144
 31
0.0
 70
    32
 71
     5
 42
760.0
  3
IGA
100
AcDbAlignedDimension
 13
3418.605211603564
 23
3780.572834317823
 33
0.0
 14
2658.605211603564
 24
4641.641027998224
 34
0.0
100
AcDbRotatedDimension
1001
ACAD
1000
DSTYLE
1002
{
1070
    40
1040
35.0
1070
   143
1040
0.039
1070
   172
1070
     1
1070
   271
1070
     4
1070
   272
1070
     4
1070
   279
1070
     0
1070
   284
1070
     0
1070
   285
1070
     0
1070
   286
1070
     0
1070
   341
1005
83F9
1070
   343
1005
83F9
1070
   344
1005
83F9
1002
}
  0
DIMENSION
  5
85AB
330
83E6
100
AcDbEntity
  8
3
100
AcDbDimension
  2
*D52
 10
1689.605211603564
 20
4806.000164564144
 30
0.0
 11
2174.105211603564
 21
4893.500164564144
 31
0.0
 70
    32
 71
     5
 42
969.0
  3
IGA
100
AcDbAlignedDimension
 13
2658.605211603564
 23
4641.641027998224
 33
0.0
 14
1689.605211603564
 24
3693.572834317823
 34
0.0
100
AcDbRotatedDimension
1001
ACAD
1000
DSTYLE
1002
{
1070
    40
1040
35.0
1070
   143
1040
0.039
1070
   172
1070
     1
1070
   271
1070
     4
1070
   272
1070
     4
1070
   279
1070
     1
1070
   284
1070
     0
1070
   285
1070
     0
1070
   286
1070
     0
1070
   341
1005
83F9
1070
   343
1005
83F9
1070
   344
1005
83F9
1002
}
  0
DIMENSION
  5
85B8
330
83E6
100
AcDbEntity
  8
3
100
AcDbDimension
  2
*D53
 10
3618.713527887829
 20
2577.572834317823
 30
0.0
 11
3531.21352788783
 21
3152.572834317825
 31
0.0
 70
    32
 71
     5
 42
1150.000000000001
  3
IGA
100
AcDbAlignedDimension
 13
3418.605211603564
 23
3727.572834317824
 33
0.0
 14
3418.605211603564
 24
2577.572834317823
 34
0.0
 50
90.0
100
AcDbRotatedDimension
1001
ACAD
1000
DSTYLE
1002
{
1070
    40
1040
35.0
1070
   143
1040
0.039
1070
   172
1070
     1
1070
   271
1070
     4
1070
   272
1070
     4
1070
   279
1070
     0
1070
   284
1070
     0
1070
   285
1070
     0
1070
   286
1070
     0
1070
   341
1005
83F9
1070
   343
1005
83F9
1070
   344
1005
83F9
1002
}
  0
DIMENSION
  5
85C5
330
83E6
100
AcDbEntity
  8
3
100
AcDbDimension
  2
*D54
 10
3818.865178749332
 20
3775.572834317824
 30
0.0
 11
3731.365178749332
 21
3176.572834317824
 31
0.0
 70
    32
 71
     5
 42
1198.0
  3
IGA
100
AcDbAlignedDimension
 13
3418.605211603564
 23
2577.572834317823
 33
0.0
 14
3565.38586305654
 24
3775.572834317824
 34
0.0
 50
90.0
100
AcDbRotatedDimension
1001
ACAD
1000
DSTYLE
1002
{
1070
    40
1040
35.0
1070
   143
1040
0.039
1070
   172
1070
     1
1070
   271
1070
     4
1070
   272
1070
     4
1070
   279
1070
     0
1070
   284
1070
     0
1070
   285
1070
     0
1070
   286
1070
     0
1070
   341
1005
83F9
1070
   343
1005
83F9
1070
   344
1005
83F9
1002
}
  0
DIMENSION
  5
85D2
330
83E6
100
AcDbEntity
  8
3
100
AcDbDimension
  2
*D55
 10
4022.81512547514
 20
3775.572834317824
 30
0.0
 11
3935.31512547514
 21
4178.072834317824
 31
0.0
 70
    32
 71
     5
 42
805.0000000000004
  3
IGA
100
AcDbAlignedDimension
 13
2576.605211603564
 23
4580.572834317823
 33
0.0
 14
3565.38586305654
 24
3775.572834317824
 34
0.0
 50
90.0
100
AcDbRotatedDimension
1001
ACAD
1000
DSTYLE
1002
{
1070
    40
1040
35.0
1070
   143
1040
0.039
1070
   172
1070
     1
1070
   271
1070
     4
1070
   272
1070
     4
1070
   279
1070
     0
1070
   284
1070
     0
1070
   285
1070
     0
1070
   286
1070
     0
1070
   341
1005
83F9
1070
   343
1005
83F9
1070
   344
1005
83F9
1002
}
  0
DIMENSION
  5
85DF
330
83E6
100
AcDbEntity
  8
3
100
AcDbDimension
  2
*D56
 10
4022.81512547514
 20
2420.572834317823
 30
0.0
 11
3935.315125475139
 21
3098.072834317824
 31
0.0
 70
    32
 71
     5
 42
1355.0
  3
IGA
100
AcDbAlignedDimension
 13
3565.38586305654
 23
3775.572834317824
 33
0.0
 14
3318.605211603564
 24
2420.572834317823
 34
0.0
 50
90.0
100
AcDbRotatedDimension
1001
ACAD
1000
DSTYLE
1002
{
1070
    40
1040
35.0
1070
   143
1040
0.039
1070
   172
1070
     1
1070
   271
1070
     4
1070
   272
1070
     4
1070
   279
1070
     1
1070
   284
1070
     0
1070
   285
1070
     0
1070
   286
1070
     0
1070
   341
1005
83F9
1070
   343
1005
83F9
1070
   344
1005
83F9
1002
}
  0
DIMENSION
  5
85EC
330
83E6
100
AcDbEntity
  8
3
100
AcDbDimension
  2
*D57
 10
4022.81512547514
 20
2315.572834317823
 30
0.0
 11
4235.315125475139
 21
2501.322834317824
 31
0.0
 70
    32
  1
(<>)
 71
     5
 42
105.0
  3
IGA
100
AcDbAlignedDimension
 13
3318.605211603564
 23
2420.572834317823
 33
0.0
 14
3318.605211603564
 24
2315.572834317823
 34
0.0
 50
90.0
100
AcDbRotatedDimension
1001
ACAD
1000
DSTYLE
1002
{
1070
    40
1040
35.0
1070
   143
1040
0.039
1070
   172
1070
     1
1070
   271
1070
     4
1070
   272
1070
     4
1070
   279
1070
     1
1070
   284
1070
     0
1070
   285
1070
     0
1070
   286
1070
     0
1070
   341
1005
83F9
1070
   343
1005
83F9
1070
   344
1005
86C0
1002
}
  0
DIMENSION
  5
85FE
330
83E6
100
AcDbEntity
  8
3
100
AcDbDimension
  2
*D58
 10
4022.81512547514
 20
2250.572834317823
 30
0.0
 11
4022.81512547514
 21
2110.572834317823
 31
0.0
 70
   160
 71
     5
 42
65.0
  3
IGA
100
AcDbAlignedDimension
 13
3318.605211603564
 23
2315.572834317823
 33
0.0
 14
3318.605211603564
 24
2250.572834317823
 34
0.0
 50
90.0
100
AcDbRotatedDimension
1001
ACAD
1000
DSTYLE
1002
{
1070
    40
1040
35.0
1070
   143
1040
0.039
1070
   172
1070
     1
1070
   271
1070
     4
1070
   272
1070
     4
1070
   279
1070
     1
1070
   284
1070
     0
1070
   285
1070
     0
1070
   286
1070
     0
1070
   341
1005
83F9
1070
   343
1005
86C0
1070
   344
1005
83F9
1002
}
  0
DIMENSION
  5
8610
330
83E6
100
AcDbEntity
  8
3
100
AcDbDimension
  2
*D59
 10
4386.835949180691
 20
2250.572834317823
 30
0.0
 11
4271.83594918069
 21
3415.572834317824
 31
0.0
 70
    32
  1
(<>)
 71
     5
 42
2330.0
  3
IGA
100
AcDbAlignedDimension
 13
2576.605211603564
 23
4580.572834317823
 33
0.0
 14
3318.605211603564
 24
2250.572834317823
 34
0.0
 50
90.0
100
AcDbRotatedDimension
1001
ACAD
1000
DSTYLE
1002
{
1070
    40
1040
35.0
1070
   143
1040
0.039
1070
   172
1070
     1
1070
   271
1070
     4
1070
   272
1070
     4
1070
   279
1070
     0
1070
   284
1070
     0
1070
   285
1070
     0
1070
   286
1070
     0
1070
   341
1005
83F9
1070
   343
1005
83F9
1070
   344
1005
83F9
1002
}
  0
DIMENSION
  5
872B
330
83E6
100
AcDbEntity
  8
3
100
AcDbDimension
  2
*D61
 10
2658.605211603564
 20
2011.993710778868
 30
0.0
 11
1858.605211603564
 21
2099.493710778868
 31
0.0
 70
    32
 71
     5
 42
1599.999999999998
  3
IGA
100
AcDbAlignedDimension
 13
1058.605211603565
 23
2250.572834317823
 33
0.0
 14
2658.605211603564
 24
2250.572834317823
 34
0.0
100
AcDbRotatedDimension
1001
ACAD
1000
DSTYLE
1002
{
1070
    40
1040
35.0
1070
   143
1040
0.039
1070
   172
1070
     1
1070
   271
1070
     4
1070
   272
1070
     4
1070
   279
1070
     0
1070
   284
1070
     0
1070
   285
1070
     0
1070
   286
1070
     0
1070
   341
1005
83F9
1070
   343
1005
83F9
1070
   344
1005
83F9
1002
}
  0
DIMENSION
  5
8738
330
83E6
100
AcDbEntity
  8
3
100
AcDbDimension
  2
*D62
 10
3318.605211603564
 20
2011.993710778868
 30
0.0
 11
2988.605211603564
 21
2099.493710778868
 31
0.0
 70
    32
 71
     5
 42
660.0
  3
IGA
100
AcDbAlignedDimension
 13
2658.605211603564
 23
2250.572834317823
 33
0.0
 14
3318.605211603564
 24
2250.572834317823
 34
0.0
100
AcDbRotatedDimension
1001
ACAD
1000
DSTYLE
1002
{
1070
    40
1040
35.0
1070
   143
1040
0.039
1070
   172
1070
     1
1070
   271
1070
     4
1070
   272
1070
     4
1070
   279
1070
     1
1070
   284
1070
     0
1070
   285
1070
     0
1070
   286
1070
     0
1070
   341
1005
83F9
1070
   343
1005
83F9
1070
   344
1005
83F9
1002
}
  0
ENDSEC
  0
SECTION
  2
OBJECTS
  0
DICTIONARY
  5
8383
330
0
100
AcDbDictionary
281
     1
  3
ACAD_CIP_PREVIOUS_PRODUCT_INFO
350
842F
  3
ACAD_COLOR
350
83D9
  3
ACAD_DETAILVIEWSTYLE
350
83E0
  3
ACAD_GROUP
350
8384
  3
ACAD_LAYOUT
350
83D8
  3
ACAD_MATERIAL
350
8387
  3
ACAD_MLEADERSTYLE
350
83DC
  3
ACAD_MLINESTYLE
350
83D5
  3
ACAD_PLOTSETTINGS
350
83D7
  3
ACAD_PLOTSTYLENAME
350
8385
  3
ACAD_SCALELIST
350
83B9
  3
ACAD_SECTIONVIEWSTYLE
350
83DE
  3
ACAD_TABLESTYLE
350
83DA
  3
ACAD_VISUALSTYLE
350
83A0
  3
ACDB_RECOMPOSE_DATA
350
879D
  3
AcDbVariableDictionary
350
874F
  3
DWGPROPS
350
879E
  0
DICTIONARY
  5
8745
330
83CB
100
AcDbDictionary
280
     1
281
     1
  3
ADSK_XREC_LAYER_RECONCILED
360
8746
  0
DICTIONARY
  5
8747
330
83EA
100
AcDbDictionary
280
     1
281
     1
  3
ADSK_XREC_LAYER_RECONCILED
360
8748
  0
DICTIONARY
  5
8749
330
83ED
100
AcDbDictionary
280
     1
281
     1
  3
ADSK_XREC_LAYER_RECONCILED
360
874A
  0
DICTIONARY
  5
874B
330
83EE
100
AcDbDictionary
280
     1
281
     1
  3
ADSK_XREC_LAYER_RECONCILED
360
874C
  0
DICTIONARY
  5
874D
330
83EF
100
AcDbDictionary
280
     1
281
     1
  3
ADSK_XREC_LAYER_RECONCILED
360
874E
  0
DICTIONARY
  5
844E
330
83E6
100
AcDbDictionary
280
     1
281
     1
  3
ACAD_SORTENTS
360
844F
  0
XRECORD
  5
842F
102
{ACAD_REACTORS
330
8383
102
}
330
8383
100
AcDbXrecord
280
     1
300
ACDLT
300
2015
300
INVLTS_F_S
  0
DICTIONARY
  5
83D9
102
{ACAD_REACTORS
330
8383
102
}
330
8383
100
AcDbDictionary
281
     1
  0
DICTIONARY
  5
83E0
102
{ACAD_REACTORS
330
8383
102
}
330
8383
100
AcDbDictionary
281
     1
  3
Imperial24
350
83E1
  0
DICTIONARY
  5
8384
102
{ACAD_REACTORS
330
8383
102
}
330
8383
100
AcDbDictionary
281
     1
  0
DICTIONARY
  5
83D8
102
{ACAD_REACTORS
330
8383
102
}
330
8383
100
AcDbDictionary
281
     1
  3
Model
350
83E9
  3
レイアウト1
350
83E5
  0
DICTIONARY
  5
8387
102
{ACAD_REACTORS
330
8383
102
}
330
8383
100
AcDbDictionary
281
     1
  3
ByBlock
350
8390
  3
ByLayer
350
8388
  3
Global
350
8398
  0
DICTIONARY
  5
83DC
102
{ACAD_REACTORS
330
8383
102
}
330
8383
100
AcDbDictionary
281
     1
  3
Standard
350
83DD
  0
DICTIONARY
  5
83D5
102
{ACAD_REACTORS
330
8383
102
}
330
8383
100
AcDbDictionary
281
     1
  3
Standard
350
83D6
  0
DICTIONARY
  5
83D7
102
{ACAD_REACTORS
330
8383
102
}
330
8383
100
AcDbDictionary
281
     1
  0
ACDBDICTIONARYWDFLT
  5
8385
102
{ACAD_REACTORS
330
8383
102
}
330
8383
100
AcDbDictionary
281
     1
  3
Normal
350
8386
100
AcDbDictionaryWithDefault
340
8386
  0
DICTIONARY
  5
83B9
102
{ACAD_REACTORS
330
8383
102
}
330
8383
100
AcDbDictionary
281
     1
  3
A0
350
83BA
  3
A1
350
83BB
  3
A2
350
83BC
  3
A3
350
83BD
  3
A4
350
83BE
  3
A5
350
83BF
  3
A6
350
83C0
  3
A7
350
83C1
  3
A8
350
83C2
  3
A9
350
83C3
  3
B0
350
83C4
  3
B1
350
83C5
  3
B2
350
83C6
  3
B3
350
83C7
  3
B4
350
83C8
  3
B5
350
83C9
  3
B6
350
83CA
  0
DICTIONARY
  5
83DE
102
{ACAD_REACTORS
330
8383
102
}
330
8383
100
AcDbDictionary
281
     1
  3
Imperial24
350
83DF
  0
DICTIONARY
  5
83DA
102
{ACAD_REACTORS
330
8383
102
}
330
8383
100
AcDbDictionary
281
     1
  3
Standard
350
83DB
  0
DICTIONARY
  5
83A0
102
{ACAD_REACTORS
330
8383
102
}
330
8383
100
AcDbDictionary
281
     1
  3
2dWireframe
350
83A6
  3
Basic
350
83A5
  3
Brighten
350
83AC
  3
ColorChange
350
83B0
  3
Conceptual
350
83A9
  3
Dim
350
83AB
  3
EdgeColorOff
350
83B8
  3
Facepattern
350
83AF
  3
Flat
350
83A1
  3
FlatWithEdges
350
83A2
  3
Gouraud
350
83A3
  3
GouraudWithEdges
350
83A4
  3
Hidden
350
83A8
  3
JitterOff
350
83B6
  3
Linepattern
350
83AE
  3
OverhangOff
350
83B7
  3
Realistic
350
83AA
  3
Shaded
350
83B5
  3
Shaded with edges
350
83B4
  3
Shades of Gray
350
83B1
  3
Sketchy
350
83B2
  3
Thicken
350
83AD
  3
Wireframe
350
83A7
  3
X-Ray
350
83B3
  0
XRECORD
  5
879D
102
{ACAD_REACTORS
330
8383
102
}
330
8383
100
AcDbXrecord
280
     1
 90
        1
330
83DB
  0
DICTIONARY
  5
874F
102
{ACAD_REACTORS
330
8383
102
}
330
8383
100
AcDbDictionary
281
     1
  3
CANNOSCALE
350
8754
  3
CMLEADERSTYLE
350
8751
  3
CTABLESTYLE
350
8750
  3
CVIEWDETAILSTYLE
350
8752
  3
CVIEWSECTIONSTYLE
350
8753
  3
DIMASSOC
350
8757
  3
INDEXCTL
350
8756
  3
SORTENTS
350
8755
  3
XCLIPFRAME
350
8758
  0
XRECORD
  5
879E
102
{ACAD_REACTORS
330
8383
102
}
330
8383
100
AcDbXrecord
280
     1
  1
DWGPROPS COOKIE
  2

  3

  4

  6

  7

  8
yasukiyo.ogawa
  9

300
=
301
=
302
=
303
=
304
=
305
=
306
=
307
=
308
=
309
=
 40
0.0385115856481482
 41
2451390.436124884
 42
2460273.627201667
  1

 90
        0
  0
XRECORD
  5
8746
102
{ACAD_REACTORS
330
8745
102
}
330
8745
100
AcDbXrecord
280
     1
290
     1
  0
XRECORD
  5
8748
102
{ACAD_REACTORS
330
8747
102
}
330
8747
100
AcDbXrecord
280
     1
290
     1
  0
XRECORD
  5
874A
102
{ACAD_REACTORS
330
8749
102
}
330
8749
100
AcDbXrecord
280
     1
290
     1
  0
XRECORD
  5
874C
102
{ACAD_REACTORS
330
874B
102
}
330
874B
100
AcDbXrecord
280
     1
290
     1
  0
XRECORD
  5
874E
102
{ACAD_REACTORS
330
874D
102
}
330
874D
100
AcDbXrecord
280
     1
290
     1
  0
SORTENTSTABLE
  5
844F
102
{ACAD_REACTORS
330
844E
102
}
330
844E
100
AcDbSortentsTable
330
83E6
331
7CD2
  5
7CD4
331
7CC1
  5
7CC3
331
7CB0
  5
7CB2
331
7F45
  5
7F47
331
7F3D
  5
7F3F
331
7C9F
  5
7CA1
331
7C85
  5
7C87
331
7C63
  5
7C65
331
7C52
  5
7C57
331
7C30
  5
7C30
331
7C1F
  5
7C1F
331
7F46
  5
7F48
331
7CD3
  5
7CD5
331
7CC2
  5
7CC4
331
7CB1
  5
7CB3
331
7CA0
  5
7CA2
331
7F3E
  5
7F41
331
7C86
  5
7C88
331
7C75
  5
7C79
331
7C64
  5
7C66
331
7C42
  5
7C44
331
7C31
  5
7C31
331
7F47
  5
7F49
331
7CD4
  5
7CD6
331
7CC3
  5
7CC5
331
7CB2
  5
7CB4
331
7CA1
  5
7CA5
331
7F3F
  5
7F42
331
7C87
  5
7C89
331
7C65
  5
7C67
331
7C43
  5
7C45
331
7C32
  5
7C32
331
7C21
  5
7C21
331
7F48
  5
7F4A
331
7CD5
  5
7CD7
331
7CC4
  5
7CC6
331
7CB3
  5
7CB5
331
7CA2
  5
7CA6
331
7C88
  5
7C8A
331
7C66
  5
7C68
331
7C44
  5
7C46
331
7C33
  5
7C33
331
7C22
  5
7C22
331
7F49
  5
7F4B
331
7CD6
  5
7CD8
331
7CC5
  5
7CC7
331
7C92
  5
7C94
331
7C89
  5
7C8B
331
7C78
  5
7C7A
331
7C67
  5
7C6A
331
7C56
  5
7C58
331
7C45
  5
7C47
331
7C34
  5
7C34
331
7C23
  5
7C23
331
7F4A
  5
7F4C
331
7CD7
  5
7CD9
331
7CC6
  5
7CC8
331
7C93
  5
7C95
331
7C8A
  5
7C8C
331
7C79
  5
7C7B
331
7C68
  5
7C6B
331
7C57
  5
7C59
331
7C46
  5
7C48
331
7C35
  5
7C35
331
7C24
  5
7C24
331
7F4B
  5
7F4D
331
7CD8
  5
7CDA
331
7CC7
  5
7CC9
331
7CA5
  5
7CA7
331
7C94
  5
7C97
331
7C8B
  5
7C8D
331
7C7A
  5
7C7C
331
7C58
  5
7C5A
331
7C47
  5
7C49
331
7C36
  5
7C36
331
7C25
  5
7C25
331
7F4C
  5
7F4E
331
7CD9
  5
7CDB
331
7CC8
  5
7CCA
331
7CA6
  5
7CA8
331
7C95
  5
7C98
331
7C8C
  5
7C8E
331
7C7B
  5
7C7D
331
7C6A
  5
7C6C
331
7C59
  5
7C5B
331
7C48
  5
7C4B
331
7C37
  5
7C39
331
7C26
  5
7C26
331
7F4D
  5
7F4F
331
7CEB
  5
7CED
331
7CDA
  5
7CDC
331
7CC9
  5
7CCB
331
7CA7
  5
7CA9
331
7C8D
  5
7C90
331
7C7C
  5
7C7E
331
7C6B
  5
7C6F
331
7C5A
  5
7C5F
331
7C49
  5
7C4C
331
7C38
  5
7C3A
331
7C27
  5
7C27
331
7C39
  5
7C3B
331
7C6C
  5
7C70
331
7C5B
  5
7C60
331
7F4E
  5
7F50
331
7F35
  5
7F37
331
7CEC
  5
7CEE
331
7CDB
  5
7CDD
331
7CCA
  5
7CCC
331
7CA8
  5
7CAA
331
7C97
  5
7C99
331
7C7D
  5
7C7F
331
7C28
  5
7C28
331
7F4F
  5
7F51
331
7F36
  5
7F3A
331
7CED
  5
7CEF
331
7CDC
  5
7CE4
331
7CCB
  5
7CCD
331
7CA9
  5
7CAB
331
7C98
  5
7C9A
331
7C7E
  5
7C80
331
7C3A
  5
7C3C
331
7C29
  5
7C29
331
7F50
  5
7F52
331
7F37
  5
7F3B
331
7CEE
  5
7CF0
331
7CDD
  5
7CE5
331
7CCC
  5
7CCE
331
7CAA
  5
7CAC
331
7C99
  5
7C9B
331
7C7F
  5
7C81
331
7C3B
  5
7C3D
331
7C2A
  5
7C2A
331
7F51
  5
7F53
331
7CEF
  5
7CF1
331
7CCD
  5
7CCF
331
7CBC
  5
7CBE
331
7CAB
  5
7CAD
331
7C9A
  5
7C9D
331
7C80
  5
7C82
331
7C6F
  5
7C71
331
7C3C
  5
7C3E
331
7C2B
  5
7C2B
331
7F52
  5
8156
331
7F41
  5
7F43
331
7CF0
  5
7CF2
331
7C3D
  5
7C3F
331
7C5F
  5
7C61
331
7C4E
  5
7C50
331
7CCE
  5
7CD0
331
7CBD
  5
7CBF
331
7C9B
  5
7C9F
331
7C81
  5
7C83
331
7C70
  5
7C72
331
7C2C
  5
7C2C
331
7F42
  5
7F44
331
7CF1
  5
7CF3
331
7F53
  5
8163
331
7F3A
  5
7F3C
331
7CCF
  5
7CD1
331
7CBE
  5
7CC0
331
7CAD
  5
7CAF
331
7C82
  5
7C84
331
7C71
  5
7C73
331
7C60
  5
7C62
331
7C4F
  5
7C51
331
7C3E
  5
7C40
331
7C2D
  5
7C2D
331
7F43
  5
7F45
331
7CF2
  5
7F35
331
7CD0
  5
7CD2
331
7F3B
  5
7F3D
331
7CBF
  5
7CC1
331
7CAE
  5
7CB0
331
7C9D
  5
7CA0
331
7C83
  5
7C85
331
7C72
  5
7C75
331
7C61
  5
7C63
331
7C50
  5
7C52
331
7C3F
  5
7C42
331
7C2E
  5
7C2E
331
7F44
  5
7F46
331
7CF3
  5
7F36
331
7CD1
  5
7CD3
331
7CC0
  5
7CC2
331
7F3C
  5
7F3E
331
7CAF
  5
7CB1
331
7C84
  5
7C86
331
7C73
  5
7C78
331
7C62
  5
7C64
331
7C51
  5
7C56
331
7C40
  5
7C43
331
7C2F
  5
7C2F
  0
ACDBDETAILVIEWSTYLE
  5
83E1
102
{ACAD_XDICTIONARY
360
87D6
102
}
102
{ACAD_REACTORS
330
83E0
102
}
330
83E0
100
AcDbModelDocViewStyle
 70
     0
  3
Imperial24
290
     0
100
AcDbDetailViewStyle
 70
     0
 71
     0
 90
        3
 71
     1
340
83CC
 40
0.24
340
0
 40
0.24
300

 40
0.36
280
     3
 71
     2
340
83D3
 90
       25
 71
     3
340
83CC
 40
0.24
 90
        1
 40
0.75
 90
        1
300
%<\AcVar ViewType \f "%tc1">% %<\AcVar ViewDetailId>%\PSCALE %<\AcVar ViewScale \f "%sn">%
 71
     4
340
83D3
 90
       25
340
83D3
 90
       25
280
     0
  0
LAYOUT
  5
83E9
102
{ACAD_XDICTIONARY
360
87DA
102
}
102
{ACAD_REACTORS
330
83D8
102
}
330
83D8
100
AcDbPlotSettings
  1

  2
RICOH imagio MP W3600 RPCS
  4

  6

 40
0.0
 41
0.0
 42
0.0
 43
0.0
 44
0.0
 45
0.0
 46
0.0
 47
0.0
 48
0.0
 49
0.0
140
0.0
141
0.0
142
1.0
143
1.0
 70
  1712
 72
     0
 73
     0
 74
     0
  7

 75
     0
147
1.0
148
0.0
149
0.0
100
AcDbLayout
  1
Model
 70
     1
 71
     0
 10
0.0
 20
0.0
 11
12.0
 21
9.0
 12
0.0
 22
0.0
 32
0.0
 14
0.0
 24
0.0
 34
0.0
 15
0.0
 25
0.0
 35
0.0
146
0.0
 13
0.0
 23
0.0
 33
0.0
 16
1.0
 26
0.0
 36
0.0
 17
0.0
 27
1.0
 37
0.0
 76
     0
330
83E6
331
83EB
  0
LAYOUT
  5
83E5
102
{ACAD_XDICTIONARY
360
87D8
102
}
102
{ACAD_REACTORS
330
83D8
102
}
330
83D8
100
AcDbPlotSettings
  1

  2
RICOH imagio MP W3600 RPCS
  4

  6

 40
0.0
 41
0.0
 42
0.0
 43
0.0
 44
0.0
 45
0.0
 46
0.0
 47
0.0
 48
0.0
 49
0.0
140
0.0
141
0.0
142
1.0
143
1.0
 70
   688
 72
     0
 73
     0
 74
     5
  7

 75
    16
147
1.0
148
0.0
149
0.0
100
AcDbLayout
  1
レイアウト1
 70
     1
 71
     1
 10
0.0
 20
0.0
 11
12.0
 21
9.0
 12
0.0
 22
0.0
 32
0.0
 14
1.000000000000000E+20
 24
1.000000000000000E+20
 34
1.000000000000000E+20
 15
-1.000000000000000E+20
 25
-1.000000000000000E+20
 35
-1.000000000000000E+20
146
0.0
 13
0.0
 23
0.0
 33
0.0
 16
1.0
 26
0.0
 36
0.0
 17
0.0
 27
1.0
 37
0.0
 76
     0
330
83E2
  0
MATERIAL
  5
8390
102
{ACAD_XDICTIONARY
360
8391
102
}
102
{ACAD_REACTORS
330
8387
102
}
330
8387
100
AcDbMaterial
  1
ByBlock
 72
     0
 43
0.0208333333333333
 43
0.0
 43
0.0
 43
0.0
 43
0.0
 43
0.0208333333333333
 43
0.0
 43
0.0
 43
0.0
 43
0.0
 43
1.0
 43
0.0
 43
0.0
 43
0.0
 43
0.0
 43
1.0
 77
     0
 47
0.0208333333333333
 47
0.0
 47
0.0
 47
0.0
 47
0.0
 47
0.0208333333333333
 47
0.0
 47
0.0
 47
0.0
 47
0.0
 47
1.0
 47
0.0
 47
0.0
 47
0.0
 47
0.0
 47
1.0
171
     0
 49
0.0208333333333333
 49
0.0
 49
0.0
 49
0.0
 49
0.0
 49
0.0208333333333333
 49
0.0
 49
0.0
 49
0.0
 49
0.0
 49
1.0
 49
0.0
 49
0.0
 49
0.0
 49
0.0
 49
1.0
175
     0
142
0.0208333333333333
142
0.0
142
0.0
142
0.0
142
0.0
142
0.0208333333333333
142
0.0
142
0.0
142
0.0
142
0.0
142
1.0
142
0.0
142
0.0
142
0.0
142
0.0
142
1.0
179
     0
144
0.0208333333333333
144
0.0
144
0.0
144
0.0
144
0.0
144
0.0208333333333333
144
0.0
144
0.0
144
0.0
144
0.0
144
1.0
144
0.0
144
0.0
144
0.0
144
0.0
144
1.0
147
0.0208333333333333
147
0.0
147
0.0
147
0.0
147
0.0
147
0.0208333333333333
147
0.0
147
0.0
147
0.0
147
0.0
147
1.0
147
0.0
147
0.0
147
0.0
147
0.0
147
1.0
  0
MATERIAL
  5
8388
102
{ACAD_XDICTIONARY
360
8389
102
}
102
{ACAD_REACTORS
330
8387
102
}
330
8387
100
AcDbMaterial
  1
ByLayer
 72
     0
 43
0.0208333333333333
 43
0.0
 43
0.0
 43
0.0
 43
0.0
 43
0.0208333333333333
 43
0.0
 43
0.0
 43
0.0
 43
0.0
 43
1.0
 43
0.0
 43
0.0
 43
0.0
 43
0.0
 43
1.0
 77
     0
 47
0.0208333333333333
 47
0.0
 47
0.0
 47
0.0
 47
0.0
 47
0.0208333333333333
 47
0.0
 47
0.0
 47
0.0
 47
0.0
 47
1.0
 47
0.0
 47
0.0
 47
0.0
 47
0.0
 47
1.0
171
     0
 49
0.0208333333333333
 49
0.0
 49
0.0
 49
0.0
 49
0.0
 49
0.0208333333333333
 49
0.0
 49
0.0
 49
0.0
 49
0.0
 49
1.0
 49
0.0
 49
0.0
 49
0.0
 49
0.0
 49
1.0
175
     0
142
0.0208333333333333
142
0.0
142
0.0
142
0.0
142
0.0
142
0.0208333333333333
142
0.0
142
0.0
142
0.0
142
0.0
142
1.0
142
0.0
142
0.0
142
0.0
142
0.0
142
1.0
179
     0
144
0.0208333333333333
144
0.0
144
0.0
144
0.0
144
0.0
144
0.0208333333333333
144
0.0
144
0.0
144
0.0
144
0.0
144
1.0
144
0.0
144
0.0
144
0.0
144
0.0
144
1.0
147
0.0208333333333333
147
0.0
147
0.0
147
0.0
147
0.0
147
0.0208333333333333
147
0.0
147
0.0
147
0.0
147
0.0
147
1.0
147
0.0
147
0.0
147
0.0
147
0.0
147
1.0
  0
MATERIAL
  5
8398
102
{ACAD_XDICTIONARY
360
8399
102
}
102
{ACAD_REACTORS
330
8387
102
}
330
8387
100
AcDbMaterial
  1
Global
 72
     0
 43
0.0208333333333333
 43
0.0
 43
0.0
 43
0.0
 43
0.0
 43
0.0208333333333333
 43
0.0
 43
0.0
 43
0.0
 43
0.0
 43
1.0
 43
0.0
 43
0.0
 43
0.0
 43
0.0
 43
1.0
 77
     0
 47
0.0208333333333333
 47
0.0
 47
0.0
 47
0.0
 47
0.0
 47
0.0208333333333333
 47
0.0
 47
0.0
 47
0.0
 47
0.0
 47
1.0
 47
0.0
 47
0.0
 47
0.0
 47
0.0
 47
1.0
171
     0
 49
0.0208333333333333
 49
0.0
 49
0.0
 49
0.0
 49
0.0
 49
0.0208333333333333
 49
0.0
 49
0.0
 49
0.0
 49
0.0
 49
1.0
 49
0.0
 49
0.0
 49
0.0
 49
0.0
 49
1.0
175
     0
142
0.0208333333333333
142
0.0
142
0.0
142
0.0
142
0.0
142
0.0208333333333333
142
0.0
142
0.0
142
0.0
142
0.0
142
1.0
142
0.0
142
0.0
142
0.0
142
0.0
142
1.0
179
     0
144
0.0208333333333333
144
0.0
144
0.0
144
0.0
144
0.0
144
0.0208333333333333
144
0.0
144
0.0
144
0.0
144
0.0
144
1.0
144
0.0
144
0.0
144
0.0
144
0.0
144
1.0
147
0.0208333333333333
147
0.0
147
0.0
147
0.0
147
0.0
147
0.0208333333333333
147
0.0
147
0.0
147
0.0
147
0.0
147
1.0
147
0.0
147
0.0
147
0.0
147
0.0
147
1.0
  0
MLEADERSTYLE
  5
83DD
102
{ACAD_REACTORS
330
83DC
102
}
330
83DC
100
AcDbMLeaderStyle
170
     2
171
     1
172
     0
 90
        2
 40
0.0
 41
0.0
173
     1
 91
-1056964608
340
83D1
 92
       -2
290
     1
 42
0.09
291
     1
 43
0.36
  3
Standard
 44
0.18
300

342
83CC
174
     1
178
     6
175
     1
176
     0
 93
-1056964608
 45
0.18
292
     0
297
     0
 46
0.18
 94
-1056964608
 47
1.0
 49
1.0
140
1.0
293
     1
141
0.0
294
     1
177
     0
142
1.0
295
     0
296
     0
143
0.125
1001
ACAD_MLEADERVER
1070
     2
  0
MLINESTYLE
  5
83D6
102
{ACAD_REACTORS
330
83D5
102
}
330
83D5
100
AcDbMlineStyle
  2
STANDARD
 70
     0
  3

 62
   256
 51
90.0
 52
90.0
 71
     2
 49
0.5
 62
   256
  6
BYLAYER
 49
-0.5
 62
   256
  6
BYLAYER
  0
ACDBPLACEHOLDER
  5
8386
102
{ACAD_REACTORS
330
8385
102
}
330
8385
  0
SCALE
  5
83BA
102
{ACAD_REACTORS
330
83B9
102
}
330
83B9
100
AcDbScale
 70
     0
300
1:1
140
1.0
141
1.0
290
     1
  0
SCALE
  5
83BB
102
{ACAD_REACTORS
330
83B9
102
}
330
83B9
100
AcDbScale
 70
     0
300
1/128" = 1'-0"
140
0.0078125
141
12.0
290
     0
  0
SCALE
  5
83BC
102
{ACAD_REACTORS
330
83B9
102
}
330
83B9
100
AcDbScale
 70
     0
300
1/64" = 1'-0"
140
0.015625
141
12.0
290
     0
  0
SCALE
  5
83BD
102
{ACAD_REACTORS
330
83B9
102
}
330
83B9
100
AcDbScale
 70
     0
300
1/32" = 1'-0"
140
0.03125
141
12.0
290
     0
  0
SCALE
  5
83BE
102
{ACAD_REACTORS
330
83B9
102
}
330
83B9
100
AcDbScale
 70
     0
300
1/16" = 1'-0"
140
0.0625
141
12.0
290
     0
  0
SCALE
  5
83BF
102
{ACAD_REACTORS
330
83B9
102
}
330
83B9
100
AcDbScale
 70
     0
300
3/32" = 1'-0"
140
0.09375
141
12.0
290
     0
  0
SCALE
  5
83C0
102
{ACAD_REACTORS
330
83B9
102
}
330
83B9
100
AcDbScale
 70
     0
300
1/8" = 1'-0"
140
0.125
141
12.0
290
     0
  0
SCALE
  5
83C1
102
{ACAD_REACTORS
330
83B9
102
}
330
83B9
100
AcDbScale
 70
     0
300
3/16" = 1'-0"
140
0.1875
141
12.0
290
     0
  0
SCALE
  5
83C2
102
{ACAD_REACTORS
330
83B9
102
}
330
83B9
100
AcDbScale
 70
     0
300
1/4" = 1'-0"
140
0.25
141
12.0
290
     0
  0
SCALE
  5
83C3
102
{ACAD_REACTORS
330
83B9
102
}
330
83B9
100
AcDbScale
 70
     0
300
3/8" = 1'-0"
140
0.375
141
12.0
290
     0
  0
SCALE
  5
83C4
102
{ACAD_REACTORS
330
83B9
102
}
330
83B9
100
AcDbScale
 70
     0
300
1/2" = 1'-0"
140
0.5
141
12.0
290
     0
  0
SCALE
  5
83C5
102
{ACAD_REACTORS
330
83B9
102
}
330
83B9
100
AcDbScale
 70
     0
300
3/4" = 1'-0"
140
0.75
141
12.0
290
     0
  0
SCALE
  5
83C6
102
{ACAD_REACTORS
330
83B9
102
}
330
83B9
100
AcDbScale
 70
     0
300
1" = 1'-0"
140
1.0
141
12.0
290
     0
  0
SCALE
  5
83C7
102
{ACAD_REACTORS
330
83B9
102
}
330
83B9
100
AcDbScale
 70
     0
300
1-1/2" = 1'-0"
140
1.5
141
12.0
290
     0
  0
SCALE
  5
83C8
102
{ACAD_REACTORS
330
83B9
102
}
330
83B9
100
AcDbScale
 70
     0
300
3" = 1'-0"
140
3.0
141
12.0
290
     0
  0
SCALE
  5
83C9
102
{ACAD_REACTORS
330
83B9
102
}
330
83B9
100
AcDbScale
 70
     0
300
6" = 1'-0"
140
6.0
141
12.0
290
     0
  0
SCALE
  5
83CA
102
{ACAD_REACTORS
330
83B9
102
}
330
83B9
100
AcDbScale
 70
     0
300
1'-0" = 1'-0"
140
12.0
141
12.0
290
     0
  0
ACDBSECTIONVIEWSTYLE
  5
83DF
102
{ACAD_XDICTIONARY
360
87D4
102
}
102
{ACAD_REACTORS
330
83DE
102
}
330
83DE
100
AcDbModelDocViewStyle
 70
     0
  3
Imperial24
290
     0
100
AcDbSectionViewStyle
 70
     0
 71
     0
 90
       78
 71
     1
340
83CC
 40
0.24
340
0
340
0
 40
0.24
300
I, O, Q, S, X, Z
 40
0.48
 90
        3
 40
0.18
 90
        1
 71
     2
340
83D3
 90
       25
340
83D3
 90
       50
 40
0.24
 40
0.0
 40
0.24
 71
     3
340
83CC
 40
0.24
 90
        1
 40
0.75
 90
        1
300
%<\AcVar ViewType \f "%tc1">% %<\AcVar ViewSectionStartId>%-%<\AcVar ViewSectionEndId>%\PSCALE %<\AcVar ViewScale \f "%sn">%
 71
     4
300
ANSI31
 40
1.0
 90
        0
290
     0
290
     0
 90
        6
 40
0.0
 40
1.570796326794896
 40
0.2617993877991494
 40
1.308996938995747
 40
-0.2617993877991494
 40
1.832595714594046
  0
TABLESTYLE
  5
83DB
102
{ACAD_XDICTIONARY
360
879B
102
}
102
{ACAD_REACTORS
330
83DA
102
}
330
83DA
100
AcDbTableStyle
  3
Standard
 70
     0
 71
     0
 40
0.06
 41
0.06
280
     0
281
     0
  7
STANDARD
140
0.18
170
     2
 62
     0
 63
     7
283
     0
274
    -2
284
     1
 64
     0
275
    -2
285
     1
 65
     0
276
    -2
286
     1
 66
     0
277
    -2
287
     1
 67
     0
278
    -2
288
     1
 68
     0
279
    -2
289
     1
 69
     0
  7
STANDARD
140
0.25
170
     5
 62
     0
 63
     7
283
     0
274
    -2
284
     1
 64
     0
275
    -2
285
     1
 65
     0
276
    -2
286
     1
 66
     0
277
    -2
287
     1
 67
     0
278
    -2
288
     1
 68
     0
279
    -2
289
     1
 69
     0
  7
STANDARD
140
0.18
170
     5
 62
     0
 63
     7
283
     0
274
    -2
284
     1
 64
     0
275
    -2
285
     1
 65
     0
276
    -2
286
     1
 66
     0
277
    -2
287
     1
 67
     0
278
    -2
288
     1
 68
     0
279
    -2
289
     1
 69
     0
  0
VISUALSTYLE
  5
83A6
102
{ACAD_XDICTIONARY
360
87AC
102
}
102
{ACAD_REACTORS
330
83A0
102
}
330
83A0
100
AcDbVisualStyle
  2
2dWireframe
 70
     4
 71
     0
 72
     2
 73
     0
 90
        0
 40
-0.6
 41
-30.0
 62
     5
 63
     7
 74
     1
 91
        4
 64
     7
 65
   257
 75
     1
175
     1
 42
1.0
 92
        0
 66
   257
 43
1.0
 76
     1
 77
     6
 78
     2
 67
     7
 79
     5
170
     0
171
     0
290
     0
174
     0
 93
        1
 44
0.0
173
     0
291
     0
 45
0.0
1001
ACAD
1000
AcDbSavedByObjectVersion
1070
     0
  0
VISUALSTYLE
  5
83A5
102
{ACAD_XDICTIONARY
360
87AA
102
}
102
{ACAD_REACTORS
330
83A0
102
}
330
83A0
100
AcDbVisualStyle
  2
Basic
 70
     7
 71
     1
 72
     0
 73
     1
 90
        0
 40
-0.6
 41
-30.0
 62
     5
 63
     7
 74
     0
 91
        4
 64
     7
 65
   257
 75
     1
175
     1
 42
1.0
 92
        8
 66
     7
 43
1.0
 76
     1
 77
     6
 78
     2
 67
     7
 79
     5
170
     0
171
     0
290
     0
174
     0
 93
        1
 44
0.0
173
     0
291
     1
 45
0.0
1001
ACAD
1000
AcDbSavedByObjectVersion
1070
     0
  0
VISUALSTYLE
  5
83AC
102
{ACAD_XDICTIONARY
360
87B8
102
}
102
{ACAD_REACTORS
330
83A0
102
}
330
83A0
100
AcDbVisualStyle
  2
Brighten
 70
    12
 71
     2
 72
     2
 73
     0
 90
        0
 40
-0.6
 41
-30.0
 62
     5
 63
     7
 74
     1
 91
        4
 64
     7
 65
   257
 75
     1
175
     1
 42
1.0
 92
        8
 66
     7
 43
1.0
 76
     1
 77
     6
 78
     2
 67
     7
 79
     5
170
     0
171
     0
290
     0
174
     0
 93
        1
 44
50.0
173
     0
291
     1
 45
0.0
1001
ACAD
1000
AcDbSavedByObjectVersion
1070
     0
  0
VISUALSTYLE
  5
83B0
102
{ACAD_XDICTIONARY
360
87C0
102
}
102
{ACAD_REACTORS
330
83A0
102
}
330
83A0
100
AcDbVisualStyle
  2
ColorChange
 70
    16
 71
     2
 72
     2
 73
     3
 90
        0
 40
-0.6
 41
-30.0
 62
     5
 63
     8
 74
     1
 91
        4
 64
     7
 65
   257
 75
     1
175
     1
 42
1.0
 92
        8
 66
     8
 43
1.0
 76
     1
 77
     6
 78
     2
 67
     7
 79
     5
170
     0
171
     0
290
     0
174
     0
 93
        1
 44
0.0
173
     0
291
     1
 45
0.0
1001
ACAD
1000
AcDbSavedByObjectVersion
1070
     0
  0
VISUALSTYLE
  5
83A9
102
{ACAD_XDICTIONARY
360
87B2
102
}
102
{ACAD_REACTORS
330
83A0
102
}
330
83A0
100
AcDbVisualStyle
  2
Conceptual
 70
     9
 71
     3
 72
     2
 73
     0
 90
        0
 40
-0.6
 41
-30.0
 62
     5
 63
     7
 74
     2
 91
        2
 64
     7
 65
   257
 75
     1
175
     1
 42
179.0
 92
        8
 66
     7
 43
1.0
 76
     1
 77
     6
 78
     2
 67
     7
 79
     3
170
     0
171
     0
290
     0
174
     0
 93
        1
 44
0.0
173
     0
291
     0
 45
0.0
1001
ACAD
1000
AcDbSavedByObjectVersion
1070
     0
  0
VISUALSTYLE
  5
83AB
102
{ACAD_XDICTIONARY
360
87B6
102
}
102
{ACAD_REACTORS
330
83A0
102
}
330
83A0
100
AcDbVisualStyle
  2
Dim
 70
    11
 71
     2
 72
     2
 73
     0
 90
        0
 40
-0.6
 41
-30.0
 62
     5
 63
     7
 74
     1
 91
        4
 64
     7
 65
   257
 75
     1
175
     1
 42
1.0
 92
        8
 66
     7
 43
1.0
 76
     1
 77
     6
 78
     2
 67
     7
 79
     5
170
     0
171
     0
290
     0
174
     0
 93
        1
 44
-50.0
173
     0
291
     1
 45
0.0
1001
ACAD
1000
AcDbSavedByObjectVersion
1070
     0
  0
VISUALSTYLE
  5
83B8
102
{ACAD_XDICTIONARY
360
87D0
102
}
102
{ACAD_REACTORS
330
83A0
102
}
330
83A0
100
AcDbVisualStyle
  2
EdgeColorOff
 70
    22
 71
     2
 72
     2
 73
     0
 90
        0
 40
-0.6
 41
-30.0
 62
     5
 63
     7
 74
     1
 91
        4
 64
     7
 65
   257
 75
     1
175
     1
 42
1.0
 92
        8
 66
     7
 43
1.0
 76
     1
 77
     6
 78
     2
 67
     7
 79
     5
170
     0
171
     0
290
     0
174
     0
 93
        1
 44
0.0
173
     0
291
     1
 45
0.0
1001
ACAD
1000
AcDbSavedByObjectVersion
1070
     0
  0
VISUALSTYLE
  5
83AF
102
{ACAD_XDICTIONARY
360
87BE
102
}
102
{ACAD_REACTORS
330
83A0
102
}
330
83A0
100
AcDbVisualStyle
  2
Facepattern
 70
    15
 71
     2
 72
     2
 73
     0
 90
        0
 40
-0.6
 41
-30.0
 62
     5
 63
     7
 74
     1
 91
        4
 64
     7
 65
   257
 75
     1
175
     1
 42
1.0
 92
        8
 66
     7
 43
1.0
 76
     1
 77
     6
 78
     2
 67
     7
 79
     5
170
     0
171
     0
290
     0
174
     0
 93
        1
 44
0.0
173
     0
291
     1
 45
0.0
1001
ACAD
1000
AcDbSavedByObjectVersion
1070
     0
  0
VISUALSTYLE
  5
83A1
102
{ACAD_XDICTIONARY
360
87A2
102
}
102
{ACAD_REACTORS
330
83A0
102
}
330
83A0
100
AcDbVisualStyle
  2
Flat
 70
     0
 71
     2
 72
     1
 73
     1
 90
        2
 40
-0.6
 41
30.0
 62
     5
 63
     7
 74
     0
 91
        0
 64
     7
 65
   257
 75
     1
175
     1
 42
1.0
 92
        8
 66
     7
 43
1.0
 76
     1
 77
     6
 78
     2
 67
     7
 79
     5
170
     0
171
     0
290
     0
174
     0
 93
       13
 44
0.0
173
     0
291
     1
 45
0.0
1001
ACAD
1000
AcDbSavedByObjectVersion
1070
     0
  0
VISUALSTYLE
  5
83A2
102
{ACAD_XDICTIONARY
360
87A4
102
}
102
{ACAD_REACTORS
330
83A0
102
}
330
83A0
100
AcDbVisualStyle
  2
FlatWithEdges
 70
     1
 71
     2
 72
     1
 73
     1
 90
        2
 40
-0.6
 41
30.0
 62
     5
 63
     7
 74
     1
 91
        0
 64
     7
 65
   257
 75
     1
175
     1
 42
1.0
 92
        0
 66
   257
 43
1.0
 76
     1
 77
     6
 78
     2
 67
     7
 79
     5
170
     0
171
     0
290
     0
174
     0
 93
       13
 44
0.0
173
     0
291
     1
 45
0.0
1001
ACAD
1000
AcDbSavedByObjectVersion
1070
     0
  0
VISUALSTYLE
  5
83A3
102
{ACAD_XDICTIONARY
360
87A6
102
}
102
{ACAD_REACTORS
330
83A0
102
}
330
83A0
100
AcDbVisualStyle
  2
Gouraud
 70
     2
 71
     2
 72
     2
 73
     1
 90
        2
 40
-0.6
 41
30.0
 62
     5
 63
     7
 74
     0
 91
        0
 64
     7
 65
   257
 75
     1
175
     1
 42
1.0
 92
        0
 66
     7
 43
1.0
 76
     1
 77
     6
 78
     2
 67
     7
 79
     5
170
     0
171
     0
290
     0
174
     0
 93
       13
 44
0.0
173
     0
291
     1
 45
0.0
1001
ACAD
1000
AcDbSavedByObjectVersion
1070
     0
  0
VISUALSTYLE
  5
83A4
102
{ACAD_XDICTIONARY
360
87A8
102
}
102
{ACAD_REACTORS
330
83A0
102
}
330
83A0
100
AcDbVisualStyle
  2
GouraudWithEdges
 70
     3
 71
     2
 72
     2
 73
     1
 90
        2
 40
-0.6
 41
30.0
 62
     5
 63
     7
 74
     1
 91
        0
 64
     7
 65
   257
 75
     1
175
     1
 42
1.0
 92
        0
 66
   257
 43
1.0
 76
     1
 77
     6
 78
     2
 67
     7
 79
     5
170
     0
171
     0
290
     0
174
     0
 93
       13
 44
0.0
173
     0
291
     1
 45
0.0
1001
ACAD
1000
AcDbSavedByObjectVersion
1070
     0
  0
VISUALSTYLE
  5
83A8
102
{ACAD_XDICTIONARY
360
87B0
102
}
102
{ACAD_REACTORS
330
83A0
102
}
330
83A0
100
AcDbVisualStyle
  2
Hidden
 70
     6
 71
     1
 72
     2
 73
     2
 90
        0
 40
-0.6
 41
-30.0
 62
     5
 63
     7
 74
     2
 91
        2
 64
     7
 65
   257
 75
     2
175
     1
 42
40.0
 92
        0
 66
   257
 43
1.0
 76
     1
 77
     6
 78
     2
 67
     7
 79
     3
170
     0
171
     0
290
     0
174
     0
 93
        1
 44
0.0
173
     0
291
     0
 45
0.0
1001
ACAD
1000
AcDbSavedByObjectVersion
1070
     0
  0
VISUALSTYLE
  5
83B6
102
{ACAD_XDICTIONARY
360
87CC
102
}
102
{ACAD_REACTORS
330
83A0
102
}
330
83A0
100
AcDbVisualStyle
  2
JitterOff
 70
    20
 71
     2
 72
     2
 73
     0
 90
        0
 40
-0.6
 41
-30.0
 62
     5
 63
     7
 74
     1
 91
        4
 64
     7
 65
   257
 75
     1
175
     1
 42
1.0
 92
       10
 66
     7
 43
1.0
 76
     1
 77
     6
 78
     2
 67
     7
 79
     5
170
     0
171
     0
290
     0
174
     0
 93
        1
 44
0.0
173
     0
291
     1
 45
0.0
1001
ACAD
1000
AcDbSavedByObjectVersion
1070
     0
  0
VISUALSTYLE
  5
83AE
102
{ACAD_XDICTIONARY
360
87BC
102
}
102
{ACAD_REACTORS
330
83A0
102
}
330
83A0
100
AcDbVisualStyle
  2
Linepattern
 70
    14
 71
     2
 72
     2
 73
     0
 90
        0
 40
-0.6
 41
-30.0
 62
     5
 63
     7
 74
     1
 91
        4
 64
     7
 65
   257
 75
     7
175
     7
 42
1.0
 92
        8
 66
     7
 43
1.0
 76
     1
 77
     6
 78
     2
 67
     7
 79
     5
170
     0
171
     0
290
     0
174
     0
 93
        1
 44
0.0
173
     0
291
     1
 45
0.0
1001
ACAD
1000
AcDbSavedByObjectVersion
1070
     0
  0
VISUALSTYLE
  5
83B7
102
{ACAD_XDICTIONARY
360
87CE
102
}
102
{ACAD_REACTORS
330
83A0
102
}
330
83A0
100
AcDbVisualStyle
  2
OverhangOff
 70
    21
 71
     2
 72
     2
 73
     0
 90
        0
 40
-0.6
 41
-30.0
 62
     5
 63
     7
 74
     1
 91
        4
 64
     7
 65
   257
 75
     1
175
     1
 42
1.0
 92
        9
 66
     7
 43
1.0
 76
     1
 77
     6
 78
     2
 67
     7
 79
     5
170
     0
171
     0
290
     0
174
     0
 93
        1
 44
0.0
173
     0
291
     1
 45
0.0
1001
ACAD
1000
AcDbSavedByObjectVersion
1070
     0
  0
VISUALSTYLE
  5
83AA
102
{ACAD_XDICTIONARY
360
87B4
102
}
102
{ACAD_REACTORS
330
83A0
102
}
330
83A0
100
AcDbVisualStyle
  2
Realistic
 70
     8
 71
     2
 72
     3
 73
     0
 90
        2
 40
-0.6
 41
30.0
 62
     5
 63
     7
 74
     0
 91
        0
 64
     7
 65
   257
 75
     1
175
     1
 42
1.0
 92
        8
 66
   257
 43
1.0
 76
     1
 77
     6
 78
     2
 67
     7
 79
     3
170
     0
171
     0
290
     0
174
     0
 93
       13
 44
0.0
173
     0
291
     0
 45
0.0
1001
ACAD
1000
AcDbSavedByObjectVersion
1070
     0
  0
VISUALSTYLE
  5
83B5
102
{ACAD_XDICTIONARY
360
87CA
102
}
102
{ACAD_REACTORS
330
83A0
102
}
330
83A0
100
AcDbVisualStyle
  2
Shaded
 70
    27
 71
     2
 72
     2
 73
     1
 90
        2
 40
-0.6
 41
30.0
 62
     5
 63
     7
 74
     0
 91
        4
 64
     7
 65
   257
 75
     1
175
     1
 42
1.0
 92
        8
 66
   257
 43
1.0
 76
     1
 77
     6
 78
     2
 67
     8
 79
     3
170
     0
171
     0
290
     0
174
     0
 93
        5
 44
0.0
173
     0
291
     0
 45
0.0
1001
ACAD
1000
AcDbSavedByObjectVersion
1070
     0
  0
VISUALSTYLE
  5
83B4
102
{ACAD_XDICTIONARY
360
87C8
102
}
102
{ACAD_REACTORS
330
83A0
102
}
330
83A0
100
AcDbVisualStyle
  2
Shaded with edges
 70
    26
 71
     2
 72
     2
 73
     1
 90
        2
 40
-0.6
 41
30.0
 62
     5
 63
     7
 74
     1
 91
       10
 64
     7
 65
   257
 75
     2
175
     1
 42
1.0
 92
        8
 66
   257
 43
1.0
 76
     1
 77
     6
 78
     2
 67
     7
 79
     3
170
     0
171
     0
290
     0
174
     0
 93
        5
 44
0.0
173
     0
291
     0
 45
0.0
1001
ACAD
1000
AcDbSavedByObjectVersion
1070
     0
  0
VISUALSTYLE
  5
83B1
102
{ACAD_XDICTIONARY
360
87C2
102
}
102
{ACAD_REACTORS
330
83A0
102
}
330
83A0
100
AcDbVisualStyle
  2
Shades of Gray
 70
    23
 71
     2
 72
     2
 73
     3
 90
        0
 40
-0.6
 41
-30.0
 62
     5
 63
     7
 74
     2
 91
        2
 64
     7
 65
     7
 75
     1
175
     1
 42
40.0
 92
        8
 66
     7
 43
1.0
 76
     1
 77
     6
 78
     2
 67
     7
 79
     3
170
     0
171
     0
290
     0
174
     0
 93
        1
 44
0.0
173
     0
291
     0
 45
0.0
1001
ACAD
1000
AcDbSavedByObjectVersion
1070
     0
  0
VISUALSTYLE
  5
83B2
102
{ACAD_XDICTIONARY
360
87C4
102
}
102
{ACAD_REACTORS
330
83A0
102
}
330
83A0
100
AcDbVisualStyle
  2
Sketchy
 70
    24
 71
     1
 72
     2
 73
     2
 90
        0
 40
-0.6
 41
-30.0
 62
     5
 63
     7
 74
     2
 91
        2
 64
     7
 65
     7
 75
     1
175
     1
 42
40.0
 92
       11
 66
     7
 43
1.0
 76
     1
 77
     6
 78
     2
 67
     7
 79
     6
170
     0
171
     0
290
     0
174
     0
 93
        1
 44
0.0
173
     0
291
     0
 45
0.0
1001
ACAD
1000
AcDbSavedByObjectVersion
1070
     0
  0
VISUALSTYLE
  5
83AD
102
{ACAD_XDICTIONARY
360
87BA
102
}
102
{ACAD_REACTORS
330
83A0
102
}
330
83A0
100
AcDbVisualStyle
  2
Thicken
 70
    13
 71
     2
 72
     2
 73
     0
 90
        0
 40
-0.6
 41
-30.0
 62
     5
 63
     7
 74
     1
 91
        4
 64
     7
 65
   257
 75
     1
175
     1
 42
1.0
 92
       12
 66
     7
 43
1.0
 76
     1
 77
     6
 78
     2
 67
     7
 79
     5
170
     0
171
     0
290
     0
174
     0
 93
        1
 44
0.0
173
     0
291
     1
 45
0.0
1001
ACAD
1000
AcDbSavedByObjectVersion
1070
     0
  0
VISUALSTYLE
  5
83A7
102
{ACAD_XDICTIONARY
360
87AE
102
}
102
{ACAD_REACTORS
330
83A0
102
}
330
83A0
100
AcDbVisualStyle
  2
Wireframe
 70
     5
 71
     0
 72
     2
 73
     0
 90
        0
 40
-0.6
 41
-30.0
 62
     5
 63
     7
 74
     1
 91
        4
 64
     7
 65
   257
 75
     1
175
     1
 42
1.0
 92
        0
 66
   257
 43
1.0
 76
     1
 77
     6
 78
     2
 67
     7
 79
     3
170
     0
171
     0
290
     0
174
     0
 93
        1
 44
0.0
173
     0
291
     0
 45
0.0
1001
ACAD
1000
AcDbSavedByObjectVersion
1070
     0
  0
VISUALSTYLE
  5
83B3
102
{ACAD_XDICTIONARY
360
87C6
102
}
102
{ACAD_REACTORS
330
83A0
102
}
330
83A0
100
AcDbVisualStyle
  2
X-Ray
 70
    25
 71
     2
 72
     2
 73
     1
 90
        1
 40
0.5
 41
-30.0
 62
     5
 63
     7
 74
     1
 91
        0
 64
     7
 65
   257
 75
     1
175
     1
 42
1.0
 92
        8
 66
     7
 43
1.0
 76
     1
 77
     6
 78
     2
 67
     7
 79
     3
170
     0
171
     0
290
     0
174
     0
 93
       13
 44
0.0
173
     0
291
     0
 45
0.0
1001
ACAD
1000
AcDbSavedByObjectVersion
1070
     0
  0
DICTIONARYVAR
  5
8754
102
{ACAD_REACTORS
330
874F
102
}
330
874F
100
DictionaryVariables
280
     0
  1
1:1
  0
DICTIONARYVAR
  5
8751
102
{ACAD_REACTORS
330
874F
102
}
330
874F
100
DictionaryVariables
280
     0
  1
STANDARD
  0
DICTIONARYVAR
  5
8750
102
{ACAD_REACTORS
330
874F
102
}
330
874F
100
DictionaryVariables
280
     0
  1
STANDARD
  0
DICTIONARYVAR
  5
8752
102
{ACAD_REACTORS
330
874F
102
}
330
874F
100
DictionaryVariables
280
     0
  1
Imperial24
  0
DICTIONARYVAR
  5
8753
102
{ACAD_REACTORS
330
874F
102
}
330
874F
100
DictionaryVariables
280
     0
  1
Imperial24
  0
DICTIONARYVAR
  5
8757
102
{ACAD_REACTORS
330
874F
102
}
330
874F
100
DictionaryVariables
280
     0
  1
1
  0
DICTIONARYVAR
  5
8756
102
{ACAD_REACTORS
330
874F
102
}
330
874F
100
DictionaryVariables
280
     0
  1
0
  0
DICTIONARYVAR
  5
8755
102
{ACAD_REACTORS
330
874F
102
}
330
874F
100
DictionaryVariables
280
     0
  1
127
  0
DICTIONARYVAR
  5
8758
102
{ACAD_REACTORS
330
874F
102
}
330
874F
100
DictionaryVariables
280
     0
  1
2
  0
DICTIONARY
  5
87D6
330
83E1
100
AcDbDictionary
280
     1
281
     1
  3
ACAD_XREC_ROUNDTRIP
360
87D7
  0
DICTIONARY
  5
87DA
330
83E9
100
AcDbDictionary
280
     1
281
     1
  3
ACAD_XREC_ROUNDTRIP
360
87DB
  0
DICTIONARY
  5
87D8
330
83E5
100
AcDbDictionary
280
     1
281
     1
  3
ACAD_XREC_ROUNDTRIP
360
87D9
  0
DICTIONARY
  5
8391
330
8390
100
AcDbDictionary
280
     1
281
     1
  3
ACAD_XREC_ROUNDTRIP
360
87A0
  3
BUMPTILE
360
8393
  3
DIFFUSETILE
360
8392
  3
OPACITYTILE
360
8396
  3
REFLECTIONTILE
360
8395
  3
REFRACTIONTILE
360
8397
  3
SPECULARTILE
360
8394
  0
DICTIONARY
  5
8389
330
8388
100
AcDbDictionary
280
     1
281
     1
  3
ACAD_XREC_ROUNDTRIP
360
879F
  3
BUMPTILE
360
838B
  3
DIFFUSETILE
360
838A
  3
OPACITYTILE
360
838E
  3
REFLECTIONTILE
360
838D
  3
REFRACTIONTILE
360
838F
  3
SPECULARTILE
360
838C
  0
DICTIONARY
  5
8399
330
8398
100
AcDbDictionary
280
     1
281
     1
  3
ACAD_XREC_ROUNDTRIP
360
87A1
  3
BUMPTILE
360
839B
  3
DIFFUSETILE
360
839A
  3
FBXASSET
360
8430
  3
OPACITYTILE
360
839E
  3
REFLECTIONTILE
360
839D
  3
REFRACTIONTILE
360
839F
  3
SPECULARTILE
360
839C
  0
DICTIONARY
  5
87D4
330
83DF
100
AcDbDictionary
280
     1
281
     1
  3
ACAD_XREC_ROUNDTRIP
360
87D5
  0
DICTIONARY
  5
879B
330
83DB
100
AcDbDictionary
280
     1
281
     1
  3
ACAD_ROUNDTRIP_2008_TABLESTYLE_CELLSTYLEMAP
360
879C
  3
ACAD_XREC_ROUNDTRIP
360
87D2
  0
DICTIONARY
  5
87AC
330
83A6
100
AcDbDictionary
280
     1
281
     1
  3
ACAD_XREC_ROUNDTRIP
360
87AD
  0
DICTIONARY
  5
87AA
330
83A5
100
AcDbDictionary
280
     1
281
     1
  3
ACAD_XREC_ROUNDTRIP
360
87AB
  0
DICTIONARY
  5
87B8
330
83AC
100
AcDbDictionary
280
     1
281
     1
  3
ACAD_XREC_ROUNDTRIP
360
87B9
  0
DICTIONARY
  5
87C0
330
83B0
100
AcDbDictionary
280
     1
281
     1
  3
ACAD_XREC_ROUNDTRIP
360
87C1
  0
DICTIONARY
  5
87B2
330
83A9
100
AcDbDictionary
280
     1
281
     1
  3
ACAD_XREC_ROUNDTRIP
360
87B3
  0
DICTIONARY
  5
87B6
330
83AB
100
AcDbDictionary
280
     1
281
     1
  3
ACAD_XREC_ROUNDTRIP
360
87B7
  0
DICTIONARY
  5
87D0
330
83B8
100
AcDbDictionary
280
     1
281
     1
  3
ACAD_XREC_ROUNDTRIP
360
87D1
  0
DICTIONARY
  5
87BE
330
83AF
100
AcDbDictionary
280
     1
281
     1
  3
ACAD_XREC_ROUNDTRIP
360
87BF
  0
DICTIONARY
  5
87A2
330
83A1
100
AcDbDictionary
280
     1
281
     1
  3
ACAD_XREC_ROUNDTRIP
360
87A3
  0
DICTIONARY
  5
87A4
330
83A2
100
AcDbDictionary
280
     1
281
     1
  3
ACAD_XREC_ROUNDTRIP
360
87A5
  0
DICTIONARY
  5
87A6
330
83A3
100
AcDbDictionary
280
     1
281
     1
  3
ACAD_XREC_ROUNDTRIP
360
87A7
  0
DICTIONARY
  5
87A8
330
83A4
100
AcDbDictionary
280
     1
281
     1
  3
ACAD_XREC_ROUNDTRIP
360
87A9
  0
DICTIONARY
  5
87B0
330
83A8
100
AcDbDictionary
280
     1
281
     1
  3
ACAD_XREC_ROUNDTRIP
360
87B1
  0
DICTIONARY
  5
87CC
330
83B6
100
AcDbDictionary
280
     1
281
     1
  3
ACAD_XREC_ROUNDTRIP
360
87CD
  0
DICTIONARY
  5
87BC
330
83AE
100
AcDbDictionary
280
     1
281
     1
  3
ACAD_XREC_ROUNDTRIP
360
87BD
  0
DICTIONARY
  5
87CE
330
83B7
100
AcDbDictionary
280
     1
281
     1
  3
ACAD_XREC_ROUNDTRIP
360
87CF
  0
DICTIONARY
  5
87B4
330
83AA
100
AcDbDictionary
280
     1
281
     1
  3
ACAD_XREC_ROUNDTRIP
360
87B5
  0
DICTIONARY
  5
87CA
330
83B5
100
AcDbDictionary
280
     1
281
     1
  3
ACAD_XREC_ROUNDTRIP
360
87CB
  0
DICTIONARY
  5
87C8
330
83B4
100
AcDbDictionary
280
     1
281
     1
  3
ACAD_XREC_ROUNDTRIP
360
87C9
  0
DICTIONARY
  5
87C2
330
83B1
100
AcDbDictionary
280
     1
281
     1
  3
ACAD_XREC_ROUNDTRIP
360
87C3
  0
DICTIONARY
  5
87C4
330
83B2
100
AcDbDictionary
280
     1
281
     1
  3
ACAD_XREC_ROUNDTRIP
360
87C5
  0
DICTIONARY
  5
87BA
330
83AD
100
AcDbDictionary
280
     1
281
     1
  3
ACAD_XREC_ROUNDTRIP
360
87BB
  0
DICTIONARY
  5
87AE
330
83A7
100
AcDbDictionary
280
     1
281
     1
  3
ACAD_XREC_ROUNDTRIP
360
87AF
  0
DICTIONARY
  5
87C6
330
83B3
100
AcDbDictionary
280
     1
281
     1
  3
ACAD_XREC_ROUNDTRIP
360
87C7
  0
XRECORD
  5
87D7
102
{ACAD_REACTORS
330
87D6
102
}
330
87D6
100
AcDbXrecord
280
     1
102
DISPLAYNAME
  1
Imperial24
102
FLAGS
 90
        0
  0
XRECORD
  5
87DB
102
{ACAD_REACTORS
330
87DA
102
}
330
87DA
100
AcDbXrecord
280
     1
102
SHADEPLOT
 70
     0
102
SHADEPLOTRESLEVEL
 70
     2
102
SHADEPLOTCUSTOMDPI
 70
   300
  0
XRECORD
  5
87D9
102
{ACAD_REACTORS
330
87D8
102
}
330
87D8
100
AcDbXrecord
280
     1
102
SHADEPLOT
 70
     0
102
SHADEPLOTRESLEVEL
 70
     2
102
SHADEPLOTCUSTOMDPI
 70
   300
  0
XRECORD
  5
87A0
102
{ACAD_REACTORS
330
8391
102
}
330
8391
100
AcDbXrecord
280
     1
102
MATERIAL
148
0.0
149
0.0
149
0.0
 93
        0
 94
      127
282
     0
 72
     0
 77
     0
171
     0
175
     0
179
     0
273
     0
  0
XRECORD
  5
8393
102
{ACAD_REACTORS
330
8391
102
}
330
8391
100
AcDbXrecord
280
     1
270
     1
271
     1
  0
XRECORD
  5
8392
102
{ACAD_REACTORS
330
8391
102
}
330
8391
100
AcDbXrecord
280
     1
270
     1
271
     1
  0
XRECORD
  5
8396
102
{ACAD_REACTORS
330
8391
102
}
330
8391
100
AcDbXrecord
280
     1
270
     1
271
     1
  0
XRECORD
  5
8395
102
{ACAD_REACTORS
330
8391
102
}
330
8391
100
AcDbXrecord
280
     1
270
     1
271
     1
  0
XRECORD
  5
8397
102
{ACAD_REACTORS
330
8391
102
}
330
8391
100
AcDbXrecord
280
     1
270
     1
271
     1
  0
XRECORD
  5
8394
102
{ACAD_REACTORS
330
8391
102
}
330
8391
100
AcDbXrecord
280
     1
270
     1
271
     1
  0
XRECORD
  5
879F
102
{ACAD_REACTORS
330
8389
102
}
330
8389
100
AcDbXrecord
280
     1
102
MATERIAL
148
0.0
149
0.0
149
0.0
 93
        0
 94
      127
282
     0
 72
     0
 77
     0
171
     0
175
     0
179
     0
273
     0
  0
XRECORD
  5
838B
102
{ACAD_REACTORS
330
8389
102
}
330
8389
100
AcDbXrecord
280
     1
270
     1
271
     1
  0
XRECORD
  5
838A
102
{ACAD_REACTORS
330
8389
102
}
330
8389
100
AcDbXrecord
280
     1
270
     1
271
     1
  0
XRECORD
  5
838E
102
{ACAD_REACTORS
330
8389
102
}
330
8389
100
AcDbXrecord
280
     1
270
     1
271
     1
  0
XRECORD
  5
838D
102
{ACAD_REACTORS
330
8389
102
}
330
8389
100
AcDbXrecord
280
     1
270
     1
271
     1
  0
XRECORD
  5
838F
102
{ACAD_REACTORS
330
8389
102
}
330
8389
100
AcDbXrecord
280
     1
270
     1
271
     1
  0
XRECORD
  5
838C
102
{ACAD_REACTORS
330
8389
102
}
330
8389
100
AcDbXrecord
280
     1
270
     1
271
     1
  0
XRECORD
  5
87A1
102
{ACAD_REACTORS
330
8399
102
}
330
8399
100
AcDbXrecord
280
     1
102
MATERIAL
148
0.0
149
0.0
149
0.0
 93
        0
 94
      127
282
     0
 72
     0
 77
     0
171
     0
175
     0
179
     0
273
     0
  0
XRECORD
  5
839B
102
{ACAD_REACTORS
330
8399
102
}
330
8399
100
AcDbXrecord
280
     1
270
     1
271
     1
  0
XRECORD
  5
839A
102
{ACAD_REACTORS
330
8399
102
}
330
8399
100
AcDbXrecord
280
     1
270
     1
271
     1
  0
XRECORD
  5
8430
102
{ACAD_REACTORS
330
8399
102
}
330
8399
100
AcDbXrecord
280
     1
 70
     1
 90
1959938040
 71
     1
  1
A997CACA-D90C-41A2-983A-62D6FBAC6A95
311
504B03041400060808001C737857C24AD32CD7000000200100004F00000041363138393942332D363830422D343144302D384637412D3042433546423434324446312F4173736574446174612F446566696E6974696F6E4974657261746F7250726F706572746965732E62696EEB606060F80F0540260323103700495E20ED
311
9E9A975A94991C9C9C919A9BC8C00612C9C94F4ACC6147C831019920AE4B6A5A62694E0948976F6671726A4E4E625E6A7E69B12042A9426E6209D0B8C41C3D90264E20860914834C48875806B2DF0F88414E02D189290556F689C5C5A925B6FA694915FACE064606C6CE2EAEBAA6AEC62EBA26E6466EBA4E2E2E26BACE864E
311
AE46262616E626A616FA45A9C5F9A545C9A9C5FA46FA06F15093E30BF2D283221DEB0C19188280D6B330BCDF9715AE15501EDE63A707B4C825BD3966A7C1CC4D402612D80700504B03041400060808001C737857F79930FD03010000300200004500000041363138393942332D363830422D343144302D384637412D304243
311
3546423434324446312F4173736574446174612F496E7374616E636550726F706572746965732E62696EEB606060F80F0540260323103700495E20ED9E9A975A94991C9C9C919A9BA8021470B4B43477767476D475B13470D635317434D2B5B43076D435337231737372743673B434654768046931363471713532B5D43535
311
3131D635313332D475727372D13534373670367376B67474B5042A03DBCBA019D37FE8ABC6157B20CD04146B0062181F4C03F940F0C11EA29A8141C08141002C0426541C106CAC2CA046088033B02A030AC2157C6006F21A8018AAF50194E6010A610250382264E08660284CD9E98021862280A91564B406929A0FF62C401E
311
28B6F88038B83CB1243943D7A928312F25350524C3C0A0DD70F56A83369809E6AC0A85B251645054A1A983A947A601504B03041400060808001C73785728BB58AF800100009E0500003D00000041363138393942332D363830422D343144302D384637412D3042433546423434324446312F536368656D61732F436F6D6D6F
311
6E536368656D612E786D6CBD544D4FC23018BEFB2B96DE15493C78601010A34B880709DEDFB52FD0D8B54BD70DF6EFED3AC0B12E6442E2716BFB3CEFF3D18E26FB440405EA8C2B1992E1C323095052C5B8DC842437EBFB673219DF8DA659866649B798C078B48AE6410122242F2A4994AC7F93815DF85C049C8564CA0A9014
311
99DD886B2EB9B1E02448F358701A9235880C49A0119892A20C89D1B9FD768815CAD268CB5E0355B40B1E47F3E37A2020464BED06AA57CE8FCC20C3C3446D46761A2632A8C1283D07031EFF2AE7CCB1BFEEE916E406DFAC8E36FFD99A9D60A6944090EEDC3B670C7DC13DE86B6B2C5C240D6E503BB85ACD579D513F1B9F9A69
311
DC9CC22AFA80C426D40AF0B21EA168559156B6276F0F726A6BFF04DCD513A87A62CAD41FB24FCB2858B3952E3D852084DA25B9303C15687973CC8E8AAE11DF2836C38C6A9E765E8C1BA1BFB1DC29CDFE518C8B5A7655A4ED7E77291ABEB80DBD82EC866ADE1B8D05AF9E35CF09D7A061F38A986D9EC412B8F0F65E5D81534D
311
9B231D1E5A8FE577A241F3A5FD01504B03041400060808001C7378572CCEBD668A040000E01200003E00000041363138393942332D363830422D343144302D384637412D3042433546423434324446312F536368656D61732F47656E65726963536368656D612E786D6CD5586D6FDB380CFE7EBF42F0F7A649B70E1B907448
311
56B4970F450FCD7A5F05459613EDE4174872DADCAF3F522F8ED3B88D2F1D06AC4050DBA2493EE4438AF2F8EB73AEC8466823CB62928C06C384888297A92C5693A4B6D9D9E7E4EBD51FE3A931C22EF85AE4EC6AFC38BF261BA626C9AD288496DC3F4FCEAFC63366845F7A10452AF41DB320C0D44EC26EAB2091873556558269
311
5670811A6A49643A49A6E9069FA4604A64B29016DC4B48552F95E4932463CA888468C1D2B250DB4962750DF7CE273069CE8363F1FF4EDB00E0A21999574AE4A2B00C353B93F3BD4777B8A61ED8F604ABFEDD79CE56A2B7BDFBDBC50996E0ADDE16FED26223C5D30956C29BDF4A55EA686E5E58B112DA45CE67F76F4FA27EFA
311
3FB672FD7372FC388FAECDCA5209E693CAD167BADCD272F943701B3812F8A3D852008B1D2E32DB927B2F833C6EA95879925356D254582695095A3CE982924720BE5774A3CB9CDCDB350427D2DF20DA1B5532EBE2D5D6288D75D4F7E4FD9890A0EF8E3D93EBB8F8BA4758158EF6FB90A6F9520281C93DE7AAC6D24607DA296B
311
B96018123F821A7D6A5C5884050C475DA4865442732C8B95684A50165CBB3A32F25F783A4A480ED59AD7F924B968AEA50131F46303223E6A397B0E52976030DC1DCA81D7E7C1EDEEA42C19FF27635C505E2BD5198A599020DF50A2330FCB3AAF28CB0124108429553EF1B228802E2265D8F7CC2401042B155BCC7070F1E5C5
311
5F13B4A9577362CCCE46C32174E010C3C378C44841A4BDA00FE3A12006CE11EE6AEC59894D3526DDE1CD59D503ECC324017F8061B7F162162FA62EDD81AE3308617770796DCBDAD2B2625C5AE8A63DE20B2C8AA5E95E76E5730823955956E33E705425A2187C185D36489A1B44D3DCEC2172F6BA2105C3546287A7194B2331
311
768EBBE64F6E70A9930ABE0ADEA89E9E2C38523B810287AD67A54A039C1606EAFE68F8304610BB9093DBDDABC0B2AE4E290DCDA15376D7E39F72B556F0B32EAB5D3D498B4C41ABADEC3A1434C422D87E8025A84BDCB2B1417ED750FAE4DA8976863974C577C7F902D3F156AD354DEA3540DE6BEAE2BEA52F7A2EB4CA43802E
311
CE5BF2CE2EDC9347179FFB023CE412E60BE16DA0BE29B374988A553F561DC04615DD35F7D2C8979F60E5955CE93DF29DED8AFA1EE6642D53418086C03C47C377910F75F7E8F5EF665F70B60FFB22AEDF897D119E8423C773E819A3C1E55E550599EE6EDCA34D0C86FD72057DF2CD46F16A470682471C164E4346D5306BF12D
311
7D12D82CFF673D41636C347443FEB51B50D72EA171A8E4A58623A4A16E0FA2B8B10A0D23268D87C33896EE8FB73305A74BF224EDBADFA0BD674AB354D63DB7BD5D83426761C077DE767728235446A552754EB93B755891C3C4CC6CADE37CF0E912A7BB38DBA010F9DE1282EDF470CA69A9CDA482E334C4A6EA4107987980B1
311
7E72F31730EBF88BBD39E7C629F56797A3C0009C2C5AE7951D9A05A02773440F02EEB4DE396A3B6A570C72CCFBCD823B0B8ED3F1D5CEDDFED772FA70236C83FB7D86C385D570B87107535572A60A96035F8F7C6A7192F13007246BBE0521855E6AC46F3E27689CEE7D186A6FD679D98CDCAD13333E04EBE7ED6F55FF01504B
311
03041400060808001C7378576180134D5F0100006B0300004500000041363138393942332D363830422D343144302D384637412D3042433546423434324446312F536368656D61732F52656E6465724D6174657269616C536368656D612E786D6CA5934D6FC2300C86EFFB1551EEE343DBA41D1A103009551ADAD40EAE28A4
311
A68D9426284961FCFBE5A340113B2071746D3F765EBF4DC6BFB5407BD0862B49F0B037C0082453059725C18DDD3EBFE3F1E829991803366715D474942CD30FB4A782E00C64017A412D684E454CE3FE28995203B162A6EA5AC94B66997D225E109CD63B0135484BAD1B3C07E9080CA35DB3119C11BCA5C200461A68A1A43812
311
6C75E3E230D40FF81FB3F03C91D1E3A3A0AF79FE28E25BC39EC3E17E4C2A2D94A0833A51AF55BCCA7D88572FCBAC529C4140B020FC3AAFA886621DCED7EAD7664CC86024E806DC297DA1BB393E4156543457A4537DB8817349A70F8ACBF09B3EEE2CB2F33E91B65D60786E4E3B39B77E3FEEEF5650424525DA657FB8B46BE6
311
BF064646F0A0F7327C0BC1BC1B4CBBC1C419FA3CCB23500007872A2580CAAE5461865565294E4EDB4617B62FF579DF9A5B2F54E834076A597573A020912FED777F9B3F504B03041400060808001C737857ADD6524051000000570000004700000041363138393942332D363830422D343144302D384637412D304243354642
311
3434324446312F4173736574446174612F41737365745461626C654F66436F6E74656E74732E62696E5361606070B4B43477767476D475B13470D635317434D2B5B43076D435337231737372743673B4341502AACB4D2C492DCA4CCC492C28484D2C4ACC4B4E050A82012F90744FCD03CA26072767A4E6260200504B030414
311
00060808001C737857F865834058000000680000004500000041363138393942332D363830422D343144302D384637412D3042433546423434324446312F4173736574446174612F53747265616D56657273696F6E5461626C652E696E66558CBD0A80300C06F73E4B117FB66E451741D041DC5BF98480A492E4FDD18EAEC7
311
DD4555D89EF28DF51A0B1BD8340C4DE7DD848B988C0ACF0649566493F2408C508DDEBB99D5129FF8F1AF8CF5B9503E20FAE5A16B5AF702504B03041400060808001C737857018856F9350100009A0400003600000041363138393942332D363830422D343144302D384637412D3042433546423434324446312F4173736574
311
446174612F636E782E786D6CCD94314FC3301085FF4AE43D76130A4295E30AC1D209242A06B6AB7369AD3A76645F10FC7BEC2603A888A943D7F3BBF3F327BF93EBCFDE161F18A2F1AE61155FB0029DF6AD71FB868DD495F7AC582B19BCA71F325638E8B161B9CC94DC073F0E73A9C50E469BABD6B8E35C7C8811690B3B8BCF
311
DDA377848E222BB485181B16F5017BE030926F311E790B04BCE201A31F83C634894C8FF3241D10085BA6EA457D535655592FB7D572552F57B777EF5264A5923BEFEDAC37E9B2E087424FB732B590221F2B3906336BF25B98FACB23DF192745522A1929242673077D0DA90386C11A0D94D009AF09A94C22845E8A49ACA4C80C
311
7E9178C2CE38935B36C918900F2FC91E0632787544FEF37A79321B17099CC6EBE571EEF0F2145E4F3FE86D0AE42931D796937387DCB8EE022911A735924293B78AFA06504B03041400060808001C737857E78EB4CC090100004F0300003400000041363138393942332D363830422D343144302D384637412D304243354642
311
3434324446312F536368656D61732F636E782E786D6CCD93BD4E042114855F65423FB0338EC66C18B6B0B0B2512B3B84BBBB64813BE1C7E8DB0B23C56E62A7C57670F842CE395CF8EED3D9EE034234E86732D00DE9C02BD4C61F6692D3BEBF27DD4EF08098CE30D279E960265526821F02E6A5491AF632DBAA5AE34F4D7C40
311
E7D0BFA82338493A65658C3389EB96CA9C50433C512D93A4030D10310705E586641CB41B5400994013316EC69B7E18FA717A1DA6ED386D6FEFDE38ABA4E0EF88B6F1C62708B8740ACBC2173B1BCEEAB1E03998C6D40C449C7BA3A50DCE0A21784CA174D0C8F4B514522E8B354AA652155BC11F467056A35E047E040FC1A8EB
311
4C7C61EEDF223F83D7109ECA2B0523ED7526FFCDE3DF0A60EBEC9711A85F417C03504B03041400060808001C737857410A3D5871000000A40000002C00000041363138393942332D363830422D343144302D384637412D3042433546423434324446312F636E782E786D6C55CC4D0E82301086E1AB34B31774E7A22D31F106
311
9E60020334B633A63FC6E34B0909B07DDE2F9FEE7EC1AB2FC5E4840DDC9A2B28E25E06C7938192C7CB1D54677514C9871928C640062A83D55394F2D968A0118BAFEA1DBF377CA444F98919176EAB9FEAAB9F2960DA5BBB1E2ED3FA6FFF504B03041400060808001C73785727AC466B7E000000A300000007000000636E782E
311
786D6C4D8CD10AC22018465F45FE7B4BCB960375CC86EF319A1B92D3B0193D7E1ABBE8EA83C3778EE83EAB476F9B5E2E0609F44000D9708F930B8B84BCCD9803EA9448316E7F3740615CAD848A418925C5FCDCD164E731FB4ABD0B8F1DF60DE56DABCFB8E14463460782B9B9F698E8DBC568C64E83A1C53856A5CCAF57B6E6
311
D517504B03041400060808001C73785716E99B5DA600000035010000130000005B436F6E74656E745F54797065735D2E786D6C9590410E82301045AFD2740F4517C6180A0BF5065E60AC53688469D30E066F6F91AD9AB89CF9FFFD3F99BA9DC7413C3026E749CB4D59498164FCCD51A7E5C4B6D84BD136F5E5193089ECA5A4
311
65CF1C0E4A25D3E308A9F401292BD6C711388FB15301CC1D3A54DBAADA29E38991B8E0254336F5092D4C038BF39CD76B6FC6A538AEBEA54A4B08617006389FA516557DE4AE8E7E70DE30729138228C5F021CD93F02D4FB0DCD0B504B03041400060808001C7378573DEE336E64000000790000001B0000006175746F646573
311
6B2D64657369676E2D7061636B6167652E786D6C35CBC10E83200C00D05F21DCA56CA76D41FC96062B120735B69A7DBE268BB7777961F8D5AF396893C2ADB70FE7ADA196782C2DF776D7A97B5933C430F15651E5469C55D70F80A4992A3ADC954792C525AE70A1E4D6AD9816CC044FEFDF01FE3FDE907802504B0304140006
311
0808001C7378572AF390BAF9000000960100003700000041363138393942332D363830422D343144302D384637412D3042433546423434324446312F4173736574446174612F636F72652E786D6C8550CB6E833010FC15B477033684589171149AF2053DF56619875A0936F2A3EAE7D70E546A4F3DED6A76766677D8F96B79
311
149FCA796D4D0FB8ACA15046DA499BB987186E884271E6CC591B7ED1A03062513D6418389B9D8DEB0E496B8232193576523B28BC57010AF9484D0F5E7EA845942286C4F0F77215F22E6655E272E37116A39EF6553D25357DD3CA01BF507218EBAE41E475B8A2B6ED28A2F570442F940EDDE588C7B139B22A2F7316F4F2E32E
311
9D12414DC0494D1A843122ED1B6E4FA43D1DBA77566526673EB8F4F36E9ABF4B76F9EAAB088255DBF48F6A5CA7FF55A336A121BBEAB6E181E374E473C05995534AE51961AA3951FE0D504B03041400060808001C737857911E82FBF7000000940100003500000041363138393942332D363830422D343144302D384637412D
311
3042433546423434324446312F536368656D61732F636F72652E786D6C8550C16E842010FD15337754D055B341366B5B7FA03DF54680B5645730024D3FBFA036694F3DCDE4CD7B6F661EBD7CCD8FEC53AD4E5BD303CE4BC89411566A33F510FC0D75905D185DADF5BF6890193EAB1E120C8C4EAB0DCB01096BBC32093556AA
311
03E4CE290F9978C4A607273ED4CC731E7C64B87BBE7071E793CA71BEF3180D41CB43AA6574D337AD5660D78E9CC6B2A91079199E515D371DEACAA1454F5D3734D7168F63D5D2228919F57AFED92E56C5BD92C048492A843122F51BAECFA43E9F9A775A2426A3CEAFF1E76369FA0ED8EB76A7A3C53EFBE31916F9BF67D0C657
311
E4F0DC150E188E276E03468B94512C5B80B1A63CD937504B03041400060808001C7378579D8A660903010000D70100002D00000041363138393942332D363830422D343144302D384637412D3042433546423434324446312F636F72652E786D6C9551CB6E833010FC15B47703368F92C8380A8DF8829E7A73F1865A0936C2
311
A6EAE7D70E546A6FED69ADF1CCEECE2C3F7D4EF7E40317A7AD6981A639246806ABB4195B58FD9534909C045FACF53F68901839610B1106C1C7C5AEF30E0DD67834113556E10E4AE7D04332DCC3A30537BCE32453B9FAC070B77496C34D8E98D274E309EEF5F42D1D16941E150896B382504A58F942CB232B8F55FDCAB3C814
311
7CD5C6176C1F86D31BAAC4CE3E580251F16CFB0DAC55AB9DA355D8515F352E20CE356D0E87AE20759377A4A4979C34FDD399E4DD73D57765C92E3D0D4D825870E79790CCDE2466F057F926FCE56C9DD53F9D6D0A0722EEF3B02C7816630EE5718350E349C417504B03041400060808001C737857DBC8F9D508010000B20100
311
0008000000636F72652E786D6C8D50C16E842014FC15F2EEA8A0EB9A0DB259DBFA053DF54685B564150CE0A6FDFBC26A93F6D6D32333F3DE0CC3CE9FF384EECA796D4D0B242B00293358A9CDD8C21AAEB80174E6CC591B7EC9001931AB16120C9C8DCEAECB0E0DD60465126AAC543B28BC5701D030C5470B7EF850B3C8C41A
311
A2C2DFB2450C3731AA8C649B8EB3A0E79FD5C1291194044E0B5A624230AD5E4975A2D5E950BFB13C29395B572D772B2DA3BBBE6AE5805F1A7AE88BBAC4F4A57BC6555537B829BA237E6A9AAEBE1C49DF974796A765CE7C70F1CFFB919833202FEEC997E51BC5D9BBB5D32E88A124B266FA025EB03C117F42AF8BFC47686D42
311
49F783DB86074E62A007118D5383713CEA8D33B5CDBF01504B010214001400060808001C737857C24AD32CD7000000200100004F000000000000000000000000000000000041363138393942332D363830422D343144302D384637412D3042433546423434324446312F4173736574446174612F446566696E6974696F6E49
311
74657261746F7250726F706572746965732E62696E504B010214001400060808001C737857F79930FD030100003002000045000000000000000000000000004401000041363138393942332D363830422D343144302D384637412D3042433546423434324446312F4173736574446174612F496E7374616E636550726F7065
311
72746965732E62696E504B010214001400060808001C73785728BB58AF800100009E0500003D00000000000000000000000000AA02000041363138393942332D363830422D343144302D384637412D3042433546423434324446312F536368656D61732F436F6D6D6F6E536368656D612E786D6C504B010214001400060808
311
001C7378572CCEBD668A040000E01200003E000000000000000000000000008504000041363138393942332D363830422D343144302D384637412D3042433546423434324446312F536368656D61732F47656E65726963536368656D612E786D6C504B010214001400060808001C7378576180134D5F0100006B0300004500
311
0000000000000000000000006B09000041363138393942332D363830422D343144302D384637412D3042433546423434324446312F536368656D61732F52656E6465724D6174657269616C536368656D612E786D6C504B010214001400060808001C737857ADD6524051000000570000004700000000000000000000000000
311
2D0B000041363138393942332D363830422D343144302D384637412D3042433546423434324446312F4173736574446174612F41737365745461626C654F66436F6E74656E74732E62696E504B010214001400060808001C737857F865834058000000680000004500000000000000000000000000E30B0000413631383939
311
42332D363830422D343144302D384637412D3042433546423434324446312F4173736574446174612F53747265616D56657273696F6E5461626C652E696E66504B010214001400060808001C737857018856F9350100009A04000036000000000000000000000000009E0C000041363138393942332D363830422D34314430
311
2D384637412D3042433546423434324446312F4173736574446174612F636E782E786D6C504B010214001400060808001C737857E78EB4CC090100004F0300003400000000000000000000000000270E000041363138393942332D363830422D343144302D384637412D3042433546423434324446312F536368656D61732F
311
636E782E786D6C504B010214001400060808001C737857410A3D5871000000A40000002C00000000000000000000000000820F000041363138393942332D363830422D343144302D384637412D3042433546423434324446312F636E782E786D6C504B010214001400060808001C73785727AC466B7E000000A30000000700
311
0000000000000000000000003D100000636E782E786D6C504B010214001400060808001C73785716E99B5DA6000000350100001300000000000000000000000000E01000005B436F6E74656E745F54797065735D2E786D6C504B010214001400060808001C7378573DEE336E64000000790000001B00000000000000000000
311
000000B71100006175746F6465736B2D64657369676E2D7061636B6167652E786D6C504B010214001400060808001C7378572AF390BAF90000009601000037000000000000000000000000005412000041363138393942332D363830422D343144302D384637412D3042433546423434324446312F4173736574446174612F
311
636F72652E786D6C504B010214001400060808001C737857911E82FBF7000000940100003500000000000000000000000000A213000041363138393942332D363830422D343144302D384637412D3042433546423434324446312F536368656D61732F636F72652E786D6C504B010214001400060808001C7378579D8A6609
311
03010000D70100002D00000000000000000000000000EC14000041363138393942332D363830422D343144302D384637412D3042433546423434324446312F636F72652E786D6C504B010214001400060808001C737857DBC8F9D508010000B201000008000000000000000000000000003A160000636F72652E786D6C504B
311
050600000000110011005A060000681700000000
310
504B03041400060808001C737857000000000000000000000000370000006662782F43464438463343302D333831462D343537392D394532372D3333393242334343363143442F617474726962757465732E62696E504B03041400060808001C737857000000000000000000000000350000006662782F4346443846334330
310
2D333831462D343537392D394532372D3333393242334343363143442F76657274696365732E62696E504B03041400060808001C737857F270F1330600000004000000360000006662782F43464438463343302D333831462D343537392D394532372D3333393242334343363143442F747269616E676C65732E62696E6366
310
60600000504B03041400060808001C73785751464CB48900000043010000360000006662782F43464438463343302D333831462D343537392D394532372D3333393242334343363143442F6469726563746F72792E786D6C9D8F310EC2300C45AF127987122606C71DD918B841D4B851A43646695A717C52A85029031293A5
310
A76FBF6FACEF7DA7264E43906840EF0FA03836E242F406C6DCEE4EA06AC22492573150D1F66C60C640E8938CB705396EEDD86DE9B5042FE27813D640EA63BB001C722AF6E55CB61E4863F58284D5D3F53DD715CE1C3985E63FD7F1B7EBDD617E9F1E504B03041400060808001C7378576067EE2243070000201C0000340000
310
006662782F43464438463343302D333831462D343537392D394532372D3333393242334343363143442F6F626A656374732E786D6CDD595B6FE23814FE2B56F665F721376E85116544A11DA15167468366B56F9109867AEB5CE4242DDD5FBFC78E1DE234403A1769B55482D4718ECFF9CEFD64FAFE1031F444784693F8DAF2
310
1DCF42240E932D8DF7D75691EFECB185DECFD09427495EDB67A11847E4DA12CBD66CBAE74991AAA52DD9E1823557EF6EFE4259486262A190E12CBBB6B2F08144D8C1459E6C49F6E86C718E9DFDEEE0F84EB9D124BBE7387D681C95624EE21C5885F518A8280E7CF35F10C99D4D5DB1C1D8D6EFB6AD77669B2B053719A57196
310
E3387CC555E3B8DE09AE1AC7F5FDC1F2B6379CD8C3C1A06F0F463DDFBEB9BB59DAFE55DF5B8C168BC9FC7662A1D9749324AC52404AE22D68F1C59AF95357DCA9C45728B4F11D26714C428566DB862D517429C99A9818C0FA52B49A424A596B0BFD8EC29FD8D609148325036D2D9CFEAD5B6FB2F91B40C8BA5829CF88B0F22C
310
E7A06B857DE90FDED42D570DBDD00C4538279C628618DD70CC4141B0B554904146788B20850466528B9A5E9D5730ECCBBED4C6E5AE604CF8AF35939E16803F923C939CD17F083F725F3F0D7802690B1AE763256CFE920289C9D4958BE5BD7E4FDD2C81443B86F7602D20A6D8D4EF35F05A8858B05A5AB38F779BC35AC487F6
310
C3539EA484E7C2F2A4332BBFD31AAC9916185F07504A5C4DDD1D51F90AD07F02E42B5ED01434C7E961701868D9398EB35DC223D00EF290EDC19787C4E5ABABA95B3D3C43C88895A73005B7FD49981A621867D7209D4D9FC0E813DE57C2AD43CCC0A6EF692CFC1C0C05B1049620DEEF36076BB682600A8BF01466203DFC4D5D
310
7189E0A7A403F1A6A1A1B6F0DB4151DA619A7E76D4D507B0194EC34A55868CA7F01DFE147CE7CBF5C775C1773824F7CAB1976447639A43326D67C800DD70F96FAB4FD2233FB06483D9F169635308C7EC1311375AD4B2566A41522FC08948C3A566E4CA3D056F670CC7242932B5DE16A7C284253CD8BC04A50BB79EF5A7B681
310
F2306500ADB10C927BC8692A30B1664A5B5520746A82828561AE2C705F6A35D814511AE0282962116A5F9B62930F8833C21281AAA4A60D5B7BAD26BBA5BB5D9141F06A25B9308054FEAC0997163E8038D6C62F273B8E2189267140210783B3B49E601C5081779EE78CB05D40192BA2604719E49120C2E909FA1D25A867AE47
310
F2F29CF06D2B41D3B2B44F6A1B12802B6035483A5B95315FE99493272ACA4C99CF74363076A83AD49A0D4EA40B91295A00D5C628CD7C3E995C2DE68BB9BD9C780B7BE0CF7BF664DC9FDBA3DE727477335F8CE613707F6525128163B4AAE73B50A528730CFFCB1F8A681363CAE086A080B7E9BBF7327B5EBB101ADD85D7F3FA
310
8BE5AD3DBCED2FEDC155EFCEBE592E07F6C2BFB9ED0D06E3ABC170EC729225050F49E6F65C2FD02699C6FB535C55B154642D901FBE15A450D65C4E765A5F4D61FEC731B499130C25FE57836815BB5A0AC2AE41543CDA0CA1387C14292A08A1EA6B759F46106DF2D116E7DE18973DA7EFC98FEF4F7ADEA4379E8C2A633F1BA8
310
E5393F1CE7DA2408A1EF2CF220497148F3F684DAC0A5639C7E536E71FAFE10013AD57775C8F93CA30E096884F724D861D125B404C64B12B4E6B03D4BB28CC624935DDEABEAAF41D3738ED154A9B2C50869164424C7DF637FB26D68D834C46616403F9A8B89C0C5AAA03268D5819CA228BA5F48DC52FE9720C351CACA4EF712
310
067E4F5BB3EE71DA2C4E302D8E78027B0B701E785B22071797A857ECEBFAA0556B4DEA93EF267F021E5DD7FC4278F411DD4B2767E84FC4670C416534F4FB575A1197B0D247E5A28F6305749EE14BF04CE8FEA153A1D94D27B592AD2CAA7312411B8BF38277F2D7D1D07B75908A0B0D87A89DF4C6E250F66FBA8303F4640377
310
AABCAD1D0375288D61CED549905752B49AB0D4859CE989D1D51BFCFAACB2EB547F385EFEF28AB9EE7C11147A5D70806AB92C6755F4316AEAD6AADBA887B2679C871048D7F2D7BE018FD892EDB13133C8B595E8BA3EBD543DAF44408D60628B459CBD1717EC2B065543F79CB91FCAA2CD2DD75722B139309C3EF261306DD2FA
310
FC61DDA0022B9D9FFE223022CF0D0A6A7521BAE133A4BEAD8E3D7F838292E8DBEACCE3FF898E422BB0D659C034384B1885A13CD9A23D49207BC3D8A143B7C12392C9AC7CEC52F41B810E4F3F9533D51C6F98EE71C2070C8369A67AB12284A12864CC6B4BADA3DF600C2A26917238E53C421BA66298850A4EAF2DB0D89C42B7
310
E56C609C258787927A635C098E8DE3BDC8F7E553D5FFC7C75E755FD59E2EB828C90C6782C23695EF09A0EA2B6FCCA6DF2FBA6607E11C2E37455E09735C384AA340D02F044AE160EAF7A8E03D4041715E2EDF917B8C86B4D364FEAC1D9454ED1CF3BD1CAFD76C72BEFCE28AC9F8EA334A59B117EA3CD7FD1A946CD175B3A29C
310
424DC1309498291635E4E29DFB8527F08A294277148C00FD7E188FFE701749142571B9E4CED58B2AB47E80D74E5B578FFCA08DF7FCA12BA7006AAC1F6C70461CBCCD1E610154CBA9988D96101B065045D39A01688D085DC063C6FED512A9DAA83621A9875D018F9CE9237024F12E47B84D7D436D0009BE005CC99BC70BBD30
310
75390CC167FF02504B03041400060808001C737857746929E33E01000046050000300000006662782F43464438463343302D333831462D343537392D394532372D3333393242334343363143442F636E782E786D6CCD94C14E032110865F8570DFA5BB56631A96261E7C020FC61BCB4E572C0B1B188C7D7BA1D2AA31351E9A
310
D81B19FE49FE6FE6CFF0F5DB64C82BF8A09DED68532F2801ABDCA0EDD8D1889BEA9692B5E0DE39FC22A3C4CA093A9ACB54F0D1BB3897D2001B194DAE1A6DB7A52811BDEE2342A04419194247837A8649D632A21B206CEB41A2AC9BDA4370D12B48FDA82728FDCA834418A86817ED55D53455BB7C6896AB76B9BABE79E22C2B
310
05EF9D3345AF2D827733512E3D6C32B3E02C7F0B1EBD2E9A4C40C5A7B3BAD796B3F42F78486EED5874B89BB36E9E8D5612D398985308582511C889B30FB1E02CF37EA3BEBF7B3C382083F6A0D0F9DD3F0DA0393580A3B13A25E16FFC7BE1EFD8AE7F49B8FFB5ED93B0C5D6D9500F690D29AE3FF79F5224ED682E2FF44763E7
310
CF7C3A25A8D5E5211F7C9D8998ED4F5E5A7ABE80E21D504B03041400060808001C737857867378137E000000A30000000B0000006662782F636E782E786D6C4D8CD10AC22018465F45FE7B6BCE6A0AEA2097EF319A1B92D3B0193D7E1ABBE8EA83C3778EE83FAB476F9B5E2E0609E4D000B2E11E27171609799B3103D42B91
310
62DCFE6E80C2B85A091583124B8AF9B9A3C9CE63F6957A171E3BD4666086EA0653460C3E9D3B8EF9ADED30A5BCBD52AD2F440FC53856A5CCAF57B6E6D517504B03041400060808001C737857A6D797065F0000008200000007000000636E782E786D6C4DCB3B0E80201045D1AD90E9FD7516806B51190811670C8A61F982B1
310
B0BAC9C97B72CA7B1037C6D3332918DA1E04D2CAC69353902EDB8C20262D23F3F59B81A079470595414B17391D1F19B4730A5583A7ED43BBE4025D9592775E5ADFFA01504B03041400060808001C7378574FEB6A7CA0000000F4000000130000005B436F6E74656E745F54797065735D2E786D6C7D8F4B0EC2300C44AF1279
310
DFA6B0400835ED02B8011730C16D239A8F121795DB93D02D6269CFBC19BBED573B8B17C564BC53B0AB1B10E4B47F18372A5878A88E20FAAEBDBD032591BD2E299898C349CAA427B2986A1FC86565F0D122E7318E32A07EE24872DF3407A9BD63725C71C980AEBDD080CBCCE2BAE6F5D69B7110E7CD57AA146008B3D1C8F92C
310
5954F993BB1BF787F39A89ABC491D09600F9FDA2FB00504B03041400060808001C7378573DEE336E64000000790000001B0000006175746F6465736B2D64657369676E2D7061636B6167652E786D6C35CBC10E83200C00D05F21DCA56CA76D41FC96062B120735B69A7DBE268BB7777961F8D5AF396893C2ADB70FE7ADA196
310
782C2DF776D7A97B5933C430F15651E5469C55D70F80A4992A3ADC954792C525AE70A1E4D6AD9816CC044FEFDF01FE3FDE907802504B03041400060808001C737857CAB8D1FDF9000000960100003B0000006662782F43464438463343302D333831462D343537392D394532372D3333393242334343363143442F7265736F
310
75726365732F636F72652E786D6C8550CB6E833010FC15B47743709C0791710454FD829E7AB3CC865A0936F2A3EAE7D70E546A4F3DED6A76667677F8F56B7E149FE8BCB6A685BADC418146D9519BA985186EE40CC55570676DF84583C2C8195BC830083E391B970D52D60434193576C40D94DE6380423D52D382571F38CB52
310
C69018FE5E2E52DDE584655DAE3CC163D4E326D56372D3378D0EC4A9EFBB9753FF4ABA43371036F41DE95843C9B1EF9A33652736340DAFB258F0A0E79FEDCAA10C3882A03BBA27754D287BABD985B2CBE1F8CEABCC14DC07977EDE96E6EF4038F4363A859E57EBF48F6B5CC6FF5DA336614F37D755E141D4E9C8E740F02AA7
310
94CA33C25473A2E21B504B03041400060808001C737857B9D090D3F3000000B1010000310000006662782F43464438463343302D333831462D343537392D394532372D3333393242334343363143442F636F72652E786D6C8D50CB6EC32010FC156BEFD8069CC4893091EAD45FD0536F08130725068B47D5CF2FC4AED4DE72
310
5A343BC3CC0E3B7FCF8FE24B39AFADE900973514CA483B6A337510C315B5509C3973D6863F34288C9855071906CE2667E3B241D29AA04C468D1DD5060AEF5580423ED2A3032F6F6A16A5882131FCBD5C84BC8B4995B85C799C053DFF4AA55322A81138A909451823D27CE0E6449AD36EFFC9AACCE42C463D6E567A4CEEFAAA
310
9503DE0F9776A07D8D688B07D4EC0E47747C270744E991BCD1BEDFE3FEC2AA2CE6CC07976EDE3EC9D7BD2A5F85FF32C7657C21B3368192CD705578E038E5792E38AB7281693CDB4D3397CD7F00504B03041400060808001C73785776A817FF53010000DD0200000C0000006662782F636F72652E786D6C8D52DB8E832014FC
310
15C33B5A29BD0669B49BFD827DDA378AD425553008A69FBFE025AE0FDBDD98209973CECC9909E4F26CEAA817A6935A65208D3720128AEB52AA2A03CEDEE11144174A8CD6F6471B88146B4406020C28A98C76ED0471ADAC500155BA1413C8BA4E5810F1DA5F32D0F12FD1B09839EB3BBA47DC32FE609588D378ECA3C439594E
310
A3B2F46CF22E8501F45014F9DBA17887F92EBF427C2D7298E31382FB223F1D113EE0EBE94492304C8995CDACCE8D60569480A20DDAC23485087FA4F88CF079B7FF2449E8A4A4B3C67B9E44833B40EFB72749467CC5E7DAF26F3E2795DDA2896F9CE8004DFD7A43819224E4E37F4378EB0CBDB0CFCFB25B3D5B7878A817DC6A
310
837DA5D46E29F5AC76C2536FA2E123C958F5CC03C16F3CE805CF6B0E1F1453955F8D597FBD391BD4D73BB5C2C0DE3E23A54DC3EA65B971C5E55C845696E671AE6B6DFE333D5B9DC34CC2C3A4DF504B03041400060808001C737857BB25F39908010000B201000008000000636F72652E786D6C8D50CB6EC32010FC15B477FC
310
20248E234C64BBEA17F4D41B35C441B1C1021CB57F5F485CA9BDF5B4686676671876FE9C277457CE6B6B1A28B30290328395DA8C0DACE1828F80CE9C396BC32F19202366D5408281B3D1D975D9A0C19AA04C428D956A0385F72A001AA6F868C00F57358B4CAC212AFC2D5BC47013A3CACAECA9E32CE8F96775704A04258193
310
82EC70596242DF4A7A22F4B43FBCB33C29395B572D372B2DA3BBBE68E580575DD7BE54DD2B6EF76D8F69DFB5B8A535C187AEAD8F8456B4AF6B96A765CE7C70F1CFDB919833202FEEC997E54F8AB30F6BA74D10434964CDF405BC607922FE845E17F98FD0DA841DD90E3E373CF032067A10D1383518C7A3DE3853DBFC1B504B
310
010214001400060808001C7378570000000000000000000000003700000000000000000000000000000000006662782F43464438463343302D333831462D343537392D394532372D3333393242334343363143442F617474726962757465732E62696E504B010214001400060808001C737857000000000000000000000000
310
3500000000000000000000000000550000006662782F43464438463343302D333831462D343537392D394532372D3333393242334343363143442F76657274696365732E62696E504B010214001400060808001C737857F270F13306000000040000003600000000000000000000000000A80000006662782F434644384633
310
43302D333831462D343537392D394532372D3333393242334343363143442F747269616E676C65732E62696E504B010214001400060808001C73785751464CB489000000430100003600000000000000000000000000020100006662782F43464438463343302D333831462D343537392D394532372D333339324233434336
310
3143442F6469726563746F72792E786D6C504B010214001400060808001C7378576067EE2243070000201C00003400000000000000000000000000DF0100006662782F43464438463343302D333831462D343537392D394532372D3333393242334343363143442F6F626A656374732E786D6C504B01021400140006080800
310
1C737857746929E33E010000460500003000000000000000000000000000740900006662782F43464438463343302D333831462D343537392D394532372D3333393242334343363143442F636E782E786D6C504B010214001400060808001C737857867378137E000000A30000000B00000000000000000000000000000B00
310
006662782F636E782E786D6C504B010214001400060808001C737857A6D797065F000000820000000700000000000000000000000000A70B0000636E782E786D6C504B010214001400060808001C7378574FEB6A7CA0000000F400000013000000000000000000000000002B0C00005B436F6E74656E745F54797065735D2E
310
786D6C504B010214001400060808001C7378573DEE336E64000000790000001B00000000000000000000000000FC0C00006175746F6465736B2D64657369676E2D7061636B6167652E786D6C504B010214001400060808001C737857CAB8D1FDF9000000960100003B00000000000000000000000000990D00006662782F43
310
464438463343302D333831462D343537392D394532372D3333393242334343363143442F7265736F75726365732F636F72652E786D6C504B010214001400060808001C737857B9D090D3F3000000B10100003100000000000000000000000000EB0E00006662782F43464438463343302D333831462D343537392D39453237
310
2D3333393242334343363143442F636F72652E786D6C504B010214001400060808001C73785776A817FF53010000DD0200000C000000000000000000000000002D1000006662782F636F72652E786D6C504B010214001400060808001C737857BB25F39908010000B20100000800000000000000000000000000AA11000063
310
6F72652E786D6C504B0506000000000E000E0080040000D81200000000
  0
XRECORD
  5
839E
102
{ACAD_REACTORS
330
8399
102
}
330
8399
100
AcDbXrecord
280
     1
270
     1
271
     1
  0
XRECORD
  5
839D
102
{ACAD_REACTORS
330
8399
102
}
330
8399
100
AcDbXrecord
280
     1
270
     1
271
     1
  0
XRECORD
  5
839F
102
{ACAD_REACTORS
330
8399
102
}
330
8399
100
AcDbXrecord
280
     1
270
     1
271
     1
  0
XRECORD
  5
839C
102
{ACAD_REACTORS
330
8399
102
}
330
8399
100
AcDbXrecord
280
     1
270
     1
271
     1
  0
XRECORD
  5
87D5
102
{ACAD_REACTORS
330
87D4
102
}
330
87D4
100
AcDbXrecord
280
     1
102
DISPLAYNAME
  1
Imperial24
102
FLAGS
 90
        0
  0
CELLSTYLEMAP
  5
879C
102
{ACAD_REACTORS
330
879B
102
}
330
879B
100
AcDbCellStyleMap
 90
        3
300
CELLSTYLE
  1
TABLEFORMAT_BEGIN
 90
        5
170
     1
 91
        0
 92
    32768
 62
   257
 93
        1
300
CONTENTFORMAT
  1
CONTENTFORMAT_BEGIN
 90
        0
 91
        0
 92
      512
 93
        0
300

 40
0.0
140
1.0
 94
        5
 62
     0
340
83CC
144
0.25
309
CONTENTFORMAT_END
171
     0
 94
        0
309
TABLEFORMAT_END
  1
CELLSTYLE_BEGIN
 90
        1
 91
        1
300
_TITLE
309
CELLSTYLE_END
300
CELLSTYLE
  1
TABLEFORMAT_BEGIN
 90
        5
170
     1
 91
        0
 92
        0
 62
   257
 93
        1
300
CONTENTFORMAT
  1
CONTENTFORMAT_BEGIN
 90
        0
 91
        0
 92
      512
 93
        0
300

 40
0.0
140
1.0
 94
        5
 62
     0
340
83CC
144
0.18
309
CONTENTFORMAT_END
171
     0
 94
        0
309
TABLEFORMAT_END
  1
CELLSTYLE_BEGIN
 90
        2
 91
        1
300
_HEADER
309
CELLSTYLE_END
300
CELLSTYLE
  1
TABLEFORMAT_BEGIN
 90
        5
170
     1
 91
        0
 92
        0
 62
   257
 93
        1
300
CONTENTFORMAT
  1
CONTENTFORMAT_BEGIN
 90
        0
 91
        0
 92
      512
 93
        0
300

 40
0.0
140
1.0
 94
        2
 62
     0
340
83CC
144
0.18
309
CONTENTFORMAT_END
171
     0
 94
        0
309
TABLEFORMAT_END
  1
CELLSTYLE_BEGIN
 90
        3
 91
        2
300
_DATA
309
CELLSTYLE_END
  0
XRECORD
  5
87D2
102
{ACAD_REACTORS
330
879B
102
}
330
879B
100
AcDbXrecord
280
     1
102
ACAD_ROUNDTRIP_PRE2007_TABLESTYLE
 90
      512
 91
        0
  1

 92
      512
 93
        0
  2

 94
      512
 95
        0
  3

  0
XRECORD
  5
87AD
102
{ACAD_REACTORS
330
87AC
102
}
330
87AC
100
AcDbXrecord
280
     1
102
RTVSPost2010Prop28
280
     1
102
RTVSPost2010PropOp28
 70
     1
102
RTVSPost2010Prop29
280
     1
102
RTVSPost2010PropOp29
 70
     1
102
RTVSPost2010Prop30
280
     0
102
RTVSPost2010PropOp30
 70
     1
102
RTVSPost2010Prop31
280
     0
102
RTVSPost2010PropOp31
 70
     1
102
RTVSPost2010Prop32
280
     0
102
RTVSPost2010PropOp32
 70
     1
102
RTVSPost2010Prop33
280
     0
102
RTVSPost2010PropOp33
 70
     1
102
RTVSPost2010Prop34
280
     0
102
RTVSPost2010PropOp34
 70
     1
102
RTVSPost2010Prop35
280
     0
102
RTVSPost2010PropOp35
 70
     1
102
RTVSPost2010Prop36
280
     0
102
RTVSPost2010PropOp36
 70
     1
102
RTVSPost2010Prop37
 90
       50
102
RTVSPost2010PropOp37
 70
     1
102
RTVSPost2010Prop38
140
0.0
102
RTVSPost2010PropOp38
 70
     1
102
RTVSPost2010Prop39
140
1.0
102
RTVSPost2010PropOp39
 70
     1
102
RTVSPost2010Prop40
 90
        0
102
RTVSPost2010PropOp40
 70
     1
102
RTVSPost2010Prop41ColorIndex
 90
       18
102
RTVSPost2010Prop41ColorRGB
 90
        0
102
RTVSPost2010PropOp41
 70
     1
102
RTVSPost2010Prop42
 90
       50
102
RTVSPost2010PropOp42
 70
     1
102
RTVSPost2010Prop43
 90
        3
102
RTVSPost2010PropOp43
 70
     1
102
RTVSPost2010Prop44ColorIndex
 90
        5
102
RTVSPost2010Prop44ColorRGB
 90
      255
102
RTVSPost2010PropOp44
 70
     1
102
RTVSPost2010Prop45
280
     0
102
RTVSPost2010PropOp45
 70
     1
102
RTVSPost2010Prop46
 90
       50
102
RTVSPost2010PropOp46
 70
     1
102
RTVSPost2010Prop47
 90
       50
102
RTVSPost2010PropOp47
 70
     1
102
RTVSPost2010Prop48
 90
       50
102
RTVSPost2010PropOp48
 70
     1
102
RTVSPost2010Prop49
280
     0
102
RTVSPost2010PropOp49
 70
     1
102
RTVSPost2010Prop50
 90
       50
102
RTVSPost2010PropOp50
 70
     1
102
RTVSPost2010Prop51ColorIndex
 90
      256
102
RTVSPost2010Prop51ColorRGB
 90
-16777216
102
RTVSPost2010PropOp51
 70
     0
102
RTVSPost2010Prop52
140
1.0
102
RTVSPost2010PropOp52
 70
     0
102
RTVSPost2010Prop53
 90
        2
102
RTVSPost2010PropOp53
 70
     1
102
RTVSPost2010Prop54
  1
strokes_ogs.tif
102
RTVSPost2010PropOp54
 70
     1
102
RTVSPost2010Prop55
280
     0
102
RTVSPost2010PropOp55
 70
     1
102
RTVSPost2010Prop56
140
1.0
102
RTVSPost2010PropOp56
 70
     1
102
RTVSPost2010Prop57
140
1.0
102
RTVSPost2010PropOp57
 70
     1
102
RTVSPropertyOp0
 70
     1
102
RTVSPropertyOp1
 70
     1
102
RTVSPropertyOp2
 70
     1
102
RTVSPropertyOp3
 70
     1
102
RTVSPropertyOp4
 70
     1
102
RTVSPropertyOp5
 70
     1
102
RTVSPropertyOp6
 70
     1
102
RTVSPropertyOp7
 70
     1
102
RTVSPropertyOp8
 70
     1
102
RTVSPropertyOp9
 70
     1
102
RTVSPropertyOp10
 70
     1
102
RTVSPropertyOp11
 70
     1
102
RTVSPropertyOp12
 70
     1
102
RTVSPropertyOp13
 70
     1
102
RTVSPropertyOp14
 70
     1
102
RTVSPropertyOp15
 70
     1
102
RTVSPropertyOp16
 70
     1
102
RTVSPropertyOp17
 70
     1
102
RTVSPropertyOp18
 70
     1
102
RTVSPropertyOp19
 70
     1
102
RTVSPropertyOp20
 70
     1
102
RTVSPropertyOp21
 70
     1
102
RTVSPropertyOp22
 70
     1
102
RTVSPropertyOp23
 70
     1
102
RTVSPropertyOp24
 70
     1
102
RTVSPropertyOp25
 70
     1
102
RTVSPropertyOp26
 70
     1
102
RTVSPropertyOp27
 70
     1
102
RTVSPropertyOp28
 70
     1
102
RTVSPropertyOp29
 70
     1
102
RTVSPropertyOp30
 70
     1
102
RTVSPropertyOp31
 70
     1
102
RTVSPropertyOp32
 70
     1
102
RTVSPropertyOp33
 70
     1
102
RTVSPropertyOp34
 70
     1
102
RTVSPropertyOp35
 70
     1
102
RTVSPropertyOp36
 70
     1
102
RTVSPropertyOp37
 70
     1
102
RTVSPropertyOp38
 70
     1
102
RTVSPropertyOp39
 70
     1
102
RTVSPropertyOp40
 70
     1
102
RTVSPropertyOp41
 70
     1
102
RTVSPropertyOp42
 70
     1
102
RTVSPropertyOp43
 70
     1
102
RTVSPropertyOp44
 70
     1
102
RTVSPropertyOp45
 70
     1
102
RTVSPropertyOp46
 70
     1
102
RTVSPropertyOp47
 70
     1
102
RTVSPropertyOp48
 70
     1
102
RTVSPropertyOp49
 70
     1
102
RTVSPropertyOp50
 70
     1
102
RTVSPropertyOp51
 70
     0
102
RTVSPropertyOp52
 70
     0
102
RTVSPropertyOp53
 70
     1
102
RTVSPropertyOp54
 70
     1
102
RTVSPropertyOp55
 70
     1
102
RTVSPropertyOp56
 70
     1
102
RTVSPropertyOp57
 70
     1
102
RTVSPropertyOp58
 70
     1
102
RTVSPropertyOp59
 70
     1
102
RTVSPropertyOp60
 70
     1
102
RTVSPropertyOp61
 70
     1
102
RTVSPropertyOp62
 70
     1
  0
XRECORD
  5
87AB
102
{ACAD_REACTORS
330
87AA
102
}
330
87AA
100
AcDbXrecord
280
     1
102
RTVSPost2010Prop28
280
     0
102
RTVSPost2010PropOp28
 70
     1
102
RTVSPost2010Prop29
280
     1
102
RTVSPost2010PropOp29
 70
     1
102
RTVSPost2010Prop30
280
     1
102
RTVSPost2010PropOp30
 70
     1
102
RTVSPost2010Prop31
280
     0
102
RTVSPost2010PropOp31
 70
     1
102
RTVSPost2010Prop32
280
     0
102
RTVSPost2010PropOp32
 70
     1
102
RTVSPost2010Prop33
280
     0
102
RTVSPost2010PropOp33
 70
     1
102
RTVSPost2010Prop34
280
     0
102
RTVSPost2010PropOp34
 70
     1
102
RTVSPost2010Prop35
280
     0
102
RTVSPost2010PropOp35
 70
     1
102
RTVSPost2010Prop36
280
     0
102
RTVSPost2010PropOp36
 70
     1
102
RTVSPost2010Prop37
 90
       50
102
RTVSPost2010PropOp37
 70
     1
102
RTVSPost2010Prop38
140
0.0
102
RTVSPost2010PropOp38
 70
     1
102
RTVSPost2010Prop39
140
1.0
102
RTVSPost2010PropOp39
 70
     1
102
RTVSPost2010Prop40
 90
        0
102
RTVSPost2010PropOp40
 70
     1
102
RTVSPost2010Prop41ColorIndex
 90
       18
102
RTVSPost2010Prop41ColorRGB
 90
        0
102
RTVSPost2010PropOp41
 70
     1
102
RTVSPost2010Prop42
 90
       50
102
RTVSPost2010PropOp42
 70
     1
102
RTVSPost2010Prop43
 90
        3
102
RTVSPost2010PropOp43
 70
     1
102
RTVSPost2010Prop44ColorIndex
 90
        5
102
RTVSPost2010Prop44ColorRGB
 90
      255
102
RTVSPost2010PropOp44
 70
     1
102
RTVSPost2010Prop45
280
     0
102
RTVSPost2010PropOp45
 70
     1
102
RTVSPost2010Prop46
 90
       50
102
RTVSPost2010PropOp46
 70
     1
102
RTVSPost2010Prop47
 90
       50
102
RTVSPost2010PropOp47
 70
     1
102
RTVSPost2010Prop48
 90
       50
102
RTVSPost2010PropOp48
 70
     1
102
RTVSPost2010Prop49
280
     0
102
RTVSPost2010PropOp49
 70
     1
102
RTVSPost2010Prop50
 90
       50
102
RTVSPost2010PropOp50
 70
     1
102
RTVSPost2010Prop51ColorIndex
 90
      256
102
RTVSPost2010Prop51ColorRGB
 90
-16777216
102
RTVSPost2010PropOp51
 70
     0
102
RTVSPost2010Prop52
140
1.0
102
RTVSPost2010PropOp52
 70
     0
102
RTVSPost2010Prop53
 90
        2
102
RTVSPost2010PropOp53
 70
     1
102
RTVSPost2010Prop54
  1
strokes_ogs.tif
102
RTVSPost2010PropOp54
 70
     1
102
RTVSPost2010Prop55
280
     0
102
RTVSPost2010PropOp55
 70
     1
102
RTVSPost2010Prop56
140
1.0
102
RTVSPost2010PropOp56
 70
     1
102
RTVSPost2010Prop57
140
1.0
102
RTVSPost2010PropOp57
 70
     1
102
RTVSPropertyOp0
 70
     1
102
RTVSPropertyOp1
 70
     1
102
RTVSPropertyOp2
 70
     1
102
RTVSPropertyOp3
 70
     1
102
RTVSPropertyOp4
 70
     1
102
RTVSPropertyOp5
 70
     1
102
RTVSPropertyOp6
 70
     1
102
RTVSPropertyOp7
 70
     1
102
RTVSPropertyOp8
 70
     1
102
RTVSPropertyOp9
 70
     1
102
RTVSPropertyOp10
 70
     1
102
RTVSPropertyOp11
 70
     1
102
RTVSPropertyOp12
 70
     1
102
RTVSPropertyOp13
 70
     1
102
RTVSPropertyOp14
 70
     1
102
RTVSPropertyOp15
 70
     1
102
RTVSPropertyOp16
 70
     1
102
RTVSPropertyOp17
 70
     1
102
RTVSPropertyOp18
 70
     1
102
RTVSPropertyOp19
 70
     1
102
RTVSPropertyOp20
 70
     1
102
RTVSPropertyOp21
 70
     1
102
RTVSPropertyOp22
 70
     1
102
RTVSPropertyOp23
 70
     1
102
RTVSPropertyOp24
 70
     1
102
RTVSPropertyOp25
 70
     1
102
RTVSPropertyOp26
 70
     1
102
RTVSPropertyOp27
 70
     1
102
RTVSPropertyOp28
 70
     1
102
RTVSPropertyOp29
 70
     1
102
RTVSPropertyOp30
 70
     1
102
RTVSPropertyOp31
 70
     1
102
RTVSPropertyOp32
 70
     1
102
RTVSPropertyOp33
 70
     1
102
RTVSPropertyOp34
 70
     1
102
RTVSPropertyOp35
 70
     1
102
RTVSPropertyOp36
 70
     1
102
RTVSPropertyOp37
 70
     1
102
RTVSPropertyOp38
 70
     1
102
RTVSPropertyOp39
 70
     1
102
RTVSPropertyOp40
 70
     1
102
RTVSPropertyOp41
 70
     1
102
RTVSPropertyOp42
 70
     1
102
RTVSPropertyOp43
 70
     1
102
RTVSPropertyOp44
 70
     1
102
RTVSPropertyOp45
 70
     1
102
RTVSPropertyOp46
 70
     1
102
RTVSPropertyOp47
 70
     1
102
RTVSPropertyOp48
 70
     1
102
RTVSPropertyOp49
 70
     1
102
RTVSPropertyOp50
 70
     1
102
RTVSPropertyOp51
 70
     0
102
RTVSPropertyOp52
 70
     0
102
RTVSPropertyOp53
 70
     1
102
RTVSPropertyOp54
 70
     1
102
RTVSPropertyOp55
 70
     1
102
RTVSPropertyOp56
 70
     1
102
RTVSPropertyOp57
 70
     1
102
RTVSPropertyOp58
 70
     1
102
RTVSPropertyOp59
 70
     1
102
RTVSPropertyOp60
 70
     1
102
RTVSPropertyOp61
 70
     1
102
RTVSPropertyOp62
 70
     1
  0
XRECORD
  5
87B9
102
{ACAD_REACTORS
330
87B8
102
}
330
87B8
100
AcDbXrecord
280
     1
102
RTVSPost2010Prop28
280
     0
102
RTVSPost2010PropOp28
 70
     1
102
RTVSPost2010Prop29
280
     1
102
RTVSPost2010PropOp29
 70
     1
102
RTVSPost2010Prop30
280
     1
102
RTVSPost2010PropOp30
 70
     1
102
RTVSPost2010Prop31
280
     0
102
RTVSPost2010PropOp31
 70
     1
102
RTVSPost2010Prop32
280
     0
102
RTVSPost2010PropOp32
 70
     1
102
RTVSPost2010Prop33
280
     0
102
RTVSPost2010PropOp33
 70
     1
102
RTVSPost2010Prop34
280
     0
102
RTVSPost2010PropOp34
 70
     1
102
RTVSPost2010Prop35
280
     0
102
RTVSPost2010PropOp35
 70
     1
102
RTVSPost2010Prop36
280
     0
102
RTVSPost2010PropOp36
 70
     1
102
RTVSPost2010Prop37
 90
       50
102
RTVSPost2010PropOp37
 70
     1
102
RTVSPost2010Prop38
140
0.0
102
RTVSPost2010PropOp38
 70
     1
102
RTVSPost2010Prop39
140
1.0
102
RTVSPost2010PropOp39
 70
     1
102
RTVSPost2010Prop40
 90
        0
102
RTVSPost2010PropOp40
 70
     1
102
RTVSPost2010Prop41ColorIndex
 90
       18
102
RTVSPost2010Prop41ColorRGB
 90
        0
102
RTVSPost2010PropOp41
 70
     1
102
RTVSPost2010Prop42
 90
       50
102
RTVSPost2010PropOp42
 70
     1
102
RTVSPost2010Prop43
 90
        3
102
RTVSPost2010PropOp43
 70
     1
102
RTVSPost2010Prop44ColorIndex
 90
        5
102
RTVSPost2010Prop44ColorRGB
 90
      255
102
RTVSPost2010PropOp44
 70
     1
102
RTVSPost2010Prop45
280
     0
102
RTVSPost2010PropOp45
 70
     1
102
RTVSPost2010Prop46
 90
       50
102
RTVSPost2010PropOp46
 70
     1
102
RTVSPost2010Prop47
 90
       50
102
RTVSPost2010PropOp47
 70
     1
102
RTVSPost2010Prop48
 90
       50
102
RTVSPost2010PropOp48
 70
     1
102
RTVSPost2010Prop49
280
     0
102
RTVSPost2010PropOp49
 70
     1
102
RTVSPost2010Prop50
 90
       50
102
RTVSPost2010PropOp50
 70
     1
102
RTVSPost2010Prop51ColorIndex
 90
      256
102
RTVSPost2010Prop51ColorRGB
 90
-16777216
102
RTVSPost2010PropOp51
 70
     0
102
RTVSPost2010Prop52
140
1.0
102
RTVSPost2010PropOp52
 70
     0
102
RTVSPost2010Prop53
 90
        2
102
RTVSPost2010PropOp53
 70
     1
102
RTVSPost2010Prop54
  1
strokes_ogs.tif
102
RTVSPost2010PropOp54
 70
     1
102
RTVSPost2010Prop55
280
     0
102
RTVSPost2010PropOp55
 70
     1
102
RTVSPost2010Prop56
140
1.0
102
RTVSPost2010PropOp56
 70
     1
102
RTVSPost2010Prop57
140
1.0
102
RTVSPost2010PropOp57
 70
     1
102
RTVSPropertyOp0
 70
     1
102
RTVSPropertyOp1
 70
     1
102
RTVSPropertyOp2
 70
     1
102
RTVSPropertyOp3
 70
     1
102
RTVSPropertyOp4
 70
     1
102
RTVSPropertyOp5
 70
     1
102
RTVSPropertyOp6
 70
     1
102
RTVSPropertyOp7
 70
     1
102
RTVSPropertyOp8
 70
     1
102
RTVSPropertyOp9
 70
     1
102
RTVSPropertyOp10
 70
     1
102
RTVSPropertyOp11
 70
     1
102
RTVSPropertyOp12
 70
     1
102
RTVSPropertyOp13
 70
     1
102
RTVSPropertyOp14
 70
     1
102
RTVSPropertyOp15
 70
     1
102
RTVSPropertyOp16
 70
     1
102
RTVSPropertyOp17
 70
     1
102
RTVSPropertyOp18
 70
     1
102
RTVSPropertyOp19
 70
     1
102
RTVSPropertyOp20
 70
     1
102
RTVSPropertyOp21
 70
     1
102
RTVSPropertyOp22
 70
     1
102
RTVSPropertyOp23
 70
     1
102
RTVSPropertyOp24
 70
     1
102
RTVSPropertyOp25
 70
     1
102
RTVSPropertyOp26
 70
     1
102
RTVSPropertyOp27
 70
     1
102
RTVSPropertyOp28
 70
     1
102
RTVSPropertyOp29
 70
     1
102
RTVSPropertyOp30
 70
     1
102
RTVSPropertyOp31
 70
     1
102
RTVSPropertyOp32
 70
     1
102
RTVSPropertyOp33
 70
     1
102
RTVSPropertyOp34
 70
     1
102
RTVSPropertyOp35
 70
     1
102
RTVSPropertyOp36
 70
     1
102
RTVSPropertyOp37
 70
     1
102
RTVSPropertyOp38
 70
     1
102
RTVSPropertyOp39
 70
     1
102
RTVSPropertyOp40
 70
     1
102
RTVSPropertyOp41
 70
     1
102
RTVSPropertyOp42
 70
     1
102
RTVSPropertyOp43
 70
     1
102
RTVSPropertyOp44
 70
     1
102
RTVSPropertyOp45
 70
     1
102
RTVSPropertyOp46
 70
     1
102
RTVSPropertyOp47
 70
     1
102
RTVSPropertyOp48
 70
     1
102
RTVSPropertyOp49
 70
     1
102
RTVSPropertyOp50
 70
     1
102
RTVSPropertyOp51
 70
     0
102
RTVSPropertyOp52
 70
     0
102
RTVSPropertyOp53
 70
     1
102
RTVSPropertyOp54
 70
     1
102
RTVSPropertyOp55
 70
     1
102
RTVSPropertyOp56
 70
     1
102
RTVSPropertyOp57
 70
     1
102
RTVSPropertyOp58
 70
     1
102
RTVSPropertyOp59
 70
     1
102
RTVSPropertyOp60
 70
     1
102
RTVSPropertyOp61
 70
     1
102
RTVSPropertyOp62
 70
     1
  0
XRECORD
  5
87C1
102
{ACAD_REACTORS
330
87C0
102
}
330
87C0
100
AcDbXrecord
280
     1
102
RTVSPost2010Prop28
280
     0
102
RTVSPost2010PropOp28
 70
     1
102
RTVSPost2010Prop29
280
     1
102
RTVSPost2010PropOp29
 70
     1
102
RTVSPost2010Prop30
280
     1
102
RTVSPost2010PropOp30
 70
     1
102
RTVSPost2010Prop31
280
     0
102
RTVSPost2010PropOp31
 70
     1
102
RTVSPost2010Prop32
280
     0
102
RTVSPost2010PropOp32
 70
     1
102
RTVSPost2010Prop33
280
     0
102
RTVSPost2010PropOp33
 70
     1
102
RTVSPost2010Prop34
280
     0
102
RTVSPost2010PropOp34
 70
     1
102
RTVSPost2010Prop35
280
     0
102
RTVSPost2010PropOp35
 70
     1
102
RTVSPost2010Prop36
280
     0
102
RTVSPost2010PropOp36
 70
     1
102
RTVSPost2010Prop37
 90
       50
102
RTVSPost2010PropOp37
 70
     1
102
RTVSPost2010Prop38
140
0.0
102
RTVSPost2010PropOp38
 70
     1
102
RTVSPost2010Prop39
140
1.0
102
RTVSPost2010PropOp39
 70
     1
102
RTVSPost2010Prop40
 90
        0
102
RTVSPost2010PropOp40
 70
     1
102
RTVSPost2010Prop41ColorIndex
 90
       18
102
RTVSPost2010Prop41ColorRGB
 90
        0
102
RTVSPost2010PropOp41
 70
     1
102
RTVSPost2010Prop42
 90
       50
102
RTVSPost2010PropOp42
 70
     1
102
RTVSPost2010Prop43
 90
        3
102
RTVSPost2010PropOp43
 70
     1
102
RTVSPost2010Prop44ColorIndex
 90
        5
102
RTVSPost2010Prop44ColorRGB
 90
      255
102
RTVSPost2010PropOp44
 70
     1
102
RTVSPost2010Prop45
280
     0
102
RTVSPost2010PropOp45
 70
     1
102
RTVSPost2010Prop46
 90
       50
102
RTVSPost2010PropOp46
 70
     1
102
RTVSPost2010Prop47
 90
       50
102
RTVSPost2010PropOp47
 70
     1
102
RTVSPost2010Prop48
 90
       50
102
RTVSPost2010PropOp48
 70
     1
102
RTVSPost2010Prop49
280
     0
102
RTVSPost2010PropOp49
 70
     1
102
RTVSPost2010Prop50
 90
       50
102
RTVSPost2010PropOp50
 70
     1
102
RTVSPost2010Prop51ColorIndex
 90
      256
102
RTVSPost2010Prop51ColorRGB
 90
-16777216
102
RTVSPost2010PropOp51
 70
     0
102
RTVSPost2010Prop52
140
1.0
102
RTVSPost2010PropOp52
 70
     0
102
RTVSPost2010Prop53
 90
        2
102
RTVSPost2010PropOp53
 70
     1
102
RTVSPost2010Prop54
  1
strokes_ogs.tif
102
RTVSPost2010PropOp54
 70
     1
102
RTVSPost2010Prop55
280
     0
102
RTVSPost2010PropOp55
 70
     1
102
RTVSPost2010Prop56
140
1.0
102
RTVSPost2010PropOp56
 70
     1
102
RTVSPost2010Prop57
140
1.0
102
RTVSPost2010PropOp57
 70
     1
102
RTVSPropertyOp0
 70
     1
102
RTVSPropertyOp1
 70
     1
102
RTVSPropertyOp2
 70
     1
102
RTVSPropertyOp3
 70
     1
102
RTVSPropertyOp4
 70
     1
102
RTVSPropertyOp5
 70
     1
102
RTVSPropertyOp6
 70
     1
102
RTVSPropertyOp7
 70
     1
102
RTVSPropertyOp8
 70
     1
102
RTVSPropertyOp9
 70
     1
102
RTVSPropertyOp10
 70
     1
102
RTVSPropertyOp11
 70
     1
102
RTVSPropertyOp12
 70
     1
102
RTVSPropertyOp13
 70
     1
102
RTVSPropertyOp14
 70
     1
102
RTVSPropertyOp15
 70
     1
102
RTVSPropertyOp16
 70
     1
102
RTVSPropertyOp17
 70
     1
102
RTVSPropertyOp18
 70
     1
102
RTVSPropertyOp19
 70
     1
102
RTVSPropertyOp20
 70
     1
102
RTVSPropertyOp21
 70
     1
102
RTVSPropertyOp22
 70
     1
102
RTVSPropertyOp23
 70
     1
102
RTVSPropertyOp24
 70
     1
102
RTVSPropertyOp25
 70
     1
102
RTVSPropertyOp26
 70
     1
102
RTVSPropertyOp27
 70
     1
102
RTVSPropertyOp28
 70
     1
102
RTVSPropertyOp29
 70
     1
102
RTVSPropertyOp30
 70
     1
102
RTVSPropertyOp31
 70
     1
102
RTVSPropertyOp32
 70
     1
102
RTVSPropertyOp33
 70
     1
102
RTVSPropertyOp34
 70
     1
102
RTVSPropertyOp35
 70
     1
102
RTVSPropertyOp36
 70
     1
102
RTVSPropertyOp37
 70
     1
102
RTVSPropertyOp38
 70
     1
102
RTVSPropertyOp39
 70
     1
102
RTVSPropertyOp40
 70
     1
102
RTVSPropertyOp41
 70
     1
102
RTVSPropertyOp42
 70
     1
102
RTVSPropertyOp43
 70
     1
102
RTVSPropertyOp44
 70
     1
102
RTVSPropertyOp45
 70
     1
102
RTVSPropertyOp46
 70
     1
102
RTVSPropertyOp47
 70
     1
102
RTVSPropertyOp48
 70
     1
102
RTVSPropertyOp49
 70
     1
102
RTVSPropertyOp50
 70
     1
102
RTVSPropertyOp51
 70
     0
102
RTVSPropertyOp52
 70
     0
102
RTVSPropertyOp53
 70
     1
102
RTVSPropertyOp54
 70
     1
102
RTVSPropertyOp55
 70
     1
102
RTVSPropertyOp56
 70
     1
102
RTVSPropertyOp57
 70
     1
102
RTVSPropertyOp58
 70
     1
102
RTVSPropertyOp59
 70
     1
102
RTVSPropertyOp60
 70
     1
102
RTVSPropertyOp61
 70
     1
102
RTVSPropertyOp62
 70
     1
  0
XRECORD
  5
87B3
102
{ACAD_REACTORS
330
87B2
102
}
330
87B2
100
AcDbXrecord
280
     1
102
RTVSPost2010Prop28
280
     0
102
RTVSPost2010PropOp28
 70
     1
102
RTVSPost2010Prop29
280
     1
102
RTVSPost2010PropOp29
 70
     1
102
RTVSPost2010Prop30
280
     1
102
RTVSPost2010PropOp30
 70
     1
102
RTVSPost2010Prop31
280
     0
102
RTVSPost2010PropOp31
 70
     1
102
RTVSPost2010Prop32
280
     0
102
RTVSPost2010PropOp32
 70
     1
102
RTVSPost2010Prop33
280
     0
102
RTVSPost2010PropOp33
 70
     1
102
RTVSPost2010Prop34
280
     0
102
RTVSPost2010PropOp34
 70
     1
102
RTVSPost2010Prop35
280
     0
102
RTVSPost2010PropOp35
 70
     1
102
RTVSPost2010Prop36
280
     0
102
RTVSPost2010PropOp36
 70
     1
102
RTVSPost2010Prop37
 90
       50
102
RTVSPost2010PropOp37
 70
     1
102
RTVSPost2010Prop38
140
0.0
102
RTVSPost2010PropOp38
 70
     1
102
RTVSPost2010Prop39
140
1.0
102
RTVSPost2010PropOp39
 70
     1
102
RTVSPost2010Prop40
 90
        0
102
RTVSPost2010PropOp40
 70
     1
102
RTVSPost2010Prop41ColorIndex
 90
       18
102
RTVSPost2010Prop41ColorRGB
 90
        0
102
RTVSPost2010PropOp41
 70
     1
102
RTVSPost2010Prop42
 90
       50
102
RTVSPost2010PropOp42
 70
     1
102
RTVSPost2010Prop43
 90
        3
102
RTVSPost2010PropOp43
 70
     1
102
RTVSPost2010Prop44ColorIndex
 90
        5
102
RTVSPost2010Prop44ColorRGB
 90
      255
102
RTVSPost2010PropOp44
 70
     1
102
RTVSPost2010Prop45
280
     0
102
RTVSPost2010PropOp45
 70
     1
102
RTVSPost2010Prop46
 90
       50
102
RTVSPost2010PropOp46
 70
     1
102
RTVSPost2010Prop47
 90
       50
102
RTVSPost2010PropOp47
 70
     1
102
RTVSPost2010Prop48
 90
       50
102
RTVSPost2010PropOp48
 70
     1
102
RTVSPost2010Prop49
280
     0
102
RTVSPost2010PropOp49
 70
     1
102
RTVSPost2010Prop50
 90
       50
102
RTVSPost2010PropOp50
 70
     1
102
RTVSPost2010Prop51ColorIndex
 90
      256
102
RTVSPost2010Prop51ColorRGB
 90
-16777216
102
RTVSPost2010PropOp51
 70
     0
102
RTVSPost2010Prop52
140
1.0
102
RTVSPost2010PropOp52
 70
     0
102
RTVSPost2010Prop53
 90
        2
102
RTVSPost2010PropOp53
 70
     1
102
RTVSPost2010Prop54
  1
strokes_ogs.tif
102
RTVSPost2010PropOp54
 70
     1
102
RTVSPost2010Prop55
280
     0
102
RTVSPost2010PropOp55
 70
     1
102
RTVSPost2010Prop56
140
1.0
102
RTVSPost2010PropOp56
 70
     1
102
RTVSPost2010Prop57
140
1.0
102
RTVSPost2010PropOp57
 70
     1
102
RTVSPropertyOp0
 70
     1
102
RTVSPropertyOp1
 70
     1
102
RTVSPropertyOp2
 70
     1
102
RTVSPropertyOp3
 70
     1
102
RTVSPropertyOp4
 70
     1
102
RTVSPropertyOp5
 70
     1
102
RTVSPropertyOp6
 70
     1
102
RTVSPropertyOp7
 70
     1
102
RTVSPropertyOp8
 70
     1
102
RTVSPropertyOp9
 70
     1
102
RTVSPropertyOp10
 70
     1
102
RTVSPropertyOp11
 70
     1
102
RTVSPropertyOp12
 70
     1
102
RTVSPropertyOp13
 70
     1
102
RTVSPropertyOp14
 70
     1
102
RTVSPropertyOp15
 70
     1
102
RTVSPropertyOp16
 70
     1
102
RTVSPropertyOp17
 70
     1
102
RTVSPropertyOp18
 70
     1
102
RTVSPropertyOp19
 70
     1
102
RTVSPropertyOp20
 70
     1
102
RTVSPropertyOp21
 70
     1
102
RTVSPropertyOp22
 70
     1
102
RTVSPropertyOp23
 70
     1
102
RTVSPropertyOp24
 70
     1
102
RTVSPropertyOp25
 70
     1
102
RTVSPropertyOp26
 70
     1
102
RTVSPropertyOp27
 70
     1
102
RTVSPropertyOp28
 70
     1
102
RTVSPropertyOp29
 70
     1
102
RTVSPropertyOp30
 70
     1
102
RTVSPropertyOp31
 70
     1
102
RTVSPropertyOp32
 70
     1
102
RTVSPropertyOp33
 70
     1
102
RTVSPropertyOp34
 70
     1
102
RTVSPropertyOp35
 70
     1
102
RTVSPropertyOp36
 70
     1
102
RTVSPropertyOp37
 70
     1
102
RTVSPropertyOp38
 70
     1
102
RTVSPropertyOp39
 70
     1
102
RTVSPropertyOp40
 70
     1
102
RTVSPropertyOp41
 70
     1
102
RTVSPropertyOp42
 70
     1
102
RTVSPropertyOp43
 70
     1
102
RTVSPropertyOp44
 70
     1
102
RTVSPropertyOp45
 70
     1
102
RTVSPropertyOp46
 70
     1
102
RTVSPropertyOp47
 70
     1
102
RTVSPropertyOp48
 70
     1
102
RTVSPropertyOp49
 70
     1
102
RTVSPropertyOp50
 70
     1
102
RTVSPropertyOp51
 70
     0
102
RTVSPropertyOp52
 70
     0
102
RTVSPropertyOp53
 70
     1
102
RTVSPropertyOp54
 70
     1
102
RTVSPropertyOp55
 70
     1
102
RTVSPropertyOp56
 70
     1
102
RTVSPropertyOp57
 70
     1
102
RTVSPropertyOp58
 70
     1
102
RTVSPropertyOp59
 70
     1
102
RTVSPropertyOp60
 70
     1
102
RTVSPropertyOp61
 70
     1
102
RTVSPropertyOp62
 70
     1
  0
XRECORD
  5
87B7
102
{ACAD_REACTORS
330
87B6
102
}
330
87B6
100
AcDbXrecord
280
     1
102
RTVSPost2010Prop28
280
     0
102
RTVSPost2010PropOp28
 70
     1
102
RTVSPost2010Prop29
280
     1
102
RTVSPost2010PropOp29
 70
     1
102
RTVSPost2010Prop30
280
     1
102
RTVSPost2010PropOp30
 70
     1
102
RTVSPost2010Prop31
280
     0
102
RTVSPost2010PropOp31
 70
     1
102
RTVSPost2010Prop32
280
     0
102
RTVSPost2010PropOp32
 70
     1
102
RTVSPost2010Prop33
280
     0
102
RTVSPost2010PropOp33
 70
     1
102
RTVSPost2010Prop34
280
     0
102
RTVSPost2010PropOp34
 70
     1
102
RTVSPost2010Prop35
280
     0
102
RTVSPost2010PropOp35
 70
     1
102
RTVSPost2010Prop36
280
     0
102
RTVSPost2010PropOp36
 70
     1
102
RTVSPost2010Prop37
 90
       50
102
RTVSPost2010PropOp37
 70
     1
102
RTVSPost2010Prop38
140
0.0
102
RTVSPost2010PropOp38
 70
     1
102
RTVSPost2010Prop39
140
1.0
102
RTVSPost2010PropOp39
 70
     1
102
RTVSPost2010Prop40
 90
        0
102
RTVSPost2010PropOp40
 70
     1
102
RTVSPost2010Prop41ColorIndex
 90
       18
102
RTVSPost2010Prop41ColorRGB
 90
        0
102
RTVSPost2010PropOp41
 70
     1
102
RTVSPost2010Prop42
 90
       50
102
RTVSPost2010PropOp42
 70
     1
102
RTVSPost2010Prop43
 90
        3
102
RTVSPost2010PropOp43
 70
     1
102
RTVSPost2010Prop44ColorIndex
 90
        5
102
RTVSPost2010Prop44ColorRGB
 90
      255
102
RTVSPost2010PropOp44
 70
     1
102
RTVSPost2010Prop45
280
     0
102
RTVSPost2010PropOp45
 70
     1
102
RTVSPost2010Prop46
 90
       50
102
RTVSPost2010PropOp46
 70
     1
102
RTVSPost2010Prop47
 90
       50
102
RTVSPost2010PropOp47
 70
     1
102
RTVSPost2010Prop48
 90
       50
102
RTVSPost2010PropOp48
 70
     1
102
RTVSPost2010Prop49
280
     0
102
RTVSPost2010PropOp49
 70
     1
102
RTVSPost2010Prop50
 90
       50
102
RTVSPost2010PropOp50
 70
     1
102
RTVSPost2010Prop51ColorIndex
 90
      256
102
RTVSPost2010Prop51ColorRGB
 90
-16777216
102
RTVSPost2010PropOp51
 70
     0
102
RTVSPost2010Prop52
140
1.0
102
RTVSPost2010PropOp52
 70
     0
102
RTVSPost2010Prop53
 90
        2
102
RTVSPost2010PropOp53
 70
     1
102
RTVSPost2010Prop54
  1
strokes_ogs.tif
102
RTVSPost2010PropOp54
 70
     1
102
RTVSPost2010Prop55
280
     0
102
RTVSPost2010PropOp55
 70
     1
102
RTVSPost2010Prop56
140
1.0
102
RTVSPost2010PropOp56
 70
     1
102
RTVSPost2010Prop57
140
1.0
102
RTVSPost2010PropOp57
 70
     1
102
RTVSPropertyOp0
 70
     1
102
RTVSPropertyOp1
 70
     1
102
RTVSPropertyOp2
 70
     1
102
RTVSPropertyOp3
 70
     1
102
RTVSPropertyOp4
 70
     1
102
RTVSPropertyOp5
 70
     1
102
RTVSPropertyOp6
 70
     1
102
RTVSPropertyOp7
 70
     1
102
RTVSPropertyOp8
 70
     1
102
RTVSPropertyOp9
 70
     1
102
RTVSPropertyOp10
 70
     1
102
RTVSPropertyOp11
 70
     1
102
RTVSPropertyOp12
 70
     1
102
RTVSPropertyOp13
 70
     1
102
RTVSPropertyOp14
 70
     1
102
RTVSPropertyOp15
 70
     1
102
RTVSPropertyOp16
 70
     1
102
RTVSPropertyOp17
 70
     1
102
RTVSPropertyOp18
 70
     1
102
RTVSPropertyOp19
 70
     1
102
RTVSPropertyOp20
 70
     1
102
RTVSPropertyOp21
 70
     1
102
RTVSPropertyOp22
 70
     1
102
RTVSPropertyOp23
 70
     1
102
RTVSPropertyOp24
 70
     1
102
RTVSPropertyOp25
 70
     1
102
RTVSPropertyOp26
 70
     1
102
RTVSPropertyOp27
 70
     1
102
RTVSPropertyOp28
 70
     1
102
RTVSPropertyOp29
 70
     1
102
RTVSPropertyOp30
 70
     1
102
RTVSPropertyOp31
 70
     1
102
RTVSPropertyOp32
 70
     1
102
RTVSPropertyOp33
 70
     1
102
RTVSPropertyOp34
 70
     1
102
RTVSPropertyOp35
 70
     1
102
RTVSPropertyOp36
 70
     1
102
RTVSPropertyOp37
 70
     1
102
RTVSPropertyOp38
 70
     1
102
RTVSPropertyOp39
 70
     1
102
RTVSPropertyOp40
 70
     1
102
RTVSPropertyOp41
 70
     1
102
RTVSPropertyOp42
 70
     1
102
RTVSPropertyOp43
 70
     1
102
RTVSPropertyOp44
 70
     1
102
RTVSPropertyOp45
 70
     1
102
RTVSPropertyOp46
 70
     1
102
RTVSPropertyOp47
 70
     1
102
RTVSPropertyOp48
 70
     1
102
RTVSPropertyOp49
 70
     1
102
RTVSPropertyOp50
 70
     1
102
RTVSPropertyOp51
 70
     0
102
RTVSPropertyOp52
 70
     0
102
RTVSPropertyOp53
 70
     1
102
RTVSPropertyOp54
 70
     1
102
RTVSPropertyOp55
 70
     1
102
RTVSPropertyOp56
 70
     1
102
RTVSPropertyOp57
 70
     1
102
RTVSPropertyOp58
 70
     1
102
RTVSPropertyOp59
 70
     1
102
RTVSPropertyOp60
 70
     1
102
RTVSPropertyOp61
 70
     1
102
RTVSPropertyOp62
 70
     1
  0
XRECORD
  5
87D1
102
{ACAD_REACTORS
330
87D0
102
}
330
87D0
100
AcDbXrecord
280
     1
102
RTVSPost2010Prop28
280
     0
102
RTVSPost2010PropOp28
 70
     1
102
RTVSPost2010Prop29
280
     1
102
RTVSPost2010PropOp29
 70
     1
102
RTVSPost2010Prop30
280
     1
102
RTVSPost2010PropOp30
 70
     1
102
RTVSPost2010Prop31
280
     0
102
RTVSPost2010PropOp31
 70
     1
102
RTVSPost2010Prop32
280
     0
102
RTVSPost2010PropOp32
 70
     1
102
RTVSPost2010Prop33
280
     0
102
RTVSPost2010PropOp33
 70
     1
102
RTVSPost2010Prop34
280
     0
102
RTVSPost2010PropOp34
 70
     1
102
RTVSPost2010Prop35
280
     0
102
RTVSPost2010PropOp35
 70
     1
102
RTVSPost2010Prop36
280
     0
102
RTVSPost2010PropOp36
 70
     1
102
RTVSPost2010Prop37
 90
       50
102
RTVSPost2010PropOp37
 70
     0
102
RTVSPost2010Prop38
140
0.0
102
RTVSPost2010PropOp38
 70
     0
102
RTVSPost2010Prop39
140
1.0
102
RTVSPost2010PropOp39
 70
     0
102
RTVSPost2010Prop40
 90
        0
102
RTVSPost2010PropOp40
 70
     0
102
RTVSPost2010Prop41ColorIndex
 90
       18
102
RTVSPost2010Prop41ColorRGB
 90
        0
102
RTVSPost2010PropOp41
 70
     0
102
RTVSPost2010Prop42
 90
       50
102
RTVSPost2010PropOp42
 70
     0
102
RTVSPost2010Prop43
 90
        3
102
RTVSPost2010PropOp43
 70
     0
102
RTVSPost2010Prop44ColorIndex
 90
        5
102
RTVSPost2010Prop44ColorRGB
 90
      255
102
RTVSPost2010PropOp44
 70
     0
102
RTVSPost2010Prop45
280
     0
102
RTVSPost2010PropOp45
 70
     1
102
RTVSPost2010Prop46
 90
       50
102
RTVSPost2010PropOp46
 70
     0
102
RTVSPost2010Prop47
 90
       50
102
RTVSPost2010PropOp47
 70
     0
102
RTVSPost2010Prop48
 90
       50
102
RTVSPost2010PropOp48
 70
     0
102
RTVSPost2010Prop49
280
     0
102
RTVSPost2010PropOp49
 70
     1
102
RTVSPost2010Prop50
 90
       50
102
RTVSPost2010PropOp50
 70
     0
102
RTVSPost2010Prop51ColorIndex
 90
      256
102
RTVSPost2010Prop51ColorRGB
 90
-16777216
102
RTVSPost2010PropOp51
 70
     0
102
RTVSPost2010Prop52
140
1.0
102
RTVSPost2010PropOp52
 70
     0
102
RTVSPost2010Prop53
 90
        2
102
RTVSPost2010PropOp53
 70
     0
102
RTVSPost2010Prop54
  1
strokes_ogs.tif
102
RTVSPost2010PropOp54
 70
     0
102
RTVSPost2010Prop55
280
     0
102
RTVSPost2010PropOp55
 70
     1
102
RTVSPost2010Prop56
140
1.0
102
RTVSPost2010PropOp56
 70
     0
102
RTVSPost2010Prop57
140
1.0
102
RTVSPost2010PropOp57
 70
     0
102
RTVSPropertyOp0
 70
     0
102
RTVSPropertyOp1
 70
     0
102
RTVSPropertyOp2
 70
     0
102
RTVSPropertyOp3
 70
     0
102
RTVSPropertyOp4
 70
     0
102
RTVSPropertyOp5
 70
     0
102
RTVSPropertyOp6
 70
     0
102
RTVSPropertyOp7
 70
     0
102
RTVSPropertyOp8
 70
     0
102
RTVSPropertyOp9
 70
     0
102
RTVSPropertyOp10
 70
     0
102
RTVSPropertyOp11
 70
     0
102
RTVSPropertyOp12
 70
     0
102
RTVSPropertyOp13
 70
     0
102
RTVSPropertyOp14
 70
     2
102
RTVSPropertyOp15
 70
     0
102
RTVSPropertyOp16
 70
     0
102
RTVSPropertyOp17
 70
     0
102
RTVSPropertyOp18
 70
     0
102
RTVSPropertyOp19
 70
     0
102
RTVSPropertyOp20
 70
     0
102
RTVSPropertyOp21
 70
     0
102
RTVSPropertyOp22
 70
     0
102
RTVSPropertyOp23
 70
     0
102
RTVSPropertyOp24
 70
     0
102
RTVSPropertyOp25
 70
     0
102
RTVSPropertyOp26
 70
     0
102
RTVSPropertyOp27
 70
     0
102
RTVSPropertyOp28
 70
     1
102
RTVSPropertyOp29
 70
     1
102
RTVSPropertyOp30
 70
     1
102
RTVSPropertyOp31
 70
     1
102
RTVSPropertyOp32
 70
     1
102
RTVSPropertyOp33
 70
     1
102
RTVSPropertyOp34
 70
     1
102
RTVSPropertyOp35
 70
     1
102
RTVSPropertyOp36
 70
     1
102
RTVSPropertyOp37
 70
     0
102
RTVSPropertyOp38
 70
     0
102
RTVSPropertyOp39
 70
     0
102
RTVSPropertyOp40
 70
     0
102
RTVSPropertyOp41
 70
     0
102
RTVSPropertyOp42
 70
     0
102
RTVSPropertyOp43
 70
     0
102
RTVSPropertyOp44
 70
     0
102
RTVSPropertyOp45
 70
     1
102
RTVSPropertyOp46
 70
     0
102
RTVSPropertyOp47
 70
     0
102
RTVSPropertyOp48
 70
     0
102
RTVSPropertyOp49
 70
     1
102
RTVSPropertyOp50
 70
     0
102
RTVSPropertyOp51
 70
     0
102
RTVSPropertyOp52
 70
     0
102
RTVSPropertyOp53
 70
     0
102
RTVSPropertyOp54
 70
     0
102
RTVSPropertyOp55
 70
     1
102
RTVSPropertyOp56
 70
     0
102
RTVSPropertyOp57
 70
     0
102
RTVSPropertyOp58
 70
     0
102
RTVSPropertyOp59
 70
     0
102
RTVSPropertyOp60
 70
     0
102
RTVSPropertyOp61
 70
     0
102
RTVSPropertyOp62
 70
     0
  0
XRECORD
  5
87BF
102
{ACAD_REACTORS
330
87BE
102
}
330
87BE
100
AcDbXrecord
280
     1
102
RTVSPost2010Prop28
280
     0
102
RTVSPost2010PropOp28
 70
     1
102
RTVSPost2010Prop29
280
     1
102
RTVSPost2010PropOp29
 70
     1
102
RTVSPost2010Prop30
280
     1
102
RTVSPost2010PropOp30
 70
     1
102
RTVSPost2010Prop31
280
     0
102
RTVSPost2010PropOp31
 70
     1
102
RTVSPost2010Prop32
280
     0
102
RTVSPost2010PropOp32
 70
     1
102
RTVSPost2010Prop33
280
     0
102
RTVSPost2010PropOp33
 70
     1
102
RTVSPost2010Prop34
280
     0
102
RTVSPost2010PropOp34
 70
     1
102
RTVSPost2010Prop35
280
     0
102
RTVSPost2010PropOp35
 70
     1
102
RTVSPost2010Prop36
280
     0
102
RTVSPost2010PropOp36
 70
     1
102
RTVSPost2010Prop37
 90
       50
102
RTVSPost2010PropOp37
 70
     1
102
RTVSPost2010Prop38
140
0.0
102
RTVSPost2010PropOp38
 70
     1
102
RTVSPost2010Prop39
140
1.0
102
RTVSPost2010PropOp39
 70
     1
102
RTVSPost2010Prop40
 90
        0
102
RTVSPost2010PropOp40
 70
     1
102
RTVSPost2010Prop41ColorIndex
 90
       18
102
RTVSPost2010Prop41ColorRGB
 90
        0
102
RTVSPost2010PropOp41
 70
     1
102
RTVSPost2010Prop42
 90
       50
102
RTVSPost2010PropOp42
 70
     1
102
RTVSPost2010Prop43
 90
        3
102
RTVSPost2010PropOp43
 70
     1
102
RTVSPost2010Prop44ColorIndex
 90
        5
102
RTVSPost2010Prop44ColorRGB
 90
      255
102
RTVSPost2010PropOp44
 70
     1
102
RTVSPost2010Prop45
280
     0
102
RTVSPost2010PropOp45
 70
     1
102
RTVSPost2010Prop46
 90
       50
102
RTVSPost2010PropOp46
 70
     1
102
RTVSPost2010Prop47
 90
       50
102
RTVSPost2010PropOp47
 70
     1
102
RTVSPost2010Prop48
 90
       50
102
RTVSPost2010PropOp48
 70
     1
102
RTVSPost2010Prop49
280
     0
102
RTVSPost2010PropOp49
 70
     1
102
RTVSPost2010Prop50
 90
       50
102
RTVSPost2010PropOp50
 70
     1
102
RTVSPost2010Prop51ColorIndex
 90
      256
102
RTVSPost2010Prop51ColorRGB
 90
-16777216
102
RTVSPost2010PropOp51
 70
     0
102
RTVSPost2010Prop52
140
1.0
102
RTVSPost2010PropOp52
 70
     0
102
RTVSPost2010Prop53
 90
        2
102
RTVSPost2010PropOp53
 70
     1
102
RTVSPost2010Prop54
  1
strokes_ogs.tif
102
RTVSPost2010PropOp54
 70
     1
102
RTVSPost2010Prop55
280
     0
102
RTVSPost2010PropOp55
 70
     1
102
RTVSPost2010Prop56
140
1.0
102
RTVSPost2010PropOp56
 70
     1
102
RTVSPost2010Prop57
140
1.0
102
RTVSPost2010PropOp57
 70
     1
102
RTVSPropertyOp0
 70
     1
102
RTVSPropertyOp1
 70
     1
102
RTVSPropertyOp2
 70
     1
102
RTVSPropertyOp3
 70
     1
102
RTVSPropertyOp4
 70
     1
102
RTVSPropertyOp5
 70
     1
102
RTVSPropertyOp6
 70
     1
102
RTVSPropertyOp7
 70
     1
102
RTVSPropertyOp8
 70
     1
102
RTVSPropertyOp9
 70
     1
102
RTVSPropertyOp10
 70
     1
102
RTVSPropertyOp11
 70
     1
102
RTVSPropertyOp12
 70
     1
102
RTVSPropertyOp13
 70
     1
102
RTVSPropertyOp14
 70
     1
102
RTVSPropertyOp15
 70
     1
102
RTVSPropertyOp16
 70
     1
102
RTVSPropertyOp17
 70
     1
102
RTVSPropertyOp18
 70
     1
102
RTVSPropertyOp19
 70
     1
102
RTVSPropertyOp20
 70
     1
102
RTVSPropertyOp21
 70
     1
102
RTVSPropertyOp22
 70
     1
102
RTVSPropertyOp23
 70
     1
102
RTVSPropertyOp24
 70
     1
102
RTVSPropertyOp25
 70
     1
102
RTVSPropertyOp26
 70
     1
102
RTVSPropertyOp27
 70
     1
102
RTVSPropertyOp28
 70
     1
102
RTVSPropertyOp29
 70
     1
102
RTVSPropertyOp30
 70
     1
102
RTVSPropertyOp31
 70
     1
102
RTVSPropertyOp32
 70
     1
102
RTVSPropertyOp33
 70
     1
102
RTVSPropertyOp34
 70
     1
102
RTVSPropertyOp35
 70
     1
102
RTVSPropertyOp36
 70
     1
102
RTVSPropertyOp37
 70
     1
102
RTVSPropertyOp38
 70
     1
102
RTVSPropertyOp39
 70
     1
102
RTVSPropertyOp40
 70
     1
102
RTVSPropertyOp41
 70
     1
102
RTVSPropertyOp42
 70
     1
102
RTVSPropertyOp43
 70
     1
102
RTVSPropertyOp44
 70
     1
102
RTVSPropertyOp45
 70
     1
102
RTVSPropertyOp46
 70
     1
102
RTVSPropertyOp47
 70
     1
102
RTVSPropertyOp48
 70
     1
102
RTVSPropertyOp49
 70
     1
102
RTVSPropertyOp50
 70
     1
102
RTVSPropertyOp51
 70
     0
102
RTVSPropertyOp52
 70
     0
102
RTVSPropertyOp53
 70
     1
102
RTVSPropertyOp54
 70
     1
102
RTVSPropertyOp55
 70
     1
102
RTVSPropertyOp56
 70
     1
102
RTVSPropertyOp57
 70
     1
102
RTVSPropertyOp58
 70
     1
102
RTVSPropertyOp59
 70
     1
102
RTVSPropertyOp60
 70
     1
102
RTVSPropertyOp61
 70
     1
102
RTVSPropertyOp62
 70
     1
  0
XRECORD
  5
87A3
102
{ACAD_REACTORS
330
87A2
102
}
330
87A2
100
AcDbXrecord
280
     1
102
RTVSPost2010Prop28
280
     0
102
RTVSPost2010PropOp28
 70
     1
102
RTVSPost2010Prop29
280
     1
102
RTVSPost2010PropOp29
 70
     1
102
RTVSPost2010Prop30
280
     1
102
RTVSPost2010PropOp30
 70
     1
102
RTVSPost2010Prop31
280
     0
102
RTVSPost2010PropOp31
 70
     1
102
RTVSPost2010Prop32
280
     0
102
RTVSPost2010PropOp32
 70
     1
102
RTVSPost2010Prop33
280
     0
102
RTVSPost2010PropOp33
 70
     1
102
RTVSPost2010Prop34
280
     0
102
RTVSPost2010PropOp34
 70
     1
102
RTVSPost2010Prop35
280
     0
102
RTVSPost2010PropOp35
 70
     1
102
RTVSPost2010Prop36
280
     0
102
RTVSPost2010PropOp36
 70
     1
102
RTVSPost2010Prop37
 90
       50
102
RTVSPost2010PropOp37
 70
     1
102
RTVSPost2010Prop38
140
0.0
102
RTVSPost2010PropOp38
 70
     1
102
RTVSPost2010Prop39
140
1.0
102
RTVSPost2010PropOp39
 70
     1
102
RTVSPost2010Prop40
 90
        0
102
RTVSPost2010PropOp40
 70
     1
102
RTVSPost2010Prop41ColorIndex
 90
       18
102
RTVSPost2010Prop41ColorRGB
 90
        0
102
RTVSPost2010PropOp41
 70
     1
102
RTVSPost2010Prop42
 90
       50
102
RTVSPost2010PropOp42
 70
     1
102
RTVSPost2010Prop43
 90
        3
102
RTVSPost2010PropOp43
 70
     1
102
RTVSPost2010Prop44ColorIndex
 90
        5
102
RTVSPost2010Prop44ColorRGB
 90
      255
102
RTVSPost2010PropOp44
 70
     1
102
RTVSPost2010Prop45
280
     0
102
RTVSPost2010PropOp45
 70
     1
102
RTVSPost2010Prop46
 90
       50
102
RTVSPost2010PropOp46
 70
     1
102
RTVSPost2010Prop47
 90
       50
102
RTVSPost2010PropOp47
 70
     1
102
RTVSPost2010Prop48
 90
       50
102
RTVSPost2010PropOp48
 70
     1
102
RTVSPost2010Prop49
280
     0
102
RTVSPost2010PropOp49
 70
     1
102
RTVSPost2010Prop50
 90
       50
102
RTVSPost2010PropOp50
 70
     1
102
RTVSPost2010Prop51ColorIndex
 90
      256
102
RTVSPost2010Prop51ColorRGB
 90
-16777216
102
RTVSPost2010PropOp51
 70
     0
102
RTVSPost2010Prop52
140
1.0
102
RTVSPost2010PropOp52
 70
     0
102
RTVSPost2010Prop53
 90
        2
102
RTVSPost2010PropOp53
 70
     1
102
RTVSPost2010Prop54
  1
strokes_ogs.tif
102
RTVSPost2010PropOp54
 70
     1
102
RTVSPost2010Prop55
280
     0
102
RTVSPost2010PropOp55
 70
     1
102
RTVSPost2010Prop56
140
1.0
102
RTVSPost2010PropOp56
 70
     1
102
RTVSPost2010Prop57
140
1.0
102
RTVSPost2010PropOp57
 70
     1
102
RTVSPropertyOp0
 70
     1
102
RTVSPropertyOp1
 70
     1
102
RTVSPropertyOp2
 70
     1
102
RTVSPropertyOp3
 70
     1
102
RTVSPropertyOp4
 70
     1
102
RTVSPropertyOp5
 70
     1
102
RTVSPropertyOp6
 70
     1
102
RTVSPropertyOp7
 70
     1
102
RTVSPropertyOp8
 70
     1
102
RTVSPropertyOp9
 70
     1
102
RTVSPropertyOp10
 70
     1
102
RTVSPropertyOp11
 70
     1
102
RTVSPropertyOp12
 70
     1
102
RTVSPropertyOp13
 70
     1
102
RTVSPropertyOp14
 70
     1
102
RTVSPropertyOp15
 70
     1
102
RTVSPropertyOp16
 70
     1
102
RTVSPropertyOp17
 70
     1
102
RTVSPropertyOp18
 70
     1
102
RTVSPropertyOp19
 70
     1
102
RTVSPropertyOp20
 70
     1
102
RTVSPropertyOp21
 70
     1
102
RTVSPropertyOp22
 70
     1
102
RTVSPropertyOp23
 70
     1
102
RTVSPropertyOp24
 70
     1
102
RTVSPropertyOp25
 70
     1
102
RTVSPropertyOp26
 70
     1
102
RTVSPropertyOp27
 70
     1
102
RTVSPropertyOp28
 70
     1
102
RTVSPropertyOp29
 70
     1
102
RTVSPropertyOp30
 70
     1
102
RTVSPropertyOp31
 70
     1
102
RTVSPropertyOp32
 70
     1
102
RTVSPropertyOp33
 70
     1
102
RTVSPropertyOp34
 70
     1
102
RTVSPropertyOp35
 70
     1
102
RTVSPropertyOp36
 70
     1
102
RTVSPropertyOp37
 70
     1
102
RTVSPropertyOp38
 70
     1
102
RTVSPropertyOp39
 70
     1
102
RTVSPropertyOp40
 70
     1
102
RTVSPropertyOp41
 70
     1
102
RTVSPropertyOp42
 70
     1
102
RTVSPropertyOp43
 70
     1
102
RTVSPropertyOp44
 70
     1
102
RTVSPropertyOp45
 70
     1
102
RTVSPropertyOp46
 70
     1
102
RTVSPropertyOp47
 70
     1
102
RTVSPropertyOp48
 70
     1
102
RTVSPropertyOp49
 70
     1
102
RTVSPropertyOp50
 70
     1
102
RTVSPropertyOp51
 70
     0
102
RTVSPropertyOp52
 70
     0
102
RTVSPropertyOp53
 70
     1
102
RTVSPropertyOp54
 70
     1
102
RTVSPropertyOp55
 70
     1
102
RTVSPropertyOp56
 70
     1
102
RTVSPropertyOp57
 70
     1
102
RTVSPropertyOp58
 70
     1
102
RTVSPropertyOp59
 70
     1
102
RTVSPropertyOp60
 70
     1
102
RTVSPropertyOp61
 70
     1
102
RTVSPropertyOp62
 70
     1
  0
XRECORD
  5
87A5
102
{ACAD_REACTORS
330
87A4
102
}
330
87A4
100
AcDbXrecord
280
     1
102
RTVSPost2010Prop28
280
     0
102
RTVSPost2010PropOp28
 70
     1
102
RTVSPost2010Prop29
280
     1
102
RTVSPost2010PropOp29
 70
     1
102
RTVSPost2010Prop30
280
     1
102
RTVSPost2010PropOp30
 70
     1
102
RTVSPost2010Prop31
280
     0
102
RTVSPost2010PropOp31
 70
     1
102
RTVSPost2010Prop32
280
     0
102
RTVSPost2010PropOp32
 70
     1
102
RTVSPost2010Prop33
280
     0
102
RTVSPost2010PropOp33
 70
     1
102
RTVSPost2010Prop34
280
     0
102
RTVSPost2010PropOp34
 70
     1
102
RTVSPost2010Prop35
280
     0
102
RTVSPost2010PropOp35
 70
     1
102
RTVSPost2010Prop36
280
     0
102
RTVSPost2010PropOp36
 70
     1
102
RTVSPost2010Prop37
 90
       50
102
RTVSPost2010PropOp37
 70
     1
102
RTVSPost2010Prop38
140
0.0
102
RTVSPost2010PropOp38
 70
     1
102
RTVSPost2010Prop39
140
1.0
102
RTVSPost2010PropOp39
 70
     1
102
RTVSPost2010Prop40
 90
        0
102
RTVSPost2010PropOp40
 70
     1
102
RTVSPost2010Prop41ColorIndex
 90
       18
102
RTVSPost2010Prop41ColorRGB
 90
        0
102
RTVSPost2010PropOp41
 70
     1
102
RTVSPost2010Prop42
 90
       50
102
RTVSPost2010PropOp42
 70
     1
102
RTVSPost2010Prop43
 90
        3
102
RTVSPost2010PropOp43
 70
     1
102
RTVSPost2010Prop44ColorIndex
 90
        5
102
RTVSPost2010Prop44ColorRGB
 90
      255
102
RTVSPost2010PropOp44
 70
     1
102
RTVSPost2010Prop45
280
     0
102
RTVSPost2010PropOp45
 70
     1
102
RTVSPost2010Prop46
 90
       50
102
RTVSPost2010PropOp46
 70
     1
102
RTVSPost2010Prop47
 90
       50
102
RTVSPost2010PropOp47
 70
     1
102
RTVSPost2010Prop48
 90
       50
102
RTVSPost2010PropOp48
 70
     1
102
RTVSPost2010Prop49
280
     0
102
RTVSPost2010PropOp49
 70
     1
102
RTVSPost2010Prop50
 90
       50
102
RTVSPost2010PropOp50
 70
     1
102
RTVSPost2010Prop51ColorIndex
 90
      256
102
RTVSPost2010Prop51ColorRGB
 90
-16777216
102
RTVSPost2010PropOp51
 70
     0
102
RTVSPost2010Prop52
140
1.0
102
RTVSPost2010PropOp52
 70
     0
102
RTVSPost2010Prop53
 90
        2
102
RTVSPost2010PropOp53
 70
     1
102
RTVSPost2010Prop54
  1
strokes_ogs.tif
102
RTVSPost2010PropOp54
 70
     1
102
RTVSPost2010Prop55
280
     0
102
RTVSPost2010PropOp55
 70
     1
102
RTVSPost2010Prop56
140
1.0
102
RTVSPost2010PropOp56
 70
     1
102
RTVSPost2010Prop57
140
1.0
102
RTVSPost2010PropOp57
 70
     1
102
RTVSPropertyOp0
 70
     1
102
RTVSPropertyOp1
 70
     1
102
RTVSPropertyOp2
 70
     1
102
RTVSPropertyOp3
 70
     1
102
RTVSPropertyOp4
 70
     1
102
RTVSPropertyOp5
 70
     1
102
RTVSPropertyOp6
 70
     1
102
RTVSPropertyOp7
 70
     1
102
RTVSPropertyOp8
 70
     1
102
RTVSPropertyOp9
 70
     1
102
RTVSPropertyOp10
 70
     1
102
RTVSPropertyOp11
 70
     1
102
RTVSPropertyOp12
 70
     1
102
RTVSPropertyOp13
 70
     1
102
RTVSPropertyOp14
 70
     1
102
RTVSPropertyOp15
 70
     1
102
RTVSPropertyOp16
 70
     1
102
RTVSPropertyOp17
 70
     1
102
RTVSPropertyOp18
 70
     1
102
RTVSPropertyOp19
 70
     1
102
RTVSPropertyOp20
 70
     1
102
RTVSPropertyOp21
 70
     1
102
RTVSPropertyOp22
 70
     1
102
RTVSPropertyOp23
 70
     1
102
RTVSPropertyOp24
 70
     1
102
RTVSPropertyOp25
 70
     1
102
RTVSPropertyOp26
 70
     1
102
RTVSPropertyOp27
 70
     1
102
RTVSPropertyOp28
 70
     1
102
RTVSPropertyOp29
 70
     1
102
RTVSPropertyOp30
 70
     1
102
RTVSPropertyOp31
 70
     1
102
RTVSPropertyOp32
 70
     1
102
RTVSPropertyOp33
 70
     1
102
RTVSPropertyOp34
 70
     1
102
RTVSPropertyOp35
 70
     1
102
RTVSPropertyOp36
 70
     1
102
RTVSPropertyOp37
 70
     1
102
RTVSPropertyOp38
 70
     1
102
RTVSPropertyOp39
 70
     1
102
RTVSPropertyOp40
 70
     1
102
RTVSPropertyOp41
 70
     1
102
RTVSPropertyOp42
 70
     1
102
RTVSPropertyOp43
 70
     1
102
RTVSPropertyOp44
 70
     1
102
RTVSPropertyOp45
 70
     1
102
RTVSPropertyOp46
 70
     1
102
RTVSPropertyOp47
 70
     1
102
RTVSPropertyOp48
 70
     1
102
RTVSPropertyOp49
 70
     1
102
RTVSPropertyOp50
 70
     1
102
RTVSPropertyOp51
 70
     0
102
RTVSPropertyOp52
 70
     0
102
RTVSPropertyOp53
 70
     1
102
RTVSPropertyOp54
 70
     1
102
RTVSPropertyOp55
 70
     1
102
RTVSPropertyOp56
 70
     1
102
RTVSPropertyOp57
 70
     1
102
RTVSPropertyOp58
 70
     1
102
RTVSPropertyOp59
 70
     1
102
RTVSPropertyOp60
 70
     1
102
RTVSPropertyOp61
 70
     1
102
RTVSPropertyOp62
 70
     1
  0
XRECORD
  5
87A7
102
{ACAD_REACTORS
330
87A6
102
}
330
87A6
100
AcDbXrecord
280
     1
102
RTVSPost2010Prop28
280
     0
102
RTVSPost2010PropOp28
 70
     1
102
RTVSPost2010Prop29
280
     1
102
RTVSPost2010PropOp29
 70
     1
102
RTVSPost2010Prop30
280
     1
102
RTVSPost2010PropOp30
 70
     1
102
RTVSPost2010Prop31
280
     0
102
RTVSPost2010PropOp31
 70
     1
102
RTVSPost2010Prop32
280
     0
102
RTVSPost2010PropOp32
 70
     1
102
RTVSPost2010Prop33
280
     0
102
RTVSPost2010PropOp33
 70
     1
102
RTVSPost2010Prop34
280
     0
102
RTVSPost2010PropOp34
 70
     1
102
RTVSPost2010Prop35
280
     0
102
RTVSPost2010PropOp35
 70
     1
102
RTVSPost2010Prop36
280
     0
102
RTVSPost2010PropOp36
 70
     1
102
RTVSPost2010Prop37
 90
       50
102
RTVSPost2010PropOp37
 70
     1
102
RTVSPost2010Prop38
140
0.0
102
RTVSPost2010PropOp38
 70
     1
102
RTVSPost2010Prop39
140
1.0
102
RTVSPost2010PropOp39
 70
     1
102
RTVSPost2010Prop40
 90
        0
102
RTVSPost2010PropOp40
 70
     1
102
RTVSPost2010Prop41ColorIndex
 90
       18
102
RTVSPost2010Prop41ColorRGB
 90
        0
102
RTVSPost2010PropOp41
 70
     1
102
RTVSPost2010Prop42
 90
       50
102
RTVSPost2010PropOp42
 70
     1
102
RTVSPost2010Prop43
 90
        3
102
RTVSPost2010PropOp43
 70
     1
102
RTVSPost2010Prop44ColorIndex
 90
        5
102
RTVSPost2010Prop44ColorRGB
 90
      255
102
RTVSPost2010PropOp44
 70
     1
102
RTVSPost2010Prop45
280
     0
102
RTVSPost2010PropOp45
 70
     1
102
RTVSPost2010Prop46
 90
       50
102
RTVSPost2010PropOp46
 70
     1
102
RTVSPost2010Prop47
 90
       50
102
RTVSPost2010PropOp47
 70
     1
102
RTVSPost2010Prop48
 90
       50
102
RTVSPost2010PropOp48
 70
     1
102
RTVSPost2010Prop49
280
     0
102
RTVSPost2010PropOp49
 70
     1
102
RTVSPost2010Prop50
 90
       50
102
RTVSPost2010PropOp50
 70
     1
102
RTVSPost2010Prop51ColorIndex
 90
      256
102
RTVSPost2010Prop51ColorRGB
 90
-16777216
102
RTVSPost2010PropOp51
 70
     0
102
RTVSPost2010Prop52
140
1.0
102
RTVSPost2010PropOp52
 70
     0
102
RTVSPost2010Prop53
 90
        2
102
RTVSPost2010PropOp53
 70
     1
102
RTVSPost2010Prop54
  1
strokes_ogs.tif
102
RTVSPost2010PropOp54
 70
     1
102
RTVSPost2010Prop55
280
     0
102
RTVSPost2010PropOp55
 70
     1
102
RTVSPost2010Prop56
140
1.0
102
RTVSPost2010PropOp56
 70
     1
102
RTVSPost2010Prop57
140
1.0
102
RTVSPost2010PropOp57
 70
     1
102
RTVSPropertyOp0
 70
     1
102
RTVSPropertyOp1
 70
     1
102
RTVSPropertyOp2
 70
     1
102
RTVSPropertyOp3
 70
     1
102
RTVSPropertyOp4
 70
     1
102
RTVSPropertyOp5
 70
     1
102
RTVSPropertyOp6
 70
     1
102
RTVSPropertyOp7
 70
     1
102
RTVSPropertyOp8
 70
     1
102
RTVSPropertyOp9
 70
     1
102
RTVSPropertyOp10
 70
     1
102
RTVSPropertyOp11
 70
     1
102
RTVSPropertyOp12
 70
     1
102
RTVSPropertyOp13
 70
     1
102
RTVSPropertyOp14
 70
     1
102
RTVSPropertyOp15
 70
     1
102
RTVSPropertyOp16
 70
     1
102
RTVSPropertyOp17
 70
     1
102
RTVSPropertyOp18
 70
     1
102
RTVSPropertyOp19
 70
     1
102
RTVSPropertyOp20
 70
     1
102
RTVSPropertyOp21
 70
     1
102
RTVSPropertyOp22
 70
     1
102
RTVSPropertyOp23
 70
     1
102
RTVSPropertyOp24
 70
     1
102
RTVSPropertyOp25
 70
     1
102
RTVSPropertyOp26
 70
     1
102
RTVSPropertyOp27
 70
     1
102
RTVSPropertyOp28
 70
     1
102
RTVSPropertyOp29
 70
     1
102
RTVSPropertyOp30
 70
     1
102
RTVSPropertyOp31
 70
     1
102
RTVSPropertyOp32
 70
     1
102
RTVSPropertyOp33
 70
     1
102
RTVSPropertyOp34
 70
     1
102
RTVSPropertyOp35
 70
     1
102
RTVSPropertyOp36
 70
     1
102
RTVSPropertyOp37
 70
     1
102
RTVSPropertyOp38
 70
     1
102
RTVSPropertyOp39
 70
     1
102
RTVSPropertyOp40
 70
     1
102
RTVSPropertyOp41
 70
     1
102
RTVSPropertyOp42
 70
     1
102
RTVSPropertyOp43
 70
     1
102
RTVSPropertyOp44
 70
     1
102
RTVSPropertyOp45
 70
     1
102
RTVSPropertyOp46
 70
     1
102
RTVSPropertyOp47
 70
     1
102
RTVSPropertyOp48
 70
     1
102
RTVSPropertyOp49
 70
     1
102
RTVSPropertyOp50
 70
     1
102
RTVSPropertyOp51
 70
     0
102
RTVSPropertyOp52
 70
     0
102
RTVSPropertyOp53
 70
     1
102
RTVSPropertyOp54
 70
     1
102
RTVSPropertyOp55
 70
     1
102
RTVSPropertyOp56
 70
     1
102
RTVSPropertyOp57
 70
     1
102
RTVSPropertyOp58
 70
     1
102
RTVSPropertyOp59
 70
     1
102
RTVSPropertyOp60
 70
     1
102
RTVSPropertyOp61
 70
     1
102
RTVSPropertyOp62
 70
     1
  0
XRECORD
  5
87A9
102
{ACAD_REACTORS
330
87A8
102
}
330
87A8
100
AcDbXrecord
280
     1
102
RTVSPost2010Prop28
280
     0
102
RTVSPost2010PropOp28
 70
     1
102
RTVSPost2010Prop29
280
     1
102
RTVSPost2010PropOp29
 70
     1
102
RTVSPost2010Prop30
280
     1
102
RTVSPost2010PropOp30
 70
     1
102
RTVSPost2010Prop31
280
     0
102
RTVSPost2010PropOp31
 70
     1
102
RTVSPost2010Prop32
280
     0
102
RTVSPost2010PropOp32
 70
     1
102
RTVSPost2010Prop33
280
     0
102
RTVSPost2010PropOp33
 70
     1
102
RTVSPost2010Prop34
280
     0
102
RTVSPost2010PropOp34
 70
     1
102
RTVSPost2010Prop35
280
     0
102
RTVSPost2010PropOp35
 70
     1
102
RTVSPost2010Prop36
280
     0
102
RTVSPost2010PropOp36
 70
     1
102
RTVSPost2010Prop37
 90
       50
102
RTVSPost2010PropOp37
 70
     1
102
RTVSPost2010Prop38
140
0.0
102
RTVSPost2010PropOp38
 70
     1
102
RTVSPost2010Prop39
140
1.0
102
RTVSPost2010PropOp39
 70
     1
102
RTVSPost2010Prop40
 90
        0
102
RTVSPost2010PropOp40
 70
     1
102
RTVSPost2010Prop41ColorIndex
 90
       18
102
RTVSPost2010Prop41ColorRGB
 90
        0
102
RTVSPost2010PropOp41
 70
     1
102
RTVSPost2010Prop42
 90
       50
102
RTVSPost2010PropOp42
 70
     1
102
RTVSPost2010Prop43
 90
        3
102
RTVSPost2010PropOp43
 70
     1
102
RTVSPost2010Prop44ColorIndex
 90
        5
102
RTVSPost2010Prop44ColorRGB
 90
      255
102
RTVSPost2010PropOp44
 70
     1
102
RTVSPost2010Prop45
280
     0
102
RTVSPost2010PropOp45
 70
     1
102
RTVSPost2010Prop46
 90
       50
102
RTVSPost2010PropOp46
 70
     1
102
RTVSPost2010Prop47
 90
       50
102
RTVSPost2010PropOp47
 70
     1
102
RTVSPost2010Prop48
 90
       50
102
RTVSPost2010PropOp48
 70
     1
102
RTVSPost2010Prop49
280
     0
102
RTVSPost2010PropOp49
 70
     1
102
RTVSPost2010Prop50
 90
       50
102
RTVSPost2010PropOp50
 70
     1
102
RTVSPost2010Prop51ColorIndex
 90
      256
102
RTVSPost2010Prop51ColorRGB
 90
-16777216
102
RTVSPost2010PropOp51
 70
     0
102
RTVSPost2010Prop52
140
1.0
102
RTVSPost2010PropOp52
 70
     0
102
RTVSPost2010Prop53
 90
        2
102
RTVSPost2010PropOp53
 70
     1
102
RTVSPost2010Prop54
  1
strokes_ogs.tif
102
RTVSPost2010PropOp54
 70
     1
102
RTVSPost2010Prop55
280
     0
102
RTVSPost2010PropOp55
 70
     1
102
RTVSPost2010Prop56
140
1.0
102
RTVSPost2010PropOp56
 70
     1
102
RTVSPost2010Prop57
140
1.0
102
RTVSPost2010PropOp57
 70
     1
102
RTVSPropertyOp0
 70
     1
102
RTVSPropertyOp1
 70
     1
102
RTVSPropertyOp2
 70
     1
102
RTVSPropertyOp3
 70
     1
102
RTVSPropertyOp4
 70
     1
102
RTVSPropertyOp5
 70
     1
102
RTVSPropertyOp6
 70
     1
102
RTVSPropertyOp7
 70
     1
102
RTVSPropertyOp8
 70
     1
102
RTVSPropertyOp9
 70
     1
102
RTVSPropertyOp10
 70
     1
102
RTVSPropertyOp11
 70
     1
102
RTVSPropertyOp12
 70
     1
102
RTVSPropertyOp13
 70
     1
102
RTVSPropertyOp14
 70
     1
102
RTVSPropertyOp15
 70
     1
102
RTVSPropertyOp16
 70
     1
102
RTVSPropertyOp17
 70
     1
102
RTVSPropertyOp18
 70
     1
102
RTVSPropertyOp19
 70
     1
102
RTVSPropertyOp20
 70
     1
102
RTVSPropertyOp21
 70
     1
102
RTVSPropertyOp22
 70
     1
102
RTVSPropertyOp23
 70
     1
102
RTVSPropertyOp24
 70
     1
102
RTVSPropertyOp25
 70
     1
102
RTVSPropertyOp26
 70
     1
102
RTVSPropertyOp27
 70
     1
102
RTVSPropertyOp28
 70
     1
102
RTVSPropertyOp29
 70
     1
102
RTVSPropertyOp30
 70
     1
102
RTVSPropertyOp31
 70
     1
102
RTVSPropertyOp32
 70
     1
102
RTVSPropertyOp33
 70
     1
102
RTVSPropertyOp34
 70
     1
102
RTVSPropertyOp35
 70
     1
102
RTVSPropertyOp36
 70
     1
102
RTVSPropertyOp37
 70
     1
102
RTVSPropertyOp38
 70
     1
102
RTVSPropertyOp39
 70
     1
102
RTVSPropertyOp40
 70
     1
102
RTVSPropertyOp41
 70
     1
102
RTVSPropertyOp42
 70
     1
102
RTVSPropertyOp43
 70
     1
102
RTVSPropertyOp44
 70
     1
102
RTVSPropertyOp45
 70
     1
102
RTVSPropertyOp46
 70
     1
102
RTVSPropertyOp47
 70
     1
102
RTVSPropertyOp48
 70
     1
102
RTVSPropertyOp49
 70
     1
102
RTVSPropertyOp50
 70
     1
102
RTVSPropertyOp51
 70
     0
102
RTVSPropertyOp52
 70
     0
102
RTVSPropertyOp53
 70
     1
102
RTVSPropertyOp54
 70
     1
102
RTVSPropertyOp55
 70
     1
102
RTVSPropertyOp56
 70
     1
102
RTVSPropertyOp57
 70
     1
102
RTVSPropertyOp58
 70
     1
102
RTVSPropertyOp59
 70
     1
102
RTVSPropertyOp60
 70
     1
102
RTVSPropertyOp61
 70
     1
102
RTVSPropertyOp62
 70
     1
  0
XRECORD
  5
87B1
102
{ACAD_REACTORS
330
87B0
102
}
330
87B0
100
AcDbXrecord
280
     1
102
RTVSPost2010Prop28
280
     0
102
RTVSPost2010PropOp28
 70
     1
102
RTVSPost2010Prop29
280
     1
102
RTVSPost2010PropOp29
 70
     1
102
RTVSPost2010Prop30
280
     1
102
RTVSPost2010PropOp30
 70
     1
102
RTVSPost2010Prop31
280
     0
102
RTVSPost2010PropOp31
 70
     1
102
RTVSPost2010Prop32
280
     0
102
RTVSPost2010PropOp32
 70
     1
102
RTVSPost2010Prop33
280
     0
102
RTVSPost2010PropOp33
 70
     1
102
RTVSPost2010Prop34
280
     0
102
RTVSPost2010PropOp34
 70
     1
102
RTVSPost2010Prop35
280
     0
102
RTVSPost2010PropOp35
 70
     1
102
RTVSPost2010Prop36
280
     0
102
RTVSPost2010PropOp36
 70
     1
102
RTVSPost2010Prop37
 90
       50
102
RTVSPost2010PropOp37
 70
     1
102
RTVSPost2010Prop38
140
0.0
102
RTVSPost2010PropOp38
 70
     1
102
RTVSPost2010Prop39
140
1.0
102
RTVSPost2010PropOp39
 70
     1
102
RTVSPost2010Prop40
 90
        0
102
RTVSPost2010PropOp40
 70
     1
102
RTVSPost2010Prop41ColorIndex
 90
       18
102
RTVSPost2010Prop41ColorRGB
 90
        0
102
RTVSPost2010PropOp41
 70
     1
102
RTVSPost2010Prop42
 90
       50
102
RTVSPost2010PropOp42
 70
     1
102
RTVSPost2010Prop43
 90
        3
102
RTVSPost2010PropOp43
 70
     1
102
RTVSPost2010Prop44ColorIndex
 90
        5
102
RTVSPost2010Prop44ColorRGB
 90
      255
102
RTVSPost2010PropOp44
 70
     1
102
RTVSPost2010Prop45
280
     0
102
RTVSPost2010PropOp45
 70
     1
102
RTVSPost2010Prop46
 90
       50
102
RTVSPost2010PropOp46
 70
     1
102
RTVSPost2010Prop47
 90
       50
102
RTVSPost2010PropOp47
 70
     1
102
RTVSPost2010Prop48
 90
       50
102
RTVSPost2010PropOp48
 70
     1
102
RTVSPost2010Prop49
280
     0
102
RTVSPost2010PropOp49
 70
     1
102
RTVSPost2010Prop50
 90
       50
102
RTVSPost2010PropOp50
 70
     1
102
RTVSPost2010Prop51ColorIndex
 90
      256
102
RTVSPost2010Prop51ColorRGB
 90
-16777216
102
RTVSPost2010PropOp51
 70
     0
102
RTVSPost2010Prop52
140
1.0
102
RTVSPost2010PropOp52
 70
     0
102
RTVSPost2010Prop53
 90
        2
102
RTVSPost2010PropOp53
 70
     1
102
RTVSPost2010Prop54
  1
strokes_ogs.tif
102
RTVSPost2010PropOp54
 70
     1
102
RTVSPost2010Prop55
280
     0
102
RTVSPost2010PropOp55
 70
     1
102
RTVSPost2010Prop56
140
1.0
102
RTVSPost2010PropOp56
 70
     1
102
RTVSPost2010Prop57
140
1.0
102
RTVSPost2010PropOp57
 70
     1
102
RTVSPropertyOp0
 70
     1
102
RTVSPropertyOp1
 70
     1
102
RTVSPropertyOp2
 70
     1
102
RTVSPropertyOp3
 70
     1
102
RTVSPropertyOp4
 70
     1
102
RTVSPropertyOp5
 70
     1
102
RTVSPropertyOp6
 70
     1
102
RTVSPropertyOp7
 70
     1
102
RTVSPropertyOp8
 70
     1
102
RTVSPropertyOp9
 70
     1
102
RTVSPropertyOp10
 70
     1
102
RTVSPropertyOp11
 70
     1
102
RTVSPropertyOp12
 70
     1
102
RTVSPropertyOp13
 70
     1
102
RTVSPropertyOp14
 70
     1
102
RTVSPropertyOp15
 70
     1
102
RTVSPropertyOp16
 70
     1
102
RTVSPropertyOp17
 70
     1
102
RTVSPropertyOp18
 70
     1
102
RTVSPropertyOp19
 70
     1
102
RTVSPropertyOp20
 70
     1
102
RTVSPropertyOp21
 70
     1
102
RTVSPropertyOp22
 70
     1
102
RTVSPropertyOp23
 70
     1
102
RTVSPropertyOp24
 70
     1
102
RTVSPropertyOp25
 70
     1
102
RTVSPropertyOp26
 70
     1
102
RTVSPropertyOp27
 70
     1
102
RTVSPropertyOp28
 70
     1
102
RTVSPropertyOp29
 70
     1
102
RTVSPropertyOp30
 70
     1
102
RTVSPropertyOp31
 70
     1
102
RTVSPropertyOp32
 70
     1
102
RTVSPropertyOp33
 70
     1
102
RTVSPropertyOp34
 70
     1
102
RTVSPropertyOp35
 70
     1
102
RTVSPropertyOp36
 70
     1
102
RTVSPropertyOp37
 70
     1
102
RTVSPropertyOp38
 70
     1
102
RTVSPropertyOp39
 70
     1
102
RTVSPropertyOp40
 70
     1
102
RTVSPropertyOp41
 70
     1
102
RTVSPropertyOp42
 70
     1
102
RTVSPropertyOp43
 70
     1
102
RTVSPropertyOp44
 70
     1
102
RTVSPropertyOp45
 70
     1
102
RTVSPropertyOp46
 70
     1
102
RTVSPropertyOp47
 70
     1
102
RTVSPropertyOp48
 70
     1
102
RTVSPropertyOp49
 70
     1
102
RTVSPropertyOp50
 70
     1
102
RTVSPropertyOp51
 70
     0
102
RTVSPropertyOp52
 70
     0
102
RTVSPropertyOp53
 70
     1
102
RTVSPropertyOp54
 70
     1
102
RTVSPropertyOp55
 70
     1
102
RTVSPropertyOp56
 70
     1
102
RTVSPropertyOp57
 70
     1
102
RTVSPropertyOp58
 70
     1
102
RTVSPropertyOp59
 70
     1
102
RTVSPropertyOp60
 70
     1
102
RTVSPropertyOp61
 70
     1
102
RTVSPropertyOp62
 70
     1
  0
XRECORD
  5
87CD
102
{ACAD_REACTORS
330
87CC
102
}
330
87CC
100
AcDbXrecord
280
     1
102
RTVSPost2010Prop28
280
     0
102
RTVSPost2010PropOp28
 70
     1
102
RTVSPost2010Prop29
280
     1
102
RTVSPost2010PropOp29
 70
     1
102
RTVSPost2010Prop30
280
     1
102
RTVSPost2010PropOp30
 70
     1
102
RTVSPost2010Prop31
280
     0
102
RTVSPost2010PropOp31
 70
     1
102
RTVSPost2010Prop32
280
     0
102
RTVSPost2010PropOp32
 70
     1
102
RTVSPost2010Prop33
280
     0
102
RTVSPost2010PropOp33
 70
     1
102
RTVSPost2010Prop34
280
     0
102
RTVSPost2010PropOp34
 70
     1
102
RTVSPost2010Prop35
280
     0
102
RTVSPost2010PropOp35
 70
     1
102
RTVSPost2010Prop36
280
     0
102
RTVSPost2010PropOp36
 70
     1
102
RTVSPost2010Prop37
 90
       50
102
RTVSPost2010PropOp37
 70
     0
102
RTVSPost2010Prop38
140
0.0
102
RTVSPost2010PropOp38
 70
     0
102
RTVSPost2010Prop39
140
1.0
102
RTVSPost2010PropOp39
 70
     0
102
RTVSPost2010Prop40
 90
        0
102
RTVSPost2010PropOp40
 70
     0
102
RTVSPost2010Prop41ColorIndex
 90
       18
102
RTVSPost2010Prop41ColorRGB
 90
        0
102
RTVSPost2010PropOp41
 70
     0
102
RTVSPost2010Prop42
 90
       50
102
RTVSPost2010PropOp42
 70
     0
102
RTVSPost2010Prop43
 90
        3
102
RTVSPost2010PropOp43
 70
     0
102
RTVSPost2010Prop44ColorIndex
 90
        5
102
RTVSPost2010Prop44ColorRGB
 90
      255
102
RTVSPost2010PropOp44
 70
     0
102
RTVSPost2010Prop45
280
     0
102
RTVSPost2010PropOp45
 70
     1
102
RTVSPost2010Prop46
 90
       50
102
RTVSPost2010PropOp46
 70
     0
102
RTVSPost2010Prop47
 90
       50
102
RTVSPost2010PropOp47
 70
     0
102
RTVSPost2010Prop48
 90
       50
102
RTVSPost2010PropOp48
 70
     0
102
RTVSPost2010Prop49
280
     0
102
RTVSPost2010PropOp49
 70
     1
102
RTVSPost2010Prop50
 90
       50
102
RTVSPost2010PropOp50
 70
     0
102
RTVSPost2010Prop51ColorIndex
 90
      256
102
RTVSPost2010Prop51ColorRGB
 90
-16777216
102
RTVSPost2010PropOp51
 70
     0
102
RTVSPost2010Prop52
140
1.0
102
RTVSPost2010PropOp52
 70
     0
102
RTVSPost2010Prop53
 90
        2
102
RTVSPost2010PropOp53
 70
     0
102
RTVSPost2010Prop54
  1
strokes_ogs.tif
102
RTVSPost2010PropOp54
 70
     0
102
RTVSPost2010Prop55
280
     0
102
RTVSPost2010PropOp55
 70
     1
102
RTVSPost2010Prop56
140
1.0
102
RTVSPost2010PropOp56
 70
     0
102
RTVSPost2010Prop57
140
1.0
102
RTVSPost2010PropOp57
 70
     0
102
RTVSPropertyOp0
 70
     0
102
RTVSPropertyOp1
 70
     0
102
RTVSPropertyOp2
 70
     0
102
RTVSPropertyOp3
 70
     0
102
RTVSPropertyOp4
 70
     0
102
RTVSPropertyOp5
 70
     0
102
RTVSPropertyOp6
 70
     0
102
RTVSPropertyOp7
 70
     0
102
RTVSPropertyOp8
 70
     0
102
RTVSPropertyOp9
 70
     0
102
RTVSPropertyOp10
 70
     0
102
RTVSPropertyOp11
 70
     0
102
RTVSPropertyOp12
 70
     0
102
RTVSPropertyOp13
 70
     0
102
RTVSPropertyOp14
 70
     2
102
RTVSPropertyOp15
 70
     0
102
RTVSPropertyOp16
 70
     0
102
RTVSPropertyOp17
 70
     0
102
RTVSPropertyOp18
 70
     0
102
RTVSPropertyOp19
 70
     0
102
RTVSPropertyOp20
 70
     0
102
RTVSPropertyOp21
 70
     0
102
RTVSPropertyOp22
 70
     0
102
RTVSPropertyOp23
 70
     0
102
RTVSPropertyOp24
 70
     0
102
RTVSPropertyOp25
 70
     0
102
RTVSPropertyOp26
 70
     0
102
RTVSPropertyOp27
 70
     0
102
RTVSPropertyOp28
 70
     1
102
RTVSPropertyOp29
 70
     1
102
RTVSPropertyOp30
 70
     1
102
RTVSPropertyOp31
 70
     1
102
RTVSPropertyOp32
 70
     1
102
RTVSPropertyOp33
 70
     1
102
RTVSPropertyOp34
 70
     1
102
RTVSPropertyOp35
 70
     1
102
RTVSPropertyOp36
 70
     1
102
RTVSPropertyOp37
 70
     0
102
RTVSPropertyOp38
 70
     0
102
RTVSPropertyOp39
 70
     0
102
RTVSPropertyOp40
 70
     0
102
RTVSPropertyOp41
 70
     0
102
RTVSPropertyOp42
 70
     0
102
RTVSPropertyOp43
 70
     0
102
RTVSPropertyOp44
 70
     0
102
RTVSPropertyOp45
 70
     1
102
RTVSPropertyOp46
 70
     0
102
RTVSPropertyOp47
 70
     0
102
RTVSPropertyOp48
 70
     0
102
RTVSPropertyOp49
 70
     1
102
RTVSPropertyOp50
 70
     0
102
RTVSPropertyOp51
 70
     0
102
RTVSPropertyOp52
 70
     0
102
RTVSPropertyOp53
 70
     0
102
RTVSPropertyOp54
 70
     0
102
RTVSPropertyOp55
 70
     1
102
RTVSPropertyOp56
 70
     0
102
RTVSPropertyOp57
 70
     0
102
RTVSPropertyOp58
 70
     0
102
RTVSPropertyOp59
 70
     0
102
RTVSPropertyOp60
 70
     0
102
RTVSPropertyOp61
 70
     0
102
RTVSPropertyOp62
 70
     0
  0
XRECORD
  5
87BD
102
{ACAD_REACTORS
330
87BC
102
}
330
87BC
100
AcDbXrecord
280
     1
102
RTVSPost2010Prop28
280
     0
102
RTVSPost2010PropOp28
 70
     1
102
RTVSPost2010Prop29
280
     1
102
RTVSPost2010PropOp29
 70
     1
102
RTVSPost2010Prop30
280
     1
102
RTVSPost2010PropOp30
 70
     1
102
RTVSPost2010Prop31
280
     0
102
RTVSPost2010PropOp31
 70
     1
102
RTVSPost2010Prop32
280
     0
102
RTVSPost2010PropOp32
 70
     1
102
RTVSPost2010Prop33
280
     0
102
RTVSPost2010PropOp33
 70
     1
102
RTVSPost2010Prop34
280
     0
102
RTVSPost2010PropOp34
 70
     1
102
RTVSPost2010Prop35
280
     0
102
RTVSPost2010PropOp35
 70
     1
102
RTVSPost2010Prop36
280
     0
102
RTVSPost2010PropOp36
 70
     1
102
RTVSPost2010Prop37
 90
       50
102
RTVSPost2010PropOp37
 70
     1
102
RTVSPost2010Prop38
140
0.0
102
RTVSPost2010PropOp38
 70
     1
102
RTVSPost2010Prop39
140
1.0
102
RTVSPost2010PropOp39
 70
     1
102
RTVSPost2010Prop40
 90
        0
102
RTVSPost2010PropOp40
 70
     1
102
RTVSPost2010Prop41ColorIndex
 90
       18
102
RTVSPost2010Prop41ColorRGB
 90
        0
102
RTVSPost2010PropOp41
 70
     1
102
RTVSPost2010Prop42
 90
       50
102
RTVSPost2010PropOp42
 70
     1
102
RTVSPost2010Prop43
 90
        3
102
RTVSPost2010PropOp43
 70
     1
102
RTVSPost2010Prop44ColorIndex
 90
        5
102
RTVSPost2010Prop44ColorRGB
 90
      255
102
RTVSPost2010PropOp44
 70
     1
102
RTVSPost2010Prop45
280
     0
102
RTVSPost2010PropOp45
 70
     1
102
RTVSPost2010Prop46
 90
       50
102
RTVSPost2010PropOp46
 70
     1
102
RTVSPost2010Prop47
 90
       50
102
RTVSPost2010PropOp47
 70
     1
102
RTVSPost2010Prop48
 90
       50
102
RTVSPost2010PropOp48
 70
     1
102
RTVSPost2010Prop49
280
     0
102
RTVSPost2010PropOp49
 70
     1
102
RTVSPost2010Prop50
 90
       50
102
RTVSPost2010PropOp50
 70
     1
102
RTVSPost2010Prop51ColorIndex
 90
      256
102
RTVSPost2010Prop51ColorRGB
 90
-16777216
102
RTVSPost2010PropOp51
 70
     0
102
RTVSPost2010Prop52
140
1.0
102
RTVSPost2010PropOp52
 70
     0
102
RTVSPost2010Prop53
 90
        2
102
RTVSPost2010PropOp53
 70
     1
102
RTVSPost2010Prop54
  1
strokes_ogs.tif
102
RTVSPost2010PropOp54
 70
     1
102
RTVSPost2010Prop55
280
     0
102
RTVSPost2010PropOp55
 70
     1
102
RTVSPost2010Prop56
140
1.0
102
RTVSPost2010PropOp56
 70
     1
102
RTVSPost2010Prop57
140
1.0
102
RTVSPost2010PropOp57
 70
     1
102
RTVSPropertyOp0
 70
     1
102
RTVSPropertyOp1
 70
     1
102
RTVSPropertyOp2
 70
     1
102
RTVSPropertyOp3
 70
     1
102
RTVSPropertyOp4
 70
     1
102
RTVSPropertyOp5
 70
     1
102
RTVSPropertyOp6
 70
     1
102
RTVSPropertyOp7
 70
     1
102
RTVSPropertyOp8
 70
     1
102
RTVSPropertyOp9
 70
     1
102
RTVSPropertyOp10
 70
     1
102
RTVSPropertyOp11
 70
     1
102
RTVSPropertyOp12
 70
     1
102
RTVSPropertyOp13
 70
     1
102
RTVSPropertyOp14
 70
     1
102
RTVSPropertyOp15
 70
     1
102
RTVSPropertyOp16
 70
     1
102
RTVSPropertyOp17
 70
     1
102
RTVSPropertyOp18
 70
     1
102
RTVSPropertyOp19
 70
     1
102
RTVSPropertyOp20
 70
     1
102
RTVSPropertyOp21
 70
     1
102
RTVSPropertyOp22
 70
     1
102
RTVSPropertyOp23
 70
     1
102
RTVSPropertyOp24
 70
     1
102
RTVSPropertyOp25
 70
     1
102
RTVSPropertyOp26
 70
     1
102
RTVSPropertyOp27
 70
     1
102
RTVSPropertyOp28
 70
     1
102
RTVSPropertyOp29
 70
     1
102
RTVSPropertyOp30
 70
     1
102
RTVSPropertyOp31
 70
     1
102
RTVSPropertyOp32
 70
     1
102
RTVSPropertyOp33
 70
     1
102
RTVSPropertyOp34
 70
     1
102
RTVSPropertyOp35
 70
     1
102
RTVSPropertyOp36
 70
     1
102
RTVSPropertyOp37
 70
     1
102
RTVSPropertyOp38
 70
     1
102
RTVSPropertyOp39
 70
     1
102
RTVSPropertyOp40
 70
     1
102
RTVSPropertyOp41
 70
     1
102
RTVSPropertyOp42
 70
     1
102
RTVSPropertyOp43
 70
     1
102
RTVSPropertyOp44
 70
     1
102
RTVSPropertyOp45
 70
     1
102
RTVSPropertyOp46
 70
     1
102
RTVSPropertyOp47
 70
     1
102
RTVSPropertyOp48
 70
     1
102
RTVSPropertyOp49
 70
     1
102
RTVSPropertyOp50
 70
     1
102
RTVSPropertyOp51
 70
     0
102
RTVSPropertyOp52
 70
     0
102
RTVSPropertyOp53
 70
     1
102
RTVSPropertyOp54
 70
     1
102
RTVSPropertyOp55
 70
     1
102
RTVSPropertyOp56
 70
     1
102
RTVSPropertyOp57
 70
     1
102
RTVSPropertyOp58
 70
     1
102
RTVSPropertyOp59
 70
     1
102
RTVSPropertyOp60
 70
     1
102
RTVSPropertyOp61
 70
     1
102
RTVSPropertyOp62
 70
     1
  0
XRECORD
  5
87CF
102
{ACAD_REACTORS
330
87CE
102
}
330
87CE
100
AcDbXrecord
280
     1
102
RTVSPost2010Prop28
280
     0
102
RTVSPost2010PropOp28
 70
     1
102
RTVSPost2010Prop29
280
     1
102
RTVSPost2010PropOp29
 70
     1
102
RTVSPost2010Prop30
280
     1
102
RTVSPost2010PropOp30
 70
     1
102
RTVSPost2010Prop31
280
     0
102
RTVSPost2010PropOp31
 70
     1
102
RTVSPost2010Prop32
280
     0
102
RTVSPost2010PropOp32
 70
     1
102
RTVSPost2010Prop33
280
     0
102
RTVSPost2010PropOp33
 70
     1
102
RTVSPost2010Prop34
280
     0
102
RTVSPost2010PropOp34
 70
     1
102
RTVSPost2010Prop35
280
     0
102
RTVSPost2010PropOp35
 70
     1
102
RTVSPost2010Prop36
280
     0
102
RTVSPost2010PropOp36
 70
     1
102
RTVSPost2010Prop37
 90
       50
102
RTVSPost2010PropOp37
 70
     0
102
RTVSPost2010Prop38
140
0.0
102
RTVSPost2010PropOp38
 70
     0
102
RTVSPost2010Prop39
140
1.0
102
RTVSPost2010PropOp39
 70
     0
102
RTVSPost2010Prop40
 90
        0
102
RTVSPost2010PropOp40
 70
     0
102
RTVSPost2010Prop41ColorIndex
 90
       18
102
RTVSPost2010Prop41ColorRGB
 90
        0
102
RTVSPost2010PropOp41
 70
     0
102
RTVSPost2010Prop42
 90
       50
102
RTVSPost2010PropOp42
 70
     0
102
RTVSPost2010Prop43
 90
        3
102
RTVSPost2010PropOp43
 70
     0
102
RTVSPost2010Prop44ColorIndex
 90
        5
102
RTVSPost2010Prop44ColorRGB
 90
      255
102
RTVSPost2010PropOp44
 70
     0
102
RTVSPost2010Prop45
280
     0
102
RTVSPost2010PropOp45
 70
     1
102
RTVSPost2010Prop46
 90
       50
102
RTVSPost2010PropOp46
 70
     0
102
RTVSPost2010Prop47
 90
       50
102
RTVSPost2010PropOp47
 70
     0
102
RTVSPost2010Prop48
 90
       50
102
RTVSPost2010PropOp48
 70
     0
102
RTVSPost2010Prop49
280
     0
102
RTVSPost2010PropOp49
 70
     1
102
RTVSPost2010Prop50
 90
       50
102
RTVSPost2010PropOp50
 70
     0
102
RTVSPost2010Prop51ColorIndex
 90
      256
102
RTVSPost2010Prop51ColorRGB
 90
-16777216
102
RTVSPost2010PropOp51
 70
     0
102
RTVSPost2010Prop52
140
1.0
102
RTVSPost2010PropOp52
 70
     0
102
RTVSPost2010Prop53
 90
        2
102
RTVSPost2010PropOp53
 70
     0
102
RTVSPost2010Prop54
  1
strokes_ogs.tif
102
RTVSPost2010PropOp54
 70
     0
102
RTVSPost2010Prop55
280
     0
102
RTVSPost2010PropOp55
 70
     1
102
RTVSPost2010Prop56
140
1.0
102
RTVSPost2010PropOp56
 70
     0
102
RTVSPost2010Prop57
140
1.0
102
RTVSPost2010PropOp57
 70
     0
102
RTVSPropertyOp0
 70
     0
102
RTVSPropertyOp1
 70
     0
102
RTVSPropertyOp2
 70
     0
102
RTVSPropertyOp3
 70
     0
102
RTVSPropertyOp4
 70
     0
102
RTVSPropertyOp5
 70
     0
102
RTVSPropertyOp6
 70
     0
102
RTVSPropertyOp7
 70
     0
102
RTVSPropertyOp8
 70
     0
102
RTVSPropertyOp9
 70
     0
102
RTVSPropertyOp10
 70
     0
102
RTVSPropertyOp11
 70
     0
102
RTVSPropertyOp12
 70
     0
102
RTVSPropertyOp13
 70
     0
102
RTVSPropertyOp14
 70
     2
102
RTVSPropertyOp15
 70
     0
102
RTVSPropertyOp16
 70
     0
102
RTVSPropertyOp17
 70
     0
102
RTVSPropertyOp18
 70
     0
102
RTVSPropertyOp19
 70
     0
102
RTVSPropertyOp20
 70
     0
102
RTVSPropertyOp21
 70
     0
102
RTVSPropertyOp22
 70
     0
102
RTVSPropertyOp23
 70
     0
102
RTVSPropertyOp24
 70
     0
102
RTVSPropertyOp25
 70
     0
102
RTVSPropertyOp26
 70
     0
102
RTVSPropertyOp27
 70
     0
102
RTVSPropertyOp28
 70
     1
102
RTVSPropertyOp29
 70
     1
102
RTVSPropertyOp30
 70
     1
102
RTVSPropertyOp31
 70
     1
102
RTVSPropertyOp32
 70
     1
102
RTVSPropertyOp33
 70
     1
102
RTVSPropertyOp34
 70
     1
102
RTVSPropertyOp35
 70
     1
102
RTVSPropertyOp36
 70
     1
102
RTVSPropertyOp37
 70
     0
102
RTVSPropertyOp38
 70
     0
102
RTVSPropertyOp39
 70
     0
102
RTVSPropertyOp40
 70
     0
102
RTVSPropertyOp41
 70
     0
102
RTVSPropertyOp42
 70
     0
102
RTVSPropertyOp43
 70
     0
102
RTVSPropertyOp44
 70
     0
102
RTVSPropertyOp45
 70
     1
102
RTVSPropertyOp46
 70
     0
102
RTVSPropertyOp47
 70
     0
102
RTVSPropertyOp48
 70
     0
102
RTVSPropertyOp49
 70
     1
102
RTVSPropertyOp50
 70
     0
102
RTVSPropertyOp51
 70
     0
102
RTVSPropertyOp52
 70
     0
102
RTVSPropertyOp53
 70
     0
102
RTVSPropertyOp54
 70
     0
102
RTVSPropertyOp55
 70
     1
102
RTVSPropertyOp56
 70
     0
102
RTVSPropertyOp57
 70
     0
102
RTVSPropertyOp58
 70
     0
102
RTVSPropertyOp59
 70
     0
102
RTVSPropertyOp60
 70
     0
102
RTVSPropertyOp61
 70
     0
102
RTVSPropertyOp62
 70
     0
  0
XRECORD
  5
87B5
102
{ACAD_REACTORS
330
87B4
102
}
330
87B4
100
AcDbXrecord
280
     1
102
RTVSPost2010Prop28
280
     0
102
RTVSPost2010PropOp28
 70
     1
102
RTVSPost2010Prop29
280
     1
102
RTVSPost2010PropOp29
 70
     1
102
RTVSPost2010Prop30
280
     1
102
RTVSPost2010PropOp30
 70
     1
102
RTVSPost2010Prop31
280
     0
102
RTVSPost2010PropOp31
 70
     1
102
RTVSPost2010Prop32
280
     0
102
RTVSPost2010PropOp32
 70
     1
102
RTVSPost2010Prop33
280
     0
102
RTVSPost2010PropOp33
 70
     1
102
RTVSPost2010Prop34
280
     0
102
RTVSPost2010PropOp34
 70
     1
102
RTVSPost2010Prop35
280
     0
102
RTVSPost2010PropOp35
 70
     1
102
RTVSPost2010Prop36
280
     0
102
RTVSPost2010PropOp36
 70
     1
102
RTVSPost2010Prop37
 90
       50
102
RTVSPost2010PropOp37
 70
     1
102
RTVSPost2010Prop38
140
0.0
102
RTVSPost2010PropOp38
 70
     1
102
RTVSPost2010Prop39
140
1.0
102
RTVSPost2010PropOp39
 70
     1
102
RTVSPost2010Prop40
 90
        0
102
RTVSPost2010PropOp40
 70
     1
102
RTVSPost2010Prop41ColorIndex
 90
       18
102
RTVSPost2010Prop41ColorRGB
 90
        0
102
RTVSPost2010PropOp41
 70
     1
102
RTVSPost2010Prop42
 90
       50
102
RTVSPost2010PropOp42
 70
     1
102
RTVSPost2010Prop43
 90
        3
102
RTVSPost2010PropOp43
 70
     1
102
RTVSPost2010Prop44ColorIndex
 90
        5
102
RTVSPost2010Prop44ColorRGB
 90
      255
102
RTVSPost2010PropOp44
 70
     1
102
RTVSPost2010Prop45
280
     0
102
RTVSPost2010PropOp45
 70
     1
102
RTVSPost2010Prop46
 90
       50
102
RTVSPost2010PropOp46
 70
     1
102
RTVSPost2010Prop47
 90
       50
102
RTVSPost2010PropOp47
 70
     1
102
RTVSPost2010Prop48
 90
       50
102
RTVSPost2010PropOp48
 70
     1
102
RTVSPost2010Prop49
280
     0
102
RTVSPost2010PropOp49
 70
     1
102
RTVSPost2010Prop50
 90
       50
102
RTVSPost2010PropOp50
 70
     1
102
RTVSPost2010Prop51ColorIndex
 90
      256
102
RTVSPost2010Prop51ColorRGB
 90
-16777216
102
RTVSPost2010PropOp51
 70
     0
102
RTVSPost2010Prop52
140
1.0
102
RTVSPost2010PropOp52
 70
     0
102
RTVSPost2010Prop53
 90
        2
102
RTVSPost2010PropOp53
 70
     1
102
RTVSPost2010Prop54
  1
strokes_ogs.tif
102
RTVSPost2010PropOp54
 70
     1
102
RTVSPost2010Prop55
280
     0
102
RTVSPost2010PropOp55
 70
     1
102
RTVSPost2010Prop56
140
1.0
102
RTVSPost2010PropOp56
 70
     1
102
RTVSPost2010Prop57
140
1.0
102
RTVSPost2010PropOp57
 70
     1
102
RTVSPropertyOp0
 70
     1
102
RTVSPropertyOp1
 70
     1
102
RTVSPropertyOp2
 70
     1
102
RTVSPropertyOp3
 70
     1
102
RTVSPropertyOp4
 70
     1
102
RTVSPropertyOp5
 70
     1
102
RTVSPropertyOp6
 70
     1
102
RTVSPropertyOp7
 70
     1
102
RTVSPropertyOp8
 70
     1
102
RTVSPropertyOp9
 70
     1
102
RTVSPropertyOp10
 70
     1
102
RTVSPropertyOp11
 70
     1
102
RTVSPropertyOp12
 70
     1
102
RTVSPropertyOp13
 70
     1
102
RTVSPropertyOp14
 70
     1
102
RTVSPropertyOp15
 70
     1
102
RTVSPropertyOp16
 70
     1
102
RTVSPropertyOp17
 70
     1
102
RTVSPropertyOp18
 70
     1
102
RTVSPropertyOp19
 70
     1
102
RTVSPropertyOp20
 70
     1
102
RTVSPropertyOp21
 70
     1
102
RTVSPropertyOp22
 70
     1
102
RTVSPropertyOp23
 70
     1
102
RTVSPropertyOp24
 70
     1
102
RTVSPropertyOp25
 70
     1
102
RTVSPropertyOp26
 70
     1
102
RTVSPropertyOp27
 70
     1
102
RTVSPropertyOp28
 70
     1
102
RTVSPropertyOp29
 70
     1
102
RTVSPropertyOp30
 70
     1
102
RTVSPropertyOp31
 70
     1
102
RTVSPropertyOp32
 70
     1
102
RTVSPropertyOp33
 70
     1
102
RTVSPropertyOp34
 70
     1
102
RTVSPropertyOp35
 70
     1
102
RTVSPropertyOp36
 70
     1
102
RTVSPropertyOp37
 70
     1
102
RTVSPropertyOp38
 70
     1
102
RTVSPropertyOp39
 70
     1
102
RTVSPropertyOp40
 70
     1
102
RTVSPropertyOp41
 70
     1
102
RTVSPropertyOp42
 70
     1
102
RTVSPropertyOp43
 70
     1
102
RTVSPropertyOp44
 70
     1
102
RTVSPropertyOp45
 70
     1
102
RTVSPropertyOp46
 70
     1
102
RTVSPropertyOp47
 70
     1
102
RTVSPropertyOp48
 70
     1
102
RTVSPropertyOp49
 70
     1
102
RTVSPropertyOp50
 70
     1
102
RTVSPropertyOp51
 70
     0
102
RTVSPropertyOp52
 70
     0
102
RTVSPropertyOp53
 70
     1
102
RTVSPropertyOp54
 70
     1
102
RTVSPropertyOp55
 70
     1
102
RTVSPropertyOp56
 70
     1
102
RTVSPropertyOp57
 70
     1
102
RTVSPropertyOp58
 70
     1
102
RTVSPropertyOp59
 70
     1
102
RTVSPropertyOp60
 70
     1
102
RTVSPropertyOp61
 70
     1
102
RTVSPropertyOp62
 70
     1
  0
XRECORD
  5
87CB
102
{ACAD_REACTORS
330
87CA
102
}
330
87CA
100
AcDbXrecord
280
     1
102
RTVSPost2010Prop28
280
     0
102
RTVSPost2010PropOp28
 70
     1
102
RTVSPost2010Prop29
280
     1
102
RTVSPost2010PropOp29
 70
     1
102
RTVSPost2010Prop30
280
     1
102
RTVSPost2010PropOp30
 70
     1
102
RTVSPost2010Prop31
280
     0
102
RTVSPost2010PropOp31
 70
     1
102
RTVSPost2010Prop32
280
     0
102
RTVSPost2010PropOp32
 70
     1
102
RTVSPost2010Prop33
280
     0
102
RTVSPost2010PropOp33
 70
     1
102
RTVSPost2010Prop34
280
     0
102
RTVSPost2010PropOp34
 70
     1
102
RTVSPost2010Prop35
280
     0
102
RTVSPost2010PropOp35
 70
     1
102
RTVSPost2010Prop36
280
     0
102
RTVSPost2010PropOp36
 70
     1
102
RTVSPost2010Prop37
 90
       50
102
RTVSPost2010PropOp37
 70
     1
102
RTVSPost2010Prop38
140
0.0
102
RTVSPost2010PropOp38
 70
     1
102
RTVSPost2010Prop39
140
1.0
102
RTVSPost2010PropOp39
 70
     1
102
RTVSPost2010Prop40
 90
        0
102
RTVSPost2010PropOp40
 70
     1
102
RTVSPost2010Prop41ColorIndex
 90
       18
102
RTVSPost2010Prop41ColorRGB
 90
        0
102
RTVSPost2010PropOp41
 70
     1
102
RTVSPost2010Prop42
 90
       50
102
RTVSPost2010PropOp42
 70
     1
102
RTVSPost2010Prop43
 90
        3
102
RTVSPost2010PropOp43
 70
     1
102
RTVSPost2010Prop44ColorIndex
 90
        5
102
RTVSPost2010Prop44ColorRGB
 90
      255
102
RTVSPost2010PropOp44
 70
     1
102
RTVSPost2010Prop45
280
     0
102
RTVSPost2010PropOp45
 70
     1
102
RTVSPost2010Prop46
 90
       50
102
RTVSPost2010PropOp46
 70
     1
102
RTVSPost2010Prop47
 90
       50
102
RTVSPost2010PropOp47
 70
     1
102
RTVSPost2010Prop48
 90
       50
102
RTVSPost2010PropOp48
 70
     1
102
RTVSPost2010Prop49
280
     0
102
RTVSPost2010PropOp49
 70
     1
102
RTVSPost2010Prop50
 90
       50
102
RTVSPost2010PropOp50
 70
     1
102
RTVSPost2010Prop51ColorIndex
 90
      256
102
RTVSPost2010Prop51ColorRGB
 90
-16777216
102
RTVSPost2010PropOp51
 70
     0
102
RTVSPost2010Prop52
140
1.0
102
RTVSPost2010PropOp52
 70
     0
102
RTVSPost2010Prop53
 90
        2
102
RTVSPost2010PropOp53
 70
     1
102
RTVSPost2010Prop54
  1
strokes_ogs.tif
102
RTVSPost2010PropOp54
 70
     1
102
RTVSPost2010Prop55
280
     0
102
RTVSPost2010PropOp55
 70
     1
102
RTVSPost2010Prop56
140
1.0
102
RTVSPost2010PropOp56
 70
     1
102
RTVSPost2010Prop57
140
1.0
102
RTVSPost2010PropOp57
 70
     1
102
RTVSPropertyOp0
 70
     1
102
RTVSPropertyOp1
 70
     1
102
RTVSPropertyOp2
 70
     1
102
RTVSPropertyOp3
 70
     1
102
RTVSPropertyOp4
 70
     1
102
RTVSPropertyOp5
 70
     1
102
RTVSPropertyOp6
 70
     1
102
RTVSPropertyOp7
 70
     1
102
RTVSPropertyOp8
 70
     1
102
RTVSPropertyOp9
 70
     1
102
RTVSPropertyOp10
 70
     1
102
RTVSPropertyOp11
 70
     1
102
RTVSPropertyOp12
 70
     1
102
RTVSPropertyOp13
 70
     1
102
RTVSPropertyOp14
 70
     1
102
RTVSPropertyOp15
 70
     1
102
RTVSPropertyOp16
 70
     1
102
RTVSPropertyOp17
 70
     1
102
RTVSPropertyOp18
 70
     1
102
RTVSPropertyOp19
 70
     1
102
RTVSPropertyOp20
 70
     1
102
RTVSPropertyOp21
 70
     1
102
RTVSPropertyOp22
 70
     1
102
RTVSPropertyOp23
 70
     1
102
RTVSPropertyOp24
 70
     1
102
RTVSPropertyOp25
 70
     1
102
RTVSPropertyOp26
 70
     1
102
RTVSPropertyOp27
 70
     1
102
RTVSPropertyOp28
 70
     1
102
RTVSPropertyOp29
 70
     1
102
RTVSPropertyOp30
 70
     1
102
RTVSPropertyOp31
 70
     1
102
RTVSPropertyOp32
 70
     1
102
RTVSPropertyOp33
 70
     1
102
RTVSPropertyOp34
 70
     1
102
RTVSPropertyOp35
 70
     1
102
RTVSPropertyOp36
 70
     1
102
RTVSPropertyOp37
 70
     1
102
RTVSPropertyOp38
 70
     1
102
RTVSPropertyOp39
 70
     1
102
RTVSPropertyOp40
 70
     1
102
RTVSPropertyOp41
 70
     1
102
RTVSPropertyOp42
 70
     1
102
RTVSPropertyOp43
 70
     1
102
RTVSPropertyOp44
 70
     1
102
RTVSPropertyOp45
 70
     1
102
RTVSPropertyOp46
 70
     1
102
RTVSPropertyOp47
 70
     1
102
RTVSPropertyOp48
 70
     1
102
RTVSPropertyOp49
 70
     1
102
RTVSPropertyOp50
 70
     1
102
RTVSPropertyOp51
 70
     0
102
RTVSPropertyOp52
 70
     0
102
RTVSPropertyOp53
 70
     1
102
RTVSPropertyOp54
 70
     1
102
RTVSPropertyOp55
 70
     1
102
RTVSPropertyOp56
 70
     1
102
RTVSPropertyOp57
 70
     1
102
RTVSPropertyOp58
 70
     1
102
RTVSPropertyOp59
 70
     1
102
RTVSPropertyOp60
 70
     1
102
RTVSPropertyOp61
 70
     1
102
RTVSPropertyOp62
 70
     1
  0
XRECORD
  5
87C9
102
{ACAD_REACTORS
330
87C8
102
}
330
87C8
100
AcDbXrecord
280
     1
102
RTVSPost2010Prop28
280
     0
102
RTVSPost2010PropOp28
 70
     1
102
RTVSPost2010Prop29
280
     1
102
RTVSPost2010PropOp29
 70
     1
102
RTVSPost2010Prop30
280
     1
102
RTVSPost2010PropOp30
 70
     1
102
RTVSPost2010Prop31
280
     0
102
RTVSPost2010PropOp31
 70
     1
102
RTVSPost2010Prop32
280
     0
102
RTVSPost2010PropOp32
 70
     1
102
RTVSPost2010Prop33
280
     0
102
RTVSPost2010PropOp33
 70
     1
102
RTVSPost2010Prop34
280
     0
102
RTVSPost2010PropOp34
 70
     1
102
RTVSPost2010Prop35
280
     0
102
RTVSPost2010PropOp35
 70
     1
102
RTVSPost2010Prop36
280
     0
102
RTVSPost2010PropOp36
 70
     1
102
RTVSPost2010Prop37
 90
       50
102
RTVSPost2010PropOp37
 70
     1
102
RTVSPost2010Prop38
140
0.0
102
RTVSPost2010PropOp38
 70
     1
102
RTVSPost2010Prop39
140
1.0
102
RTVSPost2010PropOp39
 70
     1
102
RTVSPost2010Prop40
 90
        0
102
RTVSPost2010PropOp40
 70
     1
102
RTVSPost2010Prop41ColorIndex
 90
       18
102
RTVSPost2010Prop41ColorRGB
 90
        0
102
RTVSPost2010PropOp41
 70
     1
102
RTVSPost2010Prop42
 90
       50
102
RTVSPost2010PropOp42
 70
     1
102
RTVSPost2010Prop43
 90
        3
102
RTVSPost2010PropOp43
 70
     1
102
RTVSPost2010Prop44ColorIndex
 90
        5
102
RTVSPost2010Prop44ColorRGB
 90
      255
102
RTVSPost2010PropOp44
 70
     1
102
RTVSPost2010Prop45
280
     0
102
RTVSPost2010PropOp45
 70
     1
102
RTVSPost2010Prop46
 90
       50
102
RTVSPost2010PropOp46
 70
     1
102
RTVSPost2010Prop47
 90
       50
102
RTVSPost2010PropOp47
 70
     1
102
RTVSPost2010Prop48
 90
       50
102
RTVSPost2010PropOp48
 70
     1
102
RTVSPost2010Prop49
280
     0
102
RTVSPost2010PropOp49
 70
     1
102
RTVSPost2010Prop50
 90
       50
102
RTVSPost2010PropOp50
 70
     1
102
RTVSPost2010Prop51ColorIndex
 90
      256
102
RTVSPost2010Prop51ColorRGB
 90
-16777216
102
RTVSPost2010PropOp51
 70
     0
102
RTVSPost2010Prop52
140
1.0
102
RTVSPost2010PropOp52
 70
     0
102
RTVSPost2010Prop53
 90
        2
102
RTVSPost2010PropOp53
 70
     1
102
RTVSPost2010Prop54
  1
strokes_ogs.tif
102
RTVSPost2010PropOp54
 70
     1
102
RTVSPost2010Prop55
280
     0
102
RTVSPost2010PropOp55
 70
     1
102
RTVSPost2010Prop56
140
1.0
102
RTVSPost2010PropOp56
 70
     1
102
RTVSPost2010Prop57
140
1.0
102
RTVSPost2010PropOp57
 70
     1
102
RTVSPropertyOp0
 70
     1
102
RTVSPropertyOp1
 70
     1
102
RTVSPropertyOp2
 70
     1
102
RTVSPropertyOp3
 70
     1
102
RTVSPropertyOp4
 70
     1
102
RTVSPropertyOp5
 70
     1
102
RTVSPropertyOp6
 70
     1
102
RTVSPropertyOp7
 70
     1
102
RTVSPropertyOp8
 70
     1
102
RTVSPropertyOp9
 70
     1
102
RTVSPropertyOp10
 70
     1
102
RTVSPropertyOp11
 70
     1
102
RTVSPropertyOp12
 70
     1
102
RTVSPropertyOp13
 70
     1
102
RTVSPropertyOp14
 70
     1
102
RTVSPropertyOp15
 70
     1
102
RTVSPropertyOp16
 70
     1
102
RTVSPropertyOp17
 70
     1
102
RTVSPropertyOp18
 70
     1
102
RTVSPropertyOp19
 70
     1
102
RTVSPropertyOp20
 70
     1
102
RTVSPropertyOp21
 70
     1
102
RTVSPropertyOp22
 70
     1
102
RTVSPropertyOp23
 70
     1
102
RTVSPropertyOp24
 70
     1
102
RTVSPropertyOp25
 70
     1
102
RTVSPropertyOp26
 70
     1
102
RTVSPropertyOp27
 70
     1
102
RTVSPropertyOp28
 70
     1
102
RTVSPropertyOp29
 70
     1
102
RTVSPropertyOp30
 70
     1
102
RTVSPropertyOp31
 70
     1
102
RTVSPropertyOp32
 70
     1
102
RTVSPropertyOp33
 70
     1
102
RTVSPropertyOp34
 70
     1
102
RTVSPropertyOp35
 70
     1
102
RTVSPropertyOp36
 70
     1
102
RTVSPropertyOp37
 70
     1
102
RTVSPropertyOp38
 70
     1
102
RTVSPropertyOp39
 70
     1
102
RTVSPropertyOp40
 70
     1
102
RTVSPropertyOp41
 70
     1
102
RTVSPropertyOp42
 70
     1
102
RTVSPropertyOp43
 70
     1
102
RTVSPropertyOp44
 70
     1
102
RTVSPropertyOp45
 70
     1
102
RTVSPropertyOp46
 70
     1
102
RTVSPropertyOp47
 70
     1
102
RTVSPropertyOp48
 70
     1
102
RTVSPropertyOp49
 70
     1
102
RTVSPropertyOp50
 70
     1
102
RTVSPropertyOp51
 70
     0
102
RTVSPropertyOp52
 70
     0
102
RTVSPropertyOp53
 70
     1
102
RTVSPropertyOp54
 70
     1
102
RTVSPropertyOp55
 70
     1
102
RTVSPropertyOp56
 70
     1
102
RTVSPropertyOp57
 70
     1
102
RTVSPropertyOp58
 70
     1
102
RTVSPropertyOp59
 70
     1
102
RTVSPropertyOp60
 70
     1
102
RTVSPropertyOp61
 70
     1
102
RTVSPropertyOp62
 70
     1
  0
XRECORD
  5
87C3
102
{ACAD_REACTORS
330
87C2
102
}
330
87C2
100
AcDbXrecord
280
     1
102
RTVSPost2010Prop28
280
     0
102
RTVSPost2010PropOp28
 70
     1
102
RTVSPost2010Prop29
280
     1
102
RTVSPost2010PropOp29
 70
     1
102
RTVSPost2010Prop30
280
     1
102
RTVSPost2010PropOp30
 70
     1
102
RTVSPost2010Prop31
280
     0
102
RTVSPost2010PropOp31
 70
     1
102
RTVSPost2010Prop32
280
     0
102
RTVSPost2010PropOp32
 70
     1
102
RTVSPost2010Prop33
280
     0
102
RTVSPost2010PropOp33
 70
     1
102
RTVSPost2010Prop34
280
     0
102
RTVSPost2010PropOp34
 70
     1
102
RTVSPost2010Prop35
280
     0
102
RTVSPost2010PropOp35
 70
     1
102
RTVSPost2010Prop36
280
     0
102
RTVSPost2010PropOp36
 70
     1
102
RTVSPost2010Prop37
 90
       50
102
RTVSPost2010PropOp37
 70
     1
102
RTVSPost2010Prop38
140
0.0
102
RTVSPost2010PropOp38
 70
     1
102
RTVSPost2010Prop39
140
1.0
102
RTVSPost2010PropOp39
 70
     1
102
RTVSPost2010Prop40
 90
        0
102
RTVSPost2010PropOp40
 70
     1
102
RTVSPost2010Prop41ColorIndex
 90
       18
102
RTVSPost2010Prop41ColorRGB
 90
        0
102
RTVSPost2010PropOp41
 70
     1
102
RTVSPost2010Prop42
 90
       50
102
RTVSPost2010PropOp42
 70
     1
102
RTVSPost2010Prop43
 90
        3
102
RTVSPost2010PropOp43
 70
     1
102
RTVSPost2010Prop44ColorIndex
 90
        5
102
RTVSPost2010Prop44ColorRGB
 90
      255
102
RTVSPost2010PropOp44
 70
     1
102
RTVSPost2010Prop45
280
     0
102
RTVSPost2010PropOp45
 70
     1
102
RTVSPost2010Prop46
 90
       50
102
RTVSPost2010PropOp46
 70
     1
102
RTVSPost2010Prop47
 90
       50
102
RTVSPost2010PropOp47
 70
     1
102
RTVSPost2010Prop48
 90
       50
102
RTVSPost2010PropOp48
 70
     1
102
RTVSPost2010Prop49
280
     0
102
RTVSPost2010PropOp49
 70
     1
102
RTVSPost2010Prop50
 90
       50
102
RTVSPost2010PropOp50
 70
     1
102
RTVSPost2010Prop51ColorIndex
 90
      256
102
RTVSPost2010Prop51ColorRGB
 90
-16777216
102
RTVSPost2010PropOp51
 70
     0
102
RTVSPost2010Prop52
140
1.0
102
RTVSPost2010PropOp52
 70
     0
102
RTVSPost2010Prop53
 90
        2
102
RTVSPost2010PropOp53
 70
     1
102
RTVSPost2010Prop54
  1
strokes_ogs.tif
102
RTVSPost2010PropOp54
 70
     1
102
RTVSPost2010Prop55
280
     0
102
RTVSPost2010PropOp55
 70
     1
102
RTVSPost2010Prop56
140
1.0
102
RTVSPost2010PropOp56
 70
     1
102
RTVSPost2010Prop57
140
1.0
102
RTVSPost2010PropOp57
 70
     1
102
RTVSPropertyOp0
 70
     1
102
RTVSPropertyOp1
 70
     1
102
RTVSPropertyOp2
 70
     1
102
RTVSPropertyOp3
 70
     1
102
RTVSPropertyOp4
 70
     1
102
RTVSPropertyOp5
 70
     1
102
RTVSPropertyOp6
 70
     1
102
RTVSPropertyOp7
 70
     1
102
RTVSPropertyOp8
 70
     1
102
RTVSPropertyOp9
 70
     1
102
RTVSPropertyOp10
 70
     1
102
RTVSPropertyOp11
 70
     1
102
RTVSPropertyOp12
 70
     1
102
RTVSPropertyOp13
 70
     1
102
RTVSPropertyOp14
 70
     1
102
RTVSPropertyOp15
 70
     1
102
RTVSPropertyOp16
 70
     1
102
RTVSPropertyOp17
 70
     1
102
RTVSPropertyOp18
 70
     1
102
RTVSPropertyOp19
 70
     1
102
RTVSPropertyOp20
 70
     1
102
RTVSPropertyOp21
 70
     1
102
RTVSPropertyOp22
 70
     1
102
RTVSPropertyOp23
 70
     1
102
RTVSPropertyOp24
 70
     1
102
RTVSPropertyOp25
 70
     1
102
RTVSPropertyOp26
 70
     1
102
RTVSPropertyOp27
 70
     1
102
RTVSPropertyOp28
 70
     1
102
RTVSPropertyOp29
 70
     1
102
RTVSPropertyOp30
 70
     1
102
RTVSPropertyOp31
 70
     1
102
RTVSPropertyOp32
 70
     1
102
RTVSPropertyOp33
 70
     1
102
RTVSPropertyOp34
 70
     1
102
RTVSPropertyOp35
 70
     1
102
RTVSPropertyOp36
 70
     1
102
RTVSPropertyOp37
 70
     1
102
RTVSPropertyOp38
 70
     1
102
RTVSPropertyOp39
 70
     1
102
RTVSPropertyOp40
 70
     1
102
RTVSPropertyOp41
 70
     1
102
RTVSPropertyOp42
 70
     1
102
RTVSPropertyOp43
 70
     1
102
RTVSPropertyOp44
 70
     1
102
RTVSPropertyOp45
 70
     1
102
RTVSPropertyOp46
 70
     1
102
RTVSPropertyOp47
 70
     1
102
RTVSPropertyOp48
 70
     1
102
RTVSPropertyOp49
 70
     1
102
RTVSPropertyOp50
 70
     1
102
RTVSPropertyOp51
 70
     0
102
RTVSPropertyOp52
 70
     0
102
RTVSPropertyOp53
 70
     1
102
RTVSPropertyOp54
 70
     1
102
RTVSPropertyOp55
 70
     1
102
RTVSPropertyOp56
 70
     1
102
RTVSPropertyOp57
 70
     1
102
RTVSPropertyOp58
 70
     1
102
RTVSPropertyOp59
 70
     1
102
RTVSPropertyOp60
 70
     1
102
RTVSPropertyOp61
 70
     1
102
RTVSPropertyOp62
 70
     1
  0
XRECORD
  5
87C5
102
{ACAD_REACTORS
330
87C4
102
}
330
87C4
100
AcDbXrecord
280
     1
102
RTVSPost2010Prop28
280
     0
102
RTVSPost2010PropOp28
 70
     1
102
RTVSPost2010Prop29
280
     1
102
RTVSPost2010PropOp29
 70
     1
102
RTVSPost2010Prop30
280
     1
102
RTVSPost2010PropOp30
 70
     1
102
RTVSPost2010Prop31
280
     0
102
RTVSPost2010PropOp31
 70
     1
102
RTVSPost2010Prop32
280
     0
102
RTVSPost2010PropOp32
 70
     1
102
RTVSPost2010Prop33
280
     0
102
RTVSPost2010PropOp33
 70
     1
102
RTVSPost2010Prop34
280
     0
102
RTVSPost2010PropOp34
 70
     1
102
RTVSPost2010Prop35
280
     0
102
RTVSPost2010PropOp35
 70
     1
102
RTVSPost2010Prop36
280
     0
102
RTVSPost2010PropOp36
 70
     1
102
RTVSPost2010Prop37
 90
       50
102
RTVSPost2010PropOp37
 70
     1
102
RTVSPost2010Prop38
140
0.0
102
RTVSPost2010PropOp38
 70
     1
102
RTVSPost2010Prop39
140
1.0
102
RTVSPost2010PropOp39
 70
     1
102
RTVSPost2010Prop40
 90
        0
102
RTVSPost2010PropOp40
 70
     1
102
RTVSPost2010Prop41ColorIndex
 90
       18
102
RTVSPost2010Prop41ColorRGB
 90
        0
102
RTVSPost2010PropOp41
 70
     1
102
RTVSPost2010Prop42
 90
       50
102
RTVSPost2010PropOp42
 70
     1
102
RTVSPost2010Prop43
 90
        3
102
RTVSPost2010PropOp43
 70
     1
102
RTVSPost2010Prop44ColorIndex
 90
        5
102
RTVSPost2010Prop44ColorRGB
 90
      255
102
RTVSPost2010PropOp44
 70
     1
102
RTVSPost2010Prop45
280
     0
102
RTVSPost2010PropOp45
 70
     1
102
RTVSPost2010Prop46
 90
       50
102
RTVSPost2010PropOp46
 70
     1
102
RTVSPost2010Prop47
 90
       50
102
RTVSPost2010PropOp47
 70
     1
102
RTVSPost2010Prop48
 90
       50
102
RTVSPost2010PropOp48
 70
     1
102
RTVSPost2010Prop49
280
     0
102
RTVSPost2010PropOp49
 70
     1
102
RTVSPost2010Prop50
 90
       50
102
RTVSPost2010PropOp50
 70
     1
102
RTVSPost2010Prop51ColorIndex
 90
      256
102
RTVSPost2010Prop51ColorRGB
 90
-16777216
102
RTVSPost2010PropOp51
 70
     0
102
RTVSPost2010Prop52
140
1.0
102
RTVSPost2010PropOp52
 70
     0
102
RTVSPost2010Prop53
 90
        2
102
RTVSPost2010PropOp53
 70
     1
102
RTVSPost2010Prop54
  1
strokes_ogs.tif
102
RTVSPost2010PropOp54
 70
     1
102
RTVSPost2010Prop55
280
     0
102
RTVSPost2010PropOp55
 70
     1
102
RTVSPost2010Prop56
140
1.0
102
RTVSPost2010PropOp56
 70
     1
102
RTVSPost2010Prop57
140
1.0
102
RTVSPost2010PropOp57
 70
     1
102
RTVSPropertyOp0
 70
     1
102
RTVSPropertyOp1
 70
     1
102
RTVSPropertyOp2
 70
     1
102
RTVSPropertyOp3
 70
     1
102
RTVSPropertyOp4
 70
     1
102
RTVSPropertyOp5
 70
     1
102
RTVSPropertyOp6
 70
     1
102
RTVSPropertyOp7
 70
     1
102
RTVSPropertyOp8
 70
     1
102
RTVSPropertyOp9
 70
     1
102
RTVSPropertyOp10
 70
     1
102
RTVSPropertyOp11
 70
     1
102
RTVSPropertyOp12
 70
     1
102
RTVSPropertyOp13
 70
     1
102
RTVSPropertyOp14
 70
     1
102
RTVSPropertyOp15
 70
     1
102
RTVSPropertyOp16
 70
     1
102
RTVSPropertyOp17
 70
     1
102
RTVSPropertyOp18
 70
     1
102
RTVSPropertyOp19
 70
     1
102
RTVSPropertyOp20
 70
     1
102
RTVSPropertyOp21
 70
     1
102
RTVSPropertyOp22
 70
     1
102
RTVSPropertyOp23
 70
     1
102
RTVSPropertyOp24
 70
     1
102
RTVSPropertyOp25
 70
     1
102
RTVSPropertyOp26
 70
     1
102
RTVSPropertyOp27
 70
     1
102
RTVSPropertyOp28
 70
     1
102
RTVSPropertyOp29
 70
     1
102
RTVSPropertyOp30
 70
     1
102
RTVSPropertyOp31
 70
     1
102
RTVSPropertyOp32
 70
     1
102
RTVSPropertyOp33
 70
     1
102
RTVSPropertyOp34
 70
     1
102
RTVSPropertyOp35
 70
     1
102
RTVSPropertyOp36
 70
     1
102
RTVSPropertyOp37
 70
     1
102
RTVSPropertyOp38
 70
     1
102
RTVSPropertyOp39
 70
     1
102
RTVSPropertyOp40
 70
     1
102
RTVSPropertyOp41
 70
     1
102
RTVSPropertyOp42
 70
     1
102
RTVSPropertyOp43
 70
     1
102
RTVSPropertyOp44
 70
     1
102
RTVSPropertyOp45
 70
     1
102
RTVSPropertyOp46
 70
     1
102
RTVSPropertyOp47
 70
     1
102
RTVSPropertyOp48
 70
     1
102
RTVSPropertyOp49
 70
     1
102
RTVSPropertyOp50
 70
     1
102
RTVSPropertyOp51
 70
     0
102
RTVSPropertyOp52
 70
     0
102
RTVSPropertyOp53
 70
     1
102
RTVSPropertyOp54
 70
     1
102
RTVSPropertyOp55
 70
     1
102
RTVSPropertyOp56
 70
     1
102
RTVSPropertyOp57
 70
     1
102
RTVSPropertyOp58
 70
     1
102
RTVSPropertyOp59
 70
     1
102
RTVSPropertyOp60
 70
     1
102
RTVSPropertyOp61
 70
     1
102
RTVSPropertyOp62
 70
     1
  0
XRECORD
  5
87BB
102
{ACAD_REACTORS
330
87BA
102
}
330
87BA
100
AcDbXrecord
280
     1
102
RTVSPost2010Prop28
280
     0
102
RTVSPost2010PropOp28
 70
     1
102
RTVSPost2010Prop29
280
     1
102
RTVSPost2010PropOp29
 70
     1
102
RTVSPost2010Prop30
280
     1
102
RTVSPost2010PropOp30
 70
     1
102
RTVSPost2010Prop31
280
     0
102
RTVSPost2010PropOp31
 70
     1
102
RTVSPost2010Prop32
280
     0
102
RTVSPost2010PropOp32
 70
     1
102
RTVSPost2010Prop33
280
     0
102
RTVSPost2010PropOp33
 70
     1
102
RTVSPost2010Prop34
280
     0
102
RTVSPost2010PropOp34
 70
     1
102
RTVSPost2010Prop35
280
     0
102
RTVSPost2010PropOp35
 70
     1
102
RTVSPost2010Prop36
280
     0
102
RTVSPost2010PropOp36
 70
     1
102
RTVSPost2010Prop37
 90
       50
102
RTVSPost2010PropOp37
 70
     1
102
RTVSPost2010Prop38
140
0.0
102
RTVSPost2010PropOp38
 70
     1
102
RTVSPost2010Prop39
140
1.0
102
RTVSPost2010PropOp39
 70
     1
102
RTVSPost2010Prop40
 90
        0
102
RTVSPost2010PropOp40
 70
     1
102
RTVSPost2010Prop41ColorIndex
 90
       18
102
RTVSPost2010Prop41ColorRGB
 90
        0
102
RTVSPost2010PropOp41
 70
     1
102
RTVSPost2010Prop42
 90
       50
102
RTVSPost2010PropOp42
 70
     1
102
RTVSPost2010Prop43
 90
        3
102
RTVSPost2010PropOp43
 70
     1
102
RTVSPost2010Prop44ColorIndex
 90
        5
102
RTVSPost2010Prop44ColorRGB
 90
      255
102
RTVSPost2010PropOp44
 70
     1
102
RTVSPost2010Prop45
280
     0
102
RTVSPost2010PropOp45
 70
     1
102
RTVSPost2010Prop46
 90
       50
102
RTVSPost2010PropOp46
 70
     1
102
RTVSPost2010Prop47
 90
       50
102
RTVSPost2010PropOp47
 70
     1
102
RTVSPost2010Prop48
 90
       50
102
RTVSPost2010PropOp48
 70
     1
102
RTVSPost2010Prop49
280
     0
102
RTVSPost2010PropOp49
 70
     1
102
RTVSPost2010Prop50
 90
       50
102
RTVSPost2010PropOp50
 70
     1
102
RTVSPost2010Prop51ColorIndex
 90
      256
102
RTVSPost2010Prop51ColorRGB
 90
-16777216
102
RTVSPost2010PropOp51
 70
     0
102
RTVSPost2010Prop52
140
1.0
102
RTVSPost2010PropOp52
 70
     0
102
RTVSPost2010Prop53
 90
        2
102
RTVSPost2010PropOp53
 70
     1
102
RTVSPost2010Prop54
  1
strokes_ogs.tif
102
RTVSPost2010PropOp54
 70
     1
102
RTVSPost2010Prop55
280
     0
102
RTVSPost2010PropOp55
 70
     1
102
RTVSPost2010Prop56
140
1.0
102
RTVSPost2010PropOp56
 70
     1
102
RTVSPost2010Prop57
140
1.0
102
RTVSPost2010PropOp57
 70
     1
102
RTVSPropertyOp0
 70
     1
102
RTVSPropertyOp1
 70
     1
102
RTVSPropertyOp2
 70
     1
102
RTVSPropertyOp3
 70
     1
102
RTVSPropertyOp4
 70
     1
102
RTVSPropertyOp5
 70
     1
102
RTVSPropertyOp6
 70
     1
102
RTVSPropertyOp7
 70
     1
102
RTVSPropertyOp8
 70
     1
102
RTVSPropertyOp9
 70
     1
102
RTVSPropertyOp10
 70
     1
102
RTVSPropertyOp11
 70
     1
102
RTVSPropertyOp12
 70
     1
102
RTVSPropertyOp13
 70
     1
102
RTVSPropertyOp14
 70
     1
102
RTVSPropertyOp15
 70
     1
102
RTVSPropertyOp16
 70
     1
102
RTVSPropertyOp17
 70
     1
102
RTVSPropertyOp18
 70
     1
102
RTVSPropertyOp19
 70
     1
102
RTVSPropertyOp20
 70
     1
102
RTVSPropertyOp21
 70
     1
102
RTVSPropertyOp22
 70
     1
102
RTVSPropertyOp23
 70
     1
102
RTVSPropertyOp24
 70
     1
102
RTVSPropertyOp25
 70
     1
102
RTVSPropertyOp26
 70
     1
102
RTVSPropertyOp27
 70
     1
102
RTVSPropertyOp28
 70
     1
102
RTVSPropertyOp29
 70
     1
102
RTVSPropertyOp30
 70
     1
102
RTVSPropertyOp31
 70
     1
102
RTVSPropertyOp32
 70
     1
102
RTVSPropertyOp33
 70
     1
102
RTVSPropertyOp34
 70
     1
102
RTVSPropertyOp35
 70
     1
102
RTVSPropertyOp36
 70
     1
102
RTVSPropertyOp37
 70
     1
102
RTVSPropertyOp38
 70
     1
102
RTVSPropertyOp39
 70
     1
102
RTVSPropertyOp40
 70
     1
102
RTVSPropertyOp41
 70
     1
102
RTVSPropertyOp42
 70
     1
102
RTVSPropertyOp43
 70
     1
102
RTVSPropertyOp44
 70
     1
102
RTVSPropertyOp45
 70
     1
102
RTVSPropertyOp46
 70
     1
102
RTVSPropertyOp47
 70
     1
102
RTVSPropertyOp48
 70
     1
102
RTVSPropertyOp49
 70
     1
102
RTVSPropertyOp50
 70
     1
102
RTVSPropertyOp51
 70
     0
102
RTVSPropertyOp52
 70
     0
102
RTVSPropertyOp53
 70
     1
102
RTVSPropertyOp54
 70
     1
102
RTVSPropertyOp55
 70
     1
102
RTVSPropertyOp56
 70
     1
102
RTVSPropertyOp57
 70
     1
102
RTVSPropertyOp58
 70
     1
102
RTVSPropertyOp59
 70
     1
102
RTVSPropertyOp60
 70
     1
102
RTVSPropertyOp61
 70
     1
102
RTVSPropertyOp62
 70
     1
  0
XRECORD
  5
87AF
102
{ACAD_REACTORS
330
87AE
102
}
330
87AE
100
AcDbXrecord
280
     1
102
RTVSPost2010Prop28
280
     0
102
RTVSPost2010PropOp28
 70
     1
102
RTVSPost2010Prop29
280
     1
102
RTVSPost2010PropOp29
 70
     1
102
RTVSPost2010Prop30
280
     1
102
RTVSPost2010PropOp30
 70
     1
102
RTVSPost2010Prop31
280
     0
102
RTVSPost2010PropOp31
 70
     1
102
RTVSPost2010Prop32
280
     0
102
RTVSPost2010PropOp32
 70
     1
102
RTVSPost2010Prop33
280
     0
102
RTVSPost2010PropOp33
 70
     1
102
RTVSPost2010Prop34
280
     0
102
RTVSPost2010PropOp34
 70
     1
102
RTVSPost2010Prop35
280
     0
102
RTVSPost2010PropOp35
 70
     1
102
RTVSPost2010Prop36
280
     0
102
RTVSPost2010PropOp36
 70
     1
102
RTVSPost2010Prop37
 90
       50
102
RTVSPost2010PropOp37
 70
     1
102
RTVSPost2010Prop38
140
0.0
102
RTVSPost2010PropOp38
 70
     1
102
RTVSPost2010Prop39
140
1.0
102
RTVSPost2010PropOp39
 70
     1
102
RTVSPost2010Prop40
 90
        0
102
RTVSPost2010PropOp40
 70
     1
102
RTVSPost2010Prop41ColorIndex
 90
       18
102
RTVSPost2010Prop41ColorRGB
 90
        0
102
RTVSPost2010PropOp41
 70
     1
102
RTVSPost2010Prop42
 90
       50
102
RTVSPost2010PropOp42
 70
     1
102
RTVSPost2010Prop43
 90
        3
102
RTVSPost2010PropOp43
 70
     1
102
RTVSPost2010Prop44ColorIndex
 90
        5
102
RTVSPost2010Prop44ColorRGB
 90
      255
102
RTVSPost2010PropOp44
 70
     1
102
RTVSPost2010Prop45
280
     0
102
RTVSPost2010PropOp45
 70
     1
102
RTVSPost2010Prop46
 90
       50
102
RTVSPost2010PropOp46
 70
     1
102
RTVSPost2010Prop47
 90
       50
102
RTVSPost2010PropOp47
 70
     1
102
RTVSPost2010Prop48
 90
       50
102
RTVSPost2010PropOp48
 70
     1
102
RTVSPost2010Prop49
280
     0
102
RTVSPost2010PropOp49
 70
     1
102
RTVSPost2010Prop50
 90
       50
102
RTVSPost2010PropOp50
 70
     1
102
RTVSPost2010Prop51ColorIndex
 90
      256
102
RTVSPost2010Prop51ColorRGB
 90
-16777216
102
RTVSPost2010PropOp51
 70
     0
102
RTVSPost2010Prop52
140
1.0
102
RTVSPost2010PropOp52
 70
     0
102
RTVSPost2010Prop53
 90
        2
102
RTVSPost2010PropOp53
 70
     1
102
RTVSPost2010Prop54
  1
strokes_ogs.tif
102
RTVSPost2010PropOp54
 70
     1
102
RTVSPost2010Prop55
280
     0
102
RTVSPost2010PropOp55
 70
     1
102
RTVSPost2010Prop56
140
1.0
102
RTVSPost2010PropOp56
 70
     1
102
RTVSPost2010Prop57
140
1.0
102
RTVSPost2010PropOp57
 70
     1
102
RTVSPropertyOp0
 70
     1
102
RTVSPropertyOp1
 70
     1
102
RTVSPropertyOp2
 70
     1
102
RTVSPropertyOp3
 70
     1
102
RTVSPropertyOp4
 70
     1
102
RTVSPropertyOp5
 70
     1
102
RTVSPropertyOp6
 70
     1
102
RTVSPropertyOp7
 70
     1
102
RTVSPropertyOp8
 70
     1
102
RTVSPropertyOp9
 70
     1
102
RTVSPropertyOp10
 70
     1
102
RTVSPropertyOp11
 70
     1
102
RTVSPropertyOp12
 70
     1
102
RTVSPropertyOp13
 70
     1
102
RTVSPropertyOp14
 70
     1
102
RTVSPropertyOp15
 70
     1
102
RTVSPropertyOp16
 70
     1
102
RTVSPropertyOp17
 70
     1
102
RTVSPropertyOp18
 70
     1
102
RTVSPropertyOp19
 70
     1
102
RTVSPropertyOp20
 70
     1
102
RTVSPropertyOp21
 70
     1
102
RTVSPropertyOp22
 70
     1
102
RTVSPropertyOp23
 70
     1
102
RTVSPropertyOp24
 70
     1
102
RTVSPropertyOp25
 70
     1
102
RTVSPropertyOp26
 70
     1
102
RTVSPropertyOp27
 70
     1
102
RTVSPropertyOp28
 70
     1
102
RTVSPropertyOp29
 70
     1
102
RTVSPropertyOp30
 70
     1
102
RTVSPropertyOp31
 70
     1
102
RTVSPropertyOp32
 70
     1
102
RTVSPropertyOp33
 70
     1
102
RTVSPropertyOp34
 70
     1
102
RTVSPropertyOp35
 70
     1
102
RTVSPropertyOp36
 70
     1
102
RTVSPropertyOp37
 70
     1
102
RTVSPropertyOp38
 70
     1
102
RTVSPropertyOp39
 70
     1
102
RTVSPropertyOp40
 70
     1
102
RTVSPropertyOp41
 70
     1
102
RTVSPropertyOp42
 70
     1
102
RTVSPropertyOp43
 70
     1
102
RTVSPropertyOp44
 70
     1
102
RTVSPropertyOp45
 70
     1
102
RTVSPropertyOp46
 70
     1
102
RTVSPropertyOp47
 70
     1
102
RTVSPropertyOp48
 70
     1
102
RTVSPropertyOp49
 70
     1
102
RTVSPropertyOp50
 70
     1
102
RTVSPropertyOp51
 70
     0
102
RTVSPropertyOp52
 70
     0
102
RTVSPropertyOp53
 70
     1
102
RTVSPropertyOp54
 70
     1
102
RTVSPropertyOp55
 70
     1
102
RTVSPropertyOp56
 70
     1
102
RTVSPropertyOp57
 70
     1
102
RTVSPropertyOp58
 70
     1
102
RTVSPropertyOp59
 70
     1
102
RTVSPropertyOp60
 70
     1
102
RTVSPropertyOp61
 70
     1
102
RTVSPropertyOp62
 70
     1
  0
XRECORD
  5
87C7
102
{ACAD_REACTORS
330
87C6
102
}
330
87C6
100
AcDbXrecord
280
     1
102
RTVSPost2010Prop28
280
     0
102
RTVSPost2010PropOp28
 70
     1
102
RTVSPost2010Prop29
280
     1
102
RTVSPost2010PropOp29
 70
     1
102
RTVSPost2010Prop30
280
     1
102
RTVSPost2010PropOp30
 70
     1
102
RTVSPost2010Prop31
280
     0
102
RTVSPost2010PropOp31
 70
     1
102
RTVSPost2010Prop32
280
     0
102
RTVSPost2010PropOp32
 70
     1
102
RTVSPost2010Prop33
280
     0
102
RTVSPost2010PropOp33
 70
     1
102
RTVSPost2010Prop34
280
     0
102
RTVSPost2010PropOp34
 70
     1
102
RTVSPost2010Prop35
280
     0
102
RTVSPost2010PropOp35
 70
     1
102
RTVSPost2010Prop36
280
     0
102
RTVSPost2010PropOp36
 70
     1
102
RTVSPost2010Prop37
 90
       50
102
RTVSPost2010PropOp37
 70
     1
102
RTVSPost2010Prop38
140
0.0
102
RTVSPost2010PropOp38
 70
     1
102
RTVSPost2010Prop39
140
1.0
102
RTVSPost2010PropOp39
 70
     1
102
RTVSPost2010Prop40
 90
        0
102
RTVSPost2010PropOp40
 70
     1
102
RTVSPost2010Prop41ColorIndex
 90
       18
102
RTVSPost2010Prop41ColorRGB
 90
        0
102
RTVSPost2010PropOp41
 70
     1
102
RTVSPost2010Prop42
 90
       50
102
RTVSPost2010PropOp42
 70
     1
102
RTVSPost2010Prop43
 90
        3
102
RTVSPost2010PropOp43
 70
     1
102
RTVSPost2010Prop44ColorIndex
 90
        5
102
RTVSPost2010Prop44ColorRGB
 90
      255
102
RTVSPost2010PropOp44
 70
     1
102
RTVSPost2010Prop45
280
     0
102
RTVSPost2010PropOp45
 70
     1
102
RTVSPost2010Prop46
 90
       50
102
RTVSPost2010PropOp46
 70
     1
102
RTVSPost2010Prop47
 90
       50
102
RTVSPost2010PropOp47
 70
     1
102
RTVSPost2010Prop48
 90
       50
102
RTVSPost2010PropOp48
 70
     1
102
RTVSPost2010Prop49
280
     0
102
RTVSPost2010PropOp49
 70
     1
102
RTVSPost2010Prop50
 90
       50
102
RTVSPost2010PropOp50
 70
     1
102
RTVSPost2010Prop51ColorIndex
 90
      256
102
RTVSPost2010Prop51ColorRGB
 90
-16777216
102
RTVSPost2010PropOp51
 70
     0
102
RTVSPost2010Prop52
140
1.0
102
RTVSPost2010PropOp52
 70
     0
102
RTVSPost2010Prop53
 90
        2
102
RTVSPost2010PropOp53
 70
     1
102
RTVSPost2010Prop54
  1
strokes_ogs.tif
102
RTVSPost2010PropOp54
 70
     1
102
RTVSPost2010Prop55
280
     0
102
RTVSPost2010PropOp55
 70
     1
102
RTVSPost2010Prop56
140
1.0
102
RTVSPost2010PropOp56
 70
     1
102
RTVSPost2010Prop57
140
1.0
102
RTVSPost2010PropOp57
 70
     1
102
RTVSPropertyOp0
 70
     1
102
RTVSPropertyOp1
 70
     1
102
RTVSPropertyOp2
 70
     1
102
RTVSPropertyOp3
 70
     1
102
RTVSPropertyOp4
 70
     1
102
RTVSPropertyOp5
 70
     1
102
RTVSPropertyOp6
 70
     1
102
RTVSPropertyOp7
 70
     1
102
RTVSPropertyOp8
 70
     1
102
RTVSPropertyOp9
 70
     1
102
RTVSPropertyOp10
 70
     1
102
RTVSPropertyOp11
 70
     1
102
RTVSPropertyOp12
 70
     1
102
RTVSPropertyOp13
 70
     1
102
RTVSPropertyOp14
 70
     1
102
RTVSPropertyOp15
 70
     1
102
RTVSPropertyOp16
 70
     1
102
RTVSPropertyOp17
 70
     1
102
RTVSPropertyOp18
 70
     1
102
RTVSPropertyOp19
 70
     1
102
RTVSPropertyOp20
 70
     1
102
RTVSPropertyOp21
 70
     1
102
RTVSPropertyOp22
 70
     1
102
RTVSPropertyOp23
 70
     1
102
RTVSPropertyOp24
 70
     1
102
RTVSPropertyOp25
 70
     1
102
RTVSPropertyOp26
 70
     1
102
RTVSPropertyOp27
 70
     1
102
RTVSPropertyOp28
 70
     1
102
RTVSPropertyOp29
 70
     1
102
RTVSPropertyOp30
 70
     1
102
RTVSPropertyOp31
 70
     1
102
RTVSPropertyOp32
 70
     1
102
RTVSPropertyOp33
 70
     1
102
RTVSPropertyOp34
 70
     1
102
RTVSPropertyOp35
 70
     1
102
RTVSPropertyOp36
 70
     1
102
RTVSPropertyOp37
 70
     1
102
RTVSPropertyOp38
 70
     1
102
RTVSPropertyOp39
 70
     1
102
RTVSPropertyOp40
 70
     1
102
RTVSPropertyOp41
 70
     1
102
RTVSPropertyOp42
 70
     1
102
RTVSPropertyOp43
 70
     1
102
RTVSPropertyOp44
 70
     1
102
RTVSPropertyOp45
 70
     1
102
RTVSPropertyOp46
 70
     1
102
RTVSPropertyOp47
 70
     1
102
RTVSPropertyOp48
 70
     1
102
RTVSPropertyOp49
 70
     1
102
RTVSPropertyOp50
 70
     1
102
RTVSPropertyOp51
 70
     0
102
RTVSPropertyOp52
 70
     0
102
RTVSPropertyOp53
 70
     1
102
RTVSPropertyOp54
 70
     1
102
RTVSPropertyOp55
 70
     1
102
RTVSPropertyOp56
 70
     1
102
RTVSPropertyOp57
 70
     1
102
RTVSPropertyOp58
 70
     1
102
RTVSPropertyOp59
 70
     1
102
RTVSPropertyOp60
 70
     1
102
RTVSPropertyOp61
 70
     1
102
RTVSPropertyOp62
 70
     1
  0
ENDSEC
  0
EOF
