  0
SECTION
  2
HEADER
  9
$ACADVER
  1
AC1015
  9
$ACADMAINTVER
 70
    20
  9
$DWGCODEPAGE
  3
ANSI_932
  9
$INSBASE
 10
0.0
 20
0.0
 30
0.0
  9
$EXTMIN
 10
-0.2242870864283759
 20
-0.3150699547441036
 30
-0.0015258207003583
  9
$EXTMAX
 10
7350.224321312532
 20
10325.31511803427
 30
0.0000000349246037
  9
$LIMMIN
 10
0.0
 20
0.0
  9
$LIMMAX
 10
297.0
 20
210.0
  9
$ORTHOMODE
 70
     1
  9
$REGENMODE
 70
     1
  9
$FILLMODE
 70
     0
  9
$QTEXTMODE
 70
     0
  9
$MIRRTEXT
 70
     1
  9
$LTSCALE
 40
100.0
  9
$ATTMODE
 70
     1
  9
$TEXTSIZE
 40
180.0
  9
$TRACEWID
 40
0.05
  9
$TEXTSTYLE
  7
STANDARD
  9
$CLAYER
  8
3
  9
$CELTYPE
  6
ByLayer
  9
$CECOLOR
 62
   256
  9
$CELTSCALE
 40
1.0
  9
$DISPSILH
 70
     0
  9
$DIMSCALE
 40
35.0
  9
$DIMASZ
 40
2.0
  9
$DIMEXO
 40
0.5
  9
$DIMDLI
 40
10.0
  9
$DIMRND
 40
0.0
  9
$DIMDLE
 40
0.0
  9
$DIMEXE
 40
1.0
  9
$DIMTP
 40
1.0
  9
$DIMTM
 40
1.0
  9
$DIMTXT
 40
3.0
  9
$DIMCEN
 40
0.0
  9
$DIMTSZ
 40
0.0
  9
$DIMTOL
 70
     0
  9
$DIMLIM
 70
     0
  9
$DIMTIH
 70
     0
  9
$DIMTOH
 70
     0
  9
$DIMSE1
 70
     0
  9
$DIMSE2
 70
     0
  9
$DIMTAD
 70
     1
  9
$DIMZIN
 70
     8
  9
$DIMBLK
  1

  9
$DIMASO
 70
     1
  9
$DIMSHO
 70
     1
  9
$DIMPOST
  1

  9
$DIMAPOST
  1

  9
$DIMALT
 70
     0
  9
$DIMALTD
 70
     2
  9
$DIMALTF
 40
0.039
  9
$DIMLFAC
 40
1.0
  9
$DIMTOFL
 70
     1
  9
$DIMTVP
 40
0.0
  9
$DIMTIX
 70
     0
  9
$DIMSOXD
 70
     0
  9
$DIMSAH
 70
     1
  9
$DIMBLK1
  1
OPEN
  9
$DIMBLK2
  1
OPEN
  9
$DIMSTYLE
  2
IGA
  9
$DIMCLRD
 70
     0
  9
$DIMCLRE
 70
     0
  9
$DIMCLRT
 70
     0
  9
$DIMTFAC
 40
10.0
  9
$DIMGAP
 40
1.0
  9
$DIMJUST
 70
     0
  9
$DIMSD1
 70
     0
  9
$DIMSD2
 70
     0
  9
$DIMTOLJ
 70
     1
  9
$DIMTZIN
 70
     0
  9
$DIMALTZ
 70
     0
  9
$DIMALTTZ
 70
     0
  9
$DIMUPT
 70
     0
  9
$DIMDEC
 70
     4
  9
$DIMTDEC
 70
     4
  9
$DIMALTU
 70
     2
  9
$DIMALTTD
 70
     2
  9
$DIMTXSTY
  7
STANDARD
  9
$DIMAUNIT
 70
     0
  9
$DIMADEC
 70
     0
  9
$DIMALTRND
 40
0.0
  9
$DIMAZIN
 70
     0
  9
$DIMDSEP
 70
    46
  9
$DIMATFIT
 70
     3
  9
$DIMFRAC
 70
     0
  9
$DIMLDRBLK
  1
OPEN
  9
$DIMLUNIT
 70
     2
  9
$DIMLWD
 70
    -2
  9
$DIMLWE
 70
    -2
  9
$DIMTMOVE
 70
     0
  9
$LUNITS
 70
     2
  9
$LUPREC
 70
     3
  9
$SKETCHINC
 40
0.1
  9
$FILLETRAD
 40
50.0
  9
$AUNITS
 70
     0
  9
$AUPREC
 70
     0
  9
$MENU
  1
acad
  9
$ELEVATION
 40
0.0
  9
$PELEVATION
 40
0.0
  9
$THICKNESS
 40
0.0
  9
$LIMCHECK
 70
     0
  9
$CHAMFERA
 40
0.5
  9
$CHAMFERB
 40
0.5
  9
$CHAMFERC
 40
0.0
  9
$CHAMFERD
 40
0.0
  9
$SKPOLY
 70
     0
  9
$TDCREATE
 40
2451390.429135880
  9
$TDUCREATE
 40
2451390.054135880
  9
$TDUPDATE
 40
2460273.627384248
  9
$TDUUPDATE
 40
2460273.252384248
  9
$TDINDWG
 40
0.0455544097
  9
$TDUSRTIMER
 40
0.0455540509
  9
$USRTIMER
 70
     1
  9
$ANGBASE
 50
0.0
  9
$ANGDIR
 70
     0
  9
$PDMODE
 70
     0
  9
$PDSIZE
 40
0.0
  9
$PLINEWID
 40
0.0
  9
$SPLFRAME
 70
     0
  9
$SPLINETYPE
 70
     6
  9
$SPLINESEGS
 70
     8
  9
$HANDSEED
  5
87AC
  9
$SURFTAB1
 70
     6
  9
$SURFTAB2
 70
     6
  9
$SURFTYPE
 70
     6
  9
$SURFU
 70
     6
  9
$SURFV
 70
     6
  9
$UCSBASE
  2

  9
$UCSNAME
  2

  9
$UCSORG
 10
0.0
 20
0.0
 30
0.0
  9
$UCSXDIR
 10
1.0
 20
0.0
 30
0.0
  9
$UCSYDIR
 10
0.0
 20
1.0
 30
0.0
  9
$UCSORTHOREF
  2

  9
$UCSORTHOVIEW
 70
     0
  9
$UCSORGTOP
 10
0.0
 20
0.0
 30
0.0
  9
$UCSORGBOTTOM
 10
0.0
 20
0.0
 30
0.0
  9
$UCSORGLEFT
 10
0.0
 20
0.0
 30
0.0
  9
$UCSORGRIGHT
 10
0.0
 20
0.0
 30
0.0
  9
$UCSORGFRONT
 10
0.0
 20
0.0
 30
0.0
  9
$UCSORGBACK
 10
0.0
 20
0.0
 30
0.0
  9
$PUCSBASE
  2

  9
$PUCSNAME
  2

  9
$PUCSORG
 10
0.0
 20
0.0
 30
0.0
  9
$PUCSXDIR
 10
1.0
 20
0.0
 30
0.0
  9
$PUCSYDIR
 10
0.0
 20
1.0
 30
0.0
  9
$PUCSORTHOREF
  2

  9
$PUCSORTHOVIEW
 70
     0
  9
$PUCSORGTOP
 10
0.0
 20
0.0
 30
0.0
  9
$PUCSORGBOTTOM
 10
0.0
 20
0.0
 30
0.0
  9
$PUCSORGLEFT
 10
0.0
 20
0.0
 30
0.0
  9
$PUCSORGRIGHT
 10
0.0
 20
0.0
 30
0.0
  9
$PUCSORGFRONT
 10
0.0
 20
0.0
 30
0.0
  9
$PUCSORGBACK
 10
0.0
 20
0.0
 30
0.0
  9
$USERI1
 70
     0
  9
$USERI2
 70
     0
  9
$USERI3
 70
     0
  9
$USERI4
 70
     0
  9
$USERI5
 70
     0
  9
$USERR1
 40
0.0
  9
$USERR2
 40
0.0
  9
$USERR3
 40
0.0
  9
$USERR4
 40
0.0
  9
$USERR5
 40
0.0
  9
$WORLDVIEW
 70
     1
  9
$SHADEDGE
 70
     3
  9
$SHADEDIF
 70
    70
  9
$TILEMODE
 70
     1
  9
$MAXACTVP
 70
    16
  9
$PINSBASE
 10
0.0
 20
0.0
 30
0.0
  9
$PLIMCHECK
 70
     0
  9
$PEXTMIN
 10
1.000000000000000E+20
 20
1.000000000000000E+20
 30
1.000000000000000E+20
  9
$PEXTMAX
 10
-1.000000000000000E+20
 20
-1.000000000000000E+20
 30
-1.000000000000000E+20
  9
$PLIMMIN
 10
0.0
 20
0.0
  9
$PLIMMAX
 10
12.0
 20
9.0
  9
$UNITMODE
 70
     0
  9
$VISRETAIN
 70
     0
  9
$PLINEGEN
 70
     0
  9
$PSLTSCALE
 70
     1
  9
$TREEDEPTH
 70
  3020
  9
$CMLSTYLE
  2
Standard
  9
$CMLJUST
 70
     0
  9
$CMLSCALE
 40
1.0
  9
$PROXYGRAPHICS
 70
     1
  9
$MEASUREMENT
 70
     0
  9
$CELWEIGHT
370
    -1
  9
$ENDCAPS
280
     0
  9
$JOINSTYLE
280
     0
  9
$LWDISPLAY
290
     0
  9
$INSUNITS
 70
     0
  9
$HYPERLINKBASE
  1

  9
$STYLESHEET
  1

  9
$XEDIT
290
     1
  9
$CEPSNTYPE
380
     0
  9
$PSTYLEMODE
290
     1
  9
$FINGERPRINTGUID
  2
{8766BFE0-22A3-4F67-9332-6BAE58898F07}
  9
$VERSIONGUID
  2
{BEA232E3-2249-484B-A07F-85B0855C6285}
  9
$EXTNAMES
290
     1
  9
$PSVPSCALE
 40
0.0
  9
$OLESTARTUP
290
     0
  0
ENDSEC
  0
SECTION
  2
CLASSES
  0
CLASS
  1
ACDBDICTIONARYWDFLT
  2
AcDbDictionaryWithDefault
  3
ObjectDBX Classes
 90
        0
280
     0
281
     0
  0
CLASS
  1
MATERIAL
  2
AcDbMaterial
  3
ObjectDBX Classes
 90
     1153
280
     0
281
     0
  0
CLASS
  1
VISUALSTYLE
  2
AcDbVisualStyle
  3
ObjectDBX Classes
 90
     4095
280
     0
281
     0
  0
CLASS
  1
SCALE
  2
AcDbScale
  3
ObjectDBX Classes
 90
     1153
280
     0
281
     0
  0
CLASS
  1
TABLESTYLE
  2
AcDbTableStyle
  3
ObjectDBX Classes
 90
     4095
280
     0
281
     0
  0
CLASS
  1
MLEADERSTYLE
  2
AcDbMLeaderStyle
  3
ACDB_MLEADERSTYLE_CLASS
 90
     4095
280
     0
281
     0
  0
CLASS
  1
ACDBSECTIONVIEWSTYLE
  2
AcDbSectionViewStyle
  3
ObjectDBX Classes
 90
     1025
280
     0
281
     0
  0
CLASS
  1
ACDBDETAILVIEWSTYLE
  2
AcDbDetailViewStyle
  3
ObjectDBX Classes
 90
     1025
280
     0
281
     0
  0
CLASS
  1
SORTENTSTABLE
  2
AcDbSortentsTable
  3
ObjectDBX Classes
 90
        0
280
     0
281
     0
  0
CLASS
  1
DICTIONARYVAR
  2
AcDbDictionaryVar
  3
ObjectDBX Classes
 90
        0
280
     0
281
     0
  0
CLASS
  1
CELLSTYLEMAP
  2
AcDbCellStyleMap
  3
ObjectDBX Classes
 90
     1152
280
     0
281
     0
  0
CLASS
  1
ACDBPLACEHOLDER
  2
AcDbPlaceHolder
  3
ObjectDBX Classes
 90
        0
280
     0
281
     0
  0
CLASS
  1
LAYOUT
  2
AcDbLayout
  3
ObjectDBX Classes
 90
        0
280
     0
281
     0
  0
ENDSEC
  0
SECTION
  2
TABLES
  0
TABLE
  2
VPORT
  5
8359
330
0
100
AcDbSymbolTable
 70
     1
  0
VPORT
  5
83C5
330
8359
100
AcDbSymbolTableRecord
100
AcDbViewportTableRecord
  2
*ACTIVE
 70
     0
 10
0.0
 20
0.0
 11
1.0
 21
1.0
 12
3675.000017113053
 22
5162.500024039763
 13
0.0
 23
0.0
 14
10.0
 24
10.0
 15
10.0
 25
10.0
 16
0.0
 26
0.0
 36
1.0
 17
0.0
 27
0.0
 37
0.0
 40
10392.47754044025
 41
2.050213675213675
 42
50.0
 43
0.0
 44
0.0
 50
0.0
 51
0.0
 71
     0
 72
   100
 73
     1
 74
     0
 75
     0
 76
     0
 77
     0
 78
     0
281
     0
 65
     1
110
0.0
120
0.0
130
0.0
111
1.0
121
0.0
131
0.0
112
0.0
122
1.0
132
0.0
 79
     0
146
0.0
1001
ACAD_NAV_VCDISPLAY
1070
     3
  0
ENDTAB
  0
TABLE
  2
LTYPE
  5
8356
330
0
100
AcDbSymbolTable
 70
     3
  0
LTYPE
  5
83AB
330
8356
100
AcDbSymbolTableRecord
100
AcDbLinetypeTableRecord
  2
ByBlock
 70
     0
  3

 72
    65
 73
     0
 40
0.0
  0
LTYPE
  5
83AC
330
8356
100
AcDbSymbolTableRecord
100
AcDbLinetypeTableRecord
  2
ByLayer
 70
     0
  3

 72
    65
 73
     0
 40
0.0
  0
LTYPE
  5
83AD
330
8356
100
AcDbSymbolTableRecord
100
AcDbLinetypeTableRecord
  2
CONTINUOUS
 70
     0
  3
Solid line
 72
    65
 73
     0
 40
0.0
  0
LTYPE
  5
83C6
330
8356
100
AcDbSymbolTableRecord
100
AcDbLinetypeTableRecord
  2
CENTER
 70
     0
  3
____ _ ____ _ ____ _ ____ _ ____ _ ____ _ ____ 
 72
    65
 73
     4
 40
2.0
 49
1.25
 74
     0
 49
-0.25
 74
     0
 49
0.25
 74
     0
 49
-0.25
 74
     0
  0
ENDTAB
  0
TABLE
  2
LAYER
  5
8353
330
0
100
AcDbSymbolTable
 70
     6
  0
LAYER
  5
83A5
102
{ACAD_XDICTIONARY
360
8715
102
}
330
8353
100
AcDbSymbolTableRecord
100
AcDbLayerTableRecord
  2
0
 70
     0
 62
     7
  6
CONTINUOUS
370
    -3
390
8360
  0
LAYER
  5
83C4
102
{ACAD_XDICTIONARY
360
8717
102
}
330
8353
100
AcDbSymbolTableRecord
100
AcDbLayerTableRecord
  2
3
 70
     0
 62
     2
  6
CONTINUOUS
370
    -3
390
8360
  0
LAYER
  5
83C7
102
{ACAD_XDICTIONARY
360
8719
102
}
330
8353
100
AcDbSymbolTableRecord
100
AcDbLayerTableRecord
  2
2
 70
     0
 62
     3
  6
CENTER
370
    -3
390
8360
  0
LAYER
  5
83C8
102
{ACAD_XDICTIONARY
360
871B
102
}
330
8353
100
AcDbSymbolTableRecord
100
AcDbLayerTableRecord
  2
1
 70
     0
 62
     4
  6
CONTINUOUS
370
    -3
390
8360
  0
LAYER
  5
83C9
102
{ACAD_XDICTIONARY
360
871D
102
}
330
8353
100
AcDbSymbolTableRecord
100
AcDbLayerTableRecord
  2
4
 70
     0
 62
     7
  6
CONTINUOUS
370
    -3
390
8360
  0
LAYER
  5
83CA
330
8353
100
AcDbSymbolTableRecord
100
AcDbLayerTableRecord
  2
DEFPOINTS
 70
     0
 62
     7
  6
CONTINUOUS
290
     0
370
    -3
390
8360
  0
ENDTAB
  0
TABLE
  2
STYLE
  5
8354
330
0
100
AcDbSymbolTable
 70
     2
  0
STYLE
  5
83A6
330
8354
100
AcDbSymbolTableRecord
100
AcDbTextStyleTableRecord
  2
STANDARD
 70
     0
 40
0.0
 41
1.0
 50
0.0
 71
     0
 42
180.0
  3
simplex.shx
  4
extfont.shx
  0
STYLE
  5
83AA
330
8354
100
AcDbSymbolTableRecord
100
AcDbTextStyleTableRecord
  2
Annotative
 70
     0
 40
0.0
 41
1.0
 50
0.0
 71
     0
 42
0.2
  3
txt
  4

1001
AcadAnnotative
1000
AnnotativeData
1002
{
1070
     1
1070
     1
1002
}
  0
ENDTAB
  0
TABLE
  2
VIEW
  5
8357
330
0
100
AcDbSymbolTable
 70
     0
  0
ENDTAB
  0
TABLE
  2
UCS
  5
8358
330
0
100
AcDbSymbolTable
 70
     0
  0
ENDTAB
  0
TABLE
  2
APPID
  5
835A
330
0
100
AcDbSymbolTable
 70
     8
  0
APPID
  5
83A7
330
835A
100
AcDbSymbolTableRecord
100
AcDbRegAppTableRecord
  2
ACAD
 70
     0
  0
APPID
  5
83AE
330
835A
100
AcDbSymbolTableRecord
100
AcDbRegAppTableRecord
  2
AcadAnnotative
 70
     0
  0
APPID
  5
8409
330
835A
100
AcDbSymbolTableRecord
100
AcDbRegAppTableRecord
  2
ACAD_DSTYLE_DIMJAG
 70
     0
  0
APPID
  5
840A
330
835A
100
AcDbSymbolTableRecord
100
AcDbRegAppTableRecord
  2
ACAD_DSTYLE_DIMTALN
 70
     0
  0
APPID
  5
84D0
330
835A
100
AcDbSymbolTableRecord
100
AcDbRegAppTableRecord
  2
AcadAnnoMonitorAlertIconDisabled
 70
     0
  0
APPID
  5
84D1
330
835A
100
AcDbSymbolTableRecord
100
AcDbRegAppTableRecord
  2
ACAD_EXEMPT_FROM_CAD_STANDARDS
 70
     0
  0
APPID
  5
8729
330
835A
100
AcDbSymbolTableRecord
100
AcDbRegAppTableRecord
  2
ACAD_NAV_VCDISPLAY
 70
     0
  0
APPID
  5
87A3
330
835A
100
AcDbSymbolTableRecord
100
AcDbRegAppTableRecord
  2
ACAD_MLEADERVER
 70
     0
  0
ENDTAB
  0
TABLE
  2
DIMSTYLE
  5
835B
330
0
100
AcDbSymbolTable
 70
     3
100
AcDbDimStyleTable
 71
     1
340
83CB
  0
DIMSTYLE
105
83A8
330
835B
100
AcDbSymbolTableRecord
100
AcDbDimStyleTableRecord
  2
Standard
 70
     0
340
83A6
  0
DIMSTYLE
105
83A9
330
835B
100
AcDbSymbolTableRecord
100
AcDbDimStyleTableRecord
  2
Annotative
 70
     0
340
83A6
1001
AcadAnnotative
1000
AnnotativeData
1002
{
1070
     1
1070
     1
1002
}
  0
DIMSTYLE
105
83CB
102
{ACAD_REACTORS
330
847E
330
848B
330
849C
330
84A9
330
84B6
330
84C3
330
852D
330
853A
330
8547
330
8554
330
8561
330
856E
330
857B
330
8588
330
8595
330
85A2
330
85AF
330
85BC
330
85C9
330
85D6
330
85E8
330
85FA
102
}
330
835B
100
AcDbSymbolTableRecord
100
AcDbDimStyleTableRecord
  2
IGA
 70
     0
 40
2.0
 41
2.0
 42
0.5
 43
10.0
 44
1.0
 47
1.0
 48
1.0
 73
     0
 74
     0
 77
     1
 78
     8
140
3.0
141
0.0
143
0.03937
146
10.0
147
1.0
173
     1
271
     3
272
     3
279
     2
284
     8
285
     8
286
     8
340
83A6
  0
ENDTAB
  0
TABLE
  2
BLOCK_RECORD
  5
8352
330
0
100
AcDbSymbolTable
 70
    60
  0
BLOCK_RECORD
  5
83C0
102
{ACAD_XDICTIONARY
360
8499
102
}
330
8352
100
AcDbSymbolTableRecord
100
AcDbBlockTableRecord
  2
*Model_Space
340
83C3
  0
BLOCK_RECORD
  5
83BC
330
8352
100
AcDbSymbolTableRecord
100
AcDbBlockTableRecord
  2
*Paper_Space
340
83BF
  0
BLOCK_RECORD
  5
83CF
330
8352
100
AcDbSymbolTableRecord
100
AcDbBlockTableRecord
  2
$MODEL_SPACE
340
0
  0
BLOCK_RECORD
  5
83D1
330
8352
100
AcDbSymbolTableRecord
100
AcDbBlockTableRecord
  2
$PAPER_SPACE
340
0
  0
BLOCK_RECORD
  5
83D3
330
8352
100
AcDbSymbolTableRecord
100
AcDbBlockTableRecord
  2
_OPEN
340
0
102
{BLKREFS
331
8541
331
8542
331
854E
331
854F
331
855B
331
855C
331
8568
331
8569
331
8575
331
8576
331
8582
331
8583
331
858F
331
8590
331
859C
331
859D
331
85A9
331
85AA
331
85B6
331
85B7
331
85C3
331
85C4
331
85D0
331
85D1
331
8643
331
8644
331
86B7
331
8711
331
84E0
331
851E
331
851F
331
8527
331
8528
331
8534
331
8535
331
82AF
331
82B0
331
82B8
331
82B9
331
82C1
331
82C2
331
82CA
331
82CB
331
82D3
331
82D4
331
82DC
331
82DD
331
8485
331
8486
331
8492
331
8493
331
84B0
331
84B1
331
84DF
331
82E5
331
82E6
331
82EE
331
82EF
331
8161
331
8162
331
81B1
331
81B2
331
82F7
331
82F8
331
8300
331
8301
331
813A
331
813B
331
8147
331
8148
331
8154
331
8155
331
8309
331
830A
331
8312
331
8313
331
831B
331
831C
331
8324
331
8325
331
832D
331
832E
331
8339
102
}
  0
BLOCK_RECORD
  5
83D5
330
8352
100
AcDbSymbolTableRecord
100
AcDbBlockTableRecord
  2
YA_N
340
0
102
{BLKREFS
331
7C14
331
7C35
331
7C3E
331
7C6A
331
7C90
102
}
  0
BLOCK_RECORD
  5
83D7
330
8352
100
AcDbSymbolTableRecord
100
AcDbBlockTableRecord
  2
*D4
340
0
  0
BLOCK_RECORD
  5
83D9
330
8352
100
AcDbSymbolTableRecord
100
AcDbBlockTableRecord
  2
*D5
340
0
  0
BLOCK_RECORD
  5
83DB
330
8352
100
AcDbSymbolTableRecord
100
AcDbBlockTableRecord
  2
*D6
340
0
  0
BLOCK_RECORD
  5
83DD
330
8352
100
AcDbSymbolTableRecord
100
AcDbBlockTableRecord
  2
*D7
340
0
  0
BLOCK_RECORD
  5
83DF
330
8352
100
AcDbSymbolTableRecord
100
AcDbBlockTableRecord
  2
*D8
340
0
  0
BLOCK_RECORD
  5
83E1
330
8352
100
AcDbSymbolTableRecord
100
AcDbBlockTableRecord
  2
*D9
340
0
  0
BLOCK_RECORD
  5
83E3
330
8352
100
AcDbSymbolTableRecord
100
AcDbBlockTableRecord
  2
*D10
340
0
  0
BLOCK_RECORD
  5
83E5
330
8352
100
AcDbSymbolTableRecord
100
AcDbBlockTableRecord
  2
*D11
340
0
  0
BLOCK_RECORD
  5
83E7
330
8352
100
AcDbSymbolTableRecord
100
AcDbBlockTableRecord
  2
*D12
340
0
  0
BLOCK_RECORD
  5
83E9
330
8352
100
AcDbSymbolTableRecord
100
AcDbBlockTableRecord
  2
*D13
340
0
  0
BLOCK_RECORD
  5
83EB
330
8352
100
AcDbSymbolTableRecord
100
AcDbBlockTableRecord
  2
*D14
340
0
  0
BLOCK_RECORD
  5
83ED
330
8352
100
AcDbSymbolTableRecord
100
AcDbBlockTableRecord
  2
*D15
340
0
  0
BLOCK_RECORD
  5
83EF
330
8352
100
AcDbSymbolTableRecord
100
AcDbBlockTableRecord
  2
*D16
340
0
  0
BLOCK_RECORD
  5
83F1
330
8352
100
AcDbSymbolTableRecord
100
AcDbBlockTableRecord
  2
*D17
340
0
  0
BLOCK_RECORD
  5
83F3
330
8352
100
AcDbSymbolTableRecord
100
AcDbBlockTableRecord
  2
*D18
340
0
  0
BLOCK_RECORD
  5
83F5
330
8352
100
AcDbSymbolTableRecord
100
AcDbBlockTableRecord
  2
*D19
340
0
  0
BLOCK_RECORD
  5
83F7
330
8352
100
AcDbSymbolTableRecord
100
AcDbBlockTableRecord
  2
_DOT
340
0
102
{BLKREFS
331
8338
102
}
  0
BLOCK_RECORD
  5
83F9
330
8352
100
AcDbSymbolTableRecord
100
AcDbBlockTableRecord
  2
*D21
340
0
  0
BLOCK_RECORD
  5
83FB
330
8352
100
AcDbSymbolTableRecord
100
AcDbBlockTableRecord
  2
*D22
340
0
  0
BLOCK_RECORD
  5
83FD
330
8352
100
AcDbSymbolTableRecord
100
AcDbBlockTableRecord
  2
*D23
340
0
  0
BLOCK_RECORD
  5
83FF
330
8352
100
AcDbSymbolTableRecord
100
AcDbBlockTableRecord
  2
*D24
340
0
  0
BLOCK_RECORD
  5
8401
330
8352
100
AcDbSymbolTableRecord
100
AcDbBlockTableRecord
  2
_NONE
340
0
  0
BLOCK_RECORD
  5
8403
330
8352
100
AcDbSymbolTableRecord
100
AcDbBlockTableRecord
  2
*D26
340
0
  0
BLOCK_RECORD
  5
8405
330
8352
100
AcDbSymbolTableRecord
100
AcDbBlockTableRecord
  2
*D27
340
0
  0
BLOCK_RECORD
  5
840B
330
8352
100
AcDbSymbolTableRecord
100
AcDbBlockTableRecord
  2
*D28
340
0
  0
BLOCK_RECORD
  5
8418
330
8352
100
AcDbSymbolTableRecord
100
AcDbBlockTableRecord
  2
*D29
340
0
  0
BLOCK_RECORD
  5
8425
330
8352
100
AcDbSymbolTableRecord
100
AcDbBlockTableRecord
  2
*D30
340
0
  0
BLOCK_RECORD
  5
8432
330
8352
100
AcDbSymbolTableRecord
100
AcDbBlockTableRecord
  2
*D31
340
0
  0
BLOCK_RECORD
  5
843F
330
8352
100
AcDbSymbolTableRecord
100
AcDbBlockTableRecord
  2
*D32
340
0
  0
BLOCK_RECORD
  5
844C
330
8352
100
AcDbSymbolTableRecord
100
AcDbBlockTableRecord
  2
*D33
340
0
  0
BLOCK_RECORD
  5
8459
330
8352
100
AcDbSymbolTableRecord
100
AcDbBlockTableRecord
  2
*D34
340
0
  0
BLOCK_RECORD
  5
8464
330
8352
100
AcDbSymbolTableRecord
100
AcDbBlockTableRecord
  2
*D35
340
0
  0
BLOCK_RECORD
  5
8471
330
8352
100
AcDbSymbolTableRecord
100
AcDbBlockTableRecord
  2
*D36
340
0
  0
BLOCK_RECORD
  5
847F
330
8352
100
AcDbSymbolTableRecord
100
AcDbBlockTableRecord
  2
*D37
340
0
  0
BLOCK_RECORD
  5
848C
330
8352
100
AcDbSymbolTableRecord
100
AcDbBlockTableRecord
  2
*D38
340
0
  0
BLOCK_RECORD
  5
849D
330
8352
100
AcDbSymbolTableRecord
100
AcDbBlockTableRecord
  2
*D39
340
0
  0
BLOCK_RECORD
  5
84AA
330
8352
100
AcDbSymbolTableRecord
100
AcDbBlockTableRecord
  2
*D40
340
0
  0
BLOCK_RECORD
  5
84B7
330
8352
100
AcDbSymbolTableRecord
100
AcDbBlockTableRecord
  2
*D41
340
0
  0
BLOCK_RECORD
  5
84C4
330
8352
100
AcDbSymbolTableRecord
100
AcDbBlockTableRecord
  2
*D42
340
0
  0
BLOCK_RECORD
  5
852E
330
8352
100
AcDbSymbolTableRecord
100
AcDbBlockTableRecord
  2
*D43
340
0
  0
BLOCK_RECORD
  5
853B
330
8352
100
AcDbSymbolTableRecord
100
AcDbBlockTableRecord
  2
*D44
340
0
  0
BLOCK_RECORD
  5
8548
330
8352
100
AcDbSymbolTableRecord
100
AcDbBlockTableRecord
  2
*D45
340
0
  0
BLOCK_RECORD
  5
8555
330
8352
100
AcDbSymbolTableRecord
100
AcDbBlockTableRecord
  2
*D46
340
0
  0
BLOCK_RECORD
  5
8562
330
8352
100
AcDbSymbolTableRecord
100
AcDbBlockTableRecord
  2
*D47
340
0
  0
BLOCK_RECORD
  5
856F
330
8352
100
AcDbSymbolTableRecord
100
AcDbBlockTableRecord
  2
*D48
340
0
  0
BLOCK_RECORD
  5
857C
330
8352
100
AcDbSymbolTableRecord
100
AcDbBlockTableRecord
  2
*D49
340
0
  0
BLOCK_RECORD
  5
8589
330
8352
100
AcDbSymbolTableRecord
100
AcDbBlockTableRecord
  2
*D50
340
0
  0
BLOCK_RECORD
  5
8596
330
8352
100
AcDbSymbolTableRecord
100
AcDbBlockTableRecord
  2
*D51
340
0
  0
BLOCK_RECORD
  5
85A3
330
8352
100
AcDbSymbolTableRecord
100
AcDbBlockTableRecord
  2
*D52
340
0
  0
BLOCK_RECORD
  5
85B0
330
8352
100
AcDbSymbolTableRecord
100
AcDbBlockTableRecord
  2
*D53
340
0
  0
BLOCK_RECORD
  5
85BD
330
8352
100
AcDbSymbolTableRecord
100
AcDbBlockTableRecord
  2
*D54
340
0
  0
BLOCK_RECORD
  5
85CA
330
8352
100
AcDbSymbolTableRecord
100
AcDbBlockTableRecord
  2
*D55
340
0
  0
BLOCK_RECORD
  5
85D7
330
8352
100
AcDbSymbolTableRecord
100
AcDbBlockTableRecord
  2
*D56
340
0
  0
BLOCK_RECORD
  5
85E9
330
8352
100
AcDbSymbolTableRecord
100
AcDbBlockTableRecord
  2
*D57
340
0
  0
BLOCK_RECORD
  5
85FB
330
8352
100
AcDbSymbolTableRecord
100
AcDbBlockTableRecord
  2
*D58
340
0
  0
BLOCK_RECORD
  5
86AA
330
8352
100
AcDbSymbolTableRecord
100
AcDbBlockTableRecord
  2
_DotSmall
340
0
102
{BLKREFS
331
86B8
331
8710
102
}
  0
ENDTAB
  0
ENDSEC
  0
SECTION
  2
BLOCKS
  0
BLOCK
  5
83C1
330
83C0
100
AcDbEntity
  8
0
100
AcDbBlockBegin
  2
*Model_Space
 70
     0
 10
0.0
 20
0.0
 30
0.0
  3
*Model_Space
  1

  0
ENDBLK
  5
83C2
330
83C0
100
AcDbEntity
  8
0
100
AcDbBlockEnd
  0
BLOCK
  5
83BD
330
83BC
100
AcDbEntity
 67
     1
  8
0
100
AcDbBlockBegin
  2
*Paper_Space
 70
     0
 10
0.0
 20
0.0
 30
0.0
  3
*Paper_Space
  1

  0
ENDBLK
  5
83BE
330
83BC
100
AcDbEntity
 67
     1
  8
0
100
AcDbBlockEnd
  0
BLOCK
  5
83D0
330
83CF
100
AcDbEntity
  8
0
100
AcDbBlockBegin
  2
$MODEL_SPACE
 70
     0
 10
0.0
 20
0.0
 30
0.0
  3
$MODEL_SPACE
  1

  0
ENDBLK
  5
1B
330
83CF
100
AcDbEntity
  8
0
100
AcDbBlockEnd
  0
BLOCK
  5
83D2
330
83D1
100
AcDbEntity
  8
0
100
AcDbBlockBegin
  2
$PAPER_SPACE
 70
     0
 10
0.0
 20
0.0
 30
0.0
  3
$PAPER_SPACE
  1

  0
ENDBLK
  5
18
330
83D1
100
AcDbEntity
  8
0
100
AcDbBlockEnd
  0
BLOCK
  5
83D4
330
83D3
100
AcDbEntity
  8
0
100
AcDbBlockBegin
  2
_OPEN
 70
     0
 10
0.0
 20
0.0
 30
0.0
  3
_OPEN
  1

  0
LINE
  5
79FD
330
83D3
100
AcDbEntity
  8
0
  6
ByBlock
 62
     0
100
AcDbLine
 10
-1.0
 20
0.1666666666666666
 30
0.0
 11
0.0
 21
0.0
 31
0.0
  0
LINE
  5
79FE
330
83D3
100
AcDbEntity
  8
0
  6
ByBlock
 62
     0
100
AcDbLine
 10
0.0
 20
0.0
 30
0.0
 11
-1.0
 21
-0.1666666666666666
 31
0.0
  0
LINE
  5
79FF
330
83D3
100
AcDbEntity
  8
0
  6
ByBlock
 62
     0
100
AcDbLine
 10
0.0
 20
0.0
 30
0.0
 11
-1.0
 21
0.0
 31
0.0
  0
ENDBLK
  5
7A01
330
83D3
100
AcDbEntity
  8
0
100
AcDbBlockEnd
  0
BLOCK
  5
83D6
330
83D5
100
AcDbEntity
  8
0
100
AcDbBlockBegin
  2
YA_N
 70
     0
 10
0.0
 20
0.0
 30
0.0
  3
YA_N
  1

  0
ENDBLK
  5
7A0C
330
83D5
100
AcDbEntity
  8
0
100
AcDbBlockEnd
  0
BLOCK
  5
83D8
330
83D7
100
AcDbEntity
  8
0
100
AcDbBlockBegin
  2
*D4
 70
     1
 10
0.0
 20
0.0
 30
0.0
  3
*D4
  1

  0
LINE
  5
82AC
330
83D7
100
AcDbEntity
  8
3
 62
     0
100
AcDbLine
 10
3461.56856939381
 20
4204.787145966451
 30
0.0
 11
3461.56856939381
 21
4422.395462250719
 31
0.0
  0
LINE
  5
82AD
330
83D7
100
AcDbEntity
  8
3
 62
     0
100
AcDbLine
 10
2311.568569393809
 20
4204.787145966451
 30
0.0
 11
2311.568569393809
 21
4422.395462250719
 31
0.0
  0
LINE
  5
82AE
330
83D7
100
AcDbEntity
  8
3
 62
     0
100
AcDbLine
 10
3391.56856939381
 20
4387.395462250719
 30
0.0
 11
2381.56856939381
 21
4387.395462250719
 31
0.0
  0
INSERT
  5
82AF
330
83D7
100
AcDbEntity
  8
3
 62
     0
100
AcDbBlockReference
  2
_OPEN
 10
3461.56856939381
 20
4387.395462250719
 30
0.0
 41
70.0
 42
70.0
 43
70.0
  0
INSERT
  5
82B0
330
83D7
100
AcDbEntity
  8
3
 62
     0
100
AcDbBlockReference
  2
_OPEN
 10
2311.568569393809
 20
4387.395462250719
 30
0.0
 41
70.0
 42
70.0
 43
70.0
 50
180.0
  0
TEXT
  5
8341
330
83D7
100
AcDbEntity
  8
3
 62
     0
100
AcDbText
 10
2676.57
 20
4289.05
 30
0.0
 40
105.0
  1
1150
100
AcDbText
  0
POINT
  5
82B2
330
83D7
100
AcDbEntity
  8
DEFPOINTS
 62
     0
100
AcDbPoint
 10
3461.56856939381
 20
4187.287145966453
 30
0.0
  0
POINT
  5
82B3
330
83D7
100
AcDbEntity
  8
DEFPOINTS
 62
     0
100
AcDbPoint
 10
2311.568569393809
 20
4187.287145966453
 30
0.0
  0
POINT
  5
82B4
330
83D7
100
AcDbEntity
  8
DEFPOINTS
 62
     0
100
AcDbPoint
 10
2311.568569393809
 20
4387.395462250719
 30
0.0
  0
ENDBLK
  5
7F7F
330
83D7
100
AcDbEntity
  8
0
100
AcDbBlockEnd
  0
BLOCK
  5
83DA
330
83D9
100
AcDbEntity
  8
0
100
AcDbBlockBegin
  2
*D5
 70
     1
 10
0.0
 20
0.0
 30
0.0
  3
*D5
  1

  0
LINE
  5
82B5
330
83D9
100
AcDbEntity
  8
3
 62
     0
100
AcDbLine
 10
3461.56856939381
 20
4204.787145966451
 30
0.0
 11
3461.56856939381
 21
4622.547113112221
 31
0.0
  0
LINE
  5
82B6
330
83D9
100
AcDbEntity
  8
3
 62
     0
100
AcDbLine
 10
2263.568569393809
 20
4290.626146865185
 30
0.0
 11
2263.568569393809
 21
4622.547113112221
 31
0.0
  0
LINE
  5
82B7
330
83D9
100
AcDbEntity
  8
3
 62
     0
100
AcDbLine
 10
3391.56856939381
 20
4587.547113112221
 30
0.0
 11
2333.568569393809
 21
4587.547113112221
 31
0.0
  0
INSERT
  5
82B8
330
83D9
100
AcDbEntity
  8
3
 62
     0
100
AcDbBlockReference
  2
_OPEN
 10
3461.56856939381
 20
4587.547113112221
 30
0.0
 41
70.0
 42
70.0
 43
70.0
  0
INSERT
  5
82B9
330
83D9
100
AcDbEntity
  8
3
 62
     0
100
AcDbBlockReference
  2
_OPEN
 10
2263.568569393809
 20
4587.547113112221
 30
0.0
 41
70.0
 42
70.0
 43
70.0
 50
180.0
  0
TEXT
  5
8342
330
83D9
100
AcDbEntity
  8
3
 62
     0
100
AcDbText
 10
2652.57
 20
4489.199999999999
 30
0.0
 40
105.0
  1
1198
100
AcDbText
  0
POINT
  5
82BB
330
83D9
100
AcDbEntity
  8
DEFPOINTS
 62
     0
100
AcDbPoint
 10
3461.56856939381
 20
4187.287145966453
 30
0.0
  0
POINT
  5
82BC
330
83D9
100
AcDbEntity
  8
DEFPOINTS
 62
     0
100
AcDbPoint
 10
2263.568569393809
 20
4273.126146865187
 30
0.0
  0
POINT
  5
82BD
330
83D9
100
AcDbEntity
  8
DEFPOINTS
 62
     0
100
AcDbPoint
 10
2263.568569393809
 20
4587.547113112221
 30
0.0
  0
ENDBLK
  5
7F8A
330
83D9
100
AcDbEntity
  8
0
100
AcDbBlockEnd
  0
BLOCK
  5
83DC
330
83DB
100
AcDbEntity
  8
0
100
AcDbBlockBegin
  2
*D6
 70
     1
 10
0.0
 20
0.0
 30
0.0
  3
*D6
  1

  0
LINE
  5
82BE
330
83DB
100
AcDbEntity
  8
3
 62
     0
100
AcDbLine
 10
4727.419090021525
 20
4200.127419168548
 30
0.0
 11
4727.419090021525
 21
4482.405437488114
 31
0.0
  0
LINE
  5
82BF
330
83DB
100
AcDbEntity
  8
3
 62
     0
100
AcDbLine
 10
6227.419090021524
 20
4194.278482506933
 30
0.0
 11
6227.419090021524
 21
4482.405437488114
 31
0.0
  0
LINE
  5
82C0
330
83DB
100
AcDbEntity
  8
3
 62
     0
100
AcDbLine
 10
4797.419090021525
 20
4447.405437488114
 30
0.0
 11
6157.419090021527
 21
4447.405437488114
 31
0.0
  0
INSERT
  5
82C1
330
83DB
100
AcDbEntity
  8
3
 62
     0
100
AcDbBlockReference
  2
_OPEN
 10
4727.419090021525
 20
4447.405437488114
 30
0.0
 41
70.0
 42
70.0
 43
70.0
 50
180.0
  0
INSERT
  5
82C2
330
83DB
100
AcDbEntity
  8
3
 62
     0
100
AcDbBlockReference
  2
_OPEN
 10
6227.419090021524
 20
4447.405437488114
 30
0.0
 41
70.0
 42
70.0
 43
70.0
  0
TEXT
  5
8343
330
83DB
100
AcDbEntity
  8
3
 62
     0
100
AcDbText
 10
5267.42
 20
4349.06
 30
0.0
 40
105.0
  1
1500
100
AcDbText
  0
POINT
  5
82C4
330
83DB
100
AcDbEntity
  8
DEFPOINTS
 62
     0
100
AcDbPoint
 10
4727.419090021525
 20
4182.627419168547
 30
0.0
  0
POINT
  5
82C5
330
83DB
100
AcDbEntity
  8
DEFPOINTS
 62
     0
100
AcDbPoint
 10
6227.419090021524
 20
4176.778482506934
 30
0.0
  0
POINT
  5
82C6
330
83DB
100
AcDbEntity
  8
DEFPOINTS
 62
     0
100
AcDbPoint
 10
6227.419090021524
 20
4447.405437488114
 30
0.0
  0
ENDBLK
  5
8028
330
83DB
100
AcDbEntity
  8
0
100
AcDbBlockEnd
  0
BLOCK
  5
83DE
330
83DD
100
AcDbEntity
  8
0
100
AcDbBlockBegin
  2
*D7
 70
     1
 10
0.0
 20
0.0
 30
0.0
  3
*D7
  1

  0
LINE
  5
82C7
330
83DD
100
AcDbEntity
  8
3
 62
     0
100
AcDbLine
 10
5477.419090021525
 20
4631.383203308891
 30
0.0
 11
5477.419090021525
 21
4719.158983634345
 31
0.0
  0
LINE
  5
82C8
330
83DD
100
AcDbEntity
  8
3
 62
     0
100
AcDbLine
 10
6392.419090021522
 20
3357.826623071648
 30
0.0
 11
6392.419090021522
 21
4719.158983634345
 31
0.0
  0
LINE
  5
82C9
330
83DD
100
AcDbEntity
  8
3
 62
     0
100
AcDbLine
 10
5547.419090021525
 20
4684.158983634346
 30
0.0
 11
6322.419090021522
 21
4684.158983634346
 31
0.0
  0
INSERT
  5
82CA
330
83DD
100
AcDbEntity
  8
3
 62
     0
100
AcDbBlockReference
  2
_OPEN
 10
5477.419090021525
 20
4684.158983634346
 30
0.0
 41
70.0
 42
70.0
 43
70.0
 50
180.0
  0
INSERT
  5
82CB
330
83DD
100
AcDbEntity
  8
3
 62
     0
100
AcDbBlockReference
  2
_OPEN
 10
6392.419090021522
 20
4684.158983634346
 30
0.0
 41
70.0
 42
70.0
 43
70.0
  0
TEXT
  5
8344
330
83DD
100
AcDbEntity
  8
3
 62
     0
100
AcDbText
 10
5724.92
 20
4613.310000000001
 30
0.0
 40
105.0
  1
(930)
100
AcDbText
  0
POINT
  5
82CD
330
83DD
100
AcDbEntity
  8
DEFPOINTS
 62
     0
100
AcDbPoint
 10
5477.419090021525
 20
4613.883203308893
 30
0.0
  0
POINT
  5
82CE
330
83DD
100
AcDbEntity
  8
DEFPOINTS
 62
     0
100
AcDbPoint
 10
6392.419090021522
 20
3340.326623071647
 30
0.0
  0
POINT
  5
82CF
330
83DD
100
AcDbEntity
  8
DEFPOINTS
 62
     0
100
AcDbPoint
 10
6392.419090021522
 20
4684.158983634346
 30
0.0
  0
ENDBLK
  5
812C
330
83DD
100
AcDbEntity
  8
0
100
AcDbBlockEnd
  0
BLOCK
  5
83E0
330
83DF
100
AcDbEntity
  8
0
100
AcDbBlockBegin
  2
*D8
 70
     1
 10
0.0
 20
0.0
 30
0.0
  3
*D8
  1

  0
LINE
  5
82D0
330
83DF
100
AcDbEntity
  8
3
 62
     0
100
AcDbLine
 10
6250.419090021528
 20
2867.287145966454
 30
0.0
 11
6630.20185637704
 21
2867.287145966454
 31
0.0
  0
LINE
  5
82D1
330
83DF
100
AcDbEntity
  8
3
 62
     0
100
AcDbLine
 10
6250.419090021528
 20
3987.287145966454
 30
0.0
 11
6630.20185637704
 21
3987.287145966454
 31
0.0
  0
LINE
  5
82D2
330
83DF
100
AcDbEntity
  8
3
 62
     0
100
AcDbLine
 10
6595.201856377039
 20
2937.287145966454
 30
0.0
 11
6595.201856377039
 21
3917.287145966453
 31
0.0
  0
INSERT
  5
82D3
330
83DF
100
AcDbEntity
  8
3
 62
     0
100
AcDbBlockReference
  2
_OPEN
 10
6595.201856377039
 20
2867.287145966454
 30
0.0
 41
70.0
 42
70.0
 43
70.0
 50
270.0
  0
INSERT
  5
82D4
330
83DF
100
AcDbEntity
  8
3
 62
     0
100
AcDbBlockReference
  2
_OPEN
 10
6595.201856377039
 20
3987.287145966454
 30
0.0
 41
70.0
 42
70.0
 43
70.0
 50
90.0
  0
TEXT
  5
8345
330
83DF
100
AcDbEntity
  8
3
 62
     0
100
AcDbText
 10
6297.699999999999
 20
3241.44
 30
0.0
 40
105.0
  1
\U+03C61120
100
AcDbText
  0
POINT
  5
82D6
330
83DF
100
AcDbEntity
  8
DEFPOINTS
 62
     0
100
AcDbPoint
 10
6232.919090021528
 20
2867.287145966454
 30
0.0
  0
POINT
  5
82D7
330
83DF
100
AcDbEntity
  8
DEFPOINTS
 62
     0
100
AcDbPoint
 10
6232.919090021528
 20
3987.287145966454
 30
0.0
  0
POINT
  5
82D8
330
83DF
100
AcDbEntity
  8
DEFPOINTS
 62
     0
100
AcDbPoint
 10
6595.201856377039
 20
3987.287145966454
 30
0.0
  0
ENDBLK
  5
801D
330
83DF
100
AcDbEntity
  8
0
100
AcDbBlockEnd
  0
BLOCK
  5
83E2
330
83E1
100
AcDbEntity
  8
0
100
AcDbBlockBegin
  2
*D9
 70
     1
 10
0.0
 20
0.0
 30
0.0
  3
*D9
  1

  0
LINE
  5
82D9
330
83E1
100
AcDbEntity
  8
3
 62
     0
100
AcDbLine
 10
4354.719090021525
 20
3824.787145966454
 30
0.0
 11
4354.719090021525
 21
4718.142332365935
 31
0.0
  0
LINE
  5
82DA
330
83E1
100
AcDbEntity
  8
3
 62
     0
100
AcDbLine
 10
5477.419090021525
 20
4631.383203308891
 30
0.0
 11
5477.419090021525
 21
4718.142332365935
 31
0.0
  0
LINE
  5
82DB
330
83E1
100
AcDbEntity
  8
3
 62
     0
100
AcDbLine
 10
4424.719090021525
 20
4683.142332365934
 30
0.0
 11
5407.419090021526
 21
4683.142332365934
 31
0.0
  0
INSERT
  5
82DC
330
83E1
100
AcDbEntity
  8
3
 62
     0
100
AcDbBlockReference
  2
_OPEN
 10
4354.719090021525
 20
4683.142332365934
 30
0.0
 41
70.0
 42
70.0
 43
70.0
 50
180.0
  0
INSERT
  5
82DD
330
83E1
100
AcDbEntity
  8
3
 62
     0
100
AcDbBlockReference
  2
_OPEN
 10
5477.419090021525
 20
4683.142332365934
 30
0.0
 41
70.0
 42
70.0
 43
70.0
  0
TEXT
  5
8346
330
83E1
100
AcDbEntity
  8
3
 62
     0
100
AcDbText
 10
4706.069999999999
 20
4672.29
 30
0.0
 40
105.0
  1
MAX
100
AcDbText
  0
TEXT
  5
8347
330
83E1
100
AcDbEntity
  8
3
 62
     0
100
AcDbText
 10
4706.069999999999
 20
4535.79
 30
0.0
 40
105.0
  1
1120
100
AcDbText
  0
POINT
  5
82DF
330
83E1
100
AcDbEntity
  8
DEFPOINTS
 62
     0
100
AcDbPoint
 10
4354.719090021525
 20
3807.287145966454
 30
0.0
  0
POINT
  5
82E0
330
83E1
100
AcDbEntity
  8
DEFPOINTS
 62
     0
100
AcDbPoint
 10
5477.419090021525
 20
4613.883203308893
 30
0.0
  0
POINT
  5
82E1
330
83E1
100
AcDbEntity
  8
DEFPOINTS
 62
     0
100
AcDbPoint
 10
5477.419090021525
 20
4683.142332365934
 30
0.0
  0
ENDBLK
  5
8121
330
83E1
100
AcDbEntity
  8
0
100
AcDbBlockEnd
  0
BLOCK
  5
83E4
330
83E3
100
AcDbEntity
  8
0
100
AcDbBlockBegin
  2
*D10
 70
     1
 10
0.0
 20
0.0
 30
0.0
  3
*D10
  1

  0
LINE
  5
82E2
330
83E3
100
AcDbEntity
  8
3
 62
     0
100
AcDbLine
 10
2923.56856939381
 20
7667.186236647791
 30
0.0
 11
2923.56856939381
 21
7858.693597118909
 31
0.0
  0
LINE
  5
82E3
330
83E3
100
AcDbEntity
  8
3
 62
     0
100
AcDbLine
 10
1603.56856939381
 20
7667.186236647791
 30
0.0
 11
1603.56856939381
 21
7858.693597118909
 31
0.0
  0
LINE
  5
82E4
330
83E3
100
AcDbEntity
  8
3
 62
     0
100
AcDbLine
 10
2853.568569393809
 20
7823.69359711891
 30
0.0
 11
1673.56856939381
 21
7823.69359711891
 31
0.0
  0
INSERT
  5
82E5
330
83E3
100
AcDbEntity
  8
3
 62
     0
100
AcDbBlockReference
  2
_OPEN
 10
2923.56856939381
 20
7823.69359711891
 30
0.0
 41
70.0
 42
70.0
 43
70.0
  0
INSERT
  5
82E6
330
83E3
100
AcDbEntity
  8
3
 62
     0
100
AcDbBlockReference
  2
_OPEN
 10
1603.56856939381
 20
7823.69359711891
 30
0.0
 41
70.0
 42
70.0
 43
70.0
 50
180.0
  0
TEXT
  5
8348
330
83E3
100
AcDbEntity
  8
3
 62
     0
100
AcDbText
 10
2053.57
 20
7725.34
 30
0.0
 40
105.0
  1
1320
100
AcDbText
  0
POINT
  5
82E8
330
83E3
100
AcDbEntity
  8
DEFPOINTS
 62
     0
100
AcDbPoint
 10
2923.56856939381
 20
7649.686236647792
 30
0.0
  0
POINT
  5
82E9
330
83E3
100
AcDbEntity
  8
DEFPOINTS
 62
     0
100
AcDbPoint
 10
1603.56856939381
 20
7649.686236647792
 30
0.0
  0
POINT
  5
82EA
330
83E3
100
AcDbEntity
  8
DEFPOINTS
 62
     0
100
AcDbPoint
 10
1603.56856939381
 20
7823.69359711891
 30
0.0
  0
ENDBLK
  5
7F48
330
83E3
100
AcDbEntity
  8
0
100
AcDbBlockEnd
  0
BLOCK
  5
83E6
330
83E5
100
AcDbEntity
  8
0
100
AcDbBlockBegin
  2
*D11
 70
     1
 10
0.0
 20
0.0
 30
0.0
  3
*D11
  1

  0
LINE
  5
82EB
330
83E5
100
AcDbEntity
  8
3
 62
     0
100
AcDbLine
 10
3881.06856939381
 20
6649.686236647792
 30
0.0
 11
4299.198978687672
 21
6649.686236647792
 31
0.0
  0
LINE
  5
82EC
330
83E5
100
AcDbEntity
  8
3
 62
     0
100
AcDbLine
 10
3881.06856939381
 20
5749.686236647789
 30
0.0
 11
4299.198978687672
 21
5749.686236647789
 31
0.0
  0
LINE
  5
82ED
330
83E5
100
AcDbEntity
  8
3
 62
     0
100
AcDbLine
 10
4264.198978687672
 20
6579.686236647791
 30
0.0
 11
4264.198978687672
 21
5819.686236647791
 31
0.0
  0
INSERT
  5
82EE
330
83E5
100
AcDbEntity
  8
3
 62
     0
100
AcDbBlockReference
  2
_OPEN
 10
4264.198978687672
 20
6649.686236647792
 30
0.0
 41
70.0
 42
70.0
 43
70.0
 50
90.0
  0
INSERT
  5
82EF
330
83E5
100
AcDbEntity
  8
3
 62
     0
100
AcDbBlockReference
  2
_OPEN
 10
4264.198978687672
 20
5749.686236647789
 30
0.0
 41
70.0
 42
70.0
 43
70.0
 50
270.0
  0
TEXT
  5
8349
330
83E5
100
AcDbEntity
  8
3
 62
     0
100
AcDbText
 10
3966.7
 20
6013.84
 30
0.0
 40
105.0
  1
900
100
AcDbText
  0
POINT
  5
82F1
330
83E5
100
AcDbEntity
  8
DEFPOINTS
 62
     0
100
AcDbPoint
 10
3863.568569393811
 20
6649.686236647792
 30
0.0
  0
POINT
  5
82F2
330
83E5
100
AcDbEntity
  8
DEFPOINTS
 62
     0
100
AcDbPoint
 10
3863.568569393811
 20
5749.686236647789
 30
0.0
  0
POINT
  5
82F3
330
83E5
100
AcDbEntity
  8
DEFPOINTS
 62
     0
100
AcDbPoint
 10
4264.198978687672
 20
5749.686236647789
 30
0.0
  0
ENDBLK
  5
7F5E
330
83E5
100
AcDbEntity
  8
0
100
AcDbBlockEnd
  0
BLOCK
  5
83E8
330
83E7
100
AcDbEntity
  8
0
100
AcDbBlockBegin
  2
*D12
 70
     1
 10
0.0
 20
0.0
 30
0.0
  3
*D12
  1

  0
LINE
  5
82F4
330
83E7
100
AcDbEntity
  8
3
 62
     0
100
AcDbLine
 10
3863.568569393811
 20
5732.186236647791
 30
0.0
 11
3863.568569393811
 21
5423.441044553842
 31
0.0
  0
LINE
  5
82F5
330
83E7
100
AcDbEntity
  8
3
 62
     0
100
AcDbLine
 10
1603.56856939381
 20
5732.186236647791
 30
0.0
 11
1603.56856939381
 21
5423.441044553842
 31
0.0
  0
LINE
  5
82F6
330
83E7
100
AcDbEntity
  8
3
 62
     0
100
AcDbLine
 10
3793.56856939381
 20
5458.441044553842
 30
0.0
 11
1673.56856939381
 21
5458.441044553842
 31
0.0
  0
INSERT
  5
82F7
330
83E7
100
AcDbEntity
  8
3
 62
     0
100
AcDbBlockReference
  2
_OPEN
 10
3863.568569393811
 20
5458.441044553842
 30
0.0
 41
70.0
 42
70.0
 43
70.0
  0
INSERT
  5
82F8
330
83E7
100
AcDbEntity
  8
3
 62
     0
100
AcDbBlockReference
  2
_OPEN
 10
1603.56856939381
 20
5458.441044553842
 30
0.0
 41
70.0
 42
70.0
 43
70.0
 50
180.0
  0
TEXT
  5
834A
330
83E7
100
AcDbEntity
  8
3
 62
     0
100
AcDbText
 10
2523.57
 20
5360.09
 30
0.0
 40
105.0
  1
2260
100
AcDbText
  0
POINT
  5
82FA
330
83E7
100
AcDbEntity
  8
DEFPOINTS
 62
     0
100
AcDbPoint
 10
3863.568569393811
 20
5749.68623664779
 30
0.0
  0
POINT
  5
82FB
330
83E7
100
AcDbEntity
  8
DEFPOINTS
 62
     0
100
AcDbPoint
 10
1603.56856939381
 20
5749.68623664779
 30
0.0
  0
POINT
  5
82FC
330
83E7
100
AcDbEntity
  8
DEFPOINTS
 62
     0
100
AcDbPoint
 10
1603.56856939381
 20
5458.441044553842
 30
0.0
  0
ENDBLK
  5
7F69
330
83E7
100
AcDbEntity
  8
0
100
AcDbBlockEnd
  0
BLOCK
  5
83EA
330
83E9
100
AcDbEntity
  8
0
100
AcDbBlockBegin
  2
*D13
 70
     1
 10
0.0
 20
0.0
 30
0.0
  3
*D13
  1

  0
LINE
  5
82FD
330
83E9
100
AcDbEntity
  8
3
 62
     0
100
AcDbLine
 10
1586.06856939381
 20
7649.686236647792
 30
0.0
 11
1169.796314422758
 21
7649.686236647792
 31
0.0
  0
LINE
  5
82FE
330
83E9
100
AcDbEntity
  8
3
 62
     0
100
AcDbLine
 10
1586.06856939381
 20
5749.68623664779
 30
0.0
 11
1169.796314422757
 21
5749.68623664779
 31
0.0
  0
LINE
  5
82FF
330
83E9
100
AcDbEntity
  8
3
 62
     0
100
AcDbLine
 10
1204.796314422758
 20
7579.686236647791
 30
0.0
 11
1204.796314422758
 21
5819.686236647791
 31
0.0
  0
INSERT
  5
8300
330
83E9
100
AcDbEntity
  8
3
 62
     0
100
AcDbBlockReference
  2
_OPEN
 10
1204.796314422758
 20
7649.686236647792
 30
0.0
 41
70.0
 42
70.0
 43
70.0
 50
90.0
  0
INSERT
  5
8301
330
83E9
100
AcDbEntity
  8
3
 62
     0
100
AcDbBlockReference
  2
_OPEN
 10
1204.796314422758
 20
5749.68623664779
 30
0.0
 41
70.0
 42
70.0
 43
70.0
 50
270.0
  0
TEXT
  5
834B
330
83E9
100
AcDbEntity
  8
3
 62
     0
100
AcDbText
 10
907.296
 20
6513.84
 30
0.0
 40
105.0
  1
1900
100
AcDbText
  0
POINT
  5
8303
330
83E9
100
AcDbEntity
  8
DEFPOINTS
 62
     0
100
AcDbPoint
 10
1603.56856939381
 20
7649.686236647792
 30
0.0
  0
POINT
  5
8304
330
83E9
100
AcDbEntity
  8
DEFPOINTS
 62
     0
100
AcDbPoint
 10
1603.56856939381
 20
5749.68623664779
 30
0.0
  0
POINT
  5
8305
330
83E9
100
AcDbEntity
  8
DEFPOINTS
 62
     0
100
AcDbPoint
 10
1204.796314422758
 20
5749.68623664779
 30
0.0
  0
ENDBLK
  5
7F3D
330
83E9
100
AcDbEntity
  8
0
100
AcDbBlockEnd
  0
BLOCK
  5
83EC
330
83EB
100
AcDbEntity
  8
0
100
AcDbBlockBegin
  2
*D14
 70
     1
 10
0.0
 20
0.0
 30
0.0
  3
*D14
  1

  0
LINE
  5
8306
330
83EB
100
AcDbEntity
  8
3
 62
     0
100
AcDbLine
 10
3863.568569393811
 20
6667.186236647791
 30
0.0
 11
3863.568569393811
 21
7858.693597118909
 31
0.0
  0
LINE
  5
8307
330
83EB
100
AcDbEntity
  8
3
 62
     0
100
AcDbLine
 10
2923.56856939381
 20
7667.186236647792
 30
0.0
 11
2923.56856939381
 21
7858.693597118909
 31
0.0
  0
LINE
  5
8308
330
83EB
100
AcDbEntity
  8
3
 62
     0
100
AcDbLine
 10
3793.56856939381
 20
7823.69359711891
 30
0.0
 11
2993.56856939381
 21
7823.69359711891
 31
0.0
  0
INSERT
  5
8309
330
83EB
100
AcDbEntity
  8
3
 62
     0
100
AcDbBlockReference
  2
_OPEN
 10
3863.568569393811
 20
7823.69359711891
 30
0.0
 41
70.0
 42
70.0
 43
70.0
  0
INSERT
  5
830A
330
83EB
100
AcDbEntity
  8
3
 62
     0
100
AcDbBlockReference
  2
_OPEN
 10
2923.56856939381
 20
7823.69359711891
 30
0.0
 41
70.0
 42
70.0
 43
70.0
 50
180.0
  0
TEXT
  5
834C
330
83EB
100
AcDbEntity
  8
3
 62
     0
100
AcDbText
 10
3183.57
 20
7725.34
 30
0.0
 40
105.0
  1
940
100
AcDbText
  0
POINT
  5
830C
330
83EB
100
AcDbEntity
  8
DEFPOINTS
 62
     0
100
AcDbPoint
 10
3863.568569393811
 20
6649.686236647792
 30
0.0
  0
POINT
  5
830D
330
83EB
100
AcDbEntity
  8
DEFPOINTS
 62
     0
100
AcDbPoint
 10
2923.56856939381
 20
7649.686236647792
 30
0.0
  0
POINT
  5
830E
330
83EB
100
AcDbEntity
  8
DEFPOINTS
 62
     0
100
AcDbPoint
 10
2923.56856939381
 20
7823.69359711891
 30
0.0
  0
ENDBLK
  5
7F53
330
83EB
100
AcDbEntity
  8
0
100
AcDbBlockEnd
  0
BLOCK
  5
83EE
330
83ED
100
AcDbEntity
  8
0
100
AcDbBlockBegin
  2
*D15
 70
     1
 10
0.0
 20
0.0
 30
0.0
  3
*D15
  1

  0
LINE
  5
830F
330
83ED
100
AcDbEntity
  8
3
 62
     0
100
AcDbLine
 10
2263.568569393809
 20
4290.626146865185
 30
0.0
 11
2263.568569393809
 21
4622.547113112221
 31
0.0
  0
LINE
  5
8310
330
83ED
100
AcDbEntity
  8
3
 62
     0
100
AcDbLine
 10
1458.56856939381
 20
3362.787145966454
 30
0.0
 11
1458.56856939381
 21
4622.547113112221
 31
0.0
  0
LINE
  5
8311
330
83ED
100
AcDbEntity
  8
3
 62
     0
100
AcDbLine
 10
2193.568569393809
 20
4587.547113112221
 30
0.0
 11
1528.56856939381
 21
4587.547113112221
 31
0.0
  0
INSERT
  5
8312
330
83ED
100
AcDbEntity
  8
3
 62
     0
100
AcDbBlockReference
  2
_OPEN
 10
2263.568569393809
 20
4587.547113112221
 30
0.0
 41
70.0
 42
70.0
 43
70.0
  0
INSERT
  5
8313
330
83ED
100
AcDbEntity
  8
3
 62
     0
100
AcDbBlockReference
  2
_OPEN
 10
1458.56856939381
 20
4587.547113112221
 30
0.0
 41
70.0
 42
70.0
 43
70.0
 50
180.0
  0
TEXT
  5
834D
330
83ED
100
AcDbEntity
  8
3
 62
     0
100
AcDbText
 10
1651.07
 20
4489.199999999999
 30
0.0
 40
105.0
  1
805
100
AcDbText
  0
POINT
  5
8315
330
83ED
100
AcDbEntity
  8
DEFPOINTS
 62
     0
100
AcDbPoint
 10
2263.568569393809
 20
4273.126146865187
 30
0.0
  0
POINT
  5
8316
330
83ED
100
AcDbEntity
  8
DEFPOINTS
 62
     0
100
AcDbPoint
 10
1458.56856939381
 20
3345.287145966454
 30
0.0
  0
POINT
  5
8317
330
83ED
100
AcDbEntity
  8
DEFPOINTS
 62
     0
100
AcDbPoint
 10
1458.56856939381
 20
4587.547113112221
 30
0.0
  0
ENDBLK
  5
7F95
330
83ED
100
AcDbEntity
  8
0
100
AcDbBlockEnd
  0
BLOCK
  5
83F0
330
83EF
100
AcDbEntity
  8
0
100
AcDbBlockBegin
  2
*D16
 70
     1
 10
0.0
 20
0.0
 30
0.0
  3
*D16
  1

  0
LINE
  5
8318
330
83EF
100
AcDbEntity
  8
3
 62
     0
100
AcDbLine
 10
1458.56856939381
 20
3362.787145966454
 30
0.0
 11
1458.56856939381
 21
4854.488514716802
 31
0.0
  0
LINE
  5
8319
330
83EF
100
AcDbEntity
  8
3
 62
     0
100
AcDbLine
 10
3863.568569393809
 20
2559.787145966453
 30
0.0
 11
3863.568569393809
 21
4854.488514716802
 31
0.0
  0
LINE
  5
831A
330
83EF
100
AcDbEntity
  8
3
 62
     0
100
AcDbLine
 10
1528.56856939381
 20
4819.488514716802
 30
0.0
 11
3793.56856939381
 21
4819.488514716802
 31
0.0
  0
INSERT
  5
831B
330
83EF
100
AcDbEntity
  8
3
 62
     0
100
AcDbBlockReference
  2
_OPEN
 10
1458.56856939381
 20
4819.488514716802
 30
0.0
 41
70.0
 42
70.0
 43
70.0
 50
180.0
  0
INSERT
  5
831C
330
83EF
100
AcDbEntity
  8
3
 62
     0
100
AcDbBlockReference
  2
_OPEN
 10
3863.568569393809
 20
4819.488514716802
 30
0.0
 41
70.0
 42
70.0
 43
70.0
  0
TEXT
  5
834E
330
83EF
100
AcDbEntity
  8
3
 62
     0
100
AcDbText
 10
2451.07
 20
4721.140000000001
 30
0.0
 40
105.0
  1
2405
100
AcDbText
  0
POINT
  5
831E
330
83EF
100
AcDbEntity
  8
DEFPOINTS
 62
     0
100
AcDbPoint
 10
1458.56856939381
 20
3345.287145966454
 30
0.0
  0
POINT
  5
831F
330
83EF
100
AcDbEntity
  8
DEFPOINTS
 62
     0
100
AcDbPoint
 10
3863.568569393809
 20
2542.287145966453
 30
0.0
  0
POINT
  5
8320
330
83EF
100
AcDbEntity
  8
DEFPOINTS
 62
     0
100
AcDbPoint
 10
3863.568569393809
 20
4819.488514716802
 30
0.0
  0
ENDBLK
  5
7F74
330
83EF
100
AcDbEntity
  8
0
100
AcDbBlockEnd
  0
BLOCK
  5
83F2
330
83F1
100
AcDbEntity
  8
0
100
AcDbBlockBegin
  2
*D17
 70
     1
 10
0.0
 20
0.0
 30
0.0
  3
*D17
  1

  0
LINE
  5
8321
330
83F1
100
AcDbEntity
  8
3
 62
     0
100
AcDbLine
 10
2241.06856939381
 20
4187.287145966453
 30
0.0
 11
1157.58168657474
 21
4187.287145966453
 31
0.0
  0
LINE
  5
8322
330
83F1
100
AcDbEntity
  8
3
 62
     0
100
AcDbLine
 10
1339.287917940833
 20
3427.287145966452
 30
0.0
 11
1157.58168657474
 21
3427.287145966452
 31
0.0
  0
LINE
  5
8323
330
83F1
100
AcDbEntity
  8
3
 62
     0
100
AcDbLine
 10
1192.58168657474
 20
4117.287145966453
 30
0.0
 11
1192.58168657474
 21
3497.287145966453
 31
0.0
  0
INSERT
  5
8324
330
83F1
100
AcDbEntity
  8
3
 62
     0
100
AcDbBlockReference
  2
_OPEN
 10
1192.58168657474
 20
4187.287145966453
 30
0.0
 41
70.0
 42
70.0
 43
70.0
 50
90.0
  0
INSERT
  5
8325
330
83F1
100
AcDbEntity
  8
3
 62
     0
100
AcDbBlockReference
  2
_OPEN
 10
1192.58168657474
 20
3427.287145966452
 30
0.0
 41
70.0
 42
70.0
 43
70.0
 50
270.0
  0
TEXT
  5
834F
330
83F1
100
AcDbEntity
  8
3
 62
     0
100
AcDbText
 10
895.082
 20
3621.440000000001
 30
0.0
 40
105.0
  1
760
100
AcDbText
  0
POINT
  5
8327
330
83F1
100
AcDbEntity
  8
DEFPOINTS
 62
     0
100
AcDbPoint
 10
2258.56856939381
 20
4187.287145966453
 30
0.0
  0
POINT
  5
8328
330
83F1
100
AcDbEntity
  8
DEFPOINTS
 62
     0
100
AcDbPoint
 10
1356.787917940833
 20
3427.287145966452
 30
0.0
  0
POINT
  5
8329
330
83F1
100
AcDbEntity
  8
DEFPOINTS
 62
     0
100
AcDbPoint
 10
1192.58168657474
 20
3427.287145966452
 30
0.0
  0
ENDBLK
  5
7FAB
330
83F1
100
AcDbEntity
  8
0
100
AcDbBlockEnd
  0
BLOCK
  5
83F4
330
83F3
100
AcDbEntity
  8
0
100
AcDbBlockBegin
  2
*D18
 70
     1
 10
0.0
 20
0.0
 30
0.0
  3
*D18
  1

  0
LINE
  5
832A
330
83F3
100
AcDbEntity
  8
3
 62
     0
100
AcDbLine
 10
1339.287917940833
 20
3427.287145966452
 30
0.0
 11
1157.58168657474
 21
3427.287145966452
 31
0.0
  0
LINE
  5
832B
330
83F3
100
AcDbEntity
  8
3
 62
     0
100
AcDbLine
 10
1586.06856939381
 20
2417.287145966453
 30
0.0
 11
1157.58168657474
 21
2417.287145966453
 31
0.0
  0
LINE
  5
832C
330
83F3
100
AcDbEntity
  8
3
 62
     0
100
AcDbLine
 10
1192.58168657474
 20
3357.287145966453
 30
0.0
 11
1192.58168657474
 21
2487.287145966453
 31
0.0
  0
INSERT
  5
832D
330
83F3
100
AcDbEntity
  8
3
 62
     0
100
AcDbBlockReference
  2
_OPEN
 10
1192.58168657474
 20
3427.287145966452
 30
0.0
 41
70.0
 42
70.0
 43
70.0
 50
90.0
  0
INSERT
  5
832E
330
83F3
100
AcDbEntity
  8
3
 62
     0
100
AcDbBlockReference
  2
_OPEN
 10
1192.58168657474
 20
2417.287145966453
 30
0.0
 41
70.0
 42
70.0
 43
70.0
 50
270.0
  0
TEXT
  5
8350
330
83F3
100
AcDbEntity
  8
3
 62
     0
100
AcDbText
 10
895.082
 20
2736.44
 30
0.0
 40
105.0
  1
1010
100
AcDbText
  0
POINT
  5
8330
330
83F3
100
AcDbEntity
  8
DEFPOINTS
 62
     0
100
AcDbPoint
 10
1356.787917940833
 20
3427.287145966452
 30
0.0
  0
POINT
  5
8331
330
83F3
100
AcDbEntity
  8
DEFPOINTS
 62
     0
100
AcDbPoint
 10
1603.56856939381
 20
2417.287145966453
 30
0.0
  0
POINT
  5
8332
330
83F3
100
AcDbEntity
  8
DEFPOINTS
 62
     0
100
AcDbPoint
 10
1192.58168657474
 20
2417.287145966453
 30
0.0
  0
ENDBLK
  5
7FA0
330
83F3
100
AcDbEntity
  8
0
100
AcDbBlockEnd
  0
BLOCK
  5
83F6
330
83F5
100
AcDbEntity
  8
0
100
AcDbBlockBegin
  2
*D19
 70
     1
 10
0.0
 20
0.0
 30
0.0
  3
*D19
  1

  0
LINE
  5
8333
330
83F5
100
AcDbEntity
  8
3
 62
     0
100
AcDbLine
 10
1586.06856939381
 20
2302.287145966452
 30
0.0
 11
1157.58168657474
 21
2302.287145966452
 31
0.0
  0
LINE
  5
8334
330
83F5
100
AcDbEntity
  8
3
 62
     0
100
AcDbLine
 10
1586.06856939381
 20
2237.287145966452
 30
0.0
 11
1157.58168657474
 21
2237.287145966452
 31
0.0
  0
LINE
  5
8335
330
83F5
100
AcDbEntity
  8
3
 62
     0
100
AcDbLine
 10
1192.58168657474
 20
2372.287145966452
 30
0.0
 11
1192.58168657474
 21
2442.287145966453
 31
0.0
  0
LINE
  5
8336
330
83F5
100
AcDbEntity
  8
3
 62
     0
100
AcDbLine
 10
1192.58168657474
 20
2167.287145966453
 30
0.0
 11
1192.58168657474
 21
1857.287145966453
 31
0.0
  0
LINE
  5
8337
330
83F5
100
AcDbEntity
  8
3
 62
     0
100
AcDbLine
 10
1192.58168657474
 20
2302.287145966452
 30
0.0
 11
1192.58168657474
 21
2237.287145966452
 31
0.0
  0
INSERT
  5
8338
330
83F5
100
AcDbEntity
  8
3
 62
     0
100
AcDbBlockReference
  2
_DOT
 10
1192.58168657474
 20
2302.287145966452
 30
0.0
 41
70.0
 42
70.0
 43
70.0
 50
270.0
  0
INSERT
  5
8339
330
83F5
100
AcDbEntity
  8
3
 62
     0
100
AcDbBlockReference
  2
_OPEN
 10
1192.58168657474
 20
2237.287145966452
 30
0.0
 41
70.0
 42
70.0
 43
70.0
 50
90.0
  0
TEXT
  5
8351
330
83F5
100
AcDbEntity
  8
3
 62
     0
100
AcDbText
 10
895.082
 20
1791.44
 30
0.0
 40
105.0
  1
65
100
AcDbText
  0
POINT
  5
833B
330
83F5
100
AcDbEntity
  8
DEFPOINTS
 62
     0
100
AcDbPoint
 10
1603.56856939381
 20
2302.287145966452
 30
0.0
  0
POINT
  5
833C
330
83F5
100
AcDbEntity
  8
DEFPOINTS
 62
     0
100
AcDbPoint
 10
1603.56856939381
 20
2237.287145966452
 30
0.0
  0
POINT
  5
833D
330
83F5
100
AcDbEntity
  8
DEFPOINTS
 62
     0
100
AcDbPoint
 10
1192.58168657474
 20
2237.287145966452
 30
0.0
  0
ENDBLK
  5
80D6
330
83F5
100
AcDbEntity
  8
0
100
AcDbBlockEnd
  0
BLOCK
  5
83F8
330
83F7
100
AcDbEntity
  8
0
100
AcDbBlockBegin
  2
_DOT
 70
     0
 10
0.0
 20
0.0
 30
0.0
  3
_DOT
  1

  0
LWPOLYLINE
  5
80DA
330
83F7
100
AcDbEntity
  8
0
  6
ByBlock
 62
     0
100
AcDbPolyline
 90
        2
 70
     1
 43
0.25
 10
-0.125
 20
0.0
 42
1.0
 10
0.125
 20
0.0
 42
1.0
  0
LINE
  5
80DE
330
83F7
100
AcDbEntity
  8
0
  6
ByBlock
 62
     0
100
AcDbLine
 10
-0.25
 20
0.0
 30
0.0
 11
-1.0
 21
0.0
 31
0.0
  0
ENDBLK
  5
80BC
330
83F7
100
AcDbEntity
  8
0
100
AcDbBlockEnd
  0
BLOCK
  5
83FA
330
83F9
100
AcDbEntity
  8
0
100
AcDbBlockBegin
  2
*D21
 70
     1
 10
0.0
 20
0.0
 30
0.0
  3
*D21
  1

  0
LINE
  5
8137
330
83F9
100
AcDbEntity
  8
0
  6
ByBlock
 62
     0
100
AcDbLine
 10
1603.56856939381
 20
2314.787145966453
 30
0.0
 11
1603.56856939381
 21
2077.342426966486
 31
0.0
  0
LINE
  5
8138
330
83F9
100
AcDbEntity
  8
0
  6
ByBlock
 62
     0
100
AcDbLine
 10
2263.568569393809
 20
2314.787145966453
 30
0.0
 11
2263.568569393809
 21
2077.342426966486
 31
0.0
  0
LINE
  5
8139
330
83F9
100
AcDbEntity
  8
0
  6
ByBlock
 62
     0
100
AcDbLine
 10
1673.56856939381
 20
2112.342426966486
 30
0.0
 11
2193.568569393809
 21
2112.342426966486
 31
0.0
  0
INSERT
  5
813A
330
83F9
100
AcDbEntity
  8
0
  6
ByBlock
 62
     0
100
AcDbBlockReference
  2
_OPEN
 10
1603.56856939381
 20
2112.342426966486
 30
0.0
 41
70.0
 42
70.0
 43
70.0
 50
180.0
  0
INSERT
  5
813B
330
83F9
100
AcDbEntity
  8
0
  6
ByBlock
 62
     0
100
AcDbBlockReference
  2
_OPEN
 10
2263.568569393809
 20
2112.342426966486
 30
0.0
 41
70.0
 42
70.0
 43
70.0
  0
TEXT
  5
813C
330
83F9
100
AcDbEntity
  8
3
 62
     0
100
AcDbText
 10
1798.568569393809
 20
2147.342426966486
 30
0.0
 40
105.0
  1
660
100
AcDbText
  0
POINT
  5
813D
330
83F9
100
AcDbEntity
  8
DEFPOINTS
  6
ByBlock
 62
     0
100
AcDbPoint
 10
1603.56856939381
 20
2332.287145966453
 30
0.0
  0
POINT
  5
813E
330
83F9
100
AcDbEntity
  8
DEFPOINTS
  6
ByBlock
 62
     0
100
AcDbPoint
 10
2263.568569393809
 20
2332.287145966453
 30
0.0
  0
POINT
  5
813F
330
83F9
100
AcDbEntity
  8
DEFPOINTS
  6
ByBlock
 62
     0
100
AcDbPoint
 10
2263.568569393809
 20
2112.342426966486
 30
0.0
  0
ENDBLK
  5
8140
330
83F9
100
AcDbEntity
  8
0
100
AcDbBlockEnd
  0
BLOCK
  5
83FC
330
83FB
100
AcDbEntity
  8
0
100
AcDbBlockBegin
  2
*D22
 70
     1
 10
0.0
 20
0.0
 30
0.0
  3
*D22
  1

  0
LINE
  5
8144
330
83FB
100
AcDbEntity
  8
0
  6
ByBlock
 62
     0
100
AcDbLine
 10
2263.568569393809
 20
2314.787145966453
 30
0.0
 11
2263.568569393809
 21
2077.342426966486
 31
0.0
  0
LINE
  5
8145
330
83FB
100
AcDbEntity
  8
0
  6
ByBlock
 62
     0
100
AcDbLine
 10
3863.568569393809
 20
2314.787145966453
 30
0.0
 11
3863.568569393809
 21
2077.342426966486
 31
0.0
  0
LINE
  5
8146
330
83FB
100
AcDbEntity
  8
0
  6
ByBlock
 62
     0
100
AcDbLine
 10
2333.568569393809
 20
2112.342426966486
 30
0.0
 11
3793.56856939381
 21
2112.342426966486
 31
0.0
  0
INSERT
  5
8147
330
83FB
100
AcDbEntity
  8
0
  6
ByBlock
 62
     0
100
AcDbBlockReference
  2
_OPEN
 10
2263.568569393809
 20
2112.342426966486
 30
0.0
 41
70.0
 42
70.0
 43
70.0
 50
180.0
  0
INSERT
  5
8148
330
83FB
100
AcDbEntity
  8
0
  6
ByBlock
 62
     0
100
AcDbBlockReference
  2
_OPEN
 10
3863.568569393809
 20
2112.342426966486
 30
0.0
 41
70.0
 42
70.0
 43
70.0
  0
TEXT
  5
8149
330
83FB
100
AcDbEntity
  8
3
 62
     0
100
AcDbText
 10
2888.56856939381
 20
2147.342426966486
 30
0.0
 40
105.0
  1
1600
100
AcDbText
  0
POINT
  5
814A
330
83FB
100
AcDbEntity
  8
DEFPOINTS
  6
ByBlock
 62
     0
100
AcDbPoint
 10
2263.568569393809
 20
2332.287145966453
 30
0.0
  0
POINT
  5
814B
330
83FB
100
AcDbEntity
  8
DEFPOINTS
  6
ByBlock
 62
     0
100
AcDbPoint
 10
3863.568569393809
 20
2332.287145966453
 30
0.0
  0
POINT
  5
814C
330
83FB
100
AcDbEntity
  8
DEFPOINTS
  6
ByBlock
 62
     0
100
AcDbPoint
 10
3863.568569393809
 20
2112.342426966486
 30
0.0
  0
ENDBLK
  5
814D
330
83FB
100
AcDbEntity
  8
0
100
AcDbBlockEnd
  0
BLOCK
  5
83FE
330
83FD
100
AcDbEntity
  8
0
100
AcDbBlockBegin
  2
*D23
 70
     1
 10
0.0
 20
0.0
 30
0.0
  3
*D23
  1

  0
LINE
  5
8151
330
83FD
100
AcDbEntity
  8
0
  6
ByBlock
 62
     0
100
AcDbLine
 10
4395.419090021515
 20
2314.787145966453
 30
0.0
 11
4395.419090021515
 21
2077.342426966486
 31
0.0
  0
LINE
  5
8152
330
83FD
100
AcDbEntity
  8
0
  6
ByBlock
 62
     0
100
AcDbLine
 10
5477.419090021525
 20
2314.787145966453
 30
0.0
 11
5477.419090021525
 21
2077.342426966486
 31
0.0
  0
LINE
  5
8153
330
83FD
100
AcDbEntity
  8
0
  6
ByBlock
 62
     0
100
AcDbLine
 10
4465.419090021515
 20
2112.342426966486
 30
0.0
 11
5407.419090021527
 21
2112.342426966486
 31
0.0
  0
INSERT
  5
8154
330
83FD
100
AcDbEntity
  8
0
  6
ByBlock
 62
     0
100
AcDbBlockReference
  2
_OPEN
 10
4395.419090021515
 20
2112.342426966486
 30
0.0
 41
70.0
 42
70.0
 43
70.0
 50
180.0
  0
INSERT
  5
8155
330
83FD
100
AcDbEntity
  8
0
  6
ByBlock
 62
     0
100
AcDbBlockReference
  2
_OPEN
 10
5477.419090021525
 20
2112.342426966486
 30
0.0
 41
70.0
 42
70.0
 43
70.0
  0
TEXT
  5
8156
330
83FD
100
AcDbEntity
  8
3
 62
     0
100
AcDbText
 10
4761.41909002152
 20
2147.342426966486
 30
0.0
 40
105.0
  1
1082
100
AcDbText
  0
POINT
  5
8157
330
83FD
100
AcDbEntity
  8
DEFPOINTS
  6
ByBlock
 62
     0
100
AcDbPoint
 10
4395.419090021515
 20
2332.287145966453
 30
0.0
  0
POINT
  5
8158
330
83FD
100
AcDbEntity
  8
DEFPOINTS
  6
ByBlock
 62
     0
100
AcDbPoint
 10
5477.419090021525
 20
2332.287145966453
 30
0.0
  0
POINT
  5
8159
330
83FD
100
AcDbEntity
  8
DEFPOINTS
  6
ByBlock
 62
     0
100
AcDbPoint
 10
5477.419090021525
 20
2112.342426966486
 30
0.0
  0
ENDBLK
  5
815A
330
83FD
100
AcDbEntity
  8
0
100
AcDbBlockEnd
  0
BLOCK
  5
8400
330
83FF
100
AcDbEntity
  8
0
100
AcDbBlockBegin
  2
*D24
 70
     1
 10
0.0
 20
0.0
 30
0.0
  3
*D24
  1

  0
LINE
  5
815E
330
83FF
100
AcDbEntity
  8
0
  6
ByBlock
 62
     0
100
AcDbLine
 10
5477.419090021525
 20
2314.787145966453
 30
0.0
 11
5477.419090021525
 21
2077.342426966486
 31
0.0
  0
LINE
  5
815F
330
83FF
100
AcDbEntity
  8
0
  6
ByBlock
 62
     0
100
AcDbLine
 10
6295.419090021505
 20
2314.787145966453
 30
0.0
 11
6295.419090021505
 21
2077.342426966486
 31
0.0
  0
LINE
  5
8160
330
83FF
100
AcDbEntity
  8
0
  6
ByBlock
 62
     0
100
AcDbLine
 10
5547.419090021525
 20
2112.342426966486
 30
0.0
 11
6225.419090021507
 21
2112.342426966486
 31
0.0
  0
INSERT
  5
8161
330
83FF
100
AcDbEntity
  8
0
  6
ByBlock
 62
     0
100
AcDbBlockReference
  2
_OPEN
 10
5477.419090021525
 20
2112.342426966486
 30
0.0
 41
70.0
 42
70.0
 43
70.0
 50
180.0
  0
INSERT
  5
8162
330
83FF
100
AcDbEntity
  8
0
  6
ByBlock
 62
     0
100
AcDbBlockReference
  2
_OPEN
 10
6295.419090021505
 20
2112.342426966486
 30
0.0
 41
70.0
 42
70.0
 43
70.0
  0
TEXT
  5
8163
330
83FF
100
AcDbEntity
  8
3
 62
     0
100
AcDbText
 10
5761.419090021515
 20
2147.342426966486
 30
0.0
 40
105.0
  1
818
100
AcDbText
  0
POINT
  5
8164
330
83FF
100
AcDbEntity
  8
DEFPOINTS
  6
ByBlock
 62
     0
100
AcDbPoint
 10
5477.419090021525
 20
2332.287145966453
 30
0.0
  0
POINT
  5
8165
330
83FF
100
AcDbEntity
  8
DEFPOINTS
  6
ByBlock
 62
     0
100
AcDbPoint
 10
6295.419090021505
 20
2332.287145966453
 30
0.0
  0
POINT
  5
8166
330
83FF
100
AcDbEntity
  8
DEFPOINTS
  6
ByBlock
 62
     0
100
AcDbPoint
 10
6295.419090021505
 20
2112.342426966486
 30
0.0
  0
ENDBLK
  5
8167
330
83FF
100
AcDbEntity
  8
0
100
AcDbBlockEnd
  0
BLOCK
  5
8402
330
8401
100
AcDbEntity
  8
0
100
AcDbBlockBegin
  2
_NONE
 70
     0
 10
0.0
 20
0.0
 30
0.0
  3
_NONE
  1

  0
CIRCLE
  5
816B
330
8401
100
AcDbEntity
  8
0
  6
ByBlock
 62
     0
100
AcDbCircle
 10
0.0
 20
0.0
 30
0.0
 40
0.25
  0
ENDBLK
  5
816C
330
8401
100
AcDbEntity
  8
0
100
AcDbBlockEnd
  0
BLOCK
  5
8404
330
8403
100
AcDbEntity
  8
0
100
AcDbBlockBegin
  2
*D26
 70
     1
 10
0.0
 20
0.0
 30
0.0
  3
*D26
  1

  0
LINE
  5
81C8
330
8403
100
AcDbEntity
  8
0
  6
ByBlock
 62
     0
100
AcDbLine
 10
1193.948953711696
 20
2302.287145966452
 30
0.0
 11
1193.948953711696
 21
2417.287145966453
 31
0.0
  0
TEXT
  5
81C9
330
8403
100
AcDbEntity
  8
3
 62
     0
100
AcDbText
 10
1061.448953711697
 20
2114.287145966453
 30
0.0
 40
105.0
  1
  (115)
 50
90.0
100
AcDbText
  0
POINT
  5
81CA
330
8403
100
AcDbEntity
  8
DEFPOINTS
  6
ByBlock
 62
     0
100
AcDbPoint
 10
1603.56856939381
 20
2302.287145966452
 30
0.0
  0
POINT
  5
81CB
330
8403
100
AcDbEntity
  8
DEFPOINTS
  6
ByBlock
 62
     0
100
AcDbPoint
 10
1603.56856939381
 20
2417.287145966453
 30
0.0
  0
POINT
  5
81CC
330
8403
100
AcDbEntity
  8
DEFPOINTS
  6
ByBlock
 62
     0
100
AcDbPoint
 10
1193.948953711696
 20
2417.287145966453
 30
0.0
  0
ENDBLK
  5
81CD
330
8403
100
AcDbEntity
  8
0
100
AcDbBlockEnd
  0
BLOCK
  5
8406
330
8405
100
AcDbEntity
  8
0
100
AcDbBlockBegin
  2
*D27
 70
     1
 10
0.0
 20
0.0
 30
0.0
  3
*D27
  1

  0
LINE
  5
81AE
330
8405
100
AcDbEntity
  8
0
  6
ByBlock
 62
     0
100
AcDbLine
 10
1586.06856939381
 20
2237.287145966452
 30
0.0
 11
855.0577757273131
 21
2237.287145966452
 31
0.0
  0
LINE
  5
81AF
330
8405
100
AcDbEntity
  8
0
  6
ByBlock
 62
     0
100
AcDbLine
 10
2223.56856939381
 20
4187.287145966453
 30
0.0
 11
855.0577757273131
 21
4187.287145966453
 31
0.0
  0
LINE
  5
81B0
330
8405
100
AcDbEntity
  8
0
  6
ByBlock
 62
     0
100
AcDbLine
 10
890.0577757273131
 20
2307.287145966453
 30
0.0
 11
890.0577757273131
 21
4117.287145966453
 31
0.0
  0
INSERT
  5
81B1
330
8405
100
AcDbEntity
  8
0
  6
ByBlock
 62
     0
100
AcDbBlockReference
  2
_OPEN
 10
890.0577757273131
 20
2237.287145966452
 30
0.0
 41
70.0
 42
70.0
 43
70.0
 50
270.0
  0
INSERT
  5
81B2
330
8405
100
AcDbEntity
  8
0
  6
ByBlock
 62
     0
100
AcDbBlockReference
  2
_OPEN
 10
890.0577757273131
 20
4187.287145966453
 30
0.0
 41
70.0
 42
70.0
 43
70.0
 50
90.0
  0
TEXT
  5
81B3
330
8405
100
AcDbEntity
  8
3
 62
     0
100
AcDbText
 10
810.0577757273129
 20
2969.787145966453
 30
0.0
 40
105.0
  1
(1950)
 50
90.0
100
AcDbText
  0
POINT
  5
81B4
330
8405
100
AcDbEntity
  8
DEFPOINTS
  6
ByBlock
 62
     0
100
AcDbPoint
 10
1603.56856939381
 20
2237.287145966452
 30
0.0
  0
POINT
  5
81B5
330
8405
100
AcDbEntity
  8
DEFPOINTS
  6
ByBlock
 62
     0
100
AcDbPoint
 10
2241.06856939381
 20
4187.287145966453
 30
0.0
  0
POINT
  5
81B6
330
8405
100
AcDbEntity
  8
DEFPOINTS
  6
ByBlock
 62
     0
100
AcDbPoint
 10
890.0577757273131
 20
4187.287145966453
 30
0.0
  0
ENDBLK
  5
81B7
330
8405
100
AcDbEntity
  8
0
100
AcDbBlockEnd
  0
BLOCK
  5
840C
330
840B
100
AcDbEntity
  8
0
100
AcDbBlockBegin
  2
*D28
 70
     1
 10
0.0
 20
0.0
 30
0.0
  3
*D28
  1

  0
LINE
  5
840E
330
840B
100
AcDbEntity
  8
3
 62
     0
370
    -2
100
AcDbLine
 10
4357.419090021525
 20
3809.474645966453
 30
0.0
 11
4357.419090021525
 21
4689.442332365934
 31
0.0
  0
LINE
  5
840F
330
840B
100
AcDbEntity
  8
3
 62
     0
370
    -2
100
AcDbLine
 10
5477.419090021525
 20
4616.070703308893
 30
0.0
 11
5477.419090021525
 21
4689.442332365934
 31
0.0
  0
LINE
  5
8410
330
840B
100
AcDbEntity
  8
3
 62
     0
370
    -2
100
AcDbLine
 10
4363.719090021525
 20
4683.142332365934
 30
0.0
 11
4904.369090021525
 21
4683.142332365934
 31
0.0
  0
LINE
  5
8411
330
840B
100
AcDbEntity
  8
3
 62
     0
370
    -2
100
AcDbLine
 10
5471.119090021525
 20
4683.142332365934
 30
0.0
 11
4930.469090021525
 21
4683.142332365934
 31
0.0
  0
SOLID
  5
8412
330
840B
100
AcDbEntity
  8
3
 62
     0
100
AcDbTrace
 10
4363.719090021525
 20
4684.192332365934
 30
0.0
 11
4363.719090021525
 21
4682.092332365933
 31
0.0
 12
4357.419090021525
 22
4683.142332365934
 32
0.0
 13
4357.419090021525
 23
4683.142332365934
 33
0.0
  0
SOLID
  5
8413
330
840B
100
AcDbEntity
  8
3
 62
     0
100
AcDbTrace
 10
5471.119090021525
 20
4684.192332365934
 30
0.0
 11
5471.119090021525
 21
4682.092332365933
 31
0.0
 12
5477.419090021525
 22
4683.142332365934
 32
0.0
 13
5477.419090021525
 23
4683.142332365934
 33
0.0
  0
MTEXT
  5
8414
330
840B
100
AcDbEntity
  8
3
 62
     0
100
AcDbMText
 10
4917.419090021525
 20
4683.142332365934
 30
0.0
 40
6.299999999999999
 41
0.0
 71
     5
 72
     1
  1
\A1;MAX\P1120
 73
     1
 44
1.0
1001
ACAD
1000
MTEXTBEGIN
1070
    73
1070
     1
1070
    44
1040
1.0
1070
    74
1070
     0
1000
MTEXTEND
  0
POINT
  5
8415
330
840B
100
AcDbEntity
  8
DEFPOINTS
 62
     0
100
AcDbPoint
 10
4357.419090021525
 20
3807.287145966454
 30
0.0
  0
POINT
  5
8416
330
840B
100
AcDbEntity
  8
DEFPOINTS
 62
     0
100
AcDbPoint
 10
5477.419090021525
 20
4613.883203308893
 30
0.0
  0
POINT
  5
8417
330
840B
100
AcDbEntity
  8
DEFPOINTS
 62
     0
100
AcDbPoint
 10
5477.419090021525
 20
4683.142332365934
 30
0.0
  0
ENDBLK
  5
840D
330
840B
100
AcDbEntity
  8
0
100
AcDbBlockEnd
  0
BLOCK
  5
8419
330
8418
100
AcDbEntity
  8
0
100
AcDbBlockBegin
  2
*D29
 70
     1
 10
0.0
 20
0.0
 30
0.0
  3
*D29
  1

  0
LINE
  5
841B
330
8418
100
AcDbEntity
  8
3
 62
     0
370
    -2
100
AcDbLine
 10
5477.419090021525
 20
4616.070703308893
 30
0.0
 11
5477.419090021525
 21
4690.458983634345
 31
0.0
  0
LINE
  5
841C
330
8418
100
AcDbEntity
  8
3
 62
     0
370
    -2
100
AcDbLine
 10
6404.919090021522
 20
3342.514123071647
 30
0.0
 11
6404.919090021522
 21
4690.458983634345
 31
0.0
  0
LINE
  5
841D
330
8418
100
AcDbEntity
  8
3
 62
     0
370
    -2
100
AcDbLine
 10
5483.719090021526
 20
4684.158983634346
 30
0.0
 11
5925.869090021524
 21
4684.158983634346
 31
0.0
  0
LINE
  5
841E
330
8418
100
AcDbEntity
  8
3
 62
     0
370
    -2
100
AcDbLine
 10
6398.619090021522
 20
4684.158983634346
 30
0.0
 11
5956.469090021524
 21
4684.158983634346
 31
0.0
  0
SOLID
  5
841F
330
8418
100
AcDbEntity
  8
3
 62
     0
100
AcDbTrace
 10
5483.719090021526
 20
4685.208983634345
 30
0.0
 11
5483.719090021526
 21
4683.108983634345
 31
0.0
 12
5477.419090021525
 22
4684.158983634346
 32
0.0
 13
5477.419090021525
 23
4684.158983634346
 33
0.0
  0
SOLID
  5
8420
330
8418
100
AcDbEntity
  8
3
 62
     0
100
AcDbTrace
 10
6398.619090021522
 20
4685.208983634345
 30
0.0
 11
6398.619090021522
 21
4683.108983634345
 31
0.0
 12
6404.919090021522
 22
4684.158983634346
 32
0.0
 13
6404.919090021522
 23
4684.158983634346
 33
0.0
  0
MTEXT
  5
8421
330
8418
100
AcDbEntity
  8
3
 62
     0
100
AcDbMText
 10
5941.169090021523
 20
4684.158983634346
 30
0.0
 40
6.299999999999999
 41
0.0
 71
     5
 72
     1
  1
\A1;(930)
 73
     1
 44
1.0
1001
ACAD
1000
MTEXTBEGIN
1070
    73
1070
     1
1070
    44
1040
1.0
1070
    74
1070
     0
1000
MTEXTEND
  0
POINT
  5
8422
330
8418
100
AcDbEntity
  8
DEFPOINTS
 62
     0
100
AcDbPoint
 10
5477.419090021525
 20
4613.883203308893
 30
0.0
  0
POINT
  5
8423
330
8418
100
AcDbEntity
  8
DEFPOINTS
 62
     0
100
AcDbPoint
 10
6404.919090021522
 20
3340.326623071647
 30
0.0
  0
POINT
  5
8424
330
8418
100
AcDbEntity
  8
DEFPOINTS
 62
     0
100
AcDbPoint
 10
6404.919090021522
 20
4684.158983634346
 30
0.0
  0
ENDBLK
  5
841A
330
8418
100
AcDbEntity
  8
0
100
AcDbBlockEnd
  0
BLOCK
  5
8426
330
8425
100
AcDbEntity
  8
0
100
AcDbBlockBegin
  2
*D30
 70
     1
 10
0.0
 20
0.0
 30
0.0
  3
*D30
  1

  0
LINE
  5
8428
330
8425
100
AcDbEntity
  8
3
 62
     0
370
    -2
100
AcDbLine
 10
1601.38106939381
 20
2312.287145966452
 30
0.0
 11
1186.28168657474
 21
2312.287145966452
 31
0.0
  0
LINE
  5
8429
330
8425
100
AcDbEntity
  8
3
 62
     0
370
    -2
100
AcDbLine
 10
1601.38106939381
 20
2247.287145966452
 30
0.0
 11
1186.28168657474
 21
2247.287145966452
 31
0.0
  0
LINE
  5
842A
330
8425
100
AcDbEntity
  8
3
 62
     0
370
    -2
100
AcDbLine
 10
1192.58168657474
 20
2305.987145966452
 30
0.0
 11
1192.58168657474
 21
2286.087145966452
 31
0.0
  0
LINE
  5
842B
330
8425
100
AcDbEntity
  8
3
 62
     0
370
    -2
100
AcDbLine
 10
1192.58168657474
 20
2253.587145966452
 30
0.0
 11
1192.58168657474
 21
2273.487145966452
 31
0.0
  0
SOLID
  5
842C
330
8425
100
AcDbEntity
  8
3
 62
     0
100
AcDbTrace
 10
1191.53168657474
 20
2305.987145966452
 30
0.0
 11
1193.63168657474
 21
2305.987145966452
 31
0.0
 12
1192.58168657474
 22
2312.287145966452
 32
0.0
 13
1192.58168657474
 23
2312.287145966452
 33
0.0
  0
SOLID
  5
842D
330
8425
100
AcDbEntity
  8
3
 62
     0
100
AcDbTrace
 10
1191.53168657474
 20
2253.587145966452
 30
0.0
 11
1193.63168657474
 21
2253.587145966452
 31
0.0
 12
1192.58168657474
 22
2247.287145966452
 32
0.0
 13
1192.58168657474
 23
2247.287145966452
 33
0.0
  0
MTEXT
  5
842E
330
8425
100
AcDbEntity
  8
3
 62
     0
100
AcDbMText
 10
1192.581686574739
 20
2279.787145966452
 30
0.0
 40
6.299999999999999
 41
0.0
 71
     5
 72
     1
  1
\A1;65
 73
     1
 44
1.0
1001
ACAD
1000
MTEXTBEGIN
1070
    73
1070
     1
1070
    44
1040
1.0
1070
    74
1070
     0
1000
MTEXTEND
  0
POINT
  5
842F
330
8425
100
AcDbEntity
  8
DEFPOINTS
 62
     0
100
AcDbPoint
 10
1603.56856939381
 20
2312.287145966452
 30
0.0
  0
POINT
  5
8430
330
8425
100
AcDbEntity
  8
DEFPOINTS
 62
     0
100
AcDbPoint
 10
1603.56856939381
 20
2247.287145966452
 30
0.0
  0
POINT
  5
8431
330
8425
100
AcDbEntity
  8
DEFPOINTS
 62
     0
100
AcDbPoint
 10
1192.58168657474
 20
2247.287145966452
 30
0.0
  0
ENDBLK
  5
8427
330
8425
100
AcDbEntity
  8
0
100
AcDbBlockEnd
  0
BLOCK
  5
8433
330
8432
100
AcDbEntity
  8
0
100
AcDbBlockBegin
  2
*D31
 70
     1
 10
0.0
 20
0.0
 30
0.0
  3
*D31
  1

  0
LINE
  5
8435
330
8432
100
AcDbEntity
  8
3
 62
     0
370
    -2
100
AcDbLine
 10
1601.38106939381
 20
2247.287145966452
 30
0.0
 11
883.7577757273127
 21
2247.287145966453
 31
0.0
  0
LINE
  5
8436
330
8432
100
AcDbEntity
  8
3
 62
     0
370
    -2
100
AcDbLine
 10
2238.881069393809
 20
4187.287145966453
 30
0.0
 11
883.7577757273132
 21
4187.287145966453
 31
0.0
  0
LINE
  5
8437
330
8432
100
AcDbEntity
  8
3
 62
     0
370
    -2
100
AcDbLine
 10
890.0577757273126
 20
2253.587145966453
 30
0.0
 11
890.0577757273129
 21
3209.337145966453
 31
0.0
  0
LINE
  5
8438
330
8432
100
AcDbEntity
  8
3
 62
     0
370
    -2
100
AcDbLine
 10
890.0577757273131
 20
4180.987145966454
 30
0.0
 11
890.0577757273129
 21
3225.237145966453
 31
0.0
  0
SOLID
  5
8439
330
8432
100
AcDbEntity
  8
3
 62
     0
100
AcDbTrace
 10
889.0077757273127
 20
2253.587145966453
 30
0.0
 11
891.1077757273126
 21
2253.587145966453
 31
0.0
 12
890.0577757273126
 22
2247.287145966453
 32
0.0
 13
890.0577757273126
 23
2247.287145966453
 33
0.0
  0
SOLID
  5
843A
330
8432
100
AcDbEntity
  8
3
 62
     0
100
AcDbTrace
 10
889.0077757273131
 20
4180.987145966454
 30
0.0
 11
891.1077757273131
 21
4180.987145966454
 31
0.0
 12
890.0577757273131
 22
4187.287145966453
 32
0.0
 13
890.0577757273131
 23
4187.287145966453
 33
0.0
  0
MTEXT
  5
843B
330
8432
100
AcDbEntity
  8
3
 62
     0
100
AcDbMText
 10
890.0577757273124
 20
3217.287145966453
 30
0.0
 40
6.299999999999999
 41
0.0
 71
     5
 72
     1
  1
\A1;(1940)
 73
     1
 44
1.0
1001
ACAD
1000
MTEXTBEGIN
1070
    73
1070
     1
1070
    44
1040
1.0
1070
    74
1070
     0
1000
MTEXTEND
  0
POINT
  5
843C
330
8432
100
AcDbEntity
  8
DEFPOINTS
 62
     0
100
AcDbPoint
 10
1603.56856939381
 20
2247.287145966452
 30
0.0
  0
POINT
  5
843D
330
8432
100
AcDbEntity
  8
DEFPOINTS
 62
     0
100
AcDbPoint
 10
2241.06856939381
 20
4187.287145966453
 30
0.0
  0
POINT
  5
843E
330
8432
100
AcDbEntity
  8
DEFPOINTS
 62
     0
100
AcDbPoint
 10
890.0577757273131
 20
4187.287145966453
 30
0.0
  0
ENDBLK
  5
8434
330
8432
100
AcDbEntity
  8
0
100
AcDbBlockEnd
  0
BLOCK
  5
8440
330
843F
100
AcDbEntity
  8
0
100
AcDbBlockBegin
  2
*D32
 70
     1
 10
0.0
 20
0.0
 30
0.0
  3
*D32
  1

  0
LINE
  5
8442
330
843F
100
AcDbEntity
  8
3
 62
     0
370
    -2
100
AcDbLine
 10
4395.419090021515
 20
2245.099645966452
 30
0.0
 11
4395.419090021515
 21
2021.042426966486
 31
0.0
  0
LINE
  5
8443
330
843F
100
AcDbEntity
  8
3
 62
     0
370
    -2
100
AcDbLine
 10
5477.419090021525
 20
2245.099645966453
 30
0.0
 11
5477.419090021525
 21
2021.042426966486
 31
0.0
  0
LINE
  5
8444
330
843F
100
AcDbEntity
  8
3
 62
     0
370
    -2
100
AcDbLine
 10
4401.719090021515
 20
2027.342426966486
 30
0.0
 11
4922.76909002152
 21
2027.342426966486
 31
0.0
  0
LINE
  5
8445
330
843F
100
AcDbEntity
  8
3
 62
     0
370
    -2
100
AcDbLine
 10
5471.119090021525
 20
2027.342426966486
 30
0.0
 11
4950.06909002152
 21
2027.342426966486
 31
0.0
  0
SOLID
  5
8446
330
843F
100
AcDbEntity
  8
3
 62
     0
100
AcDbTrace
 10
4401.719090021515
 20
2028.392426966486
 30
0.0
 11
4401.719090021515
 21
2026.292426966486
 31
0.0
 12
4395.419090021515
 22
2027.342426966486
 32
0.0
 13
4395.419090021515
 23
2027.342426966486
 33
0.0
  0
SOLID
  5
8447
330
843F
100
AcDbEntity
  8
3
 62
     0
100
AcDbTrace
 10
5471.119090021525
 20
2028.392426966486
 30
0.0
 11
5471.119090021525
 21
2026.292426966486
 31
0.0
 12
5477.419090021525
 22
2027.342426966486
 32
0.0
 13
5477.419090021525
 23
2027.342426966486
 33
0.0
  0
MTEXT
  5
8448
330
843F
100
AcDbEntity
  8
3
 62
     0
100
AcDbMText
 10
4936.419090021519
 20
2027.342426966486
 30
0.0
 40
6.299999999999999
 41
0.0
 71
     5
 72
     1
  1
\A1;1082
 73
     1
 44
1.0
1001
ACAD
1000
MTEXTBEGIN
1070
    73
1070
     1
1070
    44
1040
1.0
1070
    74
1070
     0
1000
MTEXTEND
  0
POINT
  5
8449
330
843F
100
AcDbEntity
  8
DEFPOINTS
 62
     0
100
AcDbPoint
 10
4395.419090021515
 20
2247.287145966452
 30
0.0
  0
POINT
  5
844A
330
843F
100
AcDbEntity
  8
DEFPOINTS
 62
     0
100
AcDbPoint
 10
5477.419090021525
 20
2247.287145966453
 30
0.0
  0
POINT
  5
844B
330
843F
100
AcDbEntity
  8
DEFPOINTS
 62
     0
100
AcDbPoint
 10
5477.419090021525
 20
2027.342426966486
 30
0.0
  0
ENDBLK
  5
8441
330
843F
100
AcDbEntity
  8
0
100
AcDbBlockEnd
  0
BLOCK
  5
844D
330
844C
100
AcDbEntity
  8
0
100
AcDbBlockBegin
  2
*D33
 70
     1
 10
0.0
 20
0.0
 30
0.0
  3
*D33
  1

  0
LINE
  5
844F
330
844C
100
AcDbEntity
  8
3
 62
     0
370
    -2
100
AcDbLine
 10
5477.419090021525
 20
2245.099645966453
 30
0.0
 11
5477.419090021525
 21
2021.042426966486
 31
0.0
  0
LINE
  5
8450
330
844C
100
AcDbEntity
  8
3
 62
     0
370
    -2
100
AcDbLine
 10
6295.419090021505
 20
2245.099645966452
 30
0.0
 11
6295.419090021505
 21
2021.042426966486
 31
0.0
  0
LINE
  5
8451
330
844C
100
AcDbEntity
  8
3
 62
     0
370
    -2
100
AcDbLine
 10
5483.719090021526
 20
2027.342426966486
 30
0.0
 11
5875.769090021516
 21
2027.342426966486
 31
0.0
  0
LINE
  5
8452
330
844C
100
AcDbEntity
  8
3
 62
     0
370
    -2
100
AcDbLine
 10
6289.119090021505
 20
2027.342426966486
 30
0.0
 11
5897.069090021515
 21
2027.342426966486
 31
0.0
  0
SOLID
  5
8453
330
844C
100
AcDbEntity
  8
3
 62
     0
100
AcDbTrace
 10
5483.719090021526
 20
2028.392426966486
 30
0.0
 11
5483.719090021526
 21
2026.292426966486
 31
0.0
 12
5477.419090021525
 22
2027.342426966486
 32
0.0
 13
5477.419090021525
 23
2027.342426966486
 33
0.0
  0
SOLID
  5
8454
330
844C
100
AcDbEntity
  8
3
 62
     0
100
AcDbTrace
 10
6289.119090021505
 20
2028.392426966486
 30
0.0
 11
6289.119090021505
 21
2026.292426966486
 31
0.0
 12
6295.419090021505
 22
2027.342426966486
 32
0.0
 13
6295.419090021505
 23
2027.342426966486
 33
0.0
  0
MTEXT
  5
8455
330
844C
100
AcDbEntity
  8
3
 62
     0
100
AcDbMText
 10
5886.419090021515
 20
2027.342426966486
 30
0.0
 40
6.299999999999999
 41
0.0
 71
     5
 72
     1
  1
\A1;818
 73
     1
 44
1.0
1001
ACAD
1000
MTEXTBEGIN
1070
    73
1070
     1
1070
    44
1040
1.0
1070
    74
1070
     0
1000
MTEXTEND
  0
POINT
  5
8456
330
844C
100
AcDbEntity
  8
DEFPOINTS
 62
     0
100
AcDbPoint
 10
5477.419090021525
 20
2247.287145966453
 30
0.0
  0
POINT
  5
8457
330
844C
100
AcDbEntity
  8
DEFPOINTS
 62
     0
100
AcDbPoint
 10
6295.419090021505
 20
2247.287145966452
 30
0.0
  0
POINT
  5
8458
330
844C
100
AcDbEntity
  8
DEFPOINTS
 62
     0
100
AcDbPoint
 10
6295.419090021505
 20
2027.342426966486
 30
0.0
  0
ENDBLK
  5
844E
330
844C
100
AcDbEntity
  8
0
100
AcDbBlockEnd
  0
BLOCK
  5
845A
330
8459
100
AcDbEntity
  8
0
100
AcDbBlockBegin
  2
*D34
 70
     1
 10
0.0
 20
0.0
 30
0.0
  3
*D34
  1

  0
LINE
  5
845C
330
8459
100
AcDbEntity
  8
3
 62
     0
370
    -2
100
AcDbLine
 10
1193.948953711696
 20
2318.587145966452
 30
0.0
 11
1193.948953711696
 21
2356.837145966453
 31
0.0
  0
LINE
  5
845D
330
8459
100
AcDbEntity
  8
3
 62
     0
370
    -2
100
AcDbLine
 10
1193.948953711696
 20
2410.987145966453
 30
0.0
 11
1193.948953711696
 21
2372.737145966453
 31
0.0
  0
SOLID
  5
845E
330
8459
100
AcDbEntity
  8
3
 62
     0
100
AcDbTrace
 10
1192.898953711696
 20
2318.587145966452
 30
0.0
 11
1194.998953711696
 21
2318.587145966452
 31
0.0
 12
1193.948953711696
 22
2312.287145966452
 32
0.0
 13
1193.948953711696
 23
2312.287145966452
 33
0.0
  0
SOLID
  5
845F
330
8459
100
AcDbEntity
  8
3
 62
     0
100
AcDbTrace
 10
1192.898953711696
 20
2410.987145966453
 30
0.0
 11
1194.998953711696
 21
2410.987145966453
 31
0.0
 12
1193.948953711696
 22
2417.287145966453
 32
0.0
 13
1193.948953711696
 23
2417.287145966453
 33
0.0
  0
MTEXT
  5
8460
330
8459
100
AcDbEntity
  8
3
 62
     0
100
AcDbMText
 10
1193.948953711696
 20
2364.787145966453
 30
0.0
 40
6.299999999999999
 41
0.0
 71
     5
 72
     1
  1
\A1;  (105)
 73
     1
 44
1.0
1001
ACAD
1000
MTEXTBEGIN
1070
    73
1070
     1
1070
    44
1040
1.0
1070
    74
1070
     0
1000
MTEXTEND
  0
POINT
  5
8461
330
8459
100
AcDbEntity
  8
DEFPOINTS
 62
     0
100
AcDbPoint
 10
1603.56856939381
 20
2312.287145966452
 30
0.0
  0
POINT
  5
8462
330
8459
100
AcDbEntity
  8
DEFPOINTS
 62
     0
100
AcDbPoint
 10
1603.56856939381
 20
2417.287145966453
 30
0.0
  0
POINT
  5
8463
330
8459
100
AcDbEntity
  8
DEFPOINTS
 62
     0
100
AcDbPoint
 10
1193.948953711696
 20
2417.287145966453
 30
0.0
  0
ENDBLK
  5
845B
330
8459
100
AcDbEntity
  8
0
100
AcDbBlockEnd
  0
BLOCK
  5
8465
330
8464
100
AcDbEntity
  8
0
100
AcDbBlockBegin
  2
*D35
 70
     1
 10
0.0
 20
0.0
 30
0.0
  3
*D35
  1

  0
LINE
  5
8467
330
8464
100
AcDbEntity
  8
3
 62
     0
370
    -2
100
AcDbLine
 10
1603.56856939381
 20
2245.099645966452
 30
0.0
 11
1603.56856939381
 21
2021.042426966486
 31
0.0
  0
LINE
  5
8468
330
8464
100
AcDbEntity
  8
3
 62
     0
370
    -2
100
AcDbLine
 10
2263.568569393809
 20
2245.099645966452
 30
0.0
 11
2263.568569393809
 21
2021.042426966486
 31
0.0
  0
LINE
  5
8469
330
8464
100
AcDbEntity
  8
3
 62
     0
370
    -2
100
AcDbLine
 10
1609.86856939381
 20
2027.342426966486
 30
0.0
 11
1922.318569393809
 21
2027.342426966486
 31
0.0
  0
LINE
  5
846A
330
8464
100
AcDbEntity
  8
3
 62
     0
370
    -2
100
AcDbLine
 10
2257.268569393809
 20
2027.342426966486
 30
0.0
 11
1944.818569393809
 21
2027.342426966486
 31
0.0
  0
SOLID
  5
846B
330
8464
100
AcDbEntity
  8
3
 62
     0
100
AcDbTrace
 10
1609.86856939381
 20
2028.392426966486
 30
0.0
 11
1609.86856939381
 21
2026.292426966486
 31
0.0
 12
1603.56856939381
 22
2027.342426966486
 32
0.0
 13
1603.56856939381
 23
2027.342426966486
 33
0.0
  0
SOLID
  5
846C
330
8464
100
AcDbEntity
  8
3
 62
     0
100
AcDbTrace
 10
2257.268569393809
 20
2028.392426966486
 30
0.0
 11
2257.268569393809
 21
2026.292426966486
 31
0.0
 12
2263.568569393809
 22
2027.342426966486
 32
0.0
 13
2263.568569393809
 23
2027.342426966486
 33
0.0
  0
MTEXT
  5
846D
330
8464
100
AcDbEntity
  8
3
 62
     0
100
AcDbMText
 10
1933.568569393809
 20
2027.342426966486
 30
0.0
 40
6.299999999999999
 41
0.0
 71
     5
 72
     1
  1
\A1;660
 73
     1
 44
1.0
1001
ACAD
1000
MTEXTBEGIN
1070
    73
1070
     1
1070
    44
1040
1.0
1070
    74
1070
     0
1000
MTEXTEND
  0
POINT
  5
846E
330
8464
100
AcDbEntity
  8
DEFPOINTS
 62
     0
100
AcDbPoint
 10
1603.56856939381
 20
2247.287145966452
 30
0.0
  0
POINT
  5
846F
330
8464
100
AcDbEntity
  8
DEFPOINTS
 62
     0
100
AcDbPoint
 10
2263.568569393809
 20
2247.287145966452
 30
0.0
  0
POINT
  5
8470
330
8464
100
AcDbEntity
  8
DEFPOINTS
 62
     0
100
AcDbPoint
 10
2263.568569393809
 20
2027.342426966486
 30
0.0
  0
ENDBLK
  5
8466
330
8464
100
AcDbEntity
  8
0
100
AcDbBlockEnd
  0
BLOCK
  5
8472
330
8471
100
AcDbEntity
  8
0
100
AcDbBlockBegin
  2
*D36
 70
     1
 10
0.0
 20
0.0
 30
0.0
  3
*D36
  1

  0
LINE
  5
8474
330
8471
100
AcDbEntity
  8
3
 62
     0
370
    -2
100
AcDbLine
 10
2263.568569393809
 20
2245.099645966452
 30
0.0
 11
2263.568569393809
 21
2021.042426966486
 31
0.0
  0
LINE
  5
8475
330
8471
100
AcDbEntity
  8
3
 62
     0
370
    -2
100
AcDbLine
 10
3863.568569393809
 20
2245.099645966452
 30
0.0
 11
3863.568569393809
 21
2021.042426966486
 31
0.0
  0
LINE
  5
8476
330
8471
100
AcDbEntity
  8
3
 62
     0
370
    -2
100
AcDbLine
 10
2269.868569393809
 20
2027.342426966486
 30
0.0
 11
3049.91856939381
 21
2027.342426966486
 31
0.0
  0
LINE
  5
8477
330
8471
100
AcDbEntity
  8
3
 62
     0
370
    -2
100
AcDbLine
 10
3857.268569393809
 20
2027.342426966486
 30
0.0
 11
3077.21856939381
 21
2027.342426966486
 31
0.0
  0
SOLID
  5
8478
330
8471
100
AcDbEntity
  8
3
 62
     0
100
AcDbTrace
 10
2269.868569393809
 20
2028.392426966486
 30
0.0
 11
2269.868569393809
 21
2026.292426966486
 31
0.0
 12
2263.568569393809
 22
2027.342426966486
 32
0.0
 13
2263.568569393809
 23
2027.342426966486
 33
0.0
  0
SOLID
  5
8479
330
8471
100
AcDbEntity
  8
3
 62
     0
100
AcDbTrace
 10
3857.268569393809
 20
2028.392426966486
 30
0.0
 11
3857.268569393809
 21
2026.292426966486
 31
0.0
 12
3863.568569393809
 22
2027.342426966486
 32
0.0
 13
3863.568569393809
 23
2027.342426966486
 33
0.0
  0
MTEXT
  5
847A
330
8471
100
AcDbEntity
  8
3
 62
     0
100
AcDbMText
 10
3063.568569393809
 20
2027.342426966486
 30
0.0
 40
6.299999999999999
 41
0.0
 71
     5
 72
     1
  1
\A1;1600
 73
     1
 44
1.0
1001
ACAD
1000
MTEXTBEGIN
1070
    73
1070
     1
1070
    44
1040
1.0
1070
    74
1070
     0
1000
MTEXTEND
  0
POINT
  5
847B
330
8471
100
AcDbEntity
  8
DEFPOINTS
 62
     0
100
AcDbPoint
 10
2263.568569393809
 20
2247.287145966452
 30
0.0
  0
POINT
  5
847C
330
8471
100
AcDbEntity
  8
DEFPOINTS
 62
     0
100
AcDbPoint
 10
3863.568569393809
 20
2247.287145966452
 30
0.0
  0
POINT
  5
847D
330
8471
100
AcDbEntity
  8
DEFPOINTS
 62
     0
100
AcDbPoint
 10
3863.568569393809
 20
2027.342426966486
 30
0.0
  0
ENDBLK
  5
8473
330
8471
100
AcDbEntity
  8
0
100
AcDbBlockEnd
  0
BLOCK
  5
8480
330
847F
100
AcDbEntity
  8
0
100
AcDbBlockBegin
  2
*D37
 70
     1
 10
0.0
 20
0.0
 30
0.0
  3
*D37
  1

  0
LINE
  5
8482
330
847F
100
AcDbEntity
  8
3
 62
     0
370
    -2
100
AcDbLine
 10
4395.419090021514
 20
2229.787145966452
 30
0.0
 11
4395.419090021514
 21
1992.342426966486
 31
0.0
  0
LINE
  5
8483
330
847F
100
AcDbEntity
  8
3
 62
     0
370
    -2
100
AcDbLine
 10
5477.419090021525
 20
2229.787145966452
 30
0.0
 11
5477.419090021525
 21
1992.342426966486
 31
0.0
  0
LINE
  5
8484
330
847F
100
AcDbEntity
  8
3
 62
     0
370
    -2
100
AcDbLine
 10
4465.419090021513
 20
2027.342426966486
 30
0.0
 11
5407.419090021526
 21
2027.342426966486
 31
0.0
  0
INSERT
  5
8485
330
847F
100
AcDbEntity
  8
3
 62
     0
370
    -2
100
AcDbBlockReference
  2
_OPEN
 10
4395.419090021514
 20
2027.342426966486
 30
0.0
 41
70.0
 42
70.0
 43
70.0
 50
180.0
  0
INSERT
  5
8486
330
847F
100
AcDbEntity
  8
3
 62
     0
370
    -2
100
AcDbBlockReference
  2
_OPEN
 10
5477.419090021525
 20
2027.342426966486
 30
0.0
 41
70.0
 42
70.0
 43
70.0
  0
MTEXT
  5
8487
330
847F
100
AcDbEntity
  8
3
 62
     0
100
AcDbMText
 10
4936.419090021519
 20
2114.842426966486
 30
0.0
 40
105.0
 41
0.0
 71
     5
 72
     1
  1
\A1;1082
 73
     1
 44
1.0
1001
ACAD
1000
MTEXTBEGIN
1070
    73
1070
     1
1070
    44
1040
1.0
1070
    74
1070
     0
1000
MTEXTEND
  0
POINT
  5
8488
330
847F
100
AcDbEntity
  8
DEFPOINTS
 62
     0
100
AcDbPoint
 10
4395.419090021514
 20
2247.287145966452
 30
0.0
  0
POINT
  5
8489
330
847F
100
AcDbEntity
  8
DEFPOINTS
 62
     0
100
AcDbPoint
 10
5477.419090021525
 20
2247.287145966452
 30
0.0
  0
POINT
  5
848A
330
847F
100
AcDbEntity
  8
DEFPOINTS
 62
     0
100
AcDbPoint
 10
5477.419090021525
 20
2027.342426966486
 30
0.0
  0
ENDBLK
  5
8481
330
847F
100
AcDbEntity
  8
0
100
AcDbBlockEnd
  0
BLOCK
  5
848D
330
848C
100
AcDbEntity
  8
0
100
AcDbBlockBegin
  2
*D38
 70
     1
 10
0.0
 20
0.0
 30
0.0
  3
*D38
  1

  0
LINE
  5
848F
330
848C
100
AcDbEntity
  8
3
 62
     0
370
    -2
100
AcDbLine
 10
5477.419090021525
 20
2229.787145966452
 30
0.0
 11
5477.419090021525
 21
1992.342426966486
 31
0.0
  0
LINE
  5
8490
330
848C
100
AcDbEntity
  8
3
 62
     0
370
    -2
100
AcDbLine
 10
6295.419090021505
 20
2229.787145966452
 30
0.0
 11
6295.419090021505
 21
1992.342426966486
 31
0.0
  0
LINE
  5
8491
330
848C
100
AcDbEntity
  8
3
 62
     0
370
    -2
100
AcDbLine
 10
5547.419090021525
 20
2027.342426966486
 30
0.0
 11
6225.419090021506
 21
2027.342426966486
 31
0.0
  0
INSERT
  5
8492
330
848C
100
AcDbEntity
  8
3
 62
     0
370
    -2
100
AcDbBlockReference
  2
_OPEN
 10
5477.419090021525
 20
2027.342426966486
 30
0.0
 41
70.0
 42
70.0
 43
70.0
 50
180.0
  0
INSERT
  5
8493
330
848C
100
AcDbEntity
  8
3
 62
     0
370
    -2
100
AcDbBlockReference
  2
_OPEN
 10
6295.419090021505
 20
2027.342426966486
 30
0.0
 41
70.0
 42
70.0
 43
70.0
  0
MTEXT
  5
8494
330
848C
100
AcDbEntity
  8
3
 62
     0
100
AcDbMText
 10
5886.419090021515
 20
2114.842426966486
 30
0.0
 40
105.0
 41
0.0
 71
     5
 72
     1
  1
\A1;818
 73
     1
 44
1.0
1001
ACAD
1000
MTEXTBEGIN
1070
    73
1070
     1
1070
    44
1040
1.0
1070
    74
1070
     0
1000
MTEXTEND
  0
POINT
  5
8495
330
848C
100
AcDbEntity
  8
DEFPOINTS
 62
     0
100
AcDbPoint
 10
5477.419090021525
 20
2247.287145966452
 30
0.0
  0
POINT
  5
8496
330
848C
100
AcDbEntity
  8
DEFPOINTS
 62
     0
100
AcDbPoint
 10
6295.419090021505
 20
2247.287145966452
 30
0.0
  0
POINT
  5
8497
330
848C
100
AcDbEntity
  8
DEFPOINTS
 62
     0
100
AcDbPoint
 10
6295.419090021505
 20
2027.342426966486
 30
0.0
  0
ENDBLK
  5
848E
330
848C
100
AcDbEntity
  8
0
100
AcDbBlockEnd
  0
BLOCK
  5
849E
330
849D
100
AcDbEntity
  8
0
100
AcDbBlockBegin
  2
*D39
 70
     1
 10
0.0
 20
0.0
 30
0.0
  3
*D39
  1

  0
LINE
  5
84DC
330
849D
100
AcDbEntity
  8
3
 62
     0
370
    -2
100
AcDbLine
 10
6244.919090021524
 20
3987.287145966453
 30
0.0
 11
6735.245105552123
 21
3987.287145966453
 31
0.0
  0
LINE
  5
84DD
330
849D
100
AcDbEntity
  8
3
 62
     0
370
    -2
100
AcDbLine
 10
6244.919090021525
 20
2867.287145966452
 30
0.0
 11
6735.245105552123
 21
2867.287145966452
 31
0.0
  0
LINE
  5
84DE
330
849D
100
AcDbEntity
  8
3
 62
     0
370
    -2
100
AcDbLine
 10
6700.245105552124
 20
3917.287145966452
 30
0.0
 11
6700.245105552124
 21
2937.287145966452
 31
0.0
  0
INSERT
  5
84DF
330
849D
100
AcDbEntity
  8
3
 62
     0
370
    -2
100
AcDbBlockReference
  2
_OPEN
 10
6700.245105552124
 20
3987.287145966453
 30
0.0
 41
70.0
 42
70.0
 43
70.0
 50
90.0
  0
INSERT
  5
84E0
330
849D
100
AcDbEntity
  8
3
 62
     0
370
    -2
100
AcDbBlockReference
  2
_OPEN
 10
6700.245105552124
 20
2867.287145966452
 30
0.0
 41
70.0
 42
70.0
 43
70.0
 50
270.0
  0
MTEXT
  5
84E1
330
849D
100
AcDbEntity
  8
3
 62
     0
100
AcDbMText
 10
6612.745105552122
 20
3427.287145966453
 30
0.0
 40
105.0
 41
0.0
 71
     5
 72
     1
  1
\A1;\U+03C61120
 11
0.0000000000000001
 21
1.0
 31
0.0
 73
     1
 44
1.0
1001
ACAD
1000
MTEXTBEGIN
1070
    73
1070
     1
1070
    44
1040
1.0
1070
    74
1070
     0
1000
MTEXTEND
  0
POINT
  5
84E2
330
849D
100
AcDbEntity
  8
DEFPOINTS
 62
     0
100
AcDbPoint
 10
6227.419090021524
 20
3987.287145966453
 30
0.0
  0
POINT
  5
84E3
330
849D
100
AcDbEntity
  8
DEFPOINTS
 62
     0
100
AcDbPoint
 10
6227.419090021525
 20
2867.287145966452
 30
0.0
  0
POINT
  5
84E4
330
849D
100
AcDbEntity
  8
DEFPOINTS
 62
     0
100
AcDbPoint
 10
6700.245105552124
 20
2867.287145966452
 30
0.0
  0
ENDBLK
  5
849F
330
849D
100
AcDbEntity
  8
0
100
AcDbBlockEnd
  0
BLOCK
  5
84AB
330
84AA
100
AcDbEntity
  8
0
100
AcDbBlockBegin
  2
*D40
 70
     1
 10
0.0
 20
0.0
 30
0.0
  3
*D40
  1

  0
LINE
  5
84AD
330
84AA
100
AcDbEntity
  8
3
 62
     0
370
    -2
100
AcDbLine
 10
4727.419090021525
 20
4204.787145966452
 30
0.0
 11
4727.419090021525
 21
4482.405437488114
 31
0.0
  0
LINE
  5
84AE
330
84AA
100
AcDbEntity
  8
3
 62
     0
370
    -2
100
AcDbLine
 10
6227.419090021524
 20
4204.787145966452
 30
0.0
 11
6227.419090021524
 21
4482.405437488114
 31
0.0
  0
LINE
  5
84AF
330
84AA
100
AcDbEntity
  8
3
 62
     0
370
    -2
100
AcDbLine
 10
4797.419090021525
 20
4447.405437488114
 30
0.0
 11
6157.419090021524
 21
4447.405437488114
 31
0.0
  0
INSERT
  5
84B0
330
84AA
100
AcDbEntity
  8
3
 62
     0
370
    -2
100
AcDbBlockReference
  2
_OPEN
 10
4727.419090021525
 20
4447.405437488114
 30
0.0
 41
70.0
 42
70.0
 43
70.0
 50
180.0
  0
INSERT
  5
84B1
330
84AA
100
AcDbEntity
  8
3
 62
     0
370
    -2
100
AcDbBlockReference
  2
_OPEN
 10
6227.419090021524
 20
4447.405437488114
 30
0.0
 41
70.0
 42
70.0
 43
70.0
  0
MTEXT
  5
84B2
330
84AA
100
AcDbEntity
  8
3
 62
     0
100
AcDbMText
 10
5477.419090021525
 20
4534.905437488113
 30
0.0
 40
105.0
 41
0.0
 71
     5
 72
     1
  1
\A1;1500
 73
     1
 44
1.0
1001
ACAD
1000
MTEXTBEGIN
1070
    73
1070
     1
1070
    44
1040
1.0
1070
    74
1070
     0
1000
MTEXTEND
  0
POINT
  5
84B3
330
84AA
100
AcDbEntity
  8
DEFPOINTS
 62
     0
100
AcDbPoint
 10
4727.419090021525
 20
4187.287145966453
 30
0.0
  0
POINT
  5
84B4
330
84AA
100
AcDbEntity
  8
DEFPOINTS
 62
     0
100
AcDbPoint
 10
6227.419090021524
 20
4187.287145966453
 30
0.0
  0
POINT
  5
84B5
330
84AA
100
AcDbEntity
  8
DEFPOINTS
 62
     0
100
AcDbPoint
 10
6227.419090021524
 20
4447.405437488114
 30
0.0
  0
ENDBLK
  5
84AC
330
84AA
100
AcDbEntity
  8
0
100
AcDbBlockEnd
  0
BLOCK
  5
84B8
330
84B7
100
AcDbEntity
  8
0
100
AcDbBlockBegin
  2
*D41
 70
     1
 10
0.0
 20
0.0
 30
0.0
  3
*D41
  1

  0
LINE
  5
851B
330
84B7
100
AcDbEntity
  8
3
 62
     0
370
    -2
100
AcDbLine
 10
4357.419090021525
 20
3824.787145966454
 30
0.0
 11
4357.419090021525
 21
4718.142332365934
 31
0.0
  0
LINE
  5
851C
330
84B7
100
AcDbEntity
  8
3
 62
     0
370
    -2
100
AcDbLine
 10
5477.419090021525
 20
4614.217387677279
 30
0.0
 11
5477.419090021525
 21
4718.142332365934
 31
0.0
  0
LINE
  5
851D
330
84B7
100
AcDbEntity
  8
3
 62
     0
370
    -2
100
AcDbLine
 10
4427.419090021525
 20
4683.142332365934
 30
0.0
 11
5407.419090021526
 21
4683.142332365934
 31
0.0
  0
INSERT
  5
851E
330
84B7
100
AcDbEntity
  8
3
 62
     0
370
    -2
100
AcDbBlockReference
  2
_OPEN
 10
4357.419090021525
 20
4683.142332365934
 30
0.0
 41
70.0
 42
70.0
 43
70.0
 50
180.0
  0
INSERT
  5
851F
330
84B7
100
AcDbEntity
  8
3
 62
     0
370
    -2
100
AcDbBlockReference
  2
_OPEN
 10
5477.419090021525
 20
4683.142332365934
 30
0.0
 41
70.0
 42
70.0
 43
70.0
  0
MTEXT
  5
8520
330
84B7
100
AcDbEntity
  8
3
 62
     0
100
AcDbMText
 10
4917.419090021525
 20
4798.142332365933
 30
0.0
 40
105.0
 41
0.0
 71
     5
 72
     1
  1
\A1;(1120)
 73
     1
 44
1.0
1001
ACAD
1000
MTEXTBEGIN
1070
    73
1070
     1
1070
    44
1040
1.0
1070
    74
1070
     0
1000
MTEXTEND
  0
POINT
  5
8521
330
84B7
100
AcDbEntity
  8
DEFPOINTS
 62
     0
100
AcDbPoint
 10
4357.419090021525
 20
3807.287145966454
 30
0.0
  0
POINT
  5
8522
330
84B7
100
AcDbEntity
  8
DEFPOINTS
 62
     0
100
AcDbPoint
 10
5477.419090021525
 20
4596.717387677279
 30
0.0
  0
POINT
  5
8523
330
84B7
100
AcDbEntity
  8
DEFPOINTS
 62
     0
100
AcDbPoint
 10
5477.419090021525
 20
4683.142332365934
 30
0.0
  0
ENDBLK
  5
84B9
330
84B7
100
AcDbEntity
  8
0
100
AcDbBlockEnd
  0
BLOCK
  5
84C5
330
84C4
100
AcDbEntity
  8
0
100
AcDbBlockBegin
  2
*D42
 70
     1
 10
0.0
 20
0.0
 30
0.0
  3
*D42
  1

  0
LINE
  5
8524
330
84C4
100
AcDbEntity
  8
3
 62
     0
370
    -2
100
AcDbLine
 10
5477.419090021525
 20
4614.217387677279
 30
0.0
 11
5477.419090021525
 21
4718.142332365934
 31
0.0
  0
LINE
  5
8525
330
84C4
100
AcDbEntity
  8
3
 62
     0
370
    -2
100
AcDbLine
 10
6407.419090021524
 20
3371.787145966454
 30
0.0
 11
6407.419090021524
 21
4718.142332365934
 31
0.0
  0
LINE
  5
8526
330
84C4
100
AcDbEntity
  8
3
 62
     0
370
    -2
100
AcDbLine
 10
5547.419090021525
 20
4683.142332365934
 30
0.0
 11
6337.419090021525
 21
4683.142332365934
 31
0.0
  0
INSERT
  5
8527
330
84C4
100
AcDbEntity
  8
3
 62
     0
370
    -2
100
AcDbBlockReference
  2
_OPEN
 10
5477.419090021525
 20
4683.142332365934
 30
0.0
 41
70.0
 42
70.0
 43
70.0
 50
180.0
  0
INSERT
  5
8528
330
84C4
100
AcDbEntity
  8
3
 62
     0
370
    -2
100
AcDbBlockReference
  2
_OPEN
 10
6407.419090021524
 20
4683.142332365934
 30
0.0
 41
70.0
 42
70.0
 43
70.0
  0
MTEXT
  5
8529
330
84C4
100
AcDbEntity
  8
3
 62
     0
100
AcDbMText
 10
5942.419090021525
 20
4798.142332365933
 30
0.0
 40
105.0
 41
0.0
 71
     5
 72
     1
  1
\A1;(930)
 73
     1
 44
1.0
1001
ACAD
1000
MTEXTBEGIN
1070
    73
1070
     1
1070
    44
1040
1.0
1070
    74
1070
     0
1000
MTEXTEND
  0
POINT
  5
852A
330
84C4
100
AcDbEntity
  8
DEFPOINTS
 62
     0
100
AcDbPoint
 10
5477.419090021525
 20
4596.717387677279
 30
0.0
  0
POINT
  5
852B
330
84C4
100
AcDbEntity
  8
DEFPOINTS
 62
     0
100
AcDbPoint
 10
6407.419090021524
 20
3354.287145966453
 30
0.0
  0
POINT
  5
852C
330
84C4
100
AcDbEntity
  8
DEFPOINTS
 62
     0
100
AcDbPoint
 10
6407.419090021524
 20
4683.142332365934
 30
0.0
  0
ENDBLK
  5
84C6
330
84C4
100
AcDbEntity
  8
0
100
AcDbBlockEnd
  0
BLOCK
  5
852F
330
852E
100
AcDbEntity
  8
0
100
AcDbBlockBegin
  2
*D43
 70
     1
 10
0.0
 20
0.0
 30
0.0
  3
*D43
  1

  0
LINE
  5
8531
330
852E
100
AcDbEntity
  8
3
 62
     0
370
    -2
100
AcDbLine
 10
1603.56856939381
 20
5732.186236647791
 30
0.0
 11
1603.56856939381
 21
5423.441044553842
 31
0.0
  0
LINE
  5
8532
330
852E
100
AcDbEntity
  8
3
 62
     0
370
    -2
100
AcDbLine
 10
3863.568569393811
 20
5732.186236647791
 30
0.0
 11
3863.568569393811
 21
5423.441044553842
 31
0.0
  0
LINE
  5
8533
330
852E
100
AcDbEntity
  8
3
 62
     0
370
    -2
100
AcDbLine
 10
1673.56856939381
 20
5458.441044553842
 30
0.0
 11
3793.568569393811
 21
5458.441044553842
 31
0.0
  0
INSERT
  5
8534
330
852E
100
AcDbEntity
  8
3
 62
     0
370
    -2
100
AcDbBlockReference
  2
_OPEN
 10
1603.56856939381
 20
5458.441044553842
 30
0.0
 41
70.0
 42
70.0
 43
70.0
 50
180.0
  0
INSERT
  5
8535
330
852E
100
AcDbEntity
  8
3
 62
     0
370
    -2
100
AcDbBlockReference
  2
_OPEN
 10
3863.568569393811
 20
5458.441044553842
 30
0.0
 41
70.0
 42
70.0
 43
70.0
  0
MTEXT
  5
8536
330
852E
100
AcDbEntity
  8
3
 62
     0
100
AcDbMText
 10
2733.56856939381
 20
5545.941044553842
 30
0.0
 40
105.0
 41
0.0
 71
     5
 72
     1
  1
\A1;2260
 73
     1
 44
1.0
1001
ACAD
1000
MTEXTBEGIN
1070
    73
1070
     1
1070
    44
1040
1.0
1070
    74
1070
     0
1000
MTEXTEND
  0
POINT
  5
8537
330
852E
100
AcDbEntity
  8
DEFPOINTS
 62
     0
100
AcDbPoint
 10
1603.56856939381
 20
5749.68623664779
 30
0.0
  0
POINT
  5
8538
330
852E
100
AcDbEntity
  8
DEFPOINTS
 62
     0
100
AcDbPoint
 10
3863.568569393811
 20
5749.68623664779
 30
0.0
  0
POINT
  5
8539
330
852E
100
AcDbEntity
  8
DEFPOINTS
 62
     0
100
AcDbPoint
 10
3863.568569393811
 20
5458.441044553842
 30
0.0
  0
ENDBLK
  5
8530
330
852E
100
AcDbEntity
  8
0
100
AcDbBlockEnd
  0
BLOCK
  5
853C
330
853B
100
AcDbEntity
  8
0
100
AcDbBlockBegin
  2
*D44
 70
     1
 10
0.0
 20
0.0
 30
0.0
  3
*D44
  1

  0
LINE
  5
853E
330
853B
100
AcDbEntity
  8
3
 62
     0
370
    -2
100
AcDbLine
 10
3881.068569393811
 20
5749.68623664779
 30
0.0
 11
4299.198978687672
 21
5749.68623664779
 31
0.0
  0
LINE
  5
853F
330
853B
100
AcDbEntity
  8
3
 62
     0
370
    -2
100
AcDbLine
 10
3881.068569393811
 20
6649.686236647792
 30
0.0
 11
4299.198978687672
 21
6649.686236647792
 31
0.0
  0
LINE
  5
8540
330
853B
100
AcDbEntity
  8
3
 62
     0
370
    -2
100
AcDbLine
 10
4264.198978687672
 20
5819.686236647791
 30
0.0
 11
4264.198978687672
 21
6579.686236647792
 31
0.0
  0
INSERT
  5
8541
330
853B
100
AcDbEntity
  8
3
 62
     0
370
    -2
100
AcDbBlockReference
  2
_OPEN
 10
4264.198978687672
 20
5749.68623664779
 30
0.0
 41
70.0
 42
70.0
 43
70.0
 50
270.0
  0
INSERT
  5
8542
330
853B
100
AcDbEntity
  8
3
 62
     0
370
    -2
100
AcDbBlockReference
  2
_OPEN
 10
4264.198978687672
 20
6649.686236647792
 30
0.0
 41
70.0
 42
70.0
 43
70.0
 50
90.0
  0
MTEXT
  5
8543
330
853B
100
AcDbEntity
  8
3
 62
     0
100
AcDbMText
 10
4176.698978687671
 20
6199.686236647792
 30
0.0
 40
105.0
 41
0.0
 71
     5
 72
     1
  1
\A1;900
 11
0.0000000000000001
 21
1.0
 31
0.0
 73
     1
 44
1.0
1001
ACAD
1000
MTEXTBEGIN
1070
    73
1070
     1
1070
    44
1040
1.0
1070
    74
1070
     0
1000
MTEXTEND
  0
POINT
  5
8544
330
853B
100
AcDbEntity
  8
DEFPOINTS
 62
     0
100
AcDbPoint
 10
3863.568569393811
 20
5749.68623664779
 30
0.0
  0
POINT
  5
8545
330
853B
100
AcDbEntity
  8
DEFPOINTS
 62
     0
100
AcDbPoint
 10
3863.568569393811
 20
6649.686236647792
 30
0.0
  0
POINT
  5
8546
330
853B
100
AcDbEntity
  8
DEFPOINTS
 62
     0
100
AcDbPoint
 10
4264.198978687672
 20
6649.686236647792
 30
0.0
  0
ENDBLK
  5
853D
330
853B
100
AcDbEntity
  8
0
100
AcDbBlockEnd
  0
BLOCK
  5
8549
330
8548
100
AcDbEntity
  8
0
100
AcDbBlockBegin
  2
*D45
 70
     1
 10
0.0
 20
0.0
 30
0.0
  3
*D45
  1

  0
LINE
  5
854B
330
8548
100
AcDbEntity
  8
3
 62
     0
370
    -2
100
AcDbLine
 10
1603.56856939381
 20
7667.186236647791
 30
0.0
 11
1603.56856939381
 21
7858.693597118909
 31
0.0
  0
LINE
  5
854C
330
8548
100
AcDbEntity
  8
3
 62
     0
370
    -2
100
AcDbLine
 10
2923.56856939381
 20
7667.186236647791
 30
0.0
 11
2923.56856939381
 21
7858.693597118909
 31
0.0
  0
LINE
  5
854D
330
8548
100
AcDbEntity
  8
3
 62
     0
370
    -2
100
AcDbLine
 10
1673.56856939381
 20
7823.69359711891
 30
0.0
 11
2853.568569393809
 21
7823.69359711891
 31
0.0
  0
INSERT
  5
854E
330
8548
100
AcDbEntity
  8
3
 62
     0
370
    -2
100
AcDbBlockReference
  2
_OPEN
 10
1603.56856939381
 20
7823.69359711891
 30
0.0
 41
70.0
 42
70.0
 43
70.0
 50
180.0
  0
INSERT
  5
854F
330
8548
100
AcDbEntity
  8
3
 62
     0
370
    -2
100
AcDbBlockReference
  2
_OPEN
 10
2923.56856939381
 20
7823.69359711891
 30
0.0
 41
70.0
 42
70.0
 43
70.0
  0
MTEXT
  5
8550
330
8548
100
AcDbEntity
  8
3
 62
     0
100
AcDbMText
 10
2263.56856939381
 20
7911.193597118909
 30
0.0
 40
105.0
 41
0.0
 71
     5
 72
     1
  1
\A1;1320
 73
     1
 44
1.0
1001
ACAD
1000
MTEXTBEGIN
1070
    73
1070
     1
1070
    44
1040
1.0
1070
    74
1070
     0
1000
MTEXTEND
  0
POINT
  5
8551
330
8548
100
AcDbEntity
  8
DEFPOINTS
 62
     0
100
AcDbPoint
 10
1603.56856939381
 20
7649.686236647792
 30
0.0
  0
POINT
  5
8552
330
8548
100
AcDbEntity
  8
DEFPOINTS
 62
     0
100
AcDbPoint
 10
2923.56856939381
 20
7649.686236647792
 30
0.0
  0
POINT
  5
8553
330
8548
100
AcDbEntity
  8
DEFPOINTS
 62
     0
100
AcDbPoint
 10
2923.56856939381
 20
7823.69359711891
 30
0.0
  0
ENDBLK
  5
854A
330
8548
100
AcDbEntity
  8
0
100
AcDbBlockEnd
  0
BLOCK
  5
8556
330
8555
100
AcDbEntity
  8
0
100
AcDbBlockBegin
  2
*D46
 70
     1
 10
0.0
 20
0.0
 30
0.0
  3
*D46
  1

  0
LINE
  5
8558
330
8555
100
AcDbEntity
  8
3
 62
     0
370
    -2
100
AcDbLine
 10
2923.56856939381
 20
7667.186236647791
 30
0.0
 11
2923.56856939381
 21
7858.693597118909
 31
0.0
  0
LINE
  5
8559
330
8555
100
AcDbEntity
  8
3
 62
     0
370
    -2
100
AcDbLine
 10
3863.568569393811
 20
6667.186236647792
 30
0.0
 11
3863.568569393811
 21
7858.693597118909
 31
0.0
  0
LINE
  5
855A
330
8555
100
AcDbEntity
  8
3
 62
     0
370
    -2
100
AcDbLine
 10
2993.56856939381
 20
7823.69359711891
 30
0.0
 11
3793.568569393811
 21
7823.69359711891
 31
0.0
  0
INSERT
  5
855B
330
8555
100
AcDbEntity
  8
3
 62
     0
370
    -2
100
AcDbBlockReference
  2
_OPEN
 10
2923.56856939381
 20
7823.69359711891
 30
0.0
 41
70.0
 42
70.0
 43
70.0
 50
180.0
  0
INSERT
  5
855C
330
8555
100
AcDbEntity
  8
3
 62
     0
370
    -2
100
AcDbBlockReference
  2
_OPEN
 10
3863.568569393811
 20
7823.69359711891
 30
0.0
 41
70.0
 42
70.0
 43
70.0
  0
MTEXT
  5
855D
330
8555
100
AcDbEntity
  8
3
 62
     0
100
AcDbMText
 10
3393.56856939381
 20
7911.193597118909
 30
0.0
 40
105.0
 41
0.0
 71
     5
 72
     1
  1
\A1;940
 73
     1
 44
1.0
1001
ACAD
1000
MTEXTBEGIN
1070
    73
1070
     1
1070
    44
1040
1.0
1070
    74
1070
     0
1000
MTEXTEND
  0
POINT
  5
855E
330
8555
100
AcDbEntity
  8
DEFPOINTS
 62
     0
100
AcDbPoint
 10
2923.56856939381
 20
7649.686236647792
 30
0.0
  0
POINT
  5
855F
330
8555
100
AcDbEntity
  8
DEFPOINTS
 62
     0
100
AcDbPoint
 10
3863.568569393811
 20
6649.686236647792
 30
0.0
  0
POINT
  5
8560
330
8555
100
AcDbEntity
  8
DEFPOINTS
 62
     0
100
AcDbPoint
 10
3863.568569393811
 20
7823.69359711891
 30
0.0
  0
ENDBLK
  5
8557
330
8555
100
AcDbEntity
  8
0
100
AcDbBlockEnd
  0
BLOCK
  5
8563
330
8562
100
AcDbEntity
  8
0
100
AcDbBlockBegin
  2
*D47
 70
     1
 10
0.0
 20
0.0
 30
0.0
  3
*D47
  1

  0
LINE
  5
8565
330
8562
100
AcDbEntity
  8
3
 62
     0
370
    -2
100
AcDbLine
 10
1586.06856939381
 20
7649.686236647792
 30
0.0
 11
1169.796314422758
 21
7649.686236647792
 31
0.0
  0
LINE
  5
8566
330
8562
100
AcDbEntity
  8
3
 62
     0
370
    -2
100
AcDbLine
 10
1586.06856939381
 20
5749.68623664779
 30
0.0
 11
1169.796314422758
 21
5749.68623664779
 31
0.0
  0
LINE
  5
8567
330
8562
100
AcDbEntity
  8
3
 62
     0
370
    -2
100
AcDbLine
 10
1204.796314422758
 20
7579.686236647791
 30
0.0
 11
1204.796314422758
 21
5819.686236647791
 31
0.0
  0
INSERT
  5
8568
330
8562
100
AcDbEntity
  8
3
 62
     0
370
    -2
100
AcDbBlockReference
  2
_OPEN
 10
1204.796314422758
 20
7649.686236647792
 30
0.0
 41
70.0
 42
70.0
 43
70.0
 50
90.0
  0
INSERT
  5
8569
330
8562
100
AcDbEntity
  8
3
 62
     0
370
    -2
100
AcDbBlockReference
  2
_OPEN
 10
1204.796314422758
 20
5749.68623664779
 30
0.0
 41
70.0
 42
70.0
 43
70.0
 50
270.0
  0
MTEXT
  5
856A
330
8562
100
AcDbEntity
  8
3
 62
     0
100
AcDbMText
 10
1117.296314422757
 20
6699.686236647791
 30
0.0
 40
105.0
 41
0.0
 71
     5
 72
     1
  1
\A1;1900
 11
0.0000000000000001
 21
1.0
 31
0.0
 73
     1
 44
1.0
1001
ACAD
1000
MTEXTBEGIN
1070
    73
1070
     1
1070
    44
1040
1.0
1070
    74
1070
     0
1000
MTEXTEND
  0
POINT
  5
856B
330
8562
100
AcDbEntity
  8
DEFPOINTS
 62
     0
100
AcDbPoint
 10
1603.56856939381
 20
7649.686236647792
 30
0.0
  0
POINT
  5
856C
330
8562
100
AcDbEntity
  8
DEFPOINTS
 62
     0
100
AcDbPoint
 10
1603.56856939381
 20
5749.68623664779
 30
0.0
  0
POINT
  5
856D
330
8562
100
AcDbEntity
  8
DEFPOINTS
 62
     0
100
AcDbPoint
 10
1204.796314422758
 20
5749.68623664779
 30
0.0
  0
ENDBLK
  5
8564
330
8562
100
AcDbEntity
  8
0
100
AcDbBlockEnd
  0
BLOCK
  5
8570
330
856F
100
AcDbEntity
  8
0
100
AcDbBlockBegin
  2
*D48
 70
     1
 10
0.0
 20
0.0
 30
0.0
  3
*D48
  1

  0
LINE
  5
8572
330
856F
100
AcDbEntity
  8
3
 62
     0
370
    -2
100
AcDbLine
 10
1603.56856939381
 20
2229.787145966452
 30
0.0
 11
1603.56856939381
 21
1992.342426966486
 31
0.0
  0
LINE
  5
8573
330
856F
100
AcDbEntity
  8
3
 62
     0
370
    -2
100
AcDbLine
 10
2263.568569393809
 20
2229.787145966452
 30
0.0
 11
2263.568569393809
 21
1992.342426966486
 31
0.0
  0
LINE
  5
8574
330
856F
100
AcDbEntity
  8
3
 62
     0
370
    -2
100
AcDbLine
 10
1673.56856939381
 20
2027.342426966486
 30
0.0
 11
2193.568569393809
 21
2027.342426966486
 31
0.0
  0
INSERT
  5
8575
330
856F
100
AcDbEntity
  8
3
 62
     0
370
    -2
100
AcDbBlockReference
  2
_OPEN
 10
1603.56856939381
 20
2027.342426966486
 30
0.0
 41
70.0
 42
70.0
 43
70.0
 50
180.0
  0
INSERT
  5
8576
330
856F
100
AcDbEntity
  8
3
 62
     0
370
    -2
100
AcDbBlockReference
  2
_OPEN
 10
2263.568569393809
 20
2027.342426966486
 30
0.0
 41
70.0
 42
70.0
 43
70.0
  0
MTEXT
  5
8577
330
856F
100
AcDbEntity
  8
3
 62
     0
100
AcDbMText
 10
1933.568569393809
 20
2114.842426966486
 30
0.0
 40
105.0
 41
0.0
 71
     5
 72
     1
  1
\A1;660
 73
     1
 44
1.0
1001
ACAD
1000
MTEXTBEGIN
1070
    73
1070
     1
1070
    44
1040
1.0
1070
    74
1070
     0
1000
MTEXTEND
  0
POINT
  5
8578
330
856F
100
AcDbEntity
  8
DEFPOINTS
 62
     0
100
AcDbPoint
 10
1603.56856939381
 20
2247.287145966452
 30
0.0
  0
POINT
  5
8579
330
856F
100
AcDbEntity
  8
DEFPOINTS
 62
     0
100
AcDbPoint
 10
2263.568569393809
 20
2247.287145966452
 30
0.0
  0
POINT
  5
857A
330
856F
100
AcDbEntity
  8
DEFPOINTS
 62
     0
100
AcDbPoint
 10
2263.568569393809
 20
2027.342426966486
 30
0.0
  0
ENDBLK
  5
8571
330
856F
100
AcDbEntity
  8
0
100
AcDbBlockEnd
  0
BLOCK
  5
857D
330
857C
100
AcDbEntity
  8
0
100
AcDbBlockBegin
  2
*D49
 70
     1
 10
0.0
 20
0.0
 30
0.0
  3
*D49
  1

  0
LINE
  5
857F
330
857C
100
AcDbEntity
  8
3
 62
     0
370
    -2
100
AcDbLine
 10
2263.568569393809
 20
2229.787145966452
 30
0.0
 11
2263.568569393809
 21
1992.342426966486
 31
0.0
  0
LINE
  5
8580
330
857C
100
AcDbEntity
  8
3
 62
     0
370
    -2
100
AcDbLine
 10
3863.568569393809
 20
2229.787145966452
 30
0.0
 11
3863.568569393809
 21
1992.342426966486
 31
0.0
  0
LINE
  5
8581
330
857C
100
AcDbEntity
  8
3
 62
     0
370
    -2
100
AcDbLine
 10
2333.568569393809
 20
2027.342426966486
 30
0.0
 11
3793.56856939381
 21
2027.342426966486
 31
0.0
  0
INSERT
  5
8582
330
857C
100
AcDbEntity
  8
3
 62
     0
370
    -2
100
AcDbBlockReference
  2
_OPEN
 10
2263.568569393809
 20
2027.342426966486
 30
0.0
 41
70.0
 42
70.0
 43
70.0
 50
180.0
  0
INSERT
  5
8583
330
857C
100
AcDbEntity
  8
3
 62
     0
370
    -2
100
AcDbBlockReference
  2
_OPEN
 10
3863.568569393809
 20
2027.342426966486
 30
0.0
 41
70.0
 42
70.0
 43
70.0
  0
MTEXT
  5
8584
330
857C
100
AcDbEntity
  8
3
 62
     0
100
AcDbMText
 10
3063.568569393809
 20
2114.842426966486
 30
0.0
 40
105.0
 41
0.0
 71
     5
 72
     1
  1
\A1;1600
 73
     1
 44
1.0
1001
ACAD
1000
MTEXTBEGIN
1070
    73
1070
     1
1070
    44
1040
1.0
1070
    74
1070
     0
1000
MTEXTEND
  0
POINT
  5
8585
330
857C
100
AcDbEntity
  8
DEFPOINTS
 62
     0
100
AcDbPoint
 10
2263.568569393809
 20
2247.287145966452
 30
0.0
  0
POINT
  5
8586
330
857C
100
AcDbEntity
  8
DEFPOINTS
 62
     0
100
AcDbPoint
 10
3863.568569393809
 20
2247.287145966452
 30
0.0
  0
POINT
  5
8587
330
857C
100
AcDbEntity
  8
DEFPOINTS
 62
     0
100
AcDbPoint
 10
3863.568569393809
 20
2027.342426966486
 30
0.0
  0
ENDBLK
  5
857E
330
857C
100
AcDbEntity
  8
0
100
AcDbBlockEnd
  0
BLOCK
  5
858A
330
8589
100
AcDbEntity
  8
0
100
AcDbBlockBegin
  2
*D50
 70
     1
 10
0.0
 20
0.0
 30
0.0
  3
*D50
  1

  0
LINE
  5
858C
330
8589
100
AcDbEntity
  8
3
 62
     0
370
    -2
100
AcDbLine
 10
2311.568569393809
 20
4204.787145966452
 30
0.0
 11
2311.568569393809
 21
4422.395462250719
 31
0.0
  0
LINE
  5
858D
330
8589
100
AcDbEntity
  8
3
 62
     0
370
    -2
100
AcDbLine
 10
3461.56856939381
 20
4204.787145966452
 30
0.0
 11
3461.56856939381
 21
4422.395462250719
 31
0.0
  0
LINE
  5
858E
330
8589
100
AcDbEntity
  8
3
 62
     0
370
    -2
100
AcDbLine
 10
2381.56856939381
 20
4387.395462250719
 30
0.0
 11
3391.56856939381
 21
4387.395462250719
 31
0.0
  0
INSERT
  5
858F
330
8589
100
AcDbEntity
  8
3
 62
     0
370
    -2
100
AcDbBlockReference
  2
_OPEN
 10
2311.568569393809
 20
4387.395462250719
 30
0.0
 41
70.0
 42
70.0
 43
70.0
 50
180.0
  0
INSERT
  5
8590
330
8589
100
AcDbEntity
  8
3
 62
     0
370
    -2
100
AcDbBlockReference
  2
_OPEN
 10
3461.56856939381
 20
4387.395462250719
 30
0.0
 41
70.0
 42
70.0
 43
70.0
  0
MTEXT
  5
8591
330
8589
100
AcDbEntity
  8
3
 62
     0
100
AcDbMText
 10
2886.568569393809
 20
4474.895462250719
 30
0.0
 40
105.0
 41
0.0
 71
     5
 72
     1
  1
\A1;1150
 73
     1
 44
1.0
1001
ACAD
1000
MTEXTBEGIN
1070
    73
1070
     1
1070
    44
1040
1.0
1070
    74
1070
     0
1000
MTEXTEND
  0
POINT
  5
8592
330
8589
100
AcDbEntity
  8
DEFPOINTS
 62
     0
100
AcDbPoint
 10
2311.568569393809
 20
4187.287145966453
 30
0.0
  0
POINT
  5
8593
330
8589
100
AcDbEntity
  8
DEFPOINTS
 62
     0
100
AcDbPoint
 10
3461.56856939381
 20
4187.287145966453
 30
0.0
  0
POINT
  5
8594
330
8589
100
AcDbEntity
  8
DEFPOINTS
 62
     0
100
AcDbPoint
 10
3461.56856939381
 20
4387.395462250719
 30
0.0
  0
ENDBLK
  5
858B
330
8589
100
AcDbEntity
  8
0
100
AcDbBlockEnd
  0
BLOCK
  5
8597
330
8596
100
AcDbEntity
  8
0
100
AcDbBlockBegin
  2
*D51
 70
     1
 10
0.0
 20
0.0
 30
0.0
  3
*D51
  1

  0
LINE
  5
8599
330
8596
100
AcDbEntity
  8
3
 62
     0
370
    -2
100
AcDbLine
 10
3461.56856939381
 20
4204.787145966452
 30
0.0
 11
3461.56856939381
 21
4622.547113112221
 31
0.0
  0
LINE
  5
859A
330
8596
100
AcDbEntity
  8
3
 62
     0
370
    -2
100
AcDbLine
 10
2263.568569393809
 20
4272.679405696564
 30
0.0
 11
2263.568569393809
 21
4622.547113112221
 31
0.0
  0
LINE
  5
859B
330
8596
100
AcDbEntity
  8
3
 62
     0
370
    -2
100
AcDbLine
 10
3391.56856939381
 20
4587.547113112221
 30
0.0
 11
2333.568569393809
 21
4587.547113112221
 31
0.0
  0
INSERT
  5
859C
330
8596
100
AcDbEntity
  8
3
 62
     0
370
    -2
100
AcDbBlockReference
  2
_OPEN
 10
3461.56856939381
 20
4587.547113112221
 30
0.0
 41
70.0
 42
70.0
 43
70.0
  0
INSERT
  5
859D
330
8596
100
AcDbEntity
  8
3
 62
     0
370
    -2
100
AcDbBlockReference
  2
_OPEN
 10
2263.568569393809
 20
4587.547113112221
 30
0.0
 41
70.0
 42
70.0
 43
70.0
 50
180.0
  0
MTEXT
  5
859E
330
8596
100
AcDbEntity
  8
3
 62
     0
100
AcDbMText
 10
2862.56856939381
 20
4675.047113112221
 30
0.0
 40
105.0
 41
0.0
 71
     5
 72
     1
  1
\A1;1198
 73
     1
 44
1.0
1001
ACAD
1000
MTEXTBEGIN
1070
    73
1070
     1
1070
    44
1040
1.0
1070
    74
1070
     0
1000
MTEXTEND
  0
POINT
  5
859F
330
8596
100
AcDbEntity
  8
DEFPOINTS
 62
     0
100
AcDbPoint
 10
3461.56856939381
 20
4187.287145966453
 30
0.0
  0
POINT
  5
85A0
330
8596
100
AcDbEntity
  8
DEFPOINTS
 62
     0
100
AcDbPoint
 10
2263.568569393809
 20
4255.179405696565
 30
0.0
  0
POINT
  5
85A1
330
8596
100
AcDbEntity
  8
DEFPOINTS
 62
     0
100
AcDbPoint
 10
2263.568569393809
 20
4587.547113112221
 30
0.0
  0
ENDBLK
  5
8598
330
8596
100
AcDbEntity
  8
0
100
AcDbBlockEnd
  0
BLOCK
  5
85A4
330
85A3
100
AcDbEntity
  8
0
100
AcDbBlockBegin
  2
*D52
 70
     1
 10
0.0
 20
0.0
 30
0.0
  3
*D52
  1

  0
LINE
  5
85A6
330
85A3
100
AcDbEntity
  8
3
 62
     0
370
    -2
100
AcDbLine
 10
2263.568569393809
 20
4272.679405696564
 30
0.0
 11
2263.568569393809
 21
4622.547113112221
 31
0.0
  0
LINE
  5
85A7
330
85A3
100
AcDbEntity
  8
3
 62
     0
370
    -2
100
AcDbLine
 10
1458.568569393809
 20
3362.787145966454
 30
0.0
 11
1458.568569393809
 21
4622.547113112221
 31
0.0
  0
LINE
  5
85A8
330
85A3
100
AcDbEntity
  8
3
 62
     0
370
    -2
100
AcDbLine
 10
2193.568569393809
 20
4587.547113112221
 30
0.0
 11
1528.568569393809
 21
4587.547113112221
 31
0.0
  0
INSERT
  5
85A9
330
85A3
100
AcDbEntity
  8
3
 62
     0
370
    -2
100
AcDbBlockReference
  2
_OPEN
 10
2263.568569393809
 20
4587.547113112221
 30
0.0
 41
70.0
 42
70.0
 43
70.0
  0
INSERT
  5
85AA
330
85A3
100
AcDbEntity
  8
3
 62
     0
370
    -2
100
AcDbBlockReference
  2
_OPEN
 10
1458.568569393809
 20
4587.547113112221
 30
0.0
 41
70.0
 42
70.0
 43
70.0
 50
180.0
  0
MTEXT
  5
85AB
330
85A3
100
AcDbEntity
  8
3
 62
     0
100
AcDbMText
 10
1861.068569393809
 20
4675.047113112221
 30
0.0
 40
105.0
 41
0.0
 71
     5
 72
     1
  1
\A1;805
 73
     1
 44
1.0
1001
ACAD
1000
MTEXTBEGIN
1070
    73
1070
     1
1070
    44
1040
1.0
1070
    74
1070
     0
1000
MTEXTEND
  0
POINT
  5
85AC
330
85A3
100
AcDbEntity
  8
DEFPOINTS
 62
     0
100
AcDbPoint
 10
2263.568569393809
 20
4255.179405696565
 30
0.0
  0
POINT
  5
85AD
330
85A3
100
AcDbEntity
  8
DEFPOINTS
 62
     0
100
AcDbPoint
 10
1458.568569393809
 20
3345.287145966454
 30
0.0
  0
POINT
  5
85AE
330
85A3
100
AcDbEntity
  8
DEFPOINTS
 62
     0
100
AcDbPoint
 10
1458.568569393809
 20
4587.547113112221
 30
0.0
  0
ENDBLK
  5
85A5
330
85A3
100
AcDbEntity
  8
0
100
AcDbBlockEnd
  0
BLOCK
  5
85B1
330
85B0
100
AcDbEntity
  8
0
100
AcDbBlockBegin
  2
*D53
 70
     1
 10
0.0
 20
0.0
 30
0.0
  3
*D53
  1

  0
LINE
  5
85B3
330
85B0
100
AcDbEntity
  8
3
 62
     0
370
    -2
100
AcDbLine
 10
1458.568569393809
 20
3362.787145966454
 30
0.0
 11
1458.568569393809
 21
4854.488514716802
 31
0.0
  0
LINE
  5
85B4
330
85B0
100
AcDbEntity
  8
3
 62
     0
370
    -2
100
AcDbLine
 10
3863.568569393809
 20
2559.787145966453
 30
0.0
 11
3863.568569393809
 21
4854.488514716802
 31
0.0
  0
LINE
  5
85B5
330
85B0
100
AcDbEntity
  8
3
 62
     0
370
    -2
100
AcDbLine
 10
1528.568569393809
 20
4819.488514716802
 30
0.0
 11
3793.56856939381
 21
4819.488514716802
 31
0.0
  0
INSERT
  5
85B6
330
85B0
100
AcDbEntity
  8
3
 62
     0
370
    -2
100
AcDbBlockReference
  2
_OPEN
 10
1458.568569393809
 20
4819.488514716802
 30
0.0
 41
70.0
 42
70.0
 43
70.0
 50
180.0
  0
INSERT
  5
85B7
330
85B0
100
AcDbEntity
  8
3
 62
     0
370
    -2
100
AcDbBlockReference
  2
_OPEN
 10
3863.568569393809
 20
4819.488514716802
 30
0.0
 41
70.0
 42
70.0
 43
70.0
  0
MTEXT
  5
85B8
330
85B0
100
AcDbEntity
  8
3
 62
     0
100
AcDbMText
 10
2661.06856939381
 20
4906.988514716801
 30
0.0
 40
105.0
 41
0.0
 71
     5
 72
     1
  1
\A1;2405
 73
     1
 44
1.0
1001
ACAD
1000
MTEXTBEGIN
1070
    73
1070
     1
1070
    44
1040
1.0
1070
    74
1070
     0
1000
MTEXTEND
  0
POINT
  5
85B9
330
85B0
100
AcDbEntity
  8
DEFPOINTS
 62
     0
100
AcDbPoint
 10
1458.568569393809
 20
3345.287145966454
 30
0.0
  0
POINT
  5
85BA
330
85B0
100
AcDbEntity
  8
DEFPOINTS
 62
     0
100
AcDbPoint
 10
3863.568569393809
 20
2542.287145966453
 30
0.0
  0
POINT
  5
85BB
330
85B0
100
AcDbEntity
  8
DEFPOINTS
 62
     0
100
AcDbPoint
 10
3863.568569393809
 20
4819.488514716802
 30
0.0
  0
ENDBLK
  5
85B2
330
85B0
100
AcDbEntity
  8
0
100
AcDbBlockEnd
  0
BLOCK
  5
85BE
330
85BD
100
AcDbEntity
  8
0
100
AcDbBlockBegin
  2
*D54
 70
     1
 10
0.0
 20
0.0
 30
0.0
  3
*D54
  1

  0
LINE
  5
85C0
330
85BD
100
AcDbEntity
  8
3
 62
     0
370
    -2
100
AcDbLine
 10
2241.06856939381
 20
4187.287145966453
 30
0.0
 11
1157.58168657474
 21
4187.287145966453
 31
0.0
  0
LINE
  5
85C1
330
85BD
100
AcDbEntity
  8
3
 62
     0
370
    -2
100
AcDbLine
 10
1339.287917940833
 20
3427.287145966452
 30
0.0
 11
1157.58168657474
 21
3427.287145966452
 31
0.0
  0
LINE
  5
85C2
330
85BD
100
AcDbEntity
  8
3
 62
     0
370
    -2
100
AcDbLine
 10
1192.58168657474
 20
4117.287145966454
 30
0.0
 11
1192.58168657474
 21
3497.287145966453
 31
0.0
  0
INSERT
  5
85C3
330
85BD
100
AcDbEntity
  8
3
 62
     0
370
    -2
100
AcDbBlockReference
  2
_OPEN
 10
1192.58168657474
 20
4187.287145966453
 30
0.0
 41
70.0
 42
70.0
 43
70.0
 50
90.0
  0
INSERT
  5
85C4
330
85BD
100
AcDbEntity
  8
3
 62
     0
370
    -2
100
AcDbBlockReference
  2
_OPEN
 10
1192.58168657474
 20
3427.287145966452
 30
0.0
 41
70.0
 42
70.0
 43
70.0
 50
270.0
  0
MTEXT
  5
85C5
330
85BD
100
AcDbEntity
  8
3
 62
     0
100
AcDbMText
 10
1105.081686574739
 20
3807.287145966454
 30
0.0
 40
105.0
 41
0.0
 71
     5
 72
     1
  1
\A1;760
 11
0.0000000000000001
 21
1.0
 31
0.0
 73
     1
 44
1.0
1001
ACAD
1000
MTEXTBEGIN
1070
    73
1070
     1
1070
    44
1040
1.0
1070
    74
1070
     0
1000
MTEXTEND
  0
POINT
  5
85C6
330
85BD
100
AcDbEntity
  8
DEFPOINTS
 62
     0
100
AcDbPoint
 10
2258.56856939381
 20
4187.287145966453
 30
0.0
  0
POINT
  5
85C7
330
85BD
100
AcDbEntity
  8
DEFPOINTS
 62
     0
100
AcDbPoint
 10
1356.787917940833
 20
3427.287145966452
 30
0.0
  0
POINT
  5
85C8
330
85BD
100
AcDbEntity
  8
DEFPOINTS
 62
     0
100
AcDbPoint
 10
1192.58168657474
 20
3427.287145966452
 30
0.0
  0
ENDBLK
  5
85BF
330
85BD
100
AcDbEntity
  8
0
100
AcDbBlockEnd
  0
BLOCK
  5
85CB
330
85CA
100
AcDbEntity
  8
0
100
AcDbBlockBegin
  2
*D55
 70
     1
 10
0.0
 20
0.0
 30
0.0
  3
*D55
  1

  0
LINE
  5
85CD
330
85CA
100
AcDbEntity
  8
3
 62
     0
370
    -2
100
AcDbLine
 10
1339.287917940833
 20
3427.287145966452
 30
0.0
 11
1157.58168657474
 21
3427.287145966452
 31
0.0
  0
LINE
  5
85CE
330
85CA
100
AcDbEntity
  8
3
 62
     0
370
    -2
100
AcDbLine
 10
1586.06856939381
 20
2417.287145966453
 30
0.0
 11
1157.581686574739
 21
2417.287145966453
 31
0.0
  0
LINE
  5
85CF
330
85CA
100
AcDbEntity
  8
3
 62
     0
370
    -2
100
AcDbLine
 10
1192.58168657474
 20
3357.287145966452
 30
0.0
 11
1192.581686574739
 21
2487.287145966453
 31
0.0
  0
INSERT
  5
85D0
330
85CA
100
AcDbEntity
  8
3
 62
     0
370
    -2
100
AcDbBlockReference
  2
_OPEN
 10
1192.58168657474
 20
3427.287145966452
 30
0.0
 41
70.0
 42
70.0
 43
70.0
 50
90.0
  0
INSERT
  5
85D1
330
85CA
100
AcDbEntity
  8
3
 62
     0
370
    -2
100
AcDbBlockReference
  2
_OPEN
 10
1192.581686574739
 20
2417.287145966453
 30
0.0
 41
70.0
 42
70.0
 43
70.0
 50
270.0
  0
MTEXT
  5
85D2
330
85CA
100
AcDbEntity
  8
3
 62
     0
100
AcDbMText
 10
1105.081686574739
 20
2922.287145966453
 30
0.0
 40
105.0
 41
0.0
 71
     5
 72
     1
  1
\A1;1010
 11
0.0000000000000001
 21
1.0
 31
0.0
 73
     1
 44
1.0
1001
ACAD
1000
MTEXTBEGIN
1070
    73
1070
     1
1070
    44
1040
1.0
1070
    74
1070
     0
1000
MTEXTEND
  0
POINT
  5
85D3
330
85CA
100
AcDbEntity
  8
DEFPOINTS
 62
     0
100
AcDbPoint
 10
1356.787917940833
 20
3427.287145966452
 30
0.0
  0
POINT
  5
85D4
330
85CA
100
AcDbEntity
  8
DEFPOINTS
 62
     0
100
AcDbPoint
 10
1603.56856939381
 20
2417.287145966453
 30
0.0
  0
POINT
  5
85D5
330
85CA
100
AcDbEntity
  8
DEFPOINTS
 62
     0
100
AcDbPoint
 10
1192.581686574739
 20
2417.287145966453
 30
0.0
  0
ENDBLK
  5
85CC
330
85CA
100
AcDbEntity
  8
0
100
AcDbBlockEnd
  0
BLOCK
  5
85D8
330
85D7
100
AcDbEntity
  8
0
100
AcDbBlockBegin
  2
*D56
 70
     1
 10
0.0
 20
0.0
 30
0.0
  3
*D56
  1

  0
LINE
  5
86AE
330
85D7
100
AcDbEntity
  8
3
 62
     0
370
    -2
100
AcDbLine
 10
1586.06856939381
 20
2417.287145966453
 30
0.0
 11
1157.581686574739
 21
2417.287145966453
 31
0.0
  0
LINE
  5
86AF
330
85D7
100
AcDbEntity
  8
3
 62
     0
370
    -2
100
AcDbLine
 10
1586.06856939381
 20
2312.287145966452
 30
0.0
 11
1157.581686574739
 21
2312.287145966452
 31
0.0
  0
LINE
  5
86B0
330
85D7
100
AcDbEntity
  8
3
 62
     0
370
    -2
100
AcDbLine
 10
1192.581686574739
 20
2487.287145966453
 30
0.0
 11
1192.581686574739
 21
2557.287145966453
 31
0.0
  0
LINE
  5
86B1
330
85D7
100
AcDbEntity
  8
3
 62
     0
370
    -2
100
AcDbLine
 10
1192.581686574739
 20
2312.287145966452
 30
0.0
 11
1192.581686574739
 21
2242.287145966452
 31
0.0
  0
LINE
  5
86B2
330
85D7
100
AcDbEntity
  8
3
 62
     0
370
    -2
100
AcDbLine
 10
1192.581686574739
 20
2364.787145966452
 30
0.0
 11
1025.08168657474
 21
2415.037145966453
 31
0.0
  0
LINE
  5
86B3
330
85D7
100
AcDbEntity
  8
3
 62
     0
370
    -2
100
AcDbLine
 10
1025.08168657474
 20
2415.037145966453
 30
0.0
 11
1025.08168657474
 21
2870.037145966453
 31
0.0
  0
MTEXT
  5
86B4
330
85D7
100
AcDbEntity
  8
3
 62
     0
100
AcDbMText
 10
910.0816865747393
 20
2642.537145966453
 30
0.0
 40
105.0
 41
0.0
 71
     5
 72
     1
  1
\A1;(105)
 11
0.0000000000000001
 21
1.0
 31
0.0
 73
     1
 44
1.0
1001
ACAD
1000
MTEXTBEGIN
1070
    73
1070
     1
1070
    44
1040
1.0
1070
    74
1070
     0
1000
MTEXTEND
  0
LINE
  5
86B5
330
85D7
100
AcDbEntity
  8
3
 62
     0
370
    -2
100
AcDbLine
 10
1192.581686574739
 20
2417.287145966453
 30
0.0
 11
1192.581686574739
 21
2312.287145966452
 31
0.0
  0
LINE
  5
86B6
330
85D7
100
AcDbEntity
  8
3
 62
     0
370
    -2
100
AcDbLine
 10
1192.581686574739
 20
2417.287145966453
 30
0.0
 11
1192.581686574739
 21
2312.287145966452
 31
0.0
  0
INSERT
  5
86B7
330
85D7
100
AcDbEntity
  8
3
 62
     0
370
    -2
100
AcDbBlockReference
  2
_OPEN
 10
1192.581686574739
 20
2417.287145966453
 30
0.0
 41
70.0
 42
70.0
 43
70.0
 50
270.0
  0
INSERT
  5
86B8
330
85D7
100
AcDbEntity
  8
3
 62
     0
370
    -2
100
AcDbBlockReference
  2
_DotSmall
 10
1192.581686574739
 20
2312.287145966452
 30
0.0
 41
70.0
 42
70.0
 43
70.0
 50
90.0
  0
POINT
  5
86B9
330
85D7
100
AcDbEntity
  8
DEFPOINTS
 62
     0
100
AcDbPoint
 10
1603.56856939381
 20
2417.287145966453
 30
0.0
  0
POINT
  5
86BA
330
85D7
100
AcDbEntity
  8
DEFPOINTS
 62
     0
100
AcDbPoint
 10
1603.56856939381
 20
2312.287145966452
 30
0.0
  0
POINT
  5
86BB
330
85D7
100
AcDbEntity
  8
DEFPOINTS
 62
     0
100
AcDbPoint
 10
1192.581686574739
 20
2312.287145966452
 30
0.0
  0
ENDBLK
  5
85D9
330
85D7
100
AcDbEntity
  8
0
100
AcDbBlockEnd
  0
BLOCK
  5
85EA
330
85E9
100
AcDbEntity
  8
0
100
AcDbBlockBegin
  2
*D57
 70
     1
 10
0.0
 20
0.0
 30
0.0
  3
*D57
  1

  0
LINE
  5
870A
330
85E9
100
AcDbEntity
  8
3
 62
     0
370
    -2
100
AcDbLine
 10
1586.06856939381
 20
2312.287145966452
 30
0.0
 11
1157.581686574739
 21
2312.287145966452
 31
0.0
  0
LINE
  5
870B
330
85E9
100
AcDbEntity
  8
3
 62
     0
370
    -2
100
AcDbLine
 10
1586.06856939381
 20
2247.287145966452
 30
0.0
 11
1157.581686574739
 21
2247.287145966452
 31
0.0
  0
LINE
  5
870C
330
85E9
100
AcDbEntity
  8
3
 62
     0
370
    -2
100
AcDbLine
 10
1192.581686574739
 20
2312.287145966452
 30
0.0
 11
1192.581686574739
 21
2382.287145966452
 31
0.0
  0
LINE
  5
870D
330
85E9
100
AcDbEntity
  8
3
 62
     0
370
    -2
100
AcDbLine
 10
1192.581686574739
 20
2177.287145966452
 30
0.0
 11
1192.581686574739
 21
2107.287145966452
 31
0.0
  0
MTEXT
  5
870E
330
85E9
100
AcDbEntity
  8
3
 62
     0
100
AcDbMText
 10
1105.081686574739
 20
2107.287145966452
 30
0.0
 40
105.0
 41
0.0
 71
     5
 72
     1
  1
\A1;65
 11
0.0000000000000001
 21
1.0
 31
0.0
 73
     1
 44
1.0
1001
ACAD
1000
MTEXTBEGIN
1070
    73
1070
     1
1070
    44
1040
1.0
1070
    74
1070
     0
1000
MTEXTEND
  0
LINE
  5
870F
330
85E9
100
AcDbEntity
  8
3
 62
     0
370
    -2
100
AcDbLine
 10
1192.581686574739
 20
2312.287145966452
 30
0.0
 11
1192.581686574739
 21
2247.287145966452
 31
0.0
  0
INSERT
  5
8710
330
85E9
100
AcDbEntity
  8
3
 62
     0
370
    -2
100
AcDbBlockReference
  2
_DotSmall
 10
1192.581686574739
 20
2312.287145966452
 30
0.0
 41
70.0
 42
70.0
 43
70.0
 50
270.0
  0
INSERT
  5
8711
330
85E9
100
AcDbEntity
  8
3
 62
     0
370
    -2
100
AcDbBlockReference
  2
_OPEN
 10
1192.581686574739
 20
2247.287145966452
 30
0.0
 41
70.0
 42
70.0
 43
70.0
 50
90.0
  0
POINT
  5
8712
330
85E9
100
AcDbEntity
  8
DEFPOINTS
 62
     0
100
AcDbPoint
 10
1603.56856939381
 20
2312.287145966452
 30
0.0
  0
POINT
  5
8713
330
85E9
100
AcDbEntity
  8
DEFPOINTS
 62
     0
100
AcDbPoint
 10
1603.56856939381
 20
2247.287145966452
 30
0.0
  0
POINT
  5
8714
330
85E9
100
AcDbEntity
  8
DEFPOINTS
 62
     0
100
AcDbPoint
 10
1192.581686574739
 20
2247.287145966452
 30
0.0
  0
ENDBLK
  5
85EB
330
85E9
100
AcDbEntity
  8
0
100
AcDbBlockEnd
  0
BLOCK
  5
85FC
330
85FB
100
AcDbEntity
  8
0
100
AcDbBlockBegin
  2
*D58
 70
     1
 10
0.0
 20
0.0
 30
0.0
  3
*D58
  1

  0
LINE
  5
8640
330
85FB
100
AcDbEntity
  8
3
 62
     0
370
    -2
100
AcDbLine
 10
1586.06856939381
 20
2247.287145966452
 30
0.0
 11
768.4339583367033
 21
2247.287145966453
 31
0.0
  0
LINE
  5
8641
330
85FB
100
AcDbEntity
  8
3
 62
     0
370
    -2
100
AcDbLine
 10
2241.06856939381
 20
4187.287145966453
 30
0.0
 11
768.4339583367036
 21
4187.287145966453
 31
0.0
  0
LINE
  5
8642
330
85FB
100
AcDbEntity
  8
3
 62
     0
370
    -2
100
AcDbLine
 10
803.4339583367033
 20
2317.287145966453
 30
0.0
 11
803.4339583367037
 21
4117.287145966454
 31
0.0
  0
INSERT
  5
8643
330
85FB
100
AcDbEntity
  8
3
 62
     0
370
    -2
100
AcDbBlockReference
  2
_OPEN
 10
803.4339583367033
 20
2247.287145966453
 30
0.0
 41
70.0
 42
70.0
 43
70.0
 50
270.0
  0
INSERT
  5
8644
330
85FB
100
AcDbEntity
  8
3
 62
     0
370
    -2
100
AcDbBlockReference
  2
_OPEN
 10
803.4339583367037
 20
4187.287145966453
 30
0.0
 41
70.0
 42
70.0
 43
70.0
 50
90.0
  0
MTEXT
  5
8645
330
85FB
100
AcDbEntity
  8
3
 62
     0
100
AcDbMText
 10
688.433958336703
 20
3217.287145966453
 30
0.0
 40
105.0
 41
0.0
 71
     5
 72
     1
  1
\A1;(1940)
 11
0.0000000000000001
 21
1.0
 31
0.0
 73
     1
 44
1.0
1001
ACAD
1000
MTEXTBEGIN
1070
    73
1070
     1
1070
    44
1040
1.0
1070
    74
1070
     0
1000
MTEXTEND
  0
POINT
  5
8646
330
85FB
100
AcDbEntity
  8
DEFPOINTS
 62
     0
100
AcDbPoint
 10
1603.56856939381
 20
2247.287145966452
 30
0.0
  0
POINT
  5
8647
330
85FB
100
AcDbEntity
  8
DEFPOINTS
 62
     0
100
AcDbPoint
 10
2258.56856939381
 20
4187.287145966453
 30
0.0
  0
POINT
  5
8648
330
85FB
100
AcDbEntity
  8
DEFPOINTS
 62
     0
100
AcDbPoint
 10
803.4339583367037
 20
4187.287145966453
 30
0.0
  0
ENDBLK
  5
85FD
330
85FB
100
AcDbEntity
  8
0
100
AcDbBlockEnd
  0
BLOCK
  5
86AC
330
86AA
100
AcDbEntity
  8
0
100
AcDbBlockBegin
  2
_DotSmall
 70
     0
 10
0.0
 20
0.0
 30
0.0
  3
_DotSmall
  1

  0
LWPOLYLINE
  5
86AB
330
86AA
100
AcDbEntity
  8
0
  6
ByBlock
 62
     0
100
AcDbPolyline
 90
        2
 70
     1
 43
0.5
 10
-0.0625
 20
0.0
 42
1.0
 10
0.0625
 20
0.0
 42
1.0
  0
ENDBLK
  5
86AD
330
86AA
100
AcDbEntity
  8
0
100
AcDbBlockEnd
  0
ENDSEC
  0
SECTION
  2
ENTITIES
  0
INSERT
  5
7C14
330
83C0
100
AcDbEntity
  8
0
100
AcDbBlockReference
  2
YA_N
 10
6.0
 20
5.0
 30
0.0
  0
LINE
  5
7C16
330
83C0
100
AcDbEntity
  8
2
100
AcDbLine
 10
1356.787917940833
 20
3427.287145966452
 30
0.0
 11
3329.942910507481
 21
3427.287145966452
 31
0.0
  0
LINE
  5
7C17
330
83C0
100
AcDbEntity
  8
2
100
AcDbLine
 10
2263.568569393809
 20
2247.287145966452
 30
0.0
 11
2263.568569393809
 21
4255.179405696565
 31
0.0
  0
LINE
  5
7C18
330
83C0
100
AcDbEntity
  8
1
100
AcDbLine
 10
2258.56856939381
 20
4187.287145966453
 30
0.0
 11
3514.56856939381
 21
4187.287145966453
 31
0.0
  0
LINE
  5
7C19
330
83C0
100
AcDbEntity
  8
1
100
AcDbLine
 10
3514.56856939381
 20
4187.287145966453
 30
0.0
 11
3514.56856939381
 21
4183.287145966453
 31
0.0
  0
LINE
  5
7C1A
330
83C0
100
AcDbEntity
  8
1
100
AcDbLine
 10
2258.56856939381
 20
4187.287145966453
 30
0.0
 11
2258.56856939381
 21
4183.287145966453
 31
0.0
  0
LINE
  5
7C1B
330
83C0
100
AcDbEntity
  8
1
100
AcDbLine
 10
2311.568569393809
 20
4137.287145966452
 30
0.0
 11
3457.081481158371
 21
4137.287145966452
 31
0.0
  0
LINE
  5
7C1C
330
83C0
100
AcDbEntity
  8
1
100
AcDbLine
 10
2258.56856939381
 20
4183.287145966453
 30
0.0
 11
3514.56856939381
 21
4183.287145966453
 31
0.0
  0
LINE
  5
7C1D
330
83C0
100
AcDbEntity
  8
1
100
AcDbLine
 10
1603.56856939381
 20
2417.287145966453
 30
0.0
 11
3863.568569393809
 21
2417.287145966453
 31
0.0
1001
ACAD
1000
ASC_BOUNDS
1002
{
1070
    19
1005
0
1002
}
  0
LINE
  5
7C1E
330
83C0
100
AcDbEntity
  8
1
100
AcDbLine
 10
1603.56856939381
 20
2542.287145966453
 30
0.0
 11
1603.56856939381
 21
2417.287145966453
 31
0.0
  0
LINE
  5
7C1F
330
83C0
100
AcDbEntity
  8
1
100
AcDbLine
 10
3863.568569393809
 20
2542.287145966453
 30
0.0
 11
3863.568569393809
 21
2417.287145966453
 31
0.0
  0
LINE
  5
7C20
330
83C0
100
AcDbEntity
  8
1
100
AcDbLine
 10
1603.56856939381
 20
2542.287145966453
 30
0.0
 11
3863.568569393809
 21
2542.287145966453
 31
0.0
  0
ARC
  5
7C21
330
83C0
100
AcDbEntity
  8
1
100
AcDbCircle
 10
2345.568569393809
 20
3509.287145966454
 30
0.0
 40
1051.0
100
AcDbArc
 50
293.0627876000036
 51
355.5251821014662
  0
ARC
  5
7C22
330
83C0
100
AcDbEntity
  8
1
100
AcDbCircle
 10
2345.568569393809
 20
3345.287145966454
 30
0.0
 40
887.0
100
AcDbArc
 50
174.695634792204
 51
244.8635510921249
  0
ARC
  5
7C23
330
83C0
100
AcDbEntity
  8
1
100
AcDbCircle
 10
2195.068569393809
 20
3358.787145966452
 30
0.0
 40
736.5
100
AcDbArc
 50
84.66335167861648
 51
174.6633516786165
  0
LINE
  5
7C24
330
83C0
100
AcDbEntity
  8
1
100
AcDbLine
 10
3461.56856939381
 20
4187.287145966453
 30
0.0
 11
3393.364828215151
 21
3427.287145966452
 31
0.0
  0
LINE
  5
7C25
330
83C0
100
AcDbEntity
  8
1
100
AcDbLine
 10
2311.568569393809
 20
4187.287145966453
 30
0.0
 11
2311.568569393809
 21
4093.560363197943
 31
0.0
  0
LINE
  5
7C26
330
83C0
100
AcDbEntity
  8
2
100
AcDbLine
 10
3573.56856939381
 20
3116.145422122397
 30
0.0
 11
3573.568569393808
 21
2247.287145966453
 31
0.0
  0
LINE
  5
7C27
330
83C0
100
AcDbEntity
  8
2
100
AcDbLine
 10
3338.242274534831
 20
2802.287145966452
 30
0.0
 11
3837.733195376069
 21
2802.287145966452
 31
0.0
  0
LINE
  5
7C28
330
83C0
100
AcDbEntity
  8
1
100
AcDbLine
 10
4395.419090021525
 20
2417.287145966453
 30
0.0
 11
4460.419090021525
 21
2417.287145966453
 31
0.0
1001
ACAD
1000
ASC_BOUNDS
1002
{
1070
    19
1002
}
  0
LINE
  5
7C29
330
83C0
100
AcDbEntity
  8
1
100
AcDbLine
 10
4395.419090021525
 20
2542.287145966453
 30
0.0
 11
6295.419090021525
 21
2542.287145966453
 31
0.0
  0
LINE
  5
7C2A
330
83C0
100
AcDbEntity
  8
1
100
AcDbLine
 10
4460.419090021527
 20
2417.287145966453
 30
0.0
 11
6295.419090021525
 21
2417.287145966453
 31
0.0
1001
ACAD
1000
ASC_BOUNDS
1002
{
1070
    19
1002
}
  0
LINE
  5
7C2B
330
83C0
100
AcDbEntity
  8
2
100
AcDbLine
 10
4372.942339954427
 20
3427.287145966452
 30
0.0
 11
6402.407077098266
 21
3427.287145966452
 31
0.0
  0
LINE
  5
7C2C
330
83C0
100
AcDbEntity
  8
1
100
AcDbLine
 10
4392.419090021526
 20
3681.287145966452
 30
0.0
 11
4392.419090021526
 21
2684.287145966453
 31
0.0
  0
LINE
  5
7C2D
330
83C0
100
AcDbEntity
  8
1
100
AcDbLine
 10
4502.919090021526
 20
3681.287145966452
 30
0.0
 11
4502.919090021525
 21
2684.287145966453
 31
0.0
  0
LINE
  5
7C2E
330
83C0
100
AcDbEntity
  8
2
100
AcDbLine
 10
4374.200150802397
 20
2802.287145966452
 30
0.0
 11
5269.164116557966
 21
2802.287145966452
 31
0.0
  0
LINE
  5
7C2F
330
83C0
100
AcDbEntity
  8
1
100
AcDbLine
 10
4357.419090021525
 20
3807.287145966454
 30
0.0
 11
4357.419090021523
 21
2582.287145966453
 31
0.0
  0
LINE
  5
7C30
330
83C0
100
AcDbEntity
  8
1
100
AcDbLine
 10
4554.719090021525
 20
3807.287145966454
 30
0.0
 11
4554.719090021523
 21
3787.287145966454
 31
0.0
  0
LINE
  5
7C31
330
83C0
100
AcDbEntity
  8
2
100
AcDbLine
 10
2263.568569393809
 20
7671.633580304304
 30
0.0
 11
2263.568569393809
 21
5672.740252742644
 31
0.0
  0
LINE
  5
7C32
330
83C0
100
AcDbEntity
  8
2
100
AcDbLine
 10
1375.765471673999
 20
6831.68623664779
 30
0.0
 11
3556.608583508635
 21
6831.68623664779
 31
0.0
  0
LINE
  5
7C33
330
83C0
100
AcDbEntity
  8
2
100
AcDbLine
 10
5477.419090021525
 20
4403.148124601544
 30
0.0
 11
5477.419090021525
 21
2247.287145966452
 31
0.0
  0
POINT
  5
7C34
330
83C0
100
AcDbEntity
  8
1
100
AcDbPoint
 10
2263.568569393809
 20
4228.488708465071
 30
0.0
  0
INSERT
  5
7C35
330
83C0
100
AcDbEntity
  8
0
100
AcDbBlockReference
  2
YA_N
 10
-1074.779326041182
 20
-1311.669320613289
 30
0.0
 41
25.0
 42
25.0
 43
25.0
  0
LINE
  5
7C37
330
83C0
100
AcDbEntity
  8
1
100
AcDbLine
 10
1603.56856939381
 20
2312.287145966452
 30
0.0
 11
3863.568569393809
 21
2312.287145966452
 31
0.0
1001
ACAD
1000
ASC_BOUNDS
1002
{
1070
    19
1005
0
1002
}
  0
LINE
  5
7C38
330
83C0
100
AcDbEntity
  8
1
100
AcDbLine
 10
1603.56856939381
 20
2312.287145966452
 30
0.0
 11
1603.56856939381
 21
2247.287145966452
 31
0.0
  0
LINE
  5
7C39
330
83C0
100
AcDbEntity
  8
1
100
AcDbLine
 10
3863.568569393809
 20
2312.287145966452
 30
0.0
 11
3863.568569393809
 21
2247.287145966452
 31
0.0
  0
LINE
  5
7C3A
330
83C0
100
AcDbEntity
  8
1
100
AcDbLine
 10
1603.56856939381
 20
2247.287145966452
 30
0.0
 11
3863.568569393809
 21
2247.287145966452
 31
0.0
1001
ACAD
1000
ASC_BOUNDS
1002
{
1070
    19
1002
}
  0
LINE
  5
7C3B
330
83C0
100
AcDbEntity
  8
1
100
AcDbLine
 10
4397.919090021527
 20
2312.287145966452
 30
0.0
 11
6295.419090021526
 21
2312.287145966452
 31
0.0
1001
ACAD
1000
ASC_BOUNDS
1002
{
1070
    19
1002
}
  0
LINE
  5
7C3C
330
83C0
100
AcDbEntity
  8
1
100
AcDbLine
 10
4395.419090021525
 20
2312.287145966452
 30
0.0
 11
4395.419090021515
 21
2247.287145966452
 31
0.0
  0
LINE
  5
7C3D
330
83C0
100
AcDbEntity
  8
1
100
AcDbLine
 10
4395.419090021514
 20
2247.287145966452
 30
0.0
 11
6295.419090021503
 21
2247.287145966452
 31
0.0
  0
INSERT
  5
7C3E
330
83C0
100
AcDbEntity
  8
0
100
AcDbBlockReference
  2
YA_N
 10
-346.9416476423939
 20
-375.8074592043958
 30
0.0
 41
25.0
 42
25.0
 43
25.0
  0
ARC
  5
7C43
330
83C0
100
AcDbEntity
  8
1
100
AcDbCircle
 10
3573.56856939381
 20
2802.287145966452
 30
0.0
 40
203.5
100
AcDbArc
 50
285.60376
 51
254.396301
  0
LINE
  5
7C44
330
83C0
100
AcDbEntity
  8
1
100
AcDbLine
 10
3628.30660639381
 20
2606.287145966453
 30
0.0
 11
3518.83053239381
 21
2606.287145966453
 31
0.0
  0
ARC
  5
7C45
330
83C0
100
AcDbEntity
  8
1
100
AcDbCircle
 10
3387.56856939381
 20
2619.287145966453
 30
0.0
 40
3.0
100
AcDbArc
 50
90.0
 51
180.0
  0
ARC
  5
7C46
330
83C0
100
AcDbEntity
  8
1
100
AcDbCircle
 10
3389.568569393809
 20
2676.613806966453
 30
0.0
 40
5.000066999999999
100
AcDbArc
 50
124.943665
 51
180.0
  0
LINE
  5
7C47
330
83C0
100
AcDbEntity
  8
1
100
AcDbLine
 10
3384.56856939381
 20
2676.613806966453
 30
0.0
 11
3384.56856939381
 21
2602.287145966453
 31
0.0
  0
LINE
  5
7C4B
330
83C0
100
AcDbEntity
  8
1
100
AcDbLine
 10
3469.46599939381
 20
2627.430334966453
 30
0.0
 11
3464.06856939381
 21
2607.287145966453
 31
0.0
  0
LINE
  5
7C4C
330
83C0
100
AcDbEntity
  8
1
100
AcDbLine
 10
3464.06856939381
 20
2619.287145966453
 30
0.0
 11
3464.06856939381
 21
2602.287145966453
 31
0.0
  0
LINE
  5
7C4D
330
83C0
100
AcDbEntity
  8
1
100
AcDbLine
 10
3461.068569393809
 20
2622.287145966453
 30
0.0
 11
3387.56856939381
 21
2622.287145966453
 31
0.0
  0
ARC
  5
7C4E
330
83C0
100
AcDbEntity
  8
1
100
AcDbCircle
 10
3461.068569393809
 20
2619.287145966453
 30
0.0
 40
3.0
100
AcDbArc
 50
0.0
 51
90.0
  0
LINE
  5
7C4F
330
83C0
100
AcDbEntity
  8
1
100
AcDbLine
 10
3386.70479939381
 20
2680.712438966453
 30
0.0
 11
3402.642665393809
 21
2691.848913966453
 31
0.0
  0
LINE
  5
7C50
330
83C0
100
AcDbEntity
  8
1
100
AcDbLine
 10
3762.56856939381
 20
2676.613806966453
 30
0.0
 11
3762.56856939381
 21
2602.287145966453
 31
0.0
  0
LINE
  5
7C54
330
83C0
100
AcDbEntity
  8
1
100
AcDbLine
 10
3677.671352393809
 20
2627.430456966453
 30
0.0
 11
3683.068569393809
 21
2607.287145966453
 31
0.0
  0
LINE
  5
7C55
330
83C0
100
AcDbEntity
  8
1
100
AcDbLine
 10
3683.068569393809
 20
2619.287145966453
 30
0.0
 11
3683.068569393809
 21
2602.287145966453
 31
0.0
  0
LINE
  5
7C56
330
83C0
100
AcDbEntity
  8
1
100
AcDbLine
 10
3686.06856939381
 20
2622.287145966453
 30
0.0
 11
3759.56856939381
 21
2622.287145966453
 31
0.0
  0
ARC
  5
7C57
330
83C0
100
AcDbEntity
  8
1
100
AcDbCircle
 10
3686.06856939381
 20
2619.287145966453
 30
0.0
 40
3.0
100
AcDbArc
 50
90.0
 51
180.0
  0
ARC
  5
7C58
330
83C0
100
AcDbEntity
  8
1
100
AcDbCircle
 10
3759.56856939381
 20
2619.287145966453
 30
0.0
 40
3.0
100
AcDbArc
 50
0.0
 51
90.0
  0
LINE
  5
7C59
330
83C0
100
AcDbEntity
  8
1
100
AcDbLine
 10
3760.43246039381
 20
2680.712438966453
 30
0.0
 11
3744.49459439381
 21
2691.848913966453
 31
0.0
  0
ARC
  5
7C5A
330
83C0
100
AcDbEntity
  8
1
100
AcDbCircle
 10
3757.56856939381
 20
2676.613806966453
 30
0.0
 40
5.0
100
AcDbArc
 50
0.0
 51
55.05633899999998
  0
LINE
  5
7C5B
330
83C0
100
AcDbEntity
  8
1
100
AcDbLine
 10
3329.506313345721
 20
2602.287145966453
 30
0.0
 11
3503.568569393809
 21
2602.287145966453
 31
0.0
  0
LINE
  5
7C5C
330
83C0
100
AcDbEntity
  8
1
100
AcDbLine
 10
3313.568569393808
 20
2542.287145966453
 30
0.0
 11
3329.506313345719
 21
2602.287145966453
 31
0.0
  0
LINE
  5
7C5D
330
83C0
100
AcDbEntity
  8
1
100
AcDbLine
 10
3833.56856939381
 20
2542.287145966453
 30
0.0
 11
3817.583559487445
 21
2602.287145966453
 31
0.0
  0
LINE
  5
7C5F
330
83C0
100
AcDbEntity
  8
1
100
AcDbLine
 10
3503.568569393809
 20
2592.287145966453
 30
0.0
 11
3643.56856939381
 21
2592.287145966453
 31
0.0
  0
LINE
  5
7C60
330
83C0
100
AcDbEntity
  8
1
100
AcDbLine
 10
3643.56856939381
 20
2602.287145966453
 30
0.0
 11
3643.568569393809
 21
2592.287145966453
 31
0.0
  0
LINE
  5
7C61
330
83C0
100
AcDbEntity
  8
1
100
AcDbLine
 10
3503.568569393809
 20
2602.287145966453
 30
0.0
 11
3503.568569393809
 21
2592.287145966453
 31
0.0
  0
LINE
  5
7C64
330
83C0
100
AcDbEntity
  8
1
100
AcDbLine
 10
3643.56856939381
 20
2602.287145966453
 30
0.0
 11
3817.583559487445
 21
2602.287145966453
 31
0.0
  0
CIRCLE
  5
7C65
330
83C0
100
AcDbEntity
  8
1
100
AcDbCircle
 10
3573.56856939381
 20
2802.287145966452
 30
0.0
 40
118.0
  0
LINE
  5
7C66
330
83C0
100
AcDbEntity
  8
1
100
AcDbLine
 10
4392.419090021525
 20
2920.287145966454
 30
0.0
 11
4502.919090021525
 21
2920.287145966454
 31
0.0
  0
LINE
  5
7C67
330
83C0
100
AcDbEntity
  8
1
100
AcDbLine
 10
4392.419090021526
 20
2684.287145966453
 30
0.0
 11
4502.919090021525
 21
2684.287145966453
 31
0.0
  0
LINE
  5
7C68
330
83C0
100
AcDbEntity
  8
1
100
AcDbLine
 10
4357.419090021525
 20
2582.287145966453
 30
0.0
 11
4554.719090021525
 21
2582.287145966453
 31
0.0
  0
INSERT
  5
7C6A
330
83C0
100
AcDbEntity
  8
0
100
AcDbBlockReference
  2
YA_N
 10
-394.4722692372305
 20
-430.898429998433
 30
0.0
 41
25.0
 42
25.0
 43
25.0
  0
LINE
  5
7C6D
330
83C0
100
AcDbEntity
  8
1
100
AcDbLine
 10
6227.419090021524
 20
2542.287145966453
 30
0.0
 11
6227.419090021527
 21
3427.287145966452
 31
0.0
  0
LINE
  5
7C6E
330
83C0
100
AcDbEntity
  8
1
100
AcDbLine
 10
4727.419090021525
 20
3427.287145966452
 30
0.0
 11
4727.419090021525
 21
4187.287145966453
 31
0.0
  0
LINE
  5
7C6F
330
83C0
100
AcDbEntity
  8
1
100
AcDbLine
 10
6227.419090021524
 20
3427.287145966452
 30
0.0
 11
6227.419090021524
 21
4187.287145966453
 31
0.0
  0
LINE
  5
7C70
330
83C0
100
AcDbEntity
  8
1
100
AcDbLine
 10
4569.919090021525
 20
3364.287145966452
 30
0.0
 11
4660.119090021525
 21
3364.287145966452
 31
0.0
  0
LINE
  5
7C71
330
83C0
100
AcDbEntity
  8
1
100
AcDbLine
 10
4559.919090021526
 20
3354.287145966453
 30
0.0
 11
4559.919090021526
 21
3224.287145966453
 31
0.0
  0
LINE
  5
7C72
330
83C0
100
AcDbEntity
  8
1
100
AcDbLine
 10
4699.919090021525
 20
3364.287145966452
 30
0.0
 11
4699.919090021523
 21
3214.287145966451
 31
0.0
  0
LINE
  5
7C73
330
83C0
100
AcDbEntity
  8
1
100
AcDbLine
 10
4569.919090021525
 20
3214.287145966452
 30
0.0
 11
4660.119090021525
 21
3214.287145966451
 31
0.0
  0
ARC
  5
7C74
330
83C0
100
AcDbEntity
  8
1
100
AcDbCircle
 10
4569.919090021525
 20
3354.287145966453
 30
0.0
 40
10.0
100
AcDbArc
 50
90.0
 51
180.0
  0
ARC
  5
7C75
330
83C0
100
AcDbEntity
  8
1
100
AcDbCircle
 10
4569.919090021525
 20
3224.287145966453
 30
0.0
 40
10.0
100
AcDbArc
 50
180.0
 51
270.0
  0
LINE
  5
7C76
330
83C0
100
AcDbEntity
  8
1
100
AcDbLine
 10
6254.919090021524
 20
3364.287145966452
 30
0.0
 11
6254.919090021527
 21
3214.287145966451
 31
0.0
  0
LINE
  5
7C77
330
83C0
100
AcDbEntity
  8
1
100
AcDbLine
 10
6407.419090021524
 20
3354.287145966453
 30
0.0
 11
6407.419090021524
 21
3224.287145966453
 31
0.0
  0
LINE
  5
7C78
330
83C0
100
AcDbEntity
  8
1
100
AcDbLine
 10
6397.419090021525
 20
3214.287145966452
 30
0.0
 11
6294.719090021528
 21
3214.287145966451
 31
0.0
  0
ARC
  5
7C79
330
83C0
100
AcDbEntity
  8
1
100
AcDbCircle
 10
6397.419090021525
 20
3224.287145966453
 30
0.0
 40
10.0
100
AcDbArc
 50
270.0
 51
0.0
  0
LINE
  5
7C7A
330
83C0
100
AcDbEntity
  8
1
100
AcDbLine
 10
6397.419090021525
 20
3364.287145966452
 30
0.0
 11
6294.719090021528
 21
3364.287145966452
 31
0.0
  0
ARC
  5
7C7B
330
83C0
100
AcDbEntity
  8
1
100
AcDbCircle
 10
6397.419090021525
 20
3354.287145966453
 30
0.0
 40
10.0
100
AcDbArc
 50
0.0
 51
90.0
  0
LINE
  5
7C7C
330
83C0
100
AcDbEntity
  8
1
100
AcDbLine
 10
4532.419090021526
 20
3467.287145966452
 30
0.0
 11
4727.419090021525
 21
3467.287145966452
 31
0.0
  0
LINE
  5
7C7D
330
83C0
100
AcDbEntity
  8
1
100
AcDbLine
 10
4532.419090021526
 20
3387.287145966454
 30
0.0
 11
4727.419090021527
 21
3387.287145966454
 31
0.0
  0
LINE
  5
7C7E
330
83C0
100
AcDbEntity
  8
1
100
AcDbLine
 10
4532.419090021526
 20
3467.287145966452
 30
0.0
 11
4532.419090021526
 21
3387.287145966454
 31
0.0
  0
LINE
  5
7C7F
330
83C0
100
AcDbEntity
  8
1
100
AcDbLine
 10
4502.919090021526
 20
3459.787145966453
 30
0.0
 11
4532.419090021526
 21
3459.787145966453
 31
0.0
  0
LINE
  5
7C80
330
83C0
100
AcDbEntity
  8
1
100
AcDbLine
 10
4502.919090021525
 20
3394.787145966454
 30
0.0
 11
4532.419090021526
 21
3394.787145966454
 31
0.0
  0
LINE
  5
7C85
330
83C0
100
AcDbEntity
  8
1
100
AcDbLine
 10
6294.719090021525
 20
3364.287145966452
 30
0.0
 11
6254.919090021524
 21
3364.287145966452
 31
0.0
  0
LINE
  5
7C86
330
83C0
100
AcDbEntity
  8
1
100
AcDbLine
 10
6294.719090021527
 20
3214.287145966451
 30
0.0
 11
6254.919090021524
 21
3214.287145966451
 31
0.0
  0
LINE
  5
7C87
330
83C0
100
AcDbEntity
  8
1
100
AcDbLine
 10
4660.119090021525
 20
3364.287145966452
 30
0.0
 11
4699.919090021525
 21
3364.287145966452
 31
0.0
  0
LINE
  5
7C88
330
83C0
100
AcDbEntity
  8
1
100
AcDbLine
 10
4660.119090021525
 20
3214.287145966451
 30
0.0
 11
4699.919090021525
 21
3214.287145966451
 31
0.0
  0
ARC
  5
7C8A
330
83C0
100
AcDbEntity
  8
1
100
AcDbCircle
 10
2263.568569393809
 20
3427.287145966452
 30
0.0
 40
668.0
100
AcDbArc
 50
85.87938678604993
 51
90.0
  0
LINE
  5
7C8B
330
83C0
100
AcDbEntity
  8
1
100
AcDbLine
 10
3773.568569393809
 20
2249.287145966453
 30
0.0
 11
3773.568569393809
 21
2247.287145966452
 31
0.0
  0
LINE
  5
7C8C
330
83C0
100
AcDbEntity
  8
1
100
AcDbLine
 10
6295.419090021525
 20
2542.287145966453
 30
0.0
 11
6295.419090021525
 21
2417.287145966453
 31
0.0
  0
LINE
  5
7C8D
330
83C0
100
AcDbEntity
  8
1
100
AcDbLine
 10
4395.419090021525
 20
2542.287145966453
 30
0.0
 11
4395.419090021525
 21
2417.287145966453
 31
0.0
  0
LINE
  5
7C8E
330
83C0
100
AcDbEntity
  8
1
100
AcDbLine
 10
6295.419090021526
 20
2312.287145966456
 30
0.0
 11
6295.419090021505
 21
2247.287145966452
 31
0.0
  0
INSERT
  5
7C90
330
83C0
100
AcDbEntity
  8
0
100
AcDbBlockReference
  2
YA_N
 10
4305.350442567148
 20
-1988.400780944633
 30
0.0
  0
POINT
  5
7C92
330
83C0
100
AcDbEntity
  8
1
100
AcDbPoint
 10
1603.56856939381
 20
2312.287145966452
 30
0.0
  0
POINT
  5
7C93
330
83C0
100
AcDbEntity
  8
1
100
AcDbPoint
 10
1603.56856939381
 20
2247.287145966452
 30
0.0
  0
POINT
  5
7C94
330
83C0
100
AcDbEntity
  8
1
100
AcDbPoint
 10
1603.56856939381
 20
2312.287145966452
 30
0.0
  0
POINT
  5
7C95
330
83C0
100
AcDbEntity
  8
1
100
AcDbPoint
 10
1603.56856939381
 20
2417.287145966453
 30
0.0
  0
ARC
  5
7C98
330
83C0
100
AcDbEntity
  8
1
100
AcDbCircle
 10
2263.568569393809
 20
3427.287145966452
 30
0.0
 40
380.0
100
AcDbArc
 50
64.22111760467493
 51
257.4717657595268
  0
CIRCLE
  5
7C99
330
83C0
100
AcDbEntity
  8
1
100
AcDbCircle
 10
2263.568569393809
 20
3427.287145966452
 30
0.0
 40
254.0
  0
ARC
  5
7C9A
330
83C0
100
AcDbEntity
  8
1
100
AcDbCircle
 10
3573.56856939381
 20
2802.287145966452
 30
0.0
 40
220.0
100
AcDbArc
 50
257.4717657595268
 51
64.22111760467493
  0
LINE
  5
7C9B
330
83C0
100
AcDbEntity
  8
1
100
AcDbLine
 10
2428.830279746091
 20
3769.469213134561
 30
0.0
 11
3669.246401703025
 21
3000.392553274304
 31
0.0
  0
LINE
  5
7C9C
330
83C0
100
AcDbEntity
  8
1
100
AcDbLine
 10
2370.035298634965
 20
3657.896849935497
 30
0.0
 11
3623.029490852299
 21
2909.42078796782
 31
0.0
  0
LINE
  5
7C9D
330
83C0
100
AcDbEntity
  8
1
100
AcDbLine
 10
2204.163409213426
 20
3180.331629842712
 30
0.0
 11
3545.970896554104
 21
2687.55978020818
 31
0.0
  0
LINE
  5
7C9E
330
83C0
100
AcDbEntity
  8
1
100
AcDbLine
 10
2181.138708245297
 20
3056.335238044365
 30
0.0
 11
3525.846018202566
 21
2587.525515064192
 31
0.0
  0
LINE
  5
7C9F
330
83C0
100
AcDbEntity
  8
1
100
AcDbLine
 10
4392.419090021526
 20
3681.287145966452
 30
0.0
 11
4502.919090021526
 21
3681.287145966452
 31
0.0
  0
LINE
  5
7CA0
330
83C0
100
AcDbEntity
  8
1
100
AcDbLine
 10
4392.419090021526
 20
3173.287145966453
 30
0.0
 11
4502.919090021525
 21
3173.287145966453
 31
0.0
  0
LINE
  5
7CA1
330
83C0
100
AcDbEntity
  8
1
100
AcDbLine
 10
4357.419090021525
 20
3807.287145966454
 30
0.0
 11
4554.719090021525
 21
3807.287145966454
 31
0.0
  0
LINE
  5
7CA2
330
83C0
100
AcDbEntity
  8
1
100
AcDbLine
 10
4554.719090021523
 20
2602.287145966453
 30
0.0
 11
4554.719090021525
 21
2582.287145966453
 31
0.0
  0
LINE
  5
7CA4
330
83C0
100
AcDbEntity
  8
1
100
AcDbLine
 10
1603.56856939381
 20
7649.686236647792
 30
0.0
 11
2923.56856939381
 21
7649.686236647792
 31
0.0
  0
LINE
  5
7CA5
330
83C0
100
AcDbEntity
  8
1
100
AcDbLine
 10
1603.56856939381
 20
5749.68623664779
 30
0.0
 11
3863.568569393811
 21
5749.68623664779
 31
0.0
  0
LINE
  5
7CA6
330
83C0
100
AcDbEntity
  8
1
100
AcDbLine
 10
1603.56856939381
 20
7649.686236647792
 30
0.0
 11
1603.56856939381
 21
7581.68623664779
 31
0.0
  0
LINE
  5
7CA7
330
83C0
100
AcDbEntity
  8
1
100
AcDbLine
 10
3863.568569393811
 20
6649.686236647792
 30
0.0
 11
3863.568569393811
 21
5749.686236647789
 31
0.0
  0
LINE
  5
7CA8
330
83C0
100
AcDbEntity
  8
1
100
AcDbLine
 10
2923.56856939381
 20
7649.686236647792
 30
0.0
 11
2923.56856939381
 21
7581.68623664779
 31
0.0
  0
LINE
  5
7CA9
330
83C0
100
AcDbEntity
  8
1
100
AcDbLine
 10
3461.56856939381
 20
6649.686236647792
 30
0.0
 11
3863.568569393811
 21
6649.686236647792
 31
0.0
  0
LINE
  5
7CAA
330
83C0
100
AcDbEntity
  8
2
100
AcDbLine
 10
3573.56856939381
 20
6517.408813806117
 30
0.0
 11
3573.568569393807
 21
5672.740252742644
 31
0.0
  0
CIRCLE
  5
7CB2
330
83C0
100
AcDbEntity
  8
1
100
AcDbCircle
 10
2263.568569393809
 20
3427.287145966452
 30
0.0
 40
560.0
  0
CIRCLE
  5
7CB3
330
83C0
100
AcDbEntity
  8
1
100
AcDbCircle
 10
2263.568569393809
 20
3427.287145966452
 30
0.0
 40
610.0
  0
LINE
  5
7CB4
330
83C0
100
AcDbEntity
  8
1
100
AcDbLine
 10
1883.56856939381
 20
5711.686236647791
 30
0.0
 11
3793.56856939381
 21
5711.686236647791
 31
0.0
  0
LINE
  5
7CB5
330
83C0
100
AcDbEntity
  8
1
100
AcDbLine
 10
1883.56856939381
 20
5881.686236647791
 30
0.0
 11
3793.56856939381
 21
5881.686236647791
 31
0.0
  0
LINE
  5
7CB6
330
83C0
100
AcDbEntity
  8
1
100
AcDbLine
 10
1883.56856939381
 20
5711.686236647791
 30
0.0
 11
1883.56856939381
 21
5881.686236647791
 31
0.0
  0
LINE
  5
7CB7
330
83C0
100
AcDbEntity
  8
1
100
AcDbLine
 10
3793.56856939381
 20
5711.686236647791
 30
0.0
 11
3793.56856939381
 21
5881.686236647791
 31
0.0
  0
LINE
  5
7CB8
330
83C0
100
AcDbEntity
  8
1
100
AcDbLine
 10
2009.56856939381
 20
5749.38623664779
 30
0.0
 11
2009.56856939381
 21
5859.886236647791
 31
0.0
  0
LINE
  5
7CB9
330
83C0
100
AcDbEntity
  8
1
100
AcDbLine
 10
2517.56856939381
 20
5749.38623664779
 30
0.0
 11
2517.56856939381
 21
5859.886236647791
 31
0.0
  0
LINE
  5
7CBA
330
83C0
100
AcDbEntity
  8
1
100
AcDbLine
 10
3455.56856939381
 20
5749.38623664779
 30
0.0
 11
3455.56856939381
 21
5859.886236647791
 31
0.0
  0
LINE
  5
7CBB
330
83C0
100
AcDbEntity
  8
1
100
AcDbLine
 10
3691.56856939381
 20
5749.38623664779
 30
0.0
 11
3691.56856939381
 21
5859.886236647791
 31
0.0
  0
LINE
  5
7CBC
330
83C0
100
AcDbEntity
  8
1
100
AcDbLine
 10
2009.56856939381
 20
5749.38623664779
 30
0.0
 11
2517.56856939381
 21
5749.38623664779
 31
0.0
  0
LINE
  5
7CBD
330
83C0
100
AcDbEntity
  8
1
100
AcDbLine
 10
2009.56856939381
 20
5859.886236647791
 30
0.0
 11
2517.56856939381
 21
5859.886236647791
 31
0.0
  0
LINE
  5
7CBE
330
83C0
100
AcDbEntity
  8
1
100
AcDbLine
 10
3455.56856939381
 20
5859.886236647791
 30
0.0
 11
3691.56856939381
 21
5859.886236647791
 31
0.0
  0
LINE
  5
7CBF
330
83C0
100
AcDbEntity
  8
1
100
AcDbLine
 10
3455.56856939381
 20
5749.38623664779
 30
0.0
 11
3691.56856939381
 21
5749.38623664779
 31
0.0
  0
LINE
  5
7CC0
330
83C0
100
AcDbEntity
  8
1
100
AcDbLine
 10
1458.56856939381
 20
7581.68623664779
 30
0.0
 11
3461.56856939381
 21
7581.68623664779
 31
0.0
  0
LINE
  5
7CC1
330
83C0
100
AcDbEntity
  8
1
100
AcDbLine
 10
1458.56856939381
 20
6081.686236647789
 30
0.0
 11
3461.56856939381
 21
6081.68623664779
 31
0.0
  0
LINE
  5
7CC2
330
83C0
100
AcDbEntity
  8
1
100
AcDbLine
 10
2228.568569393809
 20
6081.68623664779
 30
0.0
 11
2228.568569393809
 21
5859.886236647791
 31
0.0
  0
LINE
  5
7CC3
330
83C0
100
AcDbEntity
  8
1
100
AcDbLine
 10
2298.568569393809
 20
6081.68623664779
 30
0.0
 11
2298.568569393809
 21
5859.886236647791
 31
0.0
  0
LINE
  5
7CC4
330
83C0
100
AcDbEntity
  8
1
100
AcDbLine
 10
3374.568569393809
 20
6081.686236647792
 30
0.0
 11
3374.568569393808
 21
5894.386236647791
 31
0.0
  0
LINE
  5
7CC5
330
83C0
100
AcDbEntity
  8
1
100
AcDbLine
 10
3772.56856939381
 20
6551.88623664779
 30
0.0
 11
3772.568569393808
 21
5894.38623664779
 31
0.0
  0
LINE
  5
7CC6
330
83C0
100
AcDbEntity
  8
1
100
AcDbLine
 10
3461.56856939381
 20
6551.88623664779
 30
0.0
 11
3772.56856939381
 21
6551.88623664779
 31
0.0
  0
LINE
  5
7CC7
330
83C0
100
AcDbEntity
  8
1
100
AcDbLine
 10
3374.568569393806
 20
5894.386236647791
 30
0.0
 11
3772.568569393806
 21
5894.38623664779
 31
0.0
  0
LINE
  5
7CC8
330
83C0
100
AcDbEntity
  8
1
100
AcDbLine
 10
3546.068569393808
 20
5894.38623664779
 30
0.0
 11
3546.068569393808
 21
5859.886236647791
 31
0.0
  0
LINE
  5
7CC9
330
83C0
100
AcDbEntity
  8
1
100
AcDbLine
 10
3601.068569393808
 20
5894.38623664779
 30
0.0
 11
3601.068569393808
 21
5859.886236647791
 31
0.0
  0
LINE
  5
7CCA
330
83C0
100
AcDbEntity
  8
1
100
AcDbLine
 10
5194.919090021525
 20
3001.287145966454
 30
0.0
 11
4537.419090021522
 21
3001.287145966454
 31
0.0
  0
LINE
  5
7CCB
330
83C0
100
AcDbEntity
  8
1
100
AcDbLine
 10
5194.919090021528
 20
2603.287145966453
 30
0.0
 11
4537.419090021526
 21
2603.287145966453
 31
0.0
  0
LINE
  5
7CCC
330
83C0
100
AcDbEntity
  8
1
100
AcDbLine
 10
4537.419090021526
 20
2603.287145966453
 30
0.0
 11
4537.419090021525
 21
3001.287145966452
 31
0.0
  0
LINE
  5
7CCD
330
83C0
100
AcDbEntity
  8
1
100
AcDbLine
 10
4537.419090021525
 20
2774.787145966453
 30
0.0
 11
4502.919090021525
 21
2774.787145966453
 31
0.0
  0
LINE
  5
7CCE
330
83C0
100
AcDbEntity
  8
1
100
AcDbLine
 10
4537.419090021525
 20
2829.787145966454
 30
0.0
 11
4502.919090021525
 21
2829.787145966454
 31
0.0
  0
LINE
  5
7CD5
330
83C0
100
AcDbEntity
  8
1
100
AcDbLine
 10
1603.56856939381
 20
6081.68623664779
 30
0.0
 11
1603.56856939381
 21
5749.68623664779
 31
0.0
  0
LINE
  5
7CDD
330
83C0
100
AcDbEntity
  8
1
100
AcDbLine
 10
4677.419090021525
 20
4187.287145966453
 30
0.0
 11
6277.419090021528
 21
4187.287145966453
 31
0.0
  0
LINE
  5
7CDE
330
83C0
100
AcDbEntity
  8
1
100
AcDbLine
 10
4677.419090021525
 20
4183.287145966453
 30
0.0
 11
6277.419090021528
 21
4183.287145966453
 31
0.0
  0
LINE
  5
7CDF
330
83C0
100
AcDbEntity
  8
1
100
AcDbLine
 10
4677.419090021525
 20
4183.287145966453
 30
0.0
 11
4677.419090021525
 21
4187.287145966453
 31
0.0
  0
LINE
  5
7CE0
330
83C0
100
AcDbEntity
  8
1
100
AcDbLine
 10
6277.419090021528
 20
4183.287145966453
 30
0.0
 11
6277.419090021524
 21
4187.287145966453
 31
0.0
  0
LINE
  5
7CE1
330
83C0
100
AcDbEntity
  8
1
100
AcDbLine
 10
3461.56856939381
 20
7581.68623664779
 30
0.0
 11
3461.56856939381
 21
6081.68623664779
 31
0.0
  0
LINE
  5
7CE2
330
83C0
100
AcDbEntity
  8
1
100
AcDbLine
 10
1458.56856939381
 20
7581.68623664779
 30
0.0
 11
1458.56856939381
 21
6081.686236647789
 31
0.0
  0
LINE
  5
7CE3
330
83C0
100
AcDbEntity
  8
1
100
AcDbLine
 10
2311.568569393809
 20
7581.68623664779
 30
0.0
 11
2311.568569393809
 21
6081.68623664779
 31
0.0
  0
LINE
  5
7CE4
330
83C0
100
AcDbEntity
  8
1
100
AcDbLine
 10
2311.568569393809
 20
7581.68623664779
 30
0.0
 11
3461.56856939381
 21
6081.68623664779
 31
0.0
  0
LINE
  5
7CE5
330
83C0
100
AcDbEntity
  8
1
100
AcDbLine
 10
3461.56856939381
 20
7581.68623664779
 30
0.0
 11
2311.568569393809
 21
6081.68623664779
 31
0.0
  0
LINE
  5
7CE6
330
83C0
100
AcDbEntity
  8
1
100
AcDbLine
 10
5194.919090021526
 20
2603.287145966453
 30
0.0
 11
5194.919090021525
 21
3001.287145966455
 31
0.0
  0
LINE
  5
7CE7
330
83C0
100
AcDbEntity
  8
1
100
AcDbLine
 10
4727.419090021527
 20
3001.287145966454
 30
0.0
 11
4727.419090021527
 21
3427.287145966452
 31
0.0
  0
LINE
  5
7CE8
330
83C0
100
AcDbEntity
  8
1
100
AcDbLine
 10
5080.947678353766
 20
2603.287145966453
 30
0.0
 11
5080.947678353766
 21
2542.287145966453
 31
0.0
  0
LINE
  5
7CE9
330
83C0
100
AcDbEntity
  8
1
100
AcDbLine
 10
4605.783620309096
 20
2603.287145966453
 30
0.0
 11
4605.783620309096
 21
2542.287145966453
 31
0.0
  0
LINE
  5
7F14
330
83C0
100
AcDbEntity
  8
4
100
AcDbLine
 10
6475.0
 20
1750.0
 30
0.0
 11
6475.0
 21
1050.0
 31
0.0
  0
LINE
  5
7F15
330
83C0
100
AcDbEntity
  8
4
100
AcDbLine
 10
4025.0
 20
1750.0
 30
0.0
 11
4025.0
 21
1050.0
 31
0.0
  0
LINE
  5
7F16
330
83C0
100
AcDbEntity
  8
4
100
AcDbLine
 10
2275.0
 20
1750.0
 30
0.0
 11
2275.0
 21
1050.0
 31
0.0
  0
LINE
  5
7F19
330
83C0
100
AcDbEntity
  8
4
100
AcDbLine
 10
2275.0
 20
1050.0
 30
0.0
 11
6475.0
 21
1050.0
 31
0.0
  0
LINE
  5
7F1A
330
83C0
100
AcDbEntity
  8
4
100
AcDbLine
 10
2275.0
 20
1400.0
 30
0.0
 11
6475.0
 21
1400.0
 31
0.0
  0
TEXT
  5
7F1B
330
83C0
100
AcDbEntity
  8
4
100
AcDbText
 10
2409.757282964156
 20
1510.400590533145
 30
0.0
 40
175.0
  1
機器名称
100
AcDbText
  0
TEXT
  5
7F1C
330
83C0
100
AcDbEntity
  8
4
100
AcDbText
 10
2401.903371086791
 20
1125.758048562038
 30
0.0
 40
175.0
  1
機器型番
100
AcDbText
  0
TEXT
  5
7F1D
330
83C0
100
AcDbEntity
  8
4
100
AcDbText
 10
4121.875609206827
 20
1479.00119135149
 30
0.0
 40
175.0
  1
ミツヤ多翼送風機
100
AcDbText
  0
TEXT
  5
7F1E
330
83C0
100
AcDbEntity
  8
4
100
AcDbText
 10
4153.290734549183
 20
1110.058544979801
 30
0.0
 40
175.0
  1
MF#7-5
100
AcDbText
  0
TEXT
  5
7F20
330
83C0
100
AcDbEntity
  8
4
100
AcDbText
 10
2704.711910906815
 20
8342.000944663805
 30
0.0
 40
188.9999999999998
  1
床置防振ベット
100
AcDbText
  0
TEXT
  5
7F21
330
83C0
100
AcDbEntity
  8
4
100
AcDbText
 10
1106.586576653062
 20
8868.583416697545
 30
0.0
 40
252.0
  1
遠心式両吸込両持多翼ファン
100
AcDbText
  0
LINE
  5
7F22
330
83C0
100
AcDbEntity
  8
4
100
AcDbLine
 10
875.0
 20
8642.930639926817
 30
0.0
 11
6475.0
 21
8642.930639926817
 31
0.0
  0
LINE
  5
7F23
330
83C0
100
AcDbEntity
  8
4
100
AcDbLine
 10
875.0
 20
9342.930639926818
 30
0.0
 11
6475.0
 21
9342.930639926818
 31
0.0
  0
LINE
  5
7F24
330
83C0
100
AcDbEntity
  8
4
100
AcDbLine
 10
2275.0
 20
1750.0
 30
0.0
 11
6475.0
 21
1750.0
 31
0.0
  0
LINE
  5
7F25
330
83C0
100
AcDbEntity
  8
4
100
AcDbLine
 10
875.0
 20
9342.930639926818
 30
0.0
 11
875.0
 21
8642.930639926817
 31
0.0
  0
TEXT
  5
7F26
330
83C0
100
AcDbEntity
  8
4
100
AcDbText
 10
1179.205998057357
 20
8338.118171412203
 30
0.0
 40
188.9999999999998
  1
左回転上向
100
AcDbText
  0
TEXT
  5
7F27
330
83C0
100
AcDbEntity
  8
4
100
AcDbText
 10
5141.393457372513
 20
9471.21378523358
 30
0.0
 40
196.0
  1
No.
100
AcDbText
  0
TEXT
  5
7F28
330
83C0
100
AcDbEntity
  8
4
100
AcDbText
 10
4589.536219100046
 20
8342.000944663805
 30
0.0
 40
188.9999999999998
  1
縮尺：1/35
100
AcDbText
  0
LINE
  5
7F29
330
83C0
100
AcDbEntity
  8
4
100
AcDbLine
 10
6475.0
 20
9342.930639926818
 30
0.0
 11
6475.0
 21
8642.930639926817
 31
0.0
  0
LINE
  5
7F2A
330
83C0
100
AcDbEntity
  8
4
100
AcDbLine
 10
7350.0
 20
10325.0
 30
0.0
 11
7350.0
 21
10325.0
 31
0.0
  0
LINE
  5
7F2B
330
83C0
100
AcDbEntity
  8
4
100
AcDbLine
 10
5042.160978259526
 20
9384.422540938905
 30
0.0
 11
5042.160978259526
 21
9753.282915424136
 31
0.0
  0
LINE
  5
7F2C
330
83C0
100
AcDbEntity
  8
4
100
AcDbLine
 10
5042.160978259526
 20
9753.282915424136
 30
0.0
 11
6475.0
 21
9753.282915424136
 31
0.0
  0
LINE
  5
7F2D
330
83C0
100
AcDbEntity
  8
4
100
AcDbLine
 10
6475.0
 20
9753.282915424136
 30
0.0
 11
6475.0
 21
9384.422540938905
 31
0.0
  0
LINE
  5
7F2E
330
83C0
100
AcDbEntity
  8
4
100
AcDbLine
 10
6475.0
 20
9384.422540938905
 30
0.0
 11
5042.160978259526
 21
9384.422540938905
 31
0.0
  0
LINE
  5
7F2F
330
83C0
100
AcDbEntity
  8
4
100
AcDbLine
 10
0.0
 20
0.0
 30
0.0
 11
0.0
 21
10325.0
 31
0.0
  0
LINE
  5
7F30
330
83C0
100
AcDbEntity
  8
4
100
AcDbLine
 10
0.0
 20
10325.0
 30
0.0
 11
7350.0
 21
10325.0
 31
0.0
  0
LINE
  5
7F31
330
83C0
100
AcDbEntity
  8
4
100
AcDbLine
 10
7350.0
 20
10325.0
 30
0.0
 11
7350.0
 21
0.0
 31
0.0
  0
LINE
  5
7F32
330
83C0
100
AcDbEntity
  8
4
100
AcDbLine
 10
7350.0
 20
0.0
 30
0.0
 11
0.0
 21
0.0
 31
0.0
  0
DIMENSION
  5
847E
330
83C0
100
AcDbEntity
  8
3
100
AcDbDimension
  2
*D37
 10
5477.419090021525
 20
2027.342426966486
 30
0.0
 11
4936.419090021519
 21
2114.842426966486
 31
0.0
 70
    32
 71
     5
 42
1082.000000000012
  3
IGA
100
AcDbAlignedDimension
 13
4395.419090021514
 23
2247.287145966452
 33
0.0
 14
5477.419090021525
 24
2247.287145966452
 34
0.0
100
AcDbRotatedDimension
1001
ACAD
1000
DSTYLE
1002
{
1070
    40
1040
35.0
1070
   143
1040
0.039
1070
   172
1070
     1
1070
   271
1070
     4
1070
   272
1070
     4
1070
   279
1070
     0
1070
   284
1070
     0
1070
   285
1070
     0
1070
   286
1070
     0
1070
   341
1005
83D3
1070
   343
1005
83D3
1070
   344
1005
83D3
1002
}
  0
DIMENSION
  5
848B
330
83C0
100
AcDbEntity
  8
3
100
AcDbDimension
  2
*D38
 10
6295.419090021505
 20
2027.342426966486
 30
0.0
 11
5886.419090021515
 21
2114.842426966486
 31
0.0
 70
    32
 71
     5
 42
817.99999999998
  3
IGA
100
AcDbAlignedDimension
 13
5477.419090021525
 23
2247.287145966452
 33
0.0
 14
6295.419090021505
 24
2247.287145966452
 34
0.0
100
AcDbRotatedDimension
1001
ACAD
1000
DSTYLE
1002
{
1070
    40
1040
35.0
1070
   143
1040
0.039
1070
   172
1070
     1
1070
   271
1070
     4
1070
   272
1070
     4
1070
   279
1070
     1
1070
   284
1070
     0
1070
   285
1070
     0
1070
   286
1070
     0
1070
   341
1005
83D3
1070
   343
1005
83D3
1070
   344
1005
83D3
1002
}
  0
DIMENSION
  5
849C
330
83C0
100
AcDbEntity
  8
3
100
AcDbDimension
  2
*D39
 10
6700.245105552124
 20
2867.287145966452
 30
0.0
 11
6612.745105552122
 21
3427.287145966453
 31
0.0
 70
    32
  1
\U+03C6<>
 71
     5
 42
1120.0
  3
IGA
100
AcDbAlignedDimension
 13
6227.419090021524
 23
3987.287145966453
 33
0.0
 14
6227.419090021525
 24
2867.287145966452
 34
0.0
 50
90.0
100
AcDbRotatedDimension
1001
ACAD
1000
DSTYLE
1002
{
1070
    40
1040
35.0
1070
   143
1040
0.039
1070
   172
1070
     1
1070
   271
1070
     4
1070
   272
1070
     4
1070
   279
1070
     0
1070
   284
1070
     0
1070
   285
1070
     0
1070
   286
1070
     0
1070
   341
1005
83D3
1070
   343
1005
83D3
1070
   344
1005
83D3
1002
}
  0
DIMENSION
  5
84A9
330
83C0
100
AcDbEntity
  8
3
100
AcDbDimension
  2
*D40
 10
6227.419090021524
 20
4447.405437488114
 30
0.0
 11
5477.419090021525
 21
4534.905437488113
 31
0.0
 70
    32
 71
     5
 42
1499.999999999999
  3
IGA
100
AcDbAlignedDimension
 13
4727.419090021525
 23
4187.287145966453
 33
0.0
 14
6227.419090021524
 24
4187.287145966453
 34
0.0
100
AcDbRotatedDimension
1001
ACAD
1000
DSTYLE
1002
{
1070
    40
1040
35.0
1070
   143
1040
0.039
1070
   172
1070
     1
1070
   271
1070
     4
1070
   272
1070
     4
1070
   279
1070
     0
1070
   284
1070
     0
1070
   285
1070
     0
1070
   286
1070
     0
1070
   341
1005
83D3
1070
   343
1005
83D3
1070
   344
1005
83D3
1002
}
  0
DIMENSION
  5
84B6
330
83C0
100
AcDbEntity
  8
3
100
AcDbDimension
  2
*D41
 10
5477.419090021525
 20
4683.142332365934
 30
0.0
 11
4917.419090021525
 21
4798.142332365933
 31
0.0
 70
    32
  1
(<>)
 71
     5
 42
1120.0
  3
IGA
100
AcDbAlignedDimension
 13
4357.419090021525
 23
3807.287145966454
 33
0.0
 14
5477.419090021525
 24
4596.717387677279
 34
0.0
100
AcDbRotatedDimension
1001
ACAD
1000
DSTYLE
1002
{
1070
    40
1040
35.0
1070
   143
1040
0.039
1070
   172
1070
     1
1070
   271
1070
     4
1070
   272
1070
     4
1070
   279
1070
     0
1070
   284
1070
     0
1070
   285
1070
     0
1070
   286
1070
     0
1070
   341
1005
83D3
1070
   343
1005
83D3
1070
   344
1005
83D3
1002
}
  0
DIMENSION
  5
84C3
330
83C0
100
AcDbEntity
  8
3
100
AcDbDimension
  2
*D42
 10
6407.419090021524
 20
4683.142332365934
 30
0.0
 11
5942.419090021525
 21
4798.142332365933
 31
0.0
 70
    32
  1
(<>)
 71
     5
 42
929.9999999999991
  3
IGA
100
AcDbAlignedDimension
 13
5477.419090021525
 23
4596.717387677279
 33
0.0
 14
6407.419090021524
 24
3354.287145966453
 34
0.0
100
AcDbRotatedDimension
1001
ACAD
1000
DSTYLE
1002
{
1070
    40
1040
35.0
1070
   143
1040
0.039
1070
   172
1070
     1
1070
   271
1070
     4
1070
   272
1070
     4
1070
   279
1070
     1
1070
   284
1070
     0
1070
   285
1070
     0
1070
   286
1070
     0
1070
   341
1005
83D3
1070
   343
1005
83D3
1070
   344
1005
83D3
1002
}
  0
DIMENSION
  5
852D
330
83C0
100
AcDbEntity
  8
3
100
AcDbDimension
  2
*D43
 10
3863.568569393811
 20
5458.441044553842
 30
0.0
 11
2733.56856939381
 21
5545.941044553842
 31
0.0
 70
    32
 71
     5
 42
2260.0
  3
IGA
100
AcDbAlignedDimension
 13
1603.56856939381
 23
5749.68623664779
 33
0.0
 14
3863.568569393811
 24
5749.68623664779
 34
0.0
100
AcDbRotatedDimension
1001
ACAD
1000
DSTYLE
1002
{
1070
    40
1040
35.0
1070
   143
1040
0.039
1070
   172
1070
     1
1070
   271
1070
     4
1070
   272
1070
     4
1070
   279
1070
     0
1070
   284
1070
     0
1070
   285
1070
     0
1070
   286
1070
     0
1070
   341
1005
83D3
1070
   343
1005
83D3
1070
   344
1005
83D3
1002
}
  0
DIMENSION
  5
853A
330
83C0
100
AcDbEntity
  8
3
100
AcDbDimension
  2
*D44
 10
4264.198978687672
 20
6649.686236647792
 30
0.0
 11
4176.698978687671
 21
6199.686236647792
 31
0.0
 70
    32
 71
     5
 42
900.0000000000008
  3
IGA
100
AcDbAlignedDimension
 13
3863.568569393811
 23
5749.68623664779
 33
0.0
 14
3863.568569393811
 24
6649.686236647792
 34
0.0
 50
90.0
100
AcDbRotatedDimension
1001
ACAD
1000
DSTYLE
1002
{
1070
    40
1040
35.0
1070
   143
1040
0.039
1070
   172
1070
     1
1070
   271
1070
     4
1070
   272
1070
     4
1070
   279
1070
     0
1070
   284
1070
     0
1070
   285
1070
     0
1070
   286
1070
     0
1070
   341
1005
83D3
1070
   343
1005
83D3
1070
   344
1005
83D3
1002
}
  0
DIMENSION
  5
8547
330
83C0
100
AcDbEntity
  8
3
100
AcDbDimension
  2
*D45
 10
2923.56856939381
 20
7823.69359711891
 30
0.0
 11
2263.56856939381
 21
7911.193597118909
 31
0.0
 70
    32
 71
     5
 42
1319.999999999999
  3
IGA
100
AcDbAlignedDimension
 13
1603.56856939381
 23
7649.686236647792
 33
0.0
 14
2923.56856939381
 24
7649.686236647792
 34
0.0
100
AcDbRotatedDimension
1001
ACAD
1000
DSTYLE
1002
{
1070
    40
1040
35.0
1070
   143
1040
0.039
1070
   172
1070
     1
1070
   271
1070
     4
1070
   272
1070
     4
1070
   279
1070
     0
1070
   284
1070
     0
1070
   285
1070
     0
1070
   286
1070
     0
1070
   341
1005
83D3
1070
   343
1005
83D3
1070
   344
1005
83D3
1002
}
  0
DIMENSION
  5
8554
330
83C0
100
AcDbEntity
  8
3
100
AcDbDimension
  2
*D46
 10
3863.568569393811
 20
7823.69359711891
 30
0.0
 11
3393.56856939381
 21
7911.193597118909
 31
0.0
 70
    32
 71
     5
 42
940.0000000000009
  3
IGA
100
AcDbAlignedDimension
 13
2923.56856939381
 23
7649.686236647792
 33
0.0
 14
3863.568569393811
 24
6649.686236647792
 34
0.0
100
AcDbRotatedDimension
1001
ACAD
1000
DSTYLE
1002
{
1070
    40
1040
35.0
1070
   143
1040
0.039
1070
   172
1070
     1
1070
   271
1070
     4
1070
   272
1070
     4
1070
   279
1070
     1
1070
   284
1070
     0
1070
   285
1070
     0
1070
   286
1070
     0
1070
   341
1005
83D3
1070
   343
1005
83D3
1070
   344
1005
83D3
1002
}
  0
DIMENSION
  5
8561
330
83C0
100
AcDbEntity
  8
3
100
AcDbDimension
  2
*D47
 10
1204.796314422758
 20
5749.68623664779
 30
0.0
 11
1117.296314422757
 21
6699.686236647791
 31
0.0
 70
    32
 71
     5
 42
1900.0
  3
IGA
100
AcDbAlignedDimension
 13
1603.56856939381
 23
7649.686236647792
 33
0.0
 14
1603.56856939381
 24
5749.68623664779
 34
0.0
 50
90.0
100
AcDbRotatedDimension
1001
ACAD
1000
DSTYLE
1002
{
1070
    40
1040
35.0
1070
   143
1040
0.039
1070
   172
1070
     1
1070
   271
1070
     4
1070
   272
1070
     4
1070
   279
1070
     0
1070
   284
1070
     0
1070
   285
1070
     0
1070
   286
1070
     0
1070
   341
1005
83D3
1070
   343
1005
83D3
1070
   344
1005
83D3
1002
}
  0
DIMENSION
  5
856E
330
83C0
100
AcDbEntity
  8
3
100
AcDbDimension
  2
*D48
 10
2263.568569393809
 20
2027.342426966486
 30
0.0
 11
1933.568569393809
 21
2114.842426966486
 31
0.0
 70
    32
 71
     5
 42
659.9999999999988
  3
IGA
100
AcDbAlignedDimension
 13
1603.56856939381
 23
2247.287145966452
 33
0.0
 14
2263.568569393809
 24
2247.287145966452
 34
0.0
100
AcDbRotatedDimension
1001
ACAD
1000
DSTYLE
1002
{
1070
    40
1040
35.0
1070
   143
1040
0.039
1070
   172
1070
     1
1070
   271
1070
     4
1070
   272
1070
     4
1070
   279
1070
     0
1070
   284
1070
     0
1070
   285
1070
     0
1070
   286
1070
     0
1070
   341
1005
83D3
1070
   343
1005
83D3
1070
   344
1005
83D3
1002
}
  0
DIMENSION
  5
857B
330
83C0
100
AcDbEntity
  8
3
100
AcDbDimension
  2
*D49
 10
3863.568569393809
 20
2027.342426966486
 30
0.0
 11
3063.568569393809
 21
2114.842426966486
 31
0.0
 70
    32
 71
     5
 42
1600.0
  3
IGA
100
AcDbAlignedDimension
 13
2263.568569393809
 23
2247.287145966452
 33
0.0
 14
3863.568569393809
 24
2247.287145966452
 34
0.0
100
AcDbRotatedDimension
1001
ACAD
1000
DSTYLE
1002
{
1070
    40
1040
35.0
1070
   143
1040
0.039
1070
   172
1070
     1
1070
   271
1070
     4
1070
   272
1070
     4
1070
   279
1070
     1
1070
   284
1070
     0
1070
   285
1070
     0
1070
   286
1070
     0
1070
   341
1005
83D3
1070
   343
1005
83D3
1070
   344
1005
83D3
1002
}
  0
DIMENSION
  5
8588
330
83C0
100
AcDbEntity
  8
3
100
AcDbDimension
  2
*D50
 10
3461.56856939381
 20
4387.395462250719
 30
0.0
 11
2886.568569393809
 21
4474.895462250719
 31
0.0
 70
    32
 71
     5
 42
1150.0
  3
IGA
100
AcDbAlignedDimension
 13
2311.568569393809
 23
4187.287145966453
 33
0.0
 14
3461.56856939381
 24
4187.287145966453
 34
0.0
100
AcDbRotatedDimension
1001
ACAD
1000
DSTYLE
1002
{
1070
    40
1040
35.0
1070
   143
1040
0.039
1070
   172
1070
     1
1070
   271
1070
     4
1070
   272
1070
     4
1070
   279
1070
     0
1070
   284
1070
     0
1070
   285
1070
     0
1070
   286
1070
     0
1070
   341
1005
83D3
1070
   343
1005
83D3
1070
   344
1005
83D3
1002
}
  0
DIMENSION
  5
8595
330
83C0
100
AcDbEntity
  8
3
100
AcDbDimension
  2
*D51
 10
2263.568569393809
 20
4587.547113112221
 30
0.0
 11
2862.56856939381
 21
4675.047113112221
 31
0.0
 70
    32
 71
     5
 42
1198.0
  3
IGA
100
AcDbAlignedDimension
 13
3461.56856939381
 23
4187.287145966453
 33
0.0
 14
2263.568569393809
 24
4255.179405696565
 34
0.0
100
AcDbRotatedDimension
1001
ACAD
1000
DSTYLE
1002
{
1070
    40
1040
35.0
1070
   143
1040
0.039
1070
   172
1070
     1
1070
   271
1070
     4
1070
   272
1070
     4
1070
   279
1070
     0
1070
   284
1070
     0
1070
   285
1070
     0
1070
   286
1070
     0
1070
   341
1005
83D3
1070
   343
1005
83D3
1070
   344
1005
83D3
1002
}
  0
DIMENSION
  5
85A2
330
83C0
100
AcDbEntity
  8
3
100
AcDbDimension
  2
*D52
 10
1458.568569393809
 20
4587.547113112221
 30
0.0
 11
1861.068569393809
 21
4675.047113112221
 31
0.0
 70
    32
 71
     5
 42
805.0
  3
IGA
100
AcDbAlignedDimension
 13
2263.568569393809
 23
4255.179405696565
 33
0.0
 14
1458.568569393809
 24
3345.287145966454
 34
0.0
100
AcDbRotatedDimension
1001
ACAD
1000
DSTYLE
1002
{
1070
    40
1040
35.0
1070
   143
1040
0.039
1070
   172
1070
     1
1070
   271
1070
     4
1070
   272
1070
     4
1070
   279
1070
     1
1070
   284
1070
     0
1070
   285
1070
     0
1070
   286
1070
     0
1070
   341
1005
83D3
1070
   343
1005
83D3
1070
   344
1005
83D3
1002
}
  0
DIMENSION
  5
85AF
330
83C0
100
AcDbEntity
  8
3
100
AcDbDimension
  2
*D53
 10
3863.568569393809
 20
4819.488514716802
 30
0.0
 11
2661.06856939381
 21
4906.988514716801
 31
0.0
 70
    32
 71
     5
 42
2405.0
  3
IGA
100
AcDbAlignedDimension
 13
1458.568569393809
 23
3345.287145966454
 33
0.0
 14
3863.568569393809
 24
2542.287145966453
 34
0.0
100
AcDbRotatedDimension
1001
ACAD
1000
DSTYLE
1002
{
1070
    40
1040
35.0
1070
   143
1040
0.039
1070
   172
1070
     1
1070
   271
1070
     4
1070
   272
1070
     4
1070
   279
1070
     0
1070
   284
1070
     0
1070
   285
1070
     0
1070
   286
1070
     0
1070
   341
1005
83D3
1070
   343
1005
83D3
1070
   344
1005
83D3
1002
}
  0
DIMENSION
  5
85BC
330
83C0
100
AcDbEntity
  8
3
100
AcDbDimension
  2
*D54
 10
1192.58168657474
 20
3427.287145966452
 30
0.0
 11
1105.081686574739
 21
3807.287145966454
 31
0.0
 70
    32
 71
     5
 42
760.0000000000013
  3
IGA
100
AcDbAlignedDimension
 13
2258.56856939381
 23
4187.287145966453
 33
0.0
 14
1356.787917940833
 24
3427.287145966452
 34
0.0
 50
90.0
100
AcDbRotatedDimension
1001
ACAD
1000
DSTYLE
1002
{
1070
    40
1040
35.0
1070
   143
1040
0.039
1070
   172
1070
     1
1070
   271
1070
     4
1070
   272
1070
     4
1070
   279
1070
     0
1070
   284
1070
     0
1070
   285
1070
     0
1070
   286
1070
     0
1070
   341
1005
83D3
1070
   343
1005
83D3
1070
   344
1005
83D3
1002
}
  0
DIMENSION
  5
85C9
330
83C0
100
AcDbEntity
  8
3
100
AcDbDimension
  2
*D55
 10
1192.581686574739
 20
2417.287145966453
 30
0.0
 11
1105.081686574739
 21
2922.287145966453
 31
0.0
 70
    32
 71
     5
 42
1009.999999999999
  3
IGA
100
AcDbAlignedDimension
 13
1356.787917940833
 23
3427.287145966452
 33
0.0
 14
1603.56856939381
 24
2417.287145966453
 34
0.0
 50
90.0
100
AcDbRotatedDimension
1001
ACAD
1000
DSTYLE
1002
{
1070
    40
1040
35.0
1070
   143
1040
0.039
1070
   172
1070
     1
1070
   271
1070
     4
1070
   272
1070
     4
1070
   279
1070
     1
1070
   284
1070
     0
1070
   285
1070
     0
1070
   286
1070
     0
1070
   341
1005
83D3
1070
   343
1005
83D3
1070
   344
1005
83D3
1002
}
  0
DIMENSION
  5
85D6
330
83C0
100
AcDbEntity
  8
3
100
AcDbDimension
  2
*D56
 10
1192.581686574739
 20
2312.287145966452
 30
0.0
 11
910.0816865747393
 21
2450.037145966453
 31
0.0
 70
    32
  1
(<>)
 71
     5
 42
105.0000000000009
  3
IGA
100
AcDbAlignedDimension
 13
1603.56856939381
 23
2417.287145966453
 33
0.0
 14
1603.56856939381
 24
2312.287145966452
 34
0.0
 50
90.0
100
AcDbRotatedDimension
1001
ACAD
1000
DSTYLE
1002
{
1070
    40
1040
35.0
1070
   143
1040
0.039
1070
   172
1070
     1
1070
   271
1070
     4
1070
   272
1070
     4
1070
   279
1070
     1
1070
   284
1070
     0
1070
   285
1070
     0
1070
   286
1070
     0
1070
   341
1005
83D3
1070
   343
1005
83D3
1070
   344
1005
86AA
1002
}
  0
DIMENSION
  5
85E8
330
83C0
100
AcDbEntity
  8
3
100
AcDbDimension
  2
*D57
 10
1192.581686574739
 20
2247.287145966452
 30
0.0
 11
1192.581686574739
 21
2107.287145966452
 31
0.0
 70
   160
 71
     5
 42
65.0
  3
IGA
100
AcDbAlignedDimension
 13
1603.56856939381
 23
2312.287145966452
 33
0.0
 14
1603.56856939381
 24
2247.287145966452
 34
0.0
 50
90.0
100
AcDbRotatedDimension
1001
ACAD
1000
DSTYLE
1002
{
1070
    40
1040
35.0
1070
   143
1040
0.039
1070
   172
1070
     1
1070
   271
1070
     4
1070
   272
1070
     4
1070
   279
1070
     1
1070
   284
1070
     0
1070
   285
1070
     0
1070
   286
1070
     0
1070
   341
1005
83D3
1070
   343
1005
86AA
1070
   344
1005
83D3
1002
}
  0
DIMENSION
  5
85FA
330
83C0
100
AcDbEntity
  8
3
100
AcDbDimension
  2
*D58
 10
803.4339583367037
 20
4187.287145966453
 30
0.0
 11
688.433958336703
 21
3217.287145966453
 31
0.0
 70
    32
  1
(<>)
 71
     5
 42
1940.000000000001
  3
IGA
100
AcDbAlignedDimension
 13
1603.56856939381
 23
2247.287145966452
 33
0.0
 14
2258.56856939381
 24
4187.287145966453
 34
0.0
 50
90.0
100
AcDbRotatedDimension
1001
ACAD
1000
DSTYLE
1002
{
1070
    40
1040
35.0
1070
   143
1040
0.039
1070
   172
1070
     1
1070
   271
1070
     4
1070
   272
1070
     4
1070
   279
1070
     0
1070
   284
1070
     0
1070
   285
1070
     0
1070
   286
1070
     0
1070
   341
1005
83D3
1070
   343
1005
83D3
1070
   344
1005
83D3
1002
}
  0
ENDSEC
  0
SECTION
  2
OBJECTS
  0
DICTIONARY
  5
835D
330
0
100
AcDbDictionary
281
     1
  3
ACAD_CIP_PREVIOUS_PRODUCT_INFO
350
8407
  3
ACAD_COLOR
350
83B3
  3
ACAD_DETAILVIEWSTYLE
350
83BA
  3
ACAD_GROUP
350
835E
  3
ACAD_LAYOUT
350
83B2
  3
ACAD_MATERIAL
350
8361
  3
ACAD_MLEADERSTYLE
350
83B6
  3
ACAD_MLINESTYLE
350
83AF
  3
ACAD_PLOTSETTINGS
350
83B1
  3
ACAD_PLOTSTYLENAME
350
835F
  3
ACAD_SCALELIST
350
8393
  3
ACAD_SECTIONVIEWSTYLE
350
83B8
  3
ACAD_TABLESTYLE
350
83B4
  3
ACAD_VISUALSTYLE
350
837A
  3
ACDB_RECOMPOSE_DATA
350
876D
  3
AcDbVariableDictionary
350
871F
  3
DWGPROPS
350
876E
  0
DICTIONARY
  5
8715
330
83A5
100
AcDbDictionary
280
     1
281
     1
  3
ADSK_XREC_LAYER_RECONCILED
360
8716
  0
DICTIONARY
  5
8717
330
83C4
100
AcDbDictionary
280
     1
281
     1
  3
ADSK_XREC_LAYER_RECONCILED
360
8718
  0
DICTIONARY
  5
8719
330
83C7
100
AcDbDictionary
280
     1
281
     1
  3
ADSK_XREC_LAYER_RECONCILED
360
871A
  0
DICTIONARY
  5
871B
330
83C8
100
AcDbDictionary
280
     1
281
     1
  3
ADSK_XREC_LAYER_RECONCILED
360
871C
  0
DICTIONARY
  5
871D
330
83C9
100
AcDbDictionary
280
     1
281
     1
  3
ADSK_XREC_LAYER_RECONCILED
360
871E
  0
DICTIONARY
  5
8499
330
83C0
100
AcDbDictionary
280
     1
281
     1
  3
ACAD_SORTENTS
360
849A
  0
XRECORD
  5
8407
102
{ACAD_REACTORS
330
835D
102
}
330
835D
100
AcDbXrecord
280
     1
300
ACDLT
300
2015
300
INVLTS_F_S
  0
DICTIONARY
  5
83B3
102
{ACAD_REACTORS
330
835D
102
}
330
835D
100
AcDbDictionary
281
     1
  0
DICTIONARY
  5
83BA
102
{ACAD_REACTORS
330
835D
102
}
330
835D
100
AcDbDictionary
281
     1
  3
Imperial24
350
83BB
  0
DICTIONARY
  5
835E
102
{ACAD_REACTORS
330
835D
102
}
330
835D
100
AcDbDictionary
281
     1
  0
DICTIONARY
  5
83B2
102
{ACAD_REACTORS
330
835D
102
}
330
835D
100
AcDbDictionary
281
     1
  3
Model
350
83C3
  3
レイアウト1
350
83BF
  0
DICTIONARY
  5
8361
102
{ACAD_REACTORS
330
835D
102
}
330
835D
100
AcDbDictionary
281
     1
  3
ByBlock
350
836A
  3
ByLayer
350
8362
  3
Global
350
8372
  0
DICTIONARY
  5
83B6
102
{ACAD_REACTORS
330
835D
102
}
330
835D
100
AcDbDictionary
281
     1
  3
Standard
350
83B7
  0
DICTIONARY
  5
83AF
102
{ACAD_REACTORS
330
835D
102
}
330
835D
100
AcDbDictionary
281
     1
  3
Standard
350
83B0
  0
DICTIONARY
  5
83B1
102
{ACAD_REACTORS
330
835D
102
}
330
835D
100
AcDbDictionary
281
     1
  0
ACDBDICTIONARYWDFLT
  5
835F
102
{ACAD_REACTORS
330
835D
102
}
330
835D
100
AcDbDictionary
281
     1
  3
Normal
350
8360
100
AcDbDictionaryWithDefault
340
8360
  0
DICTIONARY
  5
8393
102
{ACAD_REACTORS
330
835D
102
}
330
835D
100
AcDbDictionary
281
     1
  3
A0
350
8394
  3
A1
350
8395
  3
A2
350
8396
  3
A3
350
8397
  3
A4
350
8398
  3
A5
350
8399
  3
A6
350
839A
  3
A7
350
839B
  3
A8
350
839C
  3
A9
350
839D
  3
B0
350
839E
  3
B1
350
839F
  3
B2
350
83A0
  3
B3
350
83A1
  3
B4
350
83A2
  3
B5
350
83A3
  3
B6
350
83A4
  0
DICTIONARY
  5
83B8
102
{ACAD_REACTORS
330
835D
102
}
330
835D
100
AcDbDictionary
281
     1
  3
Imperial24
350
83B9
  0
DICTIONARY
  5
83B4
102
{ACAD_REACTORS
330
835D
102
}
330
835D
100
AcDbDictionary
281
     1
  3
Standard
350
83B5
  0
DICTIONARY
  5
837A
102
{ACAD_REACTORS
330
835D
102
}
330
835D
100
AcDbDictionary
281
     1
  3
2dWireframe
350
8380
  3
Basic
350
837F
  3
Brighten
350
8386
  3
ColorChange
350
838A
  3
Conceptual
350
8383
  3
Dim
350
8385
  3
EdgeColorOff
350
8392
  3
Facepattern
350
8389
  3
Flat
350
837B
  3
FlatWithEdges
350
837C
  3
Gouraud
350
837D
  3
GouraudWithEdges
350
837E
  3
Hidden
350
8382
  3
JitterOff
350
8390
  3
Linepattern
350
8388
  3
OverhangOff
350
8391
  3
Realistic
350
8384
  3
Shaded
350
838F
  3
Shaded with edges
350
838E
  3
Shades of Gray
350
838B
  3
Sketchy
350
838C
  3
Thicken
350
8387
  3
Wireframe
350
8381
  3
X-Ray
350
838D
  0
XRECORD
  5
876D
102
{ACAD_REACTORS
330
835D
102
}
330
835D
100
AcDbXrecord
280
     1
 90
        1
330
83B5
  0
DICTIONARY
  5
871F
102
{ACAD_REACTORS
330
835D
102
}
330
835D
100
AcDbDictionary
281
     1
  3
CANNOSCALE
350
8724
  3
CMLEADERSTYLE
350
8721
  3
CTABLESTYLE
350
8720
  3
CVIEWDETAILSTYLE
350
8722
  3
CVIEWSECTIONSTYLE
350
8723
  3
DIMASSOC
350
8727
  3
INDEXCTL
350
8726
  3
SORTENTS
350
8725
  3
XCLIPFRAME
350
8728
  0
XRECORD
  5
876E
102
{ACAD_REACTORS
330
835D
102
}
330
835D
100
AcDbXrecord
280
     1
  1
DWGPROPS COOKIE
  2

  3

  4

  6

  7

  8
yasukiyo.ogawa
  9

300
=
301
=
302
=
303
=
304
=
305
=
306
=
307
=
308
=
309
=
 40
0.0455534375
 41
2451390.42913588
 42
2460273.627384248
  1

 90
        0
  0
XRECORD
  5
8716
102
{ACAD_REACTORS
330
8715
102
}
330
8715
100
AcDbXrecord
280
     1
290
     1
  0
XRECORD
  5
8718
102
{ACAD_REACTORS
330
8717
102
}
330
8717
100
AcDbXrecord
280
     1
290
     1
  0
XRECORD
  5
871A
102
{ACAD_REACTORS
330
8719
102
}
330
8719
100
AcDbXrecord
280
     1
290
     1
  0
XRECORD
  5
871C
102
{ACAD_REACTORS
330
871B
102
}
330
871B
100
AcDbXrecord
280
     1
290
     1
  0
XRECORD
  5
871E
102
{ACAD_REACTORS
330
871D
102
}
330
871D
100
AcDbXrecord
280
     1
290
     1
  0
SORTENTSTABLE
  5
849A
102
{ACAD_REACTORS
330
8499
102
}
330
8499
100
AcDbSortentsTable
330
83C0
331
7F25
  5
7F27
331
7F1C
  5
7F1E
331
7CC9
  5
7CCB
331
7CB8
  5
7CBA
331
7CA7
  5
7CA9
331
7C7C
  5
7C7E
331
7C5A
  5
7C5C
331
7C38
  5
7C3A
331
7C27
  5
7C27
331
7C16
  5
7C16
331
7CA8
  5
7CAA
331
847E
  5
8498
331
7F26
  5
7F28
331
7F1D
  5
7F20
331
7CCA
  5
7CCC
331
7CB9
  5
7CBB
331
7C7D
  5
7C7F
331
7C5B
  5
7C5D
331
7C39
  5
7C3B
331
7C28
  5
7C28
331
7C17
  5
7C17
331
7F27
  5
7F29
331
7F1E
  5
7F21
331
7CCB
  5
7CCD
331
7CBA
  5
7CBC
331
7CA9
  5
7CAB
331
7C98
  5
7C9A
331
7C7E
  5
7C80
331
7C6D
  5
7C6F
331
7C5C
  5
7C5F
331
7C4B
  5
7C4D
331
7C3A
  5
7C3C
331
7C29
  5
7C29
331
7C18
  5
7C18
331
7CBB
  5
7CBD
331
7CAA
  5
7CAC
331
7C99
  5
7C9B
331
7C88
  5
7C8B
331
7F28
  5
7F2A
331
7CDD
  5
7CDF
331
7CCC
  5
7CCE
331
7C7F
  5
7C81
331
7C6E
  5
7C70
331
7C5D
  5
7C60
331
7C4C
  5
7C4E
331
7C3B
  5
7C3D
331
7C2A
  5
7C2A
331
7C19
  5
7C19
331
7F29
  5
7F2B
331
7CDE
  5
7CE0
331
7CCD
  5
7CD5
331
7CBC
  5
7CBE
331
7C9A
  5
7C9C
331
7C80
  5
7C83
331
7C6F
  5
7C71
331
7C4D
  5
7C4F
331
7C3C
  5
7C3E
331
7C2B
  5
7C2B
331
7C1A
  5
7C1A
331
7F2A
  5
7F2C
331
7CDF
  5
7CE1
331
7CCE
  5
7CD6
331
7CBD
  5
7CBF
331
7C9B
  5
7C9D
331
7C8A
  5
7C8C
331
7C70
  5
7C72
331
7C5F
  5
7C61
331
7C4E
  5
7C50
331
7C3D
  5
7C40
331
7C2C
  5
7C2E
331
7C1B
  5
7C1B
331
7F2B
  5
7F2D
331
7CE0
  5
7CE2
331
7CBE
  5
7CC0
331
7C9C
  5
7C9E
331
7C8B
  5
7C8D
331
7C71
  5
7C73
331
7C60
  5
7C64
331
7C4F
  5
7C54
331
7C3E
  5
7C41
331
7C2D
  5
7C2F
331
7C1C
  5
7C1C
331
7F2C
  5
7F2E
331
7CE1
  5
7CE3
331
7CBF
  5
7CC1
331
7C9D
  5
7C9F
331
7C8C
  5
7C8E
331
7C72
  5
7C74
331
7C61
  5
7C65
331
7C50
  5
7C55
331
7C2E
  5
7C30
331
7C1D
  5
7C1D
331
7F2D
  5
7F2F
331
7CE2
  5
7CE4
331
7CC0
  5
7CC2
331
7C9E
  5
7CA0
331
7C8D
  5
7C90
331
7C73
  5
7C75
331
7C2F
  5
7C31
331
7C1E
  5
7C1E
331
7F2E
  5
7F30
331
7F14
  5
7F16
331
7CE3
  5
7CE5
331
7CC1
  5
7CC3
331
7C9F
  5
7CA1
331
7C8E
  5
7C92
331
7C85
  5
7C87
331
7C74
  5
7C76
331
7C30
  5
7C32
331
7C1F
  5
7C1F
331
7F2F
  5
7F31
331
7F15
  5
7F19
331
7CE4
  5
7CE6
331
7CC2
  5
7CC4
331
7CA0
  5
7CA2
331
7C86
  5
7C88
331
7C75
  5
7C77
331
7C64
  5
7C66
331
7C31
  5
7C33
331
7C20
  5
7C20
331
7F30
  5
7F32
331
7F16
  5
7F1A
331
7CE5
  5
7CE7
331
7CC3
  5
7CC5
331
7CB2
  5
7CB4
331
7CA1
  5
7CA3
331
7C90
  5
7C93
331
7C87
  5
7C8A
331
7C76
  5
7C78
331
7C65
  5
7C67
331
7C54
  5
7C56
331
7C43
  5
7C45
331
7C32
  5
7C34
331
7C21
  5
7C21
331
7F31
  5
8141
331
7F20
  5
7F22
331
7CE6
  5
7CE8
331
7CD5
  5
7CD7
331
7CC4
  5
7CC6
331
7CB3
  5
7CB5
331
7CA2
  5
7CA4
331
7C77
  5
7C79
331
7C66
  5
7C68
331
7C55
  5
7C57
331
7C44
  5
7C46
331
7C33
  5
7C35
331
7C22
  5
7C22
331
7F32
  5
814E
331
7F21
  5
7F23
331
7CE7
  5
7CE9
331
7CC5
  5
7CC7
331
7CB4
  5
7CB6
331
7C92
  5
7C94
331
7C78
  5
7C7A
331
7C67
  5
7C6A
331
7C56
  5
7C58
331
7C45
  5
7C47
331
7C34
  5
7C37
331
7C23
  5
7C23
331
848B
  5
849B
331
7F22
  5
7F24
331
7F19
  5
7F1B
331
7CE8
  5
7F14
331
7C93
  5
7C95
331
7C79
  5
7C7B
331
7C68
  5
7C6D
331
7C57
  5
7C59
331
7C46
  5
7C4B
331
7C35
  5
7C38
331
7CC6
  5
7CC8
331
7CB5
  5
7CB7
331
7CA4
  5
7CA6
331
7C24
  5
7C24
331
7F23
  5
7F25
331
7F1A
  5
7F1C
331
7CE9
  5
7F15
331
7CC7
  5
7CC9
331
7CB6
  5
7CB8
331
7CA5
  5
7CA7
331
7C94
  5
7C98
331
7C7A
  5
7C7C
331
7C58
  5
7C5A
331
7C47
  5
7C4C
331
7C25
  5
7C25
331
7C14
  5
7C14
331
7F24
  5
7F26
331
7F1B
  5
7F1D
331
7CC8
  5
7CCA
331
7CB7
  5
7CB9
331
7CA6
  5
7CA8
331
7C95
  5
7C99
331
7C7B
  5
7C7D
331
7C6A
  5
7C6E
331
7C59
  5
7C5B
331
7C37
  5
7C39
331
7C26
  5
7C26
  0
ACDBDETAILVIEWSTYLE
  5
83BB
102
{ACAD_XDICTIONARY
360
87A6
102
}
102
{ACAD_REACTORS
330
83BA
102
}
330
83BA
100
AcDbModelDocViewStyle
 70
     0
  3
Imperial24
290
     0
100
AcDbDetailViewStyle
 70
     0
 71
     0
 90
        3
 71
     1
340
83A6
 40
0.24
340
0
 40
0.24
300

 40
0.36
280
     3
 71
     2
340
83AD
 90
       25
 71
     3
340
83A6
 40
0.24
 90
        1
 40
0.75
 90
        1
300
%<\AcVar ViewType \f "%tc1">% %<\AcVar ViewDetailId>%\PSCALE %<\AcVar ViewScale \f "%sn">%
 71
     4
340
83AD
 90
       25
340
83AD
 90
       25
280
     0
  0
LAYOUT
  5
83C3
102
{ACAD_XDICTIONARY
360
87AA
102
}
102
{ACAD_REACTORS
330
83B2
102
}
330
83B2
100
AcDbPlotSettings
  1

  2
RICOH imagio MP W3600 RPCS
  4

  6

 40
0.0
 41
0.0
 42
0.0
 43
0.0
 44
0.0
 45
0.0
 46
0.0
 47
0.0
 48
0.0
 49
0.0
140
0.0
141
0.0
142
1.0
143
1.0
 70
  1712
 72
     0
 73
     0
 74
     0
  7

 75
     0
147
1.0
148
0.0
149
0.0
100
AcDbLayout
  1
Model
 70
     1
 71
     0
 10
0.0
 20
0.0
 11
12.0
 21
9.0
 12
0.0
 22
0.0
 32
0.0
 14
0.0
 24
0.0
 34
0.0
 15
0.0
 25
0.0
 35
0.0
146
0.0
 13
0.0
 23
0.0
 33
0.0
 16
1.0
 26
0.0
 36
0.0
 17
0.0
 27
1.0
 37
0.0
 76
     0
330
83C0
331
83C5
  0
LAYOUT
  5
83BF
102
{ACAD_XDICTIONARY
360
87A8
102
}
102
{ACAD_REACTORS
330
83B2
102
}
330
83B2
100
AcDbPlotSettings
  1

  2
RICOH imagio MP W3600 RPCS
  4

  6

 40
0.0
 41
0.0
 42
0.0
 43
0.0
 44
0.0
 45
0.0
 46
0.0
 47
0.0
 48
0.0
 49
0.0
140
0.0
141
0.0
142
1.0
143
1.0
 70
   688
 72
     0
 73
     0
 74
     5
  7

 75
    16
147
1.0
148
0.0
149
0.0
100
AcDbLayout
  1
レイアウト1
 70
     1
 71
     1
 10
0.0
 20
0.0
 11
12.0
 21
9.0
 12
0.0
 22
0.0
 32
0.0
 14
1.000000000000000E+20
 24
1.000000000000000E+20
 34
1.000000000000000E+20
 15
-1.000000000000000E+20
 25
-1.000000000000000E+20
 35
-1.000000000000000E+20
146
0.0
 13
0.0
 23
0.0
 33
0.0
 16
1.0
 26
0.0
 36
0.0
 17
0.0
 27
1.0
 37
0.0
 76
     0
330
83BC
  0
MATERIAL
  5
836A
102
{ACAD_XDICTIONARY
360
836B
102
}
102
{ACAD_REACTORS
330
8361
102
}
330
8361
100
AcDbMaterial
  1
ByBlock
 72
     0
 43
0.0208333333333333
 43
0.0
 43
0.0
 43
0.0
 43
0.0
 43
0.0208333333333333
 43
0.0
 43
0.0
 43
0.0
 43
0.0
 43
1.0
 43
0.0
 43
0.0
 43
0.0
 43
0.0
 43
1.0
 77
     0
 47
0.0208333333333333
 47
0.0
 47
0.0
 47
0.0
 47
0.0
 47
0.0208333333333333
 47
0.0
 47
0.0
 47
0.0
 47
0.0
 47
1.0
 47
0.0
 47
0.0
 47
0.0
 47
0.0
 47
1.0
171
     0
 49
0.0208333333333333
 49
0.0
 49
0.0
 49
0.0
 49
0.0
 49
0.0208333333333333
 49
0.0
 49
0.0
 49
0.0
 49
0.0
 49
1.0
 49
0.0
 49
0.0
 49
0.0
 49
0.0
 49
1.0
175
     0
142
0.0208333333333333
142
0.0
142
0.0
142
0.0
142
0.0
142
0.0208333333333333
142
0.0
142
0.0
142
0.0
142
0.0
142
1.0
142
0.0
142
0.0
142
0.0
142
0.0
142
1.0
179
     0
144
0.0208333333333333
144
0.0
144
0.0
144
0.0
144
0.0
144
0.0208333333333333
144
0.0
144
0.0
144
0.0
144
0.0
144
1.0
144
0.0
144
0.0
144
0.0
144
0.0
144
1.0
147
0.0208333333333333
147
0.0
147
0.0
147
0.0
147
0.0
147
0.0208333333333333
147
0.0
147
0.0
147
0.0
147
0.0
147
1.0
147
0.0
147
0.0
147
0.0
147
0.0
147
1.0
  0
MATERIAL
  5
8362
102
{ACAD_XDICTIONARY
360
8363
102
}
102
{ACAD_REACTORS
330
8361
102
}
330
8361
100
AcDbMaterial
  1
ByLayer
 72
     0
 43
0.0208333333333333
 43
0.0
 43
0.0
 43
0.0
 43
0.0
 43
0.0208333333333333
 43
0.0
 43
0.0
 43
0.0
 43
0.0
 43
1.0
 43
0.0
 43
0.0
 43
0.0
 43
0.0
 43
1.0
 77
     0
 47
0.0208333333333333
 47
0.0
 47
0.0
 47
0.0
 47
0.0
 47
0.0208333333333333
 47
0.0
 47
0.0
 47
0.0
 47
0.0
 47
1.0
 47
0.0
 47
0.0
 47
0.0
 47
0.0
 47
1.0
171
     0
 49
0.0208333333333333
 49
0.0
 49
0.0
 49
0.0
 49
0.0
 49
0.0208333333333333
 49
0.0
 49
0.0
 49
0.0
 49
0.0
 49
1.0
 49
0.0
 49
0.0
 49
0.0
 49
0.0
 49
1.0
175
     0
142
0.0208333333333333
142
0.0
142
0.0
142
0.0
142
0.0
142
0.0208333333333333
142
0.0
142
0.0
142
0.0
142
0.0
142
1.0
142
0.0
142
0.0
142
0.0
142
0.0
142
1.0
179
     0
144
0.0208333333333333
144
0.0
144
0.0
144
0.0
144
0.0
144
0.0208333333333333
144
0.0
144
0.0
144
0.0
144
0.0
144
1.0
144
0.0
144
0.0
144
0.0
144
0.0
144
1.0
147
0.0208333333333333
147
0.0
147
0.0
147
0.0
147
0.0
147
0.0208333333333333
147
0.0
147
0.0
147
0.0
147
0.0
147
1.0
147
0.0
147
0.0
147
0.0
147
0.0
147
1.0
  0
MATERIAL
  5
8372
102
{ACAD_XDICTIONARY
360
8373
102
}
102
{ACAD_REACTORS
330
8361
102
}
330
8361
100
AcDbMaterial
  1
Global
 72
     0
 43
0.0208333333333333
 43
0.0
 43
0.0
 43
0.0
 43
0.0
 43
0.0208333333333333
 43
0.0
 43
0.0
 43
0.0
 43
0.0
 43
1.0
 43
0.0
 43
0.0
 43
0.0
 43
0.0
 43
1.0
 77
     0
 47
0.0208333333333333
 47
0.0
 47
0.0
 47
0.0
 47
0.0
 47
0.0208333333333333
 47
0.0
 47
0.0
 47
0.0
 47
0.0
 47
1.0
 47
0.0
 47
0.0
 47
0.0
 47
0.0
 47
1.0
171
     0
 49
0.0208333333333333
 49
0.0
 49
0.0
 49
0.0
 49
0.0
 49
0.0208333333333333
 49
0.0
 49
0.0
 49
0.0
 49
0.0
 49
1.0
 49
0.0
 49
0.0
 49
0.0
 49
0.0
 49
1.0
175
     0
142
0.0208333333333333
142
0.0
142
0.0
142
0.0
142
0.0
142
0.0208333333333333
142
0.0
142
0.0
142
0.0
142
0.0
142
1.0
142
0.0
142
0.0
142
0.0
142
0.0
142
1.0
179
     0
144
0.0208333333333333
144
0.0
144
0.0
144
0.0
144
0.0
144
0.0208333333333333
144
0.0
144
0.0
144
0.0
144
0.0
144
1.0
144
0.0
144
0.0
144
0.0
144
0.0
144
1.0
147
0.0208333333333333
147
0.0
147
0.0
147
0.0
147
0.0
147
0.0208333333333333
147
0.0
147
0.0
147
0.0
147
0.0
147
1.0
147
0.0
147
0.0
147
0.0
147
0.0
147
1.0
  0
MLEADERSTYLE
  5
83B7
102
{ACAD_REACTORS
330
83B6
102
}
330
83B6
100
AcDbMLeaderStyle
170
     2
171
     1
172
     0
 90
        2
 40
0.0
 41
0.0
173
     1
 91
-1056964608
340
83AB
 92
       -2
290
     1
 42
0.09
291
     1
 43
0.36
  3
Standard
 44
0.18
300

342
83A6
174
     1
178
     6
175
     1
176
     0
 93
-1056964608
 45
0.18
292
     0
297
     0
 46
0.18
 94
-1056964608
 47
1.0
 49
1.0
140
1.0
293
     1
141
0.0
294
     1
177
     0
142
1.0
295
     0
296
     0
143
0.125
1001
ACAD_MLEADERVER
1070
     2
  0
MLINESTYLE
  5
83B0
102
{ACAD_REACTORS
330
83AF
102
}
330
83AF
100
AcDbMlineStyle
  2
STANDARD
 70
     0
  3

 62
   256
 51
90.0
 52
90.0
 71
     2
 49
0.5
 62
   256
  6
BYLAYER
 49
-0.5
 62
   256
  6
BYLAYER
  0
ACDBPLACEHOLDER
  5
8360
102
{ACAD_REACTORS
330
835F
102
}
330
835F
  0
SCALE
  5
8394
102
{ACAD_REACTORS
330
8393
102
}
330
8393
100
AcDbScale
 70
     0
300
1:1
140
1.0
141
1.0
290
     1
  0
SCALE
  5
8395
102
{ACAD_REACTORS
330
8393
102
}
330
8393
100
AcDbScale
 70
     0
300
1/128" = 1'-0"
140
0.0078125
141
12.0
290
     0
  0
SCALE
  5
8396
102
{ACAD_REACTORS
330
8393
102
}
330
8393
100
AcDbScale
 70
     0
300
1/64" = 1'-0"
140
0.015625
141
12.0
290
     0
  0
SCALE
  5
8397
102
{ACAD_REACTORS
330
8393
102
}
330
8393
100
AcDbScale
 70
     0
300
1/32" = 1'-0"
140
0.03125
141
12.0
290
     0
  0
SCALE
  5
8398
102
{ACAD_REACTORS
330
8393
102
}
330
8393
100
AcDbScale
 70
     0
300
1/16" = 1'-0"
140
0.0625
141
12.0
290
     0
  0
SCALE
  5
8399
102
{ACAD_REACTORS
330
8393
102
}
330
8393
100
AcDbScale
 70
     0
300
3/32" = 1'-0"
140
0.09375
141
12.0
290
     0
  0
SCALE
  5
839A
102
{ACAD_REACTORS
330
8393
102
}
330
8393
100
AcDbScale
 70
     0
300
1/8" = 1'-0"
140
0.125
141
12.0
290
     0
  0
SCALE
  5
839B
102
{ACAD_REACTORS
330
8393
102
}
330
8393
100
AcDbScale
 70
     0
300
3/16" = 1'-0"
140
0.1875
141
12.0
290
     0
  0
SCALE
  5
839C
102
{ACAD_REACTORS
330
8393
102
}
330
8393
100
AcDbScale
 70
     0
300
1/4" = 1'-0"
140
0.25
141
12.0
290
     0
  0
SCALE
  5
839D
102
{ACAD_REACTORS
330
8393
102
}
330
8393
100
AcDbScale
 70
     0
300
3/8" = 1'-0"
140
0.375
141
12.0
290
     0
  0
SCALE
  5
839E
102
{ACAD_REACTORS
330
8393
102
}
330
8393
100
AcDbScale
 70
     0
300
1/2" = 1'-0"
140
0.5
141
12.0
290
     0
  0
SCALE
  5
839F
102
{ACAD_REACTORS
330
8393
102
}
330
8393
100
AcDbScale
 70
     0
300
3/4" = 1'-0"
140
0.75
141
12.0
290
     0
  0
SCALE
  5
83A0
102
{ACAD_REACTORS
330
8393
102
}
330
8393
100
AcDbScale
 70
     0
300
1" = 1'-0"
140
1.0
141
12.0
290
     0
  0
SCALE
  5
83A1
102
{ACAD_REACTORS
330
8393
102
}
330
8393
100
AcDbScale
 70
     0
300
1-1/2" = 1'-0"
140
1.5
141
12.0
290
     0
  0
SCALE
  5
83A2
102
{ACAD_REACTORS
330
8393
102
}
330
8393
100
AcDbScale
 70
     0
300
3" = 1'-0"
140
3.0
141
12.0
290
     0
  0
SCALE
  5
83A3
102
{ACAD_REACTORS
330
8393
102
}
330
8393
100
AcDbScale
 70
     0
300
6" = 1'-0"
140
6.0
141
12.0
290
     0
  0
SCALE
  5
83A4
102
{ACAD_REACTORS
330
8393
102
}
330
8393
100
AcDbScale
 70
     0
300
1'-0" = 1'-0"
140
12.0
141
12.0
290
     0
  0
ACDBSECTIONVIEWSTYLE
  5
83B9
102
{ACAD_XDICTIONARY
360
87A4
102
}
102
{ACAD_REACTORS
330
83B8
102
}
330
83B8
100
AcDbModelDocViewStyle
 70
     0
  3
Imperial24
290
     0
100
AcDbSectionViewStyle
 70
     0
 71
     0
 90
       78
 71
     1
340
83A6
 40
0.24
340
0
340
0
 40
0.24
300
I, O, Q, S, X, Z
 40
0.48
 90
        3
 40
0.18
 90
        1
 71
     2
340
83AD
 90
       25
340
83AD
 90
       50
 40
0.24
 40
0.0
 40
0.24
 71
     3
340
83A6
 40
0.24
 90
        1
 40
0.75
 90
        1
300
%<\AcVar ViewType \f "%tc1">% %<\AcVar ViewSectionStartId>%-%<\AcVar ViewSectionEndId>%\PSCALE %<\AcVar ViewScale \f "%sn">%
 71
     4
300
ANSI31
 40
1.0
 90
        0
290
     0
290
     0
 90
        6
 40
0.0
 40
1.570796326794896
 40
0.2617993877991494
 40
1.308996938995747
 40
-0.2617993877991494
 40
1.832595714594046
  0
TABLESTYLE
  5
83B5
102
{ACAD_XDICTIONARY
360
876B
102
}
102
{ACAD_REACTORS
330
83B4
102
}
330
83B4
100
AcDbTableStyle
  3
Standard
 70
     0
 71
     0
 40
0.06
 41
0.06
280
     0
281
     0
  7
STANDARD
140
0.18
170
     2
 62
     0
 63
     7
283
     0
274
    -2
284
     1
 64
     0
275
    -2
285
     1
 65
     0
276
    -2
286
     1
 66
     0
277
    -2
287
     1
 67
     0
278
    -2
288
     1
 68
     0
279
    -2
289
     1
 69
     0
  7
STANDARD
140
0.25
170
     5
 62
     0
 63
     7
283
     0
274
    -2
284
     1
 64
     0
275
    -2
285
     1
 65
     0
276
    -2
286
     1
 66
     0
277
    -2
287
     1
 67
     0
278
    -2
288
     1
 68
     0
279
    -2
289
     1
 69
     0
  7
STANDARD
140
0.18
170
     5
 62
     0
 63
     7
283
     0
274
    -2
284
     1
 64
     0
275
    -2
285
     1
 65
     0
276
    -2
286
     1
 66
     0
277
    -2
287
     1
 67
     0
278
    -2
288
     1
 68
     0
279
    -2
289
     1
 69
     0
  0
VISUALSTYLE
  5
8380
102
{ACAD_XDICTIONARY
360
877C
102
}
102
{ACAD_REACTORS
330
837A
102
}
330
837A
100
AcDbVisualStyle
  2
2dWireframe
 70
     4
 71
     0
 72
     2
 73
     0
 90
        0
 40
-0.6
 41
-30.0
 62
     5
 63
     7
 74
     1
 91
        4
 64
     7
 65
   257
 75
     1
175
     1
 42
1.0
 92
        0
 66
   257
 43
1.0
 76
     1
 77
     6
 78
     2
 67
     7
 79
     5
170
     0
171
     0
290
     0
174
     0
 93
        1
 44
0.0
173
     0
291
     0
 45
0.0
1001
ACAD
1000
AcDbSavedByObjectVersion
1070
     0
  0
VISUALSTYLE
  5
837F
102
{ACAD_XDICTIONARY
360
877A
102
}
102
{ACAD_REACTORS
330
837A
102
}
330
837A
100
AcDbVisualStyle
  2
Basic
 70
     7
 71
     1
 72
     0
 73
     1
 90
        0
 40
-0.6
 41
-30.0
 62
     5
 63
     7
 74
     0
 91
        4
 64
     7
 65
   257
 75
     1
175
     1
 42
1.0
 92
        8
 66
     7
 43
1.0
 76
     1
 77
     6
 78
     2
 67
     7
 79
     5
170
     0
171
     0
290
     0
174
     0
 93
        1
 44
0.0
173
     0
291
     1
 45
0.0
1001
ACAD
1000
AcDbSavedByObjectVersion
1070
     0
  0
VISUALSTYLE
  5
8386
102
{ACAD_XDICTIONARY
360
8788
102
}
102
{ACAD_REACTORS
330
837A
102
}
330
837A
100
AcDbVisualStyle
  2
Brighten
 70
    12
 71
     2
 72
     2
 73
     0
 90
        0
 40
-0.6
 41
-30.0
 62
     5
 63
     7
 74
     1
 91
        4
 64
     7
 65
   257
 75
     1
175
     1
 42
1.0
 92
        8
 66
     7
 43
1.0
 76
     1
 77
     6
 78
     2
 67
     7
 79
     5
170
     0
171
     0
290
     0
174
     0
 93
        1
 44
50.0
173
     0
291
     1
 45
0.0
1001
ACAD
1000
AcDbSavedByObjectVersion
1070
     0
  0
VISUALSTYLE
  5
838A
102
{ACAD_XDICTIONARY
360
8790
102
}
102
{ACAD_REACTORS
330
837A
102
}
330
837A
100
AcDbVisualStyle
  2
ColorChange
 70
    16
 71
     2
 72
     2
 73
     3
 90
        0
 40
-0.6
 41
-30.0
 62
     5
 63
     8
 74
     1
 91
        4
 64
     7
 65
   257
 75
     1
175
     1
 42
1.0
 92
        8
 66
     8
 43
1.0
 76
     1
 77
     6
 78
     2
 67
     7
 79
     5
170
     0
171
     0
290
     0
174
     0
 93
        1
 44
0.0
173
     0
291
     1
 45
0.0
1001
ACAD
1000
AcDbSavedByObjectVersion
1070
     0
  0
VISUALSTYLE
  5
8383
102
{ACAD_XDICTIONARY
360
8782
102
}
102
{ACAD_REACTORS
330
837A
102
}
330
837A
100
AcDbVisualStyle
  2
Conceptual
 70
     9
 71
     3
 72
     2
 73
     0
 90
        0
 40
-0.6
 41
-30.0
 62
     5
 63
     7
 74
     2
 91
        2
 64
     7
 65
   257
 75
     1
175
     1
 42
179.0
 92
        8
 66
     7
 43
1.0
 76
     1
 77
     6
 78
     2
 67
     7
 79
     3
170
     0
171
     0
290
     0
174
     0
 93
        1
 44
0.0
173
     0
291
     0
 45
0.0
1001
ACAD
1000
AcDbSavedByObjectVersion
1070
     0
  0
VISUALSTYLE
  5
8385
102
{ACAD_XDICTIONARY
360
8786
102
}
102
{ACAD_REACTORS
330
837A
102
}
330
837A
100
AcDbVisualStyle
  2
Dim
 70
    11
 71
     2
 72
     2
 73
     0
 90
        0
 40
-0.6
 41
-30.0
 62
     5
 63
     7
 74
     1
 91
        4
 64
     7
 65
   257
 75
     1
175
     1
 42
1.0
 92
        8
 66
     7
 43
1.0
 76
     1
 77
     6
 78
     2
 67
     7
 79
     5
170
     0
171
     0
290
     0
174
     0
 93
        1
 44
-50.0
173
     0
291
     1
 45
0.0
1001
ACAD
1000
AcDbSavedByObjectVersion
1070
     0
  0
VISUALSTYLE
  5
8392
102
{ACAD_XDICTIONARY
360
87A0
102
}
102
{ACAD_REACTORS
330
837A
102
}
330
837A
100
AcDbVisualStyle
  2
EdgeColorOff
 70
    22
 71
     2
 72
     2
 73
     0
 90
        0
 40
-0.6
 41
-30.0
 62
     5
 63
     7
 74
     1
 91
        4
 64
     7
 65
   257
 75
     1
175
     1
 42
1.0
 92
        8
 66
     7
 43
1.0
 76
     1
 77
     6
 78
     2
 67
     7
 79
     5
170
     0
171
     0
290
     0
174
     0
 93
        1
 44
0.0
173
     0
291
     1
 45
0.0
1001
ACAD
1000
AcDbSavedByObjectVersion
1070
     0
  0
VISUALSTYLE
  5
8389
102
{ACAD_XDICTIONARY
360
878E
102
}
102
{ACAD_REACTORS
330
837A
102
}
330
837A
100
AcDbVisualStyle
  2
Facepattern
 70
    15
 71
     2
 72
     2
 73
     0
 90
        0
 40
-0.6
 41
-30.0
 62
     5
 63
     7
 74
     1
 91
        4
 64
     7
 65
   257
 75
     1
175
     1
 42
1.0
 92
        8
 66
     7
 43
1.0
 76
     1
 77
     6
 78
     2
 67
     7
 79
     5
170
     0
171
     0
290
     0
174
     0
 93
        1
 44
0.0
173
     0
291
     1
 45
0.0
1001
ACAD
1000
AcDbSavedByObjectVersion
1070
     0
  0
VISUALSTYLE
  5
837B
102
{ACAD_XDICTIONARY
360
8772
102
}
102
{ACAD_REACTORS
330
837A
102
}
330
837A
100
AcDbVisualStyle
  2
Flat
 70
     0
 71
     2
 72
     1
 73
     1
 90
        2
 40
-0.6
 41
30.0
 62
     5
 63
     7
 74
     0
 91
        0
 64
     7
 65
   257
 75
     1
175
     1
 42
1.0
 92
        8
 66
     7
 43
1.0
 76
     1
 77
     6
 78
     2
 67
     7
 79
     5
170
     0
171
     0
290
     0
174
     0
 93
       13
 44
0.0
173
     0
291
     1
 45
0.0
1001
ACAD
1000
AcDbSavedByObjectVersion
1070
     0
  0
VISUALSTYLE
  5
837C
102
{ACAD_XDICTIONARY
360
8774
102
}
102
{ACAD_REACTORS
330
837A
102
}
330
837A
100
AcDbVisualStyle
  2
FlatWithEdges
 70
     1
 71
     2
 72
     1
 73
     1
 90
        2
 40
-0.6
 41
30.0
 62
     5
 63
     7
 74
     1
 91
        0
 64
     7
 65
   257
 75
     1
175
     1
 42
1.0
 92
        0
 66
   257
 43
1.0
 76
     1
 77
     6
 78
     2
 67
     7
 79
     5
170
     0
171
     0
290
     0
174
     0
 93
       13
 44
0.0
173
     0
291
     1
 45
0.0
1001
ACAD
1000
AcDbSavedByObjectVersion
1070
     0
  0
VISUALSTYLE
  5
837D
102
{ACAD_XDICTIONARY
360
8776
102
}
102
{ACAD_REACTORS
330
837A
102
}
330
837A
100
AcDbVisualStyle
  2
Gouraud
 70
     2
 71
     2
 72
     2
 73
     1
 90
        2
 40
-0.6
 41
30.0
 62
     5
 63
     7
 74
     0
 91
        0
 64
     7
 65
   257
 75
     1
175
     1
 42
1.0
 92
        0
 66
     7
 43
1.0
 76
     1
 77
     6
 78
     2
 67
     7
 79
     5
170
     0
171
     0
290
     0
174
     0
 93
       13
 44
0.0
173
     0
291
     1
 45
0.0
1001
ACAD
1000
AcDbSavedByObjectVersion
1070
     0
  0
VISUALSTYLE
  5
837E
102
{ACAD_XDICTIONARY
360
8778
102
}
102
{ACAD_REACTORS
330
837A
102
}
330
837A
100
AcDbVisualStyle
  2
GouraudWithEdges
 70
     3
 71
     2
 72
     2
 73
     1
 90
        2
 40
-0.6
 41
30.0
 62
     5
 63
     7
 74
     1
 91
        0
 64
     7
 65
   257
 75
     1
175
     1
 42
1.0
 92
        0
 66
   257
 43
1.0
 76
     1
 77
     6
 78
     2
 67
     7
 79
     5
170
     0
171
     0
290
     0
174
     0
 93
       13
 44
0.0
173
     0
291
     1
 45
0.0
1001
ACAD
1000
AcDbSavedByObjectVersion
1070
     0
  0
VISUALSTYLE
  5
8382
102
{ACAD_XDICTIONARY
360
8780
102
}
102
{ACAD_REACTORS
330
837A
102
}
330
837A
100
AcDbVisualStyle
  2
Hidden
 70
     6
 71
     1
 72
     2
 73
     2
 90
        0
 40
-0.6
 41
-30.0
 62
     5
 63
     7
 74
     2
 91
        2
 64
     7
 65
   257
 75
     2
175
     1
 42
40.0
 92
        0
 66
   257
 43
1.0
 76
     1
 77
     6
 78
     2
 67
     7
 79
     3
170
     0
171
     0
290
     0
174
     0
 93
        1
 44
0.0
173
     0
291
     0
 45
0.0
1001
ACAD
1000
AcDbSavedByObjectVersion
1070
     0
  0
VISUALSTYLE
  5
8390
102
{ACAD_XDICTIONARY
360
879C
102
}
102
{ACAD_REACTORS
330
837A
102
}
330
837A
100
AcDbVisualStyle
  2
JitterOff
 70
    20
 71
     2
 72
     2
 73
     0
 90
        0
 40
-0.6
 41
-30.0
 62
     5
 63
     7
 74
     1
 91
        4
 64
     7
 65
   257
 75
     1
175
     1
 42
1.0
 92
       10
 66
     7
 43
1.0
 76
     1
 77
     6
 78
     2
 67
     7
 79
     5
170
     0
171
     0
290
     0
174
     0
 93
        1
 44
0.0
173
     0
291
     1
 45
0.0
1001
ACAD
1000
AcDbSavedByObjectVersion
1070
     0
  0
VISUALSTYLE
  5
8388
102
{ACAD_XDICTIONARY
360
878C
102
}
102
{ACAD_REACTORS
330
837A
102
}
330
837A
100
AcDbVisualStyle
  2
Linepattern
 70
    14
 71
     2
 72
     2
 73
     0
 90
        0
 40
-0.6
 41
-30.0
 62
     5
 63
     7
 74
     1
 91
        4
 64
     7
 65
   257
 75
     7
175
     7
 42
1.0
 92
        8
 66
     7
 43
1.0
 76
     1
 77
     6
 78
     2
 67
     7
 79
     5
170
     0
171
     0
290
     0
174
     0
 93
        1
 44
0.0
173
     0
291
     1
 45
0.0
1001
ACAD
1000
AcDbSavedByObjectVersion
1070
     0
  0
VISUALSTYLE
  5
8391
102
{ACAD_XDICTIONARY
360
879E
102
}
102
{ACAD_REACTORS
330
837A
102
}
330
837A
100
AcDbVisualStyle
  2
OverhangOff
 70
    21
 71
     2
 72
     2
 73
     0
 90
        0
 40
-0.6
 41
-30.0
 62
     5
 63
     7
 74
     1
 91
        4
 64
     7
 65
   257
 75
     1
175
     1
 42
1.0
 92
        9
 66
     7
 43
1.0
 76
     1
 77
     6
 78
     2
 67
     7
 79
     5
170
     0
171
     0
290
     0
174
     0
 93
        1
 44
0.0
173
     0
291
     1
 45
0.0
1001
ACAD
1000
AcDbSavedByObjectVersion
1070
     0
  0
VISUALSTYLE
  5
8384
102
{ACAD_XDICTIONARY
360
8784
102
}
102
{ACAD_REACTORS
330
837A
102
}
330
837A
100
AcDbVisualStyle
  2
Realistic
 70
     8
 71
     2
 72
     3
 73
     0
 90
        2
 40
-0.6
 41
30.0
 62
     5
 63
     7
 74
     0
 91
        0
 64
     7
 65
   257
 75
     1
175
     1
 42
1.0
 92
        8
 66
   257
 43
1.0
 76
     1
 77
     6
 78
     2
 67
     7
 79
     3
170
     0
171
     0
290
     0
174
     0
 93
       13
 44
0.0
173
     0
291
     0
 45
0.0
1001
ACAD
1000
AcDbSavedByObjectVersion
1070
     0
  0
VISUALSTYLE
  5
838F
102
{ACAD_XDICTIONARY
360
879A
102
}
102
{ACAD_REACTORS
330
837A
102
}
330
837A
100
AcDbVisualStyle
  2
Shaded
 70
    27
 71
     2
 72
     2
 73
     1
 90
        2
 40
-0.6
 41
30.0
 62
     5
 63
     7
 74
     0
 91
        4
 64
     7
 65
   257
 75
     1
175
     1
 42
1.0
 92
        8
 66
   257
 43
1.0
 76
     1
 77
     6
 78
     2
 67
     8
 79
     3
170
     0
171
     0
290
     0
174
     0
 93
        5
 44
0.0
173
     0
291
     0
 45
0.0
1001
ACAD
1000
AcDbSavedByObjectVersion
1070
     0
  0
VISUALSTYLE
  5
838E
102
{ACAD_XDICTIONARY
360
8798
102
}
102
{ACAD_REACTORS
330
837A
102
}
330
837A
100
AcDbVisualStyle
  2
Shaded with edges
 70
    26
 71
     2
 72
     2
 73
     1
 90
        2
 40
-0.6
 41
30.0
 62
     5
 63
     7
 74
     1
 91
       10
 64
     7
 65
   257
 75
     2
175
     1
 42
1.0
 92
        8
 66
   257
 43
1.0
 76
     1
 77
     6
 78
     2
 67
     7
 79
     3
170
     0
171
     0
290
     0
174
     0
 93
        5
 44
0.0
173
     0
291
     0
 45
0.0
1001
ACAD
1000
AcDbSavedByObjectVersion
1070
     0
  0
VISUALSTYLE
  5
838B
102
{ACAD_XDICTIONARY
360
8792
102
}
102
{ACAD_REACTORS
330
837A
102
}
330
837A
100
AcDbVisualStyle
  2
Shades of Gray
 70
    23
 71
     2
 72
     2
 73
     3
 90
        0
 40
-0.6
 41
-30.0
 62
     5
 63
     7
 74
     2
 91
        2
 64
     7
 65
     7
 75
     1
175
     1
 42
40.0
 92
        8
 66
     7
 43
1.0
 76
     1
 77
     6
 78
     2
 67
     7
 79
     3
170
     0
171
     0
290
     0
174
     0
 93
        1
 44
0.0
173
     0
291
     0
 45
0.0
1001
ACAD
1000
AcDbSavedByObjectVersion
1070
     0
  0
VISUALSTYLE
  5
838C
102
{ACAD_XDICTIONARY
360
8794
102
}
102
{ACAD_REACTORS
330
837A
102
}
330
837A
100
AcDbVisualStyle
  2
Sketchy
 70
    24
 71
     1
 72
     2
 73
     2
 90
        0
 40
-0.6
 41
-30.0
 62
     5
 63
     7
 74
     2
 91
        2
 64
     7
 65
     7
 75
     1
175
     1
 42
40.0
 92
       11
 66
     7
 43
1.0
 76
     1
 77
     6
 78
     2
 67
     7
 79
     6
170
     0
171
     0
290
     0
174
     0
 93
        1
 44
0.0
173
     0
291
     0
 45
0.0
1001
ACAD
1000
AcDbSavedByObjectVersion
1070
     0
  0
VISUALSTYLE
  5
8387
102
{ACAD_XDICTIONARY
360
878A
102
}
102
{ACAD_REACTORS
330
837A
102
}
330
837A
100
AcDbVisualStyle
  2
Thicken
 70
    13
 71
     2
 72
     2
 73
     0
 90
        0
 40
-0.6
 41
-30.0
 62
     5
 63
     7
 74
     1
 91
        4
 64
     7
 65
   257
 75
     1
175
     1
 42
1.0
 92
       12
 66
     7
 43
1.0
 76
     1
 77
     6
 78
     2
 67
     7
 79
     5
170
     0
171
     0
290
     0
174
     0
 93
        1
 44
0.0
173
     0
291
     1
 45
0.0
1001
ACAD
1000
AcDbSavedByObjectVersion
1070
     0
  0
VISUALSTYLE
  5
8381
102
{ACAD_XDICTIONARY
360
877E
102
}
102
{ACAD_REACTORS
330
837A
102
}
330
837A
100
AcDbVisualStyle
  2
Wireframe
 70
     5
 71
     0
 72
     2
 73
     0
 90
        0
 40
-0.6
 41
-30.0
 62
     5
 63
     7
 74
     1
 91
        4
 64
     7
 65
   257
 75
     1
175
     1
 42
1.0
 92
        0
 66
   257
 43
1.0
 76
     1
 77
     6
 78
     2
 67
     7
 79
     3
170
     0
171
     0
290
     0
174
     0
 93
        1
 44
0.0
173
     0
291
     0
 45
0.0
1001
ACAD
1000
AcDbSavedByObjectVersion
1070
     0
  0
VISUALSTYLE
  5
838D
102
{ACAD_XDICTIONARY
360
8796
102
}
102
{ACAD_REACTORS
330
837A
102
}
330
837A
100
AcDbVisualStyle
  2
X-Ray
 70
    25
 71
     2
 72
     2
 73
     1
 90
        1
 40
0.5
 41
-30.0
 62
     5
 63
     7
 74
     1
 91
        0
 64
     7
 65
   257
 75
     1
175
     1
 42
1.0
 92
        8
 66
     7
 43
1.0
 76
     1
 77
     6
 78
     2
 67
     7
 79
     3
170
     0
171
     0
290
     0
174
     0
 93
       13
 44
0.0
173
     0
291
     0
 45
0.0
1001
ACAD
1000
AcDbSavedByObjectVersion
1070
     0
  0
DICTIONARYVAR
  5
8724
102
{ACAD_REACTORS
330
871F
102
}
330
871F
100
DictionaryVariables
280
     0
  1
1:1
  0
DICTIONARYVAR
  5
8721
102
{ACAD_REACTORS
330
871F
102
}
330
871F
100
DictionaryVariables
280
     0
  1
STANDARD
  0
DICTIONARYVAR
  5
8720
102
{ACAD_REACTORS
330
871F
102
}
330
871F
100
DictionaryVariables
280
     0
  1
STANDARD
  0
DICTIONARYVAR
  5
8722
102
{ACAD_REACTORS
330
871F
102
}
330
871F
100
DictionaryVariables
280
     0
  1
Imperial24
  0
DICTIONARYVAR
  5
8723
102
{ACAD_REACTORS
330
871F
102
}
330
871F
100
DictionaryVariables
280
     0
  1
Imperial24
  0
DICTIONARYVAR
  5
8727
102
{ACAD_REACTORS
330
871F
102
}
330
871F
100
DictionaryVariables
280
     0
  1
1
  0
DICTIONARYVAR
  5
8726
102
{ACAD_REACTORS
330
871F
102
}
330
871F
100
DictionaryVariables
280
     0
  1
0
  0
DICTIONARYVAR
  5
8725
102
{ACAD_REACTORS
330
871F
102
}
330
871F
100
DictionaryVariables
280
     0
  1
127
  0
DICTIONARYVAR
  5
8728
102
{ACAD_REACTORS
330
871F
102
}
330
871F
100
DictionaryVariables
280
     0
  1
2
  0
DICTIONARY
  5
87A6
330
83BB
100
AcDbDictionary
280
     1
281
     1
  3
ACAD_XREC_ROUNDTRIP
360
87A7
  0
DICTIONARY
  5
87AA
330
83C3
100
AcDbDictionary
280
     1
281
     1
  3
ACAD_XREC_ROUNDTRIP
360
87AB
  0
DICTIONARY
  5
87A8
330
83BF
100
AcDbDictionary
280
     1
281
     1
  3
ACAD_XREC_ROUNDTRIP
360
87A9
  0
DICTIONARY
  5
836B
330
836A
100
AcDbDictionary
280
     1
281
     1
  3
ACAD_XREC_ROUNDTRIP
360
8770
  3
BUMPTILE
360
836D
  3
DIFFUSETILE
360
836C
  3
OPACITYTILE
360
8370
  3
REFLECTIONTILE
360
836F
  3
REFRACTIONTILE
360
8371
  3
SPECULARTILE
360
836E
  0
DICTIONARY
  5
8363
330
8362
100
AcDbDictionary
280
     1
281
     1
  3
ACAD_XREC_ROUNDTRIP
360
876F
  3
BUMPTILE
360
8365
  3
DIFFUSETILE
360
8364
  3
OPACITYTILE
360
8368
  3
REFLECTIONTILE
360
8367
  3
REFRACTIONTILE
360
8369
  3
SPECULARTILE
360
8366
  0
DICTIONARY
  5
8373
330
8372
100
AcDbDictionary
280
     1
281
     1
  3
ACAD_XREC_ROUNDTRIP
360
8771
  3
BUMPTILE
360
8375
  3
DIFFUSETILE
360
8374
  3
FBXASSET
360
8408
  3
OPACITYTILE
360
8378
  3
REFLECTIONTILE
360
8377
  3
REFRACTIONTILE
360
8379
  3
SPECULARTILE
360
8376
  0
DICTIONARY
  5
87A4
330
83B9
100
AcDbDictionary
280
     1
281
     1
  3
ACAD_XREC_ROUNDTRIP
360
87A5
  0
DICTIONARY
  5
876B
330
83B5
100
AcDbDictionary
280
     1
281
     1
  3
ACAD_ROUNDTRIP_2008_TABLESTYLE_CELLSTYLEMAP
360
876C
  3
ACAD_XREC_ROUNDTRIP
360
87A2
  0
DICTIONARY
  5
877C
330
8380
100
AcDbDictionary
280
     1
281
     1
  3
ACAD_XREC_ROUNDTRIP
360
877D
  0
DICTIONARY
  5
877A
330
837F
100
AcDbDictionary
280
     1
281
     1
  3
ACAD_XREC_ROUNDTRIP
360
877B
  0
DICTIONARY
  5
8788
330
8386
100
AcDbDictionary
280
     1
281
     1
  3
ACAD_XREC_ROUNDTRIP
360
8789
  0
DICTIONARY
  5
8790
330
838A
100
AcDbDictionary
280
     1
281
     1
  3
ACAD_XREC_ROUNDTRIP
360
8791
  0
DICTIONARY
  5
8782
330
8383
100
AcDbDictionary
280
     1
281
     1
  3
ACAD_XREC_ROUNDTRIP
360
8783
  0
DICTIONARY
  5
8786
330
8385
100
AcDbDictionary
280
     1
281
     1
  3
ACAD_XREC_ROUNDTRIP
360
8787
  0
DICTIONARY
  5
87A0
330
8392
100
AcDbDictionary
280
     1
281
     1
  3
ACAD_XREC_ROUNDTRIP
360
87A1
  0
DICTIONARY
  5
878E
330
8389
100
AcDbDictionary
280
     1
281
     1
  3
ACAD_XREC_ROUNDTRIP
360
878F
  0
DICTIONARY
  5
8772
330
837B
100
AcDbDictionary
280
     1
281
     1
  3
ACAD_XREC_ROUNDTRIP
360
8773
  0
DICTIONARY
  5
8774
330
837C
100
AcDbDictionary
280
     1
281
     1
  3
ACAD_XREC_ROUNDTRIP
360
8775
  0
DICTIONARY
  5
8776
330
837D
100
AcDbDictionary
280
     1
281
     1
  3
ACAD_XREC_ROUNDTRIP
360
8777
  0
DICTIONARY
  5
8778
330
837E
100
AcDbDictionary
280
     1
281
     1
  3
ACAD_XREC_ROUNDTRIP
360
8779
  0
DICTIONARY
  5
8780
330
8382
100
AcDbDictionary
280
     1
281
     1
  3
ACAD_XREC_ROUNDTRIP
360
8781
  0
DICTIONARY
  5
879C
330
8390
100
AcDbDictionary
280
     1
281
     1
  3
ACAD_XREC_ROUNDTRIP
360
879D
  0
DICTIONARY
  5
878C
330
8388
100
AcDbDictionary
280
     1
281
     1
  3
ACAD_XREC_ROUNDTRIP
360
878D
  0
DICTIONARY
  5
879E
330
8391
100
AcDbDictionary
280
     1
281
     1
  3
ACAD_XREC_ROUNDTRIP
360
879F
  0
DICTIONARY
  5
8784
330
8384
100
AcDbDictionary
280
     1
281
     1
  3
ACAD_XREC_ROUNDTRIP
360
8785
  0
DICTIONARY
  5
879A
330
838F
100
AcDbDictionary
280
     1
281
     1
  3
ACAD_XREC_ROUNDTRIP
360
879B
  0
DICTIONARY
  5
8798
330
838E
100
AcDbDictionary
280
     1
281
     1
  3
ACAD_XREC_ROUNDTRIP
360
8799
  0
DICTIONARY
  5
8792
330
838B
100
AcDbDictionary
280
     1
281
     1
  3
ACAD_XREC_ROUNDTRIP
360
8793
  0
DICTIONARY
  5
8794
330
838C
100
AcDbDictionary
280
     1
281
     1
  3
ACAD_XREC_ROUNDTRIP
360
8795
  0
DICTIONARY
  5
878A
330
8387
100
AcDbDictionary
280
     1
281
     1
  3
ACAD_XREC_ROUNDTRIP
360
878B
  0
DICTIONARY
  5
877E
330
8381
100
AcDbDictionary
280
     1
281
     1
  3
ACAD_XREC_ROUNDTRIP
360
877F
  0
DICTIONARY
  5
8796
330
838D
100
AcDbDictionary
280
     1
281
     1
  3
ACAD_XREC_ROUNDTRIP
360
8797
  0
XRECORD
  5
87A7
102
{ACAD_REACTORS
330
87A6
102
}
330
87A6
100
AcDbXrecord
280
     1
102
DISPLAYNAME
  1
Imperial24
102
FLAGS
 90
        0
  0
XRECORD
  5
87AB
102
{ACAD_REACTORS
330
87AA
102
}
330
87AA
100
AcDbXrecord
280
     1
102
SHADEPLOT
 70
     0
102
SHADEPLOTRESLEVEL
 70
     2
102
SHADEPLOTCUSTOMDPI
 70
   300
  0
XRECORD
  5
87A9
102
{ACAD_REACTORS
330
87A8
102
}
330
87A8
100
AcDbXrecord
280
     1
102
SHADEPLOT
 70
     0
102
SHADEPLOTRESLEVEL
 70
     2
102
SHADEPLOTCUSTOMDPI
 70
   300
  0
XRECORD
  5
8770
102
{ACAD_REACTORS
330
836B
102
}
330
836B
100
AcDbXrecord
280
     1
102
MATERIAL
148
0.0
149
0.0
149
0.0
 93
        0
 94
      127
282
     0
 72
     0
 77
     0
171
     0
175
     0
179
     0
273
     0
  0
XRECORD
  5
836D
102
{ACAD_REACTORS
330
836B
102
}
330
836B
100
AcDbXrecord
280
     1
270
     1
271
     1
  0
XRECORD
  5
836C
102
{ACAD_REACTORS
330
836B
102
}
330
836B
100
AcDbXrecord
280
     1
270
     1
271
     1
  0
XRECORD
  5
8370
102
{ACAD_REACTORS
330
836B
102
}
330
836B
100
AcDbXrecord
280
     1
270
     1
271
     1
  0
XRECORD
  5
836F
102
{ACAD_REACTORS
330
836B
102
}
330
836B
100
AcDbXrecord
280
     1
270
     1
271
     1
  0
XRECORD
  5
8371
102
{ACAD_REACTORS
330
836B
102
}
330
836B
100
AcDbXrecord
280
     1
270
     1
271
     1
  0
XRECORD
  5
836E
102
{ACAD_REACTORS
330
836B
102
}
330
836B
100
AcDbXrecord
280
     1
270
     1
271
     1
  0
XRECORD
  5
876F
102
{ACAD_REACTORS
330
8363
102
}
330
8363
100
AcDbXrecord
280
     1
102
MATERIAL
148
0.0
149
0.0
149
0.0
 93
        0
 94
      127
282
     0
 72
     0
 77
     0
171
     0
175
     0
179
     0
273
     0
  0
XRECORD
  5
8365
102
{ACAD_REACTORS
330
8363
102
}
330
8363
100
AcDbXrecord
280
     1
270
     1
271
     1
  0
XRECORD
  5
8364
102
{ACAD_REACTORS
330
8363
102
}
330
8363
100
AcDbXrecord
280
     1
270
     1
271
     1
  0
XRECORD
  5
8368
102
{ACAD_REACTORS
330
8363
102
}
330
8363
100
AcDbXrecord
280
     1
270
     1
271
     1
  0
XRECORD
  5
8367
102
{ACAD_REACTORS
330
8363
102
}
330
8363
100
AcDbXrecord
280
     1
270
     1
271
     1
  0
XRECORD
  5
8369
102
{ACAD_REACTORS
330
8363
102
}
330
8363
100
AcDbXrecord
280
     1
270
     1
271
     1
  0
XRECORD
  5
8366
102
{ACAD_REACTORS
330
8363
102
}
330
8363
100
AcDbXrecord
280
     1
270
     1
271
     1
  0
XRECORD
  5
8771
102
{ACAD_REACTORS
330
8373
102
}
330
8373
100
AcDbXrecord
280
     1
102
MATERIAL
148
0.0
149
0.0
149
0.0
 93
        0
 94
      127
282
     0
 72
     0
 77
     0
171
     0
175
     0
179
     0
273
     0
  0
XRECORD
  5
8375
102
{ACAD_REACTORS
330
8373
102
}
330
8373
100
AcDbXrecord
280
     1
270
     1
271
     1
  0
XRECORD
  5
8374
102
{ACAD_REACTORS
330
8373
102
}
330
8373
100
AcDbXrecord
280
     1
270
     1
271
     1
  0
XRECORD
  5
8408
102
{ACAD_REACTORS
330
8373
102
}
330
8373
100
AcDbXrecord
280
     1
 70
     1
 90
1959938040
 71
     1
  1
1B4CE52A-D117-4A5A-93CA-74B149AE167C
311
504B0304140006080800D0717857C24AD32CD7000000200100004F00000039323538313341342D374344352D343846342D423237312D3030333746303346334639382F4173736574446174612F446566696E6974696F6E4974657261746F7250726F706572746965732E62696EEB606060F80F0540260323103700495E20ED
311
9E9A975A94991C9C9C919A9BC8C00612C9C94F4ACC6147C831019920AE4B6A5A62694E0948976F6671726A4E4E625E6A7E69B12042A9426E6209D0B8C41C3D90264E20860914834C48875806B2DF0F88414E02D189290556F689C5C5A925B6FA694915FACE064606C6CE2EAEBAA6AEC62EBA26E6466EBA4E2E2E26BACE864E
311
AE46262616E626A616FA45A9C5F9A545C9A9C5FA46FA06F15093E30BF2D283221DEB0C19188280D6B330BCDF9715AE15501EDE63A707B4C825BD3966A7C1CC4D402612D80700504B0304140006080800D0717857AE27F45D02010000300200004500000039323538313341342D374344352D343846342D423237312D303033
311
3746303346334639382F4173736574446174612F496E7374616E636550726F706572746965732E62696EEB606060F80F0540260323103700495E20ED9E9A975A94991C9C9C919A9BA802143074327176353572D475313434D735713475D4B5347676D43537713234B1747435343377664768046931363471713532B5D43535
311
3131D635313332D475727372D1353437367036737606EAB2042A03DBCBA019D37FE8ABC6157B20CD04146B0062181F4C03F940F0C11EA29A8141C08141002C0426541C106CAC2CA046088033B02A030AC2157C6006F21A8018AAF50194E6010A610250382264E08660284CD9E98021862280A91564B406929A0FF62C401E28
311
B6F88038B83CB1243943D7A928312F25350524C3C0A0DD70F56A83369809E6AC0A85B251645054A1A983A947A601504B0304140006080800D071785728BB58AF800100009E0500003D00000039323538313341342D374344352D343846342D423237312D3030333746303346334639382F536368656D61732F436F6D6D6F6E
311
536368656D612E786D6CBD544D4FC23018BEFB2B96DE15493C78601010A34B880709DEDFB52FD0D8B54BD70DF6EFED3AC0B12E6442E2716BFB3CEFF3D18E26FB440405EA8C2B1992E1C323095052C5B8DC842437EBFB673219DF8DA659866649B798C078B48AE6410122242F2A4994AC7F93815DF85C049C8564CA0A901499
311
DD886B2EB9B1E02448F358701A9235880C49A0119892A20C89D1B9FD768815CAD268CB5E0355B40B1E47F3E37A2020464BED06AA57CE8FCC20C3C3446D46761A2632A8C1283D07031EFF2AE7CCB1BFEEE916E406DFAC8E36FFD99A9D60A6944090EEDC3B670C7DC13DE86B6B2C5C240D6E503BB85ACD579D513F1B9F9A69DC
311
9CC22AFA80C426D40AF0B21EA168559156B6276F0F726A6BFF04DCD513A87A62CAD41FB24FCB2858B3952E3D852084DA25B9303C15687973CC8E8AAE11DF2836C38C6A9E765E8C1BA1BFB1DC29CDFE518C8B5A7655A4ED7E77291ABEB80DBD82EC866ADE1B8D05AF9E35CF09D7A061F38A986D9EC412B8F0F65E5D81534D9B
311
231D1E5A8FE577A241F3A5FD01504B0304140006080800D07178572CCEBD668A040000E01200003E00000039323538313341342D374344352D343846342D423237312D3030333746303346334639382F536368656D61732F47656E65726963536368656D612E786D6CD5586D6FDB380CFE7EBF42F0F7A649B70E1B90744856
311
B4970F450FCD7A5F05459613EDE4174872DADCAF3F522F8ED3B88D2F1D06AC4050DBA2493EE4438AF2F8EB73AEC8466823CB62928C06C384888297A92C5693A4B6D9D9E7E4EBD51FE3A931C22EF85AE4EC6AFC38BF261BA626C9AD288496DC3F4FCEAFC63366845F7A10452AF41DB320C0D44EC26EAB209187355655826956
311
70811A6A49643A49A6E9069FA4604A64B29016DC4B48552F95E4932463CA888468C1D2B250DB4962750DF7CE273069CE8363F1FF4EDB00E0A21999574AE4A2B00C353B93F3BD4777B8A61ED8F604ABFEDD79CE56A2B7BDFBDBC50996E0ADDE16FED26223C5D30956C29BDF4A55EA686E5E58B112DA45CE67F76F4FA27EFA3F
311
B672FD7372FC388FAECDCA5209E693CAD167BADCD272F943701B3812F8A3D852008B1D2E32DB927B2F833C6EA95879925356D254582695095A3CE982924720BE5774A3CB9CDCDB350427D2DF20DA1B5532EBE2D5D6288D75D4F7E4FD9890A0EF8E3D93EBB8F8BA4758158EF6FB90A6F9520281C93DE7AAC6D24607DA296BB9
311
6018123F821A7D6A5C5884050C475DA4865442732C8B95684A50165CBB3A32F25F783A4A480ED59AD7F924B968AEA50131F46303223E6A397B0E52976030DC1DCA81D7E7C1EDEEA42C19FF27635C505E2BD5198A599020DF50A2330FCB3AAF28CB0124108429553EF1B228802E2265D8F7CC2401042B155BCC7070F1E5C55F
311
13B4A9577362CCCE46C32174E010C3C378C44841A4BDA00FE3A12006CE11EE6AEC59894D3526DDE1CD59D503ECC324017F8061B7F162162FA62EDD81AE3308617770796DCBDAD2B2625C5AE8A63DE20B2C8AA5E95E76E5730823955956E33E705425A2187C185D36489A1B44D3DCEC2172F6BA2105C3546287A7194B233176
311
8EBBE64F6E70A9930ABE0ADEA89E9E2C38523B810287AD67A54A039C1606EAFE68F8304610BB9093DBDDABC0B2AE4E290DCDA15376D7E39F72B556F0B32EAB5D3D498B4C41ABADEC3A1434C422D87E8025A84BDCB2B1417ED750FAE4DA8976863974C577C7F902D3F156AD354DEA3540DE6BEAE2BEA52F7A2EB4CA43802ECE
311
5BF2CE2EDC9347179FFB023CE412E60BE16DA0BE29B374988A553F561DC04615DD35F7D2C8979F60E5955CE93DF29DED8AFA1EE6642D53418086C03C47C377910F75F7E8F5EF665F70B60FFB22AEDF897D119E8423C773E819A3C1E55E550599EE6EDCA34D0C86FD72057DF2CD46F16A470682471C164E4346D5306BF12D7D
311
12D82CFF673D41636C347443FEB51B50D72EA171A8E4A58623A4A16E0FA2B8B10A0D23268D87C33896EE8FB73305A74BF224EDBADFA0BD674AB354D63DB7BD5D83426761C077DE767728235446A552754EB93B755891C3C4CC6CADE37CF0E912A7BB38DBA010F9DE1282EDF470CA69A9CDA482E334C4A6EA4107987980B17E
311
72F31730EBF88BBD39E7C629F56797A3C0009C2C5AE7951D9A05A02773440F02EEB4DE396A3B6A570C72CCFBCD823B0B8ED3F1D5CEDDFED772FA70236C83FB7D86C385D570B87107535572A60A96035F8F7C6A7192F13007246BBE0521855E6AC46F3E27689CEE7D186A6FD679D98CDCAD13333E04EBE7ED6F55FF01504B03
311
04140006080800D07178576180134D5F0100006B0300004500000039323538313341342D374344352D343846342D423237312D3030333746303346334639382F536368656D61732F52656E6465724D6174657269616C536368656D612E786D6CA5934D6FC2300C86EFFB1551EEE343DBA41D1A103009551ADAD40EAE28A4A6
311
8D9426284961FCFBE5A340113B2071746D3F765EBF4DC6BFB5407BD0862B49F0B037C0082453059725C18DDD3EBFE3F1E829991803366715D474942CD30FB4A782E00C64017A412D684E454CE3FE28995203B162A6EA5AC94B66997D225E109CD63B0135484BAD1B3C07E9080CA35DB3119C11BCA5C200461A68A1A438126C
311
75E3E230D40FF81FB3F03C91D1E3A3A0AF79FE28E25BC39EC3E17E4C2A2D94A0833A51AF55BCCA7D88572FCBAC529C4140B020FC3AAFA886621DCED7EAD7664CC86024E806DC297DA1BB393E4156543457A4537DB8817349A70F8ACBF09B3EEE2CB2F33E91B65D60786E4E3B39B77E3FEEEF5650424525DA657FB8B46BE6BF
311
064646F0A0F7327C0BC1BC1B4CBBC1C419FA3CCB23500007872A2580CAAE5461865565294E4EDB4617B62FF579DF9A5B2F54E834076A597573A020912FED777F9B3F504B0304140006080800D0717857FD2ECF5E51000000570000004700000039323538313341342D374344352D343846342D423237312D30303337463033
311
46334639382F4173736574446174612F41737365745461626C654F66436F6E74656E74732E62696E536160603074327176353572D475313434D735713475D4B5347676D43537713234B17474353433771602AACB4D2C492DCA4CCC492C28484D2C4ACC4B4E050A82012F90744FCD03CA26072767A4E6260200504B03041400
311
06080800D0717857F865834058000000680000004500000039323538313341342D374344352D343846342D423237312D3030333746303346334639382F4173736574446174612F53747265616D56657273696F6E5461626C652E696E66558CBD0A80300C06F73E4B117FB66E451741D041DC5BF98480A492E4FDD18EAEC7DD
311
4555D89EF28DF51A0B1BD8340C4DE7DD848B988C0ACF0649566493F2408C508DDEBB99D5129FF8F1AF8CF5B9503E20FAE5A16B5AF702504B0304140006080800D07178573809E8D3330100009A0400003600000039323538313341342D374344352D343846342D423237312D3030333746303346334639382F417373657444
311
6174612F636E782E786D6CCD54B16EC32010FD158BDD103B19AA0A1355ED92A9951A75E876C1E704058305E7AAFDFB42E2A155AA4E1E2C313DDEDD3D9E7827B79FBD2D3E3044E35DC32ABE62053AED5BE38E0D1BA92BEF58B15532784F3F68AC70D063C332CC943C063F0E13D46207A3CDA835EE3C810F3122EDE160F1B97B
311
F48ED0516485B61063C3A23E610F1C46F22DC6336F8180573C60F463D0983A91E971EAA4030261CB54BDAAD7655595F5665F6DEED359D7EF5264A69207EFEDC4376958F043A1AF53995A4991AF951C839938F92D4CFDA5911F8C932231958C14922753057D0DA90286C11A0D94AC135E1352994808BD1457B292227BF0CB89
311
27EC8C33B964978401F9F092E46120838B73E43FADF33BB37391C0695CAE1FB70AE777E1F5F283DEAE81BC24666939B955C88DEB664889B8AC91149ABC55D437504B0304140006080800D0717857190B340A080100004F0300003400000039323538313341342D374344352D343846342D423237312D303033374630334633
311
4639382F536368656D61732F636E782E786D6CCD93BD6E032110845F05D11BEECE2EA288C3858B54699254E908AC1D64604FFC44C9DB072E14B6942E292C51C0F069B5332C62FFE91DF980982C86998E6CA004824663C369A6251F377794ECA58888F902A324280F336D3295E214B12C5D327054C535D5D970EEE201BDC7F0
311
ACDFC12B4AB45329CD34AD47A64A4603E9CC8CCA8A8D2C42C21235D40AD97AE815740495C150390DD376338E9B69F732EEEEEBDA4EAF8237528A3744D7791B32445C88C6BA09B59D41F0762D4589B633CD039597BDB19A86E0959022E55833E864FE5A2AA996C559AD728D8AAFE00F23056F56AF0C3F408068F56D3ABE6AEE
311
DF2C3F4130101FEB2B45ABDC6D3AFFADC7BF05C0D7D9AF23D0BE82FC06504B0304140006080800D0717857410A3D5871000000A40000002C00000039323538313341342D374344352D343846342D423237312D3030333746303346334639382F636E782E786D6C55CC4D0E82301086E1AB34B31774E7A22D31F1069E600203
311
34B633A63FC6E34B0909B07DDE2F9FEE7EC1AB2FC5E4840DDC9A2B28E25E06C7938192C7CB1D54677514C9871928C640062A83D55394F2D968A0118BAFEA1DBF377CA444F98919176EAB9FEAAB9F2960DA5BBB1E2ED3FA6FFF504B0304140006080800D07178572C30C6867E000000A300000007000000636E782E786D6C4D
311
8C4D0AC3201805AF22DFDE56A341036AE80FDE23342648130D36961EBF5AB2E8EAC1F06654FF5917F476E9E563D0404F04900B8F38FA306BC8FB8425A0DEA814E3FE77031486D569A8188C9A53CCDB8146370D79A974F1E179C0AE692565178EC5EDDE622E2DC7D746504C08139630CB6C278B71AE4A995FAF6CCD9B2F504B
311
0304140006080800D071785716E99B5DA600000035010000130000005B436F6E74656E745F54797065735D2E786D6C9590410E82301045AFD2740F4517C6180A0BF5065E60AC53688469D30E066F6F91AD9AB89CF9FFFD3F99BA9DC7413C3026E749CB4D59498164FCCD51A7E5C4B6D84BD136F5E5193089ECA5A465CF1C0E
311
4A25D3E308A9F401292BD6C711388FB15301CC1D3A54DBAADA29E38991B8E0254336F5092D4C038BF39CD76B6FC6A538AEBEA54A4B08617006389FA516557DE4AE8E7E70DE30729138228C5F021CD93F02D4FB0DCD0B504B0304140006080800D07178573DEE336E64000000790000001B0000006175746F6465736B2D6465
311
7369676E2D7061636B6167652E786D6C35CBC10E83200C00D05F21DCA56CA76D41FC96062B120735B69A7DBE268BB7777961F8D5AF396893C2ADB70FE7ADA196782C2DF776D7A97B5933C430F15651E5469C55D70F80A4992A3ADC954792C525AE70A1E4D6AD9816CC044FEFDF01FE3FDE907802504B0304140006080800D0
311
717857E7863600F8000000960100003700000039323538313341342D374344352D343846342D423237312D3030333746303346334639382F4173736574446174612F636F72652E786D6C85505D6F842010FC2B66DF51416BB1412E5A73BFA04F7D23C8597227183E9AFEFCC29D4DDAA726244B66676777869DBEB65BF1A99C
311
D7D60C80CB1A0A65A45DB4590788E182281427CE9CB5E1170D0A233635408681B3D5D9B81F90B42628935163177580C27B15A090B7F419C0CB0FB58952C49018FE5AEE425EC5AA4A5C3E789CC5A89763542F494D5FB472C0F138D5844E14BD9EBB1EB5B4A7888EA443F409CF73DF4FDDF999B22A0F7316F4F6B35D3A25825A
311
80939A34086344DA37DCBEA4D79077566526673EB8E4F9589ADD011FF3D5B30882558FEE1FD5B82FFFAB466D42430ED5C7844F3ED291F70667554E29957B84A9E644F937504B0304140006080800D07178575D888979F7000000940100003500000039323538313341342D374344352D343846342D423237312D3030333746
311
303346334639382F536368656D61732F636F72652E786D6C8550CB6EC32010FC156BEFD801BB2E8E3051DC283FD09E7A4398B82831583CAA7E7EC176A5F6540969D1ECECECCEB0D3D7FC283E95F3DA9A1E707980421969476DA61E62B8210AC58933676DF84583C28859F59061E06C72362E3B24AD09CA64D4D851EDA0F05E
311
0528E4237D7AF0F243CDA214312486BF978B907731A912971B8FB318F5B88FEA31A9E99B560E383E0F0742078A5EAE6D871ADA5144CFA445F4095F2E5D37B4D767CAAA3CCC59D0F3CF76E994086A044E0EA4461823D2BCE1E6985E4DDE5995999CF9E092E77D697607FC75BDD3B36AEBFDD18CCBF8BF66D426D464D7DC267C
311
72914E5C1B9C5539A354D60053CD79F26F504B0304140006080800D07178577B049C8200010000D70100002D00000039323538313341342D374344352D343846342D423237312D3030333746303346334639382F636F72652E786D6C9591DD6E842010855FC5CC3D2AA059B74136FD894FD0ABDE519875C9AE60009B3E7EB1
311
DAB4BD6B1312C8E13B0367469CDEA75BF186215AEF7AA0650D053AED8D75630F4B3A930E8A9314C1FBF40383C2A9097B586590620C7E9977497B97D0ADAAF3067751C588090A7DCB871EA2BEE0A44AB5A44CC46B392B7D552396B4DC3829929DBEAC3AA04A6840B29A71422961CD336DEEF2E2EC45542B29C5625DE26C7F0C
311
A75734859F538E04B215D5769BA9C59A9DB126FFD19E2D069047D67694DF37E4F0F8D492A61B1AF2C00E94D4353F0C351FF870EC72916C9622A6903BB317597BF057FB66FC956C99CD3F936D8E08927E87AAD6364B517DCE20EFEB48E407504B0304140006080800D07178570CCDE9BA07010000B201000008000000636F72
311
652E786D6C8D50416EC32010FC0AE28E6DB0EBE20813C58DF2829E7AA3405C141B2C83A3F6F785984AEDAD12D2A299D99DD965C7CF790277BD7AE36C0F715141A0AD74CAD8B1875BB8220AC191B3D5B9F04B068115B3EE61822167E3EAB62543D2D9A06D42AD533A83C27B1D209053FCF4D0CB0F3D8B426C212AFCAD5884BC
311
895117B8D8759C0533FFB4CA558BA015E4A42235C21891E6153787F86AF2C6CAA4E46CDB8CCA5646457773357A851C9F868AD081A2974BDBA1867614D11369117DC2E773D70DEDE599B2323573E6C31A77CE4362CE00BCB8275F56EE1467EFCE4D59104329E0ECF40579C5CA44FC09BD2DEA1FA18D0D35C903F70E1F33C740
311
0F221AA70BC6F2386FACE9DAFC1B504B01021400140006080800D0717857C24AD32CD7000000200100004F000000000000000000000000000000000039323538313341342D374344352D343846342D423237312D3030333746303346334639382F4173736574446174612F446566696E6974696F6E4974657261746F725072
311
6F706572746965732E62696E504B01021400140006080800D0717857AE27F45D020100003002000045000000000000000000000000004401000039323538313341342D374344352D343846342D423237312D3030333746303346334639382F4173736574446174612F496E7374616E636550726F706572746965732E62696E
311
504B01021400140006080800D071785728BB58AF800100009E0500003D00000000000000000000000000A902000039323538313341342D374344352D343846342D423237312D3030333746303346334639382F536368656D61732F436F6D6D6F6E536368656D612E786D6C504B01021400140006080800D07178572CCEBD66
311
8A040000E01200003E000000000000000000000000008404000039323538313341342D374344352D343846342D423237312D3030333746303346334639382F536368656D61732F47656E65726963536368656D612E786D6C504B01021400140006080800D07178576180134D5F0100006B0300004500000000000000000000
311
0000006A09000039323538313341342D374344352D343846342D423237312D3030333746303346334639382F536368656D61732F52656E6465724D6174657269616C536368656D612E786D6C504B01021400140006080800D0717857FD2ECF5E510000005700000047000000000000000000000000002C0B00003932353831
311
3341342D374344352D343846342D423237312D3030333746303346334639382F4173736574446174612F41737365745461626C654F66436F6E74656E74732E62696E504B01021400140006080800D0717857F865834058000000680000004500000000000000000000000000E20B000039323538313341342D374344352D34
311
3846342D423237312D3030333746303346334639382F4173736574446174612F53747265616D56657273696F6E5461626C652E696E66504B01021400140006080800D07178573809E8D3330100009A04000036000000000000000000000000009D0C000039323538313341342D374344352D343846342D423237312D303033
311
3746303346334639382F4173736574446174612F636E782E786D6C504B01021400140006080800D0717857190B340A080100004F0300003400000000000000000000000000240E000039323538313341342D374344352D343846342D423237312D3030333746303346334639382F536368656D61732F636E782E786D6C504B
311
01021400140006080800D0717857410A3D5871000000A40000002C000000000000000000000000007E0F000039323538313341342D374344352D343846342D423237312D3030333746303346334639382F636E782E786D6C504B01021400140006080800D07178572C30C6867E000000A30000000700000000000000000000
311
00000039100000636E782E786D6C504B01021400140006080800D071785716E99B5DA6000000350100001300000000000000000000000000DC1000005B436F6E74656E745F54797065735D2E786D6C504B01021400140006080800D07178573DEE336E64000000790000001B00000000000000000000000000B31100006175
311
746F6465736B2D64657369676E2D7061636B6167652E786D6C504B01021400140006080800D0717857E7863600F80000009601000037000000000000000000000000005012000039323538313341342D374344352D343846342D423237312D3030333746303346334639382F4173736574446174612F636F72652E786D6C50
311
4B01021400140006080800D07178575D888979F70000009401000035000000000000000000000000009D13000039323538313341342D374344352D343846342D423237312D3030333746303346334639382F536368656D61732F636F72652E786D6C504B01021400140006080800D07178577B049C8200010000D70100002D
311
00000000000000000000000000E714000039323538313341342D374344352D343846342D423237312D3030333746303346334639382F636F72652E786D6C504B01021400140006080800D07178570CCDE9BA07010000B2010000080000000000000000000000000032160000636F72652E786D6C504B050600000000110011
311
005A0600005F1700000000
310
504B0304140006080800D0717857000000000000000000000000370000006662782F45324231384137302D353536432D344631422D383236352D4239393534364535464233462F617474726962757465732E62696E504B0304140006080800D0717857000000000000000000000000350000006662782F4532423138413730
310
2D353536432D344631422D383236352D4239393534364535464233462F76657274696365732E62696E504B0304140006080800D0717857F270F1330600000004000000360000006662782F45324231384137302D353536432D344631422D383236352D4239393534364535464233462F747269616E676C65732E62696E6366
310
60600000504B0304140006080800D071785751464CB48900000043010000360000006662782F45324231384137302D353536432D344631422D383236352D4239393534364535464233462F6469726563746F72792E786D6C9D8F310EC2300C45AF127987122606C71DD918B841D4B851A43646695A717C52A85029031293A5
310
A76FBF6FACEF7DA7264E43906840EF0FA03836E242F406C6DCEE4EA06AC22492573150D1F66C60C640E8938CB705396EEDD86DE9B5042FE27813D640EA63BB001C722AF6E55CB61E4863F58284D5D3F53DD715CE1C3985E63FD7F1B7EBDD617E9F1E504B0304140006080800D07178571562543638070000201C0000340000
310
006662782F45324231384137302D353536432D344631422D383236352D4239393534364535464233462F6F626A656374732E786D6CDD59596FDB3810FE2B84F665F741972D2771A1B8F091144691B6A8D1C5BE09B44C3BDCE8022925CEFEFA1D52A42CC9B2AD745BA0D80488159A1CCE7C738FFCF7FB3842CF84719A26B786
310
6B39062249986E68B2BB358A7C6BDE18E8FD04F92C4DF3DA3E03253826B786583626FE8EA545A69636648B8BA8BD7A3FFB0BF19024C440618439BF3578F848626CE1224F37843F591B9C636BB7DD5BAE556E6C92DD319C3DB6AECA3023490EACC27A025414076EF35F10C99EF8B6D8D0D836E8B76D78669B2D056F324A139E
310
E3243CE2AA4567D08FABA1EB2DEE06A3B139F2BCA1E95D0D5C73763F5B98EEF5D0995FCDE7E3E9DDD840137F9DA651A5808C241BD0E2AB31717D5B7C5389AF50E8E23B4C9384840ACDAE0D1BA2E852C2DB98348075A568358594B2D616863D853FB1AD17280D961A686BE1F467DD7AD3F5DF0002EF63A58C1361E53C67A06B
310
857DE90F8E6F97AB0DBD508E629C1346718422BA66988182606BA9A00619E12D82141298492D6A7A755EC1B02FFB521797DB228A84FF1A13E96901F823C9B9E48CFE43D881FBFA6DC013485BD024BF51C2E6AF199018FBB65C2CBF1B0ED4972590681BE11D580B8829360D072DBCE622162C17C6E4E3FD7ABF12F1A1FBF28C
310
A51961B9B03CE9CCCAEFB4066BA605C6D7039412D7A6EE0EA87C05E83F01F2152FC807CD31BAF7F69E969DE1846F5316837690834C07FE38483C1E3DF9767578825023569EC214DCF60761DA10A371770DD289FF0C469FB2A1126E15E2086CFA8126C2CFC1505094C212C4FBED7A6F4C96104C61114EE108A4875FDF168F08
310
3E4A3A106F5A1AEA0ABF3D14A51DA6ED67075D7D009B6134AC54D590F114BEA31F82EF74B1FAB82AD81687E44139F6826C69427348A6DD0C35406FB8FCB7E527E99147F234768570CF2E1581A3432F2BA517241503AC883C5CAA46AE3C5070F728C209490BAED6BB02559846290BD6AF41E9C39D77FDA98DA0BC0CFC5B5840
310
673083EC1E329A09508C8912AF8A84D6012711079501EE4AA5066B1C3E0978831022D6F7F001568B599B681167018ED32211E1FBD8BCDBA2594347FEB8EE78E08C0737E32B2D2C97E4B5F7E8D050312FEE897176E29279435B2A6A68CAA51F79102DBB2408A1662AF220CD7048F36E5B6809A13C14C03ECBF2866EB70587A0
310
DE094B8B636BE88E9053FB5B5D729E7B75494063BC23C1168B0CD7795F03A08AB896A013995D94724E13C265857214B95AA838160482D26E35D50E23A43C88498EBFC7FE64CA6B991F23DB28805A2A17D5EC65EBD30CAAEC798AA2A8DCD22490F2BF061CC75954566997307007AD1B3A71154C8B2B9EC1DE029C07CE86C8A2
310
FB12F52A2E687C7B511F7F37F913F030FCD3E1D1575028BD21475ED6AC6B8DDCB1F8B981A072357287D75A1197B0D257E5A206890AA89AC2D7E085D0DD63BF80D6EB1E4EA26D40A3A88883321FE42486120CE705EBE5AF5723E748F92A2EB41CA276D396465020F70E9AB2F6D0D50748258B8F5341B3760D084513E8D17A09
310
722445A7094B5DC87E54B45D97B5FF76AAFF395ED6FB9427F2FA92B24D27A7CD32425760BA6010E15265B8CA8E24E5895F77BE58362E9771F0341115DFCA2E41590823CF540C266407D4D93FF0179C87104857F2D39C81476CC8E6505334C8A9318731814B35355DA7D63B1D0876227D340AAFA508A8314C1BB088B30FE221
310
FA8A41D550F9715B553576B9BE1489CD82C1CA818F33B43E7F58B5A8C04AEFD35F0446E4A54541ADCE45217786D4B7E5A15E6D5150127D5B9E399E3F16F13AC154644661167893BD7B2F7BC95B1B1A057BEE0C9CE17C71678EEE860BD3BB1EDC9BB3C5C233E7EEEC6EE07937D7DEE8C66684A7050B09B707B613E8DA294B76
310
DA304AE8FA74143055B8DCFA697B6E2BF87FDC5144E91A9FB2C55FB5A1A8CA3D5190B57CB16F43D119A8D76FABFEDDA340DD9DC4DE543997B3026DE0E7D31604239DEFFB97169AB4AE24BA79AE65C43726DE93DDCA4FCF318D80DE991F1A3BBA427E3316C3ECA9234BE9EEB61C71CCBCF9DD68303517AE7B6D7AD3D1D41C0F
310
E753F3DA9BB91E0C60DDAB6B688D541FA17261DFBCF24BC450CD6C6D8C06D3609E461486F264837624850E08A60E3DE22B8B09979D0D14002A8DEB37023D4E3F9733D51CAF237D3A7CC430988E54462E42188A42D7716BA875F41B8C41C524520EA7AC27483CCADA0D54307A6B8009E414F28BB58671961C1E4AEAAD7125A8
310
0D273BD13395A7AAFF0FC7043A602B07B9AA3D7D70519235AC138603997C4F00D14E1724DF2FBA6607E11C1ED7455E0973583848A340D02F044AE160EAF7A4E0DD43E0392F976BC93D0D487A4DE6CFDA4149D5CC31DBC9F17A0DEFE9E28B2D26E3CBCF288B8A9D50E7B97CDFA0648A3A232ACA21940F86A1C4CCB0E8C3E7EF
310
EC2F2C85574C31BAA76004E8F7FDCDD51FF63C8DE3342997ECA97A5185568FF0DA6963EB911F142E8E3BB265DDA3C6FA30B7E2C4C21BFE040BA05A46C56CB484B861005578AA1980D688D0051C6BEC5F2E904A02B512B65EBA0A78E44C1F8123897739C26DEA1B6A0348F005E0AA9CD3560F7AC1B7190CC127FF02504B0304
310
140006080800D07178578F47DB3E3D01000046050000300000006662782F45324231384137302D353536432D344631422D383236352D4239393534364535464233462F636E782E786D6CCD94C16A032110865F45BCAF66373994E21AC8A14FD043E9CD75275B1B57179D2DCDDB575393B694941E02097890F117FE6FE667C4
310
FA7DB4E40D4234DEB5B4660B4AC069DF1B37B474C66D7547C95A8AE03D7E9351E2D4082DCD652AC510FC3C95520F5B35DB5CB5C6ED4A512106D3CD0891126D558C2D8DFA0546C5D48CBE87B863BD42C56A1620FA396848FFD18C50FEEB000AA1A7B25934CBAAAEAB66F558AFEED35936CF8267A5149DF7B6E88D43087E22DA
310
A78B4B661682E76729E6608A261350F9E58C75C6099EDEA588C9AD1B8A0EF753D64D93355A616A13F71A01AB2402350AFE29968267DE1FD40F9BA7A303D29B001A7DD85FA901F5B9069C8CB19484FFF11F847F63FBEE35E15E6BDA67618BAD8BA11ED31A535C7FCF3FA548B9C1DE5EE84FC62E9FF9B44AD0E8DB433EFABA10
310
313FACBC34F4BC01E507504B0304140006080800D0717857C3FBD07B7F000000A30000000B0000006662782F636E782E786D6C4D8CD10E822018465F85FDF79498106E828B26EFE1121D13A191B41E3F685E74F56D67DF395DFFD91C7A9BF8B2C10B20A70A90F18F3059BF0848FB8C39A05E763184FDEF06C88F9B115030C8
310
6E89213D0F3499794CAE5067FD7AC0A15684DFAE15A694DD71A389C2BC6614ABB6A50D1BA856179D8D7351F2FC7A794B5E7E01504B0304140006080800D0717857A6D797065F0000008200000007000000636E782E786D6C4DCB3B0E80201045D1AD90E9FD7516806B51190811670C8A61F982B1B0BAC9C97B72CA7B1037C6
310
D3332918DA1E04D2CAC69353902EDB8C20262D23F3F59B81A079470595414B17391D1F19B4730A5583A7ED43BBE4025D9592775E5ADFFA01504B0304140006080800D07178574FEB6A7CA0000000F4000000130000005B436F6E74656E745F54797065735D2E786D6C7D8F4B0EC2300C44AF1279DFA6B0400835ED02B80117
310
30C16D239A8F121795DB93D02D6269CFBC19BBED573B8B17C564BC53B0AB1B10E4B47F18372A5878A88E20FAAEBDBD032591BD2E299898C349CAA427B2986A1FC86565F0D122E7318E32A07EE24872DF3407A9BD63725C71C980AEBDD080CBCCE2BAE6F5D69B7110E7CD57AA146008B3D1C8F92C5954F993BB1BF787F39A89
310
ABC491D09600F9FDA2FB00504B0304140006080800D07178573DEE336E64000000790000001B0000006175746F6465736B2D64657369676E2D7061636B6167652E786D6C35CBC10E83200C00D05F21DCA56CA76D41FC96062B120735B69A7DBE268BB7777961F8D5AF396893C2ADB70FE7ADA196782C2DF776D7A97B5933C4
310
30F15651E5469C55D70F80A4992A3ADC954792C525AE70A1E4D6AD9816CC044FEFDF01FE3FDE907802504B0304140006080800D0717857B291FA0BF8000000960100003B0000006662782F45324231384137302D353536432D344631422D383236352D4239393534364535464233462F7265736F75726365732F636F72652E
310
786D6C8550CB6AC33010FC15B377D996EC98A4C80A36265FD0536F42DE2422B164F428FDFC4AB10BEDA92058313B33BB3BFCFCB53C8B4F745E5BD3032D6B28D0283B6B73EB21862B39427116DC591B7ED1A03072C11E320C82DF9C8DEB0E296B029A8C1A3BE30E4AEF3140A19EE9D38357775C642963480CFF2857A91EF286
310
252D379EE031EA7997EA39B9E9AB4607E2429B693A5E5AD2D06E226D474732D60323A7C3E9308EC3D88D6CE055160B1EF4F2335D3994016710AC660DA194B0F69DB66FE935EC83579929B80F2EDDBC0FCDD78170E86D740A3DAFB6EE1FD7B8CEFFBB466D42C376D74DE141D0B4E4AB217895534AE51561AA3951F10D504B03
310
04140006080800D071785776D9DA49F2000000B1010000310000006662782F45324231384137302D353536432D344631422D383236352D4239393534364535464233462F636F72652E786D6C8D504B6EC32014BC8AF5F6D8067FEA4498A8AE921374D51D02E2A2C460F1A97AFC42EC4AED2E12D243C30C336FE8E97BB9175F
310
CA796DCD08B8ACA1504658A9CD3C420C5734407162D4591BFED0A0307C51236418189D9D8DEB0E096B8232193556AA1DE4DEAB0085B8A7CB085E7CAA85973C86C4F0B772E5E2C66755E272E3311AF4F22B154EF1A02430529306618C48FB8EDB633A0DF9A05566321AA396BB9596C95D5FB572C0CE64C2C3EB4B8DBAAE7F43
310
ED054F68207D87A6C3A16BFB7377999A0BADB298511F5CDA79FF246FF7AC7C13FECB1C57F944666D424376C34DE181E194E7F1C068950B4CE3D16E9AB96CF603504B0304140006080800D0717857C2E3BDBF52010000DD0200000C0000006662782F636F72652E786D6C8D52CB6E833010FC15E43B0F1B12A595711414E50B
310
7AEACD310EB502363236CAE777CD433487A615085BB33BB33B23E8F1D1B5D128EDA08C2E114E3214492D4CAD745322EF6EF101454746AD31EE471B8A34EF6489028C186DACF1FD0209A39DD401D5A6960BC887413A1489162E251AC497EC78C2BD838EE19EF45CDC7923139CCC7D8C7AAFEA85AA6A505337252D62179C9FCF
310
874B11E7787F8E8B3DAEE22A3B91F86DF7B6ABAA53B5AFC889A681CCA853DD3A5D58C99DAC112319C9638C63527CE0E21DDE9C7CD23474323A380B9E97A1C11D62B7EB83A633FEA4E7FBFA6F3DAFB4CBC9A2373306C430AC3715184D433E704CE13D670883213FC7AFED6AE10ED0288533B6804A6DFC561A79EB254867D1F4
310
D074AE82F224F09B0E79A1F35A0382E2BA81D5B883EBD5BB30FD79A75EDA78748F481BDBF1765B6E5E71FB6E839E2CAD74615A63FFC35EADAE61A6E1C764DF504B0304140006080800D071785795700E9707010000B201000008000000636F72652E786D6C8D50416EC32010FC0ADA3BB6C18E955498C8C8CA0B7AEA8D1AE2
310
A2D860018EDADF1712576A6F959016CDCCEECC2E3B7F2E33BA6B1F8CB31D90A202A4EDE894B153075BBCE223A03367DEB9F84B06C8CA45779061E06CF26E5B776874366A9B51EB94DE4119828E80C6397D3A08E3875E6421B79814E156AC72BCC94917A478EA388B66F9691DBD96512BE0B4A2352604D3E695342FE9D5F48D
310
9559C9D9B619B55B1995DCCDD5680FFC42EA61385E1A5C9376C04D4B0416554FF1E9703A08D18B56D09E95B999B3107DDA791F92724614E43DFBB2F24971F6EEDCBC0B5228859C9DBF8057ACCCC49FD0DBAAFE11DAD858D37DE0B323002729D08348C6F982A93CCE9B6ABE36FF06504B01021400140006080800D071785700
310
00000000000000000000003700000000000000000000000000000000006662782F45324231384137302D353536432D344631422D383236352D4239393534364535464233462F617474726962757465732E62696E504B01021400140006080800D0717857000000000000000000000000350000000000000000000000000055
310
0000006662782F45324231384137302D353536432D344631422D383236352D4239393534364535464233462F76657274696365732E62696E504B01021400140006080800D0717857F270F13306000000040000003600000000000000000000000000A80000006662782F45324231384137302D353536432D344631422D3832
310
36352D4239393534364535464233462F747269616E676C65732E62696E504B01021400140006080800D071785751464CB489000000430100003600000000000000000000000000020100006662782F45324231384137302D353536432D344631422D383236352D4239393534364535464233462F6469726563746F72792E78
310
6D6C504B01021400140006080800D07178571562543638070000201C00003400000000000000000000000000DF0100006662782F45324231384137302D353536432D344631422D383236352D4239393534364535464233462F6F626A656374732E786D6C504B01021400140006080800D07178578F47DB3E3D010000460500
310
003000000000000000000000000000690900006662782F45324231384137302D353536432D344631422D383236352D4239393534364535464233462F636E782E786D6C504B01021400140006080800D0717857C3FBD07B7F000000A30000000B00000000000000000000000000F40A00006662782F636E782E786D6C504B01
310
021400140006080800D0717857A6D797065F0000008200000007000000000000000000000000009C0B0000636E782E786D6C504B01021400140006080800D07178574FEB6A7CA0000000F40000001300000000000000000000000000200C00005B436F6E74656E745F54797065735D2E786D6C504B01021400140006080800
310
D07178573DEE336E64000000790000001B00000000000000000000000000F10C00006175746F6465736B2D64657369676E2D7061636B6167652E786D6C504B01021400140006080800D0717857B291FA0BF8000000960100003B000000000000000000000000008E0D00006662782F45324231384137302D353536432D3446
310
31422D383236352D4239393534364535464233462F7265736F75726365732F636F72652E786D6C504B01021400140006080800D071785776D9DA49F2000000B10100003100000000000000000000000000DF0E00006662782F45324231384137302D353536432D344631422D383236352D4239393534364535464233462F63
310
6F72652E786D6C504B01021400140006080800D0717857C2E3BDBF52010000DD0200000C00000000000000000000000000201000006662782F636F72652E786D6C504B01021400140006080800D071785795700E9707010000B201000008000000000000000000000000009C110000636F72652E786D6C504B050600000000
310
0E000E0080040000C91200000000
  0
XRECORD
  5
8378
102
{ACAD_REACTORS
330
8373
102
}
330
8373
100
AcDbXrecord
280
     1
270
     1
271
     1
  0
XRECORD
  5
8377
102
{ACAD_REACTORS
330
8373
102
}
330
8373
100
AcDbXrecord
280
     1
270
     1
271
     1
  0
XRECORD
  5
8379
102
{ACAD_REACTORS
330
8373
102
}
330
8373
100
AcDbXrecord
280
     1
270
     1
271
     1
  0
XRECORD
  5
8376
102
{ACAD_REACTORS
330
8373
102
}
330
8373
100
AcDbXrecord
280
     1
270
     1
271
     1
  0
XRECORD
  5
87A5
102
{ACAD_REACTORS
330
87A4
102
}
330
87A4
100
AcDbXrecord
280
     1
102
DISPLAYNAME
  1
Imperial24
102
FLAGS
 90
        0
  0
CELLSTYLEMAP
  5
876C
102
{ACAD_REACTORS
330
876B
102
}
330
876B
100
AcDbCellStyleMap
 90
        3
300
CELLSTYLE
  1
TABLEFORMAT_BEGIN
 90
        5
170
     1
 91
        0
 92
    32768
 62
   257
 93
        1
300
CONTENTFORMAT
  1
CONTENTFORMAT_BEGIN
 90
        0
 91
        0
 92
      512
 93
        0
300

 40
0.0
140
1.0
 94
        5
 62
     0
340
83A6
144
0.25
309
CONTENTFORMAT_END
171
     0
 94
        0
309
TABLEFORMAT_END
  1
CELLSTYLE_BEGIN
 90
        1
 91
        1
300
_TITLE
309
CELLSTYLE_END
300
CELLSTYLE
  1
TABLEFORMAT_BEGIN
 90
        5
170
     1
 91
        0
 92
        0
 62
   257
 93
        1
300
CONTENTFORMAT
  1
CONTENTFORMAT_BEGIN
 90
        0
 91
        0
 92
      512
 93
        0
300

 40
0.0
140
1.0
 94
        5
 62
     0
340
83A6
144
0.18
309
CONTENTFORMAT_END
171
     0
 94
        0
309
TABLEFORMAT_END
  1
CELLSTYLE_BEGIN
 90
        2
 91
        1
300
_HEADER
309
CELLSTYLE_END
300
CELLSTYLE
  1
TABLEFORMAT_BEGIN
 90
        5
170
     1
 91
        0
 92
        0
 62
   257
 93
        1
300
CONTENTFORMAT
  1
CONTENTFORMAT_BEGIN
 90
        0
 91
        0
 92
      512
 93
        0
300

 40
0.0
140
1.0
 94
        2
 62
     0
340
83A6
144
0.18
309
CONTENTFORMAT_END
171
     0
 94
        0
309
TABLEFORMAT_END
  1
CELLSTYLE_BEGIN
 90
        3
 91
        2
300
_DATA
309
CELLSTYLE_END
  0
XRECORD
  5
87A2
102
{ACAD_REACTORS
330
876B
102
}
330
876B
100
AcDbXrecord
280
     1
102
ACAD_ROUNDTRIP_PRE2007_TABLESTYLE
 90
      512
 91
        0
  1

 92
      512
 93
        0
  2

 94
      512
 95
        0
  3

  0
XRECORD
  5
877D
102
{ACAD_REACTORS
330
877C
102
}
330
877C
100
AcDbXrecord
280
     1
102
RTVSPost2010Prop28
280
     1
102
RTVSPost2010PropOp28
 70
     1
102
RTVSPost2010Prop29
280
     1
102
RTVSPost2010PropOp29
 70
     1
102
RTVSPost2010Prop30
280
     0
102
RTVSPost2010PropOp30
 70
     1
102
RTVSPost2010Prop31
280
     0
102
RTVSPost2010PropOp31
 70
     1
102
RTVSPost2010Prop32
280
     0
102
RTVSPost2010PropOp32
 70
     1
102
RTVSPost2010Prop33
280
     0
102
RTVSPost2010PropOp33
 70
     1
102
RTVSPost2010Prop34
280
     0
102
RTVSPost2010PropOp34
 70
     1
102
RTVSPost2010Prop35
280
     0
102
RTVSPost2010PropOp35
 70
     1
102
RTVSPost2010Prop36
280
     0
102
RTVSPost2010PropOp36
 70
     1
102
RTVSPost2010Prop37
 90
       50
102
RTVSPost2010PropOp37
 70
     1
102
RTVSPost2010Prop38
140
0.0
102
RTVSPost2010PropOp38
 70
     1
102
RTVSPost2010Prop39
140
1.0
102
RTVSPost2010PropOp39
 70
     1
102
RTVSPost2010Prop40
 90
        0
102
RTVSPost2010PropOp40
 70
     1
102
RTVSPost2010Prop41ColorIndex
 90
       18
102
RTVSPost2010Prop41ColorRGB
 90
        0
102
RTVSPost2010PropOp41
 70
     1
102
RTVSPost2010Prop42
 90
       50
102
RTVSPost2010PropOp42
 70
     1
102
RTVSPost2010Prop43
 90
        3
102
RTVSPost2010PropOp43
 70
     1
102
RTVSPost2010Prop44ColorIndex
 90
        5
102
RTVSPost2010Prop44ColorRGB
 90
      255
102
RTVSPost2010PropOp44
 70
     1
102
RTVSPost2010Prop45
280
     0
102
RTVSPost2010PropOp45
 70
     1
102
RTVSPost2010Prop46
 90
       50
102
RTVSPost2010PropOp46
 70
     1
102
RTVSPost2010Prop47
 90
       50
102
RTVSPost2010PropOp47
 70
     1
102
RTVSPost2010Prop48
 90
       50
102
RTVSPost2010PropOp48
 70
     1
102
RTVSPost2010Prop49
280
     0
102
RTVSPost2010PropOp49
 70
     1
102
RTVSPost2010Prop50
 90
       50
102
RTVSPost2010PropOp50
 70
     1
102
RTVSPost2010Prop51ColorIndex
 90
      256
102
RTVSPost2010Prop51ColorRGB
 90
-16777216
102
RTVSPost2010PropOp51
 70
     0
102
RTVSPost2010Prop52
140
1.0
102
RTVSPost2010PropOp52
 70
     0
102
RTVSPost2010Prop53
 90
        2
102
RTVSPost2010PropOp53
 70
     1
102
RTVSPost2010Prop54
  1
strokes_ogs.tif
102
RTVSPost2010PropOp54
 70
     1
102
RTVSPost2010Prop55
280
     0
102
RTVSPost2010PropOp55
 70
     1
102
RTVSPost2010Prop56
140
1.0
102
RTVSPost2010PropOp56
 70
     1
102
RTVSPost2010Prop57
140
1.0
102
RTVSPost2010PropOp57
 70
     1
102
RTVSPropertyOp0
 70
     1
102
RTVSPropertyOp1
 70
     1
102
RTVSPropertyOp2
 70
     1
102
RTVSPropertyOp3
 70
     1
102
RTVSPropertyOp4
 70
     1
102
RTVSPropertyOp5
 70
     1
102
RTVSPropertyOp6
 70
     1
102
RTVSPropertyOp7
 70
     1
102
RTVSPropertyOp8
 70
     1
102
RTVSPropertyOp9
 70
     1
102
RTVSPropertyOp10
 70
     1
102
RTVSPropertyOp11
 70
     1
102
RTVSPropertyOp12
 70
     1
102
RTVSPropertyOp13
 70
     1
102
RTVSPropertyOp14
 70
     1
102
RTVSPropertyOp15
 70
     1
102
RTVSPropertyOp16
 70
     1
102
RTVSPropertyOp17
 70
     1
102
RTVSPropertyOp18
 70
     1
102
RTVSPropertyOp19
 70
     1
102
RTVSPropertyOp20
 70
     1
102
RTVSPropertyOp21
 70
     1
102
RTVSPropertyOp22
 70
     1
102
RTVSPropertyOp23
 70
     1
102
RTVSPropertyOp24
 70
     1
102
RTVSPropertyOp25
 70
     1
102
RTVSPropertyOp26
 70
     1
102
RTVSPropertyOp27
 70
     1
102
RTVSPropertyOp28
 70
     1
102
RTVSPropertyOp29
 70
     1
102
RTVSPropertyOp30
 70
     1
102
RTVSPropertyOp31
 70
     1
102
RTVSPropertyOp32
 70
     1
102
RTVSPropertyOp33
 70
     1
102
RTVSPropertyOp34
 70
     1
102
RTVSPropertyOp35
 70
     1
102
RTVSPropertyOp36
 70
     1
102
RTVSPropertyOp37
 70
     1
102
RTVSPropertyOp38
 70
     1
102
RTVSPropertyOp39
 70
     1
102
RTVSPropertyOp40
 70
     1
102
RTVSPropertyOp41
 70
     1
102
RTVSPropertyOp42
 70
     1
102
RTVSPropertyOp43
 70
     1
102
RTVSPropertyOp44
 70
     1
102
RTVSPropertyOp45
 70
     1
102
RTVSPropertyOp46
 70
     1
102
RTVSPropertyOp47
 70
     1
102
RTVSPropertyOp48
 70
     1
102
RTVSPropertyOp49
 70
     1
102
RTVSPropertyOp50
 70
     1
102
RTVSPropertyOp51
 70
     0
102
RTVSPropertyOp52
 70
     0
102
RTVSPropertyOp53
 70
     1
102
RTVSPropertyOp54
 70
     1
102
RTVSPropertyOp55
 70
     1
102
RTVSPropertyOp56
 70
     1
102
RTVSPropertyOp57
 70
     1
102
RTVSPropertyOp58
 70
     1
102
RTVSPropertyOp59
 70
     1
102
RTVSPropertyOp60
 70
     1
102
RTVSPropertyOp61
 70
     1
102
RTVSPropertyOp62
 70
     1
  0
XRECORD
  5
877B
102
{ACAD_REACTORS
330
877A
102
}
330
877A
100
AcDbXrecord
280
     1
102
RTVSPost2010Prop28
280
     0
102
RTVSPost2010PropOp28
 70
     1
102
RTVSPost2010Prop29
280
     1
102
RTVSPost2010PropOp29
 70
     1
102
RTVSPost2010Prop30
280
     1
102
RTVSPost2010PropOp30
 70
     1
102
RTVSPost2010Prop31
280
     0
102
RTVSPost2010PropOp31
 70
     1
102
RTVSPost2010Prop32
280
     0
102
RTVSPost2010PropOp32
 70
     1
102
RTVSPost2010Prop33
280
     0
102
RTVSPost2010PropOp33
 70
     1
102
RTVSPost2010Prop34
280
     0
102
RTVSPost2010PropOp34
 70
     1
102
RTVSPost2010Prop35
280
     0
102
RTVSPost2010PropOp35
 70
     1
102
RTVSPost2010Prop36
280
     0
102
RTVSPost2010PropOp36
 70
     1
102
RTVSPost2010Prop37
 90
       50
102
RTVSPost2010PropOp37
 70
     1
102
RTVSPost2010Prop38
140
0.0
102
RTVSPost2010PropOp38
 70
     1
102
RTVSPost2010Prop39
140
1.0
102
RTVSPost2010PropOp39
 70
     1
102
RTVSPost2010Prop40
 90
        0
102
RTVSPost2010PropOp40
 70
     1
102
RTVSPost2010Prop41ColorIndex
 90
       18
102
RTVSPost2010Prop41ColorRGB
 90
        0
102
RTVSPost2010PropOp41
 70
     1
102
RTVSPost2010Prop42
 90
       50
102
RTVSPost2010PropOp42
 70
     1
102
RTVSPost2010Prop43
 90
        3
102
RTVSPost2010PropOp43
 70
     1
102
RTVSPost2010Prop44ColorIndex
 90
        5
102
RTVSPost2010Prop44ColorRGB
 90
      255
102
RTVSPost2010PropOp44
 70
     1
102
RTVSPost2010Prop45
280
     0
102
RTVSPost2010PropOp45
 70
     1
102
RTVSPost2010Prop46
 90
       50
102
RTVSPost2010PropOp46
 70
     1
102
RTVSPost2010Prop47
 90
       50
102
RTVSPost2010PropOp47
 70
     1
102
RTVSPost2010Prop48
 90
       50
102
RTVSPost2010PropOp48
 70
     1
102
RTVSPost2010Prop49
280
     0
102
RTVSPost2010PropOp49
 70
     1
102
RTVSPost2010Prop50
 90
       50
102
RTVSPost2010PropOp50
 70
     1
102
RTVSPost2010Prop51ColorIndex
 90
      256
102
RTVSPost2010Prop51ColorRGB
 90
-16777216
102
RTVSPost2010PropOp51
 70
     0
102
RTVSPost2010Prop52
140
1.0
102
RTVSPost2010PropOp52
 70
     0
102
RTVSPost2010Prop53
 90
        2
102
RTVSPost2010PropOp53
 70
     1
102
RTVSPost2010Prop54
  1
strokes_ogs.tif
102
RTVSPost2010PropOp54
 70
     1
102
RTVSPost2010Prop55
280
     0
102
RTVSPost2010PropOp55
 70
     1
102
RTVSPost2010Prop56
140
1.0
102
RTVSPost2010PropOp56
 70
     1
102
RTVSPost2010Prop57
140
1.0
102
RTVSPost2010PropOp57
 70
     1
102
RTVSPropertyOp0
 70
     1
102
RTVSPropertyOp1
 70
     1
102
RTVSPropertyOp2
 70
     1
102
RTVSPropertyOp3
 70
     1
102
RTVSPropertyOp4
 70
     1
102
RTVSPropertyOp5
 70
     1
102
RTVSPropertyOp6
 70
     1
102
RTVSPropertyOp7
 70
     1
102
RTVSPropertyOp8
 70
     1
102
RTVSPropertyOp9
 70
     1
102
RTVSPropertyOp10
 70
     1
102
RTVSPropertyOp11
 70
     1
102
RTVSPropertyOp12
 70
     1
102
RTVSPropertyOp13
 70
     1
102
RTVSPropertyOp14
 70
     1
102
RTVSPropertyOp15
 70
     1
102
RTVSPropertyOp16
 70
     1
102
RTVSPropertyOp17
 70
     1
102
RTVSPropertyOp18
 70
     1
102
RTVSPropertyOp19
 70
     1
102
RTVSPropertyOp20
 70
     1
102
RTVSPropertyOp21
 70
     1
102
RTVSPropertyOp22
 70
     1
102
RTVSPropertyOp23
 70
     1
102
RTVSPropertyOp24
 70
     1
102
RTVSPropertyOp25
 70
     1
102
RTVSPropertyOp26
 70
     1
102
RTVSPropertyOp27
 70
     1
102
RTVSPropertyOp28
 70
     1
102
RTVSPropertyOp29
 70
     1
102
RTVSPropertyOp30
 70
     1
102
RTVSPropertyOp31
 70
     1
102
RTVSPropertyOp32
 70
     1
102
RTVSPropertyOp33
 70
     1
102
RTVSPropertyOp34
 70
     1
102
RTVSPropertyOp35
 70
     1
102
RTVSPropertyOp36
 70
     1
102
RTVSPropertyOp37
 70
     1
102
RTVSPropertyOp38
 70
     1
102
RTVSPropertyOp39
 70
     1
102
RTVSPropertyOp40
 70
     1
102
RTVSPropertyOp41
 70
     1
102
RTVSPropertyOp42
 70
     1
102
RTVSPropertyOp43
 70
     1
102
RTVSPropertyOp44
 70
     1
102
RTVSPropertyOp45
 70
     1
102
RTVSPropertyOp46
 70
     1
102
RTVSPropertyOp47
 70
     1
102
RTVSPropertyOp48
 70
     1
102
RTVSPropertyOp49
 70
     1
102
RTVSPropertyOp50
 70
     1
102
RTVSPropertyOp51
 70
     0
102
RTVSPropertyOp52
 70
     0
102
RTVSPropertyOp53
 70
     1
102
RTVSPropertyOp54
 70
     1
102
RTVSPropertyOp55
 70
     1
102
RTVSPropertyOp56
 70
     1
102
RTVSPropertyOp57
 70
     1
102
RTVSPropertyOp58
 70
     1
102
RTVSPropertyOp59
 70
     1
102
RTVSPropertyOp60
 70
     1
102
RTVSPropertyOp61
 70
     1
102
RTVSPropertyOp62
 70
     1
  0
XRECORD
  5
8789
102
{ACAD_REACTORS
330
8788
102
}
330
8788
100
AcDbXrecord
280
     1
102
RTVSPost2010Prop28
280
     0
102
RTVSPost2010PropOp28
 70
     1
102
RTVSPost2010Prop29
280
     1
102
RTVSPost2010PropOp29
 70
     1
102
RTVSPost2010Prop30
280
     1
102
RTVSPost2010PropOp30
 70
     1
102
RTVSPost2010Prop31
280
     0
102
RTVSPost2010PropOp31
 70
     1
102
RTVSPost2010Prop32
280
     0
102
RTVSPost2010PropOp32
 70
     1
102
RTVSPost2010Prop33
280
     0
102
RTVSPost2010PropOp33
 70
     1
102
RTVSPost2010Prop34
280
     0
102
RTVSPost2010PropOp34
 70
     1
102
RTVSPost2010Prop35
280
     0
102
RTVSPost2010PropOp35
 70
     1
102
RTVSPost2010Prop36
280
     0
102
RTVSPost2010PropOp36
 70
     1
102
RTVSPost2010Prop37
 90
       50
102
RTVSPost2010PropOp37
 70
     1
102
RTVSPost2010Prop38
140
0.0
102
RTVSPost2010PropOp38
 70
     1
102
RTVSPost2010Prop39
140
1.0
102
RTVSPost2010PropOp39
 70
     1
102
RTVSPost2010Prop40
 90
        0
102
RTVSPost2010PropOp40
 70
     1
102
RTVSPost2010Prop41ColorIndex
 90
       18
102
RTVSPost2010Prop41ColorRGB
 90
        0
102
RTVSPost2010PropOp41
 70
     1
102
RTVSPost2010Prop42
 90
       50
102
RTVSPost2010PropOp42
 70
     1
102
RTVSPost2010Prop43
 90
        3
102
RTVSPost2010PropOp43
 70
     1
102
RTVSPost2010Prop44ColorIndex
 90
        5
102
RTVSPost2010Prop44ColorRGB
 90
      255
102
RTVSPost2010PropOp44
 70
     1
102
RTVSPost2010Prop45
280
     0
102
RTVSPost2010PropOp45
 70
     1
102
RTVSPost2010Prop46
 90
       50
102
RTVSPost2010PropOp46
 70
     1
102
RTVSPost2010Prop47
 90
       50
102
RTVSPost2010PropOp47
 70
     1
102
RTVSPost2010Prop48
 90
       50
102
RTVSPost2010PropOp48
 70
     1
102
RTVSPost2010Prop49
280
     0
102
RTVSPost2010PropOp49
 70
     1
102
RTVSPost2010Prop50
 90
       50
102
RTVSPost2010PropOp50
 70
     1
102
RTVSPost2010Prop51ColorIndex
 90
      256
102
RTVSPost2010Prop51ColorRGB
 90
-16777216
102
RTVSPost2010PropOp51
 70
     0
102
RTVSPost2010Prop52
140
1.0
102
RTVSPost2010PropOp52
 70
     0
102
RTVSPost2010Prop53
 90
        2
102
RTVSPost2010PropOp53
 70
     1
102
RTVSPost2010Prop54
  1
strokes_ogs.tif
102
RTVSPost2010PropOp54
 70
     1
102
RTVSPost2010Prop55
280
     0
102
RTVSPost2010PropOp55
 70
     1
102
RTVSPost2010Prop56
140
1.0
102
RTVSPost2010PropOp56
 70
     1
102
RTVSPost2010Prop57
140
1.0
102
RTVSPost2010PropOp57
 70
     1
102
RTVSPropertyOp0
 70
     1
102
RTVSPropertyOp1
 70
     1
102
RTVSPropertyOp2
 70
     1
102
RTVSPropertyOp3
 70
     1
102
RTVSPropertyOp4
 70
     1
102
RTVSPropertyOp5
 70
     1
102
RTVSPropertyOp6
 70
     1
102
RTVSPropertyOp7
 70
     1
102
RTVSPropertyOp8
 70
     1
102
RTVSPropertyOp9
 70
     1
102
RTVSPropertyOp10
 70
     1
102
RTVSPropertyOp11
 70
     1
102
RTVSPropertyOp12
 70
     1
102
RTVSPropertyOp13
 70
     1
102
RTVSPropertyOp14
 70
     1
102
RTVSPropertyOp15
 70
     1
102
RTVSPropertyOp16
 70
     1
102
RTVSPropertyOp17
 70
     1
102
RTVSPropertyOp18
 70
     1
102
RTVSPropertyOp19
 70
     1
102
RTVSPropertyOp20
 70
     1
102
RTVSPropertyOp21
 70
     1
102
RTVSPropertyOp22
 70
     1
102
RTVSPropertyOp23
 70
     1
102
RTVSPropertyOp24
 70
     1
102
RTVSPropertyOp25
 70
     1
102
RTVSPropertyOp26
 70
     1
102
RTVSPropertyOp27
 70
     1
102
RTVSPropertyOp28
 70
     1
102
RTVSPropertyOp29
 70
     1
102
RTVSPropertyOp30
 70
     1
102
RTVSPropertyOp31
 70
     1
102
RTVSPropertyOp32
 70
     1
102
RTVSPropertyOp33
 70
     1
102
RTVSPropertyOp34
 70
     1
102
RTVSPropertyOp35
 70
     1
102
RTVSPropertyOp36
 70
     1
102
RTVSPropertyOp37
 70
     1
102
RTVSPropertyOp38
 70
     1
102
RTVSPropertyOp39
 70
     1
102
RTVSPropertyOp40
 70
     1
102
RTVSPropertyOp41
 70
     1
102
RTVSPropertyOp42
 70
     1
102
RTVSPropertyOp43
 70
     1
102
RTVSPropertyOp44
 70
     1
102
RTVSPropertyOp45
 70
     1
102
RTVSPropertyOp46
 70
     1
102
RTVSPropertyOp47
 70
     1
102
RTVSPropertyOp48
 70
     1
102
RTVSPropertyOp49
 70
     1
102
RTVSPropertyOp50
 70
     1
102
RTVSPropertyOp51
 70
     0
102
RTVSPropertyOp52
 70
     0
102
RTVSPropertyOp53
 70
     1
102
RTVSPropertyOp54
 70
     1
102
RTVSPropertyOp55
 70
     1
102
RTVSPropertyOp56
 70
     1
102
RTVSPropertyOp57
 70
     1
102
RTVSPropertyOp58
 70
     1
102
RTVSPropertyOp59
 70
     1
102
RTVSPropertyOp60
 70
     1
102
RTVSPropertyOp61
 70
     1
102
RTVSPropertyOp62
 70
     1
  0
XRECORD
  5
8791
102
{ACAD_REACTORS
330
8790
102
}
330
8790
100
AcDbXrecord
280
     1
102
RTVSPost2010Prop28
280
     0
102
RTVSPost2010PropOp28
 70
     1
102
RTVSPost2010Prop29
280
     1
102
RTVSPost2010PropOp29
 70
     1
102
RTVSPost2010Prop30
280
     1
102
RTVSPost2010PropOp30
 70
     1
102
RTVSPost2010Prop31
280
     0
102
RTVSPost2010PropOp31
 70
     1
102
RTVSPost2010Prop32
280
     0
102
RTVSPost2010PropOp32
 70
     1
102
RTVSPost2010Prop33
280
     0
102
RTVSPost2010PropOp33
 70
     1
102
RTVSPost2010Prop34
280
     0
102
RTVSPost2010PropOp34
 70
     1
102
RTVSPost2010Prop35
280
     0
102
RTVSPost2010PropOp35
 70
     1
102
RTVSPost2010Prop36
280
     0
102
RTVSPost2010PropOp36
 70
     1
102
RTVSPost2010Prop37
 90
       50
102
RTVSPost2010PropOp37
 70
     1
102
RTVSPost2010Prop38
140
0.0
102
RTVSPost2010PropOp38
 70
     1
102
RTVSPost2010Prop39
140
1.0
102
RTVSPost2010PropOp39
 70
     1
102
RTVSPost2010Prop40
 90
        0
102
RTVSPost2010PropOp40
 70
     1
102
RTVSPost2010Prop41ColorIndex
 90
       18
102
RTVSPost2010Prop41ColorRGB
 90
        0
102
RTVSPost2010PropOp41
 70
     1
102
RTVSPost2010Prop42
 90
       50
102
RTVSPost2010PropOp42
 70
     1
102
RTVSPost2010Prop43
 90
        3
102
RTVSPost2010PropOp43
 70
     1
102
RTVSPost2010Prop44ColorIndex
 90
        5
102
RTVSPost2010Prop44ColorRGB
 90
      255
102
RTVSPost2010PropOp44
 70
     1
102
RTVSPost2010Prop45
280
     0
102
RTVSPost2010PropOp45
 70
     1
102
RTVSPost2010Prop46
 90
       50
102
RTVSPost2010PropOp46
 70
     1
102
RTVSPost2010Prop47
 90
       50
102
RTVSPost2010PropOp47
 70
     1
102
RTVSPost2010Prop48
 90
       50
102
RTVSPost2010PropOp48
 70
     1
102
RTVSPost2010Prop49
280
     0
102
RTVSPost2010PropOp49
 70
     1
102
RTVSPost2010Prop50
 90
       50
102
RTVSPost2010PropOp50
 70
     1
102
RTVSPost2010Prop51ColorIndex
 90
      256
102
RTVSPost2010Prop51ColorRGB
 90
-16777216
102
RTVSPost2010PropOp51
 70
     0
102
RTVSPost2010Prop52
140
1.0
102
RTVSPost2010PropOp52
 70
     0
102
RTVSPost2010Prop53
 90
        2
102
RTVSPost2010PropOp53
 70
     1
102
RTVSPost2010Prop54
  1
strokes_ogs.tif
102
RTVSPost2010PropOp54
 70
     1
102
RTVSPost2010Prop55
280
     0
102
RTVSPost2010PropOp55
 70
     1
102
RTVSPost2010Prop56
140
1.0
102
RTVSPost2010PropOp56
 70
     1
102
RTVSPost2010Prop57
140
1.0
102
RTVSPost2010PropOp57
 70
     1
102
RTVSPropertyOp0
 70
     1
102
RTVSPropertyOp1
 70
     1
102
RTVSPropertyOp2
 70
     1
102
RTVSPropertyOp3
 70
     1
102
RTVSPropertyOp4
 70
     1
102
RTVSPropertyOp5
 70
     1
102
RTVSPropertyOp6
 70
     1
102
RTVSPropertyOp7
 70
     1
102
RTVSPropertyOp8
 70
     1
102
RTVSPropertyOp9
 70
     1
102
RTVSPropertyOp10
 70
     1
102
RTVSPropertyOp11
 70
     1
102
RTVSPropertyOp12
 70
     1
102
RTVSPropertyOp13
 70
     1
102
RTVSPropertyOp14
 70
     1
102
RTVSPropertyOp15
 70
     1
102
RTVSPropertyOp16
 70
     1
102
RTVSPropertyOp17
 70
     1
102
RTVSPropertyOp18
 70
     1
102
RTVSPropertyOp19
 70
     1
102
RTVSPropertyOp20
 70
     1
102
RTVSPropertyOp21
 70
     1
102
RTVSPropertyOp22
 70
     1
102
RTVSPropertyOp23
 70
     1
102
RTVSPropertyOp24
 70
     1
102
RTVSPropertyOp25
 70
     1
102
RTVSPropertyOp26
 70
     1
102
RTVSPropertyOp27
 70
     1
102
RTVSPropertyOp28
 70
     1
102
RTVSPropertyOp29
 70
     1
102
RTVSPropertyOp30
 70
     1
102
RTVSPropertyOp31
 70
     1
102
RTVSPropertyOp32
 70
     1
102
RTVSPropertyOp33
 70
     1
102
RTVSPropertyOp34
 70
     1
102
RTVSPropertyOp35
 70
     1
102
RTVSPropertyOp36
 70
     1
102
RTVSPropertyOp37
 70
     1
102
RTVSPropertyOp38
 70
     1
102
RTVSPropertyOp39
 70
     1
102
RTVSPropertyOp40
 70
     1
102
RTVSPropertyOp41
 70
     1
102
RTVSPropertyOp42
 70
     1
102
RTVSPropertyOp43
 70
     1
102
RTVSPropertyOp44
 70
     1
102
RTVSPropertyOp45
 70
     1
102
RTVSPropertyOp46
 70
     1
102
RTVSPropertyOp47
 70
     1
102
RTVSPropertyOp48
 70
     1
102
RTVSPropertyOp49
 70
     1
102
RTVSPropertyOp50
 70
     1
102
RTVSPropertyOp51
 70
     0
102
RTVSPropertyOp52
 70
     0
102
RTVSPropertyOp53
 70
     1
102
RTVSPropertyOp54
 70
     1
102
RTVSPropertyOp55
 70
     1
102
RTVSPropertyOp56
 70
     1
102
RTVSPropertyOp57
 70
     1
102
RTVSPropertyOp58
 70
     1
102
RTVSPropertyOp59
 70
     1
102
RTVSPropertyOp60
 70
     1
102
RTVSPropertyOp61
 70
     1
102
RTVSPropertyOp62
 70
     1
  0
XRECORD
  5
8783
102
{ACAD_REACTORS
330
8782
102
}
330
8782
100
AcDbXrecord
280
     1
102
RTVSPost2010Prop28
280
     0
102
RTVSPost2010PropOp28
 70
     1
102
RTVSPost2010Prop29
280
     1
102
RTVSPost2010PropOp29
 70
     1
102
RTVSPost2010Prop30
280
     1
102
RTVSPost2010PropOp30
 70
     1
102
RTVSPost2010Prop31
280
     0
102
RTVSPost2010PropOp31
 70
     1
102
RTVSPost2010Prop32
280
     0
102
RTVSPost2010PropOp32
 70
     1
102
RTVSPost2010Prop33
280
     0
102
RTVSPost2010PropOp33
 70
     1
102
RTVSPost2010Prop34
280
     0
102
RTVSPost2010PropOp34
 70
     1
102
RTVSPost2010Prop35
280
     0
102
RTVSPost2010PropOp35
 70
     1
102
RTVSPost2010Prop36
280
     0
102
RTVSPost2010PropOp36
 70
     1
102
RTVSPost2010Prop37
 90
       50
102
RTVSPost2010PropOp37
 70
     1
102
RTVSPost2010Prop38
140
0.0
102
RTVSPost2010PropOp38
 70
     1
102
RTVSPost2010Prop39
140
1.0
102
RTVSPost2010PropOp39
 70
     1
102
RTVSPost2010Prop40
 90
        0
102
RTVSPost2010PropOp40
 70
     1
102
RTVSPost2010Prop41ColorIndex
 90
       18
102
RTVSPost2010Prop41ColorRGB
 90
        0
102
RTVSPost2010PropOp41
 70
     1
102
RTVSPost2010Prop42
 90
       50
102
RTVSPost2010PropOp42
 70
     1
102
RTVSPost2010Prop43
 90
        3
102
RTVSPost2010PropOp43
 70
     1
102
RTVSPost2010Prop44ColorIndex
 90
        5
102
RTVSPost2010Prop44ColorRGB
 90
      255
102
RTVSPost2010PropOp44
 70
     1
102
RTVSPost2010Prop45
280
     0
102
RTVSPost2010PropOp45
 70
     1
102
RTVSPost2010Prop46
 90
       50
102
RTVSPost2010PropOp46
 70
     1
102
RTVSPost2010Prop47
 90
       50
102
RTVSPost2010PropOp47
 70
     1
102
RTVSPost2010Prop48
 90
       50
102
RTVSPost2010PropOp48
 70
     1
102
RTVSPost2010Prop49
280
     0
102
RTVSPost2010PropOp49
 70
     1
102
RTVSPost2010Prop50
 90
       50
102
RTVSPost2010PropOp50
 70
     1
102
RTVSPost2010Prop51ColorIndex
 90
      256
102
RTVSPost2010Prop51ColorRGB
 90
-16777216
102
RTVSPost2010PropOp51
 70
     0
102
RTVSPost2010Prop52
140
1.0
102
RTVSPost2010PropOp52
 70
     0
102
RTVSPost2010Prop53
 90
        2
102
RTVSPost2010PropOp53
 70
     1
102
RTVSPost2010Prop54
  1
strokes_ogs.tif
102
RTVSPost2010PropOp54
 70
     1
102
RTVSPost2010Prop55
280
     0
102
RTVSPost2010PropOp55
 70
     1
102
RTVSPost2010Prop56
140
1.0
102
RTVSPost2010PropOp56
 70
     1
102
RTVSPost2010Prop57
140
1.0
102
RTVSPost2010PropOp57
 70
     1
102
RTVSPropertyOp0
 70
     1
102
RTVSPropertyOp1
 70
     1
102
RTVSPropertyOp2
 70
     1
102
RTVSPropertyOp3
 70
     1
102
RTVSPropertyOp4
 70
     1
102
RTVSPropertyOp5
 70
     1
102
RTVSPropertyOp6
 70
     1
102
RTVSPropertyOp7
 70
     1
102
RTVSPropertyOp8
 70
     1
102
RTVSPropertyOp9
 70
     1
102
RTVSPropertyOp10
 70
     1
102
RTVSPropertyOp11
 70
     1
102
RTVSPropertyOp12
 70
     1
102
RTVSPropertyOp13
 70
     1
102
RTVSPropertyOp14
 70
     1
102
RTVSPropertyOp15
 70
     1
102
RTVSPropertyOp16
 70
     1
102
RTVSPropertyOp17
 70
     1
102
RTVSPropertyOp18
 70
     1
102
RTVSPropertyOp19
 70
     1
102
RTVSPropertyOp20
 70
     1
102
RTVSPropertyOp21
 70
     1
102
RTVSPropertyOp22
 70
     1
102
RTVSPropertyOp23
 70
     1
102
RTVSPropertyOp24
 70
     1
102
RTVSPropertyOp25
 70
     1
102
RTVSPropertyOp26
 70
     1
102
RTVSPropertyOp27
 70
     1
102
RTVSPropertyOp28
 70
     1
102
RTVSPropertyOp29
 70
     1
102
RTVSPropertyOp30
 70
     1
102
RTVSPropertyOp31
 70
     1
102
RTVSPropertyOp32
 70
     1
102
RTVSPropertyOp33
 70
     1
102
RTVSPropertyOp34
 70
     1
102
RTVSPropertyOp35
 70
     1
102
RTVSPropertyOp36
 70
     1
102
RTVSPropertyOp37
 70
     1
102
RTVSPropertyOp38
 70
     1
102
RTVSPropertyOp39
 70
     1
102
RTVSPropertyOp40
 70
     1
102
RTVSPropertyOp41
 70
     1
102
RTVSPropertyOp42
 70
     1
102
RTVSPropertyOp43
 70
     1
102
RTVSPropertyOp44
 70
     1
102
RTVSPropertyOp45
 70
     1
102
RTVSPropertyOp46
 70
     1
102
RTVSPropertyOp47
 70
     1
102
RTVSPropertyOp48
 70
     1
102
RTVSPropertyOp49
 70
     1
102
RTVSPropertyOp50
 70
     1
102
RTVSPropertyOp51
 70
     0
102
RTVSPropertyOp52
 70
     0
102
RTVSPropertyOp53
 70
     1
102
RTVSPropertyOp54
 70
     1
102
RTVSPropertyOp55
 70
     1
102
RTVSPropertyOp56
 70
     1
102
RTVSPropertyOp57
 70
     1
102
RTVSPropertyOp58
 70
     1
102
RTVSPropertyOp59
 70
     1
102
RTVSPropertyOp60
 70
     1
102
RTVSPropertyOp61
 70
     1
102
RTVSPropertyOp62
 70
     1
  0
XRECORD
  5
8787
102
{ACAD_REACTORS
330
8786
102
}
330
8786
100
AcDbXrecord
280
     1
102
RTVSPost2010Prop28
280
     0
102
RTVSPost2010PropOp28
 70
     1
102
RTVSPost2010Prop29
280
     1
102
RTVSPost2010PropOp29
 70
     1
102
RTVSPost2010Prop30
280
     1
102
RTVSPost2010PropOp30
 70
     1
102
RTVSPost2010Prop31
280
     0
102
RTVSPost2010PropOp31
 70
     1
102
RTVSPost2010Prop32
280
     0
102
RTVSPost2010PropOp32
 70
     1
102
RTVSPost2010Prop33
280
     0
102
RTVSPost2010PropOp33
 70
     1
102
RTVSPost2010Prop34
280
     0
102
RTVSPost2010PropOp34
 70
     1
102
RTVSPost2010Prop35
280
     0
102
RTVSPost2010PropOp35
 70
     1
102
RTVSPost2010Prop36
280
     0
102
RTVSPost2010PropOp36
 70
     1
102
RTVSPost2010Prop37
 90
       50
102
RTVSPost2010PropOp37
 70
     1
102
RTVSPost2010Prop38
140
0.0
102
RTVSPost2010PropOp38
 70
     1
102
RTVSPost2010Prop39
140
1.0
102
RTVSPost2010PropOp39
 70
     1
102
RTVSPost2010Prop40
 90
        0
102
RTVSPost2010PropOp40
 70
     1
102
RTVSPost2010Prop41ColorIndex
 90
       18
102
RTVSPost2010Prop41ColorRGB
 90
        0
102
RTVSPost2010PropOp41
 70
     1
102
RTVSPost2010Prop42
 90
       50
102
RTVSPost2010PropOp42
 70
     1
102
RTVSPost2010Prop43
 90
        3
102
RTVSPost2010PropOp43
 70
     1
102
RTVSPost2010Prop44ColorIndex
 90
        5
102
RTVSPost2010Prop44ColorRGB
 90
      255
102
RTVSPost2010PropOp44
 70
     1
102
RTVSPost2010Prop45
280
     0
102
RTVSPost2010PropOp45
 70
     1
102
RTVSPost2010Prop46
 90
       50
102
RTVSPost2010PropOp46
 70
     1
102
RTVSPost2010Prop47
 90
       50
102
RTVSPost2010PropOp47
 70
     1
102
RTVSPost2010Prop48
 90
       50
102
RTVSPost2010PropOp48
 70
     1
102
RTVSPost2010Prop49
280
     0
102
RTVSPost2010PropOp49
 70
     1
102
RTVSPost2010Prop50
 90
       50
102
RTVSPost2010PropOp50
 70
     1
102
RTVSPost2010Prop51ColorIndex
 90
      256
102
RTVSPost2010Prop51ColorRGB
 90
-16777216
102
RTVSPost2010PropOp51
 70
     0
102
RTVSPost2010Prop52
140
1.0
102
RTVSPost2010PropOp52
 70
     0
102
RTVSPost2010Prop53
 90
        2
102
RTVSPost2010PropOp53
 70
     1
102
RTVSPost2010Prop54
  1
strokes_ogs.tif
102
RTVSPost2010PropOp54
 70
     1
102
RTVSPost2010Prop55
280
     0
102
RTVSPost2010PropOp55
 70
     1
102
RTVSPost2010Prop56
140
1.0
102
RTVSPost2010PropOp56
 70
     1
102
RTVSPost2010Prop57
140
1.0
102
RTVSPost2010PropOp57
 70
     1
102
RTVSPropertyOp0
 70
     1
102
RTVSPropertyOp1
 70
     1
102
RTVSPropertyOp2
 70
     1
102
RTVSPropertyOp3
 70
     1
102
RTVSPropertyOp4
 70
     1
102
RTVSPropertyOp5
 70
     1
102
RTVSPropertyOp6
 70
     1
102
RTVSPropertyOp7
 70
     1
102
RTVSPropertyOp8
 70
     1
102
RTVSPropertyOp9
 70
     1
102
RTVSPropertyOp10
 70
     1
102
RTVSPropertyOp11
 70
     1
102
RTVSPropertyOp12
 70
     1
102
RTVSPropertyOp13
 70
     1
102
RTVSPropertyOp14
 70
     1
102
RTVSPropertyOp15
 70
     1
102
RTVSPropertyOp16
 70
     1
102
RTVSPropertyOp17
 70
     1
102
RTVSPropertyOp18
 70
     1
102
RTVSPropertyOp19
 70
     1
102
RTVSPropertyOp20
 70
     1
102
RTVSPropertyOp21
 70
     1
102
RTVSPropertyOp22
 70
     1
102
RTVSPropertyOp23
 70
     1
102
RTVSPropertyOp24
 70
     1
102
RTVSPropertyOp25
 70
     1
102
RTVSPropertyOp26
 70
     1
102
RTVSPropertyOp27
 70
     1
102
RTVSPropertyOp28
 70
     1
102
RTVSPropertyOp29
 70
     1
102
RTVSPropertyOp30
 70
     1
102
RTVSPropertyOp31
 70
     1
102
RTVSPropertyOp32
 70
     1
102
RTVSPropertyOp33
 70
     1
102
RTVSPropertyOp34
 70
     1
102
RTVSPropertyOp35
 70
     1
102
RTVSPropertyOp36
 70
     1
102
RTVSPropertyOp37
 70
     1
102
RTVSPropertyOp38
 70
     1
102
RTVSPropertyOp39
 70
     1
102
RTVSPropertyOp40
 70
     1
102
RTVSPropertyOp41
 70
     1
102
RTVSPropertyOp42
 70
     1
102
RTVSPropertyOp43
 70
     1
102
RTVSPropertyOp44
 70
     1
102
RTVSPropertyOp45
 70
     1
102
RTVSPropertyOp46
 70
     1
102
RTVSPropertyOp47
 70
     1
102
RTVSPropertyOp48
 70
     1
102
RTVSPropertyOp49
 70
     1
102
RTVSPropertyOp50
 70
     1
102
RTVSPropertyOp51
 70
     0
102
RTVSPropertyOp52
 70
     0
102
RTVSPropertyOp53
 70
     1
102
RTVSPropertyOp54
 70
     1
102
RTVSPropertyOp55
 70
     1
102
RTVSPropertyOp56
 70
     1
102
RTVSPropertyOp57
 70
     1
102
RTVSPropertyOp58
 70
     1
102
RTVSPropertyOp59
 70
     1
102
RTVSPropertyOp60
 70
     1
102
RTVSPropertyOp61
 70
     1
102
RTVSPropertyOp62
 70
     1
  0
XRECORD
  5
87A1
102
{ACAD_REACTORS
330
87A0
102
}
330
87A0
100
AcDbXrecord
280
     1
102
RTVSPost2010Prop28
280
     0
102
RTVSPost2010PropOp28
 70
     1
102
RTVSPost2010Prop29
280
     1
102
RTVSPost2010PropOp29
 70
     1
102
RTVSPost2010Prop30
280
     1
102
RTVSPost2010PropOp30
 70
     1
102
RTVSPost2010Prop31
280
     0
102
RTVSPost2010PropOp31
 70
     1
102
RTVSPost2010Prop32
280
     0
102
RTVSPost2010PropOp32
 70
     1
102
RTVSPost2010Prop33
280
     0
102
RTVSPost2010PropOp33
 70
     1
102
RTVSPost2010Prop34
280
     0
102
RTVSPost2010PropOp34
 70
     1
102
RTVSPost2010Prop35
280
     0
102
RTVSPost2010PropOp35
 70
     1
102
RTVSPost2010Prop36
280
     0
102
RTVSPost2010PropOp36
 70
     1
102
RTVSPost2010Prop37
 90
       50
102
RTVSPost2010PropOp37
 70
     0
102
RTVSPost2010Prop38
140
0.0
102
RTVSPost2010PropOp38
 70
     0
102
RTVSPost2010Prop39
140
1.0
102
RTVSPost2010PropOp39
 70
     0
102
RTVSPost2010Prop40
 90
        0
102
RTVSPost2010PropOp40
 70
     0
102
RTVSPost2010Prop41ColorIndex
 90
       18
102
RTVSPost2010Prop41ColorRGB
 90
        0
102
RTVSPost2010PropOp41
 70
     0
102
RTVSPost2010Prop42
 90
       50
102
RTVSPost2010PropOp42
 70
     0
102
RTVSPost2010Prop43
 90
        3
102
RTVSPost2010PropOp43
 70
     0
102
RTVSPost2010Prop44ColorIndex
 90
        5
102
RTVSPost2010Prop44ColorRGB
 90
      255
102
RTVSPost2010PropOp44
 70
     0
102
RTVSPost2010Prop45
280
     0
102
RTVSPost2010PropOp45
 70
     1
102
RTVSPost2010Prop46
 90
       50
102
RTVSPost2010PropOp46
 70
     0
102
RTVSPost2010Prop47
 90
       50
102
RTVSPost2010PropOp47
 70
     0
102
RTVSPost2010Prop48
 90
       50
102
RTVSPost2010PropOp48
 70
     0
102
RTVSPost2010Prop49
280
     0
102
RTVSPost2010PropOp49
 70
     1
102
RTVSPost2010Prop50
 90
       50
102
RTVSPost2010PropOp50
 70
     0
102
RTVSPost2010Prop51ColorIndex
 90
      256
102
RTVSPost2010Prop51ColorRGB
 90
-16777216
102
RTVSPost2010PropOp51
 70
     0
102
RTVSPost2010Prop52
140
1.0
102
RTVSPost2010PropOp52
 70
     0
102
RTVSPost2010Prop53
 90
        2
102
RTVSPost2010PropOp53
 70
     0
102
RTVSPost2010Prop54
  1
strokes_ogs.tif
102
RTVSPost2010PropOp54
 70
     0
102
RTVSPost2010Prop55
280
     0
102
RTVSPost2010PropOp55
 70
     1
102
RTVSPost2010Prop56
140
1.0
102
RTVSPost2010PropOp56
 70
     0
102
RTVSPost2010Prop57
140
1.0
102
RTVSPost2010PropOp57
 70
     0
102
RTVSPropertyOp0
 70
     0
102
RTVSPropertyOp1
 70
     0
102
RTVSPropertyOp2
 70
     0
102
RTVSPropertyOp3
 70
     0
102
RTVSPropertyOp4
 70
     0
102
RTVSPropertyOp5
 70
     0
102
RTVSPropertyOp6
 70
     0
102
RTVSPropertyOp7
 70
     0
102
RTVSPropertyOp8
 70
     0
102
RTVSPropertyOp9
 70
     0
102
RTVSPropertyOp10
 70
     0
102
RTVSPropertyOp11
 70
     0
102
RTVSPropertyOp12
 70
     0
102
RTVSPropertyOp13
 70
     0
102
RTVSPropertyOp14
 70
     2
102
RTVSPropertyOp15
 70
     0
102
RTVSPropertyOp16
 70
     0
102
RTVSPropertyOp17
 70
     0
102
RTVSPropertyOp18
 70
     0
102
RTVSPropertyOp19
 70
     0
102
RTVSPropertyOp20
 70
     0
102
RTVSPropertyOp21
 70
     0
102
RTVSPropertyOp22
 70
     0
102
RTVSPropertyOp23
 70
     0
102
RTVSPropertyOp24
 70
     0
102
RTVSPropertyOp25
 70
     0
102
RTVSPropertyOp26
 70
     0
102
RTVSPropertyOp27
 70
     0
102
RTVSPropertyOp28
 70
     1
102
RTVSPropertyOp29
 70
     1
102
RTVSPropertyOp30
 70
     1
102
RTVSPropertyOp31
 70
     1
102
RTVSPropertyOp32
 70
     1
102
RTVSPropertyOp33
 70
     1
102
RTVSPropertyOp34
 70
     1
102
RTVSPropertyOp35
 70
     1
102
RTVSPropertyOp36
 70
     1
102
RTVSPropertyOp37
 70
     0
102
RTVSPropertyOp38
 70
     0
102
RTVSPropertyOp39
 70
     0
102
RTVSPropertyOp40
 70
     0
102
RTVSPropertyOp41
 70
     0
102
RTVSPropertyOp42
 70
     0
102
RTVSPropertyOp43
 70
     0
102
RTVSPropertyOp44
 70
     0
102
RTVSPropertyOp45
 70
     1
102
RTVSPropertyOp46
 70
     0
102
RTVSPropertyOp47
 70
     0
102
RTVSPropertyOp48
 70
     0
102
RTVSPropertyOp49
 70
     1
102
RTVSPropertyOp50
 70
     0
102
RTVSPropertyOp51
 70
     0
102
RTVSPropertyOp52
 70
     0
102
RTVSPropertyOp53
 70
     0
102
RTVSPropertyOp54
 70
     0
102
RTVSPropertyOp55
 70
     1
102
RTVSPropertyOp56
 70
     0
102
RTVSPropertyOp57
 70
     0
102
RTVSPropertyOp58
 70
     0
102
RTVSPropertyOp59
 70
     0
102
RTVSPropertyOp60
 70
     0
102
RTVSPropertyOp61
 70
     0
102
RTVSPropertyOp62
 70
     0
  0
XRECORD
  5
878F
102
{ACAD_REACTORS
330
878E
102
}
330
878E
100
AcDbXrecord
280
     1
102
RTVSPost2010Prop28
280
     0
102
RTVSPost2010PropOp28
 70
     1
102
RTVSPost2010Prop29
280
     1
102
RTVSPost2010PropOp29
 70
     1
102
RTVSPost2010Prop30
280
     1
102
RTVSPost2010PropOp30
 70
     1
102
RTVSPost2010Prop31
280
     0
102
RTVSPost2010PropOp31
 70
     1
102
RTVSPost2010Prop32
280
     0
102
RTVSPost2010PropOp32
 70
     1
102
RTVSPost2010Prop33
280
     0
102
RTVSPost2010PropOp33
 70
     1
102
RTVSPost2010Prop34
280
     0
102
RTVSPost2010PropOp34
 70
     1
102
RTVSPost2010Prop35
280
     0
102
RTVSPost2010PropOp35
 70
     1
102
RTVSPost2010Prop36
280
     0
102
RTVSPost2010PropOp36
 70
     1
102
RTVSPost2010Prop37
 90
       50
102
RTVSPost2010PropOp37
 70
     1
102
RTVSPost2010Prop38
140
0.0
102
RTVSPost2010PropOp38
 70
     1
102
RTVSPost2010Prop39
140
1.0
102
RTVSPost2010PropOp39
 70
     1
102
RTVSPost2010Prop40
 90
        0
102
RTVSPost2010PropOp40
 70
     1
102
RTVSPost2010Prop41ColorIndex
 90
       18
102
RTVSPost2010Prop41ColorRGB
 90
        0
102
RTVSPost2010PropOp41
 70
     1
102
RTVSPost2010Prop42
 90
       50
102
RTVSPost2010PropOp42
 70
     1
102
RTVSPost2010Prop43
 90
        3
102
RTVSPost2010PropOp43
 70
     1
102
RTVSPost2010Prop44ColorIndex
 90
        5
102
RTVSPost2010Prop44ColorRGB
 90
      255
102
RTVSPost2010PropOp44
 70
     1
102
RTVSPost2010Prop45
280
     0
102
RTVSPost2010PropOp45
 70
     1
102
RTVSPost2010Prop46
 90
       50
102
RTVSPost2010PropOp46
 70
     1
102
RTVSPost2010Prop47
 90
       50
102
RTVSPost2010PropOp47
 70
     1
102
RTVSPost2010Prop48
 90
       50
102
RTVSPost2010PropOp48
 70
     1
102
RTVSPost2010Prop49
280
     0
102
RTVSPost2010PropOp49
 70
     1
102
RTVSPost2010Prop50
 90
       50
102
RTVSPost2010PropOp50
 70
     1
102
RTVSPost2010Prop51ColorIndex
 90
      256
102
RTVSPost2010Prop51ColorRGB
 90
-16777216
102
RTVSPost2010PropOp51
 70
     0
102
RTVSPost2010Prop52
140
1.0
102
RTVSPost2010PropOp52
 70
     0
102
RTVSPost2010Prop53
 90
        2
102
RTVSPost2010PropOp53
 70
     1
102
RTVSPost2010Prop54
  1
strokes_ogs.tif
102
RTVSPost2010PropOp54
 70
     1
102
RTVSPost2010Prop55
280
     0
102
RTVSPost2010PropOp55
 70
     1
102
RTVSPost2010Prop56
140
1.0
102
RTVSPost2010PropOp56
 70
     1
102
RTVSPost2010Prop57
140
1.0
102
RTVSPost2010PropOp57
 70
     1
102
RTVSPropertyOp0
 70
     1
102
RTVSPropertyOp1
 70
     1
102
RTVSPropertyOp2
 70
     1
102
RTVSPropertyOp3
 70
     1
102
RTVSPropertyOp4
 70
     1
102
RTVSPropertyOp5
 70
     1
102
RTVSPropertyOp6
 70
     1
102
RTVSPropertyOp7
 70
     1
102
RTVSPropertyOp8
 70
     1
102
RTVSPropertyOp9
 70
     1
102
RTVSPropertyOp10
 70
     1
102
RTVSPropertyOp11
 70
     1
102
RTVSPropertyOp12
 70
     1
102
RTVSPropertyOp13
 70
     1
102
RTVSPropertyOp14
 70
     1
102
RTVSPropertyOp15
 70
     1
102
RTVSPropertyOp16
 70
     1
102
RTVSPropertyOp17
 70
     1
102
RTVSPropertyOp18
 70
     1
102
RTVSPropertyOp19
 70
     1
102
RTVSPropertyOp20
 70
     1
102
RTVSPropertyOp21
 70
     1
102
RTVSPropertyOp22
 70
     1
102
RTVSPropertyOp23
 70
     1
102
RTVSPropertyOp24
 70
     1
102
RTVSPropertyOp25
 70
     1
102
RTVSPropertyOp26
 70
     1
102
RTVSPropertyOp27
 70
     1
102
RTVSPropertyOp28
 70
     1
102
RTVSPropertyOp29
 70
     1
102
RTVSPropertyOp30
 70
     1
102
RTVSPropertyOp31
 70
     1
102
RTVSPropertyOp32
 70
     1
102
RTVSPropertyOp33
 70
     1
102
RTVSPropertyOp34
 70
     1
102
RTVSPropertyOp35
 70
     1
102
RTVSPropertyOp36
 70
     1
102
RTVSPropertyOp37
 70
     1
102
RTVSPropertyOp38
 70
     1
102
RTVSPropertyOp39
 70
     1
102
RTVSPropertyOp40
 70
     1
102
RTVSPropertyOp41
 70
     1
102
RTVSPropertyOp42
 70
     1
102
RTVSPropertyOp43
 70
     1
102
RTVSPropertyOp44
 70
     1
102
RTVSPropertyOp45
 70
     1
102
RTVSPropertyOp46
 70
     1
102
RTVSPropertyOp47
 70
     1
102
RTVSPropertyOp48
 70
     1
102
RTVSPropertyOp49
 70
     1
102
RTVSPropertyOp50
 70
     1
102
RTVSPropertyOp51
 70
     0
102
RTVSPropertyOp52
 70
     0
102
RTVSPropertyOp53
 70
     1
102
RTVSPropertyOp54
 70
     1
102
RTVSPropertyOp55
 70
     1
102
RTVSPropertyOp56
 70
     1
102
RTVSPropertyOp57
 70
     1
102
RTVSPropertyOp58
 70
     1
102
RTVSPropertyOp59
 70
     1
102
RTVSPropertyOp60
 70
     1
102
RTVSPropertyOp61
 70
     1
102
RTVSPropertyOp62
 70
     1
  0
XRECORD
  5
8773
102
{ACAD_REACTORS
330
8772
102
}
330
8772
100
AcDbXrecord
280
     1
102
RTVSPost2010Prop28
280
     0
102
RTVSPost2010PropOp28
 70
     1
102
RTVSPost2010Prop29
280
     1
102
RTVSPost2010PropOp29
 70
     1
102
RTVSPost2010Prop30
280
     1
102
RTVSPost2010PropOp30
 70
     1
102
RTVSPost2010Prop31
280
     0
102
RTVSPost2010PropOp31
 70
     1
102
RTVSPost2010Prop32
280
     0
102
RTVSPost2010PropOp32
 70
     1
102
RTVSPost2010Prop33
280
     0
102
RTVSPost2010PropOp33
 70
     1
102
RTVSPost2010Prop34
280
     0
102
RTVSPost2010PropOp34
 70
     1
102
RTVSPost2010Prop35
280
     0
102
RTVSPost2010PropOp35
 70
     1
102
RTVSPost2010Prop36
280
     0
102
RTVSPost2010PropOp36
 70
     1
102
RTVSPost2010Prop37
 90
       50
102
RTVSPost2010PropOp37
 70
     1
102
RTVSPost2010Prop38
140
0.0
102
RTVSPost2010PropOp38
 70
     1
102
RTVSPost2010Prop39
140
1.0
102
RTVSPost2010PropOp39
 70
     1
102
RTVSPost2010Prop40
 90
        0
102
RTVSPost2010PropOp40
 70
     1
102
RTVSPost2010Prop41ColorIndex
 90
       18
102
RTVSPost2010Prop41ColorRGB
 90
        0
102
RTVSPost2010PropOp41
 70
     1
102
RTVSPost2010Prop42
 90
       50
102
RTVSPost2010PropOp42
 70
     1
102
RTVSPost2010Prop43
 90
        3
102
RTVSPost2010PropOp43
 70
     1
102
RTVSPost2010Prop44ColorIndex
 90
        5
102
RTVSPost2010Prop44ColorRGB
 90
      255
102
RTVSPost2010PropOp44
 70
     1
102
RTVSPost2010Prop45
280
     0
102
RTVSPost2010PropOp45
 70
     1
102
RTVSPost2010Prop46
 90
       50
102
RTVSPost2010PropOp46
 70
     1
102
RTVSPost2010Prop47
 90
       50
102
RTVSPost2010PropOp47
 70
     1
102
RTVSPost2010Prop48
 90
       50
102
RTVSPost2010PropOp48
 70
     1
102
RTVSPost2010Prop49
280
     0
102
RTVSPost2010PropOp49
 70
     1
102
RTVSPost2010Prop50
 90
       50
102
RTVSPost2010PropOp50
 70
     1
102
RTVSPost2010Prop51ColorIndex
 90
      256
102
RTVSPost2010Prop51ColorRGB
 90
-16777216
102
RTVSPost2010PropOp51
 70
     0
102
RTVSPost2010Prop52
140
1.0
102
RTVSPost2010PropOp52
 70
     0
102
RTVSPost2010Prop53
 90
        2
102
RTVSPost2010PropOp53
 70
     1
102
RTVSPost2010Prop54
  1
strokes_ogs.tif
102
RTVSPost2010PropOp54
 70
     1
102
RTVSPost2010Prop55
280
     0
102
RTVSPost2010PropOp55
 70
     1
102
RTVSPost2010Prop56
140
1.0
102
RTVSPost2010PropOp56
 70
     1
102
RTVSPost2010Prop57
140
1.0
102
RTVSPost2010PropOp57
 70
     1
102
RTVSPropertyOp0
 70
     1
102
RTVSPropertyOp1
 70
     1
102
RTVSPropertyOp2
 70
     1
102
RTVSPropertyOp3
 70
     1
102
RTVSPropertyOp4
 70
     1
102
RTVSPropertyOp5
 70
     1
102
RTVSPropertyOp6
 70
     1
102
RTVSPropertyOp7
 70
     1
102
RTVSPropertyOp8
 70
     1
102
RTVSPropertyOp9
 70
     1
102
RTVSPropertyOp10
 70
     1
102
RTVSPropertyOp11
 70
     1
102
RTVSPropertyOp12
 70
     1
102
RTVSPropertyOp13
 70
     1
102
RTVSPropertyOp14
 70
     1
102
RTVSPropertyOp15
 70
     1
102
RTVSPropertyOp16
 70
     1
102
RTVSPropertyOp17
 70
     1
102
RTVSPropertyOp18
 70
     1
102
RTVSPropertyOp19
 70
     1
102
RTVSPropertyOp20
 70
     1
102
RTVSPropertyOp21
 70
     1
102
RTVSPropertyOp22
 70
     1
102
RTVSPropertyOp23
 70
     1
102
RTVSPropertyOp24
 70
     1
102
RTVSPropertyOp25
 70
     1
102
RTVSPropertyOp26
 70
     1
102
RTVSPropertyOp27
 70
     1
102
RTVSPropertyOp28
 70
     1
102
RTVSPropertyOp29
 70
     1
102
RTVSPropertyOp30
 70
     1
102
RTVSPropertyOp31
 70
     1
102
RTVSPropertyOp32
 70
     1
102
RTVSPropertyOp33
 70
     1
102
RTVSPropertyOp34
 70
     1
102
RTVSPropertyOp35
 70
     1
102
RTVSPropertyOp36
 70
     1
102
RTVSPropertyOp37
 70
     1
102
RTVSPropertyOp38
 70
     1
102
RTVSPropertyOp39
 70
     1
102
RTVSPropertyOp40
 70
     1
102
RTVSPropertyOp41
 70
     1
102
RTVSPropertyOp42
 70
     1
102
RTVSPropertyOp43
 70
     1
102
RTVSPropertyOp44
 70
     1
102
RTVSPropertyOp45
 70
     1
102
RTVSPropertyOp46
 70
     1
102
RTVSPropertyOp47
 70
     1
102
RTVSPropertyOp48
 70
     1
102
RTVSPropertyOp49
 70
     1
102
RTVSPropertyOp50
 70
     1
102
RTVSPropertyOp51
 70
     0
102
RTVSPropertyOp52
 70
     0
102
RTVSPropertyOp53
 70
     1
102
RTVSPropertyOp54
 70
     1
102
RTVSPropertyOp55
 70
     1
102
RTVSPropertyOp56
 70
     1
102
RTVSPropertyOp57
 70
     1
102
RTVSPropertyOp58
 70
     1
102
RTVSPropertyOp59
 70
     1
102
RTVSPropertyOp60
 70
     1
102
RTVSPropertyOp61
 70
     1
102
RTVSPropertyOp62
 70
     1
  0
XRECORD
  5
8775
102
{ACAD_REACTORS
330
8774
102
}
330
8774
100
AcDbXrecord
280
     1
102
RTVSPost2010Prop28
280
     0
102
RTVSPost2010PropOp28
 70
     1
102
RTVSPost2010Prop29
280
     1
102
RTVSPost2010PropOp29
 70
     1
102
RTVSPost2010Prop30
280
     1
102
RTVSPost2010PropOp30
 70
     1
102
RTVSPost2010Prop31
280
     0
102
RTVSPost2010PropOp31
 70
     1
102
RTVSPost2010Prop32
280
     0
102
RTVSPost2010PropOp32
 70
     1
102
RTVSPost2010Prop33
280
     0
102
RTVSPost2010PropOp33
 70
     1
102
RTVSPost2010Prop34
280
     0
102
RTVSPost2010PropOp34
 70
     1
102
RTVSPost2010Prop35
280
     0
102
RTVSPost2010PropOp35
 70
     1
102
RTVSPost2010Prop36
280
     0
102
RTVSPost2010PropOp36
 70
     1
102
RTVSPost2010Prop37
 90
       50
102
RTVSPost2010PropOp37
 70
     1
102
RTVSPost2010Prop38
140
0.0
102
RTVSPost2010PropOp38
 70
     1
102
RTVSPost2010Prop39
140
1.0
102
RTVSPost2010PropOp39
 70
     1
102
RTVSPost2010Prop40
 90
        0
102
RTVSPost2010PropOp40
 70
     1
102
RTVSPost2010Prop41ColorIndex
 90
       18
102
RTVSPost2010Prop41ColorRGB
 90
        0
102
RTVSPost2010PropOp41
 70
     1
102
RTVSPost2010Prop42
 90
       50
102
RTVSPost2010PropOp42
 70
     1
102
RTVSPost2010Prop43
 90
        3
102
RTVSPost2010PropOp43
 70
     1
102
RTVSPost2010Prop44ColorIndex
 90
        5
102
RTVSPost2010Prop44ColorRGB
 90
      255
102
RTVSPost2010PropOp44
 70
     1
102
RTVSPost2010Prop45
280
     0
102
RTVSPost2010PropOp45
 70
     1
102
RTVSPost2010Prop46
 90
       50
102
RTVSPost2010PropOp46
 70
     1
102
RTVSPost2010Prop47
 90
       50
102
RTVSPost2010PropOp47
 70
     1
102
RTVSPost2010Prop48
 90
       50
102
RTVSPost2010PropOp48
 70
     1
102
RTVSPost2010Prop49
280
     0
102
RTVSPost2010PropOp49
 70
     1
102
RTVSPost2010Prop50
 90
       50
102
RTVSPost2010PropOp50
 70
     1
102
RTVSPost2010Prop51ColorIndex
 90
      256
102
RTVSPost2010Prop51ColorRGB
 90
-16777216
102
RTVSPost2010PropOp51
 70
     0
102
RTVSPost2010Prop52
140
1.0
102
RTVSPost2010PropOp52
 70
     0
102
RTVSPost2010Prop53
 90
        2
102
RTVSPost2010PropOp53
 70
     1
102
RTVSPost2010Prop54
  1
strokes_ogs.tif
102
RTVSPost2010PropOp54
 70
     1
102
RTVSPost2010Prop55
280
     0
102
RTVSPost2010PropOp55
 70
     1
102
RTVSPost2010Prop56
140
1.0
102
RTVSPost2010PropOp56
 70
     1
102
RTVSPost2010Prop57
140
1.0
102
RTVSPost2010PropOp57
 70
     1
102
RTVSPropertyOp0
 70
     1
102
RTVSPropertyOp1
 70
     1
102
RTVSPropertyOp2
 70
     1
102
RTVSPropertyOp3
 70
     1
102
RTVSPropertyOp4
 70
     1
102
RTVSPropertyOp5
 70
     1
102
RTVSPropertyOp6
 70
     1
102
RTVSPropertyOp7
 70
     1
102
RTVSPropertyOp8
 70
     1
102
RTVSPropertyOp9
 70
     1
102
RTVSPropertyOp10
 70
     1
102
RTVSPropertyOp11
 70
     1
102
RTVSPropertyOp12
 70
     1
102
RTVSPropertyOp13
 70
     1
102
RTVSPropertyOp14
 70
     1
102
RTVSPropertyOp15
 70
     1
102
RTVSPropertyOp16
 70
     1
102
RTVSPropertyOp17
 70
     1
102
RTVSPropertyOp18
 70
     1
102
RTVSPropertyOp19
 70
     1
102
RTVSPropertyOp20
 70
     1
102
RTVSPropertyOp21
 70
     1
102
RTVSPropertyOp22
 70
     1
102
RTVSPropertyOp23
 70
     1
102
RTVSPropertyOp24
 70
     1
102
RTVSPropertyOp25
 70
     1
102
RTVSPropertyOp26
 70
     1
102
RTVSPropertyOp27
 70
     1
102
RTVSPropertyOp28
 70
     1
102
RTVSPropertyOp29
 70
     1
102
RTVSPropertyOp30
 70
     1
102
RTVSPropertyOp31
 70
     1
102
RTVSPropertyOp32
 70
     1
102
RTVSPropertyOp33
 70
     1
102
RTVSPropertyOp34
 70
     1
102
RTVSPropertyOp35
 70
     1
102
RTVSPropertyOp36
 70
     1
102
RTVSPropertyOp37
 70
     1
102
RTVSPropertyOp38
 70
     1
102
RTVSPropertyOp39
 70
     1
102
RTVSPropertyOp40
 70
     1
102
RTVSPropertyOp41
 70
     1
102
RTVSPropertyOp42
 70
     1
102
RTVSPropertyOp43
 70
     1
102
RTVSPropertyOp44
 70
     1
102
RTVSPropertyOp45
 70
     1
102
RTVSPropertyOp46
 70
     1
102
RTVSPropertyOp47
 70
     1
102
RTVSPropertyOp48
 70
     1
102
RTVSPropertyOp49
 70
     1
102
RTVSPropertyOp50
 70
     1
102
RTVSPropertyOp51
 70
     0
102
RTVSPropertyOp52
 70
     0
102
RTVSPropertyOp53
 70
     1
102
RTVSPropertyOp54
 70
     1
102
RTVSPropertyOp55
 70
     1
102
RTVSPropertyOp56
 70
     1
102
RTVSPropertyOp57
 70
     1
102
RTVSPropertyOp58
 70
     1
102
RTVSPropertyOp59
 70
     1
102
RTVSPropertyOp60
 70
     1
102
RTVSPropertyOp61
 70
     1
102
RTVSPropertyOp62
 70
     1
  0
XRECORD
  5
8777
102
{ACAD_REACTORS
330
8776
102
}
330
8776
100
AcDbXrecord
280
     1
102
RTVSPost2010Prop28
280
     0
102
RTVSPost2010PropOp28
 70
     1
102
RTVSPost2010Prop29
280
     1
102
RTVSPost2010PropOp29
 70
     1
102
RTVSPost2010Prop30
280
     1
102
RTVSPost2010PropOp30
 70
     1
102
RTVSPost2010Prop31
280
     0
102
RTVSPost2010PropOp31
 70
     1
102
RTVSPost2010Prop32
280
     0
102
RTVSPost2010PropOp32
 70
     1
102
RTVSPost2010Prop33
280
     0
102
RTVSPost2010PropOp33
 70
     1
102
RTVSPost2010Prop34
280
     0
102
RTVSPost2010PropOp34
 70
     1
102
RTVSPost2010Prop35
280
     0
102
RTVSPost2010PropOp35
 70
     1
102
RTVSPost2010Prop36
280
     0
102
RTVSPost2010PropOp36
 70
     1
102
RTVSPost2010Prop37
 90
       50
102
RTVSPost2010PropOp37
 70
     1
102
RTVSPost2010Prop38
140
0.0
102
RTVSPost2010PropOp38
 70
     1
102
RTVSPost2010Prop39
140
1.0
102
RTVSPost2010PropOp39
 70
     1
102
RTVSPost2010Prop40
 90
        0
102
RTVSPost2010PropOp40
 70
     1
102
RTVSPost2010Prop41ColorIndex
 90
       18
102
RTVSPost2010Prop41ColorRGB
 90
        0
102
RTVSPost2010PropOp41
 70
     1
102
RTVSPost2010Prop42
 90
       50
102
RTVSPost2010PropOp42
 70
     1
102
RTVSPost2010Prop43
 90
        3
102
RTVSPost2010PropOp43
 70
     1
102
RTVSPost2010Prop44ColorIndex
 90
        5
102
RTVSPost2010Prop44ColorRGB
 90
      255
102
RTVSPost2010PropOp44
 70
     1
102
RTVSPost2010Prop45
280
     0
102
RTVSPost2010PropOp45
 70
     1
102
RTVSPost2010Prop46
 90
       50
102
RTVSPost2010PropOp46
 70
     1
102
RTVSPost2010Prop47
 90
       50
102
RTVSPost2010PropOp47
 70
     1
102
RTVSPost2010Prop48
 90
       50
102
RTVSPost2010PropOp48
 70
     1
102
RTVSPost2010Prop49
280
     0
102
RTVSPost2010PropOp49
 70
     1
102
RTVSPost2010Prop50
 90
       50
102
RTVSPost2010PropOp50
 70
     1
102
RTVSPost2010Prop51ColorIndex
 90
      256
102
RTVSPost2010Prop51ColorRGB
 90
-16777216
102
RTVSPost2010PropOp51
 70
     0
102
RTVSPost2010Prop52
140
1.0
102
RTVSPost2010PropOp52
 70
     0
102
RTVSPost2010Prop53
 90
        2
102
RTVSPost2010PropOp53
 70
     1
102
RTVSPost2010Prop54
  1
strokes_ogs.tif
102
RTVSPost2010PropOp54
 70
     1
102
RTVSPost2010Prop55
280
     0
102
RTVSPost2010PropOp55
 70
     1
102
RTVSPost2010Prop56
140
1.0
102
RTVSPost2010PropOp56
 70
     1
102
RTVSPost2010Prop57
140
1.0
102
RTVSPost2010PropOp57
 70
     1
102
RTVSPropertyOp0
 70
     1
102
RTVSPropertyOp1
 70
     1
102
RTVSPropertyOp2
 70
     1
102
RTVSPropertyOp3
 70
     1
102
RTVSPropertyOp4
 70
     1
102
RTVSPropertyOp5
 70
     1
102
RTVSPropertyOp6
 70
     1
102
RTVSPropertyOp7
 70
     1
102
RTVSPropertyOp8
 70
     1
102
RTVSPropertyOp9
 70
     1
102
RTVSPropertyOp10
 70
     1
102
RTVSPropertyOp11
 70
     1
102
RTVSPropertyOp12
 70
     1
102
RTVSPropertyOp13
 70
     1
102
RTVSPropertyOp14
 70
     1
102
RTVSPropertyOp15
 70
     1
102
RTVSPropertyOp16
 70
     1
102
RTVSPropertyOp17
 70
     1
102
RTVSPropertyOp18
 70
     1
102
RTVSPropertyOp19
 70
     1
102
RTVSPropertyOp20
 70
     1
102
RTVSPropertyOp21
 70
     1
102
RTVSPropertyOp22
 70
     1
102
RTVSPropertyOp23
 70
     1
102
RTVSPropertyOp24
 70
     1
102
RTVSPropertyOp25
 70
     1
102
RTVSPropertyOp26
 70
     1
102
RTVSPropertyOp27
 70
     1
102
RTVSPropertyOp28
 70
     1
102
RTVSPropertyOp29
 70
     1
102
RTVSPropertyOp30
 70
     1
102
RTVSPropertyOp31
 70
     1
102
RTVSPropertyOp32
 70
     1
102
RTVSPropertyOp33
 70
     1
102
RTVSPropertyOp34
 70
     1
102
RTVSPropertyOp35
 70
     1
102
RTVSPropertyOp36
 70
     1
102
RTVSPropertyOp37
 70
     1
102
RTVSPropertyOp38
 70
     1
102
RTVSPropertyOp39
 70
     1
102
RTVSPropertyOp40
 70
     1
102
RTVSPropertyOp41
 70
     1
102
RTVSPropertyOp42
 70
     1
102
RTVSPropertyOp43
 70
     1
102
RTVSPropertyOp44
 70
     1
102
RTVSPropertyOp45
 70
     1
102
RTVSPropertyOp46
 70
     1
102
RTVSPropertyOp47
 70
     1
102
RTVSPropertyOp48
 70
     1
102
RTVSPropertyOp49
 70
     1
102
RTVSPropertyOp50
 70
     1
102
RTVSPropertyOp51
 70
     0
102
RTVSPropertyOp52
 70
     0
102
RTVSPropertyOp53
 70
     1
102
RTVSPropertyOp54
 70
     1
102
RTVSPropertyOp55
 70
     1
102
RTVSPropertyOp56
 70
     1
102
RTVSPropertyOp57
 70
     1
102
RTVSPropertyOp58
 70
     1
102
RTVSPropertyOp59
 70
     1
102
RTVSPropertyOp60
 70
     1
102
RTVSPropertyOp61
 70
     1
102
RTVSPropertyOp62
 70
     1
  0
XRECORD
  5
8779
102
{ACAD_REACTORS
330
8778
102
}
330
8778
100
AcDbXrecord
280
     1
102
RTVSPost2010Prop28
280
     0
102
RTVSPost2010PropOp28
 70
     1
102
RTVSPost2010Prop29
280
     1
102
RTVSPost2010PropOp29
 70
     1
102
RTVSPost2010Prop30
280
     1
102
RTVSPost2010PropOp30
 70
     1
102
RTVSPost2010Prop31
280
     0
102
RTVSPost2010PropOp31
 70
     1
102
RTVSPost2010Prop32
280
     0
102
RTVSPost2010PropOp32
 70
     1
102
RTVSPost2010Prop33
280
     0
102
RTVSPost2010PropOp33
 70
     1
102
RTVSPost2010Prop34
280
     0
102
RTVSPost2010PropOp34
 70
     1
102
RTVSPost2010Prop35
280
     0
102
RTVSPost2010PropOp35
 70
     1
102
RTVSPost2010Prop36
280
     0
102
RTVSPost2010PropOp36
 70
     1
102
RTVSPost2010Prop37
 90
       50
102
RTVSPost2010PropOp37
 70
     1
102
RTVSPost2010Prop38
140
0.0
102
RTVSPost2010PropOp38
 70
     1
102
RTVSPost2010Prop39
140
1.0
102
RTVSPost2010PropOp39
 70
     1
102
RTVSPost2010Prop40
 90
        0
102
RTVSPost2010PropOp40
 70
     1
102
RTVSPost2010Prop41ColorIndex
 90
       18
102
RTVSPost2010Prop41ColorRGB
 90
        0
102
RTVSPost2010PropOp41
 70
     1
102
RTVSPost2010Prop42
 90
       50
102
RTVSPost2010PropOp42
 70
     1
102
RTVSPost2010Prop43
 90
        3
102
RTVSPost2010PropOp43
 70
     1
102
RTVSPost2010Prop44ColorIndex
 90
        5
102
RTVSPost2010Prop44ColorRGB
 90
      255
102
RTVSPost2010PropOp44
 70
     1
102
RTVSPost2010Prop45
280
     0
102
RTVSPost2010PropOp45
 70
     1
102
RTVSPost2010Prop46
 90
       50
102
RTVSPost2010PropOp46
 70
     1
102
RTVSPost2010Prop47
 90
       50
102
RTVSPost2010PropOp47
 70
     1
102
RTVSPost2010Prop48
 90
       50
102
RTVSPost2010PropOp48
 70
     1
102
RTVSPost2010Prop49
280
     0
102
RTVSPost2010PropOp49
 70
     1
102
RTVSPost2010Prop50
 90
       50
102
RTVSPost2010PropOp50
 70
     1
102
RTVSPost2010Prop51ColorIndex
 90
      256
102
RTVSPost2010Prop51ColorRGB
 90
-16777216
102
RTVSPost2010PropOp51
 70
     0
102
RTVSPost2010Prop52
140
1.0
102
RTVSPost2010PropOp52
 70
     0
102
RTVSPost2010Prop53
 90
        2
102
RTVSPost2010PropOp53
 70
     1
102
RTVSPost2010Prop54
  1
strokes_ogs.tif
102
RTVSPost2010PropOp54
 70
     1
102
RTVSPost2010Prop55
280
     0
102
RTVSPost2010PropOp55
 70
     1
102
RTVSPost2010Prop56
140
1.0
102
RTVSPost2010PropOp56
 70
     1
102
RTVSPost2010Prop57
140
1.0
102
RTVSPost2010PropOp57
 70
     1
102
RTVSPropertyOp0
 70
     1
102
RTVSPropertyOp1
 70
     1
102
RTVSPropertyOp2
 70
     1
102
RTVSPropertyOp3
 70
     1
102
RTVSPropertyOp4
 70
     1
102
RTVSPropertyOp5
 70
     1
102
RTVSPropertyOp6
 70
     1
102
RTVSPropertyOp7
 70
     1
102
RTVSPropertyOp8
 70
     1
102
RTVSPropertyOp9
 70
     1
102
RTVSPropertyOp10
 70
     1
102
RTVSPropertyOp11
 70
     1
102
RTVSPropertyOp12
 70
     1
102
RTVSPropertyOp13
 70
     1
102
RTVSPropertyOp14
 70
     1
102
RTVSPropertyOp15
 70
     1
102
RTVSPropertyOp16
 70
     1
102
RTVSPropertyOp17
 70
     1
102
RTVSPropertyOp18
 70
     1
102
RTVSPropertyOp19
 70
     1
102
RTVSPropertyOp20
 70
     1
102
RTVSPropertyOp21
 70
     1
102
RTVSPropertyOp22
 70
     1
102
RTVSPropertyOp23
 70
     1
102
RTVSPropertyOp24
 70
     1
102
RTVSPropertyOp25
 70
     1
102
RTVSPropertyOp26
 70
     1
102
RTVSPropertyOp27
 70
     1
102
RTVSPropertyOp28
 70
     1
102
RTVSPropertyOp29
 70
     1
102
RTVSPropertyOp30
 70
     1
102
RTVSPropertyOp31
 70
     1
102
RTVSPropertyOp32
 70
     1
102
RTVSPropertyOp33
 70
     1
102
RTVSPropertyOp34
 70
     1
102
RTVSPropertyOp35
 70
     1
102
RTVSPropertyOp36
 70
     1
102
RTVSPropertyOp37
 70
     1
102
RTVSPropertyOp38
 70
     1
102
RTVSPropertyOp39
 70
     1
102
RTVSPropertyOp40
 70
     1
102
RTVSPropertyOp41
 70
     1
102
RTVSPropertyOp42
 70
     1
102
RTVSPropertyOp43
 70
     1
102
RTVSPropertyOp44
 70
     1
102
RTVSPropertyOp45
 70
     1
102
RTVSPropertyOp46
 70
     1
102
RTVSPropertyOp47
 70
     1
102
RTVSPropertyOp48
 70
     1
102
RTVSPropertyOp49
 70
     1
102
RTVSPropertyOp50
 70
     1
102
RTVSPropertyOp51
 70
     0
102
RTVSPropertyOp52
 70
     0
102
RTVSPropertyOp53
 70
     1
102
RTVSPropertyOp54
 70
     1
102
RTVSPropertyOp55
 70
     1
102
RTVSPropertyOp56
 70
     1
102
RTVSPropertyOp57
 70
     1
102
RTVSPropertyOp58
 70
     1
102
RTVSPropertyOp59
 70
     1
102
RTVSPropertyOp60
 70
     1
102
RTVSPropertyOp61
 70
     1
102
RTVSPropertyOp62
 70
     1
  0
XRECORD
  5
8781
102
{ACAD_REACTORS
330
8780
102
}
330
8780
100
AcDbXrecord
280
     1
102
RTVSPost2010Prop28
280
     0
102
RTVSPost2010PropOp28
 70
     1
102
RTVSPost2010Prop29
280
     1
102
RTVSPost2010PropOp29
 70
     1
102
RTVSPost2010Prop30
280
     1
102
RTVSPost2010PropOp30
 70
     1
102
RTVSPost2010Prop31
280
     0
102
RTVSPost2010PropOp31
 70
     1
102
RTVSPost2010Prop32
280
     0
102
RTVSPost2010PropOp32
 70
     1
102
RTVSPost2010Prop33
280
     0
102
RTVSPost2010PropOp33
 70
     1
102
RTVSPost2010Prop34
280
     0
102
RTVSPost2010PropOp34
 70
     1
102
RTVSPost2010Prop35
280
     0
102
RTVSPost2010PropOp35
 70
     1
102
RTVSPost2010Prop36
280
     0
102
RTVSPost2010PropOp36
 70
     1
102
RTVSPost2010Prop37
 90
       50
102
RTVSPost2010PropOp37
 70
     1
102
RTVSPost2010Prop38
140
0.0
102
RTVSPost2010PropOp38
 70
     1
102
RTVSPost2010Prop39
140
1.0
102
RTVSPost2010PropOp39
 70
     1
102
RTVSPost2010Prop40
 90
        0
102
RTVSPost2010PropOp40
 70
     1
102
RTVSPost2010Prop41ColorIndex
 90
       18
102
RTVSPost2010Prop41ColorRGB
 90
        0
102
RTVSPost2010PropOp41
 70
     1
102
RTVSPost2010Prop42
 90
       50
102
RTVSPost2010PropOp42
 70
     1
102
RTVSPost2010Prop43
 90
        3
102
RTVSPost2010PropOp43
 70
     1
102
RTVSPost2010Prop44ColorIndex
 90
        5
102
RTVSPost2010Prop44ColorRGB
 90
      255
102
RTVSPost2010PropOp44
 70
     1
102
RTVSPost2010Prop45
280
     0
102
RTVSPost2010PropOp45
 70
     1
102
RTVSPost2010Prop46
 90
       50
102
RTVSPost2010PropOp46
 70
     1
102
RTVSPost2010Prop47
 90
       50
102
RTVSPost2010PropOp47
 70
     1
102
RTVSPost2010Prop48
 90
       50
102
RTVSPost2010PropOp48
 70
     1
102
RTVSPost2010Prop49
280
     0
102
RTVSPost2010PropOp49
 70
     1
102
RTVSPost2010Prop50
 90
       50
102
RTVSPost2010PropOp50
 70
     1
102
RTVSPost2010Prop51ColorIndex
 90
      256
102
RTVSPost2010Prop51ColorRGB
 90
-16777216
102
RTVSPost2010PropOp51
 70
     0
102
RTVSPost2010Prop52
140
1.0
102
RTVSPost2010PropOp52
 70
     0
102
RTVSPost2010Prop53
 90
        2
102
RTVSPost2010PropOp53
 70
     1
102
RTVSPost2010Prop54
  1
strokes_ogs.tif
102
RTVSPost2010PropOp54
 70
     1
102
RTVSPost2010Prop55
280
     0
102
RTVSPost2010PropOp55
 70
     1
102
RTVSPost2010Prop56
140
1.0
102
RTVSPost2010PropOp56
 70
     1
102
RTVSPost2010Prop57
140
1.0
102
RTVSPost2010PropOp57
 70
     1
102
RTVSPropertyOp0
 70
     1
102
RTVSPropertyOp1
 70
     1
102
RTVSPropertyOp2
 70
     1
102
RTVSPropertyOp3
 70
     1
102
RTVSPropertyOp4
 70
     1
102
RTVSPropertyOp5
 70
     1
102
RTVSPropertyOp6
 70
     1
102
RTVSPropertyOp7
 70
     1
102
RTVSPropertyOp8
 70
     1
102
RTVSPropertyOp9
 70
     1
102
RTVSPropertyOp10
 70
     1
102
RTVSPropertyOp11
 70
     1
102
RTVSPropertyOp12
 70
     1
102
RTVSPropertyOp13
 70
     1
102
RTVSPropertyOp14
 70
     1
102
RTVSPropertyOp15
 70
     1
102
RTVSPropertyOp16
 70
     1
102
RTVSPropertyOp17
 70
     1
102
RTVSPropertyOp18
 70
     1
102
RTVSPropertyOp19
 70
     1
102
RTVSPropertyOp20
 70
     1
102
RTVSPropertyOp21
 70
     1
102
RTVSPropertyOp22
 70
     1
102
RTVSPropertyOp23
 70
     1
102
RTVSPropertyOp24
 70
     1
102
RTVSPropertyOp25
 70
     1
102
RTVSPropertyOp26
 70
     1
102
RTVSPropertyOp27
 70
     1
102
RTVSPropertyOp28
 70
     1
102
RTVSPropertyOp29
 70
     1
102
RTVSPropertyOp30
 70
     1
102
RTVSPropertyOp31
 70
     1
102
RTVSPropertyOp32
 70
     1
102
RTVSPropertyOp33
 70
     1
102
RTVSPropertyOp34
 70
     1
102
RTVSPropertyOp35
 70
     1
102
RTVSPropertyOp36
 70
     1
102
RTVSPropertyOp37
 70
     1
102
RTVSPropertyOp38
 70
     1
102
RTVSPropertyOp39
 70
     1
102
RTVSPropertyOp40
 70
     1
102
RTVSPropertyOp41
 70
     1
102
RTVSPropertyOp42
 70
     1
102
RTVSPropertyOp43
 70
     1
102
RTVSPropertyOp44
 70
     1
102
RTVSPropertyOp45
 70
     1
102
RTVSPropertyOp46
 70
     1
102
RTVSPropertyOp47
 70
     1
102
RTVSPropertyOp48
 70
     1
102
RTVSPropertyOp49
 70
     1
102
RTVSPropertyOp50
 70
     1
102
RTVSPropertyOp51
 70
     0
102
RTVSPropertyOp52
 70
     0
102
RTVSPropertyOp53
 70
     1
102
RTVSPropertyOp54
 70
     1
102
RTVSPropertyOp55
 70
     1
102
RTVSPropertyOp56
 70
     1
102
RTVSPropertyOp57
 70
     1
102
RTVSPropertyOp58
 70
     1
102
RTVSPropertyOp59
 70
     1
102
RTVSPropertyOp60
 70
     1
102
RTVSPropertyOp61
 70
     1
102
RTVSPropertyOp62
 70
     1
  0
XRECORD
  5
879D
102
{ACAD_REACTORS
330
879C
102
}
330
879C
100
AcDbXrecord
280
     1
102
RTVSPost2010Prop28
280
     0
102
RTVSPost2010PropOp28
 70
     1
102
RTVSPost2010Prop29
280
     1
102
RTVSPost2010PropOp29
 70
     1
102
RTVSPost2010Prop30
280
     1
102
RTVSPost2010PropOp30
 70
     1
102
RTVSPost2010Prop31
280
     0
102
RTVSPost2010PropOp31
 70
     1
102
RTVSPost2010Prop32
280
     0
102
RTVSPost2010PropOp32
 70
     1
102
RTVSPost2010Prop33
280
     0
102
RTVSPost2010PropOp33
 70
     1
102
RTVSPost2010Prop34
280
     0
102
RTVSPost2010PropOp34
 70
     1
102
RTVSPost2010Prop35
280
     0
102
RTVSPost2010PropOp35
 70
     1
102
RTVSPost2010Prop36
280
     0
102
RTVSPost2010PropOp36
 70
     1
102
RTVSPost2010Prop37
 90
       50
102
RTVSPost2010PropOp37
 70
     0
102
RTVSPost2010Prop38
140
0.0
102
RTVSPost2010PropOp38
 70
     0
102
RTVSPost2010Prop39
140
1.0
102
RTVSPost2010PropOp39
 70
     0
102
RTVSPost2010Prop40
 90
        0
102
RTVSPost2010PropOp40
 70
     0
102
RTVSPost2010Prop41ColorIndex
 90
       18
102
RTVSPost2010Prop41ColorRGB
 90
        0
102
RTVSPost2010PropOp41
 70
     0
102
RTVSPost2010Prop42
 90
       50
102
RTVSPost2010PropOp42
 70
     0
102
RTVSPost2010Prop43
 90
        3
102
RTVSPost2010PropOp43
 70
     0
102
RTVSPost2010Prop44ColorIndex
 90
        5
102
RTVSPost2010Prop44ColorRGB
 90
      255
102
RTVSPost2010PropOp44
 70
     0
102
RTVSPost2010Prop45
280
     0
102
RTVSPost2010PropOp45
 70
     1
102
RTVSPost2010Prop46
 90
       50
102
RTVSPost2010PropOp46
 70
     0
102
RTVSPost2010Prop47
 90
       50
102
RTVSPost2010PropOp47
 70
     0
102
RTVSPost2010Prop48
 90
       50
102
RTVSPost2010PropOp48
 70
     0
102
RTVSPost2010Prop49
280
     0
102
RTVSPost2010PropOp49
 70
     1
102
RTVSPost2010Prop50
 90
       50
102
RTVSPost2010PropOp50
 70
     0
102
RTVSPost2010Prop51ColorIndex
 90
      256
102
RTVSPost2010Prop51ColorRGB
 90
-16777216
102
RTVSPost2010PropOp51
 70
     0
102
RTVSPost2010Prop52
140
1.0
102
RTVSPost2010PropOp52
 70
     0
102
RTVSPost2010Prop53
 90
        2
102
RTVSPost2010PropOp53
 70
     0
102
RTVSPost2010Prop54
  1
strokes_ogs.tif
102
RTVSPost2010PropOp54
 70
     0
102
RTVSPost2010Prop55
280
     0
102
RTVSPost2010PropOp55
 70
     1
102
RTVSPost2010Prop56
140
1.0
102
RTVSPost2010PropOp56
 70
     0
102
RTVSPost2010Prop57
140
1.0
102
RTVSPost2010PropOp57
 70
     0
102
RTVSPropertyOp0
 70
     0
102
RTVSPropertyOp1
 70
     0
102
RTVSPropertyOp2
 70
     0
102
RTVSPropertyOp3
 70
     0
102
RTVSPropertyOp4
 70
     0
102
RTVSPropertyOp5
 70
     0
102
RTVSPropertyOp6
 70
     0
102
RTVSPropertyOp7
 70
     0
102
RTVSPropertyOp8
 70
     0
102
RTVSPropertyOp9
 70
     0
102
RTVSPropertyOp10
 70
     0
102
RTVSPropertyOp11
 70
     0
102
RTVSPropertyOp12
 70
     0
102
RTVSPropertyOp13
 70
     0
102
RTVSPropertyOp14
 70
     2
102
RTVSPropertyOp15
 70
     0
102
RTVSPropertyOp16
 70
     0
102
RTVSPropertyOp17
 70
     0
102
RTVSPropertyOp18
 70
     0
102
RTVSPropertyOp19
 70
     0
102
RTVSPropertyOp20
 70
     0
102
RTVSPropertyOp21
 70
     0
102
RTVSPropertyOp22
 70
     0
102
RTVSPropertyOp23
 70
     0
102
RTVSPropertyOp24
 70
     0
102
RTVSPropertyOp25
 70
     0
102
RTVSPropertyOp26
 70
     0
102
RTVSPropertyOp27
 70
     0
102
RTVSPropertyOp28
 70
     1
102
RTVSPropertyOp29
 70
     1
102
RTVSPropertyOp30
 70
     1
102
RTVSPropertyOp31
 70
     1
102
RTVSPropertyOp32
 70
     1
102
RTVSPropertyOp33
 70
     1
102
RTVSPropertyOp34
 70
     1
102
RTVSPropertyOp35
 70
     1
102
RTVSPropertyOp36
 70
     1
102
RTVSPropertyOp37
 70
     0
102
RTVSPropertyOp38
 70
     0
102
RTVSPropertyOp39
 70
     0
102
RTVSPropertyOp40
 70
     0
102
RTVSPropertyOp41
 70
     0
102
RTVSPropertyOp42
 70
     0
102
RTVSPropertyOp43
 70
     0
102
RTVSPropertyOp44
 70
     0
102
RTVSPropertyOp45
 70
     1
102
RTVSPropertyOp46
 70
     0
102
RTVSPropertyOp47
 70
     0
102
RTVSPropertyOp48
 70
     0
102
RTVSPropertyOp49
 70
     1
102
RTVSPropertyOp50
 70
     0
102
RTVSPropertyOp51
 70
     0
102
RTVSPropertyOp52
 70
     0
102
RTVSPropertyOp53
 70
     0
102
RTVSPropertyOp54
 70
     0
102
RTVSPropertyOp55
 70
     1
102
RTVSPropertyOp56
 70
     0
102
RTVSPropertyOp57
 70
     0
102
RTVSPropertyOp58
 70
     0
102
RTVSPropertyOp59
 70
     0
102
RTVSPropertyOp60
 70
     0
102
RTVSPropertyOp61
 70
     0
102
RTVSPropertyOp62
 70
     0
  0
XRECORD
  5
878D
102
{ACAD_REACTORS
330
878C
102
}
330
878C
100
AcDbXrecord
280
     1
102
RTVSPost2010Prop28
280
     0
102
RTVSPost2010PropOp28
 70
     1
102
RTVSPost2010Prop29
280
     1
102
RTVSPost2010PropOp29
 70
     1
102
RTVSPost2010Prop30
280
     1
102
RTVSPost2010PropOp30
 70
     1
102
RTVSPost2010Prop31
280
     0
102
RTVSPost2010PropOp31
 70
     1
102
RTVSPost2010Prop32
280
     0
102
RTVSPost2010PropOp32
 70
     1
102
RTVSPost2010Prop33
280
     0
102
RTVSPost2010PropOp33
 70
     1
102
RTVSPost2010Prop34
280
     0
102
RTVSPost2010PropOp34
 70
     1
102
RTVSPost2010Prop35
280
     0
102
RTVSPost2010PropOp35
 70
     1
102
RTVSPost2010Prop36
280
     0
102
RTVSPost2010PropOp36
 70
     1
102
RTVSPost2010Prop37
 90
       50
102
RTVSPost2010PropOp37
 70
     1
102
RTVSPost2010Prop38
140
0.0
102
RTVSPost2010PropOp38
 70
     1
102
RTVSPost2010Prop39
140
1.0
102
RTVSPost2010PropOp39
 70
     1
102
RTVSPost2010Prop40
 90
        0
102
RTVSPost2010PropOp40
 70
     1
102
RTVSPost2010Prop41ColorIndex
 90
       18
102
RTVSPost2010Prop41ColorRGB
 90
        0
102
RTVSPost2010PropOp41
 70
     1
102
RTVSPost2010Prop42
 90
       50
102
RTVSPost2010PropOp42
 70
     1
102
RTVSPost2010Prop43
 90
        3
102
RTVSPost2010PropOp43
 70
     1
102
RTVSPost2010Prop44ColorIndex
 90
        5
102
RTVSPost2010Prop44ColorRGB
 90
      255
102
RTVSPost2010PropOp44
 70
     1
102
RTVSPost2010Prop45
280
     0
102
RTVSPost2010PropOp45
 70
     1
102
RTVSPost2010Prop46
 90
       50
102
RTVSPost2010PropOp46
 70
     1
102
RTVSPost2010Prop47
 90
       50
102
RTVSPost2010PropOp47
 70
     1
102
RTVSPost2010Prop48
 90
       50
102
RTVSPost2010PropOp48
 70
     1
102
RTVSPost2010Prop49
280
     0
102
RTVSPost2010PropOp49
 70
     1
102
RTVSPost2010Prop50
 90
       50
102
RTVSPost2010PropOp50
 70
     1
102
RTVSPost2010Prop51ColorIndex
 90
      256
102
RTVSPost2010Prop51ColorRGB
 90
-16777216
102
RTVSPost2010PropOp51
 70
     0
102
RTVSPost2010Prop52
140
1.0
102
RTVSPost2010PropOp52
 70
     0
102
RTVSPost2010Prop53
 90
        2
102
RTVSPost2010PropOp53
 70
     1
102
RTVSPost2010Prop54
  1
strokes_ogs.tif
102
RTVSPost2010PropOp54
 70
     1
102
RTVSPost2010Prop55
280
     0
102
RTVSPost2010PropOp55
 70
     1
102
RTVSPost2010Prop56
140
1.0
102
RTVSPost2010PropOp56
 70
     1
102
RTVSPost2010Prop57
140
1.0
102
RTVSPost2010PropOp57
 70
     1
102
RTVSPropertyOp0
 70
     1
102
RTVSPropertyOp1
 70
     1
102
RTVSPropertyOp2
 70
     1
102
RTVSPropertyOp3
 70
     1
102
RTVSPropertyOp4
 70
     1
102
RTVSPropertyOp5
 70
     1
102
RTVSPropertyOp6
 70
     1
102
RTVSPropertyOp7
 70
     1
102
RTVSPropertyOp8
 70
     1
102
RTVSPropertyOp9
 70
     1
102
RTVSPropertyOp10
 70
     1
102
RTVSPropertyOp11
 70
     1
102
RTVSPropertyOp12
 70
     1
102
RTVSPropertyOp13
 70
     1
102
RTVSPropertyOp14
 70
     1
102
RTVSPropertyOp15
 70
     1
102
RTVSPropertyOp16
 70
     1
102
RTVSPropertyOp17
 70
     1
102
RTVSPropertyOp18
 70
     1
102
RTVSPropertyOp19
 70
     1
102
RTVSPropertyOp20
 70
     1
102
RTVSPropertyOp21
 70
     1
102
RTVSPropertyOp22
 70
     1
102
RTVSPropertyOp23
 70
     1
102
RTVSPropertyOp24
 70
     1
102
RTVSPropertyOp25
 70
     1
102
RTVSPropertyOp26
 70
     1
102
RTVSPropertyOp27
 70
     1
102
RTVSPropertyOp28
 70
     1
102
RTVSPropertyOp29
 70
     1
102
RTVSPropertyOp30
 70
     1
102
RTVSPropertyOp31
 70
     1
102
RTVSPropertyOp32
 70
     1
102
RTVSPropertyOp33
 70
     1
102
RTVSPropertyOp34
 70
     1
102
RTVSPropertyOp35
 70
     1
102
RTVSPropertyOp36
 70
     1
102
RTVSPropertyOp37
 70
     1
102
RTVSPropertyOp38
 70
     1
102
RTVSPropertyOp39
 70
     1
102
RTVSPropertyOp40
 70
     1
102
RTVSPropertyOp41
 70
     1
102
RTVSPropertyOp42
 70
     1
102
RTVSPropertyOp43
 70
     1
102
RTVSPropertyOp44
 70
     1
102
RTVSPropertyOp45
 70
     1
102
RTVSPropertyOp46
 70
     1
102
RTVSPropertyOp47
 70
     1
102
RTVSPropertyOp48
 70
     1
102
RTVSPropertyOp49
 70
     1
102
RTVSPropertyOp50
 70
     1
102
RTVSPropertyOp51
 70
     0
102
RTVSPropertyOp52
 70
     0
102
RTVSPropertyOp53
 70
     1
102
RTVSPropertyOp54
 70
     1
102
RTVSPropertyOp55
 70
     1
102
RTVSPropertyOp56
 70
     1
102
RTVSPropertyOp57
 70
     1
102
RTVSPropertyOp58
 70
     1
102
RTVSPropertyOp59
 70
     1
102
RTVSPropertyOp60
 70
     1
102
RTVSPropertyOp61
 70
     1
102
RTVSPropertyOp62
 70
     1
  0
XRECORD
  5
879F
102
{ACAD_REACTORS
330
879E
102
}
330
879E
100
AcDbXrecord
280
     1
102
RTVSPost2010Prop28
280
     0
102
RTVSPost2010PropOp28
 70
     1
102
RTVSPost2010Prop29
280
     1
102
RTVSPost2010PropOp29
 70
     1
102
RTVSPost2010Prop30
280
     1
102
RTVSPost2010PropOp30
 70
     1
102
RTVSPost2010Prop31
280
     0
102
RTVSPost2010PropOp31
 70
     1
102
RTVSPost2010Prop32
280
     0
102
RTVSPost2010PropOp32
 70
     1
102
RTVSPost2010Prop33
280
     0
102
RTVSPost2010PropOp33
 70
     1
102
RTVSPost2010Prop34
280
     0
102
RTVSPost2010PropOp34
 70
     1
102
RTVSPost2010Prop35
280
     0
102
RTVSPost2010PropOp35
 70
     1
102
RTVSPost2010Prop36
280
     0
102
RTVSPost2010PropOp36
 70
     1
102
RTVSPost2010Prop37
 90
       50
102
RTVSPost2010PropOp37
 70
     0
102
RTVSPost2010Prop38
140
0.0
102
RTVSPost2010PropOp38
 70
     0
102
RTVSPost2010Prop39
140
1.0
102
RTVSPost2010PropOp39
 70
     0
102
RTVSPost2010Prop40
 90
        0
102
RTVSPost2010PropOp40
 70
     0
102
RTVSPost2010Prop41ColorIndex
 90
       18
102
RTVSPost2010Prop41ColorRGB
 90
        0
102
RTVSPost2010PropOp41
 70
     0
102
RTVSPost2010Prop42
 90
       50
102
RTVSPost2010PropOp42
 70
     0
102
RTVSPost2010Prop43
 90
        3
102
RTVSPost2010PropOp43
 70
     0
102
RTVSPost2010Prop44ColorIndex
 90
        5
102
RTVSPost2010Prop44ColorRGB
 90
      255
102
RTVSPost2010PropOp44
 70
     0
102
RTVSPost2010Prop45
280
     0
102
RTVSPost2010PropOp45
 70
     1
102
RTVSPost2010Prop46
 90
       50
102
RTVSPost2010PropOp46
 70
     0
102
RTVSPost2010Prop47
 90
       50
102
RTVSPost2010PropOp47
 70
     0
102
RTVSPost2010Prop48
 90
       50
102
RTVSPost2010PropOp48
 70
     0
102
RTVSPost2010Prop49
280
     0
102
RTVSPost2010PropOp49
 70
     1
102
RTVSPost2010Prop50
 90
       50
102
RTVSPost2010PropOp50
 70
     0
102
RTVSPost2010Prop51ColorIndex
 90
      256
102
RTVSPost2010Prop51ColorRGB
 90
-16777216
102
RTVSPost2010PropOp51
 70
     0
102
RTVSPost2010Prop52
140
1.0
102
RTVSPost2010PropOp52
 70
     0
102
RTVSPost2010Prop53
 90
        2
102
RTVSPost2010PropOp53
 70
     0
102
RTVSPost2010Prop54
  1
strokes_ogs.tif
102
RTVSPost2010PropOp54
 70
     0
102
RTVSPost2010Prop55
280
     0
102
RTVSPost2010PropOp55
 70
     1
102
RTVSPost2010Prop56
140
1.0
102
RTVSPost2010PropOp56
 70
     0
102
RTVSPost2010Prop57
140
1.0
102
RTVSPost2010PropOp57
 70
     0
102
RTVSPropertyOp0
 70
     0
102
RTVSPropertyOp1
 70
     0
102
RTVSPropertyOp2
 70
     0
102
RTVSPropertyOp3
 70
     0
102
RTVSPropertyOp4
 70
     0
102
RTVSPropertyOp5
 70
     0
102
RTVSPropertyOp6
 70
     0
102
RTVSPropertyOp7
 70
     0
102
RTVSPropertyOp8
 70
     0
102
RTVSPropertyOp9
 70
     0
102
RTVSPropertyOp10
 70
     0
102
RTVSPropertyOp11
 70
     0
102
RTVSPropertyOp12
 70
     0
102
RTVSPropertyOp13
 70
     0
102
RTVSPropertyOp14
 70
     2
102
RTVSPropertyOp15
 70
     0
102
RTVSPropertyOp16
 70
     0
102
RTVSPropertyOp17
 70
     0
102
RTVSPropertyOp18
 70
     0
102
RTVSPropertyOp19
 70
     0
102
RTVSPropertyOp20
 70
     0
102
RTVSPropertyOp21
 70
     0
102
RTVSPropertyOp22
 70
     0
102
RTVSPropertyOp23
 70
     0
102
RTVSPropertyOp24
 70
     0
102
RTVSPropertyOp25
 70
     0
102
RTVSPropertyOp26
 70
     0
102
RTVSPropertyOp27
 70
     0
102
RTVSPropertyOp28
 70
     1
102
RTVSPropertyOp29
 70
     1
102
RTVSPropertyOp30
 70
     1
102
RTVSPropertyOp31
 70
     1
102
RTVSPropertyOp32
 70
     1
102
RTVSPropertyOp33
 70
     1
102
RTVSPropertyOp34
 70
     1
102
RTVSPropertyOp35
 70
     1
102
RTVSPropertyOp36
 70
     1
102
RTVSPropertyOp37
 70
     0
102
RTVSPropertyOp38
 70
     0
102
RTVSPropertyOp39
 70
     0
102
RTVSPropertyOp40
 70
     0
102
RTVSPropertyOp41
 70
     0
102
RTVSPropertyOp42
 70
     0
102
RTVSPropertyOp43
 70
     0
102
RTVSPropertyOp44
 70
     0
102
RTVSPropertyOp45
 70
     1
102
RTVSPropertyOp46
 70
     0
102
RTVSPropertyOp47
 70
     0
102
RTVSPropertyOp48
 70
     0
102
RTVSPropertyOp49
 70
     1
102
RTVSPropertyOp50
 70
     0
102
RTVSPropertyOp51
 70
     0
102
RTVSPropertyOp52
 70
     0
102
RTVSPropertyOp53
 70
     0
102
RTVSPropertyOp54
 70
     0
102
RTVSPropertyOp55
 70
     1
102
RTVSPropertyOp56
 70
     0
102
RTVSPropertyOp57
 70
     0
102
RTVSPropertyOp58
 70
     0
102
RTVSPropertyOp59
 70
     0
102
RTVSPropertyOp60
 70
     0
102
RTVSPropertyOp61
 70
     0
102
RTVSPropertyOp62
 70
     0
  0
XRECORD
  5
8785
102
{ACAD_REACTORS
330
8784
102
}
330
8784
100
AcDbXrecord
280
     1
102
RTVSPost2010Prop28
280
     0
102
RTVSPost2010PropOp28
 70
     1
102
RTVSPost2010Prop29
280
     1
102
RTVSPost2010PropOp29
 70
     1
102
RTVSPost2010Prop30
280
     1
102
RTVSPost2010PropOp30
 70
     1
102
RTVSPost2010Prop31
280
     0
102
RTVSPost2010PropOp31
 70
     1
102
RTVSPost2010Prop32
280
     0
102
RTVSPost2010PropOp32
 70
     1
102
RTVSPost2010Prop33
280
     0
102
RTVSPost2010PropOp33
 70
     1
102
RTVSPost2010Prop34
280
     0
102
RTVSPost2010PropOp34
 70
     1
102
RTVSPost2010Prop35
280
     0
102
RTVSPost2010PropOp35
 70
     1
102
RTVSPost2010Prop36
280
     0
102
RTVSPost2010PropOp36
 70
     1
102
RTVSPost2010Prop37
 90
       50
102
RTVSPost2010PropOp37
 70
     1
102
RTVSPost2010Prop38
140
0.0
102
RTVSPost2010PropOp38
 70
     1
102
RTVSPost2010Prop39
140
1.0
102
RTVSPost2010PropOp39
 70
     1
102
RTVSPost2010Prop40
 90
        0
102
RTVSPost2010PropOp40
 70
     1
102
RTVSPost2010Prop41ColorIndex
 90
       18
102
RTVSPost2010Prop41ColorRGB
 90
        0
102
RTVSPost2010PropOp41
 70
     1
102
RTVSPost2010Prop42
 90
       50
102
RTVSPost2010PropOp42
 70
     1
102
RTVSPost2010Prop43
 90
        3
102
RTVSPost2010PropOp43
 70
     1
102
RTVSPost2010Prop44ColorIndex
 90
        5
102
RTVSPost2010Prop44ColorRGB
 90
      255
102
RTVSPost2010PropOp44
 70
     1
102
RTVSPost2010Prop45
280
     0
102
RTVSPost2010PropOp45
 70
     1
102
RTVSPost2010Prop46
 90
       50
102
RTVSPost2010PropOp46
 70
     1
102
RTVSPost2010Prop47
 90
       50
102
RTVSPost2010PropOp47
 70
     1
102
RTVSPost2010Prop48
 90
       50
102
RTVSPost2010PropOp48
 70
     1
102
RTVSPost2010Prop49
280
     0
102
RTVSPost2010PropOp49
 70
     1
102
RTVSPost2010Prop50
 90
       50
102
RTVSPost2010PropOp50
 70
     1
102
RTVSPost2010Prop51ColorIndex
 90
      256
102
RTVSPost2010Prop51ColorRGB
 90
-16777216
102
RTVSPost2010PropOp51
 70
     0
102
RTVSPost2010Prop52
140
1.0
102
RTVSPost2010PropOp52
 70
     0
102
RTVSPost2010Prop53
 90
        2
102
RTVSPost2010PropOp53
 70
     1
102
RTVSPost2010Prop54
  1
strokes_ogs.tif
102
RTVSPost2010PropOp54
 70
     1
102
RTVSPost2010Prop55
280
     0
102
RTVSPost2010PropOp55
 70
     1
102
RTVSPost2010Prop56
140
1.0
102
RTVSPost2010PropOp56
 70
     1
102
RTVSPost2010Prop57
140
1.0
102
RTVSPost2010PropOp57
 70
     1
102
RTVSPropertyOp0
 70
     1
102
RTVSPropertyOp1
 70
     1
102
RTVSPropertyOp2
 70
     1
102
RTVSPropertyOp3
 70
     1
102
RTVSPropertyOp4
 70
     1
102
RTVSPropertyOp5
 70
     1
102
RTVSPropertyOp6
 70
     1
102
RTVSPropertyOp7
 70
     1
102
RTVSPropertyOp8
 70
     1
102
RTVSPropertyOp9
 70
     1
102
RTVSPropertyOp10
 70
     1
102
RTVSPropertyOp11
 70
     1
102
RTVSPropertyOp12
 70
     1
102
RTVSPropertyOp13
 70
     1
102
RTVSPropertyOp14
 70
     1
102
RTVSPropertyOp15
 70
     1
102
RTVSPropertyOp16
 70
     1
102
RTVSPropertyOp17
 70
     1
102
RTVSPropertyOp18
 70
     1
102
RTVSPropertyOp19
 70
     1
102
RTVSPropertyOp20
 70
     1
102
RTVSPropertyOp21
 70
     1
102
RTVSPropertyOp22
 70
     1
102
RTVSPropertyOp23
 70
     1
102
RTVSPropertyOp24
 70
     1
102
RTVSPropertyOp25
 70
     1
102
RTVSPropertyOp26
 70
     1
102
RTVSPropertyOp27
 70
     1
102
RTVSPropertyOp28
 70
     1
102
RTVSPropertyOp29
 70
     1
102
RTVSPropertyOp30
 70
     1
102
RTVSPropertyOp31
 70
     1
102
RTVSPropertyOp32
 70
     1
102
RTVSPropertyOp33
 70
     1
102
RTVSPropertyOp34
 70
     1
102
RTVSPropertyOp35
 70
     1
102
RTVSPropertyOp36
 70
     1
102
RTVSPropertyOp37
 70
     1
102
RTVSPropertyOp38
 70
     1
102
RTVSPropertyOp39
 70
     1
102
RTVSPropertyOp40
 70
     1
102
RTVSPropertyOp41
 70
     1
102
RTVSPropertyOp42
 70
     1
102
RTVSPropertyOp43
 70
     1
102
RTVSPropertyOp44
 70
     1
102
RTVSPropertyOp45
 70
     1
102
RTVSPropertyOp46
 70
     1
102
RTVSPropertyOp47
 70
     1
102
RTVSPropertyOp48
 70
     1
102
RTVSPropertyOp49
 70
     1
102
RTVSPropertyOp50
 70
     1
102
RTVSPropertyOp51
 70
     0
102
RTVSPropertyOp52
 70
     0
102
RTVSPropertyOp53
 70
     1
102
RTVSPropertyOp54
 70
     1
102
RTVSPropertyOp55
 70
     1
102
RTVSPropertyOp56
 70
     1
102
RTVSPropertyOp57
 70
     1
102
RTVSPropertyOp58
 70
     1
102
RTVSPropertyOp59
 70
     1
102
RTVSPropertyOp60
 70
     1
102
RTVSPropertyOp61
 70
     1
102
RTVSPropertyOp62
 70
     1
  0
XRECORD
  5
879B
102
{ACAD_REACTORS
330
879A
102
}
330
879A
100
AcDbXrecord
280
     1
102
RTVSPost2010Prop28
280
     0
102
RTVSPost2010PropOp28
 70
     1
102
RTVSPost2010Prop29
280
     1
102
RTVSPost2010PropOp29
 70
     1
102
RTVSPost2010Prop30
280
     1
102
RTVSPost2010PropOp30
 70
     1
102
RTVSPost2010Prop31
280
     0
102
RTVSPost2010PropOp31
 70
     1
102
RTVSPost2010Prop32
280
     0
102
RTVSPost2010PropOp32
 70
     1
102
RTVSPost2010Prop33
280
     0
102
RTVSPost2010PropOp33
 70
     1
102
RTVSPost2010Prop34
280
     0
102
RTVSPost2010PropOp34
 70
     1
102
RTVSPost2010Prop35
280
     0
102
RTVSPost2010PropOp35
 70
     1
102
RTVSPost2010Prop36
280
     0
102
RTVSPost2010PropOp36
 70
     1
102
RTVSPost2010Prop37
 90
       50
102
RTVSPost2010PropOp37
 70
     1
102
RTVSPost2010Prop38
140
0.0
102
RTVSPost2010PropOp38
 70
     1
102
RTVSPost2010Prop39
140
1.0
102
RTVSPost2010PropOp39
 70
     1
102
RTVSPost2010Prop40
 90
        0
102
RTVSPost2010PropOp40
 70
     1
102
RTVSPost2010Prop41ColorIndex
 90
       18
102
RTVSPost2010Prop41ColorRGB
 90
        0
102
RTVSPost2010PropOp41
 70
     1
102
RTVSPost2010Prop42
 90
       50
102
RTVSPost2010PropOp42
 70
     1
102
RTVSPost2010Prop43
 90
        3
102
RTVSPost2010PropOp43
 70
     1
102
RTVSPost2010Prop44ColorIndex
 90
        5
102
RTVSPost2010Prop44ColorRGB
 90
      255
102
RTVSPost2010PropOp44
 70
     1
102
RTVSPost2010Prop45
280
     0
102
RTVSPost2010PropOp45
 70
     1
102
RTVSPost2010Prop46
 90
       50
102
RTVSPost2010PropOp46
 70
     1
102
RTVSPost2010Prop47
 90
       50
102
RTVSPost2010PropOp47
 70
     1
102
RTVSPost2010Prop48
 90
       50
102
RTVSPost2010PropOp48
 70
     1
102
RTVSPost2010Prop49
280
     0
102
RTVSPost2010PropOp49
 70
     1
102
RTVSPost2010Prop50
 90
       50
102
RTVSPost2010PropOp50
 70
     1
102
RTVSPost2010Prop51ColorIndex
 90
      256
102
RTVSPost2010Prop51ColorRGB
 90
-16777216
102
RTVSPost2010PropOp51
 70
     0
102
RTVSPost2010Prop52
140
1.0
102
RTVSPost2010PropOp52
 70
     0
102
RTVSPost2010Prop53
 90
        2
102
RTVSPost2010PropOp53
 70
     1
102
RTVSPost2010Prop54
  1
strokes_ogs.tif
102
RTVSPost2010PropOp54
 70
     1
102
RTVSPost2010Prop55
280
     0
102
RTVSPost2010PropOp55
 70
     1
102
RTVSPost2010Prop56
140
1.0
102
RTVSPost2010PropOp56
 70
     1
102
RTVSPost2010Prop57
140
1.0
102
RTVSPost2010PropOp57
 70
     1
102
RTVSPropertyOp0
 70
     1
102
RTVSPropertyOp1
 70
     1
102
RTVSPropertyOp2
 70
     1
102
RTVSPropertyOp3
 70
     1
102
RTVSPropertyOp4
 70
     1
102
RTVSPropertyOp5
 70
     1
102
RTVSPropertyOp6
 70
     1
102
RTVSPropertyOp7
 70
     1
102
RTVSPropertyOp8
 70
     1
102
RTVSPropertyOp9
 70
     1
102
RTVSPropertyOp10
 70
     1
102
RTVSPropertyOp11
 70
     1
102
RTVSPropertyOp12
 70
     1
102
RTVSPropertyOp13
 70
     1
102
RTVSPropertyOp14
 70
     1
102
RTVSPropertyOp15
 70
     1
102
RTVSPropertyOp16
 70
     1
102
RTVSPropertyOp17
 70
     1
102
RTVSPropertyOp18
 70
     1
102
RTVSPropertyOp19
 70
     1
102
RTVSPropertyOp20
 70
     1
102
RTVSPropertyOp21
 70
     1
102
RTVSPropertyOp22
 70
     1
102
RTVSPropertyOp23
 70
     1
102
RTVSPropertyOp24
 70
     1
102
RTVSPropertyOp25
 70
     1
102
RTVSPropertyOp26
 70
     1
102
RTVSPropertyOp27
 70
     1
102
RTVSPropertyOp28
 70
     1
102
RTVSPropertyOp29
 70
     1
102
RTVSPropertyOp30
 70
     1
102
RTVSPropertyOp31
 70
     1
102
RTVSPropertyOp32
 70
     1
102
RTVSPropertyOp33
 70
     1
102
RTVSPropertyOp34
 70
     1
102
RTVSPropertyOp35
 70
     1
102
RTVSPropertyOp36
 70
     1
102
RTVSPropertyOp37
 70
     1
102
RTVSPropertyOp38
 70
     1
102
RTVSPropertyOp39
 70
     1
102
RTVSPropertyOp40
 70
     1
102
RTVSPropertyOp41
 70
     1
102
RTVSPropertyOp42
 70
     1
102
RTVSPropertyOp43
 70
     1
102
RTVSPropertyOp44
 70
     1
102
RTVSPropertyOp45
 70
     1
102
RTVSPropertyOp46
 70
     1
102
RTVSPropertyOp47
 70
     1
102
RTVSPropertyOp48
 70
     1
102
RTVSPropertyOp49
 70
     1
102
RTVSPropertyOp50
 70
     1
102
RTVSPropertyOp51
 70
     0
102
RTVSPropertyOp52
 70
     0
102
RTVSPropertyOp53
 70
     1
102
RTVSPropertyOp54
 70
     1
102
RTVSPropertyOp55
 70
     1
102
RTVSPropertyOp56
 70
     1
102
RTVSPropertyOp57
 70
     1
102
RTVSPropertyOp58
 70
     1
102
RTVSPropertyOp59
 70
     1
102
RTVSPropertyOp60
 70
     1
102
RTVSPropertyOp61
 70
     1
102
RTVSPropertyOp62
 70
     1
  0
XRECORD
  5
8799
102
{ACAD_REACTORS
330
8798
102
}
330
8798
100
AcDbXrecord
280
     1
102
RTVSPost2010Prop28
280
     0
102
RTVSPost2010PropOp28
 70
     1
102
RTVSPost2010Prop29
280
     1
102
RTVSPost2010PropOp29
 70
     1
102
RTVSPost2010Prop30
280
     1
102
RTVSPost2010PropOp30
 70
     1
102
RTVSPost2010Prop31
280
     0
102
RTVSPost2010PropOp31
 70
     1
102
RTVSPost2010Prop32
280
     0
102
RTVSPost2010PropOp32
 70
     1
102
RTVSPost2010Prop33
280
     0
102
RTVSPost2010PropOp33
 70
     1
102
RTVSPost2010Prop34
280
     0
102
RTVSPost2010PropOp34
 70
     1
102
RTVSPost2010Prop35
280
     0
102
RTVSPost2010PropOp35
 70
     1
102
RTVSPost2010Prop36
280
     0
102
RTVSPost2010PropOp36
 70
     1
102
RTVSPost2010Prop37
 90
       50
102
RTVSPost2010PropOp37
 70
     1
102
RTVSPost2010Prop38
140
0.0
102
RTVSPost2010PropOp38
 70
     1
102
RTVSPost2010Prop39
140
1.0
102
RTVSPost2010PropOp39
 70
     1
102
RTVSPost2010Prop40
 90
        0
102
RTVSPost2010PropOp40
 70
     1
102
RTVSPost2010Prop41ColorIndex
 90
       18
102
RTVSPost2010Prop41ColorRGB
 90
        0
102
RTVSPost2010PropOp41
 70
     1
102
RTVSPost2010Prop42
 90
       50
102
RTVSPost2010PropOp42
 70
     1
102
RTVSPost2010Prop43
 90
        3
102
RTVSPost2010PropOp43
 70
     1
102
RTVSPost2010Prop44ColorIndex
 90
        5
102
RTVSPost2010Prop44ColorRGB
 90
      255
102
RTVSPost2010PropOp44
 70
     1
102
RTVSPost2010Prop45
280
     0
102
RTVSPost2010PropOp45
 70
     1
102
RTVSPost2010Prop46
 90
       50
102
RTVSPost2010PropOp46
 70
     1
102
RTVSPost2010Prop47
 90
       50
102
RTVSPost2010PropOp47
 70
     1
102
RTVSPost2010Prop48
 90
       50
102
RTVSPost2010PropOp48
 70
     1
102
RTVSPost2010Prop49
280
     0
102
RTVSPost2010PropOp49
 70
     1
102
RTVSPost2010Prop50
 90
       50
102
RTVSPost2010PropOp50
 70
     1
102
RTVSPost2010Prop51ColorIndex
 90
      256
102
RTVSPost2010Prop51ColorRGB
 90
-16777216
102
RTVSPost2010PropOp51
 70
     0
102
RTVSPost2010Prop52
140
1.0
102
RTVSPost2010PropOp52
 70
     0
102
RTVSPost2010Prop53
 90
        2
102
RTVSPost2010PropOp53
 70
     1
102
RTVSPost2010Prop54
  1
strokes_ogs.tif
102
RTVSPost2010PropOp54
 70
     1
102
RTVSPost2010Prop55
280
     0
102
RTVSPost2010PropOp55
 70
     1
102
RTVSPost2010Prop56
140
1.0
102
RTVSPost2010PropOp56
 70
     1
102
RTVSPost2010Prop57
140
1.0
102
RTVSPost2010PropOp57
 70
     1
102
RTVSPropertyOp0
 70
     1
102
RTVSPropertyOp1
 70
     1
102
RTVSPropertyOp2
 70
     1
102
RTVSPropertyOp3
 70
     1
102
RTVSPropertyOp4
 70
     1
102
RTVSPropertyOp5
 70
     1
102
RTVSPropertyOp6
 70
     1
102
RTVSPropertyOp7
 70
     1
102
RTVSPropertyOp8
 70
     1
102
RTVSPropertyOp9
 70
     1
102
RTVSPropertyOp10
 70
     1
102
RTVSPropertyOp11
 70
     1
102
RTVSPropertyOp12
 70
     1
102
RTVSPropertyOp13
 70
     1
102
RTVSPropertyOp14
 70
     1
102
RTVSPropertyOp15
 70
     1
102
RTVSPropertyOp16
 70
     1
102
RTVSPropertyOp17
 70
     1
102
RTVSPropertyOp18
 70
     1
102
RTVSPropertyOp19
 70
     1
102
RTVSPropertyOp20
 70
     1
102
RTVSPropertyOp21
 70
     1
102
RTVSPropertyOp22
 70
     1
102
RTVSPropertyOp23
 70
     1
102
RTVSPropertyOp24
 70
     1
102
RTVSPropertyOp25
 70
     1
102
RTVSPropertyOp26
 70
     1
102
RTVSPropertyOp27
 70
     1
102
RTVSPropertyOp28
 70
     1
102
RTVSPropertyOp29
 70
     1
102
RTVSPropertyOp30
 70
     1
102
RTVSPropertyOp31
 70
     1
102
RTVSPropertyOp32
 70
     1
102
RTVSPropertyOp33
 70
     1
102
RTVSPropertyOp34
 70
     1
102
RTVSPropertyOp35
 70
     1
102
RTVSPropertyOp36
 70
     1
102
RTVSPropertyOp37
 70
     1
102
RTVSPropertyOp38
 70
     1
102
RTVSPropertyOp39
 70
     1
102
RTVSPropertyOp40
 70
     1
102
RTVSPropertyOp41
 70
     1
102
RTVSPropertyOp42
 70
     1
102
RTVSPropertyOp43
 70
     1
102
RTVSPropertyOp44
 70
     1
102
RTVSPropertyOp45
 70
     1
102
RTVSPropertyOp46
 70
     1
102
RTVSPropertyOp47
 70
     1
102
RTVSPropertyOp48
 70
     1
102
RTVSPropertyOp49
 70
     1
102
RTVSPropertyOp50
 70
     1
102
RTVSPropertyOp51
 70
     0
102
RTVSPropertyOp52
 70
     0
102
RTVSPropertyOp53
 70
     1
102
RTVSPropertyOp54
 70
     1
102
RTVSPropertyOp55
 70
     1
102
RTVSPropertyOp56
 70
     1
102
RTVSPropertyOp57
 70
     1
102
RTVSPropertyOp58
 70
     1
102
RTVSPropertyOp59
 70
     1
102
RTVSPropertyOp60
 70
     1
102
RTVSPropertyOp61
 70
     1
102
RTVSPropertyOp62
 70
     1
  0
XRECORD
  5
8793
102
{ACAD_REACTORS
330
8792
102
}
330
8792
100
AcDbXrecord
280
     1
102
RTVSPost2010Prop28
280
     0
102
RTVSPost2010PropOp28
 70
     1
102
RTVSPost2010Prop29
280
     1
102
RTVSPost2010PropOp29
 70
     1
102
RTVSPost2010Prop30
280
     1
102
RTVSPost2010PropOp30
 70
     1
102
RTVSPost2010Prop31
280
     0
102
RTVSPost2010PropOp31
 70
     1
102
RTVSPost2010Prop32
280
     0
102
RTVSPost2010PropOp32
 70
     1
102
RTVSPost2010Prop33
280
     0
102
RTVSPost2010PropOp33
 70
     1
102
RTVSPost2010Prop34
280
     0
102
RTVSPost2010PropOp34
 70
     1
102
RTVSPost2010Prop35
280
     0
102
RTVSPost2010PropOp35
 70
     1
102
RTVSPost2010Prop36
280
     0
102
RTVSPost2010PropOp36
 70
     1
102
RTVSPost2010Prop37
 90
       50
102
RTVSPost2010PropOp37
 70
     1
102
RTVSPost2010Prop38
140
0.0
102
RTVSPost2010PropOp38
 70
     1
102
RTVSPost2010Prop39
140
1.0
102
RTVSPost2010PropOp39
 70
     1
102
RTVSPost2010Prop40
 90
        0
102
RTVSPost2010PropOp40
 70
     1
102
RTVSPost2010Prop41ColorIndex
 90
       18
102
RTVSPost2010Prop41ColorRGB
 90
        0
102
RTVSPost2010PropOp41
 70
     1
102
RTVSPost2010Prop42
 90
       50
102
RTVSPost2010PropOp42
 70
     1
102
RTVSPost2010Prop43
 90
        3
102
RTVSPost2010PropOp43
 70
     1
102
RTVSPost2010Prop44ColorIndex
 90
        5
102
RTVSPost2010Prop44ColorRGB
 90
      255
102
RTVSPost2010PropOp44
 70
     1
102
RTVSPost2010Prop45
280
     0
102
RTVSPost2010PropOp45
 70
     1
102
RTVSPost2010Prop46
 90
       50
102
RTVSPost2010PropOp46
 70
     1
102
RTVSPost2010Prop47
 90
       50
102
RTVSPost2010PropOp47
 70
     1
102
RTVSPost2010Prop48
 90
       50
102
RTVSPost2010PropOp48
 70
     1
102
RTVSPost2010Prop49
280
     0
102
RTVSPost2010PropOp49
 70
     1
102
RTVSPost2010Prop50
 90
       50
102
RTVSPost2010PropOp50
 70
     1
102
RTVSPost2010Prop51ColorIndex
 90
      256
102
RTVSPost2010Prop51ColorRGB
 90
-16777216
102
RTVSPost2010PropOp51
 70
     0
102
RTVSPost2010Prop52
140
1.0
102
RTVSPost2010PropOp52
 70
     0
102
RTVSPost2010Prop53
 90
        2
102
RTVSPost2010PropOp53
 70
     1
102
RTVSPost2010Prop54
  1
strokes_ogs.tif
102
RTVSPost2010PropOp54
 70
     1
102
RTVSPost2010Prop55
280
     0
102
RTVSPost2010PropOp55
 70
     1
102
RTVSPost2010Prop56
140
1.0
102
RTVSPost2010PropOp56
 70
     1
102
RTVSPost2010Prop57
140
1.0
102
RTVSPost2010PropOp57
 70
     1
102
RTVSPropertyOp0
 70
     1
102
RTVSPropertyOp1
 70
     1
102
RTVSPropertyOp2
 70
     1
102
RTVSPropertyOp3
 70
     1
102
RTVSPropertyOp4
 70
     1
102
RTVSPropertyOp5
 70
     1
102
RTVSPropertyOp6
 70
     1
102
RTVSPropertyOp7
 70
     1
102
RTVSPropertyOp8
 70
     1
102
RTVSPropertyOp9
 70
     1
102
RTVSPropertyOp10
 70
     1
102
RTVSPropertyOp11
 70
     1
102
RTVSPropertyOp12
 70
     1
102
RTVSPropertyOp13
 70
     1
102
RTVSPropertyOp14
 70
     1
102
RTVSPropertyOp15
 70
     1
102
RTVSPropertyOp16
 70
     1
102
RTVSPropertyOp17
 70
     1
102
RTVSPropertyOp18
 70
     1
102
RTVSPropertyOp19
 70
     1
102
RTVSPropertyOp20
 70
     1
102
RTVSPropertyOp21
 70
     1
102
RTVSPropertyOp22
 70
     1
102
RTVSPropertyOp23
 70
     1
102
RTVSPropertyOp24
 70
     1
102
RTVSPropertyOp25
 70
     1
102
RTVSPropertyOp26
 70
     1
102
RTVSPropertyOp27
 70
     1
102
RTVSPropertyOp28
 70
     1
102
RTVSPropertyOp29
 70
     1
102
RTVSPropertyOp30
 70
     1
102
RTVSPropertyOp31
 70
     1
102
RTVSPropertyOp32
 70
     1
102
RTVSPropertyOp33
 70
     1
102
RTVSPropertyOp34
 70
     1
102
RTVSPropertyOp35
 70
     1
102
RTVSPropertyOp36
 70
     1
102
RTVSPropertyOp37
 70
     1
102
RTVSPropertyOp38
 70
     1
102
RTVSPropertyOp39
 70
     1
102
RTVSPropertyOp40
 70
     1
102
RTVSPropertyOp41
 70
     1
102
RTVSPropertyOp42
 70
     1
102
RTVSPropertyOp43
 70
     1
102
RTVSPropertyOp44
 70
     1
102
RTVSPropertyOp45
 70
     1
102
RTVSPropertyOp46
 70
     1
102
RTVSPropertyOp47
 70
     1
102
RTVSPropertyOp48
 70
     1
102
RTVSPropertyOp49
 70
     1
102
RTVSPropertyOp50
 70
     1
102
RTVSPropertyOp51
 70
     0
102
RTVSPropertyOp52
 70
     0
102
RTVSPropertyOp53
 70
     1
102
RTVSPropertyOp54
 70
     1
102
RTVSPropertyOp55
 70
     1
102
RTVSPropertyOp56
 70
     1
102
RTVSPropertyOp57
 70
     1
102
RTVSPropertyOp58
 70
     1
102
RTVSPropertyOp59
 70
     1
102
RTVSPropertyOp60
 70
     1
102
RTVSPropertyOp61
 70
     1
102
RTVSPropertyOp62
 70
     1
  0
XRECORD
  5
8795
102
{ACAD_REACTORS
330
8794
102
}
330
8794
100
AcDbXrecord
280
     1
102
RTVSPost2010Prop28
280
     0
102
RTVSPost2010PropOp28
 70
     1
102
RTVSPost2010Prop29
280
     1
102
RTVSPost2010PropOp29
 70
     1
102
RTVSPost2010Prop30
280
     1
102
RTVSPost2010PropOp30
 70
     1
102
RTVSPost2010Prop31
280
     0
102
RTVSPost2010PropOp31
 70
     1
102
RTVSPost2010Prop32
280
     0
102
RTVSPost2010PropOp32
 70
     1
102
RTVSPost2010Prop33
280
     0
102
RTVSPost2010PropOp33
 70
     1
102
RTVSPost2010Prop34
280
     0
102
RTVSPost2010PropOp34
 70
     1
102
RTVSPost2010Prop35
280
     0
102
RTVSPost2010PropOp35
 70
     1
102
RTVSPost2010Prop36
280
     0
102
RTVSPost2010PropOp36
 70
     1
102
RTVSPost2010Prop37
 90
       50
102
RTVSPost2010PropOp37
 70
     1
102
RTVSPost2010Prop38
140
0.0
102
RTVSPost2010PropOp38
 70
     1
102
RTVSPost2010Prop39
140
1.0
102
RTVSPost2010PropOp39
 70
     1
102
RTVSPost2010Prop40
 90
        0
102
RTVSPost2010PropOp40
 70
     1
102
RTVSPost2010Prop41ColorIndex
 90
       18
102
RTVSPost2010Prop41ColorRGB
 90
        0
102
RTVSPost2010PropOp41
 70
     1
102
RTVSPost2010Prop42
 90
       50
102
RTVSPost2010PropOp42
 70
     1
102
RTVSPost2010Prop43
 90
        3
102
RTVSPost2010PropOp43
 70
     1
102
RTVSPost2010Prop44ColorIndex
 90
        5
102
RTVSPost2010Prop44ColorRGB
 90
      255
102
RTVSPost2010PropOp44
 70
     1
102
RTVSPost2010Prop45
280
     0
102
RTVSPost2010PropOp45
 70
     1
102
RTVSPost2010Prop46
 90
       50
102
RTVSPost2010PropOp46
 70
     1
102
RTVSPost2010Prop47
 90
       50
102
RTVSPost2010PropOp47
 70
     1
102
RTVSPost2010Prop48
 90
       50
102
RTVSPost2010PropOp48
 70
     1
102
RTVSPost2010Prop49
280
     0
102
RTVSPost2010PropOp49
 70
     1
102
RTVSPost2010Prop50
 90
       50
102
RTVSPost2010PropOp50
 70
     1
102
RTVSPost2010Prop51ColorIndex
 90
      256
102
RTVSPost2010Prop51ColorRGB
 90
-16777216
102
RTVSPost2010PropOp51
 70
     0
102
RTVSPost2010Prop52
140
1.0
102
RTVSPost2010PropOp52
 70
     0
102
RTVSPost2010Prop53
 90
        2
102
RTVSPost2010PropOp53
 70
     1
102
RTVSPost2010Prop54
  1
strokes_ogs.tif
102
RTVSPost2010PropOp54
 70
     1
102
RTVSPost2010Prop55
280
     0
102
RTVSPost2010PropOp55
 70
     1
102
RTVSPost2010Prop56
140
1.0
102
RTVSPost2010PropOp56
 70
     1
102
RTVSPost2010Prop57
140
1.0
102
RTVSPost2010PropOp57
 70
     1
102
RTVSPropertyOp0
 70
     1
102
RTVSPropertyOp1
 70
     1
102
RTVSPropertyOp2
 70
     1
102
RTVSPropertyOp3
 70
     1
102
RTVSPropertyOp4
 70
     1
102
RTVSPropertyOp5
 70
     1
102
RTVSPropertyOp6
 70
     1
102
RTVSPropertyOp7
 70
     1
102
RTVSPropertyOp8
 70
     1
102
RTVSPropertyOp9
 70
     1
102
RTVSPropertyOp10
 70
     1
102
RTVSPropertyOp11
 70
     1
102
RTVSPropertyOp12
 70
     1
102
RTVSPropertyOp13
 70
     1
102
RTVSPropertyOp14
 70
     1
102
RTVSPropertyOp15
 70
     1
102
RTVSPropertyOp16
 70
     1
102
RTVSPropertyOp17
 70
     1
102
RTVSPropertyOp18
 70
     1
102
RTVSPropertyOp19
 70
     1
102
RTVSPropertyOp20
 70
     1
102
RTVSPropertyOp21
 70
     1
102
RTVSPropertyOp22
 70
     1
102
RTVSPropertyOp23
 70
     1
102
RTVSPropertyOp24
 70
     1
102
RTVSPropertyOp25
 70
     1
102
RTVSPropertyOp26
 70
     1
102
RTVSPropertyOp27
 70
     1
102
RTVSPropertyOp28
 70
     1
102
RTVSPropertyOp29
 70
     1
102
RTVSPropertyOp30
 70
     1
102
RTVSPropertyOp31
 70
     1
102
RTVSPropertyOp32
 70
     1
102
RTVSPropertyOp33
 70
     1
102
RTVSPropertyOp34
 70
     1
102
RTVSPropertyOp35
 70
     1
102
RTVSPropertyOp36
 70
     1
102
RTVSPropertyOp37
 70
     1
102
RTVSPropertyOp38
 70
     1
102
RTVSPropertyOp39
 70
     1
102
RTVSPropertyOp40
 70
     1
102
RTVSPropertyOp41
 70
     1
102
RTVSPropertyOp42
 70
     1
102
RTVSPropertyOp43
 70
     1
102
RTVSPropertyOp44
 70
     1
102
RTVSPropertyOp45
 70
     1
102
RTVSPropertyOp46
 70
     1
102
RTVSPropertyOp47
 70
     1
102
RTVSPropertyOp48
 70
     1
102
RTVSPropertyOp49
 70
     1
102
RTVSPropertyOp50
 70
     1
102
RTVSPropertyOp51
 70
     0
102
RTVSPropertyOp52
 70
     0
102
RTVSPropertyOp53
 70
     1
102
RTVSPropertyOp54
 70
     1
102
RTVSPropertyOp55
 70
     1
102
RTVSPropertyOp56
 70
     1
102
RTVSPropertyOp57
 70
     1
102
RTVSPropertyOp58
 70
     1
102
RTVSPropertyOp59
 70
     1
102
RTVSPropertyOp60
 70
     1
102
RTVSPropertyOp61
 70
     1
102
RTVSPropertyOp62
 70
     1
  0
XRECORD
  5
878B
102
{ACAD_REACTORS
330
878A
102
}
330
878A
100
AcDbXrecord
280
     1
102
RTVSPost2010Prop28
280
     0
102
RTVSPost2010PropOp28
 70
     1
102
RTVSPost2010Prop29
280
     1
102
RTVSPost2010PropOp29
 70
     1
102
RTVSPost2010Prop30
280
     1
102
RTVSPost2010PropOp30
 70
     1
102
RTVSPost2010Prop31
280
     0
102
RTVSPost2010PropOp31
 70
     1
102
RTVSPost2010Prop32
280
     0
102
RTVSPost2010PropOp32
 70
     1
102
RTVSPost2010Prop33
280
     0
102
RTVSPost2010PropOp33
 70
     1
102
RTVSPost2010Prop34
280
     0
102
RTVSPost2010PropOp34
 70
     1
102
RTVSPost2010Prop35
280
     0
102
RTVSPost2010PropOp35
 70
     1
102
RTVSPost2010Prop36
280
     0
102
RTVSPost2010PropOp36
 70
     1
102
RTVSPost2010Prop37
 90
       50
102
RTVSPost2010PropOp37
 70
     1
102
RTVSPost2010Prop38
140
0.0
102
RTVSPost2010PropOp38
 70
     1
102
RTVSPost2010Prop39
140
1.0
102
RTVSPost2010PropOp39
 70
     1
102
RTVSPost2010Prop40
 90
        0
102
RTVSPost2010PropOp40
 70
     1
102
RTVSPost2010Prop41ColorIndex
 90
       18
102
RTVSPost2010Prop41ColorRGB
 90
        0
102
RTVSPost2010PropOp41
 70
     1
102
RTVSPost2010Prop42
 90
       50
102
RTVSPost2010PropOp42
 70
     1
102
RTVSPost2010Prop43
 90
        3
102
RTVSPost2010PropOp43
 70
     1
102
RTVSPost2010Prop44ColorIndex
 90
        5
102
RTVSPost2010Prop44ColorRGB
 90
      255
102
RTVSPost2010PropOp44
 70
     1
102
RTVSPost2010Prop45
280
     0
102
RTVSPost2010PropOp45
 70
     1
102
RTVSPost2010Prop46
 90
       50
102
RTVSPost2010PropOp46
 70
     1
102
RTVSPost2010Prop47
 90
       50
102
RTVSPost2010PropOp47
 70
     1
102
RTVSPost2010Prop48
 90
       50
102
RTVSPost2010PropOp48
 70
     1
102
RTVSPost2010Prop49
280
     0
102
RTVSPost2010PropOp49
 70
     1
102
RTVSPost2010Prop50
 90
       50
102
RTVSPost2010PropOp50
 70
     1
102
RTVSPost2010Prop51ColorIndex
 90
      256
102
RTVSPost2010Prop51ColorRGB
 90
-16777216
102
RTVSPost2010PropOp51
 70
     0
102
RTVSPost2010Prop52
140
1.0
102
RTVSPost2010PropOp52
 70
     0
102
RTVSPost2010Prop53
 90
        2
102
RTVSPost2010PropOp53
 70
     1
102
RTVSPost2010Prop54
  1
strokes_ogs.tif
102
RTVSPost2010PropOp54
 70
     1
102
RTVSPost2010Prop55
280
     0
102
RTVSPost2010PropOp55
 70
     1
102
RTVSPost2010Prop56
140
1.0
102
RTVSPost2010PropOp56
 70
     1
102
RTVSPost2010Prop57
140
1.0
102
RTVSPost2010PropOp57
 70
     1
102
RTVSPropertyOp0
 70
     1
102
RTVSPropertyOp1
 70
     1
102
RTVSPropertyOp2
 70
     1
102
RTVSPropertyOp3
 70
     1
102
RTVSPropertyOp4
 70
     1
102
RTVSPropertyOp5
 70
     1
102
RTVSPropertyOp6
 70
     1
102
RTVSPropertyOp7
 70
     1
102
RTVSPropertyOp8
 70
     1
102
RTVSPropertyOp9
 70
     1
102
RTVSPropertyOp10
 70
     1
102
RTVSPropertyOp11
 70
     1
102
RTVSPropertyOp12
 70
     1
102
RTVSPropertyOp13
 70
     1
102
RTVSPropertyOp14
 70
     1
102
RTVSPropertyOp15
 70
     1
102
RTVSPropertyOp16
 70
     1
102
RTVSPropertyOp17
 70
     1
102
RTVSPropertyOp18
 70
     1
102
RTVSPropertyOp19
 70
     1
102
RTVSPropertyOp20
 70
     1
102
RTVSPropertyOp21
 70
     1
102
RTVSPropertyOp22
 70
     1
102
RTVSPropertyOp23
 70
     1
102
RTVSPropertyOp24
 70
     1
102
RTVSPropertyOp25
 70
     1
102
RTVSPropertyOp26
 70
     1
102
RTVSPropertyOp27
 70
     1
102
RTVSPropertyOp28
 70
     1
102
RTVSPropertyOp29
 70
     1
102
RTVSPropertyOp30
 70
     1
102
RTVSPropertyOp31
 70
     1
102
RTVSPropertyOp32
 70
     1
102
RTVSPropertyOp33
 70
     1
102
RTVSPropertyOp34
 70
     1
102
RTVSPropertyOp35
 70
     1
102
RTVSPropertyOp36
 70
     1
102
RTVSPropertyOp37
 70
     1
102
RTVSPropertyOp38
 70
     1
102
RTVSPropertyOp39
 70
     1
102
RTVSPropertyOp40
 70
     1
102
RTVSPropertyOp41
 70
     1
102
RTVSPropertyOp42
 70
     1
102
RTVSPropertyOp43
 70
     1
102
RTVSPropertyOp44
 70
     1
102
RTVSPropertyOp45
 70
     1
102
RTVSPropertyOp46
 70
     1
102
RTVSPropertyOp47
 70
     1
102
RTVSPropertyOp48
 70
     1
102
RTVSPropertyOp49
 70
     1
102
RTVSPropertyOp50
 70
     1
102
RTVSPropertyOp51
 70
     0
102
RTVSPropertyOp52
 70
     0
102
RTVSPropertyOp53
 70
     1
102
RTVSPropertyOp54
 70
     1
102
RTVSPropertyOp55
 70
     1
102
RTVSPropertyOp56
 70
     1
102
RTVSPropertyOp57
 70
     1
102
RTVSPropertyOp58
 70
     1
102
RTVSPropertyOp59
 70
     1
102
RTVSPropertyOp60
 70
     1
102
RTVSPropertyOp61
 70
     1
102
RTVSPropertyOp62
 70
     1
  0
XRECORD
  5
877F
102
{ACAD_REACTORS
330
877E
102
}
330
877E
100
AcDbXrecord
280
     1
102
RTVSPost2010Prop28
280
     0
102
RTVSPost2010PropOp28
 70
     1
102
RTVSPost2010Prop29
280
     1
102
RTVSPost2010PropOp29
 70
     1
102
RTVSPost2010Prop30
280
     1
102
RTVSPost2010PropOp30
 70
     1
102
RTVSPost2010Prop31
280
     0
102
RTVSPost2010PropOp31
 70
     1
102
RTVSPost2010Prop32
280
     0
102
RTVSPost2010PropOp32
 70
     1
102
RTVSPost2010Prop33
280
     0
102
RTVSPost2010PropOp33
 70
     1
102
RTVSPost2010Prop34
280
     0
102
RTVSPost2010PropOp34
 70
     1
102
RTVSPost2010Prop35
280
     0
102
RTVSPost2010PropOp35
 70
     1
102
RTVSPost2010Prop36
280
     0
102
RTVSPost2010PropOp36
 70
     1
102
RTVSPost2010Prop37
 90
       50
102
RTVSPost2010PropOp37
 70
     1
102
RTVSPost2010Prop38
140
0.0
102
RTVSPost2010PropOp38
 70
     1
102
RTVSPost2010Prop39
140
1.0
102
RTVSPost2010PropOp39
 70
     1
102
RTVSPost2010Prop40
 90
        0
102
RTVSPost2010PropOp40
 70
     1
102
RTVSPost2010Prop41ColorIndex
 90
       18
102
RTVSPost2010Prop41ColorRGB
 90
        0
102
RTVSPost2010PropOp41
 70
     1
102
RTVSPost2010Prop42
 90
       50
102
RTVSPost2010PropOp42
 70
     1
102
RTVSPost2010Prop43
 90
        3
102
RTVSPost2010PropOp43
 70
     1
102
RTVSPost2010Prop44ColorIndex
 90
        5
102
RTVSPost2010Prop44ColorRGB
 90
      255
102
RTVSPost2010PropOp44
 70
     1
102
RTVSPost2010Prop45
280
     0
102
RTVSPost2010PropOp45
 70
     1
102
RTVSPost2010Prop46
 90
       50
102
RTVSPost2010PropOp46
 70
     1
102
RTVSPost2010Prop47
 90
       50
102
RTVSPost2010PropOp47
 70
     1
102
RTVSPost2010Prop48
 90
       50
102
RTVSPost2010PropOp48
 70
     1
102
RTVSPost2010Prop49
280
     0
102
RTVSPost2010PropOp49
 70
     1
102
RTVSPost2010Prop50
 90
       50
102
RTVSPost2010PropOp50
 70
     1
102
RTVSPost2010Prop51ColorIndex
 90
      256
102
RTVSPost2010Prop51ColorRGB
 90
-16777216
102
RTVSPost2010PropOp51
 70
     0
102
RTVSPost2010Prop52
140
1.0
102
RTVSPost2010PropOp52
 70
     0
102
RTVSPost2010Prop53
 90
        2
102
RTVSPost2010PropOp53
 70
     1
102
RTVSPost2010Prop54
  1
strokes_ogs.tif
102
RTVSPost2010PropOp54
 70
     1
102
RTVSPost2010Prop55
280
     0
102
RTVSPost2010PropOp55
 70
     1
102
RTVSPost2010Prop56
140
1.0
102
RTVSPost2010PropOp56
 70
     1
102
RTVSPost2010Prop57
140
1.0
102
RTVSPost2010PropOp57
 70
     1
102
RTVSPropertyOp0
 70
     1
102
RTVSPropertyOp1
 70
     1
102
RTVSPropertyOp2
 70
     1
102
RTVSPropertyOp3
 70
     1
102
RTVSPropertyOp4
 70
     1
102
RTVSPropertyOp5
 70
     1
102
RTVSPropertyOp6
 70
     1
102
RTVSPropertyOp7
 70
     1
102
RTVSPropertyOp8
 70
     1
102
RTVSPropertyOp9
 70
     1
102
RTVSPropertyOp10
 70
     1
102
RTVSPropertyOp11
 70
     1
102
RTVSPropertyOp12
 70
     1
102
RTVSPropertyOp13
 70
     1
102
RTVSPropertyOp14
 70
     1
102
RTVSPropertyOp15
 70
     1
102
RTVSPropertyOp16
 70
     1
102
RTVSPropertyOp17
 70
     1
102
RTVSPropertyOp18
 70
     1
102
RTVSPropertyOp19
 70
     1
102
RTVSPropertyOp20
 70
     1
102
RTVSPropertyOp21
 70
     1
102
RTVSPropertyOp22
 70
     1
102
RTVSPropertyOp23
 70
     1
102
RTVSPropertyOp24
 70
     1
102
RTVSPropertyOp25
 70
     1
102
RTVSPropertyOp26
 70
     1
102
RTVSPropertyOp27
 70
     1
102
RTVSPropertyOp28
 70
     1
102
RTVSPropertyOp29
 70
     1
102
RTVSPropertyOp30
 70
     1
102
RTVSPropertyOp31
 70
     1
102
RTVSPropertyOp32
 70
     1
102
RTVSPropertyOp33
 70
     1
102
RTVSPropertyOp34
 70
     1
102
RTVSPropertyOp35
 70
     1
102
RTVSPropertyOp36
 70
     1
102
RTVSPropertyOp37
 70
     1
102
RTVSPropertyOp38
 70
     1
102
RTVSPropertyOp39
 70
     1
102
RTVSPropertyOp40
 70
     1
102
RTVSPropertyOp41
 70
     1
102
RTVSPropertyOp42
 70
     1
102
RTVSPropertyOp43
 70
     1
102
RTVSPropertyOp44
 70
     1
102
RTVSPropertyOp45
 70
     1
102
RTVSPropertyOp46
 70
     1
102
RTVSPropertyOp47
 70
     1
102
RTVSPropertyOp48
 70
     1
102
RTVSPropertyOp49
 70
     1
102
RTVSPropertyOp50
 70
     1
102
RTVSPropertyOp51
 70
     0
102
RTVSPropertyOp52
 70
     0
102
RTVSPropertyOp53
 70
     1
102
RTVSPropertyOp54
 70
     1
102
RTVSPropertyOp55
 70
     1
102
RTVSPropertyOp56
 70
     1
102
RTVSPropertyOp57
 70
     1
102
RTVSPropertyOp58
 70
     1
102
RTVSPropertyOp59
 70
     1
102
RTVSPropertyOp60
 70
     1
102
RTVSPropertyOp61
 70
     1
102
RTVSPropertyOp62
 70
     1
  0
XRECORD
  5
8797
102
{ACAD_REACTORS
330
8796
102
}
330
8796
100
AcDbXrecord
280
     1
102
RTVSPost2010Prop28
280
     0
102
RTVSPost2010PropOp28
 70
     1
102
RTVSPost2010Prop29
280
     1
102
RTVSPost2010PropOp29
 70
     1
102
RTVSPost2010Prop30
280
     1
102
RTVSPost2010PropOp30
 70
     1
102
RTVSPost2010Prop31
280
     0
102
RTVSPost2010PropOp31
 70
     1
102
RTVSPost2010Prop32
280
     0
102
RTVSPost2010PropOp32
 70
     1
102
RTVSPost2010Prop33
280
     0
102
RTVSPost2010PropOp33
 70
     1
102
RTVSPost2010Prop34
280
     0
102
RTVSPost2010PropOp34
 70
     1
102
RTVSPost2010Prop35
280
     0
102
RTVSPost2010PropOp35
 70
     1
102
RTVSPost2010Prop36
280
     0
102
RTVSPost2010PropOp36
 70
     1
102
RTVSPost2010Prop37
 90
       50
102
RTVSPost2010PropOp37
 70
     1
102
RTVSPost2010Prop38
140
0.0
102
RTVSPost2010PropOp38
 70
     1
102
RTVSPost2010Prop39
140
1.0
102
RTVSPost2010PropOp39
 70
     1
102
RTVSPost2010Prop40
 90
        0
102
RTVSPost2010PropOp40
 70
     1
102
RTVSPost2010Prop41ColorIndex
 90
       18
102
RTVSPost2010Prop41ColorRGB
 90
        0
102
RTVSPost2010PropOp41
 70
     1
102
RTVSPost2010Prop42
 90
       50
102
RTVSPost2010PropOp42
 70
     1
102
RTVSPost2010Prop43
 90
        3
102
RTVSPost2010PropOp43
 70
     1
102
RTVSPost2010Prop44ColorIndex
 90
        5
102
RTVSPost2010Prop44ColorRGB
 90
      255
102
RTVSPost2010PropOp44
 70
     1
102
RTVSPost2010Prop45
280
     0
102
RTVSPost2010PropOp45
 70
     1
102
RTVSPost2010Prop46
 90
       50
102
RTVSPost2010PropOp46
 70
     1
102
RTVSPost2010Prop47
 90
       50
102
RTVSPost2010PropOp47
 70
     1
102
RTVSPost2010Prop48
 90
       50
102
RTVSPost2010PropOp48
 70
     1
102
RTVSPost2010Prop49
280
     0
102
RTVSPost2010PropOp49
 70
     1
102
RTVSPost2010Prop50
 90
       50
102
RTVSPost2010PropOp50
 70
     1
102
RTVSPost2010Prop51ColorIndex
 90
      256
102
RTVSPost2010Prop51ColorRGB
 90
-16777216
102
RTVSPost2010PropOp51
 70
     0
102
RTVSPost2010Prop52
140
1.0
102
RTVSPost2010PropOp52
 70
     0
102
RTVSPost2010Prop53
 90
        2
102
RTVSPost2010PropOp53
 70
     1
102
RTVSPost2010Prop54
  1
strokes_ogs.tif
102
RTVSPost2010PropOp54
 70
     1
102
RTVSPost2010Prop55
280
     0
102
RTVSPost2010PropOp55
 70
     1
102
RTVSPost2010Prop56
140
1.0
102
RTVSPost2010PropOp56
 70
     1
102
RTVSPost2010Prop57
140
1.0
102
RTVSPost2010PropOp57
 70
     1
102
RTVSPropertyOp0
 70
     1
102
RTVSPropertyOp1
 70
     1
102
RTVSPropertyOp2
 70
     1
102
RTVSPropertyOp3
 70
     1
102
RTVSPropertyOp4
 70
     1
102
RTVSPropertyOp5
 70
     1
102
RTVSPropertyOp6
 70
     1
102
RTVSPropertyOp7
 70
     1
102
RTVSPropertyOp8
 70
     1
102
RTVSPropertyOp9
 70
     1
102
RTVSPropertyOp10
 70
     1
102
RTVSPropertyOp11
 70
     1
102
RTVSPropertyOp12
 70
     1
102
RTVSPropertyOp13
 70
     1
102
RTVSPropertyOp14
 70
     1
102
RTVSPropertyOp15
 70
     1
102
RTVSPropertyOp16
 70
     1
102
RTVSPropertyOp17
 70
     1
102
RTVSPropertyOp18
 70
     1
102
RTVSPropertyOp19
 70
     1
102
RTVSPropertyOp20
 70
     1
102
RTVSPropertyOp21
 70
     1
102
RTVSPropertyOp22
 70
     1
102
RTVSPropertyOp23
 70
     1
102
RTVSPropertyOp24
 70
     1
102
RTVSPropertyOp25
 70
     1
102
RTVSPropertyOp26
 70
     1
102
RTVSPropertyOp27
 70
     1
102
RTVSPropertyOp28
 70
     1
102
RTVSPropertyOp29
 70
     1
102
RTVSPropertyOp30
 70
     1
102
RTVSPropertyOp31
 70
     1
102
RTVSPropertyOp32
 70
     1
102
RTVSPropertyOp33
 70
     1
102
RTVSPropertyOp34
 70
     1
102
RTVSPropertyOp35
 70
     1
102
RTVSPropertyOp36
 70
     1
102
RTVSPropertyOp37
 70
     1
102
RTVSPropertyOp38
 70
     1
102
RTVSPropertyOp39
 70
     1
102
RTVSPropertyOp40
 70
     1
102
RTVSPropertyOp41
 70
     1
102
RTVSPropertyOp42
 70
     1
102
RTVSPropertyOp43
 70
     1
102
RTVSPropertyOp44
 70
     1
102
RTVSPropertyOp45
 70
     1
102
RTVSPropertyOp46
 70
     1
102
RTVSPropertyOp47
 70
     1
102
RTVSPropertyOp48
 70
     1
102
RTVSPropertyOp49
 70
     1
102
RTVSPropertyOp50
 70
     1
102
RTVSPropertyOp51
 70
     0
102
RTVSPropertyOp52
 70
     0
102
RTVSPropertyOp53
 70
     1
102
RTVSPropertyOp54
 70
     1
102
RTVSPropertyOp55
 70
     1
102
RTVSPropertyOp56
 70
     1
102
RTVSPropertyOp57
 70
     1
102
RTVSPropertyOp58
 70
     1
102
RTVSPropertyOp59
 70
     1
102
RTVSPropertyOp60
 70
     1
102
RTVSPropertyOp61
 70
     1
102
RTVSPropertyOp62
 70
     1
  0
ENDSEC
  0
EOF
