  0
SECTION
  2
HEADER
  9
$ACADVER
  1
AC1015
  9
$ACADMAINTVER
 70
    20
  9
$DWGCODEPAGE
  3
ANSI_932
  9
$INSBASE
 10
0.0
 20
0.0
 30
0.0
  9
$EXTMIN
 10
-0.2242870864283759
 20
-0.3150699547441036
 30
-0.0015258207003583
  9
$EXTMAX
 10
7350.224321312532
 20
10325.31511803427
 30
0.0000000349246037
  9
$LIMMIN
 10
0.0
 20
0.0
  9
$LIMMAX
 10
297.0
 20
210.0
  9
$ORTHOMODE
 70
     1
  9
$REGENMODE
 70
     1
  9
$FILLMODE
 70
     0
  9
$QTEXTMODE
 70
     0
  9
$MIRRTEXT
 70
     1
  9
$LTSCALE
 40
100.0
  9
$ATTMODE
 70
     1
  9
$TEXTSIZE
 40
180.0
  9
$TRACEWID
 40
0.05
  9
$TEXTSTYLE
  7
STANDARD
  9
$CLAYER
  8
3
  9
$CELTYPE
  6
ByLayer
  9
$CECOLOR
 62
   256
  9
$CELTSCALE
 40
1.0
  9
$DISPSILH
 70
     0
  9
$DIMSCALE
 40
35.0
  9
$DIMASZ
 40
2.0
  9
$DIMEXO
 40
0.5
  9
$DIMDLI
 40
10.0
  9
$DIMRND
 40
0.0
  9
$DIMDLE
 40
0.0
  9
$DIMEXE
 40
1.0
  9
$DIMTP
 40
1.0
  9
$DIMTM
 40
1.0
  9
$DIMTXT
 40
3.0
  9
$DIMCEN
 40
0.0
  9
$DIMTSZ
 40
0.0
  9
$DIMTOL
 70
     0
  9
$DIMLIM
 70
     0
  9
$DIMTIH
 70
     0
  9
$DIMTOH
 70
     0
  9
$DIMSE1
 70
     0
  9
$DIMSE2
 70
     0
  9
$DIMTAD
 70
     1
  9
$DIMZIN
 70
     8
  9
$DIMBLK
  1

  9
$DIMASO
 70
     1
  9
$DIMSHO
 70
     1
  9
$DIMPOST
  1

  9
$DIMAPOST
  1

  9
$DIMALT
 70
     0
  9
$DIMALTD
 70
     2
  9
$DIMALTF
 40
0.039
  9
$DIMLFAC
 40
1.0
  9
$DIMTOFL
 70
     1
  9
$DIMTVP
 40
0.0
  9
$DIMTIX
 70
     0
  9
$DIMSOXD
 70
     0
  9
$DIMSAH
 70
     1
  9
$DIMBLK1
  1
OPEN
  9
$DIMBLK2
  1
OPEN
  9
$DIMSTYLE
  2
IGA
  9
$DIMCLRD
 70
     0
  9
$DIMCLRE
 70
     0
  9
$DIMCLRT
 70
     0
  9
$DIMTFAC
 40
10.0
  9
$DIMGAP
 40
1.0
  9
$DIMJUST
 70
     0
  9
$DIMSD1
 70
     0
  9
$DIMSD2
 70
     0
  9
$DIMTOLJ
 70
     1
  9
$DIMTZIN
 70
     0
  9
$DIMALTZ
 70
     0
  9
$DIMALTTZ
 70
     0
  9
$DIMUPT
 70
     0
  9
$DIMDEC
 70
     4
  9
$DIMTDEC
 70
     4
  9
$DIMALTU
 70
     2
  9
$DIMALTTD
 70
     2
  9
$DIMTXSTY
  7
STANDARD
  9
$DIMAUNIT
 70
     0
  9
$DIMADEC
 70
     0
  9
$DIMALTRND
 40
0.0
  9
$DIMAZIN
 70
     0
  9
$DIMDSEP
 70
    46
  9
$DIMATFIT
 70
     3
  9
$DIMFRAC
 70
     0
  9
$DIMLDRBLK
  1
OPEN
  9
$DIMLUNIT
 70
     2
  9
$DIMLWD
 70
    -2
  9
$DIMLWE
 70
    -2
  9
$DIMTMOVE
 70
     0
  9
$LUNITS
 70
     2
  9
$LUPREC
 70
     3
  9
$SKETCHINC
 40
0.1
  9
$FILLETRAD
 40
50.0
  9
$AUNITS
 70
     0
  9
$AUPREC
 70
     0
  9
$MENU
  1
acad
  9
$ELEVATION
 40
0.0
  9
$PELEVATION
 40
0.0
  9
$THICKNESS
 40
0.0
  9
$LIMCHECK
 70
     0
  9
$CHAMFERA
 40
0.5
  9
$CHAMFERB
 40
0.5
  9
$CHAMFERC
 40
0.0
  9
$CHAMFERD
 40
0.0
  9
$SKPOLY
 70
     0
  9
$TDCREATE
 40
2451390.410467593
  9
$TDUCREATE
 40
2451390.035467593
  9
$TDUPDATE
 40
2460273.592951921
  9
$TDUUPDATE
 40
2460273.217951921
  9
$TDINDWG
 40
0.1498342824
  9
$TDUSRTIMER
 40
0.1498339236
  9
$USRTIMER
 70
     1
  9
$ANGBASE
 50
0.0
  9
$ANGDIR
 70
     0
  9
$PDMODE
 70
     0
  9
$PDSIZE
 40
0.0
  9
$PLINEWID
 40
0.0
  9
$SPLFRAME
 70
     0
  9
$SPLINETYPE
 70
     6
  9
$SPLINESEGS
 70
     8
  9
$HANDSEED
  5
873F
  9
$SURFTAB1
 70
     6
  9
$SURFTAB2
 70
     6
  9
$SURFTYPE
 70
     6
  9
$SURFU
 70
     6
  9
$SURFV
 70
     6
  9
$UCSBASE
  2

  9
$UCSNAME
  2

  9
$UCSORG
 10
0.0
 20
0.0
 30
0.0
  9
$UCSXDIR
 10
1.0
 20
0.0
 30
0.0
  9
$UCSYDIR
 10
0.0
 20
1.0
 30
0.0
  9
$UCSORTHOREF
  2

  9
$UCSORTHOVIEW
 70
     0
  9
$UCSORGTOP
 10
0.0
 20
0.0
 30
0.0
  9
$UCSORGBOTTOM
 10
0.0
 20
0.0
 30
0.0
  9
$UCSORGLEFT
 10
0.0
 20
0.0
 30
0.0
  9
$UCSORGRIGHT
 10
0.0
 20
0.0
 30
0.0
  9
$UCSORGFRONT
 10
0.0
 20
0.0
 30
0.0
  9
$UCSORGBACK
 10
0.0
 20
0.0
 30
0.0
  9
$PUCSBASE
  2

  9
$PUCSNAME
  2

  9
$PUCSORG
 10
0.0
 20
0.0
 30
0.0
  9
$PUCSXDIR
 10
1.0
 20
0.0
 30
0.0
  9
$PUCSYDIR
 10
0.0
 20
1.0
 30
0.0
  9
$PUCSORTHOREF
  2

  9
$PUCSORTHOVIEW
 70
     0
  9
$PUCSORGTOP
 10
0.0
 20
0.0
 30
0.0
  9
$PUCSORGBOTTOM
 10
0.0
 20
0.0
 30
0.0
  9
$PUCSORGLEFT
 10
0.0
 20
0.0
 30
0.0
  9
$PUCSORGRIGHT
 10
0.0
 20
0.0
 30
0.0
  9
$PUCSORGFRONT
 10
0.0
 20
0.0
 30
0.0
  9
$PUCSORGBACK
 10
0.0
 20
0.0
 30
0.0
  9
$USERI1
 70
     0
  9
$USERI2
 70
     0
  9
$USERI3
 70
     0
  9
$USERI4
 70
     0
  9
$USERI5
 70
     0
  9
$USERR1
 40
0.0
  9
$USERR2
 40
0.0
  9
$USERR3
 40
0.0
  9
$USERR4
 40
0.0
  9
$USERR5
 40
0.0
  9
$WORLDVIEW
 70
     1
  9
$SHADEDGE
 70
     3
  9
$SHADEDIF
 70
    70
  9
$TILEMODE
 70
     1
  9
$MAXACTVP
 70
    16
  9
$PINSBASE
 10
0.0
 20
0.0
 30
0.0
  9
$PLIMCHECK
 70
     0
  9
$PEXTMIN
 10
1.000000000000000E+20
 20
1.000000000000000E+20
 30
1.000000000000000E+20
  9
$PEXTMAX
 10
-1.000000000000000E+20
 20
-1.000000000000000E+20
 30
-1.000000000000000E+20
  9
$PLIMMIN
 10
0.0
 20
0.0
  9
$PLIMMAX
 10
12.0
 20
9.0
  9
$UNITMODE
 70
     0
  9
$VISRETAIN
 70
     0
  9
$PLINEGEN
 70
     0
  9
$PSLTSCALE
 70
     1
  9
$TREEDEPTH
 70
  3020
  9
$CMLSTYLE
  2
Standard
  9
$CMLJUST
 70
     0
  9
$CMLSCALE
 40
1.0
  9
$PROXYGRAPHICS
 70
     1
  9
$MEASUREMENT
 70
     0
  9
$CELWEIGHT
370
    -1
  9
$ENDCAPS
280
     0
  9
$JOINSTYLE
280
     0
  9
$LWDISPLAY
290
     0
  9
$INSUNITS
 70
     0
  9
$HYPERLINKBASE
  1

  9
$STYLESHEET
  1

  9
$XEDIT
290
     1
  9
$CEPSNTYPE
380
     0
  9
$PSTYLEMODE
290
     1
  9
$FINGERPRINTGUID
  2
{8FCF37A6-9474-4328-9F82-FDA3755552DB}
  9
$VERSIONGUID
  2
{2A3F28D2-0624-4752-9768-4113270BBC7D}
  9
$EXTNAMES
290
     1
  9
$PSVPSCALE
 40
0.0
  9
$OLESTARTUP
290
     0
  0
ENDSEC
  0
SECTION
  2
CLASSES
  0
CLASS
  1
ACDBDICTIONARYWDFLT
  2
AcDbDictionaryWithDefault
  3
ObjectDBX Classes
 90
        0
280
     0
281
     0
  0
CLASS
  1
MATERIAL
  2
AcDbMaterial
  3
ObjectDBX Classes
 90
     1153
280
     0
281
     0
  0
CLASS
  1
VISUALSTYLE
  2
AcDbVisualStyle
  3
ObjectDBX Classes
 90
     4095
280
     0
281
     0
  0
CLASS
  1
SCALE
  2
AcDbScale
  3
ObjectDBX Classes
 90
     1153
280
     0
281
     0
  0
CLASS
  1
TABLESTYLE
  2
AcDbTableStyle
  3
ObjectDBX Classes
 90
     4095
280
     0
281
     0
  0
CLASS
  1
MLEADERSTYLE
  2
AcDbMLeaderStyle
  3
ACDB_MLEADERSTYLE_CLASS
 90
     4095
280
     0
281
     0
  0
CLASS
  1
ACDBSECTIONVIEWSTYLE
  2
AcDbSectionViewStyle
  3
ObjectDBX Classes
 90
     1025
280
     0
281
     0
  0
CLASS
  1
ACDBDETAILVIEWSTYLE
  2
AcDbDetailViewStyle
  3
ObjectDBX Classes
 90
     1025
280
     0
281
     0
  0
CLASS
  1
SORTENTSTABLE
  2
AcDbSortentsTable
  3
ObjectDBX Classes
 90
        0
280
     0
281
     0
  0
CLASS
  1
DICTIONARYVAR
  2
AcDbDictionaryVar
  3
ObjectDBX Classes
 90
        0
280
     0
281
     0
  0
CLASS
  1
CELLSTYLEMAP
  2
AcDbCellStyleMap
  3
ObjectDBX Classes
 90
     1152
280
     0
281
     0
  0
CLASS
  1
ACDBPLACEHOLDER
  2
AcDbPlaceHolder
  3
ObjectDBX Classes
 90
        0
280
     0
281
     0
  0
CLASS
  1
LAYOUT
  2
AcDbLayout
  3
ObjectDBX Classes
 90
        0
280
     0
281
     0
  0
ENDSEC
  0
SECTION
  2
TABLES
  0
TABLE
  2
VPORT
  5
833F
330
0
100
AcDbSymbolTable
 70
     1
  0
VPORT
  5
83AB
330
833F
100
AcDbSymbolTableRecord
100
AcDbViewportTableRecord
  2
*ACTIVE
 70
     0
 10
0.0
 20
0.0
 11
1.0
 21
1.0
 12
3675.000017113053
 22
5162.500024039763
 13
0.0
 23
0.0
 14
10.0
 24
10.0
 15
10.0
 25
10.0
 16
0.0
 26
0.0
 36
1.0
 17
0.0
 27
0.0
 37
0.0
 40
10391.74948481712
 41
2.050213675213675
 42
50.0
 43
0.0
 44
0.0
 50
0.0
 51
0.0
 71
     0
 72
   100
 73
     1
 74
     0
 75
     0
 76
     0
 77
     0
 78
     0
281
     0
 65
     1
110
0.0
120
0.0
130
0.0
111
1.0
121
0.0
131
0.0
112
0.0
122
1.0
132
0.0
 79
     0
146
0.0
1001
ACAD_NAV_VCDISPLAY
1070
     3
  0
ENDTAB
  0
TABLE
  2
LTYPE
  5
833C
330
0
100
AcDbSymbolTable
 70
     3
  0
LTYPE
  5
8391
330
833C
100
AcDbSymbolTableRecord
100
AcDbLinetypeTableRecord
  2
ByBlock
 70
     0
  3

 72
    65
 73
     0
 40
0.0
  0
LTYPE
  5
8392
330
833C
100
AcDbSymbolTableRecord
100
AcDbLinetypeTableRecord
  2
ByLayer
 70
     0
  3

 72
    65
 73
     0
 40
0.0
  0
LTYPE
  5
8393
330
833C
100
AcDbSymbolTableRecord
100
AcDbLinetypeTableRecord
  2
CONTINUOUS
 70
     0
  3
Solid line
 72
    65
 73
     0
 40
0.0
  0
LTYPE
  5
83AC
330
833C
100
AcDbSymbolTableRecord
100
AcDbLinetypeTableRecord
  2
CENTER
 70
     0
  3
____ _ ____ _ ____ _ ____ _ ____ _ ____ _ ____ 
 72
    65
 73
     4
 40
2.0
 49
1.25
 74
     0
 49
-0.25
 74
     0
 49
0.25
 74
     0
 49
-0.25
 74
     0
  0
ENDTAB
  0
TABLE
  2
LAYER
  5
8339
330
0
100
AcDbSymbolTable
 70
     6
  0
LAYER
  5
838B
102
{ACAD_XDICTIONARY
360
86E9
102
}
330
8339
100
AcDbSymbolTableRecord
100
AcDbLayerTableRecord
  2
0
 70
     0
 62
     7
  6
CONTINUOUS
370
    -3
390
8346
  0
LAYER
  5
83AA
102
{ACAD_XDICTIONARY
360
86EB
102
}
330
8339
100
AcDbSymbolTableRecord
100
AcDbLayerTableRecord
  2
3
 70
     0
 62
     2
  6
CONTINUOUS
370
    -3
390
8346
  0
LAYER
  5
83AD
102
{ACAD_XDICTIONARY
360
86ED
102
}
330
8339
100
AcDbSymbolTableRecord
100
AcDbLayerTableRecord
  2
2
 70
     0
 62
     3
  6
CENTER
370
    -3
390
8346
  0
LAYER
  5
83AE
102
{ACAD_XDICTIONARY
360
86EF
102
}
330
8339
100
AcDbSymbolTableRecord
100
AcDbLayerTableRecord
  2
1
 70
     0
 62
     4
  6
CONTINUOUS
370
    -3
390
8346
  0
LAYER
  5
83AF
102
{ACAD_XDICTIONARY
360
86F1
102
}
330
8339
100
AcDbSymbolTableRecord
100
AcDbLayerTableRecord
  2
4
 70
     0
 62
     7
  6
CONTINUOUS
370
    -3
390
8346
  0
LAYER
  5
83B0
330
8339
100
AcDbSymbolTableRecord
100
AcDbLayerTableRecord
  2
DEFPOINTS
 70
     0
 62
     7
  6
CONTINUOUS
290
     0
370
    -3
390
8346
  0
ENDTAB
  0
TABLE
  2
STYLE
  5
833A
330
0
100
AcDbSymbolTable
 70
     2
  0
STYLE
  5
838C
330
833A
100
AcDbSymbolTableRecord
100
AcDbTextStyleTableRecord
  2
STANDARD
 70
     0
 40
0.0
 41
1.0
 50
0.0
 71
     0
 42
180.0
  3
simplex.shx
  4
extfont.shx
  0
STYLE
  5
8390
330
833A
100
AcDbSymbolTableRecord
100
AcDbTextStyleTableRecord
  2
Annotative
 70
     0
 40
0.0
 41
1.0
 50
0.0
 71
     0
 42
0.2
  3
txt
  4

1001
AcadAnnotative
1000
AnnotativeData
1002
{
1070
     1
1070
     1
1002
}
  0
ENDTAB
  0
TABLE
  2
VIEW
  5
833D
330
0
100
AcDbSymbolTable
 70
     0
  0
ENDTAB
  0
TABLE
  2
UCS
  5
833E
330
0
100
AcDbSymbolTable
 70
     0
  0
ENDTAB
  0
TABLE
  2
APPID
  5
8340
330
0
100
AcDbSymbolTable
 70
     8
  0
APPID
  5
838D
330
8340
100
AcDbSymbolTableRecord
100
AcDbRegAppTableRecord
  2
ACAD
 70
     0
  0
APPID
  5
8394
330
8340
100
AcDbSymbolTableRecord
100
AcDbRegAppTableRecord
  2
AcadAnnotative
 70
     0
  0
APPID
  5
8466
330
8340
100
AcDbSymbolTableRecord
100
AcDbRegAppTableRecord
  2
ACAD_DSTYLE_DIMJAG
 70
     0
  0
APPID
  5
8467
330
8340
100
AcDbSymbolTableRecord
100
AcDbRegAppTableRecord
  2
ACAD_DSTYLE_DIMTALN
 70
     0
  0
APPID
  5
85A2
330
8340
100
AcDbSymbolTableRecord
100
AcDbRegAppTableRecord
  2
AcadAnnoMonitorAlertIconDisabled
 70
     0
  0
APPID
  5
85A3
330
8340
100
AcDbSymbolTableRecord
100
AcDbRegAppTableRecord
  2
ACAD_EXEMPT_FROM_CAD_STANDARDS
 70
     0
  0
APPID
  5
86FD
330
8340
100
AcDbSymbolTableRecord
100
AcDbRegAppTableRecord
  2
ACAD_NAV_VCDISPLAY
 70
     0
  0
APPID
  5
8736
330
8340
100
AcDbSymbolTableRecord
100
AcDbRegAppTableRecord
  2
ACAD_MLEADERVER
 70
     0
  0
ENDTAB
  0
TABLE
  2
DIMSTYLE
  5
8341
330
0
100
AcDbSymbolTable
 70
     3
100
AcDbDimStyleTable
 71
     1
340
83B1
  0
DIMSTYLE
105
838E
330
8341
100
AcDbSymbolTableRecord
100
AcDbDimStyleTableRecord
  2
Standard
 70
     0
340
838C
  0
DIMSTYLE
105
838F
330
8341
100
AcDbSymbolTableRecord
100
AcDbDimStyleTableRecord
  2
Annotative
 70
     0
340
838C
1001
AcadAnnotative
1000
AnnotativeData
1002
{
1070
     1
1070
     1
1002
}
  0
DIMSTYLE
105
83B1
102
{ACAD_REACTORS
330
8468
330
8475
330
8482
330
848F
330
849C
330
84A9
330
84B6
330
84C3
330
84D0
330
84DD
330
84EA
330
84F7
330
8504
330
8511
330
851E
330
852B
330
8538
330
8545
330
8552
330
855F
330
8571
330
8583
102
}
330
8341
100
AcDbSymbolTableRecord
100
AcDbDimStyleTableRecord
  2
IGA
 70
     0
 40
2.0
 41
2.0
 42
0.5
 43
10.0
 44
1.0
 47
1.0
 48
1.0
 73
     0
 74
     0
 77
     1
 78
     8
140
3.0
141
0.0
143
0.03937
146
10.0
147
1.0
173
     1
271
     3
272
     3
279
     2
284
     8
285
     8
286
     8
340
838C
  0
ENDTAB
  0
TABLE
  2
BLOCK_RECORD
  5
8338
330
0
100
AcDbSymbolTable
 70
    60
  0
BLOCK_RECORD
  5
83A6
102
{ACAD_XDICTIONARY
360
8462
102
}
330
8338
100
AcDbSymbolTableRecord
100
AcDbBlockTableRecord
  2
*Model_Space
340
83A9
  0
BLOCK_RECORD
  5
83A2
330
8338
100
AcDbSymbolTableRecord
100
AcDbBlockTableRecord
  2
*Paper_Space
340
83A5
  0
BLOCK_RECORD
  5
83B5
330
8338
100
AcDbSymbolTableRecord
100
AcDbBlockTableRecord
  2
$MODEL_SPACE
340
0
  0
BLOCK_RECORD
  5
83B7
330
8338
100
AcDbSymbolTableRecord
100
AcDbBlockTableRecord
  2
$PAPER_SPACE
340
0
  0
BLOCK_RECORD
  5
83B9
330
8338
100
AcDbSymbolTableRecord
100
AcDbBlockTableRecord
  2
_OPEN
340
0
102
{BLKREFS
331
84CA
331
84CB
331
84D7
331
84D8
331
84E4
331
84E5
331
84F1
331
84F2
331
84FE
331
84FF
331
850B
331
850C
331
8518
331
8519
331
8525
331
8526
331
8295
331
8296
331
829E
331
829F
331
82A7
331
82A8
331
82B0
331
82B1
331
82EF
331
847C
331
847D
331
84A3
331
84A4
331
84B0
331
84B1
331
84BD
331
84BE
331
82B9
331
82BA
331
82C2
331
82C3
331
82CB
331
82CC
331
82D4
331
82D5
331
82DD
331
82DE
331
82E6
331
82E7
331
82F0
331
82F8
331
82F9
331
8301
331
8302
331
830A
331
830B
331
8313
331
8314
331
831F
331
8123
331
8124
331
8130
331
8131
331
813D
331
813E
331
814A
331
814B
331
81AE
331
81AF
331
8532
331
8533
331
853F
331
8540
331
854C
331
854D
331
8559
331
855A
331
85B1
331
85B2
331
85C3
331
85C4
331
85D5
331
85D6
331
8617
331
8618
331
868B
331
86E5
102
}
  0
BLOCK_RECORD
  5
83BB
330
8338
100
AcDbSymbolTableRecord
100
AcDbBlockTableRecord
  2
YA_N
340
0
102
{BLKREFS
331
7C16
331
7C37
331
7C40
331
7C6C
331
7C95
102
}
  0
BLOCK_RECORD
  5
83BD
330
8338
100
AcDbSymbolTableRecord
100
AcDbBlockTableRecord
  2
*D4
340
0
  0
BLOCK_RECORD
  5
83BF
330
8338
100
AcDbSymbolTableRecord
100
AcDbBlockTableRecord
  2
*D5
340
0
  0
BLOCK_RECORD
  5
83C1
330
8338
100
AcDbSymbolTableRecord
100
AcDbBlockTableRecord
  2
*D6
340
0
  0
BLOCK_RECORD
  5
83C3
330
8338
100
AcDbSymbolTableRecord
100
AcDbBlockTableRecord
  2
*D7
340
0
  0
BLOCK_RECORD
  5
83C5
330
8338
100
AcDbSymbolTableRecord
100
AcDbBlockTableRecord
  2
*D8
340
0
  0
BLOCK_RECORD
  5
83C7
330
8338
100
AcDbSymbolTableRecord
100
AcDbBlockTableRecord
  2
*D9
340
0
  0
BLOCK_RECORD
  5
83C9
330
8338
100
AcDbSymbolTableRecord
100
AcDbBlockTableRecord
  2
*D10
340
0
  0
BLOCK_RECORD
  5
83CB
330
8338
100
AcDbSymbolTableRecord
100
AcDbBlockTableRecord
  2
*D11
340
0
  0
BLOCK_RECORD
  5
83CD
330
8338
100
AcDbSymbolTableRecord
100
AcDbBlockTableRecord
  2
*D12
340
0
  0
BLOCK_RECORD
  5
83CF
330
8338
100
AcDbSymbolTableRecord
100
AcDbBlockTableRecord
  2
*D13
340
0
  0
BLOCK_RECORD
  5
83D1
330
8338
100
AcDbSymbolTableRecord
100
AcDbBlockTableRecord
  2
*D14
340
0
  0
BLOCK_RECORD
  5
83D3
330
8338
100
AcDbSymbolTableRecord
100
AcDbBlockTableRecord
  2
*D15
340
0
  0
BLOCK_RECORD
  5
83D5
330
8338
100
AcDbSymbolTableRecord
100
AcDbBlockTableRecord
  2
*D16
340
0
  0
BLOCK_RECORD
  5
83D7
330
8338
100
AcDbSymbolTableRecord
100
AcDbBlockTableRecord
  2
*D17
340
0
  0
BLOCK_RECORD
  5
83D9
330
8338
100
AcDbSymbolTableRecord
100
AcDbBlockTableRecord
  2
*D18
340
0
  0
BLOCK_RECORD
  5
83DB
330
8338
100
AcDbSymbolTableRecord
100
AcDbBlockTableRecord
  2
*D19
340
0
  0
BLOCK_RECORD
  5
83DD
330
8338
100
AcDbSymbolTableRecord
100
AcDbBlockTableRecord
  2
_DOT
340
0
102
{BLKREFS
331
831E
102
}
  0
BLOCK_RECORD
  5
83DF
330
8338
100
AcDbSymbolTableRecord
100
AcDbBlockTableRecord
  2
*D21
340
0
  0
BLOCK_RECORD
  5
83E1
330
8338
100
AcDbSymbolTableRecord
100
AcDbBlockTableRecord
  2
*D22
340
0
  0
BLOCK_RECORD
  5
83E3
330
8338
100
AcDbSymbolTableRecord
100
AcDbBlockTableRecord
  2
*D23
340
0
  0
BLOCK_RECORD
  5
83E5
330
8338
100
AcDbSymbolTableRecord
100
AcDbBlockTableRecord
  2
*D24
340
0
  0
BLOCK_RECORD
  5
83E7
330
8338
100
AcDbSymbolTableRecord
100
AcDbBlockTableRecord
  2
_NONE
340
0
  0
BLOCK_RECORD
  5
83E9
330
8338
100
AcDbSymbolTableRecord
100
AcDbBlockTableRecord
  2
*D26
340
0
  0
BLOCK_RECORD
  5
83EB
330
8338
100
AcDbSymbolTableRecord
100
AcDbBlockTableRecord
  2
*D27
340
0
  0
BLOCK_RECORD
  5
83EE
330
8338
100
AcDbSymbolTableRecord
100
AcDbBlockTableRecord
  2
*D28
340
0
  0
BLOCK_RECORD
  5
83FB
330
8338
100
AcDbSymbolTableRecord
100
AcDbBlockTableRecord
  2
*D29
340
0
  0
BLOCK_RECORD
  5
8408
330
8338
100
AcDbSymbolTableRecord
100
AcDbBlockTableRecord
  2
*D30
340
0
  0
BLOCK_RECORD
  5
8415
330
8338
100
AcDbSymbolTableRecord
100
AcDbBlockTableRecord
  2
*D31
340
0
  0
BLOCK_RECORD
  5
8422
330
8338
100
AcDbSymbolTableRecord
100
AcDbBlockTableRecord
  2
*D32
340
0
  0
BLOCK_RECORD
  5
842F
330
8338
100
AcDbSymbolTableRecord
100
AcDbBlockTableRecord
  2
*D33
340
0
  0
BLOCK_RECORD
  5
843C
330
8338
100
AcDbSymbolTableRecord
100
AcDbBlockTableRecord
  2
*D34
340
0
  0
BLOCK_RECORD
  5
8449
330
8338
100
AcDbSymbolTableRecord
100
AcDbBlockTableRecord
  2
*D35
340
0
  0
BLOCK_RECORD
  5
8456
330
8338
100
AcDbSymbolTableRecord
100
AcDbBlockTableRecord
  2
*D36
340
0
  0
BLOCK_RECORD
  5
8469
330
8338
100
AcDbSymbolTableRecord
100
AcDbBlockTableRecord
  2
*D37
340
0
  0
BLOCK_RECORD
  5
8476
330
8338
100
AcDbSymbolTableRecord
100
AcDbBlockTableRecord
  2
*D38
340
0
  0
BLOCK_RECORD
  5
8483
330
8338
100
AcDbSymbolTableRecord
100
AcDbBlockTableRecord
  2
*D39
340
0
  0
BLOCK_RECORD
  5
8490
330
8338
100
AcDbSymbolTableRecord
100
AcDbBlockTableRecord
  2
*D40
340
0
  0
BLOCK_RECORD
  5
849D
330
8338
100
AcDbSymbolTableRecord
100
AcDbBlockTableRecord
  2
*D41
340
0
  0
BLOCK_RECORD
  5
84AA
330
8338
100
AcDbSymbolTableRecord
100
AcDbBlockTableRecord
  2
*D42
340
0
  0
BLOCK_RECORD
  5
84B7
330
8338
100
AcDbSymbolTableRecord
100
AcDbBlockTableRecord
  2
*D43
340
0
  0
BLOCK_RECORD
  5
84C4
330
8338
100
AcDbSymbolTableRecord
100
AcDbBlockTableRecord
  2
*D44
340
0
  0
BLOCK_RECORD
  5
84D1
330
8338
100
AcDbSymbolTableRecord
100
AcDbBlockTableRecord
  2
*D45
340
0
  0
BLOCK_RECORD
  5
84DE
330
8338
100
AcDbSymbolTableRecord
100
AcDbBlockTableRecord
  2
*D46
340
0
  0
BLOCK_RECORD
  5
84EB
330
8338
100
AcDbSymbolTableRecord
100
AcDbBlockTableRecord
  2
*D47
340
0
  0
BLOCK_RECORD
  5
84F8
330
8338
100
AcDbSymbolTableRecord
100
AcDbBlockTableRecord
  2
*D48
340
0
  0
BLOCK_RECORD
  5
8505
330
8338
100
AcDbSymbolTableRecord
100
AcDbBlockTableRecord
  2
*D49
340
0
  0
BLOCK_RECORD
  5
8512
330
8338
100
AcDbSymbolTableRecord
100
AcDbBlockTableRecord
  2
*D50
340
0
  0
BLOCK_RECORD
  5
851F
330
8338
100
AcDbSymbolTableRecord
100
AcDbBlockTableRecord
  2
*D51
340
0
  0
BLOCK_RECORD
  5
852C
330
8338
100
AcDbSymbolTableRecord
100
AcDbBlockTableRecord
  2
*D52
340
0
  0
BLOCK_RECORD
  5
8539
330
8338
100
AcDbSymbolTableRecord
100
AcDbBlockTableRecord
  2
*D53
340
0
  0
BLOCK_RECORD
  5
8546
330
8338
100
AcDbSymbolTableRecord
100
AcDbBlockTableRecord
  2
*D54
340
0
  0
BLOCK_RECORD
  5
8553
330
8338
100
AcDbSymbolTableRecord
100
AcDbBlockTableRecord
  2
*D55
340
0
  0
BLOCK_RECORD
  5
8560
330
8338
100
AcDbSymbolTableRecord
100
AcDbBlockTableRecord
  2
*D56
340
0
  0
BLOCK_RECORD
  5
8572
330
8338
100
AcDbSymbolTableRecord
100
AcDbBlockTableRecord
  2
*D57
340
0
  0
BLOCK_RECORD
  5
8584
330
8338
100
AcDbSymbolTableRecord
100
AcDbBlockTableRecord
  2
*D58
340
0
  0
BLOCK_RECORD
  5
867E
330
8338
100
AcDbSymbolTableRecord
100
AcDbBlockTableRecord
  2
_DotSmall
340
0
102
{BLKREFS
331
868C
331
86E4
102
}
  0
ENDTAB
  0
ENDSEC
  0
SECTION
  2
BLOCKS
  0
BLOCK
  5
83A7
330
83A6
100
AcDbEntity
  8
0
100
AcDbBlockBegin
  2
*Model_Space
 70
     0
 10
0.0
 20
0.0
 30
0.0
  3
*Model_Space
  1

  0
ENDBLK
  5
83A8
330
83A6
100
AcDbEntity
  8
0
100
AcDbBlockEnd
  0
BLOCK
  5
83A3
330
83A2
100
AcDbEntity
 67
     1
  8
0
100
AcDbBlockBegin
  2
*Paper_Space
 70
     0
 10
0.0
 20
0.0
 30
0.0
  3
*Paper_Space
  1

  0
ENDBLK
  5
83A4
330
83A2
100
AcDbEntity
 67
     1
  8
0
100
AcDbBlockEnd
  0
BLOCK
  5
83B6
330
83B5
100
AcDbEntity
  8
0
100
AcDbBlockBegin
  2
$MODEL_SPACE
 70
     0
 10
0.0
 20
0.0
 30
0.0
  3
$MODEL_SPACE
  1

  0
ENDBLK
  5
1B
330
83B5
100
AcDbEntity
  8
0
100
AcDbBlockEnd
  0
BLOCK
  5
83B8
330
83B7
100
AcDbEntity
  8
0
100
AcDbBlockBegin
  2
$PAPER_SPACE
 70
     0
 10
0.0
 20
0.0
 30
0.0
  3
$PAPER_SPACE
  1

  0
ENDBLK
  5
18
330
83B7
100
AcDbEntity
  8
0
100
AcDbBlockEnd
  0
BLOCK
  5
83BA
330
83B9
100
AcDbEntity
  8
0
100
AcDbBlockBegin
  2
_OPEN
 70
     0
 10
0.0
 20
0.0
 30
0.0
  3
_OPEN
  1

  0
LINE
  5
79FD
330
83B9
100
AcDbEntity
  8
0
  6
ByBlock
 62
     0
100
AcDbLine
 10
-1.0
 20
0.1666666666666666
 30
0.0
 11
0.0
 21
0.0
 31
0.0
  0
LINE
  5
79FE
330
83B9
100
AcDbEntity
  8
0
  6
ByBlock
 62
     0
100
AcDbLine
 10
0.0
 20
0.0
 30
0.0
 11
-1.0
 21
-0.1666666666666666
 31
0.0
  0
LINE
  5
79FF
330
83B9
100
AcDbEntity
  8
0
  6
ByBlock
 62
     0
100
AcDbLine
 10
0.0
 20
0.0
 30
0.0
 11
-1.0
 21
0.0
 31
0.0
  0
ENDBLK
  5
7A01
330
83B9
100
AcDbEntity
  8
0
100
AcDbBlockEnd
  0
BLOCK
  5
83BC
330
83BB
100
AcDbEntity
  8
0
100
AcDbBlockBegin
  2
YA_N
 70
     0
 10
0.0
 20
0.0
 30
0.0
  3
YA_N
  1

  0
ENDBLK
  5
7A0C
330
83BB
100
AcDbEntity
  8
0
100
AcDbBlockEnd
  0
BLOCK
  5
83BE
330
83BD
100
AcDbEntity
  8
0
100
AcDbBlockBegin
  2
*D4
 70
     1
 10
0.0
 20
0.0
 30
0.0
  3
*D4
  1

  0
LINE
  5
8292
330
83BD
100
AcDbEntity
  8
3
 62
     0
100
AcDbLine
 10
1634.620499998444
 20
4554.192209343383
 30
0.0
 11
1417.012183714177
 21
4554.192209343383
 31
0.0
  0
LINE
  5
8293
330
83BD
100
AcDbEntity
  8
3
 62
     0
100
AcDbLine
 10
1634.620499998444
 20
3404.192209343381
 30
0.0
 11
1417.012183714177
 21
3404.192209343381
 31
0.0
  0
LINE
  5
8294
330
83BD
100
AcDbEntity
  8
3
 62
     0
100
AcDbLine
 10
1452.012183714178
 20
4484.192209343382
 30
0.0
 11
1452.012183714177
 21
3474.192209343382
 31
0.0
  0
INSERT
  5
8295
330
83BD
100
AcDbEntity
  8
3
 62
     0
100
AcDbBlockReference
  2
_OPEN
 10
1452.012183714178
 20
4554.192209343383
 30
0.0
 41
70.0
 42
70.0
 43
70.0
 50
90.0
  0
INSERT
  5
8296
330
83BD
100
AcDbEntity
  8
3
 62
     0
100
AcDbBlockReference
  2
_OPEN
 10
1452.012183714177
 20
3404.192209343381
 30
0.0
 41
70.0
 42
70.0
 43
70.0
 50
270.0
  0
TEXT
  5
8327
330
83BD
100
AcDbEntity
  8
3
 62
     0
100
AcDbText
 10
1154.51
 20
3793.34
 30
0.0
 40
105.0
  1
1150
100
AcDbText
  0
POINT
  5
8298
330
83BD
100
AcDbEntity
  8
DEFPOINTS
 62
     0
100
AcDbPoint
 10
1652.120499998442
 20
4554.192209343383
 30
0.0
  0
POINT
  5
8299
330
83BD
100
AcDbEntity
  8
DEFPOINTS
 62
     0
100
AcDbPoint
 10
1652.120499998442
 20
3404.192209343381
 30
0.0
  0
POINT
  5
829A
330
83BD
100
AcDbEntity
  8
DEFPOINTS
 62
     0
100
AcDbPoint
 10
1452.012183714177
 20
3404.192209343381
 30
0.0
  0
ENDBLK
  5
7F9B
330
83BD
100
AcDbEntity
  8
0
100
AcDbBlockEnd
  0
BLOCK
  5
83C0
330
83BF
100
AcDbEntity
  8
0
100
AcDbBlockBegin
  2
*D5
 70
     1
 10
0.0
 20
0.0
 30
0.0
  3
*D5
  1

  0
LINE
  5
829B
330
83BF
100
AcDbEntity
  8
3
 62
     0
100
AcDbLine
 10
1634.620499998444
 20
4554.192209343383
 30
0.0
 11
1216.860532852675
 21
4554.192209343383
 31
0.0
  0
LINE
  5
829C
330
83BF
100
AcDbEntity
  8
3
 62
     0
100
AcDbLine
 10
1548.78149909971
 20
3356.192209343382
 30
0.0
 11
1216.860532852675
 21
3356.192209343382
 31
0.0
  0
LINE
  5
829D
330
83BF
100
AcDbEntity
  8
3
 62
     0
100
AcDbLine
 10
1251.860532852675
 20
4484.192209343382
 30
0.0
 11
1251.860532852675
 21
3426.192209343382
 31
0.0
  0
INSERT
  5
829E
330
83BF
100
AcDbEntity
  8
3
 62
     0
100
AcDbBlockReference
  2
_OPEN
 10
1251.860532852675
 20
4554.192209343383
 30
0.0
 41
70.0
 42
70.0
 43
70.0
 50
90.0
  0
INSERT
  5
829F
330
83BF
100
AcDbEntity
  8
3
 62
     0
100
AcDbBlockReference
  2
_OPEN
 10
1251.860532852675
 20
3356.192209343382
 30
0.0
 41
70.0
 42
70.0
 43
70.0
 50
270.0
  0
TEXT
  5
8328
330
83BF
100
AcDbEntity
  8
3
 62
     0
100
AcDbText
 10
954.3610000000001
 20
3769.340000000001
 30
0.0
 40
105.0
  1
1198
100
AcDbText
  0
POINT
  5
82A1
330
83BF
100
AcDbEntity
  8
DEFPOINTS
 62
     0
100
AcDbPoint
 10
1652.120499998442
 20
4554.192209343383
 30
0.0
  0
POINT
  5
82A2
330
83BF
100
AcDbEntity
  8
DEFPOINTS
 62
     0
100
AcDbPoint
 10
1566.28149909971
 20
3356.192209343382
 30
0.0
  0
POINT
  5
82A3
330
83BF
100
AcDbEntity
  8
DEFPOINTS
 62
     0
100
AcDbPoint
 10
1251.860532852675
 20
3356.192209343382
 30
0.0
  0
ENDBLK
  5
7FA6
330
83BF
100
AcDbEntity
  8
0
100
AcDbBlockEnd
  0
BLOCK
  5
83C2
330
83C1
100
AcDbEntity
  8
0
100
AcDbBlockBegin
  2
*D6
 70
     1
 10
0.0
 20
0.0
 30
0.0
  3
*D6
  1

  0
LINE
  5
82A4
330
83C1
100
AcDbEntity
  8
3
 62
     0
100
AcDbLine
 10
1652.120499998442
 20
4624.692209343382
 30
0.0
 11
1652.120499998442
 21
4845.52559626984
 31
0.0
  0
LINE
  5
82A5
330
83C1
100
AcDbEntity
  8
3
 62
     0
100
AcDbLine
 10
2412.120499998444
 20
4780.874535509211
 30
0.0
 11
2412.120499998444
 21
4845.52559626984
 31
0.0
  0
LINE
  5
82A6
330
83C1
100
AcDbEntity
  8
3
 62
     0
100
AcDbLine
 10
1722.120499998444
 20
4810.525596269839
 30
0.0
 11
2342.120499998443
 21
4810.525596269839
 31
0.0
  0
INSERT
  5
82A7
330
83C1
100
AcDbEntity
  8
3
 62
     0
100
AcDbBlockReference
  2
_OPEN
 10
1652.120499998442
 20
4810.525596269839
 30
0.0
 41
70.0
 42
70.0
 43
70.0
 50
180.0
  0
INSERT
  5
82A8
330
83C1
100
AcDbEntity
  8
3
 62
     0
100
AcDbBlockReference
  2
_OPEN
 10
2412.120499998444
 20
4810.525596269839
 30
0.0
 41
70.0
 42
70.0
 43
70.0
  0
TEXT
  5
8329
330
83C1
100
AcDbEntity
  8
3
 62
     0
100
AcDbText
 10
1822.12
 20
4712.18
 30
0.0
 40
105.0
  1
760
100
AcDbText
  0
POINT
  5
82AA
330
83C1
100
AcDbEntity
  8
DEFPOINTS
 62
     0
100
AcDbPoint
 10
1652.120499998442
 20
4607.192209343383
 30
0.0
  0
POINT
  5
82AB
330
83C1
100
AcDbEntity
  8
DEFPOINTS
 62
     0
100
AcDbPoint
 10
2412.120499998444
 20
4763.37453550921
 30
0.0
  0
POINT
  5
82AC
330
83C1
100
AcDbEntity
  8
DEFPOINTS
 62
     0
100
AcDbPoint
 10
2412.120499998444
 20
4810.525596269839
 30
0.0
  0
ENDBLK
  5
7F7A
330
83C1
100
AcDbEntity
  8
0
100
AcDbBlockEnd
  0
BLOCK
  5
83C4
330
83C3
100
AcDbEntity
  8
0
100
AcDbBlockBegin
  2
*D7
 70
     1
 10
0.0
 20
0.0
 30
0.0
  3
*D7
  1

  0
LINE
  5
82AD
330
83C3
100
AcDbEntity
  8
3
 62
     0
100
AcDbLine
 10
2412.120499998444
 20
4780.874535509211
 30
0.0
 11
2412.120499998444
 21
4845.52559626984
 31
0.0
  0
LINE
  5
82AE
330
83C3
100
AcDbEntity
  8
3
 62
     0
100
AcDbLine
 10
3377.322062497062
 20
3373.692209343381
 30
0.0
 11
3377.322062497062
 21
4845.52559626984
 31
0.0
  0
LINE
  5
82AF
330
83C3
100
AcDbEntity
  8
3
 62
     0
100
AcDbLine
 10
2482.120499998444
 20
4810.525596269839
 30
0.0
 11
3307.322062497062
 21
4810.525596269839
 31
0.0
  0
INSERT
  5
82B0
330
83C3
100
AcDbEntity
  8
3
 62
     0
100
AcDbBlockReference
  2
_OPEN
 10
2412.120499998444
 20
4810.525596269839
 30
0.0
 41
70.0
 42
70.0
 43
70.0
 50
180.0
  0
INSERT
  5
82B1
330
83C3
100
AcDbEntity
  8
3
 62
     0
100
AcDbBlockReference
  2
_OPEN
 10
3377.322062497062
 20
4810.525596269839
 30
0.0
 41
70.0
 42
70.0
 43
70.0
  0
TEXT
  5
832A
330
83C3
100
AcDbEntity
  8
3
 62
     0
100
AcDbText
 10
2684.72
 20
4712.18
 30
0.0
 40
105.0
  1
969
100
AcDbText
  0
POINT
  5
82B3
330
83C3
100
AcDbEntity
  8
DEFPOINTS
 62
     0
100
AcDbPoint
 10
2412.120499998444
 20
4763.37453550921
 30
0.0
  0
POINT
  5
82B4
330
83C3
100
AcDbEntity
  8
DEFPOINTS
 62
     0
100
AcDbPoint
 10
3377.322062497062
 20
3356.192209343382
 30
0.0
  0
POINT
  5
82B5
330
83C3
100
AcDbEntity
  8
DEFPOINTS
 62
     0
100
AcDbPoint
 10
3377.322062497062
 20
4810.525596269839
 30
0.0
  0
ENDBLK
  5
7F90
330
83C3
100
AcDbEntity
  8
0
100
AcDbBlockEnd
  0
BLOCK
  5
83C6
330
83C5
100
AcDbEntity
  8
0
100
AcDbBlockBegin
  2
*D8
 70
     1
 10
0.0
 20
0.0
 30
0.0
  3
*D8
  1

  0
LINE
  5
82B6
330
83C5
100
AcDbEntity
  8
3
 62
     0
100
AcDbLine
 10
4893.752841307505
 20
4560.353830076214
 30
0.0
 11
4893.752841307505
 21
4842.63184839578
 31
0.0
  0
LINE
  5
82B7
330
83C5
100
AcDbEntity
  8
3
 62
     0
100
AcDbLine
 10
6393.752841307505
 20
4554.504893414598
 30
0.0
 11
6393.752841307505
 21
4842.63184839578
 31
0.0
  0
LINE
  5
82B8
330
83C5
100
AcDbEntity
  8
3
 62
     0
100
AcDbLine
 10
4963.752841307505
 20
4807.63184839578
 30
0.0
 11
6323.752841307506
 21
4807.63184839578
 31
0.0
  0
INSERT
  5
82B9
330
83C5
100
AcDbEntity
  8
3
 62
     0
100
AcDbBlockReference
  2
_OPEN
 10
4893.752841307505
 20
4807.63184839578
 30
0.0
 41
70.0
 42
70.0
 43
70.0
 50
180.0
  0
INSERT
  5
82BA
330
83C5
100
AcDbEntity
  8
3
 62
     0
100
AcDbBlockReference
  2
_OPEN
 10
6393.752841307505
 20
4807.63184839578
 30
0.0
 41
70.0
 42
70.0
 43
70.0
  0
TEXT
  5
832B
330
83C5
100
AcDbEntity
  8
3
 62
     0
100
AcDbText
 10
5433.749999999999
 20
4709.279999999999
 30
0.0
 40
105.0
  1
1500
100
AcDbText
  0
POINT
  5
82BC
330
83C5
100
AcDbEntity
  8
DEFPOINTS
 62
     0
100
AcDbPoint
 10
4893.752841307505
 20
4542.853830076214
 30
0.0
  0
POINT
  5
82BD
330
83C5
100
AcDbEntity
  8
DEFPOINTS
 62
     0
100
AcDbPoint
 10
6393.752841307505
 20
4537.004893414599
 30
0.0
  0
POINT
  5
82BE
330
83C5
100
AcDbEntity
  8
DEFPOINTS
 62
     0
100
AcDbPoint
 10
6393.752841307505
 20
4807.63184839578
 30
0.0
  0
ENDBLK
  5
802E
330
83C5
100
AcDbEntity
  8
0
100
AcDbBlockEnd
  0
BLOCK
  5
83C8
330
83C7
100
AcDbEntity
  8
0
100
AcDbBlockBegin
  2
*D9
 70
     1
 10
0.0
 20
0.0
 30
0.0
  3
*D9
  1

  0
LINE
  5
82BF
330
83C7
100
AcDbEntity
  8
3
 62
     0
100
AcDbLine
 10
5643.752841307503
 20
4991.609614216559
 30
0.0
 11
5643.752841307503
 21
5069.070556852206
 31
0.0
  0
LINE
  5
82C0
330
83C7
100
AcDbEntity
  8
3
 62
     0
100
AcDbLine
 10
6558.752841307502
 20
3286.731686448578
 30
0.0
 11
6558.752841307502
 21
5069.070556852206
 31
0.0
  0
LINE
  5
82C1
330
83C7
100
AcDbEntity
  8
3
 62
     0
100
AcDbLine
 10
5713.752841307503
 20
5034.070556852206
 30
0.0
 11
6488.752841307503
 21
5034.070556852206
 31
0.0
  0
INSERT
  5
82C2
330
83C7
100
AcDbEntity
  8
3
 62
     0
100
AcDbBlockReference
  2
_OPEN
 10
5643.752841307503
 20
5034.070556852206
 30
0.0
 41
70.0
 42
70.0
 43
70.0
 50
180.0
  0
INSERT
  5
82C3
330
83C7
100
AcDbEntity
  8
3
 62
     0
100
AcDbBlockReference
  2
_OPEN
 10
6558.752841307502
 20
5034.070556852206
 30
0.0
 41
70.0
 42
70.0
 43
70.0
  0
TEXT
  5
832C
330
83C7
100
AcDbEntity
  8
3
 62
     0
100
AcDbText
 10
5891.25
 20
4963.22
 30
0.0
 40
105.0
  1
(930)
100
AcDbText
  0
POINT
  5
82C5
330
83C7
100
AcDbEntity
  8
DEFPOINTS
 62
     0
100
AcDbPoint
 10
5643.752841307503
 20
4974.109614216558
 30
0.0
  0
POINT
  5
82C6
330
83C7
100
AcDbEntity
  8
DEFPOINTS
 62
     0
100
AcDbPoint
 10
6558.752841307502
 20
3269.231686448577
 30
0.0
  0
POINT
  5
82C7
330
83C7
100
AcDbEntity
  8
DEFPOINTS
 62
     0
100
AcDbPoint
 10
6558.752841307502
 20
5034.070556852206
 30
0.0
  0
ENDBLK
  5
810A
330
83C7
100
AcDbEntity
  8
0
100
AcDbBlockEnd
  0
BLOCK
  5
83CA
330
83C9
100
AcDbEntity
  8
0
100
AcDbBlockBegin
  2
*D10
 70
     1
 10
0.0
 20
0.0
 30
0.0
  3
*D10
  1

  0
LINE
  5
82C8
330
83C9
100
AcDbEntity
  8
3
 62
     0
100
AcDbLine
 10
6416.752841307507
 20
2796.192209343381
 30
0.0
 11
6796.53560766302
 21
2796.192209343381
 31
0.0
  0
LINE
  5
82C9
330
83C9
100
AcDbEntity
  8
3
 62
     0
100
AcDbLine
 10
6416.752841307507
 20
3916.192209343382
 30
0.0
 11
6796.53560766302
 21
3916.192209343382
 31
0.0
  0
LINE
  5
82CA
330
83C9
100
AcDbEntity
  8
3
 62
     0
100
AcDbLine
 10
6761.535607663017
 20
2866.192209343381
 30
0.0
 11
6761.535607663017
 21
3846.192209343382
 31
0.0
  0
INSERT
  5
82CB
330
83C9
100
AcDbEntity
  8
3
 62
     0
100
AcDbBlockReference
  2
_OPEN
 10
6761.535607663017
 20
2796.192209343381
 30
0.0
 41
70.0
 42
70.0
 43
70.0
 50
270.0
  0
INSERT
  5
82CC
330
83C9
100
AcDbEntity
  8
3
 62
     0
100
AcDbBlockReference
  2
_OPEN
 10
6761.535607663017
 20
3916.192209343382
 30
0.0
 41
70.0
 42
70.0
 43
70.0
 50
90.0
  0
TEXT
  5
832D
330
83C9
100
AcDbEntity
  8
3
 62
     0
100
AcDbText
 10
6464.04
 20
3170.34
 30
0.0
 40
105.0
  1
\U+03C61120
100
AcDbText
  0
POINT
  5
82CE
330
83C9
100
AcDbEntity
  8
DEFPOINTS
 62
     0
100
AcDbPoint
 10
6399.252841307507
 20
2796.192209343381
 30
0.0
  0
POINT
  5
82CF
330
83C9
100
AcDbEntity
  8
DEFPOINTS
 62
     0
100
AcDbPoint
 10
6399.252841307507
 20
3916.192209343382
 30
0.0
  0
POINT
  5
82D0
330
83C9
100
AcDbEntity
  8
DEFPOINTS
 62
     0
100
AcDbPoint
 10
6761.535607663017
 20
3916.192209343382
 30
0.0
  0
ENDBLK
  5
8023
330
83C9
100
AcDbEntity
  8
0
100
AcDbBlockEnd
  0
BLOCK
  5
83CC
330
83CB
100
AcDbEntity
  8
0
100
AcDbBlockBegin
  2
*D11
 70
     1
 10
0.0
 20
0.0
 30
0.0
  3
*D11
  1

  0
LINE
  5
82D1
330
83CB
100
AcDbEntity
  8
3
 62
     0
100
AcDbLine
 10
1548.78149909971
 20
3356.192209343382
 30
0.0
 11
1218.447833445447
 21
3356.192209343382
 31
0.0
  0
LINE
  5
82D2
330
83CB
100
AcDbEntity
  8
3
 62
     0
100
AcDbLine
 10
1734.620499998444
 20
2516.192209343382
 30
0.0
 11
1218.447833445447
 21
2516.192209343382
 31
0.0
  0
LINE
  5
82D3
330
83CB
100
AcDbEntity
  8
3
 62
     0
100
AcDbLine
 10
1253.447833445447
 20
3286.192209343381
 30
0.0
 11
1253.447833445447
 21
2586.192209343382
 31
0.0
  0
INSERT
  5
82D4
330
83CB
100
AcDbEntity
  8
3
 62
     0
100
AcDbBlockReference
  2
_OPEN
 10
1253.447833445447
 20
3356.192209343382
 30
0.0
 41
70.0
 42
70.0
 43
70.0
 50
90.0
  0
INSERT
  5
82D5
330
83CB
100
AcDbEntity
  8
3
 62
     0
100
AcDbBlockReference
  2
_OPEN
 10
1253.447833445447
 20
2516.192209343382
 30
0.0
 41
70.0
 42
70.0
 43
70.0
 50
270.0
  0
TEXT
  5
832E
330
83CB
100
AcDbEntity
  8
3
 62
     0
100
AcDbText
 10
955.948
 20
2750.34
 30
0.0
 40
105.0
  1
840
100
AcDbText
  0
POINT
  5
82D7
330
83CB
100
AcDbEntity
  8
DEFPOINTS
 62
     0
100
AcDbPoint
 10
1566.28149909971
 20
3356.192209343382
 30
0.0
  0
POINT
  5
82D8
330
83CB
100
AcDbEntity
  8
DEFPOINTS
 62
     0
100
AcDbPoint
 10
1752.120499998443
 20
2516.192209343382
 30
0.0
  0
POINT
  5
82D9
330
83CB
100
AcDbEntity
  8
DEFPOINTS
 62
     0
100
AcDbPoint
 10
1253.447833445447
 20
2516.192209343382
 30
0.0
  0
ENDBLK
  5
7FB1
330
83CB
100
AcDbEntity
  8
0
100
AcDbBlockEnd
  0
BLOCK
  5
83CE
330
83CD
100
AcDbEntity
  8
0
100
AcDbBlockBegin
  2
*D12
 70
     1
 10
0.0
 20
0.0
 30
0.0
  3
*D12
  1

  0
LINE
  5
82DA
330
83CD
100
AcDbEntity
  8
3
 62
     0
100
AcDbLine
 10
4521.052841307505
 20
3753.692209343382
 30
0.0
 11
4521.052841307505
 21
5068.053905583795
 31
0.0
  0
LINE
  5
82DB
330
83CD
100
AcDbEntity
  8
3
 62
     0
100
AcDbLine
 10
5643.752841307503
 20
4991.609614216559
 30
0.0
 11
5643.752841307503
 21
5068.053905583795
 31
0.0
  0
LINE
  5
82DC
330
83CD
100
AcDbEntity
  8
3
 62
     0
100
AcDbLine
 10
4591.052841307505
 20
5033.053905583795
 30
0.0
 11
5573.752841307503
 21
5033.053905583795
 31
0.0
  0
INSERT
  5
82DD
330
83CD
100
AcDbEntity
  8
3
 62
     0
100
AcDbBlockReference
  2
_OPEN
 10
4521.052841307505
 20
5033.053905583795
 30
0.0
 41
70.0
 42
70.0
 43
70.0
 50
180.0
  0
INSERT
  5
82DE
330
83CD
100
AcDbEntity
  8
3
 62
     0
100
AcDbBlockReference
  2
_OPEN
 10
5643.752841307503
 20
5033.053905583795
 30
0.0
 41
70.0
 42
70.0
 43
70.0
  0
TEXT
  5
832F
330
83CD
100
AcDbEntity
  8
3
 62
     0
100
AcDbText
 10
4872.399999999999
 20
5022.2
 30
0.0
 40
105.0
  1
MAX
100
AcDbText
  0
TEXT
  5
8330
330
83CD
100
AcDbEntity
  8
3
 62
     0
100
AcDbText
 10
4872.399999999999
 20
4885.699999999999
 30
0.0
 40
105.0
  1
1120
100
AcDbText
  0
POINT
  5
82E0
330
83CD
100
AcDbEntity
  8
DEFPOINTS
 62
     0
100
AcDbPoint
 10
4521.052841307505
 20
3736.192209343381
 30
0.0
  0
POINT
  5
82E1
330
83CD
100
AcDbEntity
  8
DEFPOINTS
 62
     0
100
AcDbPoint
 10
5643.752841307503
 20
4974.109614216558
 30
0.0
  0
POINT
  5
82E2
330
83CD
100
AcDbEntity
  8
DEFPOINTS
 62
     0
100
AcDbPoint
 10
5643.752841307503
 20
5033.053905583795
 30
0.0
  0
ENDBLK
  5
8115
330
83CD
100
AcDbEntity
  8
0
100
AcDbBlockEnd
  0
BLOCK
  5
83D0
330
83CF
100
AcDbEntity
  8
0
100
AcDbBlockBegin
  2
*D13
 70
     1
 10
0.0
 20
0.0
 30
0.0
  3
*D13
  1

  0
LINE
  5
82E3
330
83CF
100
AcDbEntity
  8
3
 62
     0
100
AcDbLine
 10
3072.120499998444
 20
7596.09130002472
 30
0.0
 11
3072.120499998444
 21
7787.59866049584
 31
0.0
  0
LINE
  5
82E4
330
83CF
100
AcDbEntity
  8
3
 62
     0
100
AcDbLine
 10
1752.120499998443
 20
7596.09130002472
 30
0.0
 11
1752.120499998443
 21
7787.59866049584
 31
0.0
  0
LINE
  5
82E5
330
83CF
100
AcDbEntity
  8
3
 62
     0
100
AcDbLine
 10
3002.120499998444
 20
7752.598660495841
 30
0.0
 11
1822.120499998444
 21
7752.598660495841
 31
0.0
  0
INSERT
  5
82E6
330
83CF
100
AcDbEntity
  8
3
 62
     0
100
AcDbBlockReference
  2
_OPEN
 10
3072.120499998444
 20
7752.598660495841
 30
0.0
 41
70.0
 42
70.0
 43
70.0
  0
INSERT
  5
82E7
330
83CF
100
AcDbEntity
  8
3
 62
     0
100
AcDbBlockReference
  2
_OPEN
 10
1752.120499998443
 20
7752.598660495841
 30
0.0
 41
70.0
 42
70.0
 43
70.0
 50
180.0
  0
TEXT
  5
8331
330
83CF
100
AcDbEntity
  8
3
 62
     0
100
AcDbText
 10
2202.12
 20
7654.250000000001
 30
0.0
 40
105.0
  1
1320
100
AcDbText
  0
POINT
  5
82E9
330
83CF
100
AcDbEntity
  8
DEFPOINTS
 62
     0
100
AcDbPoint
 10
3072.120499998444
 20
7578.59130002472
 30
0.0
  0
POINT
  5
82EA
330
83CF
100
AcDbEntity
  8
DEFPOINTS
 62
     0
100
AcDbPoint
 10
1752.120499998443
 20
7578.591300024723
 30
0.0
  0
POINT
  5
82EB
330
83CF
100
AcDbEntity
  8
DEFPOINTS
 62
     0
100
AcDbPoint
 10
1752.120499998443
 20
7752.598660495841
 30
0.0
  0
ENDBLK
  5
7F43
330
83CF
100
AcDbEntity
  8
0
100
AcDbBlockEnd
  0
BLOCK
  5
83D2
330
83D1
100
AcDbEntity
  8
0
100
AcDbBlockBegin
  2
*D14
 70
     1
 10
0.0
 20
0.0
 30
0.0
  3
*D14
  1

  0
LINE
  5
82EC
330
83D1
100
AcDbEntity
  8
3
 62
     0
100
AcDbLine
 10
4029.620499998443
 20
6578.59130002472
 30
0.0
 11
4447.750909292307
 21
6578.59130002472
 31
0.0
  0
LINE
  5
82ED
330
83D1
100
AcDbEntity
  8
3
 62
     0
100
AcDbLine
 10
4029.620499998443
 20
5678.591300024719
 30
0.0
 11
4447.750909292305
 21
5678.591300024719
 31
0.0
  0
LINE
  5
82EE
330
83D1
100
AcDbEntity
  8
3
 62
     0
100
AcDbLine
 10
4412.750909292308
 20
6508.59130002472
 30
0.0
 11
4412.750909292305
 21
5748.591300024719
 31
0.0
  0
INSERT
  5
82EF
330
83D1
100
AcDbEntity
  8
3
 62
     0
100
AcDbBlockReference
  2
_OPEN
 10
4412.750909292308
 20
6578.59130002472
 30
0.0
 41
70.0
 42
70.0
 43
70.0
 50
90.0
  0
INSERT
  5
82F0
330
83D1
100
AcDbEntity
  8
3
 62
     0
100
AcDbBlockReference
  2
_OPEN
 10
4412.750909292305
 20
5678.591300024719
 30
0.0
 41
70.0
 42
70.0
 43
70.0
 50
270.0
  0
TEXT
  5
8332
330
83D1
100
AcDbEntity
  8
3
 62
     0
100
AcDbText
 10
4115.25
 20
5942.74
 30
0.0
 40
105.0
  1
900
100
AcDbText
  0
POINT
  5
82F2
330
83D1
100
AcDbEntity
  8
DEFPOINTS
 62
     0
100
AcDbPoint
 10
4012.120499998444
 20
6578.59130002472
 30
0.0
  0
POINT
  5
82F3
330
83D1
100
AcDbEntity
  8
DEFPOINTS
 62
     0
100
AcDbPoint
 10
4012.120499998444
 20
5678.591300024719
 30
0.0
  0
POINT
  5
82F4
330
83D1
100
AcDbEntity
  8
DEFPOINTS
 62
     0
100
AcDbPoint
 10
4412.750909292305
 20
5678.591300024719
 30
0.0
  0
ENDBLK
  5
7F59
330
83D1
100
AcDbEntity
  8
0
100
AcDbBlockEnd
  0
BLOCK
  5
83D4
330
83D3
100
AcDbEntity
  8
0
100
AcDbBlockBegin
  2
*D15
 70
     1
 10
0.0
 20
0.0
 30
0.0
  3
*D15
  1

  0
LINE
  5
82F5
330
83D3
100
AcDbEntity
  8
3
 62
     0
100
AcDbLine
 10
4012.120499998444
 20
5661.09130002472
 30
0.0
 11
4012.120499998444
 21
5352.346107930773
 31
0.0
  0
LINE
  5
82F6
330
83D3
100
AcDbEntity
  8
3
 62
     0
100
AcDbLine
 10
1752.120499998443
 20
5661.09130002472
 30
0.0
 11
1752.120499998443
 21
5352.346107930773
 31
0.0
  0
LINE
  5
82F7
330
83D3
100
AcDbEntity
  8
3
 62
     0
100
AcDbLine
 10
3942.120499998443
 20
5387.346107930773
 30
0.0
 11
1822.120499998442
 21
5387.346107930773
 31
0.0
  0
INSERT
  5
82F8
330
83D3
100
AcDbEntity
  8
3
 62
     0
100
AcDbBlockReference
  2
_OPEN
 10
4012.120499998444
 20
5387.346107930773
 30
0.0
 41
70.0
 42
70.0
 43
70.0
  0
INSERT
  5
82F9
330
83D3
100
AcDbEntity
  8
3
 62
     0
100
AcDbBlockReference
  2
_OPEN
 10
1752.120499998443
 20
5387.346107930773
 30
0.0
 41
70.0
 42
70.0
 43
70.0
 50
180.0
  0
TEXT
  5
8333
330
83D3
100
AcDbEntity
  8
3
 62
     0
100
AcDbText
 10
2672.12
 20
5289.0
 30
0.0
 40
105.0
  1
2260
100
AcDbText
  0
POINT
  5
82FB
330
83D3
100
AcDbEntity
  8
DEFPOINTS
 62
     0
100
AcDbPoint
 10
4012.120499998444
 20
5678.59130002472
 30
0.0
  0
POINT
  5
82FC
330
83D3
100
AcDbEntity
  8
DEFPOINTS
 62
     0
100
AcDbPoint
 10
1752.120499998443
 20
5678.59130002472
 30
0.0
  0
POINT
  5
82FD
330
83D3
100
AcDbEntity
  8
DEFPOINTS
 62
     0
100
AcDbPoint
 10
1752.120499998443
 20
5387.346107930773
 30
0.0
  0
ENDBLK
  5
7F64
330
83D3
100
AcDbEntity
  8
0
100
AcDbBlockEnd
  0
BLOCK
  5
83D6
330
83D5
100
AcDbEntity
  8
0
100
AcDbBlockBegin
  2
*D16
 70
     1
 10
0.0
 20
0.0
 30
0.0
  3
*D16
  1

  0
LINE
  5
82FE
330
83D5
100
AcDbEntity
  8
3
 62
     0
100
AcDbLine
 10
1734.620499998444
 20
7578.591300024723
 30
0.0
 11
1318.34824502739
 21
7578.591300024723
 31
0.0
  0
LINE
  5
82FF
330
83D5
100
AcDbEntity
  8
3
 62
     0
100
AcDbLine
 10
1734.620499998442
 20
5678.59130002472
 30
0.0
 11
1318.34824502739
 21
5678.59130002472
 31
0.0
  0
LINE
  5
8300
330
83D5
100
AcDbEntity
  8
3
 62
     0
100
AcDbLine
 10
1353.348245027391
 20
7508.591300024723
 30
0.0
 11
1353.348245027391
 21
5748.59130002472
 31
0.0
  0
INSERT
  5
8301
330
83D5
100
AcDbEntity
  8
3
 62
     0
100
AcDbBlockReference
  2
_OPEN
 10
1353.348245027391
 20
7578.591300024723
 30
0.0
 41
70.0
 42
70.0
 43
70.0
 50
90.0
  0
INSERT
  5
8302
330
83D5
100
AcDbEntity
  8
3
 62
     0
100
AcDbBlockReference
  2
_OPEN
 10
1353.348245027391
 20
5678.59130002472
 30
0.0
 41
70.0
 42
70.0
 43
70.0
 50
270.0
  0
TEXT
  5
8334
330
83D5
100
AcDbEntity
  8
3
 62
     0
100
AcDbText
 10
1055.85
 20
6442.74
 30
0.0
 40
105.0
  1
1900
100
AcDbText
  0
POINT
  5
8304
330
83D5
100
AcDbEntity
  8
DEFPOINTS
 62
     0
100
AcDbPoint
 10
1752.120499998443
 20
7578.591300024723
 30
0.0
  0
POINT
  5
8305
330
83D5
100
AcDbEntity
  8
DEFPOINTS
 62
     0
100
AcDbPoint
 10
1752.120499998443
 20
5678.59130002472
 30
0.0
  0
POINT
  5
8306
330
83D5
100
AcDbEntity
  8
DEFPOINTS
 62
     0
100
AcDbPoint
 10
1353.348245027391
 20
5678.59130002472
 30
0.0
  0
ENDBLK
  5
7F6F
330
83D5
100
AcDbEntity
  8
0
100
AcDbBlockEnd
  0
BLOCK
  5
83D8
330
83D7
100
AcDbEntity
  8
0
100
AcDbBlockBegin
  2
*D17
 70
     1
 10
0.0
 20
0.0
 30
0.0
  3
*D17
  1

  0
LINE
  5
8307
330
83D7
100
AcDbEntity
  8
3
 62
     0
100
AcDbLine
 10
4012.120499998444
 20
6596.09130002472
 30
0.0
 11
4012.120499998444
 21
7787.59866049584
 31
0.0
  0
LINE
  5
8308
330
83D7
100
AcDbEntity
  8
3
 62
     0
100
AcDbLine
 10
3072.120499998444
 20
7596.09130002472
 30
0.0
 11
3072.120499998444
 21
7787.59866049584
 31
0.0
  0
LINE
  5
8309
330
83D7
100
AcDbEntity
  8
3
 62
     0
100
AcDbLine
 10
3942.120499998443
 20
7752.598660495841
 30
0.0
 11
3142.120499998445
 21
7752.598660495841
 31
0.0
  0
INSERT
  5
830A
330
83D7
100
AcDbEntity
  8
3
 62
     0
100
AcDbBlockReference
  2
_OPEN
 10
4012.120499998444
 20
7752.598660495841
 30
0.0
 41
70.0
 42
70.0
 43
70.0
  0
INSERT
  5
830B
330
83D7
100
AcDbEntity
  8
3
 62
     0
100
AcDbBlockReference
  2
_OPEN
 10
3072.120499998444
 20
7752.598660495841
 30
0.0
 41
70.0
 42
70.0
 43
70.0
 50
180.0
  0
TEXT
  5
8335
330
83D7
100
AcDbEntity
  8
3
 62
     0
100
AcDbText
 10
3332.12
 20
7654.250000000001
 30
0.0
 40
105.0
  1
940
100
AcDbText
  0
POINT
  5
830D
330
83D7
100
AcDbEntity
  8
DEFPOINTS
 62
     0
100
AcDbPoint
 10
4012.120499998444
 20
6578.59130002472
 30
0.0
  0
POINT
  5
830E
330
83D7
100
AcDbEntity
  8
DEFPOINTS
 62
     0
100
AcDbPoint
 10
3072.120499998444
 20
7578.59130002472
 30
0.0
  0
POINT
  5
830F
330
83D7
100
AcDbEntity
  8
DEFPOINTS
 62
     0
100
AcDbPoint
 10
3072.120499998444
 20
7752.598660495841
 30
0.0
  0
ENDBLK
  5
7F4E
330
83D7
100
AcDbEntity
  8
0
100
AcDbBlockEnd
  0
BLOCK
  5
83DA
330
83D9
100
AcDbEntity
  8
0
100
AcDbBlockBegin
  2
*D18
 70
     1
 10
0.0
 20
0.0
 30
0.0
  3
*D18
  1

  0
LINE
  5
8310
330
83D9
100
AcDbEntity
  8
3
 62
     0
100
AcDbLine
 10
1652.120499998442
 20
4624.692209343382
 30
0.0
 11
1652.120499998442
 21
5037.684932965967
 31
0.0
  0
LINE
  5
8311
330
83D9
100
AcDbEntity
  8
3
 62
     0
100
AcDbLine
 10
4012.120499998443
 20
2658.692209343382
 30
0.0
 11
4012.120499998443
 21
5037.684932965967
 31
0.0
  0
LINE
  5
8312
330
83D9
100
AcDbEntity
  8
3
 62
     0
100
AcDbLine
 10
1722.120499998444
 20
5002.684932965967
 30
0.0
 11
3942.120499998443
 21
5002.684932965967
 31
0.0
  0
INSERT
  5
8313
330
83D9
100
AcDbEntity
  8
3
 62
     0
100
AcDbBlockReference
  2
_OPEN
 10
1652.120499998442
 20
5002.684932965967
 30
0.0
 41
70.0
 42
70.0
 43
70.0
 50
180.0
  0
INSERT
  5
8314
330
83D9
100
AcDbEntity
  8
3
 62
     0
100
AcDbBlockReference
  2
_OPEN
 10
4012.120499998443
 20
5002.684932965967
 30
0.0
 41
70.0
 42
70.0
 43
70.0
  0
TEXT
  5
8336
330
83D9
100
AcDbEntity
  8
3
 62
     0
100
AcDbText
 10
2622.12
 20
4904.33
 30
0.0
 40
105.0
  1
2360
100
AcDbText
  0
POINT
  5
8316
330
83D9
100
AcDbEntity
  8
DEFPOINTS
 62
     0
100
AcDbPoint
 10
1652.120499998442
 20
4607.192209343383
 30
0.0
  0
POINT
  5
8317
330
83D9
100
AcDbEntity
  8
DEFPOINTS
 62
     0
100
AcDbPoint
 10
4012.120499998443
 20
2641.192209343382
 30
0.0
  0
POINT
  5
8318
330
83D9
100
AcDbEntity
  8
DEFPOINTS
 62
     0
100
AcDbPoint
 10
4012.120499998443
 20
5002.684932965967
 30
0.0
  0
ENDBLK
  5
7F85
330
83D9
100
AcDbEntity
  8
0
100
AcDbBlockEnd
  0
BLOCK
  5
83DC
330
83DB
100
AcDbEntity
  8
0
100
AcDbBlockBegin
  2
*D19
 70
     1
 10
0.0
 20
0.0
 30
0.0
  3
*D19
  1

  0
LINE
  5
8319
330
83DB
100
AcDbEntity
  8
3
 62
     0
100
AcDbLine
 10
1734.620499998444
 20
2401.192209343382
 30
0.0
 11
1218.447833445447
 21
2401.192209343382
 31
0.0
  0
LINE
  5
831A
330
83DB
100
AcDbEntity
  8
3
 62
     0
100
AcDbLine
 10
1734.620499998444
 20
2336.192209343382
 30
0.0
 11
1218.447833445447
 21
2336.192209343382
 31
0.0
  0
LINE
  5
831B
330
83DB
100
AcDbEntity
  8
3
 62
     0
100
AcDbLine
 10
1253.447833445447
 20
2471.192209343382
 30
0.0
 11
1253.447833445447
 21
2541.192209343382
 31
0.0
  0
LINE
  5
831C
330
83DB
100
AcDbEntity
  8
3
 62
     0
100
AcDbLine
 10
1253.447833445447
 20
2266.192209343381
 30
0.0
 11
1253.447833445447
 21
1956.192209343382
 31
0.0
  0
LINE
  5
831D
330
83DB
100
AcDbEntity
  8
3
 62
     0
100
AcDbLine
 10
1253.447833445447
 20
2401.192209343382
 30
0.0
 11
1253.447833445447
 21
2336.192209343382
 31
0.0
  0
INSERT
  5
831E
330
83DB
100
AcDbEntity
  8
3
 62
     0
100
AcDbBlockReference
  2
_DOT
 10
1253.447833445447
 20
2401.192209343382
 30
0.0
 41
70.0
 42
70.0
 43
70.0
 50
270.0
  0
INSERT
  5
831F
330
83DB
100
AcDbEntity
  8
3
 62
     0
100
AcDbBlockReference
  2
_OPEN
 10
1253.447833445447
 20
2336.192209343382
 30
0.0
 41
70.0
 42
70.0
 43
70.0
 50
90.0
  0
TEXT
  5
8337
330
83DB
100
AcDbEntity
  8
3
 62
     0
100
AcDbText
 10
955.948
 20
1890.34
 30
0.0
 40
105.0
  1
65
100
AcDbText
  0
POINT
  5
8321
330
83DB
100
AcDbEntity
  8
DEFPOINTS
 62
     0
100
AcDbPoint
 10
1752.120499998443
 20
2401.192209343382
 30
0.0
  0
POINT
  5
8322
330
83DB
100
AcDbEntity
  8
DEFPOINTS
 62
     0
100
AcDbPoint
 10
1752.120499998443
 20
2336.192209343382
 30
0.0
  0
POINT
  5
8323
330
83DB
100
AcDbEntity
  8
DEFPOINTS
 62
     0
100
AcDbPoint
 10
1253.447833445447
 20
2336.192209343382
 30
0.0
  0
ENDBLK
  5
8080
330
83DB
100
AcDbEntity
  8
0
100
AcDbBlockEnd
  0
BLOCK
  5
83DE
330
83DD
100
AcDbEntity
  8
0
100
AcDbBlockBegin
  2
_DOT
 70
     0
 10
0.0
 20
0.0
 30
0.0
  3
_DOT
  1

  0
LWPOLYLINE
  5
8084
330
83DD
100
AcDbEntity
  8
0
  6
ByBlock
 62
     0
100
AcDbPolyline
 90
        2
 70
     1
 43
0.25
 10
-0.125
 20
0.0
 42
1.0
 10
0.125
 20
0.0
 42
1.0
  0
LINE
  5
8088
330
83DD
100
AcDbEntity
  8
0
  6
ByBlock
 62
     0
100
AcDbLine
 10
-0.25
 20
0.0
 30
0.0
 11
-1.0
 21
0.0
 31
0.0
  0
ENDBLK
  5
8066
330
83DD
100
AcDbEntity
  8
0
100
AcDbBlockEnd
  0
BLOCK
  5
83E0
330
83DF
100
AcDbEntity
  8
0
100
AcDbBlockBegin
  2
*D21
 70
     1
 10
0.0
 20
0.0
 30
0.0
  3
*D21
  1

  0
LINE
  5
8120
330
83DF
100
AcDbEntity
  8
0
  6
ByBlock
 62
     0
100
AcDbLine
 10
1752.120499998444
 20
2413.692209343381
 30
0.0
 11
1752.120499998444
 21
2162.602334691993
 31
0.0
  0
LINE
  5
8121
330
83DF
100
AcDbEntity
  8
0
  6
ByBlock
 62
     0
100
AcDbLine
 10
2412.120499998443
 20
2413.692209343381
 30
0.0
 11
2412.120499998443
 21
2162.602334691993
 31
0.0
  0
LINE
  5
8122
330
83DF
100
AcDbEntity
  8
0
  6
ByBlock
 62
     0
100
AcDbLine
 10
1822.120499998444
 20
2197.602334691993
 30
0.0
 11
2342.120499998443
 21
2197.602334691993
 31
0.0
  0
INSERT
  5
8123
330
83DF
100
AcDbEntity
  8
0
  6
ByBlock
 62
     0
100
AcDbBlockReference
  2
_OPEN
 10
1752.120499998444
 20
2197.602334691993
 30
0.0
 41
70.0
 42
70.0
 43
70.0
 50
180.0
  0
INSERT
  5
8124
330
83DF
100
AcDbEntity
  8
0
  6
ByBlock
 62
     0
100
AcDbBlockReference
  2
_OPEN
 10
2412.120499998443
 20
2197.602334691993
 30
0.0
 41
70.0
 42
70.0
 43
70.0
  0
TEXT
  5
8125
330
83DF
100
AcDbEntity
  8
3
 62
     0
100
AcDbText
 10
1947.120499998444
 20
2232.602334691994
 30
0.0
 40
105.0
  1
660
100
AcDbText
  0
POINT
  5
8126
330
83DF
100
AcDbEntity
  8
DEFPOINTS
  6
ByBlock
 62
     0
100
AcDbPoint
 10
1752.120499998444
 20
2431.192209343381
 30
0.0
  0
POINT
  5
8127
330
83DF
100
AcDbEntity
  8
DEFPOINTS
  6
ByBlock
 62
     0
100
AcDbPoint
 10
2412.120499998443
 20
2431.192209343381
 30
0.0
  0
POINT
  5
8128
330
83DF
100
AcDbEntity
  8
DEFPOINTS
  6
ByBlock
 62
     0
100
AcDbPoint
 10
2412.120499998443
 20
2197.602334691993
 30
0.0
  0
ENDBLK
  5
8129
330
83DF
100
AcDbEntity
  8
0
100
AcDbBlockEnd
  0
BLOCK
  5
83E2
330
83E1
100
AcDbEntity
  8
0
100
AcDbBlockBegin
  2
*D22
 70
     1
 10
0.0
 20
0.0
 30
0.0
  3
*D22
  1

  0
LINE
  5
812D
330
83E1
100
AcDbEntity
  8
0
  6
ByBlock
 62
     0
100
AcDbLine
 10
2412.120499998443
 20
2413.692209343381
 30
0.0
 11
2412.120499998443
 21
2162.602334691993
 31
0.0
  0
LINE
  5
812E
330
83E1
100
AcDbEntity
  8
0
  6
ByBlock
 62
     0
100
AcDbLine
 10
4012.120499998443
 20
2413.692209343381
 30
0.0
 11
4012.120499998443
 21
2162.602334691993
 31
0.0
  0
LINE
  5
812F
330
83E1
100
AcDbEntity
  8
0
  6
ByBlock
 62
     0
100
AcDbLine
 10
2482.120499998443
 20
2197.602334691993
 30
0.0
 11
3942.120499998443
 21
2197.602334691993
 31
0.0
  0
INSERT
  5
8130
330
83E1
100
AcDbEntity
  8
0
  6
ByBlock
 62
     0
100
AcDbBlockReference
  2
_OPEN
 10
2412.120499998443
 20
2197.602334691993
 30
0.0
 41
70.0
 42
70.0
 43
70.0
 50
180.0
  0
INSERT
  5
8131
330
83E1
100
AcDbEntity
  8
0
  6
ByBlock
 62
     0
100
AcDbBlockReference
  2
_OPEN
 10
4012.120499998443
 20
2197.602334691993
 30
0.0
 41
70.0
 42
70.0
 43
70.0
  0
TEXT
  5
8132
330
83E1
100
AcDbEntity
  8
3
 62
     0
100
AcDbText
 10
3037.120499998442
 20
2232.602334691994
 30
0.0
 40
105.0
  1
1600
100
AcDbText
  0
POINT
  5
8133
330
83E1
100
AcDbEntity
  8
DEFPOINTS
  6
ByBlock
 62
     0
100
AcDbPoint
 10
2412.120499998443
 20
2431.192209343381
 30
0.0
  0
POINT
  5
8134
330
83E1
100
AcDbEntity
  8
DEFPOINTS
  6
ByBlock
 62
     0
100
AcDbPoint
 10
4012.120499998443
 20
2431.192209343381
 30
0.0
  0
POINT
  5
8135
330
83E1
100
AcDbEntity
  8
DEFPOINTS
  6
ByBlock
 62
     0
100
AcDbPoint
 10
4012.120499998443
 20
2197.602334691993
 30
0.0
  0
ENDBLK
  5
8136
330
83E1
100
AcDbEntity
  8
0
100
AcDbBlockEnd
  0
BLOCK
  5
83E4
330
83E3
100
AcDbEntity
  8
0
100
AcDbBlockBegin
  2
*D23
 70
     1
 10
0.0
 20
0.0
 30
0.0
  3
*D23
  1

  0
LINE
  5
813A
330
83E3
100
AcDbEntity
  8
0
  6
ByBlock
 62
     0
100
AcDbLine
 10
4561.752841307494
 20
2413.692209343381
 30
0.0
 11
4561.752841307494
 21
2162.602334691993
 31
0.0
  0
LINE
  5
813B
330
83E3
100
AcDbEntity
  8
0
  6
ByBlock
 62
     0
100
AcDbLine
 10
5643.752841307505
 20
2413.692209343381
 30
0.0
 11
5643.752841307505
 21
2162.602334691993
 31
0.0
  0
LINE
  5
813C
330
83E3
100
AcDbEntity
  8
0
  6
ByBlock
 62
     0
100
AcDbLine
 10
4631.752841307493
 20
2197.602334691993
 30
0.0
 11
5573.752841307506
 21
2197.602334691993
 31
0.0
  0
INSERT
  5
813D
330
83E3
100
AcDbEntity
  8
0
  6
ByBlock
 62
     0
100
AcDbBlockReference
  2
_OPEN
 10
4561.752841307494
 20
2197.602334691993
 30
0.0
 41
70.0
 42
70.0
 43
70.0
 50
180.0
  0
INSERT
  5
813E
330
83E3
100
AcDbEntity
  8
0
  6
ByBlock
 62
     0
100
AcDbBlockReference
  2
_OPEN
 10
5643.752841307505
 20
2197.602334691993
 30
0.0
 41
70.0
 42
70.0
 43
70.0
  0
TEXT
  5
813F
330
83E3
100
AcDbEntity
  8
3
 62
     0
100
AcDbText
 10
4927.7528413075
 20
2232.602334691994
 30
0.0
 40
105.0
  1
1082
100
AcDbText
  0
POINT
  5
8140
330
83E3
100
AcDbEntity
  8
DEFPOINTS
  6
ByBlock
 62
     0
100
AcDbPoint
 10
4561.752841307494
 20
2431.192209343381
 30
0.0
  0
POINT
  5
8141
330
83E3
100
AcDbEntity
  8
DEFPOINTS
  6
ByBlock
 62
     0
100
AcDbPoint
 10
5643.752841307505
 20
2431.192209343381
 30
0.0
  0
POINT
  5
8142
330
83E3
100
AcDbEntity
  8
DEFPOINTS
  6
ByBlock
 62
     0
100
AcDbPoint
 10
5643.752841307505
 20
2197.602334691993
 30
0.0
  0
ENDBLK
  5
8143
330
83E3
100
AcDbEntity
  8
0
100
AcDbBlockEnd
  0
BLOCK
  5
83E6
330
83E5
100
AcDbEntity
  8
0
100
AcDbBlockBegin
  2
*D24
 70
     1
 10
0.0
 20
0.0
 30
0.0
  3
*D24
  1

  0
LINE
  5
8147
330
83E5
100
AcDbEntity
  8
0
  6
ByBlock
 62
     0
100
AcDbLine
 10
5643.752841307505
 20
2413.692209343381
 30
0.0
 11
5643.752841307505
 21
2162.602334691993
 31
0.0
  0
LINE
  5
8148
330
83E5
100
AcDbEntity
  8
0
  6
ByBlock
 62
     0
100
AcDbLine
 10
6461.752841307485
 20
2413.692209343381
 30
0.0
 11
6461.752841307485
 21
2162.602334691993
 31
0.0
  0
LINE
  5
8149
330
83E5
100
AcDbEntity
  8
0
  6
ByBlock
 62
     0
100
AcDbLine
 10
5713.752841307505
 20
2197.602334691993
 30
0.0
 11
6391.752841307487
 21
2197.602334691993
 31
0.0
  0
INSERT
  5
814A
330
83E5
100
AcDbEntity
  8
0
  6
ByBlock
 62
     0
100
AcDbBlockReference
  2
_OPEN
 10
5643.752841307505
 20
2197.602334691993
 30
0.0
 41
70.0
 42
70.0
 43
70.0
 50
180.0
  0
INSERT
  5
814B
330
83E5
100
AcDbEntity
  8
0
  6
ByBlock
 62
     0
100
AcDbBlockReference
  2
_OPEN
 10
6461.752841307485
 20
2197.602334691993
 30
0.0
 41
70.0
 42
70.0
 43
70.0
  0
TEXT
  5
814C
330
83E5
100
AcDbEntity
  8
3
 62
     0
100
AcDbText
 10
5927.752841307495
 20
2232.602334691994
 30
0.0
 40
105.0
  1
818
100
AcDbText
  0
POINT
  5
814D
330
83E5
100
AcDbEntity
  8
DEFPOINTS
  6
ByBlock
 62
     0
100
AcDbPoint
 10
5643.752841307505
 20
2431.192209343381
 30
0.0
  0
POINT
  5
814E
330
83E5
100
AcDbEntity
  8
DEFPOINTS
  6
ByBlock
 62
     0
100
AcDbPoint
 10
6461.752841307485
 20
2431.192209343381
 30
0.0
  0
POINT
  5
814F
330
83E5
100
AcDbEntity
  8
DEFPOINTS
  6
ByBlock
 62
     0
100
AcDbPoint
 10
6461.752841307485
 20
2197.602334691993
 30
0.0
  0
ENDBLK
  5
8150
330
83E5
100
AcDbEntity
  8
0
100
AcDbBlockEnd
  0
BLOCK
  5
83E8
330
83E7
100
AcDbEntity
  8
0
100
AcDbBlockBegin
  2
_NONE
 70
     0
 10
0.0
 20
0.0
 30
0.0
  3
_NONE
  1

  0
CIRCLE
  5
8154
330
83E7
100
AcDbEntity
  8
0
  6
ByBlock
 62
     0
100
AcDbCircle
 10
0.0
 20
0.0
 30
0.0
 40
0.25
  0
ENDBLK
  5
8155
330
83E7
100
AcDbEntity
  8
0
100
AcDbBlockEnd
  0
BLOCK
  5
83EA
330
83E9
100
AcDbEntity
  8
0
100
AcDbBlockBegin
  2
*D26
 70
     1
 10
0.0
 20
0.0
 30
0.0
  3
*D26
  1

  0
LINE
  5
81A3
330
83E9
100
AcDbEntity
  8
0
  6
ByBlock
 62
     0
100
AcDbLine
 10
1255.78624832043
 20
2401.192209343382
 30
0.0
 11
1255.78624832043
 21
2516.192209343382
 31
0.0
  0
TEXT
  5
81A4
330
83E9
100
AcDbEntity
  8
3
 62
     0
100
AcDbText
 10
1123.28624832043
 20
2213.192209343382
 30
0.0
 40
105.0
  1
  (115)
 50
90.0
100
AcDbText
  0
POINT
  5
81A5
330
83E9
100
AcDbEntity
  8
DEFPOINTS
  6
ByBlock
 62
     0
100
AcDbPoint
 10
1752.120499998443
 20
2401.192209343382
 30
0.0
  0
POINT
  5
81A6
330
83E9
100
AcDbEntity
  8
DEFPOINTS
  6
ByBlock
 62
     0
100
AcDbPoint
 10
1752.120499998443
 20
2516.192209343382
 30
0.0
  0
POINT
  5
81A7
330
83E9
100
AcDbEntity
  8
DEFPOINTS
  6
ByBlock
 62
     0
100
AcDbPoint
 10
1255.78624832043
 20
2516.192209343382
 30
0.0
  0
ENDBLK
  5
81A8
330
83E9
100
AcDbEntity
  8
0
100
AcDbBlockEnd
  0
BLOCK
  5
83EC
330
83EB
100
AcDbEntity
  8
0
100
AcDbBlockBegin
  2
*D27
 70
     1
 10
0.0
 20
0.0
 30
0.0
  3
*D27
  1

  0
LINE
  5
81AB
330
83EB
100
AcDbEntity
  8
0
  6
ByBlock
 62
     0
100
AcDbLine
 10
1734.620499998444
 20
2336.192209343382
 30
0.0
 11
922.625071713672
 21
2336.192209343382
 31
0.0
  0
LINE
  5
81AC
330
83EB
100
AcDbEntity
  8
0
  6
ByBlock
 62
     0
100
AcDbLine
 10
1617.120499998444
 20
4554.192209343383
 30
0.0
 11
922.625071713672
 21
4554.192209343383
 31
0.0
  0
LINE
  5
81AD
330
83EB
100
AcDbEntity
  8
0
  6
ByBlock
 62
     0
100
AcDbLine
 10
957.6250717136716
 20
2406.192209343382
 30
0.0
 11
957.6250717136716
 21
4484.192209343382
 31
0.0
  0
INSERT
  5
81AE
330
83EB
100
AcDbEntity
  8
0
  6
ByBlock
 62
     0
100
AcDbBlockReference
  2
_OPEN
 10
957.6250717136716
 20
2336.192209343382
 30
0.0
 41
70.0
 42
70.0
 43
70.0
 50
270.0
  0
INSERT
  5
81AF
330
83EB
100
AcDbEntity
  8
0
  6
ByBlock
 62
     0
100
AcDbBlockReference
  2
_OPEN
 10
957.6250717136716
 20
4554.192209343383
 30
0.0
 41
70.0
 42
70.0
 43
70.0
 50
90.0
  0
TEXT
  5
81B0
330
83EB
100
AcDbEntity
  8
3
 62
     0
100
AcDbText
 10
877.6250717136715
 20
3202.692209343381
 30
0.0
 40
105.0
  1
(2218)
 50
90.0
100
AcDbText
  0
POINT
  5
81B1
330
83EB
100
AcDbEntity
  8
DEFPOINTS
  6
ByBlock
 62
     0
100
AcDbPoint
 10
1752.120499998443
 20
2336.192209343382
 30
0.0
  0
POINT
  5
81B2
330
83EB
100
AcDbEntity
  8
DEFPOINTS
  6
ByBlock
 62
     0
100
AcDbPoint
 10
1634.620499998444
 20
4554.192209343383
 30
0.0
  0
POINT
  5
81B3
330
83EB
100
AcDbEntity
  8
DEFPOINTS
  6
ByBlock
 62
     0
100
AcDbPoint
 10
957.6250717136716
 20
4554.192209343383
 30
0.0
  0
ENDBLK
  5
81B4
330
83EB
100
AcDbEntity
  8
0
100
AcDbBlockEnd
  0
BLOCK
  5
83EF
330
83EE
100
AcDbEntity
  8
0
100
AcDbBlockBegin
  2
*D28
 70
     1
 10
0.0
 20
0.0
 30
0.0
  3
*D28
  1

  0
LINE
  5
83F1
330
83EE
100
AcDbEntity
  8
3
 62
     0
370
    -2
100
AcDbLine
 10
4523.752841307505
 20
3738.379709343381
 30
0.0
 11
4523.752841307505
 21
5039.353905583795
 31
0.0
  0
LINE
  5
83F2
330
83EE
100
AcDbEntity
  8
3
 62
     0
370
    -2
100
AcDbLine
 10
5643.752841307503
 20
4976.297114216558
 30
0.0
 11
5643.752841307503
 21
5039.353905583795
 31
0.0
  0
LINE
  5
83F3
330
83EE
100
AcDbEntity
  8
3
 62
     0
370
    -2
100
AcDbLine
 10
4530.052841307505
 20
5033.053905583795
 30
0.0
 11
5070.702841307504
 21
5033.053905583795
 31
0.0
  0
LINE
  5
83F4
330
83EE
100
AcDbEntity
  8
3
 62
     0
370
    -2
100
AcDbLine
 10
5637.452841307503
 20
5033.053905583795
 30
0.0
 11
5096.802841307504
 21
5033.053905583795
 31
0.0
  0
SOLID
  5
83F5
330
83EE
100
AcDbEntity
  8
3
 62
     0
100
AcDbTrace
 10
4530.052841307505
 20
5034.103905583795
 30
0.0
 11
4530.052841307505
 21
5032.003905583795
 31
0.0
 12
4523.752841307505
 22
5033.053905583795
 32
0.0
 13
4523.752841307505
 23
5033.053905583795
 33
0.0
  0
SOLID
  5
83F6
330
83EE
100
AcDbEntity
  8
3
 62
     0
100
AcDbTrace
 10
5637.452841307503
 20
5034.103905583795
 30
0.0
 11
5637.452841307503
 21
5032.003905583795
 31
0.0
 12
5643.752841307503
 22
5033.053905583795
 32
0.0
 13
5643.752841307503
 23
5033.053905583795
 33
0.0
  0
MTEXT
  5
83F7
330
83EE
100
AcDbEntity
  8
3
 62
     0
100
AcDbMText
 10
5083.752841307504
 20
5033.053905583795
 30
0.0
 40
6.299999999999999
 41
0.0
 71
     5
 72
     1
  1
\A1;MAX\P1120
 73
     1
 44
1.0
1001
ACAD
1000
MTEXTBEGIN
1070
    73
1070
     1
1070
    44
1040
1.0
1070
    74
1070
     0
1000
MTEXTEND
  0
POINT
  5
83F8
330
83EE
100
AcDbEntity
  8
DEFPOINTS
 62
     0
100
AcDbPoint
 10
4523.752841307505
 20
3736.192209343381
 30
0.0
  0
POINT
  5
83F9
330
83EE
100
AcDbEntity
  8
DEFPOINTS
 62
     0
100
AcDbPoint
 10
5643.752841307503
 20
4974.109614216558
 30
0.0
  0
POINT
  5
83FA
330
83EE
100
AcDbEntity
  8
DEFPOINTS
 62
     0
100
AcDbPoint
 10
5643.752841307503
 20
5033.053905583795
 30
0.0
  0
ENDBLK
  5
83F0
330
83EE
100
AcDbEntity
  8
0
100
AcDbBlockEnd
  0
BLOCK
  5
83FC
330
83FB
100
AcDbEntity
  8
0
100
AcDbBlockBegin
  2
*D29
 70
     1
 10
0.0
 20
0.0
 30
0.0
  3
*D29
  1

  0
LINE
  5
83FE
330
83FB
100
AcDbEntity
  8
3
 62
     0
370
    -2
100
AcDbLine
 10
5643.752841307503
 20
4976.297114216558
 30
0.0
 11
5643.752841307503
 21
5040.370556852206
 31
0.0
  0
LINE
  5
83FF
330
83FB
100
AcDbEntity
  8
3
 62
     0
370
    -2
100
AcDbLine
 10
6571.252841307502
 20
3271.419186448578
 30
0.0
 11
6571.252841307502
 21
5040.370556852206
 31
0.0
  0
LINE
  5
8400
330
83FB
100
AcDbEntity
  8
3
 62
     0
370
    -2
100
AcDbLine
 10
5650.052841307504
 20
5034.070556852206
 30
0.0
 11
6092.202841307504
 21
5034.070556852206
 31
0.0
  0
LINE
  5
8401
330
83FB
100
AcDbEntity
  8
3
 62
     0
370
    -2
100
AcDbLine
 10
6564.952841307501
 20
5034.070556852206
 30
0.0
 11
6122.802841307503
 21
5034.070556852206
 31
0.0
  0
SOLID
  5
8402
330
83FB
100
AcDbEntity
  8
3
 62
     0
100
AcDbTrace
 10
5650.052841307504
 20
5035.120556852206
 30
0.0
 11
5650.052841307504
 21
5033.020556852206
 31
0.0
 12
5643.752841307503
 22
5034.070556852206
 32
0.0
 13
5643.752841307503
 23
5034.070556852206
 33
0.0
  0
SOLID
  5
8403
330
83FB
100
AcDbEntity
  8
3
 62
     0
100
AcDbTrace
 10
6564.952841307501
 20
5035.120556852206
 30
0.0
 11
6564.952841307501
 21
5033.020556852206
 31
0.0
 12
6571.252841307502
 22
5034.070556852206
 32
0.0
 13
6571.252841307502
 23
5034.070556852206
 33
0.0
  0
MTEXT
  5
8404
330
83FB
100
AcDbEntity
  8
3
 62
     0
100
AcDbMText
 10
6107.502841307503
 20
5034.070556852206
 30
0.0
 40
6.299999999999999
 41
0.0
 71
     5
 72
     1
  1
\A1;(930)
 73
     1
 44
1.0
1001
ACAD
1000
MTEXTBEGIN
1070
    73
1070
     1
1070
    44
1040
1.0
1070
    74
1070
     0
1000
MTEXTEND
  0
POINT
  5
8405
330
83FB
100
AcDbEntity
  8
DEFPOINTS
 62
     0
100
AcDbPoint
 10
5643.752841307503
 20
4974.109614216558
 30
0.0
  0
POINT
  5
8406
330
83FB
100
AcDbEntity
  8
DEFPOINTS
 62
     0
100
AcDbPoint
 10
6571.252841307502
 20
3269.231686448577
 30
0.0
  0
POINT
  5
8407
330
83FB
100
AcDbEntity
  8
DEFPOINTS
 62
     0
100
AcDbPoint
 10
6571.252841307502
 20
5034.070556852206
 30
0.0
  0
ENDBLK
  5
83FD
330
83FB
100
AcDbEntity
  8
0
100
AcDbBlockEnd
  0
BLOCK
  5
8409
330
8408
100
AcDbEntity
  8
0
100
AcDbBlockBegin
  2
*D30
 70
     1
 10
0.0
 20
0.0
 30
0.0
  3
*D30
  1

  0
LINE
  5
840B
330
8408
100
AcDbEntity
  8
3
 62
     0
370
    -2
100
AcDbLine
 10
1752.120499998443
 20
2344.004709343382
 30
0.0
 11
1752.120499998443
 21
2106.302334691993
 31
0.0
  0
LINE
  5
840C
330
8408
100
AcDbEntity
  8
3
 62
     0
370
    -2
100
AcDbLine
 10
2412.120499998443
 20
2344.004709343382
 30
0.0
 11
2412.120499998443
 21
2106.302334691993
 31
0.0
  0
LINE
  5
840D
330
8408
100
AcDbEntity
  8
3
 62
     0
370
    -2
100
AcDbLine
 10
1758.420499998442
 20
2112.602334691993
 30
0.0
 11
2070.870499998443
 21
2112.602334691993
 31
0.0
  0
LINE
  5
840E
330
8408
100
AcDbEntity
  8
3
 62
     0
370
    -2
100
AcDbLine
 10
2405.820499998443
 20
2112.602334691993
 30
0.0
 11
2093.370499998443
 21
2112.602334691993
 31
0.0
  0
SOLID
  5
840F
330
8408
100
AcDbEntity
  8
3
 62
     0
100
AcDbTrace
 10
1758.420499998442
 20
2113.652334691993
 30
0.0
 11
1758.420499998442
 21
2111.552334691992
 31
0.0
 12
1752.120499998443
 22
2112.602334691993
 32
0.0
 13
1752.120499998443
 23
2112.602334691993
 33
0.0
  0
SOLID
  5
8410
330
8408
100
AcDbEntity
  8
3
 62
     0
100
AcDbTrace
 10
2405.820499998443
 20
2113.652334691993
 30
0.0
 11
2405.820499998443
 21
2111.552334691992
 31
0.0
 12
2412.120499998443
 22
2112.602334691993
 32
0.0
 13
2412.120499998443
 23
2112.602334691993
 33
0.0
  0
MTEXT
  5
8411
330
8408
100
AcDbEntity
  8
3
 62
     0
100
AcDbMText
 10
2082.120499998443
 20
2112.602334691993
 30
0.0
 40
6.299999999999999
 41
0.0
 71
     5
 72
     1
  1
\A1;660
 73
     1
 44
1.0
1001
ACAD
1000
MTEXTBEGIN
1070
    73
1070
     1
1070
    44
1040
1.0
1070
    74
1070
     0
1000
MTEXTEND
  0
POINT
  5
8412
330
8408
100
AcDbEntity
  8
DEFPOINTS
 62
     0
100
AcDbPoint
 10
1752.120499998443
 20
2346.192209343382
 30
0.0
  0
POINT
  5
8413
330
8408
100
AcDbEntity
  8
DEFPOINTS
 62
     0
100
AcDbPoint
 10
2412.120499998443
 20
2346.192209343382
 30
0.0
  0
POINT
  5
8414
330
8408
100
AcDbEntity
  8
DEFPOINTS
 62
     0
100
AcDbPoint
 10
2412.120499998443
 20
2112.602334691993
 30
0.0
  0
ENDBLK
  5
840A
330
8408
100
AcDbEntity
  8
0
100
AcDbBlockEnd
  0
BLOCK
  5
8416
330
8415
100
AcDbEntity
  8
0
100
AcDbBlockBegin
  2
*D31
 70
     1
 10
0.0
 20
0.0
 30
0.0
  3
*D31
  1

  0
LINE
  5
8418
330
8415
100
AcDbEntity
  8
3
 62
     0
370
    -2
100
AcDbLine
 10
2412.120499998443
 20
2344.004709343382
 30
0.0
 11
2412.120499998443
 21
2106.302334691993
 31
0.0
  0
LINE
  5
8419
330
8415
100
AcDbEntity
  8
3
 62
     0
370
    -2
100
AcDbLine
 10
4012.120499998443
 20
2344.004709343382
 30
0.0
 11
4012.120499998443
 21
2106.302334691993
 31
0.0
  0
LINE
  5
841A
330
8415
100
AcDbEntity
  8
3
 62
     0
370
    -2
100
AcDbLine
 10
2418.420499998443
 20
2112.602334691993
 30
0.0
 11
3198.470499998443
 21
2112.602334691993
 31
0.0
  0
LINE
  5
841B
330
8415
100
AcDbEntity
  8
3
 62
     0
370
    -2
100
AcDbLine
 10
4005.820499998442
 20
2112.602334691993
 30
0.0
 11
3225.770499998443
 21
2112.602334691993
 31
0.0
  0
SOLID
  5
841C
330
8415
100
AcDbEntity
  8
3
 62
     0
100
AcDbTrace
 10
2418.420499998443
 20
2113.652334691993
 30
0.0
 11
2418.420499998443
 21
2111.552334691992
 31
0.0
 12
2412.120499998443
 22
2112.602334691993
 32
0.0
 13
2412.120499998443
 23
2112.602334691993
 33
0.0
  0
SOLID
  5
841D
330
8415
100
AcDbEntity
  8
3
 62
     0
100
AcDbTrace
 10
4005.820499998442
 20
2113.652334691993
 30
0.0
 11
4005.820499998442
 21
2111.552334691992
 31
0.0
 12
4012.120499998443
 22
2112.602334691993
 32
0.0
 13
4012.120499998443
 23
2112.602334691993
 33
0.0
  0
MTEXT
  5
841E
330
8415
100
AcDbEntity
  8
3
 62
     0
100
AcDbMText
 10
3212.120499998443
 20
2112.602334691993
 30
0.0
 40
6.299999999999999
 41
0.0
 71
     5
 72
     1
  1
\A1;1600
 73
     1
 44
1.0
1001
ACAD
1000
MTEXTBEGIN
1070
    73
1070
     1
1070
    44
1040
1.0
1070
    74
1070
     0
1000
MTEXTEND
  0
POINT
  5
841F
330
8415
100
AcDbEntity
  8
DEFPOINTS
 62
     0
100
AcDbPoint
 10
2412.120499998443
 20
2346.192209343382
 30
0.0
  0
POINT
  5
8420
330
8415
100
AcDbEntity
  8
DEFPOINTS
 62
     0
100
AcDbPoint
 10
4012.120499998443
 20
2346.192209343382
 30
0.0
  0
POINT
  5
8421
330
8415
100
AcDbEntity
  8
DEFPOINTS
 62
     0
100
AcDbPoint
 10
4012.120499998443
 20
2112.602334691993
 30
0.0
  0
ENDBLK
  5
8417
330
8415
100
AcDbEntity
  8
0
100
AcDbBlockEnd
  0
BLOCK
  5
8423
330
8422
100
AcDbEntity
  8
0
100
AcDbBlockBegin
  2
*D32
 70
     1
 10
0.0
 20
0.0
 30
0.0
  3
*D32
  1

  0
LINE
  5
8425
330
8422
100
AcDbEntity
  8
3
 62
     0
370
    -2
100
AcDbLine
 10
4561.752841307494
 20
2344.004709343382
 30
0.0
 11
4561.752841307494
 21
2106.302334691993
 31
0.0
  0
LINE
  5
8426
330
8422
100
AcDbEntity
  8
3
 62
     0
370
    -2
100
AcDbLine
 10
5643.752841307505
 20
2344.004709343382
 30
0.0
 11
5643.752841307505
 21
2106.302334691993
 31
0.0
  0
LINE
  5
8427
330
8422
100
AcDbEntity
  8
3
 62
     0
370
    -2
100
AcDbLine
 10
4568.052841307494
 20
2112.602334691993
 30
0.0
 11
5089.1028413075
 21
2112.602334691993
 31
0.0
  0
LINE
  5
8428
330
8422
100
AcDbEntity
  8
3
 62
     0
370
    -2
100
AcDbLine
 10
5637.452841307505
 20
2112.602334691993
 30
0.0
 11
5116.4028413075
 21
2112.602334691993
 31
0.0
  0
SOLID
  5
8429
330
8422
100
AcDbEntity
  8
3
 62
     0
100
AcDbTrace
 10
4568.052841307494
 20
2113.652334691993
 30
0.0
 11
4568.052841307494
 21
2111.552334691992
 31
0.0
 12
4561.752841307494
 22
2112.602334691993
 32
0.0
 13
4561.752841307494
 23
2112.602334691993
 33
0.0
  0
SOLID
  5
842A
330
8422
100
AcDbEntity
  8
3
 62
     0
100
AcDbTrace
 10
5637.452841307505
 20
2113.652334691993
 30
0.0
 11
5637.452841307505
 21
2111.552334691992
 31
0.0
 12
5643.752841307505
 22
2112.602334691993
 32
0.0
 13
5643.752841307505
 23
2112.602334691993
 33
0.0
  0
MTEXT
  5
842B
330
8422
100
AcDbEntity
  8
3
 62
     0
100
AcDbMText
 10
5102.752841307499
 20
2112.602334691993
 30
0.0
 40
6.299999999999999
 41
0.0
 71
     5
 72
     1
  1
\A1;1082
 73
     1
 44
1.0
1001
ACAD
1000
MTEXTBEGIN
1070
    73
1070
     1
1070
    44
1040
1.0
1070
    74
1070
     0
1000
MTEXTEND
  0
POINT
  5
842C
330
8422
100
AcDbEntity
  8
DEFPOINTS
 62
     0
100
AcDbPoint
 10
4561.752841307494
 20
2346.192209343382
 30
0.0
  0
POINT
  5
842D
330
8422
100
AcDbEntity
  8
DEFPOINTS
 62
     0
100
AcDbPoint
 10
5643.752841307505
 20
2346.192209343382
 30
0.0
  0
POINT
  5
842E
330
8422
100
AcDbEntity
  8
DEFPOINTS
 62
     0
100
AcDbPoint
 10
5643.752841307505
 20
2112.602334691993
 30
0.0
  0
ENDBLK
  5
8424
330
8422
100
AcDbEntity
  8
0
100
AcDbBlockEnd
  0
BLOCK
  5
8430
330
842F
100
AcDbEntity
  8
0
100
AcDbBlockBegin
  2
*D33
 70
     1
 10
0.0
 20
0.0
 30
0.0
  3
*D33
  1

  0
LINE
  5
8432
330
842F
100
AcDbEntity
  8
3
 62
     0
370
    -2
100
AcDbLine
 10
5643.752841307505
 20
2344.004709343382
 30
0.0
 11
5643.752841307505
 21
2106.302334691993
 31
0.0
  0
LINE
  5
8433
330
842F
100
AcDbEntity
  8
3
 62
     0
370
    -2
100
AcDbLine
 10
6461.752841307485
 20
2344.004709343382
 30
0.0
 11
6461.752841307485
 21
2106.302334691993
 31
0.0
  0
LINE
  5
8434
330
842F
100
AcDbEntity
  8
3
 62
     0
370
    -2
100
AcDbLine
 10
5650.052841307505
 20
2112.602334691993
 30
0.0
 11
6042.102841307496
 21
2112.602334691993
 31
0.0
  0
LINE
  5
8435
330
842F
100
AcDbEntity
  8
3
 62
     0
370
    -2
100
AcDbLine
 10
6455.452841307485
 20
2112.602334691993
 30
0.0
 11
6063.402841307495
 21
2112.602334691993
 31
0.0
  0
SOLID
  5
8436
330
842F
100
AcDbEntity
  8
3
 62
     0
100
AcDbTrace
 10
5650.052841307505
 20
2113.652334691993
 30
0.0
 11
5650.052841307505
 21
2111.552334691992
 31
0.0
 12
5643.752841307505
 22
2112.602334691993
 32
0.0
 13
5643.752841307505
 23
2112.602334691993
 33
0.0
  0
SOLID
  5
8437
330
842F
100
AcDbEntity
  8
3
 62
     0
100
AcDbTrace
 10
6455.452841307485
 20
2113.652334691993
 30
0.0
 11
6455.452841307485
 21
2111.552334691992
 31
0.0
 12
6461.752841307485
 22
2112.602334691993
 32
0.0
 13
6461.752841307485
 23
2112.602334691993
 33
0.0
  0
MTEXT
  5
8438
330
842F
100
AcDbEntity
  8
3
 62
     0
100
AcDbMText
 10
6052.752841307495
 20
2112.602334691993
 30
0.0
 40
6.299999999999999
 41
0.0
 71
     5
 72
     1
  1
\A1;818
 73
     1
 44
1.0
1001
ACAD
1000
MTEXTBEGIN
1070
    73
1070
     1
1070
    44
1040
1.0
1070
    74
1070
     0
1000
MTEXTEND
  0
POINT
  5
8439
330
842F
100
AcDbEntity
  8
DEFPOINTS
 62
     0
100
AcDbPoint
 10
5643.752841307505
 20
2346.192209343382
 30
0.0
  0
POINT
  5
843A
330
842F
100
AcDbEntity
  8
DEFPOINTS
 62
     0
100
AcDbPoint
 10
6461.752841307485
 20
2346.192209343382
 30
0.0
  0
POINT
  5
843B
330
842F
100
AcDbEntity
  8
DEFPOINTS
 62
     0
100
AcDbPoint
 10
6461.752841307485
 20
2112.602334691993
 30
0.0
  0
ENDBLK
  5
8431
330
842F
100
AcDbEntity
  8
0
100
AcDbBlockEnd
  0
BLOCK
  5
843D
330
843C
100
AcDbEntity
  8
0
100
AcDbBlockBegin
  2
*D34
 70
     1
 10
0.0
 20
0.0
 30
0.0
  3
*D34
  1

  0
LINE
  5
843F
330
843C
100
AcDbEntity
  8
3
 62
     0
370
    -2
100
AcDbLine
 10
1749.932999998443
 20
2346.192209343382
 30
0.0
 11
951.3250717136711
 21
2346.192209343382
 31
0.0
  0
LINE
  5
8440
330
843C
100
AcDbEntity
  8
3
 62
     0
370
    -2
100
AcDbLine
 10
1632.432999998444
 20
4554.192209343383
 30
0.0
 11
951.3250717136715
 21
4554.192209343383
 31
0.0
  0
LINE
  5
8441
330
843C
100
AcDbEntity
  8
3
 62
     0
370
    -2
100
AcDbLine
 10
957.625071713671
 20
2352.492209343382
 30
0.0
 11
957.6250717136714
 21
3442.242209343382
 31
0.0
  0
LINE
  5
8442
330
843C
100
AcDbEntity
  8
3
 62
     0
370
    -2
100
AcDbLine
 10
957.6250717136716
 20
4547.892209343383
 30
0.0
 11
957.6250717136714
 21
3458.142209343382
 31
0.0
  0
SOLID
  5
8443
330
843C
100
AcDbEntity
  8
3
 62
     0
100
AcDbTrace
 10
956.5750717136712
 20
2352.492209343382
 30
0.0
 11
958.6750717136711
 21
2352.492209343382
 31
0.0
 12
957.625071713671
 22
2346.192209343382
 32
0.0
 13
957.625071713671
 23
2346.192209343382
 33
0.0
  0
SOLID
  5
8444
330
843C
100
AcDbEntity
  8
3
 62
     0
100
AcDbTrace
 10
956.5750717136715
 20
4547.892209343383
 30
0.0
 11
958.6750717136714
 21
4547.892209343383
 31
0.0
 12
957.6250717136716
 22
4554.192209343383
 32
0.0
 13
957.6250717136716
 23
4554.192209343383
 33
0.0
  0
MTEXT
  5
8445
330
843C
100
AcDbEntity
  8
3
 62
     0
100
AcDbMText
 10
957.6250717136707
 20
3450.192209343383
 30
0.0
 40
6.299999999999999
 41
0.0
 71
     5
 72
     1
  1
\A1;(2208)
 73
     1
 44
1.0
1001
ACAD
1000
MTEXTBEGIN
1070
    73
1070
     1
1070
    44
1040
1.0
1070
    74
1070
     0
1000
MTEXTEND
  0
POINT
  5
8446
330
843C
100
AcDbEntity
  8
DEFPOINTS
 62
     0
100
AcDbPoint
 10
1752.120499998443
 20
2346.192209343382
 30
0.0
  0
POINT
  5
8447
330
843C
100
AcDbEntity
  8
DEFPOINTS
 62
     0
100
AcDbPoint
 10
1634.620499998444
 20
4554.192209343383
 30
0.0
  0
POINT
  5
8448
330
843C
100
AcDbEntity
  8
DEFPOINTS
 62
     0
100
AcDbPoint
 10
957.6250717136716
 20
4554.192209343383
 30
0.0
  0
ENDBLK
  5
843E
330
843C
100
AcDbEntity
  8
0
100
AcDbBlockEnd
  0
BLOCK
  5
844A
330
8449
100
AcDbEntity
  8
0
100
AcDbBlockBegin
  2
*D35
 70
     1
 10
0.0
 20
0.0
 30
0.0
  3
*D35
  1

  0
LINE
  5
844C
330
8449
100
AcDbEntity
  8
3
 62
     0
370
    -2
100
AcDbLine
 10
1749.932999998443
 20
2411.192209343381
 30
0.0
 11
1247.147833445447
 21
2411.192209343381
 31
0.0
  0
LINE
  5
844D
330
8449
100
AcDbEntity
  8
3
 62
     0
370
    -2
100
AcDbLine
 10
1749.932999998443
 20
2346.192209343382
 30
0.0
 11
1247.147833445447
 21
2346.192209343382
 31
0.0
  0
LINE
  5
844E
330
8449
100
AcDbEntity
  8
3
 62
     0
370
    -2
100
AcDbLine
 10
1253.447833445447
 20
2404.892209343381
 30
0.0
 11
1253.447833445447
 21
2384.992209343382
 31
0.0
  0
LINE
  5
844F
330
8449
100
AcDbEntity
  8
3
 62
     0
370
    -2
100
AcDbLine
 10
1253.447833445447
 20
2352.492209343381
 30
0.0
 11
1253.447833445447
 21
2372.392209343381
 31
0.0
  0
SOLID
  5
8450
330
8449
100
AcDbEntity
  8
3
 62
     0
100
AcDbTrace
 10
1252.397833445447
 20
2404.892209343381
 30
0.0
 11
1254.497833445447
 21
2404.892209343381
 31
0.0
 12
1253.447833445447
 22
2411.192209343381
 32
0.0
 13
1253.447833445447
 23
2411.192209343381
 33
0.0
  0
SOLID
  5
8451
330
8449
100
AcDbEntity
  8
3
 62
     0
100
AcDbTrace
 10
1252.397833445447
 20
2352.492209343381
 30
0.0
 11
1254.497833445447
 21
2352.492209343381
 31
0.0
 12
1253.447833445447
 22
2346.192209343382
 32
0.0
 13
1253.447833445447
 23
2346.192209343382
 33
0.0
  0
MTEXT
  5
8452
330
8449
100
AcDbEntity
  8
3
 62
     0
100
AcDbMText
 10
1253.447833445447
 20
2378.692209343382
 30
0.0
 40
6.299999999999999
 41
0.0
 71
     5
 72
     1
  1
\A1;65
 73
     1
 44
1.0
1001
ACAD
1000
MTEXTBEGIN
1070
    73
1070
     1
1070
    44
1040
1.0
1070
    74
1070
     0
1000
MTEXTEND
  0
POINT
  5
8453
330
8449
100
AcDbEntity
  8
DEFPOINTS
 62
     0
100
AcDbPoint
 10
1752.120499998443
 20
2411.192209343381
 30
0.0
  0
POINT
  5
8454
330
8449
100
AcDbEntity
  8
DEFPOINTS
 62
     0
100
AcDbPoint
 10
1752.120499998443
 20
2346.192209343382
 30
0.0
  0
POINT
  5
8455
330
8449
100
AcDbEntity
  8
DEFPOINTS
 62
     0
100
AcDbPoint
 10
1253.447833445447
 20
2346.192209343382
 30
0.0
  0
ENDBLK
  5
844B
330
8449
100
AcDbEntity
  8
0
100
AcDbBlockEnd
  0
BLOCK
  5
8457
330
8456
100
AcDbEntity
  8
0
100
AcDbBlockBegin
  2
*D36
 70
     1
 10
0.0
 20
0.0
 30
0.0
  3
*D36
  1

  0
LINE
  5
8459
330
8456
100
AcDbEntity
  8
3
 62
     0
370
    -2
100
AcDbLine
 10
1255.78624832043
 20
2417.492209343382
 30
0.0
 11
1255.78624832043
 21
2455.742209343382
 31
0.0
  0
LINE
  5
845A
330
8456
100
AcDbEntity
  8
3
 62
     0
370
    -2
100
AcDbLine
 10
1255.78624832043
 20
2509.892209343381
 30
0.0
 11
1255.78624832043
 21
2471.642209343381
 31
0.0
  0
SOLID
  5
845B
330
8456
100
AcDbEntity
  8
3
 62
     0
100
AcDbTrace
 10
1254.73624832043
 20
2417.492209343382
 30
0.0
 11
1256.83624832043
 21
2417.492209343382
 31
0.0
 12
1255.78624832043
 22
2411.192209343381
 32
0.0
 13
1255.78624832043
 23
2411.192209343381
 33
0.0
  0
SOLID
  5
845C
330
8456
100
AcDbEntity
  8
3
 62
     0
100
AcDbTrace
 10
1254.73624832043
 20
2509.892209343381
 30
0.0
 11
1256.83624832043
 21
2509.892209343381
 31
0.0
 12
1255.78624832043
 22
2516.192209343382
 32
0.0
 13
1255.78624832043
 23
2516.192209343382
 33
0.0
  0
MTEXT
  5
845D
330
8456
100
AcDbEntity
  8
3
 62
     0
100
AcDbMText
 10
1255.78624832043
 20
2463.692209343382
 30
0.0
 40
6.299999999999999
 41
0.0
 71
     5
 72
     1
  1
\A1;  (105)
 73
     1
 44
1.0
1001
ACAD
1000
MTEXTBEGIN
1070
    73
1070
     1
1070
    44
1040
1.0
1070
    74
1070
     0
1000
MTEXTEND
  0
POINT
  5
845E
330
8456
100
AcDbEntity
  8
DEFPOINTS
 62
     0
100
AcDbPoint
 10
1752.120499998443
 20
2411.192209343381
 30
0.0
  0
POINT
  5
845F
330
8456
100
AcDbEntity
  8
DEFPOINTS
 62
     0
100
AcDbPoint
 10
1752.120499998443
 20
2516.192209343382
 30
0.0
  0
POINT
  5
8460
330
8456
100
AcDbEntity
  8
DEFPOINTS
 62
     0
100
AcDbPoint
 10
1255.78624832043
 20
2516.192209343382
 30
0.0
  0
ENDBLK
  5
8458
330
8456
100
AcDbEntity
  8
0
100
AcDbBlockEnd
  0
BLOCK
  5
846A
330
8469
100
AcDbEntity
  8
0
100
AcDbBlockBegin
  2
*D37
 70
     1
 10
0.0
 20
0.0
 30
0.0
  3
*D37
  1

  0
LINE
  5
85D2
330
8469
100
AcDbEntity
  8
3
 62
     0
370
    -2
100
AcDbLine
 10
6411.252841307505
 20
3916.192209343382
 30
0.0
 11
6857.987847852221
 21
3916.192209343382
 31
0.0
  0
LINE
  5
85D3
330
8469
100
AcDbEntity
  8
3
 62
     0
370
    -2
100
AcDbLine
 10
6411.252841307504
 20
2796.192209343381
 30
0.0
 11
6857.987847852221
 21
2796.192209343381
 31
0.0
  0
LINE
  5
85D4
330
8469
100
AcDbEntity
  8
3
 62
     0
370
    -2
100
AcDbLine
 10
6822.987847852222
 20
3846.192209343382
 30
0.0
 11
6822.987847852222
 21
2866.192209343381
 31
0.0
  0
INSERT
  5
85D5
330
8469
100
AcDbEntity
  8
3
 62
     0
370
    -2
100
AcDbBlockReference
  2
_OPEN
 10
6822.987847852222
 20
3916.192209343382
 30
0.0
 41
70.0
 42
70.0
 43
70.0
 50
90.0
  0
INSERT
  5
85D6
330
8469
100
AcDbEntity
  8
3
 62
     0
370
    -2
100
AcDbBlockReference
  2
_OPEN
 10
6822.987847852222
 20
2796.192209343381
 30
0.0
 41
70.0
 42
70.0
 43
70.0
 50
270.0
  0
MTEXT
  5
85D7
330
8469
100
AcDbEntity
  8
3
 62
     0
100
AcDbMText
 10
6735.487847852221
 20
3356.192209343382
 30
0.0
 40
105.0
 41
0.0
 71
     5
 72
     1
  1
\A1;\U+03C61120
 11
0.0000000000000001
 21
1.0
 31
0.0
 73
     1
 44
1.0
1001
ACAD
1000
MTEXTBEGIN
1070
    73
1070
     1
1070
    44
1040
1.0
1070
    74
1070
     0
1000
MTEXTEND
  0
POINT
  5
85D8
330
8469
100
AcDbEntity
  8
DEFPOINTS
 62
     0
100
AcDbPoint
 10
6393.752841307505
 20
3916.192209343382
 30
0.0
  0
POINT
  5
85D9
330
8469
100
AcDbEntity
  8
DEFPOINTS
 62
     0
100
AcDbPoint
 10
6393.752841307504
 20
2796.192209343381
 30
0.0
  0
POINT
  5
85DA
330
8469
100
AcDbEntity
  8
DEFPOINTS
 62
     0
100
AcDbPoint
 10
6822.987847852222
 20
2796.192209343381
 30
0.0
  0
ENDBLK
  5
846B
330
8469
100
AcDbEntity
  8
0
100
AcDbBlockEnd
  0
BLOCK
  5
8477
330
8476
100
AcDbEntity
  8
0
100
AcDbBlockBegin
  2
*D38
 70
     1
 10
0.0
 20
0.0
 30
0.0
  3
*D38
  1

  0
LINE
  5
8479
330
8476
100
AcDbEntity
  8
3
 62
     0
370
    -2
100
AcDbLine
 10
4893.752841307505
 20
4571.692209343383
 30
0.0
 11
4893.752841307505
 21
4842.63184839578
 31
0.0
  0
LINE
  5
847A
330
8476
100
AcDbEntity
  8
3
 62
     0
370
    -2
100
AcDbLine
 10
6393.752841307505
 20
4571.692209343383
 30
0.0
 11
6393.752841307505
 21
4842.63184839578
 31
0.0
  0
LINE
  5
847B
330
8476
100
AcDbEntity
  8
3
 62
     0
370
    -2
100
AcDbLine
 10
4963.752841307505
 20
4807.63184839578
 30
0.0
 11
6323.752841307506
 21
4807.63184839578
 31
0.0
  0
INSERT
  5
847C
330
8476
100
AcDbEntity
  8
3
 62
     0
370
    -2
100
AcDbBlockReference
  2
_OPEN
 10
4893.752841307505
 20
4807.63184839578
 30
0.0
 41
70.0
 42
70.0
 43
70.0
 50
180.0
  0
INSERT
  5
847D
330
8476
100
AcDbEntity
  8
3
 62
     0
370
    -2
100
AcDbBlockReference
  2
_OPEN
 10
6393.752841307505
 20
4807.63184839578
 30
0.0
 41
70.0
 42
70.0
 43
70.0
  0
MTEXT
  5
847E
330
8476
100
AcDbEntity
  8
3
 62
     0
100
AcDbMText
 10
5643.752841307505
 20
4895.131848395781
 30
0.0
 40
105.0
 41
0.0
 71
     5
 72
     1
  1
\A1;1500
 73
     1
 44
1.0
1001
ACAD
1000
MTEXTBEGIN
1070
    73
1070
     1
1070
    44
1040
1.0
1070
    74
1070
     0
1000
MTEXTEND
  0
POINT
  5
847F
330
8476
100
AcDbEntity
  8
DEFPOINTS
 62
     0
100
AcDbPoint
 10
4893.752841307505
 20
4554.192209343383
 30
0.0
  0
POINT
  5
8480
330
8476
100
AcDbEntity
  8
DEFPOINTS
 62
     0
100
AcDbPoint
 10
6393.752841307505
 20
4554.192209343383
 30
0.0
  0
POINT
  5
8481
330
8476
100
AcDbEntity
  8
DEFPOINTS
 62
     0
100
AcDbPoint
 10
6393.752841307505
 20
4807.63184839578
 30
0.0
  0
ENDBLK
  5
8478
330
8476
100
AcDbEntity
  8
0
100
AcDbBlockEnd
  0
BLOCK
  5
8484
330
8483
100
AcDbEntity
  8
0
100
AcDbBlockBegin
  2
*D39
 70
     1
 10
0.0
 20
0.0
 30
0.0
  3
*D39
  1

  0
LINE
  5
85AE
330
8483
100
AcDbEntity
  8
3
 62
     0
370
    -2
100
AcDbLine
 10
4523.752841307505
 20
3753.692209343382
 30
0.0
 11
4523.752841307505
 21
5068.020556852206
 31
0.0
  0
LINE
  5
85AF
330
8483
100
AcDbEntity
  8
3
 62
     0
370
    -2
100
AcDbLine
 10
5643.752841307505
 20
4965.13184839578
 30
0.0
 11
5643.752841307505
 21
5068.020556852206
 31
0.0
  0
LINE
  5
85B0
330
8483
100
AcDbEntity
  8
3
 62
     0
370
    -2
100
AcDbLine
 10
4593.752841307504
 20
5033.020556852206
 30
0.0
 11
5573.752841307506
 21
5033.020556852206
 31
0.0
  0
INSERT
  5
85B1
330
8483
100
AcDbEntity
  8
3
 62
     0
370
    -2
100
AcDbBlockReference
  2
_OPEN
 10
4523.752841307505
 20
5033.020556852206
 30
0.0
 41
70.0
 42
70.0
 43
70.0
 50
180.0
  0
INSERT
  5
85B2
330
8483
100
AcDbEntity
  8
3
 62
     0
370
    -2
100
AcDbBlockReference
  2
_OPEN
 10
5643.752841307505
 20
5033.020556852206
 30
0.0
 41
70.0
 42
70.0
 43
70.0
  0
MTEXT
  5
85B3
330
8483
100
AcDbEntity
  8
3
 62
     0
100
AcDbMText
 10
5083.752841307505
 20
5148.020556852205
 30
0.0
 40
105.0
 41
0.0
 71
     5
 72
     1
  1
\A1;(1120)
 73
     1
 44
1.0
1001
ACAD
1000
MTEXTBEGIN
1070
    73
1070
     1
1070
    44
1040
1.0
1070
    74
1070
     0
1000
MTEXTEND
  0
POINT
  5
85B4
330
8483
100
AcDbEntity
  8
DEFPOINTS
 62
     0
100
AcDbPoint
 10
4523.752841307505
 20
3736.192209343381
 30
0.0
  0
POINT
  5
85B5
330
8483
100
AcDbEntity
  8
DEFPOINTS
 62
     0
100
AcDbPoint
 10
5643.752841307505
 20
4947.63184839578
 30
0.0
  0
POINT
  5
85B6
330
8483
100
AcDbEntity
  8
DEFPOINTS
 62
     0
100
AcDbPoint
 10
5643.752841307505
 20
5033.020556852206
 30
0.0
  0
ENDBLK
  5
8485
330
8483
100
AcDbEntity
  8
0
100
AcDbBlockEnd
  0
BLOCK
  5
8491
330
8490
100
AcDbEntity
  8
0
100
AcDbBlockBegin
  2
*D40
 70
     1
 10
0.0
 20
0.0
 30
0.0
  3
*D40
  1

  0
LINE
  5
85C0
330
8490
100
AcDbEntity
  8
3
 62
     0
370
    -2
100
AcDbLine
 10
5643.752841307505
 20
4965.13184839578
 30
0.0
 11
5643.752841307505
 21
5068.020556852206
 31
0.0
  0
LINE
  5
85C1
330
8490
100
AcDbEntity
  8
3
 62
     0
370
    -2
100
AcDbLine
 10
6573.752841307504
 20
3300.692209343381
 30
0.0
 11
6573.752841307504
 21
5068.020556852206
 31
0.0
  0
LINE
  5
85C2
330
8490
100
AcDbEntity
  8
3
 62
     0
370
    -2
100
AcDbLine
 10
5713.752841307505
 20
5033.020556852206
 30
0.0
 11
6503.752841307504
 21
5033.020556852206
 31
0.0
  0
INSERT
  5
85C3
330
8490
100
AcDbEntity
  8
3
 62
     0
370
    -2
100
AcDbBlockReference
  2
_OPEN
 10
5643.752841307505
 20
5033.020556852206
 30
0.0
 41
70.0
 42
70.0
 43
70.0
 50
180.0
  0
INSERT
  5
85C4
330
8490
100
AcDbEntity
  8
3
 62
     0
370
    -2
100
AcDbBlockReference
  2
_OPEN
 10
6573.752841307504
 20
5033.020556852206
 30
0.0
 41
70.0
 42
70.0
 43
70.0
  0
MTEXT
  5
85C5
330
8490
100
AcDbEntity
  8
3
 62
     0
100
AcDbMText
 10
6108.752841307504
 20
5148.020556852205
 30
0.0
 40
105.0
 41
0.0
 71
     5
 72
     1
  1
\A1;(930)
 73
     1
 44
1.0
1001
ACAD
1000
MTEXTBEGIN
1070
    73
1070
     1
1070
    44
1040
1.0
1070
    74
1070
     0
1000
MTEXTEND
  0
POINT
  5
85C6
330
8490
100
AcDbEntity
  8
DEFPOINTS
 62
     0
100
AcDbPoint
 10
5643.752841307505
 20
4947.63184839578
 30
0.0
  0
POINT
  5
85C7
330
8490
100
AcDbEntity
  8
DEFPOINTS
 62
     0
100
AcDbPoint
 10
6573.752841307504
 20
3283.192209343382
 30
0.0
  0
POINT
  5
85C8
330
8490
100
AcDbEntity
  8
DEFPOINTS
 62
     0
100
AcDbPoint
 10
6573.752841307504
 20
5033.020556852206
 30
0.0
  0
ENDBLK
  5
8492
330
8490
100
AcDbEntity
  8
0
100
AcDbBlockEnd
  0
BLOCK
  5
849E
330
849D
100
AcDbEntity
  8
0
100
AcDbBlockBegin
  2
*D41
 70
     1
 10
0.0
 20
0.0
 30
0.0
  3
*D41
  1

  0
LINE
  5
84A0
330
849D
100
AcDbEntity
  8
3
 62
     0
370
    -2
100
AcDbLine
 10
4561.752841307494
 20
2328.692209343381
 30
0.0
 11
4561.752841307494
 21
2077.602334691993
 31
0.0
  0
LINE
  5
84A1
330
849D
100
AcDbEntity
  8
3
 62
     0
370
    -2
100
AcDbLine
 10
5643.752841307503
 20
2328.692209343381
 30
0.0
 11
5643.752841307503
 21
2077.602334691993
 31
0.0
  0
LINE
  5
84A2
330
849D
100
AcDbEntity
  8
3
 62
     0
370
    -2
100
AcDbLine
 10
4631.752841307494
 20
2112.602334691993
 30
0.0
 11
5573.752841307503
 21
2112.602334691993
 31
0.0
  0
INSERT
  5
84A3
330
849D
100
AcDbEntity
  8
3
 62
     0
370
    -2
100
AcDbBlockReference
  2
_OPEN
 10
4561.752841307494
 20
2112.602334691993
 30
0.0
 41
70.0
 42
70.0
 43
70.0
 50
180.0
  0
INSERT
  5
84A4
330
849D
100
AcDbEntity
  8
3
 62
     0
370
    -2
100
AcDbBlockReference
  2
_OPEN
 10
5643.752841307503
 20
2112.602334691993
 30
0.0
 41
70.0
 42
70.0
 43
70.0
  0
MTEXT
  5
84A5
330
849D
100
AcDbEntity
  8
3
 62
     0
100
AcDbMText
 10
5102.752841307498
 20
2200.102334691993
 30
0.0
 40
105.0
 41
0.0
 71
     5
 72
     1
  1
\A1;1082
 73
     1
 44
1.0
1001
ACAD
1000
MTEXTBEGIN
1070
    73
1070
     1
1070
    44
1040
1.0
1070
    74
1070
     0
1000
MTEXTEND
  0
POINT
  5
84A6
330
849D
100
AcDbEntity
  8
DEFPOINTS
 62
     0
100
AcDbPoint
 10
4561.752841307494
 20
2346.192209343382
 30
0.0
  0
POINT
  5
84A7
330
849D
100
AcDbEntity
  8
DEFPOINTS
 62
     0
100
AcDbPoint
 10
5643.752841307503
 20
2346.192209343382
 30
0.0
  0
POINT
  5
84A8
330
849D
100
AcDbEntity
  8
DEFPOINTS
 62
     0
100
AcDbPoint
 10
5643.752841307503
 20
2112.602334691993
 30
0.0
  0
ENDBLK
  5
849F
330
849D
100
AcDbEntity
  8
0
100
AcDbBlockEnd
  0
BLOCK
  5
84AB
330
84AA
100
AcDbEntity
  8
0
100
AcDbBlockBegin
  2
*D42
 70
     1
 10
0.0
 20
0.0
 30
0.0
  3
*D42
  1

  0
LINE
  5
84AD
330
84AA
100
AcDbEntity
  8
3
 62
     0
370
    -2
100
AcDbLine
 10
5643.752841307503
 20
2328.692209343381
 30
0.0
 11
5643.752841307503
 21
2077.602334691993
 31
0.0
  0
LINE
  5
84AE
330
84AA
100
AcDbEntity
  8
3
 62
     0
370
    -2
100
AcDbLine
 10
6461.752841307485
 20
2328.692209343381
 30
0.0
 11
6461.752841307485
 21
2077.602334691993
 31
0.0
  0
LINE
  5
84AF
330
84AA
100
AcDbEntity
  8
3
 62
     0
370
    -2
100
AcDbLine
 10
5713.752841307503
 20
2112.602334691993
 30
0.0
 11
6391.752841307486
 21
2112.602334691993
 31
0.0
  0
INSERT
  5
84B0
330
84AA
100
AcDbEntity
  8
3
 62
     0
370
    -2
100
AcDbBlockReference
  2
_OPEN
 10
5643.752841307503
 20
2112.602334691993
 30
0.0
 41
70.0
 42
70.0
 43
70.0
 50
180.0
  0
INSERT
  5
84B1
330
84AA
100
AcDbEntity
  8
3
 62
     0
370
    -2
100
AcDbBlockReference
  2
_OPEN
 10
6461.752841307485
 20
2112.602334691993
 30
0.0
 41
70.0
 42
70.0
 43
70.0
  0
MTEXT
  5
84B2
330
84AA
100
AcDbEntity
  8
3
 62
     0
100
AcDbMText
 10
6052.752841307494
 20
2200.102334691993
 30
0.0
 40
105.0
 41
0.0
 71
     5
 72
     1
  1
\A1;818
 73
     1
 44
1.0
1001
ACAD
1000
MTEXTBEGIN
1070
    73
1070
     1
1070
    44
1040
1.0
1070
    74
1070
     0
1000
MTEXTEND
  0
POINT
  5
84B3
330
84AA
100
AcDbEntity
  8
DEFPOINTS
 62
     0
100
AcDbPoint
 10
5643.752841307503
 20
2346.192209343382
 30
0.0
  0
POINT
  5
84B4
330
84AA
100
AcDbEntity
  8
DEFPOINTS
 62
     0
100
AcDbPoint
 10
6461.752841307485
 20
2346.192209343382
 30
0.0
  0
POINT
  5
84B5
330
84AA
100
AcDbEntity
  8
DEFPOINTS
 62
     0
100
AcDbPoint
 10
6461.752841307485
 20
2112.602334691993
 30
0.0
  0
ENDBLK
  5
84AC
330
84AA
100
AcDbEntity
  8
0
100
AcDbBlockEnd
  0
BLOCK
  5
84B8
330
84B7
100
AcDbEntity
  8
0
100
AcDbBlockBegin
  2
*D43
 70
     1
 10
0.0
 20
0.0
 30
0.0
  3
*D43
  1

  0
LINE
  5
84BA
330
84B7
100
AcDbEntity
  8
3
 62
     0
370
    -2
100
AcDbLine
 10
1734.620499998442
 20
5678.59130002472
 30
0.0
 11
1318.34824502739
 21
5678.59130002472
 31
0.0
  0
LINE
  5
84BB
330
84B7
100
AcDbEntity
  8
3
 62
     0
370
    -2
100
AcDbLine
 10
1734.620499998442
 20
7578.59130002472
 30
0.0
 11
1318.34824502739
 21
7578.59130002472
 31
0.0
  0
LINE
  5
84BC
330
84B7
100
AcDbEntity
  8
3
 62
     0
370
    -2
100
AcDbLine
 10
1353.34824502739
 20
5748.59130002472
 30
0.0
 11
1353.348245027391
 21
7508.59130002472
 31
0.0
  0
INSERT
  5
84BD
330
84B7
100
AcDbEntity
  8
3
 62
     0
370
    -2
100
AcDbBlockReference
  2
_OPEN
 10
1353.34824502739
 20
5678.59130002472
 30
0.0
 41
70.0
 42
70.0
 43
70.0
 50
270.0
  0
INSERT
  5
84BE
330
84B7
100
AcDbEntity
  8
3
 62
     0
370
    -2
100
AcDbBlockReference
  2
_OPEN
 10
1353.348245027391
 20
7578.59130002472
 30
0.0
 41
70.0
 42
70.0
 43
70.0
 50
90.0
  0
MTEXT
  5
84BF
330
84B7
100
AcDbEntity
  8
3
 62
     0
100
AcDbMText
 10
1265.848245027389
 20
6628.59130002472
 30
0.0
 40
105.0
 41
0.0
 71
     5
 72
     1
  1
\A1;1900
 11
0.0000000000000001
 21
1.0
 31
0.0
 73
     1
 44
1.0
1001
ACAD
1000
MTEXTBEGIN
1070
    73
1070
     1
1070
    44
1040
1.0
1070
    74
1070
     0
1000
MTEXTEND
  0
POINT
  5
84C0
330
84B7
100
AcDbEntity
  8
DEFPOINTS
 62
     0
100
AcDbPoint
 10
1752.120499998443
 20
5678.59130002472
 30
0.0
  0
POINT
  5
84C1
330
84B7
100
AcDbEntity
  8
DEFPOINTS
 62
     0
100
AcDbPoint
 10
1752.120499998443
 20
7578.59130002472
 30
0.0
  0
POINT
  5
84C2
330
84B7
100
AcDbEntity
  8
DEFPOINTS
 62
     0
100
AcDbPoint
 10
1353.348245027391
 20
7578.59130002472
 30
0.0
  0
ENDBLK
  5
84B9
330
84B7
100
AcDbEntity
  8
0
100
AcDbBlockEnd
  0
BLOCK
  5
84C5
330
84C4
100
AcDbEntity
  8
0
100
AcDbBlockBegin
  2
*D44
 70
     1
 10
0.0
 20
0.0
 30
0.0
  3
*D44
  1

  0
LINE
  5
84C7
330
84C4
100
AcDbEntity
  8
3
 62
     0
370
    -2
100
AcDbLine
 10
1752.120499998443
 20
7596.09130002472
 30
0.0
 11
1752.120499998443
 21
7787.59866049584
 31
0.0
  0
LINE
  5
84C8
330
84C4
100
AcDbEntity
  8
3
 62
     0
370
    -2
100
AcDbLine
 10
3072.120499998444
 20
7596.09130002472
 30
0.0
 11
3072.120499998444
 21
7787.59866049584
 31
0.0
  0
LINE
  5
84C9
330
84C4
100
AcDbEntity
  8
3
 62
     0
370
    -2
100
AcDbLine
 10
1822.120499998442
 20
7752.598660495841
 30
0.0
 11
3002.120499998444
 21
7752.598660495841
 31
0.0
  0
INSERT
  5
84CA
330
84C4
100
AcDbEntity
  8
3
 62
     0
370
    -2
100
AcDbBlockReference
  2
_OPEN
 10
1752.120499998443
 20
7752.598660495841
 30
0.0
 41
70.0
 42
70.0
 43
70.0
 50
180.0
  0
INSERT
  5
84CB
330
84C4
100
AcDbEntity
  8
3
 62
     0
370
    -2
100
AcDbBlockReference
  2
_OPEN
 10
3072.120499998444
 20
7752.598660495841
 30
0.0
 41
70.0
 42
70.0
 43
70.0
  0
MTEXT
  5
84CC
330
84C4
100
AcDbEntity
  8
3
 62
     0
100
AcDbMText
 10
2412.120499998444
 20
7840.09866049584
 30
0.0
 40
105.0
 41
0.0
 71
     5
 72
     1
  1
\A1;1320
 73
     1
 44
1.0
1001
ACAD
1000
MTEXTBEGIN
1070
    73
1070
     1
1070
    44
1040
1.0
1070
    74
1070
     0
1000
MTEXTEND
  0
POINT
  5
84CD
330
84C4
100
AcDbEntity
  8
DEFPOINTS
 62
     0
100
AcDbPoint
 10
1752.120499998443
 20
7578.59130002472
 30
0.0
  0
POINT
  5
84CE
330
84C4
100
AcDbEntity
  8
DEFPOINTS
 62
     0
100
AcDbPoint
 10
3072.120499998444
 20
7578.59130002472
 30
0.0
  0
POINT
  5
84CF
330
84C4
100
AcDbEntity
  8
DEFPOINTS
 62
     0
100
AcDbPoint
 10
3072.120499998444
 20
7752.598660495841
 30
0.0
  0
ENDBLK
  5
84C6
330
84C4
100
AcDbEntity
  8
0
100
AcDbBlockEnd
  0
BLOCK
  5
84D2
330
84D1
100
AcDbEntity
  8
0
100
AcDbBlockBegin
  2
*D45
 70
     1
 10
0.0
 20
0.0
 30
0.0
  3
*D45
  1

  0
LINE
  5
84D4
330
84D1
100
AcDbEntity
  8
3
 62
     0
370
    -2
100
AcDbLine
 10
3072.120499998444
 20
7596.09130002472
 30
0.0
 11
3072.120499998444
 21
7787.59866049584
 31
0.0
  0
LINE
  5
84D5
330
84D1
100
AcDbEntity
  8
3
 62
     0
370
    -2
100
AcDbLine
 10
4012.120499998444
 20
6596.09130002472
 30
0.0
 11
4012.120499998444
 21
7787.59866049584
 31
0.0
  0
LINE
  5
84D6
330
84D1
100
AcDbEntity
  8
3
 62
     0
370
    -2
100
AcDbLine
 10
3142.120499998445
 20
7752.598660495841
 30
0.0
 11
3942.120499998445
 21
7752.598660495841
 31
0.0
  0
INSERT
  5
84D7
330
84D1
100
AcDbEntity
  8
3
 62
     0
370
    -2
100
AcDbBlockReference
  2
_OPEN
 10
3072.120499998444
 20
7752.598660495841
 30
0.0
 41
70.0
 42
70.0
 43
70.0
 50
180.0
  0
INSERT
  5
84D8
330
84D1
100
AcDbEntity
  8
3
 62
     0
370
    -2
100
AcDbBlockReference
  2
_OPEN
 10
4012.120499998444
 20
7752.598660495841
 30
0.0
 41
70.0
 42
70.0
 43
70.0
  0
MTEXT
  5
84D9
330
84D1
100
AcDbEntity
  8
3
 62
     0
100
AcDbMText
 10
3542.120499998445
 20
7840.09866049584
 30
0.0
 40
105.0
 41
0.0
 71
     5
 72
     1
  1
\A1;940
 73
     1
 44
1.0
1001
ACAD
1000
MTEXTBEGIN
1070
    73
1070
     1
1070
    44
1040
1.0
1070
    74
1070
     0
1000
MTEXTEND
  0
POINT
  5
84DA
330
84D1
100
AcDbEntity
  8
DEFPOINTS
 62
     0
100
AcDbPoint
 10
3072.120499998444
 20
7578.59130002472
 30
0.0
  0
POINT
  5
84DB
330
84D1
100
AcDbEntity
  8
DEFPOINTS
 62
     0
100
AcDbPoint
 10
4012.120499998444
 20
6578.59130002472
 30
0.0
  0
POINT
  5
84DC
330
84D1
100
AcDbEntity
  8
DEFPOINTS
 62
     0
100
AcDbPoint
 10
4012.120499998444
 20
7752.598660495841
 30
0.0
  0
ENDBLK
  5
84D3
330
84D1
100
AcDbEntity
  8
0
100
AcDbBlockEnd
  0
BLOCK
  5
84DF
330
84DE
100
AcDbEntity
  8
0
100
AcDbBlockBegin
  2
*D46
 70
     1
 10
0.0
 20
0.0
 30
0.0
  3
*D46
  1

  0
LINE
  5
84E1
330
84DE
100
AcDbEntity
  8
3
 62
     0
370
    -2
100
AcDbLine
 10
4029.620499998444
 20
6578.59130002472
 30
0.0
 11
4447.750909292306
 21
6578.59130002472
 31
0.0
  0
LINE
  5
84E2
330
84DE
100
AcDbEntity
  8
3
 62
     0
370
    -2
100
AcDbLine
 10
4029.620499998444
 20
5678.59130002472
 30
0.0
 11
4447.750909292305
 21
5678.59130002472
 31
0.0
  0
LINE
  5
84E3
330
84DE
100
AcDbEntity
  8
3
 62
     0
370
    -2
100
AcDbLine
 10
4412.750909292306
 20
6508.59130002472
 30
0.0
 11
4412.750909292305
 21
5748.59130002472
 31
0.0
  0
INSERT
  5
84E4
330
84DE
100
AcDbEntity
  8
3
 62
     0
370
    -2
100
AcDbBlockReference
  2
_OPEN
 10
4412.750909292306
 20
6578.59130002472
 30
0.0
 41
70.0
 42
70.0
 43
70.0
 50
90.0
  0
INSERT
  5
84E5
330
84DE
100
AcDbEntity
  8
3
 62
     0
370
    -2
100
AcDbBlockReference
  2
_OPEN
 10
4412.750909292305
 20
5678.59130002472
 30
0.0
 41
70.0
 42
70.0
 43
70.0
 50
270.0
  0
MTEXT
  5
84E6
330
84DE
100
AcDbEntity
  8
3
 62
     0
100
AcDbMText
 10
4325.250909292305
 20
6128.591300024721
 30
0.0
 40
105.0
 41
0.0
 71
     5
 72
     1
  1
\A1;900
 11
0.0000000000000001
 21
1.0
 31
0.0
 73
     1
 44
1.0
1001
ACAD
1000
MTEXTBEGIN
1070
    73
1070
     1
1070
    44
1040
1.0
1070
    74
1070
     0
1000
MTEXTEND
  0
POINT
  5
84E7
330
84DE
100
AcDbEntity
  8
DEFPOINTS
 62
     0
100
AcDbPoint
 10
4012.120499998444
 20
6578.59130002472
 30
0.0
  0
POINT
  5
84E8
330
84DE
100
AcDbEntity
  8
DEFPOINTS
 62
     0
100
AcDbPoint
 10
4012.120499998444
 20
5678.59130002472
 30
0.0
  0
POINT
  5
84E9
330
84DE
100
AcDbEntity
  8
DEFPOINTS
 62
     0
100
AcDbPoint
 10
4412.750909292305
 20
5678.59130002472
 30
0.0
  0
ENDBLK
  5
84E0
330
84DE
100
AcDbEntity
  8
0
100
AcDbBlockEnd
  0
BLOCK
  5
84EC
330
84EB
100
AcDbEntity
  8
0
100
AcDbBlockBegin
  2
*D47
 70
     1
 10
0.0
 20
0.0
 30
0.0
  3
*D47
  1

  0
LINE
  5
84EE
330
84EB
100
AcDbEntity
  8
3
 62
     0
370
    -2
100
AcDbLine
 10
4012.120499998444
 20
5661.091300024719
 30
0.0
 11
4012.120499998444
 21
5352.346107930773
 31
0.0
  0
LINE
  5
84EF
330
84EB
100
AcDbEntity
  8
3
 62
     0
370
    -2
100
AcDbLine
 10
1752.120499998443
 20
5661.09130002472
 30
0.0
 11
1752.120499998443
 21
5352.346107930773
 31
0.0
  0
LINE
  5
84F0
330
84EB
100
AcDbEntity
  8
3
 62
     0
370
    -2
100
AcDbLine
 10
3942.120499998445
 20
5387.346107930773
 30
0.0
 11
1822.120499998442
 21
5387.346107930773
 31
0.0
  0
INSERT
  5
84F1
330
84EB
100
AcDbEntity
  8
3
 62
     0
370
    -2
100
AcDbBlockReference
  2
_OPEN
 10
4012.120499998444
 20
5387.346107930773
 30
0.0
 41
70.0
 42
70.0
 43
70.0
  0
INSERT
  5
84F2
330
84EB
100
AcDbEntity
  8
3
 62
     0
370
    -2
100
AcDbBlockReference
  2
_OPEN
 10
1752.120499998443
 20
5387.346107930773
 30
0.0
 41
70.0
 42
70.0
 43
70.0
 50
180.0
  0
MTEXT
  5
84F3
330
84EB
100
AcDbEntity
  8
3
 62
     0
100
AcDbMText
 10
2882.120499998443
 20
5474.846107930773
 30
0.0
 40
105.0
 41
0.0
 71
     5
 72
     1
  1
\A1;2260
 73
     1
 44
1.0
1001
ACAD
1000
MTEXTBEGIN
1070
    73
1070
     1
1070
    44
1040
1.0
1070
    74
1070
     0
1000
MTEXTEND
  0
POINT
  5
84F4
330
84EB
100
AcDbEntity
  8
DEFPOINTS
 62
     0
100
AcDbPoint
 10
4012.120499998444
 20
5678.591300024719
 30
0.0
  0
POINT
  5
84F5
330
84EB
100
AcDbEntity
  8
DEFPOINTS
 62
     0
100
AcDbPoint
 10
1752.120499998443
 20
5678.59130002472
 30
0.0
  0
POINT
  5
84F6
330
84EB
100
AcDbEntity
  8
DEFPOINTS
 62
     0
100
AcDbPoint
 10
1752.120499998443
 20
5387.346107930773
 30
0.0
  0
ENDBLK
  5
84ED
330
84EB
100
AcDbEntity
  8
0
100
AcDbBlockEnd
  0
BLOCK
  5
84F9
330
84F8
100
AcDbEntity
  8
0
100
AcDbBlockBegin
  2
*D48
 70
     1
 10
0.0
 20
0.0
 30
0.0
  3
*D48
  1

  0
LINE
  5
84FB
330
84F8
100
AcDbEntity
  8
3
 62
     0
370
    -2
100
AcDbLine
 10
1752.120499998443
 20
2328.692209343381
 30
0.0
 11
1752.120499998443
 21
2078.652334691993
 31
0.0
  0
LINE
  5
84FC
330
84F8
100
AcDbEntity
  8
3
 62
     0
370
    -2
100
AcDbLine
 10
2412.120499998443
 20
2328.692209343381
 30
0.0
 11
2412.120499998443
 21
2078.652334691993
 31
0.0
  0
LINE
  5
84FD
330
84F8
100
AcDbEntity
  8
3
 62
     0
370
    -2
100
AcDbLine
 10
1822.120499998442
 20
2113.652334691993
 30
0.0
 11
2342.120499998443
 21
2113.652334691993
 31
0.0
  0
INSERT
  5
84FE
330
84F8
100
AcDbEntity
  8
3
 62
     0
370
    -2
100
AcDbBlockReference
  2
_OPEN
 10
1752.120499998443
 20
2113.652334691993
 30
0.0
 41
70.0
 42
70.0
 43
70.0
 50
180.0
  0
INSERT
  5
84FF
330
84F8
100
AcDbEntity
  8
3
 62
     0
370
    -2
100
AcDbBlockReference
  2
_OPEN
 10
2412.120499998443
 20
2113.652334691993
 30
0.0
 41
70.0
 42
70.0
 43
70.0
  0
MTEXT
  5
8500
330
84F8
100
AcDbEntity
  8
3
 62
     0
100
AcDbMText
 10
2082.120499998443
 20
2201.152334691993
 30
0.0
 40
105.0
 41
0.0
 71
     5
 72
     1
  1
\A1;660
 73
     1
 44
1.0
1001
ACAD
1000
MTEXTBEGIN
1070
    73
1070
     1
1070
    44
1040
1.0
1070
    74
1070
     0
1000
MTEXTEND
  0
POINT
  5
8501
330
84F8
100
AcDbEntity
  8
DEFPOINTS
 62
     0
100
AcDbPoint
 10
1752.120499998443
 20
2346.192209343382
 30
0.0
  0
POINT
  5
8502
330
84F8
100
AcDbEntity
  8
DEFPOINTS
 62
     0
100
AcDbPoint
 10
2412.120499998443
 20
2346.192209343382
 30
0.0
  0
POINT
  5
8503
330
84F8
100
AcDbEntity
  8
DEFPOINTS
 62
     0
100
AcDbPoint
 10
2412.120499998443
 20
2113.652334691993
 30
0.0
  0
ENDBLK
  5
84FA
330
84F8
100
AcDbEntity
  8
0
100
AcDbBlockEnd
  0
BLOCK
  5
8506
330
8505
100
AcDbEntity
  8
0
100
AcDbBlockBegin
  2
*D49
 70
     1
 10
0.0
 20
0.0
 30
0.0
  3
*D49
  1

  0
LINE
  5
8508
330
8505
100
AcDbEntity
  8
3
 62
     0
370
    -2
100
AcDbLine
 10
2412.120499998443
 20
2328.692209343381
 30
0.0
 11
2412.120499998443
 21
2078.652334691993
 31
0.0
  0
LINE
  5
8509
330
8505
100
AcDbEntity
  8
3
 62
     0
370
    -2
100
AcDbLine
 10
4012.120499998443
 20
2328.692209343381
 30
0.0
 11
4012.120499998443
 21
2078.652334691993
 31
0.0
  0
LINE
  5
850A
330
8505
100
AcDbEntity
  8
3
 62
     0
370
    -2
100
AcDbLine
 10
2482.120499998443
 20
2113.652334691993
 30
0.0
 11
3942.120499998443
 21
2113.652334691993
 31
0.0
  0
INSERT
  5
850B
330
8505
100
AcDbEntity
  8
3
 62
     0
370
    -2
100
AcDbBlockReference
  2
_OPEN
 10
2412.120499998443
 20
2113.652334691993
 30
0.0
 41
70.0
 42
70.0
 43
70.0
 50
180.0
  0
INSERT
  5
850C
330
8505
100
AcDbEntity
  8
3
 62
     0
370
    -2
100
AcDbBlockReference
  2
_OPEN
 10
4012.120499998443
 20
2113.652334691993
 30
0.0
 41
70.0
 42
70.0
 43
70.0
  0
MTEXT
  5
850D
330
8505
100
AcDbEntity
  8
3
 62
     0
100
AcDbMText
 10
3212.120499998443
 20
2201.152334691993
 30
0.0
 40
105.0
 41
0.0
 71
     5
 72
     1
  1
\A1;1600
 73
     1
 44
1.0
1001
ACAD
1000
MTEXTBEGIN
1070
    73
1070
     1
1070
    44
1040
1.0
1070
    74
1070
     0
1000
MTEXTEND
  0
POINT
  5
850E
330
8505
100
AcDbEntity
  8
DEFPOINTS
 62
     0
100
AcDbPoint
 10
2412.120499998443
 20
2346.192209343382
 30
0.0
  0
POINT
  5
850F
330
8505
100
AcDbEntity
  8
DEFPOINTS
 62
     0
100
AcDbPoint
 10
4012.120499998443
 20
2346.192209343382
 30
0.0
  0
POINT
  5
8510
330
8505
100
AcDbEntity
  8
DEFPOINTS
 62
     0
100
AcDbPoint
 10
4012.120499998443
 20
2113.652334691993
 30
0.0
  0
ENDBLK
  5
8507
330
8505
100
AcDbEntity
  8
0
100
AcDbBlockEnd
  0
BLOCK
  5
8513
330
8512
100
AcDbEntity
  8
0
100
AcDbBlockBegin
  2
*D50
 70
     1
 10
0.0
 20
0.0
 30
0.0
  3
*D50
  1

  0
LINE
  5
8515
330
8512
100
AcDbEntity
  8
3
 62
     0
370
    -2
100
AcDbLine
 10
1652.120499998442
 20
4624.692209343383
 30
0.0
 11
1652.120499998442
 21
4845.52559626984
 31
0.0
  0
LINE
  5
8516
330
8512
100
AcDbEntity
  8
3
 62
     0
370
    -2
100
AcDbLine
 10
2412.120499998444
 20
4780.874535509211
 30
0.0
 11
2412.120499998444
 21
4845.52559626984
 31
0.0
  0
LINE
  5
8517
330
8512
100
AcDbEntity
  8
3
 62
     0
370
    -2
100
AcDbLine
 10
1722.120499998442
 20
4810.525596269839
 30
0.0
 11
2342.120499998444
 21
4810.525596269839
 31
0.0
  0
INSERT
  5
8518
330
8512
100
AcDbEntity
  8
3
 62
     0
370
    -2
100
AcDbBlockReference
  2
_OPEN
 10
1652.120499998442
 20
4810.525596269839
 30
0.0
 41
70.0
 42
70.0
 43
70.0
 50
180.0
  0
INSERT
  5
8519
330
8512
100
AcDbEntity
  8
3
 62
     0
370
    -2
100
AcDbBlockReference
  2
_OPEN
 10
2412.120499998444
 20
4810.525596269839
 30
0.0
 41
70.0
 42
70.0
 43
70.0
  0
MTEXT
  5
851A
330
8512
100
AcDbEntity
  8
3
 62
     0
100
AcDbMText
 10
2032.120499998443
 20
4898.025596269839
 30
0.0
 40
105.0
 41
0.0
 71
     5
 72
     1
  1
\A1;760
 73
     1
 44
1.0
1001
ACAD
1000
MTEXTBEGIN
1070
    73
1070
     1
1070
    44
1040
1.0
1070
    74
1070
     0
1000
MTEXTEND
  0
POINT
  5
851B
330
8512
100
AcDbEntity
  8
DEFPOINTS
 62
     0
100
AcDbPoint
 10
1652.120499998442
 20
4607.192209343383
 30
0.0
  0
POINT
  5
851C
330
8512
100
AcDbEntity
  8
DEFPOINTS
 62
     0
100
AcDbPoint
 10
2412.120499998444
 20
4763.37453550921
 30
0.0
  0
POINT
  5
851D
330
8512
100
AcDbEntity
  8
DEFPOINTS
 62
     0
100
AcDbPoint
 10
2412.120499998444
 20
4810.525596269839
 30
0.0
  0
ENDBLK
  5
8514
330
8512
100
AcDbEntity
  8
0
100
AcDbBlockEnd
  0
BLOCK
  5
8520
330
851F
100
AcDbEntity
  8
0
100
AcDbBlockBegin
  2
*D51
 70
     1
 10
0.0
 20
0.0
 30
0.0
  3
*D51
  1

  0
LINE
  5
8522
330
851F
100
AcDbEntity
  8
3
 62
     0
370
    -2
100
AcDbLine
 10
2412.120499998444
 20
4780.874535509211
 30
0.0
 11
2412.120499998444
 21
4845.52559626984
 31
0.0
  0
LINE
  5
8523
330
851F
100
AcDbEntity
  8
3
 62
     0
370
    -2
100
AcDbLine
 10
3381.120499998444
 20
3455.692209343381
 30
0.0
 11
3381.120499998444
 21
4845.52559626984
 31
0.0
  0
LINE
  5
8524
330
851F
100
AcDbEntity
  8
3
 62
     0
370
    -2
100
AcDbLine
 10
2482.120499998444
 20
4810.525596269839
 30
0.0
 11
3311.120499998443
 21
4810.525596269839
 31
0.0
  0
INSERT
  5
8525
330
851F
100
AcDbEntity
  8
3
 62
     0
370
    -2
100
AcDbBlockReference
  2
_OPEN
 10
2412.120499998444
 20
4810.525596269839
 30
0.0
 41
70.0
 42
70.0
 43
70.0
 50
180.0
  0
INSERT
  5
8526
330
851F
100
AcDbEntity
  8
3
 62
     0
370
    -2
100
AcDbBlockReference
  2
_OPEN
 10
3381.120499998444
 20
4810.525596269839
 30
0.0
 41
70.0
 42
70.0
 43
70.0
  0
MTEXT
  5
8527
330
851F
100
AcDbEntity
  8
3
 62
     0
100
AcDbMText
 10
2896.620499998443
 20
4898.025596269839
 30
0.0
 40
105.0
 41
0.0
 71
     5
 72
     1
  1
\A1;969
 73
     1
 44
1.0
1001
ACAD
1000
MTEXTBEGIN
1070
    73
1070
     1
1070
    44
1040
1.0
1070
    74
1070
     0
1000
MTEXTEND
  0
POINT
  5
8528
330
851F
100
AcDbEntity
  8
DEFPOINTS
 62
     0
100
AcDbPoint
 10
2412.120499998444
 20
4763.37453550921
 30
0.0
  0
POINT
  5
8529
330
851F
100
AcDbEntity
  8
DEFPOINTS
 62
     0
100
AcDbPoint
 10
3381.120499998444
 20
3438.192209343382
 30
0.0
  0
POINT
  5
852A
330
851F
100
AcDbEntity
  8
DEFPOINTS
 62
     0
100
AcDbPoint
 10
3381.120499998444
 20
4810.525596269839
 30
0.0
  0
ENDBLK
  5
8521
330
851F
100
AcDbEntity
  8
0
100
AcDbBlockEnd
  0
BLOCK
  5
852D
330
852C
100
AcDbEntity
  8
0
100
AcDbBlockBegin
  2
*D52
 70
     1
 10
0.0
 20
0.0
 30
0.0
  3
*D52
  1

  0
LINE
  5
852F
330
852C
100
AcDbEntity
  8
3
 62
     0
370
    -2
100
AcDbLine
 10
1652.120499998442
 20
4624.692209343383
 30
0.0
 11
1652.120499998442
 21
5037.684932965967
 31
0.0
  0
LINE
  5
8530
330
852C
100
AcDbEntity
  8
3
 62
     0
370
    -2
100
AcDbLine
 10
4012.120499998443
 20
2658.692209343382
 30
0.0
 11
4012.120499998443
 21
5037.684932965967
 31
0.0
  0
LINE
  5
8531
330
852C
100
AcDbEntity
  8
3
 62
     0
370
    -2
100
AcDbLine
 10
1722.120499998442
 20
5002.684932965967
 30
0.0
 11
3942.120499998443
 21
5002.684932965967
 31
0.0
  0
INSERT
  5
8532
330
852C
100
AcDbEntity
  8
3
 62
     0
370
    -2
100
AcDbBlockReference
  2
_OPEN
 10
1652.120499998442
 20
5002.684932965967
 30
0.0
 41
70.0
 42
70.0
 43
70.0
 50
180.0
  0
INSERT
  5
8533
330
852C
100
AcDbEntity
  8
3
 62
     0
370
    -2
100
AcDbBlockReference
  2
_OPEN
 10
4012.120499998443
 20
5002.684932965967
 30
0.0
 41
70.0
 42
70.0
 43
70.0
  0
MTEXT
  5
8534
330
852C
100
AcDbEntity
  8
3
 62
     0
100
AcDbMText
 10
2832.120499998443
 20
5090.184932965968
 30
0.0
 40
105.0
 41
0.0
 71
     5
 72
     1
  1
\A1;2360
 73
     1
 44
1.0
1001
ACAD
1000
MTEXTBEGIN
1070
    73
1070
     1
1070
    44
1040
1.0
1070
    74
1070
     0
1000
MTEXTEND
  0
POINT
  5
8535
330
852C
100
AcDbEntity
  8
DEFPOINTS
 62
     0
100
AcDbPoint
 10
1652.120499998442
 20
4607.192209343383
 30
0.0
  0
POINT
  5
8536
330
852C
100
AcDbEntity
  8
DEFPOINTS
 62
     0
100
AcDbPoint
 10
4012.120499998443
 20
2641.192209343382
 30
0.0
  0
POINT
  5
8537
330
852C
100
AcDbEntity
  8
DEFPOINTS
 62
     0
100
AcDbPoint
 10
4012.120499998443
 20
5002.684932965967
 30
0.0
  0
ENDBLK
  5
852E
330
852C
100
AcDbEntity
  8
0
100
AcDbBlockEnd
  0
BLOCK
  5
853A
330
8539
100
AcDbEntity
  8
0
100
AcDbBlockBegin
  2
*D53
 70
     1
 10
0.0
 20
0.0
 30
0.0
  3
*D53
  1

  0
LINE
  5
853C
330
8539
100
AcDbEntity
  8
3
 62
     0
370
    -2
100
AcDbLine
 10
1634.620499998442
 20
4554.192209343383
 30
0.0
 11
1417.012183714177
 21
4554.192209343383
 31
0.0
  0
LINE
  5
853D
330
8539
100
AcDbEntity
  8
3
 62
     0
370
    -2
100
AcDbLine
 10
1634.620499998442
 20
3404.192209343381
 30
0.0
 11
1417.012183714177
 21
3404.192209343381
 31
0.0
  0
LINE
  5
853E
330
8539
100
AcDbEntity
  8
3
 62
     0
370
    -2
100
AcDbLine
 10
1452.012183714177
 20
4484.192209343382
 30
0.0
 11
1452.012183714177
 21
3474.192209343382
 31
0.0
  0
INSERT
  5
853F
330
8539
100
AcDbEntity
  8
3
 62
     0
370
    -2
100
AcDbBlockReference
  2
_OPEN
 10
1452.012183714177
 20
4554.192209343383
 30
0.0
 41
70.0
 42
70.0
 43
70.0
 50
90.0
  0
INSERT
  5
8540
330
8539
100
AcDbEntity
  8
3
 62
     0
370
    -2
100
AcDbBlockReference
  2
_OPEN
 10
1452.012183714177
 20
3404.192209343381
 30
0.0
 41
70.0
 42
70.0
 43
70.0
 50
270.0
  0
MTEXT
  5
8541
330
8539
100
AcDbEntity
  8
3
 62
     0
100
AcDbMText
 10
1364.512183714176
 20
3979.192209343383
 30
0.0
 40
105.0
 41
0.0
 71
     5
 72
     1
  1
\A1;1150
 11
0.0000000000000001
 21
1.0
 31
0.0
 73
     1
 44
1.0
1001
ACAD
1000
MTEXTBEGIN
1070
    73
1070
     1
1070
    44
1040
1.0
1070
    74
1070
     0
1000
MTEXTEND
  0
POINT
  5
8542
330
8539
100
AcDbEntity
  8
DEFPOINTS
 62
     0
100
AcDbPoint
 10
1652.120499998442
 20
4554.192209343383
 30
0.0
  0
POINT
  5
8543
330
8539
100
AcDbEntity
  8
DEFPOINTS
 62
     0
100
AcDbPoint
 10
1652.120499998442
 20
3404.192209343381
 30
0.0
  0
POINT
  5
8544
330
8539
100
AcDbEntity
  8
DEFPOINTS
 62
     0
100
AcDbPoint
 10
1452.012183714177
 20
3404.192209343381
 30
0.0
  0
ENDBLK
  5
853B
330
8539
100
AcDbEntity
  8
0
100
AcDbBlockEnd
  0
BLOCK
  5
8547
330
8546
100
AcDbEntity
  8
0
100
AcDbBlockBegin
  2
*D54
 70
     1
 10
0.0
 20
0.0
 30
0.0
  3
*D54
  1

  0
LINE
  5
8549
330
8546
100
AcDbEntity
  8
3
 62
     0
370
    -2
100
AcDbLine
 10
1634.620499998442
 20
4554.192209343383
 30
0.0
 11
1216.860532852675
 21
4554.192209343383
 31
0.0
  0
LINE
  5
854A
330
8546
100
AcDbEntity
  8
3
 62
     0
370
    -2
100
AcDbLine
 10
1487.839848545467
 20
3356.192209343382
 30
0.0
 11
1216.860532852675
 21
3356.192209343382
 31
0.0
  0
LINE
  5
854B
330
8546
100
AcDbEntity
  8
3
 62
     0
370
    -2
100
AcDbLine
 10
1251.860532852675
 20
4484.192209343382
 30
0.0
 11
1251.860532852675
 21
3426.192209343382
 31
0.0
  0
INSERT
  5
854C
330
8546
100
AcDbEntity
  8
3
 62
     0
370
    -2
100
AcDbBlockReference
  2
_OPEN
 10
1251.860532852675
 20
4554.192209343383
 30
0.0
 41
70.0
 42
70.0
 43
70.0
 50
90.0
  0
INSERT
  5
854D
330
8546
100
AcDbEntity
  8
3
 62
     0
370
    -2
100
AcDbBlockReference
  2
_OPEN
 10
1251.860532852675
 20
3356.192209343382
 30
0.0
 41
70.0
 42
70.0
 43
70.0
 50
270.0
  0
MTEXT
  5
854E
330
8546
100
AcDbEntity
  8
3
 62
     0
100
AcDbMText
 10
1164.360532852675
 20
3955.192209343382
 30
0.0
 40
105.0
 41
0.0
 71
     5
 72
     1
  1
\A1;1198
 11
0.0000000000000001
 21
1.0
 31
0.0
 73
     1
 44
1.0
1001
ACAD
1000
MTEXTBEGIN
1070
    73
1070
     1
1070
    44
1040
1.0
1070
    74
1070
     0
1000
MTEXTEND
  0
POINT
  5
854F
330
8546
100
AcDbEntity
  8
DEFPOINTS
 62
     0
100
AcDbPoint
 10
1652.120499998442
 20
4554.192209343383
 30
0.0
  0
POINT
  5
8550
330
8546
100
AcDbEntity
  8
DEFPOINTS
 62
     0
100
AcDbPoint
 10
1505.339848545467
 20
3356.192209343382
 30
0.0
  0
POINT
  5
8551
330
8546
100
AcDbEntity
  8
DEFPOINTS
 62
     0
100
AcDbPoint
 10
1251.860532852675
 20
3356.192209343382
 30
0.0
  0
ENDBLK
  5
8548
330
8546
100
AcDbEntity
  8
0
100
AcDbBlockEnd
  0
BLOCK
  5
8554
330
8553
100
AcDbEntity
  8
0
100
AcDbBlockBegin
  2
*D55
 70
     1
 10
0.0
 20
0.0
 30
0.0
  3
*D55
  1

  0
LINE
  5
8556
330
8553
100
AcDbEntity
  8
3
 62
     0
370
    -2
100
AcDbLine
 10
1487.839848545467
 20
3356.192209343382
 30
0.0
 11
1216.860532852675
 21
3356.192209343382
 31
0.0
  0
LINE
  5
8557
330
8553
100
AcDbEntity
  8
3
 62
     0
370
    -2
100
AcDbLine
 10
1734.620499998442
 20
2516.192209343382
 30
0.0
 11
1216.860532852675
 21
2516.192209343382
 31
0.0
  0
LINE
  5
8558
330
8553
100
AcDbEntity
  8
3
 62
     0
370
    -2
100
AcDbLine
 10
1251.860532852675
 20
3286.192209343381
 30
0.0
 11
1251.860532852675
 21
2586.192209343382
 31
0.0
  0
INSERT
  5
8559
330
8553
100
AcDbEntity
  8
3
 62
     0
370
    -2
100
AcDbBlockReference
  2
_OPEN
 10
1251.860532852675
 20
3356.192209343382
 30
0.0
 41
70.0
 42
70.0
 43
70.0
 50
90.0
  0
INSERT
  5
855A
330
8553
100
AcDbEntity
  8
3
 62
     0
370
    -2
100
AcDbBlockReference
  2
_OPEN
 10
1251.860532852675
 20
2516.192209343382
 30
0.0
 41
70.0
 42
70.0
 43
70.0
 50
270.0
  0
MTEXT
  5
855B
330
8553
100
AcDbEntity
  8
3
 62
     0
100
AcDbMText
 10
1164.360532852675
 20
2936.192209343382
 30
0.0
 40
105.0
 41
0.0
 71
     5
 72
     1
  1
\A1;840
 11
0.0000000000000001
 21
1.0
 31
0.0
 73
     1
 44
1.0
1001
ACAD
1000
MTEXTBEGIN
1070
    73
1070
     1
1070
    44
1040
1.0
1070
    74
1070
     0
1000
MTEXTEND
  0
POINT
  5
855C
330
8553
100
AcDbEntity
  8
DEFPOINTS
 62
     0
100
AcDbPoint
 10
1505.339848545467
 20
3356.192209343382
 30
0.0
  0
POINT
  5
855D
330
8553
100
AcDbEntity
  8
DEFPOINTS
 62
     0
100
AcDbPoint
 10
1752.120499998443
 20
2516.192209343382
 30
0.0
  0
POINT
  5
855E
330
8553
100
AcDbEntity
  8
DEFPOINTS
 62
     0
100
AcDbPoint
 10
1251.860532852675
 20
2516.192209343382
 30
0.0
  0
ENDBLK
  5
8555
330
8553
100
AcDbEntity
  8
0
100
AcDbBlockEnd
  0
BLOCK
  5
8561
330
8560
100
AcDbEntity
  8
0
100
AcDbBlockBegin
  2
*D56
 70
     1
 10
0.0
 20
0.0
 30
0.0
  3
*D56
  1

  0
LINE
  5
8682
330
8560
100
AcDbEntity
  8
3
 62
     0
370
    -2
100
AcDbLine
 10
1734.620499998442
 20
2516.192209343382
 30
0.0
 11
1216.860532852675
 21
2516.192209343382
 31
0.0
  0
LINE
  5
8683
330
8560
100
AcDbEntity
  8
3
 62
     0
370
    -2
100
AcDbLine
 10
1734.620499998442
 20
2411.192209343381
 30
0.0
 11
1216.860532852675
 21
2411.192209343381
 31
0.0
  0
LINE
  5
8684
330
8560
100
AcDbEntity
  8
3
 62
     0
370
    -2
100
AcDbLine
 10
1251.860532852675
 20
2586.192209343382
 30
0.0
 11
1251.860532852675
 21
2656.192209343382
 31
0.0
  0
LINE
  5
8685
330
8560
100
AcDbEntity
  8
3
 62
     0
370
    -2
100
AcDbLine
 10
1251.860532852675
 20
2411.192209343381
 30
0.0
 11
1251.860532852675
 21
2341.192209343381
 31
0.0
  0
LINE
  5
8686
330
8560
100
AcDbEntity
  8
3
 62
     0
370
    -2
100
AcDbLine
 10
1251.860532852675
 20
2463.692209343382
 30
0.0
 11
1084.360532852675
 21
2513.942209343382
 31
0.0
  0
LINE
  5
8687
330
8560
100
AcDbEntity
  8
3
 62
     0
370
    -2
100
AcDbLine
 10
1084.360532852675
 20
2513.942209343382
 30
0.0
 11
1084.360532852675
 21
2968.942209343382
 31
0.0
  0
MTEXT
  5
8688
330
8560
100
AcDbEntity
  8
3
 62
     0
100
AcDbMText
 10
969.3605328526746
 20
2741.442209343382
 30
0.0
 40
105.0
 41
0.0
 71
     5
 72
     1
  1
\A1;(105)
 11
0.0000000000000001
 21
1.0
 31
0.0
 73
     1
 44
1.0
1001
ACAD
1000
MTEXTBEGIN
1070
    73
1070
     1
1070
    44
1040
1.0
1070
    74
1070
     0
1000
MTEXTEND
  0
LINE
  5
8689
330
8560
100
AcDbEntity
  8
3
 62
     0
370
    -2
100
AcDbLine
 10
1251.860532852675
 20
2516.192209343382
 30
0.0
 11
1251.860532852675
 21
2411.192209343381
 31
0.0
  0
LINE
  5
868A
330
8560
100
AcDbEntity
  8
3
 62
     0
370
    -2
100
AcDbLine
 10
1251.860532852675
 20
2516.192209343382
 30
0.0
 11
1251.860532852675
 21
2411.192209343381
 31
0.0
  0
INSERT
  5
868B
330
8560
100
AcDbEntity
  8
3
 62
     0
370
    -2
100
AcDbBlockReference
  2
_OPEN
 10
1251.860532852675
 20
2516.192209343382
 30
0.0
 41
70.0
 42
70.0
 43
70.0
 50
270.0
  0
INSERT
  5
868C
330
8560
100
AcDbEntity
  8
3
 62
     0
370
    -2
100
AcDbBlockReference
  2
_DotSmall
 10
1251.860532852675
 20
2411.192209343381
 30
0.0
 41
70.0
 42
70.0
 43
70.0
 50
90.0
  0
POINT
  5
868D
330
8560
100
AcDbEntity
  8
DEFPOINTS
 62
     0
100
AcDbPoint
 10
1752.120499998443
 20
2516.192209343382
 30
0.0
  0
POINT
  5
868E
330
8560
100
AcDbEntity
  8
DEFPOINTS
 62
     0
100
AcDbPoint
 10
1752.120499998443
 20
2411.192209343381
 30
0.0
  0
POINT
  5
868F
330
8560
100
AcDbEntity
  8
DEFPOINTS
 62
     0
100
AcDbPoint
 10
1251.860532852675
 20
2411.192209343381
 30
0.0
  0
ENDBLK
  5
8562
330
8560
100
AcDbEntity
  8
0
100
AcDbBlockEnd
  0
BLOCK
  5
8573
330
8572
100
AcDbEntity
  8
0
100
AcDbBlockBegin
  2
*D57
 70
     1
 10
0.0
 20
0.0
 30
0.0
  3
*D57
  1

  0
LINE
  5
86DE
330
8572
100
AcDbEntity
  8
3
 62
     0
370
    -2
100
AcDbLine
 10
1734.620499998442
 20
2411.192209343381
 30
0.0
 11
1216.860532852675
 21
2411.192209343381
 31
0.0
  0
LINE
  5
86DF
330
8572
100
AcDbEntity
  8
3
 62
     0
370
    -2
100
AcDbLine
 10
1734.620499998442
 20
2346.192209343382
 30
0.0
 11
1216.860532852675
 21
2346.192209343382
 31
0.0
  0
LINE
  5
86E0
330
8572
100
AcDbEntity
  8
3
 62
     0
370
    -2
100
AcDbLine
 10
1251.860532852675
 20
2411.192209343381
 30
0.0
 11
1251.860532852675
 21
2481.192209343382
 31
0.0
  0
LINE
  5
86E1
330
8572
100
AcDbEntity
  8
3
 62
     0
370
    -2
100
AcDbLine
 10
1251.860532852675
 20
2276.192209343381
 30
0.0
 11
1251.860532852675
 21
2206.192209343381
 31
0.0
  0
MTEXT
  5
86E2
330
8572
100
AcDbEntity
  8
3
 62
     0
100
AcDbMText
 10
1164.360532852675
 20
2206.192209343381
 30
0.0
 40
105.0
 41
0.0
 71
     5
 72
     1
  1
\A1;65
 11
0.0000000000000001
 21
1.0
 31
0.0
 73
     1
 44
1.0
1001
ACAD
1000
MTEXTBEGIN
1070
    73
1070
     1
1070
    44
1040
1.0
1070
    74
1070
     0
1000
MTEXTEND
  0
LINE
  5
86E3
330
8572
100
AcDbEntity
  8
3
 62
     0
370
    -2
100
AcDbLine
 10
1251.860532852675
 20
2411.192209343381
 30
0.0
 11
1251.860532852675
 21
2346.192209343382
 31
0.0
  0
INSERT
  5
86E4
330
8572
100
AcDbEntity
  8
3
 62
     0
370
    -2
100
AcDbBlockReference
  2
_DotSmall
 10
1251.860532852675
 20
2411.192209343381
 30
0.0
 41
70.0
 42
70.0
 43
70.0
 50
270.0
  0
INSERT
  5
86E5
330
8572
100
AcDbEntity
  8
3
 62
     0
370
    -2
100
AcDbBlockReference
  2
_OPEN
 10
1251.860532852675
 20
2346.192209343382
 30
0.0
 41
70.0
 42
70.0
 43
70.0
 50
90.0
  0
POINT
  5
86E6
330
8572
100
AcDbEntity
  8
DEFPOINTS
 62
     0
100
AcDbPoint
 10
1752.120499998443
 20
2411.192209343381
 30
0.0
  0
POINT
  5
86E7
330
8572
100
AcDbEntity
  8
DEFPOINTS
 62
     0
100
AcDbPoint
 10
1752.120499998443
 20
2346.192209343382
 30
0.0
  0
POINT
  5
86E8
330
8572
100
AcDbEntity
  8
DEFPOINTS
 62
     0
100
AcDbPoint
 10
1251.860532852675
 20
2346.192209343382
 30
0.0
  0
ENDBLK
  5
8574
330
8572
100
AcDbEntity
  8
0
100
AcDbBlockEnd
  0
BLOCK
  5
8585
330
8584
100
AcDbEntity
  8
0
100
AcDbBlockBegin
  2
*D58
 70
     1
 10
0.0
 20
0.0
 30
0.0
  3
*D58
  1

  0
LINE
  5
8614
330
8584
100
AcDbEntity
  8
3
 62
     0
370
    -2
100
AcDbLine
 10
1734.620499998442
 20
2346.192209343382
 30
0.0
 11
807.6665740762834
 21
2346.192209343382
 31
0.0
  0
LINE
  5
8615
330
8584
100
AcDbEntity
  8
3
 62
     0
370
    -2
100
AcDbLine
 10
1634.620499998442
 20
4554.192209343383
 30
0.0
 11
807.6665740762837
 21
4554.192209343383
 31
0.0
  0
LINE
  5
8616
330
8584
100
AcDbEntity
  8
3
 62
     0
370
    -2
100
AcDbLine
 10
842.6665740762834
 20
2416.192209343382
 30
0.0
 11
842.6665740762839
 21
4484.192209343382
 31
0.0
  0
INSERT
  5
8617
330
8584
100
AcDbEntity
  8
3
 62
     0
370
    -2
100
AcDbBlockReference
  2
_OPEN
 10
842.6665740762834
 20
2346.192209343382
 30
0.0
 41
70.0
 42
70.0
 43
70.0
 50
270.0
  0
INSERT
  5
8618
330
8584
100
AcDbEntity
  8
3
 62
     0
370
    -2
100
AcDbBlockReference
  2
_OPEN
 10
842.6665740762839
 20
4554.192209343383
 30
0.0
 41
70.0
 42
70.0
 43
70.0
 50
90.0
  0
MTEXT
  5
8619
330
8584
100
AcDbEntity
  8
3
 62
     0
100
AcDbMText
 10
727.666574076283
 20
3450.192209343383
 30
0.0
 40
105.0
 41
0.0
 71
     5
 72
     1
  1
\A1;(2208)
 11
0.0000000000000001
 21
1.0
 31
0.0
 73
     1
 44
1.0
1001
ACAD
1000
MTEXTBEGIN
1070
    73
1070
     1
1070
    44
1040
1.0
1070
    74
1070
     0
1000
MTEXTEND
  0
POINT
  5
861A
330
8584
100
AcDbEntity
  8
DEFPOINTS
 62
     0
100
AcDbPoint
 10
1752.120499998443
 20
2346.192209343382
 30
0.0
  0
POINT
  5
861B
330
8584
100
AcDbEntity
  8
DEFPOINTS
 62
     0
100
AcDbPoint
 10
1652.120499998442
 20
4554.192209343383
 30
0.0
  0
POINT
  5
861C
330
8584
100
AcDbEntity
  8
DEFPOINTS
 62
     0
100
AcDbPoint
 10
842.6665740762839
 20
4554.192209343383
 30
0.0
  0
ENDBLK
  5
8586
330
8584
100
AcDbEntity
  8
0
100
AcDbBlockEnd
  0
BLOCK
  5
8680
330
867E
100
AcDbEntity
  8
0
100
AcDbBlockBegin
  2
_DotSmall
 70
     0
 10
0.0
 20
0.0
 30
0.0
  3
_DotSmall
  1

  0
LWPOLYLINE
  5
867F
330
867E
100
AcDbEntity
  8
0
  6
ByBlock
 62
     0
100
AcDbPolyline
 90
        2
 70
     1
 43
0.5
 10
-0.0625
 20
0.0
 42
1.0
 10
0.0625
 20
0.0
 42
1.0
  0
ENDBLK
  5
8681
330
867E
100
AcDbEntity
  8
0
100
AcDbBlockEnd
  0
ENDSEC
  0
SECTION
  2
ENTITIES
  0
INSERT
  5
7C16
330
83A6
100
AcDbEntity
  8
0
100
AcDbBlockReference
  2
YA_N
 10
6.0
 20
5.0
 30
0.0
  0
LINE
  5
7C18
330
83A6
100
AcDbEntity
  8
2
100
AcDbLine
 10
1505.339848545467
 20
3356.192209343382
 30
0.0
 11
3478.494841112115
 21
3356.192209343382
 31
0.0
  0
LINE
  5
7C19
330
83A6
100
AcDbEntity
  8
2
100
AcDbLine
 10
2412.120499998443
 20
2346.192209343382
 30
0.0
 11
2412.120499998444
 21
4763.37453550921
 31
0.0
  0
LINE
  5
7C1A
330
83A6
100
AcDbEntity
  8
1
100
AcDbLine
 10
1652.120499998442
 20
3351.192209343382
 30
0.0
 11
1652.120499998442
 21
4607.192209343383
 31
0.0
  0
LINE
  5
7C1B
330
83A6
100
AcDbEntity
  8
1
100
AcDbLine
 10
1652.120499998442
 20
4607.192209343383
 30
0.0
 11
1656.120499998444
 21
4607.192209343383
 31
0.0
  0
LINE
  5
7C1C
330
83A6
100
AcDbEntity
  8
1
100
AcDbLine
 10
1652.120499998442
 20
3351.192209343382
 30
0.0
 11
1656.120499998444
 21
3351.192209343382
 31
0.0
  0
LINE
  5
7C1D
330
83A6
100
AcDbEntity
  8
1
100
AcDbLine
 10
1702.120499998442
 20
3404.192209343381
 30
0.0
 11
1702.120499998444
 21
4549.705121107943
 31
0.0
  0
LINE
  5
7C1E
330
83A6
100
AcDbEntity
  8
1
100
AcDbLine
 10
1656.120499998444
 20
3351.192209343382
 30
0.0
 11
1656.120499998444
 21
4607.192209343383
 31
0.0
  0
LINE
  5
7C1F
330
83A6
100
AcDbEntity
  8
1
100
AcDbLine
 10
1752.120499998443
 20
2516.192209343382
 30
0.0
 11
4012.120499998443
 21
2516.192209343382
 31
0.0
1001
ACAD
1000
ASC_BOUNDS
1002
{
1070
    19
1005
0
1002
}
  0
LINE
  5
7C20
330
83A6
100
AcDbEntity
  8
1
100
AcDbLine
 10
1752.120499998443
 20
2641.192209343382
 30
0.0
 11
1752.120499998443
 21
2516.192209343382
 31
0.0
  0
LINE
  5
7C21
330
83A6
100
AcDbEntity
  8
1
100
AcDbLine
 10
4012.120499998443
 20
2641.192209343382
 30
0.0
 11
4012.120499998443
 21
2516.192209343382
 31
0.0
  0
LINE
  5
7C22
330
83A6
100
AcDbEntity
  8
1
100
AcDbLine
 10
1752.120499998443
 20
2641.192209343382
 30
0.0
 11
4012.120499998443
 21
2641.192209343382
 31
0.0
  0
ARC
  5
7C23
330
83A6
100
AcDbEntity
  8
1
100
AcDbCircle
 10
2330.120499998443
 20
3438.192209343382
 30
0.0
 40
1051.0
100
AcDbArc
 50
355.5251821014662
 51
85.52518210146613
  0
ARC
  5
7C24
330
83A6
100
AcDbEntity
  8
1
100
AcDbCircle
 10
2494.120499998444
 20
3438.192209343382
 30
0.0
 40
887.0
100
AcDbArc
 50
296.0339174734187
 51
354.695634792204
  0
ARC
  5
7C25
330
83A6
100
AcDbEntity
  8
1
100
AcDbCircle
 10
2480.620499998444
 20
3287.692209343382
 30
0.0
 40
736.5
100
AcDbArc
 50
174.6633516786165
 51
241.3781556226641
  0
LINE
  5
7C26
330
83A6
100
AcDbEntity
  8
1
100
AcDbLine
 10
1652.120499998442
 20
4554.192209343383
 30
0.0
 11
2412.120499998444
 21
4485.988468164724
 31
0.0
  0
LINE
  5
7C27
330
83A6
100
AcDbEntity
  8
1
100
AcDbLine
 10
1652.120499998442
 20
3404.192209343381
 30
0.0
 11
1745.847282766954
 21
3404.192209343381
 31
0.0
  0
LINE
  5
7C28
330
83A6
100
AcDbEntity
  8
2
100
AcDbLine
 10
3722.120499998442
 20
3215.050485499328
 30
0.0
 11
3722.120499998442
 21
2346.192209343382
 31
0.0
  0
LINE
  5
7C29
330
83A6
100
AcDbEntity
  8
2
100
AcDbLine
 10
3486.794205139465
 20
2901.192209343382
 30
0.0
 11
3986.285125980703
 21
2901.192209343382
 31
0.0
  0
LINE
  5
7C2A
330
83A6
100
AcDbEntity
  8
1
100
AcDbLine
 10
4561.752841307504
 20
2516.192209343382
 30
0.0
 11
4626.752841307506
 21
2516.192209343382
 31
0.0
1001
ACAD
1000
ASC_BOUNDS
1002
{
1070
    19
1002
}
  0
LINE
  5
7C2B
330
83A6
100
AcDbEntity
  8
1
100
AcDbLine
 10
4561.752841307504
 20
2641.192209343382
 30
0.0
 11
6461.752841307505
 21
2641.192209343382
 31
0.0
  0
LINE
  5
7C2C
330
83A6
100
AcDbEntity
  8
1
100
AcDbLine
 10
4626.752841307506
 20
2516.192209343382
 30
0.0
 11
6461.752841307505
 21
2516.192209343382
 31
0.0
1001
ACAD
1000
ASC_BOUNDS
1002
{
1070
    19
1002
}
  0
LINE
  5
7C2D
330
83A6
100
AcDbEntity
  8
2
100
AcDbLine
 10
4536.576091240408
 20
3356.192209343382
 30
0.0
 11
6568.740828384246
 21
3356.192209343382
 31
0.0
  0
LINE
  5
7C2E
330
83A6
100
AcDbEntity
  8
1
100
AcDbLine
 10
4558.752841307506
 20
3610.192209343381
 30
0.0
 11
4558.752841307506
 21
2808.192209343382
 31
0.0
  0
LINE
  5
7C2F
330
83A6
100
AcDbEntity
  8
1
100
AcDbLine
 10
4669.252841307506
 20
3610.192209343381
 30
0.0
 11
4669.252841307505
 21
2808.192209343382
 31
0.0
  0
LINE
  5
7C30
330
83A6
100
AcDbEntity
  8
2
100
AcDbLine
 10
4537.833902088377
 20
2926.192209343382
 30
0.0
 11
5451.620201213199
 21
2926.192209343382
 31
0.0
  0
LINE
  5
7C31
330
83A6
100
AcDbEntity
  8
1
100
AcDbLine
 10
4523.752841307505
 20
3736.192209343381
 30
0.0
 11
4523.752841307505
 21
2706.192209343381
 31
0.0
  0
LINE
  5
7C32
330
83A6
100
AcDbEntity
  8
1
100
AcDbLine
 10
4721.052841307505
 20
3736.192209343381
 30
0.0
 11
4721.052841307504
 21
3716.192209343382
 31
0.0
  0
LINE
  5
7C33
330
83A6
100
AcDbEntity
  8
2
100
AcDbLine
 10
2412.120499998444
 20
7444.223726659714
 30
0.0
 11
2412.120499998444
 21
5601.645316119574
 31
0.0
  0
LINE
  5
7C34
330
83A6
100
AcDbEntity
  8
2
100
AcDbLine
 10
1538.819164982494
 20
6760.59130002472
 30
0.0
 11
3495.463443351297
 21
6760.59130002472
 31
0.0
  0
LINE
  5
7C35
330
83A6
100
AcDbEntity
  8
2
100
AcDbLine
 10
5643.752841307505
 20
4763.37453550921
 30
0.0
 11
5643.752841307503
 21
2346.192209343382
 31
0.0
  0
POINT
  5
7C36
330
83A6
100
AcDbEntity
  8
1
100
AcDbPoint
 10
1610.918937499824
 20
3356.192209343382
 30
0.0
  0
INSERT
  5
7C37
330
83A6
100
AcDbEntity
  8
0
100
AcDbBlockReference
  2
YA_N
 10
-1074.779326041182
 20
-1311.669320613289
 30
0.0
 41
25.0
 42
25.0
 43
25.0
  0
LINE
  5
7C39
330
83A6
100
AcDbEntity
  8
1
100
AcDbLine
 10
1752.120499998443
 20
2411.192209343381
 30
0.0
 11
4012.120499998443
 21
2411.192209343381
 31
0.0
1001
ACAD
1000
ASC_BOUNDS
1002
{
1070
    19
1005
0
1002
}
  0
LINE
  5
7C3A
330
83A6
100
AcDbEntity
  8
1
100
AcDbLine
 10
1752.120499998443
 20
2411.192209343381
 30
0.0
 11
1752.120499998443
 21
2346.192209343382
 31
0.0
  0
LINE
  5
7C3B
330
83A6
100
AcDbEntity
  8
1
100
AcDbLine
 10
4012.120499998443
 20
2411.192209343381
 30
0.0
 11
4012.120499998443
 21
2346.192209343382
 31
0.0
  0
LINE
  5
7C3C
330
83A6
100
AcDbEntity
  8
1
100
AcDbLine
 10
1752.120499998443
 20
2346.192209343382
 30
0.0
 11
4012.120499998443
 21
2346.192209343382
 31
0.0
1001
ACAD
1000
ASC_BOUNDS
1002
{
1070
    19
1002
}
  0
LINE
  5
7C3D
330
83A6
100
AcDbEntity
  8
1
100
AcDbLine
 10
4564.252841307506
 20
2411.192209343381
 30
0.0
 11
6461.752841307506
 21
2411.192209343381
 31
0.0
1001
ACAD
1000
ASC_BOUNDS
1002
{
1070
    19
1002
}
  0
LINE
  5
7C3E
330
83A6
100
AcDbEntity
  8
1
100
AcDbLine
 10
4561.752841307504
 20
2411.192209343381
 30
0.0
 11
4561.752841307494
 21
2346.192209343382
 31
0.0
  0
LINE
  5
7C3F
330
83A6
100
AcDbEntity
  8
1
100
AcDbLine
 10
4561.752841307494
 20
2346.192209343382
 30
0.0
 11
6461.752841307483
 21
2346.192209343382
 31
0.0
  0
INSERT
  5
7C40
330
83A6
100
AcDbEntity
  8
0
100
AcDbBlockReference
  2
YA_N
 10
-346.9416476423939
 20
-375.8074592043958
 30
0.0
 41
25.0
 42
25.0
 43
25.0
  0
ARC
  5
7C45
330
83A6
100
AcDbEntity
  8
1
100
AcDbCircle
 10
3722.120499998442
 20
2901.192209343382
 30
0.0
 40
203.5
100
AcDbArc
 50
285.60376
 51
254.396301
  0
LINE
  5
7C46
330
83A6
100
AcDbEntity
  8
1
100
AcDbLine
 10
3776.858536998441
 20
2705.192209343382
 30
0.0
 11
3667.382462998443
 21
2705.192209343382
 31
0.0
  0
ARC
  5
7C47
330
83A6
100
AcDbEntity
  8
1
100
AcDbCircle
 10
3536.120499998443
 20
2718.192209343382
 30
0.0
 40
3.0
100
AcDbArc
 50
90.0
 51
180.0
  0
ARC
  5
7C48
330
83A6
100
AcDbEntity
  8
1
100
AcDbCircle
 10
3538.120499998444
 20
2775.518870343382
 30
0.0
 40
5.000066999999999
100
AcDbArc
 50
124.943665
 51
180.0
  0
LINE
  5
7C49
330
83A6
100
AcDbEntity
  8
1
100
AcDbLine
 10
3533.120499998443
 20
2775.518870343382
 30
0.0
 11
3533.120499998443
 21
2701.192209343382
 31
0.0
  0
LINE
  5
7C4D
330
83A6
100
AcDbEntity
  8
1
100
AcDbLine
 10
3618.017929998443
 20
2726.335398343383
 30
0.0
 11
3612.620499998445
 21
2706.192209343381
 31
0.0
  0
LINE
  5
7C4E
330
83A6
100
AcDbEntity
  8
1
100
AcDbLine
 10
3612.620499998445
 20
2718.192209343382
 30
0.0
 11
3612.620499998445
 21
2701.192209343382
 31
0.0
  0
LINE
  5
7C4F
330
83A6
100
AcDbEntity
  8
1
100
AcDbLine
 10
3609.620499998444
 20
2721.192209343382
 30
0.0
 11
3536.120499998443
 21
2721.192209343382
 31
0.0
  0
ARC
  5
7C50
330
83A6
100
AcDbEntity
  8
1
100
AcDbCircle
 10
3609.620499998444
 20
2718.192209343382
 30
0.0
 40
3.0
100
AcDbArc
 50
0.0
 51
90.0
  0
LINE
  5
7C51
330
83A6
100
AcDbEntity
  8
1
100
AcDbLine
 10
3535.256729998444
 20
2779.617502343382
 30
0.0
 11
3551.194595998443
 21
2790.753977343381
 31
0.0
  0
LINE
  5
7C52
330
83A6
100
AcDbEntity
  8
1
100
AcDbLine
 10
3911.120499998443
 20
2775.518870343382
 30
0.0
 11
3911.120499998443
 21
2701.192209343382
 31
0.0
  0
LINE
  5
7C56
330
83A6
100
AcDbEntity
  8
1
100
AcDbLine
 10
3826.223282998443
 20
2726.335520343382
 30
0.0
 11
3831.620499998444
 21
2706.192209343381
 31
0.0
  0
LINE
  5
7C57
330
83A6
100
AcDbEntity
  8
1
100
AcDbLine
 10
3831.620499998444
 20
2718.192209343382
 30
0.0
 11
3831.620499998444
 21
2701.192209343382
 31
0.0
  0
LINE
  5
7C58
330
83A6
100
AcDbEntity
  8
1
100
AcDbLine
 10
3834.620499998442
 20
2721.192209343382
 30
0.0
 11
3908.120499998443
 21
2721.192209343382
 31
0.0
  0
ARC
  5
7C59
330
83A6
100
AcDbEntity
  8
1
100
AcDbCircle
 10
3834.620499998442
 20
2718.192209343382
 30
0.0
 40
3.0
100
AcDbArc
 50
90.0
 51
180.0
  0
ARC
  5
7C5A
330
83A6
100
AcDbEntity
  8
1
100
AcDbCircle
 10
3908.120499998443
 20
2718.192209343382
 30
0.0
 40
3.0
100
AcDbArc
 50
0.0
 51
90.0
  0
LINE
  5
7C5B
330
83A6
100
AcDbEntity
  8
1
100
AcDbLine
 10
3908.984390998443
 20
2779.617502343382
 30
0.0
 11
3893.046524998442
 21
2790.753977343381
 31
0.0
  0
ARC
  5
7C5C
330
83A6
100
AcDbEntity
  8
1
100
AcDbCircle
 10
3906.120499998445
 20
2775.518870343382
 30
0.0
 40
5.0
100
AcDbArc
 50
0.0
 51
55.05633899999998
  0
LINE
  5
7C5D
330
83A6
100
AcDbEntity
  8
1
100
AcDbLine
 10
3478.058243950355
 20
2701.192209343382
 30
0.0
 11
3652.120499998444
 21
2701.192209343382
 31
0.0
  0
LINE
  5
7C5E
330
83A6
100
AcDbEntity
  8
1
100
AcDbLine
 10
3462.120499998441
 20
2641.192209343382
 30
0.0
 11
3478.058243950353
 21
2701.192209343382
 31
0.0
  0
LINE
  5
7C5F
330
83A6
100
AcDbEntity
  8
1
100
AcDbLine
 10
3982.120499998442
 20
2641.192209343382
 30
0.0
 11
3966.135490092079
 21
2701.192209343382
 31
0.0
  0
LINE
  5
7C61
330
83A6
100
AcDbEntity
  8
1
100
AcDbLine
 10
3652.120499998444
 20
2691.192209343382
 30
0.0
 11
3792.120499998443
 21
2691.192209343382
 31
0.0
  0
LINE
  5
7C62
330
83A6
100
AcDbEntity
  8
1
100
AcDbLine
 10
3792.120499998443
 20
2701.192209343382
 30
0.0
 11
3792.120499998441
 21
2691.192209343382
 31
0.0
  0
LINE
  5
7C63
330
83A6
100
AcDbEntity
  8
1
100
AcDbLine
 10
3652.120499998442
 20
2701.192209343382
 30
0.0
 11
3652.120499998442
 21
2691.192209343382
 31
0.0
  0
LINE
  5
7C66
330
83A6
100
AcDbEntity
  8
1
100
AcDbLine
 10
3792.120499998443
 20
2701.192209343382
 30
0.0
 11
3966.135490092079
 21
2701.192209343382
 31
0.0
  0
CIRCLE
  5
7C67
330
83A6
100
AcDbEntity
  8
1
100
AcDbCircle
 10
3722.120499998442
 20
2901.192209343382
 30
0.0
 40
118.0
  0
LINE
  5
7C68
330
83A6
100
AcDbEntity
  8
1
100
AcDbLine
 10
4558.752841307505
 20
3044.192209343381
 30
0.0
 11
4669.252841307505
 21
3044.192209343381
 31
0.0
  0
LINE
  5
7C69
330
83A6
100
AcDbEntity
  8
1
100
AcDbLine
 10
4558.752841307506
 20
2808.192209343382
 30
0.0
 11
4669.252841307505
 21
2808.192209343382
 31
0.0
  0
LINE
  5
7C6A
330
83A6
100
AcDbEntity
  8
1
100
AcDbLine
 10
4523.752841307505
 20
2706.192209343381
 30
0.0
 11
4721.052841307505
 21
2706.192209343381
 31
0.0
  0
INSERT
  5
7C6C
330
83A6
100
AcDbEntity
  8
0
100
AcDbBlockReference
  2
YA_N
 10
-394.4722692372305
 20
-430.898429998433
 30
0.0
 41
25.0
 42
25.0
 43
25.0
  0
LINE
  5
7C6F
330
83A6
100
AcDbEntity
  8
1
100
AcDbLine
 10
6393.752841307503
 20
2641.192209343382
 30
0.0
 11
6393.752841307506
 21
3356.192209343382
 31
0.0
  0
LINE
  5
7C70
330
83A6
100
AcDbEntity
  8
1
100
AcDbLine
 10
4893.752841307505
 20
4554.192209343383
 30
0.0
 11
6393.752841307505
 21
4554.192209343383
 31
0.0
  0
LINE
  5
7C73
330
83A6
100
AcDbEntity
  8
1
100
AcDbLine
 10
4893.752841307505
 20
3356.192209343382
 30
0.0
 11
4893.752841307505
 21
4554.192209343383
 31
0.0
  0
LINE
  5
7C74
330
83A6
100
AcDbEntity
  8
1
100
AcDbLine
 10
6393.752841307505
 20
3356.192209343382
 30
0.0
 11
6393.752841307505
 21
4554.192209343383
 31
0.0
  0
LINE
  5
7C75
330
83A6
100
AcDbEntity
  8
1
100
AcDbLine
 10
4736.252841307504
 20
3293.192209343381
 30
0.0
 11
4826.452841307505
 21
3293.192209343381
 31
0.0
  0
LINE
  5
7C76
330
83A6
100
AcDbEntity
  8
1
100
AcDbLine
 10
4726.252841307505
 20
3283.192209343382
 30
0.0
 11
4726.252841307505
 21
3153.192209343381
 31
0.0
  0
LINE
  5
7C77
330
83A6
100
AcDbEntity
  8
1
100
AcDbLine
 10
4866.252841307504
 20
3293.192209343381
 30
0.0
 11
4866.252841307503
 21
3143.192209343381
 31
0.0
  0
LINE
  5
7C78
330
83A6
100
AcDbEntity
  8
1
100
AcDbLine
 10
4736.252841307504
 20
3143.192209343382
 30
0.0
 11
4826.452841307505
 21
3143.192209343381
 31
0.0
  0
ARC
  5
7C79
330
83A6
100
AcDbEntity
  8
1
100
AcDbCircle
 10
4736.252841307504
 20
3283.192209343382
 30
0.0
 40
10.0
100
AcDbArc
 50
90.0
 51
180.0
  0
ARC
  5
7C7A
330
83A6
100
AcDbEntity
  8
1
100
AcDbCircle
 10
4736.252841307504
 20
3153.192209343381
 30
0.0
 40
10.0
100
AcDbArc
 50
180.0
 51
270.0
  0
LINE
  5
7C7B
330
83A6
100
AcDbEntity
  8
1
100
AcDbLine
 10
6421.252841307505
 20
3293.192209343381
 30
0.0
 11
6421.252841307505
 21
3143.192209343381
 31
0.0
  0
LINE
  5
7C7C
330
83A6
100
AcDbEntity
  8
1
100
AcDbLine
 10
6573.752841307504
 20
3283.192209343382
 30
0.0
 11
6573.752841307504
 21
3153.192209343381
 31
0.0
  0
LINE
  5
7C7D
330
83A6
100
AcDbEntity
  8
1
100
AcDbLine
 10
6563.752841307504
 20
3143.192209343382
 30
0.0
 11
6461.052841307509
 21
3143.192209343381
 31
0.0
  0
ARC
  5
7C7E
330
83A6
100
AcDbEntity
  8
1
100
AcDbCircle
 10
6563.752841307504
 20
3153.192209343381
 30
0.0
 40
10.0
100
AcDbArc
 50
270.0
 51
0.0
  0
LINE
  5
7C7F
330
83A6
100
AcDbEntity
  8
1
100
AcDbLine
 10
6563.752841307504
 20
3293.192209343381
 30
0.0
 11
6461.052841307509
 21
3293.192209343381
 31
0.0
  0
ARC
  5
7C80
330
83A6
100
AcDbEntity
  8
1
100
AcDbCircle
 10
6563.752841307504
 20
3283.192209343382
 30
0.0
 40
10.0
100
AcDbArc
 50
0.0
 51
90.0
  0
LINE
  5
7C81
330
83A6
100
AcDbEntity
  8
1
100
AcDbLine
 10
4698.752841307504
 20
3396.192209343381
 30
0.0
 11
4893.752841307504
 21
3396.192209343381
 31
0.0
  0
LINE
  5
7C82
330
83A6
100
AcDbEntity
  8
1
100
AcDbLine
 10
4698.752841307505
 20
3316.192209343382
 30
0.0
 11
4893.752841307507
 21
3316.192209343382
 31
0.0
  0
LINE
  5
7C83
330
83A6
100
AcDbEntity
  8
1
100
AcDbLine
 10
4698.752841307505
 20
3396.192209343381
 30
0.0
 11
4698.752841307505
 21
3316.192209343382
 31
0.0
  0
LINE
  5
7C84
330
83A6
100
AcDbEntity
  8
1
100
AcDbLine
 10
4669.252841307506
 20
3388.692209343382
 30
0.0
 11
4698.752841307505
 21
3388.692209343382
 31
0.0
  0
LINE
  5
7C85
330
83A6
100
AcDbEntity
  8
1
100
AcDbLine
 10
4669.252841307505
 20
3323.692209343381
 30
0.0
 11
4698.752841307505
 21
3323.692209343381
 31
0.0
  0
LINE
  5
7C8A
330
83A6
100
AcDbEntity
  8
1
100
AcDbLine
 10
6461.052841307505
 20
3293.192209343381
 30
0.0
 11
6421.252841307505
 21
3293.192209343381
 31
0.0
  0
LINE
  5
7C8B
330
83A6
100
AcDbEntity
  8
1
100
AcDbLine
 10
6461.052841307507
 20
3143.192209343381
 30
0.0
 11
6421.252841307505
 21
3143.192209343381
 31
0.0
  0
LINE
  5
7C8C
330
83A6
100
AcDbEntity
  8
1
100
AcDbLine
 10
4826.452841307505
 20
3293.192209343381
 30
0.0
 11
4866.252841307504
 21
3293.192209343381
 31
0.0
  0
LINE
  5
7C8D
330
83A6
100
AcDbEntity
  8
1
100
AcDbLine
 10
4826.452841307505
 20
3143.192209343381
 30
0.0
 11
4866.252841307504
 21
3143.192209343381
 31
0.0
  0
ARC
  5
7C8F
330
83A6
100
AcDbEntity
  8
1
100
AcDbCircle
 10
2412.120499998444
 20
3356.192209343382
 30
0.0
 40
668.0
100
AcDbArc
 50
175.8793867860499
 51
180.0
  0
LINE
  5
7C90
330
83A6
100
AcDbEntity
  8
1
100
AcDbLine
 10
3922.120499998442
 20
2348.192209343381
 30
0.0
 11
3922.120499998442
 21
2346.192209343382
 31
0.0
  0
LINE
  5
7C91
330
83A6
100
AcDbEntity
  8
1
100
AcDbLine
 10
6461.752841307505
 20
2641.192209343382
 30
0.0
 11
6461.752841307505
 21
2516.192209343382
 31
0.0
  0
LINE
  5
7C92
330
83A6
100
AcDbEntity
  8
1
100
AcDbLine
 10
4561.752841307504
 20
2641.192209343382
 30
0.0
 11
4561.752841307504
 21
2516.192209343382
 31
0.0
  0
LINE
  5
7C93
330
83A6
100
AcDbEntity
  8
1
100
AcDbLine
 10
6461.752841307506
 20
2411.192209343385
 30
0.0
 11
6461.752841307485
 21
2346.192209343382
 31
0.0
  0
INSERT
  5
7C95
330
83A6
100
AcDbEntity
  8
0
100
AcDbBlockReference
  2
YA_N
 10
4305.350442567148
 20
-1988.400780944633
 30
0.0
  0
POINT
  5
7C98
330
83A6
100
AcDbEntity
  8
1
100
AcDbPoint
 10
1752.120499998443
 20
2411.192209343381
 30
0.0
  0
POINT
  5
7C99
330
83A6
100
AcDbEntity
  8
1
100
AcDbPoint
 10
1752.120499998443
 20
2346.192209343382
 30
0.0
  0
POINT
  5
7C9A
330
83A6
100
AcDbEntity
  8
1
100
AcDbPoint
 10
1752.120499998443
 20
2411.192209343381
 30
0.0
  0
POINT
  5
7C9B
330
83A6
100
AcDbEntity
  8
1
100
AcDbPoint
 10
1752.120499998443
 20
2516.192209343382
 30
0.0
  0
ARC
  5
7C9E
330
83A6
100
AcDbEntity
  8
1
100
AcDbCircle
 10
2412.120499998443
 20
3356.192209343382
 30
0.0
 40
380.0
100
AcDbArc
 50
64.22111760467493
 51
257.4717657595268
  0
CIRCLE
  5
7C9F
330
83A6
100
AcDbEntity
  8
1
100
AcDbCircle
 10
2412.120499998443
 20
3356.192209343382
 30
0.0
 40
254.0
  0
ARC
  5
7CA0
330
83A6
100
AcDbEntity
  8
1
100
AcDbCircle
 10
3722.120499998442
 20
2901.192209343382
 30
0.0
 40
220.0
100
AcDbArc
 50
257.4717657595268
 51
64.22111760467493
  0
LINE
  5
7CA1
330
83A6
100
AcDbEntity
  8
1
100
AcDbLine
 10
2577.382210350724
 20
3698.37427651149
 30
0.0
 11
3817.798332307658
 21
3099.297616651233
 31
0.0
  0
LINE
  5
7CA2
330
83A6
100
AcDbEntity
  8
1
100
AcDbLine
 10
2518.587229239599
 20
3586.801913312427
 30
0.0
 11
3771.581421456934
 21
3008.325851344749
 31
0.0
  0
LINE
  5
7CA3
330
83A6
100
AcDbEntity
  8
1
100
AcDbLine
 10
2352.71533981806
 20
3109.236693219642
 30
0.0
 11
3694.522827158738
 21
2786.464843585109
 31
0.0
  0
LINE
  5
7CA4
330
83A6
100
AcDbEntity
  8
1
100
AcDbLine
 10
2329.690638849931
 20
2985.240301421294
 30
0.0
 11
3674.397948807199
 21
2686.43057844112
 31
0.0
  0
LINE
  5
7CA5
330
83A6
100
AcDbEntity
  8
1
100
AcDbLine
 10
4558.752841307506
 20
3610.192209343381
 30
0.0
 11
4669.252841307506
 21
3610.192209343381
 31
0.0
  0
LINE
  5
7CA6
330
83A6
100
AcDbEntity
  8
1
100
AcDbLine
 10
4558.752841307506
 20
3102.192209343382
 30
0.0
 11
4669.252841307505
 21
3102.192209343382
 31
0.0
  0
LINE
  5
7CA7
330
83A6
100
AcDbEntity
  8
1
100
AcDbLine
 10
4523.752841307505
 20
3736.192209343381
 30
0.0
 11
4721.052841307505
 21
3736.192209343381
 31
0.0
  0
LINE
  5
7CA8
330
83A6
100
AcDbEntity
  8
1
100
AcDbLine
 10
4721.052841307504
 20
2726.192209343381
 30
0.0
 11
4721.052841307505
 21
2706.192209343381
 31
0.0
  0
LINE
  5
7CAA
330
83A6
100
AcDbEntity
  8
1
100
AcDbLine
 10
1752.120499998443
 20
7578.59130002472
 30
0.0
 11
3072.120499998444
 21
7578.59130002472
 31
0.0
  0
LINE
  5
7CAB
330
83A6
100
AcDbEntity
  8
1
100
AcDbLine
 10
1752.120499998443
 20
5678.59130002472
 30
0.0
 11
4012.120499998444
 21
5678.59130002472
 31
0.0
  0
LINE
  5
7CAC
330
83A6
100
AcDbEntity
  8
1
100
AcDbLine
 10
1752.120499998443
 20
7578.591300024723
 30
0.0
 11
1752.120499998443
 21
7510.59130002472
 31
0.0
  0
LINE
  5
7CAD
330
83A6
100
AcDbEntity
  8
1
100
AcDbLine
 10
4012.120499998444
 20
6578.59130002472
 30
0.0
 11
4012.120499998444
 21
5678.591300024719
 31
0.0
  0
LINE
  5
7CAE
330
83A6
100
AcDbEntity
  8
1
100
AcDbLine
 10
3072.120499998444
 20
7578.59130002472
 30
0.0
 11
3072.120499998444
 21
7510.59130002472
 31
0.0
  0
LINE
  5
7CAF
330
83A6
100
AcDbEntity
  8
1
100
AcDbLine
 10
3381.120499998444
 20
6578.591300024719
 30
0.0
 11
4012.120499998444
 21
6578.59130002472
 31
0.0
  0
LINE
  5
7CB0
330
83A6
100
AcDbEntity
  8
2
100
AcDbLine
 10
3722.120499998442
 20
6446.313877183046
 30
0.0
 11
3722.120499998442
 21
5601.645316119574
 31
0.0
  0
CIRCLE
  5
7CBA
330
83A6
100
AcDbEntity
  8
1
100
AcDbCircle
 10
2412.120499998443
 20
3356.192209343382
 30
0.0
 40
560.0
  0
CIRCLE
  5
7CBB
330
83A6
100
AcDbEntity
  8
1
100
AcDbCircle
 10
2412.120499998443
 20
3356.192209343382
 30
0.0
 40
610.0
  0
LINE
  5
7CBC
330
83A6
100
AcDbEntity
  8
1
100
AcDbLine
 10
2032.120499998443
 20
5640.59130002472
 30
0.0
 11
3942.120499998443
 21
5640.59130002472
 31
0.0
  0
LINE
  5
7CBD
330
83A6
100
AcDbEntity
  8
1
100
AcDbLine
 10
2032.120499998443
 20
5810.59130002472
 30
0.0
 11
3942.120499998443
 21
5810.59130002472
 31
0.0
  0
LINE
  5
7CBE
330
83A6
100
AcDbEntity
  8
1
100
AcDbLine
 10
2032.120499998443
 20
5640.59130002472
 30
0.0
 11
2032.120499998443
 21
5810.59130002472
 31
0.0
  0
LINE
  5
7CBF
330
83A6
100
AcDbEntity
  8
1
100
AcDbLine
 10
3942.120499998443
 20
5640.59130002472
 30
0.0
 11
3942.120499998443
 21
5810.59130002472
 31
0.0
  0
LINE
  5
7CC0
330
83A6
100
AcDbEntity
  8
1
100
AcDbLine
 10
2158.120499998444
 20
5678.291300024721
 30
0.0
 11
2158.120499998444
 21
5788.791300024721
 31
0.0
  0
LINE
  5
7CC1
330
83A6
100
AcDbEntity
  8
1
100
AcDbLine
 10
2666.120499998443
 20
5678.291300024721
 30
0.0
 11
2666.120499998443
 21
5788.791300024721
 31
0.0
  0
LINE
  5
7CC2
330
83A6
100
AcDbEntity
  8
1
100
AcDbLine
 10
3604.120499998443
 20
5678.291300024721
 30
0.0
 11
3604.120499998443
 21
5788.791300024721
 31
0.0
  0
LINE
  5
7CC3
330
83A6
100
AcDbEntity
  8
1
100
AcDbLine
 10
3840.120499998442
 20
5678.291300024721
 30
0.0
 11
3840.120499998442
 21
5788.791300024719
 31
0.0
  0
LINE
  5
7CC4
330
83A6
100
AcDbEntity
  8
1
100
AcDbLine
 10
2158.120499998444
 20
5678.291300024721
 30
0.0
 11
2666.120499998443
 21
5678.291300024721
 31
0.0
  0
LINE
  5
7CC5
330
83A6
100
AcDbEntity
  8
1
100
AcDbLine
 10
2158.120499998442
 20
5788.791300024719
 30
0.0
 11
2666.120499998443
 21
5788.791300024719
 31
0.0
  0
LINE
  5
7CC6
330
83A6
100
AcDbEntity
  8
1
100
AcDbLine
 10
3604.120499998443
 20
5788.791300024719
 30
0.0
 11
3840.120499998442
 21
5788.791300024719
 31
0.0
  0
LINE
  5
7CC7
330
83A6
100
AcDbEntity
  8
1
100
AcDbLine
 10
3604.120499998443
 20
5678.291300024721
 30
0.0
 11
3840.120499998442
 21
5678.291300024721
 31
0.0
  0
LINE
  5
7CC8
330
83A6
100
AcDbEntity
  8
1
100
AcDbLine
 10
1652.120499998442
 20
7560.59130002472
 30
0.0
 11
1652.120499998444
 21
5960.591300024719
 31
0.0
  0
LINE
  5
7CC9
330
83A6
100
AcDbEntity
  8
1
100
AcDbLine
 10
3381.120499998444
 20
7510.59130002472
 30
0.0
 11
3381.120499998444
 21
6010.59130002472
 31
0.0
  0
LINE
  5
7CCA
330
83A6
100
AcDbEntity
  8
1
100
AcDbLine
 10
1652.120499998442
 20
7510.59130002472
 30
0.0
 11
3381.120499998444
 21
7510.59130002472
 31
0.0
  0
LINE
  5
7CCB
330
83A6
100
AcDbEntity
  8
1
100
AcDbLine
 10
1652.120499998442
 20
6010.591300024719
 30
0.0
 11
3381.120499998444
 21
6010.59130002472
 31
0.0
  0
LINE
  5
7CCC
330
83A6
100
AcDbEntity
  8
1
100
AcDbLine
 10
1652.120499998442
 20
7560.59130002472
 30
0.0
 11
1656.120499998444
 21
7560.591300024722
 31
0.0
  0
LINE
  5
7CCD
330
83A6
100
AcDbEntity
  8
1
100
AcDbLine
 10
1652.120499998442
 20
5960.591300024719
 30
0.0
 11
1656.120499998444
 21
5960.591300024719
 31
0.0
  0
LINE
  5
7CCE
330
83A6
100
AcDbEntity
  8
1
100
AcDbLine
 10
1656.120499998444
 20
7560.59130002472
 30
0.0
 11
1656.120499998444
 21
5960.591300024719
 31
0.0
  0
LINE
  5
7CCF
330
83A6
100
AcDbEntity
  8
1
100
AcDbLine
 10
2377.120499998443
 20
6010.59130002472
 30
0.0
 11
2377.120499998443
 21
5788.791300024719
 31
0.0
  0
LINE
  5
7CD0
330
83A6
100
AcDbEntity
  8
1
100
AcDbLine
 10
2447.120499998444
 20
6010.59130002472
 30
0.0
 11
2447.120499998443
 21
5788.791300024719
 31
0.0
  0
LINE
  5
7CD1
330
83A6
100
AcDbEntity
  8
1
100
AcDbLine
 10
3523.120499998443
 20
6480.791300024721
 30
0.0
 11
3523.120499998441
 21
5823.291300024719
 31
0.0
  0
LINE
  5
7CD2
330
83A6
100
AcDbEntity
  8
1
100
AcDbLine
 10
3921.120499998443
 20
6480.791300024718
 30
0.0
 11
3921.120499998441
 21
5823.291300024717
 31
0.0
  0
LINE
  5
7CD3
330
83A6
100
AcDbEntity
  8
1
100
AcDbLine
 10
3523.120499998443
 20
6480.791300024721
 30
0.0
 11
3921.120499998443
 21
6480.791300024718
 31
0.0
  0
LINE
  5
7CD4
330
83A6
100
AcDbEntity
  8
1
100
AcDbLine
 10
3523.12049999844
 20
5823.291300024719
 30
0.0
 11
3921.12049999844
 21
5823.291300024718
 31
0.0
  0
LINE
  5
7CD5
330
83A6
100
AcDbEntity
  8
1
100
AcDbLine
 10
3694.620499998442
 20
5823.291300024719
 30
0.0
 11
3694.620499998442
 21
5788.791300024719
 31
0.0
  0
LINE
  5
7CD6
330
83A6
100
AcDbEntity
  8
1
100
AcDbLine
 10
3749.620499998441
 20
5823.291300024719
 30
0.0
 11
3749.620499998441
 21
5788.791300024719
 31
0.0
  0
LINE
  5
7CD7
330
83A6
100
AcDbEntity
  8
1
100
AcDbLine
 10
5361.252841307504
 20
3125.192209343384
 30
0.0
 11
4703.752841307504
 21
3125.192209343384
 31
0.0
  0
LINE
  5
7CD8
330
83A6
100
AcDbEntity
  8
1
100
AcDbLine
 10
5361.252841307506
 20
2727.192209343384
 30
0.0
 11
4703.752841307506
 21
2727.192209343384
 31
0.0
  0
LINE
  5
7CD9
330
83A6
100
AcDbEntity
  8
1
100
AcDbLine
 10
4703.752841307506
 20
2727.192209343382
 30
0.0
 11
4703.752841307504
 21
3125.192209343381
 31
0.0
  0
LINE
  5
7CDA
330
83A6
100
AcDbEntity
  8
1
100
AcDbLine
 10
4703.752841307505
 20
2898.692209343384
 30
0.0
 11
4669.252841307505
 21
2898.692209343384
 31
0.0
  0
LINE
  5
7CDB
330
83A6
100
AcDbEntity
  8
1
100
AcDbLine
 10
4703.752841307505
 20
2953.692209343384
 30
0.0
 11
4669.252841307505
 21
2953.692209343384
 31
0.0
  0
LINE
  5
7CE4
330
83A6
100
AcDbEntity
  8
1
100
AcDbLine
 10
1752.120499998443
 20
6010.591300024719
 30
0.0
 11
1752.120499998443
 21
5678.59130002472
 31
0.0
  0
LINE
  5
7CE8
330
83A6
100
AcDbEntity
  8
1
100
AcDbLine
 10
5361.252841307506
 20
2727.192209343384
 30
0.0
 11
5361.252841307504
 21
3125.192209343385
 31
0.0
  0
LINE
  5
7CE9
330
83A6
100
AcDbEntity
  8
1
100
AcDbLine
 10
4893.752841307506
 20
3125.192209343384
 30
0.0
 11
4893.752841307507
 21
3356.192209343382
 31
0.0
  0
LINE
  5
7CEA
330
83A6
100
AcDbEntity
  8
1
100
AcDbLine
 10
5233.200889896885
 20
2727.192209343384
 30
0.0
 11
5233.200889896885
 21
2641.192209343382
 31
0.0
  0
LINE
  5
7CEB
330
83A6
100
AcDbEntity
  8
1
100
AcDbLine
 10
4798.860375588797
 20
2727.192209343384
 30
0.0
 11
4798.860375588796
 21
2641.192209343382
 31
0.0
  0
LINE
  5
7F1A
330
83A6
100
AcDbEntity
  8
4
100
AcDbLine
 10
6475.0
 20
1750.0
 30
0.0
 11
6475.0
 21
1050.0
 31
0.0
  0
LINE
  5
7F1B
330
83A6
100
AcDbEntity
  8
4
100
AcDbLine
 10
4025.0
 20
1750.0
 30
0.0
 11
4025.0
 21
1050.0
 31
0.0
  0
LINE
  5
7F1C
330
83A6
100
AcDbEntity
  8
4
100
AcDbLine
 10
2275.0
 20
1750.0
 30
0.0
 11
2275.0
 21
1050.0
 31
0.0
  0
LINE
  5
7F1F
330
83A6
100
AcDbEntity
  8
4
100
AcDbLine
 10
2275.0
 20
1050.0
 30
0.0
 11
6475.0
 21
1050.0
 31
0.0
  0
LINE
  5
7F20
330
83A6
100
AcDbEntity
  8
4
100
AcDbLine
 10
2275.0
 20
1400.0
 30
0.0
 11
6475.0
 21
1400.0
 31
0.0
  0
TEXT
  5
7F21
330
83A6
100
AcDbEntity
  8
4
100
AcDbText
 10
2409.757282964156
 20
1510.400590533145
 30
0.0
 40
175.0
  1
機器名称
100
AcDbText
  0
TEXT
  5
7F22
330
83A6
100
AcDbEntity
  8
4
100
AcDbText
 10
2401.903371086791
 20
1125.758048562038
 30
0.0
 40
175.0
  1
機器型番
100
AcDbText
  0
TEXT
  5
7F23
330
83A6
100
AcDbEntity
  8
4
100
AcDbText
 10
4121.875609206827
 20
1479.00119135149
 30
0.0
 40
175.0
  1
ミツヤ多翼送風機
100
AcDbText
  0
TEXT
  5
7F24
330
83A6
100
AcDbEntity
  8
4
100
AcDbText
 10
4153.290734549183
 20
1110.058544979801
 30
0.0
 40
175.0
  1
MF#7-5
100
AcDbText
  0
TEXT
  5
7F26
330
83A6
100
AcDbEntity
  8
4
100
AcDbText
 10
2778.638059146112
 20
8342.000944663805
 30
0.0
 40
188.9999999999998
  1
床置防振ベット
100
AcDbText
  0
TEXT
  5
7F27
330
83A6
100
AcDbEntity
  8
4
100
AcDbText
 10
1106.586576653062
 20
8868.583416697545
 30
0.0
 40
252.0
  1
遠心式両吸込両持多翼ファン
100
AcDbText
  0
LINE
  5
7F28
330
83A6
100
AcDbEntity
  8
4
100
AcDbLine
 10
875.0
 20
8642.930639926817
 30
0.0
 11
6475.0
 21
8642.930639926817
 31
0.0
  0
LINE
  5
7F29
330
83A6
100
AcDbEntity
  8
4
100
AcDbLine
 10
875.0
 20
9342.930639926818
 30
0.0
 11
6475.0
 21
9342.930639926818
 31
0.0
  0
LINE
  5
7F2A
330
83A6
100
AcDbEntity
  8
4
100
AcDbLine
 10
2275.0
 20
1750.0
 30
0.0
 11
6475.0
 21
1750.0
 31
0.0
  0
LINE
  5
7F2B
330
83A6
100
AcDbEntity
  8
4
100
AcDbLine
 10
875.0
 20
9342.930639926818
 30
0.0
 11
875.0
 21
8642.930639926817
 31
0.0
  0
TEXT
  5
7F2C
330
83A6
100
AcDbEntity
  8
4
100
AcDbText
 10
1253.132146296655
 20
8338.118171412203
 30
0.0
 40
188.9999999999998
  1
左回転左横向
100
AcDbText
  0
TEXT
  5
7F2D
330
83A6
100
AcDbEntity
  8
4
100
AcDbText
 10
5141.393457372513
 20
9471.21378523358
 30
0.0
 40
196.0
  1
No.
100
AcDbText
  0
TEXT
  5
7F2E
330
83A6
100
AcDbEntity
  8
4
100
AcDbText
 10
4589.536219100046
 20
8342.000944663805
 30
0.0
 40
188.9999999999998
  1
縮尺：1/35
100
AcDbText
  0
LINE
  5
7F2F
330
83A6
100
AcDbEntity
  8
4
100
AcDbLine
 10
6475.0
 20
9342.930639926818
 30
0.0
 11
6475.0
 21
8642.930639926817
 31
0.0
  0
LINE
  5
7F30
330
83A6
100
AcDbEntity
  8
4
100
AcDbLine
 10
7350.0
 20
10325.0
 30
0.0
 11
7350.0
 21
10325.0
 31
0.0
  0
LINE
  5
7F31
330
83A6
100
AcDbEntity
  8
4
100
AcDbLine
 10
5042.160978259526
 20
9384.422540938905
 30
0.0
 11
5042.160978259526
 21
9753.282915424136
 31
0.0
  0
LINE
  5
7F32
330
83A6
100
AcDbEntity
  8
4
100
AcDbLine
 10
5042.160978259526
 20
9753.282915424136
 30
0.0
 11
6475.0
 21
9753.282915424136
 31
0.0
  0
LINE
  5
7F33
330
83A6
100
AcDbEntity
  8
4
100
AcDbLine
 10
6475.0
 20
9753.282915424136
 30
0.0
 11
6475.0
 21
9384.422540938905
 31
0.0
  0
LINE
  5
7F34
330
83A6
100
AcDbEntity
  8
4
100
AcDbLine
 10
6475.0
 20
9384.422540938905
 30
0.0
 11
5042.160978259526
 21
9384.422540938905
 31
0.0
  0
LINE
  5
7F35
330
83A6
100
AcDbEntity
  8
4
100
AcDbLine
 10
0.0
 20
0.0
 30
0.0
 11
0.0
 21
10325.0
 31
0.0
  0
LINE
  5
7F36
330
83A6
100
AcDbEntity
  8
4
100
AcDbLine
 10
0.0
 20
10325.0
 30
0.0
 11
7350.0
 21
10325.0
 31
0.0
  0
LINE
  5
7F37
330
83A6
100
AcDbEntity
  8
4
100
AcDbLine
 10
7350.0
 20
10325.0
 30
0.0
 11
7350.0
 21
0.0
 31
0.0
  0
LINE
  5
7F38
330
83A6
100
AcDbEntity
  8
4
100
AcDbLine
 10
7350.0
 20
0.0
 30
0.0
 11
0.0
 21
0.0
 31
0.0
  0
DIMENSION
  5
8468
330
83A6
100
AcDbEntity
  8
3
100
AcDbDimension
  2
*D37
 10
6822.987847852222
 20
2796.192209343381
 30
0.0
 11
6735.487847852221
 21
3356.192209343382
 31
0.0
 70
    32
  1
\U+03C6<>
 71
     5
 42
1120.0
  3
IGA
100
AcDbAlignedDimension
 13
6393.752841307505
 23
3916.192209343382
 33
0.0
 14
6393.752841307504
 24
2796.192209343381
 34
0.0
 50
90.0
100
AcDbRotatedDimension
1001
ACAD
1000
DSTYLE
1002
{
1070
    40
1040
35.0
1070
   143
1040
0.039
1070
   172
1070
     1
1070
   271
1070
     4
1070
   272
1070
     4
1070
   279
1070
     0
1070
   284
1070
     0
1070
   285
1070
     0
1070
   286
1070
     0
1070
   341
1005
83B9
1070
   343
1005
83B9
1070
   344
1005
83B9
1002
}
  0
DIMENSION
  5
8475
330
83A6
100
AcDbEntity
  8
3
100
AcDbDimension
  2
*D38
 10
6393.752841307505
 20
4807.63184839578
 30
0.0
 11
5643.752841307505
 21
4895.131848395781
 31
0.0
 70
    32
 71
     5
 42
1500.0
  3
IGA
100
AcDbAlignedDimension
 13
4893.752841307505
 23
4554.192209343383
 33
0.0
 14
6393.752841307505
 24
4554.192209343383
 34
0.0
100
AcDbRotatedDimension
1001
ACAD
1000
DSTYLE
1002
{
1070
    40
1040
35.0
1070
   143
1040
0.039
1070
   172
1070
     1
1070
   271
1070
     4
1070
   272
1070
     4
1070
   279
1070
     0
1070
   284
1070
     0
1070
   285
1070
     0
1070
   286
1070
     0
1070
   341
1005
83B9
1070
   343
1005
83B9
1070
   344
1005
83B9
1002
}
  0
DIMENSION
  5
8482
330
83A6
100
AcDbEntity
  8
3
100
AcDbDimension
  2
*D39
 10
5643.752841307505
 20
5033.020556852206
 30
0.0
 11
5083.752841307505
 21
5148.020556852205
 31
0.0
 70
    32
  1
(<>)
 71
     5
 42
1120.0
  3
IGA
100
AcDbAlignedDimension
 13
4523.752841307505
 23
3736.192209343381
 33
0.0
 14
5643.752841307505
 24
4947.63184839578
 34
0.0
100
AcDbRotatedDimension
1001
ACAD
1000
DSTYLE
1002
{
1070
    40
1040
35.0
1070
   143
1040
0.039
1070
   172
1070
     1
1070
   271
1070
     4
1070
   272
1070
     4
1070
   279
1070
     0
1070
   284
1070
     0
1070
   285
1070
     0
1070
   286
1070
     0
1070
   341
1005
83B9
1070
   343
1005
83B9
1070
   344
1005
83B9
1002
}
  0
DIMENSION
  5
848F
330
83A6
100
AcDbEntity
  8
3
100
AcDbDimension
  2
*D40
 10
6573.752841307504
 20
5033.020556852206
 30
0.0
 11
6108.752841307504
 21
5148.020556852205
 31
0.0
 70
    32
  1
(<>)
 71
     5
 42
929.9999999999981
  3
IGA
100
AcDbAlignedDimension
 13
5643.752841307505
 23
4947.63184839578
 33
0.0
 14
6573.752841307504
 24
3283.192209343382
 34
0.0
100
AcDbRotatedDimension
1001
ACAD
1000
DSTYLE
1002
{
1070
    40
1040
35.0
1070
   143
1040
0.039
1070
   172
1070
     1
1070
   271
1070
     4
1070
   272
1070
     4
1070
   279
1070
     1
1070
   284
1070
     0
1070
   285
1070
     0
1070
   286
1070
     0
1070
   341
1005
83B9
1070
   343
1005
83B9
1070
   344
1005
83B9
1002
}
  0
DIMENSION
  5
849C
330
83A6
100
AcDbEntity
  8
3
100
AcDbDimension
  2
*D41
 10
5643.752841307503
 20
2112.602334691993
 30
0.0
 11
5102.752841307498
 21
2200.102334691993
 31
0.0
 70
    32
 71
     5
 42
1082.000000000009
  3
IGA
100
AcDbAlignedDimension
 13
4561.752841307494
 23
2346.192209343382
 33
0.0
 14
5643.752841307503
 24
2346.192209343382
 34
0.0
100
AcDbRotatedDimension
1001
ACAD
1000
DSTYLE
1002
{
1070
    40
1040
35.0
1070
   143
1040
0.039
1070
   172
1070
     1
1070
   271
1070
     4
1070
   272
1070
     4
1070
   279
1070
     0
1070
   284
1070
     0
1070
   285
1070
     0
1070
   286
1070
     0
1070
   341
1005
83B9
1070
   343
1005
83B9
1070
   344
1005
83B9
1002
}
  0
DIMENSION
  5
84A9
330
83A6
100
AcDbEntity
  8
3
100
AcDbDimension
  2
*D42
 10
6461.752841307485
 20
2112.602334691993
 30
0.0
 11
6052.752841307494
 21
2200.102334691993
 31
0.0
 70
    32
 71
     5
 42
817.9999999999818
  3
IGA
100
AcDbAlignedDimension
 13
5643.752841307503
 23
2346.192209343382
 33
0.0
 14
6461.752841307485
 24
2346.192209343382
 34
0.0
100
AcDbRotatedDimension
1001
ACAD
1000
DSTYLE
1002
{
1070
    40
1040
35.0
1070
   143
1040
0.039
1070
   172
1070
     1
1070
   271
1070
     4
1070
   272
1070
     4
1070
   279
1070
     1
1070
   284
1070
     0
1070
   285
1070
     0
1070
   286
1070
     0
1070
   341
1005
83B9
1070
   343
1005
83B9
1070
   344
1005
83B9
1002
}
  0
DIMENSION
  5
84B6
330
83A6
100
AcDbEntity
  8
3
100
AcDbDimension
  2
*D43
 10
1353.348245027391
 20
7578.59130002472
 30
0.0
 11
1265.848245027389
 21
6628.59130002472
 31
0.0
 70
    32
 71
     5
 42
1900.0
  3
IGA
100
AcDbAlignedDimension
 13
1752.120499998443
 23
5678.59130002472
 33
0.0
 14
1752.120499998443
 24
7578.59130002472
 34
0.0
 50
90.0
100
AcDbRotatedDimension
1001
ACAD
1000
DSTYLE
1002
{
1070
    40
1040
35.0
1070
   143
1040
0.039
1070
   172
1070
     1
1070
   271
1070
     4
1070
   272
1070
     4
1070
   279
1070
     0
1070
   284
1070
     0
1070
   285
1070
     0
1070
   286
1070
     0
1070
   341
1005
83B9
1070
   343
1005
83B9
1070
   344
1005
83B9
1002
}
  0
DIMENSION
  5
84C3
330
83A6
100
AcDbEntity
  8
3
100
AcDbDimension
  2
*D44
 10
3072.120499998444
 20
7752.598660495841
 30
0.0
 11
2412.120499998444
 21
7840.09866049584
 31
0.0
 70
    32
 71
     5
 42
1320.000000000002
  3
IGA
100
AcDbAlignedDimension
 13
1752.120499998443
 23
7578.59130002472
 33
0.0
 14
3072.120499998444
 24
7578.59130002472
 34
0.0
100
AcDbRotatedDimension
1001
ACAD
1000
DSTYLE
1002
{
1070
    40
1040
35.0
1070
   143
1040
0.039
1070
   172
1070
     1
1070
   271
1070
     4
1070
   272
1070
     4
1070
   279
1070
     0
1070
   284
1070
     0
1070
   285
1070
     0
1070
   286
1070
     0
1070
   341
1005
83B9
1070
   343
1005
83B9
1070
   344
1005
83B9
1002
}
  0
DIMENSION
  5
84D0
330
83A6
100
AcDbEntity
  8
3
100
AcDbDimension
  2
*D45
 10
4012.120499998444
 20
7752.598660495841
 30
0.0
 11
3542.120499998445
 21
7840.09866049584
 31
0.0
 70
    32
 71
     5
 42
940.0
  3
IGA
100
AcDbAlignedDimension
 13
3072.120499998444
 23
7578.59130002472
 33
0.0
 14
4012.120499998444
 24
6578.59130002472
 34
0.0
100
AcDbRotatedDimension
1001
ACAD
1000
DSTYLE
1002
{
1070
    40
1040
35.0
1070
   143
1040
0.039
1070
   172
1070
     1
1070
   271
1070
     4
1070
   272
1070
     4
1070
   279
1070
     1
1070
   284
1070
     0
1070
   285
1070
     0
1070
   286
1070
     0
1070
   341
1005
83B9
1070
   343
1005
83B9
1070
   344
1005
83B9
1002
}
  0
DIMENSION
  5
84DD
330
83A6
100
AcDbEntity
  8
3
100
AcDbDimension
  2
*D46
 10
4412.750909292305
 20
5678.59130002472
 30
0.0
 11
4325.250909292305
 21
6128.591300024721
 31
0.0
 70
    32
 71
     5
 42
900.0
  3
IGA
100
AcDbAlignedDimension
 13
4012.120499998444
 23
6578.59130002472
 33
0.0
 14
4012.120499998444
 24
5678.59130002472
 34
0.0
 50
90.0
100
AcDbRotatedDimension
1001
ACAD
1000
DSTYLE
1002
{
1070
    40
1040
35.0
1070
   143
1040
0.039
1070
   172
1070
     1
1070
   271
1070
     4
1070
   272
1070
     4
1070
   279
1070
     0
1070
   284
1070
     0
1070
   285
1070
     0
1070
   286
1070
     0
1070
   341
1005
83B9
1070
   343
1005
83B9
1070
   344
1005
83B9
1002
}
  0
DIMENSION
  5
84EA
330
83A6
100
AcDbEntity
  8
3
100
AcDbDimension
  2
*D47
 10
1752.120499998443
 20
5387.346107930773
 30
0.0
 11
2882.120499998443
 21
5474.846107930773
 31
0.0
 70
    32
 71
     5
 42
2260.000000000002
  3
IGA
100
AcDbAlignedDimension
 13
4012.120499998444
 23
5678.591300024719
 33
0.0
 14
1752.120499998443
 24
5678.59130002472
 34
0.0
100
AcDbRotatedDimension
1001
ACAD
1000
DSTYLE
1002
{
1070
    40
1040
35.0
1070
   143
1040
0.039
1070
   172
1070
     1
1070
   271
1070
     4
1070
   272
1070
     4
1070
   279
1070
     0
1070
   284
1070
     0
1070
   285
1070
     0
1070
   286
1070
     0
1070
   341
1005
83B9
1070
   343
1005
83B9
1070
   344
1005
83B9
1002
}
  0
DIMENSION
  5
84F7
330
83A6
100
AcDbEntity
  8
3
100
AcDbDimension
  2
*D48
 10
2412.120499998443
 20
2113.652334691993
 30
0.0
 11
2082.120499998443
 21
2201.152334691993
 31
0.0
 70
    32
 71
     5
 42
660.0000000000002
  3
IGA
100
AcDbAlignedDimension
 13
1752.120499998443
 23
2346.192209343382
 33
0.0
 14
2412.120499998443
 24
2346.192209343382
 34
0.0
100
AcDbRotatedDimension
1001
ACAD
1000
DSTYLE
1002
{
1070
    40
1040
35.0
1070
   143
1040
0.039
1070
   172
1070
     1
1070
   271
1070
     4
1070
   272
1070
     4
1070
   279
1070
     0
1070
   284
1070
     0
1070
   285
1070
     0
1070
   286
1070
     0
1070
   341
1005
83B9
1070
   343
1005
83B9
1070
   344
1005
83B9
1002
}
  0
DIMENSION
  5
8504
330
83A6
100
AcDbEntity
  8
3
100
AcDbDimension
  2
*D49
 10
4012.120499998443
 20
2113.652334691993
 30
0.0
 11
3212.120499998443
 21
2201.152334691993
 31
0.0
 70
    32
 71
     5
 42
1600.0
  3
IGA
100
AcDbAlignedDimension
 13
2412.120499998443
 23
2346.192209343382
 33
0.0
 14
4012.120499998443
 24
2346.192209343382
 34
0.0
100
AcDbRotatedDimension
1001
ACAD
1000
DSTYLE
1002
{
1070
    40
1040
35.0
1070
   143
1040
0.039
1070
   172
1070
     1
1070
   271
1070
     4
1070
   272
1070
     4
1070
   279
1070
     1
1070
   284
1070
     0
1070
   285
1070
     0
1070
   286
1070
     0
1070
   341
1005
83B9
1070
   343
1005
83B9
1070
   344
1005
83B9
1002
}
  0
DIMENSION
  5
8511
330
83A6
100
AcDbEntity
  8
3
100
AcDbDimension
  2
*D50
 10
2412.120499998444
 20
4810.525596269839
 30
0.0
 11
2032.120499998443
 21
4898.025596269839
 31
0.0
 70
    32
 71
     5
 42
760.0000000000011
  3
IGA
100
AcDbAlignedDimension
 13
1652.120499998442
 23
4607.192209343383
 33
0.0
 14
2412.120499998444
 24
4763.37453550921
 34
0.0
100
AcDbRotatedDimension
1001
ACAD
1000
DSTYLE
1002
{
1070
    40
1040
35.0
1070
   143
1040
0.039
1070
   172
1070
     1
1070
   271
1070
     4
1070
   272
1070
     4
1070
   279
1070
     0
1070
   284
1070
     0
1070
   285
1070
     0
1070
   286
1070
     0
1070
   341
1005
83B9
1070
   343
1005
83B9
1070
   344
1005
83B9
1002
}
  0
DIMENSION
  5
851E
330
83A6
100
AcDbEntity
  8
3
100
AcDbDimension
  2
*D51
 10
3381.120499998444
 20
4810.525596269839
 30
0.0
 11
2896.620499998443
 21
4898.025596269839
 31
0.0
 70
    32
 71
     5
 42
968.999999999999
  3
IGA
100
AcDbAlignedDimension
 13
2412.120499998444
 23
4763.37453550921
 33
0.0
 14
3381.120499998444
 24
3438.192209343382
 34
0.0
100
AcDbRotatedDimension
1001
ACAD
1000
DSTYLE
1002
{
1070
    40
1040
35.0
1070
   143
1040
0.039
1070
   172
1070
     1
1070
   271
1070
     4
1070
   272
1070
     4
1070
   279
1070
     1
1070
   284
1070
     0
1070
   285
1070
     0
1070
   286
1070
     0
1070
   341
1005
83B9
1070
   343
1005
83B9
1070
   344
1005
83B9
1002
}
  0
DIMENSION
  5
852B
330
83A6
100
AcDbEntity
  8
3
100
AcDbDimension
  2
*D52
 10
4012.120499998443
 20
5002.684932965967
 30
0.0
 11
2832.120499998443
 21
5090.184932965968
 31
0.0
 70
    32
 71
     5
 42
2360.0
  3
IGA
100
AcDbAlignedDimension
 13
1652.120499998442
 23
4607.192209343383
 33
0.0
 14
4012.120499998443
 24
2641.192209343382
 34
0.0
100
AcDbRotatedDimension
1001
ACAD
1000
DSTYLE
1002
{
1070
    40
1040
35.0
1070
   143
1040
0.039
1070
   172
1070
     1
1070
   271
1070
     4
1070
   272
1070
     4
1070
   279
1070
     0
1070
   284
1070
     0
1070
   285
1070
     0
1070
   286
1070
     0
1070
   341
1005
83B9
1070
   343
1005
83B9
1070
   344
1005
83B9
1002
}
  0
DIMENSION
  5
8538
330
83A6
100
AcDbEntity
  8
3
100
AcDbDimension
  2
*D53
 10
1452.012183714177
 20
3404.192209343381
 30
0.0
 11
1364.512183714176
 21
3979.192209343383
 31
0.0
 70
    32
 71
     5
 42
1150.000000000001
  3
IGA
100
AcDbAlignedDimension
 13
1652.120499998442
 23
4554.192209343383
 33
0.0
 14
1652.120499998442
 24
3404.192209343381
 34
0.0
 50
90.0
100
AcDbRotatedDimension
1001
ACAD
1000
DSTYLE
1002
{
1070
    40
1040
35.0
1070
   143
1040
0.039
1070
   172
1070
     1
1070
   271
1070
     4
1070
   272
1070
     4
1070
   279
1070
     0
1070
   284
1070
     0
1070
   285
1070
     0
1070
   286
1070
     0
1070
   341
1005
83B9
1070
   343
1005
83B9
1070
   344
1005
83B9
1002
}
  0
DIMENSION
  5
8545
330
83A6
100
AcDbEntity
  8
3
100
AcDbDimension
  2
*D54
 10
1251.860532852675
 20
3356.192209343382
 30
0.0
 11
1164.360532852675
 21
3955.192209343382
 31
0.0
 70
    32
 71
     5
 42
1198.000000000001
  3
IGA
100
AcDbAlignedDimension
 13
1652.120499998442
 23
4554.192209343383
 33
0.0
 14
1505.339848545467
 24
3356.192209343382
 34
0.0
 50
90.0
100
AcDbRotatedDimension
1001
ACAD
1000
DSTYLE
1002
{
1070
    40
1040
35.0
1070
   143
1040
0.039
1070
   172
1070
     1
1070
   271
1070
     4
1070
   272
1070
     4
1070
   279
1070
     0
1070
   284
1070
     0
1070
   285
1070
     0
1070
   286
1070
     0
1070
   341
1005
83B9
1070
   343
1005
83B9
1070
   344
1005
83B9
1002
}
  0
DIMENSION
  5
8552
330
83A6
100
AcDbEntity
  8
3
100
AcDbDimension
  2
*D55
 10
1251.860532852675
 20
2516.192209343382
 30
0.0
 11
1164.360532852675
 21
2936.192209343382
 31
0.0
 70
    32
 71
     5
 42
840.0
  3
IGA
100
AcDbAlignedDimension
 13
1505.339848545467
 23
3356.192209343382
 33
0.0
 14
1752.120499998443
 24
2516.192209343382
 34
0.0
 50
90.0
100
AcDbRotatedDimension
1001
ACAD
1000
DSTYLE
1002
{
1070
    40
1040
35.0
1070
   143
1040
0.039
1070
   172
1070
     1
1070
   271
1070
     4
1070
   272
1070
     4
1070
   279
1070
     1
1070
   284
1070
     0
1070
   285
1070
     0
1070
   286
1070
     0
1070
   341
1005
83B9
1070
   343
1005
83B9
1070
   344
1005
83B9
1002
}
  0
DIMENSION
  5
855F
330
83A6
100
AcDbEntity
  8
3
100
AcDbDimension
  2
*D56
 10
1251.860532852675
 20
2411.192209343381
 30
0.0
 11
969.3605328526746
 21
2548.942209343382
 31
0.0
 70
    32
  1
(<>)
 71
     5
 42
105.0
  3
IGA
100
AcDbAlignedDimension
 13
1752.120499998443
 23
2516.192209343382
 33
0.0
 14
1752.120499998443
 24
2411.192209343381
 34
0.0
 50
90.0
100
AcDbRotatedDimension
1001
ACAD
1000
DSTYLE
1002
{
1070
    40
1040
35.0
1070
   143
1040
0.039
1070
   172
1070
     1
1070
   271
1070
     4
1070
   272
1070
     4
1070
   279
1070
     1
1070
   284
1070
     0
1070
   285
1070
     0
1070
   286
1070
     0
1070
   341
1005
83B9
1070
   343
1005
83B9
1070
   344
1005
867E
1002
}
  0
DIMENSION
  5
8571
330
83A6
100
AcDbEntity
  8
3
100
AcDbDimension
  2
*D57
 10
1251.860532852675
 20
2346.192209343382
 30
0.0
 11
1251.860532852675
 21
2206.192209343381
 31
0.0
 70
   160
 71
     5
 42
65.0
  3
IGA
100
AcDbAlignedDimension
 13
1752.120499998443
 23
2411.192209343381
 33
0.0
 14
1752.120499998443
 24
2346.192209343382
 34
0.0
 50
90.0
100
AcDbRotatedDimension
1001
ACAD
1000
DSTYLE
1002
{
1070
    40
1040
35.0
1070
   143
1040
0.039
1070
   172
1070
     1
1070
   271
1070
     4
1070
   272
1070
     4
1070
   279
1070
     1
1070
   284
1070
     0
1070
   285
1070
     0
1070
   286
1070
     0
1070
   341
1005
83B9
1070
   343
1005
867E
1070
   344
1005
83B9
1002
}
  0
DIMENSION
  5
8583
330
83A6
100
AcDbEntity
  8
3
100
AcDbDimension
  2
*D58
 10
842.6665740762839
 20
4554.192209343383
 30
0.0
 11
727.666574076283
 21
3450.192209343383
 31
0.0
 70
    32
  1
(<>)
 71
     5
 42
2208.000000000001
  3
IGA
100
AcDbAlignedDimension
 13
1752.120499998443
 23
2346.192209343382
 33
0.0
 14
1652.120499998442
 24
4554.192209343383
 34
0.0
 50
90.0
100
AcDbRotatedDimension
1001
ACAD
1000
DSTYLE
1002
{
1070
    40
1040
35.0
1070
   143
1040
0.039
1070
   172
1070
     1
1070
   271
1070
     4
1070
   272
1070
     4
1070
   279
1070
     0
1070
   284
1070
     0
1070
   285
1070
     0
1070
   286
1070
     0
1070
   341
1005
83B9
1070
   343
1005
83B9
1070
   344
1005
83B9
1002
}
  0
ENDSEC
  0
SECTION
  2
OBJECTS
  0
DICTIONARY
  5
8343
330
0
100
AcDbDictionary
281
     1
  3
ACAD_CIP_PREVIOUS_PRODUCT_INFO
350
83ED
  3
ACAD_COLOR
350
8399
  3
ACAD_DETAILVIEWSTYLE
350
83A0
  3
ACAD_GROUP
350
8344
  3
ACAD_LAYOUT
350
8398
  3
ACAD_MATERIAL
350
8347
  3
ACAD_MLEADERSTYLE
350
839C
  3
ACAD_MLINESTYLE
350
8395
  3
ACAD_PLOTSETTINGS
350
8397
  3
ACAD_PLOTSTYLENAME
350
8345
  3
ACAD_SCALELIST
350
8379
  3
ACAD_SECTIONVIEWSTYLE
350
839E
  3
ACAD_TABLESTYLE
350
839A
  3
ACAD_VISUALSTYLE
350
8360
  3
ACDB_RECOMPOSE_DATA
350
8700
  3
AcDbVariableDictionary
350
86F3
  3
DWGPROPS
350
8701
  0
DICTIONARY
  5
86E9
330
838B
100
AcDbDictionary
280
     1
281
     1
  3
ADSK_XREC_LAYER_RECONCILED
360
86EA
  0
DICTIONARY
  5
86EB
330
83AA
100
AcDbDictionary
280
     1
281
     1
  3
ADSK_XREC_LAYER_RECONCILED
360
86EC
  0
DICTIONARY
  5
86ED
330
83AD
100
AcDbDictionary
280
     1
281
     1
  3
ADSK_XREC_LAYER_RECONCILED
360
86EE
  0
DICTIONARY
  5
86EF
330
83AE
100
AcDbDictionary
280
     1
281
     1
  3
ADSK_XREC_LAYER_RECONCILED
360
86F0
  0
DICTIONARY
  5
86F1
330
83AF
100
AcDbDictionary
280
     1
281
     1
  3
ADSK_XREC_LAYER_RECONCILED
360
86F2
  0
DICTIONARY
  5
8462
330
83A6
100
AcDbDictionary
280
     1
281
     1
  3
ACAD_SORTENTS
360
8463
  0
XRECORD
  5
83ED
102
{ACAD_REACTORS
330
8343
102
}
330
8343
100
AcDbXrecord
280
     1
300
ACDLT
300
2015
300
INVLTS_F_S
  0
DICTIONARY
  5
8399
102
{ACAD_REACTORS
330
8343
102
}
330
8343
100
AcDbDictionary
281
     1
  0
DICTIONARY
  5
83A0
102
{ACAD_REACTORS
330
8343
102
}
330
8343
100
AcDbDictionary
281
     1
  3
Imperial24
350
83A1
  0
DICTIONARY
  5
8344
102
{ACAD_REACTORS
330
8343
102
}
330
8343
100
AcDbDictionary
281
     1
  0
DICTIONARY
  5
8398
102
{ACAD_REACTORS
330
8343
102
}
330
8343
100
AcDbDictionary
281
     1
  3
Model
350
83A9
  3
レイアウト1
350
83A5
  0
DICTIONARY
  5
8347
102
{ACAD_REACTORS
330
8343
102
}
330
8343
100
AcDbDictionary
281
     1
  3
ByBlock
350
8350
  3
ByLayer
350
8348
  3
Global
350
8358
  0
DICTIONARY
  5
839C
102
{ACAD_REACTORS
330
8343
102
}
330
8343
100
AcDbDictionary
281
     1
  3
Standard
350
839D
  0
DICTIONARY
  5
8395
102
{ACAD_REACTORS
330
8343
102
}
330
8343
100
AcDbDictionary
281
     1
  3
Standard
350
8396
  0
DICTIONARY
  5
8397
102
{ACAD_REACTORS
330
8343
102
}
330
8343
100
AcDbDictionary
281
     1
  0
ACDBDICTIONARYWDFLT
  5
8345
102
{ACAD_REACTORS
330
8343
102
}
330
8343
100
AcDbDictionary
281
     1
  3
Normal
350
8346
100
AcDbDictionaryWithDefault
340
8346
  0
DICTIONARY
  5
8379
102
{ACAD_REACTORS
330
8343
102
}
330
8343
100
AcDbDictionary
281
     1
  3
A0
350
837A
  3
A1
350
837B
  3
A2
350
837C
  3
A3
350
837D
  3
A4
350
837E
  3
A5
350
837F
  3
A6
350
8380
  3
A7
350
8381
  3
A8
350
8382
  3
A9
350
8383
  3
B0
350
8384
  3
B1
350
8385
  3
B2
350
8386
  3
B3
350
8387
  3
B4
350
8388
  3
B5
350
8389
  3
B6
350
838A
  0
DICTIONARY
  5
839E
102
{ACAD_REACTORS
330
8343
102
}
330
8343
100
AcDbDictionary
281
     1
  3
Imperial24
350
839F
  0
DICTIONARY
  5
839A
102
{ACAD_REACTORS
330
8343
102
}
330
8343
100
AcDbDictionary
281
     1
  3
Standard
350
839B
  0
DICTIONARY
  5
8360
102
{ACAD_REACTORS
330
8343
102
}
330
8343
100
AcDbDictionary
281
     1
  3
2dWireframe
350
8366
  3
Basic
350
8365
  3
Brighten
350
836C
  3
ColorChange
350
8370
  3
Conceptual
350
8369
  3
Dim
350
836B
  3
EdgeColorOff
350
8378
  3
Facepattern
350
836F
  3
Flat
350
8361
  3
FlatWithEdges
350
8362
  3
Gouraud
350
8363
  3
GouraudWithEdges
350
8364
  3
Hidden
350
8368
  3
JitterOff
350
8376
  3
Linepattern
350
836E
  3
OverhangOff
350
8377
  3
Realistic
350
836A
  3
Shaded
350
8375
  3
Shaded with edges
350
8374
  3
Shades of Gray
350
8371
  3
Sketchy
350
8372
  3
Thicken
350
836D
  3
Wireframe
350
8367
  3
X-Ray
350
8373
  0
XRECORD
  5
8700
102
{ACAD_REACTORS
330
8343
102
}
330
8343
100
AcDbXrecord
280
     1
 90
        1
330
839B
  0
DICTIONARY
  5
86F3
102
{ACAD_REACTORS
330
8343
102
}
330
8343
100
AcDbDictionary
281
     1
  3
CANNOSCALE
350
86F8
  3
CMLEADERSTYLE
350
86F5
  3
CTABLESTYLE
350
86F4
  3
CVIEWDETAILSTYLE
350
86F6
  3
CVIEWSECTIONSTYLE
350
86F7
  3
DIMASSOC
350
86FB
  3
INDEXCTL
350
86FA
  3
SORTENTS
350
86F9
  3
XCLIPFRAME
350
86FC
  0
XRECORD
  5
8701
102
{ACAD_REACTORS
330
8343
102
}
330
8343
100
AcDbXrecord
280
     1
  1
DWGPROPS COOKIE
  2

  3

  4

  6

  7

  8
yasukiyo.ogawa
  9

300
=
301
=
302
=
303
=
304
=
305
=
306
=
307
=
308
=
309
=
 40
0.1498334259259259
 41
2451390.410467593
 42
2460273.592951921
  1

 90
        0
  0
XRECORD
  5
86EA
102
{ACAD_REACTORS
330
86E9
102
}
330
86E9
100
AcDbXrecord
280
     1
290
     1
  0
XRECORD
  5
86EC
102
{ACAD_REACTORS
330
86EB
102
}
330
86EB
100
AcDbXrecord
280
     1
290
     1
  0
XRECORD
  5
86EE
102
{ACAD_REACTORS
330
86ED
102
}
330
86ED
100
AcDbXrecord
280
     1
290
     1
  0
XRECORD
  5
86F0
102
{ACAD_REACTORS
330
86EF
102
}
330
86EF
100
AcDbXrecord
280
     1
290
     1
  0
XRECORD
  5
86F2
102
{ACAD_REACTORS
330
86F1
102
}
330
86F1
100
AcDbXrecord
280
     1
290
     1
  0
SORTENTSTABLE
  5
8463
102
{ACAD_REACTORS
330
8462
102
}
330
8462
100
AcDbSortentsTable
330
83A6
331
7F2F
  5
7F31
331
7F27
  5
7F29
331
7CCC
  5
7CCE
331
7CBB
  5
7CBD
331
7CAA
  5
7CAC
331
7C99
  5
7C9B
331
7C7F
  5
7C81
331
7C5D
  5
7C5F
331
7C3B
  5
7C3D
331
7C2A
  5
7C2A
331
7C19
  5
7C19
331
7F30
  5
7F32
331
7CCD
  5
7CCF
331
7CBC
  5
7CBE
331
7CAB
  5
7CAD
331
7C9A
  5
7C9E
331
7C80
  5
7C82
331
7C6F
  5
7C71
331
7C5E
  5
7C61
331
7C4D
  5
7C4F
331
7C3C
  5
7C3E
331
7C2B
  5
7C2B
331
7C1A
  5
7C1A
331
7F31
  5
7F33
331
7CCE
  5
7CD0
331
7CBD
  5
7CBF
331
7CAC
  5
7CAE
331
7C9B
  5
7C9F
331
7C8A
  5
7C8C
331
7C81
  5
7C83
331
7C70
  5
7C72
331
7C5F
  5
7C62
331
7C4E
  5
7C50
331
7C3D
  5
7C3F
331
7C2C
  5
7C2C
331
7C1B
  5
7C1B
331
7F32
  5
7F34
331
7CCF
  5
7CD1
331
7CBE
  5
7CC0
331
7CAD
  5
7CAF
331
7C8B
  5
7C8D
331
7C82
  5
7C84
331
7C4F
  5
7C51
331
7C3E
  5
7C40
331
7C2D
  5
7C2D
331
7C1C
  5
7C1C
331
7F33
  5
7F35
331
7F1A
  5
7F1C
331
7CD0
  5
7CD2
331
7CBF
  5
7CC1
331
7CAE
  5
7CB0
331
7C8C
  5
7C8F
331
7C83
  5
7C85
331
7C61
  5
7C63
331
7C50
  5
7C52
331
7C3F
  5
7C42
331
7C2E
  5
7C30
331
7C1D
  5
7C1D
331
7F34
  5
7F36
331
7F1B
  5
7F1F
331
7CD1
  5
7CD3
331
7CC0
  5
7CC2
331
7CAF
  5
7CB1
331
7C9E
  5
7CA0
331
7C8D
  5
7C90
331
7C84
  5
7C86
331
7C73
  5
7C75
331
7C62
  5
7C66
331
7C51
  5
7C56
331
7C40
  5
7C43
331
7C2F
  5
7C31
331
7C1E
  5
7C1E
331
7CC1
  5
7CC3
331
7CB0
  5
7CB2
331
7C9F
  5
7CA1
331
7C85
  5
7C88
331
7C74
  5
7C76
331
7C63
  5
7C67
331
7C52
  5
7C57
331
7C30
  5
7C32
331
7F35
  5
7F37
331
7F1C
  5
7F20
331
7CD2
  5
7CD4
331
7C1F
  5
7C1F
331
7F36
  5
7F38
331
7CE4
  5
7CE9
331
7CD3
  5
7CD5
331
7CC2
  5
7CC4
331
7CA0
  5
7CA2
331
7C8F
  5
7C91
331
7C75
  5
7C77
331
7C31
  5
7C33
331
7C20
  5
7C20
331
7F37
  5
812A
331
7CD4
  5
7CD6
331
7CC3
  5
7CC5
331
7CA1
  5
7CA3
331
7C90
  5
7C92
331
7C76
  5
7C78
331
7C32
  5
7C34
331
7C21
  5
7C21
331
7F38
  5
8137
331
7CC4
  5
7CC6
331
7CA2
  5
7CA4
331
7C91
  5
7C93
331
7C77
  5
7C79
331
7C66
  5
7C68
331
7C33
  5
7C35
331
7F1F
  5
7F21
331
7CD5
  5
7CD7
331
7C22
  5
7C22
331
7F28
  5
7F2A
331
7F20
  5
7F22
331
7C45
  5
7C47
331
7C34
  5
7C36
331
7CD6
  5
7CD8
331
7CC5
  5
7CC7
331
7CA3
  5
7CA5
331
7C92
  5
7C95
331
7C78
  5
7C7A
331
7C67
  5
7C69
331
7C56
  5
7C58
331
7C23
  5
7C23
331
7F29
  5
7F2B
331
7F21
  5
7F23
331
7CE8
  5
7CEA
331
7CD7
  5
7CD9
331
7CC6
  5
7CC8
331
7CA4
  5
7CA6
331
7C93
  5
7C97
331
7C79
  5
7C7B
331
7C68
  5
7C6A
331
7C57
  5
7C59
331
7C46
  5
7C48
331
7C35
  5
7C37
331
7C24
  5
7C24
331
7F2A
  5
7F2C
331
7F22
  5
7F24
331
7CE9
  5
7CEB
331
7CD8
  5
7CDA
331
7CC7
  5
7CC9
331
7CA5
  5
7CA7
331
7C7A
  5
7C7C
331
7C69
  5
7C6C
331
7C58
  5
7C5A
331
7C47
  5
7C49
331
7C36
  5
7C39
331
7C25
  5
7C25
331
7F2B
  5
7F2D
331
7F23
  5
7F26
331
7CEA
  5
7F1A
331
7CD9
  5
7CDB
331
7CC8
  5
7CCA
331
7CA6
  5
7CA8
331
7C95
  5
7C98
331
7C7B
  5
7C7D
331
7C6A
  5
7C6F
331
7C59
  5
7C5B
331
7C48
  5
7C4D
331
7C37
  5
7C3A
331
7C26
  5
7C26
331
7F2C
  5
7F2E
331
7F24
  5
7F27
331
7CEB
  5
7F1B
331
7CDA
  5
7CE3
331
7CC9
  5
7CCB
331
7CA7
  5
7CA9
331
7C7C
  5
7C7E
331
7C5A
  5
7C5C
331
7C49
  5
7C4E
331
7C27
  5
7C27
331
7C16
  5
7C16
331
7F2D
  5
7F2F
331
7CDB
  5
7CE4
331
7CCA
  5
7CCC
331
7CA8
  5
7CAA
331
7C7D
  5
7C7F
331
7C6C
  5
7C70
331
7C5B
  5
7C5D
331
7C39
  5
7C3B
331
7C28
  5
7C28
331
7F2E
  5
7F30
331
7F26
  5
7F28
331
7CCB
  5
7CCD
331
7CBA
  5
7CBC
331
7C98
  5
7C9A
331
7C7E
  5
7C80
331
7C5C
  5
7C5E
331
7C3A
  5
7C3C
331
7C29
  5
7C29
331
7C18
  5
7C18
  0
ACDBDETAILVIEWSTYLE
  5
83A1
102
{ACAD_XDICTIONARY
360
8739
102
}
102
{ACAD_REACTORS
330
83A0
102
}
330
83A0
100
AcDbModelDocViewStyle
 70
     0
  3
Imperial24
290
     0
100
AcDbDetailViewStyle
 70
     0
 71
     0
 90
        3
 71
     1
340
838C
 40
0.24
340
0
 40
0.24
300

 40
0.36
280
     3
 71
     2
340
8393
 90
       25
 71
     3
340
838C
 40
0.24
 90
        1
 40
0.75
 90
        1
300
%<\AcVar ViewType \f "%tc1">% %<\AcVar ViewDetailId>%\PSCALE %<\AcVar ViewScale \f "%sn">%
 71
     4
340
8393
 90
       25
340
8393
 90
       25
280
     0
  0
LAYOUT
  5
83A9
102
{ACAD_XDICTIONARY
360
873D
102
}
102
{ACAD_REACTORS
330
8398
102
}
330
8398
100
AcDbPlotSettings
  1

  2
RICOH imagio MP W3600 RPCS
  4

  6

 40
0.0
 41
0.0
 42
0.0
 43
0.0
 44
0.0
 45
0.0
 46
0.0
 47
0.0
 48
0.0
 49
0.0
140
0.0
141
0.0
142
1.0
143
1.0
 70
  1712
 72
     0
 73
     0
 74
     0
  7

 75
     0
147
1.0
148
0.0
149
0.0
100
AcDbLayout
  1
Model
 70
     1
 71
     0
 10
0.0
 20
0.0
 11
12.0
 21
9.0
 12
0.0
 22
0.0
 32
0.0
 14
0.0
 24
0.0
 34
0.0
 15
0.0
 25
0.0
 35
0.0
146
0.0
 13
0.0
 23
0.0
 33
0.0
 16
1.0
 26
0.0
 36
0.0
 17
0.0
 27
1.0
 37
0.0
 76
     0
330
83A6
331
83AB
  0
LAYOUT
  5
83A5
102
{ACAD_XDICTIONARY
360
873B
102
}
102
{ACAD_REACTORS
330
8398
102
}
330
8398
100
AcDbPlotSettings
  1

  2
RICOH imagio MP W3600 RPCS
  4

  6

 40
0.0
 41
0.0
 42
0.0
 43
0.0
 44
0.0
 45
0.0
 46
0.0
 47
0.0
 48
0.0
 49
0.0
140
0.0
141
0.0
142
1.0
143
1.0
 70
   688
 72
     0
 73
     0
 74
     5
  7

 75
    16
147
1.0
148
0.0
149
0.0
100
AcDbLayout
  1
レイアウト1
 70
     1
 71
     1
 10
0.0
 20
0.0
 11
12.0
 21
9.0
 12
0.0
 22
0.0
 32
0.0
 14
1.000000000000000E+20
 24
1.000000000000000E+20
 34
1.000000000000000E+20
 15
-1.000000000000000E+20
 25
-1.000000000000000E+20
 35
-1.000000000000000E+20
146
0.0
 13
0.0
 23
0.0
 33
0.0
 16
1.0
 26
0.0
 36
0.0
 17
0.0
 27
1.0
 37
0.0
 76
     0
330
83A2
  0
MATERIAL
  5
8350
102
{ACAD_XDICTIONARY
360
8351
102
}
102
{ACAD_REACTORS
330
8347
102
}
330
8347
100
AcDbMaterial
  1
ByBlock
 72
     0
 43
0.0208333333333333
 43
0.0
 43
0.0
 43
0.0
 43
0.0
 43
0.0208333333333333
 43
0.0
 43
0.0
 43
0.0
 43
0.0
 43
1.0
 43
0.0
 43
0.0
 43
0.0
 43
0.0
 43
1.0
 77
     0
 47
0.0208333333333333
 47
0.0
 47
0.0
 47
0.0
 47
0.0
 47
0.0208333333333333
 47
0.0
 47
0.0
 47
0.0
 47
0.0
 47
1.0
 47
0.0
 47
0.0
 47
0.0
 47
0.0
 47
1.0
171
     0
 49
0.0208333333333333
 49
0.0
 49
0.0
 49
0.0
 49
0.0
 49
0.0208333333333333
 49
0.0
 49
0.0
 49
0.0
 49
0.0
 49
1.0
 49
0.0
 49
0.0
 49
0.0
 49
0.0
 49
1.0
175
     0
142
0.0208333333333333
142
0.0
142
0.0
142
0.0
142
0.0
142
0.0208333333333333
142
0.0
142
0.0
142
0.0
142
0.0
142
1.0
142
0.0
142
0.0
142
0.0
142
0.0
142
1.0
179
     0
144
0.0208333333333333
144
0.0
144
0.0
144
0.0
144
0.0
144
0.0208333333333333
144
0.0
144
0.0
144
0.0
144
0.0
144
1.0
144
0.0
144
0.0
144
0.0
144
0.0
144
1.0
147
0.0208333333333333
147
0.0
147
0.0
147
0.0
147
0.0
147
0.0208333333333333
147
0.0
147
0.0
147
0.0
147
0.0
147
1.0
147
0.0
147
0.0
147
0.0
147
0.0
147
1.0
  0
MATERIAL
  5
8348
102
{ACAD_XDICTIONARY
360
8349
102
}
102
{ACAD_REACTORS
330
8347
102
}
330
8347
100
AcDbMaterial
  1
ByLayer
 72
     0
 43
0.0208333333333333
 43
0.0
 43
0.0
 43
0.0
 43
0.0
 43
0.0208333333333333
 43
0.0
 43
0.0
 43
0.0
 43
0.0
 43
1.0
 43
0.0
 43
0.0
 43
0.0
 43
0.0
 43
1.0
 77
     0
 47
0.0208333333333333
 47
0.0
 47
0.0
 47
0.0
 47
0.0
 47
0.0208333333333333
 47
0.0
 47
0.0
 47
0.0
 47
0.0
 47
1.0
 47
0.0
 47
0.0
 47
0.0
 47
0.0
 47
1.0
171
     0
 49
0.0208333333333333
 49
0.0
 49
0.0
 49
0.0
 49
0.0
 49
0.0208333333333333
 49
0.0
 49
0.0
 49
0.0
 49
0.0
 49
1.0
 49
0.0
 49
0.0
 49
0.0
 49
0.0
 49
1.0
175
     0
142
0.0208333333333333
142
0.0
142
0.0
142
0.0
142
0.0
142
0.0208333333333333
142
0.0
142
0.0
142
0.0
142
0.0
142
1.0
142
0.0
142
0.0
142
0.0
142
0.0
142
1.0
179
     0
144
0.0208333333333333
144
0.0
144
0.0
144
0.0
144
0.0
144
0.0208333333333333
144
0.0
144
0.0
144
0.0
144
0.0
144
1.0
144
0.0
144
0.0
144
0.0
144
0.0
144
1.0
147
0.0208333333333333
147
0.0
147
0.0
147
0.0
147
0.0
147
0.0208333333333333
147
0.0
147
0.0
147
0.0
147
0.0
147
1.0
147
0.0
147
0.0
147
0.0
147
0.0
147
1.0
  0
MATERIAL
  5
8358
102
{ACAD_XDICTIONARY
360
8359
102
}
102
{ACAD_REACTORS
330
8347
102
}
330
8347
100
AcDbMaterial
  1
Global
 72
     0
 43
0.0208333333333333
 43
0.0
 43
0.0
 43
0.0
 43
0.0
 43
0.0208333333333333
 43
0.0
 43
0.0
 43
0.0
 43
0.0
 43
1.0
 43
0.0
 43
0.0
 43
0.0
 43
0.0
 43
1.0
 77
     0
 47
0.0208333333333333
 47
0.0
 47
0.0
 47
0.0
 47
0.0
 47
0.0208333333333333
 47
0.0
 47
0.0
 47
0.0
 47
0.0
 47
1.0
 47
0.0
 47
0.0
 47
0.0
 47
0.0
 47
1.0
171
     0
 49
0.0208333333333333
 49
0.0
 49
0.0
 49
0.0
 49
0.0
 49
0.0208333333333333
 49
0.0
 49
0.0
 49
0.0
 49
0.0
 49
1.0
 49
0.0
 49
0.0
 49
0.0
 49
0.0
 49
1.0
175
     0
142
0.0208333333333333
142
0.0
142
0.0
142
0.0
142
0.0
142
0.0208333333333333
142
0.0
142
0.0
142
0.0
142
0.0
142
1.0
142
0.0
142
0.0
142
0.0
142
0.0
142
1.0
179
     0
144
0.0208333333333333
144
0.0
144
0.0
144
0.0
144
0.0
144
0.0208333333333333
144
0.0
144
0.0
144
0.0
144
0.0
144
1.0
144
0.0
144
0.0
144
0.0
144
0.0
144
1.0
147
0.0208333333333333
147
0.0
147
0.0
147
0.0
147
0.0
147
0.0208333333333333
147
0.0
147
0.0
147
0.0
147
0.0
147
1.0
147
0.0
147
0.0
147
0.0
147
0.0
147
1.0
  0
MLEADERSTYLE
  5
839D
102
{ACAD_REACTORS
330
839C
102
}
330
839C
100
AcDbMLeaderStyle
170
     2
171
     1
172
     0
 90
        2
 40
0.0
 41
0.0
173
     1
 91
-1056964608
340
8391
 92
       -2
290
     1
 42
0.09
291
     1
 43
0.36
  3
Standard
 44
0.18
300

342
838C
174
     1
178
     6
175
     1
176
     0
 93
-1056964608
 45
0.18
292
     0
297
     0
 46
0.18
 94
-1056964608
 47
1.0
 49
1.0
140
1.0
293
     1
141
0.0
294
     1
177
     0
142
1.0
295
     0
296
     0
143
0.125
1001
ACAD_MLEADERVER
1070
     2
  0
MLINESTYLE
  5
8396
102
{ACAD_REACTORS
330
8395
102
}
330
8395
100
AcDbMlineStyle
  2
STANDARD
 70
     0
  3

 62
   256
 51
90.0
 52
90.0
 71
     2
 49
0.5
 62
   256
  6
BYLAYER
 49
-0.5
 62
   256
  6
BYLAYER
  0
ACDBPLACEHOLDER
  5
8346
102
{ACAD_REACTORS
330
8345
102
}
330
8345
  0
SCALE
  5
837A
102
{ACAD_REACTORS
330
8379
102
}
330
8379
100
AcDbScale
 70
     0
300
1:1
140
1.0
141
1.0
290
     1
  0
SCALE
  5
837B
102
{ACAD_REACTORS
330
8379
102
}
330
8379
100
AcDbScale
 70
     0
300
1/128" = 1'-0"
140
0.0078125
141
12.0
290
     0
  0
SCALE
  5
837C
102
{ACAD_REACTORS
330
8379
102
}
330
8379
100
AcDbScale
 70
     0
300
1/64" = 1'-0"
140
0.015625
141
12.0
290
     0
  0
SCALE
  5
837D
102
{ACAD_REACTORS
330
8379
102
}
330
8379
100
AcDbScale
 70
     0
300
1/32" = 1'-0"
140
0.03125
141
12.0
290
     0
  0
SCALE
  5
837E
102
{ACAD_REACTORS
330
8379
102
}
330
8379
100
AcDbScale
 70
     0
300
1/16" = 1'-0"
140
0.0625
141
12.0
290
     0
  0
SCALE
  5
837F
102
{ACAD_REACTORS
330
8379
102
}
330
8379
100
AcDbScale
 70
     0
300
3/32" = 1'-0"
140
0.09375
141
12.0
290
     0
  0
SCALE
  5
8380
102
{ACAD_REACTORS
330
8379
102
}
330
8379
100
AcDbScale
 70
     0
300
1/8" = 1'-0"
140
0.125
141
12.0
290
     0
  0
SCALE
  5
8381
102
{ACAD_REACTORS
330
8379
102
}
330
8379
100
AcDbScale
 70
     0
300
3/16" = 1'-0"
140
0.1875
141
12.0
290
     0
  0
SCALE
  5
8382
102
{ACAD_REACTORS
330
8379
102
}
330
8379
100
AcDbScale
 70
     0
300
1/4" = 1'-0"
140
0.25
141
12.0
290
     0
  0
SCALE
  5
8383
102
{ACAD_REACTORS
330
8379
102
}
330
8379
100
AcDbScale
 70
     0
300
3/8" = 1'-0"
140
0.375
141
12.0
290
     0
  0
SCALE
  5
8384
102
{ACAD_REACTORS
330
8379
102
}
330
8379
100
AcDbScale
 70
     0
300
1/2" = 1'-0"
140
0.5
141
12.0
290
     0
  0
SCALE
  5
8385
102
{ACAD_REACTORS
330
8379
102
}
330
8379
100
AcDbScale
 70
     0
300
3/4" = 1'-0"
140
0.75
141
12.0
290
     0
  0
SCALE
  5
8386
102
{ACAD_REACTORS
330
8379
102
}
330
8379
100
AcDbScale
 70
     0
300
1" = 1'-0"
140
1.0
141
12.0
290
     0
  0
SCALE
  5
8387
102
{ACAD_REACTORS
330
8379
102
}
330
8379
100
AcDbScale
 70
     0
300
1-1/2" = 1'-0"
140
1.5
141
12.0
290
     0
  0
SCALE
  5
8388
102
{ACAD_REACTORS
330
8379
102
}
330
8379
100
AcDbScale
 70
     0
300
3" = 1'-0"
140
3.0
141
12.0
290
     0
  0
SCALE
  5
8389
102
{ACAD_REACTORS
330
8379
102
}
330
8379
100
AcDbScale
 70
     0
300
6" = 1'-0"
140
6.0
141
12.0
290
     0
  0
SCALE
  5
838A
102
{ACAD_REACTORS
330
8379
102
}
330
8379
100
AcDbScale
 70
     0
300
1'-0" = 1'-0"
140
12.0
141
12.0
290
     0
  0
ACDBSECTIONVIEWSTYLE
  5
839F
102
{ACAD_XDICTIONARY
360
8737
102
}
102
{ACAD_REACTORS
330
839E
102
}
330
839E
100
AcDbModelDocViewStyle
 70
     0
  3
Imperial24
290
     0
100
AcDbSectionViewStyle
 70
     0
 71
     0
 90
       78
 71
     1
340
838C
 40
0.24
340
0
340
0
 40
0.24
300
I, O, Q, S, X, Z
 40
0.48
 90
        3
 40
0.18
 90
        1
 71
     2
340
8393
 90
       25
340
8393
 90
       50
 40
0.24
 40
0.0
 40
0.24
 71
     3
340
838C
 40
0.24
 90
        1
 40
0.75
 90
        1
300
%<\AcVar ViewType \f "%tc1">% %<\AcVar ViewSectionStartId>%-%<\AcVar ViewSectionEndId>%\PSCALE %<\AcVar ViewScale \f "%sn">%
 71
     4
300
ANSI31
 40
1.0
 90
        0
290
     0
290
     0
 90
        6
 40
0.0
 40
1.570796326794896
 40
0.2617993877991494
 40
1.308996938995747
 40
-0.2617993877991494
 40
1.832595714594046
  0
TABLESTYLE
  5
839B
102
{ACAD_XDICTIONARY
360
86FE
102
}
102
{ACAD_REACTORS
330
839A
102
}
330
839A
100
AcDbTableStyle
  3
Standard
 70
     0
 71
     0
 40
0.06
 41
0.06
280
     0
281
     0
  7
STANDARD
140
0.18
170
     2
 62
     0
 63
     7
283
     0
274
    -2
284
     1
 64
     0
275
    -2
285
     1
 65
     0
276
    -2
286
     1
 66
     0
277
    -2
287
     1
 67
     0
278
    -2
288
     1
 68
     0
279
    -2
289
     1
 69
     0
  7
STANDARD
140
0.25
170
     5
 62
     0
 63
     7
283
     0
274
    -2
284
     1
 64
     0
275
    -2
285
     1
 65
     0
276
    -2
286
     1
 66
     0
277
    -2
287
     1
 67
     0
278
    -2
288
     1
 68
     0
279
    -2
289
     1
 69
     0
  7
STANDARD
140
0.18
170
     5
 62
     0
 63
     7
283
     0
274
    -2
284
     1
 64
     0
275
    -2
285
     1
 65
     0
276
    -2
286
     1
 66
     0
277
    -2
287
     1
 67
     0
278
    -2
288
     1
 68
     0
279
    -2
289
     1
 69
     0
  0
VISUALSTYLE
  5
8366
102
{ACAD_XDICTIONARY
360
870F
102
}
102
{ACAD_REACTORS
330
8360
102
}
330
8360
100
AcDbVisualStyle
  2
2dWireframe
 70
     4
 71
     0
 72
     2
 73
     0
 90
        0
 40
-0.6
 41
-30.0
 62
     5
 63
     7
 74
     1
 91
        4
 64
     7
 65
   257
 75
     1
175
     1
 42
1.0
 92
        0
 66
   257
 43
1.0
 76
     1
 77
     6
 78
     2
 67
     7
 79
     5
170
     0
171
     0
290
     0
174
     0
 93
        1
 44
0.0
173
     0
291
     0
 45
0.0
1001
ACAD
1000
AcDbSavedByObjectVersion
1070
     0
  0
VISUALSTYLE
  5
8365
102
{ACAD_XDICTIONARY
360
870D
102
}
102
{ACAD_REACTORS
330
8360
102
}
330
8360
100
AcDbVisualStyle
  2
Basic
 70
     7
 71
     1
 72
     0
 73
     1
 90
        0
 40
-0.6
 41
-30.0
 62
     5
 63
     7
 74
     0
 91
        4
 64
     7
 65
   257
 75
     1
175
     1
 42
1.0
 92
        8
 66
     7
 43
1.0
 76
     1
 77
     6
 78
     2
 67
     7
 79
     5
170
     0
171
     0
290
     0
174
     0
 93
        1
 44
0.0
173
     0
291
     1
 45
0.0
1001
ACAD
1000
AcDbSavedByObjectVersion
1070
     0
  0
VISUALSTYLE
  5
836C
102
{ACAD_XDICTIONARY
360
871B
102
}
102
{ACAD_REACTORS
330
8360
102
}
330
8360
100
AcDbVisualStyle
  2
Brighten
 70
    12
 71
     2
 72
     2
 73
     0
 90
        0
 40
-0.6
 41
-30.0
 62
     5
 63
     7
 74
     1
 91
        4
 64
     7
 65
   257
 75
     1
175
     1
 42
1.0
 92
        8
 66
     7
 43
1.0
 76
     1
 77
     6
 78
     2
 67
     7
 79
     5
170
     0
171
     0
290
     0
174
     0
 93
        1
 44
50.0
173
     0
291
     1
 45
0.0
1001
ACAD
1000
AcDbSavedByObjectVersion
1070
     0
  0
VISUALSTYLE
  5
8370
102
{ACAD_XDICTIONARY
360
8723
102
}
102
{ACAD_REACTORS
330
8360
102
}
330
8360
100
AcDbVisualStyle
  2
ColorChange
 70
    16
 71
     2
 72
     2
 73
     3
 90
        0
 40
-0.6
 41
-30.0
 62
     5
 63
     8
 74
     1
 91
        4
 64
     7
 65
   257
 75
     1
175
     1
 42
1.0
 92
        8
 66
     8
 43
1.0
 76
     1
 77
     6
 78
     2
 67
     7
 79
     5
170
     0
171
     0
290
     0
174
     0
 93
        1
 44
0.0
173
     0
291
     1
 45
0.0
1001
ACAD
1000
AcDbSavedByObjectVersion
1070
     0
  0
VISUALSTYLE
  5
8369
102
{ACAD_XDICTIONARY
360
8715
102
}
102
{ACAD_REACTORS
330
8360
102
}
330
8360
100
AcDbVisualStyle
  2
Conceptual
 70
     9
 71
     3
 72
     2
 73
     0
 90
        0
 40
-0.6
 41
-30.0
 62
     5
 63
     7
 74
     2
 91
        2
 64
     7
 65
   257
 75
     1
175
     1
 42
179.0
 92
        8
 66
     7
 43
1.0
 76
     1
 77
     6
 78
     2
 67
     7
 79
     3
170
     0
171
     0
290
     0
174
     0
 93
        1
 44
0.0
173
     0
291
     0
 45
0.0
1001
ACAD
1000
AcDbSavedByObjectVersion
1070
     0
  0
VISUALSTYLE
  5
836B
102
{ACAD_XDICTIONARY
360
8719
102
}
102
{ACAD_REACTORS
330
8360
102
}
330
8360
100
AcDbVisualStyle
  2
Dim
 70
    11
 71
     2
 72
     2
 73
     0
 90
        0
 40
-0.6
 41
-30.0
 62
     5
 63
     7
 74
     1
 91
        4
 64
     7
 65
   257
 75
     1
175
     1
 42
1.0
 92
        8
 66
     7
 43
1.0
 76
     1
 77
     6
 78
     2
 67
     7
 79
     5
170
     0
171
     0
290
     0
174
     0
 93
        1
 44
-50.0
173
     0
291
     1
 45
0.0
1001
ACAD
1000
AcDbSavedByObjectVersion
1070
     0
  0
VISUALSTYLE
  5
8378
102
{ACAD_XDICTIONARY
360
8733
102
}
102
{ACAD_REACTORS
330
8360
102
}
330
8360
100
AcDbVisualStyle
  2
EdgeColorOff
 70
    22
 71
     2
 72
     2
 73
     0
 90
        0
 40
-0.6
 41
-30.0
 62
     5
 63
     7
 74
     1
 91
        4
 64
     7
 65
   257
 75
     1
175
     1
 42
1.0
 92
        8
 66
     7
 43
1.0
 76
     1
 77
     6
 78
     2
 67
     7
 79
     5
170
     0
171
     0
290
     0
174
     0
 93
        1
 44
0.0
173
     0
291
     1
 45
0.0
1001
ACAD
1000
AcDbSavedByObjectVersion
1070
     0
  0
VISUALSTYLE
  5
836F
102
{ACAD_XDICTIONARY
360
8721
102
}
102
{ACAD_REACTORS
330
8360
102
}
330
8360
100
AcDbVisualStyle
  2
Facepattern
 70
    15
 71
     2
 72
     2
 73
     0
 90
        0
 40
-0.6
 41
-30.0
 62
     5
 63
     7
 74
     1
 91
        4
 64
     7
 65
   257
 75
     1
175
     1
 42
1.0
 92
        8
 66
     7
 43
1.0
 76
     1
 77
     6
 78
     2
 67
     7
 79
     5
170
     0
171
     0
290
     0
174
     0
 93
        1
 44
0.0
173
     0
291
     1
 45
0.0
1001
ACAD
1000
AcDbSavedByObjectVersion
1070
     0
  0
VISUALSTYLE
  5
8361
102
{ACAD_XDICTIONARY
360
8705
102
}
102
{ACAD_REACTORS
330
8360
102
}
330
8360
100
AcDbVisualStyle
  2
Flat
 70
     0
 71
     2
 72
     1
 73
     1
 90
        2
 40
-0.6
 41
30.0
 62
     5
 63
     7
 74
     0
 91
        0
 64
     7
 65
   257
 75
     1
175
     1
 42
1.0
 92
        8
 66
     7
 43
1.0
 76
     1
 77
     6
 78
     2
 67
     7
 79
     5
170
     0
171
     0
290
     0
174
     0
 93
       13
 44
0.0
173
     0
291
     1
 45
0.0
1001
ACAD
1000
AcDbSavedByObjectVersion
1070
     0
  0
VISUALSTYLE
  5
8362
102
{ACAD_XDICTIONARY
360
8707
102
}
102
{ACAD_REACTORS
330
8360
102
}
330
8360
100
AcDbVisualStyle
  2
FlatWithEdges
 70
     1
 71
     2
 72
     1
 73
     1
 90
        2
 40
-0.6
 41
30.0
 62
     5
 63
     7
 74
     1
 91
        0
 64
     7
 65
   257
 75
     1
175
     1
 42
1.0
 92
        0
 66
   257
 43
1.0
 76
     1
 77
     6
 78
     2
 67
     7
 79
     5
170
     0
171
     0
290
     0
174
     0
 93
       13
 44
0.0
173
     0
291
     1
 45
0.0
1001
ACAD
1000
AcDbSavedByObjectVersion
1070
     0
  0
VISUALSTYLE
  5
8363
102
{ACAD_XDICTIONARY
360
8709
102
}
102
{ACAD_REACTORS
330
8360
102
}
330
8360
100
AcDbVisualStyle
  2
Gouraud
 70
     2
 71
     2
 72
     2
 73
     1
 90
        2
 40
-0.6
 41
30.0
 62
     5
 63
     7
 74
     0
 91
        0
 64
     7
 65
   257
 75
     1
175
     1
 42
1.0
 92
        0
 66
     7
 43
1.0
 76
     1
 77
     6
 78
     2
 67
     7
 79
     5
170
     0
171
     0
290
     0
174
     0
 93
       13
 44
0.0
173
     0
291
     1
 45
0.0
1001
ACAD
1000
AcDbSavedByObjectVersion
1070
     0
  0
VISUALSTYLE
  5
8364
102
{ACAD_XDICTIONARY
360
870B
102
}
102
{ACAD_REACTORS
330
8360
102
}
330
8360
100
AcDbVisualStyle
  2
GouraudWithEdges
 70
     3
 71
     2
 72
     2
 73
     1
 90
        2
 40
-0.6
 41
30.0
 62
     5
 63
     7
 74
     1
 91
        0
 64
     7
 65
   257
 75
     1
175
     1
 42
1.0
 92
        0
 66
   257
 43
1.0
 76
     1
 77
     6
 78
     2
 67
     7
 79
     5
170
     0
171
     0
290
     0
174
     0
 93
       13
 44
0.0
173
     0
291
     1
 45
0.0
1001
ACAD
1000
AcDbSavedByObjectVersion
1070
     0
  0
VISUALSTYLE
  5
8368
102
{ACAD_XDICTIONARY
360
8713
102
}
102
{ACAD_REACTORS
330
8360
102
}
330
8360
100
AcDbVisualStyle
  2
Hidden
 70
     6
 71
     1
 72
     2
 73
     2
 90
        0
 40
-0.6
 41
-30.0
 62
     5
 63
     7
 74
     2
 91
        2
 64
     7
 65
   257
 75
     2
175
     1
 42
40.0
 92
        0
 66
   257
 43
1.0
 76
     1
 77
     6
 78
     2
 67
     7
 79
     3
170
     0
171
     0
290
     0
174
     0
 93
        1
 44
0.0
173
     0
291
     0
 45
0.0
1001
ACAD
1000
AcDbSavedByObjectVersion
1070
     0
  0
VISUALSTYLE
  5
8376
102
{ACAD_XDICTIONARY
360
872F
102
}
102
{ACAD_REACTORS
330
8360
102
}
330
8360
100
AcDbVisualStyle
  2
JitterOff
 70
    20
 71
     2
 72
     2
 73
     0
 90
        0
 40
-0.6
 41
-30.0
 62
     5
 63
     7
 74
     1
 91
        4
 64
     7
 65
   257
 75
     1
175
     1
 42
1.0
 92
       10
 66
     7
 43
1.0
 76
     1
 77
     6
 78
     2
 67
     7
 79
     5
170
     0
171
     0
290
     0
174
     0
 93
        1
 44
0.0
173
     0
291
     1
 45
0.0
1001
ACAD
1000
AcDbSavedByObjectVersion
1070
     0
  0
VISUALSTYLE
  5
836E
102
{ACAD_XDICTIONARY
360
871F
102
}
102
{ACAD_REACTORS
330
8360
102
}
330
8360
100
AcDbVisualStyle
  2
Linepattern
 70
    14
 71
     2
 72
     2
 73
     0
 90
        0
 40
-0.6
 41
-30.0
 62
     5
 63
     7
 74
     1
 91
        4
 64
     7
 65
   257
 75
     7
175
     7
 42
1.0
 92
        8
 66
     7
 43
1.0
 76
     1
 77
     6
 78
     2
 67
     7
 79
     5
170
     0
171
     0
290
     0
174
     0
 93
        1
 44
0.0
173
     0
291
     1
 45
0.0
1001
ACAD
1000
AcDbSavedByObjectVersion
1070
     0
  0
VISUALSTYLE
  5
8377
102
{ACAD_XDICTIONARY
360
8731
102
}
102
{ACAD_REACTORS
330
8360
102
}
330
8360
100
AcDbVisualStyle
  2
OverhangOff
 70
    21
 71
     2
 72
     2
 73
     0
 90
        0
 40
-0.6
 41
-30.0
 62
     5
 63
     7
 74
     1
 91
        4
 64
     7
 65
   257
 75
     1
175
     1
 42
1.0
 92
        9
 66
     7
 43
1.0
 76
     1
 77
     6
 78
     2
 67
     7
 79
     5
170
     0
171
     0
290
     0
174
     0
 93
        1
 44
0.0
173
     0
291
     1
 45
0.0
1001
ACAD
1000
AcDbSavedByObjectVersion
1070
     0
  0
VISUALSTYLE
  5
836A
102
{ACAD_XDICTIONARY
360
8717
102
}
102
{ACAD_REACTORS
330
8360
102
}
330
8360
100
AcDbVisualStyle
  2
Realistic
 70
     8
 71
     2
 72
     3
 73
     0
 90
        2
 40
-0.6
 41
30.0
 62
     5
 63
     7
 74
     0
 91
        0
 64
     7
 65
   257
 75
     1
175
     1
 42
1.0
 92
        8
 66
   257
 43
1.0
 76
     1
 77
     6
 78
     2
 67
     7
 79
     3
170
     0
171
     0
290
     0
174
     0
 93
       13
 44
0.0
173
     0
291
     0
 45
0.0
1001
ACAD
1000
AcDbSavedByObjectVersion
1070
     0
  0
VISUALSTYLE
  5
8375
102
{ACAD_XDICTIONARY
360
872D
102
}
102
{ACAD_REACTORS
330
8360
102
}
330
8360
100
AcDbVisualStyle
  2
Shaded
 70
    27
 71
     2
 72
     2
 73
     1
 90
        2
 40
-0.6
 41
30.0
 62
     5
 63
     7
 74
     0
 91
        4
 64
     7
 65
   257
 75
     1
175
     1
 42
1.0
 92
        8
 66
   257
 43
1.0
 76
     1
 77
     6
 78
     2
 67
     8
 79
     3
170
     0
171
     0
290
     0
174
     0
 93
        5
 44
0.0
173
     0
291
     0
 45
0.0
1001
ACAD
1000
AcDbSavedByObjectVersion
1070
     0
  0
VISUALSTYLE
  5
8374
102
{ACAD_XDICTIONARY
360
872B
102
}
102
{ACAD_REACTORS
330
8360
102
}
330
8360
100
AcDbVisualStyle
  2
Shaded with edges
 70
    26
 71
     2
 72
     2
 73
     1
 90
        2
 40
-0.6
 41
30.0
 62
     5
 63
     7
 74
     1
 91
       10
 64
     7
 65
   257
 75
     2
175
     1
 42
1.0
 92
        8
 66
   257
 43
1.0
 76
     1
 77
     6
 78
     2
 67
     7
 79
     3
170
     0
171
     0
290
     0
174
     0
 93
        5
 44
0.0
173
     0
291
     0
 45
0.0
1001
ACAD
1000
AcDbSavedByObjectVersion
1070
     0
  0
VISUALSTYLE
  5
8371
102
{ACAD_XDICTIONARY
360
8725
102
}
102
{ACAD_REACTORS
330
8360
102
}
330
8360
100
AcDbVisualStyle
  2
Shades of Gray
 70
    23
 71
     2
 72
     2
 73
     3
 90
        0
 40
-0.6
 41
-30.0
 62
     5
 63
     7
 74
     2
 91
        2
 64
     7
 65
     7
 75
     1
175
     1
 42
40.0
 92
        8
 66
     7
 43
1.0
 76
     1
 77
     6
 78
     2
 67
     7
 79
     3
170
     0
171
     0
290
     0
174
     0
 93
        1
 44
0.0
173
     0
291
     0
 45
0.0
1001
ACAD
1000
AcDbSavedByObjectVersion
1070
     0
  0
VISUALSTYLE
  5
8372
102
{ACAD_XDICTIONARY
360
8727
102
}
102
{ACAD_REACTORS
330
8360
102
}
330
8360
100
AcDbVisualStyle
  2
Sketchy
 70
    24
 71
     1
 72
     2
 73
     2
 90
        0
 40
-0.6
 41
-30.0
 62
     5
 63
     7
 74
     2
 91
        2
 64
     7
 65
     7
 75
     1
175
     1
 42
40.0
 92
       11
 66
     7
 43
1.0
 76
     1
 77
     6
 78
     2
 67
     7
 79
     6
170
     0
171
     0
290
     0
174
     0
 93
        1
 44
0.0
173
     0
291
     0
 45
0.0
1001
ACAD
1000
AcDbSavedByObjectVersion
1070
     0
  0
VISUALSTYLE
  5
836D
102
{ACAD_XDICTIONARY
360
871D
102
}
102
{ACAD_REACTORS
330
8360
102
}
330
8360
100
AcDbVisualStyle
  2
Thicken
 70
    13
 71
     2
 72
     2
 73
     0
 90
        0
 40
-0.6
 41
-30.0
 62
     5
 63
     7
 74
     1
 91
        4
 64
     7
 65
   257
 75
     1
175
     1
 42
1.0
 92
       12
 66
     7
 43
1.0
 76
     1
 77
     6
 78
     2
 67
     7
 79
     5
170
     0
171
     0
290
     0
174
     0
 93
        1
 44
0.0
173
     0
291
     1
 45
0.0
1001
ACAD
1000
AcDbSavedByObjectVersion
1070
     0
  0
VISUALSTYLE
  5
8367
102
{ACAD_XDICTIONARY
360
8711
102
}
102
{ACAD_REACTORS
330
8360
102
}
330
8360
100
AcDbVisualStyle
  2
Wireframe
 70
     5
 71
     0
 72
     2
 73
     0
 90
        0
 40
-0.6
 41
-30.0
 62
     5
 63
     7
 74
     1
 91
        4
 64
     7
 65
   257
 75
     1
175
     1
 42
1.0
 92
        0
 66
   257
 43
1.0
 76
     1
 77
     6
 78
     2
 67
     7
 79
     3
170
     0
171
     0
290
     0
174
     0
 93
        1
 44
0.0
173
     0
291
     0
 45
0.0
1001
ACAD
1000
AcDbSavedByObjectVersion
1070
     0
  0
VISUALSTYLE
  5
8373
102
{ACAD_XDICTIONARY
360
8729
102
}
102
{ACAD_REACTORS
330
8360
102
}
330
8360
100
AcDbVisualStyle
  2
X-Ray
 70
    25
 71
     2
 72
     2
 73
     1
 90
        1
 40
0.5
 41
-30.0
 62
     5
 63
     7
 74
     1
 91
        0
 64
     7
 65
   257
 75
     1
175
     1
 42
1.0
 92
        8
 66
     7
 43
1.0
 76
     1
 77
     6
 78
     2
 67
     7
 79
     3
170
     0
171
     0
290
     0
174
     0
 93
       13
 44
0.0
173
     0
291
     0
 45
0.0
1001
ACAD
1000
AcDbSavedByObjectVersion
1070
     0
  0
DICTIONARYVAR
  5
86F8
102
{ACAD_REACTORS
330
86F3
102
}
330
86F3
100
DictionaryVariables
280
     0
  1
1:1
  0
DICTIONARYVAR
  5
86F5
102
{ACAD_REACTORS
330
86F3
102
}
330
86F3
100
DictionaryVariables
280
     0
  1
STANDARD
  0
DICTIONARYVAR
  5
86F4
102
{ACAD_REACTORS
330
86F3
102
}
330
86F3
100
DictionaryVariables
280
     0
  1
STANDARD
  0
DICTIONARYVAR
  5
86F6
102
{ACAD_REACTORS
330
86F3
102
}
330
86F3
100
DictionaryVariables
280
     0
  1
Imperial24
  0
DICTIONARYVAR
  5
86F7
102
{ACAD_REACTORS
330
86F3
102
}
330
86F3
100
DictionaryVariables
280
     0
  1
Imperial24
  0
DICTIONARYVAR
  5
86FB
102
{ACAD_REACTORS
330
86F3
102
}
330
86F3
100
DictionaryVariables
280
     0
  1
1
  0
DICTIONARYVAR
  5
86FA
102
{ACAD_REACTORS
330
86F3
102
}
330
86F3
100
DictionaryVariables
280
     0
  1
0
  0
DICTIONARYVAR
  5
86F9
102
{ACAD_REACTORS
330
86F3
102
}
330
86F3
100
DictionaryVariables
280
     0
  1
127
  0
DICTIONARYVAR
  5
86FC
102
{ACAD_REACTORS
330
86F3
102
}
330
86F3
100
DictionaryVariables
280
     0
  1
2
  0
DICTIONARY
  5
8739
330
83A1
100
AcDbDictionary
280
     1
281
     1
  3
ACAD_XREC_ROUNDTRIP
360
873A
  0
DICTIONARY
  5
873D
330
83A9
100
AcDbDictionary
280
     1
281
     1
  3
ACAD_XREC_ROUNDTRIP
360
873E
  0
DICTIONARY
  5
873B
330
83A5
100
AcDbDictionary
280
     1
281
     1
  3
ACAD_XREC_ROUNDTRIP
360
873C
  0
DICTIONARY
  5
8351
330
8350
100
AcDbDictionary
280
     1
281
     1
  3
ACAD_XREC_ROUNDTRIP
360
8703
  3
BUMPTILE
360
8353
  3
DIFFUSETILE
360
8352
  3
OPACITYTILE
360
8356
  3
REFLECTIONTILE
360
8355
  3
REFRACTIONTILE
360
8357
  3
SPECULARTILE
360
8354
  0
DICTIONARY
  5
8349
330
8348
100
AcDbDictionary
280
     1
281
     1
  3
ACAD_XREC_ROUNDTRIP
360
8702
  3
BUMPTILE
360
834B
  3
DIFFUSETILE
360
834A
  3
OPACITYTILE
360
834E
  3
REFLECTIONTILE
360
834D
  3
REFRACTIONTILE
360
834F
  3
SPECULARTILE
360
834C
  0
DICTIONARY
  5
8359
330
8358
100
AcDbDictionary
280
     1
281
     1
  3
ACAD_XREC_ROUNDTRIP
360
8704
  3
BUMPTILE
360
835B
  3
DIFFUSETILE
360
835A
  3
FBXASSET
360
8465
  3
OPACITYTILE
360
835E
  3
REFLECTIONTILE
360
835D
  3
REFRACTIONTILE
360
835F
  3
SPECULARTILE
360
835C
  0
DICTIONARY
  5
8737
330
839F
100
AcDbDictionary
280
     1
281
     1
  3
ACAD_XREC_ROUNDTRIP
360
8738
  0
DICTIONARY
  5
86FE
330
839B
100
AcDbDictionary
280
     1
281
     1
  3
ACAD_ROUNDTRIP_2008_TABLESTYLE_CELLSTYLEMAP
360
86FF
  3
ACAD_XREC_ROUNDTRIP
360
8735
  0
DICTIONARY
  5
870F
330
8366
100
AcDbDictionary
280
     1
281
     1
  3
ACAD_XREC_ROUNDTRIP
360
8710
  0
DICTIONARY
  5
870D
330
8365
100
AcDbDictionary
280
     1
281
     1
  3
ACAD_XREC_ROUNDTRIP
360
870E
  0
DICTIONARY
  5
871B
330
836C
100
AcDbDictionary
280
     1
281
     1
  3
ACAD_XREC_ROUNDTRIP
360
871C
  0
DICTIONARY
  5
8723
330
8370
100
AcDbDictionary
280
     1
281
     1
  3
ACAD_XREC_ROUNDTRIP
360
8724
  0
DICTIONARY
  5
8715
330
8369
100
AcDbDictionary
280
     1
281
     1
  3
ACAD_XREC_ROUNDTRIP
360
8716
  0
DICTIONARY
  5
8719
330
836B
100
AcDbDictionary
280
     1
281
     1
  3
ACAD_XREC_ROUNDTRIP
360
871A
  0
DICTIONARY
  5
8733
330
8378
100
AcDbDictionary
280
     1
281
     1
  3
ACAD_XREC_ROUNDTRIP
360
8734
  0
DICTIONARY
  5
8721
330
836F
100
AcDbDictionary
280
     1
281
     1
  3
ACAD_XREC_ROUNDTRIP
360
8722
  0
DICTIONARY
  5
8705
330
8361
100
AcDbDictionary
280
     1
281
     1
  3
ACAD_XREC_ROUNDTRIP
360
8706
  0
DICTIONARY
  5
8707
330
8362
100
AcDbDictionary
280
     1
281
     1
  3
ACAD_XREC_ROUNDTRIP
360
8708
  0
DICTIONARY
  5
8709
330
8363
100
AcDbDictionary
280
     1
281
     1
  3
ACAD_XREC_ROUNDTRIP
360
870A
  0
DICTIONARY
  5
870B
330
8364
100
AcDbDictionary
280
     1
281
     1
  3
ACAD_XREC_ROUNDTRIP
360
870C
  0
DICTIONARY
  5
8713
330
8368
100
AcDbDictionary
280
     1
281
     1
  3
ACAD_XREC_ROUNDTRIP
360
8714
  0
DICTIONARY
  5
872F
330
8376
100
AcDbDictionary
280
     1
281
     1
  3
ACAD_XREC_ROUNDTRIP
360
8730
  0
DICTIONARY
  5
871F
330
836E
100
AcDbDictionary
280
     1
281
     1
  3
ACAD_XREC_ROUNDTRIP
360
8720
  0
DICTIONARY
  5
8731
330
8377
100
AcDbDictionary
280
     1
281
     1
  3
ACAD_XREC_ROUNDTRIP
360
8732
  0
DICTIONARY
  5
8717
330
836A
100
AcDbDictionary
280
     1
281
     1
  3
ACAD_XREC_ROUNDTRIP
360
8718
  0
DICTIONARY
  5
872D
330
8375
100
AcDbDictionary
280
     1
281
     1
  3
ACAD_XREC_ROUNDTRIP
360
872E
  0
DICTIONARY
  5
872B
330
8374
100
AcDbDictionary
280
     1
281
     1
  3
ACAD_XREC_ROUNDTRIP
360
872C
  0
DICTIONARY
  5
8725
330
8371
100
AcDbDictionary
280
     1
281
     1
  3
ACAD_XREC_ROUNDTRIP
360
8726
  0
DICTIONARY
  5
8727
330
8372
100
AcDbDictionary
280
     1
281
     1
  3
ACAD_XREC_ROUNDTRIP
360
8728
  0
DICTIONARY
  5
871D
330
836D
100
AcDbDictionary
280
     1
281
     1
  3
ACAD_XREC_ROUNDTRIP
360
871E
  0
DICTIONARY
  5
8711
330
8367
100
AcDbDictionary
280
     1
281
     1
  3
ACAD_XREC_ROUNDTRIP
360
8712
  0
DICTIONARY
  5
8729
330
8373
100
AcDbDictionary
280
     1
281
     1
  3
ACAD_XREC_ROUNDTRIP
360
872A
  0
XRECORD
  5
873A
102
{ACAD_REACTORS
330
8739
102
}
330
8739
100
AcDbXrecord
280
     1
102
DISPLAYNAME
  1
Imperial24
102
FLAGS
 90
        0
  0
XRECORD
  5
873E
102
{ACAD_REACTORS
330
873D
102
}
330
873D
100
AcDbXrecord
280
     1
102
SHADEPLOT
 70
     0
102
SHADEPLOTRESLEVEL
 70
     2
102
SHADEPLOTCUSTOMDPI
 70
   300
  0
XRECORD
  5
873C
102
{ACAD_REACTORS
330
873B
102
}
330
873B
100
AcDbXrecord
280
     1
102
SHADEPLOT
 70
     0
102
SHADEPLOTRESLEVEL
 70
     2
102
SHADEPLOTCUSTOMDPI
 70
   300
  0
XRECORD
  5
8703
102
{ACAD_REACTORS
330
8351
102
}
330
8351
100
AcDbXrecord
280
     1
102
MATERIAL
148
0.0
149
0.0
149
0.0
 93
        0
 94
      127
282
     0
 72
     0
 77
     0
171
     0
175
     0
179
     0
273
     0
  0
XRECORD
  5
8353
102
{ACAD_REACTORS
330
8351
102
}
330
8351
100
AcDbXrecord
280
     1
270
     1
271
     1
  0
XRECORD
  5
8352
102
{ACAD_REACTORS
330
8351
102
}
330
8351
100
AcDbXrecord
280
     1
270
     1
271
     1
  0
XRECORD
  5
8356
102
{ACAD_REACTORS
330
8351
102
}
330
8351
100
AcDbXrecord
280
     1
270
     1
271
     1
  0
XRECORD
  5
8355
102
{ACAD_REACTORS
330
8351
102
}
330
8351
100
AcDbXrecord
280
     1
270
     1
271
     1
  0
XRECORD
  5
8357
102
{ACAD_REACTORS
330
8351
102
}
330
8351
100
AcDbXrecord
280
     1
270
     1
271
     1
  0
XRECORD
  5
8354
102
{ACAD_REACTORS
330
8351
102
}
330
8351
100
AcDbXrecord
280
     1
270
     1
271
     1
  0
XRECORD
  5
8702
102
{ACAD_REACTORS
330
8349
102
}
330
8349
100
AcDbXrecord
280
     1
102
MATERIAL
148
0.0
149
0.0
149
0.0
 93
        0
 94
      127
282
     0
 72
     0
 77
     0
171
     0
175
     0
179
     0
273
     0
  0
XRECORD
  5
834B
102
{ACAD_REACTORS
330
8349
102
}
330
8349
100
AcDbXrecord
280
     1
270
     1
271
     1
  0
XRECORD
  5
834A
102
{ACAD_REACTORS
330
8349
102
}
330
8349
100
AcDbXrecord
280
     1
270
     1
271
     1
  0
XRECORD
  5
834E
102
{ACAD_REACTORS
330
8349
102
}
330
8349
100
AcDbXrecord
280
     1
270
     1
271
     1
  0
XRECORD
  5
834D
102
{ACAD_REACTORS
330
8349
102
}
330
8349
100
AcDbXrecord
280
     1
270
     1
271
     1
  0
XRECORD
  5
834F
102
{ACAD_REACTORS
330
8349
102
}
330
8349
100
AcDbXrecord
280
     1
270
     1
271
     1
  0
XRECORD
  5
834C
102
{ACAD_REACTORS
330
8349
102
}
330
8349
100
AcDbXrecord
280
     1
270
     1
271
     1
  0
XRECORD
  5
8704
102
{ACAD_REACTORS
330
8359
102
}
330
8359
100
AcDbXrecord
280
     1
102
MATERIAL
148
0.0
149
0.0
149
0.0
 93
        0
 94
      127
282
     0
 72
     0
 77
     0
171
     0
175
     0
179
     0
273
     0
  0
XRECORD
  5
835B
102
{ACAD_REACTORS
330
8359
102
}
330
8359
100
AcDbXrecord
280
     1
270
     1
271
     1
  0
XRECORD
  5
835A
102
{ACAD_REACTORS
330
8359
102
}
330
8359
100
AcDbXrecord
280
     1
270
     1
271
     1
  0
XRECORD
  5
8465
102
{ACAD_REACTORS
330
8359
102
}
330
8359
100
AcDbXrecord
280
     1
 70
     1
 90
1959938040
 71
     1
  1
EA32F70A-1919-48AA-97C5-2CA5A2E0DAAC
311
504B0304140006080800AE707857411D4D2AD9000000200100004F00000044453642384246382D333730382D343944382D384534392D3735453434383142453946302F4173736574446174612F446566696E6974696F6E4974657261746F7250726F706572746965732E62696E454E3D4FC33010350C200606FE41D5DDD871
311
1C358ADA22350E4CB0C0C4525D9D6B89E424559C488C8CFC6BB813453DE9DDBBCF77F72D84F8391985E282F045FE96F8093B1C1AFFEA3FB00571C595D0EF205C9F7B971472EA700F531879EBB9891E43800EFB29DE9D47672D8C2407E19E976E08FF85C80A87BF637CFF85C02F31437D2C1E20461C576ABFFB54A5363A2D5D
311
25B32A75D22ECCA3DC386765996C2A636DBEB059AE068CFD34788CCA28BD3D296F8FDDA1A9D7CBB16971D6418BABB91F907EAAE76BA34D2A93441AFB96D8426785C9DF978A277F01504B0304140006080800AE70785731DB85F018010000300200004500000044453642384246382D333730382D343944382D384534392D37
311
35453434383142453946302F4173736574446174612F496E7374616E636550726F706572746965732E62696EEB606060F80F0540260323103700495E20ED9E9A975A94991C9C9C919A9BA802147075343672333770D435B434B4D435B17074D4B5347736D5357276347534723570717474664768046931363471713532B5D4
311
35353131D635313332D475727372D13534373670367376B67474B5042A03DBCBA019D37FE8ABC6157B20CD04146B0062181F4C03F940F0C11EA29A8141C08141002C0426541C106CAC2CA046088033B02A030AC2157C6006F21A8018AAF50194E6010A610250382264E08660284CD9E98021862280A91564B406929A0FF62C
311
401E28B6F88038B83CB1243943D7A928312F25350524A373EED9EA2A6020A65C84D073AE40E82BD72134CF6D08ED720F42D73C84D05B9E40E837CF21B4CA6B081DF30E420300504B0304140006080800AE70785728BB58AF800100009E0500003D00000044453642384246382D333730382D343944382D384534392D373545
311
3434383142453946302F536368656D61732F436F6D6D6F6E536368656D612E786D6CBD544D4FC23018BEFB2B96DE15493C78601010A34B880709DEDFB52FD0D8B54BD70DF6EFED3AC0B12E6442E2716BFB3CEFF3D18E26FB440405EA8C2B1992E1C323095052C5B8DC842437EBFB673219DF8DA659866649B798C078B48AE6
311
410122242F2A4994AC7F93815DF85C049C8564CA0A901499DD886B2EB9B1E02448F358701A9235880C49A0119892A20C89D1B9FD768815CAD268CB5E0355B40B1E47F3E37A2020464BED06AA57CE8FCC20C3C3446D46761A2632A8C1283D07031EFF2AE7CCB1BFEEE916E406DFAC8E36FFD99A9D60A6944090EEDC3B670C7D
311
C13DE86B6B2C5C240D6E503BB85ACD579D513F1B9F9A69DC9CC22AFA80C426D40AF0B21EA168559156B6276F0F726A6BFF04DCD513A87A62CAD41FB24FCB2858B3952E3D852084DA25B9303C15687973CC8E8AAE11DF2836C38C6A9E765E8C1BA1BFB1DC29CDFE518C8B5A7655A4ED7E77291ABEB80DBD82EC866ADE1B8D05
311
AF9E35CF09D7A061F38A986D9EC412B8F0F65E5D81534D9B231D1E5A8FE577A241F3A5FD01504B0304140006080800AE7078572CCEBD668A040000E01200003E00000044453642384246382D333730382D343944382D384534392D3735453434383142453946302F536368656D61732F47656E65726963536368656D612E78
311
6D6CD5586D6FDB380CFE7EBF42F0F7A649B70E1B90744856B4970F450FCD7A5F05459613EDE4174872DADCAF3F522F8ED3B88D2F1D06AC4050DBA2493EE4438AF2F8EB73AEC8466823CB62928C06C384888297A92C5693A4B6D9D9E7E4EBD51FE3A931C22EF85AE4EC6AFC38BF261BA626C9AD288496DC3F4FCEAFC6336684
311
5F7A10452AF41DB320C0D44EC26EAB20918735565582695670811A6A49643A49A6E9069FA4604A64B29016DC4B48552F95E4932463CA888468C1D2B250DB4962750DF7CE273069CE8363F1FF4EDB00E0A21999574AE4A2B00C353B93F3BD4777B8A61ED8F604ABFEDD79CE56A2B7BDFBDBC50996E0ADDE16FED26223C5D309
311
56C29BDF4A55EA686E5E58B112DA45CE67F76F4FA27EFA3FB672FD7372FC388FAECDCA5209E693CAD167BADCD272F943701B3812F8A3D852008B1D2E32DB927B2F833C6EA95879925356D254582695095A3CE982924720BE5774A3CB9CDCDB350427D2DF20DA1B5532EBE2D5D6288D75D4F7E4FD9890A0EF8E3D93EBB8F8BA
311
4758158EF6FB90A6F9520281C93DE7AAC6D24607DA296BB96018123F821A7D6A5C5884050C475DA4865442732C8B95684A50165CBB3A32F25F783A4A480ED59AD7F924B968AEA50131F46303223E6A397B0E52976030DC1DCA81D7E7C1EDEEA42C19FF27635C505E2BD5198A599020DF50A2330FCB3AAF28CB012410842955
311
3EF1B228802E2265D8F7CC2401042B155BCC7070F1E5C55F13B4A9577362CCCE46C32174E010C3C378C44841A4BDA00FE3A12006CE11EE6AEC59894D3526DDE1CD59D503ECC324017F8061B7F162162FA62EDD81AE3308617770796DCBDAD2B2625C5AE8A63DE20B2C8AA5E95E76E5730823955956E33E705425A2187C185D
311
36489A1B44D3DCEC2172F6BA2105C3546287A7194B2331768EBBE64F6E70A9930ABE0ADEA89E9E2C38523B810287AD67A54A039C1606EAFE68F8304610BB9093DBDDABC0B2AE4E290DCDA15376D7E39F72B556F0B32EAB5D3D498B4C41ABADEC3A1434C422D87E8025A84BDCB2B1417ED750FAE4DA8976863974C577C7F902
311
D3F156AD354DEA3540DE6BEAE2BEA52F7A2EB4CA43802ECE5BF2CE2EDC9347179FFB023CE412E60BE16DA0BE29B374988A553F561DC04615DD35F7D2C8979F60E5955CE93DF29DED8AFA1EE6642D53418086C03C47C377910F75F7E8F5EF665F70B60FFB22AEDF897D119E8423C773E819A3C1E55E550599EE6EDCA34D0C86
311
FD72057DF2CD46F16A470682471C164E4346D5306BF12D7D12D82CFF673D41636C347443FEB51B50D72EA171A8E4A58623A4A16E0FA2B8B10A0D23268D87C33896EE8FB73305A74BF224EDBADFA0BD674AB354D63DB7BD5D83426761C077DE767728235446A552754EB93B755891C3C4CC6CADE37CF0E912A7BB38DBA010F9
311
DE1282EDF470CA69A9CDA482E334C4A6EA4107987980B17E72F31730EBF88BBD39E7C629F56797A3C0009C2C5AE7951D9A05A02773440F02EEB4DE396A3B6A570C72CCFBCD823B0B8ED3F1D5CEDDFED772FA70236C83FB7D86C385D570B87107535572A60A96035F8F7C6A7192F13007246BBE0521855E6AC46F3E27689CEE
311
7D186A6FD679D98CDCAD13333E04EBE7ED6F55FF01504B0304140006080800AE7078576180134D5F0100006B0300004500000044453642384246382D333730382D343944382D384534392D3735453434383142453946302F536368656D61732F52656E6465724D6174657269616C536368656D612E786D6CA5934D6FC2300C
311
86EFFB1551EEE343DBA41D1A103009551ADAD40EAE28A4A68D9426284961FCFBE5A340113B2071746D3F765EBF4DC6BFB5407BD0862B49F0B037C0082453059725C18DDD3EBFE3F1E829991803366715D474942CD30FB4A782E00C64017A412D684E454CE3FE28995203B162A6EA5AC94B66997D225E109CD63B0135484BAD
311
1B3C07E9080CA35DB3119C11BCA5C200461A68A1A438126C75E3E230D40FF81FB3F03C91D1E3A3A0AF79FE28E25BC39EC3E17E4C2A2D94A0833A51AF55BCCA7D88572FCBAC529C4140B020FC3AAFA886621DCED7EAD7664CC86024E806DC297DA1BB393E4156543457A4537DB8817349A70F8ACBF09B3EEE2CB2F33E91B65D
311
60786E4E3B39B77E3FEEEF5650424525DA657FB8B46BE6BF064646F0A0F7327C0BC1BC1B4CBBC1C419FA3CCB23500007872A2580CAAE5461865565294E4EDB4617B62FF579DF9A5B2F54E834076A597573A020912FED777F9B3F504B0304140006080800AE70785770F6997C51000000570000004700000044453642384246
311
382D333730382D343944382D384534392D3735453434383142453946302F4173736574446174612F41737365745461626C654F66436F6E74656E74732E62696E536160607075343672333770D435B434B4D435B17074D4B5347736D53572763475347235707174741602AACB4D2C492DCA4CCC492C28484D2C4ACC4B4E050A
311
82012F90744FCD03CA26072767A4E6260200504B0304140006080800AE707857F865834058000000680000004500000044453642384246382D333730382D343944382D384534392D3735453434383142453946302F4173736574446174612F53747265616D56657273696F6E5461626C652E696E66558CBD0A80300C06F73E
311
4B117FB66E451741D041DC5BF98480A492E4FDD18EAEC7DD4555D89EF28DF51A0B1BD8340C4DE7DD848B988C0ACF0649566493F2408C508DDEBB99D5129FF8F1AF8CF5B9503E20FAE5A16B5AF702504B0304140006080800AE707857AAC4362F350100009A0400003600000044453642384246382D333730382D343944382D
311
384534392D3735453434383142453946302F4173736574446174612F636E782E786D6CCD94314FC3301085FF4AE43D76128A54558E2B044B2790A818D8AECEA5B5EAD8917D41F0EFB1DB0CA022A60E5DCFEFCECF9FFC4EAE3F075B7C6088C6BB96D5BC62053AED3BE3F62D9BA82F97AC582B19BCA71F32563818B065B9CC94
311
DC073F8D73A9C31E269BABD6B8E35C7C8811690B3B8BCFFDA377848E222BB485185B16F50107E03091EF301E790704BCE601A39F82C63489CC80F3241D10083BA69AAAB92BEBBA6C16DB7AB1AAEE57CDF25D8AAC5472E7BD9DF5265D16FC58E8F3AD4C5552E46325A760664D7E0B537F79E43BE3A4484A252385C464EEA0AF
311
3175C0385AA381123AE13521954984304871162B2932835F249EB037CEE4964D3206E4C34BB287810CDE1C91FFBC5E9FCCC64502A7F176795C3ABC3E85D7D30F7A3B07F294985BCBC9A5436E5C7F859488D31A49A1C95B457D03504B0304140006080800AE707857441FAAE3090100004F0300003400000044453642384246
311
382D333730382D343944382D384534392D3735453434383142453946302F536368656D61732F636E782E786D6CCD93BD6EC32014855FC56237D86E2A45112643874E5DDA4EDD28DC2428C0B5F8A9DAB72FB80C89D4AD1DB2C1E1133AE770E1FB4F67BB0F08D1A09FC94807D28157A88D3FCE24A743BF25DD5EF080982E30D2
311
79E960265526821F03E6A5491A0E32DBAA5AE3CF4D7C40E7D0BFA81338493A65658C3389EB96CA9C50433C532D93A4230D10310705E586641CB41B5400994013310DD35D3F8EFDB4791D37BBE17E376DDF38ABA4E0EF88B6F1C62708B8740ACBC2173B0367F558F01C4C636A06222EBDD1D2066785103CA6503A6864FA5A0A
311
2997C51A2553A98AADE00F2338AB51AF023F828760D46D26BE32F76F919FC16B084FE5958291F63693FFE6F16F05B075F6CB08D4AF20BE01504B0304140006080800AE707857410A3D5871000000A40000002C00000044453642384246382D333730382D343944382D384534392D3735453434383142453946302F636E782E
311
786D6C55CC4D0E82301086E1AB34B31774E7A22D31F1069E60020334B633A63FC6E34B0909B07DDE2F9FEE7EC1AB2FC5E4840DDC9A2B28E25E06C7938192C7CB1D54677514C9871928C640062A83D55394F2D968A0118BAFEA1DBF377CA444F98919176EAB9FEAAB9F2960DA5BBB1E2ED3FA6FFF504B0304140006080800AE
311
7078575874EB4F7E000000A300000007000000636E782E786D6C4D8CD10AC22018465F45FE7BCB91B55F500732F71EA3B9216D1A36A3C74F63175D7D70F8CE91DD675BC9DBA5978F41417362405CB8C7C9874541DE678A403A2D538CFBDF0D481837A7A062D07249313F0F34B979CC6BA5AB0F8F03F6F666D00C482F2D43CA
311
458F142D17B4BD5ACEB131560CAC18E7AA94F9F5CAD6BCFE02504B0304140006080800AE70785716E99B5DA600000035010000130000005B436F6E74656E745F54797065735D2E786D6C9590410E82301045AFD2740F4517C6180A0BF5065E60AC53688469D30E066F6F91AD9AB89CF9FFFD3F99BA9DC7413C3026E749CB4D
311
59498164FCCD51A7E5C4B6D84BD136F5E5193089ECA5A465CF1C0E4A25D3E308A9F401292BD6C711388FB15301CC1D3A54DBAADA29E38991B8E0254336F5092D4C038BF39CD76B6FC6A538AEBEA54A4B08617006389FA516557DE4AE8E7E70DE30729138228C5F021CD93F02D4FB0DCD0B504B0304140006080800AE707857
311
3DEE336E64000000790000001B0000006175746F6465736B2D64657369676E2D7061636B6167652E786D6C35CBC10E83200C00D05F21DCA56CA76D41FC96062B120735B69A7DBE268BB7777961F8D5AF396893C2ADB70FE7ADA196782C2DF776D7A97B5933C430F15651E5469C55D70F80A4992A3ADC954792C525AE70A1E4
311
D6AD9816CC044FEFDF01FE3FDE907802504B0304140006080800AE70785749D7E000F8000000960100003700000044453642384246382D333730382D343944382D384534392D3735453434383142453946302F4173736574446174612F636F72652E786D6C8550CB6EC32010FC156BEFD8801FB2224C1425F617F4D41BC2C4
311
4589C1E251F5F30BB12BB5A79E76353B33BB3BECFCB53E8B4FE5BCB66600526228949176D6661920863BEAA13873E6AC0DBF685018B1AA01320C9C2DCEC6ED80A43541998C1A3BAB0314DEAB00857CA666002F3FD42A4A114362F847B909F9108B2A49B9F3388B51CF8754CFC94DDFB572C0BB9E363D993A347623460DAD29
311
BA747842E4DAD6EDF5564F131E5995C59C05BDFE6C974E89A066E014D31A118268F3469A136E4FB47F67556672E6834B3F1F4BF377C02FF9EA9B088255FBF48F6BDCE6FF5DA336A1A687EBAEF0C0493AF235E0ACCA29A5F28A30D59C28FF06504B0304140006080800AE707857E729F86FF600000094010000350000004445
311
3642384246382D333730382D343944382D384534392D3735453434383142453946302F536368656D61732F636F72652E786D6C8550CB6EC32010FC156BEFD8801FB2224C54A5F60FB4A7DE1010072506CB40D5CF2FC4AED49E7ADAD5ECCCECEEB0F3D7F2283EF5E68DB303901243A1AD74CAD8798018AEA887E2CCD9E65CF8
311
4583C28A450F9061E06CDE5C5C0F483A1BB4CDA8754A1FA0F05E0728E42335037879D38B28450C89E1EFE52AE45DCCBA24E5CEE32C46A30EA951C9CD5C8DDE80773D6D7A327568EC468C1A5A53F4D2E109914B5BB797D77A9AF0C8AA2CE62C98E567BBDCB4085A01A798D68810449B77D29C707BA2FD07AB3293331FB6F4F3
311
B1347F07FCED79A767D53EFBE31957F5BF673436D4F4F0DC151E3849273E079C5539A3549E01A69AF3E4DF504B0304140006080800AE7078579A9412F601010000D70100002D00000044453642384246382D333730382D343944382D384534392D3735453434383142453946302F636F72652E786D6C9591C16E842010865F
311
C5CC1D15C52E6E904DCCBA4FD0536F54665DB22B18C1A68F5FAC366D6FED09F2F3FD33FC33E2F43E3E92379CBD71B6019AE690A0ED9D367668600957C2213949313B177E609058356203AB0C520CB35BA65DEA9D0D6857D53A8DBBA8BCC70049FF8897067C7FC351A56A0991F0F77452FD5D0D98D274E3A40866FCB2F633AA
311
801A64911725A19414EC99B2635E1D0BFE22B2959462313694C5DE0CC757D4899B428C04B212D9F61AA9C5E89D313AFED15C0DCE20CFDD53CBDB0B27E521E784D5674E78C76A72A83AC6386DBBFA92C722D12C850F739CCC5E649DC15FED9BF157B265D2FF4CB6393C48FA1D2A5BC72C45F6B98378AE2B911F504B03041400
311
06080800AE707857DDF62EA007010000B201000008000000636F72652E786D6C8D50CB6EC32010FC15B4776CC00F591126AA52FB0B7AEA8D1AE2A0D860191CB57F5F885DA9BDF5B468667667187EFE9C27F4D0AB37CEB640330248DBC12963C716B670C50DA0B3E0AB73E1970C9095B36E21C120F8B8BA6D39A0C1D9A06D42
311
AD53FA00A5F73A001AA6F868C10F373DCB4C6E212AFC3D5BE47097A3CE68B6EB040F66FE591D562D835620186105A614B3F28D9627529D58F3CEF3A4147CDB8C3AAC8C8AEEE66AF40AA26E58D9D0BEC65DDD115CB282E1979AF4985EAAA2BABC167D4F3A9EA765C17D58E39F8F233167405E3E922FCF774AF00FE7A6431043
311
29E4ECF40582F03C117F426F8BFA47686343C18E83FB86074163A027118D5383713CEB8D33B52DBE01504B01021400140006080800AE707857411D4D2AD9000000200100004F000000000000000000000000000000000044453642384246382D333730382D343944382D384534392D3735453434383142453946302F417373
311
6574446174612F446566696E6974696F6E4974657261746F7250726F706572746965732E62696E504B01021400140006080800AE70785731DB85F0180100003002000045000000000000000000000000004601000044453642384246382D333730382D343944382D384534392D3735453434383142453946302F4173736574
311
446174612F496E7374616E636550726F706572746965732E62696E504B01021400140006080800AE70785728BB58AF800100009E0500003D00000000000000000000000000C102000044453642384246382D333730382D343944382D384534392D3735453434383142453946302F536368656D61732F436F6D6D6F6E536368
311
656D612E786D6C504B01021400140006080800AE7078572CCEBD668A040000E01200003E000000000000000000000000009C04000044453642384246382D333730382D343944382D384534392D3735453434383142453946302F536368656D61732F47656E65726963536368656D612E786D6C504B01021400140006080800
311
AE7078576180134D5F0100006B03000045000000000000000000000000008209000044453642384246382D333730382D343944382D384534392D3735453434383142453946302F536368656D61732F52656E6465724D6174657269616C536368656D612E786D6C504B01021400140006080800AE70785770F6997C51000000
311
570000004700000000000000000000000000440B000044453642384246382D333730382D343944382D384534392D3735453434383142453946302F4173736574446174612F41737365745461626C654F66436F6E74656E74732E62696E504B01021400140006080800AE707857F86583405800000068000000450000000000
311
0000000000000000FA0B000044453642384246382D333730382D343944382D384534392D3735453434383142453946302F4173736574446174612F53747265616D56657273696F6E5461626C652E696E66504B01021400140006080800AE707857AAC4362F350100009A0400003600000000000000000000000000B50C0000
311
44453642384246382D333730382D343944382D384534392D3735453434383142453946302F4173736574446174612F636E782E786D6C504B01021400140006080800AE707857441FAAE3090100004F03000034000000000000000000000000003E0E000044453642384246382D333730382D343944382D384534392D373545
311
3434383142453946302F536368656D61732F636E782E786D6C504B01021400140006080800AE707857410A3D5871000000A40000002C00000000000000000000000000990F000044453642384246382D333730382D343944382D384534392D3735453434383142453946302F636E782E786D6C504B01021400140006080800
311
AE7078575874EB4F7E000000A3000000070000000000000000000000000054100000636E782E786D6C504B01021400140006080800AE70785716E99B5DA6000000350100001300000000000000000000000000F71000005B436F6E74656E745F54797065735D2E786D6C504B01021400140006080800AE7078573DEE336E64
311
000000790000001B00000000000000000000000000CE1100006175746F6465736B2D64657369676E2D7061636B6167652E786D6C504B01021400140006080800AE70785749D7E000F80000009601000037000000000000000000000000006B12000044453642384246382D333730382D343944382D384534392D3735453434
311
383142453946302F4173736574446174612F636F72652E786D6C504B01021400140006080800AE707857E729F86FF6000000940100003500000000000000000000000000B813000044453642384246382D333730382D343944382D384534392D3735453434383142453946302F536368656D61732F636F72652E786D6C504B
311
01021400140006080800AE7078579A9412F601010000D70100002D000000000000000000000000000115000044453642384246382D333730382D343944382D384534392D3735453434383142453946302F636F72652E786D6C504B01021400140006080800AE707857DDF62EA007010000B201000008000000000000000000
311
000000004D160000636F72652E786D6C504B050600000000110011005A0600007A1700000000
310
504B0304140006080800AE707857000000000000000000000000370000006662782F32463041353136312D443645352D344641352D383943342D4443433144343639393031342F617474726962757465732E62696E504B0304140006080800AE707857000000000000000000000000350000006662782F3246304135313631
310
2D443645352D344641352D383943342D4443433144343639393031342F76657274696365732E62696E504B0304140006080800AE707857F270F1330600000004000000360000006662782F32463041353136312D443645352D344641352D383943342D4443433144343639393031342F747269616E676C65732E62696E6366
310
60600000504B0304140006080800AE70785751464CB48900000043010000360000006662782F32463041353136312D443645352D344641352D383943342D4443433144343639393031342F6469726563746F72792E786D6C9D8F310EC2300C45AF127987122606C71DD918B841D4B851A43646695A717C52A85029031293A5
310
A76FBF6FACEF7DA7264E43906840EF0FA03836E242F406C6DCEE4EA06AC22492573150D1F66C60C640E8938CB705396EEDD86DE9B5042FE27813D640EA63BB001C722AF6E55CB61E4863F58284D5D3F53DD715CE1C3985E63FD7F1B7EBDD617E9F1E504B0304140006080800AE707857999866DD38070000201C0000340000
310
006662782F32463041353136312D443645352D344641352D383943342D4443433144343639393031342F6F626A656374732E786D6CDD595B6FDB3614FE2B84F6B23DE86A3BB10BC58563278551A42D6A74D89B40CBB4C345379052E2ECD7EF90226549966DA56B816209102B347978CE77EE47FEFB7D1CA167C2384D931BC3
310
B51C0391244C3734D9DD1845BE35C7067A3F453E4BD3BCB6CF40098EC98D21968DA9BF636991A9A50DD9E2226AAFDEDFFE8578481262A030C29CDF183C7C2431B67091A71BC29FAC0DCEB1B5DBEE2DD72A3736C9EE18CE1E5B57659891240756613D012A8A03B7F92F88644F7D5B6C686CF3FA6D1B9CD9664BC19B8CD284E7
310
38098FB86AD1F1FA713570878B3B6F343147C3E1C01C5E79AE797B7FBB30DDEB8133BF9ACF27B3BB8981A6FE3A4DA34A01194936A0C55763EAFAB6F8A6125FA1D0C57798260909159A5D1B3644D1A584B7316900EB4AD16A0A2965AD2D0C7A0A7F625B2F501A2C35D0D6C2E9CFBAF5A6EBBF0104DEC74A1927C2CA79CE40D7
310
0AFBD21F1CDF2E571B7AA11CC538278CE2084574CD300305C1D652410D32C25B04292430935AD4F4EABC82615FF6A52E2EB7451409FF35A6D2D302F0479273C919FD87B003F7F5DB802790B6A0493E56C2E6AF199098F8B65C2CBF1B78EACB1248B48DF00EAC05C4149B065E0BAFB98805CB8531FD78BFDEAF447CE8BE3C63
310
6946582E2C4F3AB3F23BADC19A6981F1F500A5C4B5A9BB032A5F01FA4F807CC50BF241738CEE87FBA1969DE1846F5316837690834C07FE38483C1E3DF97675788A5023569EC214DCF60761DA10A371770DD2A9FF0C469FB281126E15E2086CFA8126C2CFC1505094C212C4FBED7A6F4C97104C61114EE108A4875FDF168F08
310
3E4A3A106F5A1AEA0ABF3D14A51DA6ED67075D7D009B6134AC54D590F114BEA31F82EF6CB1FAB82AD81687E44139F6826C69427348A6DD0C35406FB8FCB7E527E99147F234768570CF2E1581A3432F2BA517241503AC883C5CAA46AE3C5070F728C209490BAED6BB02559846290BD6AF41E9C39D77FDA98DA0BC0CFC5B5840
310
673083EC1E329A09508CA912AF8A84D6012711079501EE4AA5066B1C3E0978831022D6F7F001568B599B681167018ED32211E1FBD8BCDBA2590347FEB8EEC47326DE7872A585E592BCF61E1D1A2AE6C53D31CE4E5C326F684B450D4DB9F4A32144CB2E0942A8998A3C48331CD2BCDB165A42280F05B0CFB2BCA1DB6DC121A8
310
77C2D2E2D81AB823E4D4FE56979CE75E5D12D018EF48B0C522C375DED700A822AE25E8446617A59CD3847059A11C45AE162A8E0581A0B45B4DB5C308290F6292E3EFB13F99F25AE6C7C8360AA096CA45357BD9FA34832A7B9EA2282AB73409A4FCAF01C771169555DA250C5CAF754327AE826971C533D85B80F3C0D9105974
310
5FA25EC5058D6F2FEA93EF267F021E867F3A3CFA0A0AA537E4C8CB9A75AD913B113F63082A57237770AD1571092B7D552E6A90A880AA297C0D5E08DD3DF60B68BDEEE124DA06348A8A3828F3414E6228C1705EB05EFE7A35728E94AFE242CB216A376D69040572EFA0296B0F5D7D8054B2F83815346BD7805034811EAD9720
310
4752749AB0D485EC4745DB7559FB6FA7FA9FE365BD4F7922AF2F29DB7472DA2C237405A60B06112E5586ABEC48529EFA75E78B65E3721987A126A2E25BD925280B61E4998AC184EC803AFB07FE82F31002E94A7E9AB7E0111BB239D4140D726ACC614CE1524D4DD7A9F54E07829D481F8DC26B29026A0CD3062CE2EC837888
310
BE625035547EDC56558D5DAE2F4562B360B072E0E30CADCF1F562D2AB0D2FBF417811179695150AB7351C89D21F56D79A8575B149444DF96678EE78F45BC4E301599519805DE64EFDECB5EF2C68646C19E3B9E33982FEECCD1DD60610EAFBD7BF376B1189A73F7F6CE1B0EC7D7C3D1D86684A7050B09B73DDB0974ED94253B
310
6D1825747D3A0A982A5C6EFDB43DB715FC3FEE28A2748D4FD9E2AFDA5054E59E28C85ABED8B7A1E80CD4EBB755FFEE51A0EE4E626FAA9CCB598136F0F3690B8291CEF7FD4B0B4D5A5712DD3CD732E21B13EFC96EE5A7E7984640EFCC0F8D1D5D21BF198B61F6D491A574772BE3DADD6CE0DD5F3B33D39DB81373389ECDCCC9
310
F57C647AF3D968E6DD398BD90C5A23D547A85CD837AFFC123154335B1BA3C13498A71185A13CD9A01D49A10382A9438FF8CA62C265670305804AE3FA8D408FD3CFE54C35C7EB489F0E1F310CA62395918B1086A2D075DC186A1DFD066350318994C329EB09128FB27603158CDE1860023985FC62AD619C258787927A6B5C09
310
6AC3C94EF44CE5A9EAFFC331810ED8CA41AE6A4F1F5C94640DEB84E14026DF1340B4D305C9F78BAED9413887C7759157C21C160ED22810F40B81523898FA3D2978F71078CECBE55A724F03925E93F9B37650523573CC7672BC5EC37BB6F8628BC9F8F233CAA26227D4792EDF372899A2CE888A7208E583612831332CFAF0F9
310
3BFB0B4BE115538CEE291801FA7D3FBEFAC39EA7719C26E5923D532FAAD0EA115E3B6D6C3DF283C2C57147B6AC7BD4581FE6569C5878C39F600154CBA8988D9610370CA00A4F3503D01A11BA80638DFDCB055249A056C2D64B57018F9CE9237024F12E47B84D7D436D0009BE005C9573DAEA412FF8368321F8F45F504B0304
310
140006080800AE7078578B5237733E01000046050000300000006662782F32463041353136312D443645352D344641352D383943342D4443433144343639393031342F636E782E786D6CCD94C16AC3300C865F25F89E38C93A28C57161873DC10E6337C75133B789156C65AC6F3FBB73BB8DD1B143A1BD19F917FC9FF423B1
310
7E1F87EC0D9C37681B561525CBC06AEC8CED1B36D3265FB26C2D8543A46F3296593542C3629949D13B9CA754EA60A3E62156076377A9A8889C696702CF323D28EF1BE6F52B8CAA503361077E57748A5451150E3CCE4E43E8273342EAD70E1441C7645DD6777955E5F5E2A95AACCAFB55BD7C113C2AA5681187A43796C0E194
310
690C0F1BCC9482C76F29666792261230F9E5AC688D153CFC4BE1835BDB271DEDA7A89BA6C16845614C1C3501E541046A14FC532C058FBC3FA81F1F9E8F0EB2CE38D0846E7FA50154E7067032568424FC8FFF20FC1B1BDB6DC0BDD6B6CFC2265B17433DA6D587B8FEDE7F4891B2FD707BA13F19BB7CE6C32921A36F0FF9E8EB
310
42C4FC70F2C2D2E305941F504B0304140006080800AE7078577D3C84187E000000A30000000B0000006662782F636E782E786D6C4D8CD10A832018465F45FE7B371D2A096684AEF7886511330D97638F3F1D5DECEA83C3778EEA3E9B476F975E6B0C2DD00B01E4C2234E6B585AC8C78C1B409D5629C6E3EF06288C9B6BA162
310
D06A4931EF279ADC3C665FA95FC3F384B781F49C0A8AADB873CC869EE3461A86AD31D4322125A1AC18D7AA94F9F5CAD6BCFE02504B0304140006080800AE707857A6D797065F0000008200000007000000636E782E786D6C4DCB3B0E80201045D1AD90E9FD7516806B51190811670C8A61F982B1B0BAC9C97B72CA7B1037C6
310
D3332918DA1E04D2CAC69353902EDB8C20262D23F3F59B81A079470595414B17391D1F19B4730A5583A7ED43BBE4025D9592775E5ADFFA01504B0304140006080800AE7078574FEB6A7CA0000000F4000000130000005B436F6E74656E745F54797065735D2E786D6C7D8F4B0EC2300C44AF1279DFA6B0400835ED02B80117
310
30C16D239A8F121795DB93D02D6269CFBC19BBED573B8B17C564BC53B0AB1B10E4B47F18372A5878A88E20FAAEBDBD032591BD2E299898C349CAA427B2986A1FC86565F0D122E7318E32A07EE24872DF3407A9BD63725C71C980AEBDD080CBCCE2BAE6F5D69B7110E7CD57AA146008B3D1C8F92C5954F993BB1BF787F39A89
310
ABC491D09600F9FDA2FB00504B0304140006080800AE7078573DEE336E64000000790000001B0000006175746F6465736B2D64657369676E2D7061636B6167652E786D6C35CBC10E83200C00D05F21DCA56CA76D41FC96062B120735B69A7DBE268BB7777961F8D5AF396893C2ADB70FE7ADA196782C2DF776D7A97B5933C4
310
30F15651E5469C55D70F80A4992A3ADC954792C525AE70A1E4D6AD9816CC044FEFDF01FE3FDE907802504B0304140006080800AE7078579B08CCC8F9000000960100003B0000006662782F32463041353136312D443645352D344641352D383943342D4443433144343639393031342F7265736F75726365732F636F72652E
310
786D6C8550CB6E833010FC15B477F3301048641CD147BEA0A7DE2CB3A156828DFCA8FAF9B50395DA534FBB9A9D99DD1D76FE5AEED9275AA78C1EA0CA4BC8504B33293D0F10FC95F4909D39B3C6F85F34C8B4587080040367B33561DD2169B4479D506D26DC41E11C7AC8E43D360338F9818BC845F091E16EF92AE44DCC9857
310
F9C6E32C0435ED52354537755568815F9AA797AE3F1E49D73D77A4193B4AC6BA6DC96BDD1E2E4D338EF430B2228939F36AF9D92E2D0A8F13705AD29A5415A1CD5BD59CCAF644FB7756242667CEDBF8F3BE347D07DCA233C14A74ACD8A67F5CC33AFDEF1A94F635DD5D3785035EC5231F03CE8A94522C8F08634D89F26F504B
310
0304140006080800AE707857232BFE79F2000000B1010000310000006662782F32463041353136312D443645352D344641352D383943342D4443433144343639393031342F636F72652E786D6C8D50CB6EC32010FC156BEFD8C6C1961D61A2C86EBEA0A7DE10101725068B47D5CF2F24AED4DE725A343BC3CC0E3D7DAFF7E2
310
4B39AFAD1901973514CA082BB5594688E18A7A284E8C3A6BC31F1A1486AF6A840C03A38BB371DB21614D5026A3C64AB583DC7B15A010F7F418C18B4FB5F292C79018FE566E5CDCF8A24A5C3E798C06BDFE4A85533C2809ACA99B03C21835E41D9363DD1E9BFE835699C9688C5AEE565A26777DD5CA25C9A53EB7B8C368EEDE
310
5A442EE716F5C344D03C4D7826DD30D498D02A8B19F5C1A59BF74FF275AFCA9FC27F99E3265FC8AC4D3834BBE153E181E194E7B160B4CA05A6F16837CD5C36FB01504B0304140006080800AE707857EC4DBAE454010000DD0200000C0000006662782F636F72652E786D6C8D52DB8E832014FC15C33B5E506BDB208D7BE917
310
ECD3BE51A42EA9824130FDFC052FE9FAB0DD8D099239E7CC9C99804FF7AE0D46AE07A1640992300601974CD5423625B0E60AF7203811AC95323FDA402069C74BE0614070A395ED17882969B8F4A854355F403A0CDC8080B5EE5282817DF18E86D41AD731DCC29EB21B6D789884731FC1D68A7A1915B5631357C13520E7ECE5
310
ADD81F0EB0285E0B98550582559AE7F03DCD77E72CAB2AB4AB70E4870936A25BD599E6D4F01A1014A314260944D947921DE3FC88F69F38F29D040F463BCF8BA87707C8F572C7D18C6FF86C5FFFCD678534295AF8E6890190C4AD3715088E7C3EEE3785B7CDD009BBFC0CBDB4AB859B8346CE8CD299ABD4CA3E4A236D2D77D4
310
71307D389AAB8E7922F88D073DE179CEE182A2B271AB51E3AE176BBCFA76A79E6B389A7B2095EE68FB586E5EF1713E843696D671A65AA5FF33BD5A5DC38CFCC324DF504B0304140006080800AE707857D17ACC5108010000B201000008000000636F72652E786D6C8D50CB6EC32010FC15B477FCC0769C4498C87DE40B7AEA
310
8D1AE2A0D8601988DABF2FC4546A6F3D2D9A99DD19869E3EE709DDE56A95D11D94590148EAC108A5C70EBCBBE03DA013A3AB31EE970C90E6B3EC20C2C0E8B81ABF246830DA491D516D844C20B7563A40C3141E1DD8E12A679E71EF82C2DEB2850F373ECAACCC361DA34ECD3FABC32AB9930218294885CB1293FAADAC8F4573
310
24FB779A4725A3DE2B91AC9408EEEAA2E40AEC5C3FBDB4FBC301B7ED738BEBBE25B8AF9A06BF56CDEE5CD77D4F763DCDE332A3D6ADE1CFE948C8E990E5F7E84BF38D62F4C39829094228818C9EBE8015348FC49FD07E11FF08ADB4AB483AB86D58606508F42082716C308C47BD61C6B6D937504B01021400140006080800AE
310
7078570000000000000000000000003700000000000000000000000000000000006662782F32463041353136312D443645352D344641352D383943342D4443433144343639393031342F617474726962757465732E62696E504B01021400140006080800AE7078570000000000000000000000003500000000000000000000
310
000000550000006662782F32463041353136312D443645352D344641352D383943342D4443433144343639393031342F76657274696365732E62696E504B01021400140006080800AE707857F270F13306000000040000003600000000000000000000000000A80000006662782F32463041353136312D443645352D344641
310
352D383943342D4443433144343639393031342F747269616E676C65732E62696E504B01021400140006080800AE70785751464CB489000000430100003600000000000000000000000000020100006662782F32463041353136312D443645352D344641352D383943342D4443433144343639393031342F6469726563746F
310
72792E786D6C504B01021400140006080800AE707857999866DD38070000201C00003400000000000000000000000000DF0100006662782F32463041353136312D443645352D344641352D383943342D4443433144343639393031342F6F626A656374732E786D6C504B01021400140006080800AE7078578B5237733E0100
310
00460500003000000000000000000000000000690900006662782F32463041353136312D443645352D344641352D383943342D4443433144343639393031342F636E782E786D6C504B01021400140006080800AE7078577D3C84187E000000A30000000B00000000000000000000000000F50A00006662782F636E782E786D
310
6C504B01021400140006080800AE707857A6D797065F0000008200000007000000000000000000000000009C0B0000636E782E786D6C504B01021400140006080800AE7078574FEB6A7CA0000000F40000001300000000000000000000000000200C00005B436F6E74656E745F54797065735D2E786D6C504B010214001400
310
06080800AE7078573DEE336E64000000790000001B00000000000000000000000000F10C00006175746F6465736B2D64657369676E2D7061636B6167652E786D6C504B01021400140006080800AE7078579B08CCC8F9000000960100003B000000000000000000000000008E0D00006662782F32463041353136312D443645
310
352D344641352D383943342D4443433144343639393031342F7265736F75726365732F636F72652E786D6C504B01021400140006080800AE707857232BFE79F2000000B10100003100000000000000000000000000E00E00006662782F32463041353136312D443645352D344641352D383943342D44434331443436393930
310
31342F636F72652E786D6C504B01021400140006080800AE707857EC4DBAE454010000DD0200000C00000000000000000000000000211000006662782F636F72652E786D6C504B01021400140006080800AE707857D17ACC5108010000B201000008000000000000000000000000009F110000636F72652E786D6C504B0506
310
000000000E000E0080040000CD1200000000
  0
XRECORD
  5
835E
102
{ACAD_REACTORS
330
8359
102
}
330
8359
100
AcDbXrecord
280
     1
270
     1
271
     1
  0
XRECORD
  5
835D
102
{ACAD_REACTORS
330
8359
102
}
330
8359
100
AcDbXrecord
280
     1
270
     1
271
     1
  0
XRECORD
  5
835F
102
{ACAD_REACTORS
330
8359
102
}
330
8359
100
AcDbXrecord
280
     1
270
     1
271
     1
  0
XRECORD
  5
835C
102
{ACAD_REACTORS
330
8359
102
}
330
8359
100
AcDbXrecord
280
     1
270
     1
271
     1
  0
XRECORD
  5
8738
102
{ACAD_REACTORS
330
8737
102
}
330
8737
100
AcDbXrecord
280
     1
102
DISPLAYNAME
  1
Imperial24
102
FLAGS
 90
        0
  0
CELLSTYLEMAP
  5
86FF
102
{ACAD_REACTORS
330
86FE
102
}
330
86FE
100
AcDbCellStyleMap
 90
        3
300
CELLSTYLE
  1
TABLEFORMAT_BEGIN
 90
        5
170
     1
 91
        0
 92
    32768
 62
   257
 93
        1
300
CONTENTFORMAT
  1
CONTENTFORMAT_BEGIN
 90
        0
 91
        0
 92
      512
 93
        0
300

 40
0.0
140
1.0
 94
        5
 62
     0
340
838C
144
0.25
309
CONTENTFORMAT_END
171
     0
 94
        0
309
TABLEFORMAT_END
  1
CELLSTYLE_BEGIN
 90
        1
 91
        1
300
_TITLE
309
CELLSTYLE_END
300
CELLSTYLE
  1
TABLEFORMAT_BEGIN
 90
        5
170
     1
 91
        0
 92
        0
 62
   257
 93
        1
300
CONTENTFORMAT
  1
CONTENTFORMAT_BEGIN
 90
        0
 91
        0
 92
      512
 93
        0
300

 40
0.0
140
1.0
 94
        5
 62
     0
340
838C
144
0.18
309
CONTENTFORMAT_END
171
     0
 94
        0
309
TABLEFORMAT_END
  1
CELLSTYLE_BEGIN
 90
        2
 91
        1
300
_HEADER
309
CELLSTYLE_END
300
CELLSTYLE
  1
TABLEFORMAT_BEGIN
 90
        5
170
     1
 91
        0
 92
        0
 62
   257
 93
        1
300
CONTENTFORMAT
  1
CONTENTFORMAT_BEGIN
 90
        0
 91
        0
 92
      512
 93
        0
300

 40
0.0
140
1.0
 94
        2
 62
     0
340
838C
144
0.18
309
CONTENTFORMAT_END
171
     0
 94
        0
309
TABLEFORMAT_END
  1
CELLSTYLE_BEGIN
 90
        3
 91
        2
300
_DATA
309
CELLSTYLE_END
  0
XRECORD
  5
8735
102
{ACAD_REACTORS
330
86FE
102
}
330
86FE
100
AcDbXrecord
280
     1
102
ACAD_ROUNDTRIP_PRE2007_TABLESTYLE
 90
      512
 91
        0
  1

 92
      512
 93
        0
  2

 94
      512
 95
        0
  3

  0
XRECORD
  5
8710
102
{ACAD_REACTORS
330
870F
102
}
330
870F
100
AcDbXrecord
280
     1
102
RTVSPost2010Prop28
280
     1
102
RTVSPost2010PropOp28
 70
     1
102
RTVSPost2010Prop29
280
     1
102
RTVSPost2010PropOp29
 70
     1
102
RTVSPost2010Prop30
280
     0
102
RTVSPost2010PropOp30
 70
     1
102
RTVSPost2010Prop31
280
     0
102
RTVSPost2010PropOp31
 70
     1
102
RTVSPost2010Prop32
280
     0
102
RTVSPost2010PropOp32
 70
     1
102
RTVSPost2010Prop33
280
     0
102
RTVSPost2010PropOp33
 70
     1
102
RTVSPost2010Prop34
280
     0
102
RTVSPost2010PropOp34
 70
     1
102
RTVSPost2010Prop35
280
     0
102
RTVSPost2010PropOp35
 70
     1
102
RTVSPost2010Prop36
280
     0
102
RTVSPost2010PropOp36
 70
     1
102
RTVSPost2010Prop37
 90
       50
102
RTVSPost2010PropOp37
 70
     1
102
RTVSPost2010Prop38
140
0.0
102
RTVSPost2010PropOp38
 70
     1
102
RTVSPost2010Prop39
140
1.0
102
RTVSPost2010PropOp39
 70
     1
102
RTVSPost2010Prop40
 90
        0
102
RTVSPost2010PropOp40
 70
     1
102
RTVSPost2010Prop41ColorIndex
 90
       18
102
RTVSPost2010Prop41ColorRGB
 90
        0
102
RTVSPost2010PropOp41
 70
     1
102
RTVSPost2010Prop42
 90
       50
102
RTVSPost2010PropOp42
 70
     1
102
RTVSPost2010Prop43
 90
        3
102
RTVSPost2010PropOp43
 70
     1
102
RTVSPost2010Prop44ColorIndex
 90
        5
102
RTVSPost2010Prop44ColorRGB
 90
      255
102
RTVSPost2010PropOp44
 70
     1
102
RTVSPost2010Prop45
280
     0
102
RTVSPost2010PropOp45
 70
     1
102
RTVSPost2010Prop46
 90
       50
102
RTVSPost2010PropOp46
 70
     1
102
RTVSPost2010Prop47
 90
       50
102
RTVSPost2010PropOp47
 70
     1
102
RTVSPost2010Prop48
 90
       50
102
RTVSPost2010PropOp48
 70
     1
102
RTVSPost2010Prop49
280
     0
102
RTVSPost2010PropOp49
 70
     1
102
RTVSPost2010Prop50
 90
       50
102
RTVSPost2010PropOp50
 70
     1
102
RTVSPost2010Prop51ColorIndex
 90
      256
102
RTVSPost2010Prop51ColorRGB
 90
-16777216
102
RTVSPost2010PropOp51
 70
     0
102
RTVSPost2010Prop52
140
1.0
102
RTVSPost2010PropOp52
 70
     0
102
RTVSPost2010Prop53
 90
        2
102
RTVSPost2010PropOp53
 70
     1
102
RTVSPost2010Prop54
  1
strokes_ogs.tif
102
RTVSPost2010PropOp54
 70
     1
102
RTVSPost2010Prop55
280
     0
102
RTVSPost2010PropOp55
 70
     1
102
RTVSPost2010Prop56
140
1.0
102
RTVSPost2010PropOp56
 70
     1
102
RTVSPost2010Prop57
140
1.0
102
RTVSPost2010PropOp57
 70
     1
102
RTVSPropertyOp0
 70
     1
102
RTVSPropertyOp1
 70
     1
102
RTVSPropertyOp2
 70
     1
102
RTVSPropertyOp3
 70
     1
102
RTVSPropertyOp4
 70
     1
102
RTVSPropertyOp5
 70
     1
102
RTVSPropertyOp6
 70
     1
102
RTVSPropertyOp7
 70
     1
102
RTVSPropertyOp8
 70
     1
102
RTVSPropertyOp9
 70
     1
102
RTVSPropertyOp10
 70
     1
102
RTVSPropertyOp11
 70
     1
102
RTVSPropertyOp12
 70
     1
102
RTVSPropertyOp13
 70
     1
102
RTVSPropertyOp14
 70
     1
102
RTVSPropertyOp15
 70
     1
102
RTVSPropertyOp16
 70
     1
102
RTVSPropertyOp17
 70
     1
102
RTVSPropertyOp18
 70
     1
102
RTVSPropertyOp19
 70
     1
102
RTVSPropertyOp20
 70
     1
102
RTVSPropertyOp21
 70
     1
102
RTVSPropertyOp22
 70
     1
102
RTVSPropertyOp23
 70
     1
102
RTVSPropertyOp24
 70
     1
102
RTVSPropertyOp25
 70
     1
102
RTVSPropertyOp26
 70
     1
102
RTVSPropertyOp27
 70
     1
102
RTVSPropertyOp28
 70
     1
102
RTVSPropertyOp29
 70
     1
102
RTVSPropertyOp30
 70
     1
102
RTVSPropertyOp31
 70
     1
102
RTVSPropertyOp32
 70
     1
102
RTVSPropertyOp33
 70
     1
102
RTVSPropertyOp34
 70
     1
102
RTVSPropertyOp35
 70
     1
102
RTVSPropertyOp36
 70
     1
102
RTVSPropertyOp37
 70
     1
102
RTVSPropertyOp38
 70
     1
102
RTVSPropertyOp39
 70
     1
102
RTVSPropertyOp40
 70
     1
102
RTVSPropertyOp41
 70
     1
102
RTVSPropertyOp42
 70
     1
102
RTVSPropertyOp43
 70
     1
102
RTVSPropertyOp44
 70
     1
102
RTVSPropertyOp45
 70
     1
102
RTVSPropertyOp46
 70
     1
102
RTVSPropertyOp47
 70
     1
102
RTVSPropertyOp48
 70
     1
102
RTVSPropertyOp49
 70
     1
102
RTVSPropertyOp50
 70
     1
102
RTVSPropertyOp51
 70
     0
102
RTVSPropertyOp52
 70
     0
102
RTVSPropertyOp53
 70
     1
102
RTVSPropertyOp54
 70
     1
102
RTVSPropertyOp55
 70
     1
102
RTVSPropertyOp56
 70
     1
102
RTVSPropertyOp57
 70
     1
102
RTVSPropertyOp58
 70
     1
102
RTVSPropertyOp59
 70
     1
102
RTVSPropertyOp60
 70
     1
102
RTVSPropertyOp61
 70
     1
102
RTVSPropertyOp62
 70
     1
  0
XRECORD
  5
870E
102
{ACAD_REACTORS
330
870D
102
}
330
870D
100
AcDbXrecord
280
     1
102
RTVSPost2010Prop28
280
     0
102
RTVSPost2010PropOp28
 70
     1
102
RTVSPost2010Prop29
280
     1
102
RTVSPost2010PropOp29
 70
     1
102
RTVSPost2010Prop30
280
     1
102
RTVSPost2010PropOp30
 70
     1
102
RTVSPost2010Prop31
280
     0
102
RTVSPost2010PropOp31
 70
     1
102
RTVSPost2010Prop32
280
     0
102
RTVSPost2010PropOp32
 70
     1
102
RTVSPost2010Prop33
280
     0
102
RTVSPost2010PropOp33
 70
     1
102
RTVSPost2010Prop34
280
     0
102
RTVSPost2010PropOp34
 70
     1
102
RTVSPost2010Prop35
280
     0
102
RTVSPost2010PropOp35
 70
     1
102
RTVSPost2010Prop36
280
     0
102
RTVSPost2010PropOp36
 70
     1
102
RTVSPost2010Prop37
 90
       50
102
RTVSPost2010PropOp37
 70
     1
102
RTVSPost2010Prop38
140
0.0
102
RTVSPost2010PropOp38
 70
     1
102
RTVSPost2010Prop39
140
1.0
102
RTVSPost2010PropOp39
 70
     1
102
RTVSPost2010Prop40
 90
        0
102
RTVSPost2010PropOp40
 70
     1
102
RTVSPost2010Prop41ColorIndex
 90
       18
102
RTVSPost2010Prop41ColorRGB
 90
        0
102
RTVSPost2010PropOp41
 70
     1
102
RTVSPost2010Prop42
 90
       50
102
RTVSPost2010PropOp42
 70
     1
102
RTVSPost2010Prop43
 90
        3
102
RTVSPost2010PropOp43
 70
     1
102
RTVSPost2010Prop44ColorIndex
 90
        5
102
RTVSPost2010Prop44ColorRGB
 90
      255
102
RTVSPost2010PropOp44
 70
     1
102
RTVSPost2010Prop45
280
     0
102
RTVSPost2010PropOp45
 70
     1
102
RTVSPost2010Prop46
 90
       50
102
RTVSPost2010PropOp46
 70
     1
102
RTVSPost2010Prop47
 90
       50
102
RTVSPost2010PropOp47
 70
     1
102
RTVSPost2010Prop48
 90
       50
102
RTVSPost2010PropOp48
 70
     1
102
RTVSPost2010Prop49
280
     0
102
RTVSPost2010PropOp49
 70
     1
102
RTVSPost2010Prop50
 90
       50
102
RTVSPost2010PropOp50
 70
     1
102
RTVSPost2010Prop51ColorIndex
 90
      256
102
RTVSPost2010Prop51ColorRGB
 90
-16777216
102
RTVSPost2010PropOp51
 70
     0
102
RTVSPost2010Prop52
140
1.0
102
RTVSPost2010PropOp52
 70
     0
102
RTVSPost2010Prop53
 90
        2
102
RTVSPost2010PropOp53
 70
     1
102
RTVSPost2010Prop54
  1
strokes_ogs.tif
102
RTVSPost2010PropOp54
 70
     1
102
RTVSPost2010Prop55
280
     0
102
RTVSPost2010PropOp55
 70
     1
102
RTVSPost2010Prop56
140
1.0
102
RTVSPost2010PropOp56
 70
     1
102
RTVSPost2010Prop57
140
1.0
102
RTVSPost2010PropOp57
 70
     1
102
RTVSPropertyOp0
 70
     1
102
RTVSPropertyOp1
 70
     1
102
RTVSPropertyOp2
 70
     1
102
RTVSPropertyOp3
 70
     1
102
RTVSPropertyOp4
 70
     1
102
RTVSPropertyOp5
 70
     1
102
RTVSPropertyOp6
 70
     1
102
RTVSPropertyOp7
 70
     1
102
RTVSPropertyOp8
 70
     1
102
RTVSPropertyOp9
 70
     1
102
RTVSPropertyOp10
 70
     1
102
RTVSPropertyOp11
 70
     1
102
RTVSPropertyOp12
 70
     1
102
RTVSPropertyOp13
 70
     1
102
RTVSPropertyOp14
 70
     1
102
RTVSPropertyOp15
 70
     1
102
RTVSPropertyOp16
 70
     1
102
RTVSPropertyOp17
 70
     1
102
RTVSPropertyOp18
 70
     1
102
RTVSPropertyOp19
 70
     1
102
RTVSPropertyOp20
 70
     1
102
RTVSPropertyOp21
 70
     1
102
RTVSPropertyOp22
 70
     1
102
RTVSPropertyOp23
 70
     1
102
RTVSPropertyOp24
 70
     1
102
RTVSPropertyOp25
 70
     1
102
RTVSPropertyOp26
 70
     1
102
RTVSPropertyOp27
 70
     1
102
RTVSPropertyOp28
 70
     1
102
RTVSPropertyOp29
 70
     1
102
RTVSPropertyOp30
 70
     1
102
RTVSPropertyOp31
 70
     1
102
RTVSPropertyOp32
 70
     1
102
RTVSPropertyOp33
 70
     1
102
RTVSPropertyOp34
 70
     1
102
RTVSPropertyOp35
 70
     1
102
RTVSPropertyOp36
 70
     1
102
RTVSPropertyOp37
 70
     1
102
RTVSPropertyOp38
 70
     1
102
RTVSPropertyOp39
 70
     1
102
RTVSPropertyOp40
 70
     1
102
RTVSPropertyOp41
 70
     1
102
RTVSPropertyOp42
 70
     1
102
RTVSPropertyOp43
 70
     1
102
RTVSPropertyOp44
 70
     1
102
RTVSPropertyOp45
 70
     1
102
RTVSPropertyOp46
 70
     1
102
RTVSPropertyOp47
 70
     1
102
RTVSPropertyOp48
 70
     1
102
RTVSPropertyOp49
 70
     1
102
RTVSPropertyOp50
 70
     1
102
RTVSPropertyOp51
 70
     0
102
RTVSPropertyOp52
 70
     0
102
RTVSPropertyOp53
 70
     1
102
RTVSPropertyOp54
 70
     1
102
RTVSPropertyOp55
 70
     1
102
RTVSPropertyOp56
 70
     1
102
RTVSPropertyOp57
 70
     1
102
RTVSPropertyOp58
 70
     1
102
RTVSPropertyOp59
 70
     1
102
RTVSPropertyOp60
 70
     1
102
RTVSPropertyOp61
 70
     1
102
RTVSPropertyOp62
 70
     1
  0
XRECORD
  5
871C
102
{ACAD_REACTORS
330
871B
102
}
330
871B
100
AcDbXrecord
280
     1
102
RTVSPost2010Prop28
280
     0
102
RTVSPost2010PropOp28
 70
     1
102
RTVSPost2010Prop29
280
     1
102
RTVSPost2010PropOp29
 70
     1
102
RTVSPost2010Prop30
280
     1
102
RTVSPost2010PropOp30
 70
     1
102
RTVSPost2010Prop31
280
     0
102
RTVSPost2010PropOp31
 70
     1
102
RTVSPost2010Prop32
280
     0
102
RTVSPost2010PropOp32
 70
     1
102
RTVSPost2010Prop33
280
     0
102
RTVSPost2010PropOp33
 70
     1
102
RTVSPost2010Prop34
280
     0
102
RTVSPost2010PropOp34
 70
     1
102
RTVSPost2010Prop35
280
     0
102
RTVSPost2010PropOp35
 70
     1
102
RTVSPost2010Prop36
280
     0
102
RTVSPost2010PropOp36
 70
     1
102
RTVSPost2010Prop37
 90
       50
102
RTVSPost2010PropOp37
 70
     1
102
RTVSPost2010Prop38
140
0.0
102
RTVSPost2010PropOp38
 70
     1
102
RTVSPost2010Prop39
140
1.0
102
RTVSPost2010PropOp39
 70
     1
102
RTVSPost2010Prop40
 90
        0
102
RTVSPost2010PropOp40
 70
     1
102
RTVSPost2010Prop41ColorIndex
 90
       18
102
RTVSPost2010Prop41ColorRGB
 90
        0
102
RTVSPost2010PropOp41
 70
     1
102
RTVSPost2010Prop42
 90
       50
102
RTVSPost2010PropOp42
 70
     1
102
RTVSPost2010Prop43
 90
        3
102
RTVSPost2010PropOp43
 70
     1
102
RTVSPost2010Prop44ColorIndex
 90
        5
102
RTVSPost2010Prop44ColorRGB
 90
      255
102
RTVSPost2010PropOp44
 70
     1
102
RTVSPost2010Prop45
280
     0
102
RTVSPost2010PropOp45
 70
     1
102
RTVSPost2010Prop46
 90
       50
102
RTVSPost2010PropOp46
 70
     1
102
RTVSPost2010Prop47
 90
       50
102
RTVSPost2010PropOp47
 70
     1
102
RTVSPost2010Prop48
 90
       50
102
RTVSPost2010PropOp48
 70
     1
102
RTVSPost2010Prop49
280
     0
102
RTVSPost2010PropOp49
 70
     1
102
RTVSPost2010Prop50
 90
       50
102
RTVSPost2010PropOp50
 70
     1
102
RTVSPost2010Prop51ColorIndex
 90
      256
102
RTVSPost2010Prop51ColorRGB
 90
-16777216
102
RTVSPost2010PropOp51
 70
     0
102
RTVSPost2010Prop52
140
1.0
102
RTVSPost2010PropOp52
 70
     0
102
RTVSPost2010Prop53
 90
        2
102
RTVSPost2010PropOp53
 70
     1
102
RTVSPost2010Prop54
  1
strokes_ogs.tif
102
RTVSPost2010PropOp54
 70
     1
102
RTVSPost2010Prop55
280
     0
102
RTVSPost2010PropOp55
 70
     1
102
RTVSPost2010Prop56
140
1.0
102
RTVSPost2010PropOp56
 70
     1
102
RTVSPost2010Prop57
140
1.0
102
RTVSPost2010PropOp57
 70
     1
102
RTVSPropertyOp0
 70
     1
102
RTVSPropertyOp1
 70
     1
102
RTVSPropertyOp2
 70
     1
102
RTVSPropertyOp3
 70
     1
102
RTVSPropertyOp4
 70
     1
102
RTVSPropertyOp5
 70
     1
102
RTVSPropertyOp6
 70
     1
102
RTVSPropertyOp7
 70
     1
102
RTVSPropertyOp8
 70
     1
102
RTVSPropertyOp9
 70
     1
102
RTVSPropertyOp10
 70
     1
102
RTVSPropertyOp11
 70
     1
102
RTVSPropertyOp12
 70
     1
102
RTVSPropertyOp13
 70
     1
102
RTVSPropertyOp14
 70
     1
102
RTVSPropertyOp15
 70
     1
102
RTVSPropertyOp16
 70
     1
102
RTVSPropertyOp17
 70
     1
102
RTVSPropertyOp18
 70
     1
102
RTVSPropertyOp19
 70
     1
102
RTVSPropertyOp20
 70
     1
102
RTVSPropertyOp21
 70
     1
102
RTVSPropertyOp22
 70
     1
102
RTVSPropertyOp23
 70
     1
102
RTVSPropertyOp24
 70
     1
102
RTVSPropertyOp25
 70
     1
102
RTVSPropertyOp26
 70
     1
102
RTVSPropertyOp27
 70
     1
102
RTVSPropertyOp28
 70
     1
102
RTVSPropertyOp29
 70
     1
102
RTVSPropertyOp30
 70
     1
102
RTVSPropertyOp31
 70
     1
102
RTVSPropertyOp32
 70
     1
102
RTVSPropertyOp33
 70
     1
102
RTVSPropertyOp34
 70
     1
102
RTVSPropertyOp35
 70
     1
102
RTVSPropertyOp36
 70
     1
102
RTVSPropertyOp37
 70
     1
102
RTVSPropertyOp38
 70
     1
102
RTVSPropertyOp39
 70
     1
102
RTVSPropertyOp40
 70
     1
102
RTVSPropertyOp41
 70
     1
102
RTVSPropertyOp42
 70
     1
102
RTVSPropertyOp43
 70
     1
102
RTVSPropertyOp44
 70
     1
102
RTVSPropertyOp45
 70
     1
102
RTVSPropertyOp46
 70
     1
102
RTVSPropertyOp47
 70
     1
102
RTVSPropertyOp48
 70
     1
102
RTVSPropertyOp49
 70
     1
102
RTVSPropertyOp50
 70
     1
102
RTVSPropertyOp51
 70
     0
102
RTVSPropertyOp52
 70
     0
102
RTVSPropertyOp53
 70
     1
102
RTVSPropertyOp54
 70
     1
102
RTVSPropertyOp55
 70
     1
102
RTVSPropertyOp56
 70
     1
102
RTVSPropertyOp57
 70
     1
102
RTVSPropertyOp58
 70
     1
102
RTVSPropertyOp59
 70
     1
102
RTVSPropertyOp60
 70
     1
102
RTVSPropertyOp61
 70
     1
102
RTVSPropertyOp62
 70
     1
  0
XRECORD
  5
8724
102
{ACAD_REACTORS
330
8723
102
}
330
8723
100
AcDbXrecord
280
     1
102
RTVSPost2010Prop28
280
     0
102
RTVSPost2010PropOp28
 70
     1
102
RTVSPost2010Prop29
280
     1
102
RTVSPost2010PropOp29
 70
     1
102
RTVSPost2010Prop30
280
     1
102
RTVSPost2010PropOp30
 70
     1
102
RTVSPost2010Prop31
280
     0
102
RTVSPost2010PropOp31
 70
     1
102
RTVSPost2010Prop32
280
     0
102
RTVSPost2010PropOp32
 70
     1
102
RTVSPost2010Prop33
280
     0
102
RTVSPost2010PropOp33
 70
     1
102
RTVSPost2010Prop34
280
     0
102
RTVSPost2010PropOp34
 70
     1
102
RTVSPost2010Prop35
280
     0
102
RTVSPost2010PropOp35
 70
     1
102
RTVSPost2010Prop36
280
     0
102
RTVSPost2010PropOp36
 70
     1
102
RTVSPost2010Prop37
 90
       50
102
RTVSPost2010PropOp37
 70
     1
102
RTVSPost2010Prop38
140
0.0
102
RTVSPost2010PropOp38
 70
     1
102
RTVSPost2010Prop39
140
1.0
102
RTVSPost2010PropOp39
 70
     1
102
RTVSPost2010Prop40
 90
        0
102
RTVSPost2010PropOp40
 70
     1
102
RTVSPost2010Prop41ColorIndex
 90
       18
102
RTVSPost2010Prop41ColorRGB
 90
        0
102
RTVSPost2010PropOp41
 70
     1
102
RTVSPost2010Prop42
 90
       50
102
RTVSPost2010PropOp42
 70
     1
102
RTVSPost2010Prop43
 90
        3
102
RTVSPost2010PropOp43
 70
     1
102
RTVSPost2010Prop44ColorIndex
 90
        5
102
RTVSPost2010Prop44ColorRGB
 90
      255
102
RTVSPost2010PropOp44
 70
     1
102
RTVSPost2010Prop45
280
     0
102
RTVSPost2010PropOp45
 70
     1
102
RTVSPost2010Prop46
 90
       50
102
RTVSPost2010PropOp46
 70
     1
102
RTVSPost2010Prop47
 90
       50
102
RTVSPost2010PropOp47
 70
     1
102
RTVSPost2010Prop48
 90
       50
102
RTVSPost2010PropOp48
 70
     1
102
RTVSPost2010Prop49
280
     0
102
RTVSPost2010PropOp49
 70
     1
102
RTVSPost2010Prop50
 90
       50
102
RTVSPost2010PropOp50
 70
     1
102
RTVSPost2010Prop51ColorIndex
 90
      256
102
RTVSPost2010Prop51ColorRGB
 90
-16777216
102
RTVSPost2010PropOp51
 70
     0
102
RTVSPost2010Prop52
140
1.0
102
RTVSPost2010PropOp52
 70
     0
102
RTVSPost2010Prop53
 90
        2
102
RTVSPost2010PropOp53
 70
     1
102
RTVSPost2010Prop54
  1
strokes_ogs.tif
102
RTVSPost2010PropOp54
 70
     1
102
RTVSPost2010Prop55
280
     0
102
RTVSPost2010PropOp55
 70
     1
102
RTVSPost2010Prop56
140
1.0
102
RTVSPost2010PropOp56
 70
     1
102
RTVSPost2010Prop57
140
1.0
102
RTVSPost2010PropOp57
 70
     1
102
RTVSPropertyOp0
 70
     1
102
RTVSPropertyOp1
 70
     1
102
RTVSPropertyOp2
 70
     1
102
RTVSPropertyOp3
 70
     1
102
RTVSPropertyOp4
 70
     1
102
RTVSPropertyOp5
 70
     1
102
RTVSPropertyOp6
 70
     1
102
RTVSPropertyOp7
 70
     1
102
RTVSPropertyOp8
 70
     1
102
RTVSPropertyOp9
 70
     1
102
RTVSPropertyOp10
 70
     1
102
RTVSPropertyOp11
 70
     1
102
RTVSPropertyOp12
 70
     1
102
RTVSPropertyOp13
 70
     1
102
RTVSPropertyOp14
 70
     1
102
RTVSPropertyOp15
 70
     1
102
RTVSPropertyOp16
 70
     1
102
RTVSPropertyOp17
 70
     1
102
RTVSPropertyOp18
 70
     1
102
RTVSPropertyOp19
 70
     1
102
RTVSPropertyOp20
 70
     1
102
RTVSPropertyOp21
 70
     1
102
RTVSPropertyOp22
 70
     1
102
RTVSPropertyOp23
 70
     1
102
RTVSPropertyOp24
 70
     1
102
RTVSPropertyOp25
 70
     1
102
RTVSPropertyOp26
 70
     1
102
RTVSPropertyOp27
 70
     1
102
RTVSPropertyOp28
 70
     1
102
RTVSPropertyOp29
 70
     1
102
RTVSPropertyOp30
 70
     1
102
RTVSPropertyOp31
 70
     1
102
RTVSPropertyOp32
 70
     1
102
RTVSPropertyOp33
 70
     1
102
RTVSPropertyOp34
 70
     1
102
RTVSPropertyOp35
 70
     1
102
RTVSPropertyOp36
 70
     1
102
RTVSPropertyOp37
 70
     1
102
RTVSPropertyOp38
 70
     1
102
RTVSPropertyOp39
 70
     1
102
RTVSPropertyOp40
 70
     1
102
RTVSPropertyOp41
 70
     1
102
RTVSPropertyOp42
 70
     1
102
RTVSPropertyOp43
 70
     1
102
RTVSPropertyOp44
 70
     1
102
RTVSPropertyOp45
 70
     1
102
RTVSPropertyOp46
 70
     1
102
RTVSPropertyOp47
 70
     1
102
RTVSPropertyOp48
 70
     1
102
RTVSPropertyOp49
 70
     1
102
RTVSPropertyOp50
 70
     1
102
RTVSPropertyOp51
 70
     0
102
RTVSPropertyOp52
 70
     0
102
RTVSPropertyOp53
 70
     1
102
RTVSPropertyOp54
 70
     1
102
RTVSPropertyOp55
 70
     1
102
RTVSPropertyOp56
 70
     1
102
RTVSPropertyOp57
 70
     1
102
RTVSPropertyOp58
 70
     1
102
RTVSPropertyOp59
 70
     1
102
RTVSPropertyOp60
 70
     1
102
RTVSPropertyOp61
 70
     1
102
RTVSPropertyOp62
 70
     1
  0
XRECORD
  5
8716
102
{ACAD_REACTORS
330
8715
102
}
330
8715
100
AcDbXrecord
280
     1
102
RTVSPost2010Prop28
280
     0
102
RTVSPost2010PropOp28
 70
     1
102
RTVSPost2010Prop29
280
     1
102
RTVSPost2010PropOp29
 70
     1
102
RTVSPost2010Prop30
280
     1
102
RTVSPost2010PropOp30
 70
     1
102
RTVSPost2010Prop31
280
     0
102
RTVSPost2010PropOp31
 70
     1
102
RTVSPost2010Prop32
280
     0
102
RTVSPost2010PropOp32
 70
     1
102
RTVSPost2010Prop33
280
     0
102
RTVSPost2010PropOp33
 70
     1
102
RTVSPost2010Prop34
280
     0
102
RTVSPost2010PropOp34
 70
     1
102
RTVSPost2010Prop35
280
     0
102
RTVSPost2010PropOp35
 70
     1
102
RTVSPost2010Prop36
280
     0
102
RTVSPost2010PropOp36
 70
     1
102
RTVSPost2010Prop37
 90
       50
102
RTVSPost2010PropOp37
 70
     1
102
RTVSPost2010Prop38
140
0.0
102
RTVSPost2010PropOp38
 70
     1
102
RTVSPost2010Prop39
140
1.0
102
RTVSPost2010PropOp39
 70
     1
102
RTVSPost2010Prop40
 90
        0
102
RTVSPost2010PropOp40
 70
     1
102
RTVSPost2010Prop41ColorIndex
 90
       18
102
RTVSPost2010Prop41ColorRGB
 90
        0
102
RTVSPost2010PropOp41
 70
     1
102
RTVSPost2010Prop42
 90
       50
102
RTVSPost2010PropOp42
 70
     1
102
RTVSPost2010Prop43
 90
        3
102
RTVSPost2010PropOp43
 70
     1
102
RTVSPost2010Prop44ColorIndex
 90
        5
102
RTVSPost2010Prop44ColorRGB
 90
      255
102
RTVSPost2010PropOp44
 70
     1
102
RTVSPost2010Prop45
280
     0
102
RTVSPost2010PropOp45
 70
     1
102
RTVSPost2010Prop46
 90
       50
102
RTVSPost2010PropOp46
 70
     1
102
RTVSPost2010Prop47
 90
       50
102
RTVSPost2010PropOp47
 70
     1
102
RTVSPost2010Prop48
 90
       50
102
RTVSPost2010PropOp48
 70
     1
102
RTVSPost2010Prop49
280
     0
102
RTVSPost2010PropOp49
 70
     1
102
RTVSPost2010Prop50
 90
       50
102
RTVSPost2010PropOp50
 70
     1
102
RTVSPost2010Prop51ColorIndex
 90
      256
102
RTVSPost2010Prop51ColorRGB
 90
-16777216
102
RTVSPost2010PropOp51
 70
     0
102
RTVSPost2010Prop52
140
1.0
102
RTVSPost2010PropOp52
 70
     0
102
RTVSPost2010Prop53
 90
        2
102
RTVSPost2010PropOp53
 70
     1
102
RTVSPost2010Prop54
  1
strokes_ogs.tif
102
RTVSPost2010PropOp54
 70
     1
102
RTVSPost2010Prop55
280
     0
102
RTVSPost2010PropOp55
 70
     1
102
RTVSPost2010Prop56
140
1.0
102
RTVSPost2010PropOp56
 70
     1
102
RTVSPost2010Prop57
140
1.0
102
RTVSPost2010PropOp57
 70
     1
102
RTVSPropertyOp0
 70
     1
102
RTVSPropertyOp1
 70
     1
102
RTVSPropertyOp2
 70
     1
102
RTVSPropertyOp3
 70
     1
102
RTVSPropertyOp4
 70
     1
102
RTVSPropertyOp5
 70
     1
102
RTVSPropertyOp6
 70
     1
102
RTVSPropertyOp7
 70
     1
102
RTVSPropertyOp8
 70
     1
102
RTVSPropertyOp9
 70
     1
102
RTVSPropertyOp10
 70
     1
102
RTVSPropertyOp11
 70
     1
102
RTVSPropertyOp12
 70
     1
102
RTVSPropertyOp13
 70
     1
102
RTVSPropertyOp14
 70
     1
102
RTVSPropertyOp15
 70
     1
102
RTVSPropertyOp16
 70
     1
102
RTVSPropertyOp17
 70
     1
102
RTVSPropertyOp18
 70
     1
102
RTVSPropertyOp19
 70
     1
102
RTVSPropertyOp20
 70
     1
102
RTVSPropertyOp21
 70
     1
102
RTVSPropertyOp22
 70
     1
102
RTVSPropertyOp23
 70
     1
102
RTVSPropertyOp24
 70
     1
102
RTVSPropertyOp25
 70
     1
102
RTVSPropertyOp26
 70
     1
102
RTVSPropertyOp27
 70
     1
102
RTVSPropertyOp28
 70
     1
102
RTVSPropertyOp29
 70
     1
102
RTVSPropertyOp30
 70
     1
102
RTVSPropertyOp31
 70
     1
102
RTVSPropertyOp32
 70
     1
102
RTVSPropertyOp33
 70
     1
102
RTVSPropertyOp34
 70
     1
102
RTVSPropertyOp35
 70
     1
102
RTVSPropertyOp36
 70
     1
102
RTVSPropertyOp37
 70
     1
102
RTVSPropertyOp38
 70
     1
102
RTVSPropertyOp39
 70
     1
102
RTVSPropertyOp40
 70
     1
102
RTVSPropertyOp41
 70
     1
102
RTVSPropertyOp42
 70
     1
102
RTVSPropertyOp43
 70
     1
102
RTVSPropertyOp44
 70
     1
102
RTVSPropertyOp45
 70
     1
102
RTVSPropertyOp46
 70
     1
102
RTVSPropertyOp47
 70
     1
102
RTVSPropertyOp48
 70
     1
102
RTVSPropertyOp49
 70
     1
102
RTVSPropertyOp50
 70
     1
102
RTVSPropertyOp51
 70
     0
102
RTVSPropertyOp52
 70
     0
102
RTVSPropertyOp53
 70
     1
102
RTVSPropertyOp54
 70
     1
102
RTVSPropertyOp55
 70
     1
102
RTVSPropertyOp56
 70
     1
102
RTVSPropertyOp57
 70
     1
102
RTVSPropertyOp58
 70
     1
102
RTVSPropertyOp59
 70
     1
102
RTVSPropertyOp60
 70
     1
102
RTVSPropertyOp61
 70
     1
102
RTVSPropertyOp62
 70
     1
  0
XRECORD
  5
871A
102
{ACAD_REACTORS
330
8719
102
}
330
8719
100
AcDbXrecord
280
     1
102
RTVSPost2010Prop28
280
     0
102
RTVSPost2010PropOp28
 70
     1
102
RTVSPost2010Prop29
280
     1
102
RTVSPost2010PropOp29
 70
     1
102
RTVSPost2010Prop30
280
     1
102
RTVSPost2010PropOp30
 70
     1
102
RTVSPost2010Prop31
280
     0
102
RTVSPost2010PropOp31
 70
     1
102
RTVSPost2010Prop32
280
     0
102
RTVSPost2010PropOp32
 70
     1
102
RTVSPost2010Prop33
280
     0
102
RTVSPost2010PropOp33
 70
     1
102
RTVSPost2010Prop34
280
     0
102
RTVSPost2010PropOp34
 70
     1
102
RTVSPost2010Prop35
280
     0
102
RTVSPost2010PropOp35
 70
     1
102
RTVSPost2010Prop36
280
     0
102
RTVSPost2010PropOp36
 70
     1
102
RTVSPost2010Prop37
 90
       50
102
RTVSPost2010PropOp37
 70
     1
102
RTVSPost2010Prop38
140
0.0
102
RTVSPost2010PropOp38
 70
     1
102
RTVSPost2010Prop39
140
1.0
102
RTVSPost2010PropOp39
 70
     1
102
RTVSPost2010Prop40
 90
        0
102
RTVSPost2010PropOp40
 70
     1
102
RTVSPost2010Prop41ColorIndex
 90
       18
102
RTVSPost2010Prop41ColorRGB
 90
        0
102
RTVSPost2010PropOp41
 70
     1
102
RTVSPost2010Prop42
 90
       50
102
RTVSPost2010PropOp42
 70
     1
102
RTVSPost2010Prop43
 90
        3
102
RTVSPost2010PropOp43
 70
     1
102
RTVSPost2010Prop44ColorIndex
 90
        5
102
RTVSPost2010Prop44ColorRGB
 90
      255
102
RTVSPost2010PropOp44
 70
     1
102
RTVSPost2010Prop45
280
     0
102
RTVSPost2010PropOp45
 70
     1
102
RTVSPost2010Prop46
 90
       50
102
RTVSPost2010PropOp46
 70
     1
102
RTVSPost2010Prop47
 90
       50
102
RTVSPost2010PropOp47
 70
     1
102
RTVSPost2010Prop48
 90
       50
102
RTVSPost2010PropOp48
 70
     1
102
RTVSPost2010Prop49
280
     0
102
RTVSPost2010PropOp49
 70
     1
102
RTVSPost2010Prop50
 90
       50
102
RTVSPost2010PropOp50
 70
     1
102
RTVSPost2010Prop51ColorIndex
 90
      256
102
RTVSPost2010Prop51ColorRGB
 90
-16777216
102
RTVSPost2010PropOp51
 70
     0
102
RTVSPost2010Prop52
140
1.0
102
RTVSPost2010PropOp52
 70
     0
102
RTVSPost2010Prop53
 90
        2
102
RTVSPost2010PropOp53
 70
     1
102
RTVSPost2010Prop54
  1
strokes_ogs.tif
102
RTVSPost2010PropOp54
 70
     1
102
RTVSPost2010Prop55
280
     0
102
RTVSPost2010PropOp55
 70
     1
102
RTVSPost2010Prop56
140
1.0
102
RTVSPost2010PropOp56
 70
     1
102
RTVSPost2010Prop57
140
1.0
102
RTVSPost2010PropOp57
 70
     1
102
RTVSPropertyOp0
 70
     1
102
RTVSPropertyOp1
 70
     1
102
RTVSPropertyOp2
 70
     1
102
RTVSPropertyOp3
 70
     1
102
RTVSPropertyOp4
 70
     1
102
RTVSPropertyOp5
 70
     1
102
RTVSPropertyOp6
 70
     1
102
RTVSPropertyOp7
 70
     1
102
RTVSPropertyOp8
 70
     1
102
RTVSPropertyOp9
 70
     1
102
RTVSPropertyOp10
 70
     1
102
RTVSPropertyOp11
 70
     1
102
RTVSPropertyOp12
 70
     1
102
RTVSPropertyOp13
 70
     1
102
RTVSPropertyOp14
 70
     1
102
RTVSPropertyOp15
 70
     1
102
RTVSPropertyOp16
 70
     1
102
RTVSPropertyOp17
 70
     1
102
RTVSPropertyOp18
 70
     1
102
RTVSPropertyOp19
 70
     1
102
RTVSPropertyOp20
 70
     1
102
RTVSPropertyOp21
 70
     1
102
RTVSPropertyOp22
 70
     1
102
RTVSPropertyOp23
 70
     1
102
RTVSPropertyOp24
 70
     1
102
RTVSPropertyOp25
 70
     1
102
RTVSPropertyOp26
 70
     1
102
RTVSPropertyOp27
 70
     1
102
RTVSPropertyOp28
 70
     1
102
RTVSPropertyOp29
 70
     1
102
RTVSPropertyOp30
 70
     1
102
RTVSPropertyOp31
 70
     1
102
RTVSPropertyOp32
 70
     1
102
RTVSPropertyOp33
 70
     1
102
RTVSPropertyOp34
 70
     1
102
RTVSPropertyOp35
 70
     1
102
RTVSPropertyOp36
 70
     1
102
RTVSPropertyOp37
 70
     1
102
RTVSPropertyOp38
 70
     1
102
RTVSPropertyOp39
 70
     1
102
RTVSPropertyOp40
 70
     1
102
RTVSPropertyOp41
 70
     1
102
RTVSPropertyOp42
 70
     1
102
RTVSPropertyOp43
 70
     1
102
RTVSPropertyOp44
 70
     1
102
RTVSPropertyOp45
 70
     1
102
RTVSPropertyOp46
 70
     1
102
RTVSPropertyOp47
 70
     1
102
RTVSPropertyOp48
 70
     1
102
RTVSPropertyOp49
 70
     1
102
RTVSPropertyOp50
 70
     1
102
RTVSPropertyOp51
 70
     0
102
RTVSPropertyOp52
 70
     0
102
RTVSPropertyOp53
 70
     1
102
RTVSPropertyOp54
 70
     1
102
RTVSPropertyOp55
 70
     1
102
RTVSPropertyOp56
 70
     1
102
RTVSPropertyOp57
 70
     1
102
RTVSPropertyOp58
 70
     1
102
RTVSPropertyOp59
 70
     1
102
RTVSPropertyOp60
 70
     1
102
RTVSPropertyOp61
 70
     1
102
RTVSPropertyOp62
 70
     1
  0
XRECORD
  5
8734
102
{ACAD_REACTORS
330
8733
102
}
330
8733
100
AcDbXrecord
280
     1
102
RTVSPost2010Prop28
280
     0
102
RTVSPost2010PropOp28
 70
     1
102
RTVSPost2010Prop29
280
     1
102
RTVSPost2010PropOp29
 70
     1
102
RTVSPost2010Prop30
280
     1
102
RTVSPost2010PropOp30
 70
     1
102
RTVSPost2010Prop31
280
     0
102
RTVSPost2010PropOp31
 70
     1
102
RTVSPost2010Prop32
280
     0
102
RTVSPost2010PropOp32
 70
     1
102
RTVSPost2010Prop33
280
     0
102
RTVSPost2010PropOp33
 70
     1
102
RTVSPost2010Prop34
280
     0
102
RTVSPost2010PropOp34
 70
     1
102
RTVSPost2010Prop35
280
     0
102
RTVSPost2010PropOp35
 70
     1
102
RTVSPost2010Prop36
280
     0
102
RTVSPost2010PropOp36
 70
     1
102
RTVSPost2010Prop37
 90
       50
102
RTVSPost2010PropOp37
 70
     0
102
RTVSPost2010Prop38
140
0.0
102
RTVSPost2010PropOp38
 70
     0
102
RTVSPost2010Prop39
140
1.0
102
RTVSPost2010PropOp39
 70
     0
102
RTVSPost2010Prop40
 90
        0
102
RTVSPost2010PropOp40
 70
     0
102
RTVSPost2010Prop41ColorIndex
 90
       18
102
RTVSPost2010Prop41ColorRGB
 90
        0
102
RTVSPost2010PropOp41
 70
     0
102
RTVSPost2010Prop42
 90
       50
102
RTVSPost2010PropOp42
 70
     0
102
RTVSPost2010Prop43
 90
        3
102
RTVSPost2010PropOp43
 70
     0
102
RTVSPost2010Prop44ColorIndex
 90
        5
102
RTVSPost2010Prop44ColorRGB
 90
      255
102
RTVSPost2010PropOp44
 70
     0
102
RTVSPost2010Prop45
280
     0
102
RTVSPost2010PropOp45
 70
     1
102
RTVSPost2010Prop46
 90
       50
102
RTVSPost2010PropOp46
 70
     0
102
RTVSPost2010Prop47
 90
       50
102
RTVSPost2010PropOp47
 70
     0
102
RTVSPost2010Prop48
 90
       50
102
RTVSPost2010PropOp48
 70
     0
102
RTVSPost2010Prop49
280
     0
102
RTVSPost2010PropOp49
 70
     1
102
RTVSPost2010Prop50
 90
       50
102
RTVSPost2010PropOp50
 70
     0
102
RTVSPost2010Prop51ColorIndex
 90
      256
102
RTVSPost2010Prop51ColorRGB
 90
-16777216
102
RTVSPost2010PropOp51
 70
     0
102
RTVSPost2010Prop52
140
1.0
102
RTVSPost2010PropOp52
 70
     0
102
RTVSPost2010Prop53
 90
        2
102
RTVSPost2010PropOp53
 70
     0
102
RTVSPost2010Prop54
  1
strokes_ogs.tif
102
RTVSPost2010PropOp54
 70
     0
102
RTVSPost2010Prop55
280
     0
102
RTVSPost2010PropOp55
 70
     1
102
RTVSPost2010Prop56
140
1.0
102
RTVSPost2010PropOp56
 70
     0
102
RTVSPost2010Prop57
140
1.0
102
RTVSPost2010PropOp57
 70
     0
102
RTVSPropertyOp0
 70
     0
102
RTVSPropertyOp1
 70
     0
102
RTVSPropertyOp2
 70
     0
102
RTVSPropertyOp3
 70
     0
102
RTVSPropertyOp4
 70
     0
102
RTVSPropertyOp5
 70
     0
102
RTVSPropertyOp6
 70
     0
102
RTVSPropertyOp7
 70
     0
102
RTVSPropertyOp8
 70
     0
102
RTVSPropertyOp9
 70
     0
102
RTVSPropertyOp10
 70
     0
102
RTVSPropertyOp11
 70
     0
102
RTVSPropertyOp12
 70
     0
102
RTVSPropertyOp13
 70
     0
102
RTVSPropertyOp14
 70
     2
102
RTVSPropertyOp15
 70
     0
102
RTVSPropertyOp16
 70
     0
102
RTVSPropertyOp17
 70
     0
102
RTVSPropertyOp18
 70
     0
102
RTVSPropertyOp19
 70
     0
102
RTVSPropertyOp20
 70
     0
102
RTVSPropertyOp21
 70
     0
102
RTVSPropertyOp22
 70
     0
102
RTVSPropertyOp23
 70
     0
102
RTVSPropertyOp24
 70
     0
102
RTVSPropertyOp25
 70
     0
102
RTVSPropertyOp26
 70
     0
102
RTVSPropertyOp27
 70
     0
102
RTVSPropertyOp28
 70
     1
102
RTVSPropertyOp29
 70
     1
102
RTVSPropertyOp30
 70
     1
102
RTVSPropertyOp31
 70
     1
102
RTVSPropertyOp32
 70
     1
102
RTVSPropertyOp33
 70
     1
102
RTVSPropertyOp34
 70
     1
102
RTVSPropertyOp35
 70
     1
102
RTVSPropertyOp36
 70
     1
102
RTVSPropertyOp37
 70
     0
102
RTVSPropertyOp38
 70
     0
102
RTVSPropertyOp39
 70
     0
102
RTVSPropertyOp40
 70
     0
102
RTVSPropertyOp41
 70
     0
102
RTVSPropertyOp42
 70
     0
102
RTVSPropertyOp43
 70
     0
102
RTVSPropertyOp44
 70
     0
102
RTVSPropertyOp45
 70
     1
102
RTVSPropertyOp46
 70
     0
102
RTVSPropertyOp47
 70
     0
102
RTVSPropertyOp48
 70
     0
102
RTVSPropertyOp49
 70
     1
102
RTVSPropertyOp50
 70
     0
102
RTVSPropertyOp51
 70
     0
102
RTVSPropertyOp52
 70
     0
102
RTVSPropertyOp53
 70
     0
102
RTVSPropertyOp54
 70
     0
102
RTVSPropertyOp55
 70
     1
102
RTVSPropertyOp56
 70
     0
102
RTVSPropertyOp57
 70
     0
102
RTVSPropertyOp58
 70
     0
102
RTVSPropertyOp59
 70
     0
102
RTVSPropertyOp60
 70
     0
102
RTVSPropertyOp61
 70
     0
102
RTVSPropertyOp62
 70
     0
  0
XRECORD
  5
8722
102
{ACAD_REACTORS
330
8721
102
}
330
8721
100
AcDbXrecord
280
     1
102
RTVSPost2010Prop28
280
     0
102
RTVSPost2010PropOp28
 70
     1
102
RTVSPost2010Prop29
280
     1
102
RTVSPost2010PropOp29
 70
     1
102
RTVSPost2010Prop30
280
     1
102
RTVSPost2010PropOp30
 70
     1
102
RTVSPost2010Prop31
280
     0
102
RTVSPost2010PropOp31
 70
     1
102
RTVSPost2010Prop32
280
     0
102
RTVSPost2010PropOp32
 70
     1
102
RTVSPost2010Prop33
280
     0
102
RTVSPost2010PropOp33
 70
     1
102
RTVSPost2010Prop34
280
     0
102
RTVSPost2010PropOp34
 70
     1
102
RTVSPost2010Prop35
280
     0
102
RTVSPost2010PropOp35
 70
     1
102
RTVSPost2010Prop36
280
     0
102
RTVSPost2010PropOp36
 70
     1
102
RTVSPost2010Prop37
 90
       50
102
RTVSPost2010PropOp37
 70
     1
102
RTVSPost2010Prop38
140
0.0
102
RTVSPost2010PropOp38
 70
     1
102
RTVSPost2010Prop39
140
1.0
102
RTVSPost2010PropOp39
 70
     1
102
RTVSPost2010Prop40
 90
        0
102
RTVSPost2010PropOp40
 70
     1
102
RTVSPost2010Prop41ColorIndex
 90
       18
102
RTVSPost2010Prop41ColorRGB
 90
        0
102
RTVSPost2010PropOp41
 70
     1
102
RTVSPost2010Prop42
 90
       50
102
RTVSPost2010PropOp42
 70
     1
102
RTVSPost2010Prop43
 90
        3
102
RTVSPost2010PropOp43
 70
     1
102
RTVSPost2010Prop44ColorIndex
 90
        5
102
RTVSPost2010Prop44ColorRGB
 90
      255
102
RTVSPost2010PropOp44
 70
     1
102
RTVSPost2010Prop45
280
     0
102
RTVSPost2010PropOp45
 70
     1
102
RTVSPost2010Prop46
 90
       50
102
RTVSPost2010PropOp46
 70
     1
102
RTVSPost2010Prop47
 90
       50
102
RTVSPost2010PropOp47
 70
     1
102
RTVSPost2010Prop48
 90
       50
102
RTVSPost2010PropOp48
 70
     1
102
RTVSPost2010Prop49
280
     0
102
RTVSPost2010PropOp49
 70
     1
102
RTVSPost2010Prop50
 90
       50
102
RTVSPost2010PropOp50
 70
     1
102
RTVSPost2010Prop51ColorIndex
 90
      256
102
RTVSPost2010Prop51ColorRGB
 90
-16777216
102
RTVSPost2010PropOp51
 70
     0
102
RTVSPost2010Prop52
140
1.0
102
RTVSPost2010PropOp52
 70
     0
102
RTVSPost2010Prop53
 90
        2
102
RTVSPost2010PropOp53
 70
     1
102
RTVSPost2010Prop54
  1
strokes_ogs.tif
102
RTVSPost2010PropOp54
 70
     1
102
RTVSPost2010Prop55
280
     0
102
RTVSPost2010PropOp55
 70
     1
102
RTVSPost2010Prop56
140
1.0
102
RTVSPost2010PropOp56
 70
     1
102
RTVSPost2010Prop57
140
1.0
102
RTVSPost2010PropOp57
 70
     1
102
RTVSPropertyOp0
 70
     1
102
RTVSPropertyOp1
 70
     1
102
RTVSPropertyOp2
 70
     1
102
RTVSPropertyOp3
 70
     1
102
RTVSPropertyOp4
 70
     1
102
RTVSPropertyOp5
 70
     1
102
RTVSPropertyOp6
 70
     1
102
RTVSPropertyOp7
 70
     1
102
RTVSPropertyOp8
 70
     1
102
RTVSPropertyOp9
 70
     1
102
RTVSPropertyOp10
 70
     1
102
RTVSPropertyOp11
 70
     1
102
RTVSPropertyOp12
 70
     1
102
RTVSPropertyOp13
 70
     1
102
RTVSPropertyOp14
 70
     1
102
RTVSPropertyOp15
 70
     1
102
RTVSPropertyOp16
 70
     1
102
RTVSPropertyOp17
 70
     1
102
RTVSPropertyOp18
 70
     1
102
RTVSPropertyOp19
 70
     1
102
RTVSPropertyOp20
 70
     1
102
RTVSPropertyOp21
 70
     1
102
RTVSPropertyOp22
 70
     1
102
RTVSPropertyOp23
 70
     1
102
RTVSPropertyOp24
 70
     1
102
RTVSPropertyOp25
 70
     1
102
RTVSPropertyOp26
 70
     1
102
RTVSPropertyOp27
 70
     1
102
RTVSPropertyOp28
 70
     1
102
RTVSPropertyOp29
 70
     1
102
RTVSPropertyOp30
 70
     1
102
RTVSPropertyOp31
 70
     1
102
RTVSPropertyOp32
 70
     1
102
RTVSPropertyOp33
 70
     1
102
RTVSPropertyOp34
 70
     1
102
RTVSPropertyOp35
 70
     1
102
RTVSPropertyOp36
 70
     1
102
RTVSPropertyOp37
 70
     1
102
RTVSPropertyOp38
 70
     1
102
RTVSPropertyOp39
 70
     1
102
RTVSPropertyOp40
 70
     1
102
RTVSPropertyOp41
 70
     1
102
RTVSPropertyOp42
 70
     1
102
RTVSPropertyOp43
 70
     1
102
RTVSPropertyOp44
 70
     1
102
RTVSPropertyOp45
 70
     1
102
RTVSPropertyOp46
 70
     1
102
RTVSPropertyOp47
 70
     1
102
RTVSPropertyOp48
 70
     1
102
RTVSPropertyOp49
 70
     1
102
RTVSPropertyOp50
 70
     1
102
RTVSPropertyOp51
 70
     0
102
RTVSPropertyOp52
 70
     0
102
RTVSPropertyOp53
 70
     1
102
RTVSPropertyOp54
 70
     1
102
RTVSPropertyOp55
 70
     1
102
RTVSPropertyOp56
 70
     1
102
RTVSPropertyOp57
 70
     1
102
RTVSPropertyOp58
 70
     1
102
RTVSPropertyOp59
 70
     1
102
RTVSPropertyOp60
 70
     1
102
RTVSPropertyOp61
 70
     1
102
RTVSPropertyOp62
 70
     1
  0
XRECORD
  5
8706
102
{ACAD_REACTORS
330
8705
102
}
330
8705
100
AcDbXrecord
280
     1
102
RTVSPost2010Prop28
280
     0
102
RTVSPost2010PropOp28
 70
     1
102
RTVSPost2010Prop29
280
     1
102
RTVSPost2010PropOp29
 70
     1
102
RTVSPost2010Prop30
280
     1
102
RTVSPost2010PropOp30
 70
     1
102
RTVSPost2010Prop31
280
     0
102
RTVSPost2010PropOp31
 70
     1
102
RTVSPost2010Prop32
280
     0
102
RTVSPost2010PropOp32
 70
     1
102
RTVSPost2010Prop33
280
     0
102
RTVSPost2010PropOp33
 70
     1
102
RTVSPost2010Prop34
280
     0
102
RTVSPost2010PropOp34
 70
     1
102
RTVSPost2010Prop35
280
     0
102
RTVSPost2010PropOp35
 70
     1
102
RTVSPost2010Prop36
280
     0
102
RTVSPost2010PropOp36
 70
     1
102
RTVSPost2010Prop37
 90
       50
102
RTVSPost2010PropOp37
 70
     1
102
RTVSPost2010Prop38
140
0.0
102
RTVSPost2010PropOp38
 70
     1
102
RTVSPost2010Prop39
140
1.0
102
RTVSPost2010PropOp39
 70
     1
102
RTVSPost2010Prop40
 90
        0
102
RTVSPost2010PropOp40
 70
     1
102
RTVSPost2010Prop41ColorIndex
 90
       18
102
RTVSPost2010Prop41ColorRGB
 90
        0
102
RTVSPost2010PropOp41
 70
     1
102
RTVSPost2010Prop42
 90
       50
102
RTVSPost2010PropOp42
 70
     1
102
RTVSPost2010Prop43
 90
        3
102
RTVSPost2010PropOp43
 70
     1
102
RTVSPost2010Prop44ColorIndex
 90
        5
102
RTVSPost2010Prop44ColorRGB
 90
      255
102
RTVSPost2010PropOp44
 70
     1
102
RTVSPost2010Prop45
280
     0
102
RTVSPost2010PropOp45
 70
     1
102
RTVSPost2010Prop46
 90
       50
102
RTVSPost2010PropOp46
 70
     1
102
RTVSPost2010Prop47
 90
       50
102
RTVSPost2010PropOp47
 70
     1
102
RTVSPost2010Prop48
 90
       50
102
RTVSPost2010PropOp48
 70
     1
102
RTVSPost2010Prop49
280
     0
102
RTVSPost2010PropOp49
 70
     1
102
RTVSPost2010Prop50
 90
       50
102
RTVSPost2010PropOp50
 70
     1
102
RTVSPost2010Prop51ColorIndex
 90
      256
102
RTVSPost2010Prop51ColorRGB
 90
-16777216
102
RTVSPost2010PropOp51
 70
     0
102
RTVSPost2010Prop52
140
1.0
102
RTVSPost2010PropOp52
 70
     0
102
RTVSPost2010Prop53
 90
        2
102
RTVSPost2010PropOp53
 70
     1
102
RTVSPost2010Prop54
  1
strokes_ogs.tif
102
RTVSPost2010PropOp54
 70
     1
102
RTVSPost2010Prop55
280
     0
102
RTVSPost2010PropOp55
 70
     1
102
RTVSPost2010Prop56
140
1.0
102
RTVSPost2010PropOp56
 70
     1
102
RTVSPost2010Prop57
140
1.0
102
RTVSPost2010PropOp57
 70
     1
102
RTVSPropertyOp0
 70
     1
102
RTVSPropertyOp1
 70
     1
102
RTVSPropertyOp2
 70
     1
102
RTVSPropertyOp3
 70
     1
102
RTVSPropertyOp4
 70
     1
102
RTVSPropertyOp5
 70
     1
102
RTVSPropertyOp6
 70
     1
102
RTVSPropertyOp7
 70
     1
102
RTVSPropertyOp8
 70
     1
102
RTVSPropertyOp9
 70
     1
102
RTVSPropertyOp10
 70
     1
102
RTVSPropertyOp11
 70
     1
102
RTVSPropertyOp12
 70
     1
102
RTVSPropertyOp13
 70
     1
102
RTVSPropertyOp14
 70
     1
102
RTVSPropertyOp15
 70
     1
102
RTVSPropertyOp16
 70
     1
102
RTVSPropertyOp17
 70
     1
102
RTVSPropertyOp18
 70
     1
102
RTVSPropertyOp19
 70
     1
102
RTVSPropertyOp20
 70
     1
102
RTVSPropertyOp21
 70
     1
102
RTVSPropertyOp22
 70
     1
102
RTVSPropertyOp23
 70
     1
102
RTVSPropertyOp24
 70
     1
102
RTVSPropertyOp25
 70
     1
102
RTVSPropertyOp26
 70
     1
102
RTVSPropertyOp27
 70
     1
102
RTVSPropertyOp28
 70
     1
102
RTVSPropertyOp29
 70
     1
102
RTVSPropertyOp30
 70
     1
102
RTVSPropertyOp31
 70
     1
102
RTVSPropertyOp32
 70
     1
102
RTVSPropertyOp33
 70
     1
102
RTVSPropertyOp34
 70
     1
102
RTVSPropertyOp35
 70
     1
102
RTVSPropertyOp36
 70
     1
102
RTVSPropertyOp37
 70
     1
102
RTVSPropertyOp38
 70
     1
102
RTVSPropertyOp39
 70
     1
102
RTVSPropertyOp40
 70
     1
102
RTVSPropertyOp41
 70
     1
102
RTVSPropertyOp42
 70
     1
102
RTVSPropertyOp43
 70
     1
102
RTVSPropertyOp44
 70
     1
102
RTVSPropertyOp45
 70
     1
102
RTVSPropertyOp46
 70
     1
102
RTVSPropertyOp47
 70
     1
102
RTVSPropertyOp48
 70
     1
102
RTVSPropertyOp49
 70
     1
102
RTVSPropertyOp50
 70
     1
102
RTVSPropertyOp51
 70
     0
102
RTVSPropertyOp52
 70
     0
102
RTVSPropertyOp53
 70
     1
102
RTVSPropertyOp54
 70
     1
102
RTVSPropertyOp55
 70
     1
102
RTVSPropertyOp56
 70
     1
102
RTVSPropertyOp57
 70
     1
102
RTVSPropertyOp58
 70
     1
102
RTVSPropertyOp59
 70
     1
102
RTVSPropertyOp60
 70
     1
102
RTVSPropertyOp61
 70
     1
102
RTVSPropertyOp62
 70
     1
  0
XRECORD
  5
8708
102
{ACAD_REACTORS
330
8707
102
}
330
8707
100
AcDbXrecord
280
     1
102
RTVSPost2010Prop28
280
     0
102
RTVSPost2010PropOp28
 70
     1
102
RTVSPost2010Prop29
280
     1
102
RTVSPost2010PropOp29
 70
     1
102
RTVSPost2010Prop30
280
     1
102
RTVSPost2010PropOp30
 70
     1
102
RTVSPost2010Prop31
280
     0
102
RTVSPost2010PropOp31
 70
     1
102
RTVSPost2010Prop32
280
     0
102
RTVSPost2010PropOp32
 70
     1
102
RTVSPost2010Prop33
280
     0
102
RTVSPost2010PropOp33
 70
     1
102
RTVSPost2010Prop34
280
     0
102
RTVSPost2010PropOp34
 70
     1
102
RTVSPost2010Prop35
280
     0
102
RTVSPost2010PropOp35
 70
     1
102
RTVSPost2010Prop36
280
     0
102
RTVSPost2010PropOp36
 70
     1
102
RTVSPost2010Prop37
 90
       50
102
RTVSPost2010PropOp37
 70
     1
102
RTVSPost2010Prop38
140
0.0
102
RTVSPost2010PropOp38
 70
     1
102
RTVSPost2010Prop39
140
1.0
102
RTVSPost2010PropOp39
 70
     1
102
RTVSPost2010Prop40
 90
        0
102
RTVSPost2010PropOp40
 70
     1
102
RTVSPost2010Prop41ColorIndex
 90
       18
102
RTVSPost2010Prop41ColorRGB
 90
        0
102
RTVSPost2010PropOp41
 70
     1
102
RTVSPost2010Prop42
 90
       50
102
RTVSPost2010PropOp42
 70
     1
102
RTVSPost2010Prop43
 90
        3
102
RTVSPost2010PropOp43
 70
     1
102
RTVSPost2010Prop44ColorIndex
 90
        5
102
RTVSPost2010Prop44ColorRGB
 90
      255
102
RTVSPost2010PropOp44
 70
     1
102
RTVSPost2010Prop45
280
     0
102
RTVSPost2010PropOp45
 70
     1
102
RTVSPost2010Prop46
 90
       50
102
RTVSPost2010PropOp46
 70
     1
102
RTVSPost2010Prop47
 90
       50
102
RTVSPost2010PropOp47
 70
     1
102
RTVSPost2010Prop48
 90
       50
102
RTVSPost2010PropOp48
 70
     1
102
RTVSPost2010Prop49
280
     0
102
RTVSPost2010PropOp49
 70
     1
102
RTVSPost2010Prop50
 90
       50
102
RTVSPost2010PropOp50
 70
     1
102
RTVSPost2010Prop51ColorIndex
 90
      256
102
RTVSPost2010Prop51ColorRGB
 90
-16777216
102
RTVSPost2010PropOp51
 70
     0
102
RTVSPost2010Prop52
140
1.0
102
RTVSPost2010PropOp52
 70
     0
102
RTVSPost2010Prop53
 90
        2
102
RTVSPost2010PropOp53
 70
     1
102
RTVSPost2010Prop54
  1
strokes_ogs.tif
102
RTVSPost2010PropOp54
 70
     1
102
RTVSPost2010Prop55
280
     0
102
RTVSPost2010PropOp55
 70
     1
102
RTVSPost2010Prop56
140
1.0
102
RTVSPost2010PropOp56
 70
     1
102
RTVSPost2010Prop57
140
1.0
102
RTVSPost2010PropOp57
 70
     1
102
RTVSPropertyOp0
 70
     1
102
RTVSPropertyOp1
 70
     1
102
RTVSPropertyOp2
 70
     1
102
RTVSPropertyOp3
 70
     1
102
RTVSPropertyOp4
 70
     1
102
RTVSPropertyOp5
 70
     1
102
RTVSPropertyOp6
 70
     1
102
RTVSPropertyOp7
 70
     1
102
RTVSPropertyOp8
 70
     1
102
RTVSPropertyOp9
 70
     1
102
RTVSPropertyOp10
 70
     1
102
RTVSPropertyOp11
 70
     1
102
RTVSPropertyOp12
 70
     1
102
RTVSPropertyOp13
 70
     1
102
RTVSPropertyOp14
 70
     1
102
RTVSPropertyOp15
 70
     1
102
RTVSPropertyOp16
 70
     1
102
RTVSPropertyOp17
 70
     1
102
RTVSPropertyOp18
 70
     1
102
RTVSPropertyOp19
 70
     1
102
RTVSPropertyOp20
 70
     1
102
RTVSPropertyOp21
 70
     1
102
RTVSPropertyOp22
 70
     1
102
RTVSPropertyOp23
 70
     1
102
RTVSPropertyOp24
 70
     1
102
RTVSPropertyOp25
 70
     1
102
RTVSPropertyOp26
 70
     1
102
RTVSPropertyOp27
 70
     1
102
RTVSPropertyOp28
 70
     1
102
RTVSPropertyOp29
 70
     1
102
RTVSPropertyOp30
 70
     1
102
RTVSPropertyOp31
 70
     1
102
RTVSPropertyOp32
 70
     1
102
RTVSPropertyOp33
 70
     1
102
RTVSPropertyOp34
 70
     1
102
RTVSPropertyOp35
 70
     1
102
RTVSPropertyOp36
 70
     1
102
RTVSPropertyOp37
 70
     1
102
RTVSPropertyOp38
 70
     1
102
RTVSPropertyOp39
 70
     1
102
RTVSPropertyOp40
 70
     1
102
RTVSPropertyOp41
 70
     1
102
RTVSPropertyOp42
 70
     1
102
RTVSPropertyOp43
 70
     1
102
RTVSPropertyOp44
 70
     1
102
RTVSPropertyOp45
 70
     1
102
RTVSPropertyOp46
 70
     1
102
RTVSPropertyOp47
 70
     1
102
RTVSPropertyOp48
 70
     1
102
RTVSPropertyOp49
 70
     1
102
RTVSPropertyOp50
 70
     1
102
RTVSPropertyOp51
 70
     0
102
RTVSPropertyOp52
 70
     0
102
RTVSPropertyOp53
 70
     1
102
RTVSPropertyOp54
 70
     1
102
RTVSPropertyOp55
 70
     1
102
RTVSPropertyOp56
 70
     1
102
RTVSPropertyOp57
 70
     1
102
RTVSPropertyOp58
 70
     1
102
RTVSPropertyOp59
 70
     1
102
RTVSPropertyOp60
 70
     1
102
RTVSPropertyOp61
 70
     1
102
RTVSPropertyOp62
 70
     1
  0
XRECORD
  5
870A
102
{ACAD_REACTORS
330
8709
102
}
330
8709
100
AcDbXrecord
280
     1
102
RTVSPost2010Prop28
280
     0
102
RTVSPost2010PropOp28
 70
     1
102
RTVSPost2010Prop29
280
     1
102
RTVSPost2010PropOp29
 70
     1
102
RTVSPost2010Prop30
280
     1
102
RTVSPost2010PropOp30
 70
     1
102
RTVSPost2010Prop31
280
     0
102
RTVSPost2010PropOp31
 70
     1
102
RTVSPost2010Prop32
280
     0
102
RTVSPost2010PropOp32
 70
     1
102
RTVSPost2010Prop33
280
     0
102
RTVSPost2010PropOp33
 70
     1
102
RTVSPost2010Prop34
280
     0
102
RTVSPost2010PropOp34
 70
     1
102
RTVSPost2010Prop35
280
     0
102
RTVSPost2010PropOp35
 70
     1
102
RTVSPost2010Prop36
280
     0
102
RTVSPost2010PropOp36
 70
     1
102
RTVSPost2010Prop37
 90
       50
102
RTVSPost2010PropOp37
 70
     1
102
RTVSPost2010Prop38
140
0.0
102
RTVSPost2010PropOp38
 70
     1
102
RTVSPost2010Prop39
140
1.0
102
RTVSPost2010PropOp39
 70
     1
102
RTVSPost2010Prop40
 90
        0
102
RTVSPost2010PropOp40
 70
     1
102
RTVSPost2010Prop41ColorIndex
 90
       18
102
RTVSPost2010Prop41ColorRGB
 90
        0
102
RTVSPost2010PropOp41
 70
     1
102
RTVSPost2010Prop42
 90
       50
102
RTVSPost2010PropOp42
 70
     1
102
RTVSPost2010Prop43
 90
        3
102
RTVSPost2010PropOp43
 70
     1
102
RTVSPost2010Prop44ColorIndex
 90
        5
102
RTVSPost2010Prop44ColorRGB
 90
      255
102
RTVSPost2010PropOp44
 70
     1
102
RTVSPost2010Prop45
280
     0
102
RTVSPost2010PropOp45
 70
     1
102
RTVSPost2010Prop46
 90
       50
102
RTVSPost2010PropOp46
 70
     1
102
RTVSPost2010Prop47
 90
       50
102
RTVSPost2010PropOp47
 70
     1
102
RTVSPost2010Prop48
 90
       50
102
RTVSPost2010PropOp48
 70
     1
102
RTVSPost2010Prop49
280
     0
102
RTVSPost2010PropOp49
 70
     1
102
RTVSPost2010Prop50
 90
       50
102
RTVSPost2010PropOp50
 70
     1
102
RTVSPost2010Prop51ColorIndex
 90
      256
102
RTVSPost2010Prop51ColorRGB
 90
-16777216
102
RTVSPost2010PropOp51
 70
     0
102
RTVSPost2010Prop52
140
1.0
102
RTVSPost2010PropOp52
 70
     0
102
RTVSPost2010Prop53
 90
        2
102
RTVSPost2010PropOp53
 70
     1
102
RTVSPost2010Prop54
  1
strokes_ogs.tif
102
RTVSPost2010PropOp54
 70
     1
102
RTVSPost2010Prop55
280
     0
102
RTVSPost2010PropOp55
 70
     1
102
RTVSPost2010Prop56
140
1.0
102
RTVSPost2010PropOp56
 70
     1
102
RTVSPost2010Prop57
140
1.0
102
RTVSPost2010PropOp57
 70
     1
102
RTVSPropertyOp0
 70
     1
102
RTVSPropertyOp1
 70
     1
102
RTVSPropertyOp2
 70
     1
102
RTVSPropertyOp3
 70
     1
102
RTVSPropertyOp4
 70
     1
102
RTVSPropertyOp5
 70
     1
102
RTVSPropertyOp6
 70
     1
102
RTVSPropertyOp7
 70
     1
102
RTVSPropertyOp8
 70
     1
102
RTVSPropertyOp9
 70
     1
102
RTVSPropertyOp10
 70
     1
102
RTVSPropertyOp11
 70
     1
102
RTVSPropertyOp12
 70
     1
102
RTVSPropertyOp13
 70
     1
102
RTVSPropertyOp14
 70
     1
102
RTVSPropertyOp15
 70
     1
102
RTVSPropertyOp16
 70
     1
102
RTVSPropertyOp17
 70
     1
102
RTVSPropertyOp18
 70
     1
102
RTVSPropertyOp19
 70
     1
102
RTVSPropertyOp20
 70
     1
102
RTVSPropertyOp21
 70
     1
102
RTVSPropertyOp22
 70
     1
102
RTVSPropertyOp23
 70
     1
102
RTVSPropertyOp24
 70
     1
102
RTVSPropertyOp25
 70
     1
102
RTVSPropertyOp26
 70
     1
102
RTVSPropertyOp27
 70
     1
102
RTVSPropertyOp28
 70
     1
102
RTVSPropertyOp29
 70
     1
102
RTVSPropertyOp30
 70
     1
102
RTVSPropertyOp31
 70
     1
102
RTVSPropertyOp32
 70
     1
102
RTVSPropertyOp33
 70
     1
102
RTVSPropertyOp34
 70
     1
102
RTVSPropertyOp35
 70
     1
102
RTVSPropertyOp36
 70
     1
102
RTVSPropertyOp37
 70
     1
102
RTVSPropertyOp38
 70
     1
102
RTVSPropertyOp39
 70
     1
102
RTVSPropertyOp40
 70
     1
102
RTVSPropertyOp41
 70
     1
102
RTVSPropertyOp42
 70
     1
102
RTVSPropertyOp43
 70
     1
102
RTVSPropertyOp44
 70
     1
102
RTVSPropertyOp45
 70
     1
102
RTVSPropertyOp46
 70
     1
102
RTVSPropertyOp47
 70
     1
102
RTVSPropertyOp48
 70
     1
102
RTVSPropertyOp49
 70
     1
102
RTVSPropertyOp50
 70
     1
102
RTVSPropertyOp51
 70
     0
102
RTVSPropertyOp52
 70
     0
102
RTVSPropertyOp53
 70
     1
102
RTVSPropertyOp54
 70
     1
102
RTVSPropertyOp55
 70
     1
102
RTVSPropertyOp56
 70
     1
102
RTVSPropertyOp57
 70
     1
102
RTVSPropertyOp58
 70
     1
102
RTVSPropertyOp59
 70
     1
102
RTVSPropertyOp60
 70
     1
102
RTVSPropertyOp61
 70
     1
102
RTVSPropertyOp62
 70
     1
  0
XRECORD
  5
870C
102
{ACAD_REACTORS
330
870B
102
}
330
870B
100
AcDbXrecord
280
     1
102
RTVSPost2010Prop28
280
     0
102
RTVSPost2010PropOp28
 70
     1
102
RTVSPost2010Prop29
280
     1
102
RTVSPost2010PropOp29
 70
     1
102
RTVSPost2010Prop30
280
     1
102
RTVSPost2010PropOp30
 70
     1
102
RTVSPost2010Prop31
280
     0
102
RTVSPost2010PropOp31
 70
     1
102
RTVSPost2010Prop32
280
     0
102
RTVSPost2010PropOp32
 70
     1
102
RTVSPost2010Prop33
280
     0
102
RTVSPost2010PropOp33
 70
     1
102
RTVSPost2010Prop34
280
     0
102
RTVSPost2010PropOp34
 70
     1
102
RTVSPost2010Prop35
280
     0
102
RTVSPost2010PropOp35
 70
     1
102
RTVSPost2010Prop36
280
     0
102
RTVSPost2010PropOp36
 70
     1
102
RTVSPost2010Prop37
 90
       50
102
RTVSPost2010PropOp37
 70
     1
102
RTVSPost2010Prop38
140
0.0
102
RTVSPost2010PropOp38
 70
     1
102
RTVSPost2010Prop39
140
1.0
102
RTVSPost2010PropOp39
 70
     1
102
RTVSPost2010Prop40
 90
        0
102
RTVSPost2010PropOp40
 70
     1
102
RTVSPost2010Prop41ColorIndex
 90
       18
102
RTVSPost2010Prop41ColorRGB
 90
        0
102
RTVSPost2010PropOp41
 70
     1
102
RTVSPost2010Prop42
 90
       50
102
RTVSPost2010PropOp42
 70
     1
102
RTVSPost2010Prop43
 90
        3
102
RTVSPost2010PropOp43
 70
     1
102
RTVSPost2010Prop44ColorIndex
 90
        5
102
RTVSPost2010Prop44ColorRGB
 90
      255
102
RTVSPost2010PropOp44
 70
     1
102
RTVSPost2010Prop45
280
     0
102
RTVSPost2010PropOp45
 70
     1
102
RTVSPost2010Prop46
 90
       50
102
RTVSPost2010PropOp46
 70
     1
102
RTVSPost2010Prop47
 90
       50
102
RTVSPost2010PropOp47
 70
     1
102
RTVSPost2010Prop48
 90
       50
102
RTVSPost2010PropOp48
 70
     1
102
RTVSPost2010Prop49
280
     0
102
RTVSPost2010PropOp49
 70
     1
102
RTVSPost2010Prop50
 90
       50
102
RTVSPost2010PropOp50
 70
     1
102
RTVSPost2010Prop51ColorIndex
 90
      256
102
RTVSPost2010Prop51ColorRGB
 90
-16777216
102
RTVSPost2010PropOp51
 70
     0
102
RTVSPost2010Prop52
140
1.0
102
RTVSPost2010PropOp52
 70
     0
102
RTVSPost2010Prop53
 90
        2
102
RTVSPost2010PropOp53
 70
     1
102
RTVSPost2010Prop54
  1
strokes_ogs.tif
102
RTVSPost2010PropOp54
 70
     1
102
RTVSPost2010Prop55
280
     0
102
RTVSPost2010PropOp55
 70
     1
102
RTVSPost2010Prop56
140
1.0
102
RTVSPost2010PropOp56
 70
     1
102
RTVSPost2010Prop57
140
1.0
102
RTVSPost2010PropOp57
 70
     1
102
RTVSPropertyOp0
 70
     1
102
RTVSPropertyOp1
 70
     1
102
RTVSPropertyOp2
 70
     1
102
RTVSPropertyOp3
 70
     1
102
RTVSPropertyOp4
 70
     1
102
RTVSPropertyOp5
 70
     1
102
RTVSPropertyOp6
 70
     1
102
RTVSPropertyOp7
 70
     1
102
RTVSPropertyOp8
 70
     1
102
RTVSPropertyOp9
 70
     1
102
RTVSPropertyOp10
 70
     1
102
RTVSPropertyOp11
 70
     1
102
RTVSPropertyOp12
 70
     1
102
RTVSPropertyOp13
 70
     1
102
RTVSPropertyOp14
 70
     1
102
RTVSPropertyOp15
 70
     1
102
RTVSPropertyOp16
 70
     1
102
RTVSPropertyOp17
 70
     1
102
RTVSPropertyOp18
 70
     1
102
RTVSPropertyOp19
 70
     1
102
RTVSPropertyOp20
 70
     1
102
RTVSPropertyOp21
 70
     1
102
RTVSPropertyOp22
 70
     1
102
RTVSPropertyOp23
 70
     1
102
RTVSPropertyOp24
 70
     1
102
RTVSPropertyOp25
 70
     1
102
RTVSPropertyOp26
 70
     1
102
RTVSPropertyOp27
 70
     1
102
RTVSPropertyOp28
 70
     1
102
RTVSPropertyOp29
 70
     1
102
RTVSPropertyOp30
 70
     1
102
RTVSPropertyOp31
 70
     1
102
RTVSPropertyOp32
 70
     1
102
RTVSPropertyOp33
 70
     1
102
RTVSPropertyOp34
 70
     1
102
RTVSPropertyOp35
 70
     1
102
RTVSPropertyOp36
 70
     1
102
RTVSPropertyOp37
 70
     1
102
RTVSPropertyOp38
 70
     1
102
RTVSPropertyOp39
 70
     1
102
RTVSPropertyOp40
 70
     1
102
RTVSPropertyOp41
 70
     1
102
RTVSPropertyOp42
 70
     1
102
RTVSPropertyOp43
 70
     1
102
RTVSPropertyOp44
 70
     1
102
RTVSPropertyOp45
 70
     1
102
RTVSPropertyOp46
 70
     1
102
RTVSPropertyOp47
 70
     1
102
RTVSPropertyOp48
 70
     1
102
RTVSPropertyOp49
 70
     1
102
RTVSPropertyOp50
 70
     1
102
RTVSPropertyOp51
 70
     0
102
RTVSPropertyOp52
 70
     0
102
RTVSPropertyOp53
 70
     1
102
RTVSPropertyOp54
 70
     1
102
RTVSPropertyOp55
 70
     1
102
RTVSPropertyOp56
 70
     1
102
RTVSPropertyOp57
 70
     1
102
RTVSPropertyOp58
 70
     1
102
RTVSPropertyOp59
 70
     1
102
RTVSPropertyOp60
 70
     1
102
RTVSPropertyOp61
 70
     1
102
RTVSPropertyOp62
 70
     1
  0
XRECORD
  5
8714
102
{ACAD_REACTORS
330
8713
102
}
330
8713
100
AcDbXrecord
280
     1
102
RTVSPost2010Prop28
280
     0
102
RTVSPost2010PropOp28
 70
     1
102
RTVSPost2010Prop29
280
     1
102
RTVSPost2010PropOp29
 70
     1
102
RTVSPost2010Prop30
280
     1
102
RTVSPost2010PropOp30
 70
     1
102
RTVSPost2010Prop31
280
     0
102
RTVSPost2010PropOp31
 70
     1
102
RTVSPost2010Prop32
280
     0
102
RTVSPost2010PropOp32
 70
     1
102
RTVSPost2010Prop33
280
     0
102
RTVSPost2010PropOp33
 70
     1
102
RTVSPost2010Prop34
280
     0
102
RTVSPost2010PropOp34
 70
     1
102
RTVSPost2010Prop35
280
     0
102
RTVSPost2010PropOp35
 70
     1
102
RTVSPost2010Prop36
280
     0
102
RTVSPost2010PropOp36
 70
     1
102
RTVSPost2010Prop37
 90
       50
102
RTVSPost2010PropOp37
 70
     1
102
RTVSPost2010Prop38
140
0.0
102
RTVSPost2010PropOp38
 70
     1
102
RTVSPost2010Prop39
140
1.0
102
RTVSPost2010PropOp39
 70
     1
102
RTVSPost2010Prop40
 90
        0
102
RTVSPost2010PropOp40
 70
     1
102
RTVSPost2010Prop41ColorIndex
 90
       18
102
RTVSPost2010Prop41ColorRGB
 90
        0
102
RTVSPost2010PropOp41
 70
     1
102
RTVSPost2010Prop42
 90
       50
102
RTVSPost2010PropOp42
 70
     1
102
RTVSPost2010Prop43
 90
        3
102
RTVSPost2010PropOp43
 70
     1
102
RTVSPost2010Prop44ColorIndex
 90
        5
102
RTVSPost2010Prop44ColorRGB
 90
      255
102
RTVSPost2010PropOp44
 70
     1
102
RTVSPost2010Prop45
280
     0
102
RTVSPost2010PropOp45
 70
     1
102
RTVSPost2010Prop46
 90
       50
102
RTVSPost2010PropOp46
 70
     1
102
RTVSPost2010Prop47
 90
       50
102
RTVSPost2010PropOp47
 70
     1
102
RTVSPost2010Prop48
 90
       50
102
RTVSPost2010PropOp48
 70
     1
102
RTVSPost2010Prop49
280
     0
102
RTVSPost2010PropOp49
 70
     1
102
RTVSPost2010Prop50
 90
       50
102
RTVSPost2010PropOp50
 70
     1
102
RTVSPost2010Prop51ColorIndex
 90
      256
102
RTVSPost2010Prop51ColorRGB
 90
-16777216
102
RTVSPost2010PropOp51
 70
     0
102
RTVSPost2010Prop52
140
1.0
102
RTVSPost2010PropOp52
 70
     0
102
RTVSPost2010Prop53
 90
        2
102
RTVSPost2010PropOp53
 70
     1
102
RTVSPost2010Prop54
  1
strokes_ogs.tif
102
RTVSPost2010PropOp54
 70
     1
102
RTVSPost2010Prop55
280
     0
102
RTVSPost2010PropOp55
 70
     1
102
RTVSPost2010Prop56
140
1.0
102
RTVSPost2010PropOp56
 70
     1
102
RTVSPost2010Prop57
140
1.0
102
RTVSPost2010PropOp57
 70
     1
102
RTVSPropertyOp0
 70
     1
102
RTVSPropertyOp1
 70
     1
102
RTVSPropertyOp2
 70
     1
102
RTVSPropertyOp3
 70
     1
102
RTVSPropertyOp4
 70
     1
102
RTVSPropertyOp5
 70
     1
102
RTVSPropertyOp6
 70
     1
102
RTVSPropertyOp7
 70
     1
102
RTVSPropertyOp8
 70
     1
102
RTVSPropertyOp9
 70
     1
102
RTVSPropertyOp10
 70
     1
102
RTVSPropertyOp11
 70
     1
102
RTVSPropertyOp12
 70
     1
102
RTVSPropertyOp13
 70
     1
102
RTVSPropertyOp14
 70
     1
102
RTVSPropertyOp15
 70
     1
102
RTVSPropertyOp16
 70
     1
102
RTVSPropertyOp17
 70
     1
102
RTVSPropertyOp18
 70
     1
102
RTVSPropertyOp19
 70
     1
102
RTVSPropertyOp20
 70
     1
102
RTVSPropertyOp21
 70
     1
102
RTVSPropertyOp22
 70
     1
102
RTVSPropertyOp23
 70
     1
102
RTVSPropertyOp24
 70
     1
102
RTVSPropertyOp25
 70
     1
102
RTVSPropertyOp26
 70
     1
102
RTVSPropertyOp27
 70
     1
102
RTVSPropertyOp28
 70
     1
102
RTVSPropertyOp29
 70
     1
102
RTVSPropertyOp30
 70
     1
102
RTVSPropertyOp31
 70
     1
102
RTVSPropertyOp32
 70
     1
102
RTVSPropertyOp33
 70
     1
102
RTVSPropertyOp34
 70
     1
102
RTVSPropertyOp35
 70
     1
102
RTVSPropertyOp36
 70
     1
102
RTVSPropertyOp37
 70
     1
102
RTVSPropertyOp38
 70
     1
102
RTVSPropertyOp39
 70
     1
102
RTVSPropertyOp40
 70
     1
102
RTVSPropertyOp41
 70
     1
102
RTVSPropertyOp42
 70
     1
102
RTVSPropertyOp43
 70
     1
102
RTVSPropertyOp44
 70
     1
102
RTVSPropertyOp45
 70
     1
102
RTVSPropertyOp46
 70
     1
102
RTVSPropertyOp47
 70
     1
102
RTVSPropertyOp48
 70
     1
102
RTVSPropertyOp49
 70
     1
102
RTVSPropertyOp50
 70
     1
102
RTVSPropertyOp51
 70
     0
102
RTVSPropertyOp52
 70
     0
102
RTVSPropertyOp53
 70
     1
102
RTVSPropertyOp54
 70
     1
102
RTVSPropertyOp55
 70
     1
102
RTVSPropertyOp56
 70
     1
102
RTVSPropertyOp57
 70
     1
102
RTVSPropertyOp58
 70
     1
102
RTVSPropertyOp59
 70
     1
102
RTVSPropertyOp60
 70
     1
102
RTVSPropertyOp61
 70
     1
102
RTVSPropertyOp62
 70
     1
  0
XRECORD
  5
8730
102
{ACAD_REACTORS
330
872F
102
}
330
872F
100
AcDbXrecord
280
     1
102
RTVSPost2010Prop28
280
     0
102
RTVSPost2010PropOp28
 70
     1
102
RTVSPost2010Prop29
280
     1
102
RTVSPost2010PropOp29
 70
     1
102
RTVSPost2010Prop30
280
     1
102
RTVSPost2010PropOp30
 70
     1
102
RTVSPost2010Prop31
280
     0
102
RTVSPost2010PropOp31
 70
     1
102
RTVSPost2010Prop32
280
     0
102
RTVSPost2010PropOp32
 70
     1
102
RTVSPost2010Prop33
280
     0
102
RTVSPost2010PropOp33
 70
     1
102
RTVSPost2010Prop34
280
     0
102
RTVSPost2010PropOp34
 70
     1
102
RTVSPost2010Prop35
280
     0
102
RTVSPost2010PropOp35
 70
     1
102
RTVSPost2010Prop36
280
     0
102
RTVSPost2010PropOp36
 70
     1
102
RTVSPost2010Prop37
 90
       50
102
RTVSPost2010PropOp37
 70
     0
102
RTVSPost2010Prop38
140
0.0
102
RTVSPost2010PropOp38
 70
     0
102
RTVSPost2010Prop39
140
1.0
102
RTVSPost2010PropOp39
 70
     0
102
RTVSPost2010Prop40
 90
        0
102
RTVSPost2010PropOp40
 70
     0
102
RTVSPost2010Prop41ColorIndex
 90
       18
102
RTVSPost2010Prop41ColorRGB
 90
        0
102
RTVSPost2010PropOp41
 70
     0
102
RTVSPost2010Prop42
 90
       50
102
RTVSPost2010PropOp42
 70
     0
102
RTVSPost2010Prop43
 90
        3
102
RTVSPost2010PropOp43
 70
     0
102
RTVSPost2010Prop44ColorIndex
 90
        5
102
RTVSPost2010Prop44ColorRGB
 90
      255
102
RTVSPost2010PropOp44
 70
     0
102
RTVSPost2010Prop45
280
     0
102
RTVSPost2010PropOp45
 70
     1
102
RTVSPost2010Prop46
 90
       50
102
RTVSPost2010PropOp46
 70
     0
102
RTVSPost2010Prop47
 90
       50
102
RTVSPost2010PropOp47
 70
     0
102
RTVSPost2010Prop48
 90
       50
102
RTVSPost2010PropOp48
 70
     0
102
RTVSPost2010Prop49
280
     0
102
RTVSPost2010PropOp49
 70
     1
102
RTVSPost2010Prop50
 90
       50
102
RTVSPost2010PropOp50
 70
     0
102
RTVSPost2010Prop51ColorIndex
 90
      256
102
RTVSPost2010Prop51ColorRGB
 90
-16777216
102
RTVSPost2010PropOp51
 70
     0
102
RTVSPost2010Prop52
140
1.0
102
RTVSPost2010PropOp52
 70
     0
102
RTVSPost2010Prop53
 90
        2
102
RTVSPost2010PropOp53
 70
     0
102
RTVSPost2010Prop54
  1
strokes_ogs.tif
102
RTVSPost2010PropOp54
 70
     0
102
RTVSPost2010Prop55
280
     0
102
RTVSPost2010PropOp55
 70
     1
102
RTVSPost2010Prop56
140
1.0
102
RTVSPost2010PropOp56
 70
     0
102
RTVSPost2010Prop57
140
1.0
102
RTVSPost2010PropOp57
 70
     0
102
RTVSPropertyOp0
 70
     0
102
RTVSPropertyOp1
 70
     0
102
RTVSPropertyOp2
 70
     0
102
RTVSPropertyOp3
 70
     0
102
RTVSPropertyOp4
 70
     0
102
RTVSPropertyOp5
 70
     0
102
RTVSPropertyOp6
 70
     0
102
RTVSPropertyOp7
 70
     0
102
RTVSPropertyOp8
 70
     0
102
RTVSPropertyOp9
 70
     0
102
RTVSPropertyOp10
 70
     0
102
RTVSPropertyOp11
 70
     0
102
RTVSPropertyOp12
 70
     0
102
RTVSPropertyOp13
 70
     0
102
RTVSPropertyOp14
 70
     2
102
RTVSPropertyOp15
 70
     0
102
RTVSPropertyOp16
 70
     0
102
RTVSPropertyOp17
 70
     0
102
RTVSPropertyOp18
 70
     0
102
RTVSPropertyOp19
 70
     0
102
RTVSPropertyOp20
 70
     0
102
RTVSPropertyOp21
 70
     0
102
RTVSPropertyOp22
 70
     0
102
RTVSPropertyOp23
 70
     0
102
RTVSPropertyOp24
 70
     0
102
RTVSPropertyOp25
 70
     0
102
RTVSPropertyOp26
 70
     0
102
RTVSPropertyOp27
 70
     0
102
RTVSPropertyOp28
 70
     1
102
RTVSPropertyOp29
 70
     1
102
RTVSPropertyOp30
 70
     1
102
RTVSPropertyOp31
 70
     1
102
RTVSPropertyOp32
 70
     1
102
RTVSPropertyOp33
 70
     1
102
RTVSPropertyOp34
 70
     1
102
RTVSPropertyOp35
 70
     1
102
RTVSPropertyOp36
 70
     1
102
RTVSPropertyOp37
 70
     0
102
RTVSPropertyOp38
 70
     0
102
RTVSPropertyOp39
 70
     0
102
RTVSPropertyOp40
 70
     0
102
RTVSPropertyOp41
 70
     0
102
RTVSPropertyOp42
 70
     0
102
RTVSPropertyOp43
 70
     0
102
RTVSPropertyOp44
 70
     0
102
RTVSPropertyOp45
 70
     1
102
RTVSPropertyOp46
 70
     0
102
RTVSPropertyOp47
 70
     0
102
RTVSPropertyOp48
 70
     0
102
RTVSPropertyOp49
 70
     1
102
RTVSPropertyOp50
 70
     0
102
RTVSPropertyOp51
 70
     0
102
RTVSPropertyOp52
 70
     0
102
RTVSPropertyOp53
 70
     0
102
RTVSPropertyOp54
 70
     0
102
RTVSPropertyOp55
 70
     1
102
RTVSPropertyOp56
 70
     0
102
RTVSPropertyOp57
 70
     0
102
RTVSPropertyOp58
 70
     0
102
RTVSPropertyOp59
 70
     0
102
RTVSPropertyOp60
 70
     0
102
RTVSPropertyOp61
 70
     0
102
RTVSPropertyOp62
 70
     0
  0
XRECORD
  5
8720
102
{ACAD_REACTORS
330
871F
102
}
330
871F
100
AcDbXrecord
280
     1
102
RTVSPost2010Prop28
280
     0
102
RTVSPost2010PropOp28
 70
     1
102
RTVSPost2010Prop29
280
     1
102
RTVSPost2010PropOp29
 70
     1
102
RTVSPost2010Prop30
280
     1
102
RTVSPost2010PropOp30
 70
     1
102
RTVSPost2010Prop31
280
     0
102
RTVSPost2010PropOp31
 70
     1
102
RTVSPost2010Prop32
280
     0
102
RTVSPost2010PropOp32
 70
     1
102
RTVSPost2010Prop33
280
     0
102
RTVSPost2010PropOp33
 70
     1
102
RTVSPost2010Prop34
280
     0
102
RTVSPost2010PropOp34
 70
     1
102
RTVSPost2010Prop35
280
     0
102
RTVSPost2010PropOp35
 70
     1
102
RTVSPost2010Prop36
280
     0
102
RTVSPost2010PropOp36
 70
     1
102
RTVSPost2010Prop37
 90
       50
102
RTVSPost2010PropOp37
 70
     1
102
RTVSPost2010Prop38
140
0.0
102
RTVSPost2010PropOp38
 70
     1
102
RTVSPost2010Prop39
140
1.0
102
RTVSPost2010PropOp39
 70
     1
102
RTVSPost2010Prop40
 90
        0
102
RTVSPost2010PropOp40
 70
     1
102
RTVSPost2010Prop41ColorIndex
 90
       18
102
RTVSPost2010Prop41ColorRGB
 90
        0
102
RTVSPost2010PropOp41
 70
     1
102
RTVSPost2010Prop42
 90
       50
102
RTVSPost2010PropOp42
 70
     1
102
RTVSPost2010Prop43
 90
        3
102
RTVSPost2010PropOp43
 70
     1
102
RTVSPost2010Prop44ColorIndex
 90
        5
102
RTVSPost2010Prop44ColorRGB
 90
      255
102
RTVSPost2010PropOp44
 70
     1
102
RTVSPost2010Prop45
280
     0
102
RTVSPost2010PropOp45
 70
     1
102
RTVSPost2010Prop46
 90
       50
102
RTVSPost2010PropOp46
 70
     1
102
RTVSPost2010Prop47
 90
       50
102
RTVSPost2010PropOp47
 70
     1
102
RTVSPost2010Prop48
 90
       50
102
RTVSPost2010PropOp48
 70
     1
102
RTVSPost2010Prop49
280
     0
102
RTVSPost2010PropOp49
 70
     1
102
RTVSPost2010Prop50
 90
       50
102
RTVSPost2010PropOp50
 70
     1
102
RTVSPost2010Prop51ColorIndex
 90
      256
102
RTVSPost2010Prop51ColorRGB
 90
-16777216
102
RTVSPost2010PropOp51
 70
     0
102
RTVSPost2010Prop52
140
1.0
102
RTVSPost2010PropOp52
 70
     0
102
RTVSPost2010Prop53
 90
        2
102
RTVSPost2010PropOp53
 70
     1
102
RTVSPost2010Prop54
  1
strokes_ogs.tif
102
RTVSPost2010PropOp54
 70
     1
102
RTVSPost2010Prop55
280
     0
102
RTVSPost2010PropOp55
 70
     1
102
RTVSPost2010Prop56
140
1.0
102
RTVSPost2010PropOp56
 70
     1
102
RTVSPost2010Prop57
140
1.0
102
RTVSPost2010PropOp57
 70
     1
102
RTVSPropertyOp0
 70
     1
102
RTVSPropertyOp1
 70
     1
102
RTVSPropertyOp2
 70
     1
102
RTVSPropertyOp3
 70
     1
102
RTVSPropertyOp4
 70
     1
102
RTVSPropertyOp5
 70
     1
102
RTVSPropertyOp6
 70
     1
102
RTVSPropertyOp7
 70
     1
102
RTVSPropertyOp8
 70
     1
102
RTVSPropertyOp9
 70
     1
102
RTVSPropertyOp10
 70
     1
102
RTVSPropertyOp11
 70
     1
102
RTVSPropertyOp12
 70
     1
102
RTVSPropertyOp13
 70
     1
102
RTVSPropertyOp14
 70
     1
102
RTVSPropertyOp15
 70
     1
102
RTVSPropertyOp16
 70
     1
102
RTVSPropertyOp17
 70
     1
102
RTVSPropertyOp18
 70
     1
102
RTVSPropertyOp19
 70
     1
102
RTVSPropertyOp20
 70
     1
102
RTVSPropertyOp21
 70
     1
102
RTVSPropertyOp22
 70
     1
102
RTVSPropertyOp23
 70
     1
102
RTVSPropertyOp24
 70
     1
102
RTVSPropertyOp25
 70
     1
102
RTVSPropertyOp26
 70
     1
102
RTVSPropertyOp27
 70
     1
102
RTVSPropertyOp28
 70
     1
102
RTVSPropertyOp29
 70
     1
102
RTVSPropertyOp30
 70
     1
102
RTVSPropertyOp31
 70
     1
102
RTVSPropertyOp32
 70
     1
102
RTVSPropertyOp33
 70
     1
102
RTVSPropertyOp34
 70
     1
102
RTVSPropertyOp35
 70
     1
102
RTVSPropertyOp36
 70
     1
102
RTVSPropertyOp37
 70
     1
102
RTVSPropertyOp38
 70
     1
102
RTVSPropertyOp39
 70
     1
102
RTVSPropertyOp40
 70
     1
102
RTVSPropertyOp41
 70
     1
102
RTVSPropertyOp42
 70
     1
102
RTVSPropertyOp43
 70
     1
102
RTVSPropertyOp44
 70
     1
102
RTVSPropertyOp45
 70
     1
102
RTVSPropertyOp46
 70
     1
102
RTVSPropertyOp47
 70
     1
102
RTVSPropertyOp48
 70
     1
102
RTVSPropertyOp49
 70
     1
102
RTVSPropertyOp50
 70
     1
102
RTVSPropertyOp51
 70
     0
102
RTVSPropertyOp52
 70
     0
102
RTVSPropertyOp53
 70
     1
102
RTVSPropertyOp54
 70
     1
102
RTVSPropertyOp55
 70
     1
102
RTVSPropertyOp56
 70
     1
102
RTVSPropertyOp57
 70
     1
102
RTVSPropertyOp58
 70
     1
102
RTVSPropertyOp59
 70
     1
102
RTVSPropertyOp60
 70
     1
102
RTVSPropertyOp61
 70
     1
102
RTVSPropertyOp62
 70
     1
  0
XRECORD
  5
8732
102
{ACAD_REACTORS
330
8731
102
}
330
8731
100
AcDbXrecord
280
     1
102
RTVSPost2010Prop28
280
     0
102
RTVSPost2010PropOp28
 70
     1
102
RTVSPost2010Prop29
280
     1
102
RTVSPost2010PropOp29
 70
     1
102
RTVSPost2010Prop30
280
     1
102
RTVSPost2010PropOp30
 70
     1
102
RTVSPost2010Prop31
280
     0
102
RTVSPost2010PropOp31
 70
     1
102
RTVSPost2010Prop32
280
     0
102
RTVSPost2010PropOp32
 70
     1
102
RTVSPost2010Prop33
280
     0
102
RTVSPost2010PropOp33
 70
     1
102
RTVSPost2010Prop34
280
     0
102
RTVSPost2010PropOp34
 70
     1
102
RTVSPost2010Prop35
280
     0
102
RTVSPost2010PropOp35
 70
     1
102
RTVSPost2010Prop36
280
     0
102
RTVSPost2010PropOp36
 70
     1
102
RTVSPost2010Prop37
 90
       50
102
RTVSPost2010PropOp37
 70
     0
102
RTVSPost2010Prop38
140
0.0
102
RTVSPost2010PropOp38
 70
     0
102
RTVSPost2010Prop39
140
1.0
102
RTVSPost2010PropOp39
 70
     0
102
RTVSPost2010Prop40
 90
        0
102
RTVSPost2010PropOp40
 70
     0
102
RTVSPost2010Prop41ColorIndex
 90
       18
102
RTVSPost2010Prop41ColorRGB
 90
        0
102
RTVSPost2010PropOp41
 70
     0
102
RTVSPost2010Prop42
 90
       50
102
RTVSPost2010PropOp42
 70
     0
102
RTVSPost2010Prop43
 90
        3
102
RTVSPost2010PropOp43
 70
     0
102
RTVSPost2010Prop44ColorIndex
 90
        5
102
RTVSPost2010Prop44ColorRGB
 90
      255
102
RTVSPost2010PropOp44
 70
     0
102
RTVSPost2010Prop45
280
     0
102
RTVSPost2010PropOp45
 70
     1
102
RTVSPost2010Prop46
 90
       50
102
RTVSPost2010PropOp46
 70
     0
102
RTVSPost2010Prop47
 90
       50
102
RTVSPost2010PropOp47
 70
     0
102
RTVSPost2010Prop48
 90
       50
102
RTVSPost2010PropOp48
 70
     0
102
RTVSPost2010Prop49
280
     0
102
RTVSPost2010PropOp49
 70
     1
102
RTVSPost2010Prop50
 90
       50
102
RTVSPost2010PropOp50
 70
     0
102
RTVSPost2010Prop51ColorIndex
 90
      256
102
RTVSPost2010Prop51ColorRGB
 90
-16777216
102
RTVSPost2010PropOp51
 70
     0
102
RTVSPost2010Prop52
140
1.0
102
RTVSPost2010PropOp52
 70
     0
102
RTVSPost2010Prop53
 90
        2
102
RTVSPost2010PropOp53
 70
     0
102
RTVSPost2010Prop54
  1
strokes_ogs.tif
102
RTVSPost2010PropOp54
 70
     0
102
RTVSPost2010Prop55
280
     0
102
RTVSPost2010PropOp55
 70
     1
102
RTVSPost2010Prop56
140
1.0
102
RTVSPost2010PropOp56
 70
     0
102
RTVSPost2010Prop57
140
1.0
102
RTVSPost2010PropOp57
 70
     0
102
RTVSPropertyOp0
 70
     0
102
RTVSPropertyOp1
 70
     0
102
RTVSPropertyOp2
 70
     0
102
RTVSPropertyOp3
 70
     0
102
RTVSPropertyOp4
 70
     0
102
RTVSPropertyOp5
 70
     0
102
RTVSPropertyOp6
 70
     0
102
RTVSPropertyOp7
 70
     0
102
RTVSPropertyOp8
 70
     0
102
RTVSPropertyOp9
 70
     0
102
RTVSPropertyOp10
 70
     0
102
RTVSPropertyOp11
 70
     0
102
RTVSPropertyOp12
 70
     0
102
RTVSPropertyOp13
 70
     0
102
RTVSPropertyOp14
 70
     2
102
RTVSPropertyOp15
 70
     0
102
RTVSPropertyOp16
 70
     0
102
RTVSPropertyOp17
 70
     0
102
RTVSPropertyOp18
 70
     0
102
RTVSPropertyOp19
 70
     0
102
RTVSPropertyOp20
 70
     0
102
RTVSPropertyOp21
 70
     0
102
RTVSPropertyOp22
 70
     0
102
RTVSPropertyOp23
 70
     0
102
RTVSPropertyOp24
 70
     0
102
RTVSPropertyOp25
 70
     0
102
RTVSPropertyOp26
 70
     0
102
RTVSPropertyOp27
 70
     0
102
RTVSPropertyOp28
 70
     1
102
RTVSPropertyOp29
 70
     1
102
RTVSPropertyOp30
 70
     1
102
RTVSPropertyOp31
 70
     1
102
RTVSPropertyOp32
 70
     1
102
RTVSPropertyOp33
 70
     1
102
RTVSPropertyOp34
 70
     1
102
RTVSPropertyOp35
 70
     1
102
RTVSPropertyOp36
 70
     1
102
RTVSPropertyOp37
 70
     0
102
RTVSPropertyOp38
 70
     0
102
RTVSPropertyOp39
 70
     0
102
RTVSPropertyOp40
 70
     0
102
RTVSPropertyOp41
 70
     0
102
RTVSPropertyOp42
 70
     0
102
RTVSPropertyOp43
 70
     0
102
RTVSPropertyOp44
 70
     0
102
RTVSPropertyOp45
 70
     1
102
RTVSPropertyOp46
 70
     0
102
RTVSPropertyOp47
 70
     0
102
RTVSPropertyOp48
 70
     0
102
RTVSPropertyOp49
 70
     1
102
RTVSPropertyOp50
 70
     0
102
RTVSPropertyOp51
 70
     0
102
RTVSPropertyOp52
 70
     0
102
RTVSPropertyOp53
 70
     0
102
RTVSPropertyOp54
 70
     0
102
RTVSPropertyOp55
 70
     1
102
RTVSPropertyOp56
 70
     0
102
RTVSPropertyOp57
 70
     0
102
RTVSPropertyOp58
 70
     0
102
RTVSPropertyOp59
 70
     0
102
RTVSPropertyOp60
 70
     0
102
RTVSPropertyOp61
 70
     0
102
RTVSPropertyOp62
 70
     0
  0
XRECORD
  5
8718
102
{ACAD_REACTORS
330
8717
102
}
330
8717
100
AcDbXrecord
280
     1
102
RTVSPost2010Prop28
280
     0
102
RTVSPost2010PropOp28
 70
     1
102
RTVSPost2010Prop29
280
     1
102
RTVSPost2010PropOp29
 70
     1
102
RTVSPost2010Prop30
280
     1
102
RTVSPost2010PropOp30
 70
     1
102
RTVSPost2010Prop31
280
     0
102
RTVSPost2010PropOp31
 70
     1
102
RTVSPost2010Prop32
280
     0
102
RTVSPost2010PropOp32
 70
     1
102
RTVSPost2010Prop33
280
     0
102
RTVSPost2010PropOp33
 70
     1
102
RTVSPost2010Prop34
280
     0
102
RTVSPost2010PropOp34
 70
     1
102
RTVSPost2010Prop35
280
     0
102
RTVSPost2010PropOp35
 70
     1
102
RTVSPost2010Prop36
280
     0
102
RTVSPost2010PropOp36
 70
     1
102
RTVSPost2010Prop37
 90
       50
102
RTVSPost2010PropOp37
 70
     1
102
RTVSPost2010Prop38
140
0.0
102
RTVSPost2010PropOp38
 70
     1
102
RTVSPost2010Prop39
140
1.0
102
RTVSPost2010PropOp39
 70
     1
102
RTVSPost2010Prop40
 90
        0
102
RTVSPost2010PropOp40
 70
     1
102
RTVSPost2010Prop41ColorIndex
 90
       18
102
RTVSPost2010Prop41ColorRGB
 90
        0
102
RTVSPost2010PropOp41
 70
     1
102
RTVSPost2010Prop42
 90
       50
102
RTVSPost2010PropOp42
 70
     1
102
RTVSPost2010Prop43
 90
        3
102
RTVSPost2010PropOp43
 70
     1
102
RTVSPost2010Prop44ColorIndex
 90
        5
102
RTVSPost2010Prop44ColorRGB
 90
      255
102
RTVSPost2010PropOp44
 70
     1
102
RTVSPost2010Prop45
280
     0
102
RTVSPost2010PropOp45
 70
     1
102
RTVSPost2010Prop46
 90
       50
102
RTVSPost2010PropOp46
 70
     1
102
RTVSPost2010Prop47
 90
       50
102
RTVSPost2010PropOp47
 70
     1
102
RTVSPost2010Prop48
 90
       50
102
RTVSPost2010PropOp48
 70
     1
102
RTVSPost2010Prop49
280
     0
102
RTVSPost2010PropOp49
 70
     1
102
RTVSPost2010Prop50
 90
       50
102
RTVSPost2010PropOp50
 70
     1
102
RTVSPost2010Prop51ColorIndex
 90
      256
102
RTVSPost2010Prop51ColorRGB
 90
-16777216
102
RTVSPost2010PropOp51
 70
     0
102
RTVSPost2010Prop52
140
1.0
102
RTVSPost2010PropOp52
 70
     0
102
RTVSPost2010Prop53
 90
        2
102
RTVSPost2010PropOp53
 70
     1
102
RTVSPost2010Prop54
  1
strokes_ogs.tif
102
RTVSPost2010PropOp54
 70
     1
102
RTVSPost2010Prop55
280
     0
102
RTVSPost2010PropOp55
 70
     1
102
RTVSPost2010Prop56
140
1.0
102
RTVSPost2010PropOp56
 70
     1
102
RTVSPost2010Prop57
140
1.0
102
RTVSPost2010PropOp57
 70
     1
102
RTVSPropertyOp0
 70
     1
102
RTVSPropertyOp1
 70
     1
102
RTVSPropertyOp2
 70
     1
102
RTVSPropertyOp3
 70
     1
102
RTVSPropertyOp4
 70
     1
102
RTVSPropertyOp5
 70
     1
102
RTVSPropertyOp6
 70
     1
102
RTVSPropertyOp7
 70
     1
102
RTVSPropertyOp8
 70
     1
102
RTVSPropertyOp9
 70
     1
102
RTVSPropertyOp10
 70
     1
102
RTVSPropertyOp11
 70
     1
102
RTVSPropertyOp12
 70
     1
102
RTVSPropertyOp13
 70
     1
102
RTVSPropertyOp14
 70
     1
102
RTVSPropertyOp15
 70
     1
102
RTVSPropertyOp16
 70
     1
102
RTVSPropertyOp17
 70
     1
102
RTVSPropertyOp18
 70
     1
102
RTVSPropertyOp19
 70
     1
102
RTVSPropertyOp20
 70
     1
102
RTVSPropertyOp21
 70
     1
102
RTVSPropertyOp22
 70
     1
102
RTVSPropertyOp23
 70
     1
102
RTVSPropertyOp24
 70
     1
102
RTVSPropertyOp25
 70
     1
102
RTVSPropertyOp26
 70
     1
102
RTVSPropertyOp27
 70
     1
102
RTVSPropertyOp28
 70
     1
102
RTVSPropertyOp29
 70
     1
102
RTVSPropertyOp30
 70
     1
102
RTVSPropertyOp31
 70
     1
102
RTVSPropertyOp32
 70
     1
102
RTVSPropertyOp33
 70
     1
102
RTVSPropertyOp34
 70
     1
102
RTVSPropertyOp35
 70
     1
102
RTVSPropertyOp36
 70
     1
102
RTVSPropertyOp37
 70
     1
102
RTVSPropertyOp38
 70
     1
102
RTVSPropertyOp39
 70
     1
102
RTVSPropertyOp40
 70
     1
102
RTVSPropertyOp41
 70
     1
102
RTVSPropertyOp42
 70
     1
102
RTVSPropertyOp43
 70
     1
102
RTVSPropertyOp44
 70
     1
102
RTVSPropertyOp45
 70
     1
102
RTVSPropertyOp46
 70
     1
102
RTVSPropertyOp47
 70
     1
102
RTVSPropertyOp48
 70
     1
102
RTVSPropertyOp49
 70
     1
102
RTVSPropertyOp50
 70
     1
102
RTVSPropertyOp51
 70
     0
102
RTVSPropertyOp52
 70
     0
102
RTVSPropertyOp53
 70
     1
102
RTVSPropertyOp54
 70
     1
102
RTVSPropertyOp55
 70
     1
102
RTVSPropertyOp56
 70
     1
102
RTVSPropertyOp57
 70
     1
102
RTVSPropertyOp58
 70
     1
102
RTVSPropertyOp59
 70
     1
102
RTVSPropertyOp60
 70
     1
102
RTVSPropertyOp61
 70
     1
102
RTVSPropertyOp62
 70
     1
  0
XRECORD
  5
872E
102
{ACAD_REACTORS
330
872D
102
}
330
872D
100
AcDbXrecord
280
     1
102
RTVSPost2010Prop28
280
     0
102
RTVSPost2010PropOp28
 70
     1
102
RTVSPost2010Prop29
280
     1
102
RTVSPost2010PropOp29
 70
     1
102
RTVSPost2010Prop30
280
     1
102
RTVSPost2010PropOp30
 70
     1
102
RTVSPost2010Prop31
280
     0
102
RTVSPost2010PropOp31
 70
     1
102
RTVSPost2010Prop32
280
     0
102
RTVSPost2010PropOp32
 70
     1
102
RTVSPost2010Prop33
280
     0
102
RTVSPost2010PropOp33
 70
     1
102
RTVSPost2010Prop34
280
     0
102
RTVSPost2010PropOp34
 70
     1
102
RTVSPost2010Prop35
280
     0
102
RTVSPost2010PropOp35
 70
     1
102
RTVSPost2010Prop36
280
     0
102
RTVSPost2010PropOp36
 70
     1
102
RTVSPost2010Prop37
 90
       50
102
RTVSPost2010PropOp37
 70
     1
102
RTVSPost2010Prop38
140
0.0
102
RTVSPost2010PropOp38
 70
     1
102
RTVSPost2010Prop39
140
1.0
102
RTVSPost2010PropOp39
 70
     1
102
RTVSPost2010Prop40
 90
        0
102
RTVSPost2010PropOp40
 70
     1
102
RTVSPost2010Prop41ColorIndex
 90
       18
102
RTVSPost2010Prop41ColorRGB
 90
        0
102
RTVSPost2010PropOp41
 70
     1
102
RTVSPost2010Prop42
 90
       50
102
RTVSPost2010PropOp42
 70
     1
102
RTVSPost2010Prop43
 90
        3
102
RTVSPost2010PropOp43
 70
     1
102
RTVSPost2010Prop44ColorIndex
 90
        5
102
RTVSPost2010Prop44ColorRGB
 90
      255
102
RTVSPost2010PropOp44
 70
     1
102
RTVSPost2010Prop45
280
     0
102
RTVSPost2010PropOp45
 70
     1
102
RTVSPost2010Prop46
 90
       50
102
RTVSPost2010PropOp46
 70
     1
102
RTVSPost2010Prop47
 90
       50
102
RTVSPost2010PropOp47
 70
     1
102
RTVSPost2010Prop48
 90
       50
102
RTVSPost2010PropOp48
 70
     1
102
RTVSPost2010Prop49
280
     0
102
RTVSPost2010PropOp49
 70
     1
102
RTVSPost2010Prop50
 90
       50
102
RTVSPost2010PropOp50
 70
     1
102
RTVSPost2010Prop51ColorIndex
 90
      256
102
RTVSPost2010Prop51ColorRGB
 90
-16777216
102
RTVSPost2010PropOp51
 70
     0
102
RTVSPost2010Prop52
140
1.0
102
RTVSPost2010PropOp52
 70
     0
102
RTVSPost2010Prop53
 90
        2
102
RTVSPost2010PropOp53
 70
     1
102
RTVSPost2010Prop54
  1
strokes_ogs.tif
102
RTVSPost2010PropOp54
 70
     1
102
RTVSPost2010Prop55
280
     0
102
RTVSPost2010PropOp55
 70
     1
102
RTVSPost2010Prop56
140
1.0
102
RTVSPost2010PropOp56
 70
     1
102
RTVSPost2010Prop57
140
1.0
102
RTVSPost2010PropOp57
 70
     1
102
RTVSPropertyOp0
 70
     1
102
RTVSPropertyOp1
 70
     1
102
RTVSPropertyOp2
 70
     1
102
RTVSPropertyOp3
 70
     1
102
RTVSPropertyOp4
 70
     1
102
RTVSPropertyOp5
 70
     1
102
RTVSPropertyOp6
 70
     1
102
RTVSPropertyOp7
 70
     1
102
RTVSPropertyOp8
 70
     1
102
RTVSPropertyOp9
 70
     1
102
RTVSPropertyOp10
 70
     1
102
RTVSPropertyOp11
 70
     1
102
RTVSPropertyOp12
 70
     1
102
RTVSPropertyOp13
 70
     1
102
RTVSPropertyOp14
 70
     1
102
RTVSPropertyOp15
 70
     1
102
RTVSPropertyOp16
 70
     1
102
RTVSPropertyOp17
 70
     1
102
RTVSPropertyOp18
 70
     1
102
RTVSPropertyOp19
 70
     1
102
RTVSPropertyOp20
 70
     1
102
RTVSPropertyOp21
 70
     1
102
RTVSPropertyOp22
 70
     1
102
RTVSPropertyOp23
 70
     1
102
RTVSPropertyOp24
 70
     1
102
RTVSPropertyOp25
 70
     1
102
RTVSPropertyOp26
 70
     1
102
RTVSPropertyOp27
 70
     1
102
RTVSPropertyOp28
 70
     1
102
RTVSPropertyOp29
 70
     1
102
RTVSPropertyOp30
 70
     1
102
RTVSPropertyOp31
 70
     1
102
RTVSPropertyOp32
 70
     1
102
RTVSPropertyOp33
 70
     1
102
RTVSPropertyOp34
 70
     1
102
RTVSPropertyOp35
 70
     1
102
RTVSPropertyOp36
 70
     1
102
RTVSPropertyOp37
 70
     1
102
RTVSPropertyOp38
 70
     1
102
RTVSPropertyOp39
 70
     1
102
RTVSPropertyOp40
 70
     1
102
RTVSPropertyOp41
 70
     1
102
RTVSPropertyOp42
 70
     1
102
RTVSPropertyOp43
 70
     1
102
RTVSPropertyOp44
 70
     1
102
RTVSPropertyOp45
 70
     1
102
RTVSPropertyOp46
 70
     1
102
RTVSPropertyOp47
 70
     1
102
RTVSPropertyOp48
 70
     1
102
RTVSPropertyOp49
 70
     1
102
RTVSPropertyOp50
 70
     1
102
RTVSPropertyOp51
 70
     0
102
RTVSPropertyOp52
 70
     0
102
RTVSPropertyOp53
 70
     1
102
RTVSPropertyOp54
 70
     1
102
RTVSPropertyOp55
 70
     1
102
RTVSPropertyOp56
 70
     1
102
RTVSPropertyOp57
 70
     1
102
RTVSPropertyOp58
 70
     1
102
RTVSPropertyOp59
 70
     1
102
RTVSPropertyOp60
 70
     1
102
RTVSPropertyOp61
 70
     1
102
RTVSPropertyOp62
 70
     1
  0
XRECORD
  5
872C
102
{ACAD_REACTORS
330
872B
102
}
330
872B
100
AcDbXrecord
280
     1
102
RTVSPost2010Prop28
280
     0
102
RTVSPost2010PropOp28
 70
     1
102
RTVSPost2010Prop29
280
     1
102
RTVSPost2010PropOp29
 70
     1
102
RTVSPost2010Prop30
280
     1
102
RTVSPost2010PropOp30
 70
     1
102
RTVSPost2010Prop31
280
     0
102
RTVSPost2010PropOp31
 70
     1
102
RTVSPost2010Prop32
280
     0
102
RTVSPost2010PropOp32
 70
     1
102
RTVSPost2010Prop33
280
     0
102
RTVSPost2010PropOp33
 70
     1
102
RTVSPost2010Prop34
280
     0
102
RTVSPost2010PropOp34
 70
     1
102
RTVSPost2010Prop35
280
     0
102
RTVSPost2010PropOp35
 70
     1
102
RTVSPost2010Prop36
280
     0
102
RTVSPost2010PropOp36
 70
     1
102
RTVSPost2010Prop37
 90
       50
102
RTVSPost2010PropOp37
 70
     1
102
RTVSPost2010Prop38
140
0.0
102
RTVSPost2010PropOp38
 70
     1
102
RTVSPost2010Prop39
140
1.0
102
RTVSPost2010PropOp39
 70
     1
102
RTVSPost2010Prop40
 90
        0
102
RTVSPost2010PropOp40
 70
     1
102
RTVSPost2010Prop41ColorIndex
 90
       18
102
RTVSPost2010Prop41ColorRGB
 90
        0
102
RTVSPost2010PropOp41
 70
     1
102
RTVSPost2010Prop42
 90
       50
102
RTVSPost2010PropOp42
 70
     1
102
RTVSPost2010Prop43
 90
        3
102
RTVSPost2010PropOp43
 70
     1
102
RTVSPost2010Prop44ColorIndex
 90
        5
102
RTVSPost2010Prop44ColorRGB
 90
      255
102
RTVSPost2010PropOp44
 70
     1
102
RTVSPost2010Prop45
280
     0
102
RTVSPost2010PropOp45
 70
     1
102
RTVSPost2010Prop46
 90
       50
102
RTVSPost2010PropOp46
 70
     1
102
RTVSPost2010Prop47
 90
       50
102
RTVSPost2010PropOp47
 70
     1
102
RTVSPost2010Prop48
 90
       50
102
RTVSPost2010PropOp48
 70
     1
102
RTVSPost2010Prop49
280
     0
102
RTVSPost2010PropOp49
 70
     1
102
RTVSPost2010Prop50
 90
       50
102
RTVSPost2010PropOp50
 70
     1
102
RTVSPost2010Prop51ColorIndex
 90
      256
102
RTVSPost2010Prop51ColorRGB
 90
-16777216
102
RTVSPost2010PropOp51
 70
     0
102
RTVSPost2010Prop52
140
1.0
102
RTVSPost2010PropOp52
 70
     0
102
RTVSPost2010Prop53
 90
        2
102
RTVSPost2010PropOp53
 70
     1
102
RTVSPost2010Prop54
  1
strokes_ogs.tif
102
RTVSPost2010PropOp54
 70
     1
102
RTVSPost2010Prop55
280
     0
102
RTVSPost2010PropOp55
 70
     1
102
RTVSPost2010Prop56
140
1.0
102
RTVSPost2010PropOp56
 70
     1
102
RTVSPost2010Prop57
140
1.0
102
RTVSPost2010PropOp57
 70
     1
102
RTVSPropertyOp0
 70
     1
102
RTVSPropertyOp1
 70
     1
102
RTVSPropertyOp2
 70
     1
102
RTVSPropertyOp3
 70
     1
102
RTVSPropertyOp4
 70
     1
102
RTVSPropertyOp5
 70
     1
102
RTVSPropertyOp6
 70
     1
102
RTVSPropertyOp7
 70
     1
102
RTVSPropertyOp8
 70
     1
102
RTVSPropertyOp9
 70
     1
102
RTVSPropertyOp10
 70
     1
102
RTVSPropertyOp11
 70
     1
102
RTVSPropertyOp12
 70
     1
102
RTVSPropertyOp13
 70
     1
102
RTVSPropertyOp14
 70
     1
102
RTVSPropertyOp15
 70
     1
102
RTVSPropertyOp16
 70
     1
102
RTVSPropertyOp17
 70
     1
102
RTVSPropertyOp18
 70
     1
102
RTVSPropertyOp19
 70
     1
102
RTVSPropertyOp20
 70
     1
102
RTVSPropertyOp21
 70
     1
102
RTVSPropertyOp22
 70
     1
102
RTVSPropertyOp23
 70
     1
102
RTVSPropertyOp24
 70
     1
102
RTVSPropertyOp25
 70
     1
102
RTVSPropertyOp26
 70
     1
102
RTVSPropertyOp27
 70
     1
102
RTVSPropertyOp28
 70
     1
102
RTVSPropertyOp29
 70
     1
102
RTVSPropertyOp30
 70
     1
102
RTVSPropertyOp31
 70
     1
102
RTVSPropertyOp32
 70
     1
102
RTVSPropertyOp33
 70
     1
102
RTVSPropertyOp34
 70
     1
102
RTVSPropertyOp35
 70
     1
102
RTVSPropertyOp36
 70
     1
102
RTVSPropertyOp37
 70
     1
102
RTVSPropertyOp38
 70
     1
102
RTVSPropertyOp39
 70
     1
102
RTVSPropertyOp40
 70
     1
102
RTVSPropertyOp41
 70
     1
102
RTVSPropertyOp42
 70
     1
102
RTVSPropertyOp43
 70
     1
102
RTVSPropertyOp44
 70
     1
102
RTVSPropertyOp45
 70
     1
102
RTVSPropertyOp46
 70
     1
102
RTVSPropertyOp47
 70
     1
102
RTVSPropertyOp48
 70
     1
102
RTVSPropertyOp49
 70
     1
102
RTVSPropertyOp50
 70
     1
102
RTVSPropertyOp51
 70
     0
102
RTVSPropertyOp52
 70
     0
102
RTVSPropertyOp53
 70
     1
102
RTVSPropertyOp54
 70
     1
102
RTVSPropertyOp55
 70
     1
102
RTVSPropertyOp56
 70
     1
102
RTVSPropertyOp57
 70
     1
102
RTVSPropertyOp58
 70
     1
102
RTVSPropertyOp59
 70
     1
102
RTVSPropertyOp60
 70
     1
102
RTVSPropertyOp61
 70
     1
102
RTVSPropertyOp62
 70
     1
  0
XRECORD
  5
8726
102
{ACAD_REACTORS
330
8725
102
}
330
8725
100
AcDbXrecord
280
     1
102
RTVSPost2010Prop28
280
     0
102
RTVSPost2010PropOp28
 70
     1
102
RTVSPost2010Prop29
280
     1
102
RTVSPost2010PropOp29
 70
     1
102
RTVSPost2010Prop30
280
     1
102
RTVSPost2010PropOp30
 70
     1
102
RTVSPost2010Prop31
280
     0
102
RTVSPost2010PropOp31
 70
     1
102
RTVSPost2010Prop32
280
     0
102
RTVSPost2010PropOp32
 70
     1
102
RTVSPost2010Prop33
280
     0
102
RTVSPost2010PropOp33
 70
     1
102
RTVSPost2010Prop34
280
     0
102
RTVSPost2010PropOp34
 70
     1
102
RTVSPost2010Prop35
280
     0
102
RTVSPost2010PropOp35
 70
     1
102
RTVSPost2010Prop36
280
     0
102
RTVSPost2010PropOp36
 70
     1
102
RTVSPost2010Prop37
 90
       50
102
RTVSPost2010PropOp37
 70
     1
102
RTVSPost2010Prop38
140
0.0
102
RTVSPost2010PropOp38
 70
     1
102
RTVSPost2010Prop39
140
1.0
102
RTVSPost2010PropOp39
 70
     1
102
RTVSPost2010Prop40
 90
        0
102
RTVSPost2010PropOp40
 70
     1
102
RTVSPost2010Prop41ColorIndex
 90
       18
102
RTVSPost2010Prop41ColorRGB
 90
        0
102
RTVSPost2010PropOp41
 70
     1
102
RTVSPost2010Prop42
 90
       50
102
RTVSPost2010PropOp42
 70
     1
102
RTVSPost2010Prop43
 90
        3
102
RTVSPost2010PropOp43
 70
     1
102
RTVSPost2010Prop44ColorIndex
 90
        5
102
RTVSPost2010Prop44ColorRGB
 90
      255
102
RTVSPost2010PropOp44
 70
     1
102
RTVSPost2010Prop45
280
     0
102
RTVSPost2010PropOp45
 70
     1
102
RTVSPost2010Prop46
 90
       50
102
RTVSPost2010PropOp46
 70
     1
102
RTVSPost2010Prop47
 90
       50
102
RTVSPost2010PropOp47
 70
     1
102
RTVSPost2010Prop48
 90
       50
102
RTVSPost2010PropOp48
 70
     1
102
RTVSPost2010Prop49
280
     0
102
RTVSPost2010PropOp49
 70
     1
102
RTVSPost2010Prop50
 90
       50
102
RTVSPost2010PropOp50
 70
     1
102
RTVSPost2010Prop51ColorIndex
 90
      256
102
RTVSPost2010Prop51ColorRGB
 90
-16777216
102
RTVSPost2010PropOp51
 70
     0
102
RTVSPost2010Prop52
140
1.0
102
RTVSPost2010PropOp52
 70
     0
102
RTVSPost2010Prop53
 90
        2
102
RTVSPost2010PropOp53
 70
     1
102
RTVSPost2010Prop54
  1
strokes_ogs.tif
102
RTVSPost2010PropOp54
 70
     1
102
RTVSPost2010Prop55
280
     0
102
RTVSPost2010PropOp55
 70
     1
102
RTVSPost2010Prop56
140
1.0
102
RTVSPost2010PropOp56
 70
     1
102
RTVSPost2010Prop57
140
1.0
102
RTVSPost2010PropOp57
 70
     1
102
RTVSPropertyOp0
 70
     1
102
RTVSPropertyOp1
 70
     1
102
RTVSPropertyOp2
 70
     1
102
RTVSPropertyOp3
 70
     1
102
RTVSPropertyOp4
 70
     1
102
RTVSPropertyOp5
 70
     1
102
RTVSPropertyOp6
 70
     1
102
RTVSPropertyOp7
 70
     1
102
RTVSPropertyOp8
 70
     1
102
RTVSPropertyOp9
 70
     1
102
RTVSPropertyOp10
 70
     1
102
RTVSPropertyOp11
 70
     1
102
RTVSPropertyOp12
 70
     1
102
RTVSPropertyOp13
 70
     1
102
RTVSPropertyOp14
 70
     1
102
RTVSPropertyOp15
 70
     1
102
RTVSPropertyOp16
 70
     1
102
RTVSPropertyOp17
 70
     1
102
RTVSPropertyOp18
 70
     1
102
RTVSPropertyOp19
 70
     1
102
RTVSPropertyOp20
 70
     1
102
RTVSPropertyOp21
 70
     1
102
RTVSPropertyOp22
 70
     1
102
RTVSPropertyOp23
 70
     1
102
RTVSPropertyOp24
 70
     1
102
RTVSPropertyOp25
 70
     1
102
RTVSPropertyOp26
 70
     1
102
RTVSPropertyOp27
 70
     1
102
RTVSPropertyOp28
 70
     1
102
RTVSPropertyOp29
 70
     1
102
RTVSPropertyOp30
 70
     1
102
RTVSPropertyOp31
 70
     1
102
RTVSPropertyOp32
 70
     1
102
RTVSPropertyOp33
 70
     1
102
RTVSPropertyOp34
 70
     1
102
RTVSPropertyOp35
 70
     1
102
RTVSPropertyOp36
 70
     1
102
RTVSPropertyOp37
 70
     1
102
RTVSPropertyOp38
 70
     1
102
RTVSPropertyOp39
 70
     1
102
RTVSPropertyOp40
 70
     1
102
RTVSPropertyOp41
 70
     1
102
RTVSPropertyOp42
 70
     1
102
RTVSPropertyOp43
 70
     1
102
RTVSPropertyOp44
 70
     1
102
RTVSPropertyOp45
 70
     1
102
RTVSPropertyOp46
 70
     1
102
RTVSPropertyOp47
 70
     1
102
RTVSPropertyOp48
 70
     1
102
RTVSPropertyOp49
 70
     1
102
RTVSPropertyOp50
 70
     1
102
RTVSPropertyOp51
 70
     0
102
RTVSPropertyOp52
 70
     0
102
RTVSPropertyOp53
 70
     1
102
RTVSPropertyOp54
 70
     1
102
RTVSPropertyOp55
 70
     1
102
RTVSPropertyOp56
 70
     1
102
RTVSPropertyOp57
 70
     1
102
RTVSPropertyOp58
 70
     1
102
RTVSPropertyOp59
 70
     1
102
RTVSPropertyOp60
 70
     1
102
RTVSPropertyOp61
 70
     1
102
RTVSPropertyOp62
 70
     1
  0
XRECORD
  5
8728
102
{ACAD_REACTORS
330
8727
102
}
330
8727
100
AcDbXrecord
280
     1
102
RTVSPost2010Prop28
280
     0
102
RTVSPost2010PropOp28
 70
     1
102
RTVSPost2010Prop29
280
     1
102
RTVSPost2010PropOp29
 70
     1
102
RTVSPost2010Prop30
280
     1
102
RTVSPost2010PropOp30
 70
     1
102
RTVSPost2010Prop31
280
     0
102
RTVSPost2010PropOp31
 70
     1
102
RTVSPost2010Prop32
280
     0
102
RTVSPost2010PropOp32
 70
     1
102
RTVSPost2010Prop33
280
     0
102
RTVSPost2010PropOp33
 70
     1
102
RTVSPost2010Prop34
280
     0
102
RTVSPost2010PropOp34
 70
     1
102
RTVSPost2010Prop35
280
     0
102
RTVSPost2010PropOp35
 70
     1
102
RTVSPost2010Prop36
280
     0
102
RTVSPost2010PropOp36
 70
     1
102
RTVSPost2010Prop37
 90
       50
102
RTVSPost2010PropOp37
 70
     1
102
RTVSPost2010Prop38
140
0.0
102
RTVSPost2010PropOp38
 70
     1
102
RTVSPost2010Prop39
140
1.0
102
RTVSPost2010PropOp39
 70
     1
102
RTVSPost2010Prop40
 90
        0
102
RTVSPost2010PropOp40
 70
     1
102
RTVSPost2010Prop41ColorIndex
 90
       18
102
RTVSPost2010Prop41ColorRGB
 90
        0
102
RTVSPost2010PropOp41
 70
     1
102
RTVSPost2010Prop42
 90
       50
102
RTVSPost2010PropOp42
 70
     1
102
RTVSPost2010Prop43
 90
        3
102
RTVSPost2010PropOp43
 70
     1
102
RTVSPost2010Prop44ColorIndex
 90
        5
102
RTVSPost2010Prop44ColorRGB
 90
      255
102
RTVSPost2010PropOp44
 70
     1
102
RTVSPost2010Prop45
280
     0
102
RTVSPost2010PropOp45
 70
     1
102
RTVSPost2010Prop46
 90
       50
102
RTVSPost2010PropOp46
 70
     1
102
RTVSPost2010Prop47
 90
       50
102
RTVSPost2010PropOp47
 70
     1
102
RTVSPost2010Prop48
 90
       50
102
RTVSPost2010PropOp48
 70
     1
102
RTVSPost2010Prop49
280
     0
102
RTVSPost2010PropOp49
 70
     1
102
RTVSPost2010Prop50
 90
       50
102
RTVSPost2010PropOp50
 70
     1
102
RTVSPost2010Prop51ColorIndex
 90
      256
102
RTVSPost2010Prop51ColorRGB
 90
-16777216
102
RTVSPost2010PropOp51
 70
     0
102
RTVSPost2010Prop52
140
1.0
102
RTVSPost2010PropOp52
 70
     0
102
RTVSPost2010Prop53
 90
        2
102
RTVSPost2010PropOp53
 70
     1
102
RTVSPost2010Prop54
  1
strokes_ogs.tif
102
RTVSPost2010PropOp54
 70
     1
102
RTVSPost2010Prop55
280
     0
102
RTVSPost2010PropOp55
 70
     1
102
RTVSPost2010Prop56
140
1.0
102
RTVSPost2010PropOp56
 70
     1
102
RTVSPost2010Prop57
140
1.0
102
RTVSPost2010PropOp57
 70
     1
102
RTVSPropertyOp0
 70
     1
102
RTVSPropertyOp1
 70
     1
102
RTVSPropertyOp2
 70
     1
102
RTVSPropertyOp3
 70
     1
102
RTVSPropertyOp4
 70
     1
102
RTVSPropertyOp5
 70
     1
102
RTVSPropertyOp6
 70
     1
102
RTVSPropertyOp7
 70
     1
102
RTVSPropertyOp8
 70
     1
102
RTVSPropertyOp9
 70
     1
102
RTVSPropertyOp10
 70
     1
102
RTVSPropertyOp11
 70
     1
102
RTVSPropertyOp12
 70
     1
102
RTVSPropertyOp13
 70
     1
102
RTVSPropertyOp14
 70
     1
102
RTVSPropertyOp15
 70
     1
102
RTVSPropertyOp16
 70
     1
102
RTVSPropertyOp17
 70
     1
102
RTVSPropertyOp18
 70
     1
102
RTVSPropertyOp19
 70
     1
102
RTVSPropertyOp20
 70
     1
102
RTVSPropertyOp21
 70
     1
102
RTVSPropertyOp22
 70
     1
102
RTVSPropertyOp23
 70
     1
102
RTVSPropertyOp24
 70
     1
102
RTVSPropertyOp25
 70
     1
102
RTVSPropertyOp26
 70
     1
102
RTVSPropertyOp27
 70
     1
102
RTVSPropertyOp28
 70
     1
102
RTVSPropertyOp29
 70
     1
102
RTVSPropertyOp30
 70
     1
102
RTVSPropertyOp31
 70
     1
102
RTVSPropertyOp32
 70
     1
102
RTVSPropertyOp33
 70
     1
102
RTVSPropertyOp34
 70
     1
102
RTVSPropertyOp35
 70
     1
102
RTVSPropertyOp36
 70
     1
102
RTVSPropertyOp37
 70
     1
102
RTVSPropertyOp38
 70
     1
102
RTVSPropertyOp39
 70
     1
102
RTVSPropertyOp40
 70
     1
102
RTVSPropertyOp41
 70
     1
102
RTVSPropertyOp42
 70
     1
102
RTVSPropertyOp43
 70
     1
102
RTVSPropertyOp44
 70
     1
102
RTVSPropertyOp45
 70
     1
102
RTVSPropertyOp46
 70
     1
102
RTVSPropertyOp47
 70
     1
102
RTVSPropertyOp48
 70
     1
102
RTVSPropertyOp49
 70
     1
102
RTVSPropertyOp50
 70
     1
102
RTVSPropertyOp51
 70
     0
102
RTVSPropertyOp52
 70
     0
102
RTVSPropertyOp53
 70
     1
102
RTVSPropertyOp54
 70
     1
102
RTVSPropertyOp55
 70
     1
102
RTVSPropertyOp56
 70
     1
102
RTVSPropertyOp57
 70
     1
102
RTVSPropertyOp58
 70
     1
102
RTVSPropertyOp59
 70
     1
102
RTVSPropertyOp60
 70
     1
102
RTVSPropertyOp61
 70
     1
102
RTVSPropertyOp62
 70
     1
  0
XRECORD
  5
871E
102
{ACAD_REACTORS
330
871D
102
}
330
871D
100
AcDbXrecord
280
     1
102
RTVSPost2010Prop28
280
     0
102
RTVSPost2010PropOp28
 70
     1
102
RTVSPost2010Prop29
280
     1
102
RTVSPost2010PropOp29
 70
     1
102
RTVSPost2010Prop30
280
     1
102
RTVSPost2010PropOp30
 70
     1
102
RTVSPost2010Prop31
280
     0
102
RTVSPost2010PropOp31
 70
     1
102
RTVSPost2010Prop32
280
     0
102
RTVSPost2010PropOp32
 70
     1
102
RTVSPost2010Prop33
280
     0
102
RTVSPost2010PropOp33
 70
     1
102
RTVSPost2010Prop34
280
     0
102
RTVSPost2010PropOp34
 70
     1
102
RTVSPost2010Prop35
280
     0
102
RTVSPost2010PropOp35
 70
     1
102
RTVSPost2010Prop36
280
     0
102
RTVSPost2010PropOp36
 70
     1
102
RTVSPost2010Prop37
 90
       50
102
RTVSPost2010PropOp37
 70
     1
102
RTVSPost2010Prop38
140
0.0
102
RTVSPost2010PropOp38
 70
     1
102
RTVSPost2010Prop39
140
1.0
102
RTVSPost2010PropOp39
 70
     1
102
RTVSPost2010Prop40
 90
        0
102
RTVSPost2010PropOp40
 70
     1
102
RTVSPost2010Prop41ColorIndex
 90
       18
102
RTVSPost2010Prop41ColorRGB
 90
        0
102
RTVSPost2010PropOp41
 70
     1
102
RTVSPost2010Prop42
 90
       50
102
RTVSPost2010PropOp42
 70
     1
102
RTVSPost2010Prop43
 90
        3
102
RTVSPost2010PropOp43
 70
     1
102
RTVSPost2010Prop44ColorIndex
 90
        5
102
RTVSPost2010Prop44ColorRGB
 90
      255
102
RTVSPost2010PropOp44
 70
     1
102
RTVSPost2010Prop45
280
     0
102
RTVSPost2010PropOp45
 70
     1
102
RTVSPost2010Prop46
 90
       50
102
RTVSPost2010PropOp46
 70
     1
102
RTVSPost2010Prop47
 90
       50
102
RTVSPost2010PropOp47
 70
     1
102
RTVSPost2010Prop48
 90
       50
102
RTVSPost2010PropOp48
 70
     1
102
RTVSPost2010Prop49
280
     0
102
RTVSPost2010PropOp49
 70
     1
102
RTVSPost2010Prop50
 90
       50
102
RTVSPost2010PropOp50
 70
     1
102
RTVSPost2010Prop51ColorIndex
 90
      256
102
RTVSPost2010Prop51ColorRGB
 90
-16777216
102
RTVSPost2010PropOp51
 70
     0
102
RTVSPost2010Prop52
140
1.0
102
RTVSPost2010PropOp52
 70
     0
102
RTVSPost2010Prop53
 90
        2
102
RTVSPost2010PropOp53
 70
     1
102
RTVSPost2010Prop54
  1
strokes_ogs.tif
102
RTVSPost2010PropOp54
 70
     1
102
RTVSPost2010Prop55
280
     0
102
RTVSPost2010PropOp55
 70
     1
102
RTVSPost2010Prop56
140
1.0
102
RTVSPost2010PropOp56
 70
     1
102
RTVSPost2010Prop57
140
1.0
102
RTVSPost2010PropOp57
 70
     1
102
RTVSPropertyOp0
 70
     1
102
RTVSPropertyOp1
 70
     1
102
RTVSPropertyOp2
 70
     1
102
RTVSPropertyOp3
 70
     1
102
RTVSPropertyOp4
 70
     1
102
RTVSPropertyOp5
 70
     1
102
RTVSPropertyOp6
 70
     1
102
RTVSPropertyOp7
 70
     1
102
RTVSPropertyOp8
 70
     1
102
RTVSPropertyOp9
 70
     1
102
RTVSPropertyOp10
 70
     1
102
RTVSPropertyOp11
 70
     1
102
RTVSPropertyOp12
 70
     1
102
RTVSPropertyOp13
 70
     1
102
RTVSPropertyOp14
 70
     1
102
RTVSPropertyOp15
 70
     1
102
RTVSPropertyOp16
 70
     1
102
RTVSPropertyOp17
 70
     1
102
RTVSPropertyOp18
 70
     1
102
RTVSPropertyOp19
 70
     1
102
RTVSPropertyOp20
 70
     1
102
RTVSPropertyOp21
 70
     1
102
RTVSPropertyOp22
 70
     1
102
RTVSPropertyOp23
 70
     1
102
RTVSPropertyOp24
 70
     1
102
RTVSPropertyOp25
 70
     1
102
RTVSPropertyOp26
 70
     1
102
RTVSPropertyOp27
 70
     1
102
RTVSPropertyOp28
 70
     1
102
RTVSPropertyOp29
 70
     1
102
RTVSPropertyOp30
 70
     1
102
RTVSPropertyOp31
 70
     1
102
RTVSPropertyOp32
 70
     1
102
RTVSPropertyOp33
 70
     1
102
RTVSPropertyOp34
 70
     1
102
RTVSPropertyOp35
 70
     1
102
RTVSPropertyOp36
 70
     1
102
RTVSPropertyOp37
 70
     1
102
RTVSPropertyOp38
 70
     1
102
RTVSPropertyOp39
 70
     1
102
RTVSPropertyOp40
 70
     1
102
RTVSPropertyOp41
 70
     1
102
RTVSPropertyOp42
 70
     1
102
RTVSPropertyOp43
 70
     1
102
RTVSPropertyOp44
 70
     1
102
RTVSPropertyOp45
 70
     1
102
RTVSPropertyOp46
 70
     1
102
RTVSPropertyOp47
 70
     1
102
RTVSPropertyOp48
 70
     1
102
RTVSPropertyOp49
 70
     1
102
RTVSPropertyOp50
 70
     1
102
RTVSPropertyOp51
 70
     0
102
RTVSPropertyOp52
 70
     0
102
RTVSPropertyOp53
 70
     1
102
RTVSPropertyOp54
 70
     1
102
RTVSPropertyOp55
 70
     1
102
RTVSPropertyOp56
 70
     1
102
RTVSPropertyOp57
 70
     1
102
RTVSPropertyOp58
 70
     1
102
RTVSPropertyOp59
 70
     1
102
RTVSPropertyOp60
 70
     1
102
RTVSPropertyOp61
 70
     1
102
RTVSPropertyOp62
 70
     1
  0
XRECORD
  5
8712
102
{ACAD_REACTORS
330
8711
102
}
330
8711
100
AcDbXrecord
280
     1
102
RTVSPost2010Prop28
280
     0
102
RTVSPost2010PropOp28
 70
     1
102
RTVSPost2010Prop29
280
     1
102
RTVSPost2010PropOp29
 70
     1
102
RTVSPost2010Prop30
280
     1
102
RTVSPost2010PropOp30
 70
     1
102
RTVSPost2010Prop31
280
     0
102
RTVSPost2010PropOp31
 70
     1
102
RTVSPost2010Prop32
280
     0
102
RTVSPost2010PropOp32
 70
     1
102
RTVSPost2010Prop33
280
     0
102
RTVSPost2010PropOp33
 70
     1
102
RTVSPost2010Prop34
280
     0
102
RTVSPost2010PropOp34
 70
     1
102
RTVSPost2010Prop35
280
     0
102
RTVSPost2010PropOp35
 70
     1
102
RTVSPost2010Prop36
280
     0
102
RTVSPost2010PropOp36
 70
     1
102
RTVSPost2010Prop37
 90
       50
102
RTVSPost2010PropOp37
 70
     1
102
RTVSPost2010Prop38
140
0.0
102
RTVSPost2010PropOp38
 70
     1
102
RTVSPost2010Prop39
140
1.0
102
RTVSPost2010PropOp39
 70
     1
102
RTVSPost2010Prop40
 90
        0
102
RTVSPost2010PropOp40
 70
     1
102
RTVSPost2010Prop41ColorIndex
 90
       18
102
RTVSPost2010Prop41ColorRGB
 90
        0
102
RTVSPost2010PropOp41
 70
     1
102
RTVSPost2010Prop42
 90
       50
102
RTVSPost2010PropOp42
 70
     1
102
RTVSPost2010Prop43
 90
        3
102
RTVSPost2010PropOp43
 70
     1
102
RTVSPost2010Prop44ColorIndex
 90
        5
102
RTVSPost2010Prop44ColorRGB
 90
      255
102
RTVSPost2010PropOp44
 70
     1
102
RTVSPost2010Prop45
280
     0
102
RTVSPost2010PropOp45
 70
     1
102
RTVSPost2010Prop46
 90
       50
102
RTVSPost2010PropOp46
 70
     1
102
RTVSPost2010Prop47
 90
       50
102
RTVSPost2010PropOp47
 70
     1
102
RTVSPost2010Prop48
 90
       50
102
RTVSPost2010PropOp48
 70
     1
102
RTVSPost2010Prop49
280
     0
102
RTVSPost2010PropOp49
 70
     1
102
RTVSPost2010Prop50
 90
       50
102
RTVSPost2010PropOp50
 70
     1
102
RTVSPost2010Prop51ColorIndex
 90
      256
102
RTVSPost2010Prop51ColorRGB
 90
-16777216
102
RTVSPost2010PropOp51
 70
     0
102
RTVSPost2010Prop52
140
1.0
102
RTVSPost2010PropOp52
 70
     0
102
RTVSPost2010Prop53
 90
        2
102
RTVSPost2010PropOp53
 70
     1
102
RTVSPost2010Prop54
  1
strokes_ogs.tif
102
RTVSPost2010PropOp54
 70
     1
102
RTVSPost2010Prop55
280
     0
102
RTVSPost2010PropOp55
 70
     1
102
RTVSPost2010Prop56
140
1.0
102
RTVSPost2010PropOp56
 70
     1
102
RTVSPost2010Prop57
140
1.0
102
RTVSPost2010PropOp57
 70
     1
102
RTVSPropertyOp0
 70
     1
102
RTVSPropertyOp1
 70
     1
102
RTVSPropertyOp2
 70
     1
102
RTVSPropertyOp3
 70
     1
102
RTVSPropertyOp4
 70
     1
102
RTVSPropertyOp5
 70
     1
102
RTVSPropertyOp6
 70
     1
102
RTVSPropertyOp7
 70
     1
102
RTVSPropertyOp8
 70
     1
102
RTVSPropertyOp9
 70
     1
102
RTVSPropertyOp10
 70
     1
102
RTVSPropertyOp11
 70
     1
102
RTVSPropertyOp12
 70
     1
102
RTVSPropertyOp13
 70
     1
102
RTVSPropertyOp14
 70
     1
102
RTVSPropertyOp15
 70
     1
102
RTVSPropertyOp16
 70
     1
102
RTVSPropertyOp17
 70
     1
102
RTVSPropertyOp18
 70
     1
102
RTVSPropertyOp19
 70
     1
102
RTVSPropertyOp20
 70
     1
102
RTVSPropertyOp21
 70
     1
102
RTVSPropertyOp22
 70
     1
102
RTVSPropertyOp23
 70
     1
102
RTVSPropertyOp24
 70
     1
102
RTVSPropertyOp25
 70
     1
102
RTVSPropertyOp26
 70
     1
102
RTVSPropertyOp27
 70
     1
102
RTVSPropertyOp28
 70
     1
102
RTVSPropertyOp29
 70
     1
102
RTVSPropertyOp30
 70
     1
102
RTVSPropertyOp31
 70
     1
102
RTVSPropertyOp32
 70
     1
102
RTVSPropertyOp33
 70
     1
102
RTVSPropertyOp34
 70
     1
102
RTVSPropertyOp35
 70
     1
102
RTVSPropertyOp36
 70
     1
102
RTVSPropertyOp37
 70
     1
102
RTVSPropertyOp38
 70
     1
102
RTVSPropertyOp39
 70
     1
102
RTVSPropertyOp40
 70
     1
102
RTVSPropertyOp41
 70
     1
102
RTVSPropertyOp42
 70
     1
102
RTVSPropertyOp43
 70
     1
102
RTVSPropertyOp44
 70
     1
102
RTVSPropertyOp45
 70
     1
102
RTVSPropertyOp46
 70
     1
102
RTVSPropertyOp47
 70
     1
102
RTVSPropertyOp48
 70
     1
102
RTVSPropertyOp49
 70
     1
102
RTVSPropertyOp50
 70
     1
102
RTVSPropertyOp51
 70
     0
102
RTVSPropertyOp52
 70
     0
102
RTVSPropertyOp53
 70
     1
102
RTVSPropertyOp54
 70
     1
102
RTVSPropertyOp55
 70
     1
102
RTVSPropertyOp56
 70
     1
102
RTVSPropertyOp57
 70
     1
102
RTVSPropertyOp58
 70
     1
102
RTVSPropertyOp59
 70
     1
102
RTVSPropertyOp60
 70
     1
102
RTVSPropertyOp61
 70
     1
102
RTVSPropertyOp62
 70
     1
  0
XRECORD
  5
872A
102
{ACAD_REACTORS
330
8729
102
}
330
8729
100
AcDbXrecord
280
     1
102
RTVSPost2010Prop28
280
     0
102
RTVSPost2010PropOp28
 70
     1
102
RTVSPost2010Prop29
280
     1
102
RTVSPost2010PropOp29
 70
     1
102
RTVSPost2010Prop30
280
     1
102
RTVSPost2010PropOp30
 70
     1
102
RTVSPost2010Prop31
280
     0
102
RTVSPost2010PropOp31
 70
     1
102
RTVSPost2010Prop32
280
     0
102
RTVSPost2010PropOp32
 70
     1
102
RTVSPost2010Prop33
280
     0
102
RTVSPost2010PropOp33
 70
     1
102
RTVSPost2010Prop34
280
     0
102
RTVSPost2010PropOp34
 70
     1
102
RTVSPost2010Prop35
280
     0
102
RTVSPost2010PropOp35
 70
     1
102
RTVSPost2010Prop36
280
     0
102
RTVSPost2010PropOp36
 70
     1
102
RTVSPost2010Prop37
 90
       50
102
RTVSPost2010PropOp37
 70
     1
102
RTVSPost2010Prop38
140
0.0
102
RTVSPost2010PropOp38
 70
     1
102
RTVSPost2010Prop39
140
1.0
102
RTVSPost2010PropOp39
 70
     1
102
RTVSPost2010Prop40
 90
        0
102
RTVSPost2010PropOp40
 70
     1
102
RTVSPost2010Prop41ColorIndex
 90
       18
102
RTVSPost2010Prop41ColorRGB
 90
        0
102
RTVSPost2010PropOp41
 70
     1
102
RTVSPost2010Prop42
 90
       50
102
RTVSPost2010PropOp42
 70
     1
102
RTVSPost2010Prop43
 90
        3
102
RTVSPost2010PropOp43
 70
     1
102
RTVSPost2010Prop44ColorIndex
 90
        5
102
RTVSPost2010Prop44ColorRGB
 90
      255
102
RTVSPost2010PropOp44
 70
     1
102
RTVSPost2010Prop45
280
     0
102
RTVSPost2010PropOp45
 70
     1
102
RTVSPost2010Prop46
 90
       50
102
RTVSPost2010PropOp46
 70
     1
102
RTVSPost2010Prop47
 90
       50
102
RTVSPost2010PropOp47
 70
     1
102
RTVSPost2010Prop48
 90
       50
102
RTVSPost2010PropOp48
 70
     1
102
RTVSPost2010Prop49
280
     0
102
RTVSPost2010PropOp49
 70
     1
102
RTVSPost2010Prop50
 90
       50
102
RTVSPost2010PropOp50
 70
     1
102
RTVSPost2010Prop51ColorIndex
 90
      256
102
RTVSPost2010Prop51ColorRGB
 90
-16777216
102
RTVSPost2010PropOp51
 70
     0
102
RTVSPost2010Prop52
140
1.0
102
RTVSPost2010PropOp52
 70
     0
102
RTVSPost2010Prop53
 90
        2
102
RTVSPost2010PropOp53
 70
     1
102
RTVSPost2010Prop54
  1
strokes_ogs.tif
102
RTVSPost2010PropOp54
 70
     1
102
RTVSPost2010Prop55
280
     0
102
RTVSPost2010PropOp55
 70
     1
102
RTVSPost2010Prop56
140
1.0
102
RTVSPost2010PropOp56
 70
     1
102
RTVSPost2010Prop57
140
1.0
102
RTVSPost2010PropOp57
 70
     1
102
RTVSPropertyOp0
 70
     1
102
RTVSPropertyOp1
 70
     1
102
RTVSPropertyOp2
 70
     1
102
RTVSPropertyOp3
 70
     1
102
RTVSPropertyOp4
 70
     1
102
RTVSPropertyOp5
 70
     1
102
RTVSPropertyOp6
 70
     1
102
RTVSPropertyOp7
 70
     1
102
RTVSPropertyOp8
 70
     1
102
RTVSPropertyOp9
 70
     1
102
RTVSPropertyOp10
 70
     1
102
RTVSPropertyOp11
 70
     1
102
RTVSPropertyOp12
 70
     1
102
RTVSPropertyOp13
 70
     1
102
RTVSPropertyOp14
 70
     1
102
RTVSPropertyOp15
 70
     1
102
RTVSPropertyOp16
 70
     1
102
RTVSPropertyOp17
 70
     1
102
RTVSPropertyOp18
 70
     1
102
RTVSPropertyOp19
 70
     1
102
RTVSPropertyOp20
 70
     1
102
RTVSPropertyOp21
 70
     1
102
RTVSPropertyOp22
 70
     1
102
RTVSPropertyOp23
 70
     1
102
RTVSPropertyOp24
 70
     1
102
RTVSPropertyOp25
 70
     1
102
RTVSPropertyOp26
 70
     1
102
RTVSPropertyOp27
 70
     1
102
RTVSPropertyOp28
 70
     1
102
RTVSPropertyOp29
 70
     1
102
RTVSPropertyOp30
 70
     1
102
RTVSPropertyOp31
 70
     1
102
RTVSPropertyOp32
 70
     1
102
RTVSPropertyOp33
 70
     1
102
RTVSPropertyOp34
 70
     1
102
RTVSPropertyOp35
 70
     1
102
RTVSPropertyOp36
 70
     1
102
RTVSPropertyOp37
 70
     1
102
RTVSPropertyOp38
 70
     1
102
RTVSPropertyOp39
 70
     1
102
RTVSPropertyOp40
 70
     1
102
RTVSPropertyOp41
 70
     1
102
RTVSPropertyOp42
 70
     1
102
RTVSPropertyOp43
 70
     1
102
RTVSPropertyOp44
 70
     1
102
RTVSPropertyOp45
 70
     1
102
RTVSPropertyOp46
 70
     1
102
RTVSPropertyOp47
 70
     1
102
RTVSPropertyOp48
 70
     1
102
RTVSPropertyOp49
 70
     1
102
RTVSPropertyOp50
 70
     1
102
RTVSPropertyOp51
 70
     0
102
RTVSPropertyOp52
 70
     0
102
RTVSPropertyOp53
 70
     1
102
RTVSPropertyOp54
 70
     1
102
RTVSPropertyOp55
 70
     1
102
RTVSPropertyOp56
 70
     1
102
RTVSPropertyOp57
 70
     1
102
RTVSPropertyOp58
 70
     1
102
RTVSPropertyOp59
 70
     1
102
RTVSPropertyOp60
 70
     1
102
RTVSPropertyOp61
 70
     1
102
RTVSPropertyOp62
 70
     1
  0
ENDSEC
  0
EOF
