  0
SECTION
  2
HEADER
  9
$ACADVER
  1
AC1015
  9
$ACADMAINTVER
 70
    20
  9
$DWGCODEPAGE
  3
ANSI_932
  9
$INSBASE
 10
0.0
 20
0.0
 30
0.0
  9
$EXTMIN
 10
-0.2242870864283759
 20
-0.3150699547441036
 30
-0.0015258207003583
  9
$EXTMAX
 10
7350.224321312532
 20
10325.31511803427
 30
0.0000000349246037
  9
$LIMMIN
 10
0.0
 20
0.0
  9
$LIMMAX
 10
297.0
 20
210.0
  9
$ORTHOMODE
 70
     1
  9
$REGENMODE
 70
     1
  9
$FILLMODE
 70
     0
  9
$QTEXTMODE
 70
     0
  9
$MIRRTEXT
 70
     1
  9
$LTSCALE
 40
100.0
  9
$ATTMODE
 70
     1
  9
$TEXTSIZE
 40
180.0
  9
$TRACEWID
 40
0.05
  9
$TEXTSTYLE
  7
STANDARD
  9
$CLAYER
  8
3
  9
$CELTYPE
  6
ByLayer
  9
$CECOLOR
 62
   256
  9
$CELTSCALE
 40
1.0
  9
$DISPSILH
 70
     0
  9
$DIMSCALE
 40
35.0
  9
$DIMASZ
 40
2.0
  9
$DIMEXO
 40
0.5
  9
$DIMDLI
 40
10.0
  9
$DIMRND
 40
0.0
  9
$DIMDLE
 40
0.0
  9
$DIMEXE
 40
1.0
  9
$DIMTP
 40
1.0
  9
$DIMTM
 40
1.0
  9
$DIMTXT
 40
3.0
  9
$DIMCEN
 40
0.0
  9
$DIMTSZ
 40
0.0
  9
$DIMTOL
 70
     0
  9
$DIMLIM
 70
     0
  9
$DIMTIH
 70
     0
  9
$DIMTOH
 70
     0
  9
$DIMSE1
 70
     0
  9
$DIMSE2
 70
     0
  9
$DIMTAD
 70
     1
  9
$DIMZIN
 70
     8
  9
$DIMBLK
  1

  9
$DIMASO
 70
     1
  9
$DIMSHO
 70
     1
  9
$DIMPOST
  1

  9
$DIMAPOST
  1

  9
$DIMALT
 70
     0
  9
$DIMALTD
 70
     2
  9
$DIMALTF
 40
0.039
  9
$DIMLFAC
 40
1.0
  9
$DIMTOFL
 70
     1
  9
$DIMTVP
 40
0.0
  9
$DIMTIX
 70
     0
  9
$DIMSOXD
 70
     0
  9
$DIMSAH
 70
     1
  9
$DIMBLK1
  1
OPEN
  9
$DIMBLK2
  1
OPEN
  9
$DIMSTYLE
  2
IGA
  9
$DIMCLRD
 70
     0
  9
$DIMCLRE
 70
     0
  9
$DIMCLRT
 70
     0
  9
$DIMTFAC
 40
10.0
  9
$DIMGAP
 40
1.0
  9
$DIMJUST
 70
     0
  9
$DIMSD1
 70
     0
  9
$DIMSD2
 70
     0
  9
$DIMTOLJ
 70
     1
  9
$DIMTZIN
 70
     0
  9
$DIMALTZ
 70
     0
  9
$DIMALTTZ
 70
     0
  9
$DIMUPT
 70
     0
  9
$DIMDEC
 70
     4
  9
$DIMTDEC
 70
     4
  9
$DIMALTU
 70
     2
  9
$DIMALTTD
 70
     2
  9
$DIMTXSTY
  7
STANDARD
  9
$DIMAUNIT
 70
     0
  9
$DIMADEC
 70
     0
  9
$DIMALTRND
 40
0.0
  9
$DIMAZIN
 70
     0
  9
$DIMDSEP
 70
    46
  9
$DIMATFIT
 70
     3
  9
$DIMFRAC
 70
     0
  9
$DIMLDRBLK
  1
OPEN
  9
$DIMLUNIT
 70
     2
  9
$DIMLWD
 70
    -2
  9
$DIMLWE
 70
    -2
  9
$DIMTMOVE
 70
     0
  9
$LUNITS
 70
     2
  9
$LUPREC
 70
     3
  9
$SKETCHINC
 40
0.1
  9
$FILLETRAD
 40
50.0
  9
$AUNITS
 70
     0
  9
$AUPREC
 70
     0
  9
$MENU
  1
acad
  9
$ELEVATION
 40
0.0
  9
$PELEVATION
 40
0.0
  9
$THICKNESS
 40
0.0
  9
$LIMCHECK
 70
     0
  9
$CHAMFERA
 40
0.5
  9
$CHAMFERB
 40
0.5
  9
$CHAMFERC
 40
0.0
  9
$CHAMFERD
 40
0.0
  9
$SKPOLY
 70
     0
  9
$TDCREATE
 40
2451390.404617130
  9
$TDUCREATE
 40
2451390.029617130
  9
$TDUPDATE
 40
2460273.583975243
  9
$TDUUPDATE
 40
2460273.208975243
  9
$TDINDWG
 40
0.0206753819
  9
$TDUSRTIMER
 40
0.0206751273
  9
$USRTIMER
 70
     1
  9
$ANGBASE
 50
0.0
  9
$ANGDIR
 70
     0
  9
$PDMODE
 70
     0
  9
$PDSIZE
 40
0.0
  9
$PLINEWID
 40
0.0
  9
$SPLFRAME
 70
     0
  9
$SPLINETYPE
 70
     6
  9
$SPLINESEGS
 70
     8
  9
$HANDSEED
  5
8809
  9
$SURFTAB1
 70
     6
  9
$SURFTAB2
 70
     6
  9
$SURFTYPE
 70
     6
  9
$SURFU
 70
     6
  9
$SURFV
 70
     6
  9
$UCSBASE
  2

  9
$UCSNAME
  2

  9
$UCSORG
 10
0.0
 20
0.0
 30
0.0
  9
$UCSXDIR
 10
1.0
 20
0.0
 30
0.0
  9
$UCSYDIR
 10
0.0
 20
1.0
 30
0.0
  9
$UCSORTHOREF
  2

  9
$UCSORTHOVIEW
 70
     0
  9
$UCSORGTOP
 10
0.0
 20
0.0
 30
0.0
  9
$UCSORGBOTTOM
 10
0.0
 20
0.0
 30
0.0
  9
$UCSORGLEFT
 10
0.0
 20
0.0
 30
0.0
  9
$UCSORGRIGHT
 10
0.0
 20
0.0
 30
0.0
  9
$UCSORGFRONT
 10
0.0
 20
0.0
 30
0.0
  9
$UCSORGBACK
 10
0.0
 20
0.0
 30
0.0
  9
$PUCSBASE
  2

  9
$PUCSNAME
  2

  9
$PUCSORG
 10
0.0
 20
0.0
 30
0.0
  9
$PUCSXDIR
 10
1.0
 20
0.0
 30
0.0
  9
$PUCSYDIR
 10
0.0
 20
1.0
 30
0.0
  9
$PUCSORTHOREF
  2

  9
$PUCSORTHOVIEW
 70
     0
  9
$PUCSORGTOP
 10
0.0
 20
0.0
 30
0.0
  9
$PUCSORGBOTTOM
 10
0.0
 20
0.0
 30
0.0
  9
$PUCSORGLEFT
 10
0.0
 20
0.0
 30
0.0
  9
$PUCSORGRIGHT
 10
0.0
 20
0.0
 30
0.0
  9
$PUCSORGFRONT
 10
0.0
 20
0.0
 30
0.0
  9
$PUCSORGBACK
 10
0.0
 20
0.0
 30
0.0
  9
$USERI1
 70
     0
  9
$USERI2
 70
     0
  9
$USERI3
 70
     0
  9
$USERI4
 70
     0
  9
$USERI5
 70
     0
  9
$USERR1
 40
0.0
  9
$USERR2
 40
0.0
  9
$USERR3
 40
0.0
  9
$USERR4
 40
0.0
  9
$USERR5
 40
0.0
  9
$WORLDVIEW
 70
     1
  9
$SHADEDGE
 70
     3
  9
$SHADEDIF
 70
    70
  9
$TILEMODE
 70
     1
  9
$MAXACTVP
 70
    16
  9
$PINSBASE
 10
0.0
 20
0.0
 30
0.0
  9
$PLIMCHECK
 70
     0
  9
$PEXTMIN
 10
1.000000000000000E+20
 20
1.000000000000000E+20
 30
1.000000000000000E+20
  9
$PEXTMAX
 10
-1.000000000000000E+20
 20
-1.000000000000000E+20
 30
-1.000000000000000E+20
  9
$PLIMMIN
 10
0.0
 20
0.0
  9
$PLIMMAX
 10
12.0
 20
9.0
  9
$UNITMODE
 70
     0
  9
$VISRETAIN
 70
     0
  9
$PLINEGEN
 70
     0
  9
$PSLTSCALE
 70
     1
  9
$TREEDEPTH
 70
  3020
  9
$CMLSTYLE
  2
Standard
  9
$CMLJUST
 70
     0
  9
$CMLSCALE
 40
1.0
  9
$PROXYGRAPHICS
 70
     1
  9
$MEASUREMENT
 70
     0
  9
$CELWEIGHT
370
    -1
  9
$ENDCAPS
280
     0
  9
$JOINSTYLE
280
     0
  9
$LWDISPLAY
290
     0
  9
$INSUNITS
 70
     0
  9
$HYPERLINKBASE
  1

  9
$STYLESHEET
  1

  9
$XEDIT
290
     1
  9
$CEPSNTYPE
380
     0
  9
$PSTYLEMODE
290
     1
  9
$FINGERPRINTGUID
  2
{E4259DDD-7806-4F14-BE64-5CB8F6145658}
  9
$VERSIONGUID
  2
{66DC0275-5659-4A97-932D-69C0759E108C}
  9
$EXTNAMES
290
     1
  9
$PSVPSCALE
 40
0.0
  9
$OLESTARTUP
290
     0
  0
ENDSEC
  0
SECTION
  2
CLASSES
  0
CLASS
  1
ACDBDICTIONARYWDFLT
  2
AcDbDictionaryWithDefault
  3
ObjectDBX Classes
 90
        0
280
     0
281
     0
  0
CLASS
  1
MATERIAL
  2
AcDbMaterial
  3
ObjectDBX Classes
 90
     1153
280
     0
281
     0
  0
CLASS
  1
VISUALSTYLE
  2
AcDbVisualStyle
  3
ObjectDBX Classes
 90
     4095
280
     0
281
     0
  0
CLASS
  1
SCALE
  2
AcDbScale
  3
ObjectDBX Classes
 90
     1153
280
     0
281
     0
  0
CLASS
  1
TABLESTYLE
  2
AcDbTableStyle
  3
ObjectDBX Classes
 90
     4095
280
     0
281
     0
  0
CLASS
  1
MLEADERSTYLE
  2
AcDbMLeaderStyle
  3
ACDB_MLEADERSTYLE_CLASS
 90
     4095
280
     0
281
     0
  0
CLASS
  1
ACDBSECTIONVIEWSTYLE
  2
AcDbSectionViewStyle
  3
ObjectDBX Classes
 90
     1025
280
     0
281
     0
  0
CLASS
  1
ACDBDETAILVIEWSTYLE
  2
AcDbDetailViewStyle
  3
ObjectDBX Classes
 90
     1025
280
     0
281
     0
  0
CLASS
  1
SORTENTSTABLE
  2
AcDbSortentsTable
  3
ObjectDBX Classes
 90
        0
280
     0
281
     0
  0
CLASS
  1
DICTIONARYVAR
  2
AcDbDictionaryVar
  3
ObjectDBX Classes
 90
        0
280
     0
281
     0
  0
CLASS
  1
CELLSTYLEMAP
  2
AcDbCellStyleMap
  3
ObjectDBX Classes
 90
     1152
280
     0
281
     0
  0
CLASS
  1
ACDBPLACEHOLDER
  2
AcDbPlaceHolder
  3
ObjectDBX Classes
 90
        0
280
     0
281
     0
  0
CLASS
  1
LAYOUT
  2
AcDbLayout
  3
ObjectDBX Classes
 90
        0
280
     0
281
     0
  0
ENDSEC
  0
SECTION
  2
TABLES
  0
TABLE
  2
VPORT
  5
832D
330
0
100
AcDbSymbolTable
 70
     1
  0
VPORT
  5
8399
330
832D
100
AcDbSymbolTableRecord
100
AcDbViewportTableRecord
  2
*ACTIVE
 70
     0
 10
0.0
 20
0.0
 11
1.0
 21
1.0
 12
3663.897699751771
 22
5162.500030854277
 13
0.0
 23
0.0
 14
10.0
 24
10.0
 15
10.0
 25
10.0
 16
0.0
 26
0.0
 36
1.0
 17
0.0
 27
0.0
 37
0.0
 40
10391.74947961864
 41
2.050213675213675
 42
50.0
 43
0.0
 44
0.0
 50
0.0
 51
0.0
 71
     0
 72
   100
 73
     1
 74
     0
 75
     0
 76
     0
 77
     0
 78
     0
281
     0
 65
     1
110
0.0
120
0.0
130
0.0
111
1.0
121
0.0
131
0.0
112
0.0
122
1.0
132
0.0
 79
     0
146
0.0
1001
ACAD_NAV_VCDISPLAY
1070
     3
  0
ENDTAB
  0
TABLE
  2
LTYPE
  5
832A
330
0
100
AcDbSymbolTable
 70
     3
  0
LTYPE
  5
837F
330
832A
100
AcDbSymbolTableRecord
100
AcDbLinetypeTableRecord
  2
ByBlock
 70
     0
  3

 72
    65
 73
     0
 40
0.0
  0
LTYPE
  5
8380
330
832A
100
AcDbSymbolTableRecord
100
AcDbLinetypeTableRecord
  2
ByLayer
 70
     0
  3

 72
    65
 73
     0
 40
0.0
  0
LTYPE
  5
8381
330
832A
100
AcDbSymbolTableRecord
100
AcDbLinetypeTableRecord
  2
CONTINUOUS
 70
     0
  3
Solid line
 72
    65
 73
     0
 40
0.0
  0
LTYPE
  5
839A
330
832A
100
AcDbSymbolTableRecord
100
AcDbLinetypeTableRecord
  2
CENTER
 70
     0
  3
____ _ ____ _ ____ _ ____ _ ____ _ ____ _ ____ 
 72
    65
 73
     4
 40
2.0
 49
1.25
 74
     0
 49
-0.25
 74
     0
 49
0.25
 74
     0
 49
-0.25
 74
     0
  0
ENDTAB
  0
TABLE
  2
LAYER
  5
8327
330
0
100
AcDbSymbolTable
 70
     6
  0
LAYER
  5
8379
102
{ACAD_XDICTIONARY
360
8772
102
}
330
8327
100
AcDbSymbolTableRecord
100
AcDbLayerTableRecord
  2
0
 70
     0
 62
     7
  6
CONTINUOUS
370
    -3
390
8334
  0
LAYER
  5
8398
102
{ACAD_XDICTIONARY
360
8774
102
}
330
8327
100
AcDbSymbolTableRecord
100
AcDbLayerTableRecord
  2
3
 70
     0
 62
     2
  6
CONTINUOUS
370
    -3
390
8334
  0
LAYER
  5
839B
102
{ACAD_XDICTIONARY
360
8776
102
}
330
8327
100
AcDbSymbolTableRecord
100
AcDbLayerTableRecord
  2
2
 70
     0
 62
     3
  6
CENTER
370
    -3
390
8334
  0
LAYER
  5
839C
102
{ACAD_XDICTIONARY
360
8778
102
}
330
8327
100
AcDbSymbolTableRecord
100
AcDbLayerTableRecord
  2
1
 70
     0
 62
     4
  6
CONTINUOUS
370
    -3
390
8334
  0
LAYER
  5
839D
102
{ACAD_XDICTIONARY
360
877A
102
}
330
8327
100
AcDbSymbolTableRecord
100
AcDbLayerTableRecord
  2
4
 70
     0
 62
     7
  6
CONTINUOUS
370
    -3
390
8334
  0
LAYER
  5
839E
330
8327
100
AcDbSymbolTableRecord
100
AcDbLayerTableRecord
  2
DEFPOINTS
 70
     0
 62
     7
  6
CONTINUOUS
290
     0
370
    -3
390
8334
  0
ENDTAB
  0
TABLE
  2
STYLE
  5
8328
330
0
100
AcDbSymbolTable
 70
     2
  0
STYLE
  5
837A
330
8328
100
AcDbSymbolTableRecord
100
AcDbTextStyleTableRecord
  2
STANDARD
 70
     0
 40
0.0
 41
1.0
 50
0.0
 71
     0
 42
180.0
  3
simplex.shx
  4
extfont.shx
  0
STYLE
  5
837E
330
8328
100
AcDbSymbolTableRecord
100
AcDbTextStyleTableRecord
  2
Annotative
 70
     0
 40
0.0
 41
1.0
 50
0.0
 71
     0
 42
0.2
  3
txt
  4

1001
AcadAnnotative
1000
AnnotativeData
1002
{
1070
     1
1070
     1
1002
}
  0
ENDTAB
  0
TABLE
  2
VIEW
  5
832B
330
0
100
AcDbSymbolTable
 70
     0
  0
ENDTAB
  0
TABLE
  2
UCS
  5
832C
330
0
100
AcDbSymbolTable
 70
     0
  0
ENDTAB
  0
TABLE
  2
APPID
  5
832E
330
0
100
AcDbSymbolTable
 70
     8
  0
APPID
  5
837B
330
832E
100
AcDbSymbolTableRecord
100
AcDbRegAppTableRecord
  2
ACAD
 70
     0
  0
APPID
  5
8382
330
832E
100
AcDbSymbolTableRecord
100
AcDbRegAppTableRecord
  2
AcadAnnotative
 70
     0
  0
APPID
  5
83E3
330
832E
100
AcDbSymbolTableRecord
100
AcDbRegAppTableRecord
  2
ACAD_DSTYLE_DIMJAG
 70
     0
  0
APPID
  5
83E4
330
832E
100
AcDbSymbolTableRecord
100
AcDbRegAppTableRecord
  2
ACAD_DSTYLE_DIMTALN
 70
     0
  0
APPID
  5
842B
330
832E
100
AcDbSymbolTableRecord
100
AcDbRegAppTableRecord
  2
AcadAnnoMonitorAlertIconDisabled
 70
     0
  0
APPID
  5
842C
330
832E
100
AcDbSymbolTableRecord
100
AcDbRegAppTableRecord
  2
ACAD_EXEMPT_FROM_CAD_STANDARDS
 70
     0
  0
APPID
  5
8786
330
832E
100
AcDbSymbolTableRecord
100
AcDbRegAppTableRecord
  2
ACAD_NAV_VCDISPLAY
 70
     0
  0
APPID
  5
8800
330
832E
100
AcDbSymbolTableRecord
100
AcDbRegAppTableRecord
  2
ACAD_MLEADERVER
 70
     0
  0
ENDTAB
  0
TABLE
  2
DIMSTYLE
  5
832F
330
0
100
AcDbSymbolTable
 70
     3
100
AcDbDimStyleTable
 71
     1
340
839F
  0
DIMSTYLE
105
837C
102
{ACAD_REACTORS
330
8131
330
813E
330
814B
330
8158
102
}
330
832F
100
AcDbSymbolTableRecord
100
AcDbDimStyleTableRecord
  2
Standard
 70
     0
340
837A
  0
DIMSTYLE
105
837D
330
832F
100
AcDbSymbolTableRecord
100
AcDbDimStyleTableRecord
  2
Annotative
 70
     0
340
837A
1001
AcadAnnotative
1000
AnnotativeData
1002
{
1070
     1
1070
     1
1002
}
  0
DIMSTYLE
105
839F
102
{ACAD_REACTORS
330
83E5
330
83F2
330
83FF
330
840C
330
847A
330
8487
330
8494
330
84A1
330
84AE
330
84BB
330
84C8
330
84D5
330
84E2
330
84EF
330
84FC
330
8509
330
8516
330
8528
330
853A
102
}
330
832F
100
AcDbSymbolTableRecord
100
AcDbDimStyleTableRecord
  2
IGA
 70
     0
 40
2.0
 41
2.0
 42
0.5
 43
10.0
 44
1.0
 47
1.0
 48
1.0
 73
     0
 74
     0
 77
     1
 78
     8
140
3.0
141
0.0
143
0.03937
146
10.0
147
1.0
173
     1
271
     3
272
     3
279
     2
284
     8
285
     8
286
     8
340
837A
  0
ENDTAB
  0
TABLE
  2
BLOCK_RECORD
  5
8326
330
0
100
AcDbSymbolTable
 70
    50
  0
BLOCK_RECORD
  5
8394
102
{ACAD_XDICTIONARY
360
83DF
102
}
330
8326
100
AcDbSymbolTableRecord
100
AcDbBlockTableRecord
  2
*Model_Space
340
8397
  0
BLOCK_RECORD
  5
8390
330
8326
100
AcDbSymbolTableRecord
100
AcDbBlockTableRecord
  2
*Paper_Space
340
8393
  0
BLOCK_RECORD
  5
83A3
330
8326
100
AcDbSymbolTableRecord
100
AcDbBlockTableRecord
  2
$MODEL_SPACE
340
0
  0
BLOCK_RECORD
  5
83A5
330
8326
100
AcDbSymbolTableRecord
100
AcDbBlockTableRecord
  2
$PAPER_SPACE
340
0
  0
BLOCK_RECORD
  5
83A7
330
8326
100
AcDbSymbolTableRecord
100
AcDbBlockTableRecord
  2
_OPEN
340
0
102
{BLKREFS
331
8144
331
8145
331
8151
331
8152
331
816D
331
816E
331
8455
331
8456
331
845E
331
845F
331
82FA
331
8302
331
8303
331
830B
331
830C
331
812A
331
812B
331
8137
331
8138
331
8279
331
827A
331
8282
331
8283
331
828B
331
828C
331
8294
331
8295
331
829D
331
829E
331
8583
331
8584
331
82A6
331
82A7
331
84C2
331
84C3
331
84CF
331
84D0
331
84DC
331
84DD
331
84E9
331
84EA
331
84F6
331
84F7
331
8503
331
8504
331
8510
331
8511
331
82AF
331
82B0
331
82B8
331
82B9
331
82C1
331
82C2
331
82CA
331
82CB
331
82D3
331
82D4
331
82DC
331
82DD
331
82E5
331
82E6
331
82EE
331
82EF
331
8474
331
8475
331
8481
331
8482
331
848E
331
848F
331
849B
331
849C
331
84A8
331
84A9
331
84B5
331
84B6
331
83EC
331
83ED
331
83F9
331
83FA
331
85F7
331
876E
102
}
  0
BLOCK_RECORD
  5
83A9
330
8326
100
AcDbSymbolTableRecord
100
AcDbBlockTableRecord
  2
YA_N
340
0
102
{BLKREFS
331
7C22
331
7C43
331
7C4C
331
7C78
331
7C9F
102
}
  0
BLOCK_RECORD
  5
83AB
330
8326
100
AcDbSymbolTableRecord
100
AcDbBlockTableRecord
  2
*D4
340
0
  0
BLOCK_RECORD
  5
83AD
330
8326
100
AcDbSymbolTableRecord
100
AcDbBlockTableRecord
  2
*D5
340
0
  0
BLOCK_RECORD
  5
83AF
330
8326
100
AcDbSymbolTableRecord
100
AcDbBlockTableRecord
  2
*D6
340
0
  0
BLOCK_RECORD
  5
83B1
330
8326
100
AcDbSymbolTableRecord
100
AcDbBlockTableRecord
  2
*D7
340
0
  0
BLOCK_RECORD
  5
83B3
330
8326
100
AcDbSymbolTableRecord
100
AcDbBlockTableRecord
  2
*D8
340
0
  0
BLOCK_RECORD
  5
83B5
330
8326
100
AcDbSymbolTableRecord
100
AcDbBlockTableRecord
  2
*D9
340
0
  0
BLOCK_RECORD
  5
83B7
330
8326
100
AcDbSymbolTableRecord
100
AcDbBlockTableRecord
  2
*D10
340
0
  0
BLOCK_RECORD
  5
83B9
330
8326
100
AcDbSymbolTableRecord
100
AcDbBlockTableRecord
  2
*D11
340
0
  0
BLOCK_RECORD
  5
83BB
330
8326
100
AcDbSymbolTableRecord
100
AcDbBlockTableRecord
  2
*D12
340
0
  0
BLOCK_RECORD
  5
83BD
330
8326
100
AcDbSymbolTableRecord
100
AcDbBlockTableRecord
  2
*D13
340
0
  0
BLOCK_RECORD
  5
83BF
330
8326
100
AcDbSymbolTableRecord
100
AcDbBlockTableRecord
  2
*D14
340
0
  0
BLOCK_RECORD
  5
83C1
330
8326
100
AcDbSymbolTableRecord
100
AcDbBlockTableRecord
  2
*D15
340
0
  0
BLOCK_RECORD
  5
83C3
330
8326
100
AcDbSymbolTableRecord
100
AcDbBlockTableRecord
  2
*D16
340
0
  0
BLOCK_RECORD
  5
83C5
330
8326
100
AcDbSymbolTableRecord
100
AcDbBlockTableRecord
  2
*D17
340
0
  0
BLOCK_RECORD
  5
83C7
330
8326
100
AcDbSymbolTableRecord
100
AcDbBlockTableRecord
  2
*D18
340
0
  0
BLOCK_RECORD
  5
83C9
330
8326
100
AcDbSymbolTableRecord
100
AcDbBlockTableRecord
  2
_DOT
340
0
102
{BLKREFS
331
82F9
102
}
  0
BLOCK_RECORD
  5
83CA
330
8326
100
AcDbSymbolTableRecord
100
AcDbBlockTableRecord
  2
*D20
340
0
  0
BLOCK_RECORD
  5
83CC
330
8326
100
AcDbSymbolTableRecord
100
AcDbBlockTableRecord
  2
*D21
340
0
  0
BLOCK_RECORD
  5
83CF
330
8326
100
AcDbSymbolTableRecord
100
AcDbBlockTableRecord
  2
*D22
340
0
  0
BLOCK_RECORD
  5
83D1
330
8326
100
AcDbSymbolTableRecord
100
AcDbBlockTableRecord
  2
*D23
340
0
  0
BLOCK_RECORD
  5
83D3
330
8326
100
AcDbSymbolTableRecord
100
AcDbBlockTableRecord
  2
*D24
340
0
  0
BLOCK_RECORD
  5
83D5
330
8326
100
AcDbSymbolTableRecord
100
AcDbBlockTableRecord
  2
*D25
340
0
  0
BLOCK_RECORD
  5
83D7
330
8326
100
AcDbSymbolTableRecord
100
AcDbBlockTableRecord
  2
_NONE
340
0
  0
BLOCK_RECORD
  5
83D9
330
8326
100
AcDbSymbolTableRecord
100
AcDbBlockTableRecord
  2
*D27
340
0
  0
BLOCK_RECORD
  5
83DB
330
8326
100
AcDbSymbolTableRecord
100
AcDbBlockTableRecord
  2
*D28
340
0
  0
BLOCK_RECORD
  5
83E6
330
8326
100
AcDbSymbolTableRecord
100
AcDbBlockTableRecord
  2
*D29
340
0
  0
BLOCK_RECORD
  5
83F3
330
8326
100
AcDbSymbolTableRecord
100
AcDbBlockTableRecord
  2
*D30
340
0
  0
BLOCK_RECORD
  5
8400
330
8326
100
AcDbSymbolTableRecord
100
AcDbBlockTableRecord
  2
*D31
340
0
  0
BLOCK_RECORD
  5
840D
330
8326
100
AcDbSymbolTableRecord
100
AcDbBlockTableRecord
  2
*D32
340
0
  0
BLOCK_RECORD
  5
8465
330
8326
100
AcDbSymbolTableRecord
100
AcDbBlockTableRecord
  2
*D33
340
0
  0
BLOCK_RECORD
  5
847B
330
8326
100
AcDbSymbolTableRecord
100
AcDbBlockTableRecord
  2
*D34
340
0
  0
BLOCK_RECORD
  5
8488
330
8326
100
AcDbSymbolTableRecord
100
AcDbBlockTableRecord
  2
*D35
340
0
  0
BLOCK_RECORD
  5
8495
330
8326
100
AcDbSymbolTableRecord
100
AcDbBlockTableRecord
  2
*D36
340
0
  0
BLOCK_RECORD
  5
84A2
330
8326
100
AcDbSymbolTableRecord
100
AcDbBlockTableRecord
  2
*D37
340
0
  0
BLOCK_RECORD
  5
84AF
330
8326
100
AcDbSymbolTableRecord
100
AcDbBlockTableRecord
  2
*D38
340
0
  0
BLOCK_RECORD
  5
84BC
330
8326
100
AcDbSymbolTableRecord
100
AcDbBlockTableRecord
  2
*D39
340
0
  0
BLOCK_RECORD
  5
84C9
330
8326
100
AcDbSymbolTableRecord
100
AcDbBlockTableRecord
  2
*D40
340
0
  0
BLOCK_RECORD
  5
84D6
330
8326
100
AcDbSymbolTableRecord
100
AcDbBlockTableRecord
  2
*D41
340
0
  0
BLOCK_RECORD
  5
84E3
330
8326
100
AcDbSymbolTableRecord
100
AcDbBlockTableRecord
  2
*D42
340
0
  0
BLOCK_RECORD
  5
84F0
330
8326
100
AcDbSymbolTableRecord
100
AcDbBlockTableRecord
  2
*D43
340
0
  0
BLOCK_RECORD
  5
84FD
330
8326
100
AcDbSymbolTableRecord
100
AcDbBlockTableRecord
  2
*D44
340
0
  0
BLOCK_RECORD
  5
850A
330
8326
100
AcDbSymbolTableRecord
100
AcDbBlockTableRecord
  2
*D45
340
0
  0
BLOCK_RECORD
  5
8517
330
8326
100
AcDbSymbolTableRecord
100
AcDbBlockTableRecord
  2
*D46
340
0
  0
BLOCK_RECORD
  5
8529
330
8326
100
AcDbSymbolTableRecord
100
AcDbBlockTableRecord
  2
*D47
340
0
  0
BLOCK_RECORD
  5
853B
330
8326
100
AcDbSymbolTableRecord
100
AcDbBlockTableRecord
  2
*D48
340
0
  0
BLOCK_RECORD
  5
85EA
330
8326
100
AcDbSymbolTableRecord
100
AcDbBlockTableRecord
  2
_DotSmall
340
0
102
{BLKREFS
331
85F8
331
876D
102
}
  0
ENDTAB
  0
ENDSEC
  0
SECTION
  2
BLOCKS
  0
BLOCK
  5
8395
330
8394
100
AcDbEntity
  8
0
100
AcDbBlockBegin
  2
*Model_Space
 70
     0
 10
0.0
 20
0.0
 30
0.0
  3
*Model_Space
  1

  0
ENDBLK
  5
8396
330
8394
100
AcDbEntity
  8
0
100
AcDbBlockEnd
  0
BLOCK
  5
8391
330
8390
100
AcDbEntity
 67
     1
  8
0
100
AcDbBlockBegin
  2
*Paper_Space
 70
     0
 10
0.0
 20
0.0
 30
0.0
  3
*Paper_Space
  1

  0
ENDBLK
  5
8392
330
8390
100
AcDbEntity
 67
     1
  8
0
100
AcDbBlockEnd
  0
BLOCK
  5
83A4
330
83A3
100
AcDbEntity
  8
0
100
AcDbBlockBegin
  2
$MODEL_SPACE
 70
     0
 10
0.0
 20
0.0
 30
0.0
  3
$MODEL_SPACE
  1

  0
ENDBLK
  5
1B
330
83A3
100
AcDbEntity
  8
0
100
AcDbBlockEnd
  0
BLOCK
  5
83A6
330
83A5
100
AcDbEntity
  8
0
100
AcDbBlockBegin
  2
$PAPER_SPACE
 70
     0
 10
0.0
 20
0.0
 30
0.0
  3
$PAPER_SPACE
  1

  0
ENDBLK
  5
18
330
83A5
100
AcDbEntity
  8
0
100
AcDbBlockEnd
  0
BLOCK
  5
83A8
330
83A7
100
AcDbEntity
  8
0
100
AcDbBlockBegin
  2
_OPEN
 70
     0
 10
0.0
 20
0.0
 30
0.0
  3
_OPEN
  1

  0
LINE
  5
79FD
330
83A7
100
AcDbEntity
  8
0
  6
ByBlock
 62
     0
100
AcDbLine
 10
-1.0
 20
0.1666666666666666
 30
0.0
 11
0.0
 21
0.0
 31
0.0
  0
LINE
  5
79FE
330
83A7
100
AcDbEntity
  8
0
  6
ByBlock
 62
     0
100
AcDbLine
 10
0.0
 20
0.0
 30
0.0
 11
-1.0
 21
-0.1666666666666666
 31
0.0
  0
LINE
  5
79FF
330
83A7
100
AcDbEntity
  8
0
  6
ByBlock
 62
     0
100
AcDbLine
 10
0.0
 20
0.0
 30
0.0
 11
-1.0
 21
0.0
 31
0.0
  0
ENDBLK
  5
7A01
330
83A7
100
AcDbEntity
  8
0
100
AcDbBlockEnd
  0
BLOCK
  5
83AA
330
83A9
100
AcDbEntity
  8
0
100
AcDbBlockBegin
  2
YA_N
 70
     0
 10
0.0
 20
0.0
 30
0.0
  3
YA_N
  1

  0
ENDBLK
  5
7A0C
330
83A9
100
AcDbEntity
  8
0
100
AcDbBlockEnd
  0
BLOCK
  5
83AC
330
83AB
100
AcDbEntity
  8
0
100
AcDbBlockBegin
  2
*D4
 70
     1
 10
0.0
 20
0.0
 30
0.0
  3
*D4
  1

  0
LINE
  5
8276
330
83AB
100
AcDbEntity
  8
3
 62
     0
100
AcDbLine
 10
1770.717971633641
 20
2616.867032643556
 30
0.0
 11
1553.109655349375
 21
2616.867032643556
 31
0.0
  0
LINE
  5
8277
330
83AB
100
AcDbEntity
  8
3
 62
     0
100
AcDbLine
 10
1770.717971633641
 20
3766.867032643556
 30
0.0
 11
1553.109655349375
 21
3766.867032643556
 31
0.0
  0
LINE
  5
8278
330
83AB
100
AcDbEntity
  8
3
 62
     0
100
AcDbLine
 10
1588.109655349375
 20
2686.867032643556
 30
0.0
 11
1588.109655349375
 21
3696.867032643557
 31
0.0
  0
INSERT
  5
8279
330
83AB
100
AcDbEntity
  8
3
 62
     0
100
AcDbBlockReference
  2
_OPEN
 10
1588.109655349375
 20
2616.867032643556
 30
0.0
 41
70.0
 42
70.0
 43
70.0
 50
270.0
  0
INSERT
  5
827A
330
83AB
100
AcDbEntity
  8
3
 62
     0
100
AcDbBlockReference
  2
_OPEN
 10
1588.109655349375
 20
3766.867032643556
 30
0.0
 41
70.0
 42
70.0
 43
70.0
 50
90.0
  0
TEXT
  5
8314
330
83AB
100
AcDbEntity
  8
3
 62
     0
100
AcDbText
 10
1290.61
 20
3006.02
 30
0.0
 40
105.0
  1
1150
100
AcDbText
  0
POINT
  5
827C
330
83AB
100
AcDbEntity
  8
DEFPOINTS
 62
     0
100
AcDbPoint
 10
1788.21797163364
 20
2616.867032643556
 30
0.0
  0
POINT
  5
827D
330
83AB
100
AcDbEntity
  8
DEFPOINTS
 62
     0
100
AcDbPoint
 10
1788.21797163364
 20
3766.867032643556
 30
0.0
  0
POINT
  5
827E
330
83AB
100
AcDbEntity
  8
DEFPOINTS
 62
     0
100
AcDbPoint
 10
1588.109655349375
 20
3766.867032643556
 30
0.0
  0
ENDBLK
  5
8018
330
83AB
100
AcDbEntity
  8
0
100
AcDbBlockEnd
  0
BLOCK
  5
83AE
330
83AD
100
AcDbEntity
  8
0
100
AcDbBlockBegin
  2
*D5
 70
     1
 10
0.0
 20
0.0
 30
0.0
  3
*D5
  1

  0
LINE
  5
827F
330
83AD
100
AcDbEntity
  8
3
 62
     0
100
AcDbLine
 10
1770.717971633641
 20
2616.867032643556
 30
0.0
 11
1352.958004487872
 21
2616.867032643556
 31
0.0
  0
LINE
  5
8280
330
83AD
100
AcDbEntity
  8
3
 62
     0
100
AcDbLine
 10
1684.878970734906
 20
3814.867032643557
 30
0.0
 11
1352.958004487873
 21
3814.867032643557
 31
0.0
  0
LINE
  5
8281
330
83AD
100
AcDbEntity
  8
3
 62
     0
100
AcDbLine
 10
1387.958004487872
 20
2686.867032643556
 30
0.0
 11
1387.958004487873
 21
3744.867032643556
 31
0.0
  0
INSERT
  5
8282
330
83AD
100
AcDbEntity
  8
3
 62
     0
100
AcDbBlockReference
  2
_OPEN
 10
1387.958004487872
 20
2616.867032643556
 30
0.0
 41
70.0
 42
70.0
 43
70.0
 50
270.0
  0
INSERT
  5
8283
330
83AD
100
AcDbEntity
  8
3
 62
     0
100
AcDbBlockReference
  2
_OPEN
 10
1387.958004487873
 20
3814.867032643557
 30
0.0
 41
70.0
 42
70.0
 43
70.0
 50
90.0
  0
TEXT
  5
8315
330
83AD
100
AcDbEntity
  8
3
 62
     0
100
AcDbText
 10
1090.46
 20
3030.02
 30
0.0
 40
105.0
  1
1198
100
AcDbText
  0
POINT
  5
8285
330
83AD
100
AcDbEntity
  8
DEFPOINTS
 62
     0
100
AcDbPoint
 10
1788.21797163364
 20
2616.867032643556
 30
0.0
  0
POINT
  5
8286
330
83AD
100
AcDbEntity
  8
DEFPOINTS
 62
     0
100
AcDbPoint
 10
1702.378970734907
 20
3814.867032643557
 30
0.0
  0
POINT
  5
8287
330
83AD
100
AcDbEntity
  8
DEFPOINTS
 62
     0
100
AcDbPoint
 10
1387.958004487873
 20
3814.867032643557
 30
0.0
  0
ENDBLK
  5
800D
330
83AD
100
AcDbEntity
  8
0
100
AcDbBlockEnd
  0
BLOCK
  5
83B0
330
83AF
100
AcDbEntity
  8
0
100
AcDbBlockBegin
  2
*D6
 70
     1
 10
0.0
 20
0.0
 30
0.0
  3
*D6
  1

  0
LINE
  5
8288
330
83AF
100
AcDbEntity
  8
3
 62
     0
100
AcDbLine
 10
4887.400400804152
 20
4626.028653376388
 30
0.0
 11
4887.400400804152
 21
4908.306671695953
 31
0.0
  0
LINE
  5
8289
330
83AF
100
AcDbEntity
  8
3
 62
     0
100
AcDbLine
 10
6387.400400804152
 20
4620.179716714774
 30
0.0
 11
6387.400400804152
 21
4908.306671695953
 31
0.0
  0
LINE
  5
828A
330
83AF
100
AcDbEntity
  8
3
 62
     0
100
AcDbLine
 10
4957.400400804152
 20
4873.306671695954
 30
0.0
 11
6317.400400804152
 21
4873.306671695954
 31
0.0
  0
INSERT
  5
828B
330
83AF
100
AcDbEntity
  8
3
 62
     0
100
AcDbBlockReference
  2
_OPEN
 10
4887.400400804152
 20
4873.306671695954
 30
0.0
 41
70.0
 42
70.0
 43
70.0
 50
180.0
  0
INSERT
  5
828C
330
83AF
100
AcDbEntity
  8
3
 62
     0
100
AcDbBlockReference
  2
_OPEN
 10
6387.400400804152
 20
4873.306671695954
 30
0.0
 41
70.0
 42
70.0
 43
70.0
  0
TEXT
  5
8316
330
83AF
100
AcDbEntity
  8
3
 62
     0
100
AcDbText
 10
5427.4
 20
4774.96
 30
0.0
 40
105.0
  1
1500
100
AcDbText
  0
POINT
  5
828E
330
83AF
100
AcDbEntity
  8
DEFPOINTS
 62
     0
100
AcDbPoint
 10
4887.400400804152
 20
4608.528653376388
 30
0.0
  0
POINT
  5
828F
330
83AF
100
AcDbEntity
  8
DEFPOINTS
 62
     0
100
AcDbPoint
 10
6387.400400804152
 20
4602.679716714773
 30
0.0
  0
POINT
  5
8290
330
83AF
100
AcDbEntity
  8
DEFPOINTS
 62
     0
100
AcDbPoint
 10
6387.400400804152
 20
4873.306671695954
 30
0.0
  0
ENDBLK
  5
7F6F
330
83AF
100
AcDbEntity
  8
0
100
AcDbBlockEnd
  0
BLOCK
  5
83B2
330
83B1
100
AcDbEntity
  8
0
100
AcDbBlockBegin
  2
*D7
 70
     1
 10
0.0
 20
0.0
 30
0.0
  3
*D7
  1

  0
LINE
  5
8291
330
83B1
100
AcDbEntity
  8
3
 62
     0
100
AcDbLine
 10
5637.40040080415
 20
5057.284437516734
 30
0.0
 11
5637.40040080415
 21
5106.314032088929
 31
0.0
  0
LINE
  5
8292
330
83B1
100
AcDbEntity
  8
3
 62
     0
100
AcDbLine
 10
6552.400400804149
 20
3745.406509748752
 30
0.0
 11
6552.400400804149
 21
5106.314032088929
 31
0.0
  0
LINE
  5
8293
330
83B1
100
AcDbEntity
  8
3
 62
     0
100
AcDbLine
 10
5707.40040080415
 20
5071.314032088928
 30
0.0
 11
6482.40040080415
 21
5071.314032088928
 31
0.0
  0
INSERT
  5
8294
330
83B1
100
AcDbEntity
  8
3
 62
     0
100
AcDbBlockReference
  2
_OPEN
 10
5637.40040080415
 20
5071.314032088928
 30
0.0
 41
70.0
 42
70.0
 43
70.0
 50
180.0
  0
INSERT
  5
8295
330
83B1
100
AcDbEntity
  8
3
 62
     0
100
AcDbBlockReference
  2
_OPEN
 10
6552.400400804149
 20
5071.314032088928
 30
0.0
 41
70.0
 42
70.0
 43
70.0
  0
TEXT
  5
8317
330
83B1
100
AcDbEntity
  8
3
 62
     0
100
AcDbText
 10
5884.9
 20
5000.46
 30
0.0
 40
105.0
  1
(930)
100
AcDbText
  0
POINT
  5
8297
330
83B1
100
AcDbEntity
  8
DEFPOINTS
 62
     0
100
AcDbPoint
 10
5637.40040080415
 20
5039.784437516733
 30
0.0
  0
POINT
  5
8298
330
83B1
100
AcDbEntity
  8
DEFPOINTS
 62
     0
100
AcDbPoint
 10
6552.400400804149
 20
3727.906509748752
 30
0.0
  0
POINT
  5
8299
330
83B1
100
AcDbEntity
  8
DEFPOINTS
 62
     0
100
AcDbPoint
 10
6552.400400804149
 20
5071.314032088928
 30
0.0
  0
ENDBLK
  5
811C
330
83B1
100
AcDbEntity
  8
0
100
AcDbBlockEnd
  0
BLOCK
  5
83B4
330
83B3
100
AcDbEntity
  8
0
100
AcDbBlockBegin
  2
*D8
 70
     1
 10
0.0
 20
0.0
 30
0.0
  3
*D8
  1

  0
LINE
  5
829A
330
83B3
100
AcDbEntity
  8
3
 62
     0
100
AcDbLine
 10
6410.400400804154
 20
3254.867032643557
 30
0.0
 11
6790.183167159667
 21
3254.867032643557
 31
0.0
  0
LINE
  5
829B
330
83B3
100
AcDbEntity
  8
3
 62
     0
100
AcDbLine
 10
6410.400400804154
 20
4374.867032643556
 30
0.0
 11
6790.183167159667
 21
4374.867032643556
 31
0.0
  0
LINE
  5
829C
330
83B3
100
AcDbEntity
  8
3
 62
     0
100
AcDbLine
 10
6755.183167159666
 20
3324.867032643556
 30
0.0
 11
6755.183167159666
 21
4304.867032643556
 31
0.0
  0
INSERT
  5
829D
330
83B3
100
AcDbEntity
  8
3
 62
     0
100
AcDbBlockReference
  2
_OPEN
 10
6755.183167159666
 20
3254.867032643557
 30
0.0
 41
70.0
 42
70.0
 43
70.0
 50
270.0
  0
INSERT
  5
829E
330
83B3
100
AcDbEntity
  8
3
 62
     0
100
AcDbBlockReference
  2
_OPEN
 10
6755.183167159666
 20
4374.867032643556
 30
0.0
 41
70.0
 42
70.0
 43
70.0
 50
90.0
  0
TEXT
  5
8318
330
83B3
100
AcDbEntity
  8
3
 62
     0
100
AcDbText
 10
6457.68
 20
3629.02
 30
0.0
 40
105.0
  1
\U+03C61120
100
AcDbText
  0
POINT
  5
82A0
330
83B3
100
AcDbEntity
  8
DEFPOINTS
 62
     0
100
AcDbPoint
 10
6392.900400804154
 20
3254.867032643557
 30
0.0
  0
POINT
  5
82A1
330
83B3
100
AcDbEntity
  8
DEFPOINTS
 62
     0
100
AcDbPoint
 10
6392.900400804154
 20
4374.867032643556
 30
0.0
  0
POINT
  5
82A2
330
83B3
100
AcDbEntity
  8
DEFPOINTS
 62
     0
100
AcDbPoint
 10
6755.183167159666
 20
4374.867032643556
 30
0.0
  0
ENDBLK
  5
7F85
330
83B3
100
AcDbEntity
  8
0
100
AcDbBlockEnd
  0
BLOCK
  5
83B6
330
83B5
100
AcDbEntity
  8
0
100
AcDbBlockBegin
  2
*D9
 70
     1
 10
0.0
 20
0.0
 30
0.0
  3
*D9
  1

  0
LINE
  5
82A3
330
83B5
100
AcDbEntity
  8
3
 62
     0
100
AcDbLine
 10
4514.700400804152
 20
4212.367032643555
 30
0.0
 11
4514.700400804152
 21
5105.297380820517
 31
0.0
  0
LINE
  5
82A4
330
83B5
100
AcDbEntity
  8
3
 62
     0
100
AcDbLine
 10
5637.40040080415
 20
5057.284437516734
 30
0.0
 11
5637.40040080415
 21
5105.297380820517
 31
0.0
  0
LINE
  5
82A5
330
83B5
100
AcDbEntity
  8
3
 62
     0
100
AcDbLine
 10
4584.700400804152
 20
5070.297380820517
 30
0.0
 11
5567.400400804149
 21
5070.297380820517
 31
0.0
  0
INSERT
  5
82A6
330
83B5
100
AcDbEntity
  8
3
 62
     0
100
AcDbBlockReference
  2
_OPEN
 10
4514.700400804152
 20
5070.297380820517
 30
0.0
 41
70.0
 42
70.0
 43
70.0
 50
180.0
  0
INSERT
  5
82A7
330
83B5
100
AcDbEntity
  8
3
 62
     0
100
AcDbBlockReference
  2
_OPEN
 10
5637.40040080415
 20
5070.297380820517
 30
0.0
 41
70.0
 42
70.0
 43
70.0
  0
TEXT
  5
8319
330
83B5
100
AcDbEntity
  8
3
 62
     0
100
AcDbText
 10
4866.050000000001
 20
5059.45
 30
0.0
 40
105.0
  1
MAX
100
AcDbText
  0
TEXT
  5
831A
330
83B5
100
AcDbEntity
  8
3
 62
     0
100
AcDbText
 10
4866.050000000001
 20
4922.95
 30
0.0
 40
105.0
  1
1120
100
AcDbText
  0
POINT
  5
82A9
330
83B5
100
AcDbEntity
  8
DEFPOINTS
 62
     0
100
AcDbPoint
 10
4514.700400804152
 20
4194.867032643556
 30
0.0
  0
POINT
  5
82AA
330
83B5
100
AcDbEntity
  8
DEFPOINTS
 62
     0
100
AcDbPoint
 10
5637.40040080415
 20
5039.784437516733
 30
0.0
  0
POINT
  5
82AB
330
83B5
100
AcDbEntity
  8
DEFPOINTS
 62
     0
100
AcDbPoint
 10
5637.40040080415
 20
5070.297380820517
 30
0.0
  0
ENDBLK
  5
8111
330
83B5
100
AcDbEntity
  8
0
100
AcDbBlockEnd
  0
BLOCK
  5
83B8
330
83B7
100
AcDbEntity
  8
0
100
AcDbBlockBegin
  2
*D10
 70
     1
 10
0.0
 20
0.0
 30
0.0
  3
*D10
  1

  0
LINE
  5
82AC
330
83B7
100
AcDbEntity
  8
3
 62
     0
100
AcDbLine
 10
3208.217971633641
 20
7710.981934815961
 30
0.0
 11
3208.217971633641
 21
7902.489295287082
 31
0.0
  0
LINE
  5
82AD
330
83B7
100
AcDbEntity
  8
3
 62
     0
100
AcDbLine
 10
1888.21797163364
 20
7710.981934815961
 30
0.0
 11
1888.21797163364
 21
7902.489295287082
 31
0.0
  0
LINE
  5
82AE
330
83B7
100
AcDbEntity
  8
3
 62
     0
100
AcDbLine
 10
3138.217971633641
 20
7867.489295287082
 30
0.0
 11
1958.217971633641
 21
7867.489295287082
 31
0.0
  0
INSERT
  5
82AF
330
83B7
100
AcDbEntity
  8
3
 62
     0
100
AcDbBlockReference
  2
_OPEN
 10
3208.217971633641
 20
7867.489295287082
 30
0.0
 41
70.0
 42
70.0
 43
70.0
  0
INSERT
  5
82B0
330
83B7
100
AcDbEntity
  8
3
 62
     0
100
AcDbBlockReference
  2
_OPEN
 10
1888.21797163364
 20
7867.489295287082
 30
0.0
 41
70.0
 42
70.0
 43
70.0
 50
180.0
  0
TEXT
  5
831B
330
83B7
100
AcDbEntity
  8
3
 62
     0
100
AcDbText
 10
2338.22
 20
7769.14
 30
0.0
 40
105.0
  1
1320
100
AcDbText
  0
POINT
  5
82B2
330
83B7
100
AcDbEntity
  8
DEFPOINTS
 62
     0
100
AcDbPoint
 10
3208.217971633641
 20
7693.481934815962
 30
0.0
  0
POINT
  5
82B3
330
83B7
100
AcDbEntity
  8
DEFPOINTS
 62
     0
100
AcDbPoint
 10
1888.21797163364
 20
7693.481934815962
 30
0.0
  0
POINT
  5
82B4
330
83B7
100
AcDbEntity
  8
DEFPOINTS
 62
     0
100
AcDbPoint
 10
1888.21797163364
 20
7867.489295287082
 30
0.0
  0
ENDBLK
  5
802E
330
83B7
100
AcDbEntity
  8
0
100
AcDbBlockEnd
  0
BLOCK
  5
83BA
330
83B9
100
AcDbEntity
  8
0
100
AcDbBlockBegin
  2
*D11
 70
     1
 10
0.0
 20
0.0
 30
0.0
  3
*D11
  1

  0
LINE
  5
82B5
330
83B9
100
AcDbEntity
  8
3
 62
     0
100
AcDbLine
 10
4165.717971633641
 20
6693.481934815962
 30
0.0
 11
4583.848380927505
 21
6693.481934815962
 31
0.0
  0
LINE
  5
82B6
330
83B9
100
AcDbEntity
  8
3
 62
     0
100
AcDbLine
 10
4165.717971633641
 20
5793.481934815961
 30
0.0
 11
4583.848380927504
 21
5793.481934815961
 31
0.0
  0
LINE
  5
82B7
330
83B9
100
AcDbEntity
  8
3
 62
     0
100
AcDbLine
 10
4548.848380927505
 20
6623.481934815962
 30
0.0
 11
4548.848380927504
 21
5863.481934815961
 31
0.0
  0
INSERT
  5
82B8
330
83B9
100
AcDbEntity
  8
3
 62
     0
100
AcDbBlockReference
  2
_OPEN
 10
4548.848380927505
 20
6693.481934815962
 30
0.0
 41
70.0
 42
70.0
 43
70.0
 50
90.0
  0
INSERT
  5
82B9
330
83B9
100
AcDbEntity
  8
3
 62
     0
100
AcDbBlockReference
  2
_OPEN
 10
4548.848380927504
 20
5793.481934815961
 30
0.0
 41
70.0
 42
70.0
 43
70.0
 50
270.0
  0
TEXT
  5
831C
330
83B9
100
AcDbEntity
  8
3
 62
     0
100
AcDbText
 10
4251.350000000001
 20
6057.63
 30
0.0
 40
105.0
  1
900
100
AcDbText
  0
POINT
  5
82BB
330
83B9
100
AcDbEntity
  8
DEFPOINTS
 62
     0
100
AcDbPoint
 10
4148.21797163364
 20
6693.481934815962
 30
0.0
  0
POINT
  5
82BC
330
83B9
100
AcDbEntity
  8
DEFPOINTS
 62
     0
100
AcDbPoint
 10
4148.21797163364
 20
5793.481934815961
 30
0.0
  0
POINT
  5
82BD
330
83B9
100
AcDbEntity
  8
DEFPOINTS
 62
     0
100
AcDbPoint
 10
4548.848380927504
 20
5793.481934815961
 30
0.0
  0
ENDBLK
  5
8044
330
83B9
100
AcDbEntity
  8
0
100
AcDbBlockEnd
  0
BLOCK
  5
83BC
330
83BB
100
AcDbEntity
  8
0
100
AcDbBlockBegin
  2
*D12
 70
     1
 10
0.0
 20
0.0
 30
0.0
  3
*D12
  1

  0
LINE
  5
82BE
330
83BB
100
AcDbEntity
  8
3
 62
     0
100
AcDbLine
 10
4148.21797163364
 20
5775.981934815962
 30
0.0
 11
4148.21797163364
 21
5467.236742722015
 31
0.0
  0
LINE
  5
82BF
330
83BB
100
AcDbEntity
  8
3
 62
     0
100
AcDbLine
 10
1888.21797163364
 20
5775.981934815962
 30
0.0
 11
1888.21797163364
 21
5467.236742722015
 31
0.0
  0
LINE
  5
82C0
330
83BB
100
AcDbEntity
  8
3
 62
     0
100
AcDbLine
 10
4078.21797163364
 20
5502.236742722015
 30
0.0
 11
1958.217971633641
 21
5502.236742722015
 31
0.0
  0
INSERT
  5
82C1
330
83BB
100
AcDbEntity
  8
3
 62
     0
100
AcDbBlockReference
  2
_OPEN
 10
4148.21797163364
 20
5502.236742722015
 30
0.0
 41
70.0
 42
70.0
 43
70.0
  0
INSERT
  5
82C2
330
83BB
100
AcDbEntity
  8
3
 62
     0
100
AcDbBlockReference
  2
_OPEN
 10
1888.21797163364
 20
5502.236742722015
 30
0.0
 41
70.0
 42
70.0
 43
70.0
 50
180.0
  0
TEXT
  5
831D
330
83BB
100
AcDbEntity
  8
3
 62
     0
100
AcDbText
 10
2808.22
 20
5403.89
 30
0.0
 40
105.0
  1
2260
100
AcDbText
  0
POINT
  5
82C4
330
83BB
100
AcDbEntity
  8
DEFPOINTS
 62
     0
100
AcDbPoint
 10
4148.21797163364
 20
5793.481934815962
 30
0.0
  0
POINT
  5
82C5
330
83BB
100
AcDbEntity
  8
DEFPOINTS
 62
     0
100
AcDbPoint
 10
1888.21797163364
 20
5793.481934815962
 30
0.0
  0
POINT
  5
82C6
330
83BB
100
AcDbEntity
  8
DEFPOINTS
 62
     0
100
AcDbPoint
 10
1888.21797163364
 20
5502.236742722015
 30
0.0
  0
ENDBLK
  5
805A
330
83BB
100
AcDbEntity
  8
0
100
AcDbBlockEnd
  0
BLOCK
  5
83BE
330
83BD
100
AcDbEntity
  8
0
100
AcDbBlockBegin
  2
*D13
 70
     1
 10
0.0
 20
0.0
 30
0.0
  3
*D13
  1

  0
LINE
  5
82C7
330
83BD
100
AcDbEntity
  8
3
 62
     0
100
AcDbLine
 10
1870.717971633641
 20
7693.481934815962
 30
0.0
 11
1454.445716662589
 21
7693.481934815962
 31
0.0
  0
LINE
  5
82C8
330
83BD
100
AcDbEntity
  8
3
 62
     0
100
AcDbLine
 10
1870.717971633641
 20
5793.481934815962
 30
0.0
 11
1454.445716662589
 21
5793.481934815962
 31
0.0
  0
LINE
  5
82C9
330
83BD
100
AcDbEntity
  8
3
 62
     0
100
AcDbLine
 10
1489.445716662589
 20
7623.481934815962
 30
0.0
 11
1489.445716662588
 21
5863.481934815961
 31
0.0
  0
INSERT
  5
82CA
330
83BD
100
AcDbEntity
  8
3
 62
     0
100
AcDbBlockReference
  2
_OPEN
 10
1489.445716662589
 20
7693.481934815962
 30
0.0
 41
70.0
 42
70.0
 43
70.0
 50
90.0
  0
INSERT
  5
82CB
330
83BD
100
AcDbEntity
  8
3
 62
     0
100
AcDbBlockReference
  2
_OPEN
 10
1489.445716662588
 20
5793.481934815962
 30
0.0
 41
70.0
 42
70.0
 43
70.0
 50
270.0
  0
TEXT
  5
831E
330
83BD
100
AcDbEntity
  8
3
 62
     0
100
AcDbText
 10
1191.95
 20
6557.63
 30
0.0
 40
105.0
  1
1900
100
AcDbText
  0
POINT
  5
82CD
330
83BD
100
AcDbEntity
  8
DEFPOINTS
 62
     0
100
AcDbPoint
 10
1888.21797163364
 20
7693.481934815962
 30
0.0
  0
POINT
  5
82CE
330
83BD
100
AcDbEntity
  8
DEFPOINTS
 62
     0
100
AcDbPoint
 10
1888.21797163364
 20
5793.481934815962
 30
0.0
  0
POINT
  5
82CF
330
83BD
100
AcDbEntity
  8
DEFPOINTS
 62
     0
100
AcDbPoint
 10
1489.445716662588
 20
5793.481934815962
 30
0.0
  0
ENDBLK
  5
8023
330
83BD
100
AcDbEntity
  8
0
100
AcDbBlockEnd
  0
BLOCK
  5
83C0
330
83BF
100
AcDbEntity
  8
0
100
AcDbBlockBegin
  2
*D14
 70
     1
 10
0.0
 20
0.0
 30
0.0
  3
*D14
  1

  0
LINE
  5
82D0
330
83BF
100
AcDbEntity
  8
3
 62
     0
100
AcDbLine
 10
4148.21797163364
 20
6710.98193481596
 30
0.0
 11
4148.21797163364
 21
7902.489295287082
 31
0.0
  0
LINE
  5
82D1
330
83BF
100
AcDbEntity
  8
3
 62
     0
100
AcDbLine
 10
3208.217971633641
 20
7710.981934815961
 30
0.0
 11
3208.217971633641
 21
7902.489295287082
 31
0.0
  0
LINE
  5
82D2
330
83BF
100
AcDbEntity
  8
3
 62
     0
100
AcDbLine
 10
4078.21797163364
 20
7867.489295287082
 30
0.0
 11
3278.217971633641
 21
7867.489295287082
 31
0.0
  0
INSERT
  5
82D3
330
83BF
100
AcDbEntity
  8
3
 62
     0
100
AcDbBlockReference
  2
_OPEN
 10
4148.21797163364
 20
7867.489295287082
 30
0.0
 41
70.0
 42
70.0
 43
70.0
  0
INSERT
  5
82D4
330
83BF
100
AcDbEntity
  8
3
 62
     0
100
AcDbBlockReference
  2
_OPEN
 10
3208.217971633641
 20
7867.489295287082
 30
0.0
 41
70.0
 42
70.0
 43
70.0
 50
180.0
  0
TEXT
  5
831F
330
83BF
100
AcDbEntity
  8
3
 62
     0
100
AcDbText
 10
3468.22
 20
7769.14
 30
0.0
 40
105.0
  1
940
100
AcDbText
  0
POINT
  5
82D6
330
83BF
100
AcDbEntity
  8
DEFPOINTS
 62
     0
100
AcDbPoint
 10
4148.21797163364
 20
6693.481934815962
 30
0.0
  0
POINT
  5
82D7
330
83BF
100
AcDbEntity
  8
DEFPOINTS
 62
     0
100
AcDbPoint
 10
3208.217971633641
 20
7693.481934815962
 30
0.0
  0
POINT
  5
82D8
330
83BF
100
AcDbEntity
  8
DEFPOINTS
 62
     0
100
AcDbPoint
 10
3208.217971633641
 20
7867.489295287082
 30
0.0
  0
ENDBLK
  5
8039
330
83BF
100
AcDbEntity
  8
0
100
AcDbBlockEnd
  0
BLOCK
  5
83C2
330
83C1
100
AcDbEntity
  8
0
100
AcDbBlockBegin
  2
*D15
 70
     1
 10
0.0
 20
0.0
 30
0.0
  3
*D15
  1

  0
LINE
  5
82D9
330
83C1
100
AcDbEntity
  8
3
 62
     0
100
AcDbLine
 10
1788.21797163364
 20
3813.31920139184
 30
0.0
 11
1788.21797163364
 21
5107.874531832273
 31
0.0
  0
LINE
  5
82DA
330
83C1
100
AcDbEntity
  8
3
 62
     0
100
AcDbLine
 10
4148.21797163364
 20
2602.367032643556
 30
0.0
 11
4148.21797163364
 21
5107.874531832273
 31
0.0
  0
LINE
  5
82DB
330
83C1
100
AcDbEntity
  8
3
 62
     0
100
AcDbLine
 10
1858.217971633641
 20
5072.874531832272
 30
0.0
 11
4078.21797163364
 21
5072.874531832272
 31
0.0
  0
INSERT
  5
82DC
330
83C1
100
AcDbEntity
  8
3
 62
     0
100
AcDbBlockReference
  2
_OPEN
 10
1788.21797163364
 20
5072.874531832272
 30
0.0
 41
70.0
 42
70.0
 43
70.0
 50
180.0
  0
INSERT
  5
82DD
330
83C1
100
AcDbEntity
  8
3
 62
     0
100
AcDbBlockReference
  2
_OPEN
 10
4148.21797163364
 20
5072.874531832272
 30
0.0
 41
70.0
 42
70.0
 43
70.0
  0
TEXT
  5
8320
330
83C1
100
AcDbEntity
  8
3
 62
     0
100
AcDbText
 10
2758.22
 20
4974.52
 30
0.0
 40
105.0
  1
2360
100
AcDbText
  0
POINT
  5
82DF
330
83C1
100
AcDbEntity
  8
DEFPOINTS
 62
     0
100
AcDbPoint
 10
1788.21797163364
 20
3795.819201391839
 30
0.0
  0
POINT
  5
82E0
330
83C1
100
AcDbEntity
  8
DEFPOINTS
 62
     0
100
AcDbPoint
 10
4148.21797163364
 20
2584.867032643556
 30
0.0
  0
POINT
  5
82E1
330
83C1
100
AcDbEntity
  8
DEFPOINTS
 62
     0
100
AcDbPoint
 10
4148.21797163364
 20
5072.874531832272
 30
0.0
  0
ENDBLK
  5
804F
330
83C1
100
AcDbEntity
  8
0
100
AcDbBlockEnd
  0
BLOCK
  5
83C4
330
83C3
100
AcDbEntity
  8
0
100
AcDbBlockBegin
  2
*D16
 70
     1
 10
0.0
 20
0.0
 30
0.0
  3
*D16
  1

  0
LINE
  5
82E2
330
83C3
100
AcDbEntity
  8
3
 62
     0
100
AcDbLine
 10
2612.717971633641
 20
4619.867032643557
 30
0.0
 11
1149.008057762066
 21
4619.867032643557
 31
0.0
  0
LINE
  5
82E3
330
83C3
100
AcDbEntity
  8
3
 62
     0
100
AcDbLine
 10
1654.878970734908
 20
3814.867032643557
 30
0.0
 11
1149.008057762066
 21
3814.867032643557
 31
0.0
  0
LINE
  5
82E4
330
83C3
100
AcDbEntity
  8
3
 62
     0
100
AcDbLine
 10
1184.008057762066
 20
4549.867032643557
 30
0.0
 11
1184.008057762066
 21
3884.867032643557
 31
0.0
  0
INSERT
  5
82E5
330
83C3
100
AcDbEntity
  8
3
 62
     0
100
AcDbBlockReference
  2
_OPEN
 10
1184.008057762066
 20
4619.867032643557
 30
0.0
 41
70.0
 42
70.0
 43
70.0
 50
90.0
  0
INSERT
  5
82E6
330
83C3
100
AcDbEntity
  8
3
 62
     0
100
AcDbBlockReference
  2
_OPEN
 10
1184.008057762066
 20
3814.867032643557
 30
0.0
 41
70.0
 42
70.0
 43
70.0
 50
270.0
  0
TEXT
  5
8321
330
83C3
100
AcDbEntity
  8
3
 62
     0
100
AcDbText
 10
886.508
 20
4031.519999999999
 30
0.0
 40
105.0
  1
805
100
AcDbText
  0
POINT
  5
82E8
330
83C3
100
AcDbEntity
  8
DEFPOINTS
 62
     0
100
AcDbPoint
 10
2630.217971633641
 20
4619.867032643557
 30
0.0
  0
POINT
  5
82E9
330
83C3
100
AcDbEntity
  8
DEFPOINTS
 62
     0
100
AcDbPoint
 10
1672.378970734906
 20
3814.867032643557
 30
0.0
  0
POINT
  5
82EA
330
83C3
100
AcDbEntity
  8
DEFPOINTS
 62
     0
100
AcDbPoint
 10
1184.008057762066
 20
3814.867032643557
 30
0.0
  0
ENDBLK
  5
8002
330
83C3
100
AcDbEntity
  8
0
100
AcDbBlockEnd
  0
BLOCK
  5
83C6
330
83C5
100
AcDbEntity
  8
0
100
AcDbBlockBegin
  2
*D17
 70
     1
 10
0.0
 20
0.0
 30
0.0
  3
*D17
  1

  0
LINE
  5
82EB
330
83C5
100
AcDbEntity
  8
3
 62
     0
100
AcDbLine
 10
1654.878970734908
 20
3814.867032643557
 30
0.0
 11
1149.008057762067
 21
3814.867032643557
 31
0.0
  0
LINE
  5
82EC
330
83C5
100
AcDbEntity
  8
3
 62
     0
100
AcDbLine
 10
1870.717971633641
 20
2459.867032643556
 30
0.0
 11
1149.008057762066
 21
2459.867032643556
 31
0.0
  0
LINE
  5
82ED
330
83C5
100
AcDbEntity
  8
3
 62
     0
100
AcDbLine
 10
1184.008057762067
 20
3744.867032643556
 30
0.0
 11
1184.008057762066
 21
2529.867032643557
 31
0.0
  0
INSERT
  5
82EE
330
83C5
100
AcDbEntity
  8
3
 62
     0
100
AcDbBlockReference
  2
_OPEN
 10
1184.008057762067
 20
3814.867032643557
 30
0.0
 41
70.0
 42
70.0
 43
70.0
 50
90.0
  0
INSERT
  5
82EF
330
83C5
100
AcDbEntity
  8
3
 62
     0
100
AcDbBlockReference
  2
_OPEN
 10
1184.008057762066
 20
2459.867032643556
 30
0.0
 41
70.0
 42
70.0
 43
70.0
 50
270.0
  0
TEXT
  5
8322
330
83C5
100
AcDbEntity
  8
3
 62
     0
100
AcDbText
 10
886.508
 20
2951.52
 30
0.0
 40
105.0
  1
1355
100
AcDbText
  0
POINT
  5
82F1
330
83C5
100
AcDbEntity
  8
DEFPOINTS
 62
     0
100
AcDbPoint
 10
1672.378970734906
 20
3814.867032643557
 30
0.0
  0
POINT
  5
82F2
330
83C5
100
AcDbEntity
  8
DEFPOINTS
 62
     0
100
AcDbPoint
 10
1888.21797163364
 20
2459.867032643556
 30
0.0
  0
POINT
  5
82F3
330
83C5
100
AcDbEntity
  8
DEFPOINTS
 62
     0
100
AcDbPoint
 10
1184.008057762066
 20
2459.867032643556
 30
0.0
  0
ENDBLK
  5
7FEC
330
83C5
100
AcDbEntity
  8
0
100
AcDbBlockEnd
  0
BLOCK
  5
83C8
330
83C7
100
AcDbEntity
  8
0
100
AcDbBlockBegin
  2
*D18
 70
     1
 10
0.0
 20
0.0
 30
0.0
  3
*D18
  1

  0
LINE
  5
82F4
330
83C7
100
AcDbEntity
  8
3
 62
     0
100
AcDbLine
 10
1870.717971633641
 20
2439.867032643556
 30
0.0
 11
1149.008057762066
 21
2439.867032643556
 31
0.0
  0
LINE
  5
82F5
330
83C7
100
AcDbEntity
  8
3
 62
     0
100
AcDbLine
 10
1870.717971633641
 20
2374.867032643556
 30
0.0
 11
1149.008057762066
 21
2374.867032643556
 31
0.0
  0
LINE
  5
82F6
330
83C7
100
AcDbEntity
  8
3
 62
     0
100
AcDbLine
 10
1184.008057762066
 20
2509.867032643557
 30
0.0
 11
1184.008057762066
 21
2579.867032643557
 31
0.0
  0
LINE
  5
82F7
330
83C7
100
AcDbEntity
  8
3
 62
     0
100
AcDbLine
 10
1184.008057762066
 20
2304.867032643556
 30
0.0
 11
1184.008057762066
 21
1994.867032643557
 31
0.0
  0
LINE
  5
82F8
330
83C7
100
AcDbEntity
  8
3
 62
     0
100
AcDbLine
 10
1184.008057762066
 20
2439.867032643556
 30
0.0
 11
1184.008057762066
 21
2374.867032643556
 31
0.0
  0
INSERT
  5
82F9
330
83C7
100
AcDbEntity
  8
3
 62
     0
100
AcDbBlockReference
  2
_DOT
 10
1184.008057762066
 20
2439.867032643556
 30
0.0
 41
70.0
 42
70.0
 43
70.0
 50
270.0
  0
INSERT
  5
82FA
330
83C7
100
AcDbEntity
  8
3
 62
     0
100
AcDbBlockReference
  2
_OPEN
 10
1184.008057762066
 20
2374.867032643556
 30
0.0
 41
70.0
 42
70.0
 43
70.0
 50
90.0
  0
TEXT
  5
8323
330
83C7
100
AcDbEntity
  8
3
 62
     0
100
AcDbText
 10
886.508
 20
1929.02
 30
0.0
 40
105.0
  1
65
100
AcDbText
  0
POINT
  5
82FC
330
83C7
100
AcDbEntity
  8
DEFPOINTS
 62
     0
100
AcDbPoint
 10
1888.21797163364
 20
2439.867032643556
 30
0.0
  0
POINT
  5
82FD
330
83C7
100
AcDbEntity
  8
DEFPOINTS
 62
     0
100
AcDbPoint
 10
1888.21797163364
 20
2374.867032643556
 30
0.0
  0
POINT
  5
82FE
330
83C7
100
AcDbEntity
  8
DEFPOINTS
 62
     0
100
AcDbPoint
 10
1184.008057762066
 20
2374.867032643556
 30
0.0
  0
ENDBLK
  5
80C6
330
83C7
100
AcDbEntity
  8
0
100
AcDbBlockEnd
  0
BLOCK
  5
83CE
330
83C9
100
AcDbEntity
  8
0
100
AcDbBlockBegin
  2
_DOT
 70
     0
 10
0.0
 20
0.0
 30
0.0
  3
_DOT
  1

  0
LWPOLYLINE
  5
80CA
330
83C9
100
AcDbEntity
  8
0
  6
ByBlock
 62
     0
100
AcDbPolyline
 90
        2
 70
     1
 43
0.25
 10
-0.125
 20
0.0
 42
1.0
 10
0.125
 20
0.0
 42
1.0
  0
LINE
  5
80CE
330
83C9
100
AcDbEntity
  8
0
  6
ByBlock
 62
     0
100
AcDbLine
 10
-0.25
 20
0.0
 30
0.0
 11
-1.0
 21
0.0
 31
0.0
  0
ENDBLK
  5
80AC
330
83C9
100
AcDbEntity
  8
0
100
AcDbBlockEnd
  0
BLOCK
  5
83CB
330
83CA
100
AcDbEntity
  8
0
100
AcDbBlockBegin
  2
*D20
 70
     1
 10
0.0
 20
0.0
 30
0.0
  3
*D20
  1

  0
LINE
  5
82FF
330
83CA
100
AcDbEntity
  8
3
 62
     0
100
AcDbLine
 10
1788.21797163364
 20
3837.367032643556
 30
0.0
 11
1788.21797163364
 21
4880.294362889877
 31
0.0
  0
LINE
  5
8300
330
83CA
100
AcDbEntity
  8
3
 62
     0
100
AcDbLine
 10
2548.217971633641
 20
4698.435226323957
 30
0.0
 11
2548.217971633641
 21
4880.294362889877
 31
0.0
  0
LINE
  5
8301
330
83CA
100
AcDbEntity
  8
3
 62
     0
100
AcDbLine
 10
1858.217971633641
 20
4845.294362889877
 30
0.0
 11
2478.217971633641
 21
4845.294362889877
 31
0.0
  0
INSERT
  5
8302
330
83CA
100
AcDbEntity
  8
3
 62
     0
100
AcDbBlockReference
  2
_OPEN
 10
1788.21797163364
 20
4845.294362889877
 30
0.0
 41
70.0
 42
70.0
 43
70.0
 50
180.0
  0
INSERT
  5
8303
330
83CA
100
AcDbEntity
  8
3
 62
     0
100
AcDbBlockReference
  2
_OPEN
 10
2548.217971633641
 20
4845.294362889877
 30
0.0
 41
70.0
 42
70.0
 43
70.0
  0
TEXT
  5
8324
330
83CA
100
AcDbEntity
  8
3
 62
     0
100
AcDbText
 10
1958.22
 20
4746.94
 30
0.0
 40
105.0
  1
760
100
AcDbText
  0
POINT
  5
8305
330
83CA
100
AcDbEntity
  8
DEFPOINTS
 62
     0
100
AcDbPoint
 10
1788.21797163364
 20
3819.867032643557
 30
0.0
  0
POINT
  5
8306
330
83CA
100
AcDbEntity
  8
DEFPOINTS
 62
     0
100
AcDbPoint
 10
2548.217971633641
 20
4680.935226323958
 30
0.0
  0
POINT
  5
8307
330
83CA
100
AcDbEntity
  8
DEFPOINTS
 62
     0
100
AcDbPoint
 10
2548.217971633641
 20
4845.294362889877
 30
0.0
  0
ENDBLK
  5
8070
330
83CA
100
AcDbEntity
  8
0
100
AcDbBlockEnd
  0
BLOCK
  5
83CD
330
83CC
100
AcDbEntity
  8
0
100
AcDbBlockBegin
  2
*D21
 70
     1
 10
0.0
 20
0.0
 30
0.0
  3
*D21
  1

  0
LINE
  5
8308
330
83CC
100
AcDbEntity
  8
3
 62
     0
100
AcDbLine
 10
2548.217971633641
 20
4698.435226323957
 30
0.0
 11
2548.217971633641
 21
4880.294362889877
 31
0.0
  0
LINE
  5
8309
330
83CC
100
AcDbEntity
  8
3
 62
     0
100
AcDbLine
 10
3517.217971633641
 20
3750.367032643556
 30
0.0
 11
3517.217971633641
 21
4880.294362889877
 31
0.0
  0
LINE
  5
830A
330
83CC
100
AcDbEntity
  8
3
 62
     0
100
AcDbLine
 10
2618.217971633641
 20
4845.294362889877
 30
0.0
 11
3447.217971633641
 21
4845.294362889877
 31
0.0
  0
INSERT
  5
830B
330
83CC
100
AcDbEntity
  8
3
 62
     0
100
AcDbBlockReference
  2
_OPEN
 10
2548.217971633641
 20
4845.294362889877
 30
0.0
 41
70.0
 42
70.0
 43
70.0
 50
180.0
  0
INSERT
  5
830C
330
83CC
100
AcDbEntity
  8
3
 62
     0
100
AcDbBlockReference
  2
_OPEN
 10
3517.217971633641
 20
4845.294362889877
 30
0.0
 41
70.0
 42
70.0
 43
70.0
  0
TEXT
  5
8325
330
83CC
100
AcDbEntity
  8
3
 62
     0
100
AcDbText
 10
2822.72
 20
4746.94
 30
0.0
 40
105.0
  1
969
100
AcDbText
  0
POINT
  5
830E
330
83CC
100
AcDbEntity
  8
DEFPOINTS
 62
     0
100
AcDbPoint
 10
2548.217971633641
 20
4680.935226323958
 30
0.0
  0
POINT
  5
830F
330
83CC
100
AcDbEntity
  8
DEFPOINTS
 62
     0
100
AcDbPoint
 10
3517.217971633641
 20
3732.867032643557
 30
0.0
  0
POINT
  5
8310
330
83CC
100
AcDbEntity
  8
DEFPOINTS
 62
     0
100
AcDbPoint
 10
3517.217971633641
 20
4845.294362889877
 30
0.0
  0
ENDBLK
  5
8065
330
83CC
100
AcDbEntity
  8
0
100
AcDbBlockEnd
  0
BLOCK
  5
83D0
330
83CF
100
AcDbEntity
  8
0
100
AcDbBlockBegin
  2
*D22
 70
     1
 10
0.0
 20
0.0
 30
0.0
  3
*D22
  1

  0
LINE
  5
8127
330
83CF
100
AcDbEntity
  8
0
  6
ByBlock
 62
     0
100
AcDbLine
 10
1888.21797163364
 20
2357.367032643556
 30
0.0
 11
1888.21797163364
 21
2116.406442439318
 31
0.0
  0
LINE
  5
8128
330
83CF
100
AcDbEntity
  8
0
  6
ByBlock
 62
     0
100
AcDbLine
 10
2548.217971633641
 20
2357.367032643557
 30
0.0
 11
2548.217971633641
 21
2116.406442439318
 31
0.0
  0
LINE
  5
8129
330
83CF
100
AcDbEntity
  8
0
  6
ByBlock
 62
     0
100
AcDbLine
 10
1958.217971633641
 20
2151.406442439319
 30
0.0
 11
2478.21797163364
 21
2151.406442439319
 31
0.0
  0
INSERT
  5
812A
330
83CF
100
AcDbEntity
  8
0
  6
ByBlock
 62
     0
100
AcDbBlockReference
  2
_OPEN
 10
1888.21797163364
 20
2151.406442439319
 30
0.0
 41
70.0
 42
70.0
 43
70.0
 50
180.0
  0
INSERT
  5
812B
330
83CF
100
AcDbEntity
  8
0
  6
ByBlock
 62
     0
100
AcDbBlockReference
  2
_OPEN
 10
2548.217971633641
 20
2151.406442439319
 30
0.0
 41
70.0
 42
70.0
 43
70.0
  0
TEXT
  5
812C
330
83CF
100
AcDbEntity
  8
3
 62
     0
100
AcDbText
 10
2083.217971633641
 20
2186.406442439319
 30
0.0
 40
105.0
  1
660
100
AcDbText
  0
POINT
  5
812D
330
83CF
100
AcDbEntity
  8
DEFPOINTS
  6
ByBlock
 62
     0
100
AcDbPoint
 10
1888.21797163364
 20
2374.867032643556
 30
0.0
  0
POINT
  5
812E
330
83CF
100
AcDbEntity
  8
DEFPOINTS
  6
ByBlock
 62
     0
100
AcDbPoint
 10
2548.217971633641
 20
2374.867032643557
 30
0.0
  0
POINT
  5
812F
330
83CF
100
AcDbEntity
  8
DEFPOINTS
  6
ByBlock
 62
     0
100
AcDbPoint
 10
2548.217971633641
 20
2151.406442439319
 30
0.0
  0
ENDBLK
  5
8130
330
83CF
100
AcDbEntity
  8
0
100
AcDbBlockEnd
  0
BLOCK
  5
83D2
330
83D1
100
AcDbEntity
  8
0
100
AcDbBlockBegin
  2
*D23
 70
     1
 10
0.0
 20
0.0
 30
0.0
  3
*D23
  1

  0
LINE
  5
8134
330
83D1
100
AcDbEntity
  8
0
  6
ByBlock
 62
     0
100
AcDbLine
 10
2548.217971633641
 20
2357.367032643557
 30
0.0
 11
2548.217971633641
 21
2116.406442439318
 31
0.0
  0
LINE
  5
8135
330
83D1
100
AcDbEntity
  8
0
  6
ByBlock
 62
     0
100
AcDbLine
 10
4148.21797163364
 20
2357.367032643556
 30
0.0
 11
4148.21797163364
 21
2116.406442439318
 31
0.0
  0
LINE
  5
8136
330
83D1
100
AcDbEntity
  8
0
  6
ByBlock
 62
     0
100
AcDbLine
 10
2618.217971633641
 20
2151.406442439319
 30
0.0
 11
4078.21797163364
 21
2151.406442439319
 31
0.0
  0
INSERT
  5
8137
330
83D1
100
AcDbEntity
  8
0
  6
ByBlock
 62
     0
100
AcDbBlockReference
  2
_OPEN
 10
2548.217971633641
 20
2151.406442439319
 30
0.0
 41
70.0
 42
70.0
 43
70.0
 50
180.0
  0
INSERT
  5
8138
330
83D1
100
AcDbEntity
  8
0
  6
ByBlock
 62
     0
100
AcDbBlockReference
  2
_OPEN
 10
4148.21797163364
 20
2151.406442439319
 30
0.0
 41
70.0
 42
70.0
 43
70.0
  0
TEXT
  5
8139
330
83D1
100
AcDbEntity
  8
3
 62
     0
100
AcDbText
 10
3173.21797163364
 20
2186.406442439319
 30
0.0
 40
105.0
  1
1600
100
AcDbText
  0
POINT
  5
813A
330
83D1
100
AcDbEntity
  8
DEFPOINTS
  6
ByBlock
 62
     0
100
AcDbPoint
 10
2548.217971633641
 20
2374.867032643557
 30
0.0
  0
POINT
  5
813B
330
83D1
100
AcDbEntity
  8
DEFPOINTS
  6
ByBlock
 62
     0
100
AcDbPoint
 10
4148.21797163364
 20
2374.867032643556
 30
0.0
  0
POINT
  5
813C
330
83D1
100
AcDbEntity
  8
DEFPOINTS
  6
ByBlock
 62
     0
100
AcDbPoint
 10
4148.21797163364
 20
2151.406442439319
 30
0.0
  0
ENDBLK
  5
813D
330
83D1
100
AcDbEntity
  8
0
100
AcDbBlockEnd
  0
BLOCK
  5
83D4
330
83D3
100
AcDbEntity
  8
0
100
AcDbBlockBegin
  2
*D24
 70
     1
 10
0.0
 20
0.0
 30
0.0
  3
*D24
  1

  0
LINE
  5
8141
330
83D3
100
AcDbEntity
  8
0
  6
ByBlock
 62
     0
100
AcDbLine
 10
4555.40040080414
 20
2357.367032643556
 30
0.0
 11
4555.40040080414
 21
2116.406442439318
 31
0.0
  0
LINE
  5
8142
330
83D3
100
AcDbEntity
  8
0
  6
ByBlock
 62
     0
100
AcDbLine
 10
5637.400400804152
 20
2357.367032643556
 30
0.0
 11
5637.400400804152
 21
2116.406442439318
 31
0.0
  0
LINE
  5
8143
330
83D3
100
AcDbEntity
  8
0
  6
ByBlock
 62
     0
100
AcDbLine
 10
4625.40040080414
 20
2151.406442439319
 30
0.0
 11
5567.400400804152
 21
2151.406442439319
 31
0.0
  0
INSERT
  5
8144
330
83D3
100
AcDbEntity
  8
0
  6
ByBlock
 62
     0
100
AcDbBlockReference
  2
_OPEN
 10
4555.40040080414
 20
2151.406442439319
 30
0.0
 41
70.0
 42
70.0
 43
70.0
 50
180.0
  0
INSERT
  5
8145
330
83D3
100
AcDbEntity
  8
0
  6
ByBlock
 62
     0
100
AcDbBlockReference
  2
_OPEN
 10
5637.400400804152
 20
2151.406442439319
 30
0.0
 41
70.0
 42
70.0
 43
70.0
  0
TEXT
  5
8146
330
83D3
100
AcDbEntity
  8
3
 62
     0
100
AcDbText
 10
4921.400400804146
 20
2186.406442439319
 30
0.0
 40
105.0
  1
1082
100
AcDbText
  0
POINT
  5
8147
330
83D3
100
AcDbEntity
  8
DEFPOINTS
  6
ByBlock
 62
     0
100
AcDbPoint
 10
4555.40040080414
 20
2374.867032643556
 30
0.0
  0
POINT
  5
8148
330
83D3
100
AcDbEntity
  8
DEFPOINTS
  6
ByBlock
 62
     0
100
AcDbPoint
 10
5637.400400804152
 20
2374.867032643556
 30
0.0
  0
POINT
  5
8149
330
83D3
100
AcDbEntity
  8
DEFPOINTS
  6
ByBlock
 62
     0
100
AcDbPoint
 10
5637.400400804152
 20
2151.406442439319
 30
0.0
  0
ENDBLK
  5
814A
330
83D3
100
AcDbEntity
  8
0
100
AcDbBlockEnd
  0
BLOCK
  5
83D6
330
83D5
100
AcDbEntity
  8
0
100
AcDbBlockBegin
  2
*D25
 70
     1
 10
0.0
 20
0.0
 30
0.0
  3
*D25
  1

  0
LINE
  5
814E
330
83D5
100
AcDbEntity
  8
0
  6
ByBlock
 62
     0
100
AcDbLine
 10
5637.400400804152
 20
2357.367032643556
 30
0.0
 11
5637.400400804152
 21
2116.406442439318
 31
0.0
  0
LINE
  5
814F
330
83D5
100
AcDbEntity
  8
0
  6
ByBlock
 62
     0
100
AcDbLine
 10
6455.400400804132
 20
2357.367032643556
 30
0.0
 11
6455.400400804132
 21
2116.406442439318
 31
0.0
  0
LINE
  5
8150
330
83D5
100
AcDbEntity
  8
0
  6
ByBlock
 62
     0
100
AcDbLine
 10
5707.400400804152
 20
2151.406442439319
 30
0.0
 11
6385.400400804131
 21
2151.406442439319
 31
0.0
  0
INSERT
  5
8151
330
83D5
100
AcDbEntity
  8
0
  6
ByBlock
 62
     0
100
AcDbBlockReference
  2
_OPEN
 10
5637.400400804152
 20
2151.406442439319
 30
0.0
 41
70.0
 42
70.0
 43
70.0
 50
180.0
  0
INSERT
  5
8152
330
83D5
100
AcDbEntity
  8
0
  6
ByBlock
 62
     0
100
AcDbBlockReference
  2
_OPEN
 10
6455.400400804132
 20
2151.406442439319
 30
0.0
 41
70.0
 42
70.0
 43
70.0
  0
TEXT
  5
8153
330
83D5
100
AcDbEntity
  8
3
 62
     0
100
AcDbText
 10
5921.400400804142
 20
2186.406442439319
 30
0.0
 40
105.0
  1
818
100
AcDbText
  0
POINT
  5
8154
330
83D5
100
AcDbEntity
  8
DEFPOINTS
  6
ByBlock
 62
     0
100
AcDbPoint
 10
5637.400400804152
 20
2374.867032643556
 30
0.0
  0
POINT
  5
8155
330
83D5
100
AcDbEntity
  8
DEFPOINTS
  6
ByBlock
 62
     0
100
AcDbPoint
 10
6455.400400804132
 20
2374.867032643556
 30
0.0
  0
POINT
  5
8156
330
83D5
100
AcDbEntity
  8
DEFPOINTS
  6
ByBlock
 62
     0
100
AcDbPoint
 10
6455.400400804132
 20
2151.406442439319
 30
0.0
  0
ENDBLK
  5
8157
330
83D5
100
AcDbEntity
  8
0
100
AcDbBlockEnd
  0
BLOCK
  5
83D8
330
83D7
100
AcDbEntity
  8
0
100
AcDbBlockBegin
  2
_NONE
 70
     0
 10
0.0
 20
0.0
 30
0.0
  3
_NONE
  1

  0
CIRCLE
  5
815B
330
83D7
100
AcDbEntity
  8
0
  6
ByBlock
 62
     0
100
AcDbCircle
 10
0.0
 20
0.0
 30
0.0
 40
0.25
  0
ENDBLK
  5
815C
330
83D7
100
AcDbEntity
  8
0
100
AcDbBlockEnd
  0
BLOCK
  5
83DA
330
83D9
100
AcDbEntity
  8
0
100
AcDbBlockBegin
  2
*D27
 70
     1
 10
0.0
 20
0.0
 30
0.0
  3
*D27
  1

  0
LINE
  5
8188
330
83D9
100
AcDbEntity
  8
0
  6
ByBlock
 62
     0
100
AcDbLine
 10
1186.268051975566
 20
2439.867032643556
 30
0.0
 11
1186.268051975566
 21
2439.867032643556
 31
0.0
  0
LINE
  5
8189
330
83D9
100
AcDbEntity
  8
0
  6
ByBlock
 62
     0
100
AcDbLine
 10
1186.268051975566
 20
2459.867032643556
 30
0.0
 11
1186.268051975566
 21
2599.867032643556
 31
0.0
  0
TEXT
  5
818A
330
83D9
100
AcDbEntity
  8
3
 62
     0
100
AcDbText
 10
1053.768051975566
 20
2202.867032643556
 30
0.0
 40
105.0
  1
   (20)
 50
90.0
100
AcDbText
  0
LINE
  5
818B
330
83D9
100
AcDbEntity
  8
0
  6
ByBlock
 62
     0
100
AcDbLine
 10
1186.268051975566
 20
2439.867032643556
 30
0.0
 11
1186.268051975566
 21
2459.867032643556
 31
0.0
  0
POINT
  5
818C
330
83D9
100
AcDbEntity
  8
DEFPOINTS
  6
ByBlock
 62
     0
100
AcDbPoint
 10
1888.21797163364
 20
2439.867032643556
 30
0.0
  0
POINT
  5
818D
330
83D9
100
AcDbEntity
  8
DEFPOINTS
  6
ByBlock
 62
     0
100
AcDbPoint
 10
1888.21797163364
 20
2459.867032643556
 30
0.0
  0
POINT
  5
818E
330
83D9
100
AcDbEntity
  8
DEFPOINTS
  6
ByBlock
 62
     0
100
AcDbPoint
 10
1186.268051975566
 20
2459.867032643556
 30
0.0
  0
ENDBLK
  5
818F
330
83D9
100
AcDbEntity
  8
0
100
AcDbBlockEnd
  0
BLOCK
  5
83DC
330
83DB
100
AcDbEntity
  8
0
100
AcDbBlockBegin
  2
*D28
 70
     1
 10
0.0
 20
0.0
 30
0.0
  3
*D28
  1

  0
LINE
  5
816A
330
83DB
100
AcDbEntity
  8
0
  6
ByBlock
 62
     0
100
AcDbLine
 10
1870.717971633641
 20
2374.867032643556
 30
0.0
 11
836.4073388542456
 21
2374.867032643556
 31
0.0
  0
LINE
  5
816B
330
83DB
100
AcDbEntity
  8
0
  6
ByBlock
 62
     0
100
AcDbLine
 10
2595.217971633641
 20
4619.867032643557
 30
0.0
 11
836.4073388542456
 21
4619.867032643557
 31
0.0
  0
LINE
  5
816C
330
83DB
100
AcDbEntity
  8
0
  6
ByBlock
 62
     0
100
AcDbLine
 10
871.4073388542455
 20
2444.867032643557
 30
0.0
 11
871.4073388542455
 21
4549.867032643557
 31
0.0
  0
INSERT
  5
816D
330
83DB
100
AcDbEntity
  8
0
  6
ByBlock
 62
     0
100
AcDbBlockReference
  2
_OPEN
 10
871.4073388542455
 20
2374.867032643556
 30
0.0
 41
70.0
 42
70.0
 43
70.0
 50
270.0
  0
INSERT
  5
816E
330
83DB
100
AcDbEntity
  8
0
  6
ByBlock
 62
     0
100
AcDbBlockReference
  2
_OPEN
 10
871.4073388542455
 20
4619.867032643557
 30
0.0
 41
70.0
 42
70.0
 43
70.0
 50
90.0
  0
TEXT
  5
816F
330
83DB
100
AcDbEntity
  8
3
 62
     0
100
AcDbText
 10
791.4073388542456
 20
3244.867032643556
 30
0.0
 40
105.0
  1
(2245)
 50
90.0
100
AcDbText
  0
POINT
  5
8170
330
83DB
100
AcDbEntity
  8
DEFPOINTS
  6
ByBlock
 62
     0
100
AcDbPoint
 10
1888.21797163364
 20
2374.867032643556
 30
0.0
  0
POINT
  5
8171
330
83DB
100
AcDbEntity
  8
DEFPOINTS
  6
ByBlock
 62
     0
100
AcDbPoint
 10
2612.717971633641
 20
4619.867032643557
 30
0.0
  0
POINT
  5
8172
330
83DB
100
AcDbEntity
  8
DEFPOINTS
  6
ByBlock
 62
     0
100
AcDbPoint
 10
871.4073388542455
 20
4619.867032643557
 30
0.0
  0
ENDBLK
  5
8173
330
83DB
100
AcDbEntity
  8
0
100
AcDbBlockEnd
  0
BLOCK
  5
83E7
330
83E6
100
AcDbEntity
  8
0
100
AcDbBlockBegin
  2
*D29
 70
     1
 10
0.0
 20
0.0
 30
0.0
  3
*D29
  1

  0
LINE
  5
83E9
330
83E6
100
AcDbEntity
  8
3
 62
     0
370
    -2
100
AcDbLine
 10
6404.900400804152
 20
4374.867032643556
 30
0.0
 11
6854.872920392473
 21
4374.867032643556
 31
0.0
  0
LINE
  5
83EA
330
83E6
100
AcDbEntity
  8
3
 62
     0
370
    -2
100
AcDbLine
 10
6404.900400804152
 20
3254.867032643557
 30
0.0
 11
6854.872920392473
 21
3254.867032643557
 31
0.0
  0
LINE
  5
83EB
330
83E6
100
AcDbEntity
  8
3
 62
     0
370
    -2
100
AcDbLine
 10
6819.872920392474
 20
4304.867032643556
 30
0.0
 11
6819.872920392474
 21
3324.867032643557
 31
0.0
  0
INSERT
  5
83EC
330
83E6
100
AcDbEntity
  8
3
 62
     0
370
    -2
100
AcDbBlockReference
  2
_OPEN
 10
6819.872920392474
 20
4374.867032643556
 30
0.0
 41
70.0
 42
70.0
 43
70.0
 50
90.0
  0
INSERT
  5
83ED
330
83E6
100
AcDbEntity
  8
3
 62
     0
370
    -2
100
AcDbBlockReference
  2
_OPEN
 10
6819.872920392474
 20
3254.867032643557
 30
0.0
 41
70.0
 42
70.0
 43
70.0
 50
270.0
  0
MTEXT
  5
83EE
330
83E6
100
AcDbEntity
  8
3
 62
     0
100
AcDbMText
 10
6732.372920392473
 20
3814.867032643558
 30
0.0
 40
105.0
 41
0.0
 71
     5
 72
     1
  1
\A1;1120
 11
0.0000000000000001
 21
1.0
 31
0.0
 73
     1
 44
1.0
1001
ACAD
1000
MTEXTBEGIN
1070
    73
1070
     1
1070
    44
1040
1.0
1070
    74
1070
     0
1000
MTEXTEND
  0
POINT
  5
83EF
330
83E6
100
AcDbEntity
  8
DEFPOINTS
 62
     0
100
AcDbPoint
 10
6387.400400804152
 20
4374.867032643556
 30
0.0
  0
POINT
  5
83F0
330
83E6
100
AcDbEntity
  8
DEFPOINTS
 62
     0
100
AcDbPoint
 10
6387.400400804152
 20
3254.867032643557
 30
0.0
  0
POINT
  5
83F1
330
83E6
100
AcDbEntity
  8
DEFPOINTS
 62
     0
100
AcDbPoint
 10
6819.872920392474
 20
3254.867032643557
 30
0.0
  0
ENDBLK
  5
83E8
330
83E6
100
AcDbEntity
  8
0
100
AcDbBlockEnd
  0
BLOCK
  5
83F4
330
83F3
100
AcDbEntity
  8
0
100
AcDbBlockBegin
  2
*D30
 70
     1
 10
0.0
 20
0.0
 30
0.0
  3
*D30
  1

  0
LINE
  5
83F6
330
83F3
100
AcDbEntity
  8
3
 62
     0
370
    -2
100
AcDbLine
 10
4887.400400804152
 20
4637.367032643556
 30
0.0
 11
4887.400400804152
 21
4908.306671695953
 31
0.0
  0
LINE
  5
83F7
330
83F3
100
AcDbEntity
  8
3
 62
     0
370
    -2
100
AcDbLine
 10
6387.400400804152
 20
4637.367032643556
 30
0.0
 11
6387.400400804152
 21
4908.306671695953
 31
0.0
  0
LINE
  5
83F8
330
83F3
100
AcDbEntity
  8
3
 62
     0
370
    -2
100
AcDbLine
 10
4957.400400804152
 20
4873.306671695954
 30
0.0
 11
6317.400400804152
 21
4873.306671695954
 31
0.0
  0
INSERT
  5
83F9
330
83F3
100
AcDbEntity
  8
3
 62
     0
370
    -2
100
AcDbBlockReference
  2
_OPEN
 10
4887.400400804152
 20
4873.306671695954
 30
0.0
 41
70.0
 42
70.0
 43
70.0
 50
180.0
  0
INSERT
  5
83FA
330
83F3
100
AcDbEntity
  8
3
 62
     0
370
    -2
100
AcDbBlockReference
  2
_OPEN
 10
6387.400400804152
 20
4873.306671695954
 30
0.0
 41
70.0
 42
70.0
 43
70.0
  0
MTEXT
  5
83FB
330
83F3
100
AcDbEntity
  8
3
 62
     0
100
AcDbMText
 10
5637.400400804152
 20
4960.806671695954
 30
0.0
 40
105.0
 41
0.0
 71
     5
 72
     1
  1
\A1;1500
 73
     1
 44
1.0
1001
ACAD
1000
MTEXTBEGIN
1070
    73
1070
     1
1070
    44
1040
1.0
1070
    74
1070
     0
1000
MTEXTEND
  0
POINT
  5
83FC
330
83F3
100
AcDbEntity
  8
DEFPOINTS
 62
     0
100
AcDbPoint
 10
4887.400400804152
 20
4619.867032643557
 30
0.0
  0
POINT
  5
83FD
330
83F3
100
AcDbEntity
  8
DEFPOINTS
 62
     0
100
AcDbPoint
 10
6387.400400804152
 20
4619.867032643557
 30
0.0
  0
POINT
  5
83FE
330
83F3
100
AcDbEntity
  8
DEFPOINTS
 62
     0
100
AcDbPoint
 10
6387.400400804152
 20
4873.306671695954
 30
0.0
  0
ENDBLK
  5
83F5
330
83F3
100
AcDbEntity
  8
0
100
AcDbBlockEnd
  0
BLOCK
  5
8401
330
8400
100
AcDbEntity
  8
0
100
AcDbBlockBegin
  2
*D31
 70
     1
 10
0.0
 20
0.0
 30
0.0
  3
*D31
  1

  0
LINE
  5
8452
330
8400
100
AcDbEntity
  8
3
 62
     0
370
    -2
100
AcDbLine
 10
4517.400400804151
 20
4212.367032643555
 30
0.0
 11
4517.400400804151
 21
5105.297380820517
 31
0.0
  0
LINE
  5
8453
330
8400
100
AcDbEntity
  8
3
 62
     0
370
    -2
100
AcDbLine
 10
5637.400400804152
 20
5030.806671695954
 30
0.0
 11
5637.400400804152
 21
5105.297380820517
 31
0.0
  0
LINE
  5
8454
330
8400
100
AcDbEntity
  8
3
 62
     0
370
    -2
100
AcDbLine
 10
4587.400400804152
 20
5070.297380820517
 30
0.0
 11
5567.400400804152
 21
5070.297380820517
 31
0.0
  0
INSERT
  5
8455
330
8400
100
AcDbEntity
  8
3
 62
     0
370
    -2
100
AcDbBlockReference
  2
_OPEN
 10
4517.400400804151
 20
5070.297380820517
 30
0.0
 41
70.0
 42
70.0
 43
70.0
 50
180.0
  0
INSERT
  5
8456
330
8400
100
AcDbEntity
  8
3
 62
     0
370
    -2
100
AcDbBlockReference
  2
_OPEN
 10
5637.400400804152
 20
5070.297380820517
 30
0.0
 41
70.0
 42
70.0
 43
70.0
  0
MTEXT
  5
8457
330
8400
100
AcDbEntity
  8
3
 62
     0
100
AcDbMText
 10
5077.400400804152
 20
5185.297380820517
 30
0.0
 40
105.0
 41
0.0
 71
     5
 72
     1
  1
\A1;(1120)
 73
     1
 44
1.0
1001
ACAD
1000
MTEXTBEGIN
1070
    73
1070
     1
1070
    44
1040
1.0
1070
    74
1070
     0
1000
MTEXTEND
  0
POINT
  5
8458
330
8400
100
AcDbEntity
  8
DEFPOINTS
 62
     0
100
AcDbPoint
 10
4517.400400804151
 20
4194.867032643556
 30
0.0
  0
POINT
  5
8459
330
8400
100
AcDbEntity
  8
DEFPOINTS
 62
     0
100
AcDbPoint
 10
5637.400400804152
 20
5013.306671695954
 30
0.0
  0
POINT
  5
845A
330
8400
100
AcDbEntity
  8
DEFPOINTS
 62
     0
100
AcDbPoint
 10
5637.400400804152
 20
5070.297380820517
 30
0.0
  0
ENDBLK
  5
8402
330
8400
100
AcDbEntity
  8
0
100
AcDbBlockEnd
  0
BLOCK
  5
840E
330
840D
100
AcDbEntity
  8
0
100
AcDbBlockBegin
  2
*D32
 70
     1
 10
0.0
 20
0.0
 30
0.0
  3
*D32
  1

  0
LINE
  5
845B
330
840D
100
AcDbEntity
  8
3
 62
     0
370
    -2
100
AcDbLine
 10
5637.400400804152
 20
5030.806671695954
 30
0.0
 11
5637.400400804152
 21
5105.297380820517
 31
0.0
  0
LINE
  5
845C
330
840D
100
AcDbEntity
  8
3
 62
     0
370
    -2
100
AcDbLine
 10
6567.40040080415
 20
3759.367032643556
 30
0.0
 11
6567.40040080415
 21
5105.297380820517
 31
0.0
  0
LINE
  5
845D
330
840D
100
AcDbEntity
  8
3
 62
     0
370
    -2
100
AcDbLine
 10
5707.400400804152
 20
5070.297380820517
 30
0.0
 11
6497.40040080415
 21
5070.297380820517
 31
0.0
  0
INSERT
  5
845E
330
840D
100
AcDbEntity
  8
3
 62
     0
370
    -2
100
AcDbBlockReference
  2
_OPEN
 10
5637.400400804152
 20
5070.297380820517
 30
0.0
 41
70.0
 42
70.0
 43
70.0
 50
180.0
  0
INSERT
  5
845F
330
840D
100
AcDbEntity
  8
3
 62
     0
370
    -2
100
AcDbBlockReference
  2
_OPEN
 10
6567.40040080415
 20
5070.297380820517
 30
0.0
 41
70.0
 42
70.0
 43
70.0
  0
MTEXT
  5
8460
330
840D
100
AcDbEntity
  8
3
 62
     0
100
AcDbMText
 10
6102.400400804151
 20
5185.297380820517
 30
0.0
 40
105.0
 41
0.0
 71
     5
 72
     1
  1
\A1;(930)
 73
     1
 44
1.0
1001
ACAD
1000
MTEXTBEGIN
1070
    73
1070
     1
1070
    44
1040
1.0
1070
    74
1070
     0
1000
MTEXTEND
  0
POINT
  5
8461
330
840D
100
AcDbEntity
  8
DEFPOINTS
 62
     0
100
AcDbPoint
 10
5637.400400804152
 20
5013.306671695954
 30
0.0
  0
POINT
  5
8462
330
840D
100
AcDbEntity
  8
DEFPOINTS
 62
     0
100
AcDbPoint
 10
6567.40040080415
 20
3741.867032643556
 30
0.0
  0
POINT
  5
8463
330
840D
100
AcDbEntity
  8
DEFPOINTS
 62
     0
100
AcDbPoint
 10
6567.40040080415
 20
5070.297380820517
 30
0.0
  0
ENDBLK
  5
840F
330
840D
100
AcDbEntity
  8
0
100
AcDbBlockEnd
  0
BLOCK
  5
8466
330
8465
100
AcDbEntity
  8
0
100
AcDbBlockBegin
  2
*D33
 70
     1
 10
0.0
 20
0.0
 30
0.0
  3
*D33
  1

  0
LINE
  5
8471
330
8465
100
AcDbEntity
  8
3
 62
     0
370
    -2
100
AcDbLine
 10
1684.372858290997
 20
6875.481934815962
 30
0.0
 11
814.3857627411199
 21
6875.481934815962
 31
0.0
  0
LINE
  5
8472
330
8465
100
AcDbEntity
  8
3
 62
     0
370
    -2
100
AcDbLine
 10
2150.717971633641
 20
5755.481934815962
 30
0.0
 11
814.3857627411197
 21
5755.481934815962
 31
0.0
  0
LINE
  5
8473
330
8465
100
AcDbEntity
  8
3
 62
     0
370
    -2
100
AcDbLine
 10
849.3857627411198
 20
6805.481934815961
 30
0.0
 11
849.3857627411196
 21
5825.481934815963
 31
0.0
  0
INSERT
  5
8474
330
8465
100
AcDbEntity
  8
3
 62
     0
370
    -2
100
AcDbBlockReference
  2
_OPEN
 10
849.3857627411198
 20
6875.481934815962
 30
0.0
 41
70.0
 42
70.0
 43
70.0
 50
90.0
  0
INSERT
  5
8475
330
8465
100
AcDbEntity
  8
3
 62
     0
370
    -2
100
AcDbBlockReference
  2
_OPEN
 10
849.3857627411196
 20
5755.481934815962
 30
0.0
 41
70.0
 42
70.0
 43
70.0
 50
270.0
  0
MTEXT
  5
8476
330
8465
100
AcDbEntity
  8
3
 62
     0
100
AcDbMText
 10
761.8857627411188
 20
6315.481934815962
 30
0.0
 40
105.0
 41
0.0
 71
     5
 72
     1
  1
\A1;1120
 11
0.0000000000000001
 21
1.0
 31
0.0
 73
     1
 44
1.0
1001
ACAD
1000
MTEXTBEGIN
1070
    73
1070
     1
1070
    44
1040
1.0
1070
    74
1070
     0
1000
MTEXTEND
  0
POINT
  5
8477
330
8465
100
AcDbEntity
  8
DEFPOINTS
 62
     0
100
AcDbPoint
 10
1701.872858290997
 20
6875.481934815962
 30
0.0
  0
POINT
  5
8478
330
8465
100
AcDbEntity
  8
DEFPOINTS
 62
     0
100
AcDbPoint
 10
2168.217971633641
 20
5755.481934815962
 30
0.0
  0
POINT
  5
8479
330
8465
100
AcDbEntity
  8
DEFPOINTS
 62
     0
100
AcDbPoint
 10
849.3857627411196
 20
5755.481934815962
 30
0.0
  0
ENDBLK
  5
8467
330
8465
100
AcDbEntity
  8
0
100
AcDbBlockEnd
  0
BLOCK
  5
847C
330
847B
100
AcDbEntity
  8
0
100
AcDbBlockBegin
  2
*D34
 70
     1
 10
0.0
 20
0.0
 30
0.0
  3
*D34
  1

  0
LINE
  5
847E
330
847B
100
AcDbEntity
  8
3
 62
     0
370
    -2
100
AcDbLine
 10
1870.717971633641
 20
7693.481934815962
 30
0.0
 11
1454.445716662588
 21
7693.481934815962
 31
0.0
  0
LINE
  5
847F
330
847B
100
AcDbEntity
  8
3
 62
     0
370
    -2
100
AcDbLine
 10
1870.717971633641
 20
5793.481934815962
 30
0.0
 11
1454.445716662588
 21
5793.481934815962
 31
0.0
  0
LINE
  5
8480
330
847B
100
AcDbEntity
  8
3
 62
     0
370
    -2
100
AcDbLine
 10
1489.445716662588
 20
7623.481934815962
 30
0.0
 11
1489.445716662588
 21
5863.481934815961
 31
0.0
  0
INSERT
  5
8481
330
847B
100
AcDbEntity
  8
3
 62
     0
370
    -2
100
AcDbBlockReference
  2
_OPEN
 10
1489.445716662588
 20
7693.481934815962
 30
0.0
 41
70.0
 42
70.0
 43
70.0
 50
90.0
  0
INSERT
  5
8482
330
847B
100
AcDbEntity
  8
3
 62
     0
370
    -2
100
AcDbBlockReference
  2
_OPEN
 10
1489.445716662588
 20
5793.481934815962
 30
0.0
 41
70.0
 42
70.0
 43
70.0
 50
270.0
  0
MTEXT
  5
8483
330
847B
100
AcDbEntity
  8
3
 62
     0
100
AcDbMText
 10
1401.945716662587
 20
6743.481934815962
 30
0.0
 40
105.0
 41
0.0
 71
     5
 72
     1
  1
\A1;1900
 11
0.0000000000000001
 21
1.0
 31
0.0
 73
     1
 44
1.0
1001
ACAD
1000
MTEXTBEGIN
1070
    73
1070
     1
1070
    44
1040
1.0
1070
    74
1070
     0
1000
MTEXTEND
  0
POINT
  5
8484
330
847B
100
AcDbEntity
  8
DEFPOINTS
 62
     0
100
AcDbPoint
 10
1888.21797163364
 20
7693.481934815962
 30
0.0
  0
POINT
  5
8485
330
847B
100
AcDbEntity
  8
DEFPOINTS
 62
     0
100
AcDbPoint
 10
1888.21797163364
 20
5793.481934815962
 30
0.0
  0
POINT
  5
8486
330
847B
100
AcDbEntity
  8
DEFPOINTS
 62
     0
100
AcDbPoint
 10
1489.445716662588
 20
5793.481934815962
 30
0.0
  0
ENDBLK
  5
847D
330
847B
100
AcDbEntity
  8
0
100
AcDbBlockEnd
  0
BLOCK
  5
8489
330
8488
100
AcDbEntity
  8
0
100
AcDbBlockBegin
  2
*D35
 70
     1
 10
0.0
 20
0.0
 30
0.0
  3
*D35
  1

  0
LINE
  5
848B
330
8488
100
AcDbEntity
  8
3
 62
     0
370
    -2
100
AcDbLine
 10
1888.21797163364
 20
5775.981934815962
 30
0.0
 11
1888.21797163364
 21
5467.236742722015
 31
0.0
  0
LINE
  5
848C
330
8488
100
AcDbEntity
  8
3
 62
     0
370
    -2
100
AcDbLine
 10
4148.21797163364
 20
5775.981934815961
 30
0.0
 11
4148.21797163364
 21
5467.236742722015
 31
0.0
  0
LINE
  5
848D
330
8488
100
AcDbEntity
  8
3
 62
     0
370
    -2
100
AcDbLine
 10
1958.217971633641
 20
5502.236742722015
 30
0.0
 11
4078.21797163364
 21
5502.236742722015
 31
0.0
  0
INSERT
  5
848E
330
8488
100
AcDbEntity
  8
3
 62
     0
370
    -2
100
AcDbBlockReference
  2
_OPEN
 10
1888.21797163364
 20
5502.236742722015
 30
0.0
 41
70.0
 42
70.0
 43
70.0
 50
180.0
  0
INSERT
  5
848F
330
8488
100
AcDbEntity
  8
3
 62
     0
370
    -2
100
AcDbBlockReference
  2
_OPEN
 10
4148.21797163364
 20
5502.236742722015
 30
0.0
 41
70.0
 42
70.0
 43
70.0
  0
MTEXT
  5
8490
330
8488
100
AcDbEntity
  8
3
 62
     0
100
AcDbMText
 10
3018.217971633641
 20
5589.736742722015
 30
0.0
 40
105.0
 41
0.0
 71
     5
 72
     1
  1
\A1;2260
 73
     1
 44
1.0
1001
ACAD
1000
MTEXTBEGIN
1070
    73
1070
     1
1070
    44
1040
1.0
1070
    74
1070
     0
1000
MTEXTEND
  0
POINT
  5
8491
330
8488
100
AcDbEntity
  8
DEFPOINTS
 62
     0
100
AcDbPoint
 10
1888.21797163364
 20
5793.481934815962
 30
0.0
  0
POINT
  5
8492
330
8488
100
AcDbEntity
  8
DEFPOINTS
 62
     0
100
AcDbPoint
 10
4148.21797163364
 20
5793.481934815961
 30
0.0
  0
POINT
  5
8493
330
8488
100
AcDbEntity
  8
DEFPOINTS
 62
     0
100
AcDbPoint
 10
4148.21797163364
 20
5502.236742722015
 30
0.0
  0
ENDBLK
  5
848A
330
8488
100
AcDbEntity
  8
0
100
AcDbBlockEnd
  0
BLOCK
  5
8496
330
8495
100
AcDbEntity
  8
0
100
AcDbBlockBegin
  2
*D36
 70
     1
 10
0.0
 20
0.0
 30
0.0
  3
*D36
  1

  0
LINE
  5
8498
330
8495
100
AcDbEntity
  8
3
 62
     0
370
    -2
100
AcDbLine
 10
4165.71797163364
 20
5793.481934815961
 30
0.0
 11
4583.848380927504
 21
5793.481934815961
 31
0.0
  0
LINE
  5
8499
330
8495
100
AcDbEntity
  8
3
 62
     0
370
    -2
100
AcDbLine
 10
4165.71797163364
 20
6693.481934815962
 30
0.0
 11
4583.848380927505
 21
6693.481934815962
 31
0.0
  0
LINE
  5
849A
330
8495
100
AcDbEntity
  8
3
 62
     0
370
    -2
100
AcDbLine
 10
4548.848380927504
 20
5863.481934815961
 30
0.0
 11
4548.848380927505
 21
6623.481934815962
 31
0.0
  0
INSERT
  5
849B
330
8495
100
AcDbEntity
  8
3
 62
     0
370
    -2
100
AcDbBlockReference
  2
_OPEN
 10
4548.848380927504
 20
5793.481934815961
 30
0.0
 41
70.0
 42
70.0
 43
70.0
 50
270.0
  0
INSERT
  5
849C
330
8495
100
AcDbEntity
  8
3
 62
     0
370
    -2
100
AcDbBlockReference
  2
_OPEN
 10
4548.848380927505
 20
6693.481934815962
 30
0.0
 41
70.0
 42
70.0
 43
70.0
 50
90.0
  0
MTEXT
  5
849D
330
8495
100
AcDbEntity
  8
3
 62
     0
100
AcDbMText
 10
4461.348380927502
 20
6243.481934815962
 30
0.0
 40
105.0
 41
0.0
 71
     5
 72
     1
  1
\A1;900
 11
0.0000000000000001
 21
1.0
 31
0.0
 73
     1
 44
1.0
1001
ACAD
1000
MTEXTBEGIN
1070
    73
1070
     1
1070
    44
1040
1.0
1070
    74
1070
     0
1000
MTEXTEND
  0
POINT
  5
849E
330
8495
100
AcDbEntity
  8
DEFPOINTS
 62
     0
100
AcDbPoint
 10
4148.21797163364
 20
5793.481934815961
 30
0.0
  0
POINT
  5
849F
330
8495
100
AcDbEntity
  8
DEFPOINTS
 62
     0
100
AcDbPoint
 10
4148.21797163364
 20
6693.481934815962
 30
0.0
  0
POINT
  5
84A0
330
8495
100
AcDbEntity
  8
DEFPOINTS
 62
     0
100
AcDbPoint
 10
4548.848380927505
 20
6693.481934815962
 30
0.0
  0
ENDBLK
  5
8497
330
8495
100
AcDbEntity
  8
0
100
AcDbBlockEnd
  0
BLOCK
  5
84A3
330
84A2
100
AcDbEntity
  8
0
100
AcDbBlockBegin
  2
*D37
 70
     1
 10
0.0
 20
0.0
 30
0.0
  3
*D37
  1

  0
LINE
  5
84A5
330
84A2
100
AcDbEntity
  8
3
 62
     0
370
    -2
100
AcDbLine
 10
4148.21797163364
 20
6710.981934815961
 30
0.0
 11
4148.21797163364
 21
7902.489295287082
 31
0.0
  0
LINE
  5
84A6
330
84A2
100
AcDbEntity
  8
3
 62
     0
370
    -2
100
AcDbLine
 10
3208.217971633641
 20
7710.981934815961
 30
0.0
 11
3208.217971633641
 21
7902.489295287082
 31
0.0
  0
LINE
  5
84A7
330
84A2
100
AcDbEntity
  8
3
 62
     0
370
    -2
100
AcDbLine
 10
4078.21797163364
 20
7867.489295287082
 30
0.0
 11
3278.217971633641
 21
7867.489295287082
 31
0.0
  0
INSERT
  5
84A8
330
84A2
100
AcDbEntity
  8
3
 62
     0
370
    -2
100
AcDbBlockReference
  2
_OPEN
 10
4148.21797163364
 20
7867.489295287082
 30
0.0
 41
70.0
 42
70.0
 43
70.0
  0
INSERT
  5
84A9
330
84A2
100
AcDbEntity
  8
3
 62
     0
370
    -2
100
AcDbBlockReference
  2
_OPEN
 10
3208.217971633641
 20
7867.489295287082
 30
0.0
 41
70.0
 42
70.0
 43
70.0
 50
180.0
  0
MTEXT
  5
84AA
330
84A2
100
AcDbEntity
  8
3
 62
     0
100
AcDbMText
 10
3678.217971633641
 20
7954.989295287082
 30
0.0
 40
105.0
 41
0.0
 71
     5
 72
     1
  1
\A1;940
 73
     1
 44
1.0
1001
ACAD
1000
MTEXTBEGIN
1070
    73
1070
     1
1070
    44
1040
1.0
1070
    74
1070
     0
1000
MTEXTEND
  0
POINT
  5
84AB
330
84A2
100
AcDbEntity
  8
DEFPOINTS
 62
     0
100
AcDbPoint
 10
4148.21797163364
 20
6693.481934815962
 30
0.0
  0
POINT
  5
84AC
330
84A2
100
AcDbEntity
  8
DEFPOINTS
 62
     0
100
AcDbPoint
 10
3208.217971633641
 20
7693.481934815962
 30
0.0
  0
POINT
  5
84AD
330
84A2
100
AcDbEntity
  8
DEFPOINTS
 62
     0
100
AcDbPoint
 10
3208.217971633641
 20
7867.489295287082
 30
0.0
  0
ENDBLK
  5
84A4
330
84A2
100
AcDbEntity
  8
0
100
AcDbBlockEnd
  0
BLOCK
  5
84B0
330
84AF
100
AcDbEntity
  8
0
100
AcDbBlockBegin
  2
*D38
 70
     1
 10
0.0
 20
0.0
 30
0.0
  3
*D38
  1

  0
LINE
  5
84B2
330
84AF
100
AcDbEntity
  8
3
 62
     0
370
    -2
100
AcDbLine
 10
3208.217971633641
 20
7710.981934815961
 30
0.0
 11
3208.217971633641
 21
7902.489295287082
 31
0.0
  0
LINE
  5
84B3
330
84AF
100
AcDbEntity
  8
3
 62
     0
370
    -2
100
AcDbLine
 10
1888.21797163364
 20
7710.981934815961
 30
0.0
 11
1888.21797163364
 21
7902.489295287082
 31
0.0
  0
LINE
  5
84B4
330
84AF
100
AcDbEntity
  8
3
 62
     0
370
    -2
100
AcDbLine
 10
3138.217971633641
 20
7867.489295287082
 30
0.0
 11
1958.217971633641
 21
7867.489295287082
 31
0.0
  0
INSERT
  5
84B5
330
84AF
100
AcDbEntity
  8
3
 62
     0
370
    -2
100
AcDbBlockReference
  2
_OPEN
 10
3208.217971633641
 20
7867.489295287082
 30
0.0
 41
70.0
 42
70.0
 43
70.0
  0
INSERT
  5
84B6
330
84AF
100
AcDbEntity
  8
3
 62
     0
370
    -2
100
AcDbBlockReference
  2
_OPEN
 10
1888.21797163364
 20
7867.489295287082
 30
0.0
 41
70.0
 42
70.0
 43
70.0
 50
180.0
  0
MTEXT
  5
84B7
330
84AF
100
AcDbEntity
  8
3
 62
     0
100
AcDbMText
 10
2548.217971633641
 20
7954.989295287082
 30
0.0
 40
105.0
 41
0.0
 71
     5
 72
     1
  1
\A1;1320
 73
     1
 44
1.0
1001
ACAD
1000
MTEXTBEGIN
1070
    73
1070
     1
1070
    44
1040
1.0
1070
    74
1070
     0
1000
MTEXTEND
  0
POINT
  5
84B8
330
84AF
100
AcDbEntity
  8
DEFPOINTS
 62
     0
100
AcDbPoint
 10
3208.217971633641
 20
7693.481934815962
 30
0.0
  0
POINT
  5
84B9
330
84AF
100
AcDbEntity
  8
DEFPOINTS
 62
     0
100
AcDbPoint
 10
1888.21797163364
 20
7693.481934815962
 30
0.0
  0
POINT
  5
84BA
330
84AF
100
AcDbEntity
  8
DEFPOINTS
 62
     0
100
AcDbPoint
 10
1888.21797163364
 20
7867.489295287082
 30
0.0
  0
ENDBLK
  5
84B1
330
84AF
100
AcDbEntity
  8
0
100
AcDbBlockEnd
  0
BLOCK
  5
84BD
330
84BC
100
AcDbEntity
  8
0
100
AcDbBlockBegin
  2
*D39
 70
     1
 10
0.0
 20
0.0
 30
0.0
  3
*D39
  1

  0
LINE
  5
84BF
330
84BC
100
AcDbEntity
  8
3
 62
     0
370
    -2
100
AcDbLine
 10
1788.21797163364
 20
3837.367032643557
 30
0.0
 11
1788.21797163364
 21
4880.294362889877
 31
0.0
  0
LINE
  5
84C0
330
84BC
100
AcDbEntity
  8
3
 62
     0
370
    -2
100
AcDbLine
 10
2548.217971633641
 20
4698.435226323957
 30
0.0
 11
2548.217971633641
 21
4880.294362889877
 31
0.0
  0
LINE
  5
84C1
330
84BC
100
AcDbEntity
  8
3
 62
     0
370
    -2
100
AcDbLine
 10
1858.217971633641
 20
4845.294362889877
 30
0.0
 11
2478.217971633641
 21
4845.294362889877
 31
0.0
  0
INSERT
  5
84C2
330
84BC
100
AcDbEntity
  8
3
 62
     0
370
    -2
100
AcDbBlockReference
  2
_OPEN
 10
1788.21797163364
 20
4845.294362889877
 30
0.0
 41
70.0
 42
70.0
 43
70.0
 50
180.0
  0
INSERT
  5
84C3
330
84BC
100
AcDbEntity
  8
3
 62
     0
370
    -2
100
AcDbBlockReference
  2
_OPEN
 10
2548.217971633641
 20
4845.294362889877
 30
0.0
 41
70.0
 42
70.0
 43
70.0
  0
MTEXT
  5
84C4
330
84BC
100
AcDbEntity
  8
3
 62
     0
100
AcDbMText
 10
2168.217971633641
 20
4932.794362889876
 30
0.0
 40
105.0
 41
0.0
 71
     5
 72
     1
  1
\A1;760
 73
     1
 44
1.0
1001
ACAD
1000
MTEXTBEGIN
1070
    73
1070
     1
1070
    44
1040
1.0
1070
    74
1070
     0
1000
MTEXTEND
  0
POINT
  5
84C5
330
84BC
100
AcDbEntity
  8
DEFPOINTS
 62
     0
100
AcDbPoint
 10
1788.21797163364
 20
3819.867032643557
 30
0.0
  0
POINT
  5
84C6
330
84BC
100
AcDbEntity
  8
DEFPOINTS
 62
     0
100
AcDbPoint
 10
2548.217971633641
 20
4680.935226323958
 30
0.0
  0
POINT
  5
84C7
330
84BC
100
AcDbEntity
  8
DEFPOINTS
 62
     0
100
AcDbPoint
 10
2548.217971633641
 20
4845.294362889877
 30
0.0
  0
ENDBLK
  5
84BE
330
84BC
100
AcDbEntity
  8
0
100
AcDbBlockEnd
  0
BLOCK
  5
84CA
330
84C9
100
AcDbEntity
  8
0
100
AcDbBlockBegin
  2
*D40
 70
     1
 10
0.0
 20
0.0
 30
0.0
  3
*D40
  1

  0
LINE
  5
84CC
330
84C9
100
AcDbEntity
  8
3
 62
     0
370
    -2
100
AcDbLine
 10
2548.217971633641
 20
4698.435226323957
 30
0.0
 11
2548.217971633641
 21
4880.294362889877
 31
0.0
  0
LINE
  5
84CD
330
84C9
100
AcDbEntity
  8
3
 62
     0
370
    -2
100
AcDbLine
 10
3517.217971633641
 20
3750.367032643558
 30
0.0
 11
3517.217971633641
 21
4880.294362889877
 31
0.0
  0
LINE
  5
84CE
330
84C9
100
AcDbEntity
  8
3
 62
     0
370
    -2
100
AcDbLine
 10
2618.217971633641
 20
4845.294362889877
 30
0.0
 11
3447.217971633641
 21
4845.294362889877
 31
0.0
  0
INSERT
  5
84CF
330
84C9
100
AcDbEntity
  8
3
 62
     0
370
    -2
100
AcDbBlockReference
  2
_OPEN
 10
2548.217971633641
 20
4845.294362889877
 30
0.0
 41
70.0
 42
70.0
 43
70.0
 50
180.0
  0
INSERT
  5
84D0
330
84C9
100
AcDbEntity
  8
3
 62
     0
370
    -2
100
AcDbBlockReference
  2
_OPEN
 10
3517.217971633641
 20
4845.294362889877
 30
0.0
 41
70.0
 42
70.0
 43
70.0
  0
MTEXT
  5
84D1
330
84C9
100
AcDbEntity
  8
3
 62
     0
100
AcDbMText
 10
3032.717971633641
 20
4932.794362889876
 30
0.0
 40
105.0
 41
0.0
 71
     5
 72
     1
  1
\A1;969
 73
     1
 44
1.0
1001
ACAD
1000
MTEXTBEGIN
1070
    73
1070
     1
1070
    44
1040
1.0
1070
    74
1070
     0
1000
MTEXTEND
  0
POINT
  5
84D2
330
84C9
100
AcDbEntity
  8
DEFPOINTS
 62
     0
100
AcDbPoint
 10
2548.217971633641
 20
4680.935226323958
 30
0.0
  0
POINT
  5
84D3
330
84C9
100
AcDbEntity
  8
DEFPOINTS
 62
     0
100
AcDbPoint
 10
3517.217971633641
 20
3732.867032643557
 30
0.0
  0
POINT
  5
84D4
330
84C9
100
AcDbEntity
  8
DEFPOINTS
 62
     0
100
AcDbPoint
 10
3517.217971633641
 20
4845.294362889877
 30
0.0
  0
ENDBLK
  5
84CB
330
84C9
100
AcDbEntity
  8
0
100
AcDbBlockEnd
  0
BLOCK
  5
84D7
330
84D6
100
AcDbEntity
  8
0
100
AcDbBlockBegin
  2
*D41
 70
     1
 10
0.0
 20
0.0
 30
0.0
  3
*D41
  1

  0
LINE
  5
84D9
330
84D6
100
AcDbEntity
  8
3
 62
     0
370
    -2
100
AcDbLine
 10
1788.21797163364
 20
3837.367032643557
 30
0.0
 11
1788.21797163364
 21
5107.874531832272
 31
0.0
  0
LINE
  5
84DA
330
84D6
100
AcDbEntity
  8
3
 62
     0
370
    -2
100
AcDbLine
 10
4148.21797163364
 20
2602.367032643556
 30
0.0
 11
4148.21797163364
 21
5107.874531832272
 31
0.0
  0
LINE
  5
84DB
330
84D6
100
AcDbEntity
  8
3
 62
     0
370
    -2
100
AcDbLine
 10
1858.217971633641
 20
5072.874531832272
 30
0.0
 11
4078.21797163364
 21
5072.874531832272
 31
0.0
  0
INSERT
  5
84DC
330
84D6
100
AcDbEntity
  8
3
 62
     0
370
    -2
100
AcDbBlockReference
  2
_OPEN
 10
1788.21797163364
 20
5072.874531832272
 30
0.0
 41
70.0
 42
70.0
 43
70.0
 50
180.0
  0
INSERT
  5
84DD
330
84D6
100
AcDbEntity
  8
3
 62
     0
370
    -2
100
AcDbBlockReference
  2
_OPEN
 10
4148.21797163364
 20
5072.874531832272
 30
0.0
 41
70.0
 42
70.0
 43
70.0
  0
MTEXT
  5
84DE
330
84D6
100
AcDbEntity
  8
3
 62
     0
100
AcDbMText
 10
2968.217971633641
 20
5160.374531832271
 30
0.0
 40
105.0
 41
0.0
 71
     5
 72
     1
  1
\A1;2360
 73
     1
 44
1.0
1001
ACAD
1000
MTEXTBEGIN
1070
    73
1070
     1
1070
    44
1040
1.0
1070
    74
1070
     0
1000
MTEXTEND
  0
POINT
  5
84DF
330
84D6
100
AcDbEntity
  8
DEFPOINTS
 62
     0
100
AcDbPoint
 10
1788.21797163364
 20
3819.867032643557
 30
0.0
  0
POINT
  5
84E0
330
84D6
100
AcDbEntity
  8
DEFPOINTS
 62
     0
100
AcDbPoint
 10
4148.21797163364
 20
2584.867032643556
 30
0.0
  0
POINT
  5
84E1
330
84D6
100
AcDbEntity
  8
DEFPOINTS
 62
     0
100
AcDbPoint
 10
4148.21797163364
 20
5072.874531832272
 30
0.0
  0
ENDBLK
  5
84D8
330
84D6
100
AcDbEntity
  8
0
100
AcDbBlockEnd
  0
BLOCK
  5
84E4
330
84E3
100
AcDbEntity
  8
0
100
AcDbBlockBegin
  2
*D42
 70
     1
 10
0.0
 20
0.0
 30
0.0
  3
*D42
  1

  0
LINE
  5
84E6
330
84E3
100
AcDbEntity
  8
3
 62
     0
370
    -2
100
AcDbLine
 10
1770.717971633641
 20
3766.867032643556
 30
0.0
 11
1553.109655349375
 21
3766.867032643556
 31
0.0
  0
LINE
  5
84E7
330
84E3
100
AcDbEntity
  8
3
 62
     0
370
    -2
100
AcDbLine
 10
1770.717971633641
 20
2616.867032643556
 30
0.0
 11
1553.109655349375
 21
2616.867032643556
 31
0.0
  0
LINE
  5
84E8
330
84E3
100
AcDbEntity
  8
3
 62
     0
370
    -2
100
AcDbLine
 10
1588.109655349375
 20
3696.867032643556
 30
0.0
 11
1588.109655349375
 21
2686.867032643556
 31
0.0
  0
INSERT
  5
84E9
330
84E3
100
AcDbEntity
  8
3
 62
     0
370
    -2
100
AcDbBlockReference
  2
_OPEN
 10
1588.109655349375
 20
3766.867032643556
 30
0.0
 41
70.0
 42
70.0
 43
70.0
 50
90.0
  0
INSERT
  5
84EA
330
84E3
100
AcDbEntity
  8
3
 62
     0
370
    -2
100
AcDbBlockReference
  2
_OPEN
 10
1588.109655349375
 20
2616.867032643556
 30
0.0
 41
70.0
 42
70.0
 43
70.0
 50
270.0
  0
MTEXT
  5
84EB
330
84E3
100
AcDbEntity
  8
3
 62
     0
100
AcDbMText
 10
1500.609655349375
 20
3191.867032643556
 30
0.0
 40
105.0
 41
0.0
 71
     5
 72
     1
  1
\A1;1150
 11
0.0000000000000001
 21
1.0
 31
0.0
 73
     1
 44
1.0
1001
ACAD
1000
MTEXTBEGIN
1070
    73
1070
     1
1070
    44
1040
1.0
1070
    74
1070
     0
1000
MTEXTEND
  0
POINT
  5
84EC
330
84E3
100
AcDbEntity
  8
DEFPOINTS
 62
     0
100
AcDbPoint
 10
1788.21797163364
 20
3766.867032643556
 30
0.0
  0
POINT
  5
84ED
330
84E3
100
AcDbEntity
  8
DEFPOINTS
 62
     0
100
AcDbPoint
 10
1788.21797163364
 20
2616.867032643556
 30
0.0
  0
POINT
  5
84EE
330
84E3
100
AcDbEntity
  8
DEFPOINTS
 62
     0
100
AcDbPoint
 10
1588.109655349375
 20
2616.867032643556
 30
0.0
  0
ENDBLK
  5
84E5
330
84E3
100
AcDbEntity
  8
0
100
AcDbBlockEnd
  0
BLOCK
  5
84F1
330
84F0
100
AcDbEntity
  8
0
100
AcDbBlockBegin
  2
*D43
 70
     1
 10
0.0
 20
0.0
 30
0.0
  3
*D43
  1

  0
LINE
  5
84F3
330
84F0
100
AcDbEntity
  8
3
 62
     0
370
    -2
100
AcDbLine
 10
1770.717971633641
 20
2616.867032643556
 30
0.0
 11
1352.958004487872
 21
2616.867032643556
 31
0.0
  0
LINE
  5
84F4
330
84F0
100
AcDbEntity
  8
3
 62
     0
370
    -2
100
AcDbLine
 10
1623.937320180664
 20
3814.867032643557
 30
0.0
 11
1352.958004487873
 21
3814.867032643557
 31
0.0
  0
LINE
  5
84F5
330
84F0
100
AcDbEntity
  8
3
 62
     0
370
    -2
100
AcDbLine
 10
1387.958004487872
 20
2686.867032643556
 30
0.0
 11
1387.958004487873
 21
3744.867032643558
 31
0.0
  0
INSERT
  5
84F6
330
84F0
100
AcDbEntity
  8
3
 62
     0
370
    -2
100
AcDbBlockReference
  2
_OPEN
 10
1387.958004487872
 20
2616.867032643556
 30
0.0
 41
70.0
 42
70.0
 43
70.0
 50
270.0
  0
INSERT
  5
84F7
330
84F0
100
AcDbEntity
  8
3
 62
     0
370
    -2
100
AcDbBlockReference
  2
_OPEN
 10
1387.958004487873
 20
3814.867032643557
 30
0.0
 41
70.0
 42
70.0
 43
70.0
 50
90.0
  0
MTEXT
  5
84F8
330
84F0
100
AcDbEntity
  8
3
 62
     0
100
AcDbMText
 10
1300.458004487872
 20
3215.867032643557
 30
0.0
 40
105.0
 41
0.0
 71
     5
 72
     1
  1
\A1;1198
 11
0.0000000000000001
 21
1.0
 31
0.0
 73
     1
 44
1.0
1001
ACAD
1000
MTEXTBEGIN
1070
    73
1070
     1
1070
    44
1040
1.0
1070
    74
1070
     0
1000
MTEXTEND
  0
POINT
  5
84F9
330
84F0
100
AcDbEntity
  8
DEFPOINTS
 62
     0
100
AcDbPoint
 10
1788.21797163364
 20
2616.867032643556
 30
0.0
  0
POINT
  5
84FA
330
84F0
100
AcDbEntity
  8
DEFPOINTS
 62
     0
100
AcDbPoint
 10
1641.437320180664
 20
3814.867032643557
 30
0.0
  0
POINT
  5
84FB
330
84F0
100
AcDbEntity
  8
DEFPOINTS
 62
     0
100
AcDbPoint
 10
1387.958004487873
 20
3814.867032643557
 30
0.0
  0
ENDBLK
  5
84F2
330
84F0
100
AcDbEntity
  8
0
100
AcDbBlockEnd
  0
BLOCK
  5
84FE
330
84FD
100
AcDbEntity
  8
0
100
AcDbBlockBegin
  2
*D44
 70
     1
 10
0.0
 20
0.0
 30
0.0
  3
*D44
  1

  0
LINE
  5
8500
330
84FD
100
AcDbEntity
  8
3
 62
     0
370
    -2
100
AcDbLine
 10
2612.717971633641
 20
4619.867032643557
 30
0.0
 11
1149.008057762067
 21
4619.867032643557
 31
0.0
  0
LINE
  5
8501
330
84FD
100
AcDbEntity
  8
3
 62
     0
370
    -2
100
AcDbLine
 10
1623.937320180664
 20
3814.867032643557
 30
0.0
 11
1149.008057762067
 21
3814.867032643557
 31
0.0
  0
LINE
  5
8502
330
84FD
100
AcDbEntity
  8
3
 62
     0
370
    -2
100
AcDbLine
 10
1184.008057762067
 20
4549.867032643557
 30
0.0
 11
1184.008057762067
 21
3884.867032643557
 31
0.0
  0
INSERT
  5
8503
330
84FD
100
AcDbEntity
  8
3
 62
     0
370
    -2
100
AcDbBlockReference
  2
_OPEN
 10
1184.008057762067
 20
4619.867032643557
 30
0.0
 41
70.0
 42
70.0
 43
70.0
 50
90.0
  0
INSERT
  5
8504
330
84FD
100
AcDbEntity
  8
3
 62
     0
370
    -2
100
AcDbBlockReference
  2
_OPEN
 10
1184.008057762067
 20
3814.867032643557
 30
0.0
 41
70.0
 42
70.0
 43
70.0
 50
270.0
  0
MTEXT
  5
8505
330
84FD
100
AcDbEntity
  8
3
 62
     0
100
AcDbMText
 10
1096.508057762066
 20
4217.367032643557
 30
0.0
 40
105.0
 41
0.0
 71
     5
 72
     1
  1
\A1;805
 11
0.0000000000000001
 21
1.0
 31
0.0
 73
     1
 44
1.0
1001
ACAD
1000
MTEXTBEGIN
1070
    73
1070
     1
1070
    44
1040
1.0
1070
    74
1070
     0
1000
MTEXTEND
  0
POINT
  5
8506
330
84FD
100
AcDbEntity
  8
DEFPOINTS
 62
     0
100
AcDbPoint
 10
2630.217971633641
 20
4619.867032643557
 30
0.0
  0
POINT
  5
8507
330
84FD
100
AcDbEntity
  8
DEFPOINTS
 62
     0
100
AcDbPoint
 10
1641.437320180664
 20
3814.867032643557
 30
0.0
  0
POINT
  5
8508
330
84FD
100
AcDbEntity
  8
DEFPOINTS
 62
     0
100
AcDbPoint
 10
1184.008057762067
 20
3814.867032643557
 30
0.0
  0
ENDBLK
  5
84FF
330
84FD
100
AcDbEntity
  8
0
100
AcDbBlockEnd
  0
BLOCK
  5
850B
330
850A
100
AcDbEntity
  8
0
100
AcDbBlockBegin
  2
*D45
 70
     1
 10
0.0
 20
0.0
 30
0.0
  3
*D45
  1

  0
LINE
  5
850D
330
850A
100
AcDbEntity
  8
3
 62
     0
370
    -2
100
AcDbLine
 10
1623.937320180664
 20
3814.867032643557
 30
0.0
 11
1149.008057762067
 21
3814.867032643557
 31
0.0
  0
LINE
  5
850E
330
850A
100
AcDbEntity
  8
3
 62
     0
370
    -2
100
AcDbLine
 10
1870.717971633641
 20
2459.867032643556
 30
0.0
 11
1149.008057762066
 21
2459.867032643556
 31
0.0
  0
LINE
  5
850F
330
850A
100
AcDbEntity
  8
3
 62
     0
370
    -2
100
AcDbLine
 10
1184.008057762067
 20
3744.867032643558
 30
0.0
 11
1184.008057762066
 21
2529.867032643556
 31
0.0
  0
INSERT
  5
8510
330
850A
100
AcDbEntity
  8
3
 62
     0
370
    -2
100
AcDbBlockReference
  2
_OPEN
 10
1184.008057762067
 20
3814.867032643557
 30
0.0
 41
70.0
 42
70.0
 43
70.0
 50
90.0
  0
INSERT
  5
8511
330
850A
100
AcDbEntity
  8
3
 62
     0
370
    -2
100
AcDbBlockReference
  2
_OPEN
 10
1184.008057762066
 20
2459.867032643556
 30
0.0
 41
70.0
 42
70.0
 43
70.0
 50
270.0
  0
MTEXT
  5
8512
330
850A
100
AcDbEntity
  8
3
 62
     0
100
AcDbMText
 10
1096.508057762066
 20
3137.367032643557
 30
0.0
 40
105.0
 41
0.0
 71
     5
 72
     1
  1
\A1;1355
 11
0.0000000000000001
 21
1.0
 31
0.0
 73
     1
 44
1.0
1001
ACAD
1000
MTEXTBEGIN
1070
    73
1070
     1
1070
    44
1040
1.0
1070
    74
1070
     0
1000
MTEXTEND
  0
POINT
  5
8513
330
850A
100
AcDbEntity
  8
DEFPOINTS
 62
     0
100
AcDbPoint
 10
1641.437320180664
 20
3814.867032643557
 30
0.0
  0
POINT
  5
8514
330
850A
100
AcDbEntity
  8
DEFPOINTS
 62
     0
100
AcDbPoint
 10
1888.21797163364
 20
2459.867032643556
 30
0.0
  0
POINT
  5
8515
330
850A
100
AcDbEntity
  8
DEFPOINTS
 62
     0
100
AcDbPoint
 10
1184.008057762066
 20
2459.867032643556
 30
0.0
  0
ENDBLK
  5
850C
330
850A
100
AcDbEntity
  8
0
100
AcDbBlockEnd
  0
BLOCK
  5
8518
330
8517
100
AcDbEntity
  8
0
100
AcDbBlockBegin
  2
*D46
 70
     1
 10
0.0
 20
0.0
 30
0.0
  3
*D46
  1

  0
LINE
  5
85EE
330
8517
100
AcDbEntity
  8
3
 62
     0
370
    -2
100
AcDbLine
 10
1870.717971633641
 20
2459.867032643556
 30
0.0
 11
1149.008057762066
 21
2459.867032643556
 31
0.0
  0
LINE
  5
85EF
330
8517
100
AcDbEntity
  8
3
 62
     0
370
    -2
100
AcDbLine
 10
1870.717971633641
 20
2439.867032643556
 30
0.0
 11
1149.008057762066
 21
2439.867032643556
 31
0.0
  0
LINE
  5
85F0
330
8517
100
AcDbEntity
  8
3
 62
     0
370
    -2
100
AcDbLine
 10
1184.008057762066
 20
2529.867032643556
 30
0.0
 11
1184.008057762067
 21
2599.867032643556
 31
0.0
  0
LINE
  5
85F1
330
8517
100
AcDbEntity
  8
3
 62
     0
370
    -2
100
AcDbLine
 10
1184.008057762066
 20
2439.867032643556
 30
0.0
 11
1184.008057762066
 21
2369.867032643556
 31
0.0
  0
LINE
  5
85F2
330
8517
100
AcDbEntity
  8
3
 62
     0
370
    -2
100
AcDbLine
 10
1184.008057762066
 20
2449.867032643556
 30
0.0
 11
1016.508057762067
 21
2500.117032643557
 31
0.0
  0
LINE
  5
85F3
330
8517
100
AcDbEntity
  8
3
 62
     0
370
    -2
100
AcDbLine
 10
1016.508057762067
 20
2500.117032643557
 30
0.0
 11
1016.508057762067
 21
2875.117032643557
 31
0.0
  0
MTEXT
  5
85F4
330
8517
100
AcDbEntity
  8
3
 62
     0
100
AcDbMText
 10
901.5080577620661
 20
2687.617032643557
 30
0.0
 40
105.0
 41
0.0
 71
     5
 72
     1
  1
\A1;(20)
 11
0.0000000000000001
 21
1.0
 31
0.0
 73
     1
 44
1.0
1001
ACAD
1000
MTEXTBEGIN
1070
    73
1070
     1
1070
    44
1040
1.0
1070
    74
1070
     0
1000
MTEXTEND
  0
LINE
  5
85F5
330
8517
100
AcDbEntity
  8
3
 62
     0
370
    -2
100
AcDbLine
 10
1184.008057762066
 20
2459.867032643556
 30
0.0
 11
1184.008057762066
 21
2439.867032643556
 31
0.0
  0
LINE
  5
85F6
330
8517
100
AcDbEntity
  8
3
 62
     0
370
    -2
100
AcDbLine
 10
1184.008057762066
 20
2459.867032643556
 30
0.0
 11
1184.008057762066
 21
2439.867032643556
 31
0.0
  0
INSERT
  5
85F7
330
8517
100
AcDbEntity
  8
3
 62
     0
370
    -2
100
AcDbBlockReference
  2
_OPEN
 10
1184.008057762066
 20
2459.867032643556
 30
0.0
 41
70.0
 42
70.0
 43
70.0
 50
270.0
  0
INSERT
  5
85F8
330
8517
100
AcDbEntity
  8
3
 62
     0
370
    -2
100
AcDbBlockReference
  2
_DotSmall
 10
1184.008057762066
 20
2439.867032643556
 30
0.0
 41
70.0
 42
70.0
 43
70.0
 50
90.0
  0
POINT
  5
85F9
330
8517
100
AcDbEntity
  8
DEFPOINTS
 62
     0
100
AcDbPoint
 10
1888.21797163364
 20
2459.867032643556
 30
0.0
  0
POINT
  5
85FA
330
8517
100
AcDbEntity
  8
DEFPOINTS
 62
     0
100
AcDbPoint
 10
1888.21797163364
 20
2439.867032643556
 30
0.0
  0
POINT
  5
85FB
330
8517
100
AcDbEntity
  8
DEFPOINTS
 62
     0
100
AcDbPoint
 10
1184.008057762066
 20
2439.867032643556
 30
0.0
  0
ENDBLK
  5
8519
330
8517
100
AcDbEntity
  8
0
100
AcDbBlockEnd
  0
BLOCK
  5
852A
330
8529
100
AcDbEntity
  8
0
100
AcDbBlockBegin
  2
*D47
 70
     1
 10
0.0
 20
0.0
 30
0.0
  3
*D47
  1

  0
LINE
  5
8767
330
8529
100
AcDbEntity
  8
3
 62
     0
370
    -2
100
AcDbLine
 10
1870.717971633641
 20
2439.867032643556
 30
0.0
 11
1149.008057762066
 21
2439.867032643556
 31
0.0
  0
LINE
  5
8768
330
8529
100
AcDbEntity
  8
3
 62
     0
370
    -2
100
AcDbLine
 10
1870.717971633641
 20
2374.867032643556
 30
0.0
 11
1149.008057762066
 21
2374.867032643556
 31
0.0
  0
LINE
  5
8769
330
8529
100
AcDbEntity
  8
3
 62
     0
370
    -2
100
AcDbLine
 10
1184.008057762066
 20
2439.867032643556
 30
0.0
 11
1184.008057762066
 21
2509.867032643556
 31
0.0
  0
LINE
  5
876A
330
8529
100
AcDbEntity
  8
3
 62
     0
370
    -2
100
AcDbLine
 10
1184.008057762066
 20
2304.867032643556
 30
0.0
 11
1184.008057762066
 21
2234.867032643556
 31
0.0
  0
MTEXT
  5
876B
330
8529
100
AcDbEntity
  8
3
 62
     0
100
AcDbMText
 10
1096.508057762066
 20
2234.867032643556
 30
0.0
 40
105.0
 41
0.0
 71
     5
 72
     1
  1
\A1;65
 11
0.0000000000000001
 21
1.0
 31
0.0
 73
     1
 44
1.0
1001
ACAD
1000
MTEXTBEGIN
1070
    73
1070
     1
1070
    44
1040
1.0
1070
    74
1070
     0
1000
MTEXTEND
  0
LINE
  5
876C
330
8529
100
AcDbEntity
  8
3
 62
     0
370
    -2
100
AcDbLine
 10
1184.008057762066
 20
2439.867032643556
 30
0.0
 11
1184.008057762066
 21
2374.867032643556
 31
0.0
  0
INSERT
  5
876D
330
8529
100
AcDbEntity
  8
3
 62
     0
370
    -2
100
AcDbBlockReference
  2
_DotSmall
 10
1184.008057762066
 20
2439.867032643556
 30
0.0
 41
70.0
 42
70.0
 43
70.0
 50
270.0
  0
INSERT
  5
876E
330
8529
100
AcDbEntity
  8
3
 62
     0
370
    -2
100
AcDbBlockReference
  2
_OPEN
 10
1184.008057762066
 20
2374.867032643556
 30
0.0
 41
70.0
 42
70.0
 43
70.0
 50
90.0
  0
POINT
  5
876F
330
8529
100
AcDbEntity
  8
DEFPOINTS
 62
     0
100
AcDbPoint
 10
1888.21797163364
 20
2439.867032643556
 30
0.0
  0
POINT
  5
8770
330
8529
100
AcDbEntity
  8
DEFPOINTS
 62
     0
100
AcDbPoint
 10
1888.21797163364
 20
2374.867032643556
 30
0.0
  0
POINT
  5
8771
330
8529
100
AcDbEntity
  8
DEFPOINTS
 62
     0
100
AcDbPoint
 10
1184.008057762066
 20
2374.867032643556
 30
0.0
  0
ENDBLK
  5
852B
330
8529
100
AcDbEntity
  8
0
100
AcDbBlockEnd
  0
BLOCK
  5
853C
330
853B
100
AcDbEntity
  8
0
100
AcDbBlockBegin
  2
*D48
 70
     1
 10
0.0
 20
0.0
 30
0.0
  3
*D48
  1

  0
LINE
  5
8580
330
853B
100
AcDbEntity
  8
3
 62
     0
370
    -2
100
AcDbLine
 10
1870.717971633641
 20
2374.867032643556
 30
0.0
 11
724.4239651301247
 21
2374.867032643556
 31
0.0
  0
LINE
  5
8581
330
853B
100
AcDbEntity
  8
3
 62
     0
370
    -2
100
AcDbLine
 10
2612.717971633641
 20
4619.867032643557
 30
0.0
 11
724.4239651301251
 21
4619.867032643557
 31
0.0
  0
LINE
  5
8582
330
853B
100
AcDbEntity
  8
3
 62
     0
370
    -2
100
AcDbLine
 10
759.4239651301246
 20
2444.867032643557
 30
0.0
 11
759.4239651301251
 21
4549.867032643557
 31
0.0
  0
INSERT
  5
8583
330
853B
100
AcDbEntity
  8
3
 62
     0
370
    -2
100
AcDbBlockReference
  2
_OPEN
 10
759.4239651301246
 20
2374.867032643556
 30
0.0
 41
70.0
 42
70.0
 43
70.0
 50
270.0
  0
INSERT
  5
8584
330
853B
100
AcDbEntity
  8
3
 62
     0
370
    -2
100
AcDbBlockReference
  2
_OPEN
 10
759.4239651301251
 20
4619.867032643557
 30
0.0
 41
70.0
 42
70.0
 43
70.0
 50
90.0
  0
MTEXT
  5
8585
330
853B
100
AcDbEntity
  8
3
 62
     0
100
AcDbMText
 10
644.4239651301243
 20
3497.367032643557
 30
0.0
 40
105.0
 41
0.0
 71
     5
 72
     1
  1
\A1;(2245)
 11
0.0000000000000001
 21
1.0
 31
0.0
 73
     1
 44
1.0
1001
ACAD
1000
MTEXTBEGIN
1070
    73
1070
     1
1070
    44
1040
1.0
1070
    74
1070
     0
1000
MTEXTEND
  0
POINT
  5
8586
330
853B
100
AcDbEntity
  8
DEFPOINTS
 62
     0
100
AcDbPoint
 10
1888.21797163364
 20
2374.867032643556
 30
0.0
  0
POINT
  5
8587
330
853B
100
AcDbEntity
  8
DEFPOINTS
 62
     0
100
AcDbPoint
 10
2630.217971633641
 20
4619.867032643557
 30
0.0
  0
POINT
  5
8588
330
853B
100
AcDbEntity
  8
DEFPOINTS
 62
     0
100
AcDbPoint
 10
759.4239651301251
 20
4619.867032643557
 30
0.0
  0
ENDBLK
  5
853D
330
853B
100
AcDbEntity
  8
0
100
AcDbBlockEnd
  0
BLOCK
  5
85EC
330
85EA
100
AcDbEntity
  8
0
100
AcDbBlockBegin
  2
_DotSmall
 70
     0
 10
0.0
 20
0.0
 30
0.0
  3
_DotSmall
  1

  0
LWPOLYLINE
  5
85EB
330
85EA
100
AcDbEntity
  8
0
  6
ByBlock
 62
     0
100
AcDbPolyline
 90
        2
 70
     1
 43
0.5
 10
-0.0625
 20
0.0
 42
1.0
 10
0.0625
 20
0.0
 42
1.0
  0
ENDBLK
  5
85ED
330
85EA
100
AcDbEntity
  8
0
100
AcDbBlockEnd
  0
ENDSEC
  0
SECTION
  2
ENTITIES
  0
INSERT
  5
7C22
330
8394
100
AcDbEntity
  8
0
100
AcDbBlockReference
  2
YA_N
 10
6.0
 20
5.0
 30
0.0
  0
LINE
  5
7C24
330
8394
100
AcDbEntity
  8
2
100
AcDbLine
 10
1641.437320180664
 20
3814.867032643557
 30
0.0
 11
3614.592312747312
 21
3814.867032643557
 31
0.0
  0
LINE
  5
7C25
330
8394
100
AcDbEntity
  8
2
100
AcDbLine
 10
2548.217971633641
 20
2374.867032643557
 30
0.0
 11
2548.217971633641
 21
4680.935226323958
 31
0.0
  0
LINE
  5
7C26
330
8394
100
AcDbEntity
  8
1
100
AcDbLine
 10
1788.21797163364
 20
3819.867032643557
 30
0.0
 11
1788.21797163364
 21
2563.867032643557
 31
0.0
  0
LINE
  5
7C27
330
8394
100
AcDbEntity
  8
1
100
AcDbLine
 10
1788.21797163364
 20
2563.867032643557
 30
0.0
 11
1792.217971633641
 21
2563.867032643557
 31
0.0
  0
LINE
  5
7C28
330
8394
100
AcDbEntity
  8
1
100
AcDbLine
 10
1788.21797163364
 20
3819.867032643557
 30
0.0
 11
1792.217971633641
 21
3819.867032643557
 31
0.0
  0
LINE
  5
7C29
330
8394
100
AcDbEntity
  8
1
100
AcDbLine
 10
1838.21797163364
 20
3766.867032643556
 30
0.0
 11
1838.217971633642
 21
2621.354120878995
 31
0.0
  0
LINE
  5
7C2A
330
8394
100
AcDbEntity
  8
1
100
AcDbLine
 10
1792.217971633641
 20
3819.867032643557
 30
0.0
 11
1792.217971633641
 21
2563.867032643557
 31
0.0
  0
LINE
  5
7C2B
330
8394
100
AcDbEntity
  8
1
100
AcDbLine
 10
1888.21797163364
 20
2459.867032643556
 30
0.0
 11
4148.21797163364
 21
2459.867032643556
 31
0.0
1001
ACAD
1000
ASC_BOUNDS
1002
{
1070
    19
1005
0
1002
}
  0
LINE
  5
7C2C
330
8394
100
AcDbEntity
  8
1
100
AcDbLine
 10
1888.21797163364
 20
2584.867032643556
 30
0.0
 11
1888.21797163364
 21
2459.867032643556
 31
0.0
  0
LINE
  5
7C2D
330
8394
100
AcDbEntity
  8
1
100
AcDbLine
 10
4148.21797163364
 20
2584.867032643556
 30
0.0
 11
4148.21797163364
 21
2459.867032643556
 31
0.0
  0
LINE
  5
7C2E
330
8394
100
AcDbEntity
  8
1
100
AcDbLine
 10
1888.21797163364
 20
2584.867032643556
 30
0.0
 11
4148.21797163364
 21
2584.867032643556
 31
0.0
  0
ARC
  5
7C2F
330
8394
100
AcDbEntity
  8
1
100
AcDbCircle
 10
2466.217971633641
 20
3732.867032643557
 30
0.0
 40
1051.0
100
AcDbArc
 50
274.4748178985337
 51
4.474817898533836
  0
ARC
  5
7C30
330
8394
100
AcDbEntity
  8
1
100
AcDbCircle
 10
2630.217971633641
 20
3732.867032643557
 30
0.0
 40
887.0
100
AcDbArc
 50
5.304365207795823
 51
95.30436520779584
  0
ARC
  5
7C31
330
8394
100
AcDbEntity
  8
1
100
AcDbCircle
 10
2616.717971633641
 20
3883.367032643556
 30
0.0
 40
736.5
100
AcDbArc
 50
95.33664832138349
 51
185.3366483213833
  0
LINE
  5
7C32
330
8394
100
AcDbEntity
  8
1
100
AcDbLine
 10
1788.21797163364
 20
2616.867032643556
 30
0.0
 11
2548.217971633641
 21
2685.070773822214
 31
0.0
  0
LINE
  5
7C33
330
8394
100
AcDbEntity
  8
1
100
AcDbLine
 10
1788.21797163364
 20
3766.867032643556
 30
0.0
 11
1881.944754402151
 21
3766.867032643556
 31
0.0
  0
LINE
  5
7C34
330
8394
100
AcDbEntity
  8
2
100
AcDbLine
 10
3858.217971633641
 20
3158.725308799501
 30
0.0
 11
3858.217971633639
 21
2374.867032643557
 31
0.0
  0
LINE
  5
7C35
330
8394
100
AcDbEntity
  8
2
100
AcDbLine
 10
3622.891676774662
 20
2844.867032643557
 30
0.0
 11
4122.3825976159
 21
2844.867032643557
 31
0.0
  0
LINE
  5
7C36
330
8394
100
AcDbEntity
  8
1
100
AcDbLine
 10
4555.400400804151
 20
2459.867032643556
 30
0.0
 11
4620.400400804152
 21
2459.867032643556
 31
0.0
1001
ACAD
1000
ASC_BOUNDS
1002
{
1070
    19
1002
}
  0
LINE
  5
7C37
330
8394
100
AcDbEntity
  8
1
100
AcDbLine
 10
4555.400400804152
 20
2584.867032643556
 30
0.0
 11
6455.40040080415
 21
2584.867032643556
 31
0.0
  0
LINE
  5
7C38
330
8394
100
AcDbEntity
  8
1
100
AcDbLine
 10
4620.400400804153
 20
2459.867032643556
 30
0.0
 11
6455.40040080415
 21
2459.867032643556
 31
0.0
1001
ACAD
1000
ASC_BOUNDS
1002
{
1070
    19
1002
}
  0
LINE
  5
7C39
330
8394
100
AcDbEntity
  8
2
100
AcDbLine
 10
4530.223650737053
 20
3814.867032643557
 30
0.0
 11
6562.388387880893
 21
3814.867032643557
 31
0.0
  0
LINE
  5
7C3A
330
8394
100
AcDbEntity
  8
1
100
AcDbLine
 10
4552.400400804152
 20
4068.867032643557
 30
0.0
 11
4552.400400804152
 21
2726.867032643558
 31
0.0
  0
LINE
  5
7C3B
330
8394
100
AcDbEntity
  8
1
100
AcDbLine
 10
4662.900400804153
 20
4068.867032643557
 30
0.0
 11
4662.900400804151
 21
2726.867032643558
 31
0.0
  0
LINE
  5
7C3C
330
8394
100
AcDbEntity
  8
2
100
AcDbLine
 10
4531.481461585022
 20
2844.867032643557
 30
0.0
 11
5409.521147892139
 21
2844.867032643557
 31
0.0
  0
LINE
  5
7C3D
330
8394
100
AcDbEntity
  8
1
100
AcDbLine
 10
4517.400400804151
 20
4194.867032643556
 30
0.0
 11
4517.400400804151
 21
2624.867032643557
 31
0.0
  0
LINE
  5
7C3E
330
8394
100
AcDbEntity
  8
1
100
AcDbLine
 10
4714.700400804152
 20
4194.867032643556
 30
0.0
 11
4714.700400804151
 21
4174.867032643557
 31
0.0
  0
LINE
  5
7C3F
330
8394
100
AcDbEntity
  8
2
100
AcDbLine
 10
2548.217971633641
 20
7559.114361450955
 30
0.0
 11
2548.217971633641
 21
5716.535950910814
 31
0.0
  0
LINE
  5
7C40
330
8394
100
AcDbEntity
  8
2
100
AcDbLine
 10
1701.872858290997
 20
6875.481934815962
 30
0.0
 11
3638.135409496288
 21
6875.481934815962
 31
0.0
  0
LINE
  5
7C41
330
8394
100
AcDbEntity
  8
2
100
AcDbLine
 10
5637.400400804152
 20
4829.049358809385
 30
0.0
 11
5637.400400804152
 21
2374.867032643556
 31
0.0
  0
POINT
  5
7C42
330
8394
100
AcDbEntity
  8
1
100
AcDbPoint
 10
1747.01640913502
 20
3814.867032643557
 30
0.0
  0
INSERT
  5
7C43
330
8394
100
AcDbEntity
  8
0
100
AcDbBlockReference
  2
YA_N
 10
-1074.779326041182
 20
-1311.669320613289
 30
0.0
 41
25.0
 42
25.0
 43
25.0
  0
LINE
  5
7C45
330
8394
100
AcDbEntity
  8
1
100
AcDbLine
 10
1888.21797163364
 20
2439.867032643556
 30
0.0
 11
4148.21797163364
 21
2439.867032643556
 31
0.0
1001
ACAD
1000
ASC_BOUNDS
1002
{
1070
    19
1005
0
1002
}
  0
LINE
  5
7C46
330
8394
100
AcDbEntity
  8
1
100
AcDbLine
 10
1888.21797163364
 20
2439.867032643556
 30
0.0
 11
1888.21797163364
 21
2374.867032643556
 31
0.0
  0
LINE
  5
7C47
330
8394
100
AcDbEntity
  8
1
100
AcDbLine
 10
4148.21797163364
 20
2439.867032643556
 30
0.0
 11
4148.21797163364
 21
2374.867032643556
 31
0.0
  0
LINE
  5
7C48
330
8394
100
AcDbEntity
  8
1
100
AcDbLine
 10
1888.21797163364
 20
2374.867032643556
 30
0.0
 11
4148.21797163364
 21
2374.867032643556
 31
0.0
1001
ACAD
1000
ASC_BOUNDS
1002
{
1070
    19
1002
}
  0
LINE
  5
7C49
330
8394
100
AcDbEntity
  8
1
100
AcDbLine
 10
4557.900400804153
 20
2439.867032643556
 30
0.0
 11
6455.400400804153
 21
2439.867032643556
 31
0.0
1001
ACAD
1000
ASC_BOUNDS
1002
{
1070
    19
1002
}
  0
LINE
  5
7C4A
330
8394
100
AcDbEntity
  8
1
100
AcDbLine
 10
4555.400400804152
 20
2439.867032643556
 30
0.0
 11
4555.400400804141
 21
2374.867032643556
 31
0.0
  0
LINE
  5
7C4B
330
8394
100
AcDbEntity
  8
1
100
AcDbLine
 10
4555.40040080414
 20
2374.867032643556
 30
0.0
 11
6455.400400804132
 21
2374.867032643556
 31
0.0
  0
INSERT
  5
7C4C
330
8394
100
AcDbEntity
  8
0
100
AcDbBlockReference
  2
YA_N
 10
-346.9416476423939
 20
-375.8074592043958
 30
0.0
 41
25.0
 42
25.0
 43
25.0
  0
ARC
  5
7C51
330
8394
100
AcDbEntity
  8
1
100
AcDbCircle
 10
3858.217971633641
 20
2844.867032643557
 30
0.0
 40
203.5
100
AcDbArc
 50
285.60376
 51
254.396301
  0
LINE
  5
7C52
330
8394
100
AcDbEntity
  8
1
100
AcDbLine
 10
3912.956008633641
 20
2648.867032643556
 30
0.0
 11
3803.47993463364
 21
2648.867032643556
 31
0.0
  0
ARC
  5
7C53
330
8394
100
AcDbEntity
  8
1
100
AcDbCircle
 10
3672.217971633641
 20
2661.867032643556
 30
0.0
 40
3.0
100
AcDbArc
 50
90.0
 51
180.0
  0
ARC
  5
7C54
330
8394
100
AcDbEntity
  8
1
100
AcDbCircle
 10
3674.217971633641
 20
2719.193693643557
 30
0.0
 40
5.000066999999999
100
AcDbArc
 50
124.943665
 51
180.0
  0
LINE
  5
7C55
330
8394
100
AcDbEntity
  8
1
100
AcDbLine
 10
3669.217971633641
 20
2719.193693643557
 30
0.0
 11
3669.217971633641
 21
2644.867032643556
 31
0.0
  0
LINE
  5
7C59
330
8394
100
AcDbEntity
  8
1
100
AcDbLine
 10
3754.11540163364
 20
2670.010221643557
 30
0.0
 11
3748.717971633641
 21
2649.867032643558
 31
0.0
  0
LINE
  5
7C5A
330
8394
100
AcDbEntity
  8
1
100
AcDbLine
 10
3748.717971633641
 20
2661.867032643556
 30
0.0
 11
3748.717971633641
 21
2644.867032643556
 31
0.0
  0
LINE
  5
7C5B
330
8394
100
AcDbEntity
  8
1
100
AcDbLine
 10
3745.717971633641
 20
2664.867032643556
 30
0.0
 11
3672.217971633641
 21
2664.867032643556
 31
0.0
  0
ARC
  5
7C5C
330
8394
100
AcDbEntity
  8
1
100
AcDbCircle
 10
3745.717971633641
 20
2661.867032643556
 30
0.0
 40
3.0
100
AcDbArc
 50
0.0
 51
90.0
  0
LINE
  5
7C5D
330
8394
100
AcDbEntity
  8
1
100
AcDbLine
 10
3671.354201633641
 20
2723.292325643557
 30
0.0
 11
3687.292067633641
 21
2734.428800643556
 31
0.0
  0
LINE
  5
7C5E
330
8394
100
AcDbEntity
  8
1
100
AcDbLine
 10
4047.217971633641
 20
2719.193693643557
 30
0.0
 11
4047.217971633641
 21
2644.867032643556
 31
0.0
  0
LINE
  5
7C62
330
8394
100
AcDbEntity
  8
1
100
AcDbLine
 10
3962.32075463364
 20
2670.010343643556
 30
0.0
 11
3967.717971633641
 21
2649.867032643558
 31
0.0
  0
LINE
  5
7C63
330
8394
100
AcDbEntity
  8
1
100
AcDbLine
 10
3967.717971633641
 20
2661.867032643556
 30
0.0
 11
3967.717971633641
 21
2644.867032643556
 31
0.0
  0
LINE
  5
7C64
330
8394
100
AcDbEntity
  8
1
100
AcDbLine
 10
3970.717971633641
 20
2664.867032643556
 30
0.0
 11
4044.217971633641
 21
2664.867032643556
 31
0.0
  0
ARC
  5
7C65
330
8394
100
AcDbEntity
  8
1
100
AcDbCircle
 10
3970.717971633641
 20
2661.867032643556
 30
0.0
 40
3.0
100
AcDbArc
 50
90.0
 51
180.0
  0
ARC
  5
7C66
330
8394
100
AcDbEntity
  8
1
100
AcDbCircle
 10
4044.217971633641
 20
2661.867032643556
 30
0.0
 40
3.0
100
AcDbArc
 50
0.0
 51
90.0
  0
LINE
  5
7C67
330
8394
100
AcDbEntity
  8
1
100
AcDbLine
 10
4045.081862633639
 20
2723.292325643557
 30
0.0
 11
4029.14399663364
 21
2734.428800643556
 31
0.0
  0
ARC
  5
7C68
330
8394
100
AcDbEntity
  8
1
100
AcDbCircle
 10
4042.217971633641
 20
2719.193693643557
 30
0.0
 40
5.0
100
AcDbArc
 50
0.0
 51
55.05633899999998
  0
LINE
  5
7C69
330
8394
100
AcDbEntity
  8
1
100
AcDbLine
 10
3614.155715585552
 20
2644.867032643556
 30
0.0
 11
3788.217971633641
 21
2644.867032643556
 31
0.0
  0
LINE
  5
7C6A
330
8394
100
AcDbEntity
  8
1
100
AcDbLine
 10
3598.217971633639
 20
2584.867032643556
 30
0.0
 11
3614.155715585552
 21
2644.867032643556
 31
0.0
  0
LINE
  5
7C6B
330
8394
100
AcDbEntity
  8
1
100
AcDbLine
 10
4118.217971633638
 20
2584.867032643556
 30
0.0
 11
4102.232961727276
 21
2644.867032643556
 31
0.0
  0
LINE
  5
7C6D
330
8394
100
AcDbEntity
  8
1
100
AcDbLine
 10
3788.217971633641
 20
2634.867032643557
 30
0.0
 11
3928.217971633641
 21
2634.867032643557
 31
0.0
  0
LINE
  5
7C6E
330
8394
100
AcDbEntity
  8
1
100
AcDbLine
 10
3928.217971633641
 20
2644.867032643556
 30
0.0
 11
3928.217971633639
 21
2634.867032643557
 31
0.0
  0
LINE
  5
7C6F
330
8394
100
AcDbEntity
  8
1
100
AcDbLine
 10
3788.217971633641
 20
2644.867032643556
 30
0.0
 11
3788.217971633641
 21
2634.867032643557
 31
0.0
  0
LINE
  5
7C72
330
8394
100
AcDbEntity
  8
1
100
AcDbLine
 10
3928.217971633641
 20
2644.867032643556
 30
0.0
 11
4102.232961727276
 21
2644.867032643556
 31
0.0
  0
CIRCLE
  5
7C73
330
8394
100
AcDbEntity
  8
1
100
AcDbCircle
 10
3858.217971633641
 20
2844.867032643557
 30
0.0
 40
118.0
  0
LINE
  5
7C74
330
8394
100
AcDbEntity
  8
1
100
AcDbLine
 10
4552.400400804152
 20
2962.867032643556
 30
0.0
 11
4662.900400804152
 21
2962.867032643556
 31
0.0
  0
LINE
  5
7C75
330
8394
100
AcDbEntity
  8
1
100
AcDbLine
 10
4552.400400804152
 20
2726.867032643558
 30
0.0
 11
4662.900400804152
 21
2726.867032643558
 31
0.0
  0
LINE
  5
7C76
330
8394
100
AcDbEntity
  8
1
100
AcDbLine
 10
4517.400400804151
 20
2624.867032643557
 30
0.0
 11
4714.700400804152
 21
2624.867032643557
 31
0.0
  0
INSERT
  5
7C78
330
8394
100
AcDbEntity
  8
0
100
AcDbBlockReference
  2
YA_N
 10
-394.4722692372305
 20
-430.898429998433
 30
0.0
 41
25.0
 42
25.0
 43
25.0
  0
LINE
  5
7C7B
330
8394
100
AcDbEntity
  8
1
100
AcDbLine
 10
6387.40040080415
 20
2616.867032643556
 30
0.0
 11
6387.400400804153
 21
3814.867032643557
 31
0.0
  0
LINE
  5
7C7C
330
8394
100
AcDbEntity
  8
1
100
AcDbLine
 10
4887.400400804152
 20
4619.867032643557
 30
0.0
 11
6387.400400804152
 21
4619.867032643557
 31
0.0
  0
LINE
  5
7C7D
330
8394
100
AcDbEntity
  8
1
100
AcDbLine
 10
4887.400400804152
 20
3814.867032643557
 30
0.0
 11
4887.400400804152
 21
4619.867032643557
 31
0.0
  0
LINE
  5
7C7E
330
8394
100
AcDbEntity
  8
1
100
AcDbLine
 10
6387.400400804152
 20
3814.867032643557
 30
0.0
 11
6387.400400804152
 21
4619.867032643557
 31
0.0
  0
LINE
  5
7C7F
330
8394
100
AcDbEntity
  8
1
100
AcDbLine
 10
4729.900400804151
 20
3751.867032643556
 30
0.0
 11
4820.100400804152
 21
3751.867032643556
 31
0.0
  0
LINE
  5
7C80
330
8394
100
AcDbEntity
  8
1
100
AcDbLine
 10
4719.900400804151
 20
3741.867032643556
 30
0.0
 11
4719.900400804151
 21
3611.867032643557
 31
0.0
  0
LINE
  5
7C81
330
8394
100
AcDbEntity
  8
1
100
AcDbLine
 10
4859.900400804151
 20
3751.867032643556
 30
0.0
 11
4859.90040080415
 21
3601.867032643556
 31
0.0
  0
LINE
  5
7C82
330
8394
100
AcDbEntity
  8
1
100
AcDbLine
 10
4729.900400804151
 20
3601.867032643556
 30
0.0
 11
4820.100400804152
 21
3601.867032643556
 31
0.0
  0
ARC
  5
7C83
330
8394
100
AcDbEntity
  8
1
100
AcDbCircle
 10
4729.900400804151
 20
3741.867032643556
 30
0.0
 40
10.0
100
AcDbArc
 50
90.0
 51
180.0
  0
ARC
  5
7C84
330
8394
100
AcDbEntity
  8
1
100
AcDbCircle
 10
4729.900400804151
 20
3611.867032643557
 30
0.0
 40
10.0
100
AcDbArc
 50
180.0
 51
270.0
  0
LINE
  5
7C85
330
8394
100
AcDbEntity
  8
1
100
AcDbLine
 10
6414.90040080415
 20
3751.867032643556
 30
0.0
 11
6414.90040080415
 21
3601.867032643556
 31
0.0
  0
LINE
  5
7C86
330
8394
100
AcDbEntity
  8
1
100
AcDbLine
 10
6567.40040080415
 20
3741.867032643556
 30
0.0
 11
6567.40040080415
 21
3611.867032643557
 31
0.0
  0
LINE
  5
7C87
330
8394
100
AcDbEntity
  8
1
100
AcDbLine
 10
6557.40040080415
 20
3601.867032643556
 30
0.0
 11
6454.700400804154
 21
3601.867032643556
 31
0.0
  0
ARC
  5
7C88
330
8394
100
AcDbEntity
  8
1
100
AcDbCircle
 10
6557.40040080415
 20
3611.867032643557
 30
0.0
 40
10.0
100
AcDbArc
 50
270.0
 51
0.0
  0
LINE
  5
7C89
330
8394
100
AcDbEntity
  8
1
100
AcDbLine
 10
6557.40040080415
 20
3751.867032643556
 30
0.0
 11
6454.700400804154
 21
3751.867032643556
 31
0.0
  0
ARC
  5
7C8A
330
8394
100
AcDbEntity
  8
1
100
AcDbCircle
 10
6557.40040080415
 20
3741.867032643556
 30
0.0
 40
10.0
100
AcDbArc
 50
0.0
 51
90.0
  0
LINE
  5
7C8B
330
8394
100
AcDbEntity
  8
1
100
AcDbLine
 10
4692.400400804151
 20
3854.867032643557
 30
0.0
 11
4887.400400804151
 21
3854.867032643557
 31
0.0
  0
LINE
  5
7C8C
330
8394
100
AcDbEntity
  8
1
100
AcDbLine
 10
4692.400400804152
 20
3774.867032643556
 30
0.0
 11
4887.400400804153
 21
3774.867032643556
 31
0.0
  0
LINE
  5
7C8D
330
8394
100
AcDbEntity
  8
1
100
AcDbLine
 10
4692.400400804152
 20
3854.867032643557
 30
0.0
 11
4692.400400804152
 21
3774.867032643556
 31
0.0
  0
LINE
  5
7C8E
330
8394
100
AcDbEntity
  8
1
100
AcDbLine
 10
4662.900400804153
 20
3847.367032643557
 30
0.0
 11
4692.400400804152
 21
3847.367032643557
 31
0.0
  0
LINE
  5
7C8F
330
8394
100
AcDbEntity
  8
1
100
AcDbLine
 10
4662.900400804152
 20
3782.367032643558
 30
0.0
 11
4692.400400804152
 21
3782.367032643558
 31
0.0
  0
LINE
  5
7C94
330
8394
100
AcDbEntity
  8
1
100
AcDbLine
 10
6454.700400804153
 20
3751.867032643556
 30
0.0
 11
6414.90040080415
 21
3751.867032643556
 31
0.0
  0
LINE
  5
7C95
330
8394
100
AcDbEntity
  8
1
100
AcDbLine
 10
6454.700400804154
 20
3601.867032643556
 30
0.0
 11
6414.90040080415
 21
3601.867032643556
 31
0.0
  0
LINE
  5
7C96
330
8394
100
AcDbEntity
  8
1
100
AcDbLine
 10
4820.100400804152
 20
3751.867032643556
 30
0.0
 11
4859.900400804151
 21
3751.867032643556
 31
0.0
  0
LINE
  5
7C97
330
8394
100
AcDbEntity
  8
1
100
AcDbLine
 10
4820.100400804152
 20
3601.867032643556
 30
0.0
 11
4859.900400804151
 21
3601.867032643556
 31
0.0
  0
ARC
  5
7C99
330
8394
100
AcDbEntity
  8
1
100
AcDbCircle
 10
2548.217971633641
 20
3814.867032643557
 30
0.0
 40
668.0
100
AcDbArc
 50
180.0
 51
184.12061321395
  0
LINE
  5
7C9A
330
8394
100
AcDbEntity
  8
1
100
AcDbLine
 10
4058.217971633641
 20
2376.867032643557
 30
0.0
 11
4058.217971633641
 21
2374.867032643556
 31
0.0
  0
LINE
  5
7C9B
330
8394
100
AcDbEntity
  8
1
100
AcDbLine
 10
6455.40040080415
 20
2584.867032643558
 30
0.0
 11
6455.40040080415
 21
2459.867032643556
 31
0.0
  0
LINE
  5
7C9C
330
8394
100
AcDbEntity
  8
1
100
AcDbLine
 10
4555.400400804152
 20
2584.867032643556
 30
0.0
 11
4555.400400804152
 21
2459.867032643556
 31
0.0
  0
LINE
  5
7C9D
330
8394
100
AcDbEntity
  8
1
100
AcDbLine
 10
6455.400400804153
 20
2439.86703264356
 30
0.0
 11
6455.400400804132
 21
2374.867032643556
 31
0.0
  0
INSERT
  5
7C9F
330
8394
100
AcDbEntity
  8
0
100
AcDbBlockReference
  2
YA_N
 10
4305.350442567148
 20
-1988.400780944633
 30
0.0
  0
POINT
  5
7CA1
330
8394
100
AcDbEntity
  8
1
100
AcDbPoint
 10
1888.21797163364
 20
2439.867032643556
 30
0.0
  0
POINT
  5
7CA3
330
8394
100
AcDbEntity
  8
1
100
AcDbPoint
 10
1888.21797163364
 20
2439.867032643556
 30
0.0
  0
POINT
  5
7CA4
330
8394
100
AcDbEntity
  8
1
100
AcDbPoint
 10
1888.21797163364
 20
2459.867032643556
 30
0.0
  0
ARC
  5
7CA7
330
8394
100
AcDbEntity
  8
1
100
AcDbCircle
 10
2548.217971633641
 20
3814.867032643557
 30
0.0
 40
380.0
100
AcDbArc
 50
43.48529361421837
 51
239.1146961056485
  0
CIRCLE
  5
7CA8
330
8394
100
AcDbEntity
  8
1
100
AcDbCircle
 10
2548.217971633641
 20
3814.867032643557
 30
0.0
 40
254.0
  0
ARC
  5
7CA9
330
8394
100
AcDbEntity
  8
1
100
AcDbCircle
 10
3858.21797163364
 20
2844.867032643557
 30
0.0
 40
220.0
100
AcDbArc
 50
239.1146961056485
 51
47.84851548241022
  0
LINE
  5
7CAA
330
8394
100
AcDbEntity
  8
1
100
AcDbLine
 10
4552.400400804152
 20
4068.867032643557
 30
0.0
 11
4662.900400804153
 21
4068.867032643557
 31
0.0
  0
LINE
  5
7CAB
330
8394
100
AcDbEntity
  8
1
100
AcDbLine
 10
4552.400400804152
 20
3560.867032643556
 30
0.0
 11
4662.900400804152
 21
3560.867032643556
 31
0.0
  0
LINE
  5
7CAC
330
8394
100
AcDbEntity
  8
1
100
AcDbLine
 10
4517.400400804151
 20
4194.867032643556
 30
0.0
 11
4714.700400804152
 21
4194.867032643556
 31
0.0
  0
LINE
  5
7CAD
330
8394
100
AcDbEntity
  8
1
100
AcDbLine
 10
4714.700400804151
 20
2644.867032643556
 30
0.0
 11
4714.700400804152
 21
2624.867032643557
 31
0.0
  0
LINE
  5
7CAF
330
8394
100
AcDbEntity
  8
1
100
AcDbLine
 10
1888.21797163364
 20
7693.481934815962
 30
0.0
 11
3208.217971633641
 21
7693.481934815962
 31
0.0
  0
LINE
  5
7CB0
330
8394
100
AcDbEntity
  8
1
100
AcDbLine
 10
1888.21797163364
 20
5793.481934815962
 30
0.0
 11
4148.21797163364
 21
5793.481934815962
 31
0.0
  0
LINE
  5
7CB1
330
8394
100
AcDbEntity
  8
1
100
AcDbLine
 10
1888.21797163364
 20
7693.481934815962
 30
0.0
 11
1888.21797163364
 21
7625.481934815962
 31
0.0
  0
LINE
  5
7CB2
330
8394
100
AcDbEntity
  8
1
100
AcDbLine
 10
4148.21797163364
 20
6693.481934815962
 30
0.0
 11
4148.21797163364
 21
5793.481934815961
 31
0.0
  0
LINE
  5
7CB3
330
8394
100
AcDbEntity
  8
1
100
AcDbLine
 10
3208.217971633641
 20
7693.481934815962
 30
0.0
 11
3208.217971633641
 21
7625.481934815962
 31
0.0
  0
LINE
  5
7CB4
330
8394
100
AcDbEntity
  8
1
100
AcDbLine
 10
3517.217971633641
 20
6693.48193481596
 30
0.0
 11
4148.21797163364
 21
6693.481934815962
 31
0.0
  0
LINE
  5
7CB5
330
8394
100
AcDbEntity
  8
2
100
AcDbLine
 10
3858.217971633641
 20
6561.204511974287
 30
0.0
 11
3858.217971633639
 21
5716.535950910814
 31
0.0
  0
CIRCLE
  5
7CBE
330
8394
100
AcDbEntity
  8
1
100
AcDbCircle
 10
2548.217971633641
 20
3814.867032643557
 30
0.0
 40
560.0
  0
CIRCLE
  5
7CBF
330
8394
100
AcDbEntity
  8
1
100
AcDbCircle
 10
2548.217971633641
 20
3814.867032643557
 30
0.0
 40
610.0
  0
LINE
  5
7CC0
330
8394
100
AcDbEntity
  8
1
100
AcDbLine
 10
2168.21797163364
 20
5755.481934815962
 30
0.0
 11
4078.21797163364
 21
5755.481934815962
 31
0.0
  0
LINE
  5
7CC1
330
8394
100
AcDbEntity
  8
1
100
AcDbLine
 10
2168.21797163364
 20
5925.481934815962
 30
0.0
 11
4078.21797163364
 21
5925.481934815962
 31
0.0
  0
LINE
  5
7CC2
330
8394
100
AcDbEntity
  8
1
100
AcDbLine
 10
2168.217971633641
 20
5755.481934815962
 30
0.0
 11
2168.21797163364
 21
5925.481934815962
 31
0.0
  0
LINE
  5
7CC3
330
8394
100
AcDbEntity
  8
1
100
AcDbLine
 10
4078.21797163364
 20
5755.481934815962
 30
0.0
 11
4078.21797163364
 21
5925.481934815962
 31
0.0
  0
LINE
  5
7CC4
330
8394
100
AcDbEntity
  8
1
100
AcDbLine
 10
2294.217971633641
 20
5793.18193481596
 30
0.0
 11
2294.217971633641
 21
5903.681934815961
 31
0.0
  0
LINE
  5
7CC5
330
8394
100
AcDbEntity
  8
1
100
AcDbLine
 10
2802.217971633641
 20
5793.18193481596
 30
0.0
 11
2802.217971633641
 21
5903.681934815961
 31
0.0
  0
LINE
  5
7CC6
330
8394
100
AcDbEntity
  8
1
100
AcDbLine
 10
3740.217971633641
 20
5793.181934815961
 30
0.0
 11
3740.217971633641
 21
5903.681934815961
 31
0.0
  0
LINE
  5
7CC7
330
8394
100
AcDbEntity
  8
1
100
AcDbLine
 10
3976.217971633641
 20
5793.18193481596
 30
0.0
 11
3976.217971633641
 21
5903.681934815961
 31
0.0
  0
LINE
  5
7CC8
330
8394
100
AcDbEntity
  8
1
100
AcDbLine
 10
2294.217971633641
 20
5793.181934815961
 30
0.0
 11
2802.21797163364
 21
5793.181934815961
 31
0.0
  0
LINE
  5
7CC9
330
8394
100
AcDbEntity
  8
1
100
AcDbLine
 10
2294.217971633641
 20
5903.681934815961
 30
0.0
 11
2802.217971633641
 21
5903.681934815961
 31
0.0
  0
LINE
  5
7CCA
330
8394
100
AcDbEntity
  8
1
100
AcDbLine
 10
3740.217971633641
 20
5903.681934815961
 30
0.0
 11
3976.217971633641
 21
5903.681934815961
 31
0.0
  0
LINE
  5
7CCB
330
8394
100
AcDbEntity
  8
1
100
AcDbLine
 10
3740.217971633641
 20
5793.181934815961
 30
0.0
 11
3976.217971633641
 21
5793.18193481596
 31
0.0
  0
LINE
  5
7CCC
330
8394
100
AcDbEntity
  8
1
100
AcDbLine
 10
1788.21797163364
 20
7675.481934815961
 30
0.0
 11
1788.21797163364
 21
6075.481934815961
 31
0.0
  0
LINE
  5
7CCD
330
8394
100
AcDbEntity
  8
1
100
AcDbLine
 10
3517.217971633641
 20
7625.481934815962
 30
0.0
 11
3517.217971633641
 21
6125.481934815962
 31
0.0
  0
LINE
  5
7CCE
330
8394
100
AcDbEntity
  8
1
100
AcDbLine
 10
1788.21797163364
 20
7625.481934815962
 30
0.0
 11
3517.217971633641
 21
7625.481934815962
 31
0.0
  0
LINE
  5
7CCF
330
8394
100
AcDbEntity
  8
1
100
AcDbLine
 10
1788.21797163364
 20
6125.481934815961
 30
0.0
 11
3517.217971633641
 21
6125.481934815962
 31
0.0
  0
LINE
  5
7CD0
330
8394
100
AcDbEntity
  8
1
100
AcDbLine
 10
1788.21797163364
 20
7675.481934815961
 30
0.0
 11
1792.217971633641
 21
7675.481934815961
 31
0.0
  0
LINE
  5
7CD1
330
8394
100
AcDbEntity
  8
1
100
AcDbLine
 10
1788.21797163364
 20
6075.481934815961
 30
0.0
 11
1792.217971633641
 21
6075.481934815961
 31
0.0
  0
LINE
  5
7CD2
330
8394
100
AcDbEntity
  8
1
100
AcDbLine
 10
1792.217971633641
 20
7675.481934815961
 30
0.0
 11
1792.217971633641
 21
6075.481934815961
 31
0.0
  0
LINE
  5
7CD3
330
8394
100
AcDbEntity
  8
1
100
AcDbLine
 10
2513.217971633641
 20
6125.481934815962
 30
0.0
 11
2513.217971633641
 21
5903.681934815961
 31
0.0
  0
LINE
  5
7CD4
330
8394
100
AcDbEntity
  8
1
100
AcDbLine
 10
2583.217971633641
 20
6125.481934815962
 30
0.0
 11
2583.217971633641
 21
5903.681934815961
 31
0.0
  0
LINE
  5
7CD5
330
8394
100
AcDbEntity
  8
1
100
AcDbLine
 10
3659.217971633641
 20
6595.681934815961
 30
0.0
 11
3659.217971633639
 21
5938.181934815961
 31
0.0
  0
LINE
  5
7CD6
330
8394
100
AcDbEntity
  8
1
100
AcDbLine
 10
4057.217971633639
 20
6595.68193481596
 30
0.0
 11
4057.217971633639
 21
5938.181934815959
 31
0.0
  0
LINE
  5
7CD7
330
8394
100
AcDbEntity
  8
1
100
AcDbLine
 10
3659.217971633641
 20
6595.681934815961
 30
0.0
 11
4057.21797163364
 21
6595.68193481596
 31
0.0
  0
LINE
  5
7CD8
330
8394
100
AcDbEntity
  8
1
100
AcDbLine
 10
3659.217971633637
 20
5938.181934815961
 30
0.0
 11
4057.217971633638
 21
5938.181934815959
 31
0.0
  0
LINE
  5
7CD9
330
8394
100
AcDbEntity
  8
1
100
AcDbLine
 10
3830.71797163364
 20
5938.181934815959
 30
0.0
 11
3830.71797163364
 21
5903.681934815961
 31
0.0
  0
LINE
  5
7CDA
330
8394
100
AcDbEntity
  8
1
100
AcDbLine
 10
3885.717971633639
 20
5938.181934815959
 30
0.0
 11
3885.717971633639
 21
5903.681934815961
 31
0.0
  0
LINE
  5
7CDB
330
8394
100
AcDbEntity
  8
1
100
AcDbLine
 10
5354.900400804149
 20
3043.867032643558
 30
0.0
 11
4697.40040080415
 21
3043.867032643558
 31
0.0
  0
LINE
  5
7CDC
330
8394
100
AcDbEntity
  8
1
100
AcDbLine
 10
5354.900400804153
 20
2645.867032643558
 30
0.0
 11
4697.400400804153
 21
2645.867032643558
 31
0.0
  0
LINE
  5
7CDD
330
8394
100
AcDbEntity
  8
1
100
AcDbLine
 10
4697.400400804153
 20
2645.867032643556
 30
0.0
 11
4697.400400804151
 21
3043.867032643556
 31
0.0
  0
LINE
  5
7CDE
330
8394
100
AcDbEntity
  8
1
100
AcDbLine
 10
4697.400400804151
 20
2817.367032643558
 30
0.0
 11
4662.900400804152
 21
2817.367032643558
 31
0.0
  0
LINE
  5
7CDF
330
8394
100
AcDbEntity
  8
1
100
AcDbLine
 10
4697.400400804151
 20
2872.367032643558
 30
0.0
 11
4662.900400804152
 21
2872.367032643558
 31
0.0
  0
LINE
  5
7CED
330
8394
100
AcDbEntity
  8
1
100
AcDbLine
 10
2803.233337725091
 20
4096.588815715515
 30
0.0
 11
4005.858446739217
 21
3007.969117579953
 31
0.0
  0
LINE
  5
7CEE
330
8394
100
AcDbEntity
  8
1
100
AcDbLine
 10
2353.155936366428
 20
3488.752325220827
 30
0.0
 11
3745.287319636833
 21
2656.063780977765
 31
0.0
  0
LINE
  5
7CEF
330
8394
100
AcDbEntity
  8
1
100
AcDbLine
 10
2715.872964603492
 20
4005.675322118303
 30
0.0
 11
3936.104936871604
 21
2933.510253738124
 31
0.0
  0
LINE
  5
7CF0
330
8394
100
AcDbEntity
  8
1
100
AcDbLine
 10
2414.625936887349
 20
3598.836552728462
 30
0.0
 11
3796.155530294814
 21
2744.506415990088
 31
0.0
  0
LINE
  5
7CF1
330
8394
100
AcDbEntity
  8
1
100
AcDbLine
 10
5290.166101963095
 20
2616.867032643556
 30
0.0
 11
6387.40040080415
 21
2616.867032643556
 31
0.0
  0
LINE
  5
7CF5
330
8394
100
AcDbEntity
  8
1
100
AcDbLine
 10
1888.21797163364
 20
6125.481934815961
 30
0.0
 11
1888.21797163364
 21
5793.481934815962
 31
0.0
  0
LINE
  5
7CF6
330
8394
100
AcDbEntity
  8
1
100
AcDbLine
 10
5354.900400804153
 20
2645.867032643559
 30
0.0
 11
5354.900400804151
 21
3043.867032643559
 31
0.0
  0
LINE
  5
7CF7
330
8394
100
AcDbEntity
  8
1
100
AcDbLine
 10
4887.400400804152
 20
3043.867032643558
 30
0.0
 11
4887.400400804153
 21
3814.867032643557
 31
0.0
  0
LINE
  5
7CF8
330
8394
100
AcDbEntity
  8
1
100
AcDbLine
 10
5290.166101963095
 20
2645.867032643558
 30
0.0
 11
5290.166101963095
 21
2584.867032643556
 31
0.0
  0
LINE
  5
7CF9
330
8394
100
AcDbEntity
  8
1
100
AcDbLine
 10
4784.467551281657
 20
2645.867032643558
 30
0.0
 11
4784.467551281657
 21
2584.867032643556
 31
0.0
  0
LINE
  5
7F3B
330
8394
100
AcDbEntity
  8
4
100
AcDbLine
 10
6475.0
 20
1750.0
 30
0.0
 11
6475.0
 21
1050.0
 31
0.0
  0
LINE
  5
7F3C
330
8394
100
AcDbEntity
  8
4
100
AcDbLine
 10
4025.0
 20
1750.0
 30
0.0
 11
4025.0
 21
1050.0
 31
0.0
  0
LINE
  5
7F3D
330
8394
100
AcDbEntity
  8
4
100
AcDbLine
 10
2275.0
 20
1750.0
 30
0.0
 11
2275.0
 21
1050.0
 31
0.0
  0
LINE
  5
7F40
330
8394
100
AcDbEntity
  8
4
100
AcDbLine
 10
2275.0
 20
1050.0
 30
0.0
 11
6475.0
 21
1050.0
 31
0.0
  0
LINE
  5
7F41
330
8394
100
AcDbEntity
  8
4
100
AcDbLine
 10
2275.0
 20
1400.0
 30
0.0
 11
6475.0
 21
1400.0
 31
0.0
  0
TEXT
  5
7F42
330
8394
100
AcDbEntity
  8
4
100
AcDbText
 10
2409.757282964156
 20
1510.400590533145
 30
0.0
 40
175.0
  1
機器名称
100
AcDbText
  0
TEXT
  5
7F43
330
8394
100
AcDbEntity
  8
4
100
AcDbText
 10
2401.903371086791
 20
1125.758048562038
 30
0.0
 40
175.0
  1
機器型番
100
AcDbText
  0
TEXT
  5
7F44
330
8394
100
AcDbEntity
  8
4
100
AcDbText
 10
4121.875609206827
 20
1479.00119135149
 30
0.0
 40
175.0
  1
ミツヤ多翼送風機
100
AcDbText
  0
TEXT
  5
7F45
330
8394
100
AcDbEntity
  8
4
100
AcDbText
 10
4153.290734549183
 20
1110.058544979801
 30
0.0
 40
175.0
  1
MF#7-5
100
AcDbText
  0
TEXT
  5
7F47
330
8394
100
AcDbEntity
  8
4
100
AcDbText
 10
2871.045700049421
 20
8342.000944663805
 30
0.0
 40
188.9999999999998
  1
床置防振ベット
100
AcDbText
  0
TEXT
  5
7F48
330
8394
100
AcDbEntity
  8
4
100
AcDbText
 10
1106.586576653062
 20
8868.583416697545
 30
0.0
 40
252.0
  1
遠心式両吸込両持多翼ファン
100
AcDbText
  0
LINE
  5
7F49
330
8394
100
AcDbEntity
  8
4
100
AcDbLine
 10
875.0
 20
8642.930639926817
 30
0.0
 11
6475.0
 21
8642.930639926817
 31
0.0
  0
LINE
  5
7F4A
330
8394
100
AcDbEntity
  8
4
100
AcDbLine
 10
875.0
 20
9342.930639926818
 30
0.0
 11
6475.0
 21
9342.930639926818
 31
0.0
  0
LINE
  5
7F4B
330
8394
100
AcDbEntity
  8
4
100
AcDbLine
 10
2275.0
 20
1750.0
 30
0.0
 11
6475.0
 21
1750.0
 31
0.0
  0
LINE
  5
7F4C
330
8394
100
AcDbEntity
  8
4
100
AcDbLine
 10
875.0
 20
9342.930639926818
 30
0.0
 11
875.0
 21
8642.930639926817
 31
0.0
  0
TEXT
  5
7F4D
330
8394
100
AcDbEntity
  8
4
100
AcDbText
 10
1345.539787199963
 20
8338.118171412203
 30
0.0
 40
188.9999999999998
  1
右回転左横向
100
AcDbText
  0
TEXT
  5
7F4E
330
8394
100
AcDbEntity
  8
4
100
AcDbText
 10
5141.393457372513
 20
9471.21378523358
 30
0.0
 40
196.0
  1
No.
100
AcDbText
  0
TEXT
  5
7F4F
330
8394
100
AcDbEntity
  8
4
100
AcDbText
 10
4589.536219100046
 20
8342.000944663805
 30
0.0
 40
188.9999999999998
  1
縮尺：1/35
100
AcDbText
  0
LINE
  5
7F50
330
8394
100
AcDbEntity
  8
4
100
AcDbLine
 10
6475.0
 20
9342.930639926818
 30
0.0
 11
6475.0
 21
8642.930639926817
 31
0.0
  0
LINE
  5
7F51
330
8394
100
AcDbEntity
  8
4
100
AcDbLine
 10
7350.0
 20
10325.0
 30
0.0
 11
7350.0
 21
10325.0
 31
0.0
  0
LINE
  5
7F52
330
8394
100
AcDbEntity
  8
4
100
AcDbLine
 10
5042.160978259526
 20
9384.422540938905
 30
0.0
 11
5042.160978259526
 21
9753.282915424136
 31
0.0
  0
LINE
  5
7F53
330
8394
100
AcDbEntity
  8
4
100
AcDbLine
 10
5042.160978259526
 20
9753.282915424136
 30
0.0
 11
6475.0
 21
9753.282915424136
 31
0.0
  0
LINE
  5
7F54
330
8394
100
AcDbEntity
  8
4
100
AcDbLine
 10
6475.0
 20
9753.282915424136
 30
0.0
 11
6475.0
 21
9384.422540938905
 31
0.0
  0
LINE
  5
7F55
330
8394
100
AcDbEntity
  8
4
100
AcDbLine
 10
6475.0
 20
9384.422540938905
 30
0.0
 11
5042.160978259526
 21
9384.422540938905
 31
0.0
  0
LINE
  5
7F56
330
8394
100
AcDbEntity
  8
4
100
AcDbLine
 10
0.0
 20
0.0
 30
0.0
 11
0.0
 21
10325.0
 31
0.0
  0
LINE
  5
7F57
330
8394
100
AcDbEntity
  8
4
100
AcDbLine
 10
0.0
 20
10325.0
 30
0.0
 11
7350.0
 21
10325.0
 31
0.0
  0
LINE
  5
7F58
330
8394
100
AcDbEntity
  8
4
100
AcDbLine
 10
7350.0
 20
10325.0
 30
0.0
 11
7350.0
 21
0.0
 31
0.0
  0
LINE
  5
7F59
330
8394
100
AcDbEntity
  8
4
100
AcDbLine
 10
7350.0
 20
0.0
 30
0.0
 11
0.0
 21
0.0
 31
0.0
  0
DIMENSION
  5
8131
330
8394
100
AcDbEntity
  8
3
100
AcDbDimension
  2
*D22
 10
2548.217971633641
 20
2151.406442439319
 30
0.0
 11
2218.217971633641
 21
2238.906442439319
 31
0.0
 71
     5
 42
-1.0
  3
Standard
100
AcDbAlignedDimension
 13
1888.21797163364
 23
2374.867032643556
 33
0.0
 14
2548.217971633641
 24
2374.867032643557
 34
0.0
100
AcDbRotatedDimension
1001
ACAD
1000
DSTYLE
1002
{
1070
   172
1070
     1
1070
    40
1040
35.0
1070
   271
1070
     0
1070
   143
1040
0.039
1002
}
  0
DIMENSION
  5
813E
330
8394
100
AcDbEntity
  8
3
100
AcDbDimension
  2
*D23
 10
4148.21797163364
 20
2151.406442439319
 30
0.0
 11
3348.217971633641
 21
2238.906442439319
 31
0.0
 71
     5
 42
-1.0
  3
Standard
100
AcDbAlignedDimension
 13
2548.217971633641
 23
2374.867032643557
 33
0.0
 14
4148.21797163364
 24
2374.867032643556
 34
0.0
100
AcDbRotatedDimension
1001
ACAD
1000
DSTYLE
1002
{
1070
   172
1070
     1
1070
    40
1040
35.0
1070
   271
1070
     0
1070
   143
1040
0.039
1002
}
  0
DIMENSION
  5
814B
330
8394
100
AcDbEntity
  8
3
100
AcDbDimension
  2
*D24
 10
5637.400400804152
 20
2151.406442439319
 30
0.0
 11
5096.400400804146
 21
2238.906442439319
 31
0.0
 71
     5
 42
-1.0
  3
Standard
100
AcDbAlignedDimension
 13
4555.40040080414
 23
2374.867032643556
 33
0.0
 14
5637.400400804152
 24
2374.867032643556
 34
0.0
100
AcDbRotatedDimension
1001
ACAD
1000
DSTYLE
1002
{
1070
   172
1070
     1
1070
    40
1040
35.0
1070
   271
1070
     0
1070
   143
1040
0.039
1002
}
  0
DIMENSION
  5
8158
330
8394
100
AcDbEntity
  8
3
100
AcDbDimension
  2
*D25
 10
6455.400400804132
 20
2151.406442439319
 30
0.0
 11
6046.400400804142
 21
2238.906442439319
 31
0.0
 71
     5
 42
-1.0
  3
Standard
100
AcDbAlignedDimension
 13
5637.400400804152
 23
2374.867032643556
 33
0.0
 14
6455.400400804132
 24
2374.867032643556
 34
0.0
100
AcDbRotatedDimension
1001
ACAD
1000
DSTYLE
1002
{
1070
   172
1070
     1
1070
    40
1040
35.0
1070
   271
1070
     0
1070
   143
1040
0.039
1002
}
  0
DIMENSION
  5
83E5
330
8394
100
AcDbEntity
  8
3
100
AcDbDimension
  2
*D29
 10
6819.872920392474
 20
3254.867032643557
 30
0.0
 11
6732.372920392473
 21
3814.867032643558
 31
0.0
 70
    32
 71
     5
 42
1120.0
  3
IGA
100
AcDbAlignedDimension
 13
6387.400400804152
 23
4374.867032643556
 33
0.0
 14
6387.400400804152
 24
3254.867032643557
 34
0.0
 50
90.0
100
AcDbRotatedDimension
1001
ACAD
1000
DSTYLE
1002
{
1070
    40
1040
35.0
1070
   143
1040
0.039
1070
   172
1070
     1
1070
   271
1070
     4
1070
   272
1070
     4
1070
   279
1070
     0
1070
   284
1070
     0
1070
   285
1070
     0
1070
   286
1070
     0
1070
   341
1005
83A7
1070
   343
1005
83A7
1070
   344
1005
83A7
1002
}
  0
DIMENSION
  5
83F2
330
8394
100
AcDbEntity
  8
3
100
AcDbDimension
  2
*D30
 10
6387.400400804152
 20
4873.306671695954
 30
0.0
 11
5637.400400804152
 21
4960.806671695954
 31
0.0
 70
    32
 71
     5
 42
1500.0
  3
IGA
100
AcDbAlignedDimension
 13
4887.400400804152
 23
4619.867032643557
 33
0.0
 14
6387.400400804152
 24
4619.867032643557
 34
0.0
100
AcDbRotatedDimension
1001
ACAD
1000
DSTYLE
1002
{
1070
    40
1040
35.0
1070
   143
1040
0.039
1070
   172
1070
     1
1070
   271
1070
     4
1070
   272
1070
     4
1070
   279
1070
     0
1070
   284
1070
     0
1070
   285
1070
     0
1070
   286
1070
     0
1070
   341
1005
83A7
1070
   343
1005
83A7
1070
   344
1005
83A7
1002
}
  0
DIMENSION
  5
83FF
330
8394
100
AcDbEntity
  8
3
100
AcDbDimension
  2
*D31
 10
5637.400400804152
 20
5070.297380820517
 30
0.0
 11
5077.400400804152
 21
5185.297380820517
 31
0.0
 70
    32
  1
(<>)
 71
     5
 42
1120.0
  3
IGA
100
AcDbAlignedDimension
 13
4517.400400804151
 23
4194.867032643556
 33
0.0
 14
5637.400400804152
 24
5013.306671695954
 34
0.0
100
AcDbRotatedDimension
1001
ACAD
1000
DSTYLE
1002
{
1070
    40
1040
35.0
1070
   143
1040
0.039
1070
   172
1070
     1
1070
   271
1070
     4
1070
   272
1070
     4
1070
   279
1070
     0
1070
   284
1070
     0
1070
   285
1070
     0
1070
   286
1070
     0
1070
   341
1005
83A7
1070
   343
1005
83A7
1070
   344
1005
83A7
1002
}
  0
DIMENSION
  5
840C
330
8394
100
AcDbEntity
  8
3
100
AcDbDimension
  2
*D32
 10
6567.40040080415
 20
5070.297380820517
 30
0.0
 11
6102.400400804151
 21
5185.297380820517
 31
0.0
 70
    32
  1
(<>)
 71
     5
 42
929.9999999999981
  3
IGA
100
AcDbAlignedDimension
 13
5637.400400804152
 23
5013.306671695954
 33
0.0
 14
6567.40040080415
 24
3741.867032643556
 34
0.0
100
AcDbRotatedDimension
1001
ACAD
1000
DSTYLE
1002
{
1070
    40
1040
35.0
1070
   143
1040
0.039
1070
   172
1070
     1
1070
   271
1070
     4
1070
   272
1070
     4
1070
   279
1070
     1
1070
   284
1070
     0
1070
   285
1070
     0
1070
   286
1070
     0
1070
   341
1005
83A7
1070
   343
1005
83A7
1070
   344
1005
83A7
1002
}
  0
DIMENSION
  5
847A
330
8394
100
AcDbEntity
  8
3
100
AcDbDimension
  2
*D34
 10
1489.445716662588
 20
5793.481934815962
 30
0.0
 11
1401.945716662587
 21
6743.481934815962
 31
0.0
 70
    32
 71
     5
 42
1900.0
  3
IGA
100
AcDbAlignedDimension
 13
1888.21797163364
 23
7693.481934815962
 33
0.0
 14
1888.21797163364
 24
5793.481934815962
 34
0.0
 50
90.0
100
AcDbRotatedDimension
1001
ACAD
1000
DSTYLE
1002
{
1070
    40
1040
35.0
1070
   143
1040
0.039
1070
   172
1070
     1
1070
   271
1070
     4
1070
   272
1070
     4
1070
   279
1070
     0
1070
   284
1070
     0
1070
   285
1070
     0
1070
   286
1070
     0
1070
   341
1005
83A7
1070
   343
1005
83A7
1070
   344
1005
83A7
1002
}
  0
DIMENSION
  5
8487
330
8394
100
AcDbEntity
  8
3
100
AcDbDimension
  2
*D35
 10
4148.21797163364
 20
5502.236742722015
 30
0.0
 11
3018.217971633641
 21
5589.736742722015
 31
0.0
 70
    32
 71
     5
 42
2260.0
  3
IGA
100
AcDbAlignedDimension
 13
1888.21797163364
 23
5793.481934815962
 33
0.0
 14
4148.21797163364
 24
5793.481934815961
 34
0.0
100
AcDbRotatedDimension
1001
ACAD
1000
DSTYLE
1002
{
1070
    40
1040
35.0
1070
   143
1040
0.039
1070
   172
1070
     1
1070
   271
1070
     4
1070
   272
1070
     4
1070
   279
1070
     0
1070
   284
1070
     0
1070
   285
1070
     0
1070
   286
1070
     0
1070
   341
1005
83A7
1070
   343
1005
83A7
1070
   344
1005
83A7
1002
}
  0
DIMENSION
  5
8494
330
8394
100
AcDbEntity
  8
3
100
AcDbDimension
  2
*D36
 10
4548.848380927505
 20
6693.481934815962
 30
0.0
 11
4461.348380927502
 21
6243.481934815962
 31
0.0
 70
    32
 71
     5
 42
900.0000000000008
  3
IGA
100
AcDbAlignedDimension
 13
4148.21797163364
 23
5793.481934815961
 33
0.0
 14
4148.21797163364
 24
6693.481934815962
 34
0.0
 50
90.0
100
AcDbRotatedDimension
1001
ACAD
1000
DSTYLE
1002
{
1070
    40
1040
35.0
1070
   143
1040
0.039
1070
   172
1070
     1
1070
   271
1070
     4
1070
   272
1070
     4
1070
   279
1070
     0
1070
   284
1070
     0
1070
   285
1070
     0
1070
   286
1070
     0
1070
   341
1005
83A7
1070
   343
1005
83A7
1070
   344
1005
83A7
1002
}
  0
DIMENSION
  5
84A1
330
8394
100
AcDbEntity
  8
3
100
AcDbDimension
  2
*D37
 10
3208.217971633641
 20
7867.489295287082
 30
0.0
 11
3678.217971633641
 21
7954.989295287082
 31
0.0
 70
    32
 71
     5
 42
939.9999999999995
  3
IGA
100
AcDbAlignedDimension
 13
4148.21797163364
 23
6693.481934815962
 33
0.0
 14
3208.217971633641
 24
7693.481934815962
 34
0.0
100
AcDbRotatedDimension
1001
ACAD
1000
DSTYLE
1002
{
1070
    40
1040
35.0
1070
   143
1040
0.039
1070
   172
1070
     1
1070
   271
1070
     4
1070
   272
1070
     4
1070
   279
1070
     0
1070
   284
1070
     0
1070
   285
1070
     0
1070
   286
1070
     0
1070
   341
1005
83A7
1070
   343
1005
83A7
1070
   344
1005
83A7
1002
}
  0
DIMENSION
  5
84AE
330
8394
100
AcDbEntity
  8
3
100
AcDbDimension
  2
*D38
 10
1888.21797163364
 20
7867.489295287082
 30
0.0
 11
2548.217971633641
 21
7954.989295287082
 31
0.0
 70
    32
 71
     5
 42
1320.0
  3
IGA
100
AcDbAlignedDimension
 13
3208.217971633641
 23
7693.481934815962
 33
0.0
 14
1888.21797163364
 24
7693.481934815962
 34
0.0
100
AcDbRotatedDimension
1001
ACAD
1000
DSTYLE
1002
{
1070
    40
1040
35.0
1070
   143
1040
0.039
1070
   172
1070
     1
1070
   271
1070
     4
1070
   272
1070
     4
1070
   279
1070
     1
1070
   284
1070
     0
1070
   285
1070
     0
1070
   286
1070
     0
1070
   341
1005
83A7
1070
   343
1005
83A7
1070
   344
1005
83A7
1002
}
  0
DIMENSION
  5
84BB
330
8394
100
AcDbEntity
  8
3
100
AcDbDimension
  2
*D39
 10
2548.217971633641
 20
4845.294362889877
 30
0.0
 11
2168.217971633641
 21
4932.794362889876
 31
0.0
 70
    32
 71
     5
 42
760.0000000000002
  3
IGA
100
AcDbAlignedDimension
 13
1788.21797163364
 23
3819.867032643557
 33
0.0
 14
2548.217971633641
 24
4680.935226323958
 34
0.0
100
AcDbRotatedDimension
1001
ACAD
1000
DSTYLE
1002
{
1070
    40
1040
35.0
1070
   143
1040
0.039
1070
   172
1070
     1
1070
   271
1070
     4
1070
   272
1070
     4
1070
   279
1070
     0
1070
   284
1070
     0
1070
   285
1070
     0
1070
   286
1070
     0
1070
   341
1005
83A7
1070
   343
1005
83A7
1070
   344
1005
83A7
1002
}
  0
DIMENSION
  5
84C8
330
8394
100
AcDbEntity
  8
3
100
AcDbDimension
  2
*D40
 10
3517.217971633641
 20
4845.294362889877
 30
0.0
 11
3032.717971633641
 21
4932.794362889876
 31
0.0
 70
    32
 71
     5
 42
969.0
  3
IGA
100
AcDbAlignedDimension
 13
2548.217971633641
 23
4680.935226323958
 33
0.0
 14
3517.217971633641
 24
3732.867032643557
 34
0.0
100
AcDbRotatedDimension
1001
ACAD
1000
DSTYLE
1002
{
1070
    40
1040
35.0
1070
   143
1040
0.039
1070
   172
1070
     1
1070
   271
1070
     4
1070
   272
1070
     4
1070
   279
1070
     1
1070
   284
1070
     0
1070
   285
1070
     0
1070
   286
1070
     0
1070
   341
1005
83A7
1070
   343
1005
83A7
1070
   344
1005
83A7
1002
}
  0
DIMENSION
  5
84D5
330
8394
100
AcDbEntity
  8
3
100
AcDbDimension
  2
*D41
 10
4148.21797163364
 20
5072.874531832272
 30
0.0
 11
2968.217971633641
 21
5160.374531832271
 31
0.0
 70
    32
 71
     5
 42
2360.0
  3
IGA
100
AcDbAlignedDimension
 13
1788.21797163364
 23
3819.867032643557
 33
0.0
 14
4148.21797163364
 24
2584.867032643556
 34
0.0
100
AcDbRotatedDimension
1001
ACAD
1000
DSTYLE
1002
{
1070
    40
1040
35.0
1070
   143
1040
0.039
1070
   172
1070
     1
1070
   271
1070
     4
1070
   272
1070
     4
1070
   279
1070
     0
1070
   284
1070
     0
1070
   285
1070
     0
1070
   286
1070
     0
1070
   341
1005
83A7
1070
   343
1005
83A7
1070
   344
1005
83A7
1002
}
  0
DIMENSION
  5
84E2
330
8394
100
AcDbEntity
  8
3
100
AcDbDimension
  2
*D42
 10
1588.109655349375
 20
2616.867032643556
 30
0.0
 11
1500.609655349375
 21
3191.867032643556
 31
0.0
 70
    32
 71
     5
 42
1150.0
  3
IGA
100
AcDbAlignedDimension
 13
1788.21797163364
 23
3766.867032643556
 33
0.0
 14
1788.21797163364
 24
2616.867032643556
 34
0.0
 50
90.0
100
AcDbRotatedDimension
1001
ACAD
1000
DSTYLE
1002
{
1070
    40
1040
35.0
1070
   143
1040
0.039
1070
   172
1070
     1
1070
   271
1070
     4
1070
   272
1070
     4
1070
   279
1070
     0
1070
   284
1070
     0
1070
   285
1070
     0
1070
   286
1070
     0
1070
   341
1005
83A7
1070
   343
1005
83A7
1070
   344
1005
83A7
1002
}
  0
DIMENSION
  5
84EF
330
8394
100
AcDbEntity
  8
3
100
AcDbDimension
  2
*D43
 10
1387.958004487873
 20
3814.867032643557
 30
0.0
 11
1300.458004487872
 21
3215.867032643557
 31
0.0
 70
    32
 71
     5
 42
1198.000000000001
  3
IGA
100
AcDbAlignedDimension
 13
1788.21797163364
 23
2616.867032643556
 33
0.0
 14
1641.437320180664
 24
3814.867032643557
 34
0.0
 50
90.0
100
AcDbRotatedDimension
1001
ACAD
1000
DSTYLE
1002
{
1070
    40
1040
35.0
1070
   143
1040
0.039
1070
   172
1070
     1
1070
   271
1070
     4
1070
   272
1070
     4
1070
   279
1070
     0
1070
   284
1070
     0
1070
   285
1070
     0
1070
   286
1070
     0
1070
   341
1005
83A7
1070
   343
1005
83A7
1070
   344
1005
83A7
1002
}
  0
DIMENSION
  5
84FC
330
8394
100
AcDbEntity
  8
3
100
AcDbDimension
  2
*D44
 10
1184.008057762067
 20
3814.867032643557
 30
0.0
 11
1096.508057762066
 21
4217.367032643557
 31
0.0
 70
    32
 71
     5
 42
805.0
  3
IGA
100
AcDbAlignedDimension
 13
2630.217971633641
 23
4619.867032643557
 33
0.0
 14
1641.437320180664
 24
3814.867032643557
 34
0.0
 50
90.0
100
AcDbRotatedDimension
1001
ACAD
1000
DSTYLE
1002
{
1070
    40
1040
35.0
1070
   143
1040
0.039
1070
   172
1070
     1
1070
   271
1070
     4
1070
   272
1070
     4
1070
   279
1070
     0
1070
   284
1070
     0
1070
   285
1070
     0
1070
   286
1070
     0
1070
   341
1005
83A7
1070
   343
1005
83A7
1070
   344
1005
83A7
1002
}
  0
DIMENSION
  5
8509
330
8394
100
AcDbEntity
  8
3
100
AcDbDimension
  2
*D45
 10
1184.008057762066
 20
2459.867032643556
 30
0.0
 11
1096.508057762066
 21
3137.367032643557
 31
0.0
 70
    32
 71
     5
 42
1355.000000000001
  3
IGA
100
AcDbAlignedDimension
 13
1641.437320180664
 23
3814.867032643557
 33
0.0
 14
1888.21797163364
 24
2459.867032643556
 34
0.0
 50
90.0
100
AcDbRotatedDimension
1001
ACAD
1000
DSTYLE
1002
{
1070
    40
1040
35.0
1070
   143
1040
0.039
1070
   172
1070
     1
1070
   271
1070
     4
1070
   272
1070
     4
1070
   279
1070
     1
1070
   284
1070
     0
1070
   285
1070
     0
1070
   286
1070
     0
1070
   341
1005
83A7
1070
   343
1005
83A7
1070
   344
1005
83A7
1002
}
  0
DIMENSION
  5
8516
330
8394
100
AcDbEntity
  8
3
100
AcDbDimension
  2
*D46
 10
1184.008057762066
 20
2439.867032643556
 30
0.0
 11
901.5080577620661
 21
2535.117032643557
 31
0.0
 70
    32
  1
(<>)
 71
     5
 42
20.0
  3
IGA
100
AcDbAlignedDimension
 13
1888.21797163364
 23
2459.867032643556
 33
0.0
 14
1888.21797163364
 24
2439.867032643556
 34
0.0
 50
90.0
100
AcDbRotatedDimension
1001
ACAD
1000
DSTYLE
1002
{
1070
    40
1040
35.0
1070
   143
1040
0.039
1070
   172
1070
     1
1070
   271
1070
     4
1070
   272
1070
     4
1070
   279
1070
     1
1070
   284
1070
     0
1070
   285
1070
     0
1070
   286
1070
     0
1070
   341
1005
83A7
1070
   343
1005
83A7
1070
   344
1005
85EA
1002
}
  0
DIMENSION
  5
8528
330
8394
100
AcDbEntity
  8
3
100
AcDbDimension
  2
*D47
 10
1184.008057762066
 20
2374.867032643556
 30
0.0
 11
1184.008057762066
 21
2234.867032643556
 31
0.0
 70
   160
 71
     5
 42
65.0
  3
IGA
100
AcDbAlignedDimension
 13
1888.21797163364
 23
2439.867032643556
 33
0.0
 14
1888.21797163364
 24
2374.867032643556
 34
0.0
 50
90.0
100
AcDbRotatedDimension
1001
ACAD
1000
DSTYLE
1002
{
1070
    40
1040
35.0
1070
   143
1040
0.039
1070
   172
1070
     1
1070
   271
1070
     4
1070
   272
1070
     4
1070
   279
1070
     1
1070
   284
1070
     0
1070
   285
1070
     0
1070
   286
1070
     0
1070
   341
1005
83A7
1070
   343
1005
85EA
1070
   344
1005
83A7
1002
}
  0
DIMENSION
  5
853A
330
8394
100
AcDbEntity
  8
3
100
AcDbDimension
  2
*D48
 10
759.4239651301251
 20
4619.867032643557
 30
0.0
 11
644.4239651301243
 21
3497.367032643557
 31
0.0
 70
    32
  1
(<>)
 71
     5
 42
2245.000000000001
  3
IGA
100
AcDbAlignedDimension
 13
1888.21797163364
 23
2374.867032643556
 33
0.0
 14
2630.217971633641
 24
4619.867032643557
 34
0.0
 50
90.0
100
AcDbRotatedDimension
1001
ACAD
1000
DSTYLE
1002
{
1070
    40
1040
35.0
1070
   143
1040
0.039
1070
   172
1070
     1
1070
   271
1070
     4
1070
   272
1070
     4
1070
   279
1070
     0
1070
   284
1070
     0
1070
   285
1070
     0
1070
   286
1070
     0
1070
   341
1005
83A7
1070
   343
1005
83A7
1070
   344
1005
83A7
1002
}
  0
ENDSEC
  0
SECTION
  2
OBJECTS
  0
DICTIONARY
  5
8331
330
0
100
AcDbDictionary
281
     1
  3
ACAD_CIP_PREVIOUS_PRODUCT_INFO
350
83DD
  3
ACAD_COLOR
350
8387
  3
ACAD_DETAILVIEWSTYLE
350
838E
  3
ACAD_GROUP
350
8332
  3
ACAD_LAYOUT
350
8386
  3
ACAD_MATERIAL
350
8335
  3
ACAD_MLEADERSTYLE
350
838A
  3
ACAD_MLINESTYLE
350
8383
  3
ACAD_PLOTSETTINGS
350
8385
  3
ACAD_PLOTSTYLENAME
350
8333
  3
ACAD_SCALELIST
350
8367
  3
ACAD_SECTIONVIEWSTYLE
350
838C
  3
ACAD_TABLESTYLE
350
8388
  3
ACAD_VISUALSTYLE
350
834E
  3
ACDB_RECOMPOSE_DATA
350
87CA
  3
AcDbVariableDictionary
350
877C
  3
DWGPROPS
350
87CB
  0
DICTIONARY
  5
8772
330
8379
100
AcDbDictionary
280
     1
281
     1
  3
ADSK_XREC_LAYER_RECONCILED
360
8773
  0
DICTIONARY
  5
8774
330
8398
100
AcDbDictionary
280
     1
281
     1
  3
ADSK_XREC_LAYER_RECONCILED
360
8775
  0
DICTIONARY
  5
8776
330
839B
100
AcDbDictionary
280
     1
281
     1
  3
ADSK_XREC_LAYER_RECONCILED
360
8777
  0
DICTIONARY
  5
8778
330
839C
100
AcDbDictionary
280
     1
281
     1
  3
ADSK_XREC_LAYER_RECONCILED
360
8779
  0
DICTIONARY
  5
877A
330
839D
100
AcDbDictionary
280
     1
281
     1
  3
ADSK_XREC_LAYER_RECONCILED
360
877B
  0
DICTIONARY
  5
83DF
330
8394
100
AcDbDictionary
280
     1
281
     1
  3
ACAD_SORTENTS
360
83E0
  0
XRECORD
  5
83DD
102
{ACAD_REACTORS
330
8331
102
}
330
8331
100
AcDbXrecord
280
     1
300
ACDLT
300
2015
300
INVLTS_F_S
  0
DICTIONARY
  5
8387
102
{ACAD_REACTORS
330
8331
102
}
330
8331
100
AcDbDictionary
281
     1
  0
DICTIONARY
  5
838E
102
{ACAD_REACTORS
330
8331
102
}
330
8331
100
AcDbDictionary
281
     1
  3
Imperial24
350
838F
  0
DICTIONARY
  5
8332
102
{ACAD_REACTORS
330
8331
102
}
330
8331
100
AcDbDictionary
281
     1
  0
DICTIONARY
  5
8386
102
{ACAD_REACTORS
330
8331
102
}
330
8331
100
AcDbDictionary
281
     1
  3
Model
350
8397
  3
レイアウト1
350
8393
  0
DICTIONARY
  5
8335
102
{ACAD_REACTORS
330
8331
102
}
330
8331
100
AcDbDictionary
281
     1
  3
ByBlock
350
833E
  3
ByLayer
350
8336
  3
Global
350
8346
  0
DICTIONARY
  5
838A
102
{ACAD_REACTORS
330
8331
102
}
330
8331
100
AcDbDictionary
281
     1
  3
Standard
350
838B
  0
DICTIONARY
  5
8383
102
{ACAD_REACTORS
330
8331
102
}
330
8331
100
AcDbDictionary
281
     1
  3
Standard
350
8384
  0
DICTIONARY
  5
8385
102
{ACAD_REACTORS
330
8331
102
}
330
8331
100
AcDbDictionary
281
     1
  0
ACDBDICTIONARYWDFLT
  5
8333
102
{ACAD_REACTORS
330
8331
102
}
330
8331
100
AcDbDictionary
281
     1
  3
Normal
350
8334
100
AcDbDictionaryWithDefault
340
8334
  0
DICTIONARY
  5
8367
102
{ACAD_REACTORS
330
8331
102
}
330
8331
100
AcDbDictionary
281
     1
  3
A0
350
8368
  3
A1
350
8369
  3
A2
350
836A
  3
A3
350
836B
  3
A4
350
836C
  3
A5
350
836D
  3
A6
350
836E
  3
A7
350
836F
  3
A8
350
8370
  3
A9
350
8371
  3
B0
350
8372
  3
B1
350
8373
  3
B2
350
8374
  3
B3
350
8375
  3
B4
350
8376
  3
B5
350
8377
  3
B6
350
8378
  0
DICTIONARY
  5
838C
102
{ACAD_REACTORS
330
8331
102
}
330
8331
100
AcDbDictionary
281
     1
  3
Imperial24
350
838D
  0
DICTIONARY
  5
8388
102
{ACAD_REACTORS
330
8331
102
}
330
8331
100
AcDbDictionary
281
     1
  3
Standard
350
8389
  0
DICTIONARY
  5
834E
102
{ACAD_REACTORS
330
8331
102
}
330
8331
100
AcDbDictionary
281
     1
  3
2dWireframe
350
8354
  3
Basic
350
8353
  3
Brighten
350
835A
  3
ColorChange
350
835E
  3
Conceptual
350
8357
  3
Dim
350
8359
  3
EdgeColorOff
350
8366
  3
Facepattern
350
835D
  3
Flat
350
834F
  3
FlatWithEdges
350
8350
  3
Gouraud
350
8351
  3
GouraudWithEdges
350
8352
  3
Hidden
350
8356
  3
JitterOff
350
8364
  3
Linepattern
350
835C
  3
OverhangOff
350
8365
  3
Realistic
350
8358
  3
Shaded
350
8363
  3
Shaded with edges
350
8362
  3
Shades of Gray
350
835F
  3
Sketchy
350
8360
  3
Thicken
350
835B
  3
Wireframe
350
8355
  3
X-Ray
350
8361
  0
XRECORD
  5
87CA
102
{ACAD_REACTORS
330
8331
102
}
330
8331
100
AcDbXrecord
280
     1
 90
        1
330
8389
  0
DICTIONARY
  5
877C
102
{ACAD_REACTORS
330
8331
102
}
330
8331
100
AcDbDictionary
281
     1
  3
CANNOSCALE
350
8781
  3
CMLEADERSTYLE
350
877E
  3
CTABLESTYLE
350
877D
  3
CVIEWDETAILSTYLE
350
877F
  3
CVIEWSECTIONSTYLE
350
8780
  3
DIMASSOC
350
8784
  3
INDEXCTL
350
8783
  3
SORTENTS
350
8782
  3
XCLIPFRAME
350
8785
  0
XRECORD
  5
87CB
102
{ACAD_REACTORS
330
8331
102
}
330
8331
100
AcDbXrecord
280
     1
  1
DWGPROPS COOKIE
  2

  3

  4

  6

  7

  8
yasukiyo.ogawa
  9

300
=
301
=
302
=
303
=
304
=
305
=
306
=
307
=
308
=
309
=
 40
0.0206746643518519
 41
2451390.40461713
 42
2460273.583975243
  1

 90
        0
  0
XRECORD
  5
8773
102
{ACAD_REACTORS
330
8772
102
}
330
8772
100
AcDbXrecord
280
     1
290
     1
  0
XRECORD
  5
8775
102
{ACAD_REACTORS
330
8774
102
}
330
8774
100
AcDbXrecord
280
     1
290
     1
  0
XRECORD
  5
8777
102
{ACAD_REACTORS
330
8776
102
}
330
8776
100
AcDbXrecord
280
     1
290
     1
  0
XRECORD
  5
8779
102
{ACAD_REACTORS
330
8778
102
}
330
8778
100
AcDbXrecord
280
     1
290
     1
  0
XRECORD
  5
877B
102
{ACAD_REACTORS
330
877A
102
}
330
877A
100
AcDbXrecord
280
     1
290
     1
  0
SORTENTSTABLE
  5
83E0
102
{ACAD_REACTORS
330
83DF
102
}
330
83DF
100
AcDbSortentsTable
330
8394
331
7F4F
  5
7F51
331
7F47
  5
7F49
331
7CED
  5
7CEF
331
7CDC
  5
7CDE
331
7CCB
  5
7CCD
331
7CA9
  5
7CAB
331
7C8F
  5
7C92
331
7C7E
  5
7C80
331
7C6D
  5
7C6F
331
7C5C
  5
7C5E
331
7C4B
  5
7C4E
331
7C3A
  5
7C3C
331
7C29
  5
7C29
331
7F50
  5
7F52
331
7CEE
  5
7CF0
331
7CDD
  5
7CDF
331
7CCC
  5
7CCE
331
7CAA
  5
7CAC
331
7C99
  5
7C9B
331
7C7F
  5
7C81
331
7C6E
  5
7C72
331
7C5D
  5
7C62
331
7C4C
  5
7C4F
331
7C3B
  5
7C3D
331
7C2A
  5
7C2A
331
7F51
  5
7F53
331
7CEF
  5
7CF1
331
7CDE
  5
7CE6
331
7CCD
  5
7CCF
331
7CAB
  5
7CAD
331
7C9A
  5
7C9C
331
7C80
  5
7C82
331
7C6F
  5
7C73
331
7C5E
  5
7C63
331
7C3C
  5
7C3E
331
7C2B
  5
7C2B
331
7F52
  5
7F54
331
7CF0
  5
7CF5
331
7CDF
  5
7CE7
331
7CCE
  5
7CD0
331
7CAC
  5
7CAE
331
7C9B
  5
7C9D
331
7C81
  5
7C83
331
7C3D
  5
7C3F
331
7C2C
  5
7C2C
331
7F53
  5
7F55
331
7CF1
  5
7CF6
331
7CCF
  5
7CD1
331
7CBE
  5
7CC0
331
7CAD
  5
7CAF
331
7C9C
  5
7C9F
331
7C82
  5
7C84
331
7C3E
  5
7C40
331
7C2D
  5
7C2D
331
813E
  5
8158
331
7C9D
  5
7CA1
331
7C94
  5
7C96
331
7C83
  5
7C85
331
7C72
  5
7C74
331
7F54
  5
7F56
331
7F3B
  5
7F3D
331
7CD0
  5
7CD2
331
7CBF
  5
7CC1
331
7C3F
  5
7C41
331
7C2E
  5
7C2E
331
7F55
  5
7F57
331
7F3C
  5
7F40
331
7CD1
  5
7CD3
331
7CC0
  5
7CC2
331
7CAF
  5
7CB1
331
7C95
  5
7C97
331
7C84
  5
7C86
331
7C73
  5
7C75
331
7C62
  5
7C64
331
7C51
  5
7C53
331
7C40
  5
7C42
331
7C2F
  5
7C2F
331
814B
  5
8167
331
7CD2
  5
7CD4
331
7CC1
  5
7CC3
331
7CB0
  5
7CB2
331
7C9F
  5
7CA3
331
7C96
  5
7C99
331
7C85
  5
7C87
331
7C74
  5
7C76
331
7C63
  5
7C65
331
7C52
  5
7C54
331
7C41
  5
7C43
331
7F56
  5
7F58
331
7F3D
  5
7F41
331
7C30
  5
7C30
331
7F57
  5
7F59
331
7CF5
  5
7CF7
331
7CD3
  5
7CD5
331
7CC2
  5
7CC4
331
7CB1
  5
7CB3
331
7C97
  5
7C9A
331
7C86
  5
7C88
331
7C75
  5
7C78
331
7C64
  5
7C66
331
7C53
  5
7C55
331
7C42
  5
7C45
331
7C31
  5
7C31
331
7F58
  5
8131
331
8131
  5
814B
331
7CA1
  5
7CA4
331
7C87
  5
7C89
331
7C76
  5
7C7B
331
7C65
  5
7C67
331
7C54
  5
7C59
331
7C43
  5
7C46
331
7CF6
  5
7CF8
331
7CD4
  5
7CD6
331
7CC3
  5
7CC5
331
7CB2
  5
7CB4
331
7C32
  5
7C32
331
7F59
  5
813E
331
7F48
  5
7F4A
331
7F40
  5
7F42
331
7CF7
  5
7CF9
331
7CD5
  5
7CD7
331
7CC4
  5
7CC6
331
7CB3
  5
7CB5
331
7C88
  5
7C8A
331
7C66
  5
7C68
331
7C55
  5
7C5A
331
7C33
  5
7C33
331
7C22
  5
7C22
331
8158
  5
8174
331
7CF8
  5
7F3B
331
7F49
  5
7F4B
331
7F41
  5
7F43
331
7CD6
  5
7CD8
331
7CC5
  5
7CC7
331
7CB4
  5
7CB6
331
7CA3
  5
7CA7
331
7C89
  5
7C8B
331
7C78
  5
7C7C
331
7C67
  5
7C69
331
7C45
  5
7C47
331
7C34
  5
7C34
331
7F4A
  5
7F4C
331
7F42
  5
7F44
331
7CF9
  5
7F3C
331
7CD7
  5
7CD9
331
7CC6
  5
7CC8
331
7CB5
  5
7CB7
331
7CA4
  5
7CA8
331
7C8A
  5
7C8C
331
7C68
  5
7C6A
331
7C46
  5
7C48
331
7C35
  5
7C35
331
7C24
  5
7C24
331
7F4B
  5
7F4D
331
7F43
  5
7F45
331
7CD8
  5
7CDA
331
7CC7
  5
7CC9
331
7C8B
  5
7C8D
331
7C69
  5
7C6B
331
7C47
  5
7C49
331
7C36
  5
7C36
331
7C25
  5
7C25
331
7F4C
  5
7F4E
331
7F44
  5
7F47
331
7CD9
  5
7CDB
331
7CC8
  5
7CCA
331
7C8C
  5
7C8E
331
7C7B
  5
7C7D
331
7C6A
  5
7C6D
331
7C59
  5
7C5B
331
7C48
  5
7C4A
331
7C37
  5
7C37
331
7C26
  5
7C26
331
7F4D
  5
7F4F
331
7F45
  5
7F48
331
7CDA
  5
7CDC
331
7CC9
  5
7CCB
331
7CA7
  5
7CA9
331
7C8D
  5
7C8F
331
7C7C
  5
7C7E
331
7C6B
  5
7C6E
331
7C5A
  5
7C5C
331
7C49
  5
7C4B
331
7C38
  5
7C38
331
7C27
  5
7C27
331
7F4E
  5
7F50
331
7CDB
  5
7CDD
331
7CCA
  5
7CCC
331
7CA8
  5
7CAA
331
7C8E
  5
7C90
331
7C7D
  5
7C7F
331
7C5B
  5
7C5D
331
7C4A
  5
7C4C
331
7C39
  5
7C39
331
7C28
  5
7C28
  0
ACDBDETAILVIEWSTYLE
  5
838F
102
{ACAD_XDICTIONARY
360
8803
102
}
102
{ACAD_REACTORS
330
838E
102
}
330
838E
100
AcDbModelDocViewStyle
 70
     0
  3
Imperial24
290
     0
100
AcDbDetailViewStyle
 70
     0
 71
     0
 90
        3
 71
     1
340
837A
 40
0.24
340
0
 40
0.24
300

 40
0.36
280
     3
 71
     2
340
8381
 90
       25
 71
     3
340
837A
 40
0.24
 90
        1
 40
0.75
 90
        1
300
%<\AcVar ViewType \f "%tc1">% %<\AcVar ViewDetailId>%\PSCALE %<\AcVar ViewScale \f "%sn">%
 71
     4
340
8381
 90
       25
340
8381
 90
       25
280
     0
  0
LAYOUT
  5
8397
102
{ACAD_XDICTIONARY
360
8807
102
}
102
{ACAD_REACTORS
330
8386
102
}
330
8386
100
AcDbPlotSettings
  1

  2
RICOH imagio MP W3600 RPCS
  4

  6

 40
0.0
 41
0.0
 42
0.0
 43
0.0
 44
0.0
 45
0.0
 46
0.0
 47
0.0
 48
0.0
 49
0.0
140
0.0
141
0.0
142
1.0
143
1.0
 70
  1712
 72
     0
 73
     0
 74
     0
  7

 75
     0
147
1.0
148
0.0
149
0.0
100
AcDbLayout
  1
Model
 70
     1
 71
     0
 10
0.0
 20
0.0
 11
12.0
 21
9.0
 12
0.0
 22
0.0
 32
0.0
 14
0.0
 24
0.0
 34
0.0
 15
0.0
 25
0.0
 35
0.0
146
0.0
 13
0.0
 23
0.0
 33
0.0
 16
1.0
 26
0.0
 36
0.0
 17
0.0
 27
1.0
 37
0.0
 76
     0
330
8394
331
8399
  0
LAYOUT
  5
8393
102
{ACAD_XDICTIONARY
360
8805
102
}
102
{ACAD_REACTORS
330
8386
102
}
330
8386
100
AcDbPlotSettings
  1

  2
RICOH imagio MP W3600 RPCS
  4

  6

 40
0.0
 41
0.0
 42
0.0
 43
0.0
 44
0.0
 45
0.0
 46
0.0
 47
0.0
 48
0.0
 49
0.0
140
0.0
141
0.0
142
1.0
143
1.0
 70
   688
 72
     0
 73
     0
 74
     5
  7

 75
    16
147
1.0
148
0.0
149
0.0
100
AcDbLayout
  1
レイアウト1
 70
     1
 71
     1
 10
0.0
 20
0.0
 11
12.0
 21
9.0
 12
0.0
 22
0.0
 32
0.0
 14
1.000000000000000E+20
 24
1.000000000000000E+20
 34
1.000000000000000E+20
 15
-1.000000000000000E+20
 25
-1.000000000000000E+20
 35
-1.000000000000000E+20
146
0.0
 13
0.0
 23
0.0
 33
0.0
 16
1.0
 26
0.0
 36
0.0
 17
0.0
 27
1.0
 37
0.0
 76
     0
330
8390
  0
MATERIAL
  5
833E
102
{ACAD_XDICTIONARY
360
833F
102
}
102
{ACAD_REACTORS
330
8335
102
}
330
8335
100
AcDbMaterial
  1
ByBlock
 72
     0
 43
0.0208333333333333
 43
0.0
 43
0.0
 43
0.0
 43
0.0
 43
0.0208333333333333
 43
0.0
 43
0.0
 43
0.0
 43
0.0
 43
1.0
 43
0.0
 43
0.0
 43
0.0
 43
0.0
 43
1.0
 77
     0
 47
0.0208333333333333
 47
0.0
 47
0.0
 47
0.0
 47
0.0
 47
0.0208333333333333
 47
0.0
 47
0.0
 47
0.0
 47
0.0
 47
1.0
 47
0.0
 47
0.0
 47
0.0
 47
0.0
 47
1.0
171
     0
 49
0.0208333333333333
 49
0.0
 49
0.0
 49
0.0
 49
0.0
 49
0.0208333333333333
 49
0.0
 49
0.0
 49
0.0
 49
0.0
 49
1.0
 49
0.0
 49
0.0
 49
0.0
 49
0.0
 49
1.0
175
     0
142
0.0208333333333333
142
0.0
142
0.0
142
0.0
142
0.0
142
0.0208333333333333
142
0.0
142
0.0
142
0.0
142
0.0
142
1.0
142
0.0
142
0.0
142
0.0
142
0.0
142
1.0
179
     0
144
0.0208333333333333
144
0.0
144
0.0
144
0.0
144
0.0
144
0.0208333333333333
144
0.0
144
0.0
144
0.0
144
0.0
144
1.0
144
0.0
144
0.0
144
0.0
144
0.0
144
1.0
147
0.0208333333333333
147
0.0
147
0.0
147
0.0
147
0.0
147
0.0208333333333333
147
0.0
147
0.0
147
0.0
147
0.0
147
1.0
147
0.0
147
0.0
147
0.0
147
0.0
147
1.0
  0
MATERIAL
  5
8336
102
{ACAD_XDICTIONARY
360
8337
102
}
102
{ACAD_REACTORS
330
8335
102
}
330
8335
100
AcDbMaterial
  1
ByLayer
 72
     0
 43
0.0208333333333333
 43
0.0
 43
0.0
 43
0.0
 43
0.0
 43
0.0208333333333333
 43
0.0
 43
0.0
 43
0.0
 43
0.0
 43
1.0
 43
0.0
 43
0.0
 43
0.0
 43
0.0
 43
1.0
 77
     0
 47
0.0208333333333333
 47
0.0
 47
0.0
 47
0.0
 47
0.0
 47
0.0208333333333333
 47
0.0
 47
0.0
 47
0.0
 47
0.0
 47
1.0
 47
0.0
 47
0.0
 47
0.0
 47
0.0
 47
1.0
171
     0
 49
0.0208333333333333
 49
0.0
 49
0.0
 49
0.0
 49
0.0
 49
0.0208333333333333
 49
0.0
 49
0.0
 49
0.0
 49
0.0
 49
1.0
 49
0.0
 49
0.0
 49
0.0
 49
0.0
 49
1.0
175
     0
142
0.0208333333333333
142
0.0
142
0.0
142
0.0
142
0.0
142
0.0208333333333333
142
0.0
142
0.0
142
0.0
142
0.0
142
1.0
142
0.0
142
0.0
142
0.0
142
0.0
142
1.0
179
     0
144
0.0208333333333333
144
0.0
144
0.0
144
0.0
144
0.0
144
0.0208333333333333
144
0.0
144
0.0
144
0.0
144
0.0
144
1.0
144
0.0
144
0.0
144
0.0
144
0.0
144
1.0
147
0.0208333333333333
147
0.0
147
0.0
147
0.0
147
0.0
147
0.0208333333333333
147
0.0
147
0.0
147
0.0
147
0.0
147
1.0
147
0.0
147
0.0
147
0.0
147
0.0
147
1.0
  0
MATERIAL
  5
8346
102
{ACAD_XDICTIONARY
360
8347
102
}
102
{ACAD_REACTORS
330
8335
102
}
330
8335
100
AcDbMaterial
  1
Global
 72
     0
 43
0.0208333333333333
 43
0.0
 43
0.0
 43
0.0
 43
0.0
 43
0.0208333333333333
 43
0.0
 43
0.0
 43
0.0
 43
0.0
 43
1.0
 43
0.0
 43
0.0
 43
0.0
 43
0.0
 43
1.0
 77
     0
 47
0.0208333333333333
 47
0.0
 47
0.0
 47
0.0
 47
0.0
 47
0.0208333333333333
 47
0.0
 47
0.0
 47
0.0
 47
0.0
 47
1.0
 47
0.0
 47
0.0
 47
0.0
 47
0.0
 47
1.0
171
     0
 49
0.0208333333333333
 49
0.0
 49
0.0
 49
0.0
 49
0.0
 49
0.0208333333333333
 49
0.0
 49
0.0
 49
0.0
 49
0.0
 49
1.0
 49
0.0
 49
0.0
 49
0.0
 49
0.0
 49
1.0
175
     0
142
0.0208333333333333
142
0.0
142
0.0
142
0.0
142
0.0
142
0.0208333333333333
142
0.0
142
0.0
142
0.0
142
0.0
142
1.0
142
0.0
142
0.0
142
0.0
142
0.0
142
1.0
179
     0
144
0.0208333333333333
144
0.0
144
0.0
144
0.0
144
0.0
144
0.0208333333333333
144
0.0
144
0.0
144
0.0
144
0.0
144
1.0
144
0.0
144
0.0
144
0.0
144
0.0
144
1.0
147
0.0208333333333333
147
0.0
147
0.0
147
0.0
147
0.0
147
0.0208333333333333
147
0.0
147
0.0
147
0.0
147
0.0
147
1.0
147
0.0
147
0.0
147
0.0
147
0.0
147
1.0
  0
MLEADERSTYLE
  5
838B
102
{ACAD_REACTORS
330
838A
102
}
330
838A
100
AcDbMLeaderStyle
170
     2
171
     1
172
     0
 90
        2
 40
0.0
 41
0.0
173
     1
 91
-1056964608
340
837F
 92
       -2
290
     1
 42
0.09
291
     1
 43
0.36
  3
Standard
 44
0.18
300

342
837A
174
     1
178
     6
175
     1
176
     0
 93
-1056964608
 45
0.18
292
     0
297
     0
 46
0.18
 94
-1056964608
 47
1.0
 49
1.0
140
1.0
293
     1
141
0.0
294
     1
177
     0
142
1.0
295
     0
296
     0
143
0.125
1001
ACAD_MLEADERVER
1070
     2
  0
MLINESTYLE
  5
8384
102
{ACAD_REACTORS
330
8383
102
}
330
8383
100
AcDbMlineStyle
  2
STANDARD
 70
     0
  3

 62
   256
 51
90.0
 52
90.0
 71
     2
 49
0.5
 62
   256
  6
BYLAYER
 49
-0.5
 62
   256
  6
BYLAYER
  0
ACDBPLACEHOLDER
  5
8334
102
{ACAD_REACTORS
330
8333
102
}
330
8333
  0
SCALE
  5
8368
102
{ACAD_REACTORS
330
8367
102
}
330
8367
100
AcDbScale
 70
     0
300
1:1
140
1.0
141
1.0
290
     1
  0
SCALE
  5
8369
102
{ACAD_REACTORS
330
8367
102
}
330
8367
100
AcDbScale
 70
     0
300
1/128" = 1'-0"
140
0.0078125
141
12.0
290
     0
  0
SCALE
  5
836A
102
{ACAD_REACTORS
330
8367
102
}
330
8367
100
AcDbScale
 70
     0
300
1/64" = 1'-0"
140
0.015625
141
12.0
290
     0
  0
SCALE
  5
836B
102
{ACAD_REACTORS
330
8367
102
}
330
8367
100
AcDbScale
 70
     0
300
1/32" = 1'-0"
140
0.03125
141
12.0
290
     0
  0
SCALE
  5
836C
102
{ACAD_REACTORS
330
8367
102
}
330
8367
100
AcDbScale
 70
     0
300
1/16" = 1'-0"
140
0.0625
141
12.0
290
     0
  0
SCALE
  5
836D
102
{ACAD_REACTORS
330
8367
102
}
330
8367
100
AcDbScale
 70
     0
300
3/32" = 1'-0"
140
0.09375
141
12.0
290
     0
  0
SCALE
  5
836E
102
{ACAD_REACTORS
330
8367
102
}
330
8367
100
AcDbScale
 70
     0
300
1/8" = 1'-0"
140
0.125
141
12.0
290
     0
  0
SCALE
  5
836F
102
{ACAD_REACTORS
330
8367
102
}
330
8367
100
AcDbScale
 70
     0
300
3/16" = 1'-0"
140
0.1875
141
12.0
290
     0
  0
SCALE
  5
8370
102
{ACAD_REACTORS
330
8367
102
}
330
8367
100
AcDbScale
 70
     0
300
1/4" = 1'-0"
140
0.25
141
12.0
290
     0
  0
SCALE
  5
8371
102
{ACAD_REACTORS
330
8367
102
}
330
8367
100
AcDbScale
 70
     0
300
3/8" = 1'-0"
140
0.375
141
12.0
290
     0
  0
SCALE
  5
8372
102
{ACAD_REACTORS
330
8367
102
}
330
8367
100
AcDbScale
 70
     0
300
1/2" = 1'-0"
140
0.5
141
12.0
290
     0
  0
SCALE
  5
8373
102
{ACAD_REACTORS
330
8367
102
}
330
8367
100
AcDbScale
 70
     0
300
3/4" = 1'-0"
140
0.75
141
12.0
290
     0
  0
SCALE
  5
8374
102
{ACAD_REACTORS
330
8367
102
}
330
8367
100
AcDbScale
 70
     0
300
1" = 1'-0"
140
1.0
141
12.0
290
     0
  0
SCALE
  5
8375
102
{ACAD_REACTORS
330
8367
102
}
330
8367
100
AcDbScale
 70
     0
300
1-1/2" = 1'-0"
140
1.5
141
12.0
290
     0
  0
SCALE
  5
8376
102
{ACAD_REACTORS
330
8367
102
}
330
8367
100
AcDbScale
 70
     0
300
3" = 1'-0"
140
3.0
141
12.0
290
     0
  0
SCALE
  5
8377
102
{ACAD_REACTORS
330
8367
102
}
330
8367
100
AcDbScale
 70
     0
300
6" = 1'-0"
140
6.0
141
12.0
290
     0
  0
SCALE
  5
8378
102
{ACAD_REACTORS
330
8367
102
}
330
8367
100
AcDbScale
 70
     0
300
1'-0" = 1'-0"
140
12.0
141
12.0
290
     0
  0
ACDBSECTIONVIEWSTYLE
  5
838D
102
{ACAD_XDICTIONARY
360
8801
102
}
102
{ACAD_REACTORS
330
838C
102
}
330
838C
100
AcDbModelDocViewStyle
 70
     0
  3
Imperial24
290
     0
100
AcDbSectionViewStyle
 70
     0
 71
     0
 90
       78
 71
     1
340
837A
 40
0.24
340
0
340
0
 40
0.24
300
I, O, Q, S, X, Z
 40
0.48
 90
        3
 40
0.18
 90
        1
 71
     2
340
8381
 90
       25
340
8381
 90
       50
 40
0.24
 40
0.0
 40
0.24
 71
     3
340
837A
 40
0.24
 90
        1
 40
0.75
 90
        1
300
%<\AcVar ViewType \f "%tc1">% %<\AcVar ViewSectionStartId>%-%<\AcVar ViewSectionEndId>%\PSCALE %<\AcVar ViewScale \f "%sn">%
 71
     4
300
ANSI31
 40
1.0
 90
        0
290
     0
290
     0
 90
        6
 40
0.0
 40
1.570796326794896
 40
0.2617993877991494
 40
1.308996938995747
 40
-0.2617993877991494
 40
1.832595714594046
  0
TABLESTYLE
  5
8389
102
{ACAD_XDICTIONARY
360
87C8
102
}
102
{ACAD_REACTORS
330
8388
102
}
330
8388
100
AcDbTableStyle
  3
Standard
 70
     0
 71
     0
 40
0.06
 41
0.06
280
     0
281
     0
  7
STANDARD
140
0.18
170
     2
 62
     0
 63
     7
283
     0
274
    -2
284
     1
 64
     0
275
    -2
285
     1
 65
     0
276
    -2
286
     1
 66
     0
277
    -2
287
     1
 67
     0
278
    -2
288
     1
 68
     0
279
    -2
289
     1
 69
     0
  7
STANDARD
140
0.25
170
     5
 62
     0
 63
     7
283
     0
274
    -2
284
     1
 64
     0
275
    -2
285
     1
 65
     0
276
    -2
286
     1
 66
     0
277
    -2
287
     1
 67
     0
278
    -2
288
     1
 68
     0
279
    -2
289
     1
 69
     0
  7
STANDARD
140
0.18
170
     5
 62
     0
 63
     7
283
     0
274
    -2
284
     1
 64
     0
275
    -2
285
     1
 65
     0
276
    -2
286
     1
 66
     0
277
    -2
287
     1
 67
     0
278
    -2
288
     1
 68
     0
279
    -2
289
     1
 69
     0
  0
VISUALSTYLE
  5
8354
102
{ACAD_XDICTIONARY
360
87D9
102
}
102
{ACAD_REACTORS
330
834E
102
}
330
834E
100
AcDbVisualStyle
  2
2dWireframe
 70
     4
 71
     0
 72
     2
 73
     0
 90
        0
 40
-0.6
 41
-30.0
 62
     5
 63
     7
 74
     1
 91
        4
 64
     7
 65
   257
 75
     1
175
     1
 42
1.0
 92
        0
 66
   257
 43
1.0
 76
     1
 77
     6
 78
     2
 67
     7
 79
     5
170
     0
171
     0
290
     0
174
     0
 93
        1
 44
0.0
173
     0
291
     0
 45
0.0
1001
ACAD
1000
AcDbSavedByObjectVersion
1070
     0
  0
VISUALSTYLE
  5
8353
102
{ACAD_XDICTIONARY
360
87D7
102
}
102
{ACAD_REACTORS
330
834E
102
}
330
834E
100
AcDbVisualStyle
  2
Basic
 70
     7
 71
     1
 72
     0
 73
     1
 90
        0
 40
-0.6
 41
-30.0
 62
     5
 63
     7
 74
     0
 91
        4
 64
     7
 65
   257
 75
     1
175
     1
 42
1.0
 92
        8
 66
     7
 43
1.0
 76
     1
 77
     6
 78
     2
 67
     7
 79
     5
170
     0
171
     0
290
     0
174
     0
 93
        1
 44
0.0
173
     0
291
     1
 45
0.0
1001
ACAD
1000
AcDbSavedByObjectVersion
1070
     0
  0
VISUALSTYLE
  5
835A
102
{ACAD_XDICTIONARY
360
87E5
102
}
102
{ACAD_REACTORS
330
834E
102
}
330
834E
100
AcDbVisualStyle
  2
Brighten
 70
    12
 71
     2
 72
     2
 73
     0
 90
        0
 40
-0.6
 41
-30.0
 62
     5
 63
     7
 74
     1
 91
        4
 64
     7
 65
   257
 75
     1
175
     1
 42
1.0
 92
        8
 66
     7
 43
1.0
 76
     1
 77
     6
 78
     2
 67
     7
 79
     5
170
     0
171
     0
290
     0
174
     0
 93
        1
 44
50.0
173
     0
291
     1
 45
0.0
1001
ACAD
1000
AcDbSavedByObjectVersion
1070
     0
  0
VISUALSTYLE
  5
835E
102
{ACAD_XDICTIONARY
360
87ED
102
}
102
{ACAD_REACTORS
330
834E
102
}
330
834E
100
AcDbVisualStyle
  2
ColorChange
 70
    16
 71
     2
 72
     2
 73
     3
 90
        0
 40
-0.6
 41
-30.0
 62
     5
 63
     8
 74
     1
 91
        4
 64
     7
 65
   257
 75
     1
175
     1
 42
1.0
 92
        8
 66
     8
 43
1.0
 76
     1
 77
     6
 78
     2
 67
     7
 79
     5
170
     0
171
     0
290
     0
174
     0
 93
        1
 44
0.0
173
     0
291
     1
 45
0.0
1001
ACAD
1000
AcDbSavedByObjectVersion
1070
     0
  0
VISUALSTYLE
  5
8357
102
{ACAD_XDICTIONARY
360
87DF
102
}
102
{ACAD_REACTORS
330
834E
102
}
330
834E
100
AcDbVisualStyle
  2
Conceptual
 70
     9
 71
     3
 72
     2
 73
     0
 90
        0
 40
-0.6
 41
-30.0
 62
     5
 63
     7
 74
     2
 91
        2
 64
     7
 65
   257
 75
     1
175
     1
 42
179.0
 92
        8
 66
     7
 43
1.0
 76
     1
 77
     6
 78
     2
 67
     7
 79
     3
170
     0
171
     0
290
     0
174
     0
 93
        1
 44
0.0
173
     0
291
     0
 45
0.0
1001
ACAD
1000
AcDbSavedByObjectVersion
1070
     0
  0
VISUALSTYLE
  5
8359
102
{ACAD_XDICTIONARY
360
87E3
102
}
102
{ACAD_REACTORS
330
834E
102
}
330
834E
100
AcDbVisualStyle
  2
Dim
 70
    11
 71
     2
 72
     2
 73
     0
 90
        0
 40
-0.6
 41
-30.0
 62
     5
 63
     7
 74
     1
 91
        4
 64
     7
 65
   257
 75
     1
175
     1
 42
1.0
 92
        8
 66
     7
 43
1.0
 76
     1
 77
     6
 78
     2
 67
     7
 79
     5
170
     0
171
     0
290
     0
174
     0
 93
        1
 44
-50.0
173
     0
291
     1
 45
0.0
1001
ACAD
1000
AcDbSavedByObjectVersion
1070
     0
  0
VISUALSTYLE
  5
8366
102
{ACAD_XDICTIONARY
360
87FD
102
}
102
{ACAD_REACTORS
330
834E
102
}
330
834E
100
AcDbVisualStyle
  2
EdgeColorOff
 70
    22
 71
     2
 72
     2
 73
     0
 90
        0
 40
-0.6
 41
-30.0
 62
     5
 63
     7
 74
     1
 91
        4
 64
     7
 65
   257
 75
     1
175
     1
 42
1.0
 92
        8
 66
     7
 43
1.0
 76
     1
 77
     6
 78
     2
 67
     7
 79
     5
170
     0
171
     0
290
     0
174
     0
 93
        1
 44
0.0
173
     0
291
     1
 45
0.0
1001
ACAD
1000
AcDbSavedByObjectVersion
1070
     0
  0
VISUALSTYLE
  5
835D
102
{ACAD_XDICTIONARY
360
87EB
102
}
102
{ACAD_REACTORS
330
834E
102
}
330
834E
100
AcDbVisualStyle
  2
Facepattern
 70
    15
 71
     2
 72
     2
 73
     0
 90
        0
 40
-0.6
 41
-30.0
 62
     5
 63
     7
 74
     1
 91
        4
 64
     7
 65
   257
 75
     1
175
     1
 42
1.0
 92
        8
 66
     7
 43
1.0
 76
     1
 77
     6
 78
     2
 67
     7
 79
     5
170
     0
171
     0
290
     0
174
     0
 93
        1
 44
0.0
173
     0
291
     1
 45
0.0
1001
ACAD
1000
AcDbSavedByObjectVersion
1070
     0
  0
VISUALSTYLE
  5
834F
102
{ACAD_XDICTIONARY
360
87CF
102
}
102
{ACAD_REACTORS
330
834E
102
}
330
834E
100
AcDbVisualStyle
  2
Flat
 70
     0
 71
     2
 72
     1
 73
     1
 90
        2
 40
-0.6
 41
30.0
 62
     5
 63
     7
 74
     0
 91
        0
 64
     7
 65
   257
 75
     1
175
     1
 42
1.0
 92
        8
 66
     7
 43
1.0
 76
     1
 77
     6
 78
     2
 67
     7
 79
     5
170
     0
171
     0
290
     0
174
     0
 93
       13
 44
0.0
173
     0
291
     1
 45
0.0
1001
ACAD
1000
AcDbSavedByObjectVersion
1070
     0
  0
VISUALSTYLE
  5
8350
102
{ACAD_XDICTIONARY
360
87D1
102
}
102
{ACAD_REACTORS
330
834E
102
}
330
834E
100
AcDbVisualStyle
  2
FlatWithEdges
 70
     1
 71
     2
 72
     1
 73
     1
 90
        2
 40
-0.6
 41
30.0
 62
     5
 63
     7
 74
     1
 91
        0
 64
     7
 65
   257
 75
     1
175
     1
 42
1.0
 92
        0
 66
   257
 43
1.0
 76
     1
 77
     6
 78
     2
 67
     7
 79
     5
170
     0
171
     0
290
     0
174
     0
 93
       13
 44
0.0
173
     0
291
     1
 45
0.0
1001
ACAD
1000
AcDbSavedByObjectVersion
1070
     0
  0
VISUALSTYLE
  5
8351
102
{ACAD_XDICTIONARY
360
87D3
102
}
102
{ACAD_REACTORS
330
834E
102
}
330
834E
100
AcDbVisualStyle
  2
Gouraud
 70
     2
 71
     2
 72
     2
 73
     1
 90
        2
 40
-0.6
 41
30.0
 62
     5
 63
     7
 74
     0
 91
        0
 64
     7
 65
   257
 75
     1
175
     1
 42
1.0
 92
        0
 66
     7
 43
1.0
 76
     1
 77
     6
 78
     2
 67
     7
 79
     5
170
     0
171
     0
290
     0
174
     0
 93
       13
 44
0.0
173
     0
291
     1
 45
0.0
1001
ACAD
1000
AcDbSavedByObjectVersion
1070
     0
  0
VISUALSTYLE
  5
8352
102
{ACAD_XDICTIONARY
360
87D5
102
}
102
{ACAD_REACTORS
330
834E
102
}
330
834E
100
AcDbVisualStyle
  2
GouraudWithEdges
 70
     3
 71
     2
 72
     2
 73
     1
 90
        2
 40
-0.6
 41
30.0
 62
     5
 63
     7
 74
     1
 91
        0
 64
     7
 65
   257
 75
     1
175
     1
 42
1.0
 92
        0
 66
   257
 43
1.0
 76
     1
 77
     6
 78
     2
 67
     7
 79
     5
170
     0
171
     0
290
     0
174
     0
 93
       13
 44
0.0
173
     0
291
     1
 45
0.0
1001
ACAD
1000
AcDbSavedByObjectVersion
1070
     0
  0
VISUALSTYLE
  5
8356
102
{ACAD_XDICTIONARY
360
87DD
102
}
102
{ACAD_REACTORS
330
834E
102
}
330
834E
100
AcDbVisualStyle
  2
Hidden
 70
     6
 71
     1
 72
     2
 73
     2
 90
        0
 40
-0.6
 41
-30.0
 62
     5
 63
     7
 74
     2
 91
        2
 64
     7
 65
   257
 75
     2
175
     1
 42
40.0
 92
        0
 66
   257
 43
1.0
 76
     1
 77
     6
 78
     2
 67
     7
 79
     3
170
     0
171
     0
290
     0
174
     0
 93
        1
 44
0.0
173
     0
291
     0
 45
0.0
1001
ACAD
1000
AcDbSavedByObjectVersion
1070
     0
  0
VISUALSTYLE
  5
8364
102
{ACAD_XDICTIONARY
360
87F9
102
}
102
{ACAD_REACTORS
330
834E
102
}
330
834E
100
AcDbVisualStyle
  2
JitterOff
 70
    20
 71
     2
 72
     2
 73
     0
 90
        0
 40
-0.6
 41
-30.0
 62
     5
 63
     7
 74
     1
 91
        4
 64
     7
 65
   257
 75
     1
175
     1
 42
1.0
 92
       10
 66
     7
 43
1.0
 76
     1
 77
     6
 78
     2
 67
     7
 79
     5
170
     0
171
     0
290
     0
174
     0
 93
        1
 44
0.0
173
     0
291
     1
 45
0.0
1001
ACAD
1000
AcDbSavedByObjectVersion
1070
     0
  0
VISUALSTYLE
  5
835C
102
{ACAD_XDICTIONARY
360
87E9
102
}
102
{ACAD_REACTORS
330
834E
102
}
330
834E
100
AcDbVisualStyle
  2
Linepattern
 70
    14
 71
     2
 72
     2
 73
     0
 90
        0
 40
-0.6
 41
-30.0
 62
     5
 63
     7
 74
     1
 91
        4
 64
     7
 65
   257
 75
     7
175
     7
 42
1.0
 92
        8
 66
     7
 43
1.0
 76
     1
 77
     6
 78
     2
 67
     7
 79
     5
170
     0
171
     0
290
     0
174
     0
 93
        1
 44
0.0
173
     0
291
     1
 45
0.0
1001
ACAD
1000
AcDbSavedByObjectVersion
1070
     0
  0
VISUALSTYLE
  5
8365
102
{ACAD_XDICTIONARY
360
87FB
102
}
102
{ACAD_REACTORS
330
834E
102
}
330
834E
100
AcDbVisualStyle
  2
OverhangOff
 70
    21
 71
     2
 72
     2
 73
     0
 90
        0
 40
-0.6
 41
-30.0
 62
     5
 63
     7
 74
     1
 91
        4
 64
     7
 65
   257
 75
     1
175
     1
 42
1.0
 92
        9
 66
     7
 43
1.0
 76
     1
 77
     6
 78
     2
 67
     7
 79
     5
170
     0
171
     0
290
     0
174
     0
 93
        1
 44
0.0
173
     0
291
     1
 45
0.0
1001
ACAD
1000
AcDbSavedByObjectVersion
1070
     0
  0
VISUALSTYLE
  5
8358
102
{ACAD_XDICTIONARY
360
87E1
102
}
102
{ACAD_REACTORS
330
834E
102
}
330
834E
100
AcDbVisualStyle
  2
Realistic
 70
     8
 71
     2
 72
     3
 73
     0
 90
        2
 40
-0.6
 41
30.0
 62
     5
 63
     7
 74
     0
 91
        0
 64
     7
 65
   257
 75
     1
175
     1
 42
1.0
 92
        8
 66
   257
 43
1.0
 76
     1
 77
     6
 78
     2
 67
     7
 79
     3
170
     0
171
     0
290
     0
174
     0
 93
       13
 44
0.0
173
     0
291
     0
 45
0.0
1001
ACAD
1000
AcDbSavedByObjectVersion
1070
     0
  0
VISUALSTYLE
  5
8363
102
{ACAD_XDICTIONARY
360
87F7
102
}
102
{ACAD_REACTORS
330
834E
102
}
330
834E
100
AcDbVisualStyle
  2
Shaded
 70
    27
 71
     2
 72
     2
 73
     1
 90
        2
 40
-0.6
 41
30.0
 62
     5
 63
     7
 74
     0
 91
        4
 64
     7
 65
   257
 75
     1
175
     1
 42
1.0
 92
        8
 66
   257
 43
1.0
 76
     1
 77
     6
 78
     2
 67
     8
 79
     3
170
     0
171
     0
290
     0
174
     0
 93
        5
 44
0.0
173
     0
291
     0
 45
0.0
1001
ACAD
1000
AcDbSavedByObjectVersion
1070
     0
  0
VISUALSTYLE
  5
8362
102
{ACAD_XDICTIONARY
360
87F5
102
}
102
{ACAD_REACTORS
330
834E
102
}
330
834E
100
AcDbVisualStyle
  2
Shaded with edges
 70
    26
 71
     2
 72
     2
 73
     1
 90
        2
 40
-0.6
 41
30.0
 62
     5
 63
     7
 74
     1
 91
       10
 64
     7
 65
   257
 75
     2
175
     1
 42
1.0
 92
        8
 66
   257
 43
1.0
 76
     1
 77
     6
 78
     2
 67
     7
 79
     3
170
     0
171
     0
290
     0
174
     0
 93
        5
 44
0.0
173
     0
291
     0
 45
0.0
1001
ACAD
1000
AcDbSavedByObjectVersion
1070
     0
  0
VISUALSTYLE
  5
835F
102
{ACAD_XDICTIONARY
360
87EF
102
}
102
{ACAD_REACTORS
330
834E
102
}
330
834E
100
AcDbVisualStyle
  2
Shades of Gray
 70
    23
 71
     2
 72
     2
 73
     3
 90
        0
 40
-0.6
 41
-30.0
 62
     5
 63
     7
 74
     2
 91
        2
 64
     7
 65
     7
 75
     1
175
     1
 42
40.0
 92
        8
 66
     7
 43
1.0
 76
     1
 77
     6
 78
     2
 67
     7
 79
     3
170
     0
171
     0
290
     0
174
     0
 93
        1
 44
0.0
173
     0
291
     0
 45
0.0
1001
ACAD
1000
AcDbSavedByObjectVersion
1070
     0
  0
VISUALSTYLE
  5
8360
102
{ACAD_XDICTIONARY
360
87F1
102
}
102
{ACAD_REACTORS
330
834E
102
}
330
834E
100
AcDbVisualStyle
  2
Sketchy
 70
    24
 71
     1
 72
     2
 73
     2
 90
        0
 40
-0.6
 41
-30.0
 62
     5
 63
     7
 74
     2
 91
        2
 64
     7
 65
     7
 75
     1
175
     1
 42
40.0
 92
       11
 66
     7
 43
1.0
 76
     1
 77
     6
 78
     2
 67
     7
 79
     6
170
     0
171
     0
290
     0
174
     0
 93
        1
 44
0.0
173
     0
291
     0
 45
0.0
1001
ACAD
1000
AcDbSavedByObjectVersion
1070
     0
  0
VISUALSTYLE
  5
835B
102
{ACAD_XDICTIONARY
360
87E7
102
}
102
{ACAD_REACTORS
330
834E
102
}
330
834E
100
AcDbVisualStyle
  2
Thicken
 70
    13
 71
     2
 72
     2
 73
     0
 90
        0
 40
-0.6
 41
-30.0
 62
     5
 63
     7
 74
     1
 91
        4
 64
     7
 65
   257
 75
     1
175
     1
 42
1.0
 92
       12
 66
     7
 43
1.0
 76
     1
 77
     6
 78
     2
 67
     7
 79
     5
170
     0
171
     0
290
     0
174
     0
 93
        1
 44
0.0
173
     0
291
     1
 45
0.0
1001
ACAD
1000
AcDbSavedByObjectVersion
1070
     0
  0
VISUALSTYLE
  5
8355
102
{ACAD_XDICTIONARY
360
87DB
102
}
102
{ACAD_REACTORS
330
834E
102
}
330
834E
100
AcDbVisualStyle
  2
Wireframe
 70
     5
 71
     0
 72
     2
 73
     0
 90
        0
 40
-0.6
 41
-30.0
 62
     5
 63
     7
 74
     1
 91
        4
 64
     7
 65
   257
 75
     1
175
     1
 42
1.0
 92
        0
 66
   257
 43
1.0
 76
     1
 77
     6
 78
     2
 67
     7
 79
     3
170
     0
171
     0
290
     0
174
     0
 93
        1
 44
0.0
173
     0
291
     0
 45
0.0
1001
ACAD
1000
AcDbSavedByObjectVersion
1070
     0
  0
VISUALSTYLE
  5
8361
102
{ACAD_XDICTIONARY
360
87F3
102
}
102
{ACAD_REACTORS
330
834E
102
}
330
834E
100
AcDbVisualStyle
  2
X-Ray
 70
    25
 71
     2
 72
     2
 73
     1
 90
        1
 40
0.5
 41
-30.0
 62
     5
 63
     7
 74
     1
 91
        0
 64
     7
 65
   257
 75
     1
175
     1
 42
1.0
 92
        8
 66
     7
 43
1.0
 76
     1
 77
     6
 78
     2
 67
     7
 79
     3
170
     0
171
     0
290
     0
174
     0
 93
       13
 44
0.0
173
     0
291
     0
 45
0.0
1001
ACAD
1000
AcDbSavedByObjectVersion
1070
     0
  0
DICTIONARYVAR
  5
8781
102
{ACAD_REACTORS
330
877C
102
}
330
877C
100
DictionaryVariables
280
     0
  1
1:1
  0
DICTIONARYVAR
  5
877E
102
{ACAD_REACTORS
330
877C
102
}
330
877C
100
DictionaryVariables
280
     0
  1
STANDARD
  0
DICTIONARYVAR
  5
877D
102
{ACAD_REACTORS
330
877C
102
}
330
877C
100
DictionaryVariables
280
     0
  1
STANDARD
  0
DICTIONARYVAR
  5
877F
102
{ACAD_REACTORS
330
877C
102
}
330
877C
100
DictionaryVariables
280
     0
  1
Imperial24
  0
DICTIONARYVAR
  5
8780
102
{ACAD_REACTORS
330
877C
102
}
330
877C
100
DictionaryVariables
280
     0
  1
Imperial24
  0
DICTIONARYVAR
  5
8784
102
{ACAD_REACTORS
330
877C
102
}
330
877C
100
DictionaryVariables
280
     0
  1
1
  0
DICTIONARYVAR
  5
8783
102
{ACAD_REACTORS
330
877C
102
}
330
877C
100
DictionaryVariables
280
     0
  1
0
  0
DICTIONARYVAR
  5
8782
102
{ACAD_REACTORS
330
877C
102
}
330
877C
100
DictionaryVariables
280
     0
  1
127
  0
DICTIONARYVAR
  5
8785
102
{ACAD_REACTORS
330
877C
102
}
330
877C
100
DictionaryVariables
280
     0
  1
2
  0
DICTIONARY
  5
8803
330
838F
100
AcDbDictionary
280
     1
281
     1
  3
ACAD_XREC_ROUNDTRIP
360
8804
  0
DICTIONARY
  5
8807
330
8397
100
AcDbDictionary
280
     1
281
     1
  3
ACAD_XREC_ROUNDTRIP
360
8808
  0
DICTIONARY
  5
8805
330
8393
100
AcDbDictionary
280
     1
281
     1
  3
ACAD_XREC_ROUNDTRIP
360
8806
  0
DICTIONARY
  5
833F
330
833E
100
AcDbDictionary
280
     1
281
     1
  3
ACAD_XREC_ROUNDTRIP
360
87CD
  3
BUMPTILE
360
8341
  3
DIFFUSETILE
360
8340
  3
OPACITYTILE
360
8344
  3
REFLECTIONTILE
360
8343
  3
REFRACTIONTILE
360
8345
  3
SPECULARTILE
360
8342
  0
DICTIONARY
  5
8337
330
8336
100
AcDbDictionary
280
     1
281
     1
  3
ACAD_XREC_ROUNDTRIP
360
87CC
  3
BUMPTILE
360
8339
  3
DIFFUSETILE
360
8338
  3
OPACITYTILE
360
833C
  3
REFLECTIONTILE
360
833B
  3
REFRACTIONTILE
360
833D
  3
SPECULARTILE
360
833A
  0
DICTIONARY
  5
8347
330
8346
100
AcDbDictionary
280
     1
281
     1
  3
ACAD_XREC_ROUNDTRIP
360
87CE
  3
BUMPTILE
360
8349
  3
DIFFUSETILE
360
8348
  3
FBXASSET
360
83E2
  3
OPACITYTILE
360
834C
  3
REFLECTIONTILE
360
834B
  3
REFRACTIONTILE
360
834D
  3
SPECULARTILE
360
834A
  0
DICTIONARY
  5
8801
330
838D
100
AcDbDictionary
280
     1
281
     1
  3
ACAD_XREC_ROUNDTRIP
360
8802
  0
DICTIONARY
  5
87C8
330
8389
100
AcDbDictionary
280
     1
281
     1
  3
ACAD_ROUNDTRIP_2008_TABLESTYLE_CELLSTYLEMAP
360
87C9
  3
ACAD_XREC_ROUNDTRIP
360
87FF
  0
DICTIONARY
  5
87D9
330
8354
100
AcDbDictionary
280
     1
281
     1
  3
ACAD_XREC_ROUNDTRIP
360
87DA
  0
DICTIONARY
  5
87D7
330
8353
100
AcDbDictionary
280
     1
281
     1
  3
ACAD_XREC_ROUNDTRIP
360
87D8
  0
DICTIONARY
  5
87E5
330
835A
100
AcDbDictionary
280
     1
281
     1
  3
ACAD_XREC_ROUNDTRIP
360
87E6
  0
DICTIONARY
  5
87ED
330
835E
100
AcDbDictionary
280
     1
281
     1
  3
ACAD_XREC_ROUNDTRIP
360
87EE
  0
DICTIONARY
  5
87DF
330
8357
100
AcDbDictionary
280
     1
281
     1
  3
ACAD_XREC_ROUNDTRIP
360
87E0
  0
DICTIONARY
  5
87E3
330
8359
100
AcDbDictionary
280
     1
281
     1
  3
ACAD_XREC_ROUNDTRIP
360
87E4
  0
DICTIONARY
  5
87FD
330
8366
100
AcDbDictionary
280
     1
281
     1
  3
ACAD_XREC_ROUNDTRIP
360
87FE
  0
DICTIONARY
  5
87EB
330
835D
100
AcDbDictionary
280
     1
281
     1
  3
ACAD_XREC_ROUNDTRIP
360
87EC
  0
DICTIONARY
  5
87CF
330
834F
100
AcDbDictionary
280
     1
281
     1
  3
ACAD_XREC_ROUNDTRIP
360
87D0
  0
DICTIONARY
  5
87D1
330
8350
100
AcDbDictionary
280
     1
281
     1
  3
ACAD_XREC_ROUNDTRIP
360
87D2
  0
DICTIONARY
  5
87D3
330
8351
100
AcDbDictionary
280
     1
281
     1
  3
ACAD_XREC_ROUNDTRIP
360
87D4
  0
DICTIONARY
  5
87D5
330
8352
100
AcDbDictionary
280
     1
281
     1
  3
ACAD_XREC_ROUNDTRIP
360
87D6
  0
DICTIONARY
  5
87DD
330
8356
100
AcDbDictionary
280
     1
281
     1
  3
ACAD_XREC_ROUNDTRIP
360
87DE
  0
DICTIONARY
  5
87F9
330
8364
100
AcDbDictionary
280
     1
281
     1
  3
ACAD_XREC_ROUNDTRIP
360
87FA
  0
DICTIONARY
  5
87E9
330
835C
100
AcDbDictionary
280
     1
281
     1
  3
ACAD_XREC_ROUNDTRIP
360
87EA
  0
DICTIONARY
  5
87FB
330
8365
100
AcDbDictionary
280
     1
281
     1
  3
ACAD_XREC_ROUNDTRIP
360
87FC
  0
DICTIONARY
  5
87E1
330
8358
100
AcDbDictionary
280
     1
281
     1
  3
ACAD_XREC_ROUNDTRIP
360
87E2
  0
DICTIONARY
  5
87F7
330
8363
100
AcDbDictionary
280
     1
281
     1
  3
ACAD_XREC_ROUNDTRIP
360
87F8
  0
DICTIONARY
  5
87F5
330
8362
100
AcDbDictionary
280
     1
281
     1
  3
ACAD_XREC_ROUNDTRIP
360
87F6
  0
DICTIONARY
  5
87EF
330
835F
100
AcDbDictionary
280
     1
281
     1
  3
ACAD_XREC_ROUNDTRIP
360
87F0
  0
DICTIONARY
  5
87F1
330
8360
100
AcDbDictionary
280
     1
281
     1
  3
ACAD_XREC_ROUNDTRIP
360
87F2
  0
DICTIONARY
  5
87E7
330
835B
100
AcDbDictionary
280
     1
281
     1
  3
ACAD_XREC_ROUNDTRIP
360
87E8
  0
DICTIONARY
  5
87DB
330
8355
100
AcDbDictionary
280
     1
281
     1
  3
ACAD_XREC_ROUNDTRIP
360
87DC
  0
DICTIONARY
  5
87F3
330
8361
100
AcDbDictionary
280
     1
281
     1
  3
ACAD_XREC_ROUNDTRIP
360
87F4
  0
XRECORD
  5
8804
102
{ACAD_REACTORS
330
8803
102
}
330
8803
100
AcDbXrecord
280
     1
102
DISPLAYNAME
  1
Imperial24
102
FLAGS
 90
        0
  0
XRECORD
  5
8808
102
{ACAD_REACTORS
330
8807
102
}
330
8807
100
AcDbXrecord
280
     1
102
SHADEPLOT
 70
     0
102
SHADEPLOTRESLEVEL
 70
     2
102
SHADEPLOTCUSTOMDPI
 70
   300
  0
XRECORD
  5
8806
102
{ACAD_REACTORS
330
8805
102
}
330
8805
100
AcDbXrecord
280
     1
102
SHADEPLOT
 70
     0
102
SHADEPLOTRESLEVEL
 70
     2
102
SHADEPLOTCUSTOMDPI
 70
   300
  0
XRECORD
  5
87CD
102
{ACAD_REACTORS
330
833F
102
}
330
833F
100
AcDbXrecord
280
     1
102
MATERIAL
148
0.0
149
0.0
149
0.0
 93
        0
 94
      127
282
     0
 72
     0
 77
     0
171
     0
175
     0
179
     0
273
     0
  0
XRECORD
  5
8341
102
{ACAD_REACTORS
330
833F
102
}
330
833F
100
AcDbXrecord
280
     1
270
     1
271
     1
  0
XRECORD
  5
8340
102
{ACAD_REACTORS
330
833F
102
}
330
833F
100
AcDbXrecord
280
     1
270
     1
271
     1
  0
XRECORD
  5
8344
102
{ACAD_REACTORS
330
833F
102
}
330
833F
100
AcDbXrecord
280
     1
270
     1
271
     1
  0
XRECORD
  5
8343
102
{ACAD_REACTORS
330
833F
102
}
330
833F
100
AcDbXrecord
280
     1
270
     1
271
     1
  0
XRECORD
  5
8345
102
{ACAD_REACTORS
330
833F
102
}
330
833F
100
AcDbXrecord
280
     1
270
     1
271
     1
  0
XRECORD
  5
8342
102
{ACAD_REACTORS
330
833F
102
}
330
833F
100
AcDbXrecord
280
     1
270
     1
271
     1
  0
XRECORD
  5
87CC
102
{ACAD_REACTORS
330
8337
102
}
330
8337
100
AcDbXrecord
280
     1
102
MATERIAL
148
0.0
149
0.0
149
0.0
 93
        0
 94
      127
282
     0
 72
     0
 77
     0
171
     0
175
     0
179
     0
273
     0
  0
XRECORD
  5
8339
102
{ACAD_REACTORS
330
8337
102
}
330
8337
100
AcDbXrecord
280
     1
270
     1
271
     1
  0
XRECORD
  5
8338
102
{ACAD_REACTORS
330
8337
102
}
330
8337
100
AcDbXrecord
280
     1
270
     1
271
     1
  0
XRECORD
  5
833C
102
{ACAD_REACTORS
330
8337
102
}
330
8337
100
AcDbXrecord
280
     1
270
     1
271
     1
  0
XRECORD
  5
833B
102
{ACAD_REACTORS
330
8337
102
}
330
8337
100
AcDbXrecord
280
     1
270
     1
271
     1
  0
XRECORD
  5
833D
102
{ACAD_REACTORS
330
8337
102
}
330
8337
100
AcDbXrecord
280
     1
270
     1
271
     1
  0
XRECORD
  5
833A
102
{ACAD_REACTORS
330
8337
102
}
330
8337
100
AcDbXrecord
280
     1
270
     1
271
     1
  0
XRECORD
  5
87CE
102
{ACAD_REACTORS
330
8347
102
}
330
8347
100
AcDbXrecord
280
     1
102
MATERIAL
148
0.0
149
0.0
149
0.0
 93
        0
 94
      127
282
     0
 72
     0
 77
     0
171
     0
175
     0
179
     0
273
     0
  0
XRECORD
  5
8349
102
{ACAD_REACTORS
330
8347
102
}
330
8347
100
AcDbXrecord
280
     1
270
     1
271
     1
  0
XRECORD
  5
8348
102
{ACAD_REACTORS
330
8347
102
}
330
8347
100
AcDbXrecord
280
     1
270
     1
271
     1
  0
XRECORD
  5
83E2
102
{ACAD_REACTORS
330
8347
102
}
330
8347
100
AcDbXrecord
280
     1
 70
     1
 90
1959938040
 71
     1
  1
E38BD316-D02F-4BD4-8CE8-623CF2E55A72
311
504B0304140006080800846E7857C24AD32CD7000000200100004F00000045434244454137312D423742322D343642302D393842382D3536343536304333443438312F4173736574446174612F446566696E6974696F6E4974657261746F7250726F706572746965732E62696EEB606060F80F0540260323103700495E20ED
311
9E9A975A94991C9C9C919A9BC8C00612C9C94F4ACC6147C831019920AE4B6A5A62694E0948976F6671726A4E4E625E6A7E69B12042A9426E6209D0B8C41C3D90264E20860914834C48875806B2DF0F88414E02D189290556F689C5C5A925B6FA694915FACE064606C6CE2EAEBAA6AEC62EBA26E6466EBA4E2E2E26BACE864E
311
AE46262616E626A616FA45A9C5F9A545C9A9C5FA46FA06F15093E30BF2D283221DEB0C19188280D6B330BCDF9715AE15501EDE63A707B4C825BD3966A7C1CC4D402612D80700504B0304140006080800846E7857DF737BF0EC000000300200004500000045434244454137312D423742322D343642302D393842382D353634
311
3536304333443438312F4173736574446174612F496E7374616E636550726F706572746965732E62696EEB606060F80F0540260323103700495E20ED9E9A975A94991C9C9C919A9BA802147035B67072313634D375313072D335717231D1B57076B5D0353332767633723535753437624768046931363471713532B5D43535
311
3131D635313332D475727372D13534373670367376B67474B5042A03DBCBA019D37FE8ABC6157B20CD04146B0062181F4C03F940F0C11EA29A8141C08141002C0426541C106CAC2CA046088033B02A030AC2157C6006F21A8018AAF50194E6010A610250382264E08660284CD9E98021862280A91564B406929A0FF62C401E
311
28B6F88038B83CB1243943D7A928312F25350524432B0000504B0304140006080800846E785728BB58AF800100009E0500003D00000045434244454137312D423742322D343642302D393842382D3536343536304333443438312F536368656D61732F436F6D6D6F6E536368656D612E786D6CBD544D4FC23018BEFB2B96DE
311
15493C78601010A34B880709DEDFB52FD0D8B54BD70DF6EFED3AC0B12E6442E2716BFB3CEFF3D18E26FB440405EA8C2B1992E1C323095052C5B8DC842437EBFB673219DF8DA659866649B798C078B48AE6410122242F2A4994AC7F93815DF85C049C8564CA0A901499DD886B2EB9B1E02448F358701A9235880C49A0119892
311
A20C89D1B9FD768815CAD268CB5E0355B40B1E47F3E37A2020464BED06AA57CE8FCC20C3C3446D46761A2632A8C1283D07031EFF2AE7CCB1BFEEE916E406DFAC8E36FFD99A9D60A6944090EEDC3B670C7DC13DE86B6B2C5C240D6E503BB85ACD579D513F1B9F9A69DC9CC22AFA80C426D40AF0B21EA168559156B6276F0F72
311
6A6BFF04DCD513A87A62CAD41FB24FCB2858B3952E3D852084DA25B9303C15687973CC8E8AAE11DF2836C38C6A9E765E8C1BA1BFB1DC29CDFE518C8B5A7655A4ED7E77291ABEB80DBD82EC866ADE1B8D05AF9E35CF09D7A061F38A986D9EC412B8F0F65E5D81534D9B231D1E5A8FE577A241F3A5FD01504B03041400060808
311
00846E78572CCEBD668A040000E01200003E00000045434244454137312D423742322D343642302D393842382D3536343536304333443438312F536368656D61732F47656E65726963536368656D612E786D6CD5586D6FDB380CFE7EBF42F0F7A649B70E1B90744856B4970F450FCD7A5F05459613EDE4174872DADCAF3F52
311
2F8ED3B88D2F1D06AC4050DBA2493EE4438AF2F8EB73AEC8466823CB62928C06C384888297A92C5693A4B6D9D9E7E4EBD51FE3A931C22EF85AE4EC6AFC38BF261BA626C9AD288496DC3F4FCEAFC63366845F7A10452AF41DB320C0D44EC26EAB20918735565582695670811A6A49643A49A6E9069FA4604A64B29016DC4B48
311
552F95E4932463CA888468C1D2B250DB4962750DF7CE273069CE8363F1FF4EDB00E0A21999574AE4A2B00C353B93F3BD4777B8A61ED8F604ABFEDD79CE56A2B7BDFBDBC50996E0ADDE16FED26223C5D30956C29BDF4A55EA686E5E58B112DA45CE67F76F4FA27EFA3FB672FD7372FC388FAECDCA5209E693CAD167BADCD272
311
F943701B3812F8A3D852008B1D2E32DB927B2F833C6EA95879925356D254582695095A3CE982924720BE5774A3CB9CDCDB350427D2DF20DA1B5532EBE2D5D6288D75D4F7E4FD9890A0EF8E3D93EBB8F8BA4758158EF6FB90A6F9520281C93DE7AAC6D24607DA296BB96018123F821A7D6A5C5884050C475DA4865442732C8B
311
95684A50165CBB3A32F25F783A4A480ED59AD7F924B968AEA50131F46303223E6A397B0E52976030DC1DCA81D7E7C1EDEEA42C19FF27635C505E2BD5198A599020DF50A2330FCB3AAF28CB0124108429553EF1B228802E2265D8F7CC2401042B155BCC7070F1E5C55F13B4A9577362CCCE46C32174E010C3C378C44841A4BD
311
A00FE3A12006CE11EE6AEC59894D3526DDE1CD59D503ECC324017F8061B7F162162FA62EDD81AE3308617770796DCBDAD2B2625C5AE8A63DE20B2C8AA5E95E76E5730823955956E33E705425A2187C185D36489A1B44D3DCEC2172F6BA2105C3546287A7194B2331768EBBE64F6E70A9930ABE0ADEA89E9E2C38523B810287
311
AD67A54A039C1606EAFE68F8304610BB9093DBDDABC0B2AE4E290DCDA15376D7E39F72B556F0B32EAB5D3D498B4C41ABADEC3A1434C422D87E8025A84BDCB2B1417ED750FAE4DA8976863974C577C7F902D3F156AD354DEA3540DE6BEAE2BEA52F7A2EB4CA43802ECE5BF2CE2EDC9347179FFB023CE412E60BE16DA0BE29B3
311
74988A553F561DC04615DD35F7D2C8979F60E5955CE93DF29DED8AFA1EE6642D53418086C03C47C377910F75F7E8F5EF665F70B60FFB22AEDF897D119E8423C773E819A3C1E55E550599EE6EDCA34D0C86FD72057DF2CD46F16A470682471C164E4346D5306BF12D7D12D82CFF673D41636C347443FEB51B50D72EA171A8E4
311
A58623A4A16E0FA2B8B10A0D23268D87C33896EE8FB73305A74BF224EDBADFA0BD674AB354D63DB7BD5D83426761C077DE767728235446A552754EB93B755891C3C4CC6CADE37CF0E912A7BB38DBA010F9DE1282EDF470CA69A9CDA482E334C4A6EA4107987980B17E72F31730EBF88BBD39E7C629F56797A3C0009C2C5AE7
311
951D9A05A02773440F02EEB4DE396A3B6A570C72CCFBCD823B0B8ED3F1D5CEDDFED772FA70236C83FB7D86C385D570B87107535572A60A96035F8F7C6A7192F13007246BBE0521855E6AC46F3E27689CEE7D186A6FD679D98CDCAD13333E04EBE7ED6F55FF01504B0304140006080800846E78576180134D5F0100006B0300
311
004500000045434244454137312D423742322D343642302D393842382D3536343536304333443438312F536368656D61732F52656E6465724D6174657269616C536368656D612E786D6CA5934D6FC2300C86EFFB1551EEE343DBA41D1A103009551ADAD40EAE28A4A68D9426284961FCFBE5A340113B2071746D3F765EBF4D
311
C6BFB5407BD0862B49F0B037C0082453059725C18DDD3EBFE3F1E829991803366715D474942CD30FB4A782E00C64017A412D684E454CE3FE28995203B162A6EA5AC94B66997D225E109CD63B0135484BAD1B3C07E9080CA35DB3119C11BCA5C200461A68A1A438126C75E3E230D40FF81FB3F03C91D1E3A3A0AF79FE28E25B
311
C39EC3E17E4C2A2D94A0833A51AF55BCCA7D88572FCBAC529C4140B020FC3AAFA886621DCED7EAD7664CC86024E806DC297DA1BB393E4156543457A4537DB8817349A70F8ACBF09B3EEE2CB2F33E91B65D60786E4E3B39B77E3FEEEF5650424525DA657FB8B46BE6BF064646F0A0F7327C0BC1BC1B4CBBC1C419FA3CCB2350
311
0007872A2580CAAE5461865565294E4EDB4617B62FF579DF9A5B2F54E834076A597573A020912FED777F9B3F504B0304140006080800846E7857772551E851000000570000004700000045434244454137312D423742322D343642302D393842382D3536343536304333443438312F4173736574446174612F417373657454
311
61626C654F66436F6E74656E74732E62696E536160607035B67072313634D375313072D335717231D1B57076B5D03533327676337235357534371202AACB4D2C492DCA4CCC492C28484D2C4ACC4B4E050A82012F90744FCD03CA26072767A4E6260200504B0304140006080800846E7857F865834058000000680000004500
311
000045434244454137312D423742322D343642302D393842382D3536343536304333443438312F4173736574446174612F53747265616D56657273696F6E5461626C652E696E66558CBD0A80300C06F73E4B117FB66E451741D041DC5BF98480A492E4FDD18EAEC7DD4555D89EF28DF51A0B1BD8340C4DE7DD848B988C0ACF
311
0649566493F2408C508DDEBB99D5129FF8F1AF8CF5B9503E20FAE5A16B5AF702504B0304140006080800846E785701E71F11350100009A0400003600000045434244454137312D423742322D343642302D393842382D3536343536304333443438312F4173736574446174612F636E782E786D6CCD94314FC3301085FF4AE4
311
3D7692820495E30AC1D209242A06B6AB7369AD3A76645F10FC7BEC3603A888A943D7F3BBF3F327BF93ABCFC1161F18A2F1AE6535AF58814EFBCEB85DCB26EACB3B56AC940CDED30F192B1C0CD8B25C664AEE829FC6B9D4610F93CD556BDC612E3EC488B481ADC5E7FED13B42479115DA428C2D8B7A8F037098C877180FBC03
311
025EF380D14F41639A4466C079920E08841D534DD52CCABA2E9B9B4DBD58DE36CBEAFE5D8AAC5472EBBD9DF5265D16FC58E8D3AD4C5552E46325A760664D7E0B537F79E45BE3A4484A252385C464EEA0AF3175C0385AA381123AE13521954984304871122B2932835F249EB037CEE496753206E4C34BB287810C5E1D91FFBC
311
5E9ECCDA4502A7F17A799C3BBC3C85D7E30F7A3B05F298986BCBC9B9436E5C7F819488E31A49A1C95B457D03504B0304140006080800846E7857F13647E4090100004F0300003400000045434244454137312D423742322D343642302D393842382D3536343536304333443438312F536368656D61732F636E782E786D6CCD
311
93BD4E042114855F65423F3033AB896E18B6B0B0B2512B3B84BBBB64813BE1C7E8DB0B23C56E62A7C57670F842CE395CF8EED3D9EE034234E86732D28174E0156AE30F33C969DFDF916E2778404C6718E9BC7430932A13C10F01F3D2240D7B996D55ADF1A7263EA073E85FD4119C249DB232C699C4754B654EA8219EA89649
311
D29106889883827243320EDA0D2A804CA089988669D38F633FDDBC8E9BEDEDB41DEEDF38ABA4E0EF88B6F1C62708B8740ACBC2173B0367F558F01C4C636A0622CEBDD1D2066785103CA6503A6864FA5A0A2997C51A2553A98AADE00F2338AB512F023F828760D47526BE30F76F919FC16B084FE5958291F63A93FFE6F16F05
311
B075F6CB08D4AF20BE01504B0304140006080800846E7857410A3D5871000000A40000002C00000045434244454137312D423742322D343642302D393842382D3536343536304333443438312F636E782E786D6C55CC4D0E82301086E1AB34B31774E7A22D31F1069E60020334B633A63FC6E34B0909B07DDE2F9FEE7EC1AB
311
2FC5E4840DDC9A2B28E25E06C7938192C7CB1D54677514C9871928C640062A83D55394F2D968A0118BAFEA1DBF377CA444F98919176EAB9FEAAB9F2960DA5BBB1E2ED3FA6FFF504B0304140006080800846E7857175F6B117E000000A300000007000000636E782E786D6C4D8CD10E822018465F85FDF71414226D820BF541
311
5CA263223492D6E307CD8BAEBEEDEC3BA7693F9B436F135F367809F4440019FF0893F58B84B4CF58006A551343D8FF6E80FCB8190905836A9618D2F3409399C7E40A75D6AF071C3ADD0FF79A625DEB0B665C137C135AE08AB38A93EEDA3341B3712E4A9E5F2F6FC9AB2F504B0304140006080800846E785716E99B5DA60000
311
0035010000130000005B436F6E74656E745F54797065735D2E786D6C9590410E82301045AFD2740F4517C6180A0BF5065E60AC53688469D30E066F6F91AD9AB89CF9FFFD3F99BA9DC7413C3026E749CB4D59498164FCCD51A7E5C4B6D84BD136F5E5193089ECA5A465CF1C0E4A25D3E308A9F401292BD6C711388FB15301CC
311
1D3A54DBAADA29E38991B8E0254336F5092D4C038BF39CD76B6FC6A538AEBEA54A4B08617006389FA516557DE4AE8E7E70DE30729138228C5F021CD93F02D4FB0DCD0B504B0304140006080800846E78573DEE336E64000000790000001B0000006175746F6465736B2D64657369676E2D7061636B6167652E786D6C35CBC1
311
0E83200C00D05F21DCA56CA76D41FC96062B120735B69A7DBE268BB7777961F8D5AF396893C2ADB70FE7ADA196782C2DF776D7A97B5933C430F15651E5469C55D70F80A4992A3ADC954792C525AE70A1E4D6AD9816CC044FEFDF01FE3FDE907802504B0304140006080800846E7857429B7DFEF80000009601000037000000
311
45434244454137312D423742322D343642302D393842382D3536343536304333443438312F4173736574446174612F636F72652E786D6C8550CB6E833010FC15B477033684B891715452FEA0A7DE2CE3102BC1467E54FDFCDA814AEDA9A75DCDCECCEE0E3B7F2D8FE25339AFADE901973514CA483B6933F710C3155128CE9C
311
396BC32F1A14462CAA870C0367B3B371DD21694D5026A3C64E6A0785F72A40211FA9E9C1CB9B5A442962480C7F2F5721EF6256252E371E6731EA6997EA29B9E9AB560E38C1A41B093EA0E1388EA8AD8716D16E2088D2CBA5A56377A4B86155167316F4F2B35D3A25829A92BE260DC21891F61D37A70339D52F1FACCA4CCE7C
311
70E9E77D69FE0EF86BBEFA4D04C1AA6DFAC735AED3FFAE519BD090DD755378E0381DF91C7056E594527946986A4E947F03504B0304140006080800846E7857DDC67B19F6000000940100003500000045434244454137312D423742322D343642302D393842382D3536343536304333443438312F536368656D61732F636F72
311
652E786D6C8550CB6E833010FC15B477033684B891712422BEA03DF56661875A0936F2A3EAE7D7062AB5A79E76353B33BB3BECFAB53C8B4FE5BCB6A6075CD650283359A9CDDC430C7744A1B872E6AC0DBF685018B1A81E320C9CCDCEC6F580266B8232193556AA0314DEAB00C5F44C4D0F7EFA508B28450C89E11FE52AA687
311
985589CB9DC7598C5A1E522D939BBE6BE580134CBA91E0131ACEE388DA7A6811ED068228BDDD5A3A76678A1B56653167412F3FDB27A7445032E96BD2208C1169DF707339914BFDF2CEAACCE4CC07977E3E96E6EF80BF6E777A56EDB33F9E7195FF7B466D42430ECF5DE181E374E236E0ACCA19A5B205986ACE937F03504B03
311
04140006080800846E78578FA546FD03010000D70100002D00000045434244454137312D423742322D343642302D393842382D3536343536304333443438312F636F72652E786D6C9551CB6E833010FC15B47703368F90C8382A49FEA0A7DE5CBC2156828DB0A9FAF9B50395DA5B7B5A6B3CB3BB33CB8F9FE323F9C0D9696B
311
5AA0690E099ADE2A6D8616167F250D2447C1676BFD0F1A24468ED8428441F061B6CBB441BD351E4D448D55B881D239F490F48FF068C1F5371C652A171F18EE9E4EB2BFCB01539AAE3CC1BD1EBFA5FD8CD2A302C17256104A092B5F6971A8D821DFBFF12C32055FB4F105DB86E1F88E2AB1930F9640543C5B7F036BD16AE368
311
1576D4578D3388CBA93B5F5E769474BB8E91B2EE72B26FBA86547559D5F9A938970D0D4D825870E7E790CCD62466F057F92AFCE56C99D43F9DAD0A0722EEF3B42C7816630EE5798350E349C417504B0304140006080800846E7857FDC8C88705010000B201000008000000636F72652E786D6C8D504B6EC32014BC0A628F6D
311
B093D00813C9916FD05577D41017C5068B4FD4DEBE1053A9DD75F5D07CDE0C8F5D3ED7053C94F3DA9A1EE2AA814099C94A6DE61EC6704314820B67CEDAF04B068111ABEA61862167B3B3712BD0644D5026A3C64A5540E1BD0A104C4B7AF4D04F1F6A1595882129FCBDDAC47417B3AA70B5EB380B7AFDB14E4E89A024E4A421
311
2DC21891EE15B7E70339372F6FACCE4ACE62D4B2446999D2F54D2B972C981C47820F68388D23EA9AA143F4381044E9F5DAD1F178A2B865753673E6834B7F2E4B52CF00BC78E45C56EF1467EFD62E45904A4960CDF20579C3EA4CFC291D37F98FD2DA84969485BBC3438E53A1279182F305D3789E37CD7C6DFE0D504B010214
311
00140006080800846E7857C24AD32CD7000000200100004F000000000000000000000000000000000045434244454137312D423742322D343642302D393842382D3536343536304333443438312F4173736574446174612F446566696E6974696F6E4974657261746F7250726F706572746965732E62696E504B0102140014
311
0006080800846E7857DF737BF0EC0000003002000045000000000000000000000000004401000045434244454137312D423742322D343642302D393842382D3536343536304333443438312F4173736574446174612F496E7374616E636550726F706572746965732E62696E504B01021400140006080800846E785728BB58
311
AF800100009E0500003D000000000000000000000000009302000045434244454137312D423742322D343642302D393842382D3536343536304333443438312F536368656D61732F436F6D6D6F6E536368656D612E786D6C504B01021400140006080800846E78572CCEBD668A040000E01200003E00000000000000000000
311
0000006E04000045434244454137312D423742322D343642302D393842382D3536343536304333443438312F536368656D61732F47656E65726963536368656D612E786D6C504B01021400140006080800846E78576180134D5F0100006B03000045000000000000000000000000005409000045434244454137312D423742
311
322D343642302D393842382D3536343536304333443438312F536368656D61732F52656E6465724D6174657269616C536368656D612E786D6C504B01021400140006080800846E7857772551E851000000570000004700000000000000000000000000160B000045434244454137312D423742322D343642302D393842382D
311
3536343536304333443438312F4173736574446174612F41737365745461626C654F66436F6E74656E74732E62696E504B01021400140006080800846E7857F865834058000000680000004500000000000000000000000000CC0B000045434244454137312D423742322D343642302D393842382D35363435363043334434
311
38312F4173736574446174612F53747265616D56657273696F6E5461626C652E696E66504B01021400140006080800846E785701E71F11350100009A0400003600000000000000000000000000870C000045434244454137312D423742322D343642302D393842382D3536343536304333443438312F417373657444617461
311
2F636E782E786D6C504B01021400140006080800846E7857F13647E4090100004F0300003400000000000000000000000000100E000045434244454137312D423742322D343642302D393842382D3536343536304333443438312F536368656D61732F636E782E786D6C504B01021400140006080800846E7857410A3D5871
311
000000A40000002C000000000000000000000000006B0F000045434244454137312D423742322D343642302D393842382D3536343536304333443438312F636E782E786D6C504B01021400140006080800846E7857175F6B117E000000A3000000070000000000000000000000000026100000636E782E786D6C504B010214
311
00140006080800846E785716E99B5DA6000000350100001300000000000000000000000000C91000005B436F6E74656E745F54797065735D2E786D6C504B01021400140006080800846E78573DEE336E64000000790000001B00000000000000000000000000A01100006175746F6465736B2D64657369676E2D7061636B61
311
67652E786D6C504B01021400140006080800846E7857429B7DFEF80000009601000037000000000000000000000000003D12000045434244454137312D423742322D343642302D393842382D3536343536304333443438312F4173736574446174612F636F72652E786D6C504B01021400140006080800846E7857DDC67B19
311
F60000009401000035000000000000000000000000008A13000045434244454137312D423742322D343642302D393842382D3536343536304333443438312F536368656D61732F636F72652E786D6C504B01021400140006080800846E78578FA546FD03010000D70100002D00000000000000000000000000D31400004543
311
4244454137312D423742322D343642302D393842382D3536343536304333443438312F636F72652E786D6C504B01021400140006080800846E7857FDC8C88705010000B2010000080000000000000000000000000021160000636F72652E786D6C504B050600000000110011005A0600004C1700000000
310
504B0304140006080800846E7857000000000000000000000000370000006662782F38443945333441422D384141462D344438352D383334382D4342454438384539463244432F617474726962757465732E62696E504B0304140006080800846E7857000000000000000000000000350000006662782F3844394533344142
310
2D384141462D344438352D383334382D4342454438384539463244432F76657274696365732E62696E504B0304140006080800846E7857F270F1330600000004000000360000006662782F38443945333441422D384141462D344438352D383334382D4342454438384539463244432F747269616E676C65732E62696E6366
310
60600000504B0304140006080800846E785751464CB48900000043010000360000006662782F38443945333441422D384141462D344438352D383334382D4342454438384539463244432F6469726563746F72792E786D6C9D8F310EC2300C45AF127987122606C71DD918B841D4B851A43646695A717C52A85029031293A5
310
A76FBF6FACEF7DA7264E43906840EF0FA03836E242F406C6DCEE4EA06AC22492573150D1F66C60C640E8938CB705396EEDD86DE9B5042FE27813D640EA63BB001C722AF6E55CB61E4863F58284D5D3F53DD715CE1C3985E63FD7F1B7EBDD617E9F1E504B0304140006080800846E7857E9FE888D38070000201C0000340000
310
006662782F38443945333441422D384141462D344438352D383334382D4342454438384539463244432F6F626A656374732E786D6CDD59DB6EDB3810FD1542FBB2FB605D2CDBB10BC5457C496114698B1A5DEC9B40CBB4C38D6E20A5C4D9AFDF2145CA922CDB4AB7058A4D81C6A1A9E1CC999933C391F7FE1085E899304E93
310
F8D6704CDB40240E922D8DF7B7469EED7A6303BD9F228F254956D967A01847E4D610CBC6D4DBB3244FD5D296EC701E3657EF677F211E909818280831E7B7060F1E49844D9C67C996F027738B336CEE7707D3318B8D75B17B86D3C7C651296624CE4055588F418AD2C0A9FF09265953CF121B6ADBFADDB6B917B659D2F0BAA2
310
34E6198E8313AD1A72FADDB4729DC162D91F4E7AC3C1C0ED0D467DA737BB9F2D7ACE8D6BCF47F3F9E46E3931D0D4DB2449583A2025F116BCF86A4C1DCF12DF94E62B14DAF40E9238268142B36DC39628B994F0262635601D695AC52185AD9505B7A3F167B67502A5A6520D6D6D9CFE5D8DDE64F33780C0BB4429E3444439CF
310
18F85A615FE483ED59C56ACD2F94A3086784511CA2906E1866E020D85A38A82646648B10850466D28B5A5E555708ECEBB9D4A6E52E0F4391BFC654669A0FF948322E35A3FF1076D4BE7A1AE804D6E634CEC6CAD8EC35051113CF928BC5776E5F7D5900897621DE43B480996293DB6FE035175CB05A18D38FF79BC35AF043FB
310
E1294B52C2321179329955DE690F56420B82AF032805AE75DF1D51F90AD07F02E44B5D90079E63F430380CB4ED0CC77C97B008BC836CD4B3E13F1B898F279F3CAB7C788A508D2BCF610A69FB8330AD99513BBB02E9D47B86A04F98AB8C5B073884987EA0B1C87308141426B0047CBFDB1C8CE90AC81416E1291C82F5F0CFB3
310
C44704BF0A39C0370D0FB5D16F0747E98469E6D9D1571F2066180D4A57D56C3C87EFF087E07BB7587F5CE76C8703F2A0127B417634A61914D376856AA0D752FEDBEA93CCC8137B6ABB0238679F08E268F1CB5AF90549C7802AA20E17AE912B0F14D23D0C714C929CABF536A20A923061FEE6D52F72B8F5AC3F75101487417E
310
8B08682533A8EE01A3A900C5982AF34A26348F38091E5401B82F9CEA6F70F024E0F50360ACEFD103A216B3A6D03C4A7D1C25792CE8FB34BC9BA699AE2D7F1C67D2B727FDF164A48DE552BCCE1E4D0DA5F2E29C08A7670E99D7BCA558434B2EF268006CD96641003D539EF9498A039AB5C742C30895A100F64595B774B7CB39
310
907A2B2C0D8D4DD71922BBF27F79C865EDD5213E8DF09EF83B2C2A5CEB7935804AE1DA825664F661C2398D09971DCA09733550B14D2082226EB5D49620A4DC8F4886BF27FE64C96B841F23BBD0875E2A13DDECF5E8D30AAAEA794EA2E8DC92D897F6BFFA1C4769587469D73070FA8D135A71154A8B239E21DE7C9CF9F696C8
310
A6FB9AF4921734BE9DA44FBE5BFC197818FEE9F0E82328B4DE5023AF7BD63187CE44FC8C81544643C7BDD18EB886953E2A133D489843D714BCFA2F84EE1FBB115AA7733809773E0DC33CF28B7A9091085A309CE5AC53BE8E86F689F3152F3412A272D28E86D02077264DD97BE8EE03AC92CDC739D2AC1C0346D118EE689D0C
310
39B1A23584A52FE47D545CBBAE7BFFED52FF335F56EF294FE4F52561DB564DEB6D84EEC074C320E85255B8328EA4E4A9574DBE485E5CAEE330D04214BF15B70415218C3C5331989037A0D6FB037FC1590044BA96BF7B33C8882DD91E7B8A9A3835E630A670A896A6FBD4EA4D07C84E948F5AE3B512841AC1B4010B9E7D101F
310
C2AF185C0D9D1FB754576315EB2B51D84C18AC1CF5B820EBF38775430AAC747EFA8BC088BC3424A8D5B968E42E88FAB63AF6AB0D09CAA26FAB0B8F678F79B489311595518405DEA6EFDECBBBE4AD0517056B6EF76D77BE58F6864B77D11BDCF4EF7BB3C562D09B3BB3657F3018DF0C86638B119EE42C20DCEA5BB6AF7BA734
310
DEEBC028A0EB72A380A9C2F5AB9F8EE7A683FFC7378A30D9E073B1F8AB5E28CA764F34648D5CEC7AA16825EACDDBBA7FE784A8DB8BD89B3AE76256A003FC72D90232D2F5BE7B6BA145EB4EA25DE74A457C63E13D7B5BF9E935A646E8ADF5A1B6A38DF2EB5C0CB3A7962AA56FB792D796EE78B6709D516F6103850D664061E3
310
F972DC1BF5DDF97D7F391CDEDD944D7493ADAED5955F82437511AC8CD1601ACC9390C2509E6CD19E24700382A943077E6511E1F266030D802AE3FA8D4087A79F8B996A8637A17E3A78C430980E5545CE03188AC2ADE3D650EBE83718838A49A41C4E994F507854B41B2867F4D68010C828D4177303E32C393C94D21BE34A08
310
5C1CEFC59DA978AAFCFBF898400762E56857B9A70B2ECAB25A74C2702095EF0980ED7443F2FDA66B7510CEE0E326CF4A638E0B476B1408FA8540611C4CFD9E14BC07209ECB7639A6DC5383A4D364FE621C14527B19667B395EAFE07DB7F86289C9F8EA334AC37C2FDC79A9DED724F5449F11E6C510CA83C05066A658DCC3E7
310
EFAC2F2C81574C11BAA71004E8F7C378F487354FA228898B25EB4EBDA842EB4778EDB4B5F4C80F1A17DB195AB2EF51637D985B7162E22D7F8205702DA362365A405C0B80929E2A01A03D227C018FD5F6AF164815814A0B5BA518018F9CE9234824F12E47A44D7543650009B9005AC92F8F1FF482673118824FFF05504B0304
310
140006080800846E7857DDDED41F3F01000046050000300000006662782F38443945333441422D384141462D344438352D383334382D4342454438384539463244432F636E782E786D6CCD94414EC3301045AF62799F38494182CA7125169C800562E738D3E036B1237B8CE8EDB18B5B40A88845A576678DFF48FFCD7C0D5F
310
BD4F237903E7B5352DADCB8A1230CAF6DA0C2D0DB82EEE285909EEACC56F324A8C9CA0A5A94C051F9C0D732EF5B096614CD5519B6D2E4A44A7BB80E02951A3F4BEA55EBDC2244B19D0F6E0B7652F519675E9C0DBE014C47ED413E47EE54022F4543455B328EABA686E9EEAC5F2B65956F72F9C25A5E09DB563D66B83E0EC4C
310
948D0F13CD549CA56FC183D3599308A8F8725676DA7016FF05F7D1AD19B20E7773D2CDF3A895C4382666150216510472E2EC532C384BBC3FA81F1F9E0F0E48AF1D28B46E77A101D4A706703456C624FC8F7F2FFC1BDB769B887BA96D9F84CDB6CE867A48AB8F71FDBDFF98226986F1FA427F3476FECCC753825A5D1FF2C1D7
310
9988D9FEE4C5A5A70B283E00504B0304140006080800846E78578D8FD37D7E000000A30000000B0000006662782F636E782E786D6C4D8C5D0B83201846FF8ABCF7EEA31CBC811996F63F6259C84C87CBB19F3F1D5DECEA81C3730EEF3E9B236F135F36F816AEA70B10E3EF61B67E6D21ED0B45209DE03184FDEF06C44F9B69
310
A160107C8D213D0F349B654AAE5067FDE380A81A5D33D9539472A44CE18D62CD900EBD5688BA192B3564E35C943CBF5EDE92175F504B0304140006080800846E7857A6D797065F0000008200000007000000636E782E786D6C4DCB3B0E80201045D1AD90E9FD7516806B51190811670C8A61F982B1B0BAC9C97B72CA7B1037
310
C6D3332918DA1E04D2CAC69353902EDB8C20262D23F3F59B81A079470595414B17391D1F19B4730A5583A7ED43BBE4025D9592775E5ADFFA01504B0304140006080800846E78574FEB6A7CA0000000F4000000130000005B436F6E74656E745F54797065735D2E786D6C7D8F4B0EC2300C44AF1279DFA6B0400835ED02B801
310
1730C16D239A8F121795DB93D02D6269CFBC19BBED573B8B17C564BC53B0AB1B10E4B47F18372A5878A88E20FAAEBDBD032591BD2E299898C349CAA427B2986A1FC86565F0D122E7318E32A07EE24872DF3407A9BD63725C71C980AEBDD080CBCCE2BAE6F5D69B7110E7CD57AA146008B3D1C8F92C5954F993BB1BF787F39A
310
89ABC491D09600F9FDA2FB00504B0304140006080800846E78573DEE336E64000000790000001B0000006175746F6465736B2D64657369676E2D7061636B6167652E786D6C35CBC10E83200C00D05F21DCA56CA76D41FC96062B120735B69A7DBE268BB7777961F8D5AF396893C2ADB70FE7ADA196782C2DF776D7A97B5933
310
C430F15651E5469C55D70F80A4992A3ADC954792C525AE70A1E4D6AD9816CC044FEFDF01FE3FDE907802504B0304140006080800846E7857FEEEE5D4F8000000960100003B0000006662782F38443945333441422D384141462D344438352D383334382D4342454438384539463244432F7265736F75726365732F636F7265
310
2E786D6C8550CB6E833010FC15B477436C40A19171541AFEA0A7DE2CB32156828DFCA8FAF9B50395DA534FBB9A9D99DD1D7EFE5A1EC5273AAFADE981960728D0283B6933F710C39574509C0577D6865F34288C5CB0870C83E0B3B371DD21654D4093516327DC41E93D0628D423353D7875C345963286C4F0F77295EA2E672C
310
69B9F1048F514FBB544FC94D5F353A1063F35A53DA1EC991752D69DAE142BA6160A419BBCBD00ECDDB38B6BCCA62C1835E7EB62B8732E004821D584D2825AC79A7F5A965A7C3CB07AF3253701F5CFA795F9ABF03E1D0DBE8147A5E6DD33FAE719DFE778DDA849AEDAE9BC283A0E9C8E740F02AA794CA33C25473A2E21B504B
310
0304140006080800846E7857002104ECF2000000B1010000310000006662782F38443945333441422D384141462D344438352D383334382D4342454438384539463244432F636F72652E786D6C8D50CD8E8320187C15C31D15B409364863AB7D823DED8D00B5A4150C3F9B7DFC85EA26BBB79E3E32DF0C33DFD0D3F7F22CBE
310
94F3DA9A1EA0B2068532C24A6DE61EC47083041427469DB5E10F0D14862FAA0719068CCECEC67587843541998C1A2BD50E72EF55008578A6470FBCB8AB85973C86C4F08F72E5E2C16755A272E3311AF4F22B154EF1A02460B8C60D4408E2F60335C7033ED6DD27AD3293D118B5DCADB44CEEFAA695038C8CDDD4B4C3199261
310
B8C2762407489A96C0CB791A0999BA2B1E2FB4CA62467D70E9E6FD937CDDBBF24DF82F735CE51B99B5090DDE0D3785070CA53CAF05A3552E308D57BB69E6B2D90F504B0304140006080800846E78575A4C8F5C53010000DD0200000C0000006662782F636F72652E786D6C8D52DB6E842014FC15C33B5E50B3B64136B5EB1F
310
F4A96F2CB296AC824130FBF9052FB13E74DB98209973CECC9909F8FCE8BB60E27A144A962009631070C95423645B026B6EB000C19960AD94F9D10602497B5E020F03825BADECB0424C49C3A547A56AF80AD271E40604AC7397128CEC8BF734A4D6B88EF11E0E94DD69CBC3245CFA08B65634EBA8681C9BB809AE01A9B3B734
310
49F2133CA12287595E5D60515508667571A9F22A7BAFEB1C477E986023FA4D9D694E0D6F0041314A619240947D24E96B8E5EE3974F1CF94E8247A39DE755D4BB03E4767DE068C10F7C7668FEE6B3429A14AD7CCBC40848E2D69B0B04473E1FF79BC33B66E8845D7E865EBBCDC2DD41136746E9CC551A65F7D2443BCB1D751C
310
CC1F8E96AA639E097EE3414F789E73B8A0A86CDD6AD4B8EBD51AAF7EDC69E01A4EE61148A57BDAEDCB2D2BEEE72E74B0B48D33D529FD9FE9CDEA1666E41F26F906504B0304140006080800846E7857BCB4D57B06010000B201000008000000636F72652E786D6C8D50416EC32010FC0ADA3BB6C14671234C5437FE414FBD51
310
202E8A0D96C151FBFB42E24AEDADA74533B33BC3F0D3E73CA19B5983F5AE035254808C535E5B3776B0C50B6E019D045FBD8FBF64809C9C4D071906C1C7D56FCB0E29EFA27119755E9B1D94219808484DE9D141501F669685DC6252846BB1487595A32948F1D0091EEDFCB3AA5623A3D12068456B4C08A6CD2BA98F8C1EABA7
310
375E66A5E0DB66F56E657572B7176B561043F35C13C20EF8405B861BD69F71DBF71437437BEE59DFBC0C03E3655E163CC435FD793F92724614E42DFBF2F24109FEEEFDB40B52288DBC9BBE4054BCCCC49FD0DBA2FF11DABA58D3FDE06323802029D09D48C6B9C134EEF5A699DB16DF504B01021400140006080800846E7857
310
0000000000000000000000003700000000000000000000000000000000006662782F38443945333441422D384141462D344438352D383334382D4342454438384539463244432F617474726962757465732E62696E504B01021400140006080800846E78570000000000000000000000003500000000000000000000000000
310
550000006662782F38443945333441422D384141462D344438352D383334382D4342454438384539463244432F76657274696365732E62696E504B01021400140006080800846E7857F270F13306000000040000003600000000000000000000000000A80000006662782F38443945333441422D384141462D344438352D38
310
3334382D4342454438384539463244432F747269616E676C65732E62696E504B01021400140006080800846E785751464CB489000000430100003600000000000000000000000000020100006662782F38443945333441422D384141462D344438352D383334382D4342454438384539463244432F6469726563746F72792E
310
786D6C504B01021400140006080800846E7857E9FE888D38070000201C00003400000000000000000000000000DF0100006662782F38443945333441422D384141462D344438352D383334382D4342454438384539463244432F6F626A656374732E786D6C504B01021400140006080800846E7857DDDED41F3F0100004605
310
00003000000000000000000000000000690900006662782F38443945333441422D384141462D344438352D383334382D4342454438384539463244432F636E782E786D6C504B01021400140006080800846E78578D8FD37D7E000000A30000000B00000000000000000000000000F60A00006662782F636E782E786D6C504B
310
01021400140006080800846E7857A6D797065F0000008200000007000000000000000000000000009D0B0000636E782E786D6C504B01021400140006080800846E78574FEB6A7CA0000000F40000001300000000000000000000000000210C00005B436F6E74656E745F54797065735D2E786D6C504B010214001400060808
310
00846E78573DEE336E64000000790000001B00000000000000000000000000F20C00006175746F6465736B2D64657369676E2D7061636B6167652E786D6C504B01021400140006080800846E7857FEEEE5D4F8000000960100003B000000000000000000000000008F0D00006662782F38443945333441422D384141462D34
310
4438352D383334382D4342454438384539463244432F7265736F75726365732F636F72652E786D6C504B01021400140006080800846E7857002104ECF2000000B10100003100000000000000000000000000E00E00006662782F38443945333441422D384141462D344438352D383334382D4342454438384539463244432F
310
636F72652E786D6C504B01021400140006080800846E78575A4C8F5C53010000DD0200000C00000000000000000000000000211000006662782F636F72652E786D6C504B01021400140006080800846E7857BCB4D57B06010000B201000008000000000000000000000000009E110000636F72652E786D6C504B0506000000
310
000E000E0080040000CA1200000000
  0
XRECORD
  5
834C
102
{ACAD_REACTORS
330
8347
102
}
330
8347
100
AcDbXrecord
280
     1
270
     1
271
     1
  0
XRECORD
  5
834B
102
{ACAD_REACTORS
330
8347
102
}
330
8347
100
AcDbXrecord
280
     1
270
     1
271
     1
  0
XRECORD
  5
834D
102
{ACAD_REACTORS
330
8347
102
}
330
8347
100
AcDbXrecord
280
     1
270
     1
271
     1
  0
XRECORD
  5
834A
102
{ACAD_REACTORS
330
8347
102
}
330
8347
100
AcDbXrecord
280
     1
270
     1
271
     1
  0
XRECORD
  5
8802
102
{ACAD_REACTORS
330
8801
102
}
330
8801
100
AcDbXrecord
280
     1
102
DISPLAYNAME
  1
Imperial24
102
FLAGS
 90
        0
  0
CELLSTYLEMAP
  5
87C9
102
{ACAD_REACTORS
330
87C8
102
}
330
87C8
100
AcDbCellStyleMap
 90
        3
300
CELLSTYLE
  1
TABLEFORMAT_BEGIN
 90
        5
170
     1
 91
        0
 92
    32768
 62
   257
 93
        1
300
CONTENTFORMAT
  1
CONTENTFORMAT_BEGIN
 90
        0
 91
        0
 92
      512
 93
        0
300

 40
0.0
140
1.0
 94
        5
 62
     0
340
837A
144
0.25
309
CONTENTFORMAT_END
171
     0
 94
        0
309
TABLEFORMAT_END
  1
CELLSTYLE_BEGIN
 90
        1
 91
        1
300
_TITLE
309
CELLSTYLE_END
300
CELLSTYLE
  1
TABLEFORMAT_BEGIN
 90
        5
170
     1
 91
        0
 92
        0
 62
   257
 93
        1
300
CONTENTFORMAT
  1
CONTENTFORMAT_BEGIN
 90
        0
 91
        0
 92
      512
 93
        0
300

 40
0.0
140
1.0
 94
        5
 62
     0
340
837A
144
0.18
309
CONTENTFORMAT_END
171
     0
 94
        0
309
TABLEFORMAT_END
  1
CELLSTYLE_BEGIN
 90
        2
 91
        1
300
_HEADER
309
CELLSTYLE_END
300
CELLSTYLE
  1
TABLEFORMAT_BEGIN
 90
        5
170
     1
 91
        0
 92
        0
 62
   257
 93
        1
300
CONTENTFORMAT
  1
CONTENTFORMAT_BEGIN
 90
        0
 91
        0
 92
      512
 93
        0
300

 40
0.0
140
1.0
 94
        2
 62
     0
340
837A
144
0.18
309
CONTENTFORMAT_END
171
     0
 94
        0
309
TABLEFORMAT_END
  1
CELLSTYLE_BEGIN
 90
        3
 91
        2
300
_DATA
309
CELLSTYLE_END
  0
XRECORD
  5
87FF
102
{ACAD_REACTORS
330
87C8
102
}
330
87C8
100
AcDbXrecord
280
     1
102
ACAD_ROUNDTRIP_PRE2007_TABLESTYLE
 90
      512
 91
        0
  1

 92
      512
 93
        0
  2

 94
      512
 95
        0
  3

  0
XRECORD
  5
87DA
102
{ACAD_REACTORS
330
87D9
102
}
330
87D9
100
AcDbXrecord
280
     1
102
RTVSPost2010Prop28
280
     1
102
RTVSPost2010PropOp28
 70
     1
102
RTVSPost2010Prop29
280
     1
102
RTVSPost2010PropOp29
 70
     1
102
RTVSPost2010Prop30
280
     0
102
RTVSPost2010PropOp30
 70
     1
102
RTVSPost2010Prop31
280
     0
102
RTVSPost2010PropOp31
 70
     1
102
RTVSPost2010Prop32
280
     0
102
RTVSPost2010PropOp32
 70
     1
102
RTVSPost2010Prop33
280
     0
102
RTVSPost2010PropOp33
 70
     1
102
RTVSPost2010Prop34
280
     0
102
RTVSPost2010PropOp34
 70
     1
102
RTVSPost2010Prop35
280
     0
102
RTVSPost2010PropOp35
 70
     1
102
RTVSPost2010Prop36
280
     0
102
RTVSPost2010PropOp36
 70
     1
102
RTVSPost2010Prop37
 90
       50
102
RTVSPost2010PropOp37
 70
     1
102
RTVSPost2010Prop38
140
0.0
102
RTVSPost2010PropOp38
 70
     1
102
RTVSPost2010Prop39
140
1.0
102
RTVSPost2010PropOp39
 70
     1
102
RTVSPost2010Prop40
 90
        0
102
RTVSPost2010PropOp40
 70
     1
102
RTVSPost2010Prop41ColorIndex
 90
       18
102
RTVSPost2010Prop41ColorRGB
 90
        0
102
RTVSPost2010PropOp41
 70
     1
102
RTVSPost2010Prop42
 90
       50
102
RTVSPost2010PropOp42
 70
     1
102
RTVSPost2010Prop43
 90
        3
102
RTVSPost2010PropOp43
 70
     1
102
RTVSPost2010Prop44ColorIndex
 90
        5
102
RTVSPost2010Prop44ColorRGB
 90
      255
102
RTVSPost2010PropOp44
 70
     1
102
RTVSPost2010Prop45
280
     0
102
RTVSPost2010PropOp45
 70
     1
102
RTVSPost2010Prop46
 90
       50
102
RTVSPost2010PropOp46
 70
     1
102
RTVSPost2010Prop47
 90
       50
102
RTVSPost2010PropOp47
 70
     1
102
RTVSPost2010Prop48
 90
       50
102
RTVSPost2010PropOp48
 70
     1
102
RTVSPost2010Prop49
280
     0
102
RTVSPost2010PropOp49
 70
     1
102
RTVSPost2010Prop50
 90
       50
102
RTVSPost2010PropOp50
 70
     1
102
RTVSPost2010Prop51ColorIndex
 90
      256
102
RTVSPost2010Prop51ColorRGB
 90
-16777216
102
RTVSPost2010PropOp51
 70
     0
102
RTVSPost2010Prop52
140
1.0
102
RTVSPost2010PropOp52
 70
     0
102
RTVSPost2010Prop53
 90
        2
102
RTVSPost2010PropOp53
 70
     1
102
RTVSPost2010Prop54
  1
strokes_ogs.tif
102
RTVSPost2010PropOp54
 70
     1
102
RTVSPost2010Prop55
280
     0
102
RTVSPost2010PropOp55
 70
     1
102
RTVSPost2010Prop56
140
1.0
102
RTVSPost2010PropOp56
 70
     1
102
RTVSPost2010Prop57
140
1.0
102
RTVSPost2010PropOp57
 70
     1
102
RTVSPropertyOp0
 70
     1
102
RTVSPropertyOp1
 70
     1
102
RTVSPropertyOp2
 70
     1
102
RTVSPropertyOp3
 70
     1
102
RTVSPropertyOp4
 70
     1
102
RTVSPropertyOp5
 70
     1
102
RTVSPropertyOp6
 70
     1
102
RTVSPropertyOp7
 70
     1
102
RTVSPropertyOp8
 70
     1
102
RTVSPropertyOp9
 70
     1
102
RTVSPropertyOp10
 70
     1
102
RTVSPropertyOp11
 70
     1
102
RTVSPropertyOp12
 70
     1
102
RTVSPropertyOp13
 70
     1
102
RTVSPropertyOp14
 70
     1
102
RTVSPropertyOp15
 70
     1
102
RTVSPropertyOp16
 70
     1
102
RTVSPropertyOp17
 70
     1
102
RTVSPropertyOp18
 70
     1
102
RTVSPropertyOp19
 70
     1
102
RTVSPropertyOp20
 70
     1
102
RTVSPropertyOp21
 70
     1
102
RTVSPropertyOp22
 70
     1
102
RTVSPropertyOp23
 70
     1
102
RTVSPropertyOp24
 70
     1
102
RTVSPropertyOp25
 70
     1
102
RTVSPropertyOp26
 70
     1
102
RTVSPropertyOp27
 70
     1
102
RTVSPropertyOp28
 70
     1
102
RTVSPropertyOp29
 70
     1
102
RTVSPropertyOp30
 70
     1
102
RTVSPropertyOp31
 70
     1
102
RTVSPropertyOp32
 70
     1
102
RTVSPropertyOp33
 70
     1
102
RTVSPropertyOp34
 70
     1
102
RTVSPropertyOp35
 70
     1
102
RTVSPropertyOp36
 70
     1
102
RTVSPropertyOp37
 70
     1
102
RTVSPropertyOp38
 70
     1
102
RTVSPropertyOp39
 70
     1
102
RTVSPropertyOp40
 70
     1
102
RTVSPropertyOp41
 70
     1
102
RTVSPropertyOp42
 70
     1
102
RTVSPropertyOp43
 70
     1
102
RTVSPropertyOp44
 70
     1
102
RTVSPropertyOp45
 70
     1
102
RTVSPropertyOp46
 70
     1
102
RTVSPropertyOp47
 70
     1
102
RTVSPropertyOp48
 70
     1
102
RTVSPropertyOp49
 70
     1
102
RTVSPropertyOp50
 70
     1
102
RTVSPropertyOp51
 70
     0
102
RTVSPropertyOp52
 70
     0
102
RTVSPropertyOp53
 70
     1
102
RTVSPropertyOp54
 70
     1
102
RTVSPropertyOp55
 70
     1
102
RTVSPropertyOp56
 70
     1
102
RTVSPropertyOp57
 70
     1
102
RTVSPropertyOp58
 70
     1
102
RTVSPropertyOp59
 70
     1
102
RTVSPropertyOp60
 70
     1
102
RTVSPropertyOp61
 70
     1
102
RTVSPropertyOp62
 70
     1
  0
XRECORD
  5
87D8
102
{ACAD_REACTORS
330
87D7
102
}
330
87D7
100
AcDbXrecord
280
     1
102
RTVSPost2010Prop28
280
     0
102
RTVSPost2010PropOp28
 70
     1
102
RTVSPost2010Prop29
280
     1
102
RTVSPost2010PropOp29
 70
     1
102
RTVSPost2010Prop30
280
     1
102
RTVSPost2010PropOp30
 70
     1
102
RTVSPost2010Prop31
280
     0
102
RTVSPost2010PropOp31
 70
     1
102
RTVSPost2010Prop32
280
     0
102
RTVSPost2010PropOp32
 70
     1
102
RTVSPost2010Prop33
280
     0
102
RTVSPost2010PropOp33
 70
     1
102
RTVSPost2010Prop34
280
     0
102
RTVSPost2010PropOp34
 70
     1
102
RTVSPost2010Prop35
280
     0
102
RTVSPost2010PropOp35
 70
     1
102
RTVSPost2010Prop36
280
     0
102
RTVSPost2010PropOp36
 70
     1
102
RTVSPost2010Prop37
 90
       50
102
RTVSPost2010PropOp37
 70
     1
102
RTVSPost2010Prop38
140
0.0
102
RTVSPost2010PropOp38
 70
     1
102
RTVSPost2010Prop39
140
1.0
102
RTVSPost2010PropOp39
 70
     1
102
RTVSPost2010Prop40
 90
        0
102
RTVSPost2010PropOp40
 70
     1
102
RTVSPost2010Prop41ColorIndex
 90
       18
102
RTVSPost2010Prop41ColorRGB
 90
        0
102
RTVSPost2010PropOp41
 70
     1
102
RTVSPost2010Prop42
 90
       50
102
RTVSPost2010PropOp42
 70
     1
102
RTVSPost2010Prop43
 90
        3
102
RTVSPost2010PropOp43
 70
     1
102
RTVSPost2010Prop44ColorIndex
 90
        5
102
RTVSPost2010Prop44ColorRGB
 90
      255
102
RTVSPost2010PropOp44
 70
     1
102
RTVSPost2010Prop45
280
     0
102
RTVSPost2010PropOp45
 70
     1
102
RTVSPost2010Prop46
 90
       50
102
RTVSPost2010PropOp46
 70
     1
102
RTVSPost2010Prop47
 90
       50
102
RTVSPost2010PropOp47
 70
     1
102
RTVSPost2010Prop48
 90
       50
102
RTVSPost2010PropOp48
 70
     1
102
RTVSPost2010Prop49
280
     0
102
RTVSPost2010PropOp49
 70
     1
102
RTVSPost2010Prop50
 90
       50
102
RTVSPost2010PropOp50
 70
     1
102
RTVSPost2010Prop51ColorIndex
 90
      256
102
RTVSPost2010Prop51ColorRGB
 90
-16777216
102
RTVSPost2010PropOp51
 70
     0
102
RTVSPost2010Prop52
140
1.0
102
RTVSPost2010PropOp52
 70
     0
102
RTVSPost2010Prop53
 90
        2
102
RTVSPost2010PropOp53
 70
     1
102
RTVSPost2010Prop54
  1
strokes_ogs.tif
102
RTVSPost2010PropOp54
 70
     1
102
RTVSPost2010Prop55
280
     0
102
RTVSPost2010PropOp55
 70
     1
102
RTVSPost2010Prop56
140
1.0
102
RTVSPost2010PropOp56
 70
     1
102
RTVSPost2010Prop57
140
1.0
102
RTVSPost2010PropOp57
 70
     1
102
RTVSPropertyOp0
 70
     1
102
RTVSPropertyOp1
 70
     1
102
RTVSPropertyOp2
 70
     1
102
RTVSPropertyOp3
 70
     1
102
RTVSPropertyOp4
 70
     1
102
RTVSPropertyOp5
 70
     1
102
RTVSPropertyOp6
 70
     1
102
RTVSPropertyOp7
 70
     1
102
RTVSPropertyOp8
 70
     1
102
RTVSPropertyOp9
 70
     1
102
RTVSPropertyOp10
 70
     1
102
RTVSPropertyOp11
 70
     1
102
RTVSPropertyOp12
 70
     1
102
RTVSPropertyOp13
 70
     1
102
RTVSPropertyOp14
 70
     1
102
RTVSPropertyOp15
 70
     1
102
RTVSPropertyOp16
 70
     1
102
RTVSPropertyOp17
 70
     1
102
RTVSPropertyOp18
 70
     1
102
RTVSPropertyOp19
 70
     1
102
RTVSPropertyOp20
 70
     1
102
RTVSPropertyOp21
 70
     1
102
RTVSPropertyOp22
 70
     1
102
RTVSPropertyOp23
 70
     1
102
RTVSPropertyOp24
 70
     1
102
RTVSPropertyOp25
 70
     1
102
RTVSPropertyOp26
 70
     1
102
RTVSPropertyOp27
 70
     1
102
RTVSPropertyOp28
 70
     1
102
RTVSPropertyOp29
 70
     1
102
RTVSPropertyOp30
 70
     1
102
RTVSPropertyOp31
 70
     1
102
RTVSPropertyOp32
 70
     1
102
RTVSPropertyOp33
 70
     1
102
RTVSPropertyOp34
 70
     1
102
RTVSPropertyOp35
 70
     1
102
RTVSPropertyOp36
 70
     1
102
RTVSPropertyOp37
 70
     1
102
RTVSPropertyOp38
 70
     1
102
RTVSPropertyOp39
 70
     1
102
RTVSPropertyOp40
 70
     1
102
RTVSPropertyOp41
 70
     1
102
RTVSPropertyOp42
 70
     1
102
RTVSPropertyOp43
 70
     1
102
RTVSPropertyOp44
 70
     1
102
RTVSPropertyOp45
 70
     1
102
RTVSPropertyOp46
 70
     1
102
RTVSPropertyOp47
 70
     1
102
RTVSPropertyOp48
 70
     1
102
RTVSPropertyOp49
 70
     1
102
RTVSPropertyOp50
 70
     1
102
RTVSPropertyOp51
 70
     0
102
RTVSPropertyOp52
 70
     0
102
RTVSPropertyOp53
 70
     1
102
RTVSPropertyOp54
 70
     1
102
RTVSPropertyOp55
 70
     1
102
RTVSPropertyOp56
 70
     1
102
RTVSPropertyOp57
 70
     1
102
RTVSPropertyOp58
 70
     1
102
RTVSPropertyOp59
 70
     1
102
RTVSPropertyOp60
 70
     1
102
RTVSPropertyOp61
 70
     1
102
RTVSPropertyOp62
 70
     1
  0
XRECORD
  5
87E6
102
{ACAD_REACTORS
330
87E5
102
}
330
87E5
100
AcDbXrecord
280
     1
102
RTVSPost2010Prop28
280
     0
102
RTVSPost2010PropOp28
 70
     1
102
RTVSPost2010Prop29
280
     1
102
RTVSPost2010PropOp29
 70
     1
102
RTVSPost2010Prop30
280
     1
102
RTVSPost2010PropOp30
 70
     1
102
RTVSPost2010Prop31
280
     0
102
RTVSPost2010PropOp31
 70
     1
102
RTVSPost2010Prop32
280
     0
102
RTVSPost2010PropOp32
 70
     1
102
RTVSPost2010Prop33
280
     0
102
RTVSPost2010PropOp33
 70
     1
102
RTVSPost2010Prop34
280
     0
102
RTVSPost2010PropOp34
 70
     1
102
RTVSPost2010Prop35
280
     0
102
RTVSPost2010PropOp35
 70
     1
102
RTVSPost2010Prop36
280
     0
102
RTVSPost2010PropOp36
 70
     1
102
RTVSPost2010Prop37
 90
       50
102
RTVSPost2010PropOp37
 70
     1
102
RTVSPost2010Prop38
140
0.0
102
RTVSPost2010PropOp38
 70
     1
102
RTVSPost2010Prop39
140
1.0
102
RTVSPost2010PropOp39
 70
     1
102
RTVSPost2010Prop40
 90
        0
102
RTVSPost2010PropOp40
 70
     1
102
RTVSPost2010Prop41ColorIndex
 90
       18
102
RTVSPost2010Prop41ColorRGB
 90
        0
102
RTVSPost2010PropOp41
 70
     1
102
RTVSPost2010Prop42
 90
       50
102
RTVSPost2010PropOp42
 70
     1
102
RTVSPost2010Prop43
 90
        3
102
RTVSPost2010PropOp43
 70
     1
102
RTVSPost2010Prop44ColorIndex
 90
        5
102
RTVSPost2010Prop44ColorRGB
 90
      255
102
RTVSPost2010PropOp44
 70
     1
102
RTVSPost2010Prop45
280
     0
102
RTVSPost2010PropOp45
 70
     1
102
RTVSPost2010Prop46
 90
       50
102
RTVSPost2010PropOp46
 70
     1
102
RTVSPost2010Prop47
 90
       50
102
RTVSPost2010PropOp47
 70
     1
102
RTVSPost2010Prop48
 90
       50
102
RTVSPost2010PropOp48
 70
     1
102
RTVSPost2010Prop49
280
     0
102
RTVSPost2010PropOp49
 70
     1
102
RTVSPost2010Prop50
 90
       50
102
RTVSPost2010PropOp50
 70
     1
102
RTVSPost2010Prop51ColorIndex
 90
      256
102
RTVSPost2010Prop51ColorRGB
 90
-16777216
102
RTVSPost2010PropOp51
 70
     0
102
RTVSPost2010Prop52
140
1.0
102
RTVSPost2010PropOp52
 70
     0
102
RTVSPost2010Prop53
 90
        2
102
RTVSPost2010PropOp53
 70
     1
102
RTVSPost2010Prop54
  1
strokes_ogs.tif
102
RTVSPost2010PropOp54
 70
     1
102
RTVSPost2010Prop55
280
     0
102
RTVSPost2010PropOp55
 70
     1
102
RTVSPost2010Prop56
140
1.0
102
RTVSPost2010PropOp56
 70
     1
102
RTVSPost2010Prop57
140
1.0
102
RTVSPost2010PropOp57
 70
     1
102
RTVSPropertyOp0
 70
     1
102
RTVSPropertyOp1
 70
     1
102
RTVSPropertyOp2
 70
     1
102
RTVSPropertyOp3
 70
     1
102
RTVSPropertyOp4
 70
     1
102
RTVSPropertyOp5
 70
     1
102
RTVSPropertyOp6
 70
     1
102
RTVSPropertyOp7
 70
     1
102
RTVSPropertyOp8
 70
     1
102
RTVSPropertyOp9
 70
     1
102
RTVSPropertyOp10
 70
     1
102
RTVSPropertyOp11
 70
     1
102
RTVSPropertyOp12
 70
     1
102
RTVSPropertyOp13
 70
     1
102
RTVSPropertyOp14
 70
     1
102
RTVSPropertyOp15
 70
     1
102
RTVSPropertyOp16
 70
     1
102
RTVSPropertyOp17
 70
     1
102
RTVSPropertyOp18
 70
     1
102
RTVSPropertyOp19
 70
     1
102
RTVSPropertyOp20
 70
     1
102
RTVSPropertyOp21
 70
     1
102
RTVSPropertyOp22
 70
     1
102
RTVSPropertyOp23
 70
     1
102
RTVSPropertyOp24
 70
     1
102
RTVSPropertyOp25
 70
     1
102
RTVSPropertyOp26
 70
     1
102
RTVSPropertyOp27
 70
     1
102
RTVSPropertyOp28
 70
     1
102
RTVSPropertyOp29
 70
     1
102
RTVSPropertyOp30
 70
     1
102
RTVSPropertyOp31
 70
     1
102
RTVSPropertyOp32
 70
     1
102
RTVSPropertyOp33
 70
     1
102
RTVSPropertyOp34
 70
     1
102
RTVSPropertyOp35
 70
     1
102
RTVSPropertyOp36
 70
     1
102
RTVSPropertyOp37
 70
     1
102
RTVSPropertyOp38
 70
     1
102
RTVSPropertyOp39
 70
     1
102
RTVSPropertyOp40
 70
     1
102
RTVSPropertyOp41
 70
     1
102
RTVSPropertyOp42
 70
     1
102
RTVSPropertyOp43
 70
     1
102
RTVSPropertyOp44
 70
     1
102
RTVSPropertyOp45
 70
     1
102
RTVSPropertyOp46
 70
     1
102
RTVSPropertyOp47
 70
     1
102
RTVSPropertyOp48
 70
     1
102
RTVSPropertyOp49
 70
     1
102
RTVSPropertyOp50
 70
     1
102
RTVSPropertyOp51
 70
     0
102
RTVSPropertyOp52
 70
     0
102
RTVSPropertyOp53
 70
     1
102
RTVSPropertyOp54
 70
     1
102
RTVSPropertyOp55
 70
     1
102
RTVSPropertyOp56
 70
     1
102
RTVSPropertyOp57
 70
     1
102
RTVSPropertyOp58
 70
     1
102
RTVSPropertyOp59
 70
     1
102
RTVSPropertyOp60
 70
     1
102
RTVSPropertyOp61
 70
     1
102
RTVSPropertyOp62
 70
     1
  0
XRECORD
  5
87EE
102
{ACAD_REACTORS
330
87ED
102
}
330
87ED
100
AcDbXrecord
280
     1
102
RTVSPost2010Prop28
280
     0
102
RTVSPost2010PropOp28
 70
     1
102
RTVSPost2010Prop29
280
     1
102
RTVSPost2010PropOp29
 70
     1
102
RTVSPost2010Prop30
280
     1
102
RTVSPost2010PropOp30
 70
     1
102
RTVSPost2010Prop31
280
     0
102
RTVSPost2010PropOp31
 70
     1
102
RTVSPost2010Prop32
280
     0
102
RTVSPost2010PropOp32
 70
     1
102
RTVSPost2010Prop33
280
     0
102
RTVSPost2010PropOp33
 70
     1
102
RTVSPost2010Prop34
280
     0
102
RTVSPost2010PropOp34
 70
     1
102
RTVSPost2010Prop35
280
     0
102
RTVSPost2010PropOp35
 70
     1
102
RTVSPost2010Prop36
280
     0
102
RTVSPost2010PropOp36
 70
     1
102
RTVSPost2010Prop37
 90
       50
102
RTVSPost2010PropOp37
 70
     1
102
RTVSPost2010Prop38
140
0.0
102
RTVSPost2010PropOp38
 70
     1
102
RTVSPost2010Prop39
140
1.0
102
RTVSPost2010PropOp39
 70
     1
102
RTVSPost2010Prop40
 90
        0
102
RTVSPost2010PropOp40
 70
     1
102
RTVSPost2010Prop41ColorIndex
 90
       18
102
RTVSPost2010Prop41ColorRGB
 90
        0
102
RTVSPost2010PropOp41
 70
     1
102
RTVSPost2010Prop42
 90
       50
102
RTVSPost2010PropOp42
 70
     1
102
RTVSPost2010Prop43
 90
        3
102
RTVSPost2010PropOp43
 70
     1
102
RTVSPost2010Prop44ColorIndex
 90
        5
102
RTVSPost2010Prop44ColorRGB
 90
      255
102
RTVSPost2010PropOp44
 70
     1
102
RTVSPost2010Prop45
280
     0
102
RTVSPost2010PropOp45
 70
     1
102
RTVSPost2010Prop46
 90
       50
102
RTVSPost2010PropOp46
 70
     1
102
RTVSPost2010Prop47
 90
       50
102
RTVSPost2010PropOp47
 70
     1
102
RTVSPost2010Prop48
 90
       50
102
RTVSPost2010PropOp48
 70
     1
102
RTVSPost2010Prop49
280
     0
102
RTVSPost2010PropOp49
 70
     1
102
RTVSPost2010Prop50
 90
       50
102
RTVSPost2010PropOp50
 70
     1
102
RTVSPost2010Prop51ColorIndex
 90
      256
102
RTVSPost2010Prop51ColorRGB
 90
-16777216
102
RTVSPost2010PropOp51
 70
     0
102
RTVSPost2010Prop52
140
1.0
102
RTVSPost2010PropOp52
 70
     0
102
RTVSPost2010Prop53
 90
        2
102
RTVSPost2010PropOp53
 70
     1
102
RTVSPost2010Prop54
  1
strokes_ogs.tif
102
RTVSPost2010PropOp54
 70
     1
102
RTVSPost2010Prop55
280
     0
102
RTVSPost2010PropOp55
 70
     1
102
RTVSPost2010Prop56
140
1.0
102
RTVSPost2010PropOp56
 70
     1
102
RTVSPost2010Prop57
140
1.0
102
RTVSPost2010PropOp57
 70
     1
102
RTVSPropertyOp0
 70
     1
102
RTVSPropertyOp1
 70
     1
102
RTVSPropertyOp2
 70
     1
102
RTVSPropertyOp3
 70
     1
102
RTVSPropertyOp4
 70
     1
102
RTVSPropertyOp5
 70
     1
102
RTVSPropertyOp6
 70
     1
102
RTVSPropertyOp7
 70
     1
102
RTVSPropertyOp8
 70
     1
102
RTVSPropertyOp9
 70
     1
102
RTVSPropertyOp10
 70
     1
102
RTVSPropertyOp11
 70
     1
102
RTVSPropertyOp12
 70
     1
102
RTVSPropertyOp13
 70
     1
102
RTVSPropertyOp14
 70
     1
102
RTVSPropertyOp15
 70
     1
102
RTVSPropertyOp16
 70
     1
102
RTVSPropertyOp17
 70
     1
102
RTVSPropertyOp18
 70
     1
102
RTVSPropertyOp19
 70
     1
102
RTVSPropertyOp20
 70
     1
102
RTVSPropertyOp21
 70
     1
102
RTVSPropertyOp22
 70
     1
102
RTVSPropertyOp23
 70
     1
102
RTVSPropertyOp24
 70
     1
102
RTVSPropertyOp25
 70
     1
102
RTVSPropertyOp26
 70
     1
102
RTVSPropertyOp27
 70
     1
102
RTVSPropertyOp28
 70
     1
102
RTVSPropertyOp29
 70
     1
102
RTVSPropertyOp30
 70
     1
102
RTVSPropertyOp31
 70
     1
102
RTVSPropertyOp32
 70
     1
102
RTVSPropertyOp33
 70
     1
102
RTVSPropertyOp34
 70
     1
102
RTVSPropertyOp35
 70
     1
102
RTVSPropertyOp36
 70
     1
102
RTVSPropertyOp37
 70
     1
102
RTVSPropertyOp38
 70
     1
102
RTVSPropertyOp39
 70
     1
102
RTVSPropertyOp40
 70
     1
102
RTVSPropertyOp41
 70
     1
102
RTVSPropertyOp42
 70
     1
102
RTVSPropertyOp43
 70
     1
102
RTVSPropertyOp44
 70
     1
102
RTVSPropertyOp45
 70
     1
102
RTVSPropertyOp46
 70
     1
102
RTVSPropertyOp47
 70
     1
102
RTVSPropertyOp48
 70
     1
102
RTVSPropertyOp49
 70
     1
102
RTVSPropertyOp50
 70
     1
102
RTVSPropertyOp51
 70
     0
102
RTVSPropertyOp52
 70
     0
102
RTVSPropertyOp53
 70
     1
102
RTVSPropertyOp54
 70
     1
102
RTVSPropertyOp55
 70
     1
102
RTVSPropertyOp56
 70
     1
102
RTVSPropertyOp57
 70
     1
102
RTVSPropertyOp58
 70
     1
102
RTVSPropertyOp59
 70
     1
102
RTVSPropertyOp60
 70
     1
102
RTVSPropertyOp61
 70
     1
102
RTVSPropertyOp62
 70
     1
  0
XRECORD
  5
87E0
102
{ACAD_REACTORS
330
87DF
102
}
330
87DF
100
AcDbXrecord
280
     1
102
RTVSPost2010Prop28
280
     0
102
RTVSPost2010PropOp28
 70
     1
102
RTVSPost2010Prop29
280
     1
102
RTVSPost2010PropOp29
 70
     1
102
RTVSPost2010Prop30
280
     1
102
RTVSPost2010PropOp30
 70
     1
102
RTVSPost2010Prop31
280
     0
102
RTVSPost2010PropOp31
 70
     1
102
RTVSPost2010Prop32
280
     0
102
RTVSPost2010PropOp32
 70
     1
102
RTVSPost2010Prop33
280
     0
102
RTVSPost2010PropOp33
 70
     1
102
RTVSPost2010Prop34
280
     0
102
RTVSPost2010PropOp34
 70
     1
102
RTVSPost2010Prop35
280
     0
102
RTVSPost2010PropOp35
 70
     1
102
RTVSPost2010Prop36
280
     0
102
RTVSPost2010PropOp36
 70
     1
102
RTVSPost2010Prop37
 90
       50
102
RTVSPost2010PropOp37
 70
     1
102
RTVSPost2010Prop38
140
0.0
102
RTVSPost2010PropOp38
 70
     1
102
RTVSPost2010Prop39
140
1.0
102
RTVSPost2010PropOp39
 70
     1
102
RTVSPost2010Prop40
 90
        0
102
RTVSPost2010PropOp40
 70
     1
102
RTVSPost2010Prop41ColorIndex
 90
       18
102
RTVSPost2010Prop41ColorRGB
 90
        0
102
RTVSPost2010PropOp41
 70
     1
102
RTVSPost2010Prop42
 90
       50
102
RTVSPost2010PropOp42
 70
     1
102
RTVSPost2010Prop43
 90
        3
102
RTVSPost2010PropOp43
 70
     1
102
RTVSPost2010Prop44ColorIndex
 90
        5
102
RTVSPost2010Prop44ColorRGB
 90
      255
102
RTVSPost2010PropOp44
 70
     1
102
RTVSPost2010Prop45
280
     0
102
RTVSPost2010PropOp45
 70
     1
102
RTVSPost2010Prop46
 90
       50
102
RTVSPost2010PropOp46
 70
     1
102
RTVSPost2010Prop47
 90
       50
102
RTVSPost2010PropOp47
 70
     1
102
RTVSPost2010Prop48
 90
       50
102
RTVSPost2010PropOp48
 70
     1
102
RTVSPost2010Prop49
280
     0
102
RTVSPost2010PropOp49
 70
     1
102
RTVSPost2010Prop50
 90
       50
102
RTVSPost2010PropOp50
 70
     1
102
RTVSPost2010Prop51ColorIndex
 90
      256
102
RTVSPost2010Prop51ColorRGB
 90
-16777216
102
RTVSPost2010PropOp51
 70
     0
102
RTVSPost2010Prop52
140
1.0
102
RTVSPost2010PropOp52
 70
     0
102
RTVSPost2010Prop53
 90
        2
102
RTVSPost2010PropOp53
 70
     1
102
RTVSPost2010Prop54
  1
strokes_ogs.tif
102
RTVSPost2010PropOp54
 70
     1
102
RTVSPost2010Prop55
280
     0
102
RTVSPost2010PropOp55
 70
     1
102
RTVSPost2010Prop56
140
1.0
102
RTVSPost2010PropOp56
 70
     1
102
RTVSPost2010Prop57
140
1.0
102
RTVSPost2010PropOp57
 70
     1
102
RTVSPropertyOp0
 70
     1
102
RTVSPropertyOp1
 70
     1
102
RTVSPropertyOp2
 70
     1
102
RTVSPropertyOp3
 70
     1
102
RTVSPropertyOp4
 70
     1
102
RTVSPropertyOp5
 70
     1
102
RTVSPropertyOp6
 70
     1
102
RTVSPropertyOp7
 70
     1
102
RTVSPropertyOp8
 70
     1
102
RTVSPropertyOp9
 70
     1
102
RTVSPropertyOp10
 70
     1
102
RTVSPropertyOp11
 70
     1
102
RTVSPropertyOp12
 70
     1
102
RTVSPropertyOp13
 70
     1
102
RTVSPropertyOp14
 70
     1
102
RTVSPropertyOp15
 70
     1
102
RTVSPropertyOp16
 70
     1
102
RTVSPropertyOp17
 70
     1
102
RTVSPropertyOp18
 70
     1
102
RTVSPropertyOp19
 70
     1
102
RTVSPropertyOp20
 70
     1
102
RTVSPropertyOp21
 70
     1
102
RTVSPropertyOp22
 70
     1
102
RTVSPropertyOp23
 70
     1
102
RTVSPropertyOp24
 70
     1
102
RTVSPropertyOp25
 70
     1
102
RTVSPropertyOp26
 70
     1
102
RTVSPropertyOp27
 70
     1
102
RTVSPropertyOp28
 70
     1
102
RTVSPropertyOp29
 70
     1
102
RTVSPropertyOp30
 70
     1
102
RTVSPropertyOp31
 70
     1
102
RTVSPropertyOp32
 70
     1
102
RTVSPropertyOp33
 70
     1
102
RTVSPropertyOp34
 70
     1
102
RTVSPropertyOp35
 70
     1
102
RTVSPropertyOp36
 70
     1
102
RTVSPropertyOp37
 70
     1
102
RTVSPropertyOp38
 70
     1
102
RTVSPropertyOp39
 70
     1
102
RTVSPropertyOp40
 70
     1
102
RTVSPropertyOp41
 70
     1
102
RTVSPropertyOp42
 70
     1
102
RTVSPropertyOp43
 70
     1
102
RTVSPropertyOp44
 70
     1
102
RTVSPropertyOp45
 70
     1
102
RTVSPropertyOp46
 70
     1
102
RTVSPropertyOp47
 70
     1
102
RTVSPropertyOp48
 70
     1
102
RTVSPropertyOp49
 70
     1
102
RTVSPropertyOp50
 70
     1
102
RTVSPropertyOp51
 70
     0
102
RTVSPropertyOp52
 70
     0
102
RTVSPropertyOp53
 70
     1
102
RTVSPropertyOp54
 70
     1
102
RTVSPropertyOp55
 70
     1
102
RTVSPropertyOp56
 70
     1
102
RTVSPropertyOp57
 70
     1
102
RTVSPropertyOp58
 70
     1
102
RTVSPropertyOp59
 70
     1
102
RTVSPropertyOp60
 70
     1
102
RTVSPropertyOp61
 70
     1
102
RTVSPropertyOp62
 70
     1
  0
XRECORD
  5
87E4
102
{ACAD_REACTORS
330
87E3
102
}
330
87E3
100
AcDbXrecord
280
     1
102
RTVSPost2010Prop28
280
     0
102
RTVSPost2010PropOp28
 70
     1
102
RTVSPost2010Prop29
280
     1
102
RTVSPost2010PropOp29
 70
     1
102
RTVSPost2010Prop30
280
     1
102
RTVSPost2010PropOp30
 70
     1
102
RTVSPost2010Prop31
280
     0
102
RTVSPost2010PropOp31
 70
     1
102
RTVSPost2010Prop32
280
     0
102
RTVSPost2010PropOp32
 70
     1
102
RTVSPost2010Prop33
280
     0
102
RTVSPost2010PropOp33
 70
     1
102
RTVSPost2010Prop34
280
     0
102
RTVSPost2010PropOp34
 70
     1
102
RTVSPost2010Prop35
280
     0
102
RTVSPost2010PropOp35
 70
     1
102
RTVSPost2010Prop36
280
     0
102
RTVSPost2010PropOp36
 70
     1
102
RTVSPost2010Prop37
 90
       50
102
RTVSPost2010PropOp37
 70
     1
102
RTVSPost2010Prop38
140
0.0
102
RTVSPost2010PropOp38
 70
     1
102
RTVSPost2010Prop39
140
1.0
102
RTVSPost2010PropOp39
 70
     1
102
RTVSPost2010Prop40
 90
        0
102
RTVSPost2010PropOp40
 70
     1
102
RTVSPost2010Prop41ColorIndex
 90
       18
102
RTVSPost2010Prop41ColorRGB
 90
        0
102
RTVSPost2010PropOp41
 70
     1
102
RTVSPost2010Prop42
 90
       50
102
RTVSPost2010PropOp42
 70
     1
102
RTVSPost2010Prop43
 90
        3
102
RTVSPost2010PropOp43
 70
     1
102
RTVSPost2010Prop44ColorIndex
 90
        5
102
RTVSPost2010Prop44ColorRGB
 90
      255
102
RTVSPost2010PropOp44
 70
     1
102
RTVSPost2010Prop45
280
     0
102
RTVSPost2010PropOp45
 70
     1
102
RTVSPost2010Prop46
 90
       50
102
RTVSPost2010PropOp46
 70
     1
102
RTVSPost2010Prop47
 90
       50
102
RTVSPost2010PropOp47
 70
     1
102
RTVSPost2010Prop48
 90
       50
102
RTVSPost2010PropOp48
 70
     1
102
RTVSPost2010Prop49
280
     0
102
RTVSPost2010PropOp49
 70
     1
102
RTVSPost2010Prop50
 90
       50
102
RTVSPost2010PropOp50
 70
     1
102
RTVSPost2010Prop51ColorIndex
 90
      256
102
RTVSPost2010Prop51ColorRGB
 90
-16777216
102
RTVSPost2010PropOp51
 70
     0
102
RTVSPost2010Prop52
140
1.0
102
RTVSPost2010PropOp52
 70
     0
102
RTVSPost2010Prop53
 90
        2
102
RTVSPost2010PropOp53
 70
     1
102
RTVSPost2010Prop54
  1
strokes_ogs.tif
102
RTVSPost2010PropOp54
 70
     1
102
RTVSPost2010Prop55
280
     0
102
RTVSPost2010PropOp55
 70
     1
102
RTVSPost2010Prop56
140
1.0
102
RTVSPost2010PropOp56
 70
     1
102
RTVSPost2010Prop57
140
1.0
102
RTVSPost2010PropOp57
 70
     1
102
RTVSPropertyOp0
 70
     1
102
RTVSPropertyOp1
 70
     1
102
RTVSPropertyOp2
 70
     1
102
RTVSPropertyOp3
 70
     1
102
RTVSPropertyOp4
 70
     1
102
RTVSPropertyOp5
 70
     1
102
RTVSPropertyOp6
 70
     1
102
RTVSPropertyOp7
 70
     1
102
RTVSPropertyOp8
 70
     1
102
RTVSPropertyOp9
 70
     1
102
RTVSPropertyOp10
 70
     1
102
RTVSPropertyOp11
 70
     1
102
RTVSPropertyOp12
 70
     1
102
RTVSPropertyOp13
 70
     1
102
RTVSPropertyOp14
 70
     1
102
RTVSPropertyOp15
 70
     1
102
RTVSPropertyOp16
 70
     1
102
RTVSPropertyOp17
 70
     1
102
RTVSPropertyOp18
 70
     1
102
RTVSPropertyOp19
 70
     1
102
RTVSPropertyOp20
 70
     1
102
RTVSPropertyOp21
 70
     1
102
RTVSPropertyOp22
 70
     1
102
RTVSPropertyOp23
 70
     1
102
RTVSPropertyOp24
 70
     1
102
RTVSPropertyOp25
 70
     1
102
RTVSPropertyOp26
 70
     1
102
RTVSPropertyOp27
 70
     1
102
RTVSPropertyOp28
 70
     1
102
RTVSPropertyOp29
 70
     1
102
RTVSPropertyOp30
 70
     1
102
RTVSPropertyOp31
 70
     1
102
RTVSPropertyOp32
 70
     1
102
RTVSPropertyOp33
 70
     1
102
RTVSPropertyOp34
 70
     1
102
RTVSPropertyOp35
 70
     1
102
RTVSPropertyOp36
 70
     1
102
RTVSPropertyOp37
 70
     1
102
RTVSPropertyOp38
 70
     1
102
RTVSPropertyOp39
 70
     1
102
RTVSPropertyOp40
 70
     1
102
RTVSPropertyOp41
 70
     1
102
RTVSPropertyOp42
 70
     1
102
RTVSPropertyOp43
 70
     1
102
RTVSPropertyOp44
 70
     1
102
RTVSPropertyOp45
 70
     1
102
RTVSPropertyOp46
 70
     1
102
RTVSPropertyOp47
 70
     1
102
RTVSPropertyOp48
 70
     1
102
RTVSPropertyOp49
 70
     1
102
RTVSPropertyOp50
 70
     1
102
RTVSPropertyOp51
 70
     0
102
RTVSPropertyOp52
 70
     0
102
RTVSPropertyOp53
 70
     1
102
RTVSPropertyOp54
 70
     1
102
RTVSPropertyOp55
 70
     1
102
RTVSPropertyOp56
 70
     1
102
RTVSPropertyOp57
 70
     1
102
RTVSPropertyOp58
 70
     1
102
RTVSPropertyOp59
 70
     1
102
RTVSPropertyOp60
 70
     1
102
RTVSPropertyOp61
 70
     1
102
RTVSPropertyOp62
 70
     1
  0
XRECORD
  5
87FE
102
{ACAD_REACTORS
330
87FD
102
}
330
87FD
100
AcDbXrecord
280
     1
102
RTVSPost2010Prop28
280
     0
102
RTVSPost2010PropOp28
 70
     1
102
RTVSPost2010Prop29
280
     1
102
RTVSPost2010PropOp29
 70
     1
102
RTVSPost2010Prop30
280
     1
102
RTVSPost2010PropOp30
 70
     1
102
RTVSPost2010Prop31
280
     0
102
RTVSPost2010PropOp31
 70
     1
102
RTVSPost2010Prop32
280
     0
102
RTVSPost2010PropOp32
 70
     1
102
RTVSPost2010Prop33
280
     0
102
RTVSPost2010PropOp33
 70
     1
102
RTVSPost2010Prop34
280
     0
102
RTVSPost2010PropOp34
 70
     1
102
RTVSPost2010Prop35
280
     0
102
RTVSPost2010PropOp35
 70
     1
102
RTVSPost2010Prop36
280
     0
102
RTVSPost2010PropOp36
 70
     1
102
RTVSPost2010Prop37
 90
       50
102
RTVSPost2010PropOp37
 70
     0
102
RTVSPost2010Prop38
140
0.0
102
RTVSPost2010PropOp38
 70
     0
102
RTVSPost2010Prop39
140
1.0
102
RTVSPost2010PropOp39
 70
     0
102
RTVSPost2010Prop40
 90
        0
102
RTVSPost2010PropOp40
 70
     0
102
RTVSPost2010Prop41ColorIndex
 90
       18
102
RTVSPost2010Prop41ColorRGB
 90
        0
102
RTVSPost2010PropOp41
 70
     0
102
RTVSPost2010Prop42
 90
       50
102
RTVSPost2010PropOp42
 70
     0
102
RTVSPost2010Prop43
 90
        3
102
RTVSPost2010PropOp43
 70
     0
102
RTVSPost2010Prop44ColorIndex
 90
        5
102
RTVSPost2010Prop44ColorRGB
 90
      255
102
RTVSPost2010PropOp44
 70
     0
102
RTVSPost2010Prop45
280
     0
102
RTVSPost2010PropOp45
 70
     1
102
RTVSPost2010Prop46
 90
       50
102
RTVSPost2010PropOp46
 70
     0
102
RTVSPost2010Prop47
 90
       50
102
RTVSPost2010PropOp47
 70
     0
102
RTVSPost2010Prop48
 90
       50
102
RTVSPost2010PropOp48
 70
     0
102
RTVSPost2010Prop49
280
     0
102
RTVSPost2010PropOp49
 70
     1
102
RTVSPost2010Prop50
 90
       50
102
RTVSPost2010PropOp50
 70
     0
102
RTVSPost2010Prop51ColorIndex
 90
      256
102
RTVSPost2010Prop51ColorRGB
 90
-16777216
102
RTVSPost2010PropOp51
 70
     0
102
RTVSPost2010Prop52
140
1.0
102
RTVSPost2010PropOp52
 70
     0
102
RTVSPost2010Prop53
 90
        2
102
RTVSPost2010PropOp53
 70
     0
102
RTVSPost2010Prop54
  1
strokes_ogs.tif
102
RTVSPost2010PropOp54
 70
     0
102
RTVSPost2010Prop55
280
     0
102
RTVSPost2010PropOp55
 70
     1
102
RTVSPost2010Prop56
140
1.0
102
RTVSPost2010PropOp56
 70
     0
102
RTVSPost2010Prop57
140
1.0
102
RTVSPost2010PropOp57
 70
     0
102
RTVSPropertyOp0
 70
     0
102
RTVSPropertyOp1
 70
     0
102
RTVSPropertyOp2
 70
     0
102
RTVSPropertyOp3
 70
     0
102
RTVSPropertyOp4
 70
     0
102
RTVSPropertyOp5
 70
     0
102
RTVSPropertyOp6
 70
     0
102
RTVSPropertyOp7
 70
     0
102
RTVSPropertyOp8
 70
     0
102
RTVSPropertyOp9
 70
     0
102
RTVSPropertyOp10
 70
     0
102
RTVSPropertyOp11
 70
     0
102
RTVSPropertyOp12
 70
     0
102
RTVSPropertyOp13
 70
     0
102
RTVSPropertyOp14
 70
     2
102
RTVSPropertyOp15
 70
     0
102
RTVSPropertyOp16
 70
     0
102
RTVSPropertyOp17
 70
     0
102
RTVSPropertyOp18
 70
     0
102
RTVSPropertyOp19
 70
     0
102
RTVSPropertyOp20
 70
     0
102
RTVSPropertyOp21
 70
     0
102
RTVSPropertyOp22
 70
     0
102
RTVSPropertyOp23
 70
     0
102
RTVSPropertyOp24
 70
     0
102
RTVSPropertyOp25
 70
     0
102
RTVSPropertyOp26
 70
     0
102
RTVSPropertyOp27
 70
     0
102
RTVSPropertyOp28
 70
     1
102
RTVSPropertyOp29
 70
     1
102
RTVSPropertyOp30
 70
     1
102
RTVSPropertyOp31
 70
     1
102
RTVSPropertyOp32
 70
     1
102
RTVSPropertyOp33
 70
     1
102
RTVSPropertyOp34
 70
     1
102
RTVSPropertyOp35
 70
     1
102
RTVSPropertyOp36
 70
     1
102
RTVSPropertyOp37
 70
     0
102
RTVSPropertyOp38
 70
     0
102
RTVSPropertyOp39
 70
     0
102
RTVSPropertyOp40
 70
     0
102
RTVSPropertyOp41
 70
     0
102
RTVSPropertyOp42
 70
     0
102
RTVSPropertyOp43
 70
     0
102
RTVSPropertyOp44
 70
     0
102
RTVSPropertyOp45
 70
     1
102
RTVSPropertyOp46
 70
     0
102
RTVSPropertyOp47
 70
     0
102
RTVSPropertyOp48
 70
     0
102
RTVSPropertyOp49
 70
     1
102
RTVSPropertyOp50
 70
     0
102
RTVSPropertyOp51
 70
     0
102
RTVSPropertyOp52
 70
     0
102
RTVSPropertyOp53
 70
     0
102
RTVSPropertyOp54
 70
     0
102
RTVSPropertyOp55
 70
     1
102
RTVSPropertyOp56
 70
     0
102
RTVSPropertyOp57
 70
     0
102
RTVSPropertyOp58
 70
     0
102
RTVSPropertyOp59
 70
     0
102
RTVSPropertyOp60
 70
     0
102
RTVSPropertyOp61
 70
     0
102
RTVSPropertyOp62
 70
     0
  0
XRECORD
  5
87EC
102
{ACAD_REACTORS
330
87EB
102
}
330
87EB
100
AcDbXrecord
280
     1
102
RTVSPost2010Prop28
280
     0
102
RTVSPost2010PropOp28
 70
     1
102
RTVSPost2010Prop29
280
     1
102
RTVSPost2010PropOp29
 70
     1
102
RTVSPost2010Prop30
280
     1
102
RTVSPost2010PropOp30
 70
     1
102
RTVSPost2010Prop31
280
     0
102
RTVSPost2010PropOp31
 70
     1
102
RTVSPost2010Prop32
280
     0
102
RTVSPost2010PropOp32
 70
     1
102
RTVSPost2010Prop33
280
     0
102
RTVSPost2010PropOp33
 70
     1
102
RTVSPost2010Prop34
280
     0
102
RTVSPost2010PropOp34
 70
     1
102
RTVSPost2010Prop35
280
     0
102
RTVSPost2010PropOp35
 70
     1
102
RTVSPost2010Prop36
280
     0
102
RTVSPost2010PropOp36
 70
     1
102
RTVSPost2010Prop37
 90
       50
102
RTVSPost2010PropOp37
 70
     1
102
RTVSPost2010Prop38
140
0.0
102
RTVSPost2010PropOp38
 70
     1
102
RTVSPost2010Prop39
140
1.0
102
RTVSPost2010PropOp39
 70
     1
102
RTVSPost2010Prop40
 90
        0
102
RTVSPost2010PropOp40
 70
     1
102
RTVSPost2010Prop41ColorIndex
 90
       18
102
RTVSPost2010Prop41ColorRGB
 90
        0
102
RTVSPost2010PropOp41
 70
     1
102
RTVSPost2010Prop42
 90
       50
102
RTVSPost2010PropOp42
 70
     1
102
RTVSPost2010Prop43
 90
        3
102
RTVSPost2010PropOp43
 70
     1
102
RTVSPost2010Prop44ColorIndex
 90
        5
102
RTVSPost2010Prop44ColorRGB
 90
      255
102
RTVSPost2010PropOp44
 70
     1
102
RTVSPost2010Prop45
280
     0
102
RTVSPost2010PropOp45
 70
     1
102
RTVSPost2010Prop46
 90
       50
102
RTVSPost2010PropOp46
 70
     1
102
RTVSPost2010Prop47
 90
       50
102
RTVSPost2010PropOp47
 70
     1
102
RTVSPost2010Prop48
 90
       50
102
RTVSPost2010PropOp48
 70
     1
102
RTVSPost2010Prop49
280
     0
102
RTVSPost2010PropOp49
 70
     1
102
RTVSPost2010Prop50
 90
       50
102
RTVSPost2010PropOp50
 70
     1
102
RTVSPost2010Prop51ColorIndex
 90
      256
102
RTVSPost2010Prop51ColorRGB
 90
-16777216
102
RTVSPost2010PropOp51
 70
     0
102
RTVSPost2010Prop52
140
1.0
102
RTVSPost2010PropOp52
 70
     0
102
RTVSPost2010Prop53
 90
        2
102
RTVSPost2010PropOp53
 70
     1
102
RTVSPost2010Prop54
  1
strokes_ogs.tif
102
RTVSPost2010PropOp54
 70
     1
102
RTVSPost2010Prop55
280
     0
102
RTVSPost2010PropOp55
 70
     1
102
RTVSPost2010Prop56
140
1.0
102
RTVSPost2010PropOp56
 70
     1
102
RTVSPost2010Prop57
140
1.0
102
RTVSPost2010PropOp57
 70
     1
102
RTVSPropertyOp0
 70
     1
102
RTVSPropertyOp1
 70
     1
102
RTVSPropertyOp2
 70
     1
102
RTVSPropertyOp3
 70
     1
102
RTVSPropertyOp4
 70
     1
102
RTVSPropertyOp5
 70
     1
102
RTVSPropertyOp6
 70
     1
102
RTVSPropertyOp7
 70
     1
102
RTVSPropertyOp8
 70
     1
102
RTVSPropertyOp9
 70
     1
102
RTVSPropertyOp10
 70
     1
102
RTVSPropertyOp11
 70
     1
102
RTVSPropertyOp12
 70
     1
102
RTVSPropertyOp13
 70
     1
102
RTVSPropertyOp14
 70
     1
102
RTVSPropertyOp15
 70
     1
102
RTVSPropertyOp16
 70
     1
102
RTVSPropertyOp17
 70
     1
102
RTVSPropertyOp18
 70
     1
102
RTVSPropertyOp19
 70
     1
102
RTVSPropertyOp20
 70
     1
102
RTVSPropertyOp21
 70
     1
102
RTVSPropertyOp22
 70
     1
102
RTVSPropertyOp23
 70
     1
102
RTVSPropertyOp24
 70
     1
102
RTVSPropertyOp25
 70
     1
102
RTVSPropertyOp26
 70
     1
102
RTVSPropertyOp27
 70
     1
102
RTVSPropertyOp28
 70
     1
102
RTVSPropertyOp29
 70
     1
102
RTVSPropertyOp30
 70
     1
102
RTVSPropertyOp31
 70
     1
102
RTVSPropertyOp32
 70
     1
102
RTVSPropertyOp33
 70
     1
102
RTVSPropertyOp34
 70
     1
102
RTVSPropertyOp35
 70
     1
102
RTVSPropertyOp36
 70
     1
102
RTVSPropertyOp37
 70
     1
102
RTVSPropertyOp38
 70
     1
102
RTVSPropertyOp39
 70
     1
102
RTVSPropertyOp40
 70
     1
102
RTVSPropertyOp41
 70
     1
102
RTVSPropertyOp42
 70
     1
102
RTVSPropertyOp43
 70
     1
102
RTVSPropertyOp44
 70
     1
102
RTVSPropertyOp45
 70
     1
102
RTVSPropertyOp46
 70
     1
102
RTVSPropertyOp47
 70
     1
102
RTVSPropertyOp48
 70
     1
102
RTVSPropertyOp49
 70
     1
102
RTVSPropertyOp50
 70
     1
102
RTVSPropertyOp51
 70
     0
102
RTVSPropertyOp52
 70
     0
102
RTVSPropertyOp53
 70
     1
102
RTVSPropertyOp54
 70
     1
102
RTVSPropertyOp55
 70
     1
102
RTVSPropertyOp56
 70
     1
102
RTVSPropertyOp57
 70
     1
102
RTVSPropertyOp58
 70
     1
102
RTVSPropertyOp59
 70
     1
102
RTVSPropertyOp60
 70
     1
102
RTVSPropertyOp61
 70
     1
102
RTVSPropertyOp62
 70
     1
  0
XRECORD
  5
87D0
102
{ACAD_REACTORS
330
87CF
102
}
330
87CF
100
AcDbXrecord
280
     1
102
RTVSPost2010Prop28
280
     0
102
RTVSPost2010PropOp28
 70
     1
102
RTVSPost2010Prop29
280
     1
102
RTVSPost2010PropOp29
 70
     1
102
RTVSPost2010Prop30
280
     1
102
RTVSPost2010PropOp30
 70
     1
102
RTVSPost2010Prop31
280
     0
102
RTVSPost2010PropOp31
 70
     1
102
RTVSPost2010Prop32
280
     0
102
RTVSPost2010PropOp32
 70
     1
102
RTVSPost2010Prop33
280
     0
102
RTVSPost2010PropOp33
 70
     1
102
RTVSPost2010Prop34
280
     0
102
RTVSPost2010PropOp34
 70
     1
102
RTVSPost2010Prop35
280
     0
102
RTVSPost2010PropOp35
 70
     1
102
RTVSPost2010Prop36
280
     0
102
RTVSPost2010PropOp36
 70
     1
102
RTVSPost2010Prop37
 90
       50
102
RTVSPost2010PropOp37
 70
     1
102
RTVSPost2010Prop38
140
0.0
102
RTVSPost2010PropOp38
 70
     1
102
RTVSPost2010Prop39
140
1.0
102
RTVSPost2010PropOp39
 70
     1
102
RTVSPost2010Prop40
 90
        0
102
RTVSPost2010PropOp40
 70
     1
102
RTVSPost2010Prop41ColorIndex
 90
       18
102
RTVSPost2010Prop41ColorRGB
 90
        0
102
RTVSPost2010PropOp41
 70
     1
102
RTVSPost2010Prop42
 90
       50
102
RTVSPost2010PropOp42
 70
     1
102
RTVSPost2010Prop43
 90
        3
102
RTVSPost2010PropOp43
 70
     1
102
RTVSPost2010Prop44ColorIndex
 90
        5
102
RTVSPost2010Prop44ColorRGB
 90
      255
102
RTVSPost2010PropOp44
 70
     1
102
RTVSPost2010Prop45
280
     0
102
RTVSPost2010PropOp45
 70
     1
102
RTVSPost2010Prop46
 90
       50
102
RTVSPost2010PropOp46
 70
     1
102
RTVSPost2010Prop47
 90
       50
102
RTVSPost2010PropOp47
 70
     1
102
RTVSPost2010Prop48
 90
       50
102
RTVSPost2010PropOp48
 70
     1
102
RTVSPost2010Prop49
280
     0
102
RTVSPost2010PropOp49
 70
     1
102
RTVSPost2010Prop50
 90
       50
102
RTVSPost2010PropOp50
 70
     1
102
RTVSPost2010Prop51ColorIndex
 90
      256
102
RTVSPost2010Prop51ColorRGB
 90
-16777216
102
RTVSPost2010PropOp51
 70
     0
102
RTVSPost2010Prop52
140
1.0
102
RTVSPost2010PropOp52
 70
     0
102
RTVSPost2010Prop53
 90
        2
102
RTVSPost2010PropOp53
 70
     1
102
RTVSPost2010Prop54
  1
strokes_ogs.tif
102
RTVSPost2010PropOp54
 70
     1
102
RTVSPost2010Prop55
280
     0
102
RTVSPost2010PropOp55
 70
     1
102
RTVSPost2010Prop56
140
1.0
102
RTVSPost2010PropOp56
 70
     1
102
RTVSPost2010Prop57
140
1.0
102
RTVSPost2010PropOp57
 70
     1
102
RTVSPropertyOp0
 70
     1
102
RTVSPropertyOp1
 70
     1
102
RTVSPropertyOp2
 70
     1
102
RTVSPropertyOp3
 70
     1
102
RTVSPropertyOp4
 70
     1
102
RTVSPropertyOp5
 70
     1
102
RTVSPropertyOp6
 70
     1
102
RTVSPropertyOp7
 70
     1
102
RTVSPropertyOp8
 70
     1
102
RTVSPropertyOp9
 70
     1
102
RTVSPropertyOp10
 70
     1
102
RTVSPropertyOp11
 70
     1
102
RTVSPropertyOp12
 70
     1
102
RTVSPropertyOp13
 70
     1
102
RTVSPropertyOp14
 70
     1
102
RTVSPropertyOp15
 70
     1
102
RTVSPropertyOp16
 70
     1
102
RTVSPropertyOp17
 70
     1
102
RTVSPropertyOp18
 70
     1
102
RTVSPropertyOp19
 70
     1
102
RTVSPropertyOp20
 70
     1
102
RTVSPropertyOp21
 70
     1
102
RTVSPropertyOp22
 70
     1
102
RTVSPropertyOp23
 70
     1
102
RTVSPropertyOp24
 70
     1
102
RTVSPropertyOp25
 70
     1
102
RTVSPropertyOp26
 70
     1
102
RTVSPropertyOp27
 70
     1
102
RTVSPropertyOp28
 70
     1
102
RTVSPropertyOp29
 70
     1
102
RTVSPropertyOp30
 70
     1
102
RTVSPropertyOp31
 70
     1
102
RTVSPropertyOp32
 70
     1
102
RTVSPropertyOp33
 70
     1
102
RTVSPropertyOp34
 70
     1
102
RTVSPropertyOp35
 70
     1
102
RTVSPropertyOp36
 70
     1
102
RTVSPropertyOp37
 70
     1
102
RTVSPropertyOp38
 70
     1
102
RTVSPropertyOp39
 70
     1
102
RTVSPropertyOp40
 70
     1
102
RTVSPropertyOp41
 70
     1
102
RTVSPropertyOp42
 70
     1
102
RTVSPropertyOp43
 70
     1
102
RTVSPropertyOp44
 70
     1
102
RTVSPropertyOp45
 70
     1
102
RTVSPropertyOp46
 70
     1
102
RTVSPropertyOp47
 70
     1
102
RTVSPropertyOp48
 70
     1
102
RTVSPropertyOp49
 70
     1
102
RTVSPropertyOp50
 70
     1
102
RTVSPropertyOp51
 70
     0
102
RTVSPropertyOp52
 70
     0
102
RTVSPropertyOp53
 70
     1
102
RTVSPropertyOp54
 70
     1
102
RTVSPropertyOp55
 70
     1
102
RTVSPropertyOp56
 70
     1
102
RTVSPropertyOp57
 70
     1
102
RTVSPropertyOp58
 70
     1
102
RTVSPropertyOp59
 70
     1
102
RTVSPropertyOp60
 70
     1
102
RTVSPropertyOp61
 70
     1
102
RTVSPropertyOp62
 70
     1
  0
XRECORD
  5
87D2
102
{ACAD_REACTORS
330
87D1
102
}
330
87D1
100
AcDbXrecord
280
     1
102
RTVSPost2010Prop28
280
     0
102
RTVSPost2010PropOp28
 70
     1
102
RTVSPost2010Prop29
280
     1
102
RTVSPost2010PropOp29
 70
     1
102
RTVSPost2010Prop30
280
     1
102
RTVSPost2010PropOp30
 70
     1
102
RTVSPost2010Prop31
280
     0
102
RTVSPost2010PropOp31
 70
     1
102
RTVSPost2010Prop32
280
     0
102
RTVSPost2010PropOp32
 70
     1
102
RTVSPost2010Prop33
280
     0
102
RTVSPost2010PropOp33
 70
     1
102
RTVSPost2010Prop34
280
     0
102
RTVSPost2010PropOp34
 70
     1
102
RTVSPost2010Prop35
280
     0
102
RTVSPost2010PropOp35
 70
     1
102
RTVSPost2010Prop36
280
     0
102
RTVSPost2010PropOp36
 70
     1
102
RTVSPost2010Prop37
 90
       50
102
RTVSPost2010PropOp37
 70
     1
102
RTVSPost2010Prop38
140
0.0
102
RTVSPost2010PropOp38
 70
     1
102
RTVSPost2010Prop39
140
1.0
102
RTVSPost2010PropOp39
 70
     1
102
RTVSPost2010Prop40
 90
        0
102
RTVSPost2010PropOp40
 70
     1
102
RTVSPost2010Prop41ColorIndex
 90
       18
102
RTVSPost2010Prop41ColorRGB
 90
        0
102
RTVSPost2010PropOp41
 70
     1
102
RTVSPost2010Prop42
 90
       50
102
RTVSPost2010PropOp42
 70
     1
102
RTVSPost2010Prop43
 90
        3
102
RTVSPost2010PropOp43
 70
     1
102
RTVSPost2010Prop44ColorIndex
 90
        5
102
RTVSPost2010Prop44ColorRGB
 90
      255
102
RTVSPost2010PropOp44
 70
     1
102
RTVSPost2010Prop45
280
     0
102
RTVSPost2010PropOp45
 70
     1
102
RTVSPost2010Prop46
 90
       50
102
RTVSPost2010PropOp46
 70
     1
102
RTVSPost2010Prop47
 90
       50
102
RTVSPost2010PropOp47
 70
     1
102
RTVSPost2010Prop48
 90
       50
102
RTVSPost2010PropOp48
 70
     1
102
RTVSPost2010Prop49
280
     0
102
RTVSPost2010PropOp49
 70
     1
102
RTVSPost2010Prop50
 90
       50
102
RTVSPost2010PropOp50
 70
     1
102
RTVSPost2010Prop51ColorIndex
 90
      256
102
RTVSPost2010Prop51ColorRGB
 90
-16777216
102
RTVSPost2010PropOp51
 70
     0
102
RTVSPost2010Prop52
140
1.0
102
RTVSPost2010PropOp52
 70
     0
102
RTVSPost2010Prop53
 90
        2
102
RTVSPost2010PropOp53
 70
     1
102
RTVSPost2010Prop54
  1
strokes_ogs.tif
102
RTVSPost2010PropOp54
 70
     1
102
RTVSPost2010Prop55
280
     0
102
RTVSPost2010PropOp55
 70
     1
102
RTVSPost2010Prop56
140
1.0
102
RTVSPost2010PropOp56
 70
     1
102
RTVSPost2010Prop57
140
1.0
102
RTVSPost2010PropOp57
 70
     1
102
RTVSPropertyOp0
 70
     1
102
RTVSPropertyOp1
 70
     1
102
RTVSPropertyOp2
 70
     1
102
RTVSPropertyOp3
 70
     1
102
RTVSPropertyOp4
 70
     1
102
RTVSPropertyOp5
 70
     1
102
RTVSPropertyOp6
 70
     1
102
RTVSPropertyOp7
 70
     1
102
RTVSPropertyOp8
 70
     1
102
RTVSPropertyOp9
 70
     1
102
RTVSPropertyOp10
 70
     1
102
RTVSPropertyOp11
 70
     1
102
RTVSPropertyOp12
 70
     1
102
RTVSPropertyOp13
 70
     1
102
RTVSPropertyOp14
 70
     1
102
RTVSPropertyOp15
 70
     1
102
RTVSPropertyOp16
 70
     1
102
RTVSPropertyOp17
 70
     1
102
RTVSPropertyOp18
 70
     1
102
RTVSPropertyOp19
 70
     1
102
RTVSPropertyOp20
 70
     1
102
RTVSPropertyOp21
 70
     1
102
RTVSPropertyOp22
 70
     1
102
RTVSPropertyOp23
 70
     1
102
RTVSPropertyOp24
 70
     1
102
RTVSPropertyOp25
 70
     1
102
RTVSPropertyOp26
 70
     1
102
RTVSPropertyOp27
 70
     1
102
RTVSPropertyOp28
 70
     1
102
RTVSPropertyOp29
 70
     1
102
RTVSPropertyOp30
 70
     1
102
RTVSPropertyOp31
 70
     1
102
RTVSPropertyOp32
 70
     1
102
RTVSPropertyOp33
 70
     1
102
RTVSPropertyOp34
 70
     1
102
RTVSPropertyOp35
 70
     1
102
RTVSPropertyOp36
 70
     1
102
RTVSPropertyOp37
 70
     1
102
RTVSPropertyOp38
 70
     1
102
RTVSPropertyOp39
 70
     1
102
RTVSPropertyOp40
 70
     1
102
RTVSPropertyOp41
 70
     1
102
RTVSPropertyOp42
 70
     1
102
RTVSPropertyOp43
 70
     1
102
RTVSPropertyOp44
 70
     1
102
RTVSPropertyOp45
 70
     1
102
RTVSPropertyOp46
 70
     1
102
RTVSPropertyOp47
 70
     1
102
RTVSPropertyOp48
 70
     1
102
RTVSPropertyOp49
 70
     1
102
RTVSPropertyOp50
 70
     1
102
RTVSPropertyOp51
 70
     0
102
RTVSPropertyOp52
 70
     0
102
RTVSPropertyOp53
 70
     1
102
RTVSPropertyOp54
 70
     1
102
RTVSPropertyOp55
 70
     1
102
RTVSPropertyOp56
 70
     1
102
RTVSPropertyOp57
 70
     1
102
RTVSPropertyOp58
 70
     1
102
RTVSPropertyOp59
 70
     1
102
RTVSPropertyOp60
 70
     1
102
RTVSPropertyOp61
 70
     1
102
RTVSPropertyOp62
 70
     1
  0
XRECORD
  5
87D4
102
{ACAD_REACTORS
330
87D3
102
}
330
87D3
100
AcDbXrecord
280
     1
102
RTVSPost2010Prop28
280
     0
102
RTVSPost2010PropOp28
 70
     1
102
RTVSPost2010Prop29
280
     1
102
RTVSPost2010PropOp29
 70
     1
102
RTVSPost2010Prop30
280
     1
102
RTVSPost2010PropOp30
 70
     1
102
RTVSPost2010Prop31
280
     0
102
RTVSPost2010PropOp31
 70
     1
102
RTVSPost2010Prop32
280
     0
102
RTVSPost2010PropOp32
 70
     1
102
RTVSPost2010Prop33
280
     0
102
RTVSPost2010PropOp33
 70
     1
102
RTVSPost2010Prop34
280
     0
102
RTVSPost2010PropOp34
 70
     1
102
RTVSPost2010Prop35
280
     0
102
RTVSPost2010PropOp35
 70
     1
102
RTVSPost2010Prop36
280
     0
102
RTVSPost2010PropOp36
 70
     1
102
RTVSPost2010Prop37
 90
       50
102
RTVSPost2010PropOp37
 70
     1
102
RTVSPost2010Prop38
140
0.0
102
RTVSPost2010PropOp38
 70
     1
102
RTVSPost2010Prop39
140
1.0
102
RTVSPost2010PropOp39
 70
     1
102
RTVSPost2010Prop40
 90
        0
102
RTVSPost2010PropOp40
 70
     1
102
RTVSPost2010Prop41ColorIndex
 90
       18
102
RTVSPost2010Prop41ColorRGB
 90
        0
102
RTVSPost2010PropOp41
 70
     1
102
RTVSPost2010Prop42
 90
       50
102
RTVSPost2010PropOp42
 70
     1
102
RTVSPost2010Prop43
 90
        3
102
RTVSPost2010PropOp43
 70
     1
102
RTVSPost2010Prop44ColorIndex
 90
        5
102
RTVSPost2010Prop44ColorRGB
 90
      255
102
RTVSPost2010PropOp44
 70
     1
102
RTVSPost2010Prop45
280
     0
102
RTVSPost2010PropOp45
 70
     1
102
RTVSPost2010Prop46
 90
       50
102
RTVSPost2010PropOp46
 70
     1
102
RTVSPost2010Prop47
 90
       50
102
RTVSPost2010PropOp47
 70
     1
102
RTVSPost2010Prop48
 90
       50
102
RTVSPost2010PropOp48
 70
     1
102
RTVSPost2010Prop49
280
     0
102
RTVSPost2010PropOp49
 70
     1
102
RTVSPost2010Prop50
 90
       50
102
RTVSPost2010PropOp50
 70
     1
102
RTVSPost2010Prop51ColorIndex
 90
      256
102
RTVSPost2010Prop51ColorRGB
 90
-16777216
102
RTVSPost2010PropOp51
 70
     0
102
RTVSPost2010Prop52
140
1.0
102
RTVSPost2010PropOp52
 70
     0
102
RTVSPost2010Prop53
 90
        2
102
RTVSPost2010PropOp53
 70
     1
102
RTVSPost2010Prop54
  1
strokes_ogs.tif
102
RTVSPost2010PropOp54
 70
     1
102
RTVSPost2010Prop55
280
     0
102
RTVSPost2010PropOp55
 70
     1
102
RTVSPost2010Prop56
140
1.0
102
RTVSPost2010PropOp56
 70
     1
102
RTVSPost2010Prop57
140
1.0
102
RTVSPost2010PropOp57
 70
     1
102
RTVSPropertyOp0
 70
     1
102
RTVSPropertyOp1
 70
     1
102
RTVSPropertyOp2
 70
     1
102
RTVSPropertyOp3
 70
     1
102
RTVSPropertyOp4
 70
     1
102
RTVSPropertyOp5
 70
     1
102
RTVSPropertyOp6
 70
     1
102
RTVSPropertyOp7
 70
     1
102
RTVSPropertyOp8
 70
     1
102
RTVSPropertyOp9
 70
     1
102
RTVSPropertyOp10
 70
     1
102
RTVSPropertyOp11
 70
     1
102
RTVSPropertyOp12
 70
     1
102
RTVSPropertyOp13
 70
     1
102
RTVSPropertyOp14
 70
     1
102
RTVSPropertyOp15
 70
     1
102
RTVSPropertyOp16
 70
     1
102
RTVSPropertyOp17
 70
     1
102
RTVSPropertyOp18
 70
     1
102
RTVSPropertyOp19
 70
     1
102
RTVSPropertyOp20
 70
     1
102
RTVSPropertyOp21
 70
     1
102
RTVSPropertyOp22
 70
     1
102
RTVSPropertyOp23
 70
     1
102
RTVSPropertyOp24
 70
     1
102
RTVSPropertyOp25
 70
     1
102
RTVSPropertyOp26
 70
     1
102
RTVSPropertyOp27
 70
     1
102
RTVSPropertyOp28
 70
     1
102
RTVSPropertyOp29
 70
     1
102
RTVSPropertyOp30
 70
     1
102
RTVSPropertyOp31
 70
     1
102
RTVSPropertyOp32
 70
     1
102
RTVSPropertyOp33
 70
     1
102
RTVSPropertyOp34
 70
     1
102
RTVSPropertyOp35
 70
     1
102
RTVSPropertyOp36
 70
     1
102
RTVSPropertyOp37
 70
     1
102
RTVSPropertyOp38
 70
     1
102
RTVSPropertyOp39
 70
     1
102
RTVSPropertyOp40
 70
     1
102
RTVSPropertyOp41
 70
     1
102
RTVSPropertyOp42
 70
     1
102
RTVSPropertyOp43
 70
     1
102
RTVSPropertyOp44
 70
     1
102
RTVSPropertyOp45
 70
     1
102
RTVSPropertyOp46
 70
     1
102
RTVSPropertyOp47
 70
     1
102
RTVSPropertyOp48
 70
     1
102
RTVSPropertyOp49
 70
     1
102
RTVSPropertyOp50
 70
     1
102
RTVSPropertyOp51
 70
     0
102
RTVSPropertyOp52
 70
     0
102
RTVSPropertyOp53
 70
     1
102
RTVSPropertyOp54
 70
     1
102
RTVSPropertyOp55
 70
     1
102
RTVSPropertyOp56
 70
     1
102
RTVSPropertyOp57
 70
     1
102
RTVSPropertyOp58
 70
     1
102
RTVSPropertyOp59
 70
     1
102
RTVSPropertyOp60
 70
     1
102
RTVSPropertyOp61
 70
     1
102
RTVSPropertyOp62
 70
     1
  0
XRECORD
  5
87D6
102
{ACAD_REACTORS
330
87D5
102
}
330
87D5
100
AcDbXrecord
280
     1
102
RTVSPost2010Prop28
280
     0
102
RTVSPost2010PropOp28
 70
     1
102
RTVSPost2010Prop29
280
     1
102
RTVSPost2010PropOp29
 70
     1
102
RTVSPost2010Prop30
280
     1
102
RTVSPost2010PropOp30
 70
     1
102
RTVSPost2010Prop31
280
     0
102
RTVSPost2010PropOp31
 70
     1
102
RTVSPost2010Prop32
280
     0
102
RTVSPost2010PropOp32
 70
     1
102
RTVSPost2010Prop33
280
     0
102
RTVSPost2010PropOp33
 70
     1
102
RTVSPost2010Prop34
280
     0
102
RTVSPost2010PropOp34
 70
     1
102
RTVSPost2010Prop35
280
     0
102
RTVSPost2010PropOp35
 70
     1
102
RTVSPost2010Prop36
280
     0
102
RTVSPost2010PropOp36
 70
     1
102
RTVSPost2010Prop37
 90
       50
102
RTVSPost2010PropOp37
 70
     1
102
RTVSPost2010Prop38
140
0.0
102
RTVSPost2010PropOp38
 70
     1
102
RTVSPost2010Prop39
140
1.0
102
RTVSPost2010PropOp39
 70
     1
102
RTVSPost2010Prop40
 90
        0
102
RTVSPost2010PropOp40
 70
     1
102
RTVSPost2010Prop41ColorIndex
 90
       18
102
RTVSPost2010Prop41ColorRGB
 90
        0
102
RTVSPost2010PropOp41
 70
     1
102
RTVSPost2010Prop42
 90
       50
102
RTVSPost2010PropOp42
 70
     1
102
RTVSPost2010Prop43
 90
        3
102
RTVSPost2010PropOp43
 70
     1
102
RTVSPost2010Prop44ColorIndex
 90
        5
102
RTVSPost2010Prop44ColorRGB
 90
      255
102
RTVSPost2010PropOp44
 70
     1
102
RTVSPost2010Prop45
280
     0
102
RTVSPost2010PropOp45
 70
     1
102
RTVSPost2010Prop46
 90
       50
102
RTVSPost2010PropOp46
 70
     1
102
RTVSPost2010Prop47
 90
       50
102
RTVSPost2010PropOp47
 70
     1
102
RTVSPost2010Prop48
 90
       50
102
RTVSPost2010PropOp48
 70
     1
102
RTVSPost2010Prop49
280
     0
102
RTVSPost2010PropOp49
 70
     1
102
RTVSPost2010Prop50
 90
       50
102
RTVSPost2010PropOp50
 70
     1
102
RTVSPost2010Prop51ColorIndex
 90
      256
102
RTVSPost2010Prop51ColorRGB
 90
-16777216
102
RTVSPost2010PropOp51
 70
     0
102
RTVSPost2010Prop52
140
1.0
102
RTVSPost2010PropOp52
 70
     0
102
RTVSPost2010Prop53
 90
        2
102
RTVSPost2010PropOp53
 70
     1
102
RTVSPost2010Prop54
  1
strokes_ogs.tif
102
RTVSPost2010PropOp54
 70
     1
102
RTVSPost2010Prop55
280
     0
102
RTVSPost2010PropOp55
 70
     1
102
RTVSPost2010Prop56
140
1.0
102
RTVSPost2010PropOp56
 70
     1
102
RTVSPost2010Prop57
140
1.0
102
RTVSPost2010PropOp57
 70
     1
102
RTVSPropertyOp0
 70
     1
102
RTVSPropertyOp1
 70
     1
102
RTVSPropertyOp2
 70
     1
102
RTVSPropertyOp3
 70
     1
102
RTVSPropertyOp4
 70
     1
102
RTVSPropertyOp5
 70
     1
102
RTVSPropertyOp6
 70
     1
102
RTVSPropertyOp7
 70
     1
102
RTVSPropertyOp8
 70
     1
102
RTVSPropertyOp9
 70
     1
102
RTVSPropertyOp10
 70
     1
102
RTVSPropertyOp11
 70
     1
102
RTVSPropertyOp12
 70
     1
102
RTVSPropertyOp13
 70
     1
102
RTVSPropertyOp14
 70
     1
102
RTVSPropertyOp15
 70
     1
102
RTVSPropertyOp16
 70
     1
102
RTVSPropertyOp17
 70
     1
102
RTVSPropertyOp18
 70
     1
102
RTVSPropertyOp19
 70
     1
102
RTVSPropertyOp20
 70
     1
102
RTVSPropertyOp21
 70
     1
102
RTVSPropertyOp22
 70
     1
102
RTVSPropertyOp23
 70
     1
102
RTVSPropertyOp24
 70
     1
102
RTVSPropertyOp25
 70
     1
102
RTVSPropertyOp26
 70
     1
102
RTVSPropertyOp27
 70
     1
102
RTVSPropertyOp28
 70
     1
102
RTVSPropertyOp29
 70
     1
102
RTVSPropertyOp30
 70
     1
102
RTVSPropertyOp31
 70
     1
102
RTVSPropertyOp32
 70
     1
102
RTVSPropertyOp33
 70
     1
102
RTVSPropertyOp34
 70
     1
102
RTVSPropertyOp35
 70
     1
102
RTVSPropertyOp36
 70
     1
102
RTVSPropertyOp37
 70
     1
102
RTVSPropertyOp38
 70
     1
102
RTVSPropertyOp39
 70
     1
102
RTVSPropertyOp40
 70
     1
102
RTVSPropertyOp41
 70
     1
102
RTVSPropertyOp42
 70
     1
102
RTVSPropertyOp43
 70
     1
102
RTVSPropertyOp44
 70
     1
102
RTVSPropertyOp45
 70
     1
102
RTVSPropertyOp46
 70
     1
102
RTVSPropertyOp47
 70
     1
102
RTVSPropertyOp48
 70
     1
102
RTVSPropertyOp49
 70
     1
102
RTVSPropertyOp50
 70
     1
102
RTVSPropertyOp51
 70
     0
102
RTVSPropertyOp52
 70
     0
102
RTVSPropertyOp53
 70
     1
102
RTVSPropertyOp54
 70
     1
102
RTVSPropertyOp55
 70
     1
102
RTVSPropertyOp56
 70
     1
102
RTVSPropertyOp57
 70
     1
102
RTVSPropertyOp58
 70
     1
102
RTVSPropertyOp59
 70
     1
102
RTVSPropertyOp60
 70
     1
102
RTVSPropertyOp61
 70
     1
102
RTVSPropertyOp62
 70
     1
  0
XRECORD
  5
87DE
102
{ACAD_REACTORS
330
87DD
102
}
330
87DD
100
AcDbXrecord
280
     1
102
RTVSPost2010Prop28
280
     0
102
RTVSPost2010PropOp28
 70
     1
102
RTVSPost2010Prop29
280
     1
102
RTVSPost2010PropOp29
 70
     1
102
RTVSPost2010Prop30
280
     1
102
RTVSPost2010PropOp30
 70
     1
102
RTVSPost2010Prop31
280
     0
102
RTVSPost2010PropOp31
 70
     1
102
RTVSPost2010Prop32
280
     0
102
RTVSPost2010PropOp32
 70
     1
102
RTVSPost2010Prop33
280
     0
102
RTVSPost2010PropOp33
 70
     1
102
RTVSPost2010Prop34
280
     0
102
RTVSPost2010PropOp34
 70
     1
102
RTVSPost2010Prop35
280
     0
102
RTVSPost2010PropOp35
 70
     1
102
RTVSPost2010Prop36
280
     0
102
RTVSPost2010PropOp36
 70
     1
102
RTVSPost2010Prop37
 90
       50
102
RTVSPost2010PropOp37
 70
     1
102
RTVSPost2010Prop38
140
0.0
102
RTVSPost2010PropOp38
 70
     1
102
RTVSPost2010Prop39
140
1.0
102
RTVSPost2010PropOp39
 70
     1
102
RTVSPost2010Prop40
 90
        0
102
RTVSPost2010PropOp40
 70
     1
102
RTVSPost2010Prop41ColorIndex
 90
       18
102
RTVSPost2010Prop41ColorRGB
 90
        0
102
RTVSPost2010PropOp41
 70
     1
102
RTVSPost2010Prop42
 90
       50
102
RTVSPost2010PropOp42
 70
     1
102
RTVSPost2010Prop43
 90
        3
102
RTVSPost2010PropOp43
 70
     1
102
RTVSPost2010Prop44ColorIndex
 90
        5
102
RTVSPost2010Prop44ColorRGB
 90
      255
102
RTVSPost2010PropOp44
 70
     1
102
RTVSPost2010Prop45
280
     0
102
RTVSPost2010PropOp45
 70
     1
102
RTVSPost2010Prop46
 90
       50
102
RTVSPost2010PropOp46
 70
     1
102
RTVSPost2010Prop47
 90
       50
102
RTVSPost2010PropOp47
 70
     1
102
RTVSPost2010Prop48
 90
       50
102
RTVSPost2010PropOp48
 70
     1
102
RTVSPost2010Prop49
280
     0
102
RTVSPost2010PropOp49
 70
     1
102
RTVSPost2010Prop50
 90
       50
102
RTVSPost2010PropOp50
 70
     1
102
RTVSPost2010Prop51ColorIndex
 90
      256
102
RTVSPost2010Prop51ColorRGB
 90
-16777216
102
RTVSPost2010PropOp51
 70
     0
102
RTVSPost2010Prop52
140
1.0
102
RTVSPost2010PropOp52
 70
     0
102
RTVSPost2010Prop53
 90
        2
102
RTVSPost2010PropOp53
 70
     1
102
RTVSPost2010Prop54
  1
strokes_ogs.tif
102
RTVSPost2010PropOp54
 70
     1
102
RTVSPost2010Prop55
280
     0
102
RTVSPost2010PropOp55
 70
     1
102
RTVSPost2010Prop56
140
1.0
102
RTVSPost2010PropOp56
 70
     1
102
RTVSPost2010Prop57
140
1.0
102
RTVSPost2010PropOp57
 70
     1
102
RTVSPropertyOp0
 70
     1
102
RTVSPropertyOp1
 70
     1
102
RTVSPropertyOp2
 70
     1
102
RTVSPropertyOp3
 70
     1
102
RTVSPropertyOp4
 70
     1
102
RTVSPropertyOp5
 70
     1
102
RTVSPropertyOp6
 70
     1
102
RTVSPropertyOp7
 70
     1
102
RTVSPropertyOp8
 70
     1
102
RTVSPropertyOp9
 70
     1
102
RTVSPropertyOp10
 70
     1
102
RTVSPropertyOp11
 70
     1
102
RTVSPropertyOp12
 70
     1
102
RTVSPropertyOp13
 70
     1
102
RTVSPropertyOp14
 70
     1
102
RTVSPropertyOp15
 70
     1
102
RTVSPropertyOp16
 70
     1
102
RTVSPropertyOp17
 70
     1
102
RTVSPropertyOp18
 70
     1
102
RTVSPropertyOp19
 70
     1
102
RTVSPropertyOp20
 70
     1
102
RTVSPropertyOp21
 70
     1
102
RTVSPropertyOp22
 70
     1
102
RTVSPropertyOp23
 70
     1
102
RTVSPropertyOp24
 70
     1
102
RTVSPropertyOp25
 70
     1
102
RTVSPropertyOp26
 70
     1
102
RTVSPropertyOp27
 70
     1
102
RTVSPropertyOp28
 70
     1
102
RTVSPropertyOp29
 70
     1
102
RTVSPropertyOp30
 70
     1
102
RTVSPropertyOp31
 70
     1
102
RTVSPropertyOp32
 70
     1
102
RTVSPropertyOp33
 70
     1
102
RTVSPropertyOp34
 70
     1
102
RTVSPropertyOp35
 70
     1
102
RTVSPropertyOp36
 70
     1
102
RTVSPropertyOp37
 70
     1
102
RTVSPropertyOp38
 70
     1
102
RTVSPropertyOp39
 70
     1
102
RTVSPropertyOp40
 70
     1
102
RTVSPropertyOp41
 70
     1
102
RTVSPropertyOp42
 70
     1
102
RTVSPropertyOp43
 70
     1
102
RTVSPropertyOp44
 70
     1
102
RTVSPropertyOp45
 70
     1
102
RTVSPropertyOp46
 70
     1
102
RTVSPropertyOp47
 70
     1
102
RTVSPropertyOp48
 70
     1
102
RTVSPropertyOp49
 70
     1
102
RTVSPropertyOp50
 70
     1
102
RTVSPropertyOp51
 70
     0
102
RTVSPropertyOp52
 70
     0
102
RTVSPropertyOp53
 70
     1
102
RTVSPropertyOp54
 70
     1
102
RTVSPropertyOp55
 70
     1
102
RTVSPropertyOp56
 70
     1
102
RTVSPropertyOp57
 70
     1
102
RTVSPropertyOp58
 70
     1
102
RTVSPropertyOp59
 70
     1
102
RTVSPropertyOp60
 70
     1
102
RTVSPropertyOp61
 70
     1
102
RTVSPropertyOp62
 70
     1
  0
XRECORD
  5
87FA
102
{ACAD_REACTORS
330
87F9
102
}
330
87F9
100
AcDbXrecord
280
     1
102
RTVSPost2010Prop28
280
     0
102
RTVSPost2010PropOp28
 70
     1
102
RTVSPost2010Prop29
280
     1
102
RTVSPost2010PropOp29
 70
     1
102
RTVSPost2010Prop30
280
     1
102
RTVSPost2010PropOp30
 70
     1
102
RTVSPost2010Prop31
280
     0
102
RTVSPost2010PropOp31
 70
     1
102
RTVSPost2010Prop32
280
     0
102
RTVSPost2010PropOp32
 70
     1
102
RTVSPost2010Prop33
280
     0
102
RTVSPost2010PropOp33
 70
     1
102
RTVSPost2010Prop34
280
     0
102
RTVSPost2010PropOp34
 70
     1
102
RTVSPost2010Prop35
280
     0
102
RTVSPost2010PropOp35
 70
     1
102
RTVSPost2010Prop36
280
     0
102
RTVSPost2010PropOp36
 70
     1
102
RTVSPost2010Prop37
 90
       50
102
RTVSPost2010PropOp37
 70
     0
102
RTVSPost2010Prop38
140
0.0
102
RTVSPost2010PropOp38
 70
     0
102
RTVSPost2010Prop39
140
1.0
102
RTVSPost2010PropOp39
 70
     0
102
RTVSPost2010Prop40
 90
        0
102
RTVSPost2010PropOp40
 70
     0
102
RTVSPost2010Prop41ColorIndex
 90
       18
102
RTVSPost2010Prop41ColorRGB
 90
        0
102
RTVSPost2010PropOp41
 70
     0
102
RTVSPost2010Prop42
 90
       50
102
RTVSPost2010PropOp42
 70
     0
102
RTVSPost2010Prop43
 90
        3
102
RTVSPost2010PropOp43
 70
     0
102
RTVSPost2010Prop44ColorIndex
 90
        5
102
RTVSPost2010Prop44ColorRGB
 90
      255
102
RTVSPost2010PropOp44
 70
     0
102
RTVSPost2010Prop45
280
     0
102
RTVSPost2010PropOp45
 70
     1
102
RTVSPost2010Prop46
 90
       50
102
RTVSPost2010PropOp46
 70
     0
102
RTVSPost2010Prop47
 90
       50
102
RTVSPost2010PropOp47
 70
     0
102
RTVSPost2010Prop48
 90
       50
102
RTVSPost2010PropOp48
 70
     0
102
RTVSPost2010Prop49
280
     0
102
RTVSPost2010PropOp49
 70
     1
102
RTVSPost2010Prop50
 90
       50
102
RTVSPost2010PropOp50
 70
     0
102
RTVSPost2010Prop51ColorIndex
 90
      256
102
RTVSPost2010Prop51ColorRGB
 90
-16777216
102
RTVSPost2010PropOp51
 70
     0
102
RTVSPost2010Prop52
140
1.0
102
RTVSPost2010PropOp52
 70
     0
102
RTVSPost2010Prop53
 90
        2
102
RTVSPost2010PropOp53
 70
     0
102
RTVSPost2010Prop54
  1
strokes_ogs.tif
102
RTVSPost2010PropOp54
 70
     0
102
RTVSPost2010Prop55
280
     0
102
RTVSPost2010PropOp55
 70
     1
102
RTVSPost2010Prop56
140
1.0
102
RTVSPost2010PropOp56
 70
     0
102
RTVSPost2010Prop57
140
1.0
102
RTVSPost2010PropOp57
 70
     0
102
RTVSPropertyOp0
 70
     0
102
RTVSPropertyOp1
 70
     0
102
RTVSPropertyOp2
 70
     0
102
RTVSPropertyOp3
 70
     0
102
RTVSPropertyOp4
 70
     0
102
RTVSPropertyOp5
 70
     0
102
RTVSPropertyOp6
 70
     0
102
RTVSPropertyOp7
 70
     0
102
RTVSPropertyOp8
 70
     0
102
RTVSPropertyOp9
 70
     0
102
RTVSPropertyOp10
 70
     0
102
RTVSPropertyOp11
 70
     0
102
RTVSPropertyOp12
 70
     0
102
RTVSPropertyOp13
 70
     0
102
RTVSPropertyOp14
 70
     2
102
RTVSPropertyOp15
 70
     0
102
RTVSPropertyOp16
 70
     0
102
RTVSPropertyOp17
 70
     0
102
RTVSPropertyOp18
 70
     0
102
RTVSPropertyOp19
 70
     0
102
RTVSPropertyOp20
 70
     0
102
RTVSPropertyOp21
 70
     0
102
RTVSPropertyOp22
 70
     0
102
RTVSPropertyOp23
 70
     0
102
RTVSPropertyOp24
 70
     0
102
RTVSPropertyOp25
 70
     0
102
RTVSPropertyOp26
 70
     0
102
RTVSPropertyOp27
 70
     0
102
RTVSPropertyOp28
 70
     1
102
RTVSPropertyOp29
 70
     1
102
RTVSPropertyOp30
 70
     1
102
RTVSPropertyOp31
 70
     1
102
RTVSPropertyOp32
 70
     1
102
RTVSPropertyOp33
 70
     1
102
RTVSPropertyOp34
 70
     1
102
RTVSPropertyOp35
 70
     1
102
RTVSPropertyOp36
 70
     1
102
RTVSPropertyOp37
 70
     0
102
RTVSPropertyOp38
 70
     0
102
RTVSPropertyOp39
 70
     0
102
RTVSPropertyOp40
 70
     0
102
RTVSPropertyOp41
 70
     0
102
RTVSPropertyOp42
 70
     0
102
RTVSPropertyOp43
 70
     0
102
RTVSPropertyOp44
 70
     0
102
RTVSPropertyOp45
 70
     1
102
RTVSPropertyOp46
 70
     0
102
RTVSPropertyOp47
 70
     0
102
RTVSPropertyOp48
 70
     0
102
RTVSPropertyOp49
 70
     1
102
RTVSPropertyOp50
 70
     0
102
RTVSPropertyOp51
 70
     0
102
RTVSPropertyOp52
 70
     0
102
RTVSPropertyOp53
 70
     0
102
RTVSPropertyOp54
 70
     0
102
RTVSPropertyOp55
 70
     1
102
RTVSPropertyOp56
 70
     0
102
RTVSPropertyOp57
 70
     0
102
RTVSPropertyOp58
 70
     0
102
RTVSPropertyOp59
 70
     0
102
RTVSPropertyOp60
 70
     0
102
RTVSPropertyOp61
 70
     0
102
RTVSPropertyOp62
 70
     0
  0
XRECORD
  5
87EA
102
{ACAD_REACTORS
330
87E9
102
}
330
87E9
100
AcDbXrecord
280
     1
102
RTVSPost2010Prop28
280
     0
102
RTVSPost2010PropOp28
 70
     1
102
RTVSPost2010Prop29
280
     1
102
RTVSPost2010PropOp29
 70
     1
102
RTVSPost2010Prop30
280
     1
102
RTVSPost2010PropOp30
 70
     1
102
RTVSPost2010Prop31
280
     0
102
RTVSPost2010PropOp31
 70
     1
102
RTVSPost2010Prop32
280
     0
102
RTVSPost2010PropOp32
 70
     1
102
RTVSPost2010Prop33
280
     0
102
RTVSPost2010PropOp33
 70
     1
102
RTVSPost2010Prop34
280
     0
102
RTVSPost2010PropOp34
 70
     1
102
RTVSPost2010Prop35
280
     0
102
RTVSPost2010PropOp35
 70
     1
102
RTVSPost2010Prop36
280
     0
102
RTVSPost2010PropOp36
 70
     1
102
RTVSPost2010Prop37
 90
       50
102
RTVSPost2010PropOp37
 70
     1
102
RTVSPost2010Prop38
140
0.0
102
RTVSPost2010PropOp38
 70
     1
102
RTVSPost2010Prop39
140
1.0
102
RTVSPost2010PropOp39
 70
     1
102
RTVSPost2010Prop40
 90
        0
102
RTVSPost2010PropOp40
 70
     1
102
RTVSPost2010Prop41ColorIndex
 90
       18
102
RTVSPost2010Prop41ColorRGB
 90
        0
102
RTVSPost2010PropOp41
 70
     1
102
RTVSPost2010Prop42
 90
       50
102
RTVSPost2010PropOp42
 70
     1
102
RTVSPost2010Prop43
 90
        3
102
RTVSPost2010PropOp43
 70
     1
102
RTVSPost2010Prop44ColorIndex
 90
        5
102
RTVSPost2010Prop44ColorRGB
 90
      255
102
RTVSPost2010PropOp44
 70
     1
102
RTVSPost2010Prop45
280
     0
102
RTVSPost2010PropOp45
 70
     1
102
RTVSPost2010Prop46
 90
       50
102
RTVSPost2010PropOp46
 70
     1
102
RTVSPost2010Prop47
 90
       50
102
RTVSPost2010PropOp47
 70
     1
102
RTVSPost2010Prop48
 90
       50
102
RTVSPost2010PropOp48
 70
     1
102
RTVSPost2010Prop49
280
     0
102
RTVSPost2010PropOp49
 70
     1
102
RTVSPost2010Prop50
 90
       50
102
RTVSPost2010PropOp50
 70
     1
102
RTVSPost2010Prop51ColorIndex
 90
      256
102
RTVSPost2010Prop51ColorRGB
 90
-16777216
102
RTVSPost2010PropOp51
 70
     0
102
RTVSPost2010Prop52
140
1.0
102
RTVSPost2010PropOp52
 70
     0
102
RTVSPost2010Prop53
 90
        2
102
RTVSPost2010PropOp53
 70
     1
102
RTVSPost2010Prop54
  1
strokes_ogs.tif
102
RTVSPost2010PropOp54
 70
     1
102
RTVSPost2010Prop55
280
     0
102
RTVSPost2010PropOp55
 70
     1
102
RTVSPost2010Prop56
140
1.0
102
RTVSPost2010PropOp56
 70
     1
102
RTVSPost2010Prop57
140
1.0
102
RTVSPost2010PropOp57
 70
     1
102
RTVSPropertyOp0
 70
     1
102
RTVSPropertyOp1
 70
     1
102
RTVSPropertyOp2
 70
     1
102
RTVSPropertyOp3
 70
     1
102
RTVSPropertyOp4
 70
     1
102
RTVSPropertyOp5
 70
     1
102
RTVSPropertyOp6
 70
     1
102
RTVSPropertyOp7
 70
     1
102
RTVSPropertyOp8
 70
     1
102
RTVSPropertyOp9
 70
     1
102
RTVSPropertyOp10
 70
     1
102
RTVSPropertyOp11
 70
     1
102
RTVSPropertyOp12
 70
     1
102
RTVSPropertyOp13
 70
     1
102
RTVSPropertyOp14
 70
     1
102
RTVSPropertyOp15
 70
     1
102
RTVSPropertyOp16
 70
     1
102
RTVSPropertyOp17
 70
     1
102
RTVSPropertyOp18
 70
     1
102
RTVSPropertyOp19
 70
     1
102
RTVSPropertyOp20
 70
     1
102
RTVSPropertyOp21
 70
     1
102
RTVSPropertyOp22
 70
     1
102
RTVSPropertyOp23
 70
     1
102
RTVSPropertyOp24
 70
     1
102
RTVSPropertyOp25
 70
     1
102
RTVSPropertyOp26
 70
     1
102
RTVSPropertyOp27
 70
     1
102
RTVSPropertyOp28
 70
     1
102
RTVSPropertyOp29
 70
     1
102
RTVSPropertyOp30
 70
     1
102
RTVSPropertyOp31
 70
     1
102
RTVSPropertyOp32
 70
     1
102
RTVSPropertyOp33
 70
     1
102
RTVSPropertyOp34
 70
     1
102
RTVSPropertyOp35
 70
     1
102
RTVSPropertyOp36
 70
     1
102
RTVSPropertyOp37
 70
     1
102
RTVSPropertyOp38
 70
     1
102
RTVSPropertyOp39
 70
     1
102
RTVSPropertyOp40
 70
     1
102
RTVSPropertyOp41
 70
     1
102
RTVSPropertyOp42
 70
     1
102
RTVSPropertyOp43
 70
     1
102
RTVSPropertyOp44
 70
     1
102
RTVSPropertyOp45
 70
     1
102
RTVSPropertyOp46
 70
     1
102
RTVSPropertyOp47
 70
     1
102
RTVSPropertyOp48
 70
     1
102
RTVSPropertyOp49
 70
     1
102
RTVSPropertyOp50
 70
     1
102
RTVSPropertyOp51
 70
     0
102
RTVSPropertyOp52
 70
     0
102
RTVSPropertyOp53
 70
     1
102
RTVSPropertyOp54
 70
     1
102
RTVSPropertyOp55
 70
     1
102
RTVSPropertyOp56
 70
     1
102
RTVSPropertyOp57
 70
     1
102
RTVSPropertyOp58
 70
     1
102
RTVSPropertyOp59
 70
     1
102
RTVSPropertyOp60
 70
     1
102
RTVSPropertyOp61
 70
     1
102
RTVSPropertyOp62
 70
     1
  0
XRECORD
  5
87FC
102
{ACAD_REACTORS
330
87FB
102
}
330
87FB
100
AcDbXrecord
280
     1
102
RTVSPost2010Prop28
280
     0
102
RTVSPost2010PropOp28
 70
     1
102
RTVSPost2010Prop29
280
     1
102
RTVSPost2010PropOp29
 70
     1
102
RTVSPost2010Prop30
280
     1
102
RTVSPost2010PropOp30
 70
     1
102
RTVSPost2010Prop31
280
     0
102
RTVSPost2010PropOp31
 70
     1
102
RTVSPost2010Prop32
280
     0
102
RTVSPost2010PropOp32
 70
     1
102
RTVSPost2010Prop33
280
     0
102
RTVSPost2010PropOp33
 70
     1
102
RTVSPost2010Prop34
280
     0
102
RTVSPost2010PropOp34
 70
     1
102
RTVSPost2010Prop35
280
     0
102
RTVSPost2010PropOp35
 70
     1
102
RTVSPost2010Prop36
280
     0
102
RTVSPost2010PropOp36
 70
     1
102
RTVSPost2010Prop37
 90
       50
102
RTVSPost2010PropOp37
 70
     0
102
RTVSPost2010Prop38
140
0.0
102
RTVSPost2010PropOp38
 70
     0
102
RTVSPost2010Prop39
140
1.0
102
RTVSPost2010PropOp39
 70
     0
102
RTVSPost2010Prop40
 90
        0
102
RTVSPost2010PropOp40
 70
     0
102
RTVSPost2010Prop41ColorIndex
 90
       18
102
RTVSPost2010Prop41ColorRGB
 90
        0
102
RTVSPost2010PropOp41
 70
     0
102
RTVSPost2010Prop42
 90
       50
102
RTVSPost2010PropOp42
 70
     0
102
RTVSPost2010Prop43
 90
        3
102
RTVSPost2010PropOp43
 70
     0
102
RTVSPost2010Prop44ColorIndex
 90
        5
102
RTVSPost2010Prop44ColorRGB
 90
      255
102
RTVSPost2010PropOp44
 70
     0
102
RTVSPost2010Prop45
280
     0
102
RTVSPost2010PropOp45
 70
     1
102
RTVSPost2010Prop46
 90
       50
102
RTVSPost2010PropOp46
 70
     0
102
RTVSPost2010Prop47
 90
       50
102
RTVSPost2010PropOp47
 70
     0
102
RTVSPost2010Prop48
 90
       50
102
RTVSPost2010PropOp48
 70
     0
102
RTVSPost2010Prop49
280
     0
102
RTVSPost2010PropOp49
 70
     1
102
RTVSPost2010Prop50
 90
       50
102
RTVSPost2010PropOp50
 70
     0
102
RTVSPost2010Prop51ColorIndex
 90
      256
102
RTVSPost2010Prop51ColorRGB
 90
-16777216
102
RTVSPost2010PropOp51
 70
     0
102
RTVSPost2010Prop52
140
1.0
102
RTVSPost2010PropOp52
 70
     0
102
RTVSPost2010Prop53
 90
        2
102
RTVSPost2010PropOp53
 70
     0
102
RTVSPost2010Prop54
  1
strokes_ogs.tif
102
RTVSPost2010PropOp54
 70
     0
102
RTVSPost2010Prop55
280
     0
102
RTVSPost2010PropOp55
 70
     1
102
RTVSPost2010Prop56
140
1.0
102
RTVSPost2010PropOp56
 70
     0
102
RTVSPost2010Prop57
140
1.0
102
RTVSPost2010PropOp57
 70
     0
102
RTVSPropertyOp0
 70
     0
102
RTVSPropertyOp1
 70
     0
102
RTVSPropertyOp2
 70
     0
102
RTVSPropertyOp3
 70
     0
102
RTVSPropertyOp4
 70
     0
102
RTVSPropertyOp5
 70
     0
102
RTVSPropertyOp6
 70
     0
102
RTVSPropertyOp7
 70
     0
102
RTVSPropertyOp8
 70
     0
102
RTVSPropertyOp9
 70
     0
102
RTVSPropertyOp10
 70
     0
102
RTVSPropertyOp11
 70
     0
102
RTVSPropertyOp12
 70
     0
102
RTVSPropertyOp13
 70
     0
102
RTVSPropertyOp14
 70
     2
102
RTVSPropertyOp15
 70
     0
102
RTVSPropertyOp16
 70
     0
102
RTVSPropertyOp17
 70
     0
102
RTVSPropertyOp18
 70
     0
102
RTVSPropertyOp19
 70
     0
102
RTVSPropertyOp20
 70
     0
102
RTVSPropertyOp21
 70
     0
102
RTVSPropertyOp22
 70
     0
102
RTVSPropertyOp23
 70
     0
102
RTVSPropertyOp24
 70
     0
102
RTVSPropertyOp25
 70
     0
102
RTVSPropertyOp26
 70
     0
102
RTVSPropertyOp27
 70
     0
102
RTVSPropertyOp28
 70
     1
102
RTVSPropertyOp29
 70
     1
102
RTVSPropertyOp30
 70
     1
102
RTVSPropertyOp31
 70
     1
102
RTVSPropertyOp32
 70
     1
102
RTVSPropertyOp33
 70
     1
102
RTVSPropertyOp34
 70
     1
102
RTVSPropertyOp35
 70
     1
102
RTVSPropertyOp36
 70
     1
102
RTVSPropertyOp37
 70
     0
102
RTVSPropertyOp38
 70
     0
102
RTVSPropertyOp39
 70
     0
102
RTVSPropertyOp40
 70
     0
102
RTVSPropertyOp41
 70
     0
102
RTVSPropertyOp42
 70
     0
102
RTVSPropertyOp43
 70
     0
102
RTVSPropertyOp44
 70
     0
102
RTVSPropertyOp45
 70
     1
102
RTVSPropertyOp46
 70
     0
102
RTVSPropertyOp47
 70
     0
102
RTVSPropertyOp48
 70
     0
102
RTVSPropertyOp49
 70
     1
102
RTVSPropertyOp50
 70
     0
102
RTVSPropertyOp51
 70
     0
102
RTVSPropertyOp52
 70
     0
102
RTVSPropertyOp53
 70
     0
102
RTVSPropertyOp54
 70
     0
102
RTVSPropertyOp55
 70
     1
102
RTVSPropertyOp56
 70
     0
102
RTVSPropertyOp57
 70
     0
102
RTVSPropertyOp58
 70
     0
102
RTVSPropertyOp59
 70
     0
102
RTVSPropertyOp60
 70
     0
102
RTVSPropertyOp61
 70
     0
102
RTVSPropertyOp62
 70
     0
  0
XRECORD
  5
87E2
102
{ACAD_REACTORS
330
87E1
102
}
330
87E1
100
AcDbXrecord
280
     1
102
RTVSPost2010Prop28
280
     0
102
RTVSPost2010PropOp28
 70
     1
102
RTVSPost2010Prop29
280
     1
102
RTVSPost2010PropOp29
 70
     1
102
RTVSPost2010Prop30
280
     1
102
RTVSPost2010PropOp30
 70
     1
102
RTVSPost2010Prop31
280
     0
102
RTVSPost2010PropOp31
 70
     1
102
RTVSPost2010Prop32
280
     0
102
RTVSPost2010PropOp32
 70
     1
102
RTVSPost2010Prop33
280
     0
102
RTVSPost2010PropOp33
 70
     1
102
RTVSPost2010Prop34
280
     0
102
RTVSPost2010PropOp34
 70
     1
102
RTVSPost2010Prop35
280
     0
102
RTVSPost2010PropOp35
 70
     1
102
RTVSPost2010Prop36
280
     0
102
RTVSPost2010PropOp36
 70
     1
102
RTVSPost2010Prop37
 90
       50
102
RTVSPost2010PropOp37
 70
     1
102
RTVSPost2010Prop38
140
0.0
102
RTVSPost2010PropOp38
 70
     1
102
RTVSPost2010Prop39
140
1.0
102
RTVSPost2010PropOp39
 70
     1
102
RTVSPost2010Prop40
 90
        0
102
RTVSPost2010PropOp40
 70
     1
102
RTVSPost2010Prop41ColorIndex
 90
       18
102
RTVSPost2010Prop41ColorRGB
 90
        0
102
RTVSPost2010PropOp41
 70
     1
102
RTVSPost2010Prop42
 90
       50
102
RTVSPost2010PropOp42
 70
     1
102
RTVSPost2010Prop43
 90
        3
102
RTVSPost2010PropOp43
 70
     1
102
RTVSPost2010Prop44ColorIndex
 90
        5
102
RTVSPost2010Prop44ColorRGB
 90
      255
102
RTVSPost2010PropOp44
 70
     1
102
RTVSPost2010Prop45
280
     0
102
RTVSPost2010PropOp45
 70
     1
102
RTVSPost2010Prop46
 90
       50
102
RTVSPost2010PropOp46
 70
     1
102
RTVSPost2010Prop47
 90
       50
102
RTVSPost2010PropOp47
 70
     1
102
RTVSPost2010Prop48
 90
       50
102
RTVSPost2010PropOp48
 70
     1
102
RTVSPost2010Prop49
280
     0
102
RTVSPost2010PropOp49
 70
     1
102
RTVSPost2010Prop50
 90
       50
102
RTVSPost2010PropOp50
 70
     1
102
RTVSPost2010Prop51ColorIndex
 90
      256
102
RTVSPost2010Prop51ColorRGB
 90
-16777216
102
RTVSPost2010PropOp51
 70
     0
102
RTVSPost2010Prop52
140
1.0
102
RTVSPost2010PropOp52
 70
     0
102
RTVSPost2010Prop53
 90
        2
102
RTVSPost2010PropOp53
 70
     1
102
RTVSPost2010Prop54
  1
strokes_ogs.tif
102
RTVSPost2010PropOp54
 70
     1
102
RTVSPost2010Prop55
280
     0
102
RTVSPost2010PropOp55
 70
     1
102
RTVSPost2010Prop56
140
1.0
102
RTVSPost2010PropOp56
 70
     1
102
RTVSPost2010Prop57
140
1.0
102
RTVSPost2010PropOp57
 70
     1
102
RTVSPropertyOp0
 70
     1
102
RTVSPropertyOp1
 70
     1
102
RTVSPropertyOp2
 70
     1
102
RTVSPropertyOp3
 70
     1
102
RTVSPropertyOp4
 70
     1
102
RTVSPropertyOp5
 70
     1
102
RTVSPropertyOp6
 70
     1
102
RTVSPropertyOp7
 70
     1
102
RTVSPropertyOp8
 70
     1
102
RTVSPropertyOp9
 70
     1
102
RTVSPropertyOp10
 70
     1
102
RTVSPropertyOp11
 70
     1
102
RTVSPropertyOp12
 70
     1
102
RTVSPropertyOp13
 70
     1
102
RTVSPropertyOp14
 70
     1
102
RTVSPropertyOp15
 70
     1
102
RTVSPropertyOp16
 70
     1
102
RTVSPropertyOp17
 70
     1
102
RTVSPropertyOp18
 70
     1
102
RTVSPropertyOp19
 70
     1
102
RTVSPropertyOp20
 70
     1
102
RTVSPropertyOp21
 70
     1
102
RTVSPropertyOp22
 70
     1
102
RTVSPropertyOp23
 70
     1
102
RTVSPropertyOp24
 70
     1
102
RTVSPropertyOp25
 70
     1
102
RTVSPropertyOp26
 70
     1
102
RTVSPropertyOp27
 70
     1
102
RTVSPropertyOp28
 70
     1
102
RTVSPropertyOp29
 70
     1
102
RTVSPropertyOp30
 70
     1
102
RTVSPropertyOp31
 70
     1
102
RTVSPropertyOp32
 70
     1
102
RTVSPropertyOp33
 70
     1
102
RTVSPropertyOp34
 70
     1
102
RTVSPropertyOp35
 70
     1
102
RTVSPropertyOp36
 70
     1
102
RTVSPropertyOp37
 70
     1
102
RTVSPropertyOp38
 70
     1
102
RTVSPropertyOp39
 70
     1
102
RTVSPropertyOp40
 70
     1
102
RTVSPropertyOp41
 70
     1
102
RTVSPropertyOp42
 70
     1
102
RTVSPropertyOp43
 70
     1
102
RTVSPropertyOp44
 70
     1
102
RTVSPropertyOp45
 70
     1
102
RTVSPropertyOp46
 70
     1
102
RTVSPropertyOp47
 70
     1
102
RTVSPropertyOp48
 70
     1
102
RTVSPropertyOp49
 70
     1
102
RTVSPropertyOp50
 70
     1
102
RTVSPropertyOp51
 70
     0
102
RTVSPropertyOp52
 70
     0
102
RTVSPropertyOp53
 70
     1
102
RTVSPropertyOp54
 70
     1
102
RTVSPropertyOp55
 70
     1
102
RTVSPropertyOp56
 70
     1
102
RTVSPropertyOp57
 70
     1
102
RTVSPropertyOp58
 70
     1
102
RTVSPropertyOp59
 70
     1
102
RTVSPropertyOp60
 70
     1
102
RTVSPropertyOp61
 70
     1
102
RTVSPropertyOp62
 70
     1
  0
XRECORD
  5
87F8
102
{ACAD_REACTORS
330
87F7
102
}
330
87F7
100
AcDbXrecord
280
     1
102
RTVSPost2010Prop28
280
     0
102
RTVSPost2010PropOp28
 70
     1
102
RTVSPost2010Prop29
280
     1
102
RTVSPost2010PropOp29
 70
     1
102
RTVSPost2010Prop30
280
     1
102
RTVSPost2010PropOp30
 70
     1
102
RTVSPost2010Prop31
280
     0
102
RTVSPost2010PropOp31
 70
     1
102
RTVSPost2010Prop32
280
     0
102
RTVSPost2010PropOp32
 70
     1
102
RTVSPost2010Prop33
280
     0
102
RTVSPost2010PropOp33
 70
     1
102
RTVSPost2010Prop34
280
     0
102
RTVSPost2010PropOp34
 70
     1
102
RTVSPost2010Prop35
280
     0
102
RTVSPost2010PropOp35
 70
     1
102
RTVSPost2010Prop36
280
     0
102
RTVSPost2010PropOp36
 70
     1
102
RTVSPost2010Prop37
 90
       50
102
RTVSPost2010PropOp37
 70
     1
102
RTVSPost2010Prop38
140
0.0
102
RTVSPost2010PropOp38
 70
     1
102
RTVSPost2010Prop39
140
1.0
102
RTVSPost2010PropOp39
 70
     1
102
RTVSPost2010Prop40
 90
        0
102
RTVSPost2010PropOp40
 70
     1
102
RTVSPost2010Prop41ColorIndex
 90
       18
102
RTVSPost2010Prop41ColorRGB
 90
        0
102
RTVSPost2010PropOp41
 70
     1
102
RTVSPost2010Prop42
 90
       50
102
RTVSPost2010PropOp42
 70
     1
102
RTVSPost2010Prop43
 90
        3
102
RTVSPost2010PropOp43
 70
     1
102
RTVSPost2010Prop44ColorIndex
 90
        5
102
RTVSPost2010Prop44ColorRGB
 90
      255
102
RTVSPost2010PropOp44
 70
     1
102
RTVSPost2010Prop45
280
     0
102
RTVSPost2010PropOp45
 70
     1
102
RTVSPost2010Prop46
 90
       50
102
RTVSPost2010PropOp46
 70
     1
102
RTVSPost2010Prop47
 90
       50
102
RTVSPost2010PropOp47
 70
     1
102
RTVSPost2010Prop48
 90
       50
102
RTVSPost2010PropOp48
 70
     1
102
RTVSPost2010Prop49
280
     0
102
RTVSPost2010PropOp49
 70
     1
102
RTVSPost2010Prop50
 90
       50
102
RTVSPost2010PropOp50
 70
     1
102
RTVSPost2010Prop51ColorIndex
 90
      256
102
RTVSPost2010Prop51ColorRGB
 90
-16777216
102
RTVSPost2010PropOp51
 70
     0
102
RTVSPost2010Prop52
140
1.0
102
RTVSPost2010PropOp52
 70
     0
102
RTVSPost2010Prop53
 90
        2
102
RTVSPost2010PropOp53
 70
     1
102
RTVSPost2010Prop54
  1
strokes_ogs.tif
102
RTVSPost2010PropOp54
 70
     1
102
RTVSPost2010Prop55
280
     0
102
RTVSPost2010PropOp55
 70
     1
102
RTVSPost2010Prop56
140
1.0
102
RTVSPost2010PropOp56
 70
     1
102
RTVSPost2010Prop57
140
1.0
102
RTVSPost2010PropOp57
 70
     1
102
RTVSPropertyOp0
 70
     1
102
RTVSPropertyOp1
 70
     1
102
RTVSPropertyOp2
 70
     1
102
RTVSPropertyOp3
 70
     1
102
RTVSPropertyOp4
 70
     1
102
RTVSPropertyOp5
 70
     1
102
RTVSPropertyOp6
 70
     1
102
RTVSPropertyOp7
 70
     1
102
RTVSPropertyOp8
 70
     1
102
RTVSPropertyOp9
 70
     1
102
RTVSPropertyOp10
 70
     1
102
RTVSPropertyOp11
 70
     1
102
RTVSPropertyOp12
 70
     1
102
RTVSPropertyOp13
 70
     1
102
RTVSPropertyOp14
 70
     1
102
RTVSPropertyOp15
 70
     1
102
RTVSPropertyOp16
 70
     1
102
RTVSPropertyOp17
 70
     1
102
RTVSPropertyOp18
 70
     1
102
RTVSPropertyOp19
 70
     1
102
RTVSPropertyOp20
 70
     1
102
RTVSPropertyOp21
 70
     1
102
RTVSPropertyOp22
 70
     1
102
RTVSPropertyOp23
 70
     1
102
RTVSPropertyOp24
 70
     1
102
RTVSPropertyOp25
 70
     1
102
RTVSPropertyOp26
 70
     1
102
RTVSPropertyOp27
 70
     1
102
RTVSPropertyOp28
 70
     1
102
RTVSPropertyOp29
 70
     1
102
RTVSPropertyOp30
 70
     1
102
RTVSPropertyOp31
 70
     1
102
RTVSPropertyOp32
 70
     1
102
RTVSPropertyOp33
 70
     1
102
RTVSPropertyOp34
 70
     1
102
RTVSPropertyOp35
 70
     1
102
RTVSPropertyOp36
 70
     1
102
RTVSPropertyOp37
 70
     1
102
RTVSPropertyOp38
 70
     1
102
RTVSPropertyOp39
 70
     1
102
RTVSPropertyOp40
 70
     1
102
RTVSPropertyOp41
 70
     1
102
RTVSPropertyOp42
 70
     1
102
RTVSPropertyOp43
 70
     1
102
RTVSPropertyOp44
 70
     1
102
RTVSPropertyOp45
 70
     1
102
RTVSPropertyOp46
 70
     1
102
RTVSPropertyOp47
 70
     1
102
RTVSPropertyOp48
 70
     1
102
RTVSPropertyOp49
 70
     1
102
RTVSPropertyOp50
 70
     1
102
RTVSPropertyOp51
 70
     0
102
RTVSPropertyOp52
 70
     0
102
RTVSPropertyOp53
 70
     1
102
RTVSPropertyOp54
 70
     1
102
RTVSPropertyOp55
 70
     1
102
RTVSPropertyOp56
 70
     1
102
RTVSPropertyOp57
 70
     1
102
RTVSPropertyOp58
 70
     1
102
RTVSPropertyOp59
 70
     1
102
RTVSPropertyOp60
 70
     1
102
RTVSPropertyOp61
 70
     1
102
RTVSPropertyOp62
 70
     1
  0
XRECORD
  5
87F6
102
{ACAD_REACTORS
330
87F5
102
}
330
87F5
100
AcDbXrecord
280
     1
102
RTVSPost2010Prop28
280
     0
102
RTVSPost2010PropOp28
 70
     1
102
RTVSPost2010Prop29
280
     1
102
RTVSPost2010PropOp29
 70
     1
102
RTVSPost2010Prop30
280
     1
102
RTVSPost2010PropOp30
 70
     1
102
RTVSPost2010Prop31
280
     0
102
RTVSPost2010PropOp31
 70
     1
102
RTVSPost2010Prop32
280
     0
102
RTVSPost2010PropOp32
 70
     1
102
RTVSPost2010Prop33
280
     0
102
RTVSPost2010PropOp33
 70
     1
102
RTVSPost2010Prop34
280
     0
102
RTVSPost2010PropOp34
 70
     1
102
RTVSPost2010Prop35
280
     0
102
RTVSPost2010PropOp35
 70
     1
102
RTVSPost2010Prop36
280
     0
102
RTVSPost2010PropOp36
 70
     1
102
RTVSPost2010Prop37
 90
       50
102
RTVSPost2010PropOp37
 70
     1
102
RTVSPost2010Prop38
140
0.0
102
RTVSPost2010PropOp38
 70
     1
102
RTVSPost2010Prop39
140
1.0
102
RTVSPost2010PropOp39
 70
     1
102
RTVSPost2010Prop40
 90
        0
102
RTVSPost2010PropOp40
 70
     1
102
RTVSPost2010Prop41ColorIndex
 90
       18
102
RTVSPost2010Prop41ColorRGB
 90
        0
102
RTVSPost2010PropOp41
 70
     1
102
RTVSPost2010Prop42
 90
       50
102
RTVSPost2010PropOp42
 70
     1
102
RTVSPost2010Prop43
 90
        3
102
RTVSPost2010PropOp43
 70
     1
102
RTVSPost2010Prop44ColorIndex
 90
        5
102
RTVSPost2010Prop44ColorRGB
 90
      255
102
RTVSPost2010PropOp44
 70
     1
102
RTVSPost2010Prop45
280
     0
102
RTVSPost2010PropOp45
 70
     1
102
RTVSPost2010Prop46
 90
       50
102
RTVSPost2010PropOp46
 70
     1
102
RTVSPost2010Prop47
 90
       50
102
RTVSPost2010PropOp47
 70
     1
102
RTVSPost2010Prop48
 90
       50
102
RTVSPost2010PropOp48
 70
     1
102
RTVSPost2010Prop49
280
     0
102
RTVSPost2010PropOp49
 70
     1
102
RTVSPost2010Prop50
 90
       50
102
RTVSPost2010PropOp50
 70
     1
102
RTVSPost2010Prop51ColorIndex
 90
      256
102
RTVSPost2010Prop51ColorRGB
 90
-16777216
102
RTVSPost2010PropOp51
 70
     0
102
RTVSPost2010Prop52
140
1.0
102
RTVSPost2010PropOp52
 70
     0
102
RTVSPost2010Prop53
 90
        2
102
RTVSPost2010PropOp53
 70
     1
102
RTVSPost2010Prop54
  1
strokes_ogs.tif
102
RTVSPost2010PropOp54
 70
     1
102
RTVSPost2010Prop55
280
     0
102
RTVSPost2010PropOp55
 70
     1
102
RTVSPost2010Prop56
140
1.0
102
RTVSPost2010PropOp56
 70
     1
102
RTVSPost2010Prop57
140
1.0
102
RTVSPost2010PropOp57
 70
     1
102
RTVSPropertyOp0
 70
     1
102
RTVSPropertyOp1
 70
     1
102
RTVSPropertyOp2
 70
     1
102
RTVSPropertyOp3
 70
     1
102
RTVSPropertyOp4
 70
     1
102
RTVSPropertyOp5
 70
     1
102
RTVSPropertyOp6
 70
     1
102
RTVSPropertyOp7
 70
     1
102
RTVSPropertyOp8
 70
     1
102
RTVSPropertyOp9
 70
     1
102
RTVSPropertyOp10
 70
     1
102
RTVSPropertyOp11
 70
     1
102
RTVSPropertyOp12
 70
     1
102
RTVSPropertyOp13
 70
     1
102
RTVSPropertyOp14
 70
     1
102
RTVSPropertyOp15
 70
     1
102
RTVSPropertyOp16
 70
     1
102
RTVSPropertyOp17
 70
     1
102
RTVSPropertyOp18
 70
     1
102
RTVSPropertyOp19
 70
     1
102
RTVSPropertyOp20
 70
     1
102
RTVSPropertyOp21
 70
     1
102
RTVSPropertyOp22
 70
     1
102
RTVSPropertyOp23
 70
     1
102
RTVSPropertyOp24
 70
     1
102
RTVSPropertyOp25
 70
     1
102
RTVSPropertyOp26
 70
     1
102
RTVSPropertyOp27
 70
     1
102
RTVSPropertyOp28
 70
     1
102
RTVSPropertyOp29
 70
     1
102
RTVSPropertyOp30
 70
     1
102
RTVSPropertyOp31
 70
     1
102
RTVSPropertyOp32
 70
     1
102
RTVSPropertyOp33
 70
     1
102
RTVSPropertyOp34
 70
     1
102
RTVSPropertyOp35
 70
     1
102
RTVSPropertyOp36
 70
     1
102
RTVSPropertyOp37
 70
     1
102
RTVSPropertyOp38
 70
     1
102
RTVSPropertyOp39
 70
     1
102
RTVSPropertyOp40
 70
     1
102
RTVSPropertyOp41
 70
     1
102
RTVSPropertyOp42
 70
     1
102
RTVSPropertyOp43
 70
     1
102
RTVSPropertyOp44
 70
     1
102
RTVSPropertyOp45
 70
     1
102
RTVSPropertyOp46
 70
     1
102
RTVSPropertyOp47
 70
     1
102
RTVSPropertyOp48
 70
     1
102
RTVSPropertyOp49
 70
     1
102
RTVSPropertyOp50
 70
     1
102
RTVSPropertyOp51
 70
     0
102
RTVSPropertyOp52
 70
     0
102
RTVSPropertyOp53
 70
     1
102
RTVSPropertyOp54
 70
     1
102
RTVSPropertyOp55
 70
     1
102
RTVSPropertyOp56
 70
     1
102
RTVSPropertyOp57
 70
     1
102
RTVSPropertyOp58
 70
     1
102
RTVSPropertyOp59
 70
     1
102
RTVSPropertyOp60
 70
     1
102
RTVSPropertyOp61
 70
     1
102
RTVSPropertyOp62
 70
     1
  0
XRECORD
  5
87F0
102
{ACAD_REACTORS
330
87EF
102
}
330
87EF
100
AcDbXrecord
280
     1
102
RTVSPost2010Prop28
280
     0
102
RTVSPost2010PropOp28
 70
     1
102
RTVSPost2010Prop29
280
     1
102
RTVSPost2010PropOp29
 70
     1
102
RTVSPost2010Prop30
280
     1
102
RTVSPost2010PropOp30
 70
     1
102
RTVSPost2010Prop31
280
     0
102
RTVSPost2010PropOp31
 70
     1
102
RTVSPost2010Prop32
280
     0
102
RTVSPost2010PropOp32
 70
     1
102
RTVSPost2010Prop33
280
     0
102
RTVSPost2010PropOp33
 70
     1
102
RTVSPost2010Prop34
280
     0
102
RTVSPost2010PropOp34
 70
     1
102
RTVSPost2010Prop35
280
     0
102
RTVSPost2010PropOp35
 70
     1
102
RTVSPost2010Prop36
280
     0
102
RTVSPost2010PropOp36
 70
     1
102
RTVSPost2010Prop37
 90
       50
102
RTVSPost2010PropOp37
 70
     1
102
RTVSPost2010Prop38
140
0.0
102
RTVSPost2010PropOp38
 70
     1
102
RTVSPost2010Prop39
140
1.0
102
RTVSPost2010PropOp39
 70
     1
102
RTVSPost2010Prop40
 90
        0
102
RTVSPost2010PropOp40
 70
     1
102
RTVSPost2010Prop41ColorIndex
 90
       18
102
RTVSPost2010Prop41ColorRGB
 90
        0
102
RTVSPost2010PropOp41
 70
     1
102
RTVSPost2010Prop42
 90
       50
102
RTVSPost2010PropOp42
 70
     1
102
RTVSPost2010Prop43
 90
        3
102
RTVSPost2010PropOp43
 70
     1
102
RTVSPost2010Prop44ColorIndex
 90
        5
102
RTVSPost2010Prop44ColorRGB
 90
      255
102
RTVSPost2010PropOp44
 70
     1
102
RTVSPost2010Prop45
280
     0
102
RTVSPost2010PropOp45
 70
     1
102
RTVSPost2010Prop46
 90
       50
102
RTVSPost2010PropOp46
 70
     1
102
RTVSPost2010Prop47
 90
       50
102
RTVSPost2010PropOp47
 70
     1
102
RTVSPost2010Prop48
 90
       50
102
RTVSPost2010PropOp48
 70
     1
102
RTVSPost2010Prop49
280
     0
102
RTVSPost2010PropOp49
 70
     1
102
RTVSPost2010Prop50
 90
       50
102
RTVSPost2010PropOp50
 70
     1
102
RTVSPost2010Prop51ColorIndex
 90
      256
102
RTVSPost2010Prop51ColorRGB
 90
-16777216
102
RTVSPost2010PropOp51
 70
     0
102
RTVSPost2010Prop52
140
1.0
102
RTVSPost2010PropOp52
 70
     0
102
RTVSPost2010Prop53
 90
        2
102
RTVSPost2010PropOp53
 70
     1
102
RTVSPost2010Prop54
  1
strokes_ogs.tif
102
RTVSPost2010PropOp54
 70
     1
102
RTVSPost2010Prop55
280
     0
102
RTVSPost2010PropOp55
 70
     1
102
RTVSPost2010Prop56
140
1.0
102
RTVSPost2010PropOp56
 70
     1
102
RTVSPost2010Prop57
140
1.0
102
RTVSPost2010PropOp57
 70
     1
102
RTVSPropertyOp0
 70
     1
102
RTVSPropertyOp1
 70
     1
102
RTVSPropertyOp2
 70
     1
102
RTVSPropertyOp3
 70
     1
102
RTVSPropertyOp4
 70
     1
102
RTVSPropertyOp5
 70
     1
102
RTVSPropertyOp6
 70
     1
102
RTVSPropertyOp7
 70
     1
102
RTVSPropertyOp8
 70
     1
102
RTVSPropertyOp9
 70
     1
102
RTVSPropertyOp10
 70
     1
102
RTVSPropertyOp11
 70
     1
102
RTVSPropertyOp12
 70
     1
102
RTVSPropertyOp13
 70
     1
102
RTVSPropertyOp14
 70
     1
102
RTVSPropertyOp15
 70
     1
102
RTVSPropertyOp16
 70
     1
102
RTVSPropertyOp17
 70
     1
102
RTVSPropertyOp18
 70
     1
102
RTVSPropertyOp19
 70
     1
102
RTVSPropertyOp20
 70
     1
102
RTVSPropertyOp21
 70
     1
102
RTVSPropertyOp22
 70
     1
102
RTVSPropertyOp23
 70
     1
102
RTVSPropertyOp24
 70
     1
102
RTVSPropertyOp25
 70
     1
102
RTVSPropertyOp26
 70
     1
102
RTVSPropertyOp27
 70
     1
102
RTVSPropertyOp28
 70
     1
102
RTVSPropertyOp29
 70
     1
102
RTVSPropertyOp30
 70
     1
102
RTVSPropertyOp31
 70
     1
102
RTVSPropertyOp32
 70
     1
102
RTVSPropertyOp33
 70
     1
102
RTVSPropertyOp34
 70
     1
102
RTVSPropertyOp35
 70
     1
102
RTVSPropertyOp36
 70
     1
102
RTVSPropertyOp37
 70
     1
102
RTVSPropertyOp38
 70
     1
102
RTVSPropertyOp39
 70
     1
102
RTVSPropertyOp40
 70
     1
102
RTVSPropertyOp41
 70
     1
102
RTVSPropertyOp42
 70
     1
102
RTVSPropertyOp43
 70
     1
102
RTVSPropertyOp44
 70
     1
102
RTVSPropertyOp45
 70
     1
102
RTVSPropertyOp46
 70
     1
102
RTVSPropertyOp47
 70
     1
102
RTVSPropertyOp48
 70
     1
102
RTVSPropertyOp49
 70
     1
102
RTVSPropertyOp50
 70
     1
102
RTVSPropertyOp51
 70
     0
102
RTVSPropertyOp52
 70
     0
102
RTVSPropertyOp53
 70
     1
102
RTVSPropertyOp54
 70
     1
102
RTVSPropertyOp55
 70
     1
102
RTVSPropertyOp56
 70
     1
102
RTVSPropertyOp57
 70
     1
102
RTVSPropertyOp58
 70
     1
102
RTVSPropertyOp59
 70
     1
102
RTVSPropertyOp60
 70
     1
102
RTVSPropertyOp61
 70
     1
102
RTVSPropertyOp62
 70
     1
  0
XRECORD
  5
87F2
102
{ACAD_REACTORS
330
87F1
102
}
330
87F1
100
AcDbXrecord
280
     1
102
RTVSPost2010Prop28
280
     0
102
RTVSPost2010PropOp28
 70
     1
102
RTVSPost2010Prop29
280
     1
102
RTVSPost2010PropOp29
 70
     1
102
RTVSPost2010Prop30
280
     1
102
RTVSPost2010PropOp30
 70
     1
102
RTVSPost2010Prop31
280
     0
102
RTVSPost2010PropOp31
 70
     1
102
RTVSPost2010Prop32
280
     0
102
RTVSPost2010PropOp32
 70
     1
102
RTVSPost2010Prop33
280
     0
102
RTVSPost2010PropOp33
 70
     1
102
RTVSPost2010Prop34
280
     0
102
RTVSPost2010PropOp34
 70
     1
102
RTVSPost2010Prop35
280
     0
102
RTVSPost2010PropOp35
 70
     1
102
RTVSPost2010Prop36
280
     0
102
RTVSPost2010PropOp36
 70
     1
102
RTVSPost2010Prop37
 90
       50
102
RTVSPost2010PropOp37
 70
     1
102
RTVSPost2010Prop38
140
0.0
102
RTVSPost2010PropOp38
 70
     1
102
RTVSPost2010Prop39
140
1.0
102
RTVSPost2010PropOp39
 70
     1
102
RTVSPost2010Prop40
 90
        0
102
RTVSPost2010PropOp40
 70
     1
102
RTVSPost2010Prop41ColorIndex
 90
       18
102
RTVSPost2010Prop41ColorRGB
 90
        0
102
RTVSPost2010PropOp41
 70
     1
102
RTVSPost2010Prop42
 90
       50
102
RTVSPost2010PropOp42
 70
     1
102
RTVSPost2010Prop43
 90
        3
102
RTVSPost2010PropOp43
 70
     1
102
RTVSPost2010Prop44ColorIndex
 90
        5
102
RTVSPost2010Prop44ColorRGB
 90
      255
102
RTVSPost2010PropOp44
 70
     1
102
RTVSPost2010Prop45
280
     0
102
RTVSPost2010PropOp45
 70
     1
102
RTVSPost2010Prop46
 90
       50
102
RTVSPost2010PropOp46
 70
     1
102
RTVSPost2010Prop47
 90
       50
102
RTVSPost2010PropOp47
 70
     1
102
RTVSPost2010Prop48
 90
       50
102
RTVSPost2010PropOp48
 70
     1
102
RTVSPost2010Prop49
280
     0
102
RTVSPost2010PropOp49
 70
     1
102
RTVSPost2010Prop50
 90
       50
102
RTVSPost2010PropOp50
 70
     1
102
RTVSPost2010Prop51ColorIndex
 90
      256
102
RTVSPost2010Prop51ColorRGB
 90
-16777216
102
RTVSPost2010PropOp51
 70
     0
102
RTVSPost2010Prop52
140
1.0
102
RTVSPost2010PropOp52
 70
     0
102
RTVSPost2010Prop53
 90
        2
102
RTVSPost2010PropOp53
 70
     1
102
RTVSPost2010Prop54
  1
strokes_ogs.tif
102
RTVSPost2010PropOp54
 70
     1
102
RTVSPost2010Prop55
280
     0
102
RTVSPost2010PropOp55
 70
     1
102
RTVSPost2010Prop56
140
1.0
102
RTVSPost2010PropOp56
 70
     1
102
RTVSPost2010Prop57
140
1.0
102
RTVSPost2010PropOp57
 70
     1
102
RTVSPropertyOp0
 70
     1
102
RTVSPropertyOp1
 70
     1
102
RTVSPropertyOp2
 70
     1
102
RTVSPropertyOp3
 70
     1
102
RTVSPropertyOp4
 70
     1
102
RTVSPropertyOp5
 70
     1
102
RTVSPropertyOp6
 70
     1
102
RTVSPropertyOp7
 70
     1
102
RTVSPropertyOp8
 70
     1
102
RTVSPropertyOp9
 70
     1
102
RTVSPropertyOp10
 70
     1
102
RTVSPropertyOp11
 70
     1
102
RTVSPropertyOp12
 70
     1
102
RTVSPropertyOp13
 70
     1
102
RTVSPropertyOp14
 70
     1
102
RTVSPropertyOp15
 70
     1
102
RTVSPropertyOp16
 70
     1
102
RTVSPropertyOp17
 70
     1
102
RTVSPropertyOp18
 70
     1
102
RTVSPropertyOp19
 70
     1
102
RTVSPropertyOp20
 70
     1
102
RTVSPropertyOp21
 70
     1
102
RTVSPropertyOp22
 70
     1
102
RTVSPropertyOp23
 70
     1
102
RTVSPropertyOp24
 70
     1
102
RTVSPropertyOp25
 70
     1
102
RTVSPropertyOp26
 70
     1
102
RTVSPropertyOp27
 70
     1
102
RTVSPropertyOp28
 70
     1
102
RTVSPropertyOp29
 70
     1
102
RTVSPropertyOp30
 70
     1
102
RTVSPropertyOp31
 70
     1
102
RTVSPropertyOp32
 70
     1
102
RTVSPropertyOp33
 70
     1
102
RTVSPropertyOp34
 70
     1
102
RTVSPropertyOp35
 70
     1
102
RTVSPropertyOp36
 70
     1
102
RTVSPropertyOp37
 70
     1
102
RTVSPropertyOp38
 70
     1
102
RTVSPropertyOp39
 70
     1
102
RTVSPropertyOp40
 70
     1
102
RTVSPropertyOp41
 70
     1
102
RTVSPropertyOp42
 70
     1
102
RTVSPropertyOp43
 70
     1
102
RTVSPropertyOp44
 70
     1
102
RTVSPropertyOp45
 70
     1
102
RTVSPropertyOp46
 70
     1
102
RTVSPropertyOp47
 70
     1
102
RTVSPropertyOp48
 70
     1
102
RTVSPropertyOp49
 70
     1
102
RTVSPropertyOp50
 70
     1
102
RTVSPropertyOp51
 70
     0
102
RTVSPropertyOp52
 70
     0
102
RTVSPropertyOp53
 70
     1
102
RTVSPropertyOp54
 70
     1
102
RTVSPropertyOp55
 70
     1
102
RTVSPropertyOp56
 70
     1
102
RTVSPropertyOp57
 70
     1
102
RTVSPropertyOp58
 70
     1
102
RTVSPropertyOp59
 70
     1
102
RTVSPropertyOp60
 70
     1
102
RTVSPropertyOp61
 70
     1
102
RTVSPropertyOp62
 70
     1
  0
XRECORD
  5
87E8
102
{ACAD_REACTORS
330
87E7
102
}
330
87E7
100
AcDbXrecord
280
     1
102
RTVSPost2010Prop28
280
     0
102
RTVSPost2010PropOp28
 70
     1
102
RTVSPost2010Prop29
280
     1
102
RTVSPost2010PropOp29
 70
     1
102
RTVSPost2010Prop30
280
     1
102
RTVSPost2010PropOp30
 70
     1
102
RTVSPost2010Prop31
280
     0
102
RTVSPost2010PropOp31
 70
     1
102
RTVSPost2010Prop32
280
     0
102
RTVSPost2010PropOp32
 70
     1
102
RTVSPost2010Prop33
280
     0
102
RTVSPost2010PropOp33
 70
     1
102
RTVSPost2010Prop34
280
     0
102
RTVSPost2010PropOp34
 70
     1
102
RTVSPost2010Prop35
280
     0
102
RTVSPost2010PropOp35
 70
     1
102
RTVSPost2010Prop36
280
     0
102
RTVSPost2010PropOp36
 70
     1
102
RTVSPost2010Prop37
 90
       50
102
RTVSPost2010PropOp37
 70
     1
102
RTVSPost2010Prop38
140
0.0
102
RTVSPost2010PropOp38
 70
     1
102
RTVSPost2010Prop39
140
1.0
102
RTVSPost2010PropOp39
 70
     1
102
RTVSPost2010Prop40
 90
        0
102
RTVSPost2010PropOp40
 70
     1
102
RTVSPost2010Prop41ColorIndex
 90
       18
102
RTVSPost2010Prop41ColorRGB
 90
        0
102
RTVSPost2010PropOp41
 70
     1
102
RTVSPost2010Prop42
 90
       50
102
RTVSPost2010PropOp42
 70
     1
102
RTVSPost2010Prop43
 90
        3
102
RTVSPost2010PropOp43
 70
     1
102
RTVSPost2010Prop44ColorIndex
 90
        5
102
RTVSPost2010Prop44ColorRGB
 90
      255
102
RTVSPost2010PropOp44
 70
     1
102
RTVSPost2010Prop45
280
     0
102
RTVSPost2010PropOp45
 70
     1
102
RTVSPost2010Prop46
 90
       50
102
RTVSPost2010PropOp46
 70
     1
102
RTVSPost2010Prop47
 90
       50
102
RTVSPost2010PropOp47
 70
     1
102
RTVSPost2010Prop48
 90
       50
102
RTVSPost2010PropOp48
 70
     1
102
RTVSPost2010Prop49
280
     0
102
RTVSPost2010PropOp49
 70
     1
102
RTVSPost2010Prop50
 90
       50
102
RTVSPost2010PropOp50
 70
     1
102
RTVSPost2010Prop51ColorIndex
 90
      256
102
RTVSPost2010Prop51ColorRGB
 90
-16777216
102
RTVSPost2010PropOp51
 70
     0
102
RTVSPost2010Prop52
140
1.0
102
RTVSPost2010PropOp52
 70
     0
102
RTVSPost2010Prop53
 90
        2
102
RTVSPost2010PropOp53
 70
     1
102
RTVSPost2010Prop54
  1
strokes_ogs.tif
102
RTVSPost2010PropOp54
 70
     1
102
RTVSPost2010Prop55
280
     0
102
RTVSPost2010PropOp55
 70
     1
102
RTVSPost2010Prop56
140
1.0
102
RTVSPost2010PropOp56
 70
     1
102
RTVSPost2010Prop57
140
1.0
102
RTVSPost2010PropOp57
 70
     1
102
RTVSPropertyOp0
 70
     1
102
RTVSPropertyOp1
 70
     1
102
RTVSPropertyOp2
 70
     1
102
RTVSPropertyOp3
 70
     1
102
RTVSPropertyOp4
 70
     1
102
RTVSPropertyOp5
 70
     1
102
RTVSPropertyOp6
 70
     1
102
RTVSPropertyOp7
 70
     1
102
RTVSPropertyOp8
 70
     1
102
RTVSPropertyOp9
 70
     1
102
RTVSPropertyOp10
 70
     1
102
RTVSPropertyOp11
 70
     1
102
RTVSPropertyOp12
 70
     1
102
RTVSPropertyOp13
 70
     1
102
RTVSPropertyOp14
 70
     1
102
RTVSPropertyOp15
 70
     1
102
RTVSPropertyOp16
 70
     1
102
RTVSPropertyOp17
 70
     1
102
RTVSPropertyOp18
 70
     1
102
RTVSPropertyOp19
 70
     1
102
RTVSPropertyOp20
 70
     1
102
RTVSPropertyOp21
 70
     1
102
RTVSPropertyOp22
 70
     1
102
RTVSPropertyOp23
 70
     1
102
RTVSPropertyOp24
 70
     1
102
RTVSPropertyOp25
 70
     1
102
RTVSPropertyOp26
 70
     1
102
RTVSPropertyOp27
 70
     1
102
RTVSPropertyOp28
 70
     1
102
RTVSPropertyOp29
 70
     1
102
RTVSPropertyOp30
 70
     1
102
RTVSPropertyOp31
 70
     1
102
RTVSPropertyOp32
 70
     1
102
RTVSPropertyOp33
 70
     1
102
RTVSPropertyOp34
 70
     1
102
RTVSPropertyOp35
 70
     1
102
RTVSPropertyOp36
 70
     1
102
RTVSPropertyOp37
 70
     1
102
RTVSPropertyOp38
 70
     1
102
RTVSPropertyOp39
 70
     1
102
RTVSPropertyOp40
 70
     1
102
RTVSPropertyOp41
 70
     1
102
RTVSPropertyOp42
 70
     1
102
RTVSPropertyOp43
 70
     1
102
RTVSPropertyOp44
 70
     1
102
RTVSPropertyOp45
 70
     1
102
RTVSPropertyOp46
 70
     1
102
RTVSPropertyOp47
 70
     1
102
RTVSPropertyOp48
 70
     1
102
RTVSPropertyOp49
 70
     1
102
RTVSPropertyOp50
 70
     1
102
RTVSPropertyOp51
 70
     0
102
RTVSPropertyOp52
 70
     0
102
RTVSPropertyOp53
 70
     1
102
RTVSPropertyOp54
 70
     1
102
RTVSPropertyOp55
 70
     1
102
RTVSPropertyOp56
 70
     1
102
RTVSPropertyOp57
 70
     1
102
RTVSPropertyOp58
 70
     1
102
RTVSPropertyOp59
 70
     1
102
RTVSPropertyOp60
 70
     1
102
RTVSPropertyOp61
 70
     1
102
RTVSPropertyOp62
 70
     1
  0
XRECORD
  5
87DC
102
{ACAD_REACTORS
330
87DB
102
}
330
87DB
100
AcDbXrecord
280
     1
102
RTVSPost2010Prop28
280
     0
102
RTVSPost2010PropOp28
 70
     1
102
RTVSPost2010Prop29
280
     1
102
RTVSPost2010PropOp29
 70
     1
102
RTVSPost2010Prop30
280
     1
102
RTVSPost2010PropOp30
 70
     1
102
RTVSPost2010Prop31
280
     0
102
RTVSPost2010PropOp31
 70
     1
102
RTVSPost2010Prop32
280
     0
102
RTVSPost2010PropOp32
 70
     1
102
RTVSPost2010Prop33
280
     0
102
RTVSPost2010PropOp33
 70
     1
102
RTVSPost2010Prop34
280
     0
102
RTVSPost2010PropOp34
 70
     1
102
RTVSPost2010Prop35
280
     0
102
RTVSPost2010PropOp35
 70
     1
102
RTVSPost2010Prop36
280
     0
102
RTVSPost2010PropOp36
 70
     1
102
RTVSPost2010Prop37
 90
       50
102
RTVSPost2010PropOp37
 70
     1
102
RTVSPost2010Prop38
140
0.0
102
RTVSPost2010PropOp38
 70
     1
102
RTVSPost2010Prop39
140
1.0
102
RTVSPost2010PropOp39
 70
     1
102
RTVSPost2010Prop40
 90
        0
102
RTVSPost2010PropOp40
 70
     1
102
RTVSPost2010Prop41ColorIndex
 90
       18
102
RTVSPost2010Prop41ColorRGB
 90
        0
102
RTVSPost2010PropOp41
 70
     1
102
RTVSPost2010Prop42
 90
       50
102
RTVSPost2010PropOp42
 70
     1
102
RTVSPost2010Prop43
 90
        3
102
RTVSPost2010PropOp43
 70
     1
102
RTVSPost2010Prop44ColorIndex
 90
        5
102
RTVSPost2010Prop44ColorRGB
 90
      255
102
RTVSPost2010PropOp44
 70
     1
102
RTVSPost2010Prop45
280
     0
102
RTVSPost2010PropOp45
 70
     1
102
RTVSPost2010Prop46
 90
       50
102
RTVSPost2010PropOp46
 70
     1
102
RTVSPost2010Prop47
 90
       50
102
RTVSPost2010PropOp47
 70
     1
102
RTVSPost2010Prop48
 90
       50
102
RTVSPost2010PropOp48
 70
     1
102
RTVSPost2010Prop49
280
     0
102
RTVSPost2010PropOp49
 70
     1
102
RTVSPost2010Prop50
 90
       50
102
RTVSPost2010PropOp50
 70
     1
102
RTVSPost2010Prop51ColorIndex
 90
      256
102
RTVSPost2010Prop51ColorRGB
 90
-16777216
102
RTVSPost2010PropOp51
 70
     0
102
RTVSPost2010Prop52
140
1.0
102
RTVSPost2010PropOp52
 70
     0
102
RTVSPost2010Prop53
 90
        2
102
RTVSPost2010PropOp53
 70
     1
102
RTVSPost2010Prop54
  1
strokes_ogs.tif
102
RTVSPost2010PropOp54
 70
     1
102
RTVSPost2010Prop55
280
     0
102
RTVSPost2010PropOp55
 70
     1
102
RTVSPost2010Prop56
140
1.0
102
RTVSPost2010PropOp56
 70
     1
102
RTVSPost2010Prop57
140
1.0
102
RTVSPost2010PropOp57
 70
     1
102
RTVSPropertyOp0
 70
     1
102
RTVSPropertyOp1
 70
     1
102
RTVSPropertyOp2
 70
     1
102
RTVSPropertyOp3
 70
     1
102
RTVSPropertyOp4
 70
     1
102
RTVSPropertyOp5
 70
     1
102
RTVSPropertyOp6
 70
     1
102
RTVSPropertyOp7
 70
     1
102
RTVSPropertyOp8
 70
     1
102
RTVSPropertyOp9
 70
     1
102
RTVSPropertyOp10
 70
     1
102
RTVSPropertyOp11
 70
     1
102
RTVSPropertyOp12
 70
     1
102
RTVSPropertyOp13
 70
     1
102
RTVSPropertyOp14
 70
     1
102
RTVSPropertyOp15
 70
     1
102
RTVSPropertyOp16
 70
     1
102
RTVSPropertyOp17
 70
     1
102
RTVSPropertyOp18
 70
     1
102
RTVSPropertyOp19
 70
     1
102
RTVSPropertyOp20
 70
     1
102
RTVSPropertyOp21
 70
     1
102
RTVSPropertyOp22
 70
     1
102
RTVSPropertyOp23
 70
     1
102
RTVSPropertyOp24
 70
     1
102
RTVSPropertyOp25
 70
     1
102
RTVSPropertyOp26
 70
     1
102
RTVSPropertyOp27
 70
     1
102
RTVSPropertyOp28
 70
     1
102
RTVSPropertyOp29
 70
     1
102
RTVSPropertyOp30
 70
     1
102
RTVSPropertyOp31
 70
     1
102
RTVSPropertyOp32
 70
     1
102
RTVSPropertyOp33
 70
     1
102
RTVSPropertyOp34
 70
     1
102
RTVSPropertyOp35
 70
     1
102
RTVSPropertyOp36
 70
     1
102
RTVSPropertyOp37
 70
     1
102
RTVSPropertyOp38
 70
     1
102
RTVSPropertyOp39
 70
     1
102
RTVSPropertyOp40
 70
     1
102
RTVSPropertyOp41
 70
     1
102
RTVSPropertyOp42
 70
     1
102
RTVSPropertyOp43
 70
     1
102
RTVSPropertyOp44
 70
     1
102
RTVSPropertyOp45
 70
     1
102
RTVSPropertyOp46
 70
     1
102
RTVSPropertyOp47
 70
     1
102
RTVSPropertyOp48
 70
     1
102
RTVSPropertyOp49
 70
     1
102
RTVSPropertyOp50
 70
     1
102
RTVSPropertyOp51
 70
     0
102
RTVSPropertyOp52
 70
     0
102
RTVSPropertyOp53
 70
     1
102
RTVSPropertyOp54
 70
     1
102
RTVSPropertyOp55
 70
     1
102
RTVSPropertyOp56
 70
     1
102
RTVSPropertyOp57
 70
     1
102
RTVSPropertyOp58
 70
     1
102
RTVSPropertyOp59
 70
     1
102
RTVSPropertyOp60
 70
     1
102
RTVSPropertyOp61
 70
     1
102
RTVSPropertyOp62
 70
     1
  0
XRECORD
  5
87F4
102
{ACAD_REACTORS
330
87F3
102
}
330
87F3
100
AcDbXrecord
280
     1
102
RTVSPost2010Prop28
280
     0
102
RTVSPost2010PropOp28
 70
     1
102
RTVSPost2010Prop29
280
     1
102
RTVSPost2010PropOp29
 70
     1
102
RTVSPost2010Prop30
280
     1
102
RTVSPost2010PropOp30
 70
     1
102
RTVSPost2010Prop31
280
     0
102
RTVSPost2010PropOp31
 70
     1
102
RTVSPost2010Prop32
280
     0
102
RTVSPost2010PropOp32
 70
     1
102
RTVSPost2010Prop33
280
     0
102
RTVSPost2010PropOp33
 70
     1
102
RTVSPost2010Prop34
280
     0
102
RTVSPost2010PropOp34
 70
     1
102
RTVSPost2010Prop35
280
     0
102
RTVSPost2010PropOp35
 70
     1
102
RTVSPost2010Prop36
280
     0
102
RTVSPost2010PropOp36
 70
     1
102
RTVSPost2010Prop37
 90
       50
102
RTVSPost2010PropOp37
 70
     1
102
RTVSPost2010Prop38
140
0.0
102
RTVSPost2010PropOp38
 70
     1
102
RTVSPost2010Prop39
140
1.0
102
RTVSPost2010PropOp39
 70
     1
102
RTVSPost2010Prop40
 90
        0
102
RTVSPost2010PropOp40
 70
     1
102
RTVSPost2010Prop41ColorIndex
 90
       18
102
RTVSPost2010Prop41ColorRGB
 90
        0
102
RTVSPost2010PropOp41
 70
     1
102
RTVSPost2010Prop42
 90
       50
102
RTVSPost2010PropOp42
 70
     1
102
RTVSPost2010Prop43
 90
        3
102
RTVSPost2010PropOp43
 70
     1
102
RTVSPost2010Prop44ColorIndex
 90
        5
102
RTVSPost2010Prop44ColorRGB
 90
      255
102
RTVSPost2010PropOp44
 70
     1
102
RTVSPost2010Prop45
280
     0
102
RTVSPost2010PropOp45
 70
     1
102
RTVSPost2010Prop46
 90
       50
102
RTVSPost2010PropOp46
 70
     1
102
RTVSPost2010Prop47
 90
       50
102
RTVSPost2010PropOp47
 70
     1
102
RTVSPost2010Prop48
 90
       50
102
RTVSPost2010PropOp48
 70
     1
102
RTVSPost2010Prop49
280
     0
102
RTVSPost2010PropOp49
 70
     1
102
RTVSPost2010Prop50
 90
       50
102
RTVSPost2010PropOp50
 70
     1
102
RTVSPost2010Prop51ColorIndex
 90
      256
102
RTVSPost2010Prop51ColorRGB
 90
-16777216
102
RTVSPost2010PropOp51
 70
     0
102
RTVSPost2010Prop52
140
1.0
102
RTVSPost2010PropOp52
 70
     0
102
RTVSPost2010Prop53
 90
        2
102
RTVSPost2010PropOp53
 70
     1
102
RTVSPost2010Prop54
  1
strokes_ogs.tif
102
RTVSPost2010PropOp54
 70
     1
102
RTVSPost2010Prop55
280
     0
102
RTVSPost2010PropOp55
 70
     1
102
RTVSPost2010Prop56
140
1.0
102
RTVSPost2010PropOp56
 70
     1
102
RTVSPost2010Prop57
140
1.0
102
RTVSPost2010PropOp57
 70
     1
102
RTVSPropertyOp0
 70
     1
102
RTVSPropertyOp1
 70
     1
102
RTVSPropertyOp2
 70
     1
102
RTVSPropertyOp3
 70
     1
102
RTVSPropertyOp4
 70
     1
102
RTVSPropertyOp5
 70
     1
102
RTVSPropertyOp6
 70
     1
102
RTVSPropertyOp7
 70
     1
102
RTVSPropertyOp8
 70
     1
102
RTVSPropertyOp9
 70
     1
102
RTVSPropertyOp10
 70
     1
102
RTVSPropertyOp11
 70
     1
102
RTVSPropertyOp12
 70
     1
102
RTVSPropertyOp13
 70
     1
102
RTVSPropertyOp14
 70
     1
102
RTVSPropertyOp15
 70
     1
102
RTVSPropertyOp16
 70
     1
102
RTVSPropertyOp17
 70
     1
102
RTVSPropertyOp18
 70
     1
102
RTVSPropertyOp19
 70
     1
102
RTVSPropertyOp20
 70
     1
102
RTVSPropertyOp21
 70
     1
102
RTVSPropertyOp22
 70
     1
102
RTVSPropertyOp23
 70
     1
102
RTVSPropertyOp24
 70
     1
102
RTVSPropertyOp25
 70
     1
102
RTVSPropertyOp26
 70
     1
102
RTVSPropertyOp27
 70
     1
102
RTVSPropertyOp28
 70
     1
102
RTVSPropertyOp29
 70
     1
102
RTVSPropertyOp30
 70
     1
102
RTVSPropertyOp31
 70
     1
102
RTVSPropertyOp32
 70
     1
102
RTVSPropertyOp33
 70
     1
102
RTVSPropertyOp34
 70
     1
102
RTVSPropertyOp35
 70
     1
102
RTVSPropertyOp36
 70
     1
102
RTVSPropertyOp37
 70
     1
102
RTVSPropertyOp38
 70
     1
102
RTVSPropertyOp39
 70
     1
102
RTVSPropertyOp40
 70
     1
102
RTVSPropertyOp41
 70
     1
102
RTVSPropertyOp42
 70
     1
102
RTVSPropertyOp43
 70
     1
102
RTVSPropertyOp44
 70
     1
102
RTVSPropertyOp45
 70
     1
102
RTVSPropertyOp46
 70
     1
102
RTVSPropertyOp47
 70
     1
102
RTVSPropertyOp48
 70
     1
102
RTVSPropertyOp49
 70
     1
102
RTVSPropertyOp50
 70
     1
102
RTVSPropertyOp51
 70
     0
102
RTVSPropertyOp52
 70
     0
102
RTVSPropertyOp53
 70
     1
102
RTVSPropertyOp54
 70
     1
102
RTVSPropertyOp55
 70
     1
102
RTVSPropertyOp56
 70
     1
102
RTVSPropertyOp57
 70
     1
102
RTVSPropertyOp58
 70
     1
102
RTVSPropertyOp59
 70
     1
102
RTVSPropertyOp60
 70
     1
102
RTVSPropertyOp61
 70
     1
102
RTVSPropertyOp62
 70
     1
  0
ENDSEC
  0
EOF
