  0
SECTION
  2
HEADER
  9
$ACADVER
  1
AC1015
  9
$ACADMAINTVER
 70
    20
  9
$DWGCODEPAGE
  3
ANSI_932
  9
$INSBASE
 10
0.0
 20
0.0
 30
0.0
  9
$EXTMIN
 10
-0.2242870864283759
 20
-0.3150699547441036
 30
-0.0015258207003583
  9
$EXTMAX
 10
7350.224321312532
 20
10325.31511803427
 30
0.0000000349246037
  9
$LIMMIN
 10
0.0
 20
0.0
  9
$LIMMAX
 10
297.0
 20
210.0
  9
$ORTHOMODE
 70
     1
  9
$REGENMODE
 70
     1
  9
$FILLMODE
 70
     0
  9
$QTEXTMODE
 70
     0
  9
$MIRRTEXT
 70
     1
  9
$LTSCALE
 40
100.0
  9
$ATTMODE
 70
     1
  9
$TEXTSIZE
 40
180.0
  9
$TRACEWID
 40
0.05
  9
$TEXTSTYLE
  7
STANDARD
  9
$CLAYER
  8
3
  9
$CELTYPE
  6
ByLayer
  9
$CECOLOR
 62
   256
  9
$CELTSCALE
 40
1.0
  9
$DISPSILH
 70
     0
  9
$DIMSCALE
 40
35.0
  9
$DIMASZ
 40
2.0
  9
$DIMEXO
 40
0.5
  9
$DIMDLI
 40
10.0
  9
$DIMRND
 40
0.0
  9
$DIMDLE
 40
0.0
  9
$DIMEXE
 40
1.0
  9
$DIMTP
 40
1.0
  9
$DIMTM
 40
1.0
  9
$DIMTXT
 40
3.0
  9
$DIMCEN
 40
0.0
  9
$DIMTSZ
 40
0.0
  9
$DIMTOL
 70
     0
  9
$DIMLIM
 70
     0
  9
$DIMTIH
 70
     0
  9
$DIMTOH
 70
     0
  9
$DIMSE1
 70
     0
  9
$DIMSE2
 70
     0
  9
$DIMTAD
 70
     1
  9
$DIMZIN
 70
     8
  9
$DIMBLK
  1

  9
$DIMASO
 70
     1
  9
$DIMSHO
 70
     1
  9
$DIMPOST
  1

  9
$DIMAPOST
  1

  9
$DIMALT
 70
     0
  9
$DIMALTD
 70
     2
  9
$DIMALTF
 40
0.039
  9
$DIMLFAC
 40
1.0
  9
$DIMTOFL
 70
     1
  9
$DIMTVP
 40
0.0
  9
$DIMTIX
 70
     0
  9
$DIMSOXD
 70
     0
  9
$DIMSAH
 70
     1
  9
$DIMBLK1
  1
OPEN
  9
$DIMBLK2
  1
OPEN
  9
$DIMSTYLE
  2
IGA
  9
$DIMCLRD
 70
     0
  9
$DIMCLRE
 70
     0
  9
$DIMCLRT
 70
     0
  9
$DIMTFAC
 40
10.0
  9
$DIMGAP
 40
1.0
  9
$DIMJUST
 70
     0
  9
$DIMSD1
 70
     0
  9
$DIMSD2
 70
     0
  9
$DIMTOLJ
 70
     1
  9
$DIMTZIN
 70
     0
  9
$DIMALTZ
 70
     0
  9
$DIMALTTZ
 70
     0
  9
$DIMUPT
 70
     0
  9
$DIMDEC
 70
     4
  9
$DIMTDEC
 70
     4
  9
$DIMALTU
 70
     2
  9
$DIMALTTD
 70
     2
  9
$DIMTXSTY
  7
STANDARD
  9
$DIMAUNIT
 70
     0
  9
$DIMADEC
 70
     0
  9
$DIMALTRND
 40
0.0
  9
$DIMAZIN
 70
     0
  9
$DIMDSEP
 70
    46
  9
$DIMATFIT
 70
     3
  9
$DIMFRAC
 70
     0
  9
$DIMLDRBLK
  1
OPEN
  9
$DIMLUNIT
 70
     2
  9
$DIMLWD
 70
    -2
  9
$DIMLWE
 70
    -2
  9
$DIMTMOVE
 70
     0
  9
$LUNITS
 70
     2
  9
$LUPREC
 70
     3
  9
$SKETCHINC
 40
0.1
  9
$FILLETRAD
 40
50.0
  9
$AUNITS
 70
     0
  9
$AUPREC
 70
     0
  9
$MENU
  1
acad
  9
$ELEVATION
 40
0.0
  9
$PELEVATION
 40
0.0
  9
$THICKNESS
 40
0.0
  9
$LIMCHECK
 70
     0
  9
$CHAMFERA
 40
0.5
  9
$CHAMFERB
 40
0.5
  9
$CHAMFERC
 40
0.0
  9
$CHAMFERD
 40
0.0
  9
$SKPOLY
 70
     0
  9
$TDCREATE
 40
2451390.397703704
  9
$TDUCREATE
 40
2451390.022703704
  9
$TDUPDATE
 40
2460273.576940613
  9
$TDUUPDATE
 40
2460273.201940613
  9
$TDINDWG
 40
0.0438561111
  9
$TDUSRTIMER
 40
0.0438560995
  9
$USRTIMER
 70
     1
  9
$ANGBASE
 50
0.0
  9
$ANGDIR
 70
     0
  9
$PDMODE
 70
     0
  9
$PDSIZE
 40
0.0
  9
$PLINEWID
 40
0.0
  9
$SPLFRAME
 70
     0
  9
$SPLINETYPE
 70
     6
  9
$SPLINESEGS
 70
     8
  9
$HANDSEED
  5
89E9
  9
$SURFTAB1
 70
     6
  9
$SURFTAB2
 70
     6
  9
$SURFTYPE
 70
     6
  9
$SURFU
 70
     6
  9
$SURFV
 70
     6
  9
$UCSBASE
  2

  9
$UCSNAME
  2

  9
$UCSORG
 10
0.0
 20
0.0
 30
0.0
  9
$UCSXDIR
 10
1.0
 20
0.0
 30
0.0
  9
$UCSYDIR
 10
0.0
 20
1.0
 30
0.0
  9
$UCSORTHOREF
  2

  9
$UCSORTHOVIEW
 70
     0
  9
$UCSORGTOP
 10
0.0
 20
0.0
 30
0.0
  9
$UCSORGBOTTOM
 10
0.0
 20
0.0
 30
0.0
  9
$UCSORGLEFT
 10
0.0
 20
0.0
 30
0.0
  9
$UCSORGRIGHT
 10
0.0
 20
0.0
 30
0.0
  9
$UCSORGFRONT
 10
0.0
 20
0.0
 30
0.0
  9
$UCSORGBACK
 10
0.0
 20
0.0
 30
0.0
  9
$PUCSBASE
  2

  9
$PUCSNAME
  2

  9
$PUCSORG
 10
0.0
 20
0.0
 30
0.0
  9
$PUCSXDIR
 10
1.0
 20
0.0
 30
0.0
  9
$PUCSYDIR
 10
0.0
 20
1.0
 30
0.0
  9
$PUCSORTHOREF
  2

  9
$PUCSORTHOVIEW
 70
     0
  9
$PUCSORGTOP
 10
0.0
 20
0.0
 30
0.0
  9
$PUCSORGBOTTOM
 10
0.0
 20
0.0
 30
0.0
  9
$PUCSORGLEFT
 10
0.0
 20
0.0
 30
0.0
  9
$PUCSORGRIGHT
 10
0.0
 20
0.0
 30
0.0
  9
$PUCSORGFRONT
 10
0.0
 20
0.0
 30
0.0
  9
$PUCSORGBACK
 10
0.0
 20
0.0
 30
0.0
  9
$USERI1
 70
     0
  9
$USERI2
 70
     0
  9
$USERI3
 70
     0
  9
$USERI4
 70
     0
  9
$USERI5
 70
     0
  9
$USERR1
 40
0.0
  9
$USERR2
 40
0.0
  9
$USERR3
 40
0.0
  9
$USERR4
 40
0.0
  9
$USERR5
 40
0.0
  9
$WORLDVIEW
 70
     1
  9
$SHADEDGE
 70
     3
  9
$SHADEDIF
 70
    70
  9
$TILEMODE
 70
     1
  9
$MAXACTVP
 70
    16
  9
$PINSBASE
 10
0.0
 20
0.0
 30
0.0
  9
$PLIMCHECK
 70
     0
  9
$PEXTMIN
 10
1.000000000000000E+20
 20
1.000000000000000E+20
 30
1.000000000000000E+20
  9
$PEXTMAX
 10
-1.000000000000000E+20
 20
-1.000000000000000E+20
 30
-1.000000000000000E+20
  9
$PLIMMIN
 10
0.0
 20
0.0
  9
$PLIMMAX
 10
12.0
 20
9.0
  9
$UNITMODE
 70
     0
  9
$VISRETAIN
 70
     0
  9
$PLINEGEN
 70
     0
  9
$PSLTSCALE
 70
     1
  9
$TREEDEPTH
 70
  3020
  9
$CMLSTYLE
  2
Standard
  9
$CMLJUST
 70
     0
  9
$CMLSCALE
 40
1.0
  9
$PROXYGRAPHICS
 70
     1
  9
$MEASUREMENT
 70
     0
  9
$CELWEIGHT
370
    -1
  9
$ENDCAPS
280
     0
  9
$JOINSTYLE
280
     0
  9
$LWDISPLAY
290
     0
  9
$INSUNITS
 70
     0
  9
$HYPERLINKBASE
  1

  9
$STYLESHEET
  1

  9
$XEDIT
290
     1
  9
$CEPSNTYPE
380
     0
  9
$PSTYLEMODE
290
     1
  9
$FINGERPRINTGUID
  2
{73B12FA3-3AE5-47EE-9A68-C88D9E0CF900}
  9
$VERSIONGUID
  2
{3B51CC2B-9EF1-4E9F-918A-9E9847508370}
  9
$EXTNAMES
290
     1
  9
$PSVPSCALE
 40
0.0
  9
$OLESTARTUP
290
     0
  0
ENDSEC
  0
SECTION
  2
CLASSES
  0
CLASS
  1
ACDBDICTIONARYWDFLT
  2
AcDbDictionaryWithDefault
  3
ObjectDBX Classes
 90
        0
280
     0
281
     0
  0
CLASS
  1
MATERIAL
  2
AcDbMaterial
  3
ObjectDBX Classes
 90
     1153
280
     0
281
     0
  0
CLASS
  1
VISUALSTYLE
  2
AcDbVisualStyle
  3
ObjectDBX Classes
 90
     4095
280
     0
281
     0
  0
CLASS
  1
SCALE
  2
AcDbScale
  3
ObjectDBX Classes
 90
     1153
280
     0
281
     0
  0
CLASS
  1
TABLESTYLE
  2
AcDbTableStyle
  3
ObjectDBX Classes
 90
     4095
280
     0
281
     0
  0
CLASS
  1
MLEADERSTYLE
  2
AcDbMLeaderStyle
  3
ACDB_MLEADERSTYLE_CLASS
 90
     4095
280
     0
281
     0
  0
CLASS
  1
ACDBSECTIONVIEWSTYLE
  2
AcDbSectionViewStyle
  3
ObjectDBX Classes
 90
     1025
280
     0
281
     0
  0
CLASS
  1
ACDBDETAILVIEWSTYLE
  2
AcDbDetailViewStyle
  3
ObjectDBX Classes
 90
     1025
280
     0
281
     0
  0
CLASS
  1
SORTENTSTABLE
  2
AcDbSortentsTable
  3
ObjectDBX Classes
 90
        0
280
     0
281
     0
  0
CLASS
  1
DICTIONARYVAR
  2
AcDbDictionaryVar
  3
ObjectDBX Classes
 90
        0
280
     0
281
     0
  0
CLASS
  1
CELLSTYLEMAP
  2
AcDbCellStyleMap
  3
ObjectDBX Classes
 90
     1152
280
     0
281
     0
  0
CLASS
  1
ACDBPLACEHOLDER
  2
AcDbPlaceHolder
  3
ObjectDBX Classes
 90
        0
280
     0
281
     0
  0
CLASS
  1
LAYOUT
  2
AcDbLayout
  3
ObjectDBX Classes
 90
        0
280
     0
281
     0
  0
ENDSEC
  0
SECTION
  2
TABLES
  0
TABLE
  2
VPORT
  5
834C
330
0
100
AcDbSymbolTable
 70
     1
  0
VPORT
  5
83B8
330
834C
100
AcDbSymbolTableRecord
100
AcDbViewportTableRecord
  2
*ACTIVE
 70
     0
 10
0.0
 20
0.0
 11
1.0
 21
1.0
 12
3675.000017113053
 22
5162.500024039763
 13
0.0
 23
0.0
 14
10.0
 24
10.0
 15
10.0
 25
10.0
 16
0.0
 26
0.0
 36
1.0
 17
0.0
 27
0.0
 37
0.0
 40
10391.74948481712
 41
2.050213675213675
 42
50.0
 43
0.0
 44
0.0
 50
0.0
 51
0.0
 71
     0
 72
   100
 73
     1
 74
     0
 75
     0
 76
     0
 77
     0
 78
     0
281
     0
 65
     1
110
0.0
120
0.0
130
0.0
111
1.0
121
0.0
131
0.0
112
0.0
122
1.0
132
0.0
 79
     0
146
0.0
1001
ACAD_NAV_VCDISPLAY
1070
     3
  0
ENDTAB
  0
TABLE
  2
LTYPE
  5
8349
330
0
100
AcDbSymbolTable
 70
     3
  0
LTYPE
  5
839E
330
8349
100
AcDbSymbolTableRecord
100
AcDbLinetypeTableRecord
  2
ByBlock
 70
     0
  3

 72
    65
 73
     0
 40
0.0
  0
LTYPE
  5
839F
330
8349
100
AcDbSymbolTableRecord
100
AcDbLinetypeTableRecord
  2
ByLayer
 70
     0
  3

 72
    65
 73
     0
 40
0.0
  0
LTYPE
  5
83A0
330
8349
100
AcDbSymbolTableRecord
100
AcDbLinetypeTableRecord
  2
CONTINUOUS
 70
     0
  3
Solid line
 72
    65
 73
     0
 40
0.0
  0
LTYPE
  5
83B9
330
8349
100
AcDbSymbolTableRecord
100
AcDbLinetypeTableRecord
  2
CENTER
 70
     0
  3
____ _ ____ _ ____ _ ____ _ ____ _ ____ _ ____ 
 72
    65
 73
     4
 40
2.0
 49
1.25
 74
     0
 49
-0.25
 74
     0
 49
0.25
 74
     0
 49
-0.25
 74
     0
  0
ENDTAB
  0
TABLE
  2
LAYER
  5
8346
330
0
100
AcDbSymbolTable
 70
     6
  0
LAYER
  5
8398
102
{ACAD_XDICTIONARY
360
8993
102
}
330
8346
100
AcDbSymbolTableRecord
100
AcDbLayerTableRecord
  2
0
 70
     0
 62
     7
  6
CONTINUOUS
370
    -3
390
8353
  0
LAYER
  5
83B7
102
{ACAD_XDICTIONARY
360
8995
102
}
330
8346
100
AcDbSymbolTableRecord
100
AcDbLayerTableRecord
  2
3
 70
     0
 62
     2
  6
CONTINUOUS
370
    -3
390
8353
  0
LAYER
  5
83BA
102
{ACAD_XDICTIONARY
360
8997
102
}
330
8346
100
AcDbSymbolTableRecord
100
AcDbLayerTableRecord
  2
2
 70
     0
 62
     3
  6
CENTER
370
    -3
390
8353
  0
LAYER
  5
83BB
102
{ACAD_XDICTIONARY
360
8999
102
}
330
8346
100
AcDbSymbolTableRecord
100
AcDbLayerTableRecord
  2
1
 70
     0
 62
     4
  6
CONTINUOUS
370
    -3
390
8353
  0
LAYER
  5
83BC
102
{ACAD_XDICTIONARY
360
899B
102
}
330
8346
100
AcDbSymbolTableRecord
100
AcDbLayerTableRecord
  2
4
 70
     0
 62
     7
  6
CONTINUOUS
370
    -3
390
8353
  0
LAYER
  5
83BD
330
8346
100
AcDbSymbolTableRecord
100
AcDbLayerTableRecord
  2
DEFPOINTS
 70
     0
 62
     7
  6
CONTINUOUS
290
     0
370
    -3
390
8353
  0
ENDTAB
  0
TABLE
  2
STYLE
  5
8347
330
0
100
AcDbSymbolTable
 70
     2
  0
STYLE
  5
8399
330
8347
100
AcDbSymbolTableRecord
100
AcDbTextStyleTableRecord
  2
STANDARD
 70
     0
 40
0.0
 41
1.0
 50
0.0
 71
     0
 42
180.0
  3
simplex.shx
  4
extfont.shx
  0
STYLE
  5
839D
330
8347
100
AcDbSymbolTableRecord
100
AcDbTextStyleTableRecord
  2
Annotative
 70
     0
 40
0.0
 41
1.0
 50
0.0
 71
     0
 42
0.2
  3
txt
  4

1001
AcadAnnotative
1000
AnnotativeData
1002
{
1070
     1
1070
     1
1002
}
  0
ENDTAB
  0
TABLE
  2
VIEW
  5
834A
330
0
100
AcDbSymbolTable
 70
     0
  0
ENDTAB
  0
TABLE
  2
UCS
  5
834B
330
0
100
AcDbSymbolTable
 70
     0
  0
ENDTAB
  0
TABLE
  2
APPID
  5
834D
330
0
100
AcDbSymbolTable
 70
     8
  0
APPID
  5
839A
330
834D
100
AcDbSymbolTableRecord
100
AcDbRegAppTableRecord
  2
ACAD
 70
     0
  0
APPID
  5
83A1
330
834D
100
AcDbSymbolTableRecord
100
AcDbRegAppTableRecord
  2
AcadAnnotative
 70
     0
  0
APPID
  5
840D
330
834D
100
AcDbSymbolTableRecord
100
AcDbRegAppTableRecord
  2
ACAD_DSTYLE_DIMJAG
 70
     0
  0
APPID
  5
840E
330
834D
100
AcDbSymbolTableRecord
100
AcDbRegAppTableRecord
  2
ACAD_DSTYLE_DIMTALN
 70
     0
  0
APPID
  5
846F
330
834D
100
AcDbSymbolTableRecord
100
AcDbRegAppTableRecord
  2
AcadAnnoMonitorAlertIconDisabled
 70
     0
  0
APPID
  5
8470
330
834D
100
AcDbSymbolTableRecord
100
AcDbRegAppTableRecord
  2
ACAD_EXEMPT_FROM_CAD_STANDARDS
 70
     0
  0
APPID
  5
89A7
330
834D
100
AcDbSymbolTableRecord
100
AcDbRegAppTableRecord
  2
ACAD_NAV_VCDISPLAY
 70
     0
  0
APPID
  5
89E0
330
834D
100
AcDbSymbolTableRecord
100
AcDbRegAppTableRecord
  2
ACAD_MLEADERVER
 70
     0
  0
ENDTAB
  0
TABLE
  2
DIMSTYLE
  5
834E
330
0
100
AcDbSymbolTable
 70
     3
100
AcDbDimStyleTable
 71
     1
340
83BE
  0
DIMSTYLE
105
839B
330
834E
100
AcDbSymbolTableRecord
100
AcDbDimStyleTableRecord
  2
Standard
 70
     0
340
8399
  0
DIMSTYLE
105
839C
330
834E
100
AcDbSymbolTableRecord
100
AcDbDimStyleTableRecord
  2
Annotative
 70
     0
340
8399
1001
AcadAnnotative
1000
AnnotativeData
1002
{
1070
     1
1070
     1
1002
}
  0
DIMSTYLE
105
83BE
102
{ACAD_REACTORS
330
840F
330
841C
330
8429
330
8436
330
8443
330
8450
330
84D0
330
84DD
330
84EA
330
84F7
330
8504
330
8511
330
851E
330
852B
330
8538
330
8545
330
8552
330
855F
330
8571
330
8583
330
8590
330
859D
102
}
330
834E
100
AcDbSymbolTableRecord
100
AcDbDimStyleTableRecord
  2
IGA
 70
     0
 40
2.0
 41
2.0
 42
0.5
 43
10.0
 44
1.0
 47
1.0
 48
1.0
 73
     0
 74
     0
 77
     1
 78
     8
140
3.0
141
0.0
143
0.03937
146
10.0
147
1.0
173
     1
271
     3
272
     3
279
     2
284
     8
285
     8
286
     8
340
8399
  0
ENDTAB
  0
TABLE
  2
BLOCK_RECORD
  5
8345
330
0
100
AcDbSymbolTable
 70
    54
  0
BLOCK_RECORD
  5
83B3
102
{ACAD_XDICTIONARY
360
83FC
102
}
330
8345
100
AcDbSymbolTableRecord
100
AcDbBlockTableRecord
  2
*Model_Space
340
83B6
  0
BLOCK_RECORD
  5
83AF
330
8345
100
AcDbSymbolTableRecord
100
AcDbBlockTableRecord
  2
*Paper_Space
340
83B2
  0
BLOCK_RECORD
  5
83C2
330
8345
100
AcDbSymbolTableRecord
100
AcDbBlockTableRecord
  2
$MODEL_SPACE
340
0
  0
BLOCK_RECORD
  5
83C4
330
8345
100
AcDbSymbolTableRecord
100
AcDbBlockTableRecord
  2
$PAPER_SPACE
340
0
  0
BLOCK_RECORD
  5
83C6
330
8345
100
AcDbSymbolTableRecord
100
AcDbBlockTableRecord
  2
_OPEN
340
0
102
{BLKREFS
331
84CA
331
84CB
331
84D7
331
84D8
331
84E4
331
84E5
331
84F1
331
84F2
331
84FE
331
84FF
331
850B
331
850C
331
8518
331
8519
331
8525
331
8526
331
827A
331
827B
331
8283
331
8284
331
828C
331
828D
331
8295
331
8296
331
829E
331
829F
331
8457
331
8458
331
84A2
331
84A3
331
84AB
331
84AC
331
84B4
331
84B5
331
82A7
331
82A8
331
8406
331
8407
331
8423
331
8424
331
844A
331
844B
331
82B0
331
82B1
331
82B9
331
82BA
331
82C2
331
82C3
331
82CB
331
82CC
331
82D4
331
82D5
331
8152
331
8153
331
82DD
331
82DE
331
82E6
331
82E7
331
82EF
331
82F0
331
82F8
331
82F9
331
8301
331
8302
331
830A
331
830B
331
8313
331
8314
331
831C
331
831D
331
8328
331
8532
331
8533
331
853F
331
8540
331
854C
331
854D
331
8559
331
855A
331
8597
331
8598
331
85A4
331
85A5
331
85E6
331
85E7
331
88FF
331
898F
102
}
  0
BLOCK_RECORD
  5
83C8
330
8345
100
AcDbSymbolTableRecord
100
AcDbBlockTableRecord
  2
YA_N
340
0
102
{BLKREFS
331
7C11
331
7C32
331
7C3B
331
7C67
331
7C8E
102
}
  0
BLOCK_RECORD
  5
83CA
330
8345
100
AcDbSymbolTableRecord
100
AcDbBlockTableRecord
  2
*D4
340
0
  0
BLOCK_RECORD
  5
83CC
330
8345
100
AcDbSymbolTableRecord
100
AcDbBlockTableRecord
  2
*D5
340
0
  0
BLOCK_RECORD
  5
83CE
330
8345
100
AcDbSymbolTableRecord
100
AcDbBlockTableRecord
  2
*D6
340
0
  0
BLOCK_RECORD
  5
83D0
330
8345
100
AcDbSymbolTableRecord
100
AcDbBlockTableRecord
  2
*D7
340
0
  0
BLOCK_RECORD
  5
83D2
330
8345
100
AcDbSymbolTableRecord
100
AcDbBlockTableRecord
  2
*D8
340
0
  0
BLOCK_RECORD
  5
83D4
330
8345
100
AcDbSymbolTableRecord
100
AcDbBlockTableRecord
  2
*D9
340
0
  0
BLOCK_RECORD
  5
83D6
330
8345
100
AcDbSymbolTableRecord
100
AcDbBlockTableRecord
  2
*D10
340
0
  0
BLOCK_RECORD
  5
83D8
330
8345
100
AcDbSymbolTableRecord
100
AcDbBlockTableRecord
  2
*D11
340
0
  0
BLOCK_RECORD
  5
83DA
330
8345
100
AcDbSymbolTableRecord
100
AcDbBlockTableRecord
  2
*D12
340
0
  0
BLOCK_RECORD
  5
83DC
330
8345
100
AcDbSymbolTableRecord
100
AcDbBlockTableRecord
  2
*D13
340
0
  0
BLOCK_RECORD
  5
83DE
330
8345
100
AcDbSymbolTableRecord
100
AcDbBlockTableRecord
  2
*D14
340
0
  0
BLOCK_RECORD
  5
83E0
330
8345
100
AcDbSymbolTableRecord
100
AcDbBlockTableRecord
  2
*D15
340
0
  0
BLOCK_RECORD
  5
83E2
330
8345
100
AcDbSymbolTableRecord
100
AcDbBlockTableRecord
  2
*D16
340
0
  0
BLOCK_RECORD
  5
83E4
330
8345
100
AcDbSymbolTableRecord
100
AcDbBlockTableRecord
  2
*D17
340
0
  0
BLOCK_RECORD
  5
83E6
330
8345
100
AcDbSymbolTableRecord
100
AcDbBlockTableRecord
  2
*D18
340
0
  0
BLOCK_RECORD
  5
83E8
330
8345
100
AcDbSymbolTableRecord
100
AcDbBlockTableRecord
  2
*D19
340
0
  0
BLOCK_RECORD
  5
83EA
330
8345
100
AcDbSymbolTableRecord
100
AcDbBlockTableRecord
  2
*D20
340
0
  0
BLOCK_RECORD
  5
83EC
330
8345
100
AcDbSymbolTableRecord
100
AcDbBlockTableRecord
  2
*D21
340
0
  0
BLOCK_RECORD
  5
83EE
330
8345
100
AcDbSymbolTableRecord
100
AcDbBlockTableRecord
  2
*D22
340
0
  0
BLOCK_RECORD
  5
83F0
330
8345
100
AcDbSymbolTableRecord
100
AcDbBlockTableRecord
  2
*D23
340
0
  0
BLOCK_RECORD
  5
83F2
330
8345
100
AcDbSymbolTableRecord
100
AcDbBlockTableRecord
  2
_DOT
340
0
102
{BLKREFS
331
8327
102
}
  0
BLOCK_RECORD
  5
83F4
330
8345
100
AcDbSymbolTableRecord
100
AcDbBlockTableRecord
  2
_NONE
340
0
  0
BLOCK_RECORD
  5
83F6
330
8345
100
AcDbSymbolTableRecord
100
AcDbBlockTableRecord
  2
*D26
340
0
  0
BLOCK_RECORD
  5
83F8
330
8345
100
AcDbSymbolTableRecord
100
AcDbBlockTableRecord
  2
*D27
340
0
  0
BLOCK_RECORD
  5
8400
330
8345
100
AcDbSymbolTableRecord
100
AcDbBlockTableRecord
  2
*D28
340
0
  0
BLOCK_RECORD
  5
8410
330
8345
100
AcDbSymbolTableRecord
100
AcDbBlockTableRecord
  2
*D29
340
0
  0
BLOCK_RECORD
  5
841D
330
8345
100
AcDbSymbolTableRecord
100
AcDbBlockTableRecord
  2
*D30
340
0
  0
BLOCK_RECORD
  5
842A
330
8345
100
AcDbSymbolTableRecord
100
AcDbBlockTableRecord
  2
*D31
340
0
  0
BLOCK_RECORD
  5
8437
330
8345
100
AcDbSymbolTableRecord
100
AcDbBlockTableRecord
  2
*D32
340
0
  0
BLOCK_RECORD
  5
8444
330
8345
100
AcDbSymbolTableRecord
100
AcDbBlockTableRecord
  2
*D33
340
0
  0
BLOCK_RECORD
  5
8451
330
8345
100
AcDbSymbolTableRecord
100
AcDbBlockTableRecord
  2
*D34
340
0
  0
BLOCK_RECORD
  5
84BB
330
8345
100
AcDbSymbolTableRecord
100
AcDbBlockTableRecord
  2
*D35
340
0
  0
BLOCK_RECORD
  5
84D1
330
8345
100
AcDbSymbolTableRecord
100
AcDbBlockTableRecord
  2
*D36
340
0
  0
BLOCK_RECORD
  5
84DE
330
8345
100
AcDbSymbolTableRecord
100
AcDbBlockTableRecord
  2
*D37
340
0
  0
BLOCK_RECORD
  5
84EB
330
8345
100
AcDbSymbolTableRecord
100
AcDbBlockTableRecord
  2
*D38
340
0
  0
BLOCK_RECORD
  5
84F8
330
8345
100
AcDbSymbolTableRecord
100
AcDbBlockTableRecord
  2
*D39
340
0
  0
BLOCK_RECORD
  5
8505
330
8345
100
AcDbSymbolTableRecord
100
AcDbBlockTableRecord
  2
*D40
340
0
  0
BLOCK_RECORD
  5
8512
330
8345
100
AcDbSymbolTableRecord
100
AcDbBlockTableRecord
  2
*D41
340
0
  0
BLOCK_RECORD
  5
851F
330
8345
100
AcDbSymbolTableRecord
100
AcDbBlockTableRecord
  2
*D42
340
0
  0
BLOCK_RECORD
  5
852C
330
8345
100
AcDbSymbolTableRecord
100
AcDbBlockTableRecord
  2
*D43
340
0
  0
BLOCK_RECORD
  5
8539
330
8345
100
AcDbSymbolTableRecord
100
AcDbBlockTableRecord
  2
*D44
340
0
  0
BLOCK_RECORD
  5
8546
330
8345
100
AcDbSymbolTableRecord
100
AcDbBlockTableRecord
  2
*D45
340
0
  0
BLOCK_RECORD
  5
8553
330
8345
100
AcDbSymbolTableRecord
100
AcDbBlockTableRecord
  2
*D46
340
0
  0
BLOCK_RECORD
  5
8560
330
8345
100
AcDbSymbolTableRecord
100
AcDbBlockTableRecord
  2
*D47
340
0
  0
BLOCK_RECORD
  5
8572
330
8345
100
AcDbSymbolTableRecord
100
AcDbBlockTableRecord
  2
*D48
340
0
  0
BLOCK_RECORD
  5
8584
330
8345
100
AcDbSymbolTableRecord
100
AcDbBlockTableRecord
  2
*D49
340
0
  0
BLOCK_RECORD
  5
8591
330
8345
100
AcDbSymbolTableRecord
100
AcDbBlockTableRecord
  2
*D50
340
0
  0
BLOCK_RECORD
  5
859E
330
8345
100
AcDbSymbolTableRecord
100
AcDbBlockTableRecord
  2
*D51
340
0
  0
BLOCK_RECORD
  5
8621
330
8345
100
AcDbSymbolTableRecord
100
AcDbBlockTableRecord
  2
_Origin
340
0
  0
BLOCK_RECORD
  5
868C
330
8345
100
AcDbSymbolTableRecord
100
AcDbBlockTableRecord
  2
_DotSmall
340
0
102
{BLKREFS
331
8900
331
898E
102
}
  0
ENDTAB
  0
ENDSEC
  0
SECTION
  2
BLOCKS
  0
BLOCK
  5
83B4
330
83B3
100
AcDbEntity
  8
0
100
AcDbBlockBegin
  2
*Model_Space
 70
     0
 10
0.0
 20
0.0
 30
0.0
  3
*Model_Space
  1

  0
ENDBLK
  5
83B5
330
83B3
100
AcDbEntity
  8
0
100
AcDbBlockEnd
  0
BLOCK
  5
83B0
330
83AF
100
AcDbEntity
 67
     1
  8
0
100
AcDbBlockBegin
  2
*Paper_Space
 70
     0
 10
0.0
 20
0.0
 30
0.0
  3
*Paper_Space
  1

  0
ENDBLK
  5
83B1
330
83AF
100
AcDbEntity
 67
     1
  8
0
100
AcDbBlockEnd
  0
BLOCK
  5
83C3
330
83C2
100
AcDbEntity
  8
0
100
AcDbBlockBegin
  2
$MODEL_SPACE
 70
     0
 10
0.0
 20
0.0
 30
0.0
  3
$MODEL_SPACE
  1

  0
ENDBLK
  5
1B
330
83C2
100
AcDbEntity
  8
0
100
AcDbBlockEnd
  0
BLOCK
  5
83C5
330
83C4
100
AcDbEntity
  8
0
100
AcDbBlockBegin
  2
$PAPER_SPACE
 70
     0
 10
0.0
 20
0.0
 30
0.0
  3
$PAPER_SPACE
  1

  0
ENDBLK
  5
18
330
83C4
100
AcDbEntity
  8
0
100
AcDbBlockEnd
  0
BLOCK
  5
83C7
330
83C6
100
AcDbEntity
  8
0
100
AcDbBlockBegin
  2
_OPEN
 70
     0
 10
0.0
 20
0.0
 30
0.0
  3
_OPEN
  1

  0
LINE
  5
79FD
330
83C6
100
AcDbEntity
  8
0
  6
ByBlock
 62
     0
100
AcDbLine
 10
-1.0
 20
0.1666666666666666
 30
0.0
 11
0.0
 21
0.0
 31
0.0
  0
LINE
  5
79FE
330
83C6
100
AcDbEntity
  8
0
  6
ByBlock
 62
     0
100
AcDbLine
 10
0.0
 20
0.0
 30
0.0
 11
-1.0
 21
-0.1666666666666666
 31
0.0
  0
LINE
  5
79FF
330
83C6
100
AcDbEntity
  8
0
  6
ByBlock
 62
     0
100
AcDbLine
 10
0.0
 20
0.0
 30
0.0
 11
-1.0
 21
0.0
 31
0.0
  0
ENDBLK
  5
7A01
330
83C6
100
AcDbEntity
  8
0
100
AcDbBlockEnd
  0
BLOCK
  5
83C9
330
83C8
100
AcDbEntity
  8
0
100
AcDbBlockBegin
  2
YA_N
 70
     0
 10
0.0
 20
0.0
 30
0.0
  3
YA_N
  1

  0
ENDBLK
  5
7A0C
330
83C8
100
AcDbEntity
  8
0
100
AcDbBlockEnd
  0
BLOCK
  5
83CB
330
83CA
100
AcDbEntity
  8
0
100
AcDbBlockBegin
  2
*D4
 70
     1
 10
0.0
 20
0.0
 30
0.0
  3
*D4
  1

  0
LINE
  5
8277
330
83CA
100
AcDbEntity
  8
3
 62
     0
100
AcDbLine
 10
1238.826826817035
 20
4205.824713053003
 30
0.0
 11
1238.826826817035
 21
4423.433029337269
 31
0.0
  0
LINE
  5
8278
330
83CA
100
AcDbEntity
  8
3
 62
     0
100
AcDbLine
 10
2388.826826817036
 20
4205.824713053003
 30
0.0
 11
2388.826826817036
 21
4423.433029337269
 31
0.0
  0
LINE
  5
8279
330
83CA
100
AcDbEntity
  8
3
 62
     0
100
AcDbLine
 10
1308.826826817035
 20
4388.433029337271
 30
0.0
 11
2318.826826817035
 21
4388.433029337271
 31
0.0
  0
INSERT
  5
827A
330
83CA
100
AcDbEntity
  8
3
 62
     0
100
AcDbBlockReference
  2
_OPEN
 10
1238.826826817035
 20
4388.433029337271
 30
0.0
 41
70.0
 42
70.0
 43
70.0
 50
180.0
  0
INSERT
  5
827B
330
83CA
100
AcDbEntity
  8
3
 62
     0
100
AcDbBlockReference
  2
_OPEN
 10
2388.826826817036
 20
4388.433029337271
 30
0.0
 41
70.0
 42
70.0
 43
70.0
  0
TEXT
  5
8330
330
83CA
100
AcDbEntity
  8
3
 62
     0
100
AcDbText
 10
1603.83
 20
4290.079999999999
 30
0.0
 40
105.0
  1
1150
100
AcDbText
  0
POINT
  5
827D
330
83CA
100
AcDbEntity
  8
DEFPOINTS
 62
     0
100
AcDbPoint
 10
1238.826826817035
 20
4188.324713053003
 30
0.0
  0
POINT
  5
827E
330
83CA
100
AcDbEntity
  8
DEFPOINTS
 62
     0
100
AcDbPoint
 10
2388.826826817036
 20
4188.324713053003
 30
0.0
  0
POINT
  5
827F
330
83CA
100
AcDbEntity
  8
DEFPOINTS
 62
     0
100
AcDbPoint
 10
2388.826826817036
 20
4388.433029337271
 30
0.0
  0
ENDBLK
  5
7F65
330
83CA
100
AcDbEntity
  8
0
100
AcDbBlockEnd
  0
BLOCK
  5
83CD
330
83CC
100
AcDbEntity
  8
0
100
AcDbBlockBegin
  2
*D5
 70
     1
 10
0.0
 20
0.0
 30
0.0
  3
*D5
  1

  0
LINE
  5
8280
330
83CC
100
AcDbEntity
  8
3
 62
     0
100
AcDbLine
 10
1238.826826817035
 20
4205.824713053003
 30
0.0
 11
1238.826826817035
 21
4623.584680198772
 31
0.0
  0
LINE
  5
8281
330
83CC
100
AcDbEntity
  8
3
 62
     0
100
AcDbLine
 10
2436.826826817036
 20
4291.663713951737
 30
0.0
 11
2436.826826817036
 21
4623.584680198772
 31
0.0
  0
LINE
  5
8282
330
83CC
100
AcDbEntity
  8
3
 62
     0
100
AcDbLine
 10
1308.826826817035
 20
4588.58468019877
 30
0.0
 11
2366.826826817035
 21
4588.58468019877
 31
0.0
  0
INSERT
  5
8283
330
83CC
100
AcDbEntity
  8
3
 62
     0
100
AcDbBlockReference
  2
_OPEN
 10
1238.826826817035
 20
4588.58468019877
 30
0.0
 41
70.0
 42
70.0
 43
70.0
 50
180.0
  0
INSERT
  5
8284
330
83CC
100
AcDbEntity
  8
3
 62
     0
100
AcDbBlockReference
  2
_OPEN
 10
2436.826826817036
 20
4588.58468019877
 30
0.0
 41
70.0
 42
70.0
 43
70.0
  0
TEXT
  5
8331
330
83CC
100
AcDbEntity
  8
3
 62
     0
100
AcDbText
 10
1627.83
 20
4490.229999999999
 30
0.0
 40
105.0
  1
1198
100
AcDbText
  0
POINT
  5
8286
330
83CC
100
AcDbEntity
  8
DEFPOINTS
 62
     0
100
AcDbPoint
 10
1238.826826817035
 20
4188.324713053003
 30
0.0
  0
POINT
  5
8287
330
83CC
100
AcDbEntity
  8
DEFPOINTS
 62
     0
100
AcDbPoint
 10
2436.826826817036
 20
4274.163713951737
 30
0.0
  0
POINT
  5
8288
330
83CC
100
AcDbEntity
  8
DEFPOINTS
 62
     0
100
AcDbPoint
 10
2436.826826817036
 20
4588.58468019877
 30
0.0
  0
ENDBLK
  5
7F5A
330
83CC
100
AcDbEntity
  8
0
100
AcDbBlockEnd
  0
BLOCK
  5
83CF
330
83CE
100
AcDbEntity
  8
0
100
AcDbBlockBegin
  2
*D6
 70
     1
 10
0.0
 20
0.0
 30
0.0
  3
*D6
  1

  0
LINE
  5
8289
330
83CE
100
AcDbEntity
  8
3
 62
     0
100
AcDbLine
 10
3096.826826817036
 20
2315.824713053003
 30
0.0
 11
3096.826826817036
 21
2038.450225277922
 31
0.0
  0
LINE
  5
828A
330
83CE
100
AcDbEntity
  8
3
 62
     0
100
AcDbLine
 10
2436.826826817036
 20
2315.824713053003
 30
0.0
 11
2436.826826817036
 21
2038.450225277922
 31
0.0
  0
LINE
  5
828B
330
83CE
100
AcDbEntity
  8
3
 62
     0
100
AcDbLine
 10
3026.826826817035
 20
2073.450225277922
 30
0.0
 11
2506.826826817036
 21
2073.450225277922
 31
0.0
  0
INSERT
  5
828C
330
83CE
100
AcDbEntity
  8
3
 62
     0
100
AcDbBlockReference
  2
_OPEN
 10
3096.826826817036
 20
2073.450225277922
 30
0.0
 41
70.0
 42
70.0
 43
70.0
  0
INSERT
  5
828D
330
83CE
100
AcDbEntity
  8
3
 62
     0
100
AcDbBlockReference
  2
_OPEN
 10
2436.826826817036
 20
2073.450225277922
 30
0.0
 41
70.0
 42
70.0
 43
70.0
 50
180.0
  0
TEXT
  5
8332
330
83CE
100
AcDbEntity
  8
3
 62
     0
100
AcDbText
 10
2556.83
 20
1975.1
 30
0.0
 40
105.0
  1
660
100
AcDbText
  0
POINT
  5
828F
330
83CE
100
AcDbEntity
  8
DEFPOINTS
 62
     0
100
AcDbPoint
 10
3096.826826817036
 20
2333.324713053003
 30
0.0
  0
POINT
  5
8290
330
83CE
100
AcDbEntity
  8
DEFPOINTS
 62
     0
100
AcDbPoint
 10
2436.826826817036
 20
2333.324713053003
 30
0.0
  0
POINT
  5
8291
330
83CE
100
AcDbEntity
  8
DEFPOINTS
 62
     0
100
AcDbPoint
 10
2436.826826817036
 20
2073.450225277922
 30
0.0
  0
ENDBLK
  5
80E4
330
83CE
100
AcDbEntity
  8
0
100
AcDbBlockEnd
  0
BLOCK
  5
83D1
330
83D0
100
AcDbEntity
  8
0
100
AcDbBlockBegin
  2
*D7
 70
     1
 10
0.0
 20
0.0
 30
0.0
  3
*D7
  1

  0
LINE
  5
8292
330
83D0
100
AcDbEntity
  8
3
 62
     0
100
AcDbLine
 10
4706.51705109929
 20
4201.164986255099
 30
0.0
 11
4706.51705109929
 21
4483.443004574665
 31
0.0
  0
LINE
  5
8293
330
83D0
100
AcDbEntity
  8
3
 62
     0
100
AcDbLine
 10
6206.517051099289
 20
4195.316049593485
 30
0.0
 11
6206.517051099289
 21
4483.443004574665
 31
0.0
  0
LINE
  5
8294
330
83D0
100
AcDbEntity
  8
3
 62
     0
100
AcDbLine
 10
4776.51705109929
 20
4448.443004574665
 30
0.0
 11
6136.517051099289
 21
4448.443004574665
 31
0.0
  0
INSERT
  5
8295
330
83D0
100
AcDbEntity
  8
3
 62
     0
100
AcDbBlockReference
  2
_OPEN
 10
4706.51705109929
 20
4448.443004574665
 30
0.0
 41
70.0
 42
70.0
 43
70.0
 50
180.0
  0
INSERT
  5
8296
330
83D0
100
AcDbEntity
  8
3
 62
     0
100
AcDbBlockReference
  2
_OPEN
 10
6206.517051099289
 20
4448.443004574665
 30
0.0
 41
70.0
 42
70.0
 43
70.0
  0
TEXT
  5
8333
330
83D0
100
AcDbEntity
  8
3
 62
     0
100
AcDbText
 10
5246.52
 20
4350.09
 30
0.0
 40
105.0
  1
1500
100
AcDbText
  0
POINT
  5
8298
330
83D0
100
AcDbEntity
  8
DEFPOINTS
 62
     0
100
AcDbPoint
 10
4706.51705109929
 20
4183.664986255098
 30
0.0
  0
POINT
  5
8299
330
83D0
100
AcDbEntity
  8
DEFPOINTS
 62
     0
100
AcDbPoint
 10
6206.517051099289
 20
4177.816049593485
 30
0.0
  0
POINT
  5
829A
330
83D0
100
AcDbEntity
  8
DEFPOINTS
 62
     0
100
AcDbPoint
 10
6206.517051099289
 20
4448.443004574665
 30
0.0
  0
ENDBLK
  5
8019
330
83D0
100
AcDbEntity
  8
0
100
AcDbBlockEnd
  0
BLOCK
  5
83D3
330
83D2
100
AcDbEntity
  8
0
100
AcDbBlockBegin
  2
*D8
 70
     1
 10
0.0
 20
0.0
 30
0.0
  3
*D8
  1

  0
LINE
  5
829B
330
83D2
100
AcDbEntity
  8
3
 62
     0
100
AcDbLine
 10
5456.517051099289
 20
4632.420770395445
 30
0.0
 11
5456.517051099289
 21
4714.226996529467
 31
0.0
  0
LINE
  5
829C
330
83D2
100
AcDbEntity
  8
3
 62
     0
100
AcDbLine
 10
6371.517051099289
 20
3358.864190158198
 30
0.0
 11
6371.517051099289
 21
4714.226996529467
 31
0.0
  0
LINE
  5
829D
330
83D2
100
AcDbEntity
  8
3
 62
     0
100
AcDbLine
 10
5526.51705109929
 20
4679.226996529467
 30
0.0
 11
6301.517051099287
 21
4679.226996529467
 31
0.0
  0
INSERT
  5
829E
330
83D2
100
AcDbEntity
  8
3
 62
     0
100
AcDbBlockReference
  2
_OPEN
 10
5456.517051099289
 20
4679.226996529467
 30
0.0
 41
70.0
 42
70.0
 43
70.0
 50
180.0
  0
INSERT
  5
829F
330
83D2
100
AcDbEntity
  8
3
 62
     0
100
AcDbBlockReference
  2
_OPEN
 10
6371.517051099289
 20
4679.226996529467
 30
0.0
 41
70.0
 42
70.0
 43
70.0
  0
TEXT
  5
8334
330
83D2
100
AcDbEntity
  8
3
 62
     0
100
AcDbText
 10
5704.02
 20
4608.38
 30
0.0
 40
105.0
  1
(930)
100
AcDbText
  0
POINT
  5
82A1
330
83D2
100
AcDbEntity
  8
DEFPOINTS
 62
     0
100
AcDbPoint
 10
5456.517051099289
 20
4614.920770395445
 30
0.0
  0
POINT
  5
82A2
330
83D2
100
AcDbEntity
  8
DEFPOINTS
 62
     0
100
AcDbPoint
 10
6371.517051099289
 20
3341.364190158197
 30
0.0
  0
POINT
  5
82A3
330
83D2
100
AcDbEntity
  8
DEFPOINTS
 62
     0
100
AcDbPoint
 10
6371.517051099289
 20
4679.226996529467
 30
0.0
  0
ENDBLK
  5
811B
330
83D2
100
AcDbEntity
  8
0
100
AcDbBlockEnd
  0
BLOCK
  5
83D5
330
83D4
100
AcDbEntity
  8
0
100
AcDbBlockBegin
  2
*D9
 70
     1
 10
0.0
 20
0.0
 30
0.0
  3
*D9
  1

  0
LINE
  5
82A4
330
83D4
100
AcDbEntity
  8
3
 62
     0
100
AcDbLine
 10
6229.517051099293
 20
2868.324713053003
 30
0.0
 11
6609.299817454804
 21
2868.324713053003
 31
0.0
  0
LINE
  5
82A5
330
83D4
100
AcDbEntity
  8
3
 62
     0
100
AcDbLine
 10
6229.517051099293
 20
3988.324713053003
 30
0.0
 11
6609.299817454804
 21
3988.324713053003
 31
0.0
  0
LINE
  5
82A6
330
83D4
100
AcDbEntity
  8
3
 62
     0
100
AcDbLine
 10
6574.299817454805
 20
2938.324713053003
 30
0.0
 11
6574.299817454805
 21
3918.324713053003
 31
0.0
  0
INSERT
  5
82A7
330
83D4
100
AcDbEntity
  8
3
 62
     0
100
AcDbBlockReference
  2
_OPEN
 10
6574.299817454805
 20
2868.324713053003
 30
0.0
 41
70.0
 42
70.0
 43
70.0
 50
270.0
  0
INSERT
  5
82A8
330
83D4
100
AcDbEntity
  8
3
 62
     0
100
AcDbBlockReference
  2
_OPEN
 10
6574.299817454805
 20
3988.324713053003
 30
0.0
 41
70.0
 42
70.0
 43
70.0
 50
90.0
  0
TEXT
  5
8335
330
83D4
100
AcDbEntity
  8
3
 62
     0
100
AcDbText
 10
6276.8
 20
3242.47
 30
0.0
 40
105.0
  1
\U+03C61120
100
AcDbText
  0
POINT
  5
82AA
330
83D4
100
AcDbEntity
  8
DEFPOINTS
 62
     0
100
AcDbPoint
 10
6212.017051099293
 20
2868.324713053003
 30
0.0
  0
POINT
  5
82AB
330
83D4
100
AcDbEntity
  8
DEFPOINTS
 62
     0
100
AcDbPoint
 10
6212.017051099293
 20
3988.324713053003
 30
0.0
  0
POINT
  5
82AC
330
83D4
100
AcDbEntity
  8
DEFPOINTS
 62
     0
100
AcDbPoint
 10
6574.299817454805
 20
3988.324713053003
 30
0.0
  0
ENDBLK
  5
7FF8
330
83D4
100
AcDbEntity
  8
0
100
AcDbBlockEnd
  0
BLOCK
  5
83D7
330
83D6
100
AcDbEntity
  8
0
100
AcDbBlockBegin
  2
*D10
 70
     1
 10
0.0
 20
0.0
 30
0.0
  3
*D10
  1

  0
LINE
  5
82AD
330
83D6
100
AcDbEntity
  8
3
 62
     0
100
AcDbLine
 10
5456.51705109929
 20
2315.824713053003
 30
0.0
 11
5456.51705109929
 21
2026.885317261795
 31
0.0
  0
LINE
  5
82AE
330
83D6
100
AcDbEntity
  8
3
 62
     0
100
AcDbLine
 10
6274.51705109927
 20
2315.824713053003
 30
0.0
 11
6274.51705109927
 21
2026.885317261795
 31
0.0
  0
LINE
  5
82AF
330
83D6
100
AcDbEntity
  8
3
 62
     0
100
AcDbLine
 10
5526.51705109929
 20
2061.885317261795
 30
0.0
 11
6204.517051099268
 21
2061.885317261795
 31
0.0
  0
INSERT
  5
82B0
330
83D6
100
AcDbEntity
  8
3
 62
     0
100
AcDbBlockReference
  2
_OPEN
 10
5456.51705109929
 20
2061.885317261795
 30
0.0
 41
70.0
 42
70.0
 43
70.0
 50
180.0
  0
INSERT
  5
82B1
330
83D6
100
AcDbEntity
  8
3
 62
     0
100
AcDbBlockReference
  2
_OPEN
 10
6274.51705109927
 20
2061.885317261795
 30
0.0
 41
70.0
 42
70.0
 43
70.0
  0
TEXT
  5
8336
330
83D6
100
AcDbEntity
  8
3
 62
     0
100
AcDbText
 10
5655.52
 20
1963.54
 30
0.0
 40
105.0
  1
818
100
AcDbText
  0
POINT
  5
82B3
330
83D6
100
AcDbEntity
  8
DEFPOINTS
 62
     0
100
AcDbPoint
 10
5456.51705109929
 20
2333.324713053003
 30
0.0
  0
POINT
  5
82B4
330
83D6
100
AcDbEntity
  8
DEFPOINTS
 62
     0
100
AcDbPoint
 10
6274.51705109927
 20
2333.324713053003
 30
0.0
  0
POINT
  5
82B5
330
83D6
100
AcDbEntity
  8
DEFPOINTS
 62
     0
100
AcDbPoint
 10
6274.51705109927
 20
2061.885317261795
 30
0.0
  0
ENDBLK
  5
80EF
330
83D6
100
AcDbEntity
  8
0
100
AcDbBlockEnd
  0
BLOCK
  5
83D9
330
83D8
100
AcDbEntity
  8
0
100
AcDbBlockBegin
  2
*D11
 70
     1
 10
0.0
 20
0.0
 30
0.0
  3
*D11
  1

  0
LINE
  5
82B6
330
83D8
100
AcDbEntity
  8
3
 62
     0
100
AcDbLine
 10
836.8268268170357
 20
2315.824713053003
 30
0.0
 11
836.8268268170357
 21
2039.307229117808
 31
0.0
  0
LINE
  5
82B7
330
83D8
100
AcDbEntity
  8
3
 62
     0
100
AcDbLine
 10
2436.826826817036
 20
2315.824713053003
 30
0.0
 11
2436.826826817036
 21
2039.307229117808
 31
0.0
  0
LINE
  5
82B8
330
83D8
100
AcDbEntity
  8
3
 62
     0
100
AcDbLine
 10
906.8268268170356
 20
2074.307229117808
 30
0.0
 11
2366.826826817035
 21
2074.307229117808
 31
0.0
  0
INSERT
  5
82B9
330
83D8
100
AcDbEntity
  8
3
 62
     0
100
AcDbBlockReference
  2
_OPEN
 10
836.8268268170357
 20
2074.307229117808
 30
0.0
 41
70.0
 42
70.0
 43
70.0
 50
180.0
  0
INSERT
  5
82BA
330
83D8
100
AcDbEntity
  8
3
 62
     0
100
AcDbBlockReference
  2
_OPEN
 10
2436.826826817036
 20
2074.307229117808
 30
0.0
 41
70.0
 42
70.0
 43
70.0
  0
TEXT
  5
8337
330
83D8
100
AcDbEntity
  8
3
 62
     0
100
AcDbText
 10
1426.83
 20
1975.96
 30
0.0
 40
105.0
  1
1600
100
AcDbText
  0
POINT
  5
82BC
330
83D8
100
AcDbEntity
  8
DEFPOINTS
 62
     0
100
AcDbPoint
 10
836.8268268170357
 20
2333.324713053003
 30
0.0
  0
POINT
  5
82BD
330
83D8
100
AcDbEntity
  8
DEFPOINTS
 62
     0
100
AcDbPoint
 10
2436.826826817036
 20
2333.324713053003
 30
0.0
  0
POINT
  5
82BE
330
83D8
100
AcDbEntity
  8
DEFPOINTS
 62
     0
100
AcDbPoint
 10
2436.826826817036
 20
2074.307229117808
 30
0.0
  0
ENDBLK
  5
80D9
330
83D8
100
AcDbEntity
  8
0
100
AcDbBlockEnd
  0
BLOCK
  5
83DB
330
83DA
100
AcDbEntity
  8
0
100
AcDbBlockBegin
  2
*D12
 70
     1
 10
0.0
 20
0.0
 30
0.0
  3
*D12
  1

  0
LINE
  5
82BF
330
83DA
100
AcDbEntity
  8
3
 62
     0
100
AcDbLine
 10
4333.817051099289
 20
3825.824713053004
 30
0.0
 11
4333.817051099289
 21
4713.210345261056
 31
0.0
  0
LINE
  5
82C0
330
83DA
100
AcDbEntity
  8
3
 62
     0
100
AcDbLine
 10
5456.517051099289
 20
4632.420770395445
 30
0.0
 11
5456.517051099289
 21
4713.210345261056
 31
0.0
  0
LINE
  5
82C1
330
83DA
100
AcDbEntity
  8
3
 62
     0
100
AcDbLine
 10
4403.817051099291
 20
4678.210345261056
 30
0.0
 11
5386.517051099289
 21
4678.210345261056
 31
0.0
  0
INSERT
  5
82C2
330
83DA
100
AcDbEntity
  8
3
 62
     0
100
AcDbBlockReference
  2
_OPEN
 10
4333.817051099289
 20
4678.210345261056
 30
0.0
 41
70.0
 42
70.0
 43
70.0
 50
180.0
  0
INSERT
  5
82C3
330
83DA
100
AcDbEntity
  8
3
 62
     0
100
AcDbBlockReference
  2
_OPEN
 10
5456.517051099289
 20
4678.210345261056
 30
0.0
 41
70.0
 42
70.0
 43
70.0
  0
TEXT
  5
8338
330
83DA
100
AcDbEntity
  8
3
 62
     0
100
AcDbText
 10
4685.17
 20
4667.36
 30
0.0
 40
105.0
  1
MAX
100
AcDbText
  0
TEXT
  5
8339
330
83DA
100
AcDbEntity
  8
3
 62
     0
100
AcDbText
 10
4685.17
 20
4530.859999999999
 30
0.0
 40
105.0
  1
1120
100
AcDbText
  0
POINT
  5
82C5
330
83DA
100
AcDbEntity
  8
DEFPOINTS
 62
     0
100
AcDbPoint
 10
4333.817051099289
 20
3808.324713053004
 30
0.0
  0
POINT
  5
82C6
330
83DA
100
AcDbEntity
  8
DEFPOINTS
 62
     0
100
AcDbPoint
 10
5456.517051099289
 20
4614.920770395445
 30
0.0
  0
POINT
  5
82C7
330
83DA
100
AcDbEntity
  8
DEFPOINTS
 62
     0
100
AcDbPoint
 10
5456.517051099289
 20
4678.210345261056
 30
0.0
  0
ENDBLK
  5
8126
330
83DA
100
AcDbEntity
  8
0
100
AcDbBlockEnd
  0
BLOCK
  5
83DD
330
83DC
100
AcDbEntity
  8
0
100
AcDbBlockBegin
  2
*D13
 70
     1
 10
0.0
 20
0.0
 30
0.0
  3
*D13
  1

  0
LINE
  5
82C8
330
83DC
100
AcDbEntity
  8
3
 62
     0
100
AcDbLine
 10
1776.826826817035
 20
7668.223803734342
 30
0.0
 11
1776.826826817035
 21
7859.731164205459
 31
0.0
  0
LINE
  5
82C9
330
83DC
100
AcDbEntity
  8
3
 62
     0
100
AcDbLine
 10
3096.826826817036
 20
7668.223803734344
 30
0.0
 11
3096.826826817036
 21
7859.731164205459
 31
0.0
  0
LINE
  5
82CA
330
83DC
100
AcDbEntity
  8
3
 62
     0
100
AcDbLine
 10
1846.826826817036
 20
7824.731164205461
 30
0.0
 11
3026.826826817035
 21
7824.731164205461
 31
0.0
  0
INSERT
  5
82CB
330
83DC
100
AcDbEntity
  8
3
 62
     0
100
AcDbBlockReference
  2
_OPEN
 10
1776.826826817035
 20
7824.731164205461
 30
0.0
 41
70.0
 42
70.0
 43
70.0
 50
180.0
  0
INSERT
  5
82CC
330
83DC
100
AcDbEntity
  8
3
 62
     0
100
AcDbBlockReference
  2
_OPEN
 10
3096.826826817036
 20
7824.731164205461
 30
0.0
 41
70.0
 42
70.0
 43
70.0
  0
TEXT
  5
833A
330
83DC
100
AcDbEntity
  8
3
 62
     0
100
AcDbText
 10
2226.83
 20
7726.38
 30
0.0
 40
105.0
  1
1320
100
AcDbText
  0
POINT
  5
82CE
330
83DC
100
AcDbEntity
  8
DEFPOINTS
 62
     0
100
AcDbPoint
 10
1776.826826817035
 20
7650.723803734343
 30
0.0
  0
POINT
  5
82CF
330
83DC
100
AcDbEntity
  8
DEFPOINTS
 62
     0
100
AcDbPoint
 10
3096.826826817036
 20
7650.723803734343
 30
0.0
  0
POINT
  5
82D0
330
83DC
100
AcDbEntity
  8
DEFPOINTS
 62
     0
100
AcDbPoint
 10
3096.826826817036
 20
7824.731164205461
 30
0.0
  0
ENDBLK
  5
7F2E
330
83DC
100
AcDbEntity
  8
0
100
AcDbBlockEnd
  0
BLOCK
  5
83DF
330
83DE
100
AcDbEntity
  8
0
100
AcDbBlockBegin
  2
*D14
 70
     1
 10
0.0
 20
0.0
 30
0.0
  3
*D14
  1

  0
LINE
  5
82D1
330
83DE
100
AcDbEntity
  8
3
 62
     0
100
AcDbLine
 10
819.3268268170358
 20
6650.72380373434
 30
0.0
 11
586.0116974813247
 21
6650.72380373434
 31
0.0
  0
LINE
  5
82D2
330
83DE
100
AcDbEntity
  8
3
 62
     0
100
AcDbLine
 10
819.3268268170358
 20
5750.723803734341
 30
0.0
 11
586.0116974813244
 21
5750.723803734341
 31
0.0
  0
LINE
  5
82D3
330
83DE
100
AcDbEntity
  8
3
 62
     0
100
AcDbLine
 10
621.0116974813247
 20
6580.723803734341
 30
0.0
 11
621.0116974813245
 21
5820.723803734341
 31
0.0
  0
INSERT
  5
82D4
330
83DE
100
AcDbEntity
  8
3
 62
     0
100
AcDbBlockReference
  2
_OPEN
 10
621.0116974813247
 20
6650.72380373434
 30
0.0
 41
70.0
 42
70.0
 43
70.0
 50
90.0
  0
INSERT
  5
82D5
330
83DE
100
AcDbEntity
  8
3
 62
     0
100
AcDbBlockReference
  2
_OPEN
 10
621.0116974813245
 20
5750.723803734341
 30
0.0
 41
70.0
 42
70.0
 43
70.0
 50
270.0
  0
TEXT
  5
833B
330
83DE
100
AcDbEntity
  8
3
 62
     0
100
AcDbText
 10
323.512
 20
6014.87
 30
0.0
 40
105.0
  1
900
100
AcDbText
  0
POINT
  5
82D7
330
83DE
100
AcDbEntity
  8
DEFPOINTS
 62
     0
100
AcDbPoint
 10
836.8268268170357
 20
6650.72380373434
 30
0.0
  0
POINT
  5
82D8
330
83DE
100
AcDbEntity
  8
DEFPOINTS
 62
     0
100
AcDbPoint
 10
836.8268268170357
 20
5750.723803734341
 30
0.0
  0
POINT
  5
82D9
330
83DE
100
AcDbEntity
  8
DEFPOINTS
 62
     0
100
AcDbPoint
 10
621.0116974813245
 20
5750.723803734341
 30
0.0
  0
ENDBLK
  5
80B4
330
83DE
100
AcDbEntity
  8
0
100
AcDbBlockEnd
  0
BLOCK
  5
83E1
330
83E0
100
AcDbEntity
  8
0
100
AcDbBlockBegin
  2
*D15
 70
     1
 10
0.0
 20
0.0
 30
0.0
  3
*D15
  1

  0
LINE
  5
82DA
330
83E0
100
AcDbEntity
  8
3
 62
     0
100
AcDbLine
 10
836.8268268170357
 20
5733.223803734341
 30
0.0
 11
836.8268268170357
 21
5424.478611640394
 31
0.0
  0
LINE
  5
82DB
330
83E0
100
AcDbEntity
  8
3
 62
     0
100
AcDbLine
 10
3096.826826817036
 20
5733.223803734341
 30
0.0
 11
3096.826826817036
 21
5424.478611640394
 31
0.0
  0
LINE
  5
82DC
330
83E0
100
AcDbEntity
  8
3
 62
     0
100
AcDbLine
 10
906.8268268170356
 20
5459.478611640394
 30
0.0
 11
3026.826826817035
 21
5459.478611640394
 31
0.0
  0
INSERT
  5
82DD
330
83E0
100
AcDbEntity
  8
3
 62
     0
100
AcDbBlockReference
  2
_OPEN
 10
836.8268268170357
 20
5459.478611640394
 30
0.0
 41
70.0
 42
70.0
 43
70.0
 50
180.0
  0
INSERT
  5
82DE
330
83E0
100
AcDbEntity
  8
3
 62
     0
100
AcDbBlockReference
  2
_OPEN
 10
3096.826826817036
 20
5459.478611640394
 30
0.0
 41
70.0
 42
70.0
 43
70.0
  0
TEXT
  5
833C
330
83E0
100
AcDbEntity
  8
3
 62
     0
100
AcDbText
 10
1756.83
 20
5361.13
 30
0.0
 40
105.0
  1
2260
100
AcDbText
  0
POINT
  5
82E0
330
83E0
100
AcDbEntity
  8
DEFPOINTS
 62
     0
100
AcDbPoint
 10
836.8268268170357
 20
5750.723803734341
 30
0.0
  0
POINT
  5
82E1
330
83E0
100
AcDbEntity
  8
DEFPOINTS
 62
     0
100
AcDbPoint
 10
3096.826826817036
 20
5750.723803734341
 30
0.0
  0
POINT
  5
82E2
330
83E0
100
AcDbEntity
  8
DEFPOINTS
 62
     0
100
AcDbPoint
 10
3096.826826817036
 20
5459.478611640394
 30
0.0
  0
ENDBLK
  5
7F44
330
83E0
100
AcDbEntity
  8
0
100
AcDbBlockEnd
  0
BLOCK
  5
83E3
330
83E2
100
AcDbEntity
  8
0
100
AcDbBlockBegin
  2
*D16
 70
     1
 10
0.0
 20
0.0
 30
0.0
  3
*D16
  1

  0
LINE
  5
82E3
330
83E2
100
AcDbEntity
  8
3
 62
     0
100
AcDbLine
 10
3114.326826817036
 20
7650.723803734343
 30
0.0
 11
3612.125907775743
 21
7650.723803734343
 31
0.0
  0
LINE
  5
82E4
330
83E2
100
AcDbEntity
  8
3
 62
     0
100
AcDbLine
 10
3114.326826817036
 20
5750.723803734341
 30
0.0
 11
3612.125907775742
 21
5750.723803734341
 31
0.0
  0
LINE
  5
82E5
330
83E2
100
AcDbEntity
  8
3
 62
     0
100
AcDbLine
 10
3577.125907775743
 20
7580.723803734342
 30
0.0
 11
3577.125907775742
 21
5820.723803734342
 31
0.0
  0
INSERT
  5
82E6
330
83E2
100
AcDbEntity
  8
3
 62
     0
100
AcDbBlockReference
  2
_OPEN
 10
3577.125907775743
 20
7650.723803734343
 30
0.0
 41
70.0
 42
70.0
 43
70.0
 50
90.0
  0
INSERT
  5
82E7
330
83E2
100
AcDbEntity
  8
3
 62
     0
100
AcDbBlockReference
  2
_OPEN
 10
3577.125907775742
 20
5750.723803734341
 30
0.0
 41
70.0
 42
70.0
 43
70.0
 50
270.0
  0
TEXT
  5
833D
330
83E2
100
AcDbEntity
  8
3
 62
     0
100
AcDbText
 10
3279.63
 20
6514.870000000001
 30
0.0
 40
105.0
  1
1900
100
AcDbText
  0
POINT
  5
82E9
330
83E2
100
AcDbEntity
  8
DEFPOINTS
 62
     0
100
AcDbPoint
 10
3096.826826817036
 20
7650.723803734343
 30
0.0
  0
POINT
  5
82EA
330
83E2
100
AcDbEntity
  8
DEFPOINTS
 62
     0
100
AcDbPoint
 10
3096.826826817036
 20
5750.723803734341
 30
0.0
  0
POINT
  5
82EB
330
83E2
100
AcDbEntity
  8
DEFPOINTS
 62
     0
100
AcDbPoint
 10
3577.125907775742
 20
5750.723803734341
 30
0.0
  0
ENDBLK
  5
8131
330
83E2
100
AcDbEntity
  8
0
100
AcDbBlockEnd
  0
BLOCK
  5
83E5
330
83E4
100
AcDbEntity
  8
0
100
AcDbBlockBegin
  2
*D17
 70
     1
 10
0.0
 20
0.0
 30
0.0
  3
*D17
  1

  0
LINE
  5
82EC
330
83E4
100
AcDbEntity
  8
3
 62
     0
100
AcDbLine
 10
836.8268268170357
 20
6668.223803734341
 30
0.0
 11
836.8268268170361
 21
7859.731164205459
 31
0.0
  0
LINE
  5
82ED
330
83E4
100
AcDbEntity
  8
3
 62
     0
100
AcDbLine
 10
1776.826826817035
 20
7668.223803734341
 30
0.0
 11
1776.826826817035
 21
7859.731164205459
 31
0.0
  0
LINE
  5
82EE
330
83E4
100
AcDbEntity
  8
3
 62
     0
100
AcDbLine
 10
906.826826817036
 20
7824.731164205461
 30
0.0
 11
1706.826826817036
 21
7824.731164205461
 31
0.0
  0
INSERT
  5
82EF
330
83E4
100
AcDbEntity
  8
3
 62
     0
100
AcDbBlockReference
  2
_OPEN
 10
836.8268268170361
 20
7824.731164205461
 30
0.0
 41
70.0
 42
70.0
 43
70.0
 50
180.0
  0
INSERT
  5
82F0
330
83E4
100
AcDbEntity
  8
3
 62
     0
100
AcDbBlockReference
  2
_OPEN
 10
1776.826826817035
 20
7824.731164205461
 30
0.0
 41
70.0
 42
70.0
 43
70.0
  0
TEXT
  5
833E
330
83E4
100
AcDbEntity
  8
3
 62
     0
100
AcDbText
 10
1096.83
 20
7726.38
 30
0.0
 40
105.0
  1
940
100
AcDbText
  0
POINT
  5
82F2
330
83E4
100
AcDbEntity
  8
DEFPOINTS
 62
     0
100
AcDbPoint
 10
836.8268268170357
 20
6650.72380373434
 30
0.0
  0
POINT
  5
82F3
330
83E4
100
AcDbEntity
  8
DEFPOINTS
 62
     0
100
AcDbPoint
 10
1776.826826817035
 20
7650.723803734341
 30
0.0
  0
POINT
  5
82F4
330
83E4
100
AcDbEntity
  8
DEFPOINTS
 62
     0
100
AcDbPoint
 10
1776.826826817035
 20
7824.731164205461
 30
0.0
  0
ENDBLK
  5
7F23
330
83E4
100
AcDbEntity
  8
0
100
AcDbBlockEnd
  0
BLOCK
  5
83E7
330
83E6
100
AcDbEntity
  8
0
100
AcDbBlockBegin
  2
*D18
 70
     1
 10
0.0
 20
0.0
 30
0.0
  3
*D18
  1

  0
LINE
  5
82F5
330
83E6
100
AcDbEntity
  8
3
 62
     0
100
AcDbLine
 10
4374.517051099278
 20
2315.824713053003
 30
0.0
 11
4374.517051099278
 21
2027.46907111784
 31
0.0
  0
LINE
  5
82F6
330
83E6
100
AcDbEntity
  8
3
 62
     0
100
AcDbLine
 10
5456.51705109929
 20
2315.824713053003
 30
0.0
 11
5456.51705109929
 21
2027.46907111784
 31
0.0
  0
LINE
  5
82F7
330
83E6
100
AcDbEntity
  8
3
 62
     0
100
AcDbLine
 10
4444.517051099278
 20
2062.469071117841
 30
0.0
 11
5386.51705109929
 21
2062.469071117841
 31
0.0
  0
INSERT
  5
82F8
330
83E6
100
AcDbEntity
  8
3
 62
     0
100
AcDbBlockReference
  2
_OPEN
 10
4374.517051099278
 20
2062.469071117841
 30
0.0
 41
70.0
 42
70.0
 43
70.0
 50
180.0
  0
INSERT
  5
82F9
330
83E6
100
AcDbEntity
  8
3
 62
     0
100
AcDbBlockReference
  2
_OPEN
 10
5456.51705109929
 20
2062.469071117841
 30
0.0
 41
70.0
 42
70.0
 43
70.0
  0
TEXT
  5
833F
330
83E6
100
AcDbEntity
  8
3
 62
     0
100
AcDbText
 10
4705.52
 20
1964.12
 30
0.0
 40
105.0
  1
1082
100
AcDbText
  0
POINT
  5
82FB
330
83E6
100
AcDbEntity
  8
DEFPOINTS
 62
     0
100
AcDbPoint
 10
4374.517051099278
 20
2333.324713053003
 30
0.0
  0
POINT
  5
82FC
330
83E6
100
AcDbEntity
  8
DEFPOINTS
 62
     0
100
AcDbPoint
 10
5456.51705109929
 20
2333.324713053003
 30
0.0
  0
POINT
  5
82FD
330
83E6
100
AcDbEntity
  8
DEFPOINTS
 62
     0
100
AcDbPoint
 10
5456.51705109929
 20
2062.469071117841
 30
0.0
  0
ENDBLK
  5
80FA
330
83E6
100
AcDbEntity
  8
0
100
AcDbBlockEnd
  0
BLOCK
  5
83E9
330
83E8
100
AcDbEntity
  8
0
100
AcDbBlockBegin
  2
*D19
 70
     1
 10
0.0
 20
0.0
 30
0.0
  3
*D19
  1

  0
LINE
  5
82FE
330
83E8
100
AcDbEntity
  8
3
 62
     0
100
AcDbLine
 10
2436.826826817036
 20
4291.663713951737
 30
0.0
 11
2436.826826817036
 21
4623.584680198772
 31
0.0
  0
LINE
  5
82FF
330
83E8
100
AcDbEntity
  8
3
 62
     0
100
AcDbLine
 10
3241.826826817035
 20
3363.824713053003
 30
0.0
 11
3241.826826817035
 21
4623.584680198772
 31
0.0
  0
LINE
  5
8300
330
83E8
100
AcDbEntity
  8
3
 62
     0
100
AcDbLine
 10
2506.826826817036
 20
4588.58468019877
 30
0.0
 11
3171.826826817035
 21
4588.58468019877
 31
0.0
  0
INSERT
  5
8301
330
83E8
100
AcDbEntity
  8
3
 62
     0
100
AcDbBlockReference
  2
_OPEN
 10
2436.826826817036
 20
4588.58468019877
 30
0.0
 41
70.0
 42
70.0
 43
70.0
 50
180.0
  0
INSERT
  5
8302
330
83E8
100
AcDbEntity
  8
3
 62
     0
100
AcDbBlockReference
  2
_OPEN
 10
3241.826826817035
 20
4588.58468019877
 30
0.0
 41
70.0
 42
70.0
 43
70.0
  0
TEXT
  5
8340
330
83E8
100
AcDbEntity
  8
3
 62
     0
100
AcDbText
 10
2629.33
 20
4490.229999999999
 30
0.0
 40
105.0
  1
805
100
AcDbText
  0
POINT
  5
8304
330
83E8
100
AcDbEntity
  8
DEFPOINTS
 62
     0
100
AcDbPoint
 10
2436.826826817036
 20
4274.163713951737
 30
0.0
  0
POINT
  5
8305
330
83E8
100
AcDbEntity
  8
DEFPOINTS
 62
     0
100
AcDbPoint
 10
3241.826826817035
 20
3346.324713053003
 30
0.0
  0
POINT
  5
8306
330
83E8
100
AcDbEntity
  8
DEFPOINTS
 62
     0
100
AcDbPoint
 10
3241.826826817035
 20
4588.58468019877
 30
0.0
  0
ENDBLK
  5
7F70
330
83E8
100
AcDbEntity
  8
0
100
AcDbBlockEnd
  0
BLOCK
  5
83EB
330
83EA
100
AcDbEntity
  8
0
100
AcDbBlockBegin
  2
*D20
 70
     1
 10
0.0
 20
0.0
 30
0.0
  3
*D20
  1

  0
LINE
  5
8307
330
83EA
100
AcDbEntity
  8
3
 62
     0
100
AcDbLine
 10
3241.826826817035
 20
3363.824713053003
 30
0.0
 11
3241.826826817035
 21
4855.526081803353
 31
0.0
  0
LINE
  5
8308
330
83EA
100
AcDbEntity
  8
3
 62
     0
100
AcDbLine
 10
836.8268268170357
 20
2560.824713053003
 30
0.0
 11
836.8268268170361
 21
4855.526081803353
 31
0.0
  0
LINE
  5
8309
330
83EA
100
AcDbEntity
  8
3
 62
     0
100
AcDbLine
 10
3171.826826817035
 20
4820.526081803353
 30
0.0
 11
906.826826817036
 21
4820.526081803353
 31
0.0
  0
INSERT
  5
830A
330
83EA
100
AcDbEntity
  8
3
 62
     0
100
AcDbBlockReference
  2
_OPEN
 10
3241.826826817035
 20
4820.526081803353
 30
0.0
 41
70.0
 42
70.0
 43
70.0
  0
INSERT
  5
830B
330
83EA
100
AcDbEntity
  8
3
 62
     0
100
AcDbBlockReference
  2
_OPEN
 10
836.8268268170361
 20
4820.526081803353
 30
0.0
 41
70.0
 42
70.0
 43
70.0
 50
180.0
  0
TEXT
  5
8341
330
83EA
100
AcDbEntity
  8
3
 62
     0
100
AcDbText
 10
1829.33
 20
4722.18
 30
0.0
 40
105.0
  1
2405
100
AcDbText
  0
POINT
  5
830D
330
83EA
100
AcDbEntity
  8
DEFPOINTS
 62
     0
100
AcDbPoint
 10
3241.826826817035
 20
3346.324713053003
 30
0.0
  0
POINT
  5
830E
330
83EA
100
AcDbEntity
  8
DEFPOINTS
 62
     0
100
AcDbPoint
 10
836.8268268170357
 20
2543.324713053003
 30
0.0
  0
POINT
  5
830F
330
83EA
100
AcDbEntity
  8
DEFPOINTS
 62
     0
100
AcDbPoint
 10
836.8268268170361
 20
4820.526081803353
 30
0.0
  0
ENDBLK
  5
7F4F
330
83EA
100
AcDbEntity
  8
0
100
AcDbBlockEnd
  0
BLOCK
  5
83ED
330
83EC
100
AcDbEntity
  8
0
100
AcDbBlockBegin
  2
*D21
 70
     1
 10
0.0
 20
0.0
 30
0.0
  3
*D21
  1

  0
LINE
  5
8310
330
83EC
100
AcDbEntity
  8
3
 62
     0
100
AcDbLine
 10
2459.326826817036
 20
4188.324713053003
 30
0.0
 11
3542.813709636106
 21
4188.324713053003
 31
0.0
  0
LINE
  5
8311
330
83EC
100
AcDbEntity
  8
3
 62
     0
100
AcDbLine
 10
3361.107478270012
 20
3428.324713053003
 30
0.0
 11
3542.813709636106
 21
3428.324713053003
 31
0.0
  0
LINE
  5
8312
330
83EC
100
AcDbEntity
  8
3
 62
     0
100
AcDbLine
 10
3507.813709636106
 20
4118.324713053002
 30
0.0
 11
3507.813709636106
 21
3498.324713053003
 31
0.0
  0
INSERT
  5
8313
330
83EC
100
AcDbEntity
  8
3
 62
     0
100
AcDbBlockReference
  2
_OPEN
 10
3507.813709636106
 20
4188.324713053003
 30
0.0
 41
70.0
 42
70.0
 43
70.0
 50
90.0
  0
INSERT
  5
8314
330
83EC
100
AcDbEntity
  8
3
 62
     0
100
AcDbBlockReference
  2
_OPEN
 10
3507.813709636106
 20
3428.324713053003
 30
0.0
 41
70.0
 42
70.0
 43
70.0
 50
270.0
  0
TEXT
  5
8342
330
83EC
100
AcDbEntity
  8
3
 62
     0
100
AcDbText
 10
3210.31
 20
3622.47
 30
0.0
 40
105.0
  1
760
100
AcDbText
  0
POINT
  5
8316
330
83EC
100
AcDbEntity
  8
DEFPOINTS
 62
     0
100
AcDbPoint
 10
2441.826826817036
 20
4188.324713053003
 30
0.0
  0
POINT
  5
8317
330
83EC
100
AcDbEntity
  8
DEFPOINTS
 62
     0
100
AcDbPoint
 10
3343.607478270012
 20
3428.324713053003
 30
0.0
  0
POINT
  5
8318
330
83EC
100
AcDbEntity
  8
DEFPOINTS
 62
     0
100
AcDbPoint
 10
3507.813709636106
 20
3428.324713053003
 30
0.0
  0
ENDBLK
  5
7F7B
330
83EC
100
AcDbEntity
  8
0
100
AcDbBlockEnd
  0
BLOCK
  5
83EF
330
83EE
100
AcDbEntity
  8
0
100
AcDbBlockBegin
  2
*D22
 70
     1
 10
0.0
 20
0.0
 30
0.0
  3
*D22
  1

  0
LINE
  5
8319
330
83EE
100
AcDbEntity
  8
3
 62
     0
100
AcDbLine
 10
3361.107478270012
 20
3428.324713053003
 30
0.0
 11
3542.813709636106
 21
3428.324713053003
 31
0.0
  0
LINE
  5
831A
330
83EE
100
AcDbEntity
  8
3
 62
     0
100
AcDbLine
 10
3114.326826817036
 20
2418.324713053003
 30
0.0
 11
3542.813709636106
 21
2418.324713053003
 31
0.0
  0
LINE
  5
831B
330
83EE
100
AcDbEntity
  8
3
 62
     0
100
AcDbLine
 10
3507.813709636106
 20
3358.324713053003
 30
0.0
 11
3507.813709636106
 21
2488.324713053003
 31
0.0
  0
INSERT
  5
831C
330
83EE
100
AcDbEntity
  8
3
 62
     0
100
AcDbBlockReference
  2
_OPEN
 10
3507.813709636106
 20
3428.324713053003
 30
0.0
 41
70.0
 42
70.0
 43
70.0
 50
90.0
  0
INSERT
  5
831D
330
83EE
100
AcDbEntity
  8
3
 62
     0
100
AcDbBlockReference
  2
_OPEN
 10
3507.813709636106
 20
2418.324713053003
 30
0.0
 41
70.0
 42
70.0
 43
70.0
 50
270.0
  0
TEXT
  5
8343
330
83EE
100
AcDbEntity
  8
3
 62
     0
100
AcDbText
 10
3210.31
 20
2737.47
 30
0.0
 40
105.0
  1
1010
100
AcDbText
  0
POINT
  5
831F
330
83EE
100
AcDbEntity
  8
DEFPOINTS
 62
     0
100
AcDbPoint
 10
3343.607478270012
 20
3428.324713053003
 30
0.0
  0
POINT
  5
8320
330
83EE
100
AcDbEntity
  8
DEFPOINTS
 62
     0
100
AcDbPoint
 10
3096.826826817036
 20
2418.324713053003
 30
0.0
  0
POINT
  5
8321
330
83EE
100
AcDbEntity
  8
DEFPOINTS
 62
     0
100
AcDbPoint
 10
3507.813709636106
 20
2418.324713053003
 30
0.0
  0
ENDBLK
  5
7F86
330
83EE
100
AcDbEntity
  8
0
100
AcDbBlockEnd
  0
BLOCK
  5
83F1
330
83F0
100
AcDbEntity
  8
0
100
AcDbBlockBegin
  2
*D23
 70
     1
 10
0.0
 20
0.0
 30
0.0
  3
*D23
  1

  0
LINE
  5
8322
330
83F0
100
AcDbEntity
  8
3
 62
     0
100
AcDbLine
 10
3114.326826817036
 20
2398.324713053003
 30
0.0
 11
3542.813709636106
 21
2398.324713053003
 31
0.0
  0
LINE
  5
8323
330
83F0
100
AcDbEntity
  8
3
 62
     0
100
AcDbLine
 10
3114.326826817036
 20
2333.324713053003
 30
0.0
 11
3542.813709636106
 21
2333.324713053003
 31
0.0
  0
LINE
  5
8324
330
83F0
100
AcDbEntity
  8
3
 62
     0
100
AcDbLine
 10
3507.813709636106
 20
2468.324713053003
 30
0.0
 11
3507.813709636106
 21
2538.324713053004
 31
0.0
  0
LINE
  5
8325
330
83F0
100
AcDbEntity
  8
3
 62
     0
100
AcDbLine
 10
3507.813709636106
 20
2263.324713053003
 30
0.0
 11
3507.813709636106
 21
1953.324713053003
 31
0.0
  0
LINE
  5
8326
330
83F0
100
AcDbEntity
  8
3
 62
     0
100
AcDbLine
 10
3507.813709636106
 20
2398.324713053003
 30
0.0
 11
3507.813709636106
 21
2333.324713053003
 31
0.0
  0
INSERT
  5
8327
330
83F0
100
AcDbEntity
  8
3
 62
     0
100
AcDbBlockReference
  2
_DOT
 10
3507.813709636106
 20
2398.324713053003
 30
0.0
 41
70.0
 42
70.0
 43
70.0
 50
270.0
  0
INSERT
  5
8328
330
83F0
100
AcDbEntity
  8
3
 62
     0
100
AcDbBlockReference
  2
_OPEN
 10
3507.813709636106
 20
2333.324713053003
 30
0.0
 41
70.0
 42
70.0
 43
70.0
 50
90.0
  0
TEXT
  5
8344
330
83F0
100
AcDbEntity
  8
3
 62
     0
100
AcDbText
 10
3210.31
 20
1887.47
 30
0.0
 40
105.0
  1
65
100
AcDbText
  0
POINT
  5
832A
330
83F0
100
AcDbEntity
  8
DEFPOINTS
 62
     0
100
AcDbPoint
 10
3096.826826817036
 20
2398.324713053003
 30
0.0
  0
POINT
  5
832B
330
83F0
100
AcDbEntity
  8
DEFPOINTS
 62
     0
100
AcDbPoint
 10
3096.826826817036
 20
2333.324713053003
 30
0.0
  0
POINT
  5
832C
330
83F0
100
AcDbEntity
  8
DEFPOINTS
 62
     0
100
AcDbPoint
 10
3507.813709636106
 20
2333.324713053003
 30
0.0
  0
ENDBLK
  5
8099
330
83F0
100
AcDbEntity
  8
0
100
AcDbBlockEnd
  0
BLOCK
  5
83F3
330
83F2
100
AcDbEntity
  8
0
100
AcDbBlockBegin
  2
_DOT
 70
     0
 10
0.0
 20
0.0
 30
0.0
  3
_DOT
  1

  0
LWPOLYLINE
  5
809D
330
83F2
100
AcDbEntity
  8
0
  6
ByBlock
 62
     0
100
AcDbPolyline
 90
        2
 70
     1
 43
0.25
 10
-0.125
 20
0.0
 42
1.0
 10
0.125
 20
0.0
 42
1.0
  0
LINE
  5
80A1
330
83F2
100
AcDbEntity
  8
0
  6
ByBlock
 62
     0
100
AcDbLine
 10
-0.25
 20
0.0
 30
0.0
 11
-1.0
 21
0.0
 31
0.0
  0
ENDBLK
  5
807F
330
83F2
100
AcDbEntity
  8
0
100
AcDbBlockEnd
  0
BLOCK
  5
83F5
330
83F4
100
AcDbEntity
  8
0
100
AcDbBlockBegin
  2
_NONE
 70
     0
 10
0.0
 20
0.0
 30
0.0
  3
_NONE
  1

  0
CIRCLE
  5
8140
330
83F4
100
AcDbEntity
  8
0
  6
ByBlock
 62
     0
100
AcDbCircle
 10
0.0
 20
0.0
 30
0.0
 40
0.25
  0
ENDBLK
  5
8141
330
83F4
100
AcDbEntity
  8
0
100
AcDbBlockEnd
  0
BLOCK
  5
83F7
330
83F6
100
AcDbEntity
  8
0
100
AcDbBlockBegin
  2
*D26
 70
     1
 10
0.0
 20
0.0
 30
0.0
  3
*D26
  1

  0
LINE
  5
816D
330
83F6
100
AcDbEntity
  8
0
  6
ByBlock
 62
     0
100
AcDbLine
 10
3511.250646108514
 20
2398.324713053003
 30
0.0
 11
3511.250646108514
 21
2398.324713053003
 31
0.0
  0
LINE
  5
816E
330
83F6
100
AcDbEntity
  8
0
  6
ByBlock
 62
     0
100
AcDbLine
 10
3511.250646108514
 20
2418.324713053003
 30
0.0
 11
3511.250646108514
 21
2558.324713053004
 31
0.0
  0
TEXT
  5
816F
330
83F6
100
AcDbEntity
  8
3
 62
     0
100
AcDbText
 10
3713.750646108513
 20
2161.324713053003
 30
0.0
 40
105.0
  1
   (20)
 50
90.0
100
AcDbText
  0
LINE
  5
8170
330
83F6
100
AcDbEntity
  8
0
  6
ByBlock
 62
     0
100
AcDbLine
 10
3511.250646108514
 20
2398.324713053003
 30
0.0
 11
3511.250646108514
 21
2418.324713053003
 31
0.0
  0
POINT
  5
8171
330
83F6
100
AcDbEntity
  8
DEFPOINTS
  6
ByBlock
 62
     0
100
AcDbPoint
 10
3096.826826817036
 20
2398.324713053003
 30
0.0
  0
POINT
  5
8172
330
83F6
100
AcDbEntity
  8
DEFPOINTS
  6
ByBlock
 62
     0
100
AcDbPoint
 10
3096.826826817036
 20
2418.324713053003
 30
0.0
  0
POINT
  5
8173
330
83F6
100
AcDbEntity
  8
DEFPOINTS
  6
ByBlock
 62
     0
100
AcDbPoint
 10
3511.250646108514
 20
2418.324713053003
 30
0.0
  0
ENDBLK
  5
8174
330
83F6
100
AcDbEntity
  8
0
100
AcDbBlockEnd
  0
BLOCK
  5
83F9
330
83F8
100
AcDbEntity
  8
0
100
AcDbBlockBegin
  2
*D27
 70
     1
 10
0.0
 20
0.0
 30
0.0
  3
*D27
  1

  0
LINE
  5
814F
330
83F8
100
AcDbEntity
  8
0
  6
ByBlock
 62
     0
100
AcDbLine
 10
3114.326826817036
 20
2333.324713053003
 30
0.0
 11
3842.744530869008
 21
2333.324713053003
 31
0.0
  0
LINE
  5
8150
330
83F8
100
AcDbEntity
  8
0
  6
ByBlock
 62
     0
100
AcDbLine
 10
2476.826826817036
 20
4188.324713053003
 30
0.0
 11
3842.744530869008
 21
4188.324713053003
 31
0.0
  0
LINE
  5
8151
330
83F8
100
AcDbEntity
  8
0
  6
ByBlock
 62
     0
100
AcDbLine
 10
3807.744530869007
 20
2403.324713053003
 30
0.0
 11
3807.744530869007
 21
4118.324713053002
 31
0.0
  0
INSERT
  5
8152
330
83F8
100
AcDbEntity
  8
0
  6
ByBlock
 62
     0
100
AcDbBlockReference
  2
_OPEN
 10
3807.744530869007
 20
2333.324713053003
 30
0.0
 41
70.0
 42
70.0
 43
70.0
 50
270.0
  0
INSERT
  5
8153
330
83F8
100
AcDbEntity
  8
0
  6
ByBlock
 62
     0
100
AcDbBlockReference
  2
_OPEN
 10
3807.744530869007
 20
4188.324713053003
 30
0.0
 41
70.0
 42
70.0
 43
70.0
 50
90.0
  0
TEXT
  5
8154
330
83F8
100
AcDbEntity
  8
3
 62
     0
100
AcDbText
 10
3727.744530869007
 20
3018.324713053003
 30
0.0
 40
105.0
  1
(1855)
 50
90.0
100
AcDbText
  0
POINT
  5
8155
330
83F8
100
AcDbEntity
  8
DEFPOINTS
  6
ByBlock
 62
     0
100
AcDbPoint
 10
3096.826826817036
 20
2333.324713053003
 30
0.0
  0
POINT
  5
8156
330
83F8
100
AcDbEntity
  8
DEFPOINTS
  6
ByBlock
 62
     0
100
AcDbPoint
 10
2459.326826817036
 20
4188.324713053003
 30
0.0
  0
POINT
  5
8157
330
83F8
100
AcDbEntity
  8
DEFPOINTS
  6
ByBlock
 62
     0
100
AcDbPoint
 10
3807.744530869007
 20
4188.324713053003
 30
0.0
  0
ENDBLK
  5
8158
330
83F8
100
AcDbEntity
  8
0
100
AcDbBlockEnd
  0
BLOCK
  5
8401
330
8400
100
AcDbEntity
  8
0
100
AcDbBlockBegin
  2
*D28
 70
     1
 10
0.0
 20
0.0
 30
0.0
  3
*D28
  1

  0
LINE
  5
8403
330
8400
100
AcDbEntity
  8
3
 62
     0
370
    -2
100
AcDbLine
 10
6224.01705109929
 20
3988.324713053003
 30
0.0
 11
6778.477504412382
 21
3988.324713053003
 31
0.0
  0
LINE
  5
8404
330
8400
100
AcDbEntity
  8
3
 62
     0
370
    -2
100
AcDbLine
 10
6224.01705109929
 20
2868.324713053003
 30
0.0
 11
6778.477504412382
 21
2868.324713053003
 31
0.0
  0
LINE
  5
8405
330
8400
100
AcDbEntity
  8
3
 62
     0
370
    -2
100
AcDbLine
 10
6743.477504412382
 20
3918.324713053003
 30
0.0
 11
6743.477504412382
 21
2938.324713053003
 31
0.0
  0
INSERT
  5
8406
330
8400
100
AcDbEntity
  8
3
 62
     0
370
    -2
100
AcDbBlockReference
  2
_OPEN
 10
6743.477504412382
 20
3988.324713053003
 30
0.0
 41
70.0
 42
70.0
 43
70.0
 50
90.0
  0
INSERT
  5
8407
330
8400
100
AcDbEntity
  8
3
 62
     0
370
    -2
100
AcDbBlockReference
  2
_OPEN
 10
6743.477504412382
 20
2868.324713053003
 30
0.0
 41
70.0
 42
70.0
 43
70.0
 50
270.0
  0
MTEXT
  5
8408
330
8400
100
AcDbEntity
  8
3
 62
     0
100
AcDbMText
 10
6628.47750441238
 20
3428.324713053005
 30
0.0
 40
105.0
 41
0.0
 71
     5
 72
     1
  1
\A1;(1120)
 11
0.0000000000000001
 21
1.0
 31
0.0
 73
     1
 44
1.0
1001
ACAD
1000
MTEXTBEGIN
1070
    73
1070
     1
1070
    44
1040
1.0
1070
    74
1070
     0
1000
MTEXTEND
  0
POINT
  5
8409
330
8400
100
AcDbEntity
  8
DEFPOINTS
 62
     0
100
AcDbPoint
 10
6206.517051099289
 20
3988.324713053003
 30
0.0
  0
POINT
  5
840A
330
8400
100
AcDbEntity
  8
DEFPOINTS
 62
     0
100
AcDbPoint
 10
6206.517051099289
 20
2868.324713053003
 30
0.0
  0
POINT
  5
840B
330
8400
100
AcDbEntity
  8
DEFPOINTS
 62
     0
100
AcDbPoint
 10
6743.477504412382
 20
2868.324713053003
 30
0.0
  0
ENDBLK
  5
8402
330
8400
100
AcDbEntity
  8
0
100
AcDbBlockEnd
  0
BLOCK
  5
8411
330
8410
100
AcDbEntity
  8
0
100
AcDbBlockBegin
  2
*D29
 70
     1
 10
0.0
 20
0.0
 30
0.0
  3
*D29
  1

  0
LINE
  5
849F
330
8410
100
AcDbEntity
  8
3
 62
     0
370
    -2
100
AcDbLine
 10
6224.01705109929
 20
2868.324713053003
 30
0.0
 11
6708.074201960124
 21
2868.324713053003
 31
0.0
  0
LINE
  5
84A0
330
8410
100
AcDbEntity
  8
3
 62
     0
370
    -2
100
AcDbLine
 10
6224.01705109929
 20
3988.324713053003
 30
0.0
 11
6708.074201960124
 21
3988.324713053003
 31
0.0
  0
LINE
  5
84A1
330
8410
100
AcDbEntity
  8
3
 62
     0
370
    -2
100
AcDbLine
 10
6673.074201960123
 20
2938.324713053003
 30
0.0
 11
6673.074201960123
 21
3918.324713053003
 31
0.0
  0
INSERT
  5
84A2
330
8410
100
AcDbEntity
  8
3
 62
     0
370
    -2
100
AcDbBlockReference
  2
_OPEN
 10
6673.074201960123
 20
2868.324713053003
 30
0.0
 41
70.0
 42
70.0
 43
70.0
 50
270.0
  0
INSERT
  5
84A3
330
8410
100
AcDbEntity
  8
3
 62
     0
370
    -2
100
AcDbBlockReference
  2
_OPEN
 10
6673.074201960123
 20
3988.324713053003
 30
0.0
 41
70.0
 42
70.0
 43
70.0
 50
90.0
  0
MTEXT
  5
84A4
330
8410
100
AcDbEntity
  8
3
 62
     0
100
AcDbMText
 10
6585.574201960124
 20
3428.324713053005
 30
0.0
 40
105.0
 41
0.0
 71
     5
 72
     1
  1
\A1;\U+03C61120
 11
0.0000000000000001
 21
1.0
 31
0.0
 73
     1
 44
1.0
1001
ACAD
1000
MTEXTBEGIN
1070
    73
1070
     1
1070
    44
1040
1.0
1070
    74
1070
     0
1000
MTEXTEND
  0
POINT
  5
84A5
330
8410
100
AcDbEntity
  8
DEFPOINTS
 62
     0
100
AcDbPoint
 10
6206.51705109929
 20
2868.324713053003
 30
0.0
  0
POINT
  5
84A6
330
8410
100
AcDbEntity
  8
DEFPOINTS
 62
     0
100
AcDbPoint
 10
6206.517051099289
 20
3988.324713053003
 30
0.0
  0
POINT
  5
84A7
330
8410
100
AcDbEntity
  8
DEFPOINTS
 62
     0
100
AcDbPoint
 10
6673.074201960123
 20
3988.324713053003
 30
0.0
  0
ENDBLK
  5
8412
330
8410
100
AcDbEntity
  8
0
100
AcDbBlockEnd
  0
BLOCK
  5
841E
330
841D
100
AcDbEntity
  8
0
100
AcDbBlockBegin
  2
*D30
 70
     1
 10
0.0
 20
0.0
 30
0.0
  3
*D30
  1

  0
LINE
  5
8420
330
841D
100
AcDbEntity
  8
3
 62
     0
370
    -2
100
AcDbLine
 10
4706.517051099289
 20
4205.824713053003
 30
0.0
 11
4706.517051099289
 21
4483.443004574665
 31
0.0
  0
LINE
  5
8421
330
841D
100
AcDbEntity
  8
3
 62
     0
370
    -2
100
AcDbLine
 10
6206.517051099289
 20
4205.824713053003
 30
0.0
 11
6206.517051099289
 21
4483.443004574665
 31
0.0
  0
LINE
  5
8422
330
841D
100
AcDbEntity
  8
3
 62
     0
370
    -2
100
AcDbLine
 10
4776.517051099289
 20
4448.443004574665
 30
0.0
 11
6136.517051099289
 21
4448.443004574665
 31
0.0
  0
INSERT
  5
8423
330
841D
100
AcDbEntity
  8
3
 62
     0
370
    -2
100
AcDbBlockReference
  2
_OPEN
 10
4706.517051099289
 20
4448.443004574665
 30
0.0
 41
70.0
 42
70.0
 43
70.0
 50
180.0
  0
INSERT
  5
8424
330
841D
100
AcDbEntity
  8
3
 62
     0
370
    -2
100
AcDbBlockReference
  2
_OPEN
 10
6206.517051099289
 20
4448.443004574665
 30
0.0
 41
70.0
 42
70.0
 43
70.0
  0
MTEXT
  5
8425
330
841D
100
AcDbEntity
  8
3
 62
     0
100
AcDbMText
 10
5456.517051099289
 20
4535.943004574664
 30
0.0
 40
105.0
 41
0.0
 71
     5
 72
     1
  1
\A1;1500
 73
     1
 44
1.0
1001
ACAD
1000
MTEXTBEGIN
1070
    73
1070
     1
1070
    44
1040
1.0
1070
    74
1070
     0
1000
MTEXTEND
  0
POINT
  5
8426
330
841D
100
AcDbEntity
  8
DEFPOINTS
 62
     0
100
AcDbPoint
 10
4706.517051099289
 20
4188.324713053003
 30
0.0
  0
POINT
  5
8427
330
841D
100
AcDbEntity
  8
DEFPOINTS
 62
     0
100
AcDbPoint
 10
6206.517051099289
 20
4188.324713053003
 30
0.0
  0
POINT
  5
8428
330
841D
100
AcDbEntity
  8
DEFPOINTS
 62
     0
100
AcDbPoint
 10
6206.517051099289
 20
4448.443004574665
 30
0.0
  0
ENDBLK
  5
841F
330
841D
100
AcDbEntity
  8
0
100
AcDbBlockEnd
  0
BLOCK
  5
842B
330
842A
100
AcDbEntity
  8
0
100
AcDbBlockBegin
  2
*D31
 70
     1
 10
0.0
 20
0.0
 30
0.0
  3
*D31
  1

  0
LINE
  5
84A8
330
842A
100
AcDbEntity
  8
3
 62
     0
370
    -2
100
AcDbLine
 10
4336.517051099289
 20
3825.824713053003
 30
0.0
 11
4336.517051099289
 21
4713.210345261056
 31
0.0
  0
LINE
  5
84A9
330
842A
100
AcDbEntity
  8
3
 62
     0
370
    -2
100
AcDbLine
 10
5456.51705109929
 20
4605.943004574664
 30
0.0
 11
5456.51705109929
 21
4713.210345261056
 31
0.0
  0
LINE
  5
84AA
330
842A
100
AcDbEntity
  8
3
 62
     0
370
    -2
100
AcDbLine
 10
4406.517051099289
 20
4678.210345261056
 30
0.0
 11
5386.51705109929
 21
4678.210345261056
 31
0.0
  0
INSERT
  5
84AB
330
842A
100
AcDbEntity
  8
3
 62
     0
370
    -2
100
AcDbBlockReference
  2
_OPEN
 10
4336.517051099289
 20
4678.210345261056
 30
0.0
 41
70.0
 42
70.0
 43
70.0
 50
180.0
  0
INSERT
  5
84AC
330
842A
100
AcDbEntity
  8
3
 62
     0
370
    -2
100
AcDbBlockReference
  2
_OPEN
 10
5456.51705109929
 20
4678.210345261056
 30
0.0
 41
70.0
 42
70.0
 43
70.0
  0
MTEXT
  5
84AD
330
842A
100
AcDbEntity
  8
3
 62
     0
100
AcDbMText
 10
4896.517051099291
 20
4793.210345261056
 30
0.0
 40
105.0
 41
0.0
 71
     5
 72
     1
  1
\A1;(1120)
 73
     1
 44
1.0
1001
ACAD
1000
MTEXTBEGIN
1070
    73
1070
     1
1070
    44
1040
1.0
1070
    74
1070
     0
1000
MTEXTEND
  0
POINT
  5
84AE
330
842A
100
AcDbEntity
  8
DEFPOINTS
 62
     0
100
AcDbPoint
 10
4336.517051099289
 20
3808.324713053004
 30
0.0
  0
POINT
  5
84AF
330
842A
100
AcDbEntity
  8
DEFPOINTS
 62
     0
100
AcDbPoint
 10
5456.51705109929
 20
4588.443004574664
 30
0.0
  0
POINT
  5
84B0
330
842A
100
AcDbEntity
  8
DEFPOINTS
 62
     0
100
AcDbPoint
 10
5456.51705109929
 20
4678.210345261056
 30
0.0
  0
ENDBLK
  5
842C
330
842A
100
AcDbEntity
  8
0
100
AcDbBlockEnd
  0
BLOCK
  5
8438
330
8437
100
AcDbEntity
  8
0
100
AcDbBlockBegin
  2
*D32
 70
     1
 10
0.0
 20
0.0
 30
0.0
  3
*D32
  1

  0
LINE
  5
84B1
330
8437
100
AcDbEntity
  8
3
 62
     0
370
    -2
100
AcDbLine
 10
5456.51705109929
 20
4605.943004574664
 30
0.0
 11
5456.51705109929
 21
4713.210345261056
 31
0.0
  0
LINE
  5
84B2
330
8437
100
AcDbEntity
  8
3
 62
     0
370
    -2
100
AcDbLine
 10
6386.517051099289
 20
3372.824713053005
 30
0.0
 11
6386.517051099289
 21
4713.210345261056
 31
0.0
  0
LINE
  5
84B3
330
8437
100
AcDbEntity
  8
3
 62
     0
370
    -2
100
AcDbLine
 10
5526.51705109929
 20
4678.210345261056
 30
0.0
 11
6316.517051099289
 21
4678.210345261056
 31
0.0
  0
INSERT
  5
84B4
330
8437
100
AcDbEntity
  8
3
 62
     0
370
    -2
100
AcDbBlockReference
  2
_OPEN
 10
5456.51705109929
 20
4678.210345261056
 30
0.0
 41
70.0
 42
70.0
 43
70.0
 50
180.0
  0
INSERT
  5
84B5
330
8437
100
AcDbEntity
  8
3
 62
     0
370
    -2
100
AcDbBlockReference
  2
_OPEN
 10
6386.517051099289
 20
4678.210345261056
 30
0.0
 41
70.0
 42
70.0
 43
70.0
  0
MTEXT
  5
84B6
330
8437
100
AcDbEntity
  8
3
 62
     0
100
AcDbMText
 10
5921.51705109929
 20
4793.210345261056
 30
0.0
 40
105.0
 41
0.0
 71
     5
 72
     1
  1
\A1;(930)
 73
     1
 44
1.0
1001
ACAD
1000
MTEXTBEGIN
1070
    73
1070
     1
1070
    44
1040
1.0
1070
    74
1070
     0
1000
MTEXTEND
  0
POINT
  5
84B7
330
8437
100
AcDbEntity
  8
DEFPOINTS
 62
     0
100
AcDbPoint
 10
5456.51705109929
 20
4588.443004574664
 30
0.0
  0
POINT
  5
84B8
330
8437
100
AcDbEntity
  8
DEFPOINTS
 62
     0
100
AcDbPoint
 10
6386.517051099289
 20
3355.324713053004
 30
0.0
  0
POINT
  5
84B9
330
8437
100
AcDbEntity
  8
DEFPOINTS
 62
     0
100
AcDbPoint
 10
6386.517051099289
 20
4678.210345261056
 30
0.0
  0
ENDBLK
  5
8439
330
8437
100
AcDbEntity
  8
0
100
AcDbBlockEnd
  0
BLOCK
  5
8445
330
8444
100
AcDbEntity
  8
0
100
AcDbBlockBegin
  2
*D33
 70
     1
 10
0.0
 20
0.0
 30
0.0
  3
*D33
  1

  0
LINE
  5
8447
330
8444
100
AcDbEntity
  8
3
 62
     0
370
    -2
100
AcDbLine
 10
4374.517051099279
 20
2315.824713053003
 30
0.0
 11
4374.517051099279
 21
2027.469071117841
 31
0.0
  0
LINE
  5
8448
330
8444
100
AcDbEntity
  8
3
 62
     0
370
    -2
100
AcDbLine
 10
5456.517051099291
 20
2315.824713053003
 30
0.0
 11
5456.517051099291
 21
2027.469071117841
 31
0.0
  0
LINE
  5
8449
330
8444
100
AcDbEntity
  8
3
 62
     0
370
    -2
100
AcDbLine
 10
4444.517051099279
 20
2062.469071117841
 30
0.0
 11
5386.517051099291
 21
2062.469071117841
 31
0.0
  0
INSERT
  5
844A
330
8444
100
AcDbEntity
  8
3
 62
     0
370
    -2
100
AcDbBlockReference
  2
_OPEN
 10
4374.517051099279
 20
2062.469071117841
 30
0.0
 41
70.0
 42
70.0
 43
70.0
 50
180.0
  0
INSERT
  5
844B
330
8444
100
AcDbEntity
  8
3
 62
     0
370
    -2
100
AcDbBlockReference
  2
_OPEN
 10
5456.517051099291
 20
2062.469071117841
 30
0.0
 41
70.0
 42
70.0
 43
70.0
  0
MTEXT
  5
844C
330
8444
100
AcDbEntity
  8
3
 62
     0
100
AcDbMText
 10
4915.517051099285
 20
2149.969071117841
 30
0.0
 40
105.0
 41
0.0
 71
     5
 72
     1
  1
\A1;1082
 73
     1
 44
1.0
1001
ACAD
1000
MTEXTBEGIN
1070
    73
1070
     1
1070
    44
1040
1.0
1070
    74
1070
     0
1000
MTEXTEND
  0
POINT
  5
844D
330
8444
100
AcDbEntity
  8
DEFPOINTS
 62
     0
100
AcDbPoint
 10
4374.517051099279
 20
2333.324713053003
 30
0.0
  0
POINT
  5
844E
330
8444
100
AcDbEntity
  8
DEFPOINTS
 62
     0
100
AcDbPoint
 10
5456.517051099291
 20
2333.324713053003
 30
0.0
  0
POINT
  5
844F
330
8444
100
AcDbEntity
  8
DEFPOINTS
 62
     0
100
AcDbPoint
 10
5456.517051099291
 20
2062.469071117841
 30
0.0
  0
ENDBLK
  5
8446
330
8444
100
AcDbEntity
  8
0
100
AcDbBlockEnd
  0
BLOCK
  5
8452
330
8451
100
AcDbEntity
  8
0
100
AcDbBlockBegin
  2
*D34
 70
     1
 10
0.0
 20
0.0
 30
0.0
  3
*D34
  1

  0
LINE
  5
8454
330
8451
100
AcDbEntity
  8
3
 62
     0
370
    -2
100
AcDbLine
 10
5456.517051099291
 20
2315.824713053003
 30
0.0
 11
5456.517051099291
 21
2027.469071117841
 31
0.0
  0
LINE
  5
8455
330
8451
100
AcDbEntity
  8
3
 62
     0
370
    -2
100
AcDbLine
 10
6274.51705109927
 20
2315.824713053003
 30
0.0
 11
6274.51705109927
 21
2027.469071117841
 31
0.0
  0
LINE
  5
8456
330
8451
100
AcDbEntity
  8
3
 62
     0
370
    -2
100
AcDbLine
 10
5526.517051099291
 20
2062.469071117841
 30
0.0
 11
6204.51705109927
 21
2062.469071117841
 31
0.0
  0
INSERT
  5
8457
330
8451
100
AcDbEntity
  8
3
 62
     0
370
    -2
100
AcDbBlockReference
  2
_OPEN
 10
5456.517051099291
 20
2062.469071117841
 30
0.0
 41
70.0
 42
70.0
 43
70.0
 50
180.0
  0
INSERT
  5
8458
330
8451
100
AcDbEntity
  8
3
 62
     0
370
    -2
100
AcDbBlockReference
  2
_OPEN
 10
6274.51705109927
 20
2062.469071117841
 30
0.0
 41
70.0
 42
70.0
 43
70.0
  0
MTEXT
  5
8459
330
8451
100
AcDbEntity
  8
3
 62
     0
100
AcDbMText
 10
5865.517051099281
 20
2149.969071117841
 30
0.0
 40
105.0
 41
0.0
 71
     5
 72
     1
  1
\A1;818
 73
     1
 44
1.0
1001
ACAD
1000
MTEXTBEGIN
1070
    73
1070
     1
1070
    44
1040
1.0
1070
    74
1070
     0
1000
MTEXTEND
  0
POINT
  5
845A
330
8451
100
AcDbEntity
  8
DEFPOINTS
 62
     0
100
AcDbPoint
 10
5456.517051099291
 20
2333.324713053003
 30
0.0
  0
POINT
  5
845B
330
8451
100
AcDbEntity
  8
DEFPOINTS
 62
     0
100
AcDbPoint
 10
6274.51705109927
 20
2333.324713053003
 30
0.0
  0
POINT
  5
845C
330
8451
100
AcDbEntity
  8
DEFPOINTS
 62
     0
100
AcDbPoint
 10
6274.51705109927
 20
2062.469071117841
 30
0.0
  0
ENDBLK
  5
8453
330
8451
100
AcDbEntity
  8
0
100
AcDbBlockEnd
  0
BLOCK
  5
84BC
330
84BB
100
AcDbEntity
  8
0
100
AcDbBlockBegin
  2
*D35
 70
     1
 10
0.0
 20
0.0
 30
0.0
  3
*D35
  1

  0
LINE
  5
84C7
330
84BB
100
AcDbEntity
  8
3
 62
     0
370
    -2
100
AcDbLine
 10
3329.528022879291
 20
6832.723803734342
 30
0.0
 11
4402.07497570754
 21
6832.723803734342
 31
0.0
  0
LINE
  5
84C8
330
84BB
100
AcDbEntity
  8
3
 62
     0
370
    -2
100
AcDbLine
 10
2834.326826817036
 20
5712.72380373434
 30
0.0
 11
4402.074975707539
 21
5712.72380373434
 31
0.0
  0
LINE
  5
84C9
330
84BB
100
AcDbEntity
  8
3
 62
     0
370
    -2
100
AcDbLine
 10
4367.07497570754
 20
6762.723803734342
 30
0.0
 11
4367.074975707539
 21
5782.723803734341
 31
0.0
  0
INSERT
  5
84CA
330
84BB
100
AcDbEntity
  8
3
 62
     0
370
    -2
100
AcDbBlockReference
  2
_OPEN
 10
4367.07497570754
 20
6832.723803734342
 30
0.0
 41
70.0
 42
70.0
 43
70.0
 50
90.0
  0
INSERT
  5
84CB
330
84BB
100
AcDbEntity
  8
3
 62
     0
370
    -2
100
AcDbBlockReference
  2
_OPEN
 10
4367.074975707539
 20
5712.72380373434
 30
0.0
 41
70.0
 42
70.0
 43
70.0
 50
270.0
  0
MTEXT
  5
84CC
330
84BB
100
AcDbEntity
  8
3
 62
     0
100
AcDbMText
 10
4279.574975707538
 20
6272.723803734343
 30
0.0
 40
105.0
 41
0.0
 71
     5
 72
     1
  1
\A1;1120
 11
0.0000000000000001
 21
1.0
 31
0.0
 73
     1
 44
1.0
1001
ACAD
1000
MTEXTBEGIN
1070
    73
1070
     1
1070
    44
1040
1.0
1070
    74
1070
     0
1000
MTEXTEND
  0
POINT
  5
84CD
330
84BB
100
AcDbEntity
  8
DEFPOINTS
 62
     0
100
AcDbPoint
 10
3312.028022879291
 20
6832.723803734342
 30
0.0
  0
POINT
  5
84CE
330
84BB
100
AcDbEntity
  8
DEFPOINTS
 62
     0
100
AcDbPoint
 10
2816.826826817036
 20
5712.72380373434
 30
0.0
  0
POINT
  5
84CF
330
84BB
100
AcDbEntity
  8
DEFPOINTS
 62
     0
100
AcDbPoint
 10
4367.074975707539
 20
5712.72380373434
 30
0.0
  0
ENDBLK
  5
84BD
330
84BB
100
AcDbEntity
  8
0
100
AcDbBlockEnd
  0
BLOCK
  5
84D2
330
84D1
100
AcDbEntity
  8
0
100
AcDbBlockBegin
  2
*D36
 70
     1
 10
0.0
 20
0.0
 30
0.0
  3
*D36
  1

  0
LINE
  5
84D4
330
84D1
100
AcDbEntity
  8
3
 62
     0
370
    -2
100
AcDbLine
 10
819.3268268170358
 20
6650.72380373434
 30
0.0
 11
586.0116974813247
 21
6650.72380373434
 31
0.0
  0
LINE
  5
84D5
330
84D1
100
AcDbEntity
  8
3
 62
     0
370
    -2
100
AcDbLine
 10
819.3268268170358
 20
5750.723803734341
 30
0.0
 11
586.0116974813244
 21
5750.723803734341
 31
0.0
  0
LINE
  5
84D6
330
84D1
100
AcDbEntity
  8
3
 62
     0
370
    -2
100
AcDbLine
 10
621.0116974813247
 20
6580.723803734341
 30
0.0
 11
621.0116974813245
 21
5820.723803734341
 31
0.0
  0
INSERT
  5
84D7
330
84D1
100
AcDbEntity
  8
3
 62
     0
370
    -2
100
AcDbBlockReference
  2
_OPEN
 10
621.0116974813247
 20
6650.72380373434
 30
0.0
 41
70.0
 42
70.0
 43
70.0
 50
90.0
  0
INSERT
  5
84D8
330
84D1
100
AcDbEntity
  8
3
 62
     0
370
    -2
100
AcDbBlockReference
  2
_OPEN
 10
621.0116974813245
 20
5750.723803734341
 30
0.0
 41
70.0
 42
70.0
 43
70.0
 50
270.0
  0
MTEXT
  5
84D9
330
84D1
100
AcDbEntity
  8
3
 62
     0
100
AcDbMText
 10
533.5116974813236
 20
6200.723803734341
 30
0.0
 40
105.0
 41
0.0
 71
     5
 72
     1
  1
\A1;900
 11
0.0000000000000001
 21
1.0
 31
0.0
 73
     1
 44
1.0
1001
ACAD
1000
MTEXTBEGIN
1070
    73
1070
     1
1070
    44
1040
1.0
1070
    74
1070
     0
1000
MTEXTEND
  0
POINT
  5
84DA
330
84D1
100
AcDbEntity
  8
DEFPOINTS
 62
     0
100
AcDbPoint
 10
836.8268268170357
 20
6650.72380373434
 30
0.0
  0
POINT
  5
84DB
330
84D1
100
AcDbEntity
  8
DEFPOINTS
 62
     0
100
AcDbPoint
 10
836.8268268170357
 20
5750.723803734341
 30
0.0
  0
POINT
  5
84DC
330
84D1
100
AcDbEntity
  8
DEFPOINTS
 62
     0
100
AcDbPoint
 10
621.0116974813245
 20
5750.723803734341
 30
0.0
  0
ENDBLK
  5
84D3
330
84D1
100
AcDbEntity
  8
0
100
AcDbBlockEnd
  0
BLOCK
  5
84DF
330
84DE
100
AcDbEntity
  8
0
100
AcDbBlockBegin
  2
*D37
 70
     1
 10
0.0
 20
0.0
 30
0.0
  3
*D37
  1

  0
LINE
  5
84E1
330
84DE
100
AcDbEntity
  8
3
 62
     0
370
    -2
100
AcDbLine
 10
836.8268268170357
 20
5733.223803734341
 30
0.0
 11
836.8268268170357
 21
5424.478611640394
 31
0.0
  0
LINE
  5
84E2
330
84DE
100
AcDbEntity
  8
3
 62
     0
370
    -2
100
AcDbLine
 10
3096.826826817036
 20
5733.223803734341
 30
0.0
 11
3096.826826817036
 21
5424.478611640394
 31
0.0
  0
LINE
  5
84E3
330
84DE
100
AcDbEntity
  8
3
 62
     0
370
    -2
100
AcDbLine
 10
906.8268268170358
 20
5459.478611640394
 30
0.0
 11
3026.826826817036
 21
5459.478611640394
 31
0.0
  0
INSERT
  5
84E4
330
84DE
100
AcDbEntity
  8
3
 62
     0
370
    -2
100
AcDbBlockReference
  2
_OPEN
 10
836.8268268170357
 20
5459.478611640394
 30
0.0
 41
70.0
 42
70.0
 43
70.0
 50
180.0
  0
INSERT
  5
84E5
330
84DE
100
AcDbEntity
  8
3
 62
     0
370
    -2
100
AcDbBlockReference
  2
_OPEN
 10
3096.826826817036
 20
5459.478611640394
 30
0.0
 41
70.0
 42
70.0
 43
70.0
  0
MTEXT
  5
84E6
330
84DE
100
AcDbEntity
  8
3
 62
     0
100
AcDbMText
 10
1966.826826817036
 20
5546.978611640394
 30
0.0
 40
105.0
 41
0.0
 71
     5
 72
     1
  1
\A1;2260
 73
     1
 44
1.0
1001
ACAD
1000
MTEXTBEGIN
1070
    73
1070
     1
1070
    44
1040
1.0
1070
    74
1070
     0
1000
MTEXTEND
  0
POINT
  5
84E7
330
84DE
100
AcDbEntity
  8
DEFPOINTS
 62
     0
100
AcDbPoint
 10
836.8268268170357
 20
5750.723803734341
 30
0.0
  0
POINT
  5
84E8
330
84DE
100
AcDbEntity
  8
DEFPOINTS
 62
     0
100
AcDbPoint
 10
3096.826826817036
 20
5750.723803734341
 30
0.0
  0
POINT
  5
84E9
330
84DE
100
AcDbEntity
  8
DEFPOINTS
 62
     0
100
AcDbPoint
 10
3096.826826817036
 20
5459.478611640394
 30
0.0
  0
ENDBLK
  5
84E0
330
84DE
100
AcDbEntity
  8
0
100
AcDbBlockEnd
  0
BLOCK
  5
84EC
330
84EB
100
AcDbEntity
  8
0
100
AcDbBlockBegin
  2
*D38
 70
     1
 10
0.0
 20
0.0
 30
0.0
  3
*D38
  1

  0
LINE
  5
84EE
330
84EB
100
AcDbEntity
  8
3
 62
     0
370
    -2
100
AcDbLine
 10
3114.326826817036
 20
5750.723803734341
 30
0.0
 11
3612.125907775742
 21
5750.723803734341
 31
0.0
  0
LINE
  5
84EF
330
84EB
100
AcDbEntity
  8
3
 62
     0
370
    -2
100
AcDbLine
 10
3114.326826817036
 20
7650.723803734343
 30
0.0
 11
3612.125907775743
 21
7650.723803734343
 31
0.0
  0
LINE
  5
84F0
330
84EB
100
AcDbEntity
  8
3
 62
     0
370
    -2
100
AcDbLine
 10
3577.125907775742
 20
5820.723803734341
 30
0.0
 11
3577.125907775743
 21
7580.723803734342
 31
0.0
  0
INSERT
  5
84F1
330
84EB
100
AcDbEntity
  8
3
 62
     0
370
    -2
100
AcDbBlockReference
  2
_OPEN
 10
3577.125907775742
 20
5750.723803734341
 30
0.0
 41
70.0
 42
70.0
 43
70.0
 50
270.0
  0
INSERT
  5
84F2
330
84EB
100
AcDbEntity
  8
3
 62
     0
370
    -2
100
AcDbBlockReference
  2
_OPEN
 10
3577.125907775743
 20
7650.723803734343
 30
0.0
 41
70.0
 42
70.0
 43
70.0
 50
90.0
  0
MTEXT
  5
84F3
330
84EB
100
AcDbEntity
  8
3
 62
     0
100
AcDbMText
 10
3489.625907775741
 20
6700.723803734343
 30
0.0
 40
105.0
 41
0.0
 71
     5
 72
     1
  1
\A1;1900
 11
0.0000000000000001
 21
1.0
 31
0.0
 73
     1
 44
1.0
1001
ACAD
1000
MTEXTBEGIN
1070
    73
1070
     1
1070
    44
1040
1.0
1070
    74
1070
     0
1000
MTEXTEND
  0
POINT
  5
84F4
330
84EB
100
AcDbEntity
  8
DEFPOINTS
 62
     0
100
AcDbPoint
 10
3096.826826817036
 20
5750.723803734341
 30
0.0
  0
POINT
  5
84F5
330
84EB
100
AcDbEntity
  8
DEFPOINTS
 62
     0
100
AcDbPoint
 10
3096.826826817036
 20
7650.723803734343
 30
0.0
  0
POINT
  5
84F6
330
84EB
100
AcDbEntity
  8
DEFPOINTS
 62
     0
100
AcDbPoint
 10
3577.125907775743
 20
7650.723803734343
 30
0.0
  0
ENDBLK
  5
84ED
330
84EB
100
AcDbEntity
  8
0
100
AcDbBlockEnd
  0
BLOCK
  5
84F9
330
84F8
100
AcDbEntity
  8
0
100
AcDbBlockBegin
  2
*D39
 70
     1
 10
0.0
 20
0.0
 30
0.0
  3
*D39
  1

  0
LINE
  5
84FB
330
84F8
100
AcDbEntity
  8
3
 62
     0
370
    -2
100
AcDbLine
 10
3096.826826817036
 20
7668.223803734342
 30
0.0
 11
3096.826826817036
 21
7859.73116420546
 31
0.0
  0
LINE
  5
84FC
330
84F8
100
AcDbEntity
  8
3
 62
     0
370
    -2
100
AcDbLine
 10
1776.826826817035
 20
7668.223803734341
 30
0.0
 11
1776.826826817035
 21
7859.73116420546
 31
0.0
  0
LINE
  5
84FD
330
84F8
100
AcDbEntity
  8
3
 62
     0
370
    -2
100
AcDbLine
 10
3026.826826817036
 20
7824.731164205461
 30
0.0
 11
1846.826826817035
 21
7824.731164205461
 31
0.0
  0
INSERT
  5
84FE
330
84F8
100
AcDbEntity
  8
3
 62
     0
370
    -2
100
AcDbBlockReference
  2
_OPEN
 10
3096.826826817036
 20
7824.731164205461
 30
0.0
 41
70.0
 42
70.0
 43
70.0
  0
INSERT
  5
84FF
330
84F8
100
AcDbEntity
  8
3
 62
     0
370
    -2
100
AcDbBlockReference
  2
_OPEN
 10
1776.826826817035
 20
7824.731164205461
 30
0.0
 41
70.0
 42
70.0
 43
70.0
 50
180.0
  0
MTEXT
  5
8500
330
84F8
100
AcDbEntity
  8
3
 62
     0
100
AcDbMText
 10
2436.826826817036
 20
7912.231164205461
 30
0.0
 40
105.0
 41
0.0
 71
     5
 72
     1
  1
\A1;1320
 73
     1
 44
1.0
1001
ACAD
1000
MTEXTBEGIN
1070
    73
1070
     1
1070
    44
1040
1.0
1070
    74
1070
     0
1000
MTEXTEND
  0
POINT
  5
8501
330
84F8
100
AcDbEntity
  8
DEFPOINTS
 62
     0
100
AcDbPoint
 10
3096.826826817036
 20
7650.723803734343
 30
0.0
  0
POINT
  5
8502
330
84F8
100
AcDbEntity
  8
DEFPOINTS
 62
     0
100
AcDbPoint
 10
1776.826826817035
 20
7650.723803734341
 30
0.0
  0
POINT
  5
8503
330
84F8
100
AcDbEntity
  8
DEFPOINTS
 62
     0
100
AcDbPoint
 10
1776.826826817035
 20
7824.731164205461
 30
0.0
  0
ENDBLK
  5
84FA
330
84F8
100
AcDbEntity
  8
0
100
AcDbBlockEnd
  0
BLOCK
  5
8506
330
8505
100
AcDbEntity
  8
0
100
AcDbBlockBegin
  2
*D40
 70
     1
 10
0.0
 20
0.0
 30
0.0
  3
*D40
  1

  0
LINE
  5
8508
330
8505
100
AcDbEntity
  8
3
 62
     0
370
    -2
100
AcDbLine
 10
1776.826826817035
 20
7668.223803734341
 30
0.0
 11
1776.826826817035
 21
7859.73116420546
 31
0.0
  0
LINE
  5
8509
330
8505
100
AcDbEntity
  8
3
 62
     0
370
    -2
100
AcDbLine
 10
836.8268268170357
 20
6668.223803734341
 30
0.0
 11
836.8268268170359
 21
7859.73116420546
 31
0.0
  0
LINE
  5
850A
330
8505
100
AcDbEntity
  8
3
 62
     0
370
    -2
100
AcDbLine
 10
1706.826826817035
 20
7824.731164205461
 30
0.0
 11
906.8268268170358
 21
7824.731164205461
 31
0.0
  0
INSERT
  5
850B
330
8505
100
AcDbEntity
  8
3
 62
     0
370
    -2
100
AcDbBlockReference
  2
_OPEN
 10
1776.826826817035
 20
7824.731164205461
 30
0.0
 41
70.0
 42
70.0
 43
70.0
  0
INSERT
  5
850C
330
8505
100
AcDbEntity
  8
3
 62
     0
370
    -2
100
AcDbBlockReference
  2
_OPEN
 10
836.8268268170359
 20
7824.731164205461
 30
0.0
 41
70.0
 42
70.0
 43
70.0
 50
180.0
  0
MTEXT
  5
850D
330
8505
100
AcDbEntity
  8
3
 62
     0
100
AcDbMText
 10
1306.826826817035
 20
7912.231164205461
 30
0.0
 40
105.0
 41
0.0
 71
     5
 72
     1
  1
\A1;940
 73
     1
 44
1.0
1001
ACAD
1000
MTEXTBEGIN
1070
    73
1070
     1
1070
    44
1040
1.0
1070
    74
1070
     0
1000
MTEXTEND
  0
POINT
  5
850E
330
8505
100
AcDbEntity
  8
DEFPOINTS
 62
     0
100
AcDbPoint
 10
1776.826826817035
 20
7650.723803734341
 30
0.0
  0
POINT
  5
850F
330
8505
100
AcDbEntity
  8
DEFPOINTS
 62
     0
100
AcDbPoint
 10
836.8268268170357
 20
6650.72380373434
 30
0.0
  0
POINT
  5
8510
330
8505
100
AcDbEntity
  8
DEFPOINTS
 62
     0
100
AcDbPoint
 10
836.8268268170359
 20
7824.731164205461
 30
0.0
  0
ENDBLK
  5
8507
330
8505
100
AcDbEntity
  8
0
100
AcDbBlockEnd
  0
BLOCK
  5
8513
330
8512
100
AcDbEntity
  8
0
100
AcDbBlockBegin
  2
*D41
 70
     1
 10
0.0
 20
0.0
 30
0.0
  3
*D41
  1

  0
LINE
  5
8515
330
8512
100
AcDbEntity
  8
3
 62
     0
370
    -2
100
AcDbLine
 10
1238.826826817035
 20
4205.824713053003
 30
0.0
 11
1238.826826817035
 21
4423.433029337271
 31
0.0
  0
LINE
  5
8516
330
8512
100
AcDbEntity
  8
3
 62
     0
370
    -2
100
AcDbLine
 10
2388.826826817036
 20
4205.824713053003
 30
0.0
 11
2388.826826817036
 21
4423.433029337271
 31
0.0
  0
LINE
  5
8517
330
8512
100
AcDbEntity
  8
3
 62
     0
370
    -2
100
AcDbLine
 10
1308.826826817035
 20
4388.433029337271
 30
0.0
 11
2318.826826817036
 21
4388.433029337271
 31
0.0
  0
INSERT
  5
8518
330
8512
100
AcDbEntity
  8
3
 62
     0
370
    -2
100
AcDbBlockReference
  2
_OPEN
 10
1238.826826817035
 20
4388.433029337271
 30
0.0
 41
70.0
 42
70.0
 43
70.0
 50
180.0
  0
INSERT
  5
8519
330
8512
100
AcDbEntity
  8
3
 62
     0
370
    -2
100
AcDbBlockReference
  2
_OPEN
 10
2388.826826817036
 20
4388.433029337271
 30
0.0
 41
70.0
 42
70.0
 43
70.0
  0
MTEXT
  5
851A
330
8512
100
AcDbEntity
  8
3
 62
     0
100
AcDbMText
 10
1813.826826817035
 20
4475.933029337271
 30
0.0
 40
105.0
 41
0.0
 71
     5
 72
     1
  1
\A1;1150
 73
     1
 44
1.0
1001
ACAD
1000
MTEXTBEGIN
1070
    73
1070
     1
1070
    44
1040
1.0
1070
    74
1070
     0
1000
MTEXTEND
  0
POINT
  5
851B
330
8512
100
AcDbEntity
  8
DEFPOINTS
 62
     0
100
AcDbPoint
 10
1238.826826817035
 20
4188.324713053003
 30
0.0
  0
POINT
  5
851C
330
8512
100
AcDbEntity
  8
DEFPOINTS
 62
     0
100
AcDbPoint
 10
2388.826826817036
 20
4188.324713053003
 30
0.0
  0
POINT
  5
851D
330
8512
100
AcDbEntity
  8
DEFPOINTS
 62
     0
100
AcDbPoint
 10
2388.826826817036
 20
4388.433029337271
 30
0.0
  0
ENDBLK
  5
8514
330
8512
100
AcDbEntity
  8
0
100
AcDbBlockEnd
  0
BLOCK
  5
8520
330
851F
100
AcDbEntity
  8
0
100
AcDbBlockBegin
  2
*D42
 70
     1
 10
0.0
 20
0.0
 30
0.0
  3
*D42
  1

  0
LINE
  5
8522
330
851F
100
AcDbEntity
  8
3
 62
     0
370
    -2
100
AcDbLine
 10
1238.826826817035
 20
4205.824713053003
 30
0.0
 11
1238.826826817035
 21
4623.58468019877
 31
0.0
  0
LINE
  5
8523
330
851F
100
AcDbEntity
  8
3
 62
     0
370
    -2
100
AcDbLine
 10
2436.826826817036
 20
4273.716972783115
 30
0.0
 11
2436.826826817036
 21
4623.58468019877
 31
0.0
  0
LINE
  5
8524
330
851F
100
AcDbEntity
  8
3
 62
     0
370
    -2
100
AcDbLine
 10
1308.826826817035
 20
4588.58468019877
 30
0.0
 11
2366.826826817036
 21
4588.58468019877
 31
0.0
  0
INSERT
  5
8525
330
851F
100
AcDbEntity
  8
3
 62
     0
370
    -2
100
AcDbBlockReference
  2
_OPEN
 10
1238.826826817035
 20
4588.58468019877
 30
0.0
 41
70.0
 42
70.0
 43
70.0
 50
180.0
  0
INSERT
  5
8526
330
851F
100
AcDbEntity
  8
3
 62
     0
370
    -2
100
AcDbBlockReference
  2
_OPEN
 10
2436.826826817036
 20
4588.58468019877
 30
0.0
 41
70.0
 42
70.0
 43
70.0
  0
MTEXT
  5
8527
330
851F
100
AcDbEntity
  8
3
 62
     0
100
AcDbMText
 10
1837.826826817035
 20
4676.08468019877
 30
0.0
 40
105.0
 41
0.0
 71
     5
 72
     1
  1
\A1;1198
 73
     1
 44
1.0
1001
ACAD
1000
MTEXTBEGIN
1070
    73
1070
     1
1070
    44
1040
1.0
1070
    74
1070
     0
1000
MTEXTEND
  0
POINT
  5
8528
330
851F
100
AcDbEntity
  8
DEFPOINTS
 62
     0
100
AcDbPoint
 10
1238.826826817035
 20
4188.324713053003
 30
0.0
  0
POINT
  5
8529
330
851F
100
AcDbEntity
  8
DEFPOINTS
 62
     0
100
AcDbPoint
 10
2436.826826817036
 20
4256.216972783115
 30
0.0
  0
POINT
  5
852A
330
851F
100
AcDbEntity
  8
DEFPOINTS
 62
     0
100
AcDbPoint
 10
2436.826826817036
 20
4588.58468019877
 30
0.0
  0
ENDBLK
  5
8521
330
851F
100
AcDbEntity
  8
0
100
AcDbBlockEnd
  0
BLOCK
  5
852D
330
852C
100
AcDbEntity
  8
0
100
AcDbBlockBegin
  2
*D43
 70
     1
 10
0.0
 20
0.0
 30
0.0
  3
*D43
  1

  0
LINE
  5
852F
330
852C
100
AcDbEntity
  8
3
 62
     0
370
    -2
100
AcDbLine
 10
2436.826826817036
 20
4273.716972783115
 30
0.0
 11
2436.826826817036
 21
4623.58468019877
 31
0.0
  0
LINE
  5
8530
330
852C
100
AcDbEntity
  8
3
 62
     0
370
    -2
100
AcDbLine
 10
3241.826826817036
 20
3363.824713053003
 30
0.0
 11
3241.826826817036
 21
4623.58468019877
 31
0.0
  0
LINE
  5
8531
330
852C
100
AcDbEntity
  8
3
 62
     0
370
    -2
100
AcDbLine
 10
2506.826826817036
 20
4588.58468019877
 30
0.0
 11
3171.826826817036
 21
4588.58468019877
 31
0.0
  0
INSERT
  5
8532
330
852C
100
AcDbEntity
  8
3
 62
     0
370
    -2
100
AcDbBlockReference
  2
_OPEN
 10
2436.826826817036
 20
4588.58468019877
 30
0.0
 41
70.0
 42
70.0
 43
70.0
 50
180.0
  0
INSERT
  5
8533
330
852C
100
AcDbEntity
  8
3
 62
     0
370
    -2
100
AcDbBlockReference
  2
_OPEN
 10
3241.826826817036
 20
4588.58468019877
 30
0.0
 41
70.0
 42
70.0
 43
70.0
  0
MTEXT
  5
8534
330
852C
100
AcDbEntity
  8
3
 62
     0
100
AcDbMText
 10
2839.326826817036
 20
4676.08468019877
 30
0.0
 40
105.0
 41
0.0
 71
     5
 72
     1
  1
\A1;805
 73
     1
 44
1.0
1001
ACAD
1000
MTEXTBEGIN
1070
    73
1070
     1
1070
    44
1040
1.0
1070
    74
1070
     0
1000
MTEXTEND
  0
POINT
  5
8535
330
852C
100
AcDbEntity
  8
DEFPOINTS
 62
     0
100
AcDbPoint
 10
2436.826826817036
 20
4256.216972783115
 30
0.0
  0
POINT
  5
8536
330
852C
100
AcDbEntity
  8
DEFPOINTS
 62
     0
100
AcDbPoint
 10
3241.826826817036
 20
3346.324713053003
 30
0.0
  0
POINT
  5
8537
330
852C
100
AcDbEntity
  8
DEFPOINTS
 62
     0
100
AcDbPoint
 10
3241.826826817036
 20
4588.58468019877
 30
0.0
  0
ENDBLK
  5
852E
330
852C
100
AcDbEntity
  8
0
100
AcDbBlockEnd
  0
BLOCK
  5
853A
330
8539
100
AcDbEntity
  8
0
100
AcDbBlockBegin
  2
*D44
 70
     1
 10
0.0
 20
0.0
 30
0.0
  3
*D44
  1

  0
LINE
  5
853C
330
8539
100
AcDbEntity
  8
3
 62
     0
370
    -2
100
AcDbLine
 10
3241.826826817036
 20
3363.824713053003
 30
0.0
 11
3241.826826817036
 21
4968.702395754248
 31
0.0
  0
LINE
  5
853D
330
8539
100
AcDbEntity
  8
3
 62
     0
370
    -2
100
AcDbLine
 10
836.8268268170359
 20
2560.824713053003
 30
0.0
 11
836.8268268170361
 21
4968.702395754248
 31
0.0
  0
LINE
  5
853E
330
8539
100
AcDbEntity
  8
3
 62
     0
370
    -2
100
AcDbLine
 10
3171.826826817036
 20
4933.702395754248
 30
0.0
 11
906.826826817036
 21
4933.702395754248
 31
0.0
  0
INSERT
  5
853F
330
8539
100
AcDbEntity
  8
3
 62
     0
370
    -2
100
AcDbBlockReference
  2
_OPEN
 10
3241.826826817036
 20
4933.702395754248
 30
0.0
 41
70.0
 42
70.0
 43
70.0
  0
INSERT
  5
8540
330
8539
100
AcDbEntity
  8
3
 62
     0
370
    -2
100
AcDbBlockReference
  2
_OPEN
 10
836.8268268170361
 20
4933.702395754248
 30
0.0
 41
70.0
 42
70.0
 43
70.0
 50
180.0
  0
MTEXT
  5
8541
330
8539
100
AcDbEntity
  8
3
 62
     0
100
AcDbMText
 10
2039.326826817036
 20
5021.202395754247
 30
0.0
 40
105.0
 41
0.0
 71
     5
 72
     1
  1
\A1;2405
 73
     1
 44
1.0
1001
ACAD
1000
MTEXTBEGIN
1070
    73
1070
     1
1070
    44
1040
1.0
1070
    74
1070
     0
1000
MTEXTEND
  0
POINT
  5
8542
330
8539
100
AcDbEntity
  8
DEFPOINTS
 62
     0
100
AcDbPoint
 10
3241.826826817036
 20
3346.324713053003
 30
0.0
  0
POINT
  5
8543
330
8539
100
AcDbEntity
  8
DEFPOINTS
 62
     0
100
AcDbPoint
 10
836.8268268170359
 20
2543.324713053003
 30
0.0
  0
POINT
  5
8544
330
8539
100
AcDbEntity
  8
DEFPOINTS
 62
     0
100
AcDbPoint
 10
836.8268268170361
 20
4933.702395754248
 30
0.0
  0
ENDBLK
  5
853B
330
8539
100
AcDbEntity
  8
0
100
AcDbBlockEnd
  0
BLOCK
  5
8547
330
8546
100
AcDbEntity
  8
0
100
AcDbBlockBegin
  2
*D45
 70
     1
 10
0.0
 20
0.0
 30
0.0
  3
*D45
  1

  0
LINE
  5
8549
330
8546
100
AcDbEntity
  8
3
 62
     0
370
    -2
100
AcDbLine
 10
2459.326826817036
 20
4188.324713053003
 30
0.0
 11
3542.813709636106
 21
4188.324713053003
 31
0.0
  0
LINE
  5
854A
330
8546
100
AcDbEntity
  8
3
 62
     0
370
    -2
100
AcDbLine
 10
3361.107478270012
 20
3428.324713053003
 30
0.0
 11
3542.813709636106
 21
3428.324713053003
 31
0.0
  0
LINE
  5
854B
330
8546
100
AcDbEntity
  8
3
 62
     0
370
    -2
100
AcDbLine
 10
3507.813709636106
 20
4118.324713053002
 30
0.0
 11
3507.813709636106
 21
3498.324713053003
 31
0.0
  0
INSERT
  5
854C
330
8546
100
AcDbEntity
  8
3
 62
     0
370
    -2
100
AcDbBlockReference
  2
_OPEN
 10
3507.813709636106
 20
4188.324713053003
 30
0.0
 41
70.0
 42
70.0
 43
70.0
 50
90.0
  0
INSERT
  5
854D
330
8546
100
AcDbEntity
  8
3
 62
     0
370
    -2
100
AcDbBlockReference
  2
_OPEN
 10
3507.813709636106
 20
3428.324713053003
 30
0.0
 41
70.0
 42
70.0
 43
70.0
 50
270.0
  0
MTEXT
  5
854E
330
8546
100
AcDbEntity
  8
3
 62
     0
100
AcDbMText
 10
3420.313709636106
 20
3808.324713053004
 30
0.0
 40
105.0
 41
0.0
 71
     5
 72
     1
  1
\A1;760
 11
0.0000000000000001
 21
1.0
 31
0.0
 73
     1
 44
1.0
1001
ACAD
1000
MTEXTBEGIN
1070
    73
1070
     1
1070
    44
1040
1.0
1070
    74
1070
     0
1000
MTEXTEND
  0
POINT
  5
854F
330
8546
100
AcDbEntity
  8
DEFPOINTS
 62
     0
100
AcDbPoint
 10
2441.826826817036
 20
4188.324713053003
 30
0.0
  0
POINT
  5
8550
330
8546
100
AcDbEntity
  8
DEFPOINTS
 62
     0
100
AcDbPoint
 10
3343.607478270012
 20
3428.324713053003
 30
0.0
  0
POINT
  5
8551
330
8546
100
AcDbEntity
  8
DEFPOINTS
 62
     0
100
AcDbPoint
 10
3507.813709636106
 20
3428.324713053003
 30
0.0
  0
ENDBLK
  5
8548
330
8546
100
AcDbEntity
  8
0
100
AcDbBlockEnd
  0
BLOCK
  5
8554
330
8553
100
AcDbEntity
  8
0
100
AcDbBlockBegin
  2
*D46
 70
     1
 10
0.0
 20
0.0
 30
0.0
  3
*D46
  1

  0
LINE
  5
8556
330
8553
100
AcDbEntity
  8
3
 62
     0
370
    -2
100
AcDbLine
 10
3361.107478270012
 20
3428.324713053003
 30
0.0
 11
3542.813709636106
 21
3428.324713053003
 31
0.0
  0
LINE
  5
8557
330
8553
100
AcDbEntity
  8
3
 62
     0
370
    -2
100
AcDbLine
 10
3114.326826817036
 20
2418.324713053003
 30
0.0
 11
3542.813709636106
 21
2418.324713053003
 31
0.0
  0
LINE
  5
8558
330
8553
100
AcDbEntity
  8
3
 62
     0
370
    -2
100
AcDbLine
 10
3507.813709636106
 20
3358.324713053003
 30
0.0
 11
3507.813709636105
 21
2488.324713053003
 31
0.0
  0
INSERT
  5
8559
330
8553
100
AcDbEntity
  8
3
 62
     0
370
    -2
100
AcDbBlockReference
  2
_OPEN
 10
3507.813709636106
 20
3428.324713053003
 30
0.0
 41
70.0
 42
70.0
 43
70.0
 50
90.0
  0
INSERT
  5
855A
330
8553
100
AcDbEntity
  8
3
 62
     0
370
    -2
100
AcDbBlockReference
  2
_OPEN
 10
3507.813709636105
 20
2418.324713053003
 30
0.0
 41
70.0
 42
70.0
 43
70.0
 50
270.0
  0
MTEXT
  5
855B
330
8553
100
AcDbEntity
  8
3
 62
     0
100
AcDbMText
 10
3420.313709636106
 20
2923.324713053004
 30
0.0
 40
105.0
 41
0.0
 71
     5
 72
     1
  1
\A1;1010
 11
0.0000000000000001
 21
1.0
 31
0.0
 73
     1
 44
1.0
1001
ACAD
1000
MTEXTBEGIN
1070
    73
1070
     1
1070
    44
1040
1.0
1070
    74
1070
     0
1000
MTEXTEND
  0
POINT
  5
855C
330
8553
100
AcDbEntity
  8
DEFPOINTS
 62
     0
100
AcDbPoint
 10
3343.607478270012
 20
3428.324713053003
 30
0.0
  0
POINT
  5
855D
330
8553
100
AcDbEntity
  8
DEFPOINTS
 62
     0
100
AcDbPoint
 10
3096.826826817036
 20
2418.324713053003
 30
0.0
  0
POINT
  5
855E
330
8553
100
AcDbEntity
  8
DEFPOINTS
 62
     0
100
AcDbPoint
 10
3507.813709636105
 20
2418.324713053003
 30
0.0
  0
ENDBLK
  5
8555
330
8553
100
AcDbEntity
  8
0
100
AcDbBlockEnd
  0
BLOCK
  5
8561
330
8560
100
AcDbEntity
  8
0
100
AcDbBlockBegin
  2
*D47
 70
     1
 10
0.0
 20
0.0
 30
0.0
  3
*D47
  1

  0
LINE
  5
88F6
330
8560
100
AcDbEntity
  8
3
 62
     0
370
    -2
100
AcDbLine
 10
3114.326826817036
 20
2418.324713053003
 30
0.0
 11
3542.813709636106
 21
2418.324713053003
 31
0.0
  0
LINE
  5
88F7
330
8560
100
AcDbEntity
  8
3
 62
     0
370
    -2
100
AcDbLine
 10
3114.326826817036
 20
2398.324713053003
 30
0.0
 11
3542.813709636106
 21
2398.324713053003
 31
0.0
  0
LINE
  5
88F8
330
8560
100
AcDbEntity
  8
3
 62
     0
370
    -2
100
AcDbLine
 10
3507.813709636105
 20
2488.324713053003
 30
0.0
 11
3507.813709636105
 21
2558.324713053003
 31
0.0
  0
LINE
  5
88F9
330
8560
100
AcDbEntity
  8
3
 62
     0
370
    -2
100
AcDbLine
 10
3507.813709636105
 20
2398.324713053003
 30
0.0
 11
3507.813709636105
 21
2328.324713053003
 31
0.0
  0
LINE
  5
88FA
330
8560
100
AcDbEntity
  8
3
 62
     0
370
    -2
100
AcDbLine
 10
3507.813709636105
 20
2408.324713053003
 30
0.0
 11
3835.313709636106
 21
2506.574713053003
 31
0.0
  0
LINE
  5
88FB
330
8560
100
AcDbEntity
  8
3
 62
     0
370
    -2
100
AcDbLine
 10
3835.313709636106
 20
2506.574713053003
 30
0.0
 11
3835.313709636106
 21
2881.574713053003
 31
0.0
  0
MTEXT
  5
88FC
330
8560
100
AcDbEntity
  8
3
 62
     0
100
AcDbMText
 10
3720.313709636105
 20
2694.074713053004
 30
0.0
 40
105.0
 41
0.0
 71
     5
 72
     1
  1
\A1;(20)
 11
0.0000000000000001
 21
1.0
 31
0.0
 73
     1
 44
1.0
1001
ACAD
1000
MTEXTBEGIN
1070
    73
1070
     1
1070
    44
1040
1.0
1070
    74
1070
     0
1000
MTEXTEND
  0
LINE
  5
88FD
330
8560
100
AcDbEntity
  8
3
 62
     0
370
    -2
100
AcDbLine
 10
3507.813709636105
 20
2418.324713053003
 30
0.0
 11
3507.813709636105
 21
2398.324713053003
 31
0.0
  0
LINE
  5
88FE
330
8560
100
AcDbEntity
  8
3
 62
     0
370
    -2
100
AcDbLine
 10
3507.813709636105
 20
2418.324713053003
 30
0.0
 11
3507.813709636105
 21
2398.324713053003
 31
0.0
  0
INSERT
  5
88FF
330
8560
100
AcDbEntity
  8
3
 62
     0
370
    -2
100
AcDbBlockReference
  2
_OPEN
 10
3507.813709636105
 20
2418.324713053003
 30
0.0
 41
70.0
 42
70.0
 43
70.0
 50
270.0
  0
INSERT
  5
8900
330
8560
100
AcDbEntity
  8
3
 62
     0
370
    -2
100
AcDbBlockReference
  2
_DotSmall
 10
3507.813709636105
 20
2398.324713053003
 30
0.0
 41
70.0
 42
70.0
 43
70.0
 50
90.0
  0
POINT
  5
8901
330
8560
100
AcDbEntity
  8
DEFPOINTS
 62
     0
100
AcDbPoint
 10
3096.826826817036
 20
2418.324713053003
 30
0.0
  0
POINT
  5
8902
330
8560
100
AcDbEntity
  8
DEFPOINTS
 62
     0
100
AcDbPoint
 10
3096.826826817036
 20
2398.324713053003
 30
0.0
  0
POINT
  5
8903
330
8560
100
AcDbEntity
  8
DEFPOINTS
 62
     0
100
AcDbPoint
 10
3507.813709636105
 20
2398.324713053003
 30
0.0
  0
ENDBLK
  5
8562
330
8560
100
AcDbEntity
  8
0
100
AcDbBlockEnd
  0
BLOCK
  5
8573
330
8572
100
AcDbEntity
  8
0
100
AcDbBlockBegin
  2
*D48
 70
     1
 10
0.0
 20
0.0
 30
0.0
  3
*D48
  1

  0
LINE
  5
8988
330
8572
100
AcDbEntity
  8
3
 62
     0
370
    -2
100
AcDbLine
 10
3114.326826817036
 20
2398.324713053003
 30
0.0
 11
3542.813709636106
 21
2398.324713053003
 31
0.0
  0
LINE
  5
8989
330
8572
100
AcDbEntity
  8
3
 62
     0
370
    -2
100
AcDbLine
 10
3114.326826817036
 20
2333.324713053003
 30
0.0
 11
3542.813709636106
 21
2333.324713053003
 31
0.0
  0
LINE
  5
898A
330
8572
100
AcDbEntity
  8
3
 62
     0
370
    -2
100
AcDbLine
 10
3507.813709636105
 20
2398.324713053003
 30
0.0
 11
3507.813709636105
 21
2468.324713053003
 31
0.0
  0
LINE
  5
898B
330
8572
100
AcDbEntity
  8
3
 62
     0
370
    -2
100
AcDbLine
 10
3507.813709636105
 20
2263.324713053003
 30
0.0
 11
3507.813709636105
 21
2193.324713053003
 31
0.0
  0
MTEXT
  5
898C
330
8572
100
AcDbEntity
  8
3
 62
     0
100
AcDbMText
 10
3408.64704296944
 20
2208.938766289466
 30
0.0
 40
105.0
 41
0.0
 71
     5
 72
     1
  1
\A1;65
 11
0.0000000000000001
 21
1.0
 31
0.0
 73
     1
 44
1.0
1001
ACAD
1000
MTEXTBEGIN
1070
    73
1070
     1
1070
    44
1040
1.0
1070
    74
1070
     0
1000
MTEXTEND
  0
LINE
  5
898D
330
8572
100
AcDbEntity
  8
3
 62
     0
370
    -2
100
AcDbLine
 10
3507.813709636105
 20
2398.324713053003
 30
0.0
 11
3507.813709636105
 21
2333.324713053003
 31
0.0
  0
INSERT
  5
898E
330
8572
100
AcDbEntity
  8
3
 62
     0
370
    -2
100
AcDbBlockReference
  2
_DotSmall
 10
3507.813709636105
 20
2398.324713053003
 30
0.0
 41
70.0
 42
70.0
 43
70.0
 50
270.0
  0
INSERT
  5
898F
330
8572
100
AcDbEntity
  8
3
 62
     0
370
    -2
100
AcDbBlockReference
  2
_OPEN
 10
3507.813709636105
 20
2333.324713053003
 30
0.0
 41
70.0
 42
70.0
 43
70.0
 50
90.0
  0
POINT
  5
8990
330
8572
100
AcDbEntity
  8
DEFPOINTS
 62
     0
100
AcDbPoint
 10
3096.826826817036
 20
2398.324713053003
 30
0.0
  0
POINT
  5
8991
330
8572
100
AcDbEntity
  8
DEFPOINTS
 62
     0
100
AcDbPoint
 10
3096.826826817036
 20
2333.324713053003
 30
0.0
  0
POINT
  5
8992
330
8572
100
AcDbEntity
  8
DEFPOINTS
 62
     0
100
AcDbPoint
 10
3507.813709636105
 20
2333.324713053003
 30
0.0
  0
ENDBLK
  5
8574
330
8572
100
AcDbEntity
  8
0
100
AcDbBlockEnd
  0
BLOCK
  5
8585
330
8584
100
AcDbEntity
  8
0
100
AcDbBlockBegin
  2
*D49
 70
     1
 10
0.0
 20
0.0
 30
0.0
  3
*D49
  1

  0
LINE
  5
85E3
330
8584
100
AcDbEntity
  8
3
 62
     0
370
    -2
100
AcDbLine
 10
2459.326826817036
 20
4188.324713053003
 30
0.0
 11
3943.282267066025
 21
4188.324713053003
 31
0.0
  0
LINE
  5
85E4
330
8584
100
AcDbEntity
  8
3
 62
     0
370
    -2
100
AcDbLine
 10
3114.326826817036
 20
2333.324713053003
 30
0.0
 11
3943.282267066024
 21
2333.324713053003
 31
0.0
  0
LINE
  5
85E5
330
8584
100
AcDbEntity
  8
3
 62
     0
370
    -2
100
AcDbLine
 10
3908.282267066025
 20
4118.324713053002
 30
0.0
 11
3908.282267066024
 21
2403.324713053003
 31
0.0
  0
INSERT
  5
85E6
330
8584
100
AcDbEntity
  8
3
 62
     0
370
    -2
100
AcDbBlockReference
  2
_OPEN
 10
3908.282267066025
 20
4188.324713053003
 30
0.0
 41
70.0
 42
70.0
 43
70.0
 50
90.0
  0
INSERT
  5
85E7
330
8584
100
AcDbEntity
  8
3
 62
     0
370
    -2
100
AcDbBlockReference
  2
_OPEN
 10
3908.282267066024
 20
2333.324713053003
 30
0.0
 41
70.0
 42
70.0
 43
70.0
 50
270.0
  0
MTEXT
  5
85E8
330
8584
100
AcDbEntity
  8
3
 62
     0
100
AcDbMText
 10
3793.282267066024
 20
3260.824713053003
 30
0.0
 40
105.0
 41
0.0
 71
     5
 72
     1
  1
\A1;(1855)
 11
0.0000000000000001
 21
1.0
 31
0.0
 73
     1
 44
1.0
1001
ACAD
1000
MTEXTBEGIN
1070
    73
1070
     1
1070
    44
1040
1.0
1070
    74
1070
     0
1000
MTEXTEND
  0
POINT
  5
85E9
330
8584
100
AcDbEntity
  8
DEFPOINTS
 62
     0
100
AcDbPoint
 10
2441.826826817036
 20
4188.324713053003
 30
0.0
  0
POINT
  5
85EA
330
8584
100
AcDbEntity
  8
DEFPOINTS
 62
     0
100
AcDbPoint
 10
3096.826826817036
 20
2333.324713053003
 30
0.0
  0
POINT
  5
85EB
330
8584
100
AcDbEntity
  8
DEFPOINTS
 62
     0
100
AcDbPoint
 10
3908.282267066024
 20
2333.324713053003
 30
0.0
  0
ENDBLK
  5
8586
330
8584
100
AcDbEntity
  8
0
100
AcDbBlockEnd
  0
BLOCK
  5
8592
330
8591
100
AcDbEntity
  8
0
100
AcDbBlockBegin
  2
*D50
 70
     1
 10
0.0
 20
0.0
 30
0.0
  3
*D50
  1

  0
LINE
  5
8594
330
8591
100
AcDbEntity
  8
3
 62
     0
370
    -2
100
AcDbLine
 10
836.8268268170357
 20
2315.824713053003
 30
0.0
 11
836.8268268170357
 21
2038.450225277922
 31
0.0
  0
LINE
  5
8595
330
8591
100
AcDbEntity
  8
3
 62
     0
370
    -2
100
AcDbLine
 10
2436.826826817036
 20
2315.824713053003
 30
0.0
 11
2436.826826817036
 21
2038.450225277922
 31
0.0
  0
LINE
  5
8596
330
8591
100
AcDbEntity
  8
3
 62
     0
370
    -2
100
AcDbLine
 10
906.8268268170358
 20
2073.450225277922
 30
0.0
 11
2366.826826817036
 21
2073.450225277922
 31
0.0
  0
INSERT
  5
8597
330
8591
100
AcDbEntity
  8
3
 62
     0
370
    -2
100
AcDbBlockReference
  2
_OPEN
 10
836.8268268170357
 20
2073.450225277922
 30
0.0
 41
70.0
 42
70.0
 43
70.0
 50
180.0
  0
INSERT
  5
8598
330
8591
100
AcDbEntity
  8
3
 62
     0
370
    -2
100
AcDbBlockReference
  2
_OPEN
 10
2436.826826817036
 20
2073.450225277922
 30
0.0
 41
70.0
 42
70.0
 43
70.0
  0
MTEXT
  5
8599
330
8591
100
AcDbEntity
  8
3
 62
     0
100
AcDbMText
 10
1636.826826817036
 20
2160.950225277922
 30
0.0
 40
105.0
 41
0.0
 71
     5
 72
     1
  1
\A1;1600
 73
     1
 44
1.0
1001
ACAD
1000
MTEXTBEGIN
1070
    73
1070
     1
1070
    44
1040
1.0
1070
    74
1070
     0
1000
MTEXTEND
  0
POINT
  5
859A
330
8591
100
AcDbEntity
  8
DEFPOINTS
 62
     0
100
AcDbPoint
 10
836.8268268170357
 20
2333.324713053003
 30
0.0
  0
POINT
  5
859B
330
8591
100
AcDbEntity
  8
DEFPOINTS
 62
     0
100
AcDbPoint
 10
2436.826826817036
 20
2333.324713053003
 30
0.0
  0
POINT
  5
859C
330
8591
100
AcDbEntity
  8
DEFPOINTS
 62
     0
100
AcDbPoint
 10
2436.826826817036
 20
2073.450225277922
 30
0.0
  0
ENDBLK
  5
8593
330
8591
100
AcDbEntity
  8
0
100
AcDbBlockEnd
  0
BLOCK
  5
859F
330
859E
100
AcDbEntity
  8
0
100
AcDbBlockBegin
  2
*D51
 70
     1
 10
0.0
 20
0.0
 30
0.0
  3
*D51
  1

  0
LINE
  5
85A1
330
859E
100
AcDbEntity
  8
3
 62
     0
370
    -2
100
AcDbLine
 10
2436.826826817036
 20
2315.824713053003
 30
0.0
 11
2436.826826817036
 21
2038.450225277922
 31
0.0
  0
LINE
  5
85A2
330
859E
100
AcDbEntity
  8
3
 62
     0
370
    -2
100
AcDbLine
 10
3096.826826817036
 20
2315.824713053003
 30
0.0
 11
3096.826826817036
 21
2038.450225277922
 31
0.0
  0
LINE
  5
85A3
330
859E
100
AcDbEntity
  8
3
 62
     0
370
    -2
100
AcDbLine
 10
2506.826826817036
 20
2073.450225277922
 30
0.0
 11
3026.826826817036
 21
2073.450225277922
 31
0.0
  0
INSERT
  5
85A4
330
859E
100
AcDbEntity
  8
3
 62
     0
370
    -2
100
AcDbBlockReference
  2
_OPEN
 10
2436.826826817036
 20
2073.450225277922
 30
0.0
 41
70.0
 42
70.0
 43
70.0
 50
180.0
  0
INSERT
  5
85A5
330
859E
100
AcDbEntity
  8
3
 62
     0
370
    -2
100
AcDbBlockReference
  2
_OPEN
 10
3096.826826817036
 20
2073.450225277922
 30
0.0
 41
70.0
 42
70.0
 43
70.0
  0
MTEXT
  5
85A6
330
859E
100
AcDbEntity
  8
3
 62
     0
100
AcDbMText
 10
2766.826826817036
 20
2160.950225277922
 30
0.0
 40
105.0
 41
0.0
 71
     5
 72
     1
  1
\A1;660
 73
     1
 44
1.0
1001
ACAD
1000
MTEXTBEGIN
1070
    73
1070
     1
1070
    44
1040
1.0
1070
    74
1070
     0
1000
MTEXTEND
  0
POINT
  5
85A7
330
859E
100
AcDbEntity
  8
DEFPOINTS
 62
     0
100
AcDbPoint
 10
2436.826826817036
 20
2333.324713053003
 30
0.0
  0
POINT
  5
85A8
330
859E
100
AcDbEntity
  8
DEFPOINTS
 62
     0
100
AcDbPoint
 10
3096.826826817036
 20
2333.324713053003
 30
0.0
  0
POINT
  5
85A9
330
859E
100
AcDbEntity
  8
DEFPOINTS
 62
     0
100
AcDbPoint
 10
3096.826826817036
 20
2073.450225277922
 30
0.0
  0
ENDBLK
  5
85A0
330
859E
100
AcDbEntity
  8
0
100
AcDbBlockEnd
  0
BLOCK
  5
8624
330
8621
100
AcDbEntity
  8
0
100
AcDbBlockBegin
  2
_Origin
 70
     0
 10
0.0
 20
0.0
 30
0.0
  3
_Origin
  1

  0
CIRCLE
  5
8622
330
8621
100
AcDbEntity
  8
0
  6
ByBlock
 62
     0
370
    -2
100
AcDbCircle
 10
0.0
 20
0.0
 30
0.0
 40
0.5
  0
LINE
  5
8623
330
8621
100
AcDbEntity
  8
0
  6
ByBlock
 62
     0
370
    -2
100
AcDbLine
 10
0.0
 20
0.0
 30
0.0
 11
-1.0
 21
0.0
 31
0.0
  0
ENDBLK
  5
8625
330
8621
100
AcDbEntity
  8
0
100
AcDbBlockEnd
  0
BLOCK
  5
868E
330
868C
100
AcDbEntity
  8
0
100
AcDbBlockBegin
  2
_DotSmall
 70
     0
 10
0.0
 20
0.0
 30
0.0
  3
_DotSmall
  1

  0
LWPOLYLINE
  5
868D
330
868C
100
AcDbEntity
  8
0
  6
ByBlock
 62
     0
100
AcDbPolyline
 90
        2
 70
     1
 43
0.5
 10
-0.0625
 20
0.0
 42
1.0
 10
0.0625
 20
0.0
 42
1.0
  0
ENDBLK
  5
868F
330
868C
100
AcDbEntity
  8
0
100
AcDbBlockEnd
  0
ENDSEC
  0
SECTION
  2
ENTITIES
  0
INSERT
  5
7C11
330
83B3
100
AcDbEntity
  8
0
100
AcDbBlockReference
  2
YA_N
 10
6.0
 20
5.0
 30
0.0
  0
LINE
  5
7C13
330
83B3
100
AcDbEntity
  8
2
100
AcDbLine
 10
3343.607478270012
 20
3428.324713053003
 30
0.0
 11
1192.330092535178
 21
3428.324713053003
 31
0.0
  0
LINE
  5
7C14
330
83B3
100
AcDbEntity
  8
2
100
AcDbLine
 10
2436.826826817036
 20
2333.324713053003
 30
0.0
 11
2436.826826817036
 21
4256.216972783115
 31
0.0
  0
LINE
  5
7C15
330
83B3
100
AcDbEntity
  8
1
100
AcDbLine
 10
2441.826826817036
 20
4188.324713053003
 30
0.0
 11
1185.826826817035
 21
4188.324713053003
 31
0.0
  0
LINE
  5
7C16
330
83B3
100
AcDbEntity
  8
1
100
AcDbLine
 10
1185.826826817035
 20
4188.324713053003
 30
0.0
 11
1185.826826817035
 21
4184.324713053004
 31
0.0
  0
LINE
  5
7C17
330
83B3
100
AcDbEntity
  8
1
100
AcDbLine
 10
2441.826826817036
 20
4188.324713053003
 30
0.0
 11
2441.826826817036
 21
4184.324713053004
 31
0.0
  0
LINE
  5
7C18
330
83B3
100
AcDbEntity
  8
1
100
AcDbLine
 10
2388.826826817036
 20
4138.324713053004
 30
0.0
 11
1243.313915052475
 21
4138.324713053003
 31
0.0
  0
LINE
  5
7C19
330
83B3
100
AcDbEntity
  8
1
100
AcDbLine
 10
2441.826826817036
 20
4184.324713053004
 30
0.0
 11
1185.826826817035
 21
4184.324713053004
 31
0.0
  0
LINE
  5
7C1A
330
83B3
100
AcDbEntity
  8
1
100
AcDbLine
 10
3096.826826817036
 20
2418.324713053003
 30
0.0
 11
836.8268268170357
 21
2418.324713053003
 31
0.0
1001
ACAD
1000
ASC_BOUNDS
1002
{
1070
    19
1005
0
1002
}
  0
LINE
  5
7C1B
330
83B3
100
AcDbEntity
  8
1
100
AcDbLine
 10
3096.826826817036
 20
2543.324713053003
 30
0.0
 11
3096.826826817036
 21
2418.324713053003
 31
0.0
  0
LINE
  5
7C1C
330
83B3
100
AcDbEntity
  8
1
100
AcDbLine
 10
836.8268268170357
 20
2543.324713053003
 30
0.0
 11
836.8268268170357
 21
2418.324713053003
 31
0.0
  0
LINE
  5
7C1D
330
83B3
100
AcDbEntity
  8
1
100
AcDbLine
 10
3096.826826817036
 20
2543.324713053003
 30
0.0
 11
836.8268268170357
 21
2543.324713053003
 31
0.0
  0
ARC
  5
7C1E
330
83B3
100
AcDbEntity
  8
1
100
AcDbCircle
 10
2354.826826817036
 20
3510.324713053003
 30
0.0
 40
1051.0
100
AcDbArc
 50
184.4748178985337
 51
246.9372123999963
  0
ARC
  5
7C1F
330
83B3
100
AcDbEntity
  8
1
100
AcDbCircle
 10
2354.826826817036
 20
3346.324713053003
 30
0.0
 40
887.0
100
AcDbArc
 50
295.136448907875
 51
5.3043652077959
  0
ARC
  5
7C20
330
83B3
100
AcDbEntity
  8
1
100
AcDbCircle
 10
2505.326826817036
 20
3359.824713053003
 30
0.0
 40
736.5
100
AcDbArc
 50
5.336648321383482
 51
95.33664832138349
  0
LINE
  5
7C21
330
83B3
100
AcDbEntity
  8
1
100
AcDbLine
 10
1238.826826817035
 20
4188.324713053003
 30
0.0
 11
1307.030567995694
 21
3428.324713053003
 31
0.0
  0
LINE
  5
7C22
330
83B3
100
AcDbEntity
  8
1
100
AcDbLine
 10
2388.826826817036
 20
4188.324713053003
 30
0.0
 11
2388.826826817036
 21
4094.597930284492
 31
0.0
  0
LINE
  5
7C23
330
83B3
100
AcDbEntity
  8
2
100
AcDbLine
 10
1126.826826817036
 20
3117.182989208948
 30
0.0
 11
1126.826826817038
 21
2333.324713053003
 31
0.0
  0
LINE
  5
7C24
330
83B3
100
AcDbEntity
  8
2
100
AcDbLine
 10
1362.153121676016
 20
2803.324713053003
 30
0.0
 11
862.6622008347768
 21
2803.324713053003
 31
0.0
  0
LINE
  5
7C25
330
83B3
100
AcDbEntity
  8
1
100
AcDbLine
 10
4374.517051099289
 20
2418.324713053003
 30
0.0
 11
4439.517051099289
 21
2418.324713053003
 31
0.0
1001
ACAD
1000
ASC_BOUNDS
1002
{
1070
    19
1002
}
  0
LINE
  5
7C26
330
83B3
100
AcDbEntity
  8
1
100
AcDbLine
 10
4374.517051099291
 20
2543.324713053003
 30
0.0
 11
6274.517051099289
 21
2543.324713053003
 31
0.0
  0
LINE
  5
7C27
330
83B3
100
AcDbEntity
  8
1
100
AcDbLine
 10
4439.517051099291
 20
2418.324713053003
 30
0.0
 11
6274.517051099291
 21
2418.324713053003
 31
0.0
1001
ACAD
1000
ASC_BOUNDS
1002
{
1070
    19
1002
}
  0
LINE
  5
7C28
330
83B3
100
AcDbEntity
  8
2
100
AcDbLine
 10
4352.040301032191
 20
3428.324713053003
 30
0.0
 11
6381.50503817603
 21
3428.324713053003
 31
0.0
  0
LINE
  5
7C29
330
83B3
100
AcDbEntity
  8
1
100
AcDbLine
 10
4371.517051099291
 20
3682.324713053003
 30
0.0
 11
4371.517051099291
 21
2685.324713053003
 31
0.0
  0
LINE
  5
7C2A
330
83B3
100
AcDbEntity
  8
1
100
AcDbLine
 10
4482.01705109929
 20
3682.324713053003
 30
0.0
 11
4482.01705109929
 21
2685.324713053003
 31
0.0
  0
LINE
  5
7C2B
330
83B3
100
AcDbEntity
  8
2
100
AcDbLine
 10
4353.298111880161
 20
2803.324713053003
 30
0.0
 11
4813.462741034167
 21
2803.324713053003
 31
0.0
  0
LINE
  5
7C2C
330
83B3
100
AcDbEntity
  8
1
100
AcDbLine
 10
4336.517051099289
 20
3808.324713053004
 30
0.0
 11
4336.517051099288
 21
2583.324713053003
 31
0.0
  0
LINE
  5
7C2D
330
83B3
100
AcDbEntity
  8
1
100
AcDbLine
 10
4533.81705109929
 20
3808.324713053004
 30
0.0
 11
4533.81705109929
 21
3788.324713053004
 31
0.0
  0
LINE
  5
7C2E
330
83B3
100
AcDbEntity
  8
2
100
AcDbLine
 10
2436.826826817036
 20
7516.356230369336
 30
0.0
 11
2436.826826817036
 21
5673.777819829195
 31
0.0
  0
LINE
  5
7C2F
330
83B3
100
AcDbEntity
  8
2
100
AcDbLine
 10
3312.028022879291
 20
6832.723803734342
 30
0.0
 11
1090.421539384013
 21
6832.723803734342
 31
0.0
  0
LINE
  5
7C30
330
83B3
100
AcDbEntity
  8
2
100
AcDbLine
 10
5456.51705109929
 20
4404.185691688095
 30
0.0
 11
5456.517051099291
 21
2333.324713053003
 31
0.0
  0
POINT
  5
7C31
330
83B3
100
AcDbEntity
  8
1
100
AcDbPoint
 10
2436.826826817036
 20
4229.526275551623
 30
0.0
  0
INSERT
  5
7C32
330
83B3
100
AcDbEntity
  8
0
100
AcDbBlockReference
  2
YA_N
 10
-1074.779326041182
 20
-1311.669320613289
 30
0.0
 41
25.0
 42
25.0
 43
25.0
  0
LINE
  5
7C34
330
83B3
100
AcDbEntity
  8
1
100
AcDbLine
 10
3096.826826817036
 20
2398.324713053003
 30
0.0
 11
836.8268268170357
 21
2398.324713053003
 31
0.0
1001
ACAD
1000
ASC_BOUNDS
1002
{
1070
    19
1005
0
1002
}
  0
LINE
  5
7C35
330
83B3
100
AcDbEntity
  8
1
100
AcDbLine
 10
3096.826826817036
 20
2398.324713053003
 30
0.0
 11
3096.826826817036
 21
2333.324713053003
 31
0.0
  0
LINE
  5
7C36
330
83B3
100
AcDbEntity
  8
1
100
AcDbLine
 10
836.8268268170357
 20
2398.324713053003
 30
0.0
 11
836.8268268170357
 21
2333.324713053003
 31
0.0
  0
LINE
  5
7C37
330
83B3
100
AcDbEntity
  8
1
100
AcDbLine
 10
3096.826826817036
 20
2333.324713053003
 30
0.0
 11
836.8268268170357
 21
2333.324713053003
 31
0.0
1001
ACAD
1000
ASC_BOUNDS
1002
{
1070
    19
1002
}
  0
LINE
  5
7C38
330
83B3
100
AcDbEntity
  8
1
100
AcDbLine
 10
4377.017051099292
 20
2398.324713053003
 30
0.0
 11
6274.517051099291
 21
2398.324713053003
 31
0.0
1001
ACAD
1000
ASC_BOUNDS
1002
{
1070
    19
1002
}
  0
LINE
  5
7C39
330
83B3
100
AcDbEntity
  8
1
100
AcDbLine
 10
4374.517051099291
 20
2398.324713053003
 30
0.0
 11
4374.517051099279
 21
2333.324713053003
 31
0.0
  0
LINE
  5
7C3A
330
83B3
100
AcDbEntity
  8
1
100
AcDbLine
 10
4374.517051099278
 20
2333.324713053003
 30
0.0
 11
6274.51705109927
 21
2333.324713053003
 31
0.0
  0
INSERT
  5
7C3B
330
83B3
100
AcDbEntity
  8
0
100
AcDbBlockReference
  2
YA_N
 10
-346.9416476423939
 20
-375.8074592043958
 30
0.0
 41
25.0
 42
25.0
 43
25.0
  0
ARC
  5
7C40
330
83B3
100
AcDbEntity
  8
1
100
AcDbCircle
 10
1126.826826817036
 20
2803.324713053003
 30
0.0
 40
203.5
100
AcDbArc
 50
285.603699
 51
254.39624
  0
LINE
  5
7C41
330
83B3
100
AcDbEntity
  8
1
100
AcDbLine
 10
1072.088789817036
 20
2607.324713053003
 30
0.0
 11
1181.564863817037
 21
2607.324713053003
 31
0.0
  0
ARC
  5
7C42
330
83B3
100
AcDbEntity
  8
1
100
AcDbCircle
 10
1312.826826817035
 20
2620.324713053003
 30
0.0
 40
3.0
100
AcDbArc
 50
0.0
 51
90.0
  0
ARC
  5
7C43
330
83B3
100
AcDbEntity
  8
1
100
AcDbCircle
 10
1310.826826817035
 20
2677.651374053003
 30
0.0
 40
5.000066999999999
100
AcDbArc
 50
0.0
 51
55.056335
  0
LINE
  5
7C44
330
83B3
100
AcDbEntity
  8
1
100
AcDbLine
 10
1315.826826817036
 20
2677.651374053003
 30
0.0
 11
1315.826826817036
 21
2603.324713053003
 31
0.0
  0
LINE
  5
7C48
330
83B3
100
AcDbEntity
  8
1
100
AcDbLine
 10
1230.929396817036
 20
2628.467902053003
 30
0.0
 11
1236.326826817035
 21
2608.324713053003
 31
0.0
  0
LINE
  5
7C49
330
83B3
100
AcDbEntity
  8
1
100
AcDbLine
 10
1236.326826817035
 20
2620.324713053003
 30
0.0
 11
1236.326826817035
 21
2603.324713053003
 31
0.0
  0
LINE
  5
7C4A
330
83B3
100
AcDbEntity
  8
1
100
AcDbLine
 10
1239.326826817036
 20
2623.324713053003
 30
0.0
 11
1312.826826817035
 21
2623.324713053003
 31
0.0
  0
ARC
  5
7C4B
330
83B3
100
AcDbEntity
  8
1
100
AcDbCircle
 10
1239.326826817036
 20
2620.324713053003
 30
0.0
 40
3.0
100
AcDbArc
 50
90.0
 51
180.0
  0
LINE
  5
7C4C
330
83B3
100
AcDbEntity
  8
1
100
AcDbLine
 10
1313.690596817036
 20
2681.750006053003
 30
0.0
 11
1297.752730817035
 21
2692.886481053003
 31
0.0
  0
LINE
  5
7C4D
330
83B3
100
AcDbEntity
  8
1
100
AcDbLine
 10
937.826826817036
 20
2677.651374053003
 30
0.0
 11
937.826826817036
 21
2603.324713053003
 31
0.0
  0
LINE
  5
7C51
330
83B3
100
AcDbEntity
  8
1
100
AcDbLine
 10
1022.724043817037
 20
2628.468024053003
 30
0.0
 11
1017.326826817035
 21
2608.324713053003
 31
0.0
  0
LINE
  5
7C52
330
83B3
100
AcDbEntity
  8
1
100
AcDbLine
 10
1017.326826817035
 20
2620.324713053003
 30
0.0
 11
1017.326826817035
 21
2603.324713053003
 31
0.0
  0
LINE
  5
7C53
330
83B3
100
AcDbEntity
  8
1
100
AcDbLine
 10
1014.326826817036
 20
2623.324713053003
 30
0.0
 11
940.8268268170356
 21
2623.324713053003
 31
0.0
  0
ARC
  5
7C54
330
83B3
100
AcDbEntity
  8
1
100
AcDbCircle
 10
1014.326826817036
 20
2620.324713053003
 30
0.0
 40
3.0
100
AcDbArc
 50
0.0
 51
90.0
  0
ARC
  5
7C55
330
83B3
100
AcDbEntity
  8
1
100
AcDbCircle
 10
940.8268268170356
 20
2620.324713053003
 30
0.0
 40
3.0
100
AcDbArc
 50
90.0
 51
180.0
  0
LINE
  5
7C56
330
83B3
100
AcDbEntity
  8
1
100
AcDbLine
 10
939.9629358170367
 20
2681.750006053003
 30
0.0
 11
955.9008018170366
 21
2692.886481053003
 31
0.0
  0
ARC
  5
7C57
330
83B3
100
AcDbEntity
  8
1
100
AcDbCircle
 10
942.8268268170359
 20
2677.651374053003
 30
0.0
 40
5.0
100
AcDbArc
 50
124.943661
 51
180.0
  0
LINE
  5
7C58
330
83B3
100
AcDbEntity
  8
1
100
AcDbLine
 10
1370.889082865125
 20
2603.324713053003
 30
0.0
 11
1196.826826817035
 21
2603.324713053003
 31
0.0
  0
LINE
  5
7C59
330
83B3
100
AcDbEntity
  8
1
100
AcDbLine
 10
1386.826826817037
 20
2543.324713053003
 30
0.0
 11
1370.889082865127
 21
2603.324713053003
 31
0.0
  0
LINE
  5
7C5A
330
83B3
100
AcDbEntity
  8
1
100
AcDbLine
 10
866.8268268170377
 20
2543.324713053003
 30
0.0
 11
882.8118367234019
 21
2603.324713053003
 31
0.0
  0
LINE
  5
7C5C
330
83B3
100
AcDbEntity
  8
1
100
AcDbLine
 10
1196.826826817035
 20
2593.324713053003
 30
0.0
 11
1056.826826817035
 21
2593.324713053003
 31
0.0
  0
LINE
  5
7C5D
330
83B3
100
AcDbEntity
  8
1
100
AcDbLine
 10
1056.826826817035
 20
2603.324713053003
 30
0.0
 11
1056.826826817037
 21
2593.324713053003
 31
0.0
  0
LINE
  5
7C5E
330
83B3
100
AcDbEntity
  8
1
100
AcDbLine
 10
1196.826826817035
 20
2603.324713053003
 30
0.0
 11
1196.826826817035
 21
2593.324713053003
 31
0.0
  0
LINE
  5
7C61
330
83B3
100
AcDbEntity
  8
1
100
AcDbLine
 10
1056.826826817035
 20
2603.324713053003
 30
0.0
 11
882.8118367234019
 21
2603.324713053003
 31
0.0
  0
CIRCLE
  5
7C62
330
83B3
100
AcDbEntity
  8
1
100
AcDbCircle
 10
1126.826826817036
 20
2803.324713053003
 30
0.0
 40
118.0
  0
LINE
  5
7C63
330
83B3
100
AcDbEntity
  8
1
100
AcDbLine
 10
4371.517051099289
 20
2921.324713053003
 30
0.0
 11
4482.01705109929
 21
2921.324713053003
 31
0.0
  0
LINE
  5
7C64
330
83B3
100
AcDbEntity
  8
1
100
AcDbLine
 10
4371.517051099291
 20
2685.324713053003
 30
0.0
 11
4482.01705109929
 21
2685.324713053003
 31
0.0
  0
LINE
  5
7C65
330
83B3
100
AcDbEntity
  8
1
100
AcDbLine
 10
4336.517051099289
 20
2583.324713053003
 30
0.0
 11
4533.81705109929
 21
2583.324713053003
 31
0.0
  0
POINT
  5
7C66
330
83B3
100
AcDbEntity
  8
1
100
AcDbPoint
 10
3096.826826817036
 20
2297.324713053003
 30
0.0
  0
INSERT
  5
7C67
330
83B3
100
AcDbEntity
  8
0
100
AcDbBlockReference
  2
YA_N
 10
-394.4722692372305
 20
-430.898429998433
 30
0.0
 41
25.0
 42
25.0
 43
25.0
  0
POINT
  5
7C69
330
83B3
100
AcDbEntity
  8
1
100
AcDbPoint
 10
3096.826826817036
 20
2297.324713053003
 30
0.0
  0
LINE
  5
7C6A
330
83B3
100
AcDbEntity
  8
1
100
AcDbLine
 10
4706.517051099291
 20
2543.324713053003
 30
0.0
 11
4706.517051099292
 21
3428.324713053003
 31
0.0
  0
LINE
  5
7C6B
330
83B3
100
AcDbEntity
  8
1
100
AcDbLine
 10
6206.517051099289
 20
2543.324713053003
 30
0.0
 11
6206.517051099291
 21
3428.324713053003
 31
0.0
  0
LINE
  5
7C6C
330
83B3
100
AcDbEntity
  8
1
100
AcDbLine
 10
4706.51705109929
 20
3428.324713053003
 30
0.0
 11
4706.517051099289
 21
4188.324713053003
 31
0.0
  0
LINE
  5
7C6D
330
83B3
100
AcDbEntity
  8
1
100
AcDbLine
 10
6206.517051099289
 20
3428.324713053003
 30
0.0
 11
6206.517051099289
 21
4188.324713053003
 31
0.0
  0
LINE
  5
7C6E
330
83B3
100
AcDbEntity
  8
1
100
AcDbLine
 10
4549.01705109929
 20
3365.324713053003
 30
0.0
 11
4639.21705109929
 21
3365.324713053002
 31
0.0
  0
LINE
  5
7C6F
330
83B3
100
AcDbEntity
  8
1
100
AcDbLine
 10
4539.017051099289
 20
3355.324713053004
 30
0.0
 11
4539.017051099289
 21
3225.324713053003
 31
0.0
  0
LINE
  5
7C70
330
83B3
100
AcDbEntity
  8
1
100
AcDbLine
 10
4679.017051099289
 20
3365.324713053002
 30
0.0
 11
4679.017051099289
 21
3215.324713053002
 31
0.0
  0
LINE
  5
7C71
330
83B3
100
AcDbEntity
  8
1
100
AcDbLine
 10
4549.01705109929
 20
3215.324713053004
 30
0.0
 11
4639.21705109929
 21
3215.324713053002
 31
0.0
  0
ARC
  5
7C72
330
83B3
100
AcDbEntity
  8
1
100
AcDbCircle
 10
4549.01705109929
 20
3355.324713053004
 30
0.0
 40
10.0
100
AcDbArc
 50
90.0
 51
180.0
  0
ARC
  5
7C73
330
83B3
100
AcDbEntity
  8
1
100
AcDbCircle
 10
4549.01705109929
 20
3225.324713053003
 30
0.0
 40
10.0
100
AcDbArc
 50
180.0
 51
270.0
  0
LINE
  5
7C74
330
83B3
100
AcDbEntity
  8
1
100
AcDbLine
 10
6234.017051099289
 20
3365.324713053002
 30
0.0
 11
6234.017051099289
 21
3215.324713053002
 31
0.0
  0
LINE
  5
7C75
330
83B3
100
AcDbEntity
  8
1
100
AcDbLine
 10
6386.517051099289
 20
3355.324713053004
 30
0.0
 11
6386.517051099289
 21
3225.324713053003
 31
0.0
  0
LINE
  5
7C76
330
83B3
100
AcDbEntity
  8
1
100
AcDbLine
 10
6376.517051099289
 20
3215.324713053004
 30
0.0
 11
6273.817051099292
 21
3215.324713053002
 31
0.0
  0
ARC
  5
7C77
330
83B3
100
AcDbEntity
  8
1
100
AcDbCircle
 10
6376.517051099289
 20
3225.324713053003
 30
0.0
 40
10.0
100
AcDbArc
 50
270.0
 51
0.0
  0
LINE
  5
7C78
330
83B3
100
AcDbEntity
  8
1
100
AcDbLine
 10
6376.517051099289
 20
3365.324713053003
 30
0.0
 11
6273.817051099292
 21
3365.324713053002
 31
0.0
  0
ARC
  5
7C79
330
83B3
100
AcDbEntity
  8
1
100
AcDbCircle
 10
6376.517051099289
 20
3355.324713053004
 30
0.0
 40
10.0
100
AcDbArc
 50
0.0
 51
90.0
  0
LINE
  5
7C7A
330
83B3
100
AcDbEntity
  8
1
100
AcDbLine
 10
4511.517051099289
 20
3468.324713053004
 30
0.0
 11
4706.517051099289
 21
3468.324713053004
 31
0.0
  0
LINE
  5
7C7B
330
83B3
100
AcDbEntity
  8
1
100
AcDbLine
 10
4511.51705109929
 20
3388.324713053004
 30
0.0
 11
4706.517051099292
 21
3388.324713053004
 31
0.0
  0
LINE
  5
7C7C
330
83B3
100
AcDbEntity
  8
1
100
AcDbLine
 10
4511.51705109929
 20
3468.324713053004
 30
0.0
 11
4511.51705109929
 21
3388.324713053004
 31
0.0
  0
LINE
  5
7C7D
330
83B3
100
AcDbEntity
  8
1
100
AcDbLine
 10
4482.01705109929
 20
3460.824713053003
 30
0.0
 11
4511.51705109929
 21
3460.824713053003
 31
0.0
  0
LINE
  5
7C7E
330
83B3
100
AcDbEntity
  8
1
100
AcDbLine
 10
4482.01705109929
 20
3395.824713053003
 30
0.0
 11
4511.51705109929
 21
3395.824713053003
 31
0.0
  0
LINE
  5
7C83
330
83B3
100
AcDbEntity
  8
1
100
AcDbLine
 10
6273.817051099292
 20
3365.324713053002
 30
0.0
 11
6234.017051099289
 21
3365.324713053002
 31
0.0
  0
LINE
  5
7C84
330
83B3
100
AcDbEntity
  8
1
100
AcDbLine
 10
6273.817051099292
 20
3215.324713053002
 30
0.0
 11
6234.017051099289
 21
3215.324713053002
 31
0.0
  0
LINE
  5
7C85
330
83B3
100
AcDbEntity
  8
1
100
AcDbLine
 10
4639.21705109929
 20
3365.324713053002
 30
0.0
 11
4679.017051099289
 21
3365.324713053002
 31
0.0
  0
LINE
  5
7C86
330
83B3
100
AcDbEntity
  8
1
100
AcDbLine
 10
4639.21705109929
 20
3215.324713053002
 30
0.0
 11
4679.017051099289
 21
3215.324713053002
 31
0.0
  0
POINT
  5
7C87
330
83B3
100
AcDbEntity
  8
1
100
AcDbPoint
 10
3096.826826817036
 20
2297.324713053003
 30
0.0
  0
ARC
  5
7C88
330
83B3
100
AcDbEntity
  8
1
100
AcDbCircle
 10
2436.826826817036
 20
3428.324713053003
 30
0.0
 40
668.0
100
AcDbArc
 50
90.0
 51
94.12061321395006
  0
LINE
  5
7C89
330
83B3
100
AcDbEntity
  8
1
100
AcDbLine
 10
926.8268268170359
 20
2335.324713053003
 30
0.0
 11
926.8268268170359
 21
2333.324713053003
 31
0.0
  0
LINE
  5
7C8A
330
83B3
100
AcDbEntity
  8
1
100
AcDbLine
 10
6274.517051099291
 20
2543.324713053003
 30
0.0
 11
6274.517051099291
 21
2418.324713053003
 31
0.0
  0
LINE
  5
7C8B
330
83B3
100
AcDbEntity
  8
1
100
AcDbLine
 10
4374.517051099291
 20
2543.324713053003
 30
0.0
 11
4374.517051099291
 21
2418.324713053003
 31
0.0
  0
LINE
  5
7C8C
330
83B3
100
AcDbEntity
  8
1
100
AcDbLine
 10
6274.517051099291
 20
2398.324713053005
 30
0.0
 11
6274.51705109927
 21
2333.324713053003
 31
0.0
  0
INSERT
  5
7C8E
330
83B3
100
AcDbEntity
  8
0
100
AcDbBlockReference
  2
YA_N
 10
4305.350442567148
 20
-1988.400780944633
 30
0.0
  0
POINT
  5
7C90
330
83B3
100
AcDbEntity
  8
1
100
AcDbPoint
 10
3096.826826817036
 20
2398.324713053003
 30
0.0
  0
POINT
  5
7C91
330
83B3
100
AcDbEntity
  8
1
100
AcDbPoint
 10
3096.826826817036
 20
2333.324713053003
 30
0.0
  0
POINT
  5
7C92
330
83B3
100
AcDbEntity
  8
1
100
AcDbPoint
 10
3096.826826817036
 20
2398.324713053003
 30
0.0
  0
POINT
  5
7C93
330
83B3
100
AcDbEntity
  8
1
100
AcDbPoint
 10
3096.826826817036
 20
2418.324713053003
 30
0.0
  0
ARC
  5
7C96
330
83B3
100
AcDbEntity
  8
1
100
AcDbCircle
 10
2436.826826817036
 20
3428.324713053003
 30
0.0
 40
380.0
100
AcDbArc
 50
282.5282342404732
 51
115.778882395325
  0
CIRCLE
  5
7C97
330
83B3
100
AcDbEntity
  8
1
100
AcDbCircle
 10
2436.826826817036
 20
3428.324713053003
 30
0.0
 40
254.0
  0
ARC
  5
7C98
330
83B3
100
AcDbEntity
  8
1
100
AcDbCircle
 10
1126.826826817036
 20
2803.324713053003
 30
0.0
 40
220.0
100
AcDbArc
 50
115.778882395325
 51
282.5282342404732
  0
LINE
  5
7C99
330
83B3
100
AcDbEntity
  8
1
100
AcDbLine
 10
2271.565116464755
 20
3770.50678022111
 30
0.0
 11
1031.148994507821
 21
3001.430120360854
 31
0.0
  0
LINE
  5
7C9A
330
83B3
100
AcDbEntity
  8
1
100
AcDbLine
 10
2330.36009757588
 20
3658.934417022048
 30
0.0
 11
1077.365905358547
 21
2910.45835505437
 31
0.0
  0
LINE
  5
7C9B
330
83B3
100
AcDbEntity
  8
1
100
AcDbLine
 10
2496.23198699742
 20
3181.369196929263
 30
0.0
 11
1154.424499656741
 21
2688.597347294729
 31
0.0
  0
LINE
  5
7C9C
330
83B3
100
AcDbEntity
  8
1
100
AcDbLine
 10
2519.256687965548
 20
3057.372805130915
 30
0.0
 11
1174.549378008279
 21
2588.563082150741
 31
0.0
  0
LINE
  5
7C9D
330
83B3
100
AcDbEntity
  8
1
100
AcDbLine
 10
4371.517051099291
 20
3682.324713053003
 30
0.0
 11
4482.01705109929
 21
3682.324713053003
 31
0.0
  0
LINE
  5
7C9E
330
83B3
100
AcDbEntity
  8
1
100
AcDbLine
 10
4371.517051099291
 20
3174.324713053003
 30
0.0
 11
4482.01705109929
 21
3174.324713053003
 31
0.0
  0
LINE
  5
7C9F
330
83B3
100
AcDbEntity
  8
1
100
AcDbLine
 10
4336.517051099289
 20
3808.324713053004
 30
0.0
 11
4533.81705109929
 21
3808.324713053004
 31
0.0
  0
LINE
  5
7CA0
330
83B3
100
AcDbEntity
  8
1
100
AcDbLine
 10
4533.81705109929
 20
2603.324713053003
 30
0.0
 11
4533.81705109929
 21
2583.324713053003
 31
0.0
  0
LINE
  5
7CA2
330
83B3
100
AcDbEntity
  8
1
100
AcDbLine
 10
3096.826826817036
 20
7650.723803734343
 30
0.0
 11
1776.826826817035
 21
7650.723803734341
 31
0.0
  0
LINE
  5
7CA3
330
83B3
100
AcDbEntity
  8
1
100
AcDbLine
 10
3096.826826817036
 20
5750.723803734341
 30
0.0
 11
836.8268268170357
 21
5750.723803734341
 31
0.0
  0
LINE
  5
7CA4
330
83B3
100
AcDbEntity
  8
1
100
AcDbLine
 10
3096.826826817036
 20
7650.723803734343
 30
0.0
 11
3096.826826817036
 21
7582.723803734342
 31
0.0
  0
LINE
  5
7CA5
330
83B3
100
AcDbEntity
  8
1
100
AcDbLine
 10
836.8268268170357
 20
6650.72380373434
 30
0.0
 11
836.8268268170357
 21
5750.723803734341
 31
0.0
  0
LINE
  5
7CA6
330
83B3
100
AcDbEntity
  8
1
100
AcDbLine
 10
1776.826826817035
 20
7650.723803734343
 30
0.0
 11
1776.826826817035
 21
7582.723803734339
 31
0.0
  0
LINE
  5
7CA7
330
83B3
100
AcDbEntity
  8
1
100
AcDbLine
 10
1238.826826817035
 20
6650.72380373434
 30
0.0
 11
836.8268268170357
 21
6650.72380373434
 31
0.0
  0
LINE
  5
7CA8
330
83B3
100
AcDbEntity
  8
2
100
AcDbLine
 10
1126.826826817036
 20
6518.446380892666
 30
0.0
 11
1126.826826817039
 21
5673.777819829195
 31
0.0
  0
CIRCLE
  5
7CB0
330
83B3
100
AcDbEntity
  8
1
100
AcDbCircle
 10
2436.826826817036
 20
3428.324713053003
 30
0.0
 40
560.0
  0
CIRCLE
  5
7CB1
330
83B3
100
AcDbEntity
  8
1
100
AcDbCircle
 10
2436.826826817036
 20
3428.324713053003
 30
0.0
 40
610.0
  0
LINE
  5
7CB2
330
83B3
100
AcDbEntity
  8
1
100
AcDbLine
 10
2816.826826817036
 20
5712.72380373434
 30
0.0
 11
906.8268268170356
 21
5712.72380373434
 31
0.0
  0
LINE
  5
7CB3
330
83B3
100
AcDbEntity
  8
1
100
AcDbLine
 10
2816.826826817036
 20
5882.72380373434
 30
0.0
 11
906.8268268170356
 21
5882.72380373434
 31
0.0
  0
LINE
  5
7CB4
330
83B3
100
AcDbEntity
  8
1
100
AcDbLine
 10
2816.826826817036
 20
5712.72380373434
 30
0.0
 11
2816.826826817036
 21
5882.72380373434
 31
0.0
  0
LINE
  5
7CB5
330
83B3
100
AcDbEntity
  8
1
100
AcDbLine
 10
906.8268268170356
 20
5712.72380373434
 30
0.0
 11
906.8268268170356
 21
5882.72380373434
 31
0.0
  0
LINE
  5
7CB6
330
83B3
100
AcDbEntity
  8
1
100
AcDbLine
 10
2690.826826817036
 20
5750.423803734339
 30
0.0
 11
2690.826826817036
 21
5860.92380373434
 31
0.0
  0
LINE
  5
7CB7
330
83B3
100
AcDbEntity
  8
1
100
AcDbLine
 10
2182.826826817036
 20
5750.423803734339
 30
0.0
 11
2182.826826817036
 21
5860.92380373434
 31
0.0
  0
LINE
  5
7CB8
330
83B3
100
AcDbEntity
  8
1
100
AcDbLine
 10
1244.826826817035
 20
5750.423803734341
 30
0.0
 11
1244.826826817035
 21
5860.92380373434
 31
0.0
  0
LINE
  5
7CB9
330
83B3
100
AcDbEntity
  8
1
100
AcDbLine
 10
1008.826826817035
 20
5750.423803734339
 30
0.0
 11
1008.826826817035
 21
5860.92380373434
 31
0.0
  0
LINE
  5
7CBA
330
83B3
100
AcDbEntity
  8
1
100
AcDbLine
 10
2690.826826817036
 20
5750.423803734341
 30
0.0
 11
2182.826826817036
 21
5750.423803734341
 31
0.0
  0
LINE
  5
7CBB
330
83B3
100
AcDbEntity
  8
1
100
AcDbLine
 10
2690.826826817036
 20
5860.92380373434
 30
0.0
 11
2182.826826817036
 21
5860.92380373434
 31
0.0
  0
LINE
  5
7CBC
330
83B3
100
AcDbEntity
  8
1
100
AcDbLine
 10
1244.826826817035
 20
5860.92380373434
 30
0.0
 11
1008.826826817035
 21
5860.92380373434
 31
0.0
  0
LINE
  5
7CBD
330
83B3
100
AcDbEntity
  8
1
100
AcDbLine
 10
1244.826826817035
 20
5750.423803734341
 30
0.0
 11
1008.826826817035
 21
5750.423803734339
 31
0.0
  0
LINE
  5
7CBE
330
83B3
100
AcDbEntity
  8
1
100
AcDbLine
 10
3241.826826817035
 20
7582.723803734339
 30
0.0
 11
1238.826826817035
 21
7582.723803734342
 31
0.0
  0
LINE
  5
7CBF
330
83B3
100
AcDbEntity
  8
1
100
AcDbLine
 10
3241.826826817035
 20
6082.72380373434
 30
0.0
 11
1238.826826817035
 21
6082.72380373434
 31
0.0
  0
LINE
  5
7CC0
330
83B3
100
AcDbEntity
  8
1
100
AcDbLine
 10
2471.826826817036
 20
6082.72380373434
 30
0.0
 11
2471.826826817036
 21
5860.92380373434
 31
0.0
  0
LINE
  5
7CC1
330
83B3
100
AcDbEntity
  8
1
100
AcDbLine
 10
2401.826826817035
 20
6082.72380373434
 30
0.0
 11
2401.826826817035
 21
5860.92380373434
 31
0.0
  0
LINE
  5
7CC2
330
83B3
100
AcDbEntity
  8
1
100
AcDbLine
 10
1325.826826817037
 20
6082.72380373434
 30
0.0
 11
1325.826826817037
 21
5895.423803734342
 31
0.0
  0
LINE
  5
7CC3
330
83B3
100
AcDbEntity
  8
1
100
AcDbLine
 10
927.8268268170361
 20
6552.923803734339
 30
0.0
 11
927.8268268170377
 21
5895.423803734338
 31
0.0
  0
LINE
  5
7CC4
330
83B3
100
AcDbEntity
  8
1
100
AcDbLine
 10
1238.826826817035
 20
6552.923803734339
 30
0.0
 11
927.8268268170361
 21
6552.923803734339
 31
0.0
  0
LINE
  5
7CC5
330
83B3
100
AcDbEntity
  8
1
100
AcDbLine
 10
1325.826826817039
 20
5895.423803734342
 30
0.0
 11
927.8268268170393
 21
5895.423803734339
 31
0.0
  0
LINE
  5
7CC6
330
83B3
100
AcDbEntity
  8
1
100
AcDbLine
 10
1154.326826817037
 20
5895.423803734342
 30
0.0
 11
1154.326826817037
 21
5860.92380373434
 31
0.0
  0
LINE
  5
7CC7
330
83B3
100
AcDbEntity
  8
1
100
AcDbLine
 10
1099.326826817037
 20
5895.423803734342
 30
0.0
 11
1099.326826817037
 21
5860.92380373434
 31
0.0
  0
LINE
  5
7CC8
330
83B3
100
AcDbEntity
  8
1
100
AcDbLine
 10
4706.517051099292
 20
3002.324713053005
 30
0.0
 11
4516.517051099287
 21
3002.324713053005
 31
0.0
  0
LINE
  5
7CC9
330
83B3
100
AcDbEntity
  8
1
100
AcDbLine
 10
4706.517051099292
 20
2604.324713053005
 30
0.0
 11
4516.517051099291
 21
2604.324713053005
 31
0.0
  0
LINE
  5
7CCA
330
83B3
100
AcDbEntity
  8
1
100
AcDbLine
 10
4516.517051099291
 20
2604.324713053003
 30
0.0
 11
4516.517051099289
 21
3002.324713053003
 31
0.0
  0
LINE
  5
7CCB
330
83B3
100
AcDbEntity
  8
1
100
AcDbLine
 10
4516.51705109929
 20
2775.824713053005
 30
0.0
 11
4482.01705109929
 21
2775.824713053005
 31
0.0
  0
LINE
  5
7CCC
330
83B3
100
AcDbEntity
  8
1
100
AcDbLine
 10
4516.51705109929
 20
2830.824713053005
 30
0.0
 11
4482.01705109929
 21
2830.824713053005
 31
0.0
  0
LINE
  5
7CD3
330
83B3
100
AcDbEntity
  8
1
100
AcDbLine
 10
3096.826826817036
 20
6082.72380373434
 30
0.0
 11
3096.826826817036
 21
5750.723803734341
 31
0.0
  0
LINE
  5
7CDB
330
83B3
100
AcDbEntity
  8
1
100
AcDbLine
 10
4656.517051099288
 20
4188.324713053003
 30
0.0
 11
6256.517051099291
 21
4188.324713053003
 31
0.0
  0
LINE
  5
7CDC
330
83B3
100
AcDbEntity
  8
1
100
AcDbLine
 10
4656.517051099288
 20
4184.324713053004
 30
0.0
 11
6256.517051099291
 21
4184.324713053004
 31
0.0
  0
LINE
  5
7CDD
330
83B3
100
AcDbEntity
  8
1
100
AcDbLine
 10
4656.517051099289
 20
4184.324713053004
 30
0.0
 11
4656.517051099289
 21
4188.324713053003
 31
0.0
  0
LINE
  5
7CDE
330
83B3
100
AcDbEntity
  8
1
100
AcDbLine
 10
6256.517051099291
 20
4184.324713053004
 30
0.0
 11
6256.517051099289
 21
4188.324713053003
 31
0.0
  0
LINE
  5
7CDF
330
83B3
100
AcDbEntity
  8
1
100
AcDbLine
 10
1238.826826817035
 20
7582.723803734342
 30
0.0
 11
1238.826826817035
 21
6082.72380373434
 31
0.0
  0
LINE
  5
7CE0
330
83B3
100
AcDbEntity
  8
1
100
AcDbLine
 10
3241.826826817035
 20
7582.723803734339
 30
0.0
 11
3241.826826817035
 21
6082.72380373434
 31
0.0
  0
LINE
  5
7CE1
330
83B3
100
AcDbEntity
  8
1
100
AcDbLine
 10
2388.826826817036
 20
7582.723803734342
 30
0.0
 11
2388.826826817036
 21
6082.72380373434
 31
0.0
  0
LINE
  5
7CE2
330
83B3
100
AcDbEntity
  8
1
100
AcDbLine
 10
2388.826826817036
 20
7582.723803734339
 30
0.0
 11
1238.826826817035
 21
6082.72380373434
 31
0.0
  0
LINE
  5
7CE3
330
83B3
100
AcDbEntity
  8
1
100
AcDbLine
 10
1238.826826817035
 20
7582.723803734342
 30
0.0
 11
2388.826826817036
 21
6082.72380373434
 31
0.0
  0
LINE
  5
801A
330
83B3
100
AcDbEntity
  8
4
100
AcDbLine
 10
6475.0
 20
1411.801532643661
 30
0.0
 11
6475.0
 21
711.8015326436618
 31
0.0
  0
LINE
  5
801B
330
83B3
100
AcDbEntity
  8
4
100
AcDbLine
 10
4025.0
 20
1411.801532643661
 30
0.0
 11
4025.0
 21
711.8015326436618
 31
0.0
  0
LINE
  5
801C
330
83B3
100
AcDbEntity
  8
4
100
AcDbLine
 10
2275.0
 20
1411.801532643661
 30
0.0
 11
2275.0
 21
711.8015326436618
 31
0.0
  0
LINE
  5
801F
330
83B3
100
AcDbEntity
  8
4
100
AcDbLine
 10
2275.0
 20
711.8015326436616
 30
0.0
 11
6475.0
 21
711.8015326436616
 31
0.0
  0
LINE
  5
8020
330
83B3
100
AcDbEntity
  8
4
100
AcDbLine
 10
2275.0
 20
1061.80153264366
 30
0.0
 11
6475.0
 21
1061.80153264366
 31
0.0
  0
TEXT
  5
8021
330
83B3
100
AcDbEntity
  8
4
100
AcDbText
 10
2409.757282964156
 20
1172.202123176806
 30
0.0
 40
175.0
  1
機器名称
100
AcDbText
  0
TEXT
  5
8022
330
83B3
100
AcDbEntity
  8
4
100
AcDbText
 10
2401.903371086791
 20
787.5595812056999
 30
0.0
 40
175.0
  1
機器型番
100
AcDbText
  0
TEXT
  5
8023
330
83B3
100
AcDbEntity
  8
4
100
AcDbText
 10
4121.875609206827
 20
1140.80272399515
 30
0.0
 40
175.0
  1
ミツヤ多翼送風機
100
AcDbText
  0
TEXT
  5
8024
330
83B3
100
AcDbEntity
  8
4
100
AcDbText
 10
4153.290734549183
 20
771.8600776234634
 30
0.0
 40
175.0
  1
MF#7-5
100
AcDbText
  0
TEXT
  5
8026
330
83B3
100
AcDbEntity
  8
4
100
AcDbText
 10
2834.082641067674
 20
8342.000944663805
 30
0.0
 40
188.9999999999998
  1
床置防振ベット
100
AcDbText
  0
TEXT
  5
8027
330
83B3
100
AcDbEntity
  8
4
100
AcDbText
 10
1106.586576653062
 20
8868.583416697545
 30
0.0
 40
252.0
  1
遠心式両吸込両持多翼ファン
100
AcDbText
  0
LINE
  5
8028
330
83B3
100
AcDbEntity
  8
4
100
AcDbLine
 10
875.0
 20
8642.930639926817
 30
0.0
 11
6475.0
 21
8642.930639926817
 31
0.0
  0
LINE
  5
8029
330
83B3
100
AcDbEntity
  8
4
100
AcDbLine
 10
875.0
 20
9342.930639926818
 30
0.0
 11
6475.0
 21
9342.930639926818
 31
0.0
  0
LINE
  5
802A
330
83B3
100
AcDbEntity
  8
4
100
AcDbLine
 10
2275.0
 20
1411.801532643661
 30
0.0
 11
6475.0
 21
1411.801532643661
 31
0.0
  0
LINE
  5
802B
330
83B3
100
AcDbEntity
  8
4
100
AcDbLine
 10
875.0
 20
9342.930639926818
 30
0.0
 11
875.0
 21
8642.930639926817
 31
0.0
  0
TEXT
  5
802C
330
83B3
100
AcDbEntity
  8
4
100
AcDbText
 10
1308.576728218217
 20
8338.118171412203
 30
0.0
 40
188.9999999999998
  1
右回転上向
100
AcDbText
  0
TEXT
  5
802D
330
83B3
100
AcDbEntity
  8
4
100
AcDbText
 10
5141.393457372513
 20
9471.21378523358
 30
0.0
 40
196.0
  1
No.
100
AcDbText
  0
TEXT
  5
802E
330
83B3
100
AcDbEntity
  8
4
100
AcDbText
 10
4589.536219100046
 20
8342.000944663805
 30
0.0
 40
188.9999999999998
  1
縮尺：1/35
100
AcDbText
  0
LINE
  5
802F
330
83B3
100
AcDbEntity
  8
4
100
AcDbLine
 10
6475.0
 20
9342.930639926818
 30
0.0
 11
6475.0
 21
8642.930639926817
 31
0.0
  0
LINE
  5
8030
330
83B3
100
AcDbEntity
  8
4
100
AcDbLine
 10
7350.0
 20
10325.0
 30
0.0
 11
7350.0
 21
10325.0
 31
0.0
  0
LINE
  5
8031
330
83B3
100
AcDbEntity
  8
4
100
AcDbLine
 10
5042.160978259526
 20
9384.422540938905
 30
0.0
 11
5042.160978259526
 21
9753.282915424136
 31
0.0
  0
LINE
  5
8032
330
83B3
100
AcDbEntity
  8
4
100
AcDbLine
 10
5042.160978259526
 20
9753.282915424136
 30
0.0
 11
6475.0
 21
9753.282915424136
 31
0.0
  0
LINE
  5
8033
330
83B3
100
AcDbEntity
  8
4
100
AcDbLine
 10
6475.0
 20
9753.282915424136
 30
0.0
 11
6475.0
 21
9384.422540938905
 31
0.0
  0
LINE
  5
8034
330
83B3
100
AcDbEntity
  8
4
100
AcDbLine
 10
6475.0
 20
9384.422540938905
 30
0.0
 11
5042.160978259526
 21
9384.422540938905
 31
0.0
  0
LINE
  5
8035
330
83B3
100
AcDbEntity
  8
4
100
AcDbLine
 10
0.0
 20
0.0
 30
0.0
 11
0.0
 21
10325.0
 31
0.0
  0
LINE
  5
8036
330
83B3
100
AcDbEntity
  8
4
100
AcDbLine
 10
0.0
 20
10325.0
 30
0.0
 11
7350.0
 21
10325.0
 31
0.0
  0
LINE
  5
8037
330
83B3
100
AcDbEntity
  8
4
100
AcDbLine
 10
7350.0
 20
10325.0
 30
0.0
 11
7350.0
 21
0.0
 31
0.0
  0
LINE
  5
8038
330
83B3
100
AcDbEntity
  8
4
100
AcDbLine
 10
7350.0
 20
0.0
 30
0.0
 11
0.0
 21
0.0
 31
0.0
  0
DIMENSION
  5
840F
330
83B3
100
AcDbEntity
  8
3
100
AcDbDimension
  2
*D29
 10
6673.074201960123
 20
3988.324713053003
 30
0.0
 11
6585.574201960124
 21
3428.324713053005
 31
0.0
 70
    32
  1
\U+03C6<>
 71
     5
 42
1120.0
  3
IGA
100
AcDbAlignedDimension
 13
6206.51705109929
 23
2868.324713053003
 33
0.0
 14
6206.517051099289
 24
3988.324713053003
 34
0.0
 50
90.0
100
AcDbRotatedDimension
1001
ACAD
1000
DSTYLE
1002
{
1070
    40
1040
35.0
1070
   143
1040
0.039
1070
   172
1070
     1
1070
   271
1070
     4
1070
   272
1070
     4
1070
   279
1070
     0
1070
   284
1070
     0
1070
   285
1070
     0
1070
   286
1070
     0
1070
   341
1005
83C6
1070
   343
1005
83C6
1070
   344
1005
83C6
1002
}
  0
DIMENSION
  5
841C
330
83B3
100
AcDbEntity
  8
3
100
AcDbDimension
  2
*D30
 10
6206.517051099289
 20
4448.443004574665
 30
0.0
 11
5456.517051099289
 21
4535.943004574664
 31
0.0
 70
    32
 71
     5
 42
1500.0
  3
IGA
100
AcDbAlignedDimension
 13
4706.517051099289
 23
4188.324713053003
 33
0.0
 14
6206.517051099289
 24
4188.324713053003
 34
0.0
100
AcDbRotatedDimension
1001
ACAD
1000
DSTYLE
1002
{
1070
    40
1040
35.0
1070
   143
1040
0.039
1070
   172
1070
     1
1070
   271
1070
     4
1070
   272
1070
     4
1070
   279
1070
     0
1070
   284
1070
     0
1070
   285
1070
     0
1070
   286
1070
     0
1070
   341
1005
83C6
1070
   343
1005
83C6
1070
   344
1005
83C6
1002
}
  0
DIMENSION
  5
8429
330
83B3
100
AcDbEntity
  8
3
100
AcDbDimension
  2
*D31
 10
5456.51705109929
 20
4678.210345261056
 30
0.0
 11
4896.517051099291
 21
4793.210345261056
 31
0.0
 70
    32
  1
(<>)
 71
     5
 42
1120.000000000001
  3
IGA
100
AcDbAlignedDimension
 13
4336.517051099289
 23
3808.324713053004
 33
0.0
 14
5456.51705109929
 24
4588.443004574664
 34
0.0
100
AcDbRotatedDimension
1001
ACAD
1000
DSTYLE
1002
{
1070
    40
1040
35.0
1070
   143
1040
0.039
1070
   172
1070
     1
1070
   271
1070
     4
1070
   272
1070
     4
1070
   279
1070
     0
1070
   284
1070
     0
1070
   285
1070
     0
1070
   286
1070
     0
1070
   341
1005
83C6
1070
   343
1005
83C6
1070
   344
1005
83C6
1002
}
  0
DIMENSION
  5
8436
330
83B3
100
AcDbEntity
  8
3
100
AcDbDimension
  2
*D32
 10
6386.517051099289
 20
4678.210345261056
 30
0.0
 11
5921.51705109929
 21
4793.210345261056
 31
0.0
 70
    32
  1
(<>)
 71
     5
 42
929.9999999999991
  3
IGA
100
AcDbAlignedDimension
 13
5456.51705109929
 23
4588.443004574664
 33
0.0
 14
6386.517051099289
 24
3355.324713053004
 34
0.0
100
AcDbRotatedDimension
1001
ACAD
1000
DSTYLE
1002
{
1070
    40
1040
35.0
1070
   143
1040
0.039
1070
   172
1070
     1
1070
   271
1070
     4
1070
   272
1070
     4
1070
   279
1070
     1
1070
   284
1070
     0
1070
   285
1070
     0
1070
   286
1070
     0
1070
   341
1005
83C6
1070
   343
1005
83C6
1070
   344
1005
83C6
1002
}
  0
DIMENSION
  5
8443
330
83B3
100
AcDbEntity
  8
3
100
AcDbDimension
  2
*D33
 10
5456.517051099291
 20
2062.469071117841
 30
0.0
 11
4915.517051099285
 21
2149.969071117841
 31
0.0
 70
    32
 71
     5
 42
1082.000000000012
  3
IGA
100
AcDbAlignedDimension
 13
4374.517051099279
 23
2333.324713053003
 33
0.0
 14
5456.517051099291
 24
2333.324713053003
 34
0.0
100
AcDbRotatedDimension
1001
ACAD
1000
DSTYLE
1002
{
1070
    40
1040
35.0
1070
   143
1040
0.039
1070
   172
1070
     1
1070
   271
1070
     4
1070
   272
1070
     4
1070
   279
1070
     0
1070
   284
1070
     0
1070
   285
1070
     0
1070
   286
1070
     0
1070
   341
1005
83C6
1070
   343
1005
83C6
1070
   344
1005
83C6
1002
}
  0
DIMENSION
  5
8450
330
83B3
100
AcDbEntity
  8
3
100
AcDbDimension
  2
*D34
 10
6274.51705109927
 20
2062.469071117841
 30
0.0
 11
5865.517051099281
 21
2149.969071117841
 31
0.0
 70
    32
 71
     5
 42
817.999999999979
  3
IGA
100
AcDbAlignedDimension
 13
5456.517051099291
 23
2333.324713053003
 33
0.0
 14
6274.51705109927
 24
2333.324713053003
 34
0.0
100
AcDbRotatedDimension
1001
ACAD
1000
DSTYLE
1002
{
1070
    40
1040
35.0
1070
   143
1040
0.039
1070
   172
1070
     1
1070
   271
1070
     4
1070
   272
1070
     4
1070
   279
1070
     1
1070
   284
1070
     0
1070
   285
1070
     0
1070
   286
1070
     0
1070
   341
1005
83C6
1070
   343
1005
83C6
1070
   344
1005
83C6
1002
}
  0
DIMENSION
  5
84D0
330
83B3
100
AcDbEntity
  8
3
100
AcDbDimension
  2
*D36
 10
621.0116974813245
 20
5750.723803734341
 30
0.0
 11
533.5116974813236
 21
6200.723803734341
 31
0.0
 70
    32
 71
     5
 42
900.0
  3
IGA
100
AcDbAlignedDimension
 13
836.8268268170357
 23
6650.72380373434
 33
0.0
 14
836.8268268170357
 24
5750.723803734341
 34
0.0
 50
90.0
100
AcDbRotatedDimension
1001
ACAD
1000
DSTYLE
1002
{
1070
    40
1040
35.0
1070
   143
1040
0.039
1070
   172
1070
     1
1070
   271
1070
     4
1070
   272
1070
     4
1070
   279
1070
     0
1070
   284
1070
     0
1070
   285
1070
     0
1070
   286
1070
     0
1070
   341
1005
83C6
1070
   343
1005
83C6
1070
   344
1005
83C6
1002
}
  0
DIMENSION
  5
84DD
330
83B3
100
AcDbEntity
  8
3
100
AcDbDimension
  2
*D37
 10
3096.826826817036
 20
5459.478611640394
 30
0.0
 11
1966.826826817036
 21
5546.978611640394
 31
0.0
 70
    32
 71
     5
 42
2260.0
  3
IGA
100
AcDbAlignedDimension
 13
836.8268268170357
 23
5750.723803734341
 33
0.0
 14
3096.826826817036
 24
5750.723803734341
 34
0.0
100
AcDbRotatedDimension
1001
ACAD
1000
DSTYLE
1002
{
1070
    40
1040
35.0
1070
   143
1040
0.039
1070
   172
1070
     1
1070
   271
1070
     4
1070
   272
1070
     4
1070
   279
1070
     0
1070
   284
1070
     0
1070
   285
1070
     0
1070
   286
1070
     0
1070
   341
1005
83C6
1070
   343
1005
83C6
1070
   344
1005
83C6
1002
}
  0
DIMENSION
  5
84EA
330
83B3
100
AcDbEntity
  8
3
100
AcDbDimension
  2
*D38
 10
3577.125907775743
 20
7650.723803734343
 30
0.0
 11
3489.625907775741
 21
6700.723803734343
 31
0.0
 70
    32
 71
     5
 42
1900.000000000002
  3
IGA
100
AcDbAlignedDimension
 13
3096.826826817036
 23
5750.723803734341
 33
0.0
 14
3096.826826817036
 24
7650.723803734343
 34
0.0
 50
90.0
100
AcDbRotatedDimension
1001
ACAD
1000
DSTYLE
1002
{
1070
    40
1040
35.0
1070
   143
1040
0.039
1070
   172
1070
     1
1070
   271
1070
     4
1070
   272
1070
     4
1070
   279
1070
     0
1070
   284
1070
     0
1070
   285
1070
     0
1070
   286
1070
     0
1070
   341
1005
83C6
1070
   343
1005
83C6
1070
   344
1005
83C6
1002
}
  0
DIMENSION
  5
84F7
330
83B3
100
AcDbEntity
  8
3
100
AcDbDimension
  2
*D39
 10
1776.826826817035
 20
7824.731164205461
 30
0.0
 11
2436.826826817036
 21
7912.231164205461
 31
0.0
 70
    32
 71
     5
 42
1320.000000000001
  3
IGA
100
AcDbAlignedDimension
 13
3096.826826817036
 23
7650.723803734343
 33
0.0
 14
1776.826826817035
 24
7650.723803734341
 34
0.0
100
AcDbRotatedDimension
1001
ACAD
1000
DSTYLE
1002
{
1070
    40
1040
35.0
1070
   143
1040
0.039
1070
   172
1070
     1
1070
   271
1070
     4
1070
   272
1070
     4
1070
   279
1070
     0
1070
   284
1070
     0
1070
   285
1070
     0
1070
   286
1070
     0
1070
   341
1005
83C6
1070
   343
1005
83C6
1070
   344
1005
83C6
1002
}
  0
DIMENSION
  5
8504
330
83B3
100
AcDbEntity
  8
3
100
AcDbDimension
  2
*D40
 10
836.8268268170359
 20
7824.731164205461
 30
0.0
 11
1306.826826817035
 21
7912.231164205461
 31
0.0
 70
    32
 71
     5
 42
939.9999999999991
  3
IGA
100
AcDbAlignedDimension
 13
1776.826826817035
 23
7650.723803734341
 33
0.0
 14
836.8268268170357
 24
6650.72380373434
 34
0.0
100
AcDbRotatedDimension
1001
ACAD
1000
DSTYLE
1002
{
1070
    40
1040
35.0
1070
   143
1040
0.039
1070
   172
1070
     1
1070
   271
1070
     4
1070
   272
1070
     4
1070
   279
1070
     1
1070
   284
1070
     0
1070
   285
1070
     0
1070
   286
1070
     0
1070
   341
1005
83C6
1070
   343
1005
83C6
1070
   344
1005
83C6
1002
}
  0
DIMENSION
  5
8511
330
83B3
100
AcDbEntity
  8
3
100
AcDbDimension
  2
*D41
 10
2388.826826817036
 20
4388.433029337271
 30
0.0
 11
1813.826826817035
 21
4475.933029337271
 31
0.0
 70
    32
 71
     5
 42
1150.000000000001
  3
IGA
100
AcDbAlignedDimension
 13
1238.826826817035
 23
4188.324713053003
 33
0.0
 14
2388.826826817036
 24
4188.324713053003
 34
0.0
100
AcDbRotatedDimension
1001
ACAD
1000
DSTYLE
1002
{
1070
    40
1040
35.0
1070
   143
1040
0.039
1070
   172
1070
     1
1070
   271
1070
     4
1070
   272
1070
     4
1070
   279
1070
     0
1070
   284
1070
     0
1070
   285
1070
     0
1070
   286
1070
     0
1070
   341
1005
83C6
1070
   343
1005
83C6
1070
   344
1005
83C6
1002
}
  0
DIMENSION
  5
851E
330
83B3
100
AcDbEntity
  8
3
100
AcDbDimension
  2
*D42
 10
2436.826826817036
 20
4588.58468019877
 30
0.0
 11
1837.826826817035
 21
4676.08468019877
 31
0.0
 70
    32
 71
     5
 42
1198.000000000001
  3
IGA
100
AcDbAlignedDimension
 13
1238.826826817035
 23
4188.324713053003
 33
0.0
 14
2436.826826817036
 24
4256.216972783115
 34
0.0
100
AcDbRotatedDimension
1001
ACAD
1000
DSTYLE
1002
{
1070
    40
1040
35.0
1070
   143
1040
0.039
1070
   172
1070
     1
1070
   271
1070
     4
1070
   272
1070
     4
1070
   279
1070
     0
1070
   284
1070
     0
1070
   285
1070
     0
1070
   286
1070
     0
1070
   341
1005
83C6
1070
   343
1005
83C6
1070
   344
1005
83C6
1002
}
  0
DIMENSION
  5
852B
330
83B3
100
AcDbEntity
  8
3
100
AcDbDimension
  2
*D43
 10
3241.826826817036
 20
4588.58468019877
 30
0.0
 11
2839.326826817036
 21
4676.08468019877
 31
0.0
 70
    32
 71
     5
 42
805.0
  3
IGA
100
AcDbAlignedDimension
 13
2436.826826817036
 23
4256.216972783115
 33
0.0
 14
3241.826826817036
 24
3346.324713053003
 34
0.0
100
AcDbRotatedDimension
1001
ACAD
1000
DSTYLE
1002
{
1070
    40
1040
35.0
1070
   143
1040
0.039
1070
   172
1070
     1
1070
   271
1070
     4
1070
   272
1070
     4
1070
   279
1070
     1
1070
   284
1070
     0
1070
   285
1070
     0
1070
   286
1070
     0
1070
   341
1005
83C6
1070
   343
1005
83C6
1070
   344
1005
83C6
1002
}
  0
DIMENSION
  5
8538
330
83B3
100
AcDbEntity
  8
3
100
AcDbDimension
  2
*D44
 10
836.8268268170361
 20
4933.702395754248
 30
0.0
 11
2039.326826817036
 21
5021.202395754247
 31
0.0
 70
    32
 71
     5
 42
2405.0
  3
IGA
100
AcDbAlignedDimension
 13
3241.826826817036
 23
3346.324713053003
 33
0.0
 14
836.8268268170359
 24
2543.324713053003
 34
0.0
100
AcDbRotatedDimension
1001
ACAD
1000
DSTYLE
1002
{
1070
    40
1040
35.0
1070
   143
1040
0.039
1070
   172
1070
     1
1070
   271
1070
     4
1070
   272
1070
     4
1070
   279
1070
     0
1070
   284
1070
     0
1070
   285
1070
     0
1070
   286
1070
     0
1070
   341
1005
83C6
1070
   343
1005
83C6
1070
   344
1005
83C6
1002
}
  0
DIMENSION
  5
8545
330
83B3
100
AcDbEntity
  8
3
100
AcDbDimension
  2
*D45
 10
3507.813709636106
 20
3428.324713053003
 30
0.0
 11
3420.313709636106
 21
3808.324713053004
 31
0.0
 70
    32
 71
     5
 42
759.9999999999995
  3
IGA
100
AcDbAlignedDimension
 13
2441.826826817036
 23
4188.324713053003
 33
0.0
 14
3343.607478270012
 24
3428.324713053003
 34
0.0
 50
90.0
100
AcDbRotatedDimension
1001
ACAD
1000
DSTYLE
1002
{
1070
    40
1040
35.0
1070
   143
1040
0.039
1070
   172
1070
     1
1070
   271
1070
     4
1070
   272
1070
     4
1070
   279
1070
     0
1070
   284
1070
     0
1070
   285
1070
     0
1070
   286
1070
     0
1070
   341
1005
83C6
1070
   343
1005
83C6
1070
   344
1005
83C6
1002
}
  0
DIMENSION
  5
8552
330
83B3
100
AcDbEntity
  8
3
100
AcDbDimension
  2
*D46
 10
3507.813709636105
 20
2418.324713053003
 30
0.0
 11
3420.313709636106
 21
2923.324713053004
 31
0.0
 70
    32
 71
     5
 42
1010.0
  3
IGA
100
AcDbAlignedDimension
 13
3343.607478270012
 23
3428.324713053003
 33
0.0
 14
3096.826826817036
 24
2418.324713053003
 34
0.0
 50
90.0
100
AcDbRotatedDimension
1001
ACAD
1000
DSTYLE
1002
{
1070
    40
1040
35.0
1070
   143
1040
0.039
1070
   172
1070
     1
1070
   271
1070
     4
1070
   272
1070
     4
1070
   279
1070
     1
1070
   284
1070
     0
1070
   285
1070
     0
1070
   286
1070
     0
1070
   341
1005
83C6
1070
   343
1005
83C6
1070
   344
1005
83C6
1002
}
  0
DIMENSION
  5
855F
330
83B3
100
AcDbEntity
  8
3
100
AcDbDimension
  2
*D47
 10
3507.813709636105
 20
2398.324713053003
 30
0.0
 11
3720.313709636105
 21
2541.574713053004
 31
0.0
 70
    32
  1
(<>)
 71
     5
 42
20.0
  3
IGA
100
AcDbAlignedDimension
 13
3096.826826817036
 23
2418.324713053003
 33
0.0
 14
3096.826826817036
 24
2398.324713053003
 34
0.0
 50
90.0
100
AcDbRotatedDimension
1001
ACAD
1000
DSTYLE
1002
{
1070
    40
1040
35.0
1070
   143
1040
0.039
1070
   172
1070
     1
1070
   271
1070
     4
1070
   272
1070
     4
1070
   279
1070
     1
1070
   284
1070
     0
1070
   285
1070
     0
1070
   286
1070
     0
1070
   341
1005
83C6
1070
   343
1005
83C6
1070
   344
1005
868C
1002
}
  0
DIMENSION
  5
8571
330
83B3
100
AcDbEntity
  8
3
100
AcDbDimension
  2
*D48
 10
3507.813709636105
 20
2333.324713053003
 30
0.0
 11
3496.14704296944
 21
2208.938766289466
 31
0.0
 70
   160
 71
     5
 42
65.0
  3
IGA
100
AcDbAlignedDimension
 13
3096.826826817036
 23
2398.324713053003
 33
0.0
 14
3096.826826817036
 24
2333.324713053003
 34
0.0
 50
90.0
100
AcDbRotatedDimension
1001
ACAD
1000
DSTYLE
1002
{
1070
    40
1040
35.0
1070
   143
1040
0.039
1070
   172
1070
     1
1070
   271
1070
     4
1070
   272
1070
     4
1070
   279
1070
     1
1070
   284
1070
     0
1070
   285
1070
     0
1070
   286
1070
     0
1070
   341
1005
83C6
1070
   343
1005
868C
1070
   344
1005
83C6
1002
}
  0
DIMENSION
  5
8583
330
83B3
100
AcDbEntity
  8
3
100
AcDbDimension
  2
*D49
 10
3908.282267066024
 20
2333.324713053003
 30
0.0
 11
3793.282267066024
 21
3260.824713053003
 31
0.0
 70
    32
  1
(<>)
 71
     5
 42
1855.0
  3
IGA
100
AcDbAlignedDimension
 13
2441.826826817036
 23
4188.324713053003
 33
0.0
 14
3096.826826817036
 24
2333.324713053003
 34
0.0
 50
90.0
100
AcDbRotatedDimension
1001
ACAD
1000
DSTYLE
1002
{
1070
    40
1040
35.0
1070
   143
1040
0.039
1070
   172
1070
     1
1070
   271
1070
     4
1070
   272
1070
     4
1070
   279
1070
     0
1070
   284
1070
     0
1070
   285
1070
     0
1070
   286
1070
     0
1070
   341
1005
83C6
1070
   343
1005
83C6
1070
   344
1005
83C6
1002
}
  0
DIMENSION
  5
8590
330
83B3
100
AcDbEntity
  8
3
100
AcDbDimension
  2
*D50
 10
2436.826826817036
 20
2073.450225277922
 30
0.0
 11
1636.826826817036
 21
2160.950225277922
 31
0.0
 70
    32
 71
     5
 42
1600.0
  3
IGA
100
AcDbAlignedDimension
 13
836.8268268170357
 23
2333.324713053003
 33
0.0
 14
2436.826826817036
 24
2333.324713053003
 34
0.0
100
AcDbRotatedDimension
1001
ACAD
1000
DSTYLE
1002
{
1070
    40
1040
35.0
1070
   143
1040
0.039
1070
   172
1070
     1
1070
   271
1070
     4
1070
   272
1070
     4
1070
   279
1070
     0
1070
   284
1070
     0
1070
   285
1070
     0
1070
   286
1070
     0
1070
   341
1005
83C6
1070
   343
1005
83C6
1070
   344
1005
83C6
1002
}
  0
DIMENSION
  5
859D
330
83B3
100
AcDbEntity
  8
3
100
AcDbDimension
  2
*D51
 10
3096.826826817036
 20
2073.450225277922
 30
0.0
 11
2766.826826817036
 21
2160.950225277922
 31
0.0
 70
    32
 71
     5
 42
660.0
  3
IGA
100
AcDbAlignedDimension
 13
2436.826826817036
 23
2333.324713053003
 33
0.0
 14
3096.826826817036
 24
2333.324713053003
 34
0.0
100
AcDbRotatedDimension
1001
ACAD
1000
DSTYLE
1002
{
1070
    40
1040
35.0
1070
   143
1040
0.039
1070
   172
1070
     1
1070
   271
1070
     4
1070
   272
1070
     4
1070
   279
1070
     1
1070
   284
1070
     0
1070
   285
1070
     0
1070
   286
1070
     0
1070
   341
1005
83C6
1070
   343
1005
83C6
1070
   344
1005
83C6
1002
}
  0
ENDSEC
  0
SECTION
  2
OBJECTS
  0
DICTIONARY
  5
8350
330
0
100
AcDbDictionary
281
     1
  3
ACAD_CIP_PREVIOUS_PRODUCT_INFO
350
83FA
  3
ACAD_COLOR
350
83A6
  3
ACAD_DETAILVIEWSTYLE
350
83AD
  3
ACAD_GROUP
350
8351
  3
ACAD_LAYOUT
350
83A5
  3
ACAD_MATERIAL
350
8354
  3
ACAD_MLEADERSTYLE
350
83A9
  3
ACAD_MLINESTYLE
350
83A2
  3
ACAD_PLOTSETTINGS
350
83A4
  3
ACAD_PLOTSTYLENAME
350
8352
  3
ACAD_SCALELIST
350
8386
  3
ACAD_SECTIONVIEWSTYLE
350
83AB
  3
ACAD_TABLESTYLE
350
83A7
  3
ACAD_VISUALSTYLE
350
836D
  3
ACDB_RECOMPOSE_DATA
350
89AA
  3
AcDbVariableDictionary
350
899D
  3
DWGPROPS
350
89AB
  0
DICTIONARY
  5
8993
330
8398
100
AcDbDictionary
280
     1
281
     1
  3
ADSK_XREC_LAYER_RECONCILED
360
8994
  0
DICTIONARY
  5
8995
330
83B7
100
AcDbDictionary
280
     1
281
     1
  3
ADSK_XREC_LAYER_RECONCILED
360
8996
  0
DICTIONARY
  5
8997
330
83BA
100
AcDbDictionary
280
     1
281
     1
  3
ADSK_XREC_LAYER_RECONCILED
360
8998
  0
DICTIONARY
  5
8999
330
83BB
100
AcDbDictionary
280
     1
281
     1
  3
ADSK_XREC_LAYER_RECONCILED
360
899A
  0
DICTIONARY
  5
899B
330
83BC
100
AcDbDictionary
280
     1
281
     1
  3
ADSK_XREC_LAYER_RECONCILED
360
899C
  0
DICTIONARY
  5
83FC
330
83B3
100
AcDbDictionary
280
     1
281
     1
  3
ACAD_SORTENTS
360
83FD
  0
XRECORD
  5
83FA
102
{ACAD_REACTORS
330
8350
102
}
330
8350
100
AcDbXrecord
280
     1
300
ACDLT
300
2015
300
INVLTS_F_S
  0
DICTIONARY
  5
83A6
102
{ACAD_REACTORS
330
8350
102
}
330
8350
100
AcDbDictionary
281
     1
  0
DICTIONARY
  5
83AD
102
{ACAD_REACTORS
330
8350
102
}
330
8350
100
AcDbDictionary
281
     1
  3
Imperial24
350
83AE
  0
DICTIONARY
  5
8351
102
{ACAD_REACTORS
330
8350
102
}
330
8350
100
AcDbDictionary
281
     1
  0
DICTIONARY
  5
83A5
102
{ACAD_REACTORS
330
8350
102
}
330
8350
100
AcDbDictionary
281
     1
  3
Model
350
83B6
  3
レイアウト1
350
83B2
  0
DICTIONARY
  5
8354
102
{ACAD_REACTORS
330
8350
102
}
330
8350
100
AcDbDictionary
281
     1
  3
ByBlock
350
835D
  3
ByLayer
350
8355
  3
Global
350
8365
  0
DICTIONARY
  5
83A9
102
{ACAD_REACTORS
330
8350
102
}
330
8350
100
AcDbDictionary
281
     1
  3
Standard
350
83AA
  0
DICTIONARY
  5
83A2
102
{ACAD_REACTORS
330
8350
102
}
330
8350
100
AcDbDictionary
281
     1
  3
Standard
350
83A3
  0
DICTIONARY
  5
83A4
102
{ACAD_REACTORS
330
8350
102
}
330
8350
100
AcDbDictionary
281
     1
  0
ACDBDICTIONARYWDFLT
  5
8352
102
{ACAD_REACTORS
330
8350
102
}
330
8350
100
AcDbDictionary
281
     1
  3
Normal
350
8353
100
AcDbDictionaryWithDefault
340
8353
  0
DICTIONARY
  5
8386
102
{ACAD_REACTORS
330
8350
102
}
330
8350
100
AcDbDictionary
281
     1
  3
A0
350
8387
  3
A1
350
8388
  3
A2
350
8389
  3
A3
350
838A
  3
A4
350
838B
  3
A5
350
838C
  3
A6
350
838D
  3
A7
350
838E
  3
A8
350
838F
  3
A9
350
8390
  3
B0
350
8391
  3
B1
350
8392
  3
B2
350
8393
  3
B3
350
8394
  3
B4
350
8395
  3
B5
350
8396
  3
B6
350
8397
  0
DICTIONARY
  5
83AB
102
{ACAD_REACTORS
330
8350
102
}
330
8350
100
AcDbDictionary
281
     1
  3
Imperial24
350
83AC
  0
DICTIONARY
  5
83A7
102
{ACAD_REACTORS
330
8350
102
}
330
8350
100
AcDbDictionary
281
     1
  3
Standard
350
83A8
  0
DICTIONARY
  5
836D
102
{ACAD_REACTORS
330
8350
102
}
330
8350
100
AcDbDictionary
281
     1
  3
2dWireframe
350
8373
  3
Basic
350
8372
  3
Brighten
350
8379
  3
ColorChange
350
837D
  3
Conceptual
350
8376
  3
Dim
350
8378
  3
EdgeColorOff
350
8385
  3
Facepattern
350
837C
  3
Flat
350
836E
  3
FlatWithEdges
350
836F
  3
Gouraud
350
8370
  3
GouraudWithEdges
350
8371
  3
Hidden
350
8375
  3
JitterOff
350
8383
  3
Linepattern
350
837B
  3
OverhangOff
350
8384
  3
Realistic
350
8377
  3
Shaded
350
8382
  3
Shaded with edges
350
8381
  3
Shades of Gray
350
837E
  3
Sketchy
350
837F
  3
Thicken
350
837A
  3
Wireframe
350
8374
  3
X-Ray
350
8380
  0
XRECORD
  5
89AA
102
{ACAD_REACTORS
330
8350
102
}
330
8350
100
AcDbXrecord
280
     1
 90
        1
330
83A8
  0
DICTIONARY
  5
899D
102
{ACAD_REACTORS
330
8350
102
}
330
8350
100
AcDbDictionary
281
     1
  3
CANNOSCALE
350
89A2
  3
CMLEADERSTYLE
350
899F
  3
CTABLESTYLE
350
899E
  3
CVIEWDETAILSTYLE
350
89A0
  3
CVIEWSECTIONSTYLE
350
89A1
  3
DIMASSOC
350
89A5
  3
INDEXCTL
350
89A4
  3
SORTENTS
350
89A3
  3
XCLIPFRAME
350
89A6
  0
XRECORD
  5
89AB
102
{ACAD_REACTORS
330
8350
102
}
330
8350
100
AcDbXrecord
280
     1
  1
DWGPROPS COOKIE
  2

  3

  4

  6

  7

  8
yasukiyo.ogawa
  9

300
=
301
=
302
=
303
=
304
=
305
=
306
=
307
=
308
=
309
=
 40
0.0438552430555556
 41
2451390.397703704
 42
2460273.576940613
  1

 90
        0
  0
XRECORD
  5
8994
102
{ACAD_REACTORS
330
8993
102
}
330
8993
100
AcDbXrecord
280
     1
290
     1
  0
XRECORD
  5
8996
102
{ACAD_REACTORS
330
8995
102
}
330
8995
100
AcDbXrecord
280
     1
290
     1
  0
XRECORD
  5
8998
102
{ACAD_REACTORS
330
8997
102
}
330
8997
100
AcDbXrecord
280
     1
290
     1
  0
XRECORD
  5
899A
102
{ACAD_REACTORS
330
8999
102
}
330
8999
100
AcDbXrecord
280
     1
290
     1
  0
XRECORD
  5
899C
102
{ACAD_REACTORS
330
899B
102
}
330
899B
100
AcDbXrecord
280
     1
290
     1
  0
SORTENTSTABLE
  5
83FD
102
{ACAD_REACTORS
330
83FC
102
}
330
83FC
100
AcDbSortentsTable
330
83B3
331
7C99
  5
7C9B
331
7C88
  5
7C8A
331
801A
  5
801C
331
7C71
  5
7C73
331
8037
  5
814C
331
8026
  5
8028
331
7CDD
  5
7CDF
331
7CCC
  5
7CD4
331
7CBB
  5
7CBD
331
7C2D
  5
7C2F
331
7C1C
  5
7C1C
331
7C89
  5
7C8B
331
7C9A
  5
7C9C
331
7C61
  5
7C63
331
801B
  5
801F
331
7C72
  5
7C74
331
8027
  5
8029
331
7CDE
  5
7CE0
331
7CBC
  5
7CBE
331
7C83
  5
7C85
331
7C2E
  5
7C30
331
7C1D
  5
7C1D
331
7C40
  5
7C42
331
7C8A
  5
7C8C
331
7C51
  5
7C53
331
7C9B
  5
7C9D
331
7C62
  5
7C64
331
801C
  5
8020
331
8028
  5
802A
331
7CDF
  5
7CE1
331
7CBD
  5
7CBF
331
7C84
  5
7C86
331
7C73
  5
7C75
331
7C2F
  5
7C31
331
7C1E
  5
7C1E
331
7C8B
  5
7C8D
331
7C52
  5
7C54
331
7C41
  5
7C43
331
7C30
  5
7C32
331
7C9C
  5
7C9E
331
7C63
  5
7C65
331
8029
  5
802B
331
7CE0
  5
7CE2
331
7CBE
  5
7CC0
331
7C85
  5
7C87
331
7C74
  5
7C76
331
7C1F
  5
7C1F
331
7C8C
  5
7C8E
331
7C53
  5
7C55
331
7C42
  5
7C44
331
7C31
  5
7C34
331
7C9D
  5
7C9F
331
7C64
  5
7C66
331
802A
  5
802C
331
7CE1
  5
7CE3
331
7CBF
  5
7CC1
331
7C86
  5
7C88
331
7C75
  5
7C77
331
7C20
  5
7C20
331
7C54
  5
7C56
331
7C43
  5
7C48
331
7C32
  5
7C35
331
7C9E
  5
7CA0
331
7C65
  5
7C67
331
801F
  5
8021
331
802B
  5
802D
331
7CE2
  5
801A
331
7CC0
  5
7CC2
331
7C87
  5
7C89
331
7C76
  5
7C78
331
7C21
  5
7C21
331
7C8E
  5
7C91
331
7C55
  5
7C57
331
7C44
  5
7C49
331
7C9F
  5
7CA1
331
7C66
  5
7C69
331
802C
  5
802E
331
7CE3
  5
801B
331
7CC1
  5
7CC3
331
7CB0
  5
7CB2
331
7C77
  5
7C79
331
7C22
  5
7C22
331
7C11
  5
7C11
331
7CA0
  5
7CA2
331
7C67
  5
7C6A
331
7C56
  5
7C58
331
7C34
  5
7C36
331
802D
  5
802F
331
7CD3
  5
7CD5
331
7CC2
  5
7CC4
331
7CB1
  5
7CB3
331
7C78
  5
7C7A
331
7C23
  5
7C23
331
7C90
  5
7C92
331
7C57
  5
7C59
331
7C35
  5
7C37
331
802E
  5
8030
331
7CC3
  5
7CC5
331
7CB2
  5
7CB4
331
7C79
  5
7C7B
331
7C24
  5
7C24
331
7C13
  5
7C13
331
7C91
  5
7C93
331
7C58
  5
7C5A
331
7C36
  5
7C38
331
7CA2
  5
7CA4
331
7C69
  5
7C6B
331
802F
  5
8031
331
7CC4
  5
7CC6
331
7CB3
  5
7CB5
331
7C7A
  5
7C7C
331
7C25
  5
7C25
331
7C14
  5
7C14
331
8030
  5
8032
331
7C92
  5
7C94
331
7C59
  5
7C5C
331
7C48
  5
7C4A
331
7C37
  5
7C39
331
7CA3
  5
7CA5
331
7C6A
  5
7C6C
331
7CC5
  5
7CC7
331
7CB4
  5
7CB6
331
7C7B
  5
7C7D
331
7C26
  5
7C26
331
7C15
  5
7C15
331
8031
  5
8033
331
8020
  5
8022
331
7C93
  5
7C96
331
7C5A
  5
7C5D
331
7C49
  5
7C4B
331
7C38
  5
7C3A
331
7CA4
  5
7CA6
331
7C6B
  5
7C6D
331
7CC6
  5
7CC8
331
7CB5
  5
7CB7
331
7C7C
  5
7C7E
331
7C27
  5
7C27
331
7C16
  5
7C16
331
8032
  5
8034
331
8021
  5
8023
331
7C4A
  5
7C4C
331
7C39
  5
7C3B
331
7CA5
  5
7CA7
331
7C6C
  5
7C6E
331
7CC7
  5
7CC9
331
7CB6
  5
7CB8
331
7C7D
  5
7C7F
331
7C28
  5
7C28
331
7C17
  5
7C17
331
8038
  5
8159
331
7CC8
  5
7CCA
331
8033
  5
8035
331
8022
  5
8024
331
7CA6
  5
7CA8
331
7C6D
  5
7C6F
331
7C5C
  5
7C5E
331
7C4B
  5
7C4D
331
7C3A
  5
7C3D
331
7C29
  5
7C2B
331
7CB7
  5
7CB9
331
7C7E
  5
7C81
331
7C18
  5
7C18
331
8034
  5
8036
331
8023
  5
8026
331
7CC9
  5
7CCB
331
7CB8
  5
7CBA
331
7C2A
  5
7C2C
331
7C96
  5
7C98
331
7C5D
  5
7C61
331
7C4C
  5
7C51
331
7C3B
  5
7C3E
331
7CA7
  5
7CA9
331
7C6E
  5
7C70
331
7C19
  5
7C19
331
8035
  5
8037
331
8024
  5
8027
331
7CDB
  5
7CDD
331
7CCA
  5
7CCC
331
7CB9
  5
7CBB
331
7CA8
  5
7CAA
331
7C97
  5
7C99
331
7C5E
  5
7C62
331
7C4D
  5
7C52
331
7C2B
  5
7C2D
331
7C6F
  5
7C71
331
7C1A
  5
7C1A
331
7C98
  5
7C9A
331
7C70
  5
7C72
331
8036
  5
8038
331
7CDC
  5
7CDE
331
7CCB
  5
7CD3
331
7CBA
  5
7CBC
331
7C2C
  5
7C2E
331
7C1B
  5
7C1B
  0
ACDBDETAILVIEWSTYLE
  5
83AE
102
{ACAD_XDICTIONARY
360
89E3
102
}
102
{ACAD_REACTORS
330
83AD
102
}
330
83AD
100
AcDbModelDocViewStyle
 70
     0
  3
Imperial24
290
     0
100
AcDbDetailViewStyle
 70
     0
 71
     0
 90
        3
 71
     1
340
8399
 40
0.24
340
0
 40
0.24
300

 40
0.36
280
     3
 71
     2
340
83A0
 90
       25
 71
     3
340
8399
 40
0.24
 90
        1
 40
0.75
 90
        1
300
%<\AcVar ViewType \f "%tc1">% %<\AcVar ViewDetailId>%\PSCALE %<\AcVar ViewScale \f "%sn">%
 71
     4
340
83A0
 90
       25
340
83A0
 90
       25
280
     0
  0
LAYOUT
  5
83B6
102
{ACAD_XDICTIONARY
360
89E7
102
}
102
{ACAD_REACTORS
330
83A5
102
}
330
83A5
100
AcDbPlotSettings
  1

  2
RICOH imagio MP W3600 RPCS
  4

  6

 40
0.0
 41
0.0
 42
0.0
 43
0.0
 44
0.0
 45
0.0
 46
0.0
 47
0.0
 48
0.0
 49
0.0
140
0.0
141
0.0
142
1.0
143
1.0
 70
  1712
 72
     0
 73
     0
 74
     0
  7

 75
     0
147
1.0
148
0.0
149
0.0
100
AcDbLayout
  1
Model
 70
     1
 71
     0
 10
0.0
 20
0.0
 11
12.0
 21
9.0
 12
0.0
 22
0.0
 32
0.0
 14
0.0
 24
0.0
 34
0.0
 15
0.0
 25
0.0
 35
0.0
146
0.0
 13
0.0
 23
0.0
 33
0.0
 16
1.0
 26
0.0
 36
0.0
 17
0.0
 27
1.0
 37
0.0
 76
     0
330
83B3
331
83B8
  0
LAYOUT
  5
83B2
102
{ACAD_XDICTIONARY
360
89E5
102
}
102
{ACAD_REACTORS
330
83A5
102
}
330
83A5
100
AcDbPlotSettings
  1

  2
RICOH imagio MP W3600 RPCS
  4

  6

 40
0.0
 41
0.0
 42
0.0
 43
0.0
 44
0.0
 45
0.0
 46
0.0
 47
0.0
 48
0.0
 49
0.0
140
0.0
141
0.0
142
1.0
143
1.0
 70
   688
 72
     0
 73
     0
 74
     5
  7

 75
    16
147
1.0
148
0.0
149
0.0
100
AcDbLayout
  1
レイアウト1
 70
     1
 71
     1
 10
0.0
 20
0.0
 11
12.0
 21
9.0
 12
0.0
 22
0.0
 32
0.0
 14
1.000000000000000E+20
 24
1.000000000000000E+20
 34
1.000000000000000E+20
 15
-1.000000000000000E+20
 25
-1.000000000000000E+20
 35
-1.000000000000000E+20
146
0.0
 13
0.0
 23
0.0
 33
0.0
 16
1.0
 26
0.0
 36
0.0
 17
0.0
 27
1.0
 37
0.0
 76
     0
330
83AF
  0
MATERIAL
  5
835D
102
{ACAD_XDICTIONARY
360
835E
102
}
102
{ACAD_REACTORS
330
8354
102
}
330
8354
100
AcDbMaterial
  1
ByBlock
 72
     0
 43
0.0208333333333333
 43
0.0
 43
0.0
 43
0.0
 43
0.0
 43
0.0208333333333333
 43
0.0
 43
0.0
 43
0.0
 43
0.0
 43
1.0
 43
0.0
 43
0.0
 43
0.0
 43
0.0
 43
1.0
 77
     0
 47
0.0208333333333333
 47
0.0
 47
0.0
 47
0.0
 47
0.0
 47
0.0208333333333333
 47
0.0
 47
0.0
 47
0.0
 47
0.0
 47
1.0
 47
0.0
 47
0.0
 47
0.0
 47
0.0
 47
1.0
171
     0
 49
0.0208333333333333
 49
0.0
 49
0.0
 49
0.0
 49
0.0
 49
0.0208333333333333
 49
0.0
 49
0.0
 49
0.0
 49
0.0
 49
1.0
 49
0.0
 49
0.0
 49
0.0
 49
0.0
 49
1.0
175
     0
142
0.0208333333333333
142
0.0
142
0.0
142
0.0
142
0.0
142
0.0208333333333333
142
0.0
142
0.0
142
0.0
142
0.0
142
1.0
142
0.0
142
0.0
142
0.0
142
0.0
142
1.0
179
     0
144
0.0208333333333333
144
0.0
144
0.0
144
0.0
144
0.0
144
0.0208333333333333
144
0.0
144
0.0
144
0.0
144
0.0
144
1.0
144
0.0
144
0.0
144
0.0
144
0.0
144
1.0
147
0.0208333333333333
147
0.0
147
0.0
147
0.0
147
0.0
147
0.0208333333333333
147
0.0
147
0.0
147
0.0
147
0.0
147
1.0
147
0.0
147
0.0
147
0.0
147
0.0
147
1.0
  0
MATERIAL
  5
8355
102
{ACAD_XDICTIONARY
360
8356
102
}
102
{ACAD_REACTORS
330
8354
102
}
330
8354
100
AcDbMaterial
  1
ByLayer
 72
     0
 43
0.0208333333333333
 43
0.0
 43
0.0
 43
0.0
 43
0.0
 43
0.0208333333333333
 43
0.0
 43
0.0
 43
0.0
 43
0.0
 43
1.0
 43
0.0
 43
0.0
 43
0.0
 43
0.0
 43
1.0
 77
     0
 47
0.0208333333333333
 47
0.0
 47
0.0
 47
0.0
 47
0.0
 47
0.0208333333333333
 47
0.0
 47
0.0
 47
0.0
 47
0.0
 47
1.0
 47
0.0
 47
0.0
 47
0.0
 47
0.0
 47
1.0
171
     0
 49
0.0208333333333333
 49
0.0
 49
0.0
 49
0.0
 49
0.0
 49
0.0208333333333333
 49
0.0
 49
0.0
 49
0.0
 49
0.0
 49
1.0
 49
0.0
 49
0.0
 49
0.0
 49
0.0
 49
1.0
175
     0
142
0.0208333333333333
142
0.0
142
0.0
142
0.0
142
0.0
142
0.0208333333333333
142
0.0
142
0.0
142
0.0
142
0.0
142
1.0
142
0.0
142
0.0
142
0.0
142
0.0
142
1.0
179
     0
144
0.0208333333333333
144
0.0
144
0.0
144
0.0
144
0.0
144
0.0208333333333333
144
0.0
144
0.0
144
0.0
144
0.0
144
1.0
144
0.0
144
0.0
144
0.0
144
0.0
144
1.0
147
0.0208333333333333
147
0.0
147
0.0
147
0.0
147
0.0
147
0.0208333333333333
147
0.0
147
0.0
147
0.0
147
0.0
147
1.0
147
0.0
147
0.0
147
0.0
147
0.0
147
1.0
  0
MATERIAL
  5
8365
102
{ACAD_XDICTIONARY
360
8366
102
}
102
{ACAD_REACTORS
330
8354
102
}
330
8354
100
AcDbMaterial
  1
Global
 72
     0
 43
0.0208333333333333
 43
0.0
 43
0.0
 43
0.0
 43
0.0
 43
0.0208333333333333
 43
0.0
 43
0.0
 43
0.0
 43
0.0
 43
1.0
 43
0.0
 43
0.0
 43
0.0
 43
0.0
 43
1.0
 77
     0
 47
0.0208333333333333
 47
0.0
 47
0.0
 47
0.0
 47
0.0
 47
0.0208333333333333
 47
0.0
 47
0.0
 47
0.0
 47
0.0
 47
1.0
 47
0.0
 47
0.0
 47
0.0
 47
0.0
 47
1.0
171
     0
 49
0.0208333333333333
 49
0.0
 49
0.0
 49
0.0
 49
0.0
 49
0.0208333333333333
 49
0.0
 49
0.0
 49
0.0
 49
0.0
 49
1.0
 49
0.0
 49
0.0
 49
0.0
 49
0.0
 49
1.0
175
     0
142
0.0208333333333333
142
0.0
142
0.0
142
0.0
142
0.0
142
0.0208333333333333
142
0.0
142
0.0
142
0.0
142
0.0
142
1.0
142
0.0
142
0.0
142
0.0
142
0.0
142
1.0
179
     0
144
0.0208333333333333
144
0.0
144
0.0
144
0.0
144
0.0
144
0.0208333333333333
144
0.0
144
0.0
144
0.0
144
0.0
144
1.0
144
0.0
144
0.0
144
0.0
144
0.0
144
1.0
147
0.0208333333333333
147
0.0
147
0.0
147
0.0
147
0.0
147
0.0208333333333333
147
0.0
147
0.0
147
0.0
147
0.0
147
1.0
147
0.0
147
0.0
147
0.0
147
0.0
147
1.0
  0
MLEADERSTYLE
  5
83AA
102
{ACAD_REACTORS
330
83A9
102
}
330
83A9
100
AcDbMLeaderStyle
170
     2
171
     1
172
     0
 90
        2
 40
0.0
 41
0.0
173
     1
 91
-1056964608
340
839E
 92
       -2
290
     1
 42
0.09
291
     1
 43
0.36
  3
Standard
 44
0.18
300

342
8399
174
     1
178
     6
175
     1
176
     0
 93
-1056964608
 45
0.18
292
     0
297
     0
 46
0.18
 94
-1056964608
 47
1.0
 49
1.0
140
1.0
293
     1
141
0.0
294
     1
177
     0
142
1.0
295
     0
296
     0
143
0.125
1001
ACAD_MLEADERVER
1070
     2
  0
MLINESTYLE
  5
83A3
102
{ACAD_REACTORS
330
83A2
102
}
330
83A2
100
AcDbMlineStyle
  2
STANDARD
 70
     0
  3

 62
   256
 51
90.0
 52
90.0
 71
     2
 49
0.5
 62
   256
  6
BYLAYER
 49
-0.5
 62
   256
  6
BYLAYER
  0
ACDBPLACEHOLDER
  5
8353
102
{ACAD_REACTORS
330
8352
102
}
330
8352
  0
SCALE
  5
8387
102
{ACAD_REACTORS
330
8386
102
}
330
8386
100
AcDbScale
 70
     0
300
1:1
140
1.0
141
1.0
290
     1
  0
SCALE
  5
8388
102
{ACAD_REACTORS
330
8386
102
}
330
8386
100
AcDbScale
 70
     0
300
1/128" = 1'-0"
140
0.0078125
141
12.0
290
     0
  0
SCALE
  5
8389
102
{ACAD_REACTORS
330
8386
102
}
330
8386
100
AcDbScale
 70
     0
300
1/64" = 1'-0"
140
0.015625
141
12.0
290
     0
  0
SCALE
  5
838A
102
{ACAD_REACTORS
330
8386
102
}
330
8386
100
AcDbScale
 70
     0
300
1/32" = 1'-0"
140
0.03125
141
12.0
290
     0
  0
SCALE
  5
838B
102
{ACAD_REACTORS
330
8386
102
}
330
8386
100
AcDbScale
 70
     0
300
1/16" = 1'-0"
140
0.0625
141
12.0
290
     0
  0
SCALE
  5
838C
102
{ACAD_REACTORS
330
8386
102
}
330
8386
100
AcDbScale
 70
     0
300
3/32" = 1'-0"
140
0.09375
141
12.0
290
     0
  0
SCALE
  5
838D
102
{ACAD_REACTORS
330
8386
102
}
330
8386
100
AcDbScale
 70
     0
300
1/8" = 1'-0"
140
0.125
141
12.0
290
     0
  0
SCALE
  5
838E
102
{ACAD_REACTORS
330
8386
102
}
330
8386
100
AcDbScale
 70
     0
300
3/16" = 1'-0"
140
0.1875
141
12.0
290
     0
  0
SCALE
  5
838F
102
{ACAD_REACTORS
330
8386
102
}
330
8386
100
AcDbScale
 70
     0
300
1/4" = 1'-0"
140
0.25
141
12.0
290
     0
  0
SCALE
  5
8390
102
{ACAD_REACTORS
330
8386
102
}
330
8386
100
AcDbScale
 70
     0
300
3/8" = 1'-0"
140
0.375
141
12.0
290
     0
  0
SCALE
  5
8391
102
{ACAD_REACTORS
330
8386
102
}
330
8386
100
AcDbScale
 70
     0
300
1/2" = 1'-0"
140
0.5
141
12.0
290
     0
  0
SCALE
  5
8392
102
{ACAD_REACTORS
330
8386
102
}
330
8386
100
AcDbScale
 70
     0
300
3/4" = 1'-0"
140
0.75
141
12.0
290
     0
  0
SCALE
  5
8393
102
{ACAD_REACTORS
330
8386
102
}
330
8386
100
AcDbScale
 70
     0
300
1" = 1'-0"
140
1.0
141
12.0
290
     0
  0
SCALE
  5
8394
102
{ACAD_REACTORS
330
8386
102
}
330
8386
100
AcDbScale
 70
     0
300
1-1/2" = 1'-0"
140
1.5
141
12.0
290
     0
  0
SCALE
  5
8395
102
{ACAD_REACTORS
330
8386
102
}
330
8386
100
AcDbScale
 70
     0
300
3" = 1'-0"
140
3.0
141
12.0
290
     0
  0
SCALE
  5
8396
102
{ACAD_REACTORS
330
8386
102
}
330
8386
100
AcDbScale
 70
     0
300
6" = 1'-0"
140
6.0
141
12.0
290
     0
  0
SCALE
  5
8397
102
{ACAD_REACTORS
330
8386
102
}
330
8386
100
AcDbScale
 70
     0
300
1'-0" = 1'-0"
140
12.0
141
12.0
290
     0
  0
ACDBSECTIONVIEWSTYLE
  5
83AC
102
{ACAD_XDICTIONARY
360
89E1
102
}
102
{ACAD_REACTORS
330
83AB
102
}
330
83AB
100
AcDbModelDocViewStyle
 70
     0
  3
Imperial24
290
     0
100
AcDbSectionViewStyle
 70
     0
 71
     0
 90
       78
 71
     1
340
8399
 40
0.24
340
0
340
0
 40
0.24
300
I, O, Q, S, X, Z
 40
0.48
 90
        3
 40
0.18
 90
        1
 71
     2
340
83A0
 90
       25
340
83A0
 90
       50
 40
0.24
 40
0.0
 40
0.24
 71
     3
340
8399
 40
0.24
 90
        1
 40
0.75
 90
        1
300
%<\AcVar ViewType \f "%tc1">% %<\AcVar ViewSectionStartId>%-%<\AcVar ViewSectionEndId>%\PSCALE %<\AcVar ViewScale \f "%sn">%
 71
     4
300
ANSI31
 40
1.0
 90
        0
290
     0
290
     0
 90
        6
 40
0.0
 40
1.570796326794896
 40
0.2617993877991494
 40
1.308996938995747
 40
-0.2617993877991494
 40
1.832595714594046
  0
TABLESTYLE
  5
83A8
102
{ACAD_XDICTIONARY
360
89A8
102
}
102
{ACAD_REACTORS
330
83A7
102
}
330
83A7
100
AcDbTableStyle
  3
Standard
 70
     0
 71
     0
 40
0.06
 41
0.06
280
     0
281
     0
  7
STANDARD
140
0.18
170
     2
 62
     0
 63
     7
283
     0
274
    -2
284
     1
 64
     0
275
    -2
285
     1
 65
     0
276
    -2
286
     1
 66
     0
277
    -2
287
     1
 67
     0
278
    -2
288
     1
 68
     0
279
    -2
289
     1
 69
     0
  7
STANDARD
140
0.25
170
     5
 62
     0
 63
     7
283
     0
274
    -2
284
     1
 64
     0
275
    -2
285
     1
 65
     0
276
    -2
286
     1
 66
     0
277
    -2
287
     1
 67
     0
278
    -2
288
     1
 68
     0
279
    -2
289
     1
 69
     0
  7
STANDARD
140
0.18
170
     5
 62
     0
 63
     7
283
     0
274
    -2
284
     1
 64
     0
275
    -2
285
     1
 65
     0
276
    -2
286
     1
 66
     0
277
    -2
287
     1
 67
     0
278
    -2
288
     1
 68
     0
279
    -2
289
     1
 69
     0
  0
VISUALSTYLE
  5
8373
102
{ACAD_XDICTIONARY
360
89B9
102
}
102
{ACAD_REACTORS
330
836D
102
}
330
836D
100
AcDbVisualStyle
  2
2dWireframe
 70
     4
 71
     0
 72
     2
 73
     0
 90
        0
 40
-0.6
 41
-30.0
 62
     5
 63
     7
 74
     1
 91
        4
 64
     7
 65
   257
 75
     1
175
     1
 42
1.0
 92
        0
 66
   257
 43
1.0
 76
     1
 77
     6
 78
     2
 67
     7
 79
     5
170
     0
171
     0
290
     0
174
     0
 93
        1
 44
0.0
173
     0
291
     0
 45
0.0
1001
ACAD
1000
AcDbSavedByObjectVersion
1070
     0
  0
VISUALSTYLE
  5
8372
102
{ACAD_XDICTIONARY
360
89B7
102
}
102
{ACAD_REACTORS
330
836D
102
}
330
836D
100
AcDbVisualStyle
  2
Basic
 70
     7
 71
     1
 72
     0
 73
     1
 90
        0
 40
-0.6
 41
-30.0
 62
     5
 63
     7
 74
     0
 91
        4
 64
     7
 65
   257
 75
     1
175
     1
 42
1.0
 92
        8
 66
     7
 43
1.0
 76
     1
 77
     6
 78
     2
 67
     7
 79
     5
170
     0
171
     0
290
     0
174
     0
 93
        1
 44
0.0
173
     0
291
     1
 45
0.0
1001
ACAD
1000
AcDbSavedByObjectVersion
1070
     0
  0
VISUALSTYLE
  5
8379
102
{ACAD_XDICTIONARY
360
89C5
102
}
102
{ACAD_REACTORS
330
836D
102
}
330
836D
100
AcDbVisualStyle
  2
Brighten
 70
    12
 71
     2
 72
     2
 73
     0
 90
        0
 40
-0.6
 41
-30.0
 62
     5
 63
     7
 74
     1
 91
        4
 64
     7
 65
   257
 75
     1
175
     1
 42
1.0
 92
        8
 66
     7
 43
1.0
 76
     1
 77
     6
 78
     2
 67
     7
 79
     5
170
     0
171
     0
290
     0
174
     0
 93
        1
 44
50.0
173
     0
291
     1
 45
0.0
1001
ACAD
1000
AcDbSavedByObjectVersion
1070
     0
  0
VISUALSTYLE
  5
837D
102
{ACAD_XDICTIONARY
360
89CD
102
}
102
{ACAD_REACTORS
330
836D
102
}
330
836D
100
AcDbVisualStyle
  2
ColorChange
 70
    16
 71
     2
 72
     2
 73
     3
 90
        0
 40
-0.6
 41
-30.0
 62
     5
 63
     8
 74
     1
 91
        4
 64
     7
 65
   257
 75
     1
175
     1
 42
1.0
 92
        8
 66
     8
 43
1.0
 76
     1
 77
     6
 78
     2
 67
     7
 79
     5
170
     0
171
     0
290
     0
174
     0
 93
        1
 44
0.0
173
     0
291
     1
 45
0.0
1001
ACAD
1000
AcDbSavedByObjectVersion
1070
     0
  0
VISUALSTYLE
  5
8376
102
{ACAD_XDICTIONARY
360
89BF
102
}
102
{ACAD_REACTORS
330
836D
102
}
330
836D
100
AcDbVisualStyle
  2
Conceptual
 70
     9
 71
     3
 72
     2
 73
     0
 90
        0
 40
-0.6
 41
-30.0
 62
     5
 63
     7
 74
     2
 91
        2
 64
     7
 65
   257
 75
     1
175
     1
 42
179.0
 92
        8
 66
     7
 43
1.0
 76
     1
 77
     6
 78
     2
 67
     7
 79
     3
170
     0
171
     0
290
     0
174
     0
 93
        1
 44
0.0
173
     0
291
     0
 45
0.0
1001
ACAD
1000
AcDbSavedByObjectVersion
1070
     0
  0
VISUALSTYLE
  5
8378
102
{ACAD_XDICTIONARY
360
89C3
102
}
102
{ACAD_REACTORS
330
836D
102
}
330
836D
100
AcDbVisualStyle
  2
Dim
 70
    11
 71
     2
 72
     2
 73
     0
 90
        0
 40
-0.6
 41
-30.0
 62
     5
 63
     7
 74
     1
 91
        4
 64
     7
 65
   257
 75
     1
175
     1
 42
1.0
 92
        8
 66
     7
 43
1.0
 76
     1
 77
     6
 78
     2
 67
     7
 79
     5
170
     0
171
     0
290
     0
174
     0
 93
        1
 44
-50.0
173
     0
291
     1
 45
0.0
1001
ACAD
1000
AcDbSavedByObjectVersion
1070
     0
  0
VISUALSTYLE
  5
8385
102
{ACAD_XDICTIONARY
360
89DD
102
}
102
{ACAD_REACTORS
330
836D
102
}
330
836D
100
AcDbVisualStyle
  2
EdgeColorOff
 70
    22
 71
     2
 72
     2
 73
     0
 90
        0
 40
-0.6
 41
-30.0
 62
     5
 63
     7
 74
     1
 91
        4
 64
     7
 65
   257
 75
     1
175
     1
 42
1.0
 92
        8
 66
     7
 43
1.0
 76
     1
 77
     6
 78
     2
 67
     7
 79
     5
170
     0
171
     0
290
     0
174
     0
 93
        1
 44
0.0
173
     0
291
     1
 45
0.0
1001
ACAD
1000
AcDbSavedByObjectVersion
1070
     0
  0
VISUALSTYLE
  5
837C
102
{ACAD_XDICTIONARY
360
89CB
102
}
102
{ACAD_REACTORS
330
836D
102
}
330
836D
100
AcDbVisualStyle
  2
Facepattern
 70
    15
 71
     2
 72
     2
 73
     0
 90
        0
 40
-0.6
 41
-30.0
 62
     5
 63
     7
 74
     1
 91
        4
 64
     7
 65
   257
 75
     1
175
     1
 42
1.0
 92
        8
 66
     7
 43
1.0
 76
     1
 77
     6
 78
     2
 67
     7
 79
     5
170
     0
171
     0
290
     0
174
     0
 93
        1
 44
0.0
173
     0
291
     1
 45
0.0
1001
ACAD
1000
AcDbSavedByObjectVersion
1070
     0
  0
VISUALSTYLE
  5
836E
102
{ACAD_XDICTIONARY
360
89AF
102
}
102
{ACAD_REACTORS
330
836D
102
}
330
836D
100
AcDbVisualStyle
  2
Flat
 70
     0
 71
     2
 72
     1
 73
     1
 90
        2
 40
-0.6
 41
30.0
 62
     5
 63
     7
 74
     0
 91
        0
 64
     7
 65
   257
 75
     1
175
     1
 42
1.0
 92
        8
 66
     7
 43
1.0
 76
     1
 77
     6
 78
     2
 67
     7
 79
     5
170
     0
171
     0
290
     0
174
     0
 93
       13
 44
0.0
173
     0
291
     1
 45
0.0
1001
ACAD
1000
AcDbSavedByObjectVersion
1070
     0
  0
VISUALSTYLE
  5
836F
102
{ACAD_XDICTIONARY
360
89B1
102
}
102
{ACAD_REACTORS
330
836D
102
}
330
836D
100
AcDbVisualStyle
  2
FlatWithEdges
 70
     1
 71
     2
 72
     1
 73
     1
 90
        2
 40
-0.6
 41
30.0
 62
     5
 63
     7
 74
     1
 91
        0
 64
     7
 65
   257
 75
     1
175
     1
 42
1.0
 92
        0
 66
   257
 43
1.0
 76
     1
 77
     6
 78
     2
 67
     7
 79
     5
170
     0
171
     0
290
     0
174
     0
 93
       13
 44
0.0
173
     0
291
     1
 45
0.0
1001
ACAD
1000
AcDbSavedByObjectVersion
1070
     0
  0
VISUALSTYLE
  5
8370
102
{ACAD_XDICTIONARY
360
89B3
102
}
102
{ACAD_REACTORS
330
836D
102
}
330
836D
100
AcDbVisualStyle
  2
Gouraud
 70
     2
 71
     2
 72
     2
 73
     1
 90
        2
 40
-0.6
 41
30.0
 62
     5
 63
     7
 74
     0
 91
        0
 64
     7
 65
   257
 75
     1
175
     1
 42
1.0
 92
        0
 66
     7
 43
1.0
 76
     1
 77
     6
 78
     2
 67
     7
 79
     5
170
     0
171
     0
290
     0
174
     0
 93
       13
 44
0.0
173
     0
291
     1
 45
0.0
1001
ACAD
1000
AcDbSavedByObjectVersion
1070
     0
  0
VISUALSTYLE
  5
8371
102
{ACAD_XDICTIONARY
360
89B5
102
}
102
{ACAD_REACTORS
330
836D
102
}
330
836D
100
AcDbVisualStyle
  2
GouraudWithEdges
 70
     3
 71
     2
 72
     2
 73
     1
 90
        2
 40
-0.6
 41
30.0
 62
     5
 63
     7
 74
     1
 91
        0
 64
     7
 65
   257
 75
     1
175
     1
 42
1.0
 92
        0
 66
   257
 43
1.0
 76
     1
 77
     6
 78
     2
 67
     7
 79
     5
170
     0
171
     0
290
     0
174
     0
 93
       13
 44
0.0
173
     0
291
     1
 45
0.0
1001
ACAD
1000
AcDbSavedByObjectVersion
1070
     0
  0
VISUALSTYLE
  5
8375
102
{ACAD_XDICTIONARY
360
89BD
102
}
102
{ACAD_REACTORS
330
836D
102
}
330
836D
100
AcDbVisualStyle
  2
Hidden
 70
     6
 71
     1
 72
     2
 73
     2
 90
        0
 40
-0.6
 41
-30.0
 62
     5
 63
     7
 74
     2
 91
        2
 64
     7
 65
   257
 75
     2
175
     1
 42
40.0
 92
        0
 66
   257
 43
1.0
 76
     1
 77
     6
 78
     2
 67
     7
 79
     3
170
     0
171
     0
290
     0
174
     0
 93
        1
 44
0.0
173
     0
291
     0
 45
0.0
1001
ACAD
1000
AcDbSavedByObjectVersion
1070
     0
  0
VISUALSTYLE
  5
8383
102
{ACAD_XDICTIONARY
360
89D9
102
}
102
{ACAD_REACTORS
330
836D
102
}
330
836D
100
AcDbVisualStyle
  2
JitterOff
 70
    20
 71
     2
 72
     2
 73
     0
 90
        0
 40
-0.6
 41
-30.0
 62
     5
 63
     7
 74
     1
 91
        4
 64
     7
 65
   257
 75
     1
175
     1
 42
1.0
 92
       10
 66
     7
 43
1.0
 76
     1
 77
     6
 78
     2
 67
     7
 79
     5
170
     0
171
     0
290
     0
174
     0
 93
        1
 44
0.0
173
     0
291
     1
 45
0.0
1001
ACAD
1000
AcDbSavedByObjectVersion
1070
     0
  0
VISUALSTYLE
  5
837B
102
{ACAD_XDICTIONARY
360
89C9
102
}
102
{ACAD_REACTORS
330
836D
102
}
330
836D
100
AcDbVisualStyle
  2
Linepattern
 70
    14
 71
     2
 72
     2
 73
     0
 90
        0
 40
-0.6
 41
-30.0
 62
     5
 63
     7
 74
     1
 91
        4
 64
     7
 65
   257
 75
     7
175
     7
 42
1.0
 92
        8
 66
     7
 43
1.0
 76
     1
 77
     6
 78
     2
 67
     7
 79
     5
170
     0
171
     0
290
     0
174
     0
 93
        1
 44
0.0
173
     0
291
     1
 45
0.0
1001
ACAD
1000
AcDbSavedByObjectVersion
1070
     0
  0
VISUALSTYLE
  5
8384
102
{ACAD_XDICTIONARY
360
89DB
102
}
102
{ACAD_REACTORS
330
836D
102
}
330
836D
100
AcDbVisualStyle
  2
OverhangOff
 70
    21
 71
     2
 72
     2
 73
     0
 90
        0
 40
-0.6
 41
-30.0
 62
     5
 63
     7
 74
     1
 91
        4
 64
     7
 65
   257
 75
     1
175
     1
 42
1.0
 92
        9
 66
     7
 43
1.0
 76
     1
 77
     6
 78
     2
 67
     7
 79
     5
170
     0
171
     0
290
     0
174
     0
 93
        1
 44
0.0
173
     0
291
     1
 45
0.0
1001
ACAD
1000
AcDbSavedByObjectVersion
1070
     0
  0
VISUALSTYLE
  5
8377
102
{ACAD_XDICTIONARY
360
89C1
102
}
102
{ACAD_REACTORS
330
836D
102
}
330
836D
100
AcDbVisualStyle
  2
Realistic
 70
     8
 71
     2
 72
     3
 73
     0
 90
        2
 40
-0.6
 41
30.0
 62
     5
 63
     7
 74
     0
 91
        0
 64
     7
 65
   257
 75
     1
175
     1
 42
1.0
 92
        8
 66
   257
 43
1.0
 76
     1
 77
     6
 78
     2
 67
     7
 79
     3
170
     0
171
     0
290
     0
174
     0
 93
       13
 44
0.0
173
     0
291
     0
 45
0.0
1001
ACAD
1000
AcDbSavedByObjectVersion
1070
     0
  0
VISUALSTYLE
  5
8382
102
{ACAD_XDICTIONARY
360
89D7
102
}
102
{ACAD_REACTORS
330
836D
102
}
330
836D
100
AcDbVisualStyle
  2
Shaded
 70
    27
 71
     2
 72
     2
 73
     1
 90
        2
 40
-0.6
 41
30.0
 62
     5
 63
     7
 74
     0
 91
        4
 64
     7
 65
   257
 75
     1
175
     1
 42
1.0
 92
        8
 66
   257
 43
1.0
 76
     1
 77
     6
 78
     2
 67
     8
 79
     3
170
     0
171
     0
290
     0
174
     0
 93
        5
 44
0.0
173
     0
291
     0
 45
0.0
1001
ACAD
1000
AcDbSavedByObjectVersion
1070
     0
  0
VISUALSTYLE
  5
8381
102
{ACAD_XDICTIONARY
360
89D5
102
}
102
{ACAD_REACTORS
330
836D
102
}
330
836D
100
AcDbVisualStyle
  2
Shaded with edges
 70
    26
 71
     2
 72
     2
 73
     1
 90
        2
 40
-0.6
 41
30.0
 62
     5
 63
     7
 74
     1
 91
       10
 64
     7
 65
   257
 75
     2
175
     1
 42
1.0
 92
        8
 66
   257
 43
1.0
 76
     1
 77
     6
 78
     2
 67
     7
 79
     3
170
     0
171
     0
290
     0
174
     0
 93
        5
 44
0.0
173
     0
291
     0
 45
0.0
1001
ACAD
1000
AcDbSavedByObjectVersion
1070
     0
  0
VISUALSTYLE
  5
837E
102
{ACAD_XDICTIONARY
360
89CF
102
}
102
{ACAD_REACTORS
330
836D
102
}
330
836D
100
AcDbVisualStyle
  2
Shades of Gray
 70
    23
 71
     2
 72
     2
 73
     3
 90
        0
 40
-0.6
 41
-30.0
 62
     5
 63
     7
 74
     2
 91
        2
 64
     7
 65
     7
 75
     1
175
     1
 42
40.0
 92
        8
 66
     7
 43
1.0
 76
     1
 77
     6
 78
     2
 67
     7
 79
     3
170
     0
171
     0
290
     0
174
     0
 93
        1
 44
0.0
173
     0
291
     0
 45
0.0
1001
ACAD
1000
AcDbSavedByObjectVersion
1070
     0
  0
VISUALSTYLE
  5
837F
102
{ACAD_XDICTIONARY
360
89D1
102
}
102
{ACAD_REACTORS
330
836D
102
}
330
836D
100
AcDbVisualStyle
  2
Sketchy
 70
    24
 71
     1
 72
     2
 73
     2
 90
        0
 40
-0.6
 41
-30.0
 62
     5
 63
     7
 74
     2
 91
        2
 64
     7
 65
     7
 75
     1
175
     1
 42
40.0
 92
       11
 66
     7
 43
1.0
 76
     1
 77
     6
 78
     2
 67
     7
 79
     6
170
     0
171
     0
290
     0
174
     0
 93
        1
 44
0.0
173
     0
291
     0
 45
0.0
1001
ACAD
1000
AcDbSavedByObjectVersion
1070
     0
  0
VISUALSTYLE
  5
837A
102
{ACAD_XDICTIONARY
360
89C7
102
}
102
{ACAD_REACTORS
330
836D
102
}
330
836D
100
AcDbVisualStyle
  2
Thicken
 70
    13
 71
     2
 72
     2
 73
     0
 90
        0
 40
-0.6
 41
-30.0
 62
     5
 63
     7
 74
     1
 91
        4
 64
     7
 65
   257
 75
     1
175
     1
 42
1.0
 92
       12
 66
     7
 43
1.0
 76
     1
 77
     6
 78
     2
 67
     7
 79
     5
170
     0
171
     0
290
     0
174
     0
 93
        1
 44
0.0
173
     0
291
     1
 45
0.0
1001
ACAD
1000
AcDbSavedByObjectVersion
1070
     0
  0
VISUALSTYLE
  5
8374
102
{ACAD_XDICTIONARY
360
89BB
102
}
102
{ACAD_REACTORS
330
836D
102
}
330
836D
100
AcDbVisualStyle
  2
Wireframe
 70
     5
 71
     0
 72
     2
 73
     0
 90
        0
 40
-0.6
 41
-30.0
 62
     5
 63
     7
 74
     1
 91
        4
 64
     7
 65
   257
 75
     1
175
     1
 42
1.0
 92
        0
 66
   257
 43
1.0
 76
     1
 77
     6
 78
     2
 67
     7
 79
     3
170
     0
171
     0
290
     0
174
     0
 93
        1
 44
0.0
173
     0
291
     0
 45
0.0
1001
ACAD
1000
AcDbSavedByObjectVersion
1070
     0
  0
VISUALSTYLE
  5
8380
102
{ACAD_XDICTIONARY
360
89D3
102
}
102
{ACAD_REACTORS
330
836D
102
}
330
836D
100
AcDbVisualStyle
  2
X-Ray
 70
    25
 71
     2
 72
     2
 73
     1
 90
        1
 40
0.5
 41
-30.0
 62
     5
 63
     7
 74
     1
 91
        0
 64
     7
 65
   257
 75
     1
175
     1
 42
1.0
 92
        8
 66
     7
 43
1.0
 76
     1
 77
     6
 78
     2
 67
     7
 79
     3
170
     0
171
     0
290
     0
174
     0
 93
       13
 44
0.0
173
     0
291
     0
 45
0.0
1001
ACAD
1000
AcDbSavedByObjectVersion
1070
     0
  0
DICTIONARYVAR
  5
89A2
102
{ACAD_REACTORS
330
899D
102
}
330
899D
100
DictionaryVariables
280
     0
  1
1:1
  0
DICTIONARYVAR
  5
899F
102
{ACAD_REACTORS
330
899D
102
}
330
899D
100
DictionaryVariables
280
     0
  1
STANDARD
  0
DICTIONARYVAR
  5
899E
102
{ACAD_REACTORS
330
899D
102
}
330
899D
100
DictionaryVariables
280
     0
  1
STANDARD
  0
DICTIONARYVAR
  5
89A0
102
{ACAD_REACTORS
330
899D
102
}
330
899D
100
DictionaryVariables
280
     0
  1
Imperial24
  0
DICTIONARYVAR
  5
89A1
102
{ACAD_REACTORS
330
899D
102
}
330
899D
100
DictionaryVariables
280
     0
  1
Imperial24
  0
DICTIONARYVAR
  5
89A5
102
{ACAD_REACTORS
330
899D
102
}
330
899D
100
DictionaryVariables
280
     0
  1
1
  0
DICTIONARYVAR
  5
89A4
102
{ACAD_REACTORS
330
899D
102
}
330
899D
100
DictionaryVariables
280
     0
  1
0
  0
DICTIONARYVAR
  5
89A3
102
{ACAD_REACTORS
330
899D
102
}
330
899D
100
DictionaryVariables
280
     0
  1
127
  0
DICTIONARYVAR
  5
89A6
102
{ACAD_REACTORS
330
899D
102
}
330
899D
100
DictionaryVariables
280
     0
  1
2
  0
DICTIONARY
  5
89E3
330
83AE
100
AcDbDictionary
280
     1
281
     1
  3
ACAD_XREC_ROUNDTRIP
360
89E4
  0
DICTIONARY
  5
89E7
330
83B6
100
AcDbDictionary
280
     1
281
     1
  3
ACAD_XREC_ROUNDTRIP
360
89E8
  0
DICTIONARY
  5
89E5
330
83B2
100
AcDbDictionary
280
     1
281
     1
  3
ACAD_XREC_ROUNDTRIP
360
89E6
  0
DICTIONARY
  5
835E
330
835D
100
AcDbDictionary
280
     1
281
     1
  3
ACAD_XREC_ROUNDTRIP
360
89AD
  3
BUMPTILE
360
8360
  3
DIFFUSETILE
360
835F
  3
OPACITYTILE
360
8363
  3
REFLECTIONTILE
360
8362
  3
REFRACTIONTILE
360
8364
  3
SPECULARTILE
360
8361
  0
DICTIONARY
  5
8356
330
8355
100
AcDbDictionary
280
     1
281
     1
  3
ACAD_XREC_ROUNDTRIP
360
89AC
  3
BUMPTILE
360
8358
  3
DIFFUSETILE
360
8357
  3
OPACITYTILE
360
835B
  3
REFLECTIONTILE
360
835A
  3
REFRACTIONTILE
360
835C
  3
SPECULARTILE
360
8359
  0
DICTIONARY
  5
8366
330
8365
100
AcDbDictionary
280
     1
281
     1
  3
ACAD_XREC_ROUNDTRIP
360
89AE
  3
BUMPTILE
360
8368
  3
DIFFUSETILE
360
8367
  3
FBXASSET
360
840C
  3
OPACITYTILE
360
836B
  3
REFLECTIONTILE
360
836A
  3
REFRACTIONTILE
360
836C
  3
SPECULARTILE
360
8369
  0
DICTIONARY
  5
89E1
330
83AC
100
AcDbDictionary
280
     1
281
     1
  3
ACAD_XREC_ROUNDTRIP
360
89E2
  0
DICTIONARY
  5
89A8
330
83A8
100
AcDbDictionary
280
     1
281
     1
  3
ACAD_ROUNDTRIP_2008_TABLESTYLE_CELLSTYLEMAP
360
89A9
  3
ACAD_XREC_ROUNDTRIP
360
89DF
  0
DICTIONARY
  5
89B9
330
8373
100
AcDbDictionary
280
     1
281
     1
  3
ACAD_XREC_ROUNDTRIP
360
89BA
  0
DICTIONARY
  5
89B7
330
8372
100
AcDbDictionary
280
     1
281
     1
  3
ACAD_XREC_ROUNDTRIP
360
89B8
  0
DICTIONARY
  5
89C5
330
8379
100
AcDbDictionary
280
     1
281
     1
  3
ACAD_XREC_ROUNDTRIP
360
89C6
  0
DICTIONARY
  5
89CD
330
837D
100
AcDbDictionary
280
     1
281
     1
  3
ACAD_XREC_ROUNDTRIP
360
89CE
  0
DICTIONARY
  5
89BF
330
8376
100
AcDbDictionary
280
     1
281
     1
  3
ACAD_XREC_ROUNDTRIP
360
89C0
  0
DICTIONARY
  5
89C3
330
8378
100
AcDbDictionary
280
     1
281
     1
  3
ACAD_XREC_ROUNDTRIP
360
89C4
  0
DICTIONARY
  5
89DD
330
8385
100
AcDbDictionary
280
     1
281
     1
  3
ACAD_XREC_ROUNDTRIP
360
89DE
  0
DICTIONARY
  5
89CB
330
837C
100
AcDbDictionary
280
     1
281
     1
  3
ACAD_XREC_ROUNDTRIP
360
89CC
  0
DICTIONARY
  5
89AF
330
836E
100
AcDbDictionary
280
     1
281
     1
  3
ACAD_XREC_ROUNDTRIP
360
89B0
  0
DICTIONARY
  5
89B1
330
836F
100
AcDbDictionary
280
     1
281
     1
  3
ACAD_XREC_ROUNDTRIP
360
89B2
  0
DICTIONARY
  5
89B3
330
8370
100
AcDbDictionary
280
     1
281
     1
  3
ACAD_XREC_ROUNDTRIP
360
89B4
  0
DICTIONARY
  5
89B5
330
8371
100
AcDbDictionary
280
     1
281
     1
  3
ACAD_XREC_ROUNDTRIP
360
89B6
  0
DICTIONARY
  5
89BD
330
8375
100
AcDbDictionary
280
     1
281
     1
  3
ACAD_XREC_ROUNDTRIP
360
89BE
  0
DICTIONARY
  5
89D9
330
8383
100
AcDbDictionary
280
     1
281
     1
  3
ACAD_XREC_ROUNDTRIP
360
89DA
  0
DICTIONARY
  5
89C9
330
837B
100
AcDbDictionary
280
     1
281
     1
  3
ACAD_XREC_ROUNDTRIP
360
89CA
  0
DICTIONARY
  5
89DB
330
8384
100
AcDbDictionary
280
     1
281
     1
  3
ACAD_XREC_ROUNDTRIP
360
89DC
  0
DICTIONARY
  5
89C1
330
8377
100
AcDbDictionary
280
     1
281
     1
  3
ACAD_XREC_ROUNDTRIP
360
89C2
  0
DICTIONARY
  5
89D7
330
8382
100
AcDbDictionary
280
     1
281
     1
  3
ACAD_XREC_ROUNDTRIP
360
89D8
  0
DICTIONARY
  5
89D5
330
8381
100
AcDbDictionary
280
     1
281
     1
  3
ACAD_XREC_ROUNDTRIP
360
89D6
  0
DICTIONARY
  5
89CF
330
837E
100
AcDbDictionary
280
     1
281
     1
  3
ACAD_XREC_ROUNDTRIP
360
89D0
  0
DICTIONARY
  5
89D1
330
837F
100
AcDbDictionary
280
     1
281
     1
  3
ACAD_XREC_ROUNDTRIP
360
89D2
  0
DICTIONARY
  5
89C7
330
837A
100
AcDbDictionary
280
     1
281
     1
  3
ACAD_XREC_ROUNDTRIP
360
89C8
  0
DICTIONARY
  5
89BB
330
8374
100
AcDbDictionary
280
     1
281
     1
  3
ACAD_XREC_ROUNDTRIP
360
89BC
  0
DICTIONARY
  5
89D3
330
8380
100
AcDbDictionary
280
     1
281
     1
  3
ACAD_XREC_ROUNDTRIP
360
89D4
  0
XRECORD
  5
89E4
102
{ACAD_REACTORS
330
89E3
102
}
330
89E3
100
AcDbXrecord
280
     1
102
DISPLAYNAME
  1
Imperial24
102
FLAGS
 90
        0
  0
XRECORD
  5
89E8
102
{ACAD_REACTORS
330
89E7
102
}
330
89E7
100
AcDbXrecord
280
     1
102
SHADEPLOT
 70
     0
102
SHADEPLOTRESLEVEL
 70
     2
102
SHADEPLOTCUSTOMDPI
 70
   300
  0
XRECORD
  5
89E6
102
{ACAD_REACTORS
330
89E5
102
}
330
89E5
100
AcDbXrecord
280
     1
102
SHADEPLOT
 70
     0
102
SHADEPLOTRESLEVEL
 70
     2
102
SHADEPLOTCUSTOMDPI
 70
   300
  0
XRECORD
  5
89AD
102
{ACAD_REACTORS
330
835E
102
}
330
835E
100
AcDbXrecord
280
     1
102
MATERIAL
148
0.0
149
0.0
149
0.0
 93
        0
 94
      127
282
     0
 72
     0
 77
     0
171
     0
175
     0
179
     0
273
     0
  0
XRECORD
  5
8360
102
{ACAD_REACTORS
330
835E
102
}
330
835E
100
AcDbXrecord
280
     1
270
     1
271
     1
  0
XRECORD
  5
835F
102
{ACAD_REACTORS
330
835E
102
}
330
835E
100
AcDbXrecord
280
     1
270
     1
271
     1
  0
XRECORD
  5
8363
102
{ACAD_REACTORS
330
835E
102
}
330
835E
100
AcDbXrecord
280
     1
270
     1
271
     1
  0
XRECORD
  5
8362
102
{ACAD_REACTORS
330
835E
102
}
330
835E
100
AcDbXrecord
280
     1
270
     1
271
     1
  0
XRECORD
  5
8364
102
{ACAD_REACTORS
330
835E
102
}
330
835E
100
AcDbXrecord
280
     1
270
     1
271
     1
  0
XRECORD
  5
8361
102
{ACAD_REACTORS
330
835E
102
}
330
835E
100
AcDbXrecord
280
     1
270
     1
271
     1
  0
XRECORD
  5
89AC
102
{ACAD_REACTORS
330
8356
102
}
330
8356
100
AcDbXrecord
280
     1
102
MATERIAL
148
0.0
149
0.0
149
0.0
 93
        0
 94
      127
282
     0
 72
     0
 77
     0
171
     0
175
     0
179
     0
273
     0
  0
XRECORD
  5
8358
102
{ACAD_REACTORS
330
8356
102
}
330
8356
100
AcDbXrecord
280
     1
270
     1
271
     1
  0
XRECORD
  5
8357
102
{ACAD_REACTORS
330
8356
102
}
330
8356
100
AcDbXrecord
280
     1
270
     1
271
     1
  0
XRECORD
  5
835B
102
{ACAD_REACTORS
330
8356
102
}
330
8356
100
AcDbXrecord
280
     1
270
     1
271
     1
  0
XRECORD
  5
835A
102
{ACAD_REACTORS
330
8356
102
}
330
8356
100
AcDbXrecord
280
     1
270
     1
271
     1
  0
XRECORD
  5
835C
102
{ACAD_REACTORS
330
8356
102
}
330
8356
100
AcDbXrecord
280
     1
270
     1
271
     1
  0
XRECORD
  5
8359
102
{ACAD_REACTORS
330
8356
102
}
330
8356
100
AcDbXrecord
280
     1
270
     1
271
     1
  0
XRECORD
  5
89AE
102
{ACAD_REACTORS
330
8366
102
}
330
8366
100
AcDbXrecord
280
     1
102
MATERIAL
148
0.0
149
0.0
149
0.0
 93
        0
 94
      127
282
     0
 72
     0
 77
     0
171
     0
175
     0
179
     0
273
     0
  0
XRECORD
  5
8368
102
{ACAD_REACTORS
330
8366
102
}
330
8366
100
AcDbXrecord
280
     1
270
     1
271
     1
  0
XRECORD
  5
8367
102
{ACAD_REACTORS
330
8366
102
}
330
8366
100
AcDbXrecord
280
     1
270
     1
271
     1
  0
XRECORD
  5
840C
102
{ACAD_REACTORS
330
8366
102
}
330
8366
100
AcDbXrecord
280
     1
 70
     1
 90
1959938040
 71
     1
  1
7D377072-60D7-4FB0-8E0C-B32F727E8666
311
504B0304140006080800576D7857C5F22D03D9000000200100004F00000032323235314442372D364230372D343443432D423232462D4131353833343843323646392F4173736574446174612F446566696E6974696F6E4974657261746F7250726F706572746965732E62696E454E3D6FC23010351D5A75E8C03F40ECC689
311
630A8A804AC481A95DE8D4051DCE412339098A13A963C7FEEBF64E0571D2BB779FEFEE4708F17B310AC580F04DFE89788B35B6A5DBB94FAC40DC73C53707F00FB7DE1D859C5A3C42EF3BDE7A2D8343EFA1C6A60FC3DBE8A8828EE4C04F78E991702D045638FD1FE3FB6F047E89198A73FA022160B754C7C397CA221D2599CD
311
E5344FAC3433BD916B6B8DCCE275AE8D99CFCC74AE5A0C4DDF3A0C4AAB687F51DE9FEB5359AC165D59E1A8860A9763D722FD548C573AD2898C63A9CD7B9CA446A7E6F963A178F20F504B0304140006080800576D7857A3DEDD9FEF000000300200004500000032323235314442372D364230372D343443432D423232462D41
311
31353833343843323646392F4173736574446174612F496E7374616E636550726F706572746965732E62696EEB606060F80F0540260323103700495E20ED9E9A975A94991C9C9C919A9BA802143077313637373037D235337031D735717332D0B5703570D67532367233373277B5303333634768046931363471713532B5D4
311
35353131D635313332D475727372D13534373670367376B67474B5042A03DBCBA019D37FE8ABC6157B20CD04146B0062181F4C03F940F0C11EA29A8141C08141002C0426541C106CAC2CA046088033B02A030AC2157C6006F21A8018AAF50194E6010A610250382264E08660284CD9E98021862280A91564B406929A0FF62C
311
401E28B6F88038B83CB1243943D7A928312F25350524430D9080C51000504B0304140006080800576D785728BB58AF800100009E0500003D00000032323235314442372D364230372D343443432D423232462D4131353833343843323646392F536368656D61732F436F6D6D6F6E536368656D612E786D6CBD544D4FC23018
311
BEFB2B96DE15493C78601010A34B880709DEDFB52FD0D8B54BD70DF6EFED3AC0B12E6442E2716BFB3CEFF3D18E26FB440405EA8C2B1992E1C323095052C5B8DC842437EBFB673219DF8DA659866649B798C078B48AE6410122242F2A4994AC7F93815DF85C049C8564CA0A901499DD886B2EB9B1E02448F358701A9235880C
311
49A0119892A20C89D1B9FD768815CAD268CB5E0355B40B1E47F3E37A2020464BED06AA57CE8FCC20C3C3446D46761A2632A8C1283D07031EFF2AE7CCB1BFEEE916E406DFAC8E36FFD99A9D60A6944090EEDC3B670C7DC13DE86B6B2C5C240D6E503BB85ACD579D513F1B9F9A69DC9CC22AFA80C426D40AF0B21EA168559156
311
B6276F0F726A6BFF04DCD513A87A62CAD41FB24FCB2858B3952E3D852084DA25B9303C15687973CC8E8AAE11DF2836C38C6A9E765E8C1BA1BFB1DC29CDFE518C8B5A7655A4ED7E77291ABEB80DBD82EC866ADE1B8D05AF9E35CF09D7A061F38A986D9EC412B8F0F65E5D81534D9B231D1E5A8FE577A241F3A5FD01504B0304
311
140006080800576D78572CCEBD668A040000E01200003E00000032323235314442372D364230372D343443432D423232462D4131353833343843323646392F536368656D61732F47656E65726963536368656D612E786D6CD5586D6FDB380CFE7EBF42F0F7A649B70E1B90744856B4970F450FCD7A5F05459613EDE4174872
311
DADCAF3F522F8ED3B88D2F1D06AC4050DBA2493EE4438AF2F8EB73AEC8466823CB62928C06C384888297A92C5693A4B6D9D9E7E4EBD51FE3A931C22EF85AE4EC6AFC38BF261BA626C9AD288496DC3F4FCEAFC63366845F7A10452AF41DB320C0D44EC26EAB20918735565582695670811A6A49643A49A6E9069FA4604A64B2
311
9016DC4B48552F95E4932463CA888468C1D2B250DB4962750DF7CE273069CE8363F1FF4EDB00E0A21999574AE4A2B00C353B93F3BD4777B8A61ED8F604ABFEDD79CE56A2B7BDFBDBC50996E0ADDE16FED26223C5D30956C29BDF4A55EA686E5E58B112DA45CE67F76F4FA27EFA3FB672FD7372FC388FAECDCA5209E693CAD1
311
67BADCD272F943701B3812F8A3D852008B1D2E32DB927B2F833C6EA95879925356D254582695095A3CE982924720BE5774A3CB9CDCDB350427D2DF20DA1B5532EBE2D5D6288D75D4F7E4FD9890A0EF8E3D93EBB8F8BA4758158EF6FB90A6F9520281C93DE7AAC6D24607DA296BB96018123F821A7D6A5C5884050C475DA486
311
5442732C8B95684A50165CBB3A32F25F783A4A480ED59AD7F924B968AEA50131F46303223E6A397B0E52976030DC1DCA81D7E7C1EDEEA42C19FF27635C505E2BD5198A599020DF50A2330FCB3AAF28CB0124108429553EF1B228802E2265D8F7CC2401042B155BCC7070F1E5C55F13B4A9577362CCCE46C32174E010C3C378
311
C44841A4BDA00FE3A12006CE11EE6AEC59894D3526DDE1CD59D503ECC324017F8061B7F162162FA62EDD81AE3308617770796DCBDAD2B2625C5AE8A63DE20B2C8AA5E95E76E5730823955956E33E705425A2187C185D36489A1B44D3DCEC2172F6BA2105C3546287A7194B2331768EBBE64F6E70A9930ABE0ADEA89E9E2C38
311
523B810287AD67A54A039C1606EAFE68F8304610BB9093DBDDABC0B2AE4E290DCDA15376D7E39F72B556F0B32EAB5D3D498B4C41ABADEC3A1434C422D87E8025A84BDCB2B1417ED750FAE4DA8976863974C577C7F902D3F156AD354DEA3540DE6BEAE2BEA52F7A2EB4CA43802ECE5BF2CE2EDC9347179FFB023CE412E60BE1
311
6DA0BE29B374988A553F561DC04615DD35F7D2C8979F60E5955CE93DF29DED8AFA1EE6642D53418086C03C47C377910F75F7E8F5EF665F70B60FFB22AEDF897D119E8423C773E819A3C1E55E550599EE6EDCA34D0C86FD72057DF2CD46F16A470682471C164E4346D5306BF12D7D12D82CFF673D41636C347443FEB51B50D7
311
2EA171A8E4A58623A4A16E0FA2B8B10A0D23268D87C33896EE8FB73305A74BF224EDBADFA0BD674AB354D63DB7BD5D83426761C077DE767728235446A552754EB93B755891C3C4CC6CADE37CF0E912A7BB38DBA010F9DE1282EDF470CA69A9CDA482E334C4A6EA4107987980B17E72F31730EBF88BBD39E7C629F56797A3C0
311
009C2C5AE7951D9A05A02773440F02EEB4DE396A3B6A570C72CCFBCD823B0B8ED3F1D5CEDDFED772FA70236C83FB7D86C385D570B87107535572A60A96035F8F7C6A7192F13007246BBE0521855E6AC46F3E27689CEE7D186A6FD679D98CDCAD13333E04EBE7ED6F55FF01504B0304140006080800576D78576180134D5F01
311
00006B0300004500000032323235314442372D364230372D343443432D423232462D4131353833343843323646392F536368656D61732F52656E6465724D6174657269616C536368656D612E786D6CA5934D6FC2300C86EFFB1551EEE343DBA41D1A103009551ADAD40EAE28A4A68D9426284961FCFBE5A340113B2071746D
311
3F765EBF4DC6BFB5407BD0862B49F0B037C0082453059725C18DDD3EBFE3F1E829991803366715D474942CD30FB4A782E00C64017A412D684E454CE3FE28995203B162A6EA5AC94B66997D225E109CD63B0135484BAD1B3C07E9080CA35DB3119C11BCA5C200461A68A1A438126C75E3E230D40FF81FB3F03C91D1E3A3A0AF
311
79FE28E25BC39EC3E17E4C2A2D94A0833A51AF55BCCA7D88572FCBAC529C4140B020FC3AAFA886621DCED7EAD7664CC86024E806DC297DA1BB393E4156543457A4537DB8817349A70F8ACBF09B3EEE2CB2F33E91B65D60786E4E3B39B77E3FEEEF5650424525DA657FB8B46BE6BF064646F0A0F7327C0BC1BC1B4CBBC1C419
311
FA3CCB23500007872A2580CAAE5461865565294E4EDB4617B62FF579DF9A5B2F54E834076A597573A020912FED777F9B3F504B0304140006080800576D7857ED688B3851000000570000004700000032323235314442372D364230372D343443432D423232462D4131353833343843323646392F4173736574446174612F41
311
737365745461626C654F66436F6E74656E74732E62696E536160603077313637373037D235337031D735717332D0B5703570D67532367233373277B53033331302AACB4D2C492DCA4CCC492C28484D2C4ACC4B4E050A82012F90744FCD03CA26072767A4E6260200504B0304140006080800576D7857F86583405800000068
311
0000004500000032323235314442372D364230372D343443432D423232462D4131353833343843323646392F4173736574446174612F53747265616D56657273696F6E5461626C652E696E66558CBD0A80300C06F73E4B117FB66E451741D041DC5BF98480A492E4FDD18EAEC7DD4555D89EF28DF51A0B1BD8340C4DE7DD84
311
8B988C0ACF0649566493F2408C508DDEBB99D5129FF8F1AF8CF5B9503E20FAE5A16B5AF702504B0304140006080800576D7857878B0CA3350100009A0400003600000032323235314442372D364230372D343443432D423232462D4131353833343843323646392F4173736574446174612F636E782E786D6CCD94314FC330
311
1085FF4AE43D76934608558E2B044B2790A818D8AECEA5B5EAD8917D41F0EFB1DB0CA022A60E5DCFEFCECF9FFC4EAE3F075B7C6088C6BB96557CC10A74DA77C6ED5B36515FDEB362AD64F09E7EC858E160C096E53253721FFC34CEA50E7B986CAE5AE38E73F12146A42DEC2C3EF78FDE113A8AACD016626C59D4071C80C344
311
BEC378E41D10F08A078C7E0A1AD3243203CE93744020EC98AA17F5B2ACAAB26EB6D572D5D4ABE6EE5D8AAC5472E7BD9DF5265D16FC58E8F3AD4C2DA4C8C74A4EC1CC9AFC16A6FEF2C877C64991944A460A89C9DC415F63EA8071B446032574C26B422A93086190E22C56526406BF483C616F9CC92D9B640CC88797640F0319
311
BC3922FF79BD3E998D8B044EE3EDF2B874787D0AAFA71FF4760EE42931B796934B87DCB8FE0A2911A735924293B78AFA06504B0304140006080800576D785763282364090100004F0300003400000032323235314442372D364230372D343443432D423232462D4131353833343843323646392F536368656D61732F636E78
311
2E786D6CCD93BD6EC32014855FC5620FD88E5555112643874E5DDA4EDD28DC2428C0B5F8A9DAB72FB80C89D4AD1DB2C1E1133AE770E1FB4F67BB0F08D1A09FC9407BD28157A88D3FCE24A7C3E69E747BC10362BAC048E7A583995499087E0C9897266938C86CAB6A8D3F37F1019D43FFA24EE024E9949531CE24AE5B2A7342
311
0DF14CB54C920E3440C41C14941B9271D06E500164024DC4D88FDBCD306CC6E975D8EEA67137DDBD715649C1DF116DE38D4F1070E91496852F767ACEEAB1E03998C6D40C445C7AA3A50DCE0A21784CA174D0C8F4B514522E8B354AA652155BC11F467056A35E057E040FC1A8DB4C7C65EEDF223F83D7109ECA2B0523ED6D26
311
FFCDE3DF0A60EBEC9711A85F417C03504B0304140006080800576D7857410A3D5871000000A40000002C00000032323235314442372D364230372D343443432D423232462D4131353833343843323646392F636E782E786D6C55CC4D0E82301086E1AB34B31774E7A22D31F1069E60020334B633A63FC6E34B0909B07DDE2F
311
9FEE7EC1AB2FC5E4840DDC9A2B28E25E06C7938192C7CB1D54677514C9871928C640062A83D55394F2D968A0118BAFEA1DBF377CA444F98919176EAB9FEAAB9F2960DA5BBB1E2ED3FA6FFF504B0304140006080800576D785717C7C0257F000000A300000007000000636E782E786D6C4D8CD10E822018465F85FDF794102A
311
6D820B9AEFE1121D13A191B41E3F685E74F56D67DF395DFFD91C7A9BF8B2C10B20A70A90F18F3059BF0848FB8C39A05E763184FDEF06C88F9B115030C86E89213D0F3499794CAE5067FD7A404A694DEEAAC58DAA5ACC98D658513AE01BA9F985714D9BE19A8D7351F2FC7A794B5E7E01504B0304140006080800576D785716
311
E99B5DA600000035010000130000005B436F6E74656E745F54797065735D2E786D6C9590410E82301045AFD2740F4517C6180A0BF5065E60AC53688469D30E066F6F91AD9AB89CF9FFFD3F99BA9DC7413C3026E749CB4D59498164FCCD51A7E5C4B6D84BD136F5E5193089ECA5A465CF1C0E4A25D3E308A9F401292BD6C711
311
388FB15301CC1D3A54DBAADA29E38991B8E0254336F5092D4C038BF39CD76B6FC6A538AEBEA54A4B08617006389FA516557DE4AE8E7E70DE30729138228C5F021CD93F02D4FB0DCD0B504B0304140006080800576D78573DEE336E64000000790000001B0000006175746F6465736B2D64657369676E2D7061636B6167652E
311
786D6C35CBC10E83200C00D05F21DCA56CA76D41FC96062B120735B69A7DBE268BB7777961F8D5AF396893C2ADB70FE7ADA196782C2DF776D7A97B5933C430F15651E5469C55D70F80A4992A3ADC954792C525AE70A1E4D6AD9816CC044FEFDF01FE3FDE907802504B0304140006080800576D7857C4F0081BF90000009601
311
00003700000032323235314442372D364230372D343443432D423232462D4131353833343843323646392F4173736574446174612F636F72652E786D6C8550CB6E833010FC15B477033686A0C8384A48F3053DF5661987580936F2A3EAE7D74EA8D49E7ADAD5ECCCECEEB0C3D7F2283E95F3DA9A01705943A18CB49336F300
311
315C510FC58133676DF84583C288450D9061E06C7636AE1B24AD09CA64D4D8496DA0F05E0528E42335037879538B28450C89E1EFE52AE45DCCAAC4E58BC7598C7ADAA47A4A6EFAAA9503DEB4B43EE28EA291B41744DBD30EF5ED6E44FD657CABCFB43B353D6155167316F4F2B35D3A25829A80939A34086344E83B6EF694EC
311
69F7C1AACCE4CC07977EDE96E6EF801FF3D5671104AB5ED33FAE719DFE778DDA84866CAE2F85078ED391CF0167554E29956784A9E644F937504B0304140006080800576D7857B8A28FA0F8000000940100003500000032323235314442372D364230372D343443432D423232462D4131353833343843323646392F53636865
311
6D61732F636F72652E786D6C8550CB6E833010FC15B477033686A0C8386A68F303EDA937CB38D44AB0911F553FBF36A1527BEA6957B333B3BBC34E5FCBBDF854CE6B6B06C0650D8532D24EDACC03C470453D1427CE9CB5E1170D0A231635408681B3D9D9B8EE90B4262893516327B583C27B15A090F7D40CE0E5875A442962
311
480C7F2B57216F6256252E1F3CCE62D4D32ED55372D357AD1CF0A6A5F513EE281A497B41B43D1F50DF1E46D45FC697FA9976E7A627ACCA62CE825E7EB64BA744501370529306618C087DC3CD919223EDDE5995999CF9E0D2CFFBD2FC1DF0D7ED4ECFAAC7EC8F675CA7FF3DA336A121BBE743E181E374E236E0ACCA19A5B205
311
986ACE937F03504B0304140006080800576D78575C7B6763FF000000D70100002D00000032323235314442372D364230372D343443432D423232462D4131353833343843323646392F636F72652E786D6C9551C16E842014FC15C31D1544D76E904DB5D92FE8A9372A6F5DB22B18C0A69F5FA8366D6FED0932CCCC63E6F1D3
311
FB7CCFDEC0796D4D87485EA20CCC6895365387D670C12DCA4E823B6BC30F1ACA8C9CA1430946824FCEAECB0E8DD60430093556C10E4AEF21A06CBCC74B87FC788559E6720D91E16FF922C79B9C2027F9C6133CE8F94B3A3A90011412B4A415260453F64CAA23A347D6BCF02231055FB50915DD87C1FC0A2AB34B889190A879
311
B1BD46D6AAD5CED12AFE515F34B8684C694D9EFA036EFAF280191B06DC537AC68FA46E2BD60EB4393F44932816DC07179BD94D52077F956FC25FC9D645FD33D9A6F04890EF5045AA59F0E27307F14C2B111F504B0304140006080800576D78571933E81507010000B201000008000000636F72652E786D6C8D50C16E842014
311
FC15F2EEA820BA66836CBAB6FB053DF54685B564158CE0A6FDFBC26A93F6D6D32333F3DE0CC34F9FD388EE7AF1C6D916485600D2B677CAD8A185355C7103E824F8E25CF8250364E5A45B4830083E2C6E9D77A87736689B50EB94DE41E9BD0E80FA313E5AF0FD879E6426D71015FE96CDB2BFC9416724DB74820733FDACF68B
311
96412B10B4A025260453F64ACA23A34756BFF13C29055F57A3762BA3A2BBB91ABD80282B563C919AE18E5617CCAAF30137D5A1C3CDA57B299E597D2E1BCAF3B42CB80F4BFCF37E24E60CC8CB7BF2E5F94609FEEEDCB80B6228859C1DBF40143C4FC49FD0EBACFE11DAD850D2FDE0B6E1419018E84144E3D4601C8F7AE34C6D
311
8B6F504B01021400140006080800576D7857C5F22D03D9000000200100004F000000000000000000000000000000000032323235314442372D364230372D343443432D423232462D4131353833343843323646392F4173736574446174612F446566696E6974696F6E4974657261746F7250726F706572746965732E62696E
311
504B01021400140006080800576D7857A3DEDD9FEF0000003002000045000000000000000000000000004601000032323235314442372D364230372D343443432D423232462D4131353833343843323646392F4173736574446174612F496E7374616E636550726F706572746965732E62696E504B01021400140006080800
311
576D785728BB58AF800100009E0500003D000000000000000000000000009802000032323235314442372D364230372D343443432D423232462D4131353833343843323646392F536368656D61732F436F6D6D6F6E536368656D612E786D6C504B01021400140006080800576D78572CCEBD668A040000E01200003E000000
311
000000000000000000007304000032323235314442372D364230372D343443432D423232462D4131353833343843323646392F536368656D61732F47656E65726963536368656D612E786D6C504B01021400140006080800576D78576180134D5F0100006B0300004500000000000000000000000000590900003232323531
311
4442372D364230372D343443432D423232462D4131353833343843323646392F536368656D61732F52656E6465724D6174657269616C536368656D612E786D6C504B01021400140006080800576D7857ED688B38510000005700000047000000000000000000000000001B0B000032323235314442372D364230372D343443
311
432D423232462D4131353833343843323646392F4173736574446174612F41737365745461626C654F66436F6E74656E74732E62696E504B01021400140006080800576D7857F865834058000000680000004500000000000000000000000000D10B000032323235314442372D364230372D343443432D423232462D413135
311
3833343843323646392F4173736574446174612F53747265616D56657273696F6E5461626C652E696E66504B01021400140006080800576D7857878B0CA3350100009A04000036000000000000000000000000008C0C000032323235314442372D364230372D343443432D423232462D4131353833343843323646392F4173
311
736574446174612F636E782E786D6C504B01021400140006080800576D785763282364090100004F0300003400000000000000000000000000150E000032323235314442372D364230372D343443432D423232462D4131353833343843323646392F536368656D61732F636E782E786D6C504B01021400140006080800576D
311
7857410A3D5871000000A40000002C00000000000000000000000000700F000032323235314442372D364230372D343443432D423232462D4131353833343843323646392F636E782E786D6C504B01021400140006080800576D785717C7C0257F000000A300000007000000000000000000000000002B100000636E782E78
311
6D6C504B01021400140006080800576D785716E99B5DA6000000350100001300000000000000000000000000CF1000005B436F6E74656E745F54797065735D2E786D6C504B01021400140006080800576D78573DEE336E64000000790000001B00000000000000000000000000A61100006175746F6465736B2D6465736967
311
6E2D7061636B6167652E786D6C504B01021400140006080800576D7857C4F0081BF90000009601000037000000000000000000000000004312000032323235314442372D364230372D343443432D423232462D4131353833343843323646392F4173736574446174612F636F72652E786D6C504B0102140014000608080057
311
6D7857B8A28FA0F80000009401000035000000000000000000000000009113000032323235314442372D364230372D343443432D423232462D4131353833343843323646392F536368656D61732F636F72652E786D6C504B01021400140006080800576D78575C7B6763FF000000D70100002D000000000000000000000000
311
00DC14000032323235314442372D364230372D343443432D423232462D4131353833343843323646392F636F72652E786D6C504B01021400140006080800576D78571933E81507010000B2010000080000000000000000000000000026160000636F72652E786D6C504B050600000000110011005A060000531700000000
310
504B0304140006080800576D7857000000000000000000000000370000006662782F45463634373432342D334336452D343630322D393746362D4244464536323831393632422F617474726962757465732E62696E504B0304140006080800576D7857000000000000000000000000350000006662782F4546363437343234
310
2D334336452D343630322D393746362D4244464536323831393632422F76657274696365732E62696E504B0304140006080800576D7857F270F1330600000004000000360000006662782F45463634373432342D334336452D343630322D393746362D4244464536323831393632422F747269616E676C65732E62696E6366
310
60600000504B0304140006080800576D785751464CB48900000043010000360000006662782F45463634373432342D334336452D343630322D393746362D4244464536323831393632422F6469726563746F72792E786D6C9D8F310EC2300C45AF127987122606C71DD918B841D4B851A43646695A717C52A85029031293A5
310
A76FBF6FACEF7DA7264E43906840EF0FA03836E242F406C6DCEE4EA06AC22492573150D1F66C60C640E8938CB705396EEDD86DE9B5042FE27813D640EA63BB001C722AF6E55CB61E4863F58284D5D3F53DD715CE1C3985E63FD7F1B7EBDD617E9F1E504B0304140006080800576D7857D56203C23D070000201C0000340000
310
006662782F45463634373432342D334336452D343630322D393746362D4244464536323831393632422F6F626A656374732E786D6CDD59596FDB3810FE2B84F665F741976F178E8BC44E0AA3485BD4E862DF045AA61D6EA803949438FBEB774891B2A8C8B6D203586C02C40E450E67BEB947B3F78788A127C2339AC45796EF
310
78162271986C69BCBFB28A7C674F2CF47E8E663C49F2DA3E0BC53822579658B6E6B33D4F8A542D6DC90E17ACB97A77F317CA4212130B850C67D99595850F24C20E2EF2644BB247678B73ECEC7707C777CA8D26D93DC7E943E3AA147312E7C02AACC7404571E09BFF8248EE7CE68A0DC6B67EB76DBD33DB5C29B8C9288DB31C
310
C7E12BAE1AD7F54E70D5B8AEEF0F96B7BDE1D41E0E067D7B30EAF9F6CDDDCDD2F6C77D6F315A2CA6D7B7530BCD679B2461950252126F418B2FD6DC9FB9E24925BE42A18DEF308963122A34DB366C89A24B49D6C4C400D697A2D51452CA5A5BE87714FEC4B64EA0182C19686BE1F467DD7A93CDDF0042D6C54A794684956739
310
075D2BEC4B7FF0666EB96AE8856628C239E11433C4E886630E0A82ADA5820C32C25B04292430935AD4F4EABC82615FF6A5362E770563C27FADB9F4B400FC91E499E48CFE43F891FBFA6DC013485BD0389F2861F39714484C67AE5C2C9FF57BEA610924DA31BC076B0131C5A67EAF81D742C482D5D29A7FBCDB1CD6223EB45F
310
9EF224253C1796279D59F99DD660CDB4C0F83A8052E26AEAEE88CA5780FE13205FF18266A0394E0F83C340CBCE719CED121E817690876C0FFE78487C7DF56DE65687E70819B1F214A6E0B63F0953430CE3EE1AA4F3D913187DC2FB4AB8758819D8F43D8D859F83A12096C012C4FBDDE660CD57104C61114E6106D2C3EFCC15
310
5F117C947420DE3434D4167E3B284A3B4CD3CF8EBAFA0036C36958A9CA90F114BEC39F82EFF572FD715DF01D0EC9BD72EC25D9D198E6904CDB193240375CFEDBEA93F4C80F2CD960763C6D6C0AE19A7D22E2468B5AD64A2D48EA05381169B8D48C5CB9A7E0ED8CE1982445A6D6DBE25498B084079B97A074E1D6BBFED43650
310
5EA60CA0359641720F394D0526D65C69AB0A844E4D50B030CC9505EE4BAD069B224A031C25452C42ED6B536CF201714658225095D4B4616BAFD564B774B72B32085EAD24170690CA9F35E1D2C20710C7DAF8E564C73124D1240E28E4607096D61B8C0B2AF0CEF39C11B60B28634514EC28833C1244383D41BFA304F5CCF548
310
5E9E13BE6D25685A96F6496D43027005AC064967AB32E62B9D72F244459929F399CE06C60E55875AF3C189742132450BA0DA18A5998F97FDF1D81BF7EC91B71CDB83BB1BCF9EDC7A0BFBA6DFBB1BF7C6B793D168D4E45347AB7ABE03558A32C7F0BFFCA1883631A60C1E08B1F1367DF75E66CF2B1742A3BBF07A5E7FB1BCB5
310
87B7FDA53D18F7EEEC9BE572602FFC9BDBDE6030190F861397932C29784832B7E77A8136C934DE9FE24A73F73A8642597339D9697D3585F91FC7D0664E3094F85F0DA255EC6A2908BB065171B4194271F82852541042D5D7EA3E8D20DAE4A32DCEBD312E7B4EDF933FBE3FED79D3DE647A74C1B3815ADEF3C371AE4D8210FA
310
CE220F921487346F4FA80D5C3AC6E937E516A7EF0F11A053FDAD2E399F67D425018DF09E043B2CBA8496C0784982D61CB6674996D19864B2CB7B55FD35687A0E145366CE6D31429A0511C9F1F7D89F6C1B1A360DB19905D08FE6622270B12AA80C5A7520A7288AEE1712B794FF25C87094B2B2D3BD8481DFD310E81EA7CDE2
310
04D3E28A27B0B700E781B725727071897AC5BEAE0F5AB5D6A43EFD6EF227E0D175CD2F84475FD1BD747286FE54FC4C20A88C867E7FAC1571092B7D552EFA385640E719BE04CF84EE1F3A159ADD74522BD9CAA23A2711B4B1382F78277F1D0DBD5717A9B8D07088DA4D6F2C0E65FFA63B38404F3670A7CADBDA355087D218E6
310
5C9D04792545AB094B5DC8999E185DBDC1AFCF2ABB4EF587E3E52FAF98EBCE17C9E1CF651CA05A2E03B08A3E464DDD5A751BF550F68CF31002E95A7EDA37E0115BB23D366606B9B6125DD7A797AAE79508A8114C6CB188B3F7E20BFB8A41D5D03D67EE87B26873CBF595486C0E0CA78F7C184C9BB43E7F5837A8C04AE7D35F
310
0446E4B94141AD2E44377C86D4B7D5B1E76F5050127D5B9D39FE9FE828B4026B633498066709A33094275BB42709646F183B74E8367844329995C1785590D26F043A9C7E2A67AA39DE307D3A7CC0309866AA172B42188A42C6BCB2D43AFA0DC6A06212298753CE23B4612A8659A8E0F4CA028BCD29745BCE06C659727828A9
310
37C695E0D838DE8B7C5F9EAAFE3F1E13E840543ACA55EDE9828B92CC7026286C53F99E00AABEF2C17CF6FDA26B7610CEE1EBA6C82B618E0B47691408FA8540291C4CFD1E15BC072828CECBE53B728F0149A7C9FC593B28A9DA39E67B395EAFE17DBDFCE28AC9F8EA334A59B117EA3CD7FD1A946CD175B3A29C42CDC0309498
310
291635E4E29DFB8527F08A294277148C00FD7E988CFE701749142571B9E45EAB175568FD00AF9DB6AE1EF9411BEFF943574E01D4583FD8E08C38789B3DC202A89653311B2D21360CA08AA63503D01A11BA8063C6FED512A9DAA83621A9875D018F9CE9237024F12E47B84D7D436D0009BE005CC987C72F7A61E6721882CFFF
310
05504B0304140006080800576D78570C6F4CA63E01000046050000300000006662782F45463634373432342D334336452D343630322D393746362D4244464536323831393632422F636E782E786D6CCD94C14A033110865F25E4BE49775B444A36050F3E8107F196CD4ED7D86CB22413B16F6F52B755918A8742BD85C93FF0
310
7F333F23366FA325AF10A2F1AEA5355B50024EFBDEB8A1A509B7D52D251B2982F7F84546895323B4B494A91443F0699A4B3D6C55B2A56A8DDBCD4585184C97102225DAAA185B1AF5338C8AA984BE87B863BD42C56A1620FA1434E47E3423CCFD3A8042E8A96C16CDB2AAEBAA593DD4CBF5AA59AF6E9E042F4A293AEFEDAC37
310
0E21F889689F1F2E9B59085EBEA548C1CC9A4240E5A733D6192778FE972266B76E9875B89F8A6E9AACD10AF398B8D708586511A851F00FB114BCF07EA3BEBF7B3C3A20BD09A0D187FD9506509F1BC0C918CB49F81BFF41F83BB6EF5E32EEB5B67D1676B67531D4635A638EEBCFFDE7142937D8FF17FA93B1CB673E9F1234FA
310
FF211F7D5D88981F4E5E5E7AB980F21D504B0304140006080800576D7857ED7CA2977E000000A30000000B0000006662782F636E782E786D6C4D8CD10A832018465F45FE7BB772F25790066DFA1EB12C64A6C3E5D8E34F4717BBFAE0F09DD30F9FCD91B7892F1BBC80FA540131FE1E66EB5701695F680B64907D0C61FFBB01
310
F1D36604140CB25F6348CF03CD6699922BD459FF38A0D2C81BCE38BD5C51518E15A35DA3918E37AD90B575876CCCC6B928797EBDBC252FBF504B0304140006080800576D7857A6D797065F0000008200000007000000636E782E786D6C4DCB3B0E80201045D1AD90E9FD7516806B51190811670C8A61F982B1B0BAC9C97B72
310
CA7B1037C6D3332918DA1E04D2CAC69353902EDB8C20262D23F3F59B81A079470595414B17391D1F19B4730A5583A7ED43BBE4025D9592775E5ADFFA01504B0304140006080800576D78574FEB6A7CA0000000F4000000130000005B436F6E74656E745F54797065735D2E786D6C7D8F4B0EC2300C44AF1279DFA6B0400835
310
ED02B8011730C16D239A8F121795DB93D02D6269CFBC19BBED573B8B17C564BC53B0AB1B10E4B47F18372A5878A88E20FAAEBDBD032591BD2E299898C349CAA427B2986A1FC86565F0D122E7318E32A07EE24872DF3407A9BD63725C71C980AEBDD080CBCCE2BAE6F5D69B7110E7CD57AA146008B3D1C8F92C5954F993BB1B
310
F787F39A89ABC491D09600F9FDA2FB00504B0304140006080800576D78573DEE336E64000000790000001B0000006175746F6465736B2D64657369676E2D7061636B6167652E786D6C35CBC10E83200C00D05F21DCA56CA76D41FC96062B120735B69A7DBE268BB7777961F8D5AF396893C2ADB70FE7ADA196782C2DF776D7
310
A97B5933C430F15651E5469C55D70F80A4992A3ADC954792C525AE70A1E4D6AD9816CC044FEFDF01FE3FDE907802504B0304140006080800576D7857A4DFBF31F9000000960100003B0000006662782F45463634373432342D334336452D343630322D393746362D4244464536323831393632422F7265736F75726365732F
310
636F72652E786D6C8550CB6EC32010FC156BEFD80613278E3091A5A65FD0536F086F5C9418221E553FBF90B8527BEA6957B333B3BB234E5FEBADFA441F8CB323D0BA850AAD76B3B1CB08295EC801AA9314DEB9F88B0695552B8E50609062F12EDD37483B1BD116D4BA1937508580112A7DCBCD08417FE0AA6A956266846B7D
310
57FAAA16AC69FDE44991929937A999B39BB918F420277ED8F7C37426E7619A08EFF6940C3BDE9261CFFBA963DDEE75F7229A2296229AF567BBF6A822CE2059CB3A422961FC8D7647CE8EBC7F174D614A11A2CF3F6F4BCB77203D0697BCC6209AE7F48F6BBACFFFBB266363C736D7A72280A4F9C8C7408AA6A494CB23C25C4B
310
A2F21B504B0304140006080800576D785793FD2DBFF1000000B1010000310000006662782F45463634373432342D334336452D343630322D393746362D4244464536323831393632422F636F72652E786D6C8D50CB6EC32010FC156BEFD80623F21026525AFB0B7AEA0D61E2A0C460F1A8FAF985C495DA5B4E8B666798D9E1
310
A7EFE55E7D691F8CB33DE0BA854A5BE52663E71E52BCA03D5427C1BD73F10F0D2A2B17DD438141F0D9BBB46E9072366A5B50EB26BD8132041DA152F7FCE821A8AB5E642D53CC8C70AB57A96E72D635AE9F3CC1A3597EA5CA6B19F50482B4A4431823423F7077A4E448D9276F0A53F094CCB4599929BB9B8BD11EC43032BAA3
310
84A2EE8D0D88B296A0C36E64E8FC3E0E8CECF18191336F8A58F0107DBE79FBA45CF7AAFC29FC9739ADD30B998D8D1DD90C9F8A0002E73C8F85E04D29308F47BB7996B2C50F504B0304140006080800576D7857F506A32453010000DD0200000C0000006662782F636F72652E786D6C8D52DB6E842014FC15C33B5ED98B1B64
310
63D2ED17F4A96F2CA225AB6010CC7E7EC14BAC0FDD362648E69C33736602BE3EBB3618B91E84920548C218045C325509D914C09A1A9E417025582B657EB48140D28E17C0C380E0462BDB2F1053D270E951A92ABE807418B801016BDDA50003FBE21D0DA935AE6378843D650FDAF03009E73E82AD15D5322A2AC7266AC13520
310
253A9F8E797983B7BC2C21CA4E09CC0F2886F9091DCB2CCD0EEF87371CF961828DE85675A63935BC02248DD30C26094CD147925D507A41C74F1CF94E8207A39DE745D4BB03A4BE3F7134E33B3EDB577FF359214D962E7CF3C40048E2D69B0A04473E1FF79BC2DB67E8845D7E86DEDBD5C2C34123674669E42A95B25B69A4AD
310
E58E3A0EA60F4773D5314F04BFF1A42F785E73B8A0A86CDC6AD4B8EBDD1AAFBEDFA9E71A8EE61948A53BDA6ECBCD2B6EE726B4B3B48E33D52AFD9FE9D5EA1A66E41F26F906504B0304140006080800576D785700468E9607010000B201000008000000636F72652E786D6C8D50C16E842014FC15F2EEA820BAEB06D99874FB
310
053DF5468575C92A18C14DFBF785D526EDADA74766E6BD19869F3FA7113DF4E28DB32D90AC00A46DEF94B1430B6BB8E223A0B3E08B73E1970C9095936E21C120F8B0B875DEA1DED9A06D42AD537A07A5F73A00EAC7F868C1F7373DC94CAE212AFC3D9B657F9783CE48B6E9040F66FA59ED172D83562068414B4C08A6EC8D94
310
27464FAC7EE779520ABEAE46ED5646457773357A01D1B1E3A16EBA0BBE345D87597920B8A958819B03ABBB9296D56BF5C2F3B42CB80F4BFCF37E24E60CC8CB47F2E5F94609FEE1DCB80B6228859C1DBF40143C4FC49FD0EBACFE11DAD850D2FDE0B6E1419018E84944E3D4601CCF7AE34C6D8B6F504B010214001400060808
310
00576D78570000000000000000000000003700000000000000000000000000000000006662782F45463634373432342D334336452D343630322D393746362D4244464536323831393632422F617474726962757465732E62696E504B01021400140006080800576D7857000000000000000000000000350000000000000000
310
0000000000550000006662782F45463634373432342D334336452D343630322D393746362D4244464536323831393632422F76657274696365732E62696E504B01021400140006080800576D7857F270F13306000000040000003600000000000000000000000000A80000006662782F45463634373432342D334336452D34
310
3630322D393746362D4244464536323831393632422F747269616E676C65732E62696E504B01021400140006080800576D785751464CB489000000430100003600000000000000000000000000020100006662782F45463634373432342D334336452D343630322D393746362D4244464536323831393632422F6469726563
310
746F72792E786D6C504B01021400140006080800576D7857D56203C23D070000201C00003400000000000000000000000000DF0100006662782F45463634373432342D334336452D343630322D393746362D4244464536323831393632422F6F626A656374732E786D6C504B01021400140006080800576D78570C6F4CA63E
310
0100004605000030000000000000000000000000006E0900006662782F45463634373432342D334336452D343630322D393746362D4244464536323831393632422F636E782E786D6C504B01021400140006080800576D7857ED7CA2977E000000A30000000B00000000000000000000000000FA0A00006662782F636E782E
310
786D6C504B01021400140006080800576D7857A6D797065F000000820000000700000000000000000000000000A10B0000636E782E786D6C504B01021400140006080800576D78574FEB6A7CA0000000F40000001300000000000000000000000000250C00005B436F6E74656E745F54797065735D2E786D6C504B01021400
310
140006080800576D78573DEE336E64000000790000001B00000000000000000000000000F60C00006175746F6465736B2D64657369676E2D7061636B6167652E786D6C504B01021400140006080800576D7857A4DFBF31F9000000960100003B00000000000000000000000000930D00006662782F45463634373432342D33
310
4336452D343630322D393746362D4244464536323831393632422F7265736F75726365732F636F72652E786D6C504B01021400140006080800576D785793FD2DBFF1000000B10100003100000000000000000000000000E50E00006662782F45463634373432342D334336452D343630322D393746362D4244464536323831
310
393632422F636F72652E786D6C504B01021400140006080800576D7857F506A32453010000DD0200000C00000000000000000000000000251000006662782F636F72652E786D6C504B01021400140006080800576D785700468E9607010000B20100000800000000000000000000000000A2110000636F72652E786D6C504B
310
0506000000000E000E0080040000CF1200000000
  0
XRECORD
  5
836B
102
{ACAD_REACTORS
330
8366
102
}
330
8366
100
AcDbXrecord
280
     1
270
     1
271
     1
  0
XRECORD
  5
836A
102
{ACAD_REACTORS
330
8366
102
}
330
8366
100
AcDbXrecord
280
     1
270
     1
271
     1
  0
XRECORD
  5
836C
102
{ACAD_REACTORS
330
8366
102
}
330
8366
100
AcDbXrecord
280
     1
270
     1
271
     1
  0
XRECORD
  5
8369
102
{ACAD_REACTORS
330
8366
102
}
330
8366
100
AcDbXrecord
280
     1
270
     1
271
     1
  0
XRECORD
  5
89E2
102
{ACAD_REACTORS
330
89E1
102
}
330
89E1
100
AcDbXrecord
280
     1
102
DISPLAYNAME
  1
Imperial24
102
FLAGS
 90
        0
  0
CELLSTYLEMAP
  5
89A9
102
{ACAD_REACTORS
330
89A8
102
}
330
89A8
100
AcDbCellStyleMap
 90
        3
300
CELLSTYLE
  1
TABLEFORMAT_BEGIN
 90
        5
170
     1
 91
        0
 92
    32768
 62
   257
 93
        1
300
CONTENTFORMAT
  1
CONTENTFORMAT_BEGIN
 90
        0
 91
        0
 92
      512
 93
        0
300

 40
0.0
140
1.0
 94
        5
 62
     0
340
8399
144
0.25
309
CONTENTFORMAT_END
171
     0
 94
        0
309
TABLEFORMAT_END
  1
CELLSTYLE_BEGIN
 90
        1
 91
        1
300
_TITLE
309
CELLSTYLE_END
300
CELLSTYLE
  1
TABLEFORMAT_BEGIN
 90
        5
170
     1
 91
        0
 92
        0
 62
   257
 93
        1
300
CONTENTFORMAT
  1
CONTENTFORMAT_BEGIN
 90
        0
 91
        0
 92
      512
 93
        0
300

 40
0.0
140
1.0
 94
        5
 62
     0
340
8399
144
0.18
309
CONTENTFORMAT_END
171
     0
 94
        0
309
TABLEFORMAT_END
  1
CELLSTYLE_BEGIN
 90
        2
 91
        1
300
_HEADER
309
CELLSTYLE_END
300
CELLSTYLE
  1
TABLEFORMAT_BEGIN
 90
        5
170
     1
 91
        0
 92
        0
 62
   257
 93
        1
300
CONTENTFORMAT
  1
CONTENTFORMAT_BEGIN
 90
        0
 91
        0
 92
      512
 93
        0
300

 40
0.0
140
1.0
 94
        2
 62
     0
340
8399
144
0.18
309
CONTENTFORMAT_END
171
     0
 94
        0
309
TABLEFORMAT_END
  1
CELLSTYLE_BEGIN
 90
        3
 91
        2
300
_DATA
309
CELLSTYLE_END
  0
XRECORD
  5
89DF
102
{ACAD_REACTORS
330
89A8
102
}
330
89A8
100
AcDbXrecord
280
     1
102
ACAD_ROUNDTRIP_PRE2007_TABLESTYLE
 90
      512
 91
        0
  1

 92
      512
 93
        0
  2

 94
      512
 95
        0
  3

  0
XRECORD
  5
89BA
102
{ACAD_REACTORS
330
89B9
102
}
330
89B9
100
AcDbXrecord
280
     1
102
RTVSPost2010Prop28
280
     1
102
RTVSPost2010PropOp28
 70
     1
102
RTVSPost2010Prop29
280
     1
102
RTVSPost2010PropOp29
 70
     1
102
RTVSPost2010Prop30
280
     0
102
RTVSPost2010PropOp30
 70
     1
102
RTVSPost2010Prop31
280
     0
102
RTVSPost2010PropOp31
 70
     1
102
RTVSPost2010Prop32
280
     0
102
RTVSPost2010PropOp32
 70
     1
102
RTVSPost2010Prop33
280
     0
102
RTVSPost2010PropOp33
 70
     1
102
RTVSPost2010Prop34
280
     0
102
RTVSPost2010PropOp34
 70
     1
102
RTVSPost2010Prop35
280
     0
102
RTVSPost2010PropOp35
 70
     1
102
RTVSPost2010Prop36
280
     0
102
RTVSPost2010PropOp36
 70
     1
102
RTVSPost2010Prop37
 90
       50
102
RTVSPost2010PropOp37
 70
     1
102
RTVSPost2010Prop38
140
0.0
102
RTVSPost2010PropOp38
 70
     1
102
RTVSPost2010Prop39
140
1.0
102
RTVSPost2010PropOp39
 70
     1
102
RTVSPost2010Prop40
 90
        0
102
RTVSPost2010PropOp40
 70
     1
102
RTVSPost2010Prop41ColorIndex
 90
       18
102
RTVSPost2010Prop41ColorRGB
 90
        0
102
RTVSPost2010PropOp41
 70
     1
102
RTVSPost2010Prop42
 90
       50
102
RTVSPost2010PropOp42
 70
     1
102
RTVSPost2010Prop43
 90
        3
102
RTVSPost2010PropOp43
 70
     1
102
RTVSPost2010Prop44ColorIndex
 90
        5
102
RTVSPost2010Prop44ColorRGB
 90
      255
102
RTVSPost2010PropOp44
 70
     1
102
RTVSPost2010Prop45
280
     0
102
RTVSPost2010PropOp45
 70
     1
102
RTVSPost2010Prop46
 90
       50
102
RTVSPost2010PropOp46
 70
     1
102
RTVSPost2010Prop47
 90
       50
102
RTVSPost2010PropOp47
 70
     1
102
RTVSPost2010Prop48
 90
       50
102
RTVSPost2010PropOp48
 70
     1
102
RTVSPost2010Prop49
280
     0
102
RTVSPost2010PropOp49
 70
     1
102
RTVSPost2010Prop50
 90
       50
102
RTVSPost2010PropOp50
 70
     1
102
RTVSPost2010Prop51ColorIndex
 90
      256
102
RTVSPost2010Prop51ColorRGB
 90
-16777216
102
RTVSPost2010PropOp51
 70
     0
102
RTVSPost2010Prop52
140
1.0
102
RTVSPost2010PropOp52
 70
     0
102
RTVSPost2010Prop53
 90
        2
102
RTVSPost2010PropOp53
 70
     1
102
RTVSPost2010Prop54
  1
strokes_ogs.tif
102
RTVSPost2010PropOp54
 70
     1
102
RTVSPost2010Prop55
280
     0
102
RTVSPost2010PropOp55
 70
     1
102
RTVSPost2010Prop56
140
1.0
102
RTVSPost2010PropOp56
 70
     1
102
RTVSPost2010Prop57
140
1.0
102
RTVSPost2010PropOp57
 70
     1
102
RTVSPropertyOp0
 70
     1
102
RTVSPropertyOp1
 70
     1
102
RTVSPropertyOp2
 70
     1
102
RTVSPropertyOp3
 70
     1
102
RTVSPropertyOp4
 70
     1
102
RTVSPropertyOp5
 70
     1
102
RTVSPropertyOp6
 70
     1
102
RTVSPropertyOp7
 70
     1
102
RTVSPropertyOp8
 70
     1
102
RTVSPropertyOp9
 70
     1
102
RTVSPropertyOp10
 70
     1
102
RTVSPropertyOp11
 70
     1
102
RTVSPropertyOp12
 70
     1
102
RTVSPropertyOp13
 70
     1
102
RTVSPropertyOp14
 70
     1
102
RTVSPropertyOp15
 70
     1
102
RTVSPropertyOp16
 70
     1
102
RTVSPropertyOp17
 70
     1
102
RTVSPropertyOp18
 70
     1
102
RTVSPropertyOp19
 70
     1
102
RTVSPropertyOp20
 70
     1
102
RTVSPropertyOp21
 70
     1
102
RTVSPropertyOp22
 70
     1
102
RTVSPropertyOp23
 70
     1
102
RTVSPropertyOp24
 70
     1
102
RTVSPropertyOp25
 70
     1
102
RTVSPropertyOp26
 70
     1
102
RTVSPropertyOp27
 70
     1
102
RTVSPropertyOp28
 70
     1
102
RTVSPropertyOp29
 70
     1
102
RTVSPropertyOp30
 70
     1
102
RTVSPropertyOp31
 70
     1
102
RTVSPropertyOp32
 70
     1
102
RTVSPropertyOp33
 70
     1
102
RTVSPropertyOp34
 70
     1
102
RTVSPropertyOp35
 70
     1
102
RTVSPropertyOp36
 70
     1
102
RTVSPropertyOp37
 70
     1
102
RTVSPropertyOp38
 70
     1
102
RTVSPropertyOp39
 70
     1
102
RTVSPropertyOp40
 70
     1
102
RTVSPropertyOp41
 70
     1
102
RTVSPropertyOp42
 70
     1
102
RTVSPropertyOp43
 70
     1
102
RTVSPropertyOp44
 70
     1
102
RTVSPropertyOp45
 70
     1
102
RTVSPropertyOp46
 70
     1
102
RTVSPropertyOp47
 70
     1
102
RTVSPropertyOp48
 70
     1
102
RTVSPropertyOp49
 70
     1
102
RTVSPropertyOp50
 70
     1
102
RTVSPropertyOp51
 70
     0
102
RTVSPropertyOp52
 70
     0
102
RTVSPropertyOp53
 70
     1
102
RTVSPropertyOp54
 70
     1
102
RTVSPropertyOp55
 70
     1
102
RTVSPropertyOp56
 70
     1
102
RTVSPropertyOp57
 70
     1
102
RTVSPropertyOp58
 70
     1
102
RTVSPropertyOp59
 70
     1
102
RTVSPropertyOp60
 70
     1
102
RTVSPropertyOp61
 70
     1
102
RTVSPropertyOp62
 70
     1
  0
XRECORD
  5
89B8
102
{ACAD_REACTORS
330
89B7
102
}
330
89B7
100
AcDbXrecord
280
     1
102
RTVSPost2010Prop28
280
     0
102
RTVSPost2010PropOp28
 70
     1
102
RTVSPost2010Prop29
280
     1
102
RTVSPost2010PropOp29
 70
     1
102
RTVSPost2010Prop30
280
     1
102
RTVSPost2010PropOp30
 70
     1
102
RTVSPost2010Prop31
280
     0
102
RTVSPost2010PropOp31
 70
     1
102
RTVSPost2010Prop32
280
     0
102
RTVSPost2010PropOp32
 70
     1
102
RTVSPost2010Prop33
280
     0
102
RTVSPost2010PropOp33
 70
     1
102
RTVSPost2010Prop34
280
     0
102
RTVSPost2010PropOp34
 70
     1
102
RTVSPost2010Prop35
280
     0
102
RTVSPost2010PropOp35
 70
     1
102
RTVSPost2010Prop36
280
     0
102
RTVSPost2010PropOp36
 70
     1
102
RTVSPost2010Prop37
 90
       50
102
RTVSPost2010PropOp37
 70
     1
102
RTVSPost2010Prop38
140
0.0
102
RTVSPost2010PropOp38
 70
     1
102
RTVSPost2010Prop39
140
1.0
102
RTVSPost2010PropOp39
 70
     1
102
RTVSPost2010Prop40
 90
        0
102
RTVSPost2010PropOp40
 70
     1
102
RTVSPost2010Prop41ColorIndex
 90
       18
102
RTVSPost2010Prop41ColorRGB
 90
        0
102
RTVSPost2010PropOp41
 70
     1
102
RTVSPost2010Prop42
 90
       50
102
RTVSPost2010PropOp42
 70
     1
102
RTVSPost2010Prop43
 90
        3
102
RTVSPost2010PropOp43
 70
     1
102
RTVSPost2010Prop44ColorIndex
 90
        5
102
RTVSPost2010Prop44ColorRGB
 90
      255
102
RTVSPost2010PropOp44
 70
     1
102
RTVSPost2010Prop45
280
     0
102
RTVSPost2010PropOp45
 70
     1
102
RTVSPost2010Prop46
 90
       50
102
RTVSPost2010PropOp46
 70
     1
102
RTVSPost2010Prop47
 90
       50
102
RTVSPost2010PropOp47
 70
     1
102
RTVSPost2010Prop48
 90
       50
102
RTVSPost2010PropOp48
 70
     1
102
RTVSPost2010Prop49
280
     0
102
RTVSPost2010PropOp49
 70
     1
102
RTVSPost2010Prop50
 90
       50
102
RTVSPost2010PropOp50
 70
     1
102
RTVSPost2010Prop51ColorIndex
 90
      256
102
RTVSPost2010Prop51ColorRGB
 90
-16777216
102
RTVSPost2010PropOp51
 70
     0
102
RTVSPost2010Prop52
140
1.0
102
RTVSPost2010PropOp52
 70
     0
102
RTVSPost2010Prop53
 90
        2
102
RTVSPost2010PropOp53
 70
     1
102
RTVSPost2010Prop54
  1
strokes_ogs.tif
102
RTVSPost2010PropOp54
 70
     1
102
RTVSPost2010Prop55
280
     0
102
RTVSPost2010PropOp55
 70
     1
102
RTVSPost2010Prop56
140
1.0
102
RTVSPost2010PropOp56
 70
     1
102
RTVSPost2010Prop57
140
1.0
102
RTVSPost2010PropOp57
 70
     1
102
RTVSPropertyOp0
 70
     1
102
RTVSPropertyOp1
 70
     1
102
RTVSPropertyOp2
 70
     1
102
RTVSPropertyOp3
 70
     1
102
RTVSPropertyOp4
 70
     1
102
RTVSPropertyOp5
 70
     1
102
RTVSPropertyOp6
 70
     1
102
RTVSPropertyOp7
 70
     1
102
RTVSPropertyOp8
 70
     1
102
RTVSPropertyOp9
 70
     1
102
RTVSPropertyOp10
 70
     1
102
RTVSPropertyOp11
 70
     1
102
RTVSPropertyOp12
 70
     1
102
RTVSPropertyOp13
 70
     1
102
RTVSPropertyOp14
 70
     1
102
RTVSPropertyOp15
 70
     1
102
RTVSPropertyOp16
 70
     1
102
RTVSPropertyOp17
 70
     1
102
RTVSPropertyOp18
 70
     1
102
RTVSPropertyOp19
 70
     1
102
RTVSPropertyOp20
 70
     1
102
RTVSPropertyOp21
 70
     1
102
RTVSPropertyOp22
 70
     1
102
RTVSPropertyOp23
 70
     1
102
RTVSPropertyOp24
 70
     1
102
RTVSPropertyOp25
 70
     1
102
RTVSPropertyOp26
 70
     1
102
RTVSPropertyOp27
 70
     1
102
RTVSPropertyOp28
 70
     1
102
RTVSPropertyOp29
 70
     1
102
RTVSPropertyOp30
 70
     1
102
RTVSPropertyOp31
 70
     1
102
RTVSPropertyOp32
 70
     1
102
RTVSPropertyOp33
 70
     1
102
RTVSPropertyOp34
 70
     1
102
RTVSPropertyOp35
 70
     1
102
RTVSPropertyOp36
 70
     1
102
RTVSPropertyOp37
 70
     1
102
RTVSPropertyOp38
 70
     1
102
RTVSPropertyOp39
 70
     1
102
RTVSPropertyOp40
 70
     1
102
RTVSPropertyOp41
 70
     1
102
RTVSPropertyOp42
 70
     1
102
RTVSPropertyOp43
 70
     1
102
RTVSPropertyOp44
 70
     1
102
RTVSPropertyOp45
 70
     1
102
RTVSPropertyOp46
 70
     1
102
RTVSPropertyOp47
 70
     1
102
RTVSPropertyOp48
 70
     1
102
RTVSPropertyOp49
 70
     1
102
RTVSPropertyOp50
 70
     1
102
RTVSPropertyOp51
 70
     0
102
RTVSPropertyOp52
 70
     0
102
RTVSPropertyOp53
 70
     1
102
RTVSPropertyOp54
 70
     1
102
RTVSPropertyOp55
 70
     1
102
RTVSPropertyOp56
 70
     1
102
RTVSPropertyOp57
 70
     1
102
RTVSPropertyOp58
 70
     1
102
RTVSPropertyOp59
 70
     1
102
RTVSPropertyOp60
 70
     1
102
RTVSPropertyOp61
 70
     1
102
RTVSPropertyOp62
 70
     1
  0
XRECORD
  5
89C6
102
{ACAD_REACTORS
330
89C5
102
}
330
89C5
100
AcDbXrecord
280
     1
102
RTVSPost2010Prop28
280
     0
102
RTVSPost2010PropOp28
 70
     1
102
RTVSPost2010Prop29
280
     1
102
RTVSPost2010PropOp29
 70
     1
102
RTVSPost2010Prop30
280
     1
102
RTVSPost2010PropOp30
 70
     1
102
RTVSPost2010Prop31
280
     0
102
RTVSPost2010PropOp31
 70
     1
102
RTVSPost2010Prop32
280
     0
102
RTVSPost2010PropOp32
 70
     1
102
RTVSPost2010Prop33
280
     0
102
RTVSPost2010PropOp33
 70
     1
102
RTVSPost2010Prop34
280
     0
102
RTVSPost2010PropOp34
 70
     1
102
RTVSPost2010Prop35
280
     0
102
RTVSPost2010PropOp35
 70
     1
102
RTVSPost2010Prop36
280
     0
102
RTVSPost2010PropOp36
 70
     1
102
RTVSPost2010Prop37
 90
       50
102
RTVSPost2010PropOp37
 70
     1
102
RTVSPost2010Prop38
140
0.0
102
RTVSPost2010PropOp38
 70
     1
102
RTVSPost2010Prop39
140
1.0
102
RTVSPost2010PropOp39
 70
     1
102
RTVSPost2010Prop40
 90
        0
102
RTVSPost2010PropOp40
 70
     1
102
RTVSPost2010Prop41ColorIndex
 90
       18
102
RTVSPost2010Prop41ColorRGB
 90
        0
102
RTVSPost2010PropOp41
 70
     1
102
RTVSPost2010Prop42
 90
       50
102
RTVSPost2010PropOp42
 70
     1
102
RTVSPost2010Prop43
 90
        3
102
RTVSPost2010PropOp43
 70
     1
102
RTVSPost2010Prop44ColorIndex
 90
        5
102
RTVSPost2010Prop44ColorRGB
 90
      255
102
RTVSPost2010PropOp44
 70
     1
102
RTVSPost2010Prop45
280
     0
102
RTVSPost2010PropOp45
 70
     1
102
RTVSPost2010Prop46
 90
       50
102
RTVSPost2010PropOp46
 70
     1
102
RTVSPost2010Prop47
 90
       50
102
RTVSPost2010PropOp47
 70
     1
102
RTVSPost2010Prop48
 90
       50
102
RTVSPost2010PropOp48
 70
     1
102
RTVSPost2010Prop49
280
     0
102
RTVSPost2010PropOp49
 70
     1
102
RTVSPost2010Prop50
 90
       50
102
RTVSPost2010PropOp50
 70
     1
102
RTVSPost2010Prop51ColorIndex
 90
      256
102
RTVSPost2010Prop51ColorRGB
 90
-16777216
102
RTVSPost2010PropOp51
 70
     0
102
RTVSPost2010Prop52
140
1.0
102
RTVSPost2010PropOp52
 70
     0
102
RTVSPost2010Prop53
 90
        2
102
RTVSPost2010PropOp53
 70
     1
102
RTVSPost2010Prop54
  1
strokes_ogs.tif
102
RTVSPost2010PropOp54
 70
     1
102
RTVSPost2010Prop55
280
     0
102
RTVSPost2010PropOp55
 70
     1
102
RTVSPost2010Prop56
140
1.0
102
RTVSPost2010PropOp56
 70
     1
102
RTVSPost2010Prop57
140
1.0
102
RTVSPost2010PropOp57
 70
     1
102
RTVSPropertyOp0
 70
     1
102
RTVSPropertyOp1
 70
     1
102
RTVSPropertyOp2
 70
     1
102
RTVSPropertyOp3
 70
     1
102
RTVSPropertyOp4
 70
     1
102
RTVSPropertyOp5
 70
     1
102
RTVSPropertyOp6
 70
     1
102
RTVSPropertyOp7
 70
     1
102
RTVSPropertyOp8
 70
     1
102
RTVSPropertyOp9
 70
     1
102
RTVSPropertyOp10
 70
     1
102
RTVSPropertyOp11
 70
     1
102
RTVSPropertyOp12
 70
     1
102
RTVSPropertyOp13
 70
     1
102
RTVSPropertyOp14
 70
     1
102
RTVSPropertyOp15
 70
     1
102
RTVSPropertyOp16
 70
     1
102
RTVSPropertyOp17
 70
     1
102
RTVSPropertyOp18
 70
     1
102
RTVSPropertyOp19
 70
     1
102
RTVSPropertyOp20
 70
     1
102
RTVSPropertyOp21
 70
     1
102
RTVSPropertyOp22
 70
     1
102
RTVSPropertyOp23
 70
     1
102
RTVSPropertyOp24
 70
     1
102
RTVSPropertyOp25
 70
     1
102
RTVSPropertyOp26
 70
     1
102
RTVSPropertyOp27
 70
     1
102
RTVSPropertyOp28
 70
     1
102
RTVSPropertyOp29
 70
     1
102
RTVSPropertyOp30
 70
     1
102
RTVSPropertyOp31
 70
     1
102
RTVSPropertyOp32
 70
     1
102
RTVSPropertyOp33
 70
     1
102
RTVSPropertyOp34
 70
     1
102
RTVSPropertyOp35
 70
     1
102
RTVSPropertyOp36
 70
     1
102
RTVSPropertyOp37
 70
     1
102
RTVSPropertyOp38
 70
     1
102
RTVSPropertyOp39
 70
     1
102
RTVSPropertyOp40
 70
     1
102
RTVSPropertyOp41
 70
     1
102
RTVSPropertyOp42
 70
     1
102
RTVSPropertyOp43
 70
     1
102
RTVSPropertyOp44
 70
     1
102
RTVSPropertyOp45
 70
     1
102
RTVSPropertyOp46
 70
     1
102
RTVSPropertyOp47
 70
     1
102
RTVSPropertyOp48
 70
     1
102
RTVSPropertyOp49
 70
     1
102
RTVSPropertyOp50
 70
     1
102
RTVSPropertyOp51
 70
     0
102
RTVSPropertyOp52
 70
     0
102
RTVSPropertyOp53
 70
     1
102
RTVSPropertyOp54
 70
     1
102
RTVSPropertyOp55
 70
     1
102
RTVSPropertyOp56
 70
     1
102
RTVSPropertyOp57
 70
     1
102
RTVSPropertyOp58
 70
     1
102
RTVSPropertyOp59
 70
     1
102
RTVSPropertyOp60
 70
     1
102
RTVSPropertyOp61
 70
     1
102
RTVSPropertyOp62
 70
     1
  0
XRECORD
  5
89CE
102
{ACAD_REACTORS
330
89CD
102
}
330
89CD
100
AcDbXrecord
280
     1
102
RTVSPost2010Prop28
280
     0
102
RTVSPost2010PropOp28
 70
     1
102
RTVSPost2010Prop29
280
     1
102
RTVSPost2010PropOp29
 70
     1
102
RTVSPost2010Prop30
280
     1
102
RTVSPost2010PropOp30
 70
     1
102
RTVSPost2010Prop31
280
     0
102
RTVSPost2010PropOp31
 70
     1
102
RTVSPost2010Prop32
280
     0
102
RTVSPost2010PropOp32
 70
     1
102
RTVSPost2010Prop33
280
     0
102
RTVSPost2010PropOp33
 70
     1
102
RTVSPost2010Prop34
280
     0
102
RTVSPost2010PropOp34
 70
     1
102
RTVSPost2010Prop35
280
     0
102
RTVSPost2010PropOp35
 70
     1
102
RTVSPost2010Prop36
280
     0
102
RTVSPost2010PropOp36
 70
     1
102
RTVSPost2010Prop37
 90
       50
102
RTVSPost2010PropOp37
 70
     1
102
RTVSPost2010Prop38
140
0.0
102
RTVSPost2010PropOp38
 70
     1
102
RTVSPost2010Prop39
140
1.0
102
RTVSPost2010PropOp39
 70
     1
102
RTVSPost2010Prop40
 90
        0
102
RTVSPost2010PropOp40
 70
     1
102
RTVSPost2010Prop41ColorIndex
 90
       18
102
RTVSPost2010Prop41ColorRGB
 90
        0
102
RTVSPost2010PropOp41
 70
     1
102
RTVSPost2010Prop42
 90
       50
102
RTVSPost2010PropOp42
 70
     1
102
RTVSPost2010Prop43
 90
        3
102
RTVSPost2010PropOp43
 70
     1
102
RTVSPost2010Prop44ColorIndex
 90
        5
102
RTVSPost2010Prop44ColorRGB
 90
      255
102
RTVSPost2010PropOp44
 70
     1
102
RTVSPost2010Prop45
280
     0
102
RTVSPost2010PropOp45
 70
     1
102
RTVSPost2010Prop46
 90
       50
102
RTVSPost2010PropOp46
 70
     1
102
RTVSPost2010Prop47
 90
       50
102
RTVSPost2010PropOp47
 70
     1
102
RTVSPost2010Prop48
 90
       50
102
RTVSPost2010PropOp48
 70
     1
102
RTVSPost2010Prop49
280
     0
102
RTVSPost2010PropOp49
 70
     1
102
RTVSPost2010Prop50
 90
       50
102
RTVSPost2010PropOp50
 70
     1
102
RTVSPost2010Prop51ColorIndex
 90
      256
102
RTVSPost2010Prop51ColorRGB
 90
-16777216
102
RTVSPost2010PropOp51
 70
     0
102
RTVSPost2010Prop52
140
1.0
102
RTVSPost2010PropOp52
 70
     0
102
RTVSPost2010Prop53
 90
        2
102
RTVSPost2010PropOp53
 70
     1
102
RTVSPost2010Prop54
  1
strokes_ogs.tif
102
RTVSPost2010PropOp54
 70
     1
102
RTVSPost2010Prop55
280
     0
102
RTVSPost2010PropOp55
 70
     1
102
RTVSPost2010Prop56
140
1.0
102
RTVSPost2010PropOp56
 70
     1
102
RTVSPost2010Prop57
140
1.0
102
RTVSPost2010PropOp57
 70
     1
102
RTVSPropertyOp0
 70
     1
102
RTVSPropertyOp1
 70
     1
102
RTVSPropertyOp2
 70
     1
102
RTVSPropertyOp3
 70
     1
102
RTVSPropertyOp4
 70
     1
102
RTVSPropertyOp5
 70
     1
102
RTVSPropertyOp6
 70
     1
102
RTVSPropertyOp7
 70
     1
102
RTVSPropertyOp8
 70
     1
102
RTVSPropertyOp9
 70
     1
102
RTVSPropertyOp10
 70
     1
102
RTVSPropertyOp11
 70
     1
102
RTVSPropertyOp12
 70
     1
102
RTVSPropertyOp13
 70
     1
102
RTVSPropertyOp14
 70
     1
102
RTVSPropertyOp15
 70
     1
102
RTVSPropertyOp16
 70
     1
102
RTVSPropertyOp17
 70
     1
102
RTVSPropertyOp18
 70
     1
102
RTVSPropertyOp19
 70
     1
102
RTVSPropertyOp20
 70
     1
102
RTVSPropertyOp21
 70
     1
102
RTVSPropertyOp22
 70
     1
102
RTVSPropertyOp23
 70
     1
102
RTVSPropertyOp24
 70
     1
102
RTVSPropertyOp25
 70
     1
102
RTVSPropertyOp26
 70
     1
102
RTVSPropertyOp27
 70
     1
102
RTVSPropertyOp28
 70
     1
102
RTVSPropertyOp29
 70
     1
102
RTVSPropertyOp30
 70
     1
102
RTVSPropertyOp31
 70
     1
102
RTVSPropertyOp32
 70
     1
102
RTVSPropertyOp33
 70
     1
102
RTVSPropertyOp34
 70
     1
102
RTVSPropertyOp35
 70
     1
102
RTVSPropertyOp36
 70
     1
102
RTVSPropertyOp37
 70
     1
102
RTVSPropertyOp38
 70
     1
102
RTVSPropertyOp39
 70
     1
102
RTVSPropertyOp40
 70
     1
102
RTVSPropertyOp41
 70
     1
102
RTVSPropertyOp42
 70
     1
102
RTVSPropertyOp43
 70
     1
102
RTVSPropertyOp44
 70
     1
102
RTVSPropertyOp45
 70
     1
102
RTVSPropertyOp46
 70
     1
102
RTVSPropertyOp47
 70
     1
102
RTVSPropertyOp48
 70
     1
102
RTVSPropertyOp49
 70
     1
102
RTVSPropertyOp50
 70
     1
102
RTVSPropertyOp51
 70
     0
102
RTVSPropertyOp52
 70
     0
102
RTVSPropertyOp53
 70
     1
102
RTVSPropertyOp54
 70
     1
102
RTVSPropertyOp55
 70
     1
102
RTVSPropertyOp56
 70
     1
102
RTVSPropertyOp57
 70
     1
102
RTVSPropertyOp58
 70
     1
102
RTVSPropertyOp59
 70
     1
102
RTVSPropertyOp60
 70
     1
102
RTVSPropertyOp61
 70
     1
102
RTVSPropertyOp62
 70
     1
  0
XRECORD
  5
89C0
102
{ACAD_REACTORS
330
89BF
102
}
330
89BF
100
AcDbXrecord
280
     1
102
RTVSPost2010Prop28
280
     0
102
RTVSPost2010PropOp28
 70
     1
102
RTVSPost2010Prop29
280
     1
102
RTVSPost2010PropOp29
 70
     1
102
RTVSPost2010Prop30
280
     1
102
RTVSPost2010PropOp30
 70
     1
102
RTVSPost2010Prop31
280
     0
102
RTVSPost2010PropOp31
 70
     1
102
RTVSPost2010Prop32
280
     0
102
RTVSPost2010PropOp32
 70
     1
102
RTVSPost2010Prop33
280
     0
102
RTVSPost2010PropOp33
 70
     1
102
RTVSPost2010Prop34
280
     0
102
RTVSPost2010PropOp34
 70
     1
102
RTVSPost2010Prop35
280
     0
102
RTVSPost2010PropOp35
 70
     1
102
RTVSPost2010Prop36
280
     0
102
RTVSPost2010PropOp36
 70
     1
102
RTVSPost2010Prop37
 90
       50
102
RTVSPost2010PropOp37
 70
     1
102
RTVSPost2010Prop38
140
0.0
102
RTVSPost2010PropOp38
 70
     1
102
RTVSPost2010Prop39
140
1.0
102
RTVSPost2010PropOp39
 70
     1
102
RTVSPost2010Prop40
 90
        0
102
RTVSPost2010PropOp40
 70
     1
102
RTVSPost2010Prop41ColorIndex
 90
       18
102
RTVSPost2010Prop41ColorRGB
 90
        0
102
RTVSPost2010PropOp41
 70
     1
102
RTVSPost2010Prop42
 90
       50
102
RTVSPost2010PropOp42
 70
     1
102
RTVSPost2010Prop43
 90
        3
102
RTVSPost2010PropOp43
 70
     1
102
RTVSPost2010Prop44ColorIndex
 90
        5
102
RTVSPost2010Prop44ColorRGB
 90
      255
102
RTVSPost2010PropOp44
 70
     1
102
RTVSPost2010Prop45
280
     0
102
RTVSPost2010PropOp45
 70
     1
102
RTVSPost2010Prop46
 90
       50
102
RTVSPost2010PropOp46
 70
     1
102
RTVSPost2010Prop47
 90
       50
102
RTVSPost2010PropOp47
 70
     1
102
RTVSPost2010Prop48
 90
       50
102
RTVSPost2010PropOp48
 70
     1
102
RTVSPost2010Prop49
280
     0
102
RTVSPost2010PropOp49
 70
     1
102
RTVSPost2010Prop50
 90
       50
102
RTVSPost2010PropOp50
 70
     1
102
RTVSPost2010Prop51ColorIndex
 90
      256
102
RTVSPost2010Prop51ColorRGB
 90
-16777216
102
RTVSPost2010PropOp51
 70
     0
102
RTVSPost2010Prop52
140
1.0
102
RTVSPost2010PropOp52
 70
     0
102
RTVSPost2010Prop53
 90
        2
102
RTVSPost2010PropOp53
 70
     1
102
RTVSPost2010Prop54
  1
strokes_ogs.tif
102
RTVSPost2010PropOp54
 70
     1
102
RTVSPost2010Prop55
280
     0
102
RTVSPost2010PropOp55
 70
     1
102
RTVSPost2010Prop56
140
1.0
102
RTVSPost2010PropOp56
 70
     1
102
RTVSPost2010Prop57
140
1.0
102
RTVSPost2010PropOp57
 70
     1
102
RTVSPropertyOp0
 70
     1
102
RTVSPropertyOp1
 70
     1
102
RTVSPropertyOp2
 70
     1
102
RTVSPropertyOp3
 70
     1
102
RTVSPropertyOp4
 70
     1
102
RTVSPropertyOp5
 70
     1
102
RTVSPropertyOp6
 70
     1
102
RTVSPropertyOp7
 70
     1
102
RTVSPropertyOp8
 70
     1
102
RTVSPropertyOp9
 70
     1
102
RTVSPropertyOp10
 70
     1
102
RTVSPropertyOp11
 70
     1
102
RTVSPropertyOp12
 70
     1
102
RTVSPropertyOp13
 70
     1
102
RTVSPropertyOp14
 70
     1
102
RTVSPropertyOp15
 70
     1
102
RTVSPropertyOp16
 70
     1
102
RTVSPropertyOp17
 70
     1
102
RTVSPropertyOp18
 70
     1
102
RTVSPropertyOp19
 70
     1
102
RTVSPropertyOp20
 70
     1
102
RTVSPropertyOp21
 70
     1
102
RTVSPropertyOp22
 70
     1
102
RTVSPropertyOp23
 70
     1
102
RTVSPropertyOp24
 70
     1
102
RTVSPropertyOp25
 70
     1
102
RTVSPropertyOp26
 70
     1
102
RTVSPropertyOp27
 70
     1
102
RTVSPropertyOp28
 70
     1
102
RTVSPropertyOp29
 70
     1
102
RTVSPropertyOp30
 70
     1
102
RTVSPropertyOp31
 70
     1
102
RTVSPropertyOp32
 70
     1
102
RTVSPropertyOp33
 70
     1
102
RTVSPropertyOp34
 70
     1
102
RTVSPropertyOp35
 70
     1
102
RTVSPropertyOp36
 70
     1
102
RTVSPropertyOp37
 70
     1
102
RTVSPropertyOp38
 70
     1
102
RTVSPropertyOp39
 70
     1
102
RTVSPropertyOp40
 70
     1
102
RTVSPropertyOp41
 70
     1
102
RTVSPropertyOp42
 70
     1
102
RTVSPropertyOp43
 70
     1
102
RTVSPropertyOp44
 70
     1
102
RTVSPropertyOp45
 70
     1
102
RTVSPropertyOp46
 70
     1
102
RTVSPropertyOp47
 70
     1
102
RTVSPropertyOp48
 70
     1
102
RTVSPropertyOp49
 70
     1
102
RTVSPropertyOp50
 70
     1
102
RTVSPropertyOp51
 70
     0
102
RTVSPropertyOp52
 70
     0
102
RTVSPropertyOp53
 70
     1
102
RTVSPropertyOp54
 70
     1
102
RTVSPropertyOp55
 70
     1
102
RTVSPropertyOp56
 70
     1
102
RTVSPropertyOp57
 70
     1
102
RTVSPropertyOp58
 70
     1
102
RTVSPropertyOp59
 70
     1
102
RTVSPropertyOp60
 70
     1
102
RTVSPropertyOp61
 70
     1
102
RTVSPropertyOp62
 70
     1
  0
XRECORD
  5
89C4
102
{ACAD_REACTORS
330
89C3
102
}
330
89C3
100
AcDbXrecord
280
     1
102
RTVSPost2010Prop28
280
     0
102
RTVSPost2010PropOp28
 70
     1
102
RTVSPost2010Prop29
280
     1
102
RTVSPost2010PropOp29
 70
     1
102
RTVSPost2010Prop30
280
     1
102
RTVSPost2010PropOp30
 70
     1
102
RTVSPost2010Prop31
280
     0
102
RTVSPost2010PropOp31
 70
     1
102
RTVSPost2010Prop32
280
     0
102
RTVSPost2010PropOp32
 70
     1
102
RTVSPost2010Prop33
280
     0
102
RTVSPost2010PropOp33
 70
     1
102
RTVSPost2010Prop34
280
     0
102
RTVSPost2010PropOp34
 70
     1
102
RTVSPost2010Prop35
280
     0
102
RTVSPost2010PropOp35
 70
     1
102
RTVSPost2010Prop36
280
     0
102
RTVSPost2010PropOp36
 70
     1
102
RTVSPost2010Prop37
 90
       50
102
RTVSPost2010PropOp37
 70
     1
102
RTVSPost2010Prop38
140
0.0
102
RTVSPost2010PropOp38
 70
     1
102
RTVSPost2010Prop39
140
1.0
102
RTVSPost2010PropOp39
 70
     1
102
RTVSPost2010Prop40
 90
        0
102
RTVSPost2010PropOp40
 70
     1
102
RTVSPost2010Prop41ColorIndex
 90
       18
102
RTVSPost2010Prop41ColorRGB
 90
        0
102
RTVSPost2010PropOp41
 70
     1
102
RTVSPost2010Prop42
 90
       50
102
RTVSPost2010PropOp42
 70
     1
102
RTVSPost2010Prop43
 90
        3
102
RTVSPost2010PropOp43
 70
     1
102
RTVSPost2010Prop44ColorIndex
 90
        5
102
RTVSPost2010Prop44ColorRGB
 90
      255
102
RTVSPost2010PropOp44
 70
     1
102
RTVSPost2010Prop45
280
     0
102
RTVSPost2010PropOp45
 70
     1
102
RTVSPost2010Prop46
 90
       50
102
RTVSPost2010PropOp46
 70
     1
102
RTVSPost2010Prop47
 90
       50
102
RTVSPost2010PropOp47
 70
     1
102
RTVSPost2010Prop48
 90
       50
102
RTVSPost2010PropOp48
 70
     1
102
RTVSPost2010Prop49
280
     0
102
RTVSPost2010PropOp49
 70
     1
102
RTVSPost2010Prop50
 90
       50
102
RTVSPost2010PropOp50
 70
     1
102
RTVSPost2010Prop51ColorIndex
 90
      256
102
RTVSPost2010Prop51ColorRGB
 90
-16777216
102
RTVSPost2010PropOp51
 70
     0
102
RTVSPost2010Prop52
140
1.0
102
RTVSPost2010PropOp52
 70
     0
102
RTVSPost2010Prop53
 90
        2
102
RTVSPost2010PropOp53
 70
     1
102
RTVSPost2010Prop54
  1
strokes_ogs.tif
102
RTVSPost2010PropOp54
 70
     1
102
RTVSPost2010Prop55
280
     0
102
RTVSPost2010PropOp55
 70
     1
102
RTVSPost2010Prop56
140
1.0
102
RTVSPost2010PropOp56
 70
     1
102
RTVSPost2010Prop57
140
1.0
102
RTVSPost2010PropOp57
 70
     1
102
RTVSPropertyOp0
 70
     1
102
RTVSPropertyOp1
 70
     1
102
RTVSPropertyOp2
 70
     1
102
RTVSPropertyOp3
 70
     1
102
RTVSPropertyOp4
 70
     1
102
RTVSPropertyOp5
 70
     1
102
RTVSPropertyOp6
 70
     1
102
RTVSPropertyOp7
 70
     1
102
RTVSPropertyOp8
 70
     1
102
RTVSPropertyOp9
 70
     1
102
RTVSPropertyOp10
 70
     1
102
RTVSPropertyOp11
 70
     1
102
RTVSPropertyOp12
 70
     1
102
RTVSPropertyOp13
 70
     1
102
RTVSPropertyOp14
 70
     1
102
RTVSPropertyOp15
 70
     1
102
RTVSPropertyOp16
 70
     1
102
RTVSPropertyOp17
 70
     1
102
RTVSPropertyOp18
 70
     1
102
RTVSPropertyOp19
 70
     1
102
RTVSPropertyOp20
 70
     1
102
RTVSPropertyOp21
 70
     1
102
RTVSPropertyOp22
 70
     1
102
RTVSPropertyOp23
 70
     1
102
RTVSPropertyOp24
 70
     1
102
RTVSPropertyOp25
 70
     1
102
RTVSPropertyOp26
 70
     1
102
RTVSPropertyOp27
 70
     1
102
RTVSPropertyOp28
 70
     1
102
RTVSPropertyOp29
 70
     1
102
RTVSPropertyOp30
 70
     1
102
RTVSPropertyOp31
 70
     1
102
RTVSPropertyOp32
 70
     1
102
RTVSPropertyOp33
 70
     1
102
RTVSPropertyOp34
 70
     1
102
RTVSPropertyOp35
 70
     1
102
RTVSPropertyOp36
 70
     1
102
RTVSPropertyOp37
 70
     1
102
RTVSPropertyOp38
 70
     1
102
RTVSPropertyOp39
 70
     1
102
RTVSPropertyOp40
 70
     1
102
RTVSPropertyOp41
 70
     1
102
RTVSPropertyOp42
 70
     1
102
RTVSPropertyOp43
 70
     1
102
RTVSPropertyOp44
 70
     1
102
RTVSPropertyOp45
 70
     1
102
RTVSPropertyOp46
 70
     1
102
RTVSPropertyOp47
 70
     1
102
RTVSPropertyOp48
 70
     1
102
RTVSPropertyOp49
 70
     1
102
RTVSPropertyOp50
 70
     1
102
RTVSPropertyOp51
 70
     0
102
RTVSPropertyOp52
 70
     0
102
RTVSPropertyOp53
 70
     1
102
RTVSPropertyOp54
 70
     1
102
RTVSPropertyOp55
 70
     1
102
RTVSPropertyOp56
 70
     1
102
RTVSPropertyOp57
 70
     1
102
RTVSPropertyOp58
 70
     1
102
RTVSPropertyOp59
 70
     1
102
RTVSPropertyOp60
 70
     1
102
RTVSPropertyOp61
 70
     1
102
RTVSPropertyOp62
 70
     1
  0
XRECORD
  5
89DE
102
{ACAD_REACTORS
330
89DD
102
}
330
89DD
100
AcDbXrecord
280
     1
102
RTVSPost2010Prop28
280
     0
102
RTVSPost2010PropOp28
 70
     1
102
RTVSPost2010Prop29
280
     1
102
RTVSPost2010PropOp29
 70
     1
102
RTVSPost2010Prop30
280
     1
102
RTVSPost2010PropOp30
 70
     1
102
RTVSPost2010Prop31
280
     0
102
RTVSPost2010PropOp31
 70
     1
102
RTVSPost2010Prop32
280
     0
102
RTVSPost2010PropOp32
 70
     1
102
RTVSPost2010Prop33
280
     0
102
RTVSPost2010PropOp33
 70
     1
102
RTVSPost2010Prop34
280
     0
102
RTVSPost2010PropOp34
 70
     1
102
RTVSPost2010Prop35
280
     0
102
RTVSPost2010PropOp35
 70
     1
102
RTVSPost2010Prop36
280
     0
102
RTVSPost2010PropOp36
 70
     1
102
RTVSPost2010Prop37
 90
       50
102
RTVSPost2010PropOp37
 70
     0
102
RTVSPost2010Prop38
140
0.0
102
RTVSPost2010PropOp38
 70
     0
102
RTVSPost2010Prop39
140
1.0
102
RTVSPost2010PropOp39
 70
     0
102
RTVSPost2010Prop40
 90
        0
102
RTVSPost2010PropOp40
 70
     0
102
RTVSPost2010Prop41ColorIndex
 90
       18
102
RTVSPost2010Prop41ColorRGB
 90
        0
102
RTVSPost2010PropOp41
 70
     0
102
RTVSPost2010Prop42
 90
       50
102
RTVSPost2010PropOp42
 70
     0
102
RTVSPost2010Prop43
 90
        3
102
RTVSPost2010PropOp43
 70
     0
102
RTVSPost2010Prop44ColorIndex
 90
        5
102
RTVSPost2010Prop44ColorRGB
 90
      255
102
RTVSPost2010PropOp44
 70
     0
102
RTVSPost2010Prop45
280
     0
102
RTVSPost2010PropOp45
 70
     1
102
RTVSPost2010Prop46
 90
       50
102
RTVSPost2010PropOp46
 70
     0
102
RTVSPost2010Prop47
 90
       50
102
RTVSPost2010PropOp47
 70
     0
102
RTVSPost2010Prop48
 90
       50
102
RTVSPost2010PropOp48
 70
     0
102
RTVSPost2010Prop49
280
     0
102
RTVSPost2010PropOp49
 70
     1
102
RTVSPost2010Prop50
 90
       50
102
RTVSPost2010PropOp50
 70
     0
102
RTVSPost2010Prop51ColorIndex
 90
      256
102
RTVSPost2010Prop51ColorRGB
 90
-16777216
102
RTVSPost2010PropOp51
 70
     0
102
RTVSPost2010Prop52
140
1.0
102
RTVSPost2010PropOp52
 70
     0
102
RTVSPost2010Prop53
 90
        2
102
RTVSPost2010PropOp53
 70
     0
102
RTVSPost2010Prop54
  1
strokes_ogs.tif
102
RTVSPost2010PropOp54
 70
     0
102
RTVSPost2010Prop55
280
     0
102
RTVSPost2010PropOp55
 70
     1
102
RTVSPost2010Prop56
140
1.0
102
RTVSPost2010PropOp56
 70
     0
102
RTVSPost2010Prop57
140
1.0
102
RTVSPost2010PropOp57
 70
     0
102
RTVSPropertyOp0
 70
     0
102
RTVSPropertyOp1
 70
     0
102
RTVSPropertyOp2
 70
     0
102
RTVSPropertyOp3
 70
     0
102
RTVSPropertyOp4
 70
     0
102
RTVSPropertyOp5
 70
     0
102
RTVSPropertyOp6
 70
     0
102
RTVSPropertyOp7
 70
     0
102
RTVSPropertyOp8
 70
     0
102
RTVSPropertyOp9
 70
     0
102
RTVSPropertyOp10
 70
     0
102
RTVSPropertyOp11
 70
     0
102
RTVSPropertyOp12
 70
     0
102
RTVSPropertyOp13
 70
     0
102
RTVSPropertyOp14
 70
     2
102
RTVSPropertyOp15
 70
     0
102
RTVSPropertyOp16
 70
     0
102
RTVSPropertyOp17
 70
     0
102
RTVSPropertyOp18
 70
     0
102
RTVSPropertyOp19
 70
     0
102
RTVSPropertyOp20
 70
     0
102
RTVSPropertyOp21
 70
     0
102
RTVSPropertyOp22
 70
     0
102
RTVSPropertyOp23
 70
     0
102
RTVSPropertyOp24
 70
     0
102
RTVSPropertyOp25
 70
     0
102
RTVSPropertyOp26
 70
     0
102
RTVSPropertyOp27
 70
     0
102
RTVSPropertyOp28
 70
     1
102
RTVSPropertyOp29
 70
     1
102
RTVSPropertyOp30
 70
     1
102
RTVSPropertyOp31
 70
     1
102
RTVSPropertyOp32
 70
     1
102
RTVSPropertyOp33
 70
     1
102
RTVSPropertyOp34
 70
     1
102
RTVSPropertyOp35
 70
     1
102
RTVSPropertyOp36
 70
     1
102
RTVSPropertyOp37
 70
     0
102
RTVSPropertyOp38
 70
     0
102
RTVSPropertyOp39
 70
     0
102
RTVSPropertyOp40
 70
     0
102
RTVSPropertyOp41
 70
     0
102
RTVSPropertyOp42
 70
     0
102
RTVSPropertyOp43
 70
     0
102
RTVSPropertyOp44
 70
     0
102
RTVSPropertyOp45
 70
     1
102
RTVSPropertyOp46
 70
     0
102
RTVSPropertyOp47
 70
     0
102
RTVSPropertyOp48
 70
     0
102
RTVSPropertyOp49
 70
     1
102
RTVSPropertyOp50
 70
     0
102
RTVSPropertyOp51
 70
     0
102
RTVSPropertyOp52
 70
     0
102
RTVSPropertyOp53
 70
     0
102
RTVSPropertyOp54
 70
     0
102
RTVSPropertyOp55
 70
     1
102
RTVSPropertyOp56
 70
     0
102
RTVSPropertyOp57
 70
     0
102
RTVSPropertyOp58
 70
     0
102
RTVSPropertyOp59
 70
     0
102
RTVSPropertyOp60
 70
     0
102
RTVSPropertyOp61
 70
     0
102
RTVSPropertyOp62
 70
     0
  0
XRECORD
  5
89CC
102
{ACAD_REACTORS
330
89CB
102
}
330
89CB
100
AcDbXrecord
280
     1
102
RTVSPost2010Prop28
280
     0
102
RTVSPost2010PropOp28
 70
     1
102
RTVSPost2010Prop29
280
     1
102
RTVSPost2010PropOp29
 70
     1
102
RTVSPost2010Prop30
280
     1
102
RTVSPost2010PropOp30
 70
     1
102
RTVSPost2010Prop31
280
     0
102
RTVSPost2010PropOp31
 70
     1
102
RTVSPost2010Prop32
280
     0
102
RTVSPost2010PropOp32
 70
     1
102
RTVSPost2010Prop33
280
     0
102
RTVSPost2010PropOp33
 70
     1
102
RTVSPost2010Prop34
280
     0
102
RTVSPost2010PropOp34
 70
     1
102
RTVSPost2010Prop35
280
     0
102
RTVSPost2010PropOp35
 70
     1
102
RTVSPost2010Prop36
280
     0
102
RTVSPost2010PropOp36
 70
     1
102
RTVSPost2010Prop37
 90
       50
102
RTVSPost2010PropOp37
 70
     1
102
RTVSPost2010Prop38
140
0.0
102
RTVSPost2010PropOp38
 70
     1
102
RTVSPost2010Prop39
140
1.0
102
RTVSPost2010PropOp39
 70
     1
102
RTVSPost2010Prop40
 90
        0
102
RTVSPost2010PropOp40
 70
     1
102
RTVSPost2010Prop41ColorIndex
 90
       18
102
RTVSPost2010Prop41ColorRGB
 90
        0
102
RTVSPost2010PropOp41
 70
     1
102
RTVSPost2010Prop42
 90
       50
102
RTVSPost2010PropOp42
 70
     1
102
RTVSPost2010Prop43
 90
        3
102
RTVSPost2010PropOp43
 70
     1
102
RTVSPost2010Prop44ColorIndex
 90
        5
102
RTVSPost2010Prop44ColorRGB
 90
      255
102
RTVSPost2010PropOp44
 70
     1
102
RTVSPost2010Prop45
280
     0
102
RTVSPost2010PropOp45
 70
     1
102
RTVSPost2010Prop46
 90
       50
102
RTVSPost2010PropOp46
 70
     1
102
RTVSPost2010Prop47
 90
       50
102
RTVSPost2010PropOp47
 70
     1
102
RTVSPost2010Prop48
 90
       50
102
RTVSPost2010PropOp48
 70
     1
102
RTVSPost2010Prop49
280
     0
102
RTVSPost2010PropOp49
 70
     1
102
RTVSPost2010Prop50
 90
       50
102
RTVSPost2010PropOp50
 70
     1
102
RTVSPost2010Prop51ColorIndex
 90
      256
102
RTVSPost2010Prop51ColorRGB
 90
-16777216
102
RTVSPost2010PropOp51
 70
     0
102
RTVSPost2010Prop52
140
1.0
102
RTVSPost2010PropOp52
 70
     0
102
RTVSPost2010Prop53
 90
        2
102
RTVSPost2010PropOp53
 70
     1
102
RTVSPost2010Prop54
  1
strokes_ogs.tif
102
RTVSPost2010PropOp54
 70
     1
102
RTVSPost2010Prop55
280
     0
102
RTVSPost2010PropOp55
 70
     1
102
RTVSPost2010Prop56
140
1.0
102
RTVSPost2010PropOp56
 70
     1
102
RTVSPost2010Prop57
140
1.0
102
RTVSPost2010PropOp57
 70
     1
102
RTVSPropertyOp0
 70
     1
102
RTVSPropertyOp1
 70
     1
102
RTVSPropertyOp2
 70
     1
102
RTVSPropertyOp3
 70
     1
102
RTVSPropertyOp4
 70
     1
102
RTVSPropertyOp5
 70
     1
102
RTVSPropertyOp6
 70
     1
102
RTVSPropertyOp7
 70
     1
102
RTVSPropertyOp8
 70
     1
102
RTVSPropertyOp9
 70
     1
102
RTVSPropertyOp10
 70
     1
102
RTVSPropertyOp11
 70
     1
102
RTVSPropertyOp12
 70
     1
102
RTVSPropertyOp13
 70
     1
102
RTVSPropertyOp14
 70
     1
102
RTVSPropertyOp15
 70
     1
102
RTVSPropertyOp16
 70
     1
102
RTVSPropertyOp17
 70
     1
102
RTVSPropertyOp18
 70
     1
102
RTVSPropertyOp19
 70
     1
102
RTVSPropertyOp20
 70
     1
102
RTVSPropertyOp21
 70
     1
102
RTVSPropertyOp22
 70
     1
102
RTVSPropertyOp23
 70
     1
102
RTVSPropertyOp24
 70
     1
102
RTVSPropertyOp25
 70
     1
102
RTVSPropertyOp26
 70
     1
102
RTVSPropertyOp27
 70
     1
102
RTVSPropertyOp28
 70
     1
102
RTVSPropertyOp29
 70
     1
102
RTVSPropertyOp30
 70
     1
102
RTVSPropertyOp31
 70
     1
102
RTVSPropertyOp32
 70
     1
102
RTVSPropertyOp33
 70
     1
102
RTVSPropertyOp34
 70
     1
102
RTVSPropertyOp35
 70
     1
102
RTVSPropertyOp36
 70
     1
102
RTVSPropertyOp37
 70
     1
102
RTVSPropertyOp38
 70
     1
102
RTVSPropertyOp39
 70
     1
102
RTVSPropertyOp40
 70
     1
102
RTVSPropertyOp41
 70
     1
102
RTVSPropertyOp42
 70
     1
102
RTVSPropertyOp43
 70
     1
102
RTVSPropertyOp44
 70
     1
102
RTVSPropertyOp45
 70
     1
102
RTVSPropertyOp46
 70
     1
102
RTVSPropertyOp47
 70
     1
102
RTVSPropertyOp48
 70
     1
102
RTVSPropertyOp49
 70
     1
102
RTVSPropertyOp50
 70
     1
102
RTVSPropertyOp51
 70
     0
102
RTVSPropertyOp52
 70
     0
102
RTVSPropertyOp53
 70
     1
102
RTVSPropertyOp54
 70
     1
102
RTVSPropertyOp55
 70
     1
102
RTVSPropertyOp56
 70
     1
102
RTVSPropertyOp57
 70
     1
102
RTVSPropertyOp58
 70
     1
102
RTVSPropertyOp59
 70
     1
102
RTVSPropertyOp60
 70
     1
102
RTVSPropertyOp61
 70
     1
102
RTVSPropertyOp62
 70
     1
  0
XRECORD
  5
89B0
102
{ACAD_REACTORS
330
89AF
102
}
330
89AF
100
AcDbXrecord
280
     1
102
RTVSPost2010Prop28
280
     0
102
RTVSPost2010PropOp28
 70
     1
102
RTVSPost2010Prop29
280
     1
102
RTVSPost2010PropOp29
 70
     1
102
RTVSPost2010Prop30
280
     1
102
RTVSPost2010PropOp30
 70
     1
102
RTVSPost2010Prop31
280
     0
102
RTVSPost2010PropOp31
 70
     1
102
RTVSPost2010Prop32
280
     0
102
RTVSPost2010PropOp32
 70
     1
102
RTVSPost2010Prop33
280
     0
102
RTVSPost2010PropOp33
 70
     1
102
RTVSPost2010Prop34
280
     0
102
RTVSPost2010PropOp34
 70
     1
102
RTVSPost2010Prop35
280
     0
102
RTVSPost2010PropOp35
 70
     1
102
RTVSPost2010Prop36
280
     0
102
RTVSPost2010PropOp36
 70
     1
102
RTVSPost2010Prop37
 90
       50
102
RTVSPost2010PropOp37
 70
     1
102
RTVSPost2010Prop38
140
0.0
102
RTVSPost2010PropOp38
 70
     1
102
RTVSPost2010Prop39
140
1.0
102
RTVSPost2010PropOp39
 70
     1
102
RTVSPost2010Prop40
 90
        0
102
RTVSPost2010PropOp40
 70
     1
102
RTVSPost2010Prop41ColorIndex
 90
       18
102
RTVSPost2010Prop41ColorRGB
 90
        0
102
RTVSPost2010PropOp41
 70
     1
102
RTVSPost2010Prop42
 90
       50
102
RTVSPost2010PropOp42
 70
     1
102
RTVSPost2010Prop43
 90
        3
102
RTVSPost2010PropOp43
 70
     1
102
RTVSPost2010Prop44ColorIndex
 90
        5
102
RTVSPost2010Prop44ColorRGB
 90
      255
102
RTVSPost2010PropOp44
 70
     1
102
RTVSPost2010Prop45
280
     0
102
RTVSPost2010PropOp45
 70
     1
102
RTVSPost2010Prop46
 90
       50
102
RTVSPost2010PropOp46
 70
     1
102
RTVSPost2010Prop47
 90
       50
102
RTVSPost2010PropOp47
 70
     1
102
RTVSPost2010Prop48
 90
       50
102
RTVSPost2010PropOp48
 70
     1
102
RTVSPost2010Prop49
280
     0
102
RTVSPost2010PropOp49
 70
     1
102
RTVSPost2010Prop50
 90
       50
102
RTVSPost2010PropOp50
 70
     1
102
RTVSPost2010Prop51ColorIndex
 90
      256
102
RTVSPost2010Prop51ColorRGB
 90
-16777216
102
RTVSPost2010PropOp51
 70
     0
102
RTVSPost2010Prop52
140
1.0
102
RTVSPost2010PropOp52
 70
     0
102
RTVSPost2010Prop53
 90
        2
102
RTVSPost2010PropOp53
 70
     1
102
RTVSPost2010Prop54
  1
strokes_ogs.tif
102
RTVSPost2010PropOp54
 70
     1
102
RTVSPost2010Prop55
280
     0
102
RTVSPost2010PropOp55
 70
     1
102
RTVSPost2010Prop56
140
1.0
102
RTVSPost2010PropOp56
 70
     1
102
RTVSPost2010Prop57
140
1.0
102
RTVSPost2010PropOp57
 70
     1
102
RTVSPropertyOp0
 70
     1
102
RTVSPropertyOp1
 70
     1
102
RTVSPropertyOp2
 70
     1
102
RTVSPropertyOp3
 70
     1
102
RTVSPropertyOp4
 70
     1
102
RTVSPropertyOp5
 70
     1
102
RTVSPropertyOp6
 70
     1
102
RTVSPropertyOp7
 70
     1
102
RTVSPropertyOp8
 70
     1
102
RTVSPropertyOp9
 70
     1
102
RTVSPropertyOp10
 70
     1
102
RTVSPropertyOp11
 70
     1
102
RTVSPropertyOp12
 70
     1
102
RTVSPropertyOp13
 70
     1
102
RTVSPropertyOp14
 70
     1
102
RTVSPropertyOp15
 70
     1
102
RTVSPropertyOp16
 70
     1
102
RTVSPropertyOp17
 70
     1
102
RTVSPropertyOp18
 70
     1
102
RTVSPropertyOp19
 70
     1
102
RTVSPropertyOp20
 70
     1
102
RTVSPropertyOp21
 70
     1
102
RTVSPropertyOp22
 70
     1
102
RTVSPropertyOp23
 70
     1
102
RTVSPropertyOp24
 70
     1
102
RTVSPropertyOp25
 70
     1
102
RTVSPropertyOp26
 70
     1
102
RTVSPropertyOp27
 70
     1
102
RTVSPropertyOp28
 70
     1
102
RTVSPropertyOp29
 70
     1
102
RTVSPropertyOp30
 70
     1
102
RTVSPropertyOp31
 70
     1
102
RTVSPropertyOp32
 70
     1
102
RTVSPropertyOp33
 70
     1
102
RTVSPropertyOp34
 70
     1
102
RTVSPropertyOp35
 70
     1
102
RTVSPropertyOp36
 70
     1
102
RTVSPropertyOp37
 70
     1
102
RTVSPropertyOp38
 70
     1
102
RTVSPropertyOp39
 70
     1
102
RTVSPropertyOp40
 70
     1
102
RTVSPropertyOp41
 70
     1
102
RTVSPropertyOp42
 70
     1
102
RTVSPropertyOp43
 70
     1
102
RTVSPropertyOp44
 70
     1
102
RTVSPropertyOp45
 70
     1
102
RTVSPropertyOp46
 70
     1
102
RTVSPropertyOp47
 70
     1
102
RTVSPropertyOp48
 70
     1
102
RTVSPropertyOp49
 70
     1
102
RTVSPropertyOp50
 70
     1
102
RTVSPropertyOp51
 70
     0
102
RTVSPropertyOp52
 70
     0
102
RTVSPropertyOp53
 70
     1
102
RTVSPropertyOp54
 70
     1
102
RTVSPropertyOp55
 70
     1
102
RTVSPropertyOp56
 70
     1
102
RTVSPropertyOp57
 70
     1
102
RTVSPropertyOp58
 70
     1
102
RTVSPropertyOp59
 70
     1
102
RTVSPropertyOp60
 70
     1
102
RTVSPropertyOp61
 70
     1
102
RTVSPropertyOp62
 70
     1
  0
XRECORD
  5
89B2
102
{ACAD_REACTORS
330
89B1
102
}
330
89B1
100
AcDbXrecord
280
     1
102
RTVSPost2010Prop28
280
     0
102
RTVSPost2010PropOp28
 70
     1
102
RTVSPost2010Prop29
280
     1
102
RTVSPost2010PropOp29
 70
     1
102
RTVSPost2010Prop30
280
     1
102
RTVSPost2010PropOp30
 70
     1
102
RTVSPost2010Prop31
280
     0
102
RTVSPost2010PropOp31
 70
     1
102
RTVSPost2010Prop32
280
     0
102
RTVSPost2010PropOp32
 70
     1
102
RTVSPost2010Prop33
280
     0
102
RTVSPost2010PropOp33
 70
     1
102
RTVSPost2010Prop34
280
     0
102
RTVSPost2010PropOp34
 70
     1
102
RTVSPost2010Prop35
280
     0
102
RTVSPost2010PropOp35
 70
     1
102
RTVSPost2010Prop36
280
     0
102
RTVSPost2010PropOp36
 70
     1
102
RTVSPost2010Prop37
 90
       50
102
RTVSPost2010PropOp37
 70
     1
102
RTVSPost2010Prop38
140
0.0
102
RTVSPost2010PropOp38
 70
     1
102
RTVSPost2010Prop39
140
1.0
102
RTVSPost2010PropOp39
 70
     1
102
RTVSPost2010Prop40
 90
        0
102
RTVSPost2010PropOp40
 70
     1
102
RTVSPost2010Prop41ColorIndex
 90
       18
102
RTVSPost2010Prop41ColorRGB
 90
        0
102
RTVSPost2010PropOp41
 70
     1
102
RTVSPost2010Prop42
 90
       50
102
RTVSPost2010PropOp42
 70
     1
102
RTVSPost2010Prop43
 90
        3
102
RTVSPost2010PropOp43
 70
     1
102
RTVSPost2010Prop44ColorIndex
 90
        5
102
RTVSPost2010Prop44ColorRGB
 90
      255
102
RTVSPost2010PropOp44
 70
     1
102
RTVSPost2010Prop45
280
     0
102
RTVSPost2010PropOp45
 70
     1
102
RTVSPost2010Prop46
 90
       50
102
RTVSPost2010PropOp46
 70
     1
102
RTVSPost2010Prop47
 90
       50
102
RTVSPost2010PropOp47
 70
     1
102
RTVSPost2010Prop48
 90
       50
102
RTVSPost2010PropOp48
 70
     1
102
RTVSPost2010Prop49
280
     0
102
RTVSPost2010PropOp49
 70
     1
102
RTVSPost2010Prop50
 90
       50
102
RTVSPost2010PropOp50
 70
     1
102
RTVSPost2010Prop51ColorIndex
 90
      256
102
RTVSPost2010Prop51ColorRGB
 90
-16777216
102
RTVSPost2010PropOp51
 70
     0
102
RTVSPost2010Prop52
140
1.0
102
RTVSPost2010PropOp52
 70
     0
102
RTVSPost2010Prop53
 90
        2
102
RTVSPost2010PropOp53
 70
     1
102
RTVSPost2010Prop54
  1
strokes_ogs.tif
102
RTVSPost2010PropOp54
 70
     1
102
RTVSPost2010Prop55
280
     0
102
RTVSPost2010PropOp55
 70
     1
102
RTVSPost2010Prop56
140
1.0
102
RTVSPost2010PropOp56
 70
     1
102
RTVSPost2010Prop57
140
1.0
102
RTVSPost2010PropOp57
 70
     1
102
RTVSPropertyOp0
 70
     1
102
RTVSPropertyOp1
 70
     1
102
RTVSPropertyOp2
 70
     1
102
RTVSPropertyOp3
 70
     1
102
RTVSPropertyOp4
 70
     1
102
RTVSPropertyOp5
 70
     1
102
RTVSPropertyOp6
 70
     1
102
RTVSPropertyOp7
 70
     1
102
RTVSPropertyOp8
 70
     1
102
RTVSPropertyOp9
 70
     1
102
RTVSPropertyOp10
 70
     1
102
RTVSPropertyOp11
 70
     1
102
RTVSPropertyOp12
 70
     1
102
RTVSPropertyOp13
 70
     1
102
RTVSPropertyOp14
 70
     1
102
RTVSPropertyOp15
 70
     1
102
RTVSPropertyOp16
 70
     1
102
RTVSPropertyOp17
 70
     1
102
RTVSPropertyOp18
 70
     1
102
RTVSPropertyOp19
 70
     1
102
RTVSPropertyOp20
 70
     1
102
RTVSPropertyOp21
 70
     1
102
RTVSPropertyOp22
 70
     1
102
RTVSPropertyOp23
 70
     1
102
RTVSPropertyOp24
 70
     1
102
RTVSPropertyOp25
 70
     1
102
RTVSPropertyOp26
 70
     1
102
RTVSPropertyOp27
 70
     1
102
RTVSPropertyOp28
 70
     1
102
RTVSPropertyOp29
 70
     1
102
RTVSPropertyOp30
 70
     1
102
RTVSPropertyOp31
 70
     1
102
RTVSPropertyOp32
 70
     1
102
RTVSPropertyOp33
 70
     1
102
RTVSPropertyOp34
 70
     1
102
RTVSPropertyOp35
 70
     1
102
RTVSPropertyOp36
 70
     1
102
RTVSPropertyOp37
 70
     1
102
RTVSPropertyOp38
 70
     1
102
RTVSPropertyOp39
 70
     1
102
RTVSPropertyOp40
 70
     1
102
RTVSPropertyOp41
 70
     1
102
RTVSPropertyOp42
 70
     1
102
RTVSPropertyOp43
 70
     1
102
RTVSPropertyOp44
 70
     1
102
RTVSPropertyOp45
 70
     1
102
RTVSPropertyOp46
 70
     1
102
RTVSPropertyOp47
 70
     1
102
RTVSPropertyOp48
 70
     1
102
RTVSPropertyOp49
 70
     1
102
RTVSPropertyOp50
 70
     1
102
RTVSPropertyOp51
 70
     0
102
RTVSPropertyOp52
 70
     0
102
RTVSPropertyOp53
 70
     1
102
RTVSPropertyOp54
 70
     1
102
RTVSPropertyOp55
 70
     1
102
RTVSPropertyOp56
 70
     1
102
RTVSPropertyOp57
 70
     1
102
RTVSPropertyOp58
 70
     1
102
RTVSPropertyOp59
 70
     1
102
RTVSPropertyOp60
 70
     1
102
RTVSPropertyOp61
 70
     1
102
RTVSPropertyOp62
 70
     1
  0
XRECORD
  5
89B4
102
{ACAD_REACTORS
330
89B3
102
}
330
89B3
100
AcDbXrecord
280
     1
102
RTVSPost2010Prop28
280
     0
102
RTVSPost2010PropOp28
 70
     1
102
RTVSPost2010Prop29
280
     1
102
RTVSPost2010PropOp29
 70
     1
102
RTVSPost2010Prop30
280
     1
102
RTVSPost2010PropOp30
 70
     1
102
RTVSPost2010Prop31
280
     0
102
RTVSPost2010PropOp31
 70
     1
102
RTVSPost2010Prop32
280
     0
102
RTVSPost2010PropOp32
 70
     1
102
RTVSPost2010Prop33
280
     0
102
RTVSPost2010PropOp33
 70
     1
102
RTVSPost2010Prop34
280
     0
102
RTVSPost2010PropOp34
 70
     1
102
RTVSPost2010Prop35
280
     0
102
RTVSPost2010PropOp35
 70
     1
102
RTVSPost2010Prop36
280
     0
102
RTVSPost2010PropOp36
 70
     1
102
RTVSPost2010Prop37
 90
       50
102
RTVSPost2010PropOp37
 70
     1
102
RTVSPost2010Prop38
140
0.0
102
RTVSPost2010PropOp38
 70
     1
102
RTVSPost2010Prop39
140
1.0
102
RTVSPost2010PropOp39
 70
     1
102
RTVSPost2010Prop40
 90
        0
102
RTVSPost2010PropOp40
 70
     1
102
RTVSPost2010Prop41ColorIndex
 90
       18
102
RTVSPost2010Prop41ColorRGB
 90
        0
102
RTVSPost2010PropOp41
 70
     1
102
RTVSPost2010Prop42
 90
       50
102
RTVSPost2010PropOp42
 70
     1
102
RTVSPost2010Prop43
 90
        3
102
RTVSPost2010PropOp43
 70
     1
102
RTVSPost2010Prop44ColorIndex
 90
        5
102
RTVSPost2010Prop44ColorRGB
 90
      255
102
RTVSPost2010PropOp44
 70
     1
102
RTVSPost2010Prop45
280
     0
102
RTVSPost2010PropOp45
 70
     1
102
RTVSPost2010Prop46
 90
       50
102
RTVSPost2010PropOp46
 70
     1
102
RTVSPost2010Prop47
 90
       50
102
RTVSPost2010PropOp47
 70
     1
102
RTVSPost2010Prop48
 90
       50
102
RTVSPost2010PropOp48
 70
     1
102
RTVSPost2010Prop49
280
     0
102
RTVSPost2010PropOp49
 70
     1
102
RTVSPost2010Prop50
 90
       50
102
RTVSPost2010PropOp50
 70
     1
102
RTVSPost2010Prop51ColorIndex
 90
      256
102
RTVSPost2010Prop51ColorRGB
 90
-16777216
102
RTVSPost2010PropOp51
 70
     0
102
RTVSPost2010Prop52
140
1.0
102
RTVSPost2010PropOp52
 70
     0
102
RTVSPost2010Prop53
 90
        2
102
RTVSPost2010PropOp53
 70
     1
102
RTVSPost2010Prop54
  1
strokes_ogs.tif
102
RTVSPost2010PropOp54
 70
     1
102
RTVSPost2010Prop55
280
     0
102
RTVSPost2010PropOp55
 70
     1
102
RTVSPost2010Prop56
140
1.0
102
RTVSPost2010PropOp56
 70
     1
102
RTVSPost2010Prop57
140
1.0
102
RTVSPost2010PropOp57
 70
     1
102
RTVSPropertyOp0
 70
     1
102
RTVSPropertyOp1
 70
     1
102
RTVSPropertyOp2
 70
     1
102
RTVSPropertyOp3
 70
     1
102
RTVSPropertyOp4
 70
     1
102
RTVSPropertyOp5
 70
     1
102
RTVSPropertyOp6
 70
     1
102
RTVSPropertyOp7
 70
     1
102
RTVSPropertyOp8
 70
     1
102
RTVSPropertyOp9
 70
     1
102
RTVSPropertyOp10
 70
     1
102
RTVSPropertyOp11
 70
     1
102
RTVSPropertyOp12
 70
     1
102
RTVSPropertyOp13
 70
     1
102
RTVSPropertyOp14
 70
     1
102
RTVSPropertyOp15
 70
     1
102
RTVSPropertyOp16
 70
     1
102
RTVSPropertyOp17
 70
     1
102
RTVSPropertyOp18
 70
     1
102
RTVSPropertyOp19
 70
     1
102
RTVSPropertyOp20
 70
     1
102
RTVSPropertyOp21
 70
     1
102
RTVSPropertyOp22
 70
     1
102
RTVSPropertyOp23
 70
     1
102
RTVSPropertyOp24
 70
     1
102
RTVSPropertyOp25
 70
     1
102
RTVSPropertyOp26
 70
     1
102
RTVSPropertyOp27
 70
     1
102
RTVSPropertyOp28
 70
     1
102
RTVSPropertyOp29
 70
     1
102
RTVSPropertyOp30
 70
     1
102
RTVSPropertyOp31
 70
     1
102
RTVSPropertyOp32
 70
     1
102
RTVSPropertyOp33
 70
     1
102
RTVSPropertyOp34
 70
     1
102
RTVSPropertyOp35
 70
     1
102
RTVSPropertyOp36
 70
     1
102
RTVSPropertyOp37
 70
     1
102
RTVSPropertyOp38
 70
     1
102
RTVSPropertyOp39
 70
     1
102
RTVSPropertyOp40
 70
     1
102
RTVSPropertyOp41
 70
     1
102
RTVSPropertyOp42
 70
     1
102
RTVSPropertyOp43
 70
     1
102
RTVSPropertyOp44
 70
     1
102
RTVSPropertyOp45
 70
     1
102
RTVSPropertyOp46
 70
     1
102
RTVSPropertyOp47
 70
     1
102
RTVSPropertyOp48
 70
     1
102
RTVSPropertyOp49
 70
     1
102
RTVSPropertyOp50
 70
     1
102
RTVSPropertyOp51
 70
     0
102
RTVSPropertyOp52
 70
     0
102
RTVSPropertyOp53
 70
     1
102
RTVSPropertyOp54
 70
     1
102
RTVSPropertyOp55
 70
     1
102
RTVSPropertyOp56
 70
     1
102
RTVSPropertyOp57
 70
     1
102
RTVSPropertyOp58
 70
     1
102
RTVSPropertyOp59
 70
     1
102
RTVSPropertyOp60
 70
     1
102
RTVSPropertyOp61
 70
     1
102
RTVSPropertyOp62
 70
     1
  0
XRECORD
  5
89B6
102
{ACAD_REACTORS
330
89B5
102
}
330
89B5
100
AcDbXrecord
280
     1
102
RTVSPost2010Prop28
280
     0
102
RTVSPost2010PropOp28
 70
     1
102
RTVSPost2010Prop29
280
     1
102
RTVSPost2010PropOp29
 70
     1
102
RTVSPost2010Prop30
280
     1
102
RTVSPost2010PropOp30
 70
     1
102
RTVSPost2010Prop31
280
     0
102
RTVSPost2010PropOp31
 70
     1
102
RTVSPost2010Prop32
280
     0
102
RTVSPost2010PropOp32
 70
     1
102
RTVSPost2010Prop33
280
     0
102
RTVSPost2010PropOp33
 70
     1
102
RTVSPost2010Prop34
280
     0
102
RTVSPost2010PropOp34
 70
     1
102
RTVSPost2010Prop35
280
     0
102
RTVSPost2010PropOp35
 70
     1
102
RTVSPost2010Prop36
280
     0
102
RTVSPost2010PropOp36
 70
     1
102
RTVSPost2010Prop37
 90
       50
102
RTVSPost2010PropOp37
 70
     1
102
RTVSPost2010Prop38
140
0.0
102
RTVSPost2010PropOp38
 70
     1
102
RTVSPost2010Prop39
140
1.0
102
RTVSPost2010PropOp39
 70
     1
102
RTVSPost2010Prop40
 90
        0
102
RTVSPost2010PropOp40
 70
     1
102
RTVSPost2010Prop41ColorIndex
 90
       18
102
RTVSPost2010Prop41ColorRGB
 90
        0
102
RTVSPost2010PropOp41
 70
     1
102
RTVSPost2010Prop42
 90
       50
102
RTVSPost2010PropOp42
 70
     1
102
RTVSPost2010Prop43
 90
        3
102
RTVSPost2010PropOp43
 70
     1
102
RTVSPost2010Prop44ColorIndex
 90
        5
102
RTVSPost2010Prop44ColorRGB
 90
      255
102
RTVSPost2010PropOp44
 70
     1
102
RTVSPost2010Prop45
280
     0
102
RTVSPost2010PropOp45
 70
     1
102
RTVSPost2010Prop46
 90
       50
102
RTVSPost2010PropOp46
 70
     1
102
RTVSPost2010Prop47
 90
       50
102
RTVSPost2010PropOp47
 70
     1
102
RTVSPost2010Prop48
 90
       50
102
RTVSPost2010PropOp48
 70
     1
102
RTVSPost2010Prop49
280
     0
102
RTVSPost2010PropOp49
 70
     1
102
RTVSPost2010Prop50
 90
       50
102
RTVSPost2010PropOp50
 70
     1
102
RTVSPost2010Prop51ColorIndex
 90
      256
102
RTVSPost2010Prop51ColorRGB
 90
-16777216
102
RTVSPost2010PropOp51
 70
     0
102
RTVSPost2010Prop52
140
1.0
102
RTVSPost2010PropOp52
 70
     0
102
RTVSPost2010Prop53
 90
        2
102
RTVSPost2010PropOp53
 70
     1
102
RTVSPost2010Prop54
  1
strokes_ogs.tif
102
RTVSPost2010PropOp54
 70
     1
102
RTVSPost2010Prop55
280
     0
102
RTVSPost2010PropOp55
 70
     1
102
RTVSPost2010Prop56
140
1.0
102
RTVSPost2010PropOp56
 70
     1
102
RTVSPost2010Prop57
140
1.0
102
RTVSPost2010PropOp57
 70
     1
102
RTVSPropertyOp0
 70
     1
102
RTVSPropertyOp1
 70
     1
102
RTVSPropertyOp2
 70
     1
102
RTVSPropertyOp3
 70
     1
102
RTVSPropertyOp4
 70
     1
102
RTVSPropertyOp5
 70
     1
102
RTVSPropertyOp6
 70
     1
102
RTVSPropertyOp7
 70
     1
102
RTVSPropertyOp8
 70
     1
102
RTVSPropertyOp9
 70
     1
102
RTVSPropertyOp10
 70
     1
102
RTVSPropertyOp11
 70
     1
102
RTVSPropertyOp12
 70
     1
102
RTVSPropertyOp13
 70
     1
102
RTVSPropertyOp14
 70
     1
102
RTVSPropertyOp15
 70
     1
102
RTVSPropertyOp16
 70
     1
102
RTVSPropertyOp17
 70
     1
102
RTVSPropertyOp18
 70
     1
102
RTVSPropertyOp19
 70
     1
102
RTVSPropertyOp20
 70
     1
102
RTVSPropertyOp21
 70
     1
102
RTVSPropertyOp22
 70
     1
102
RTVSPropertyOp23
 70
     1
102
RTVSPropertyOp24
 70
     1
102
RTVSPropertyOp25
 70
     1
102
RTVSPropertyOp26
 70
     1
102
RTVSPropertyOp27
 70
     1
102
RTVSPropertyOp28
 70
     1
102
RTVSPropertyOp29
 70
     1
102
RTVSPropertyOp30
 70
     1
102
RTVSPropertyOp31
 70
     1
102
RTVSPropertyOp32
 70
     1
102
RTVSPropertyOp33
 70
     1
102
RTVSPropertyOp34
 70
     1
102
RTVSPropertyOp35
 70
     1
102
RTVSPropertyOp36
 70
     1
102
RTVSPropertyOp37
 70
     1
102
RTVSPropertyOp38
 70
     1
102
RTVSPropertyOp39
 70
     1
102
RTVSPropertyOp40
 70
     1
102
RTVSPropertyOp41
 70
     1
102
RTVSPropertyOp42
 70
     1
102
RTVSPropertyOp43
 70
     1
102
RTVSPropertyOp44
 70
     1
102
RTVSPropertyOp45
 70
     1
102
RTVSPropertyOp46
 70
     1
102
RTVSPropertyOp47
 70
     1
102
RTVSPropertyOp48
 70
     1
102
RTVSPropertyOp49
 70
     1
102
RTVSPropertyOp50
 70
     1
102
RTVSPropertyOp51
 70
     0
102
RTVSPropertyOp52
 70
     0
102
RTVSPropertyOp53
 70
     1
102
RTVSPropertyOp54
 70
     1
102
RTVSPropertyOp55
 70
     1
102
RTVSPropertyOp56
 70
     1
102
RTVSPropertyOp57
 70
     1
102
RTVSPropertyOp58
 70
     1
102
RTVSPropertyOp59
 70
     1
102
RTVSPropertyOp60
 70
     1
102
RTVSPropertyOp61
 70
     1
102
RTVSPropertyOp62
 70
     1
  0
XRECORD
  5
89BE
102
{ACAD_REACTORS
330
89BD
102
}
330
89BD
100
AcDbXrecord
280
     1
102
RTVSPost2010Prop28
280
     0
102
RTVSPost2010PropOp28
 70
     1
102
RTVSPost2010Prop29
280
     1
102
RTVSPost2010PropOp29
 70
     1
102
RTVSPost2010Prop30
280
     1
102
RTVSPost2010PropOp30
 70
     1
102
RTVSPost2010Prop31
280
     0
102
RTVSPost2010PropOp31
 70
     1
102
RTVSPost2010Prop32
280
     0
102
RTVSPost2010PropOp32
 70
     1
102
RTVSPost2010Prop33
280
     0
102
RTVSPost2010PropOp33
 70
     1
102
RTVSPost2010Prop34
280
     0
102
RTVSPost2010PropOp34
 70
     1
102
RTVSPost2010Prop35
280
     0
102
RTVSPost2010PropOp35
 70
     1
102
RTVSPost2010Prop36
280
     0
102
RTVSPost2010PropOp36
 70
     1
102
RTVSPost2010Prop37
 90
       50
102
RTVSPost2010PropOp37
 70
     1
102
RTVSPost2010Prop38
140
0.0
102
RTVSPost2010PropOp38
 70
     1
102
RTVSPost2010Prop39
140
1.0
102
RTVSPost2010PropOp39
 70
     1
102
RTVSPost2010Prop40
 90
        0
102
RTVSPost2010PropOp40
 70
     1
102
RTVSPost2010Prop41ColorIndex
 90
       18
102
RTVSPost2010Prop41ColorRGB
 90
        0
102
RTVSPost2010PropOp41
 70
     1
102
RTVSPost2010Prop42
 90
       50
102
RTVSPost2010PropOp42
 70
     1
102
RTVSPost2010Prop43
 90
        3
102
RTVSPost2010PropOp43
 70
     1
102
RTVSPost2010Prop44ColorIndex
 90
        5
102
RTVSPost2010Prop44ColorRGB
 90
      255
102
RTVSPost2010PropOp44
 70
     1
102
RTVSPost2010Prop45
280
     0
102
RTVSPost2010PropOp45
 70
     1
102
RTVSPost2010Prop46
 90
       50
102
RTVSPost2010PropOp46
 70
     1
102
RTVSPost2010Prop47
 90
       50
102
RTVSPost2010PropOp47
 70
     1
102
RTVSPost2010Prop48
 90
       50
102
RTVSPost2010PropOp48
 70
     1
102
RTVSPost2010Prop49
280
     0
102
RTVSPost2010PropOp49
 70
     1
102
RTVSPost2010Prop50
 90
       50
102
RTVSPost2010PropOp50
 70
     1
102
RTVSPost2010Prop51ColorIndex
 90
      256
102
RTVSPost2010Prop51ColorRGB
 90
-16777216
102
RTVSPost2010PropOp51
 70
     0
102
RTVSPost2010Prop52
140
1.0
102
RTVSPost2010PropOp52
 70
     0
102
RTVSPost2010Prop53
 90
        2
102
RTVSPost2010PropOp53
 70
     1
102
RTVSPost2010Prop54
  1
strokes_ogs.tif
102
RTVSPost2010PropOp54
 70
     1
102
RTVSPost2010Prop55
280
     0
102
RTVSPost2010PropOp55
 70
     1
102
RTVSPost2010Prop56
140
1.0
102
RTVSPost2010PropOp56
 70
     1
102
RTVSPost2010Prop57
140
1.0
102
RTVSPost2010PropOp57
 70
     1
102
RTVSPropertyOp0
 70
     1
102
RTVSPropertyOp1
 70
     1
102
RTVSPropertyOp2
 70
     1
102
RTVSPropertyOp3
 70
     1
102
RTVSPropertyOp4
 70
     1
102
RTVSPropertyOp5
 70
     1
102
RTVSPropertyOp6
 70
     1
102
RTVSPropertyOp7
 70
     1
102
RTVSPropertyOp8
 70
     1
102
RTVSPropertyOp9
 70
     1
102
RTVSPropertyOp10
 70
     1
102
RTVSPropertyOp11
 70
     1
102
RTVSPropertyOp12
 70
     1
102
RTVSPropertyOp13
 70
     1
102
RTVSPropertyOp14
 70
     1
102
RTVSPropertyOp15
 70
     1
102
RTVSPropertyOp16
 70
     1
102
RTVSPropertyOp17
 70
     1
102
RTVSPropertyOp18
 70
     1
102
RTVSPropertyOp19
 70
     1
102
RTVSPropertyOp20
 70
     1
102
RTVSPropertyOp21
 70
     1
102
RTVSPropertyOp22
 70
     1
102
RTVSPropertyOp23
 70
     1
102
RTVSPropertyOp24
 70
     1
102
RTVSPropertyOp25
 70
     1
102
RTVSPropertyOp26
 70
     1
102
RTVSPropertyOp27
 70
     1
102
RTVSPropertyOp28
 70
     1
102
RTVSPropertyOp29
 70
     1
102
RTVSPropertyOp30
 70
     1
102
RTVSPropertyOp31
 70
     1
102
RTVSPropertyOp32
 70
     1
102
RTVSPropertyOp33
 70
     1
102
RTVSPropertyOp34
 70
     1
102
RTVSPropertyOp35
 70
     1
102
RTVSPropertyOp36
 70
     1
102
RTVSPropertyOp37
 70
     1
102
RTVSPropertyOp38
 70
     1
102
RTVSPropertyOp39
 70
     1
102
RTVSPropertyOp40
 70
     1
102
RTVSPropertyOp41
 70
     1
102
RTVSPropertyOp42
 70
     1
102
RTVSPropertyOp43
 70
     1
102
RTVSPropertyOp44
 70
     1
102
RTVSPropertyOp45
 70
     1
102
RTVSPropertyOp46
 70
     1
102
RTVSPropertyOp47
 70
     1
102
RTVSPropertyOp48
 70
     1
102
RTVSPropertyOp49
 70
     1
102
RTVSPropertyOp50
 70
     1
102
RTVSPropertyOp51
 70
     0
102
RTVSPropertyOp52
 70
     0
102
RTVSPropertyOp53
 70
     1
102
RTVSPropertyOp54
 70
     1
102
RTVSPropertyOp55
 70
     1
102
RTVSPropertyOp56
 70
     1
102
RTVSPropertyOp57
 70
     1
102
RTVSPropertyOp58
 70
     1
102
RTVSPropertyOp59
 70
     1
102
RTVSPropertyOp60
 70
     1
102
RTVSPropertyOp61
 70
     1
102
RTVSPropertyOp62
 70
     1
  0
XRECORD
  5
89DA
102
{ACAD_REACTORS
330
89D9
102
}
330
89D9
100
AcDbXrecord
280
     1
102
RTVSPost2010Prop28
280
     0
102
RTVSPost2010PropOp28
 70
     1
102
RTVSPost2010Prop29
280
     1
102
RTVSPost2010PropOp29
 70
     1
102
RTVSPost2010Prop30
280
     1
102
RTVSPost2010PropOp30
 70
     1
102
RTVSPost2010Prop31
280
     0
102
RTVSPost2010PropOp31
 70
     1
102
RTVSPost2010Prop32
280
     0
102
RTVSPost2010PropOp32
 70
     1
102
RTVSPost2010Prop33
280
     0
102
RTVSPost2010PropOp33
 70
     1
102
RTVSPost2010Prop34
280
     0
102
RTVSPost2010PropOp34
 70
     1
102
RTVSPost2010Prop35
280
     0
102
RTVSPost2010PropOp35
 70
     1
102
RTVSPost2010Prop36
280
     0
102
RTVSPost2010PropOp36
 70
     1
102
RTVSPost2010Prop37
 90
       50
102
RTVSPost2010PropOp37
 70
     0
102
RTVSPost2010Prop38
140
0.0
102
RTVSPost2010PropOp38
 70
     0
102
RTVSPost2010Prop39
140
1.0
102
RTVSPost2010PropOp39
 70
     0
102
RTVSPost2010Prop40
 90
        0
102
RTVSPost2010PropOp40
 70
     0
102
RTVSPost2010Prop41ColorIndex
 90
       18
102
RTVSPost2010Prop41ColorRGB
 90
        0
102
RTVSPost2010PropOp41
 70
     0
102
RTVSPost2010Prop42
 90
       50
102
RTVSPost2010PropOp42
 70
     0
102
RTVSPost2010Prop43
 90
        3
102
RTVSPost2010PropOp43
 70
     0
102
RTVSPost2010Prop44ColorIndex
 90
        5
102
RTVSPost2010Prop44ColorRGB
 90
      255
102
RTVSPost2010PropOp44
 70
     0
102
RTVSPost2010Prop45
280
     0
102
RTVSPost2010PropOp45
 70
     1
102
RTVSPost2010Prop46
 90
       50
102
RTVSPost2010PropOp46
 70
     0
102
RTVSPost2010Prop47
 90
       50
102
RTVSPost2010PropOp47
 70
     0
102
RTVSPost2010Prop48
 90
       50
102
RTVSPost2010PropOp48
 70
     0
102
RTVSPost2010Prop49
280
     0
102
RTVSPost2010PropOp49
 70
     1
102
RTVSPost2010Prop50
 90
       50
102
RTVSPost2010PropOp50
 70
     0
102
RTVSPost2010Prop51ColorIndex
 90
      256
102
RTVSPost2010Prop51ColorRGB
 90
-16777216
102
RTVSPost2010PropOp51
 70
     0
102
RTVSPost2010Prop52
140
1.0
102
RTVSPost2010PropOp52
 70
     0
102
RTVSPost2010Prop53
 90
        2
102
RTVSPost2010PropOp53
 70
     0
102
RTVSPost2010Prop54
  1
strokes_ogs.tif
102
RTVSPost2010PropOp54
 70
     0
102
RTVSPost2010Prop55
280
     0
102
RTVSPost2010PropOp55
 70
     1
102
RTVSPost2010Prop56
140
1.0
102
RTVSPost2010PropOp56
 70
     0
102
RTVSPost2010Prop57
140
1.0
102
RTVSPost2010PropOp57
 70
     0
102
RTVSPropertyOp0
 70
     0
102
RTVSPropertyOp1
 70
     0
102
RTVSPropertyOp2
 70
     0
102
RTVSPropertyOp3
 70
     0
102
RTVSPropertyOp4
 70
     0
102
RTVSPropertyOp5
 70
     0
102
RTVSPropertyOp6
 70
     0
102
RTVSPropertyOp7
 70
     0
102
RTVSPropertyOp8
 70
     0
102
RTVSPropertyOp9
 70
     0
102
RTVSPropertyOp10
 70
     0
102
RTVSPropertyOp11
 70
     0
102
RTVSPropertyOp12
 70
     0
102
RTVSPropertyOp13
 70
     0
102
RTVSPropertyOp14
 70
     2
102
RTVSPropertyOp15
 70
     0
102
RTVSPropertyOp16
 70
     0
102
RTVSPropertyOp17
 70
     0
102
RTVSPropertyOp18
 70
     0
102
RTVSPropertyOp19
 70
     0
102
RTVSPropertyOp20
 70
     0
102
RTVSPropertyOp21
 70
     0
102
RTVSPropertyOp22
 70
     0
102
RTVSPropertyOp23
 70
     0
102
RTVSPropertyOp24
 70
     0
102
RTVSPropertyOp25
 70
     0
102
RTVSPropertyOp26
 70
     0
102
RTVSPropertyOp27
 70
     0
102
RTVSPropertyOp28
 70
     1
102
RTVSPropertyOp29
 70
     1
102
RTVSPropertyOp30
 70
     1
102
RTVSPropertyOp31
 70
     1
102
RTVSPropertyOp32
 70
     1
102
RTVSPropertyOp33
 70
     1
102
RTVSPropertyOp34
 70
     1
102
RTVSPropertyOp35
 70
     1
102
RTVSPropertyOp36
 70
     1
102
RTVSPropertyOp37
 70
     0
102
RTVSPropertyOp38
 70
     0
102
RTVSPropertyOp39
 70
     0
102
RTVSPropertyOp40
 70
     0
102
RTVSPropertyOp41
 70
     0
102
RTVSPropertyOp42
 70
     0
102
RTVSPropertyOp43
 70
     0
102
RTVSPropertyOp44
 70
     0
102
RTVSPropertyOp45
 70
     1
102
RTVSPropertyOp46
 70
     0
102
RTVSPropertyOp47
 70
     0
102
RTVSPropertyOp48
 70
     0
102
RTVSPropertyOp49
 70
     1
102
RTVSPropertyOp50
 70
     0
102
RTVSPropertyOp51
 70
     0
102
RTVSPropertyOp52
 70
     0
102
RTVSPropertyOp53
 70
     0
102
RTVSPropertyOp54
 70
     0
102
RTVSPropertyOp55
 70
     1
102
RTVSPropertyOp56
 70
     0
102
RTVSPropertyOp57
 70
     0
102
RTVSPropertyOp58
 70
     0
102
RTVSPropertyOp59
 70
     0
102
RTVSPropertyOp60
 70
     0
102
RTVSPropertyOp61
 70
     0
102
RTVSPropertyOp62
 70
     0
  0
XRECORD
  5
89CA
102
{ACAD_REACTORS
330
89C9
102
}
330
89C9
100
AcDbXrecord
280
     1
102
RTVSPost2010Prop28
280
     0
102
RTVSPost2010PropOp28
 70
     1
102
RTVSPost2010Prop29
280
     1
102
RTVSPost2010PropOp29
 70
     1
102
RTVSPost2010Prop30
280
     1
102
RTVSPost2010PropOp30
 70
     1
102
RTVSPost2010Prop31
280
     0
102
RTVSPost2010PropOp31
 70
     1
102
RTVSPost2010Prop32
280
     0
102
RTVSPost2010PropOp32
 70
     1
102
RTVSPost2010Prop33
280
     0
102
RTVSPost2010PropOp33
 70
     1
102
RTVSPost2010Prop34
280
     0
102
RTVSPost2010PropOp34
 70
     1
102
RTVSPost2010Prop35
280
     0
102
RTVSPost2010PropOp35
 70
     1
102
RTVSPost2010Prop36
280
     0
102
RTVSPost2010PropOp36
 70
     1
102
RTVSPost2010Prop37
 90
       50
102
RTVSPost2010PropOp37
 70
     1
102
RTVSPost2010Prop38
140
0.0
102
RTVSPost2010PropOp38
 70
     1
102
RTVSPost2010Prop39
140
1.0
102
RTVSPost2010PropOp39
 70
     1
102
RTVSPost2010Prop40
 90
        0
102
RTVSPost2010PropOp40
 70
     1
102
RTVSPost2010Prop41ColorIndex
 90
       18
102
RTVSPost2010Prop41ColorRGB
 90
        0
102
RTVSPost2010PropOp41
 70
     1
102
RTVSPost2010Prop42
 90
       50
102
RTVSPost2010PropOp42
 70
     1
102
RTVSPost2010Prop43
 90
        3
102
RTVSPost2010PropOp43
 70
     1
102
RTVSPost2010Prop44ColorIndex
 90
        5
102
RTVSPost2010Prop44ColorRGB
 90
      255
102
RTVSPost2010PropOp44
 70
     1
102
RTVSPost2010Prop45
280
     0
102
RTVSPost2010PropOp45
 70
     1
102
RTVSPost2010Prop46
 90
       50
102
RTVSPost2010PropOp46
 70
     1
102
RTVSPost2010Prop47
 90
       50
102
RTVSPost2010PropOp47
 70
     1
102
RTVSPost2010Prop48
 90
       50
102
RTVSPost2010PropOp48
 70
     1
102
RTVSPost2010Prop49
280
     0
102
RTVSPost2010PropOp49
 70
     1
102
RTVSPost2010Prop50
 90
       50
102
RTVSPost2010PropOp50
 70
     1
102
RTVSPost2010Prop51ColorIndex
 90
      256
102
RTVSPost2010Prop51ColorRGB
 90
-16777216
102
RTVSPost2010PropOp51
 70
     0
102
RTVSPost2010Prop52
140
1.0
102
RTVSPost2010PropOp52
 70
     0
102
RTVSPost2010Prop53
 90
        2
102
RTVSPost2010PropOp53
 70
     1
102
RTVSPost2010Prop54
  1
strokes_ogs.tif
102
RTVSPost2010PropOp54
 70
     1
102
RTVSPost2010Prop55
280
     0
102
RTVSPost2010PropOp55
 70
     1
102
RTVSPost2010Prop56
140
1.0
102
RTVSPost2010PropOp56
 70
     1
102
RTVSPost2010Prop57
140
1.0
102
RTVSPost2010PropOp57
 70
     1
102
RTVSPropertyOp0
 70
     1
102
RTVSPropertyOp1
 70
     1
102
RTVSPropertyOp2
 70
     1
102
RTVSPropertyOp3
 70
     1
102
RTVSPropertyOp4
 70
     1
102
RTVSPropertyOp5
 70
     1
102
RTVSPropertyOp6
 70
     1
102
RTVSPropertyOp7
 70
     1
102
RTVSPropertyOp8
 70
     1
102
RTVSPropertyOp9
 70
     1
102
RTVSPropertyOp10
 70
     1
102
RTVSPropertyOp11
 70
     1
102
RTVSPropertyOp12
 70
     1
102
RTVSPropertyOp13
 70
     1
102
RTVSPropertyOp14
 70
     1
102
RTVSPropertyOp15
 70
     1
102
RTVSPropertyOp16
 70
     1
102
RTVSPropertyOp17
 70
     1
102
RTVSPropertyOp18
 70
     1
102
RTVSPropertyOp19
 70
     1
102
RTVSPropertyOp20
 70
     1
102
RTVSPropertyOp21
 70
     1
102
RTVSPropertyOp22
 70
     1
102
RTVSPropertyOp23
 70
     1
102
RTVSPropertyOp24
 70
     1
102
RTVSPropertyOp25
 70
     1
102
RTVSPropertyOp26
 70
     1
102
RTVSPropertyOp27
 70
     1
102
RTVSPropertyOp28
 70
     1
102
RTVSPropertyOp29
 70
     1
102
RTVSPropertyOp30
 70
     1
102
RTVSPropertyOp31
 70
     1
102
RTVSPropertyOp32
 70
     1
102
RTVSPropertyOp33
 70
     1
102
RTVSPropertyOp34
 70
     1
102
RTVSPropertyOp35
 70
     1
102
RTVSPropertyOp36
 70
     1
102
RTVSPropertyOp37
 70
     1
102
RTVSPropertyOp38
 70
     1
102
RTVSPropertyOp39
 70
     1
102
RTVSPropertyOp40
 70
     1
102
RTVSPropertyOp41
 70
     1
102
RTVSPropertyOp42
 70
     1
102
RTVSPropertyOp43
 70
     1
102
RTVSPropertyOp44
 70
     1
102
RTVSPropertyOp45
 70
     1
102
RTVSPropertyOp46
 70
     1
102
RTVSPropertyOp47
 70
     1
102
RTVSPropertyOp48
 70
     1
102
RTVSPropertyOp49
 70
     1
102
RTVSPropertyOp50
 70
     1
102
RTVSPropertyOp51
 70
     0
102
RTVSPropertyOp52
 70
     0
102
RTVSPropertyOp53
 70
     1
102
RTVSPropertyOp54
 70
     1
102
RTVSPropertyOp55
 70
     1
102
RTVSPropertyOp56
 70
     1
102
RTVSPropertyOp57
 70
     1
102
RTVSPropertyOp58
 70
     1
102
RTVSPropertyOp59
 70
     1
102
RTVSPropertyOp60
 70
     1
102
RTVSPropertyOp61
 70
     1
102
RTVSPropertyOp62
 70
     1
  0
XRECORD
  5
89DC
102
{ACAD_REACTORS
330
89DB
102
}
330
89DB
100
AcDbXrecord
280
     1
102
RTVSPost2010Prop28
280
     0
102
RTVSPost2010PropOp28
 70
     1
102
RTVSPost2010Prop29
280
     1
102
RTVSPost2010PropOp29
 70
     1
102
RTVSPost2010Prop30
280
     1
102
RTVSPost2010PropOp30
 70
     1
102
RTVSPost2010Prop31
280
     0
102
RTVSPost2010PropOp31
 70
     1
102
RTVSPost2010Prop32
280
     0
102
RTVSPost2010PropOp32
 70
     1
102
RTVSPost2010Prop33
280
     0
102
RTVSPost2010PropOp33
 70
     1
102
RTVSPost2010Prop34
280
     0
102
RTVSPost2010PropOp34
 70
     1
102
RTVSPost2010Prop35
280
     0
102
RTVSPost2010PropOp35
 70
     1
102
RTVSPost2010Prop36
280
     0
102
RTVSPost2010PropOp36
 70
     1
102
RTVSPost2010Prop37
 90
       50
102
RTVSPost2010PropOp37
 70
     0
102
RTVSPost2010Prop38
140
0.0
102
RTVSPost2010PropOp38
 70
     0
102
RTVSPost2010Prop39
140
1.0
102
RTVSPost2010PropOp39
 70
     0
102
RTVSPost2010Prop40
 90
        0
102
RTVSPost2010PropOp40
 70
     0
102
RTVSPost2010Prop41ColorIndex
 90
       18
102
RTVSPost2010Prop41ColorRGB
 90
        0
102
RTVSPost2010PropOp41
 70
     0
102
RTVSPost2010Prop42
 90
       50
102
RTVSPost2010PropOp42
 70
     0
102
RTVSPost2010Prop43
 90
        3
102
RTVSPost2010PropOp43
 70
     0
102
RTVSPost2010Prop44ColorIndex
 90
        5
102
RTVSPost2010Prop44ColorRGB
 90
      255
102
RTVSPost2010PropOp44
 70
     0
102
RTVSPost2010Prop45
280
     0
102
RTVSPost2010PropOp45
 70
     1
102
RTVSPost2010Prop46
 90
       50
102
RTVSPost2010PropOp46
 70
     0
102
RTVSPost2010Prop47
 90
       50
102
RTVSPost2010PropOp47
 70
     0
102
RTVSPost2010Prop48
 90
       50
102
RTVSPost2010PropOp48
 70
     0
102
RTVSPost2010Prop49
280
     0
102
RTVSPost2010PropOp49
 70
     1
102
RTVSPost2010Prop50
 90
       50
102
RTVSPost2010PropOp50
 70
     0
102
RTVSPost2010Prop51ColorIndex
 90
      256
102
RTVSPost2010Prop51ColorRGB
 90
-16777216
102
RTVSPost2010PropOp51
 70
     0
102
RTVSPost2010Prop52
140
1.0
102
RTVSPost2010PropOp52
 70
     0
102
RTVSPost2010Prop53
 90
        2
102
RTVSPost2010PropOp53
 70
     0
102
RTVSPost2010Prop54
  1
strokes_ogs.tif
102
RTVSPost2010PropOp54
 70
     0
102
RTVSPost2010Prop55
280
     0
102
RTVSPost2010PropOp55
 70
     1
102
RTVSPost2010Prop56
140
1.0
102
RTVSPost2010PropOp56
 70
     0
102
RTVSPost2010Prop57
140
1.0
102
RTVSPost2010PropOp57
 70
     0
102
RTVSPropertyOp0
 70
     0
102
RTVSPropertyOp1
 70
     0
102
RTVSPropertyOp2
 70
     0
102
RTVSPropertyOp3
 70
     0
102
RTVSPropertyOp4
 70
     0
102
RTVSPropertyOp5
 70
     0
102
RTVSPropertyOp6
 70
     0
102
RTVSPropertyOp7
 70
     0
102
RTVSPropertyOp8
 70
     0
102
RTVSPropertyOp9
 70
     0
102
RTVSPropertyOp10
 70
     0
102
RTVSPropertyOp11
 70
     0
102
RTVSPropertyOp12
 70
     0
102
RTVSPropertyOp13
 70
     0
102
RTVSPropertyOp14
 70
     2
102
RTVSPropertyOp15
 70
     0
102
RTVSPropertyOp16
 70
     0
102
RTVSPropertyOp17
 70
     0
102
RTVSPropertyOp18
 70
     0
102
RTVSPropertyOp19
 70
     0
102
RTVSPropertyOp20
 70
     0
102
RTVSPropertyOp21
 70
     0
102
RTVSPropertyOp22
 70
     0
102
RTVSPropertyOp23
 70
     0
102
RTVSPropertyOp24
 70
     0
102
RTVSPropertyOp25
 70
     0
102
RTVSPropertyOp26
 70
     0
102
RTVSPropertyOp27
 70
     0
102
RTVSPropertyOp28
 70
     1
102
RTVSPropertyOp29
 70
     1
102
RTVSPropertyOp30
 70
     1
102
RTVSPropertyOp31
 70
     1
102
RTVSPropertyOp32
 70
     1
102
RTVSPropertyOp33
 70
     1
102
RTVSPropertyOp34
 70
     1
102
RTVSPropertyOp35
 70
     1
102
RTVSPropertyOp36
 70
     1
102
RTVSPropertyOp37
 70
     0
102
RTVSPropertyOp38
 70
     0
102
RTVSPropertyOp39
 70
     0
102
RTVSPropertyOp40
 70
     0
102
RTVSPropertyOp41
 70
     0
102
RTVSPropertyOp42
 70
     0
102
RTVSPropertyOp43
 70
     0
102
RTVSPropertyOp44
 70
     0
102
RTVSPropertyOp45
 70
     1
102
RTVSPropertyOp46
 70
     0
102
RTVSPropertyOp47
 70
     0
102
RTVSPropertyOp48
 70
     0
102
RTVSPropertyOp49
 70
     1
102
RTVSPropertyOp50
 70
     0
102
RTVSPropertyOp51
 70
     0
102
RTVSPropertyOp52
 70
     0
102
RTVSPropertyOp53
 70
     0
102
RTVSPropertyOp54
 70
     0
102
RTVSPropertyOp55
 70
     1
102
RTVSPropertyOp56
 70
     0
102
RTVSPropertyOp57
 70
     0
102
RTVSPropertyOp58
 70
     0
102
RTVSPropertyOp59
 70
     0
102
RTVSPropertyOp60
 70
     0
102
RTVSPropertyOp61
 70
     0
102
RTVSPropertyOp62
 70
     0
  0
XRECORD
  5
89C2
102
{ACAD_REACTORS
330
89C1
102
}
330
89C1
100
AcDbXrecord
280
     1
102
RTVSPost2010Prop28
280
     0
102
RTVSPost2010PropOp28
 70
     1
102
RTVSPost2010Prop29
280
     1
102
RTVSPost2010PropOp29
 70
     1
102
RTVSPost2010Prop30
280
     1
102
RTVSPost2010PropOp30
 70
     1
102
RTVSPost2010Prop31
280
     0
102
RTVSPost2010PropOp31
 70
     1
102
RTVSPost2010Prop32
280
     0
102
RTVSPost2010PropOp32
 70
     1
102
RTVSPost2010Prop33
280
     0
102
RTVSPost2010PropOp33
 70
     1
102
RTVSPost2010Prop34
280
     0
102
RTVSPost2010PropOp34
 70
     1
102
RTVSPost2010Prop35
280
     0
102
RTVSPost2010PropOp35
 70
     1
102
RTVSPost2010Prop36
280
     0
102
RTVSPost2010PropOp36
 70
     1
102
RTVSPost2010Prop37
 90
       50
102
RTVSPost2010PropOp37
 70
     1
102
RTVSPost2010Prop38
140
0.0
102
RTVSPost2010PropOp38
 70
     1
102
RTVSPost2010Prop39
140
1.0
102
RTVSPost2010PropOp39
 70
     1
102
RTVSPost2010Prop40
 90
        0
102
RTVSPost2010PropOp40
 70
     1
102
RTVSPost2010Prop41ColorIndex
 90
       18
102
RTVSPost2010Prop41ColorRGB
 90
        0
102
RTVSPost2010PropOp41
 70
     1
102
RTVSPost2010Prop42
 90
       50
102
RTVSPost2010PropOp42
 70
     1
102
RTVSPost2010Prop43
 90
        3
102
RTVSPost2010PropOp43
 70
     1
102
RTVSPost2010Prop44ColorIndex
 90
        5
102
RTVSPost2010Prop44ColorRGB
 90
      255
102
RTVSPost2010PropOp44
 70
     1
102
RTVSPost2010Prop45
280
     0
102
RTVSPost2010PropOp45
 70
     1
102
RTVSPost2010Prop46
 90
       50
102
RTVSPost2010PropOp46
 70
     1
102
RTVSPost2010Prop47
 90
       50
102
RTVSPost2010PropOp47
 70
     1
102
RTVSPost2010Prop48
 90
       50
102
RTVSPost2010PropOp48
 70
     1
102
RTVSPost2010Prop49
280
     0
102
RTVSPost2010PropOp49
 70
     1
102
RTVSPost2010Prop50
 90
       50
102
RTVSPost2010PropOp50
 70
     1
102
RTVSPost2010Prop51ColorIndex
 90
      256
102
RTVSPost2010Prop51ColorRGB
 90
-16777216
102
RTVSPost2010PropOp51
 70
     0
102
RTVSPost2010Prop52
140
1.0
102
RTVSPost2010PropOp52
 70
     0
102
RTVSPost2010Prop53
 90
        2
102
RTVSPost2010PropOp53
 70
     1
102
RTVSPost2010Prop54
  1
strokes_ogs.tif
102
RTVSPost2010PropOp54
 70
     1
102
RTVSPost2010Prop55
280
     0
102
RTVSPost2010PropOp55
 70
     1
102
RTVSPost2010Prop56
140
1.0
102
RTVSPost2010PropOp56
 70
     1
102
RTVSPost2010Prop57
140
1.0
102
RTVSPost2010PropOp57
 70
     1
102
RTVSPropertyOp0
 70
     1
102
RTVSPropertyOp1
 70
     1
102
RTVSPropertyOp2
 70
     1
102
RTVSPropertyOp3
 70
     1
102
RTVSPropertyOp4
 70
     1
102
RTVSPropertyOp5
 70
     1
102
RTVSPropertyOp6
 70
     1
102
RTVSPropertyOp7
 70
     1
102
RTVSPropertyOp8
 70
     1
102
RTVSPropertyOp9
 70
     1
102
RTVSPropertyOp10
 70
     1
102
RTVSPropertyOp11
 70
     1
102
RTVSPropertyOp12
 70
     1
102
RTVSPropertyOp13
 70
     1
102
RTVSPropertyOp14
 70
     1
102
RTVSPropertyOp15
 70
     1
102
RTVSPropertyOp16
 70
     1
102
RTVSPropertyOp17
 70
     1
102
RTVSPropertyOp18
 70
     1
102
RTVSPropertyOp19
 70
     1
102
RTVSPropertyOp20
 70
     1
102
RTVSPropertyOp21
 70
     1
102
RTVSPropertyOp22
 70
     1
102
RTVSPropertyOp23
 70
     1
102
RTVSPropertyOp24
 70
     1
102
RTVSPropertyOp25
 70
     1
102
RTVSPropertyOp26
 70
     1
102
RTVSPropertyOp27
 70
     1
102
RTVSPropertyOp28
 70
     1
102
RTVSPropertyOp29
 70
     1
102
RTVSPropertyOp30
 70
     1
102
RTVSPropertyOp31
 70
     1
102
RTVSPropertyOp32
 70
     1
102
RTVSPropertyOp33
 70
     1
102
RTVSPropertyOp34
 70
     1
102
RTVSPropertyOp35
 70
     1
102
RTVSPropertyOp36
 70
     1
102
RTVSPropertyOp37
 70
     1
102
RTVSPropertyOp38
 70
     1
102
RTVSPropertyOp39
 70
     1
102
RTVSPropertyOp40
 70
     1
102
RTVSPropertyOp41
 70
     1
102
RTVSPropertyOp42
 70
     1
102
RTVSPropertyOp43
 70
     1
102
RTVSPropertyOp44
 70
     1
102
RTVSPropertyOp45
 70
     1
102
RTVSPropertyOp46
 70
     1
102
RTVSPropertyOp47
 70
     1
102
RTVSPropertyOp48
 70
     1
102
RTVSPropertyOp49
 70
     1
102
RTVSPropertyOp50
 70
     1
102
RTVSPropertyOp51
 70
     0
102
RTVSPropertyOp52
 70
     0
102
RTVSPropertyOp53
 70
     1
102
RTVSPropertyOp54
 70
     1
102
RTVSPropertyOp55
 70
     1
102
RTVSPropertyOp56
 70
     1
102
RTVSPropertyOp57
 70
     1
102
RTVSPropertyOp58
 70
     1
102
RTVSPropertyOp59
 70
     1
102
RTVSPropertyOp60
 70
     1
102
RTVSPropertyOp61
 70
     1
102
RTVSPropertyOp62
 70
     1
  0
XRECORD
  5
89D8
102
{ACAD_REACTORS
330
89D7
102
}
330
89D7
100
AcDbXrecord
280
     1
102
RTVSPost2010Prop28
280
     0
102
RTVSPost2010PropOp28
 70
     1
102
RTVSPost2010Prop29
280
     1
102
RTVSPost2010PropOp29
 70
     1
102
RTVSPost2010Prop30
280
     1
102
RTVSPost2010PropOp30
 70
     1
102
RTVSPost2010Prop31
280
     0
102
RTVSPost2010PropOp31
 70
     1
102
RTVSPost2010Prop32
280
     0
102
RTVSPost2010PropOp32
 70
     1
102
RTVSPost2010Prop33
280
     0
102
RTVSPost2010PropOp33
 70
     1
102
RTVSPost2010Prop34
280
     0
102
RTVSPost2010PropOp34
 70
     1
102
RTVSPost2010Prop35
280
     0
102
RTVSPost2010PropOp35
 70
     1
102
RTVSPost2010Prop36
280
     0
102
RTVSPost2010PropOp36
 70
     1
102
RTVSPost2010Prop37
 90
       50
102
RTVSPost2010PropOp37
 70
     1
102
RTVSPost2010Prop38
140
0.0
102
RTVSPost2010PropOp38
 70
     1
102
RTVSPost2010Prop39
140
1.0
102
RTVSPost2010PropOp39
 70
     1
102
RTVSPost2010Prop40
 90
        0
102
RTVSPost2010PropOp40
 70
     1
102
RTVSPost2010Prop41ColorIndex
 90
       18
102
RTVSPost2010Prop41ColorRGB
 90
        0
102
RTVSPost2010PropOp41
 70
     1
102
RTVSPost2010Prop42
 90
       50
102
RTVSPost2010PropOp42
 70
     1
102
RTVSPost2010Prop43
 90
        3
102
RTVSPost2010PropOp43
 70
     1
102
RTVSPost2010Prop44ColorIndex
 90
        5
102
RTVSPost2010Prop44ColorRGB
 90
      255
102
RTVSPost2010PropOp44
 70
     1
102
RTVSPost2010Prop45
280
     0
102
RTVSPost2010PropOp45
 70
     1
102
RTVSPost2010Prop46
 90
       50
102
RTVSPost2010PropOp46
 70
     1
102
RTVSPost2010Prop47
 90
       50
102
RTVSPost2010PropOp47
 70
     1
102
RTVSPost2010Prop48
 90
       50
102
RTVSPost2010PropOp48
 70
     1
102
RTVSPost2010Prop49
280
     0
102
RTVSPost2010PropOp49
 70
     1
102
RTVSPost2010Prop50
 90
       50
102
RTVSPost2010PropOp50
 70
     1
102
RTVSPost2010Prop51ColorIndex
 90
      256
102
RTVSPost2010Prop51ColorRGB
 90
-16777216
102
RTVSPost2010PropOp51
 70
     0
102
RTVSPost2010Prop52
140
1.0
102
RTVSPost2010PropOp52
 70
     0
102
RTVSPost2010Prop53
 90
        2
102
RTVSPost2010PropOp53
 70
     1
102
RTVSPost2010Prop54
  1
strokes_ogs.tif
102
RTVSPost2010PropOp54
 70
     1
102
RTVSPost2010Prop55
280
     0
102
RTVSPost2010PropOp55
 70
     1
102
RTVSPost2010Prop56
140
1.0
102
RTVSPost2010PropOp56
 70
     1
102
RTVSPost2010Prop57
140
1.0
102
RTVSPost2010PropOp57
 70
     1
102
RTVSPropertyOp0
 70
     1
102
RTVSPropertyOp1
 70
     1
102
RTVSPropertyOp2
 70
     1
102
RTVSPropertyOp3
 70
     1
102
RTVSPropertyOp4
 70
     1
102
RTVSPropertyOp5
 70
     1
102
RTVSPropertyOp6
 70
     1
102
RTVSPropertyOp7
 70
     1
102
RTVSPropertyOp8
 70
     1
102
RTVSPropertyOp9
 70
     1
102
RTVSPropertyOp10
 70
     1
102
RTVSPropertyOp11
 70
     1
102
RTVSPropertyOp12
 70
     1
102
RTVSPropertyOp13
 70
     1
102
RTVSPropertyOp14
 70
     1
102
RTVSPropertyOp15
 70
     1
102
RTVSPropertyOp16
 70
     1
102
RTVSPropertyOp17
 70
     1
102
RTVSPropertyOp18
 70
     1
102
RTVSPropertyOp19
 70
     1
102
RTVSPropertyOp20
 70
     1
102
RTVSPropertyOp21
 70
     1
102
RTVSPropertyOp22
 70
     1
102
RTVSPropertyOp23
 70
     1
102
RTVSPropertyOp24
 70
     1
102
RTVSPropertyOp25
 70
     1
102
RTVSPropertyOp26
 70
     1
102
RTVSPropertyOp27
 70
     1
102
RTVSPropertyOp28
 70
     1
102
RTVSPropertyOp29
 70
     1
102
RTVSPropertyOp30
 70
     1
102
RTVSPropertyOp31
 70
     1
102
RTVSPropertyOp32
 70
     1
102
RTVSPropertyOp33
 70
     1
102
RTVSPropertyOp34
 70
     1
102
RTVSPropertyOp35
 70
     1
102
RTVSPropertyOp36
 70
     1
102
RTVSPropertyOp37
 70
     1
102
RTVSPropertyOp38
 70
     1
102
RTVSPropertyOp39
 70
     1
102
RTVSPropertyOp40
 70
     1
102
RTVSPropertyOp41
 70
     1
102
RTVSPropertyOp42
 70
     1
102
RTVSPropertyOp43
 70
     1
102
RTVSPropertyOp44
 70
     1
102
RTVSPropertyOp45
 70
     1
102
RTVSPropertyOp46
 70
     1
102
RTVSPropertyOp47
 70
     1
102
RTVSPropertyOp48
 70
     1
102
RTVSPropertyOp49
 70
     1
102
RTVSPropertyOp50
 70
     1
102
RTVSPropertyOp51
 70
     0
102
RTVSPropertyOp52
 70
     0
102
RTVSPropertyOp53
 70
     1
102
RTVSPropertyOp54
 70
     1
102
RTVSPropertyOp55
 70
     1
102
RTVSPropertyOp56
 70
     1
102
RTVSPropertyOp57
 70
     1
102
RTVSPropertyOp58
 70
     1
102
RTVSPropertyOp59
 70
     1
102
RTVSPropertyOp60
 70
     1
102
RTVSPropertyOp61
 70
     1
102
RTVSPropertyOp62
 70
     1
  0
XRECORD
  5
89D6
102
{ACAD_REACTORS
330
89D5
102
}
330
89D5
100
AcDbXrecord
280
     1
102
RTVSPost2010Prop28
280
     0
102
RTVSPost2010PropOp28
 70
     1
102
RTVSPost2010Prop29
280
     1
102
RTVSPost2010PropOp29
 70
     1
102
RTVSPost2010Prop30
280
     1
102
RTVSPost2010PropOp30
 70
     1
102
RTVSPost2010Prop31
280
     0
102
RTVSPost2010PropOp31
 70
     1
102
RTVSPost2010Prop32
280
     0
102
RTVSPost2010PropOp32
 70
     1
102
RTVSPost2010Prop33
280
     0
102
RTVSPost2010PropOp33
 70
     1
102
RTVSPost2010Prop34
280
     0
102
RTVSPost2010PropOp34
 70
     1
102
RTVSPost2010Prop35
280
     0
102
RTVSPost2010PropOp35
 70
     1
102
RTVSPost2010Prop36
280
     0
102
RTVSPost2010PropOp36
 70
     1
102
RTVSPost2010Prop37
 90
       50
102
RTVSPost2010PropOp37
 70
     1
102
RTVSPost2010Prop38
140
0.0
102
RTVSPost2010PropOp38
 70
     1
102
RTVSPost2010Prop39
140
1.0
102
RTVSPost2010PropOp39
 70
     1
102
RTVSPost2010Prop40
 90
        0
102
RTVSPost2010PropOp40
 70
     1
102
RTVSPost2010Prop41ColorIndex
 90
       18
102
RTVSPost2010Prop41ColorRGB
 90
        0
102
RTVSPost2010PropOp41
 70
     1
102
RTVSPost2010Prop42
 90
       50
102
RTVSPost2010PropOp42
 70
     1
102
RTVSPost2010Prop43
 90
        3
102
RTVSPost2010PropOp43
 70
     1
102
RTVSPost2010Prop44ColorIndex
 90
        5
102
RTVSPost2010Prop44ColorRGB
 90
      255
102
RTVSPost2010PropOp44
 70
     1
102
RTVSPost2010Prop45
280
     0
102
RTVSPost2010PropOp45
 70
     1
102
RTVSPost2010Prop46
 90
       50
102
RTVSPost2010PropOp46
 70
     1
102
RTVSPost2010Prop47
 90
       50
102
RTVSPost2010PropOp47
 70
     1
102
RTVSPost2010Prop48
 90
       50
102
RTVSPost2010PropOp48
 70
     1
102
RTVSPost2010Prop49
280
     0
102
RTVSPost2010PropOp49
 70
     1
102
RTVSPost2010Prop50
 90
       50
102
RTVSPost2010PropOp50
 70
     1
102
RTVSPost2010Prop51ColorIndex
 90
      256
102
RTVSPost2010Prop51ColorRGB
 90
-16777216
102
RTVSPost2010PropOp51
 70
     0
102
RTVSPost2010Prop52
140
1.0
102
RTVSPost2010PropOp52
 70
     0
102
RTVSPost2010Prop53
 90
        2
102
RTVSPost2010PropOp53
 70
     1
102
RTVSPost2010Prop54
  1
strokes_ogs.tif
102
RTVSPost2010PropOp54
 70
     1
102
RTVSPost2010Prop55
280
     0
102
RTVSPost2010PropOp55
 70
     1
102
RTVSPost2010Prop56
140
1.0
102
RTVSPost2010PropOp56
 70
     1
102
RTVSPost2010Prop57
140
1.0
102
RTVSPost2010PropOp57
 70
     1
102
RTVSPropertyOp0
 70
     1
102
RTVSPropertyOp1
 70
     1
102
RTVSPropertyOp2
 70
     1
102
RTVSPropertyOp3
 70
     1
102
RTVSPropertyOp4
 70
     1
102
RTVSPropertyOp5
 70
     1
102
RTVSPropertyOp6
 70
     1
102
RTVSPropertyOp7
 70
     1
102
RTVSPropertyOp8
 70
     1
102
RTVSPropertyOp9
 70
     1
102
RTVSPropertyOp10
 70
     1
102
RTVSPropertyOp11
 70
     1
102
RTVSPropertyOp12
 70
     1
102
RTVSPropertyOp13
 70
     1
102
RTVSPropertyOp14
 70
     1
102
RTVSPropertyOp15
 70
     1
102
RTVSPropertyOp16
 70
     1
102
RTVSPropertyOp17
 70
     1
102
RTVSPropertyOp18
 70
     1
102
RTVSPropertyOp19
 70
     1
102
RTVSPropertyOp20
 70
     1
102
RTVSPropertyOp21
 70
     1
102
RTVSPropertyOp22
 70
     1
102
RTVSPropertyOp23
 70
     1
102
RTVSPropertyOp24
 70
     1
102
RTVSPropertyOp25
 70
     1
102
RTVSPropertyOp26
 70
     1
102
RTVSPropertyOp27
 70
     1
102
RTVSPropertyOp28
 70
     1
102
RTVSPropertyOp29
 70
     1
102
RTVSPropertyOp30
 70
     1
102
RTVSPropertyOp31
 70
     1
102
RTVSPropertyOp32
 70
     1
102
RTVSPropertyOp33
 70
     1
102
RTVSPropertyOp34
 70
     1
102
RTVSPropertyOp35
 70
     1
102
RTVSPropertyOp36
 70
     1
102
RTVSPropertyOp37
 70
     1
102
RTVSPropertyOp38
 70
     1
102
RTVSPropertyOp39
 70
     1
102
RTVSPropertyOp40
 70
     1
102
RTVSPropertyOp41
 70
     1
102
RTVSPropertyOp42
 70
     1
102
RTVSPropertyOp43
 70
     1
102
RTVSPropertyOp44
 70
     1
102
RTVSPropertyOp45
 70
     1
102
RTVSPropertyOp46
 70
     1
102
RTVSPropertyOp47
 70
     1
102
RTVSPropertyOp48
 70
     1
102
RTVSPropertyOp49
 70
     1
102
RTVSPropertyOp50
 70
     1
102
RTVSPropertyOp51
 70
     0
102
RTVSPropertyOp52
 70
     0
102
RTVSPropertyOp53
 70
     1
102
RTVSPropertyOp54
 70
     1
102
RTVSPropertyOp55
 70
     1
102
RTVSPropertyOp56
 70
     1
102
RTVSPropertyOp57
 70
     1
102
RTVSPropertyOp58
 70
     1
102
RTVSPropertyOp59
 70
     1
102
RTVSPropertyOp60
 70
     1
102
RTVSPropertyOp61
 70
     1
102
RTVSPropertyOp62
 70
     1
  0
XRECORD
  5
89D0
102
{ACAD_REACTORS
330
89CF
102
}
330
89CF
100
AcDbXrecord
280
     1
102
RTVSPost2010Prop28
280
     0
102
RTVSPost2010PropOp28
 70
     1
102
RTVSPost2010Prop29
280
     1
102
RTVSPost2010PropOp29
 70
     1
102
RTVSPost2010Prop30
280
     1
102
RTVSPost2010PropOp30
 70
     1
102
RTVSPost2010Prop31
280
     0
102
RTVSPost2010PropOp31
 70
     1
102
RTVSPost2010Prop32
280
     0
102
RTVSPost2010PropOp32
 70
     1
102
RTVSPost2010Prop33
280
     0
102
RTVSPost2010PropOp33
 70
     1
102
RTVSPost2010Prop34
280
     0
102
RTVSPost2010PropOp34
 70
     1
102
RTVSPost2010Prop35
280
     0
102
RTVSPost2010PropOp35
 70
     1
102
RTVSPost2010Prop36
280
     0
102
RTVSPost2010PropOp36
 70
     1
102
RTVSPost2010Prop37
 90
       50
102
RTVSPost2010PropOp37
 70
     1
102
RTVSPost2010Prop38
140
0.0
102
RTVSPost2010PropOp38
 70
     1
102
RTVSPost2010Prop39
140
1.0
102
RTVSPost2010PropOp39
 70
     1
102
RTVSPost2010Prop40
 90
        0
102
RTVSPost2010PropOp40
 70
     1
102
RTVSPost2010Prop41ColorIndex
 90
       18
102
RTVSPost2010Prop41ColorRGB
 90
        0
102
RTVSPost2010PropOp41
 70
     1
102
RTVSPost2010Prop42
 90
       50
102
RTVSPost2010PropOp42
 70
     1
102
RTVSPost2010Prop43
 90
        3
102
RTVSPost2010PropOp43
 70
     1
102
RTVSPost2010Prop44ColorIndex
 90
        5
102
RTVSPost2010Prop44ColorRGB
 90
      255
102
RTVSPost2010PropOp44
 70
     1
102
RTVSPost2010Prop45
280
     0
102
RTVSPost2010PropOp45
 70
     1
102
RTVSPost2010Prop46
 90
       50
102
RTVSPost2010PropOp46
 70
     1
102
RTVSPost2010Prop47
 90
       50
102
RTVSPost2010PropOp47
 70
     1
102
RTVSPost2010Prop48
 90
       50
102
RTVSPost2010PropOp48
 70
     1
102
RTVSPost2010Prop49
280
     0
102
RTVSPost2010PropOp49
 70
     1
102
RTVSPost2010Prop50
 90
       50
102
RTVSPost2010PropOp50
 70
     1
102
RTVSPost2010Prop51ColorIndex
 90
      256
102
RTVSPost2010Prop51ColorRGB
 90
-16777216
102
RTVSPost2010PropOp51
 70
     0
102
RTVSPost2010Prop52
140
1.0
102
RTVSPost2010PropOp52
 70
     0
102
RTVSPost2010Prop53
 90
        2
102
RTVSPost2010PropOp53
 70
     1
102
RTVSPost2010Prop54
  1
strokes_ogs.tif
102
RTVSPost2010PropOp54
 70
     1
102
RTVSPost2010Prop55
280
     0
102
RTVSPost2010PropOp55
 70
     1
102
RTVSPost2010Prop56
140
1.0
102
RTVSPost2010PropOp56
 70
     1
102
RTVSPost2010Prop57
140
1.0
102
RTVSPost2010PropOp57
 70
     1
102
RTVSPropertyOp0
 70
     1
102
RTVSPropertyOp1
 70
     1
102
RTVSPropertyOp2
 70
     1
102
RTVSPropertyOp3
 70
     1
102
RTVSPropertyOp4
 70
     1
102
RTVSPropertyOp5
 70
     1
102
RTVSPropertyOp6
 70
     1
102
RTVSPropertyOp7
 70
     1
102
RTVSPropertyOp8
 70
     1
102
RTVSPropertyOp9
 70
     1
102
RTVSPropertyOp10
 70
     1
102
RTVSPropertyOp11
 70
     1
102
RTVSPropertyOp12
 70
     1
102
RTVSPropertyOp13
 70
     1
102
RTVSPropertyOp14
 70
     1
102
RTVSPropertyOp15
 70
     1
102
RTVSPropertyOp16
 70
     1
102
RTVSPropertyOp17
 70
     1
102
RTVSPropertyOp18
 70
     1
102
RTVSPropertyOp19
 70
     1
102
RTVSPropertyOp20
 70
     1
102
RTVSPropertyOp21
 70
     1
102
RTVSPropertyOp22
 70
     1
102
RTVSPropertyOp23
 70
     1
102
RTVSPropertyOp24
 70
     1
102
RTVSPropertyOp25
 70
     1
102
RTVSPropertyOp26
 70
     1
102
RTVSPropertyOp27
 70
     1
102
RTVSPropertyOp28
 70
     1
102
RTVSPropertyOp29
 70
     1
102
RTVSPropertyOp30
 70
     1
102
RTVSPropertyOp31
 70
     1
102
RTVSPropertyOp32
 70
     1
102
RTVSPropertyOp33
 70
     1
102
RTVSPropertyOp34
 70
     1
102
RTVSPropertyOp35
 70
     1
102
RTVSPropertyOp36
 70
     1
102
RTVSPropertyOp37
 70
     1
102
RTVSPropertyOp38
 70
     1
102
RTVSPropertyOp39
 70
     1
102
RTVSPropertyOp40
 70
     1
102
RTVSPropertyOp41
 70
     1
102
RTVSPropertyOp42
 70
     1
102
RTVSPropertyOp43
 70
     1
102
RTVSPropertyOp44
 70
     1
102
RTVSPropertyOp45
 70
     1
102
RTVSPropertyOp46
 70
     1
102
RTVSPropertyOp47
 70
     1
102
RTVSPropertyOp48
 70
     1
102
RTVSPropertyOp49
 70
     1
102
RTVSPropertyOp50
 70
     1
102
RTVSPropertyOp51
 70
     0
102
RTVSPropertyOp52
 70
     0
102
RTVSPropertyOp53
 70
     1
102
RTVSPropertyOp54
 70
     1
102
RTVSPropertyOp55
 70
     1
102
RTVSPropertyOp56
 70
     1
102
RTVSPropertyOp57
 70
     1
102
RTVSPropertyOp58
 70
     1
102
RTVSPropertyOp59
 70
     1
102
RTVSPropertyOp60
 70
     1
102
RTVSPropertyOp61
 70
     1
102
RTVSPropertyOp62
 70
     1
  0
XRECORD
  5
89D2
102
{ACAD_REACTORS
330
89D1
102
}
330
89D1
100
AcDbXrecord
280
     1
102
RTVSPost2010Prop28
280
     0
102
RTVSPost2010PropOp28
 70
     1
102
RTVSPost2010Prop29
280
     1
102
RTVSPost2010PropOp29
 70
     1
102
RTVSPost2010Prop30
280
     1
102
RTVSPost2010PropOp30
 70
     1
102
RTVSPost2010Prop31
280
     0
102
RTVSPost2010PropOp31
 70
     1
102
RTVSPost2010Prop32
280
     0
102
RTVSPost2010PropOp32
 70
     1
102
RTVSPost2010Prop33
280
     0
102
RTVSPost2010PropOp33
 70
     1
102
RTVSPost2010Prop34
280
     0
102
RTVSPost2010PropOp34
 70
     1
102
RTVSPost2010Prop35
280
     0
102
RTVSPost2010PropOp35
 70
     1
102
RTVSPost2010Prop36
280
     0
102
RTVSPost2010PropOp36
 70
     1
102
RTVSPost2010Prop37
 90
       50
102
RTVSPost2010PropOp37
 70
     1
102
RTVSPost2010Prop38
140
0.0
102
RTVSPost2010PropOp38
 70
     1
102
RTVSPost2010Prop39
140
1.0
102
RTVSPost2010PropOp39
 70
     1
102
RTVSPost2010Prop40
 90
        0
102
RTVSPost2010PropOp40
 70
     1
102
RTVSPost2010Prop41ColorIndex
 90
       18
102
RTVSPost2010Prop41ColorRGB
 90
        0
102
RTVSPost2010PropOp41
 70
     1
102
RTVSPost2010Prop42
 90
       50
102
RTVSPost2010PropOp42
 70
     1
102
RTVSPost2010Prop43
 90
        3
102
RTVSPost2010PropOp43
 70
     1
102
RTVSPost2010Prop44ColorIndex
 90
        5
102
RTVSPost2010Prop44ColorRGB
 90
      255
102
RTVSPost2010PropOp44
 70
     1
102
RTVSPost2010Prop45
280
     0
102
RTVSPost2010PropOp45
 70
     1
102
RTVSPost2010Prop46
 90
       50
102
RTVSPost2010PropOp46
 70
     1
102
RTVSPost2010Prop47
 90
       50
102
RTVSPost2010PropOp47
 70
     1
102
RTVSPost2010Prop48
 90
       50
102
RTVSPost2010PropOp48
 70
     1
102
RTVSPost2010Prop49
280
     0
102
RTVSPost2010PropOp49
 70
     1
102
RTVSPost2010Prop50
 90
       50
102
RTVSPost2010PropOp50
 70
     1
102
RTVSPost2010Prop51ColorIndex
 90
      256
102
RTVSPost2010Prop51ColorRGB
 90
-16777216
102
RTVSPost2010PropOp51
 70
     0
102
RTVSPost2010Prop52
140
1.0
102
RTVSPost2010PropOp52
 70
     0
102
RTVSPost2010Prop53
 90
        2
102
RTVSPost2010PropOp53
 70
     1
102
RTVSPost2010Prop54
  1
strokes_ogs.tif
102
RTVSPost2010PropOp54
 70
     1
102
RTVSPost2010Prop55
280
     0
102
RTVSPost2010PropOp55
 70
     1
102
RTVSPost2010Prop56
140
1.0
102
RTVSPost2010PropOp56
 70
     1
102
RTVSPost2010Prop57
140
1.0
102
RTVSPost2010PropOp57
 70
     1
102
RTVSPropertyOp0
 70
     1
102
RTVSPropertyOp1
 70
     1
102
RTVSPropertyOp2
 70
     1
102
RTVSPropertyOp3
 70
     1
102
RTVSPropertyOp4
 70
     1
102
RTVSPropertyOp5
 70
     1
102
RTVSPropertyOp6
 70
     1
102
RTVSPropertyOp7
 70
     1
102
RTVSPropertyOp8
 70
     1
102
RTVSPropertyOp9
 70
     1
102
RTVSPropertyOp10
 70
     1
102
RTVSPropertyOp11
 70
     1
102
RTVSPropertyOp12
 70
     1
102
RTVSPropertyOp13
 70
     1
102
RTVSPropertyOp14
 70
     1
102
RTVSPropertyOp15
 70
     1
102
RTVSPropertyOp16
 70
     1
102
RTVSPropertyOp17
 70
     1
102
RTVSPropertyOp18
 70
     1
102
RTVSPropertyOp19
 70
     1
102
RTVSPropertyOp20
 70
     1
102
RTVSPropertyOp21
 70
     1
102
RTVSPropertyOp22
 70
     1
102
RTVSPropertyOp23
 70
     1
102
RTVSPropertyOp24
 70
     1
102
RTVSPropertyOp25
 70
     1
102
RTVSPropertyOp26
 70
     1
102
RTVSPropertyOp27
 70
     1
102
RTVSPropertyOp28
 70
     1
102
RTVSPropertyOp29
 70
     1
102
RTVSPropertyOp30
 70
     1
102
RTVSPropertyOp31
 70
     1
102
RTVSPropertyOp32
 70
     1
102
RTVSPropertyOp33
 70
     1
102
RTVSPropertyOp34
 70
     1
102
RTVSPropertyOp35
 70
     1
102
RTVSPropertyOp36
 70
     1
102
RTVSPropertyOp37
 70
     1
102
RTVSPropertyOp38
 70
     1
102
RTVSPropertyOp39
 70
     1
102
RTVSPropertyOp40
 70
     1
102
RTVSPropertyOp41
 70
     1
102
RTVSPropertyOp42
 70
     1
102
RTVSPropertyOp43
 70
     1
102
RTVSPropertyOp44
 70
     1
102
RTVSPropertyOp45
 70
     1
102
RTVSPropertyOp46
 70
     1
102
RTVSPropertyOp47
 70
     1
102
RTVSPropertyOp48
 70
     1
102
RTVSPropertyOp49
 70
     1
102
RTVSPropertyOp50
 70
     1
102
RTVSPropertyOp51
 70
     0
102
RTVSPropertyOp52
 70
     0
102
RTVSPropertyOp53
 70
     1
102
RTVSPropertyOp54
 70
     1
102
RTVSPropertyOp55
 70
     1
102
RTVSPropertyOp56
 70
     1
102
RTVSPropertyOp57
 70
     1
102
RTVSPropertyOp58
 70
     1
102
RTVSPropertyOp59
 70
     1
102
RTVSPropertyOp60
 70
     1
102
RTVSPropertyOp61
 70
     1
102
RTVSPropertyOp62
 70
     1
  0
XRECORD
  5
89C8
102
{ACAD_REACTORS
330
89C7
102
}
330
89C7
100
AcDbXrecord
280
     1
102
RTVSPost2010Prop28
280
     0
102
RTVSPost2010PropOp28
 70
     1
102
RTVSPost2010Prop29
280
     1
102
RTVSPost2010PropOp29
 70
     1
102
RTVSPost2010Prop30
280
     1
102
RTVSPost2010PropOp30
 70
     1
102
RTVSPost2010Prop31
280
     0
102
RTVSPost2010PropOp31
 70
     1
102
RTVSPost2010Prop32
280
     0
102
RTVSPost2010PropOp32
 70
     1
102
RTVSPost2010Prop33
280
     0
102
RTVSPost2010PropOp33
 70
     1
102
RTVSPost2010Prop34
280
     0
102
RTVSPost2010PropOp34
 70
     1
102
RTVSPost2010Prop35
280
     0
102
RTVSPost2010PropOp35
 70
     1
102
RTVSPost2010Prop36
280
     0
102
RTVSPost2010PropOp36
 70
     1
102
RTVSPost2010Prop37
 90
       50
102
RTVSPost2010PropOp37
 70
     1
102
RTVSPost2010Prop38
140
0.0
102
RTVSPost2010PropOp38
 70
     1
102
RTVSPost2010Prop39
140
1.0
102
RTVSPost2010PropOp39
 70
     1
102
RTVSPost2010Prop40
 90
        0
102
RTVSPost2010PropOp40
 70
     1
102
RTVSPost2010Prop41ColorIndex
 90
       18
102
RTVSPost2010Prop41ColorRGB
 90
        0
102
RTVSPost2010PropOp41
 70
     1
102
RTVSPost2010Prop42
 90
       50
102
RTVSPost2010PropOp42
 70
     1
102
RTVSPost2010Prop43
 90
        3
102
RTVSPost2010PropOp43
 70
     1
102
RTVSPost2010Prop44ColorIndex
 90
        5
102
RTVSPost2010Prop44ColorRGB
 90
      255
102
RTVSPost2010PropOp44
 70
     1
102
RTVSPost2010Prop45
280
     0
102
RTVSPost2010PropOp45
 70
     1
102
RTVSPost2010Prop46
 90
       50
102
RTVSPost2010PropOp46
 70
     1
102
RTVSPost2010Prop47
 90
       50
102
RTVSPost2010PropOp47
 70
     1
102
RTVSPost2010Prop48
 90
       50
102
RTVSPost2010PropOp48
 70
     1
102
RTVSPost2010Prop49
280
     0
102
RTVSPost2010PropOp49
 70
     1
102
RTVSPost2010Prop50
 90
       50
102
RTVSPost2010PropOp50
 70
     1
102
RTVSPost2010Prop51ColorIndex
 90
      256
102
RTVSPost2010Prop51ColorRGB
 90
-16777216
102
RTVSPost2010PropOp51
 70
     0
102
RTVSPost2010Prop52
140
1.0
102
RTVSPost2010PropOp52
 70
     0
102
RTVSPost2010Prop53
 90
        2
102
RTVSPost2010PropOp53
 70
     1
102
RTVSPost2010Prop54
  1
strokes_ogs.tif
102
RTVSPost2010PropOp54
 70
     1
102
RTVSPost2010Prop55
280
     0
102
RTVSPost2010PropOp55
 70
     1
102
RTVSPost2010Prop56
140
1.0
102
RTVSPost2010PropOp56
 70
     1
102
RTVSPost2010Prop57
140
1.0
102
RTVSPost2010PropOp57
 70
     1
102
RTVSPropertyOp0
 70
     1
102
RTVSPropertyOp1
 70
     1
102
RTVSPropertyOp2
 70
     1
102
RTVSPropertyOp3
 70
     1
102
RTVSPropertyOp4
 70
     1
102
RTVSPropertyOp5
 70
     1
102
RTVSPropertyOp6
 70
     1
102
RTVSPropertyOp7
 70
     1
102
RTVSPropertyOp8
 70
     1
102
RTVSPropertyOp9
 70
     1
102
RTVSPropertyOp10
 70
     1
102
RTVSPropertyOp11
 70
     1
102
RTVSPropertyOp12
 70
     1
102
RTVSPropertyOp13
 70
     1
102
RTVSPropertyOp14
 70
     1
102
RTVSPropertyOp15
 70
     1
102
RTVSPropertyOp16
 70
     1
102
RTVSPropertyOp17
 70
     1
102
RTVSPropertyOp18
 70
     1
102
RTVSPropertyOp19
 70
     1
102
RTVSPropertyOp20
 70
     1
102
RTVSPropertyOp21
 70
     1
102
RTVSPropertyOp22
 70
     1
102
RTVSPropertyOp23
 70
     1
102
RTVSPropertyOp24
 70
     1
102
RTVSPropertyOp25
 70
     1
102
RTVSPropertyOp26
 70
     1
102
RTVSPropertyOp27
 70
     1
102
RTVSPropertyOp28
 70
     1
102
RTVSPropertyOp29
 70
     1
102
RTVSPropertyOp30
 70
     1
102
RTVSPropertyOp31
 70
     1
102
RTVSPropertyOp32
 70
     1
102
RTVSPropertyOp33
 70
     1
102
RTVSPropertyOp34
 70
     1
102
RTVSPropertyOp35
 70
     1
102
RTVSPropertyOp36
 70
     1
102
RTVSPropertyOp37
 70
     1
102
RTVSPropertyOp38
 70
     1
102
RTVSPropertyOp39
 70
     1
102
RTVSPropertyOp40
 70
     1
102
RTVSPropertyOp41
 70
     1
102
RTVSPropertyOp42
 70
     1
102
RTVSPropertyOp43
 70
     1
102
RTVSPropertyOp44
 70
     1
102
RTVSPropertyOp45
 70
     1
102
RTVSPropertyOp46
 70
     1
102
RTVSPropertyOp47
 70
     1
102
RTVSPropertyOp48
 70
     1
102
RTVSPropertyOp49
 70
     1
102
RTVSPropertyOp50
 70
     1
102
RTVSPropertyOp51
 70
     0
102
RTVSPropertyOp52
 70
     0
102
RTVSPropertyOp53
 70
     1
102
RTVSPropertyOp54
 70
     1
102
RTVSPropertyOp55
 70
     1
102
RTVSPropertyOp56
 70
     1
102
RTVSPropertyOp57
 70
     1
102
RTVSPropertyOp58
 70
     1
102
RTVSPropertyOp59
 70
     1
102
RTVSPropertyOp60
 70
     1
102
RTVSPropertyOp61
 70
     1
102
RTVSPropertyOp62
 70
     1
  0
XRECORD
  5
89BC
102
{ACAD_REACTORS
330
89BB
102
}
330
89BB
100
AcDbXrecord
280
     1
102
RTVSPost2010Prop28
280
     0
102
RTVSPost2010PropOp28
 70
     1
102
RTVSPost2010Prop29
280
     1
102
RTVSPost2010PropOp29
 70
     1
102
RTVSPost2010Prop30
280
     1
102
RTVSPost2010PropOp30
 70
     1
102
RTVSPost2010Prop31
280
     0
102
RTVSPost2010PropOp31
 70
     1
102
RTVSPost2010Prop32
280
     0
102
RTVSPost2010PropOp32
 70
     1
102
RTVSPost2010Prop33
280
     0
102
RTVSPost2010PropOp33
 70
     1
102
RTVSPost2010Prop34
280
     0
102
RTVSPost2010PropOp34
 70
     1
102
RTVSPost2010Prop35
280
     0
102
RTVSPost2010PropOp35
 70
     1
102
RTVSPost2010Prop36
280
     0
102
RTVSPost2010PropOp36
 70
     1
102
RTVSPost2010Prop37
 90
       50
102
RTVSPost2010PropOp37
 70
     1
102
RTVSPost2010Prop38
140
0.0
102
RTVSPost2010PropOp38
 70
     1
102
RTVSPost2010Prop39
140
1.0
102
RTVSPost2010PropOp39
 70
     1
102
RTVSPost2010Prop40
 90
        0
102
RTVSPost2010PropOp40
 70
     1
102
RTVSPost2010Prop41ColorIndex
 90
       18
102
RTVSPost2010Prop41ColorRGB
 90
        0
102
RTVSPost2010PropOp41
 70
     1
102
RTVSPost2010Prop42
 90
       50
102
RTVSPost2010PropOp42
 70
     1
102
RTVSPost2010Prop43
 90
        3
102
RTVSPost2010PropOp43
 70
     1
102
RTVSPost2010Prop44ColorIndex
 90
        5
102
RTVSPost2010Prop44ColorRGB
 90
      255
102
RTVSPost2010PropOp44
 70
     1
102
RTVSPost2010Prop45
280
     0
102
RTVSPost2010PropOp45
 70
     1
102
RTVSPost2010Prop46
 90
       50
102
RTVSPost2010PropOp46
 70
     1
102
RTVSPost2010Prop47
 90
       50
102
RTVSPost2010PropOp47
 70
     1
102
RTVSPost2010Prop48
 90
       50
102
RTVSPost2010PropOp48
 70
     1
102
RTVSPost2010Prop49
280
     0
102
RTVSPost2010PropOp49
 70
     1
102
RTVSPost2010Prop50
 90
       50
102
RTVSPost2010PropOp50
 70
     1
102
RTVSPost2010Prop51ColorIndex
 90
      256
102
RTVSPost2010Prop51ColorRGB
 90
-16777216
102
RTVSPost2010PropOp51
 70
     0
102
RTVSPost2010Prop52
140
1.0
102
RTVSPost2010PropOp52
 70
     0
102
RTVSPost2010Prop53
 90
        2
102
RTVSPost2010PropOp53
 70
     1
102
RTVSPost2010Prop54
  1
strokes_ogs.tif
102
RTVSPost2010PropOp54
 70
     1
102
RTVSPost2010Prop55
280
     0
102
RTVSPost2010PropOp55
 70
     1
102
RTVSPost2010Prop56
140
1.0
102
RTVSPost2010PropOp56
 70
     1
102
RTVSPost2010Prop57
140
1.0
102
RTVSPost2010PropOp57
 70
     1
102
RTVSPropertyOp0
 70
     1
102
RTVSPropertyOp1
 70
     1
102
RTVSPropertyOp2
 70
     1
102
RTVSPropertyOp3
 70
     1
102
RTVSPropertyOp4
 70
     1
102
RTVSPropertyOp5
 70
     1
102
RTVSPropertyOp6
 70
     1
102
RTVSPropertyOp7
 70
     1
102
RTVSPropertyOp8
 70
     1
102
RTVSPropertyOp9
 70
     1
102
RTVSPropertyOp10
 70
     1
102
RTVSPropertyOp11
 70
     1
102
RTVSPropertyOp12
 70
     1
102
RTVSPropertyOp13
 70
     1
102
RTVSPropertyOp14
 70
     1
102
RTVSPropertyOp15
 70
     1
102
RTVSPropertyOp16
 70
     1
102
RTVSPropertyOp17
 70
     1
102
RTVSPropertyOp18
 70
     1
102
RTVSPropertyOp19
 70
     1
102
RTVSPropertyOp20
 70
     1
102
RTVSPropertyOp21
 70
     1
102
RTVSPropertyOp22
 70
     1
102
RTVSPropertyOp23
 70
     1
102
RTVSPropertyOp24
 70
     1
102
RTVSPropertyOp25
 70
     1
102
RTVSPropertyOp26
 70
     1
102
RTVSPropertyOp27
 70
     1
102
RTVSPropertyOp28
 70
     1
102
RTVSPropertyOp29
 70
     1
102
RTVSPropertyOp30
 70
     1
102
RTVSPropertyOp31
 70
     1
102
RTVSPropertyOp32
 70
     1
102
RTVSPropertyOp33
 70
     1
102
RTVSPropertyOp34
 70
     1
102
RTVSPropertyOp35
 70
     1
102
RTVSPropertyOp36
 70
     1
102
RTVSPropertyOp37
 70
     1
102
RTVSPropertyOp38
 70
     1
102
RTVSPropertyOp39
 70
     1
102
RTVSPropertyOp40
 70
     1
102
RTVSPropertyOp41
 70
     1
102
RTVSPropertyOp42
 70
     1
102
RTVSPropertyOp43
 70
     1
102
RTVSPropertyOp44
 70
     1
102
RTVSPropertyOp45
 70
     1
102
RTVSPropertyOp46
 70
     1
102
RTVSPropertyOp47
 70
     1
102
RTVSPropertyOp48
 70
     1
102
RTVSPropertyOp49
 70
     1
102
RTVSPropertyOp50
 70
     1
102
RTVSPropertyOp51
 70
     0
102
RTVSPropertyOp52
 70
     0
102
RTVSPropertyOp53
 70
     1
102
RTVSPropertyOp54
 70
     1
102
RTVSPropertyOp55
 70
     1
102
RTVSPropertyOp56
 70
     1
102
RTVSPropertyOp57
 70
     1
102
RTVSPropertyOp58
 70
     1
102
RTVSPropertyOp59
 70
     1
102
RTVSPropertyOp60
 70
     1
102
RTVSPropertyOp61
 70
     1
102
RTVSPropertyOp62
 70
     1
  0
XRECORD
  5
89D4
102
{ACAD_REACTORS
330
89D3
102
}
330
89D3
100
AcDbXrecord
280
     1
102
RTVSPost2010Prop28
280
     0
102
RTVSPost2010PropOp28
 70
     1
102
RTVSPost2010Prop29
280
     1
102
RTVSPost2010PropOp29
 70
     1
102
RTVSPost2010Prop30
280
     1
102
RTVSPost2010PropOp30
 70
     1
102
RTVSPost2010Prop31
280
     0
102
RTVSPost2010PropOp31
 70
     1
102
RTVSPost2010Prop32
280
     0
102
RTVSPost2010PropOp32
 70
     1
102
RTVSPost2010Prop33
280
     0
102
RTVSPost2010PropOp33
 70
     1
102
RTVSPost2010Prop34
280
     0
102
RTVSPost2010PropOp34
 70
     1
102
RTVSPost2010Prop35
280
     0
102
RTVSPost2010PropOp35
 70
     1
102
RTVSPost2010Prop36
280
     0
102
RTVSPost2010PropOp36
 70
     1
102
RTVSPost2010Prop37
 90
       50
102
RTVSPost2010PropOp37
 70
     1
102
RTVSPost2010Prop38
140
0.0
102
RTVSPost2010PropOp38
 70
     1
102
RTVSPost2010Prop39
140
1.0
102
RTVSPost2010PropOp39
 70
     1
102
RTVSPost2010Prop40
 90
        0
102
RTVSPost2010PropOp40
 70
     1
102
RTVSPost2010Prop41ColorIndex
 90
       18
102
RTVSPost2010Prop41ColorRGB
 90
        0
102
RTVSPost2010PropOp41
 70
     1
102
RTVSPost2010Prop42
 90
       50
102
RTVSPost2010PropOp42
 70
     1
102
RTVSPost2010Prop43
 90
        3
102
RTVSPost2010PropOp43
 70
     1
102
RTVSPost2010Prop44ColorIndex
 90
        5
102
RTVSPost2010Prop44ColorRGB
 90
      255
102
RTVSPost2010PropOp44
 70
     1
102
RTVSPost2010Prop45
280
     0
102
RTVSPost2010PropOp45
 70
     1
102
RTVSPost2010Prop46
 90
       50
102
RTVSPost2010PropOp46
 70
     1
102
RTVSPost2010Prop47
 90
       50
102
RTVSPost2010PropOp47
 70
     1
102
RTVSPost2010Prop48
 90
       50
102
RTVSPost2010PropOp48
 70
     1
102
RTVSPost2010Prop49
280
     0
102
RTVSPost2010PropOp49
 70
     1
102
RTVSPost2010Prop50
 90
       50
102
RTVSPost2010PropOp50
 70
     1
102
RTVSPost2010Prop51ColorIndex
 90
      256
102
RTVSPost2010Prop51ColorRGB
 90
-16777216
102
RTVSPost2010PropOp51
 70
     0
102
RTVSPost2010Prop52
140
1.0
102
RTVSPost2010PropOp52
 70
     0
102
RTVSPost2010Prop53
 90
        2
102
RTVSPost2010PropOp53
 70
     1
102
RTVSPost2010Prop54
  1
strokes_ogs.tif
102
RTVSPost2010PropOp54
 70
     1
102
RTVSPost2010Prop55
280
     0
102
RTVSPost2010PropOp55
 70
     1
102
RTVSPost2010Prop56
140
1.0
102
RTVSPost2010PropOp56
 70
     1
102
RTVSPost2010Prop57
140
1.0
102
RTVSPost2010PropOp57
 70
     1
102
RTVSPropertyOp0
 70
     1
102
RTVSPropertyOp1
 70
     1
102
RTVSPropertyOp2
 70
     1
102
RTVSPropertyOp3
 70
     1
102
RTVSPropertyOp4
 70
     1
102
RTVSPropertyOp5
 70
     1
102
RTVSPropertyOp6
 70
     1
102
RTVSPropertyOp7
 70
     1
102
RTVSPropertyOp8
 70
     1
102
RTVSPropertyOp9
 70
     1
102
RTVSPropertyOp10
 70
     1
102
RTVSPropertyOp11
 70
     1
102
RTVSPropertyOp12
 70
     1
102
RTVSPropertyOp13
 70
     1
102
RTVSPropertyOp14
 70
     1
102
RTVSPropertyOp15
 70
     1
102
RTVSPropertyOp16
 70
     1
102
RTVSPropertyOp17
 70
     1
102
RTVSPropertyOp18
 70
     1
102
RTVSPropertyOp19
 70
     1
102
RTVSPropertyOp20
 70
     1
102
RTVSPropertyOp21
 70
     1
102
RTVSPropertyOp22
 70
     1
102
RTVSPropertyOp23
 70
     1
102
RTVSPropertyOp24
 70
     1
102
RTVSPropertyOp25
 70
     1
102
RTVSPropertyOp26
 70
     1
102
RTVSPropertyOp27
 70
     1
102
RTVSPropertyOp28
 70
     1
102
RTVSPropertyOp29
 70
     1
102
RTVSPropertyOp30
 70
     1
102
RTVSPropertyOp31
 70
     1
102
RTVSPropertyOp32
 70
     1
102
RTVSPropertyOp33
 70
     1
102
RTVSPropertyOp34
 70
     1
102
RTVSPropertyOp35
 70
     1
102
RTVSPropertyOp36
 70
     1
102
RTVSPropertyOp37
 70
     1
102
RTVSPropertyOp38
 70
     1
102
RTVSPropertyOp39
 70
     1
102
RTVSPropertyOp40
 70
     1
102
RTVSPropertyOp41
 70
     1
102
RTVSPropertyOp42
 70
     1
102
RTVSPropertyOp43
 70
     1
102
RTVSPropertyOp44
 70
     1
102
RTVSPropertyOp45
 70
     1
102
RTVSPropertyOp46
 70
     1
102
RTVSPropertyOp47
 70
     1
102
RTVSPropertyOp48
 70
     1
102
RTVSPropertyOp49
 70
     1
102
RTVSPropertyOp50
 70
     1
102
RTVSPropertyOp51
 70
     0
102
RTVSPropertyOp52
 70
     0
102
RTVSPropertyOp53
 70
     1
102
RTVSPropertyOp54
 70
     1
102
RTVSPropertyOp55
 70
     1
102
RTVSPropertyOp56
 70
     1
102
RTVSPropertyOp57
 70
     1
102
RTVSPropertyOp58
 70
     1
102
RTVSPropertyOp59
 70
     1
102
RTVSPropertyOp60
 70
     1
102
RTVSPropertyOp61
 70
     1
102
RTVSPropertyOp62
 70
     1
  0
ENDSEC
  0
EOF
