  0
SECTION
  2
HEADER
  9
$ACADVER
  1
AC1015
  9
$ACADMAINTVER
 70
    20
  9
$DWGCODEPAGE
  3
ANSI_932
  9
$INSBASE
 10
0.0
 20
0.0
 30
0.0
  9
$EXTMIN
 10
-0.2242870864283759
 20
-0.3150699547441036
 30
-0.0015258207003583
  9
$EXTMAX
 10
7350.224321312532
 20
10325.31511803427
 30
0.0000000349246037
  9
$LIMMIN
 10
0.0
 20
0.0
  9
$LIMMAX
 10
297.0
 20
210.0
  9
$ORTHOMODE
 70
     1
  9
$REGENMODE
 70
     1
  9
$FILLMODE
 70
     0
  9
$QTEXTMODE
 70
     0
  9
$MIRRTEXT
 70
     1
  9
$LTSCALE
 40
100.0
  9
$ATTMODE
 70
     1
  9
$TEXTSIZE
 40
180.0
  9
$TRACEWID
 40
0.05
  9
$TEXTSTYLE
  7
STANDARD
  9
$CLAYER
  8
3
  9
$CELTYPE
  6
ByLayer
  9
$CECOLOR
 62
   256
  9
$CELTSCALE
 40
1.0
  9
$DISPSILH
 70
     0
  9
$DIMSCALE
 40
35.0
  9
$DIMASZ
 40
2.0
  9
$DIMEXO
 40
0.5
  9
$DIMDLI
 40
10.0
  9
$DIMRND
 40
0.0
  9
$DIMDLE
 40
0.0
  9
$DIMEXE
 40
1.0
  9
$DIMTP
 40
1.0
  9
$DIMTM
 40
1.0
  9
$DIMTXT
 40
3.0
  9
$DIMCEN
 40
0.0
  9
$DIMTSZ
 40
0.0
  9
$DIMTOL
 70
     0
  9
$DIMLIM
 70
     0
  9
$DIMTIH
 70
     0
  9
$DIMTOH
 70
     0
  9
$DIMSE1
 70
     0
  9
$DIMSE2
 70
     0
  9
$DIMTAD
 70
     1
  9
$DIMZIN
 70
     8
  9
$DIMBLK
  1

  9
$DIMASO
 70
     1
  9
$DIMSHO
 70
     1
  9
$DIMPOST
  1

  9
$DIMAPOST
  1

  9
$DIMALT
 70
     0
  9
$DIMALTD
 70
     2
  9
$DIMALTF
 40
0.039
  9
$DIMLFAC
 40
1.0
  9
$DIMTOFL
 70
     1
  9
$DIMTVP
 40
0.0
  9
$DIMTIX
 70
     0
  9
$DIMSOXD
 70
     0
  9
$DIMSAH
 70
     1
  9
$DIMBLK1
  1
OPEN
  9
$DIMBLK2
  1
OPEN
  9
$DIMSTYLE
  2
IGA
  9
$DIMCLRD
 70
     0
  9
$DIMCLRE
 70
     0
  9
$DIMCLRT
 70
     0
  9
$DIMTFAC
 40
10.0
  9
$DIMGAP
 40
1.0
  9
$DIMJUST
 70
     0
  9
$DIMSD1
 70
     0
  9
$DIMSD2
 70
     0
  9
$DIMTOLJ
 70
     1
  9
$DIMTZIN
 70
     0
  9
$DIMALTZ
 70
     0
  9
$DIMALTTZ
 70
     0
  9
$DIMUPT
 70
     0
  9
$DIMDEC
 70
     4
  9
$DIMTDEC
 70
     4
  9
$DIMALTU
 70
     2
  9
$DIMALTTD
 70
     2
  9
$DIMTXSTY
  7
STANDARD
  9
$DIMAUNIT
 70
     0
  9
$DIMADEC
 70
     0
  9
$DIMALTRND
 40
0.0
  9
$DIMAZIN
 70
     0
  9
$DIMDSEP
 70
    46
  9
$DIMATFIT
 70
     3
  9
$DIMFRAC
 70
     0
  9
$DIMLDRBLK
  1
OPEN
  9
$DIMLUNIT
 70
     2
  9
$DIMLWD
 70
    -2
  9
$DIMLWE
 70
    -2
  9
$DIMTMOVE
 70
     0
  9
$LUNITS
 70
     2
  9
$LUPREC
 70
     3
  9
$SKETCHINC
 40
0.1
  9
$FILLETRAD
 40
50.0
  9
$AUNITS
 70
     0
  9
$AUPREC
 70
     0
  9
$MENU
  1
acad
  9
$ELEVATION
 40
0.0
  9
$PELEVATION
 40
0.0
  9
$THICKNESS
 40
0.0
  9
$LIMCHECK
 70
     0
  9
$CHAMFERA
 40
0.5
  9
$CHAMFERB
 40
0.5
  9
$CHAMFERC
 40
0.0
  9
$CHAMFERD
 40
0.0
  9
$SKPOLY
 70
     0
  9
$TDCREATE
 40
2451390.386212616
  9
$TDUCREATE
 40
2451390.011212616
  9
$TDUPDATE
 40
2460273.570890405
  9
$TDUUPDATE
 40
2460273.195890405
  9
$TDINDWG
 40
0.0206913079
  9
$TDUSRTIMER
 40
0.0206910880
  9
$USRTIMER
 70
     1
  9
$ANGBASE
 50
0.0
  9
$ANGDIR
 70
     0
  9
$PDMODE
 70
     0
  9
$PDSIZE
 40
0.0
  9
$PLINEWID
 40
0.0
  9
$SPLFRAME
 70
     0
  9
$SPLINETYPE
 70
     6
  9
$SPLINESEGS
 70
     8
  9
$HANDSEED
  5
8745
  9
$SURFTAB1
 70
     6
  9
$SURFTAB2
 70
     6
  9
$SURFTYPE
 70
     6
  9
$SURFU
 70
     6
  9
$SURFV
 70
     6
  9
$UCSBASE
  2

  9
$UCSNAME
  2

  9
$UCSORG
 10
0.0
 20
0.0
 30
0.0
  9
$UCSXDIR
 10
1.0
 20
0.0
 30
0.0
  9
$UCSYDIR
 10
0.0
 20
1.0
 30
0.0
  9
$UCSORTHOREF
  2

  9
$UCSORTHOVIEW
 70
     0
  9
$UCSORGTOP
 10
0.0
 20
0.0
 30
0.0
  9
$UCSORGBOTTOM
 10
0.0
 20
0.0
 30
0.0
  9
$UCSORGLEFT
 10
0.0
 20
0.0
 30
0.0
  9
$UCSORGRIGHT
 10
0.0
 20
0.0
 30
0.0
  9
$UCSORGFRONT
 10
0.0
 20
0.0
 30
0.0
  9
$UCSORGBACK
 10
0.0
 20
0.0
 30
0.0
  9
$PUCSBASE
  2

  9
$PUCSNAME
  2

  9
$PUCSORG
 10
0.0
 20
0.0
 30
0.0
  9
$PUCSXDIR
 10
1.0
 20
0.0
 30
0.0
  9
$PUCSYDIR
 10
0.0
 20
1.0
 30
0.0
  9
$PUCSORTHOREF
  2

  9
$PUCSORTHOVIEW
 70
     0
  9
$PUCSORGTOP
 10
0.0
 20
0.0
 30
0.0
  9
$PUCSORGBOTTOM
 10
0.0
 20
0.0
 30
0.0
  9
$PUCSORGLEFT
 10
0.0
 20
0.0
 30
0.0
  9
$PUCSORGRIGHT
 10
0.0
 20
0.0
 30
0.0
  9
$PUCSORGFRONT
 10
0.0
 20
0.0
 30
0.0
  9
$PUCSORGBACK
 10
0.0
 20
0.0
 30
0.0
  9
$USERI1
 70
     0
  9
$USERI2
 70
     0
  9
$USERI3
 70
     0
  9
$USERI4
 70
     0
  9
$USERI5
 70
     0
  9
$USERR1
 40
0.0
  9
$USERR2
 40
0.0
  9
$USERR3
 40
0.0
  9
$USERR4
 40
0.0
  9
$USERR5
 40
0.0
  9
$WORLDVIEW
 70
     1
  9
$SHADEDGE
 70
     3
  9
$SHADEDIF
 70
    70
  9
$TILEMODE
 70
     1
  9
$MAXACTVP
 70
    16
  9
$PINSBASE
 10
0.0
 20
0.0
 30
0.0
  9
$PLIMCHECK
 70
     0
  9
$PEXTMIN
 10
1.000000000000000E+20
 20
1.000000000000000E+20
 30
1.000000000000000E+20
  9
$PEXTMAX
 10
-1.000000000000000E+20
 20
-1.000000000000000E+20
 30
-1.000000000000000E+20
  9
$PLIMMIN
 10
0.0
 20
0.0
  9
$PLIMMAX
 10
12.0
 20
9.0
  9
$UNITMODE
 70
     0
  9
$VISRETAIN
 70
     0
  9
$PLINEGEN
 70
     0
  9
$PSLTSCALE
 70
     1
  9
$TREEDEPTH
 70
  3020
  9
$CMLSTYLE
  2
Standard
  9
$CMLJUST
 70
     0
  9
$CMLSCALE
 40
1.0
  9
$PROXYGRAPHICS
 70
     1
  9
$MEASUREMENT
 70
     0
  9
$CELWEIGHT
370
    -1
  9
$ENDCAPS
280
     0
  9
$JOINSTYLE
280
     0
  9
$LWDISPLAY
290
     0
  9
$INSUNITS
 70
     0
  9
$HYPERLINKBASE
  1

  9
$STYLESHEET
  1

  9
$XEDIT
290
     1
  9
$CEPSNTYPE
380
     0
  9
$PSTYLEMODE
290
     1
  9
$FINGERPRINTGUID
  2
{46081F0C-FD11-46A3-BE15-A57245ED892A}
  9
$VERSIONGUID
  2
{B6F43F00-3D50-43D3-8F0B-BF2FC884B7F6}
  9
$EXTNAMES
290
     1
  9
$PSVPSCALE
 40
0.0
  9
$OLESTARTUP
290
     0
  0
ENDSEC
  0
SECTION
  2
CLASSES
  0
CLASS
  1
ACDBDICTIONARYWDFLT
  2
AcDbDictionaryWithDefault
  3
ObjectDBX Classes
 90
        0
280
     0
281
     0
  0
CLASS
  1
MATERIAL
  2
AcDbMaterial
  3
ObjectDBX Classes
 90
     1153
280
     0
281
     0
  0
CLASS
  1
VISUALSTYLE
  2
AcDbVisualStyle
  3
ObjectDBX Classes
 90
     4095
280
     0
281
     0
  0
CLASS
  1
SCALE
  2
AcDbScale
  3
ObjectDBX Classes
 90
     1153
280
     0
281
     0
  0
CLASS
  1
TABLESTYLE
  2
AcDbTableStyle
  3
ObjectDBX Classes
 90
     4095
280
     0
281
     0
  0
CLASS
  1
MLEADERSTYLE
  2
AcDbMLeaderStyle
  3
ACDB_MLEADERSTYLE_CLASS
 90
     4095
280
     0
281
     0
  0
CLASS
  1
ACDBSECTIONVIEWSTYLE
  2
AcDbSectionViewStyle
  3
ObjectDBX Classes
 90
     1025
280
     0
281
     0
  0
CLASS
  1
ACDBDETAILVIEWSTYLE
  2
AcDbDetailViewStyle
  3
ObjectDBX Classes
 90
     1025
280
     0
281
     0
  0
CLASS
  1
SORTENTSTABLE
  2
AcDbSortentsTable
  3
ObjectDBX Classes
 90
        0
280
     0
281
     0
  0
CLASS
  1
DICTIONARYVAR
  2
AcDbDictionaryVar
  3
ObjectDBX Classes
 90
        0
280
     0
281
     0
  0
CLASS
  1
CELLSTYLEMAP
  2
AcDbCellStyleMap
  3
ObjectDBX Classes
 90
     1152
280
     0
281
     0
  0
CLASS
  1
ACDBPLACEHOLDER
  2
AcDbPlaceHolder
  3
ObjectDBX Classes
 90
        0
280
     0
281
     0
  0
CLASS
  1
LAYOUT
  2
AcDbLayout
  3
ObjectDBX Classes
 90
        0
280
     0
281
     0
  0
ENDSEC
  0
SECTION
  2
TABLES
  0
TABLE
  2
VPORT
  5
83CB
330
0
100
AcDbSymbolTable
 70
     1
  0
VPORT
  5
8437
330
83CB
100
AcDbSymbolTableRecord
100
AcDbViewportTableRecord
  2
*ACTIVE
 70
     0
 10
0.0
 20
0.0
 11
1.0
 21
1.0
 12
3675.000017113053
 22
5162.500024039763
 13
0.0
 23
0.0
 14
10.0
 24
10.0
 15
10.0
 25
10.0
 16
0.0
 26
0.0
 36
1.0
 17
0.0
 27
0.0
 37
0.0
 40
10391.74948481712
 41
2.050213675213675
 42
50.0
 43
0.0
 44
0.0
 50
0.0
 51
0.0
 71
     0
 72
   100
 73
     1
 74
     0
 75
     0
 76
     0
 77
     0
 78
     0
281
     0
 65
     1
110
0.0
120
0.0
130
0.0
111
1.0
121
0.0
131
0.0
112
0.0
122
1.0
132
0.0
 79
     0
146
0.0
1001
ACAD_NAV_VCDISPLAY
1070
     3
  0
ENDTAB
  0
TABLE
  2
LTYPE
  5
83C8
330
0
100
AcDbSymbolTable
 70
     3
  0
LTYPE
  5
841D
330
83C8
100
AcDbSymbolTableRecord
100
AcDbLinetypeTableRecord
  2
ByBlock
 70
     0
  3

 72
    65
 73
     0
 40
0.0
  0
LTYPE
  5
841E
330
83C8
100
AcDbSymbolTableRecord
100
AcDbLinetypeTableRecord
  2
ByLayer
 70
     0
  3

 72
    65
 73
     0
 40
0.0
  0
LTYPE
  5
841F
330
83C8
100
AcDbSymbolTableRecord
100
AcDbLinetypeTableRecord
  2
CONTINUOUS
 70
     0
  3
Solid line
 72
    65
 73
     0
 40
0.0
  0
LTYPE
  5
8438
330
83C8
100
AcDbSymbolTableRecord
100
AcDbLinetypeTableRecord
  2
CENTER
 70
     0
  3
____ _ ____ _ ____ _ ____ _ ____ _ ____ _ ____ 
 72
    65
 73
     4
 40
2.0
 49
1.25
 74
     0
 49
-0.25
 74
     0
 49
0.25
 74
     0
 49
-0.25
 74
     0
  0
ENDTAB
  0
TABLE
  2
LAYER
  5
83C5
330
0
100
AcDbSymbolTable
 70
     6
  0
LAYER
  5
8417
102
{ACAD_XDICTIONARY
360
86EF
102
}
330
83C5
100
AcDbSymbolTableRecord
100
AcDbLayerTableRecord
  2
0
 70
     0
 62
     7
  6
CONTINUOUS
370
    -3
390
83D2
  0
LAYER
  5
8436
102
{ACAD_XDICTIONARY
360
86F1
102
}
330
83C5
100
AcDbSymbolTableRecord
100
AcDbLayerTableRecord
  2
3
 70
     0
 62
     2
  6
CONTINUOUS
370
    -3
390
83D2
  0
LAYER
  5
8439
102
{ACAD_XDICTIONARY
360
86F3
102
}
330
83C5
100
AcDbSymbolTableRecord
100
AcDbLayerTableRecord
  2
2
 70
     0
 62
     3
  6
CENTER
370
    -3
390
83D2
  0
LAYER
  5
843A
102
{ACAD_XDICTIONARY
360
86F5
102
}
330
83C5
100
AcDbSymbolTableRecord
100
AcDbLayerTableRecord
  2
1
 70
     0
 62
     4
  6
CONTINUOUS
370
    -3
390
83D2
  0
LAYER
  5
843B
102
{ACAD_XDICTIONARY
360
86F7
102
}
330
83C5
100
AcDbSymbolTableRecord
100
AcDbLayerTableRecord
  2
4
 70
     0
 62
     7
  6
CONTINUOUS
370
    -3
390
83D2
  0
LAYER
  5
843C
330
83C5
100
AcDbSymbolTableRecord
100
AcDbLayerTableRecord
  2
DEFPOINTS
 70
     0
 62
     7
  6
CONTINUOUS
290
     0
370
    -3
390
83D2
  0
ENDTAB
  0
TABLE
  2
STYLE
  5
83C6
330
0
100
AcDbSymbolTable
 70
     2
  0
STYLE
  5
8418
330
83C6
100
AcDbSymbolTableRecord
100
AcDbTextStyleTableRecord
  2
STANDARD
 70
     0
 40
0.0
 41
1.0
 50
0.0
 71
     0
 42
180.0
  3
simplex.shx
  4
extfont.shx
  0
STYLE
  5
841C
330
83C6
100
AcDbSymbolTableRecord
100
AcDbTextStyleTableRecord
  2
Annotative
 70
     0
 40
0.0
 41
1.0
 50
0.0
 71
     0
 42
0.2
  3
txt
  4

1001
AcadAnnotative
1000
AnnotativeData
1002
{
1070
     1
1070
     1
1002
}
  0
ENDTAB
  0
TABLE
  2
VIEW
  5
83C9
330
0
100
AcDbSymbolTable
 70
     0
  0
ENDTAB
  0
TABLE
  2
UCS
  5
83CA
330
0
100
AcDbSymbolTable
 70
     0
  0
ENDTAB
  0
TABLE
  2
APPID
  5
83CC
330
0
100
AcDbSymbolTable
 70
     8
  0
APPID
  5
8419
330
83CC
100
AcDbSymbolTableRecord
100
AcDbRegAppTableRecord
  2
ACAD
 70
     0
  0
APPID
  5
8420
330
83CC
100
AcDbSymbolTableRecord
100
AcDbRegAppTableRecord
  2
AcadAnnotative
 70
     0
  0
APPID
  5
847F
330
83CC
100
AcDbSymbolTableRecord
100
AcDbRegAppTableRecord
  2
ACAD_DSTYLE_DIMJAG
 70
     0
  0
APPID
  5
8480
330
83CC
100
AcDbSymbolTableRecord
100
AcDbRegAppTableRecord
  2
ACAD_DSTYLE_DIMTALN
 70
     0
  0
APPID
  5
84C7
330
83CC
100
AcDbSymbolTableRecord
100
AcDbRegAppTableRecord
  2
AcadAnnoMonitorAlertIconDisabled
 70
     0
  0
APPID
  5
84C8
330
83CC
100
AcDbSymbolTableRecord
100
AcDbRegAppTableRecord
  2
ACAD_EXEMPT_FROM_CAD_STANDARDS
 70
     0
  0
APPID
  5
8703
330
83CC
100
AcDbSymbolTableRecord
100
AcDbRegAppTableRecord
  2
ACAD_NAV_VCDISPLAY
 70
     0
  0
APPID
  5
873C
330
83CC
100
AcDbSymbolTableRecord
100
AcDbRegAppTableRecord
  2
ACAD_MLEADERVER
 70
     0
  0
ENDTAB
  0
TABLE
  2
DIMSTYLE
  5
83CD
330
0
100
AcDbSymbolTable
 70
     3
100
AcDbDimStyleTable
 71
     1
340
843D
  0
DIMSTYLE
105
841A
102
{ACAD_REACTORS
330
81C7
330
81D4
330
81E1
330
81EE
102
}
330
83CD
100
AcDbSymbolTableRecord
100
AcDbDimStyleTableRecord
  2
Standard
 70
     0
340
8418
  0
DIMSTYLE
105
841B
330
83CD
100
AcDbSymbolTableRecord
100
AcDbDimStyleTableRecord
  2
Annotative
 70
     0
340
8418
1001
AcadAnnotative
1000
AnnotativeData
1002
{
1070
     1
1070
     1
1002
}
  0
DIMSTYLE
105
843D
102
{ACAD_REACTORS
330
8481
330
848E
330
849B
330
84A8
330
8516
330
8523
330
8530
330
853D
330
854A
330
8557
330
8564
330
8571
330
857E
330
858B
330
8598
330
85A5
330
85B7
330
85C9
102
}
330
83CD
100
AcDbSymbolTableRecord
100
AcDbDimStyleTableRecord
  2
IGA
 70
     0
 40
2.0
 41
2.0
 42
0.5
 43
10.0
 44
1.0
 47
1.0
 48
1.0
 73
     0
 74
     0
 77
     1
 78
     8
140
3.0
141
0.0
143
0.03937
146
10.0
147
1.0
173
     1
271
     3
272
     3
279
     2
284
     8
285
     8
286
     8
340
8418
  0
ENDTAB
  0
TABLE
  2
BLOCK_RECORD
  5
83C4
330
0
100
AcDbSymbolTable
 70
    48
  0
BLOCK_RECORD
  5
8432
102
{ACAD_XDICTIONARY
360
847B
102
}
330
83C4
100
AcDbSymbolTableRecord
100
AcDbBlockTableRecord
  2
*Model_Space
340
8435
  0
BLOCK_RECORD
  5
842E
330
83C4
100
AcDbSymbolTableRecord
100
AcDbBlockTableRecord
  2
*Paper_Space
340
8431
  0
BLOCK_RECORD
  5
8441
330
83C4
100
AcDbSymbolTableRecord
100
AcDbBlockTableRecord
  2
$MODEL_SPACE
340
0
  0
BLOCK_RECORD
  5
8443
330
83C4
100
AcDbSymbolTableRecord
100
AcDbBlockTableRecord
  2
$PAPER_SPACE
340
0
  0
BLOCK_RECORD
  5
8445
330
83C4
100
AcDbSymbolTableRecord
100
AcDbBlockTableRecord
  2
_OPEN
340
0
102
{BLKREFS
331
8345
331
8346
331
8551
331
8552
331
855E
331
855F
331
856B
331
856C
331
8578
331
8579
331
8585
331
8586
331
8592
331
8593
331
859F
331
85A0
331
834E
331
834F
331
84F1
331
84F2
331
84FA
331
84FB
331
8510
331
8511
331
851D
331
851E
331
852A
331
852B
331
8537
331
8538
331
8544
331
8545
331
8612
331
8613
331
8321
331
8322
331
832A
331
832B
331
8333
331
8334
331
833C
331
833D
331
8357
331
8358
331
8360
331
8361
331
83A0
331
8203
331
8204
331
8369
331
836A
331
8372
331
8373
331
837B
331
837C
331
8384
331
8385
331
838D
331
838E
331
8396
331
8397
331
839F
331
83AB
331
81C0
331
81C1
331
81CD
331
81CE
331
81DA
331
81DB
331
81E7
331
81E8
331
8488
331
8489
331
8495
331
8496
331
8686
331
86EB
102
}
  0
BLOCK_RECORD
  5
8447
330
83C4
100
AcDbSymbolTableRecord
100
AcDbBlockTableRecord
  2
YA_N
340
0
102
{BLKREFS
331
7C13
331
7C34
331
7C3D
331
7C69
331
7C93
102
}
  0
BLOCK_RECORD
  5
8449
330
83C4
100
AcDbSymbolTableRecord
100
AcDbBlockTableRecord
  2
*D4
340
0
  0
BLOCK_RECORD
  5
844B
330
83C4
100
AcDbSymbolTableRecord
100
AcDbBlockTableRecord
  2
*D5
340
0
  0
BLOCK_RECORD
  5
844D
330
83C4
100
AcDbSymbolTableRecord
100
AcDbBlockTableRecord
  2
*D6
340
0
  0
BLOCK_RECORD
  5
844F
330
83C4
100
AcDbSymbolTableRecord
100
AcDbBlockTableRecord
  2
*D7
340
0
  0
BLOCK_RECORD
  5
8451
330
83C4
100
AcDbSymbolTableRecord
100
AcDbBlockTableRecord
  2
*D8
340
0
  0
BLOCK_RECORD
  5
8453
330
83C4
100
AcDbSymbolTableRecord
100
AcDbBlockTableRecord
  2
*D9
340
0
  0
BLOCK_RECORD
  5
8455
330
83C4
100
AcDbSymbolTableRecord
100
AcDbBlockTableRecord
  2
*D10
340
0
  0
BLOCK_RECORD
  5
8457
330
83C4
100
AcDbSymbolTableRecord
100
AcDbBlockTableRecord
  2
*D11
340
0
  0
BLOCK_RECORD
  5
8459
330
83C4
100
AcDbSymbolTableRecord
100
AcDbBlockTableRecord
  2
*D12
340
0
  0
BLOCK_RECORD
  5
845B
330
83C4
100
AcDbSymbolTableRecord
100
AcDbBlockTableRecord
  2
*D13
340
0
  0
BLOCK_RECORD
  5
845D
330
83C4
100
AcDbSymbolTableRecord
100
AcDbBlockTableRecord
  2
*D14
340
0
  0
BLOCK_RECORD
  5
845F
330
83C4
100
AcDbSymbolTableRecord
100
AcDbBlockTableRecord
  2
*D15
340
0
  0
BLOCK_RECORD
  5
8461
330
83C4
100
AcDbSymbolTableRecord
100
AcDbBlockTableRecord
  2
*D16
340
0
  0
BLOCK_RECORD
  5
8463
330
83C4
100
AcDbSymbolTableRecord
100
AcDbBlockTableRecord
  2
*D17
340
0
  0
BLOCK_RECORD
  5
8465
330
83C4
100
AcDbSymbolTableRecord
100
AcDbBlockTableRecord
  2
*D18
340
0
  0
BLOCK_RECORD
  5
8467
330
83C4
100
AcDbSymbolTableRecord
100
AcDbBlockTableRecord
  2
*D19
340
0
  0
BLOCK_RECORD
  5
8469
330
83C4
100
AcDbSymbolTableRecord
100
AcDbBlockTableRecord
  2
_DOT
340
0
102
{BLKREFS
331
83AA
102
}
  0
BLOCK_RECORD
  5
846B
330
83C4
100
AcDbSymbolTableRecord
100
AcDbBlockTableRecord
  2
*D21
340
0
  0
BLOCK_RECORD
  5
846D
330
83C4
100
AcDbSymbolTableRecord
100
AcDbBlockTableRecord
  2
*D22
340
0
  0
BLOCK_RECORD
  5
846F
330
83C4
100
AcDbSymbolTableRecord
100
AcDbBlockTableRecord
  2
*D23
340
0
  0
BLOCK_RECORD
  5
8471
330
83C4
100
AcDbSymbolTableRecord
100
AcDbBlockTableRecord
  2
*D24
340
0
  0
BLOCK_RECORD
  5
8473
330
83C4
100
AcDbSymbolTableRecord
100
AcDbBlockTableRecord
  2
_NONE
340
0
  0
BLOCK_RECORD
  5
8475
330
83C4
100
AcDbSymbolTableRecord
100
AcDbBlockTableRecord
  2
*D26
340
0
  0
BLOCK_RECORD
  5
8477
330
83C4
100
AcDbSymbolTableRecord
100
AcDbBlockTableRecord
  2
*D27
340
0
  0
BLOCK_RECORD
  5
8482
330
83C4
100
AcDbSymbolTableRecord
100
AcDbBlockTableRecord
  2
*D28
340
0
  0
BLOCK_RECORD
  5
848F
330
83C4
100
AcDbSymbolTableRecord
100
AcDbBlockTableRecord
  2
*D29
340
0
  0
BLOCK_RECORD
  5
849C
330
83C4
100
AcDbSymbolTableRecord
100
AcDbBlockTableRecord
  2
*D30
340
0
  0
BLOCK_RECORD
  5
84A9
330
83C4
100
AcDbSymbolTableRecord
100
AcDbBlockTableRecord
  2
*D31
340
0
  0
BLOCK_RECORD
  5
8501
330
83C4
100
AcDbSymbolTableRecord
100
AcDbBlockTableRecord
  2
*D32
340
0
  0
BLOCK_RECORD
  5
8517
330
83C4
100
AcDbSymbolTableRecord
100
AcDbBlockTableRecord
  2
*D33
340
0
  0
BLOCK_RECORD
  5
8524
330
83C4
100
AcDbSymbolTableRecord
100
AcDbBlockTableRecord
  2
*D34
340
0
  0
BLOCK_RECORD
  5
8531
330
83C4
100
AcDbSymbolTableRecord
100
AcDbBlockTableRecord
  2
*D35
340
0
  0
BLOCK_RECORD
  5
853E
330
83C4
100
AcDbSymbolTableRecord
100
AcDbBlockTableRecord
  2
*D36
340
0
  0
BLOCK_RECORD
  5
854B
330
83C4
100
AcDbSymbolTableRecord
100
AcDbBlockTableRecord
  2
*D37
340
0
  0
BLOCK_RECORD
  5
8558
330
83C4
100
AcDbSymbolTableRecord
100
AcDbBlockTableRecord
  2
*D38
340
0
  0
BLOCK_RECORD
  5
8565
330
83C4
100
AcDbSymbolTableRecord
100
AcDbBlockTableRecord
  2
*D39
340
0
  0
BLOCK_RECORD
  5
8572
330
83C4
100
AcDbSymbolTableRecord
100
AcDbBlockTableRecord
  2
*D40
340
0
  0
BLOCK_RECORD
  5
857F
330
83C4
100
AcDbSymbolTableRecord
100
AcDbBlockTableRecord
  2
*D41
340
0
  0
BLOCK_RECORD
  5
858C
330
83C4
100
AcDbSymbolTableRecord
100
AcDbBlockTableRecord
  2
*D42
340
0
  0
BLOCK_RECORD
  5
8599
330
83C4
100
AcDbSymbolTableRecord
100
AcDbBlockTableRecord
  2
*D43
340
0
  0
BLOCK_RECORD
  5
85A6
330
83C4
100
AcDbSymbolTableRecord
100
AcDbBlockTableRecord
  2
*D44
340
0
  0
BLOCK_RECORD
  5
85B8
330
83C4
100
AcDbSymbolTableRecord
100
AcDbBlockTableRecord
  2
*D45
340
0
  0
BLOCK_RECORD
  5
85CA
330
83C4
100
AcDbSymbolTableRecord
100
AcDbBlockTableRecord
  2
*D46
340
0
  0
BLOCK_RECORD
  5
8679
330
83C4
100
AcDbSymbolTableRecord
100
AcDbBlockTableRecord
  2
_DotSmall
340
0
102
{BLKREFS
331
8687
331
86EA
102
}
  0
ENDTAB
  0
ENDSEC
  0
SECTION
  2
BLOCKS
  0
BLOCK
  5
8433
330
8432
100
AcDbEntity
  8
0
100
AcDbBlockBegin
  2
*Model_Space
 70
     0
 10
0.0
 20
0.0
 30
0.0
  3
*Model_Space
  1

  0
ENDBLK
  5
8434
330
8432
100
AcDbEntity
  8
0
100
AcDbBlockEnd
  0
BLOCK
  5
842F
330
842E
100
AcDbEntity
 67
     1
  8
0
100
AcDbBlockBegin
  2
*Paper_Space
 70
     0
 10
0.0
 20
0.0
 30
0.0
  3
*Paper_Space
  1

  0
ENDBLK
  5
8430
330
842E
100
AcDbEntity
 67
     1
  8
0
100
AcDbBlockEnd
  0
BLOCK
  5
8442
330
8441
100
AcDbEntity
  8
0
100
AcDbBlockBegin
  2
$MODEL_SPACE
 70
     0
 10
0.0
 20
0.0
 30
0.0
  3
$MODEL_SPACE
  1

  0
ENDBLK
  5
1B
330
8441
100
AcDbEntity
  8
0
100
AcDbBlockEnd
  0
BLOCK
  5
8444
330
8443
100
AcDbEntity
  8
0
100
AcDbBlockBegin
  2
$PAPER_SPACE
 70
     0
 10
0.0
 20
0.0
 30
0.0
  3
$PAPER_SPACE
  1

  0
ENDBLK
  5
18
330
8443
100
AcDbEntity
  8
0
100
AcDbBlockEnd
  0
BLOCK
  5
8446
330
8445
100
AcDbEntity
  8
0
100
AcDbBlockBegin
  2
_OPEN
 70
     0
 10
0.0
 20
0.0
 30
0.0
  3
_OPEN
  1

  0
LINE
  5
79FD
330
8445
100
AcDbEntity
  8
0
  6
ByBlock
 62
     0
100
AcDbLine
 10
-1.0
 20
0.1666666666666666
 30
0.0
 11
0.0
 21
0.0
 31
0.0
  0
LINE
  5
79FE
330
8445
100
AcDbEntity
  8
0
  6
ByBlock
 62
     0
100
AcDbLine
 10
0.0
 20
0.0
 30
0.0
 11
-1.0
 21
-0.1666666666666666
 31
0.0
  0
LINE
  5
79FF
330
8445
100
AcDbEntity
  8
0
  6
ByBlock
 62
     0
100
AcDbLine
 10
0.0
 20
0.0
 30
0.0
 11
-1.0
 21
0.0
 31
0.0
  0
ENDBLK
  5
7A01
330
8445
100
AcDbEntity
  8
0
100
AcDbBlockEnd
  0
BLOCK
  5
8448
330
8447
100
AcDbEntity
  8
0
100
AcDbBlockBegin
  2
YA_N
 70
     0
 10
0.0
 20
0.0
 30
0.0
  3
YA_N
  1

  0
ENDBLK
  5
7A0C
330
8447
100
AcDbEntity
  8
0
100
AcDbBlockEnd
  0
BLOCK
  5
844A
330
8449
100
AcDbEntity
  8
0
100
AcDbBlockBegin
  2
*D4
 70
     1
 10
0.0
 20
0.0
 30
0.0
  3
*D4
  1

  0
LINE
  5
831E
330
8449
100
AcDbEntity
  8
3
 62
     0
100
AcDbLine
 10
3401.562617025251
 20
4554.192209343379
 30
0.0
 11
3619.170933309518
 21
4554.192209343379
 31
0.0
  0
LINE
  5
831F
330
8449
100
AcDbEntity
  8
3
 62
     0
100
AcDbLine
 10
3401.562617025251
 20
3404.192209343379
 30
0.0
 11
3619.170933309518
 21
3404.192209343379
 31
0.0
  0
LINE
  5
8320
330
8449
100
AcDbEntity
  8
3
 62
     0
100
AcDbLine
 10
3584.170933309517
 20
4484.192209343379
 30
0.0
 11
3584.170933309517
 21
3474.192209343379
 31
0.0
  0
INSERT
  5
8321
330
8449
100
AcDbEntity
  8
3
 62
     0
100
AcDbBlockReference
  2
_OPEN
 10
3584.170933309517
 20
4554.192209343379
 30
0.0
 41
70.0
 42
70.0
 43
70.0
 50
90.0
  0
INSERT
  5
8322
330
8449
100
AcDbEntity
  8
3
 62
     0
100
AcDbBlockReference
  2
_OPEN
 10
3584.170933309517
 20
3404.192209343379
 30
0.0
 41
70.0
 42
70.0
 43
70.0
 50
270.0
  0
TEXT
  5
83B3
330
8449
100
AcDbEntity
  8
3
 62
     0
100
AcDbText
 10
3286.67
 20
3793.34
 30
0.0
 40
105.0
  1
1150
100
AcDbText
  0
POINT
  5
8324
330
8449
100
AcDbEntity
  8
DEFPOINTS
 62
     0
100
AcDbPoint
 10
3384.062617025249
 20
4554.192209343379
 30
0.0
  0
POINT
  5
8325
330
8449
100
AcDbEntity
  8
DEFPOINTS
 62
     0
100
AcDbPoint
 10
3384.062617025249
 20
3404.192209343379
 30
0.0
  0
POINT
  5
8326
330
8449
100
AcDbEntity
  8
DEFPOINTS
 62
     0
100
AcDbPoint
 10
3584.170933309517
 20
3404.192209343379
 30
0.0
  0
ENDBLK
  5
7F74
330
8449
100
AcDbEntity
  8
0
100
AcDbBlockEnd
  0
BLOCK
  5
844C
330
844B
100
AcDbEntity
  8
0
100
AcDbBlockBegin
  2
*D5
 70
     1
 10
0.0
 20
0.0
 30
0.0
  3
*D5
  1

  0
LINE
  5
8327
330
844B
100
AcDbEntity
  8
3
 62
     0
100
AcDbLine
 10
3401.562617025251
 20
4554.192209343379
 30
0.0
 11
3819.32258417102
 21
4554.192209343379
 31
0.0
  0
LINE
  5
8328
330
844B
100
AcDbEntity
  8
3
 62
     0
100
AcDbLine
 10
3487.401617923984
 20
3356.192209343378
 30
0.0
 11
3819.32258417102
 21
3356.192209343378
 31
0.0
  0
LINE
  5
8329
330
844B
100
AcDbEntity
  8
3
 62
     0
100
AcDbLine
 10
3784.322584171019
 20
4484.192209343379
 30
0.0
 11
3784.322584171019
 21
3426.192209343378
 31
0.0
  0
INSERT
  5
832A
330
844B
100
AcDbEntity
  8
3
 62
     0
100
AcDbBlockReference
  2
_OPEN
 10
3784.322584171019
 20
4554.192209343379
 30
0.0
 41
70.0
 42
70.0
 43
70.0
 50
90.0
  0
INSERT
  5
832B
330
844B
100
AcDbEntity
  8
3
 62
     0
100
AcDbBlockReference
  2
_OPEN
 10
3784.322584171019
 20
3356.192209343378
 30
0.0
 41
70.0
 42
70.0
 43
70.0
 50
270.0
  0
TEXT
  5
83B4
330
844B
100
AcDbEntity
  8
3
 62
     0
100
AcDbText
 10
3486.82
 20
3769.340000000001
 30
0.0
 40
105.0
  1
1198
100
AcDbText
  0
POINT
  5
832D
330
844B
100
AcDbEntity
  8
DEFPOINTS
 62
     0
100
AcDbPoint
 10
3384.062617025249
 20
4554.192209343379
 30
0.0
  0
POINT
  5
832E
330
844B
100
AcDbEntity
  8
DEFPOINTS
 62
     0
100
AcDbPoint
 10
3469.901617923984
 20
3356.192209343378
 30
0.0
  0
POINT
  5
832F
330
844B
100
AcDbEntity
  8
DEFPOINTS
 62
     0
100
AcDbPoint
 10
3784.322584171019
 20
3356.192209343378
 30
0.0
  0
ENDBLK
  5
7F7F
330
844B
100
AcDbEntity
  8
0
100
AcDbBlockEnd
  0
BLOCK
  5
844E
330
844D
100
AcDbEntity
  8
0
100
AcDbBlockBegin
  2
*D6
 70
     1
 10
0.0
 20
0.0
 30
0.0
  3
*D6
  1

  0
LINE
  5
8330
330
844D
100
AcDbEntity
  8
3
 62
     0
100
AcDbLine
 10
3384.062617025249
 20
4624.692209343378
 30
0.0
 11
3384.062617025249
 21
4845.525596269836
 31
0.0
  0
LINE
  5
8331
330
844D
100
AcDbEntity
  8
3
 62
     0
100
AcDbLine
 10
2624.062617025249
 20
4687.605732334349
 30
0.0
 11
2624.062617025249
 21
4845.525596269836
 31
0.0
  0
LINE
  5
8332
330
844D
100
AcDbEntity
  8
3
 62
     0
100
AcDbLine
 10
3314.062617025251
 20
4810.525596269836
 30
0.0
 11
2694.062617025251
 21
4810.525596269836
 31
0.0
  0
INSERT
  5
8333
330
844D
100
AcDbEntity
  8
3
 62
     0
100
AcDbBlockReference
  2
_OPEN
 10
3384.062617025249
 20
4810.525596269836
 30
0.0
 41
70.0
 42
70.0
 43
70.0
  0
INSERT
  5
8334
330
844D
100
AcDbEntity
  8
3
 62
     0
100
AcDbBlockReference
  2
_OPEN
 10
2624.062617025249
 20
4810.525596269836
 30
0.0
 41
70.0
 42
70.0
 43
70.0
 50
180.0
  0
TEXT
  5
83B5
330
844D
100
AcDbEntity
  8
3
 62
     0
100
AcDbText
 10
2794.06
 20
4712.18
 30
0.0
 40
105.0
  1
760
100
AcDbText
  0
POINT
  5
8336
330
844D
100
AcDbEntity
  8
DEFPOINTS
 62
     0
100
AcDbPoint
 10
3384.062617025249
 20
4607.192209343378
 30
0.0
  0
POINT
  5
8337
330
844D
100
AcDbEntity
  8
DEFPOINTS
 62
     0
100
AcDbPoint
 10
2624.062617025249
 20
4670.105732334348
 30
0.0
  0
POINT
  5
8338
330
844D
100
AcDbEntity
  8
DEFPOINTS
 62
     0
100
AcDbPoint
 10
2624.062617025249
 20
4810.525596269836
 30
0.0
  0
ENDBLK
  5
819E
330
844D
100
AcDbEntity
  8
0
100
AcDbBlockEnd
  0
BLOCK
  5
8450
330
844F
100
AcDbEntity
  8
0
100
AcDbBlockBegin
  2
*D7
 70
     1
 10
0.0
 20
0.0
 30
0.0
  3
*D7
  1

  0
LINE
  5
8339
330
844F
100
AcDbEntity
  8
3
 62
     0
100
AcDbLine
 10
2624.062617025249
 20
4687.605732334349
 30
0.0
 11
2624.062617025249
 21
4845.525596269836
 31
0.0
  0
LINE
  5
833A
330
844F
100
AcDbEntity
  8
3
 62
     0
100
AcDbLine
 10
1658.861054526632
 20
3373.692209343379
 30
0.0
 11
1658.861054526632
 21
4845.525596269836
 31
0.0
  0
LINE
  5
833B
330
844F
100
AcDbEntity
  8
3
 62
     0
100
AcDbLine
 10
2554.06261702525
 20
4810.525596269836
 30
0.0
 11
1728.861054526633
 21
4810.525596269836
 31
0.0
  0
INSERT
  5
833C
330
844F
100
AcDbEntity
  8
3
 62
     0
100
AcDbBlockReference
  2
_OPEN
 10
2624.062617025249
 20
4810.525596269836
 30
0.0
 41
70.0
 42
70.0
 43
70.0
  0
INSERT
  5
833D
330
844F
100
AcDbEntity
  8
3
 62
     0
100
AcDbBlockReference
  2
_OPEN
 10
1658.861054526632
 20
4810.525596269836
 30
0.0
 41
70.0
 42
70.0
 43
70.0
 50
180.0
  0
TEXT
  5
83B6
330
844F
100
AcDbEntity
  8
3
 62
     0
100
AcDbText
 10
1931.46
 20
4712.18
 30
0.0
 40
105.0
  1
969
100
AcDbText
  0
POINT
  5
833F
330
844F
100
AcDbEntity
  8
DEFPOINTS
 62
     0
100
AcDbPoint
 10
2624.062617025249
 20
4670.105732334348
 30
0.0
  0
POINT
  5
8340
330
844F
100
AcDbEntity
  8
DEFPOINTS
 62
     0
100
AcDbPoint
 10
1658.861054526632
 20
3356.19220934338
 30
0.0
  0
POINT
  5
8341
330
844F
100
AcDbEntity
  8
DEFPOINTS
 62
     0
100
AcDbPoint
 10
1658.861054526632
 20
4810.525596269836
 30
0.0
  0
ENDBLK
  5
81A9
330
844F
100
AcDbEntity
  8
0
100
AcDbBlockEnd
  0
BLOCK
  5
8452
330
8451
100
AcDbEntity
  8
0
100
AcDbBlockBegin
  2
*D8
 70
     1
 10
0.0
 20
0.0
 30
0.0
  3
*D8
  1

  0
LINE
  5
8342
330
8451
100
AcDbEntity
  8
3
 62
     0
100
AcDbLine
 10
4893.752841307505
 20
4560.353830076209
 30
0.0
 11
4893.752841307505
 21
4842.631848395775
 31
0.0
  0
LINE
  5
8343
330
8451
100
AcDbEntity
  8
3
 62
     0
100
AcDbLine
 10
6393.752841307505
 20
4554.504893414596
 30
0.0
 11
6393.752841307505
 21
4842.631848395775
 31
0.0
  0
LINE
  5
8344
330
8451
100
AcDbEntity
  8
3
 62
     0
100
AcDbLine
 10
4963.752841307505
 20
4807.631848395777
 30
0.0
 11
6323.752841307506
 21
4807.631848395777
 31
0.0
  0
INSERT
  5
8345
330
8451
100
AcDbEntity
  8
3
 62
     0
100
AcDbBlockReference
  2
_OPEN
 10
4893.752841307505
 20
4807.631848395777
 30
0.0
 41
70.0
 42
70.0
 43
70.0
 50
180.0
  0
INSERT
  5
8346
330
8451
100
AcDbEntity
  8
3
 62
     0
100
AcDbBlockReference
  2
_OPEN
 10
6393.752841307505
 20
4807.631848395777
 30
0.0
 41
70.0
 42
70.0
 43
70.0
  0
TEXT
  5
83B7
330
8451
100
AcDbEntity
  8
3
 62
     0
100
AcDbText
 10
5433.749999999999
 20
4709.279999999999
 30
0.0
 40
105.0
  1
1500
100
AcDbText
  0
POINT
  5
8348
330
8451
100
AcDbEntity
  8
DEFPOINTS
 62
     0
100
AcDbPoint
 10
4893.752841307505
 20
4542.853830076209
 30
0.0
  0
POINT
  5
8349
330
8451
100
AcDbEntity
  8
DEFPOINTS
 62
     0
100
AcDbPoint
 10
6393.752841307505
 20
4537.004893414596
 30
0.0
  0
POINT
  5
834A
330
8451
100
AcDbEntity
  8
DEFPOINTS
 62
     0
100
AcDbPoint
 10
6393.752841307505
 20
4807.631848395777
 30
0.0
  0
ENDBLK
  5
8005
330
8451
100
AcDbEntity
  8
0
100
AcDbBlockEnd
  0
BLOCK
  5
8454
330
8453
100
AcDbEntity
  8
0
100
AcDbBlockBegin
  2
*D9
 70
     1
 10
0.0
 20
0.0
 30
0.0
  3
*D9
  1

  0
LINE
  5
834B
330
8453
100
AcDbEntity
  8
3
 62
     0
100
AcDbLine
 10
5643.752841307503
 20
4969.368152189137
 30
0.0
 11
5643.752841307503
 21
5082.767764100376
 31
0.0
  0
LINE
  5
834C
330
8453
100
AcDbEntity
  8
3
 62
     0
100
AcDbLine
 10
6558.752841307502
 20
3286.731686448574
 30
0.0
 11
6558.752841307502
 21
5082.767764100376
 31
0.0
  0
LINE
  5
834D
330
8453
100
AcDbEntity
  8
3
 62
     0
100
AcDbLine
 10
5713.752841307503
 20
5047.767764100376
 30
0.0
 11
6488.752841307503
 21
5047.767764100376
 31
0.0
  0
INSERT
  5
834E
330
8453
100
AcDbEntity
  8
3
 62
     0
100
AcDbBlockReference
  2
_OPEN
 10
5643.752841307503
 20
5047.767764100376
 30
0.0
 41
70.0
 42
70.0
 43
70.0
 50
180.0
  0
INSERT
  5
834F
330
8453
100
AcDbEntity
  8
3
 62
     0
100
AcDbBlockReference
  2
_OPEN
 10
6558.752841307502
 20
5047.767764100376
 30
0.0
 41
70.0
 42
70.0
 43
70.0
  0
TEXT
  5
83B8
330
8453
100
AcDbEntity
  8
3
 62
     0
100
AcDbText
 10
5891.25
 20
4976.92
 30
0.0
 40
105.0
  1
(930)
100
AcDbText
  0
POINT
  5
8351
330
8453
100
AcDbEntity
  8
DEFPOINTS
 62
     0
100
AcDbPoint
 10
5643.752841307503
 20
4951.868152189138
 30
0.0
  0
POINT
  5
8352
330
8453
100
AcDbEntity
  8
DEFPOINTS
 62
     0
100
AcDbPoint
 10
6558.752841307502
 20
3269.231686448573
 30
0.0
  0
POINT
  5
8353
330
8453
100
AcDbEntity
  8
DEFPOINTS
 62
     0
100
AcDbPoint
 10
6558.752841307502
 20
5047.767764100376
 30
0.0
  0
ENDBLK
  5
8192
330
8453
100
AcDbEntity
  8
0
100
AcDbBlockEnd
  0
BLOCK
  5
8456
330
8455
100
AcDbEntity
  8
0
100
AcDbBlockBegin
  2
*D10
 70
     1
 10
0.0
 20
0.0
 30
0.0
  3
*D10
  1

  0
LINE
  5
8354
330
8455
100
AcDbEntity
  8
3
 62
     0
100
AcDbLine
 10
6416.752841307507
 20
2796.192209343379
 30
0.0
 11
6871.612169487121
 21
2796.192209343379
 31
0.0
  0
LINE
  5
8355
330
8455
100
AcDbEntity
  8
3
 62
     0
100
AcDbLine
 10
6416.752841307507
 20
3916.192209343378
 30
0.0
 11
6871.612169487121
 21
3916.192209343378
 31
0.0
  0
LINE
  5
8356
330
8455
100
AcDbEntity
  8
3
 62
     0
100
AcDbLine
 10
6836.612169487122
 20
2866.192209343378
 30
0.0
 11
6836.612169487122
 21
3846.192209343378
 31
0.0
  0
INSERT
  5
8357
330
8455
100
AcDbEntity
  8
3
 62
     0
100
AcDbBlockReference
  2
_OPEN
 10
6836.612169487122
 20
2796.192209343379
 30
0.0
 41
70.0
 42
70.0
 43
70.0
 50
270.0
  0
INSERT
  5
8358
330
8455
100
AcDbEntity
  8
3
 62
     0
100
AcDbBlockReference
  2
_OPEN
 10
6836.612169487122
 20
3916.192209343378
 30
0.0
 41
70.0
 42
70.0
 43
70.0
 50
90.0
  0
TEXT
  5
83B9
330
8455
100
AcDbEntity
  8
3
 62
     0
100
AcDbText
 10
6539.109999999999
 20
3170.34
 30
0.0
 40
105.0
  1
\U+03C61120
100
AcDbText
  0
POINT
  5
835A
330
8455
100
AcDbEntity
  8
DEFPOINTS
 62
     0
100
AcDbPoint
 10
6399.252841307507
 20
2796.192209343379
 30
0.0
  0
POINT
  5
835B
330
8455
100
AcDbEntity
  8
DEFPOINTS
 62
     0
100
AcDbPoint
 10
6399.252841307507
 20
3916.192209343378
 30
0.0
  0
POINT
  5
835C
330
8455
100
AcDbEntity
  8
DEFPOINTS
 62
     0
100
AcDbPoint
 10
6836.612169487122
 20
3916.192209343378
 30
0.0
  0
ENDBLK
  5
813D
330
8455
100
AcDbEntity
  8
0
100
AcDbBlockEnd
  0
BLOCK
  5
8458
330
8457
100
AcDbEntity
  8
0
100
AcDbBlockBegin
  2
*D11
 70
     1
 10
0.0
 20
0.0
 30
0.0
  3
*D11
  1

  0
LINE
  5
835D
330
8457
100
AcDbEntity
  8
3
 62
     0
100
AcDbLine
 10
3487.401617923984
 20
3356.192209343378
 30
0.0
 11
3817.735283578247
 21
3356.192209343378
 31
0.0
  0
LINE
  5
835E
330
8457
100
AcDbEntity
  8
3
 62
     0
100
AcDbLine
 10
3301.562617025251
 20
2516.192209343379
 30
0.0
 11
3817.735283578247
 21
2516.192209343379
 31
0.0
  0
LINE
  5
835F
330
8457
100
AcDbEntity
  8
3
 62
     0
100
AcDbLine
 10
3782.735283578249
 20
3286.192209343379
 30
0.0
 11
3782.735283578247
 21
2586.192209343379
 31
0.0
  0
INSERT
  5
8360
330
8457
100
AcDbEntity
  8
3
 62
     0
100
AcDbBlockReference
  2
_OPEN
 10
3782.735283578249
 20
3356.192209343378
 30
0.0
 41
70.0
 42
70.0
 43
70.0
 50
90.0
  0
INSERT
  5
8361
330
8457
100
AcDbEntity
  8
3
 62
     0
100
AcDbBlockReference
  2
_OPEN
 10
3782.735283578247
 20
2516.192209343379
 30
0.0
 41
70.0
 42
70.0
 43
70.0
 50
270.0
  0
TEXT
  5
83BA
330
8457
100
AcDbEntity
  8
3
 62
     0
100
AcDbText
 10
3485.24
 20
2750.34
 30
0.0
 40
105.0
  1
840
100
AcDbText
  0
POINT
  5
8363
330
8457
100
AcDbEntity
  8
DEFPOINTS
 62
     0
100
AcDbPoint
 10
3469.901617923984
 20
3356.192209343378
 30
0.0
  0
POINT
  5
8364
330
8457
100
AcDbEntity
  8
DEFPOINTS
 62
     0
100
AcDbPoint
 10
3284.062617025249
 20
2516.192209343379
 30
0.0
  0
POINT
  5
8365
330
8457
100
AcDbEntity
  8
DEFPOINTS
 62
     0
100
AcDbPoint
 10
3782.735283578247
 20
2516.192209343379
 30
0.0
  0
ENDBLK
  5
7F95
330
8457
100
AcDbEntity
  8
0
100
AcDbBlockEnd
  0
BLOCK
  5
845A
330
8459
100
AcDbEntity
  8
0
100
AcDbBlockBegin
  2
*D12
 70
     1
 10
0.0
 20
0.0
 30
0.0
  3
*D12
  1

  0
LINE
  5
8366
330
8459
100
AcDbEntity
  8
3
 62
     0
100
AcDbLine
 10
4521.052841307505
 20
3753.692209343379
 30
0.0
 11
4521.052841307505
 21
5081.751112831963
 31
0.0
  0
LINE
  5
8367
330
8459
100
AcDbEntity
  8
3
 62
     0
100
AcDbLine
 10
5643.752841307503
 20
4969.368152189137
 30
0.0
 11
5643.752841307503
 21
5081.751112831963
 31
0.0
  0
LINE
  5
8368
330
8459
100
AcDbEntity
  8
3
 62
     0
100
AcDbLine
 10
4591.052841307505
 20
5046.751112831964
 30
0.0
 11
5573.752841307503
 21
5046.751112831964
 31
0.0
  0
INSERT
  5
8369
330
8459
100
AcDbEntity
  8
3
 62
     0
100
AcDbBlockReference
  2
_OPEN
 10
4521.052841307505
 20
5046.751112831964
 30
0.0
 41
70.0
 42
70.0
 43
70.0
 50
180.0
  0
INSERT
  5
836A
330
8459
100
AcDbEntity
  8
3
 62
     0
100
AcDbBlockReference
  2
_OPEN
 10
5643.752841307503
 20
5046.751112831964
 30
0.0
 41
70.0
 42
70.0
 43
70.0
  0
TEXT
  5
83BB
330
8459
100
AcDbEntity
  8
3
 62
     0
100
AcDbText
 10
4872.399999999999
 20
5035.899999999999
 30
0.0
 40
105.0
  1
MAX
100
AcDbText
  0
TEXT
  5
83BC
330
8459
100
AcDbEntity
  8
3
 62
     0
100
AcDbText
 10
4872.399999999999
 20
4899.399999999999
 30
0.0
 40
105.0
  1
1120
100
AcDbText
  0
POINT
  5
836C
330
8459
100
AcDbEntity
  8
DEFPOINTS
 62
     0
100
AcDbPoint
 10
4521.052841307505
 20
3736.192209343379
 30
0.0
  0
POINT
  5
836D
330
8459
100
AcDbEntity
  8
DEFPOINTS
 62
     0
100
AcDbPoint
 10
5643.752841307503
 20
4951.868152189138
 30
0.0
  0
POINT
  5
836E
330
8459
100
AcDbEntity
  8
DEFPOINTS
 62
     0
100
AcDbPoint
 10
5643.752841307503
 20
5046.751112831964
 30
0.0
  0
ENDBLK
  5
8187
330
8459
100
AcDbEntity
  8
0
100
AcDbBlockEnd
  0
BLOCK
  5
845C
330
845B
100
AcDbEntity
  8
0
100
AcDbBlockBegin
  2
*D13
 70
     1
 10
0.0
 20
0.0
 30
0.0
  3
*D13
  1

  0
LINE
  5
836F
330
845B
100
AcDbEntity
  8
3
 62
     0
100
AcDbLine
 10
1964.062617025251
 20
7596.091300024716
 30
0.0
 11
1964.062617025251
 21
7843.010105037642
 31
0.0
  0
LINE
  5
8370
330
845B
100
AcDbEntity
  8
3
 62
     0
100
AcDbLine
 10
3284.062617025249
 20
7596.091300024719
 30
0.0
 11
3284.062617025249
 21
7843.010105037642
 31
0.0
  0
LINE
  5
8371
330
845B
100
AcDbEntity
  8
3
 62
     0
100
AcDbLine
 10
2034.06261702525
 20
7808.010105037642
 30
0.0
 11
3214.062617025251
 21
7808.010105037642
 31
0.0
  0
INSERT
  5
8372
330
845B
100
AcDbEntity
  8
3
 62
     0
100
AcDbBlockReference
  2
_OPEN
 10
1964.062617025251
 20
7808.010105037642
 30
0.0
 41
70.0
 42
70.0
 43
70.0
 50
180.0
  0
INSERT
  5
8373
330
845B
100
AcDbEntity
  8
3
 62
     0
100
AcDbBlockReference
  2
_OPEN
 10
3284.062617025249
 20
7808.010105037642
 30
0.0
 41
70.0
 42
70.0
 43
70.0
  0
TEXT
  5
83BD
330
845B
100
AcDbEntity
  8
3
 62
     0
100
AcDbText
 10
2414.06
 20
7709.659999999999
 30
0.0
 40
105.0
  1
1320
100
AcDbText
  0
POINT
  5
8375
330
845B
100
AcDbEntity
  8
DEFPOINTS
 62
     0
100
AcDbPoint
 10
1964.062617025251
 20
7578.591300024716
 30
0.0
  0
POINT
  5
8376
330
845B
100
AcDbEntity
  8
DEFPOINTS
 62
     0
100
AcDbPoint
 10
3284.062617025249
 20
7578.591300024719
 30
0.0
  0
POINT
  5
8377
330
845B
100
AcDbEntity
  8
DEFPOINTS
 62
     0
100
AcDbPoint
 10
3284.062617025249
 20
7808.010105037642
 30
0.0
  0
ENDBLK
  5
808B
330
845B
100
AcDbEntity
  8
0
100
AcDbBlockEnd
  0
BLOCK
  5
845E
330
845D
100
AcDbEntity
  8
0
100
AcDbBlockBegin
  2
*D14
 70
     1
 10
0.0
 20
0.0
 30
0.0
  3
*D14
  1

  0
LINE
  5
8378
330
845D
100
AcDbEntity
  8
3
 62
     0
100
AcDbLine
 10
1006.56261702525
 20
6578.591300024716
 30
0.0
 11
773.2474876895395
 21
6578.591300024716
 31
0.0
  0
LINE
  5
8379
330
845D
100
AcDbEntity
  8
3
 62
     0
100
AcDbLine
 10
1006.56261702525
 20
5678.591300024716
 30
0.0
 11
773.2474876895393
 21
5678.591300024716
 31
0.0
  0
LINE
  5
837A
330
845D
100
AcDbEntity
  8
3
 62
     0
100
AcDbLine
 10
808.2474876895394
 20
6508.591300024716
 30
0.0
 11
808.2474876895393
 21
5748.591300024716
 31
0.0
  0
INSERT
  5
837B
330
845D
100
AcDbEntity
  8
3
 62
     0
100
AcDbBlockReference
  2
_OPEN
 10
808.2474876895394
 20
6578.591300024716
 30
0.0
 41
70.0
 42
70.0
 43
70.0
 50
90.0
  0
INSERT
  5
837C
330
845D
100
AcDbEntity
  8
3
 62
     0
100
AcDbBlockReference
  2
_OPEN
 10
808.2474876895393
 20
5678.591300024716
 30
0.0
 41
70.0
 42
70.0
 43
70.0
 50
270.0
  0
TEXT
  5
83BE
330
845D
100
AcDbEntity
  8
3
 62
     0
100
AcDbText
 10
510.7469999999999
 20
5942.74
 30
0.0
 40
105.0
  1
900
100
AcDbText
  0
POINT
  5
837E
330
845D
100
AcDbEntity
  8
DEFPOINTS
 62
     0
100
AcDbPoint
 10
1024.06261702525
 20
6578.591300024716
 30
0.0
  0
POINT
  5
837F
330
845D
100
AcDbEntity
  8
DEFPOINTS
 62
     0
100
AcDbPoint
 10
1024.06261702525
 20
5678.591300024716
 30
0.0
  0
POINT
  5
8380
330
845D
100
AcDbEntity
  8
DEFPOINTS
 62
     0
100
AcDbPoint
 10
808.2474876895393
 20
5678.591300024716
 30
0.0
  0
ENDBLK
  5
814C
330
845D
100
AcDbEntity
  8
0
100
AcDbBlockEnd
  0
BLOCK
  5
8460
330
845F
100
AcDbEntity
  8
0
100
AcDbBlockBegin
  2
*D15
 70
     1
 10
0.0
 20
0.0
 30
0.0
  3
*D15
  1

  0
LINE
  5
8381
330
845F
100
AcDbEntity
  8
3
 62
     0
100
AcDbLine
 10
1024.06261702525
 20
5661.091300024716
 30
0.0
 11
1024.06261702525
 21
5296.934663388967
 31
0.0
  0
LINE
  5
8382
330
845F
100
AcDbEntity
  8
3
 62
     0
100
AcDbLine
 10
3284.062617025251
 20
5661.091300024716
 30
0.0
 11
3284.062617025251
 21
5296.934663388967
 31
0.0
  0
LINE
  5
8383
330
845F
100
AcDbEntity
  8
3
 62
     0
100
AcDbLine
 10
1094.06261702525
 20
5331.934663388967
 30
0.0
 11
3214.062617025251
 21
5331.934663388967
 31
0.0
  0
INSERT
  5
8384
330
845F
100
AcDbEntity
  8
3
 62
     0
100
AcDbBlockReference
  2
_OPEN
 10
1024.06261702525
 20
5331.934663388967
 30
0.0
 41
70.0
 42
70.0
 43
70.0
 50
180.0
  0
INSERT
  5
8385
330
845F
100
AcDbEntity
  8
3
 62
     0
100
AcDbBlockReference
  2
_OPEN
 10
3284.062617025251
 20
5331.934663388967
 30
0.0
 41
70.0
 42
70.0
 43
70.0
  0
TEXT
  5
83BF
330
845F
100
AcDbEntity
  8
3
 62
     0
100
AcDbText
 10
1944.06
 20
5233.579999999999
 30
0.0
 40
105.0
  1
2260
100
AcDbText
  0
POINT
  5
8387
330
845F
100
AcDbEntity
  8
DEFPOINTS
 62
     0
100
AcDbPoint
 10
1024.06261702525
 20
5678.591300024717
 30
0.0
  0
POINT
  5
8388
330
845F
100
AcDbEntity
  8
DEFPOINTS
 62
     0
100
AcDbPoint
 10
3284.062617025251
 20
5678.591300024717
 30
0.0
  0
POINT
  5
8389
330
845F
100
AcDbEntity
  8
DEFPOINTS
 62
     0
100
AcDbPoint
 10
3284.062617025251
 20
5331.934663388967
 30
0.0
  0
ENDBLK
  5
8096
330
845F
100
AcDbEntity
  8
0
100
AcDbBlockEnd
  0
BLOCK
  5
8462
330
8461
100
AcDbEntity
  8
0
100
AcDbBlockBegin
  2
*D16
 70
     1
 10
0.0
 20
0.0
 30
0.0
  3
*D16
  1

  0
LINE
  5
838A
330
8461
100
AcDbEntity
  8
3
 62
     0
100
AcDbLine
 10
3301.562617025251
 20
7578.591300024719
 30
0.0
 11
3754.797915355994
 21
7578.591300024719
 31
0.0
  0
LINE
  5
838B
330
8461
100
AcDbEntity
  8
3
 62
     0
100
AcDbLine
 10
3301.562617025251
 20
5678.591300024717
 30
0.0
 11
3754.797915355993
 21
5678.591300024717
 31
0.0
  0
LINE
  5
838C
330
8461
100
AcDbEntity
  8
3
 62
     0
100
AcDbLine
 10
3719.797915355993
 20
7508.591300024718
 30
0.0
 11
3719.797915355993
 21
5748.591300024717
 31
0.0
  0
INSERT
  5
838D
330
8461
100
AcDbEntity
  8
3
 62
     0
100
AcDbBlockReference
  2
_OPEN
 10
3719.797915355993
 20
7578.591300024719
 30
0.0
 41
70.0
 42
70.0
 43
70.0
 50
90.0
  0
INSERT
  5
838E
330
8461
100
AcDbEntity
  8
3
 62
     0
100
AcDbBlockReference
  2
_OPEN
 10
3719.797915355993
 20
5678.591300024717
 30
0.0
 41
70.0
 42
70.0
 43
70.0
 50
270.0
  0
TEXT
  5
83C0
330
8461
100
AcDbEntity
  8
3
 62
     0
100
AcDbText
 10
3422.300000000001
 20
6442.74
 30
0.0
 40
105.0
  1
1900
100
AcDbText
  0
POINT
  5
8390
330
8461
100
AcDbEntity
  8
DEFPOINTS
 62
     0
100
AcDbPoint
 10
3284.062617025249
 20
7578.591300024719
 30
0.0
  0
POINT
  5
8391
330
8461
100
AcDbEntity
  8
DEFPOINTS
 62
     0
100
AcDbPoint
 10
3284.062617025251
 20
5678.591300024717
 30
0.0
  0
POINT
  5
8392
330
8461
100
AcDbEntity
  8
DEFPOINTS
 62
     0
100
AcDbPoint
 10
3719.797915355993
 20
5678.591300024717
 30
0.0
  0
ENDBLK
  5
80A1
330
8461
100
AcDbEntity
  8
0
100
AcDbBlockEnd
  0
BLOCK
  5
8464
330
8463
100
AcDbEntity
  8
0
100
AcDbBlockBegin
  2
*D17
 70
     1
 10
0.0
 20
0.0
 30
0.0
  3
*D17
  1

  0
LINE
  5
8393
330
8463
100
AcDbEntity
  8
3
 62
     0
100
AcDbLine
 10
1024.06261702525
 20
6596.091300024716
 30
0.0
 11
1024.06261702525
 21
7843.010105037642
 31
0.0
  0
LINE
  5
8394
330
8463
100
AcDbEntity
  8
3
 62
     0
100
AcDbLine
 10
1964.062617025251
 20
7596.091300024716
 30
0.0
 11
1964.062617025251
 21
7843.010105037642
 31
0.0
  0
LINE
  5
8395
330
8463
100
AcDbEntity
  8
3
 62
     0
100
AcDbLine
 10
1094.06261702525
 20
7808.010105037642
 30
0.0
 11
1894.06261702525
 21
7808.010105037642
 31
0.0
  0
INSERT
  5
8396
330
8463
100
AcDbEntity
  8
3
 62
     0
100
AcDbBlockReference
  2
_OPEN
 10
1024.06261702525
 20
7808.010105037642
 30
0.0
 41
70.0
 42
70.0
 43
70.0
 50
180.0
  0
INSERT
  5
8397
330
8463
100
AcDbEntity
  8
3
 62
     0
100
AcDbBlockReference
  2
_OPEN
 10
1964.062617025251
 20
7808.010105037642
 30
0.0
 41
70.0
 42
70.0
 43
70.0
  0
TEXT
  5
83C1
330
8463
100
AcDbEntity
  8
3
 62
     0
100
AcDbText
 10
1284.06
 20
7709.659999999999
 30
0.0
 40
105.0
  1
940
100
AcDbText
  0
POINT
  5
8399
330
8463
100
AcDbEntity
  8
DEFPOINTS
 62
     0
100
AcDbPoint
 10
1024.06261702525
 20
6578.591300024716
 30
0.0
  0
POINT
  5
839A
330
8463
100
AcDbEntity
  8
DEFPOINTS
 62
     0
100
AcDbPoint
 10
1964.062617025251
 20
7578.591300024716
 30
0.0
  0
POINT
  5
839B
330
8463
100
AcDbEntity
  8
DEFPOINTS
 62
     0
100
AcDbPoint
 10
1964.062617025251
 20
7808.010105037642
 30
0.0
  0
ENDBLK
  5
8080
330
8463
100
AcDbEntity
  8
0
100
AcDbBlockEnd
  0
BLOCK
  5
8466
330
8465
100
AcDbEntity
  8
0
100
AcDbBlockBegin
  2
*D18
 70
     1
 10
0.0
 20
0.0
 30
0.0
  3
*D18
  1

  0
LINE
  5
839C
330
8465
100
AcDbEntity
  8
3
 62
     0
100
AcDbLine
 10
3384.062617025249
 20
4624.692209343378
 30
0.0
 11
3384.062617025249
 21
5037.684932965962
 31
0.0
  0
LINE
  5
839D
330
8465
100
AcDbEntity
  8
3
 62
     0
100
AcDbLine
 10
1024.062617025251
 20
2658.692209343379
 30
0.0
 11
1024.062617025252
 21
5037.684932965962
 31
0.0
  0
LINE
  5
839E
330
8465
100
AcDbEntity
  8
3
 62
     0
100
AcDbLine
 10
3314.062617025251
 20
5002.684932965962
 30
0.0
 11
1094.062617025252
 21
5002.684932965962
 31
0.0
  0
INSERT
  5
839F
330
8465
100
AcDbEntity
  8
3
 62
     0
100
AcDbBlockReference
  2
_OPEN
 10
3384.062617025249
 20
5002.684932965962
 30
0.0
 41
70.0
 42
70.0
 43
70.0
  0
INSERT
  5
83A0
330
8465
100
AcDbEntity
  8
3
 62
     0
100
AcDbBlockReference
  2
_OPEN
 10
1024.062617025252
 20
5002.684932965962
 30
0.0
 41
70.0
 42
70.0
 43
70.0
 50
180.0
  0
TEXT
  5
83C2
330
8465
100
AcDbEntity
  8
3
 62
     0
100
AcDbText
 10
1994.06
 20
4904.33
 30
0.0
 40
105.0
  1
2360
100
AcDbText
  0
POINT
  5
83A2
330
8465
100
AcDbEntity
  8
DEFPOINTS
 62
     0
100
AcDbPoint
 10
3384.062617025249
 20
4607.192209343378
 30
0.0
  0
POINT
  5
83A3
330
8465
100
AcDbEntity
  8
DEFPOINTS
 62
     0
100
AcDbPoint
 10
1024.062617025251
 20
2641.192209343379
 30
0.0
  0
POINT
  5
83A4
330
8465
100
AcDbEntity
  8
DEFPOINTS
 62
     0
100
AcDbPoint
 10
1024.062617025252
 20
5002.684932965962
 30
0.0
  0
ENDBLK
  5
7FD9
330
8465
100
AcDbEntity
  8
0
100
AcDbBlockEnd
  0
BLOCK
  5
8468
330
8467
100
AcDbEntity
  8
0
100
AcDbBlockBegin
  2
*D19
 70
     1
 10
0.0
 20
0.0
 30
0.0
  3
*D19
  1

  0
LINE
  5
83A5
330
8467
100
AcDbEntity
  8
3
 62
     0
100
AcDbLine
 10
3301.562617025251
 20
2496.192209343379
 30
0.0
 11
3817.735283578247
 21
2496.192209343379
 31
0.0
  0
LINE
  5
83A6
330
8467
100
AcDbEntity
  8
3
 62
     0
100
AcDbLine
 10
3301.56261702525
 20
2431.192209343379
 30
0.0
 11
3817.735283578247
 21
2431.192209343379
 31
0.0
  0
LINE
  5
83A7
330
8467
100
AcDbEntity
  8
3
 62
     0
100
AcDbLine
 10
3782.735283578247
 20
2566.192209343379
 30
0.0
 11
3782.735283578247
 21
2636.192209343379
 31
0.0
  0
LINE
  5
83A8
330
8467
100
AcDbEntity
  8
3
 62
     0
100
AcDbLine
 10
3782.735283578247
 20
2361.192209343379
 30
0.0
 11
3782.735283578247
 21
2051.192209343378
 31
0.0
  0
LINE
  5
83A9
330
8467
100
AcDbEntity
  8
3
 62
     0
100
AcDbLine
 10
3782.735283578247
 20
2496.192209343379
 30
0.0
 11
3782.735283578247
 21
2431.192209343379
 31
0.0
  0
INSERT
  5
83AA
330
8467
100
AcDbEntity
  8
3
 62
     0
100
AcDbBlockReference
  2
_DOT
 10
3782.735283578247
 20
2496.192209343379
 30
0.0
 41
70.0
 42
70.0
 43
70.0
 50
270.0
  0
INSERT
  5
83AB
330
8467
100
AcDbEntity
  8
3
 62
     0
100
AcDbBlockReference
  2
_OPEN
 10
3782.735283578247
 20
2431.192209343379
 30
0.0
 41
70.0
 42
70.0
 43
70.0
 50
90.0
  0
TEXT
  5
83C3
330
8467
100
AcDbEntity
  8
3
 62
     0
100
AcDbText
 10
3485.24
 20
1985.34
 30
0.0
 40
105.0
  1
65
100
AcDbText
  0
POINT
  5
83AD
330
8467
100
AcDbEntity
  8
DEFPOINTS
 62
     0
100
AcDbPoint
 10
3284.062617025249
 20
2496.192209343379
 30
0.0
  0
POINT
  5
83AE
330
8467
100
AcDbEntity
  8
DEFPOINTS
 62
     0
100
AcDbPoint
 10
3284.062617025249
 20
2431.192209343379
 30
0.0
  0
POINT
  5
83AF
330
8467
100
AcDbEntity
  8
DEFPOINTS
 62
     0
100
AcDbPoint
 10
3782.735283578247
 20
2431.192209343379
 30
0.0
  0
ENDBLK
  5
810C
330
8467
100
AcDbEntity
  8
0
100
AcDbBlockEnd
  0
BLOCK
  5
846A
330
8469
100
AcDbEntity
  8
0
100
AcDbBlockBegin
  2
_DOT
 70
     0
 10
0.0
 20
0.0
 30
0.0
  3
_DOT
  1

  0
LWPOLYLINE
  5
812A
330
8469
100
AcDbEntity
  8
0
  6
ByBlock
 62
     0
100
AcDbPolyline
 90
        2
 70
     1
 43
0.25
 10
-0.125
 20
0.0
 42
1.0
 10
0.125
 20
0.0
 42
1.0
  0
LINE
  5
812E
330
8469
100
AcDbEntity
  8
0
  6
ByBlock
 62
     0
100
AcDbLine
 10
-0.25
 20
0.0
 30
0.0
 11
-1.0
 21
0.0
 31
0.0
  0
ENDBLK
  5
80F2
330
8469
100
AcDbEntity
  8
0
100
AcDbBlockEnd
  0
BLOCK
  5
846C
330
846B
100
AcDbEntity
  8
0
100
AcDbBlockBegin
  2
*D21
 70
     1
 10
0.0
 20
0.0
 30
0.0
  3
*D21
  1

  0
LINE
  5
81BD
330
846B
100
AcDbEntity
  8
0
  6
ByBlock
 62
     0
100
AcDbLine
 10
1024.062617025251
 20
2413.692209343379
 30
0.0
 11
1024.062617025251
 21
2155.52784082877
 31
0.0
  0
LINE
  5
81BE
330
846B
100
AcDbEntity
  8
0
  6
ByBlock
 62
     0
100
AcDbLine
 10
2624.062617025251
 20
2413.692209343379
 30
0.0
 11
2624.062617025251
 21
2155.52784082877
 31
0.0
  0
LINE
  5
81BF
330
846B
100
AcDbEntity
  8
0
  6
ByBlock
 62
     0
100
AcDbLine
 10
1094.062617025251
 20
2190.52784082877
 30
0.0
 11
2554.062617025251
 21
2190.52784082877
 31
0.0
  0
INSERT
  5
81C0
330
846B
100
AcDbEntity
  8
0
  6
ByBlock
 62
     0
100
AcDbBlockReference
  2
_OPEN
 10
1024.062617025251
 20
2190.52784082877
 30
0.0
 41
70.0
 42
70.0
 43
70.0
 50
180.0
  0
INSERT
  5
81C1
330
846B
100
AcDbEntity
  8
0
  6
ByBlock
 62
     0
100
AcDbBlockReference
  2
_OPEN
 10
2624.062617025251
 20
2190.52784082877
 30
0.0
 41
70.0
 42
70.0
 43
70.0
  0
TEXT
  5
81C2
330
846B
100
AcDbEntity
  8
3
 62
     0
100
AcDbText
 10
1649.062617025251
 20
2225.52784082877
 30
0.0
 40
105.0
  1
1600
100
AcDbText
  0
POINT
  5
81C3
330
846B
100
AcDbEntity
  8
DEFPOINTS
  6
ByBlock
 62
     0
100
AcDbPoint
 10
1024.062617025251
 20
2431.192209343379
 30
0.0
  0
POINT
  5
81C4
330
846B
100
AcDbEntity
  8
DEFPOINTS
  6
ByBlock
 62
     0
100
AcDbPoint
 10
2624.062617025251
 20
2431.192209343379
 30
0.0
  0
POINT
  5
81C5
330
846B
100
AcDbEntity
  8
DEFPOINTS
  6
ByBlock
 62
     0
100
AcDbPoint
 10
2624.062617025251
 20
2190.52784082877
 30
0.0
  0
ENDBLK
  5
81C6
330
846B
100
AcDbEntity
  8
0
100
AcDbBlockEnd
  0
BLOCK
  5
846E
330
846D
100
AcDbEntity
  8
0
100
AcDbBlockBegin
  2
*D22
 70
     1
 10
0.0
 20
0.0
 30
0.0
  3
*D22
  1

  0
LINE
  5
81CA
330
846D
100
AcDbEntity
  8
0
  6
ByBlock
 62
     0
100
AcDbLine
 10
2624.062617025251
 20
2413.692209343379
 30
0.0
 11
2624.062617025251
 21
2155.52784082877
 31
0.0
  0
LINE
  5
81CB
330
846D
100
AcDbEntity
  8
0
  6
ByBlock
 62
     0
100
AcDbLine
 10
3284.062617025249
 20
2413.692209343379
 30
0.0
 11
3284.062617025249
 21
2155.52784082877
 31
0.0
  0
LINE
  5
81CC
330
846D
100
AcDbEntity
  8
0
  6
ByBlock
 62
     0
100
AcDbLine
 10
2694.062617025251
 20
2190.52784082877
 30
0.0
 11
3214.06261702525
 21
2190.52784082877
 31
0.0
  0
INSERT
  5
81CD
330
846D
100
AcDbEntity
  8
0
  6
ByBlock
 62
     0
100
AcDbBlockReference
  2
_OPEN
 10
2624.062617025251
 20
2190.52784082877
 30
0.0
 41
70.0
 42
70.0
 43
70.0
 50
180.0
  0
INSERT
  5
81CE
330
846D
100
AcDbEntity
  8
0
  6
ByBlock
 62
     0
100
AcDbBlockReference
  2
_OPEN
 10
3284.062617025249
 20
2190.52784082877
 30
0.0
 41
70.0
 42
70.0
 43
70.0
  0
TEXT
  5
81CF
330
846D
100
AcDbEntity
  8
3
 62
     0
100
AcDbText
 10
2819.062617025251
 20
2225.52784082877
 30
0.0
 40
105.0
  1
660
100
AcDbText
  0
POINT
  5
81D0
330
846D
100
AcDbEntity
  8
DEFPOINTS
  6
ByBlock
 62
     0
100
AcDbPoint
 10
2624.062617025251
 20
2431.192209343379
 30
0.0
  0
POINT
  5
81D1
330
846D
100
AcDbEntity
  8
DEFPOINTS
  6
ByBlock
 62
     0
100
AcDbPoint
 10
3284.062617025249
 20
2431.192209343379
 30
0.0
  0
POINT
  5
81D2
330
846D
100
AcDbEntity
  8
DEFPOINTS
  6
ByBlock
 62
     0
100
AcDbPoint
 10
3284.062617025249
 20
2190.52784082877
 30
0.0
  0
ENDBLK
  5
81D3
330
846D
100
AcDbEntity
  8
0
100
AcDbBlockEnd
  0
BLOCK
  5
8470
330
846F
100
AcDbEntity
  8
0
100
AcDbBlockBegin
  2
*D23
 70
     1
 10
0.0
 20
0.0
 30
0.0
  3
*D23
  1

  0
LINE
  5
81D7
330
846F
100
AcDbEntity
  8
0
  6
ByBlock
 62
     0
100
AcDbLine
 10
4561.752841307494
 20
2413.692209343379
 30
0.0
 11
4561.752841307494
 21
2155.52784082877
 31
0.0
  0
LINE
  5
81D8
330
846F
100
AcDbEntity
  8
0
  6
ByBlock
 62
     0
100
AcDbLine
 10
5643.752841307506
 20
2413.692209343379
 30
0.0
 11
5643.752841307506
 21
2155.52784082877
 31
0.0
  0
LINE
  5
81D9
330
846F
100
AcDbEntity
  8
0
  6
ByBlock
 62
     0
100
AcDbLine
 10
4631.752841307494
 20
2190.52784082877
 30
0.0
 11
5573.752841307506
 21
2190.52784082877
 31
0.0
  0
INSERT
  5
81DA
330
846F
100
AcDbEntity
  8
0
  6
ByBlock
 62
     0
100
AcDbBlockReference
  2
_OPEN
 10
4561.752841307494
 20
2190.52784082877
 30
0.0
 41
70.0
 42
70.0
 43
70.0
 50
180.0
  0
INSERT
  5
81DB
330
846F
100
AcDbEntity
  8
0
  6
ByBlock
 62
     0
100
AcDbBlockReference
  2
_OPEN
 10
5643.752841307506
 20
2190.52784082877
 30
0.0
 41
70.0
 42
70.0
 43
70.0
  0
TEXT
  5
81DC
330
846F
100
AcDbEntity
  8
3
 62
     0
100
AcDbText
 10
4927.7528413075
 20
2225.52784082877
 30
0.0
 40
105.0
  1
1082
100
AcDbText
  0
POINT
  5
81DD
330
846F
100
AcDbEntity
  8
DEFPOINTS
  6
ByBlock
 62
     0
100
AcDbPoint
 10
4561.752841307494
 20
2431.192209343379
 30
0.0
  0
POINT
  5
81DE
330
846F
100
AcDbEntity
  8
DEFPOINTS
  6
ByBlock
 62
     0
100
AcDbPoint
 10
5643.752841307506
 20
2431.192209343379
 30
0.0
  0
POINT
  5
81DF
330
846F
100
AcDbEntity
  8
DEFPOINTS
  6
ByBlock
 62
     0
100
AcDbPoint
 10
5643.752841307506
 20
2190.52784082877
 30
0.0
  0
ENDBLK
  5
81E0
330
846F
100
AcDbEntity
  8
0
100
AcDbBlockEnd
  0
BLOCK
  5
8472
330
8471
100
AcDbEntity
  8
0
100
AcDbBlockBegin
  2
*D24
 70
     1
 10
0.0
 20
0.0
 30
0.0
  3
*D24
  1

  0
LINE
  5
81E4
330
8471
100
AcDbEntity
  8
0
  6
ByBlock
 62
     0
100
AcDbLine
 10
5643.752841307506
 20
2413.692209343379
 30
0.0
 11
5643.752841307506
 21
2155.52784082877
 31
0.0
  0
LINE
  5
81E5
330
8471
100
AcDbEntity
  8
0
  6
ByBlock
 62
     0
100
AcDbLine
 10
6461.752841307485
 20
2413.692209343379
 30
0.0
 11
6461.752841307485
 21
2155.52784082877
 31
0.0
  0
LINE
  5
81E6
330
8471
100
AcDbEntity
  8
0
  6
ByBlock
 62
     0
100
AcDbLine
 10
5713.752841307506
 20
2190.52784082877
 30
0.0
 11
6391.752841307487
 21
2190.52784082877
 31
0.0
  0
INSERT
  5
81E7
330
8471
100
AcDbEntity
  8
0
  6
ByBlock
 62
     0
100
AcDbBlockReference
  2
_OPEN
 10
5643.752841307506
 20
2190.52784082877
 30
0.0
 41
70.0
 42
70.0
 43
70.0
 50
180.0
  0
INSERT
  5
81E8
330
8471
100
AcDbEntity
  8
0
  6
ByBlock
 62
     0
100
AcDbBlockReference
  2
_OPEN
 10
6461.752841307485
 20
2190.52784082877
 30
0.0
 41
70.0
 42
70.0
 43
70.0
  0
TEXT
  5
81E9
330
8471
100
AcDbEntity
  8
3
 62
     0
100
AcDbText
 10
5927.752841307496
 20
2225.52784082877
 30
0.0
 40
105.0
  1
818
100
AcDbText
  0
POINT
  5
81EA
330
8471
100
AcDbEntity
  8
DEFPOINTS
  6
ByBlock
 62
     0
100
AcDbPoint
 10
5643.752841307506
 20
2431.192209343379
 30
0.0
  0
POINT
  5
81EB
330
8471
100
AcDbEntity
  8
DEFPOINTS
  6
ByBlock
 62
     0
100
AcDbPoint
 10
6461.752841307485
 20
2431.192209343379
 30
0.0
  0
POINT
  5
81EC
330
8471
100
AcDbEntity
  8
DEFPOINTS
  6
ByBlock
 62
     0
100
AcDbPoint
 10
6461.752841307485
 20
2190.52784082877
 30
0.0
  0
ENDBLK
  5
81ED
330
8471
100
AcDbEntity
  8
0
100
AcDbBlockEnd
  0
BLOCK
  5
8474
330
8473
100
AcDbEntity
  8
0
100
AcDbBlockBegin
  2
_NONE
 70
     0
 10
0.0
 20
0.0
 30
0.0
  3
_NONE
  1

  0
CIRCLE
  5
81F1
330
8473
100
AcDbEntity
  8
0
  6
ByBlock
 62
     0
100
AcDbCircle
 10
0.0
 20
0.0
 30
0.0
 40
0.25
  0
ENDBLK
  5
81F2
330
8473
100
AcDbEntity
  8
0
100
AcDbBlockEnd
  0
BLOCK
  5
8476
330
8475
100
AcDbEntity
  8
0
100
AcDbBlockBegin
  2
*D26
 70
     1
 10
0.0
 20
0.0
 30
0.0
  3
*D26
  1

  0
LINE
  5
8239
330
8475
100
AcDbEntity
  8
0
  6
ByBlock
 62
     0
100
AcDbLine
 10
3780.427661994036
 20
2496.192209343379
 30
0.0
 11
3780.427661994036
 21
2496.192209343379
 31
0.0
  0
LINE
  5
823A
330
8475
100
AcDbEntity
  8
0
  6
ByBlock
 62
     0
100
AcDbLine
 10
3780.427661994036
 20
2516.192209343379
 30
0.0
 11
3780.427661994036
 21
2656.192209343379
 31
0.0
  0
TEXT
  5
823B
330
8475
100
AcDbEntity
  8
3
 62
     0
100
AcDbText
 10
3982.927661994036
 20
2259.192209343379
 30
0.0
 40
105.0
  1
   (20)
 50
90.0
100
AcDbText
  0
LINE
  5
823C
330
8475
100
AcDbEntity
  8
0
  6
ByBlock
 62
     0
100
AcDbLine
 10
3780.427661994036
 20
2496.192209343379
 30
0.0
 11
3780.427661994036
 21
2516.192209343379
 31
0.0
  0
POINT
  5
823D
330
8475
100
AcDbEntity
  8
DEFPOINTS
  6
ByBlock
 62
     0
100
AcDbPoint
 10
3284.062617025249
 20
2496.192209343379
 30
0.0
  0
POINT
  5
823E
330
8475
100
AcDbEntity
  8
DEFPOINTS
  6
ByBlock
 62
     0
100
AcDbPoint
 10
3284.062617025249
 20
2516.192209343379
 30
0.0
  0
POINT
  5
823F
330
8475
100
AcDbEntity
  8
DEFPOINTS
  6
ByBlock
 62
     0
100
AcDbPoint
 10
3780.427661994036
 20
2516.192209343379
 30
0.0
  0
ENDBLK
  5
8240
330
8475
100
AcDbEntity
  8
0
100
AcDbBlockEnd
  0
BLOCK
  5
8478
330
8477
100
AcDbEntity
  8
0
100
AcDbBlockBegin
  2
*D27
 70
     1
 10
0.0
 20
0.0
 30
0.0
  3
*D27
  1

  0
LINE
  5
8200
330
8477
100
AcDbEntity
  8
0
  6
ByBlock
 62
     0
100
AcDbLine
 10
3301.56261702525
 20
2431.192209343379
 30
0.0
 11
4086.53508689176
 21
2431.192209343379
 31
0.0
  0
LINE
  5
8201
330
8477
100
AcDbEntity
  8
0
  6
ByBlock
 62
     0
100
AcDbLine
 10
3419.062617025249
 20
4554.192209343379
 30
0.0
 11
4086.53508689176
 21
4554.192209343379
 31
0.0
  0
LINE
  5
8202
330
8477
100
AcDbEntity
  8
0
  6
ByBlock
 62
     0
100
AcDbLine
 10
4051.535086891759
 20
2501.192209343379
 30
0.0
 11
4051.535086891759
 21
4484.192209343379
 31
0.0
  0
INSERT
  5
8203
330
8477
100
AcDbEntity
  8
0
  6
ByBlock
 62
     0
100
AcDbBlockReference
  2
_OPEN
 10
4051.535086891759
 20
2431.192209343379
 30
0.0
 41
70.0
 42
70.0
 43
70.0
 50
270.0
  0
INSERT
  5
8204
330
8477
100
AcDbEntity
  8
0
  6
ByBlock
 62
     0
100
AcDbBlockReference
  2
_OPEN
 10
4051.535086891759
 20
4554.192209343379
 30
0.0
 41
70.0
 42
70.0
 43
70.0
 50
90.0
  0
TEXT
  5
8205
330
8477
100
AcDbEntity
  8
3
 62
     0
100
AcDbText
 10
3971.535086891759
 20
3250.192209343378
 30
0.0
 40
105.0
  1
(2123)
 50
90.0
100
AcDbText
  0
POINT
  5
8206
330
8477
100
AcDbEntity
  8
DEFPOINTS
  6
ByBlock
 62
     0
100
AcDbPoint
 10
3284.062617025249
 20
2431.192209343379
 30
0.0
  0
POINT
  5
8207
330
8477
100
AcDbEntity
  8
DEFPOINTS
  6
ByBlock
 62
     0
100
AcDbPoint
 10
3401.562617025251
 20
4554.192209343379
 30
0.0
  0
POINT
  5
8208
330
8477
100
AcDbEntity
  8
DEFPOINTS
  6
ByBlock
 62
     0
100
AcDbPoint
 10
4051.535086891759
 20
4554.192209343379
 30
0.0
  0
ENDBLK
  5
8209
330
8477
100
AcDbEntity
  8
0
100
AcDbBlockEnd
  0
BLOCK
  5
8483
330
8482
100
AcDbEntity
  8
0
100
AcDbBlockBegin
  2
*D28
 70
     1
 10
0.0
 20
0.0
 30
0.0
  3
*D28
  1

  0
LINE
  5
8485
330
8482
100
AcDbEntity
  8
3
 62
     0
370
    -2
100
AcDbLine
 10
6411.252841307505
 20
3916.192209343378
 30
0.0
 11
6932.993617555381
 21
3916.192209343378
 31
0.0
  0
LINE
  5
8486
330
8482
100
AcDbEntity
  8
3
 62
     0
370
    -2
100
AcDbLine
 10
6411.252841307504
 20
2796.192209343378
 30
0.0
 11
6932.993617555381
 21
2796.192209343378
 31
0.0
  0
LINE
  5
8487
330
8482
100
AcDbEntity
  8
3
 62
     0
370
    -2
100
AcDbLine
 10
6897.993617555382
 20
3846.192209343378
 30
0.0
 11
6897.993617555382
 21
2866.192209343378
 31
0.0
  0
INSERT
  5
8488
330
8482
100
AcDbEntity
  8
3
 62
     0
370
    -2
100
AcDbBlockReference
  2
_OPEN
 10
6897.993617555382
 20
3916.192209343378
 30
0.0
 41
70.0
 42
70.0
 43
70.0
 50
90.0
  0
INSERT
  5
8489
330
8482
100
AcDbEntity
  8
3
 62
     0
370
    -2
100
AcDbBlockReference
  2
_OPEN
 10
6897.993617555382
 20
2796.192209343378
 30
0.0
 41
70.0
 42
70.0
 43
70.0
 50
270.0
  0
MTEXT
  5
848A
330
8482
100
AcDbEntity
  8
3
 62
     0
100
AcDbMText
 10
6810.49361755538
 20
3356.19220934338
 30
0.0
 40
105.0
 41
0.0
 71
     5
 72
     1
  1
\A1;1120
 11
0.0000000000000001
 21
1.0
 31
0.0
 73
     1
 44
1.0
1001
ACAD
1000
MTEXTBEGIN
1070
    73
1070
     1
1070
    44
1040
1.0
1070
    74
1070
     0
1000
MTEXTEND
  0
POINT
  5
848B
330
8482
100
AcDbEntity
  8
DEFPOINTS
 62
     0
100
AcDbPoint
 10
6393.752841307505
 20
3916.192209343378
 30
0.0
  0
POINT
  5
848C
330
8482
100
AcDbEntity
  8
DEFPOINTS
 62
     0
100
AcDbPoint
 10
6393.752841307504
 20
2796.192209343378
 30
0.0
  0
POINT
  5
848D
330
8482
100
AcDbEntity
  8
DEFPOINTS
 62
     0
100
AcDbPoint
 10
6897.993617555382
 20
2796.192209343378
 30
0.0
  0
ENDBLK
  5
8484
330
8482
100
AcDbEntity
  8
0
100
AcDbBlockEnd
  0
BLOCK
  5
8490
330
848F
100
AcDbEntity
  8
0
100
AcDbBlockBegin
  2
*D29
 70
     1
 10
0.0
 20
0.0
 30
0.0
  3
*D29
  1

  0
LINE
  5
8492
330
848F
100
AcDbEntity
  8
3
 62
     0
370
    -2
100
AcDbLine
 10
4893.752841307505
 20
4571.692209343378
 30
0.0
 11
4893.752841307505
 21
4842.631848395776
 31
0.0
  0
LINE
  5
8493
330
848F
100
AcDbEntity
  8
3
 62
     0
370
    -2
100
AcDbLine
 10
6393.752841307505
 20
4571.692209343378
 30
0.0
 11
6393.752841307505
 21
4842.631848395776
 31
0.0
  0
LINE
  5
8494
330
848F
100
AcDbEntity
  8
3
 62
     0
370
    -2
100
AcDbLine
 10
4963.752841307505
 20
4807.631848395777
 30
0.0
 11
6323.752841307506
 21
4807.631848395777
 31
0.0
  0
INSERT
  5
8495
330
848F
100
AcDbEntity
  8
3
 62
     0
370
    -2
100
AcDbBlockReference
  2
_OPEN
 10
4893.752841307505
 20
4807.631848395777
 30
0.0
 41
70.0
 42
70.0
 43
70.0
 50
180.0
  0
INSERT
  5
8496
330
848F
100
AcDbEntity
  8
3
 62
     0
370
    -2
100
AcDbBlockReference
  2
_OPEN
 10
6393.752841307505
 20
4807.631848395777
 30
0.0
 41
70.0
 42
70.0
 43
70.0
  0
MTEXT
  5
8497
330
848F
100
AcDbEntity
  8
3
 62
     0
100
AcDbMText
 10
5643.752841307505
 20
4895.131848395777
 30
0.0
 40
105.0
 41
0.0
 71
     5
 72
     1
  1
\A1;1500
 73
     1
 44
1.0
1001
ACAD
1000
MTEXTBEGIN
1070
    73
1070
     1
1070
    44
1040
1.0
1070
    74
1070
     0
1000
MTEXTEND
  0
POINT
  5
8498
330
848F
100
AcDbEntity
  8
DEFPOINTS
 62
     0
100
AcDbPoint
 10
4893.752841307505
 20
4554.192209343379
 30
0.0
  0
POINT
  5
8499
330
848F
100
AcDbEntity
  8
DEFPOINTS
 62
     0
100
AcDbPoint
 10
6393.752841307505
 20
4554.192209343379
 30
0.0
  0
POINT
  5
849A
330
848F
100
AcDbEntity
  8
DEFPOINTS
 62
     0
100
AcDbPoint
 10
6393.752841307505
 20
4807.631848395777
 30
0.0
  0
ENDBLK
  5
8491
330
848F
100
AcDbEntity
  8
0
100
AcDbBlockEnd
  0
BLOCK
  5
849D
330
849C
100
AcDbEntity
  8
0
100
AcDbBlockBegin
  2
*D30
 70
     1
 10
0.0
 20
0.0
 30
0.0
  3
*D30
  1

  0
LINE
  5
84EE
330
849C
100
AcDbEntity
  8
3
 62
     0
370
    -2
100
AcDbLine
 10
4523.752841307505
 20
3753.692209343379
 30
0.0
 11
4523.752841307505
 21
5081.751112831963
 31
0.0
  0
LINE
  5
84EF
330
849C
100
AcDbEntity
  8
3
 62
     0
370
    -2
100
AcDbLine
 10
5643.752841307505
 20
4965.131848395777
 30
0.0
 11
5643.752841307505
 21
5081.751112831963
 31
0.0
  0
LINE
  5
84F0
330
849C
100
AcDbEntity
  8
3
 62
     0
370
    -2
100
AcDbLine
 10
4593.752841307504
 20
5046.751112831964
 30
0.0
 11
5573.752841307506
 21
5046.751112831964
 31
0.0
  0
INSERT
  5
84F1
330
849C
100
AcDbEntity
  8
3
 62
     0
370
    -2
100
AcDbBlockReference
  2
_OPEN
 10
4523.752841307505
 20
5046.751112831964
 30
0.0
 41
70.0
 42
70.0
 43
70.0
 50
180.0
  0
INSERT
  5
84F2
330
849C
100
AcDbEntity
  8
3
 62
     0
370
    -2
100
AcDbBlockReference
  2
_OPEN
 10
5643.752841307505
 20
5046.751112831964
 30
0.0
 41
70.0
 42
70.0
 43
70.0
  0
MTEXT
  5
84F3
330
849C
100
AcDbEntity
  8
3
 62
     0
100
AcDbMText
 10
5083.752841307505
 20
5161.751112831964
 30
0.0
 40
105.0
 41
0.0
 71
     5
 72
     1
  1
\A1;(1120)
 73
     1
 44
1.0
1001
ACAD
1000
MTEXTBEGIN
1070
    73
1070
     1
1070
    44
1040
1.0
1070
    74
1070
     0
1000
MTEXTEND
  0
POINT
  5
84F4
330
849C
100
AcDbEntity
  8
DEFPOINTS
 62
     0
100
AcDbPoint
 10
4523.752841307505
 20
3736.192209343379
 30
0.0
  0
POINT
  5
84F5
330
849C
100
AcDbEntity
  8
DEFPOINTS
 62
     0
100
AcDbPoint
 10
5643.752841307505
 20
4947.631848395777
 30
0.0
  0
POINT
  5
84F6
330
849C
100
AcDbEntity
  8
DEFPOINTS
 62
     0
100
AcDbPoint
 10
5643.752841307505
 20
5046.751112831964
 30
0.0
  0
ENDBLK
  5
849E
330
849C
100
AcDbEntity
  8
0
100
AcDbBlockEnd
  0
BLOCK
  5
84AA
330
84A9
100
AcDbEntity
  8
0
100
AcDbBlockBegin
  2
*D31
 70
     1
 10
0.0
 20
0.0
 30
0.0
  3
*D31
  1

  0
LINE
  5
84F7
330
84A9
100
AcDbEntity
  8
3
 62
     0
370
    -2
100
AcDbLine
 10
5643.752841307505
 20
4965.131848395777
 30
0.0
 11
5643.752841307505
 21
5081.751112831963
 31
0.0
  0
LINE
  5
84F8
330
84A9
100
AcDbEntity
  8
3
 62
     0
370
    -2
100
AcDbLine
 10
6573.752841307504
 20
3300.69220934338
 30
0.0
 11
6573.752841307504
 21
5081.751112831963
 31
0.0
  0
LINE
  5
84F9
330
84A9
100
AcDbEntity
  8
3
 62
     0
370
    -2
100
AcDbLine
 10
5713.752841307505
 20
5046.751112831964
 30
0.0
 11
6503.752841307504
 21
5046.751112831964
 31
0.0
  0
INSERT
  5
84FA
330
84A9
100
AcDbEntity
  8
3
 62
     0
370
    -2
100
AcDbBlockReference
  2
_OPEN
 10
5643.752841307505
 20
5046.751112831964
 30
0.0
 41
70.0
 42
70.0
 43
70.0
 50
180.0
  0
INSERT
  5
84FB
330
84A9
100
AcDbEntity
  8
3
 62
     0
370
    -2
100
AcDbBlockReference
  2
_OPEN
 10
6573.752841307504
 20
5046.751112831964
 30
0.0
 41
70.0
 42
70.0
 43
70.0
  0
MTEXT
  5
84FC
330
84A9
100
AcDbEntity
  8
3
 62
     0
100
AcDbMText
 10
6108.752841307504
 20
5161.751112831964
 30
0.0
 40
105.0
 41
0.0
 71
     5
 72
     1
  1
\A1;(930)
 73
     1
 44
1.0
1001
ACAD
1000
MTEXTBEGIN
1070
    73
1070
     1
1070
    44
1040
1.0
1070
    74
1070
     0
1000
MTEXTEND
  0
POINT
  5
84FD
330
84A9
100
AcDbEntity
  8
DEFPOINTS
 62
     0
100
AcDbPoint
 10
5643.752841307505
 20
4947.631848395777
 30
0.0
  0
POINT
  5
84FE
330
84A9
100
AcDbEntity
  8
DEFPOINTS
 62
     0
100
AcDbPoint
 10
6573.752841307504
 20
3283.192209343379
 30
0.0
  0
POINT
  5
84FF
330
84A9
100
AcDbEntity
  8
DEFPOINTS
 62
     0
100
AcDbPoint
 10
6573.752841307504
 20
5046.751112831964
 30
0.0
  0
ENDBLK
  5
84AB
330
84A9
100
AcDbEntity
  8
0
100
AcDbBlockEnd
  0
BLOCK
  5
8502
330
8501
100
AcDbEntity
  8
0
100
AcDbBlockBegin
  2
*D32
 70
     1
 10
0.0
 20
0.0
 30
0.0
  3
*D32
  1

  0
LINE
  5
850D
330
8501
100
AcDbEntity
  8
3
 62
     0
370
    -2
100
AcDbLine
 10
3472.200030357467
 20
6760.591300024717
 30
0.0
 11
4210.386895262201
 21
6760.591300024717
 31
0.0
  0
LINE
  5
850E
330
8501
100
AcDbEntity
  8
3
 62
     0
370
    -2
100
AcDbLine
 10
3021.562617025251
 20
5640.591300024715
 30
0.0
 11
4210.3868952622
 21
5640.591300024715
 31
0.0
  0
LINE
  5
850F
330
8501
100
AcDbEntity
  8
3
 62
     0
370
    -2
100
AcDbLine
 10
4175.3868952622
 20
6690.591300024717
 30
0.0
 11
4175.386895262199
 21
5710.591300024716
 31
0.0
  0
INSERT
  5
8510
330
8501
100
AcDbEntity
  8
3
 62
     0
370
    -2
100
AcDbBlockReference
  2
_OPEN
 10
4175.3868952622
 20
6760.591300024717
 30
0.0
 41
70.0
 42
70.0
 43
70.0
 50
90.0
  0
INSERT
  5
8511
330
8501
100
AcDbEntity
  8
3
 62
     0
370
    -2
100
AcDbBlockReference
  2
_OPEN
 10
4175.386895262199
 20
5640.591300024715
 30
0.0
 41
70.0
 42
70.0
 43
70.0
 50
270.0
  0
MTEXT
  5
8512
330
8501
100
AcDbEntity
  8
3
 62
     0
100
AcDbMText
 10
4087.886895262199
 20
6200.591300024717
 30
0.0
 40
105.0
 41
0.0
 71
     5
 72
     1
  1
\A1;1120
 11
0.0000000000000001
 21
1.0
 31
0.0
 73
     1
 44
1.0
1001
ACAD
1000
MTEXTBEGIN
1070
    73
1070
     1
1070
    44
1040
1.0
1070
    74
1070
     0
1000
MTEXTEND
  0
POINT
  5
8513
330
8501
100
AcDbEntity
  8
DEFPOINTS
 62
     0
100
AcDbPoint
 10
3454.700030357467
 20
6760.591300024717
 30
0.0
  0
POINT
  5
8514
330
8501
100
AcDbEntity
  8
DEFPOINTS
 62
     0
100
AcDbPoint
 10
3004.062617025251
 20
5640.591300024715
 30
0.0
  0
POINT
  5
8515
330
8501
100
AcDbEntity
  8
DEFPOINTS
 62
     0
100
AcDbPoint
 10
4175.386895262199
 20
5640.591300024715
 30
0.0
  0
ENDBLK
  5
8503
330
8501
100
AcDbEntity
  8
0
100
AcDbBlockEnd
  0
BLOCK
  5
8518
330
8517
100
AcDbEntity
  8
0
100
AcDbBlockBegin
  2
*D33
 70
     1
 10
0.0
 20
0.0
 30
0.0
  3
*D33
  1

  0
LINE
  5
851A
330
8517
100
AcDbEntity
  8
3
 62
     0
370
    -2
100
AcDbLine
 10
1006.56261702525
 20
5678.591300024716
 30
0.0
 11
773.2474876895393
 21
5678.591300024716
 31
0.0
  0
LINE
  5
851B
330
8517
100
AcDbEntity
  8
3
 62
     0
370
    -2
100
AcDbLine
 10
1006.56261702525
 20
6578.591300024716
 30
0.0
 11
773.2474876895395
 21
6578.591300024716
 31
0.0
  0
LINE
  5
851C
330
8517
100
AcDbEntity
  8
3
 62
     0
370
    -2
100
AcDbLine
 10
808.2474876895393
 20
5748.591300024716
 30
0.0
 11
808.2474876895394
 21
6508.591300024716
 31
0.0
  0
INSERT
  5
851D
330
8517
100
AcDbEntity
  8
3
 62
     0
370
    -2
100
AcDbBlockReference
  2
_OPEN
 10
808.2474876895393
 20
5678.591300024716
 30
0.0
 41
70.0
 42
70.0
 43
70.0
 50
270.0
  0
INSERT
  5
851E
330
8517
100
AcDbEntity
  8
3
 62
     0
370
    -2
100
AcDbBlockReference
  2
_OPEN
 10
808.2474876895394
 20
6578.591300024716
 30
0.0
 41
70.0
 42
70.0
 43
70.0
 50
90.0
  0
MTEXT
  5
851F
330
8517
100
AcDbEntity
  8
3
 62
     0
100
AcDbMText
 10
720.7474876895384
 20
6128.591300024716
 30
0.0
 40
105.0
 41
0.0
 71
     5
 72
     1
  1
\A1;900
 11
0.0000000000000001
 21
1.0
 31
0.0
 73
     1
 44
1.0
1001
ACAD
1000
MTEXTBEGIN
1070
    73
1070
     1
1070
    44
1040
1.0
1070
    74
1070
     0
1000
MTEXTEND
  0
POINT
  5
8520
330
8517
100
AcDbEntity
  8
DEFPOINTS
 62
     0
100
AcDbPoint
 10
1024.06261702525
 20
5678.591300024716
 30
0.0
  0
POINT
  5
8521
330
8517
100
AcDbEntity
  8
DEFPOINTS
 62
     0
100
AcDbPoint
 10
1024.06261702525
 20
6578.591300024716
 30
0.0
  0
POINT
  5
8522
330
8517
100
AcDbEntity
  8
DEFPOINTS
 62
     0
100
AcDbPoint
 10
808.2474876895394
 20
6578.591300024716
 30
0.0
  0
ENDBLK
  5
8519
330
8517
100
AcDbEntity
  8
0
100
AcDbBlockEnd
  0
BLOCK
  5
8525
330
8524
100
AcDbEntity
  8
0
100
AcDbBlockBegin
  2
*D34
 70
     1
 10
0.0
 20
0.0
 30
0.0
  3
*D34
  1

  0
LINE
  5
8527
330
8524
100
AcDbEntity
  8
3
 62
     0
370
    -2
100
AcDbLine
 10
1024.06261702525
 20
6596.091300024716
 30
0.0
 11
1024.06261702525
 21
7843.010105037642
 31
0.0
  0
LINE
  5
8528
330
8524
100
AcDbEntity
  8
3
 62
     0
370
    -2
100
AcDbLine
 10
1964.062617025251
 20
7596.091300024716
 30
0.0
 11
1964.062617025251
 21
7843.010105037642
 31
0.0
  0
LINE
  5
8529
330
8524
100
AcDbEntity
  8
3
 62
     0
370
    -2
100
AcDbLine
 10
1094.06261702525
 20
7808.010105037642
 30
0.0
 11
1894.062617025251
 21
7808.010105037642
 31
0.0
  0
INSERT
  5
852A
330
8524
100
AcDbEntity
  8
3
 62
     0
370
    -2
100
AcDbBlockReference
  2
_OPEN
 10
1024.06261702525
 20
7808.010105037642
 30
0.0
 41
70.0
 42
70.0
 43
70.0
 50
180.0
  0
INSERT
  5
852B
330
8524
100
AcDbEntity
  8
3
 62
     0
370
    -2
100
AcDbBlockReference
  2
_OPEN
 10
1964.062617025251
 20
7808.010105037642
 30
0.0
 41
70.0
 42
70.0
 43
70.0
  0
MTEXT
  5
852C
330
8524
100
AcDbEntity
  8
3
 62
     0
100
AcDbMText
 10
1494.06261702525
 20
7895.510105037641
 30
0.0
 40
105.0
 41
0.0
 71
     5
 72
     1
  1
\A1;940
 73
     1
 44
1.0
1001
ACAD
1000
MTEXTBEGIN
1070
    73
1070
     1
1070
    44
1040
1.0
1070
    74
1070
     0
1000
MTEXTEND
  0
POINT
  5
852D
330
8524
100
AcDbEntity
  8
DEFPOINTS
 62
     0
100
AcDbPoint
 10
1024.06261702525
 20
6578.591300024716
 30
0.0
  0
POINT
  5
852E
330
8524
100
AcDbEntity
  8
DEFPOINTS
 62
     0
100
AcDbPoint
 10
1964.062617025251
 20
7578.591300024716
 30
0.0
  0
POINT
  5
852F
330
8524
100
AcDbEntity
  8
DEFPOINTS
 62
     0
100
AcDbPoint
 10
1964.062617025251
 20
7808.010105037642
 30
0.0
  0
ENDBLK
  5
8526
330
8524
100
AcDbEntity
  8
0
100
AcDbBlockEnd
  0
BLOCK
  5
8532
330
8531
100
AcDbEntity
  8
0
100
AcDbBlockBegin
  2
*D35
 70
     1
 10
0.0
 20
0.0
 30
0.0
  3
*D35
  1

  0
LINE
  5
8534
330
8531
100
AcDbEntity
  8
3
 62
     0
370
    -2
100
AcDbLine
 10
1964.062617025251
 20
7596.091300024716
 30
0.0
 11
1964.062617025251
 21
7843.010105037642
 31
0.0
  0
LINE
  5
8535
330
8531
100
AcDbEntity
  8
3
 62
     0
370
    -2
100
AcDbLine
 10
3284.062617025249
 20
7596.091300024716
 30
0.0
 11
3284.062617025249
 21
7843.010105037642
 31
0.0
  0
LINE
  5
8536
330
8531
100
AcDbEntity
  8
3
 62
     0
370
    -2
100
AcDbLine
 10
2034.062617025251
 20
7808.010105037642
 30
0.0
 11
3214.06261702525
 21
7808.010105037642
 31
0.0
  0
INSERT
  5
8537
330
8531
100
AcDbEntity
  8
3
 62
     0
370
    -2
100
AcDbBlockReference
  2
_OPEN
 10
1964.062617025251
 20
7808.010105037642
 30
0.0
 41
70.0
 42
70.0
 43
70.0
 50
180.0
  0
INSERT
  5
8538
330
8531
100
AcDbEntity
  8
3
 62
     0
370
    -2
100
AcDbBlockReference
  2
_OPEN
 10
3284.062617025249
 20
7808.010105037642
 30
0.0
 41
70.0
 42
70.0
 43
70.0
  0
MTEXT
  5
8539
330
8531
100
AcDbEntity
  8
3
 62
     0
100
AcDbMText
 10
2624.06261702525
 20
7895.510105037641
 30
0.0
 40
105.0
 41
0.0
 71
     5
 72
     1
  1
\A1;1320
 73
     1
 44
1.0
1001
ACAD
1000
MTEXTBEGIN
1070
    73
1070
     1
1070
    44
1040
1.0
1070
    74
1070
     0
1000
MTEXTEND
  0
POINT
  5
853A
330
8531
100
AcDbEntity
  8
DEFPOINTS
 62
     0
100
AcDbPoint
 10
1964.062617025251
 20
7578.591300024716
 30
0.0
  0
POINT
  5
853B
330
8531
100
AcDbEntity
  8
DEFPOINTS
 62
     0
100
AcDbPoint
 10
3284.062617025249
 20
7578.591300024716
 30
0.0
  0
POINT
  5
853C
330
8531
100
AcDbEntity
  8
DEFPOINTS
 62
     0
100
AcDbPoint
 10
3284.062617025249
 20
7808.010105037642
 30
0.0
  0
ENDBLK
  5
8533
330
8531
100
AcDbEntity
  8
0
100
AcDbBlockEnd
  0
BLOCK
  5
853F
330
853E
100
AcDbEntity
  8
0
100
AcDbBlockBegin
  2
*D36
 70
     1
 10
0.0
 20
0.0
 30
0.0
  3
*D36
  1

  0
LINE
  5
8541
330
853E
100
AcDbEntity
  8
3
 62
     0
370
    -2
100
AcDbLine
 10
3301.56261702525
 20
7578.591300024716
 30
0.0
 11
3754.797915355994
 21
7578.591300024716
 31
0.0
  0
LINE
  5
8542
330
853E
100
AcDbEntity
  8
3
 62
     0
370
    -2
100
AcDbLine
 10
3301.562617025251
 20
5678.591300024717
 30
0.0
 11
3754.797915355993
 21
5678.591300024717
 31
0.0
  0
LINE
  5
8543
330
853E
100
AcDbEntity
  8
3
 62
     0
370
    -2
100
AcDbLine
 10
3719.797915355993
 20
7508.591300024716
 30
0.0
 11
3719.797915355993
 21
5748.591300024717
 31
0.0
  0
INSERT
  5
8544
330
853E
100
AcDbEntity
  8
3
 62
     0
370
    -2
100
AcDbBlockReference
  2
_OPEN
 10
3719.797915355993
 20
7578.591300024716
 30
0.0
 41
70.0
 42
70.0
 43
70.0
 50
90.0
  0
INSERT
  5
8545
330
853E
100
AcDbEntity
  8
3
 62
     0
370
    -2
100
AcDbBlockReference
  2
_OPEN
 10
3719.797915355993
 20
5678.591300024717
 30
0.0
 41
70.0
 42
70.0
 43
70.0
 50
270.0
  0
MTEXT
  5
8546
330
853E
100
AcDbEntity
  8
3
 62
     0
100
AcDbMText
 10
3632.297915355992
 20
6628.591300024716
 30
0.0
 40
105.0
 41
0.0
 71
     5
 72
     1
  1
\A1;1900
 11
0.0000000000000001
 21
1.0
 31
0.0
 73
     1
 44
1.0
1001
ACAD
1000
MTEXTBEGIN
1070
    73
1070
     1
1070
    44
1040
1.0
1070
    74
1070
     0
1000
MTEXTEND
  0
POINT
  5
8547
330
853E
100
AcDbEntity
  8
DEFPOINTS
 62
     0
100
AcDbPoint
 10
3284.062617025249
 20
7578.591300024716
 30
0.0
  0
POINT
  5
8548
330
853E
100
AcDbEntity
  8
DEFPOINTS
 62
     0
100
AcDbPoint
 10
3284.062617025251
 20
5678.591300024717
 30
0.0
  0
POINT
  5
8549
330
853E
100
AcDbEntity
  8
DEFPOINTS
 62
     0
100
AcDbPoint
 10
3719.797915355993
 20
5678.591300024717
 30
0.0
  0
ENDBLK
  5
8540
330
853E
100
AcDbEntity
  8
0
100
AcDbBlockEnd
  0
BLOCK
  5
854C
330
854B
100
AcDbEntity
  8
0
100
AcDbBlockBegin
  2
*D37
 70
     1
 10
0.0
 20
0.0
 30
0.0
  3
*D37
  1

  0
LINE
  5
854E
330
854B
100
AcDbEntity
  8
3
 62
     0
370
    -2
100
AcDbLine
 10
3284.062617025251
 20
5661.091300024716
 30
0.0
 11
3284.062617025251
 21
5296.934663388967
 31
0.0
  0
LINE
  5
854F
330
854B
100
AcDbEntity
  8
3
 62
     0
370
    -2
100
AcDbLine
 10
1024.06261702525
 20
5661.091300024716
 30
0.0
 11
1024.06261702525
 21
5296.934663388967
 31
0.0
  0
LINE
  5
8550
330
854B
100
AcDbEntity
  8
3
 62
     0
370
    -2
100
AcDbLine
 10
3214.062617025251
 20
5331.934663388967
 30
0.0
 11
1094.06261702525
 21
5331.934663388967
 31
0.0
  0
INSERT
  5
8551
330
854B
100
AcDbEntity
  8
3
 62
     0
370
    -2
100
AcDbBlockReference
  2
_OPEN
 10
3284.062617025251
 20
5331.934663388967
 30
0.0
 41
70.0
 42
70.0
 43
70.0
  0
INSERT
  5
8552
330
854B
100
AcDbEntity
  8
3
 62
     0
370
    -2
100
AcDbBlockReference
  2
_OPEN
 10
1024.06261702525
 20
5331.934663388967
 30
0.0
 41
70.0
 42
70.0
 43
70.0
 50
180.0
  0
MTEXT
  5
8553
330
854B
100
AcDbEntity
  8
3
 62
     0
100
AcDbMText
 10
2154.062617025251
 20
5419.434663388967
 30
0.0
 40
105.0
 41
0.0
 71
     5
 72
     1
  1
\A1;2260
 73
     1
 44
1.0
1001
ACAD
1000
MTEXTBEGIN
1070
    73
1070
     1
1070
    44
1040
1.0
1070
    74
1070
     0
1000
MTEXTEND
  0
POINT
  5
8554
330
854B
100
AcDbEntity
  8
DEFPOINTS
 62
     0
100
AcDbPoint
 10
3284.062617025251
 20
5678.591300024717
 30
0.0
  0
POINT
  5
8555
330
854B
100
AcDbEntity
  8
DEFPOINTS
 62
     0
100
AcDbPoint
 10
1024.06261702525
 20
5678.591300024716
 30
0.0
  0
POINT
  5
8556
330
854B
100
AcDbEntity
  8
DEFPOINTS
 62
     0
100
AcDbPoint
 10
1024.06261702525
 20
5331.934663388967
 30
0.0
  0
ENDBLK
  5
854D
330
854B
100
AcDbEntity
  8
0
100
AcDbBlockEnd
  0
BLOCK
  5
8559
330
8558
100
AcDbEntity
  8
0
100
AcDbBlockBegin
  2
*D38
 70
     1
 10
0.0
 20
0.0
 30
0.0
  3
*D38
  1

  0
LINE
  5
855B
330
8558
100
AcDbEntity
  8
3
 62
     0
370
    -2
100
AcDbLine
 10
3384.062617025249
 20
4624.692209343378
 30
0.0
 11
3384.062617025249
 21
4845.525596269836
 31
0.0
  0
LINE
  5
855C
330
8558
100
AcDbEntity
  8
3
 62
     0
370
    -2
100
AcDbLine
 10
2624.062617025249
 20
4687.605732334349
 30
0.0
 11
2624.062617025249
 21
4845.525596269836
 31
0.0
  0
LINE
  5
855D
330
8558
100
AcDbEntity
  8
3
 62
     0
370
    -2
100
AcDbLine
 10
3314.06261702525
 20
4810.525596269836
 30
0.0
 11
2694.06261702525
 21
4810.525596269836
 31
0.0
  0
INSERT
  5
855E
330
8558
100
AcDbEntity
  8
3
 62
     0
370
    -2
100
AcDbBlockReference
  2
_OPEN
 10
3384.062617025249
 20
4810.525596269836
 30
0.0
 41
70.0
 42
70.0
 43
70.0
  0
INSERT
  5
855F
330
8558
100
AcDbEntity
  8
3
 62
     0
370
    -2
100
AcDbBlockReference
  2
_OPEN
 10
2624.062617025249
 20
4810.525596269836
 30
0.0
 41
70.0
 42
70.0
 43
70.0
 50
180.0
  0
MTEXT
  5
8560
330
8558
100
AcDbEntity
  8
3
 62
     0
100
AcDbMText
 10
3004.06261702525
 20
4898.025596269835
 30
0.0
 40
105.0
 41
0.0
 71
     5
 72
     1
  1
\A1;760
 73
     1
 44
1.0
1001
ACAD
1000
MTEXTBEGIN
1070
    73
1070
     1
1070
    44
1040
1.0
1070
    74
1070
     0
1000
MTEXTEND
  0
POINT
  5
8561
330
8558
100
AcDbEntity
  8
DEFPOINTS
 62
     0
100
AcDbPoint
 10
3384.062617025249
 20
4607.192209343378
 30
0.0
  0
POINT
  5
8562
330
8558
100
AcDbEntity
  8
DEFPOINTS
 62
     0
100
AcDbPoint
 10
2624.062617025249
 20
4670.105732334348
 30
0.0
  0
POINT
  5
8563
330
8558
100
AcDbEntity
  8
DEFPOINTS
 62
     0
100
AcDbPoint
 10
2624.062617025249
 20
4810.525596269836
 30
0.0
  0
ENDBLK
  5
855A
330
8558
100
AcDbEntity
  8
0
100
AcDbBlockEnd
  0
BLOCK
  5
8566
330
8565
100
AcDbEntity
  8
0
100
AcDbBlockBegin
  2
*D39
 70
     1
 10
0.0
 20
0.0
 30
0.0
  3
*D39
  1

  0
LINE
  5
8568
330
8565
100
AcDbEntity
  8
3
 62
     0
370
    -2
100
AcDbLine
 10
2624.062617025249
 20
4687.605732334349
 30
0.0
 11
2624.062617025249
 21
4845.525596269836
 31
0.0
  0
LINE
  5
8569
330
8565
100
AcDbEntity
  8
3
 62
     0
370
    -2
100
AcDbLine
 10
1655.06261702525
 20
3455.692209343379
 30
0.0
 11
1655.06261702525
 21
4845.525596269836
 31
0.0
  0
LINE
  5
856A
330
8565
100
AcDbEntity
  8
3
 62
     0
370
    -2
100
AcDbLine
 10
2554.06261702525
 20
4810.525596269836
 30
0.0
 11
1725.062617025251
 21
4810.525596269836
 31
0.0
  0
INSERT
  5
856B
330
8565
100
AcDbEntity
  8
3
 62
     0
370
    -2
100
AcDbBlockReference
  2
_OPEN
 10
2624.062617025249
 20
4810.525596269836
 30
0.0
 41
70.0
 42
70.0
 43
70.0
  0
INSERT
  5
856C
330
8565
100
AcDbEntity
  8
3
 62
     0
370
    -2
100
AcDbBlockReference
  2
_OPEN
 10
1655.06261702525
 20
4810.525596269836
 30
0.0
 41
70.0
 42
70.0
 43
70.0
 50
180.0
  0
MTEXT
  5
856D
330
8565
100
AcDbEntity
  8
3
 62
     0
100
AcDbMText
 10
2139.56261702525
 20
4898.025596269835
 30
0.0
 40
105.0
 41
0.0
 71
     5
 72
     1
  1
\A1;969
 73
     1
 44
1.0
1001
ACAD
1000
MTEXTBEGIN
1070
    73
1070
     1
1070
    44
1040
1.0
1070
    74
1070
     0
1000
MTEXTEND
  0
POINT
  5
856E
330
8565
100
AcDbEntity
  8
DEFPOINTS
 62
     0
100
AcDbPoint
 10
2624.062617025249
 20
4670.105732334348
 30
0.0
  0
POINT
  5
856F
330
8565
100
AcDbEntity
  8
DEFPOINTS
 62
     0
100
AcDbPoint
 10
1655.06261702525
 20
3438.192209343378
 30
0.0
  0
POINT
  5
8570
330
8565
100
AcDbEntity
  8
DEFPOINTS
 62
     0
100
AcDbPoint
 10
1655.06261702525
 20
4810.525596269836
 30
0.0
  0
ENDBLK
  5
8567
330
8565
100
AcDbEntity
  8
0
100
AcDbBlockEnd
  0
BLOCK
  5
8573
330
8572
100
AcDbEntity
  8
0
100
AcDbBlockBegin
  2
*D40
 70
     1
 10
0.0
 20
0.0
 30
0.0
  3
*D40
  1

  0
LINE
  5
8575
330
8572
100
AcDbEntity
  8
3
 62
     0
370
    -2
100
AcDbLine
 10
3384.062617025249
 20
4624.692209343378
 30
0.0
 11
3384.062617025249
 21
5037.684932965962
 31
0.0
  0
LINE
  5
8576
330
8572
100
AcDbEntity
  8
3
 62
     0
370
    -2
100
AcDbLine
 10
1024.062617025251
 20
2658.692209343379
 30
0.0
 11
1024.062617025251
 21
5037.684932965962
 31
0.0
  0
LINE
  5
8577
330
8572
100
AcDbEntity
  8
3
 62
     0
370
    -2
100
AcDbLine
 10
3314.06261702525
 20
5002.684932965962
 30
0.0
 11
1094.062617025251
 21
5002.684932965962
 31
0.0
  0
INSERT
  5
8578
330
8572
100
AcDbEntity
  8
3
 62
     0
370
    -2
100
AcDbBlockReference
  2
_OPEN
 10
3384.062617025249
 20
5002.684932965962
 30
0.0
 41
70.0
 42
70.0
 43
70.0
  0
INSERT
  5
8579
330
8572
100
AcDbEntity
  8
3
 62
     0
370
    -2
100
AcDbBlockReference
  2
_OPEN
 10
1024.062617025251
 20
5002.684932965962
 30
0.0
 41
70.0
 42
70.0
 43
70.0
 50
180.0
  0
MTEXT
  5
857A
330
8572
100
AcDbEntity
  8
3
 62
     0
100
AcDbMText
 10
2204.06261702525
 20
5090.184932965962
 30
0.0
 40
105.0
 41
0.0
 71
     5
 72
     1
  1
\A1;2360
 73
     1
 44
1.0
1001
ACAD
1000
MTEXTBEGIN
1070
    73
1070
     1
1070
    44
1040
1.0
1070
    74
1070
     0
1000
MTEXTEND
  0
POINT
  5
857B
330
8572
100
AcDbEntity
  8
DEFPOINTS
 62
     0
100
AcDbPoint
 10
3384.062617025249
 20
4607.192209343378
 30
0.0
  0
POINT
  5
857C
330
8572
100
AcDbEntity
  8
DEFPOINTS
 62
     0
100
AcDbPoint
 10
1024.062617025251
 20
2641.192209343379
 30
0.0
  0
POINT
  5
857D
330
8572
100
AcDbEntity
  8
DEFPOINTS
 62
     0
100
AcDbPoint
 10
1024.062617025251
 20
5002.684932965962
 30
0.0
  0
ENDBLK
  5
8574
330
8572
100
AcDbEntity
  8
0
100
AcDbBlockEnd
  0
BLOCK
  5
8580
330
857F
100
AcDbEntity
  8
0
100
AcDbBlockBegin
  2
*D41
 70
     1
 10
0.0
 20
0.0
 30
0.0
  3
*D41
  1

  0
LINE
  5
8582
330
857F
100
AcDbEntity
  8
3
 62
     0
370
    -2
100
AcDbLine
 10
3401.56261702525
 20
4554.192209343379
 30
0.0
 11
3619.170933309518
 21
4554.192209343379
 31
0.0
  0
LINE
  5
8583
330
857F
100
AcDbEntity
  8
3
 62
     0
370
    -2
100
AcDbLine
 10
3401.56261702525
 20
3404.192209343379
 30
0.0
 11
3619.170933309518
 21
3404.192209343379
 31
0.0
  0
LINE
  5
8584
330
857F
100
AcDbEntity
  8
3
 62
     0
370
    -2
100
AcDbLine
 10
3584.170933309517
 20
4484.192209343379
 30
0.0
 11
3584.170933309517
 21
3474.192209343379
 31
0.0
  0
INSERT
  5
8585
330
857F
100
AcDbEntity
  8
3
 62
     0
370
    -2
100
AcDbBlockReference
  2
_OPEN
 10
3584.170933309517
 20
4554.192209343379
 30
0.0
 41
70.0
 42
70.0
 43
70.0
 50
90.0
  0
INSERT
  5
8586
330
857F
100
AcDbEntity
  8
3
 62
     0
370
    -2
100
AcDbBlockReference
  2
_OPEN
 10
3584.170933309517
 20
3404.192209343379
 30
0.0
 41
70.0
 42
70.0
 43
70.0
 50
270.0
  0
MTEXT
  5
8587
330
857F
100
AcDbEntity
  8
3
 62
     0
100
AcDbMText
 10
3496.670933309517
 20
3979.19220934338
 30
0.0
 40
105.0
 41
0.0
 71
     5
 72
     1
  1
\A1;1150
 11
0.0000000000000001
 21
1.0
 31
0.0
 73
     1
 44
1.0
1001
ACAD
1000
MTEXTBEGIN
1070
    73
1070
     1
1070
    44
1040
1.0
1070
    74
1070
     0
1000
MTEXTEND
  0
POINT
  5
8588
330
857F
100
AcDbEntity
  8
DEFPOINTS
 62
     0
100
AcDbPoint
 10
3384.062617025249
 20
4554.192209343379
 30
0.0
  0
POINT
  5
8589
330
857F
100
AcDbEntity
  8
DEFPOINTS
 62
     0
100
AcDbPoint
 10
3384.062617025249
 20
3404.192209343379
 30
0.0
  0
POINT
  5
858A
330
857F
100
AcDbEntity
  8
DEFPOINTS
 62
     0
100
AcDbPoint
 10
3584.170933309517
 20
3404.192209343379
 30
0.0
  0
ENDBLK
  5
8581
330
857F
100
AcDbEntity
  8
0
100
AcDbBlockEnd
  0
BLOCK
  5
858D
330
858C
100
AcDbEntity
  8
0
100
AcDbBlockBegin
  2
*D42
 70
     1
 10
0.0
 20
0.0
 30
0.0
  3
*D42
  1

  0
LINE
  5
858F
330
858C
100
AcDbEntity
  8
3
 62
     0
370
    -2
100
AcDbLine
 10
3401.56261702525
 20
4554.192209343379
 30
0.0
 11
3819.32258417102
 21
4554.192209343379
 31
0.0
  0
LINE
  5
8590
330
858C
100
AcDbEntity
  8
3
 62
     0
370
    -2
100
AcDbLine
 10
3548.343268478227
 20
3356.192209343378
 30
0.0
 11
3819.32258417102
 21
3356.192209343378
 31
0.0
  0
LINE
  5
8591
330
858C
100
AcDbEntity
  8
3
 62
     0
370
    -2
100
AcDbLine
 10
3784.322584171019
 20
4484.192209343379
 30
0.0
 11
3784.322584171019
 21
3426.192209343378
 31
0.0
  0
INSERT
  5
8592
330
858C
100
AcDbEntity
  8
3
 62
     0
370
    -2
100
AcDbBlockReference
  2
_OPEN
 10
3784.322584171019
 20
4554.192209343379
 30
0.0
 41
70.0
 42
70.0
 43
70.0
 50
90.0
  0
INSERT
  5
8593
330
858C
100
AcDbEntity
  8
3
 62
     0
370
    -2
100
AcDbBlockReference
  2
_OPEN
 10
3784.322584171019
 20
3356.192209343378
 30
0.0
 41
70.0
 42
70.0
 43
70.0
 50
270.0
  0
MTEXT
  5
8594
330
858C
100
AcDbEntity
  8
3
 62
     0
100
AcDbMText
 10
3696.822584171019
 20
3955.19220934338
 30
0.0
 40
105.0
 41
0.0
 71
     5
 72
     1
  1
\A1;1198
 11
0.0000000000000001
 21
1.0
 31
0.0
 73
     1
 44
1.0
1001
ACAD
1000
MTEXTBEGIN
1070
    73
1070
     1
1070
    44
1040
1.0
1070
    74
1070
     0
1000
MTEXTEND
  0
POINT
  5
8595
330
858C
100
AcDbEntity
  8
DEFPOINTS
 62
     0
100
AcDbPoint
 10
3384.062617025249
 20
4554.192209343379
 30
0.0
  0
POINT
  5
8596
330
858C
100
AcDbEntity
  8
DEFPOINTS
 62
     0
100
AcDbPoint
 10
3530.843268478227
 20
3356.192209343378
 30
0.0
  0
POINT
  5
8597
330
858C
100
AcDbEntity
  8
DEFPOINTS
 62
     0
100
AcDbPoint
 10
3784.322584171019
 20
3356.192209343378
 30
0.0
  0
ENDBLK
  5
858E
330
858C
100
AcDbEntity
  8
0
100
AcDbBlockEnd
  0
BLOCK
  5
859A
330
8599
100
AcDbEntity
  8
0
100
AcDbBlockBegin
  2
*D43
 70
     1
 10
0.0
 20
0.0
 30
0.0
  3
*D43
  1

  0
LINE
  5
859C
330
8599
100
AcDbEntity
  8
3
 62
     0
370
    -2
100
AcDbLine
 10
3548.343268478227
 20
3356.192209343378
 30
0.0
 11
3819.32258417102
 21
3356.192209343378
 31
0.0
  0
LINE
  5
859D
330
8599
100
AcDbEntity
  8
3
 62
     0
370
    -2
100
AcDbLine
 10
3301.56261702525
 20
2516.192209343379
 30
0.0
 11
3819.322584171019
 21
2516.192209343379
 31
0.0
  0
LINE
  5
859E
330
8599
100
AcDbEntity
  8
3
 62
     0
370
    -2
100
AcDbLine
 10
3784.322584171019
 20
3286.192209343378
 30
0.0
 11
3784.322584171019
 21
2586.192209343379
 31
0.0
  0
INSERT
  5
859F
330
8599
100
AcDbEntity
  8
3
 62
     0
370
    -2
100
AcDbBlockReference
  2
_OPEN
 10
3784.322584171019
 20
3356.192209343378
 30
0.0
 41
70.0
 42
70.0
 43
70.0
 50
90.0
  0
INSERT
  5
85A0
330
8599
100
AcDbEntity
  8
3
 62
     0
370
    -2
100
AcDbBlockReference
  2
_OPEN
 10
3784.322584171019
 20
2516.192209343379
 30
0.0
 41
70.0
 42
70.0
 43
70.0
 50
270.0
  0
MTEXT
  5
85A1
330
8599
100
AcDbEntity
  8
3
 62
     0
100
AcDbMText
 10
3696.822584171019
 20
2936.19220934338
 30
0.0
 40
105.0
 41
0.0
 71
     5
 72
     1
  1
\A1;840
 11
0.0000000000000001
 21
1.0
 31
0.0
 73
     1
 44
1.0
1001
ACAD
1000
MTEXTBEGIN
1070
    73
1070
     1
1070
    44
1040
1.0
1070
    74
1070
     0
1000
MTEXTEND
  0
POINT
  5
85A2
330
8599
100
AcDbEntity
  8
DEFPOINTS
 62
     0
100
AcDbPoint
 10
3530.843268478227
 20
3356.192209343378
 30
0.0
  0
POINT
  5
85A3
330
8599
100
AcDbEntity
  8
DEFPOINTS
 62
     0
100
AcDbPoint
 10
3284.062617025249
 20
2516.192209343379
 30
0.0
  0
POINT
  5
85A4
330
8599
100
AcDbEntity
  8
DEFPOINTS
 62
     0
100
AcDbPoint
 10
3784.322584171019
 20
2516.192209343379
 30
0.0
  0
ENDBLK
  5
859B
330
8599
100
AcDbEntity
  8
0
100
AcDbBlockEnd
  0
BLOCK
  5
85A7
330
85A6
100
AcDbEntity
  8
0
100
AcDbBlockBegin
  2
*D44
 70
     1
 10
0.0
 20
0.0
 30
0.0
  3
*D44
  1

  0
LINE
  5
867D
330
85A6
100
AcDbEntity
  8
3
 62
     0
370
    -2
100
AcDbLine
 10
3301.56261702525
 20
2516.192209343379
 30
0.0
 11
3819.322584171019
 21
2516.192209343379
 31
0.0
  0
LINE
  5
867E
330
85A6
100
AcDbEntity
  8
3
 62
     0
370
    -2
100
AcDbLine
 10
3301.56261702525
 20
2496.192209343379
 30
0.0
 11
3819.322584171019
 21
2496.192209343379
 31
0.0
  0
LINE
  5
867F
330
85A6
100
AcDbEntity
  8
3
 62
     0
370
    -2
100
AcDbLine
 10
3784.322584171019
 20
2586.192209343379
 30
0.0
 11
3784.322584171019
 21
2656.192209343379
 31
0.0
  0
LINE
  5
8680
330
85A6
100
AcDbEntity
  8
3
 62
     0
370
    -2
100
AcDbLine
 10
3784.322584171019
 20
2496.192209343379
 30
0.0
 11
3784.322584171019
 21
2426.192209343378
 31
0.0
  0
LINE
  5
8681
330
85A6
100
AcDbEntity
  8
3
 62
     0
370
    -2
100
AcDbLine
 10
3784.322584171019
 20
2506.192209343379
 30
0.0
 11
4111.822584171019
 21
2604.442209343379
 31
0.0
  0
LINE
  5
8682
330
85A6
100
AcDbEntity
  8
3
 62
     0
370
    -2
100
AcDbLine
 10
4111.822584171019
 20
2604.442209343379
 30
0.0
 11
4111.822584171019
 21
2979.442209343379
 31
0.0
  0
MTEXT
  5
8683
330
85A6
100
AcDbEntity
  8
3
 62
     0
100
AcDbMText
 10
3996.822584171019
 20
2791.942209343379
 30
0.0
 40
105.0
 41
0.0
 71
     5
 72
     1
  1
\A1;(20)
 11
0.0000000000000001
 21
1.0
 31
0.0
 73
     1
 44
1.0
1001
ACAD
1000
MTEXTBEGIN
1070
    73
1070
     1
1070
    44
1040
1.0
1070
    74
1070
     0
1000
MTEXTEND
  0
LINE
  5
8684
330
85A6
100
AcDbEntity
  8
3
 62
     0
370
    -2
100
AcDbLine
 10
3784.322584171019
 20
2516.192209343379
 30
0.0
 11
3784.322584171019
 21
2496.192209343379
 31
0.0
  0
LINE
  5
8685
330
85A6
100
AcDbEntity
  8
3
 62
     0
370
    -2
100
AcDbLine
 10
3784.322584171019
 20
2516.192209343379
 30
0.0
 11
3784.322584171019
 21
2496.192209343379
 31
0.0
  0
INSERT
  5
8686
330
85A6
100
AcDbEntity
  8
3
 62
     0
370
    -2
100
AcDbBlockReference
  2
_OPEN
 10
3784.322584171019
 20
2516.192209343379
 30
0.0
 41
70.0
 42
70.0
 43
70.0
 50
270.0
  0
INSERT
  5
8687
330
85A6
100
AcDbEntity
  8
3
 62
     0
370
    -2
100
AcDbBlockReference
  2
_DotSmall
 10
3784.322584171019
 20
2496.192209343379
 30
0.0
 41
70.0
 42
70.0
 43
70.0
 50
90.0
  0
POINT
  5
8688
330
85A6
100
AcDbEntity
  8
DEFPOINTS
 62
     0
100
AcDbPoint
 10
3284.062617025249
 20
2516.192209343379
 30
0.0
  0
POINT
  5
8689
330
85A6
100
AcDbEntity
  8
DEFPOINTS
 62
     0
100
AcDbPoint
 10
3284.062617025249
 20
2496.192209343379
 30
0.0
  0
POINT
  5
868A
330
85A6
100
AcDbEntity
  8
DEFPOINTS
 62
     0
100
AcDbPoint
 10
3784.322584171019
 20
2496.192209343379
 30
0.0
  0
ENDBLK
  5
85A8
330
85A6
100
AcDbEntity
  8
0
100
AcDbBlockEnd
  0
BLOCK
  5
85B9
330
85B8
100
AcDbEntity
  8
0
100
AcDbBlockBegin
  2
*D45
 70
     1
 10
0.0
 20
0.0
 30
0.0
  3
*D45
  1

  0
LINE
  5
86E4
330
85B8
100
AcDbEntity
  8
3
 62
     0
370
    -2
100
AcDbLine
 10
3301.56261702525
 20
2496.192209343379
 30
0.0
 11
3819.322584171019
 21
2496.192209343379
 31
0.0
  0
LINE
  5
86E5
330
85B8
100
AcDbEntity
  8
3
 62
     0
370
    -2
100
AcDbLine
 10
3301.56261702525
 20
2431.192209343379
 30
0.0
 11
3819.322584171019
 21
2431.192209343379
 31
0.0
  0
LINE
  5
86E6
330
85B8
100
AcDbEntity
  8
3
 62
     0
370
    -2
100
AcDbLine
 10
3784.322584171019
 20
2496.192209343379
 30
0.0
 11
3784.322584171019
 21
2566.192209343379
 31
0.0
  0
LINE
  5
86E7
330
85B8
100
AcDbEntity
  8
3
 62
     0
370
    -2
100
AcDbLine
 10
3784.322584171019
 20
2361.192209343379
 30
0.0
 11
3784.322584171019
 21
2291.192209343379
 31
0.0
  0
MTEXT
  5
86E8
330
85B8
100
AcDbEntity
  8
3
 62
     0
100
AcDbMText
 10
3696.822584171019
 20
2291.192209343379
 30
0.0
 40
105.0
 41
0.0
 71
     5
 72
     1
  1
\A1;65
 11
0.0000000000000001
 21
1.0
 31
0.0
 73
     1
 44
1.0
1001
ACAD
1000
MTEXTBEGIN
1070
    73
1070
     1
1070
    44
1040
1.0
1070
    74
1070
     0
1000
MTEXTEND
  0
LINE
  5
86E9
330
85B8
100
AcDbEntity
  8
3
 62
     0
370
    -2
100
AcDbLine
 10
3784.322584171019
 20
2496.192209343379
 30
0.0
 11
3784.322584171019
 21
2431.192209343379
 31
0.0
  0
INSERT
  5
86EA
330
85B8
100
AcDbEntity
  8
3
 62
     0
370
    -2
100
AcDbBlockReference
  2
_DotSmall
 10
3784.322584171019
 20
2496.192209343379
 30
0.0
 41
70.0
 42
70.0
 43
70.0
 50
270.0
  0
INSERT
  5
86EB
330
85B8
100
AcDbEntity
  8
3
 62
     0
370
    -2
100
AcDbBlockReference
  2
_OPEN
 10
3784.322584171019
 20
2431.192209343379
 30
0.0
 41
70.0
 42
70.0
 43
70.0
 50
90.0
  0
POINT
  5
86EC
330
85B8
100
AcDbEntity
  8
DEFPOINTS
 62
     0
100
AcDbPoint
 10
3284.062617025249
 20
2496.192209343379
 30
0.0
  0
POINT
  5
86ED
330
85B8
100
AcDbEntity
  8
DEFPOINTS
 62
     0
100
AcDbPoint
 10
3284.062617025249
 20
2431.192209343379
 30
0.0
  0
POINT
  5
86EE
330
85B8
100
AcDbEntity
  8
DEFPOINTS
 62
     0
100
AcDbPoint
 10
3784.322584171019
 20
2431.192209343379
 30
0.0
  0
ENDBLK
  5
85BA
330
85B8
100
AcDbEntity
  8
0
100
AcDbBlockEnd
  0
BLOCK
  5
85CB
330
85CA
100
AcDbEntity
  8
0
100
AcDbBlockBegin
  2
*D46
 70
     1
 10
0.0
 20
0.0
 30
0.0
  3
*D46
  1

  0
LINE
  5
860F
330
85CA
100
AcDbEntity
  8
3
 62
     0
370
    -2
100
AcDbLine
 10
3301.56261702525
 20
2431.192209343379
 30
0.0
 11
4210.000473495573
 21
2431.192209343379
 31
0.0
  0
LINE
  5
8610
330
85CA
100
AcDbEntity
  8
3
 62
     0
370
    -2
100
AcDbLine
 10
3401.56261702525
 20
4554.192209343379
 30
0.0
 11
4210.000473495573
 21
4554.192209343379
 31
0.0
  0
LINE
  5
8611
330
85CA
100
AcDbEntity
  8
3
 62
     0
370
    -2
100
AcDbLine
 10
4175.000473495573
 20
2501.192209343379
 30
0.0
 11
4175.000473495573
 21
4484.192209343379
 31
0.0
  0
INSERT
  5
8612
330
85CA
100
AcDbEntity
  8
3
 62
     0
370
    -2
100
AcDbBlockReference
  2
_OPEN
 10
4175.000473495573
 20
2431.192209343379
 30
0.0
 41
70.0
 42
70.0
 43
70.0
 50
270.0
  0
INSERT
  5
8613
330
85CA
100
AcDbEntity
  8
3
 62
     0
370
    -2
100
AcDbBlockReference
  2
_OPEN
 10
4175.000473495573
 20
4554.192209343379
 30
0.0
 41
70.0
 42
70.0
 43
70.0
 50
90.0
  0
MTEXT
  5
8614
330
85CA
100
AcDbEntity
  8
3
 62
     0
100
AcDbMText
 10
4060.000473495572
 20
3492.69220934338
 30
0.0
 40
105.0
 41
0.0
 71
     5
 72
     1
  1
\A1;(2123)
 11
0.0000000000000001
 21
1.0
 31
0.0
 73
     1
 44
1.0
1001
ACAD
1000
MTEXTBEGIN
1070
    73
1070
     1
1070
    44
1040
1.0
1070
    74
1070
     0
1000
MTEXTEND
  0
POINT
  5
8615
330
85CA
100
AcDbEntity
  8
DEFPOINTS
 62
     0
100
AcDbPoint
 10
3284.062617025249
 20
2431.192209343379
 30
0.0
  0
POINT
  5
8616
330
85CA
100
AcDbEntity
  8
DEFPOINTS
 62
     0
100
AcDbPoint
 10
3384.062617025249
 20
4554.192209343379
 30
0.0
  0
POINT
  5
8617
330
85CA
100
AcDbEntity
  8
DEFPOINTS
 62
     0
100
AcDbPoint
 10
4175.000473495573
 20
4554.192209343379
 30
0.0
  0
ENDBLK
  5
85CC
330
85CA
100
AcDbEntity
  8
0
100
AcDbBlockEnd
  0
BLOCK
  5
867B
330
8679
100
AcDbEntity
  8
0
100
AcDbBlockBegin
  2
_DotSmall
 70
     0
 10
0.0
 20
0.0
 30
0.0
  3
_DotSmall
  1

  0
LWPOLYLINE
  5
867A
330
8679
100
AcDbEntity
  8
0
  6
ByBlock
 62
     0
100
AcDbPolyline
 90
        2
 70
     1
 43
0.5
 10
-0.0625
 20
0.0
 42
1.0
 10
0.0625
 20
0.0
 42
1.0
  0
ENDBLK
  5
867C
330
8679
100
AcDbEntity
  8
0
100
AcDbBlockEnd
  0
ENDSEC
  0
SECTION
  2
ENTITIES
  0
INSERT
  5
7C13
330
8432
100
AcDbEntity
  8
0
100
AcDbBlockReference
  2
YA_N
 10
6.0
 20
5.0
 30
0.0
  0
LINE
  5
7C15
330
8432
100
AcDbEntity
  8
2
100
AcDbLine
 10
3530.843268478227
 20
3356.192209343378
 30
0.0
 11
1557.688275911579
 21
3356.192209343378
 31
0.0
  0
LINE
  5
7C16
330
8432
100
AcDbEntity
  8
2
100
AcDbLine
 10
2624.062617025251
 20
2431.192209343379
 30
0.0
 11
2624.062617025249
 21
4670.105732334348
 31
0.0
  0
LINE
  5
7C17
330
8432
100
AcDbEntity
  8
1
100
AcDbLine
 10
3384.062617025249
 20
3351.192209343379
 30
0.0
 11
3384.062617025249
 21
4607.192209343378
 31
0.0
  0
LINE
  5
7C18
330
8432
100
AcDbEntity
  8
1
100
AcDbLine
 10
3384.062617025249
 20
4607.192209343378
 30
0.0
 11
3380.062617025251
 21
4607.192209343378
 31
0.0
  0
LINE
  5
7C19
330
8432
100
AcDbEntity
  8
1
100
AcDbLine
 10
3384.062617025249
 20
3351.192209343379
 30
0.0
 11
3380.062617025251
 21
3351.192209343379
 31
0.0
  0
LINE
  5
7C1A
330
8432
100
AcDbEntity
  8
1
100
AcDbLine
 10
3334.062617025249
 20
3404.192209343379
 30
0.0
 11
3334.062617025249
 21
4549.70512110794
 31
0.0
  0
LINE
  5
7C1B
330
8432
100
AcDbEntity
  8
1
100
AcDbLine
 10
3380.062617025251
 20
3351.192209343379
 30
0.0
 11
3380.062617025251
 21
4607.192209343378
 31
0.0
  0
LINE
  5
7C1C
330
8432
100
AcDbEntity
  8
1
100
AcDbLine
 10
3284.062617025249
 20
2516.192209343379
 30
0.0
 11
1024.062617025251
 21
2516.192209343379
 31
0.0
1001
ACAD
1000
ASC_BOUNDS
1002
{
1070
    19
1005
0
1002
}
  0
LINE
  5
7C1D
330
8432
100
AcDbEntity
  8
1
100
AcDbLine
 10
3284.062617025251
 20
2641.192209343379
 30
0.0
 11
3284.062617025249
 21
2516.192209343379
 31
0.0
  0
LINE
  5
7C1E
330
8432
100
AcDbEntity
  8
1
100
AcDbLine
 10
1024.062617025251
 20
2641.192209343379
 30
0.0
 11
1024.062617025251
 21
2516.192209343379
 31
0.0
  0
LINE
  5
7C1F
330
8432
100
AcDbEntity
  8
1
100
AcDbLine
 10
3284.062617025249
 20
2641.192209343379
 30
0.0
 11
1024.062617025251
 21
2641.192209343379
 31
0.0
  0
ARC
  5
7C20
330
8432
100
AcDbEntity
  8
1
100
AcDbCircle
 10
2706.062617025251
 20
3438.192209343378
 30
0.0
 40
1051.0
100
AcDbArc
 50
94.47481789853384
 51
184.4748178985337
  0
ARC
  5
7C21
330
8432
100
AcDbEntity
  8
1
100
AcDbCircle
 10
2542.06261702525
 20
3438.192209343378
 30
0.0
 40
887.0
100
AcDbArc
 50
185.3043652077958
 51
243.9660825265812
  0
ARC
  5
7C22
330
8432
100
AcDbEntity
  8
1
100
AcDbCircle
 10
2555.562617025251
 20
3287.692209343378
 30
0.0
 40
736.5
100
AcDbArc
 50
298.6218443773359
 51
5.336648321383473
  0
LINE
  5
7C23
330
8432
100
AcDbEntity
  8
1
100
AcDbLine
 10
3384.062617025249
 20
4554.192209343379
 30
0.0
 11
2624.062617025249
 21
4485.988468164721
 31
0.0
  0
LINE
  5
7C24
330
8432
100
AcDbEntity
  8
1
100
AcDbLine
 10
3384.062617025249
 20
3404.192209343379
 30
0.0
 11
3290.33583425674
 21
3404.192209343379
 31
0.0
  0
LINE
  5
7C25
330
8432
100
AcDbEntity
  8
2
100
AcDbLine
 10
1314.06261702525
 20
3215.050485499323
 30
0.0
 11
1314.062617025252
 21
2431.192209343379
 31
0.0
  0
LINE
  5
7C26
330
8432
100
AcDbEntity
  8
2
100
AcDbLine
 10
1549.388911884229
 20
2901.192209343378
 30
0.0
 11
1049.897991042991
 21
2901.192209343378
 31
0.0
  0
LINE
  5
7C27
330
8432
100
AcDbEntity
  8
1
100
AcDbLine
 10
4561.752841307504
 20
2516.192209343379
 30
0.0
 11
4626.752841307506
 21
2516.192209343379
 31
0.0
1001
ACAD
1000
ASC_BOUNDS
1002
{
1070
    19
1002
}
  0
LINE
  5
7C28
330
8432
100
AcDbEntity
  8
1
100
AcDbLine
 10
4561.752841307504
 20
2641.192209343379
 30
0.0
 11
6461.752841307505
 21
2641.192209343379
 31
0.0
  0
LINE
  5
7C29
330
8432
100
AcDbEntity
  8
1
100
AcDbLine
 10
4626.752841307506
 20
2516.192209343379
 30
0.0
 11
6461.752841307505
 21
2516.192209343379
 31
0.0
1001
ACAD
1000
ASC_BOUNDS
1002
{
1070
    19
1002
}
  0
LINE
  5
7C2A
330
8432
100
AcDbEntity
  8
2
100
AcDbLine
 10
4539.276091240407
 20
3356.192209343378
 30
0.0
 11
6568.740828384246
 21
3356.192209343378
 31
0.0
  0
LINE
  5
7C2B
330
8432
100
AcDbEntity
  8
1
100
AcDbLine
 10
4558.752841307506
 20
3610.192209343378
 30
0.0
 11
4558.752841307506
 21
2808.192209343378
 31
0.0
  0
LINE
  5
7C2C
330
8432
100
AcDbEntity
  8
1
100
AcDbLine
 10
4669.252841307506
 20
3610.192209343378
 30
0.0
 11
4669.252841307505
 21
2808.192209343378
 31
0.0
  0
LINE
  5
7C2D
330
8432
100
AcDbEntity
  8
2
100
AcDbLine
 10
4540.533902088376
 20
2926.192209343378
 30
0.0
 11
5000.698531242382
 21
2926.192209343378
 31
0.0
  0
LINE
  5
7C2E
330
8432
100
AcDbEntity
  8
1
100
AcDbLine
 10
4523.752841307505
 20
3736.192209343379
 30
0.0
 11
4523.752841307505
 21
2706.192209343379
 31
0.0
  0
LINE
  5
7C2F
330
8432
100
AcDbEntity
  8
1
100
AcDbLine
 10
4721.052841307505
 20
3736.192209343379
 30
0.0
 11
4721.052841307504
 21
3716.192209343379
 31
0.0
  0
LINE
  5
7C30
330
8432
100
AcDbEntity
  8
2
100
AcDbLine
 10
2624.062617025249
 20
7444.223726659709
 30
0.0
 11
2624.062617025249
 21
5601.64531611957
 31
0.0
  0
LINE
  5
7C31
330
8432
100
AcDbEntity
  8
2
100
AcDbLine
 10
3454.700030357467
 20
6760.591300024717
 30
0.0
 11
1559.200892146
 21
6760.591300024717
 31
0.0
  0
LINE
  5
7C32
330
8432
100
AcDbEntity
  8
2
100
AcDbLine
 10
5643.752841307505
 20
4763.374535509206
 30
0.0
 11
5643.752841307506
 21
2431.192209343379
 31
0.0
  0
POINT
  5
7C33
330
8432
100
AcDbEntity
  8
1
100
AcDbPoint
 10
3425.264179523871
 20
3356.192209343378
 30
0.0
  0
INSERT
  5
7C34
330
8432
100
AcDbEntity
  8
0
100
AcDbBlockReference
  2
YA_N
 10
-1074.779326041182
 20
-1311.669320613289
 30
0.0
 41
25.0
 42
25.0
 43
25.0
  0
LINE
  5
7C36
330
8432
100
AcDbEntity
  8
1
100
AcDbLine
 10
3284.062617025249
 20
2496.192209343379
 30
0.0
 11
1024.062617025251
 21
2496.192209343379
 31
0.0
1001
ACAD
1000
ASC_BOUNDS
1002
{
1070
    19
1005
0
1002
}
  0
LINE
  5
7C37
330
8432
100
AcDbEntity
  8
1
100
AcDbLine
 10
3284.062617025249
 20
2496.192209343379
 30
0.0
 11
3284.062617025249
 21
2431.192209343379
 31
0.0
  0
LINE
  5
7C38
330
8432
100
AcDbEntity
  8
1
100
AcDbLine
 10
1024.062617025251
 20
2496.192209343379
 30
0.0
 11
1024.062617025251
 21
2431.192209343379
 31
0.0
  0
LINE
  5
7C39
330
8432
100
AcDbEntity
  8
1
100
AcDbLine
 10
3284.062617025249
 20
2431.192209343379
 30
0.0
 11
1024.062617025251
 21
2431.192209343379
 31
0.0
1001
ACAD
1000
ASC_BOUNDS
1002
{
1070
    19
1002
}
  0
LINE
  5
7C3A
330
8432
100
AcDbEntity
  8
1
100
AcDbLine
 10
4564.252841307506
 20
2496.192209343379
 30
0.0
 11
6461.752841307506
 21
2496.192209343379
 31
0.0
1001
ACAD
1000
ASC_BOUNDS
1002
{
1070
    19
1002
}
  0
LINE
  5
7C3B
330
8432
100
AcDbEntity
  8
1
100
AcDbLine
 10
4561.752841307504
 20
2496.192209343379
 30
0.0
 11
4561.752841307494
 21
2431.192209343379
 31
0.0
  0
LINE
  5
7C3C
330
8432
100
AcDbEntity
  8
1
100
AcDbLine
 10
4561.752841307494
 20
2431.192209343379
 30
0.0
 11
6461.752841307483
 21
2431.192209343379
 31
0.0
  0
INSERT
  5
7C3D
330
8432
100
AcDbEntity
  8
0
100
AcDbBlockReference
  2
YA_N
 10
-346.9416476423939
 20
-375.8074592043958
 30
0.0
 41
25.0
 42
25.0
 43
25.0
  0
ARC
  5
7C42
330
8432
100
AcDbEntity
  8
1
100
AcDbCircle
 10
1314.06261702525
 20
2901.192209343378
 30
0.0
 40
203.5
100
AcDbArc
 50
285.603699
 51
254.39624
  0
LINE
  5
7C43
330
8432
100
AcDbEntity
  8
1
100
AcDbLine
 10
1259.324580025251
 20
2705.192209343379
 30
0.0
 11
1368.800654025251
 21
2705.192209343379
 31
0.0
  0
ARC
  5
7C44
330
8432
100
AcDbEntity
  8
1
100
AcDbCircle
 10
1500.06261702525
 20
2718.192209343379
 30
0.0
 40
3.0
100
AcDbArc
 50
0.0
 51
90.0
  0
ARC
  5
7C45
330
8432
100
AcDbEntity
  8
1
100
AcDbCircle
 10
1498.06261702525
 20
2775.518870343379
 30
0.0
 40
5.000066999999999
100
AcDbArc
 50
0.0
 51
55.056335
  0
LINE
  5
7C46
330
8432
100
AcDbEntity
  8
1
100
AcDbLine
 10
1503.062617025251
 20
2775.518870343379
 30
0.0
 11
1503.062617025251
 21
2701.192209343379
 31
0.0
  0
LINE
  5
7C4A
330
8432
100
AcDbEntity
  8
1
100
AcDbLine
 10
1418.165187025251
 20
2726.335398343379
 30
0.0
 11
1423.56261702525
 21
2706.192209343379
 31
0.0
  0
LINE
  5
7C4B
330
8432
100
AcDbEntity
  8
1
100
AcDbLine
 10
1423.56261702525
 20
2718.192209343379
 30
0.0
 11
1423.56261702525
 21
2701.192209343379
 31
0.0
  0
LINE
  5
7C4C
330
8432
100
AcDbEntity
  8
1
100
AcDbLine
 10
1426.562617025251
 20
2721.192209343379
 30
0.0
 11
1500.06261702525
 21
2721.192209343379
 31
0.0
  0
ARC
  5
7C4D
330
8432
100
AcDbEntity
  8
1
100
AcDbCircle
 10
1426.562617025251
 20
2718.192209343379
 30
0.0
 40
3.0
100
AcDbArc
 50
90.0
 51
180.0
  0
LINE
  5
7C4E
330
8432
100
AcDbEntity
  8
1
100
AcDbLine
 10
1500.92638702525
 20
2779.617502343379
 30
0.0
 11
1484.988521025251
 21
2790.753977343378
 31
0.0
  0
LINE
  5
7C4F
330
8432
100
AcDbEntity
  8
1
100
AcDbLine
 10
1125.06261702525
 20
2775.518870343379
 30
0.0
 11
1125.06261702525
 21
2701.192209343379
 31
0.0
  0
LINE
  5
7C53
330
8432
100
AcDbEntity
  8
1
100
AcDbLine
 10
1209.959834025251
 20
2726.335520343378
 30
0.0
 11
1204.56261702525
 21
2706.192209343379
 31
0.0
  0
LINE
  5
7C54
330
8432
100
AcDbEntity
  8
1
100
AcDbLine
 10
1204.56261702525
 20
2718.192209343379
 30
0.0
 11
1204.56261702525
 21
2701.192209343379
 31
0.0
  0
LINE
  5
7C55
330
8432
100
AcDbEntity
  8
1
100
AcDbLine
 10
1201.56261702525
 20
2721.192209343379
 30
0.0
 11
1128.062617025251
 21
2721.192209343379
 31
0.0
  0
ARC
  5
7C56
330
8432
100
AcDbEntity
  8
1
100
AcDbCircle
 10
1201.56261702525
 20
2718.192209343379
 30
0.0
 40
3.0
100
AcDbArc
 50
0.0
 51
90.0
  0
ARC
  5
7C57
330
8432
100
AcDbEntity
  8
1
100
AcDbCircle
 10
1128.062617025251
 20
2718.192209343379
 30
0.0
 40
3.0
100
AcDbArc
 50
90.0
 51
180.0
  0
LINE
  5
7C58
330
8432
100
AcDbEntity
  8
1
100
AcDbLine
 10
1127.198726025251
 20
2779.617502343379
 30
0.0
 11
1143.136592025251
 21
2790.753977343378
 31
0.0
  0
ARC
  5
7C59
330
8432
100
AcDbEntity
  8
1
100
AcDbCircle
 10
1130.06261702525
 20
2775.518870343379
 30
0.0
 40
5.0
100
AcDbArc
 50
124.943661
 51
180.0
  0
LINE
  5
7C5A
330
8432
100
AcDbEntity
  8
1
100
AcDbLine
 10
1558.12487307334
 20
2701.192209343379
 30
0.0
 11
1384.06261702525
 21
2701.192209343379
 31
0.0
  0
LINE
  5
7C5B
330
8432
100
AcDbEntity
  8
1
100
AcDbLine
 10
1574.062617025252
 20
2641.192209343379
 30
0.0
 11
1558.124873073341
 21
2701.192209343379
 31
0.0
  0
LINE
  5
7C5C
330
8432
100
AcDbEntity
  8
1
100
AcDbLine
 10
1054.062617025252
 20
2641.192209343379
 30
0.0
 11
1070.047626931615
 21
2701.192209343379
 31
0.0
  0
LINE
  5
7C5E
330
8432
100
AcDbEntity
  8
1
100
AcDbLine
 10
1384.06261702525
 20
2691.192209343379
 30
0.0
 11
1244.062617025251
 21
2691.192209343379
 31
0.0
  0
LINE
  5
7C5F
330
8432
100
AcDbEntity
  8
1
100
AcDbLine
 10
1244.062617025251
 20
2701.192209343379
 30
0.0
 11
1244.062617025252
 21
2691.192209343379
 31
0.0
  0
LINE
  5
7C60
330
8432
100
AcDbEntity
  8
1
100
AcDbLine
 10
1384.062617025251
 20
2701.192209343379
 30
0.0
 11
1384.062617025251
 21
2691.192209343379
 31
0.0
  0
LINE
  5
7C63
330
8432
100
AcDbEntity
  8
1
100
AcDbLine
 10
1244.062617025251
 20
2701.192209343379
 30
0.0
 11
1070.047626931615
 21
2701.192209343379
 31
0.0
  0
CIRCLE
  5
7C64
330
8432
100
AcDbEntity
  8
1
100
AcDbCircle
 10
1314.06261702525
 20
2901.192209343378
 30
0.0
 40
118.0
  0
LINE
  5
7C65
330
8432
100
AcDbEntity
  8
1
100
AcDbLine
 10
4558.752841307505
 20
3044.192209343378
 30
0.0
 11
4669.252841307505
 21
3044.192209343378
 31
0.0
  0
LINE
  5
7C66
330
8432
100
AcDbEntity
  8
1
100
AcDbLine
 10
4558.752841307506
 20
2808.192209343378
 30
0.0
 11
4669.252841307505
 21
2808.192209343378
 31
0.0
  0
LINE
  5
7C67
330
8432
100
AcDbEntity
  8
1
100
AcDbLine
 10
4523.752841307505
 20
2706.192209343379
 30
0.0
 11
4721.052841307505
 21
2706.192209343379
 31
0.0
  0
INSERT
  5
7C69
330
8432
100
AcDbEntity
  8
0
100
AcDbBlockReference
  2
YA_N
 10
-394.4722692372305
 20
-430.898429998433
 30
0.0
 41
25.0
 42
25.0
 43
25.0
  0
LINE
  5
7C6C
330
8432
100
AcDbEntity
  8
1
100
AcDbLine
 10
4893.752841307506
 20
2641.192209343379
 30
0.0
 11
4893.752841307507
 21
3356.192209343378
 31
0.0
  0
LINE
  5
7C6D
330
8432
100
AcDbEntity
  8
1
100
AcDbLine
 10
6393.752841307503
 20
2641.192209343379
 30
0.0
 11
6393.752841307506
 21
3356.192209343378
 31
0.0
  0
LINE
  5
7C6E
330
8432
100
AcDbEntity
  8
1
100
AcDbLine
 10
4893.752841307505
 20
4554.192209343379
 30
0.0
 11
6393.752841307505
 21
4554.192209343379
 31
0.0
  0
LINE
  5
7C71
330
8432
100
AcDbEntity
  8
1
100
AcDbLine
 10
4893.752841307505
 20
3356.192209343378
 30
0.0
 11
4893.752841307505
 21
4554.192209343379
 31
0.0
  0
LINE
  5
7C72
330
8432
100
AcDbEntity
  8
1
100
AcDbLine
 10
6393.752841307505
 20
3356.192209343378
 30
0.0
 11
6393.752841307505
 21
4554.192209343379
 31
0.0
  0
LINE
  5
7C73
330
8432
100
AcDbEntity
  8
1
100
AcDbLine
 10
4736.252841307504
 20
3293.192209343378
 30
0.0
 11
4826.452841307505
 21
3293.192209343378
 31
0.0
  0
LINE
  5
7C74
330
8432
100
AcDbEntity
  8
1
100
AcDbLine
 10
4726.252841307505
 20
3283.192209343379
 30
0.0
 11
4726.252841307505
 21
3153.192209343378
 31
0.0
  0
LINE
  5
7C75
330
8432
100
AcDbEntity
  8
1
100
AcDbLine
 10
4866.252841307504
 20
3293.192209343378
 30
0.0
 11
4866.252841307503
 21
3143.192209343377
 31
0.0
  0
LINE
  5
7C76
330
8432
100
AcDbEntity
  8
1
100
AcDbLine
 10
4736.252841307504
 20
3143.192209343379
 30
0.0
 11
4826.452841307505
 21
3143.192209343377
 31
0.0
  0
ARC
  5
7C77
330
8432
100
AcDbEntity
  8
1
100
AcDbCircle
 10
4736.252841307504
 20
3283.192209343379
 30
0.0
 40
10.0
100
AcDbArc
 50
90.0
 51
180.0
  0
ARC
  5
7C78
330
8432
100
AcDbEntity
  8
1
100
AcDbCircle
 10
4736.252841307504
 20
3153.192209343378
 30
0.0
 40
10.0
100
AcDbArc
 50
180.0
 51
270.0
  0
LINE
  5
7C79
330
8432
100
AcDbEntity
  8
1
100
AcDbLine
 10
6421.252841307505
 20
3293.192209343378
 30
0.0
 11
6421.252841307505
 21
3143.192209343377
 31
0.0
  0
LINE
  5
7C7A
330
8432
100
AcDbEntity
  8
1
100
AcDbLine
 10
6573.752841307504
 20
3283.192209343379
 30
0.0
 11
6573.752841307504
 21
3153.192209343378
 31
0.0
  0
LINE
  5
7C7B
330
8432
100
AcDbEntity
  8
1
100
AcDbLine
 10
6563.752841307504
 20
3143.192209343379
 30
0.0
 11
6461.052841307509
 21
3143.192209343377
 31
0.0
  0
ARC
  5
7C7C
330
8432
100
AcDbEntity
  8
1
100
AcDbCircle
 10
6563.752841307504
 20
3153.192209343378
 30
0.0
 40
10.0
100
AcDbArc
 50
270.0
 51
0.0
  0
LINE
  5
7C7D
330
8432
100
AcDbEntity
  8
1
100
AcDbLine
 10
6563.752841307504
 20
3293.192209343378
 30
0.0
 11
6461.052841307509
 21
3293.192209343378
 31
0.0
  0
ARC
  5
7C7E
330
8432
100
AcDbEntity
  8
1
100
AcDbCircle
 10
6563.752841307504
 20
3283.192209343379
 30
0.0
 40
10.0
100
AcDbArc
 50
0.0
 51
90.0
  0
LINE
  5
7C7F
330
8432
100
AcDbEntity
  8
1
100
AcDbLine
 10
4698.752841307504
 20
3396.192209343379
 30
0.0
 11
4893.752841307504
 21
3396.192209343379
 31
0.0
  0
LINE
  5
7C80
330
8432
100
AcDbEntity
  8
1
100
AcDbLine
 10
4698.752841307505
 20
3316.192209343379
 30
0.0
 11
4893.752841307507
 21
3316.192209343379
 31
0.0
  0
LINE
  5
7C81
330
8432
100
AcDbEntity
  8
1
100
AcDbLine
 10
4698.752841307505
 20
3396.192209343379
 30
0.0
 11
4698.752841307505
 21
3316.192209343379
 31
0.0
  0
LINE
  5
7C82
330
8432
100
AcDbEntity
  8
1
100
AcDbLine
 10
4669.252841307506
 20
3388.692209343378
 30
0.0
 11
4698.752841307505
 21
3388.692209343378
 31
0.0
  0
LINE
  5
7C83
330
8432
100
AcDbEntity
  8
1
100
AcDbLine
 10
4669.252841307505
 20
3323.692209343379
 30
0.0
 11
4698.752841307505
 21
3323.692209343379
 31
0.0
  0
LINE
  5
7C88
330
8432
100
AcDbEntity
  8
1
100
AcDbLine
 10
6461.052841307505
 20
3293.192209343378
 30
0.0
 11
6421.252841307505
 21
3293.192209343378
 31
0.0
  0
LINE
  5
7C89
330
8432
100
AcDbEntity
  8
1
100
AcDbLine
 10
6461.052841307507
 20
3143.192209343377
 30
0.0
 11
6421.252841307505
 21
3143.192209343377
 31
0.0
  0
LINE
  5
7C8A
330
8432
100
AcDbEntity
  8
1
100
AcDbLine
 10
4826.452841307505
 20
3293.192209343378
 30
0.0
 11
4866.252841307504
 21
3293.192209343378
 31
0.0
  0
LINE
  5
7C8B
330
8432
100
AcDbEntity
  8
1
100
AcDbLine
 10
4826.452841307505
 20
3143.192209343377
 30
0.0
 11
4866.252841307504
 21
3143.192209343377
 31
0.0
  0
ARC
  5
7C8D
330
8432
100
AcDbEntity
  8
1
100
AcDbCircle
 10
2624.062617025249
 20
3356.192209343378
 30
0.0
 40
668.0
100
AcDbArc
 50
0.0
 51
4.120613213950072
  0
LINE
  5
7C8E
330
8432
100
AcDbEntity
  8
1
100
AcDbLine
 10
1114.062617025251
 20
2433.192209343379
 30
0.0
 11
1114.062617025251
 21
2431.192209343379
 31
0.0
  0
LINE
  5
7C8F
330
8432
100
AcDbEntity
  8
1
100
AcDbLine
 10
6461.752841307505
 20
2641.192209343379
 30
0.0
 11
6461.752841307505
 21
2516.192209343379
 31
0.0
  0
LINE
  5
7C90
330
8432
100
AcDbEntity
  8
1
100
AcDbLine
 10
4561.752841307504
 20
2641.192209343379
 30
0.0
 11
4561.752841307504
 21
2516.192209343379
 31
0.0
  0
LINE
  5
7C91
330
8432
100
AcDbEntity
  8
1
100
AcDbLine
 10
6461.752841307506
 20
2496.192209343381
 30
0.0
 11
6461.752841307485
 21
2431.192209343379
 31
0.0
  0
INSERT
  5
7C93
330
8432
100
AcDbEntity
  8
0
100
AcDbBlockReference
  2
YA_N
 10
4305.350442567148
 20
-1988.400780944633
 30
0.0
  0
POINT
  5
7C96
330
8432
100
AcDbEntity
  8
1
100
AcDbPoint
 10
3284.062617025249
 20
2496.192209343379
 30
0.0
  0
POINT
  5
7C98
330
8432
100
AcDbEntity
  8
1
100
AcDbPoint
 10
3284.062617025249
 20
2496.192209343379
 30
0.0
  0
POINT
  5
7C99
330
8432
100
AcDbEntity
  8
1
100
AcDbPoint
 10
3284.062617025249
 20
2516.192209343379
 30
0.0
  0
ARC
  5
7C9C
330
8432
100
AcDbEntity
  8
1
100
AcDbCircle
 10
2624.062617025251
 20
3356.192209343378
 30
0.0
 40
380.0
100
AcDbArc
 50
282.5282342404732
 51
115.778882395325
  0
CIRCLE
  5
7C9D
330
8432
100
AcDbEntity
  8
1
100
AcDbCircle
 10
2624.062617025251
 20
3356.192209343378
 30
0.0
 40
254.0
  0
ARC
  5
7C9E
330
8432
100
AcDbEntity
  8
1
100
AcDbCircle
 10
1314.062617025251
 20
2901.192209343378
 30
0.0
 40
220.0
100
AcDbArc
 50
115.778882395325
 51
282.5282342404732
  0
LINE
  5
7C9F
330
8432
100
AcDbEntity
  8
1
100
AcDbLine
 10
2458.80090667297
 20
3698.374276511486
 30
0.0
 11
1218.384784716036
 21
3099.29761665123
 31
0.0
  0
LINE
  5
7CA0
330
8432
100
AcDbEntity
  8
1
100
AcDbLine
 10
2517.595887784095
 20
3586.801913312423
 30
0.0
 11
1264.601695566761
 21
3008.325851344745
 31
0.0
  0
LINE
  5
7CA1
330
8432
100
AcDbEntity
  8
1
100
AcDbLine
 10
2683.467777205633
 20
3109.236693219637
 30
0.0
 11
1341.660289864956
 21
2786.464843585105
 31
0.0
  0
LINE
  5
7CA2
330
8432
100
AcDbEntity
  8
1
100
AcDbLine
 10
2706.492478173762
 20
2985.24030142129
 30
0.0
 11
1361.785168216494
 21
2686.430578441117
 31
0.0
  0
LINE
  5
7CA3
330
8432
100
AcDbEntity
  8
1
100
AcDbLine
 10
4558.752841307506
 20
3610.192209343378
 30
0.0
 11
4669.252841307506
 21
3610.192209343378
 31
0.0
  0
LINE
  5
7CA4
330
8432
100
AcDbEntity
  8
1
100
AcDbLine
 10
4558.752841307506
 20
3102.192209343379
 30
0.0
 11
4669.252841307505
 21
3102.192209343379
 31
0.0
  0
LINE
  5
7CA5
330
8432
100
AcDbEntity
  8
1
100
AcDbLine
 10
4523.752841307505
 20
3736.192209343379
 30
0.0
 11
4721.052841307505
 21
3736.192209343379
 31
0.0
  0
LINE
  5
7CA6
330
8432
100
AcDbEntity
  8
1
100
AcDbLine
 10
4721.052841307504
 20
2726.192209343379
 30
0.0
 11
4721.052841307505
 21
2706.192209343379
 31
0.0
  0
LINE
  5
7CA8
330
8432
100
AcDbEntity
  8
1
100
AcDbLine
 10
3284.062617025249
 20
7578.591300024716
 30
0.0
 11
1964.062617025251
 21
7578.591300024716
 31
0.0
  0
LINE
  5
7CA9
330
8432
100
AcDbEntity
  8
1
100
AcDbLine
 10
3284.062617025249
 20
5678.591300024717
 30
0.0
 11
1024.06261702525
 21
5678.591300024717
 31
0.0
  0
LINE
  5
7CAA
330
8432
100
AcDbEntity
  8
1
100
AcDbLine
 10
3284.062617025249
 20
7578.591300024719
 30
0.0
 11
3284.062617025251
 21
7510.591300024717
 31
0.0
  0
LINE
  5
7CAB
330
8432
100
AcDbEntity
  8
1
100
AcDbLine
 10
1024.06261702525
 20
6578.591300024716
 30
0.0
 11
1024.06261702525
 21
5678.591300024716
 31
0.0
  0
LINE
  5
7CAC
330
8432
100
AcDbEntity
  8
1
100
AcDbLine
 10
1964.062617025251
 20
7578.591300024716
 30
0.0
 11
1964.062617025251
 21
7510.591300024717
 31
0.0
  0
LINE
  5
7CAD
330
8432
100
AcDbEntity
  8
1
100
AcDbLine
 10
1655.06261702525
 20
6578.591300024716
 30
0.0
 11
1024.06261702525
 21
6578.591300024716
 31
0.0
  0
LINE
  5
7CAE
330
8432
100
AcDbEntity
  8
2
100
AcDbLine
 10
1314.062617025251
 20
6446.313877183041
 30
0.0
 11
1314.062617025253
 21
5601.64531611957
 31
0.0
  0
CIRCLE
  5
7CB8
330
8432
100
AcDbEntity
  8
1
100
AcDbCircle
 10
2624.062617025251
 20
3356.192209343378
 30
0.0
 40
560.0
  0
CIRCLE
  5
7CB9
330
8432
100
AcDbEntity
  8
1
100
AcDbCircle
 10
2624.062617025251
 20
3356.192209343378
 30
0.0
 40
610.0
  0
LINE
  5
7CBA
330
8432
100
AcDbEntity
  8
1
100
AcDbLine
 10
3004.062617025252
 20
5640.591300024715
 30
0.0
 11
1094.062617025251
 21
5640.591300024715
 31
0.0
  0
LINE
  5
7CBB
330
8432
100
AcDbEntity
  8
1
100
AcDbLine
 10
3004.062617025252
 20
5810.591300024715
 30
0.0
 11
1094.062617025251
 21
5810.591300024715
 31
0.0
  0
LINE
  5
7CBC
330
8432
100
AcDbEntity
  8
1
100
AcDbLine
 10
3004.062617025251
 20
5640.591300024715
 30
0.0
 11
3004.062617025252
 21
5810.591300024715
 31
0.0
  0
LINE
  5
7CBD
330
8432
100
AcDbEntity
  8
1
100
AcDbLine
 10
1094.062617025251
 20
5640.591300024715
 30
0.0
 11
1094.062617025251
 21
5810.591300024715
 31
0.0
  0
LINE
  5
7CBE
330
8432
100
AcDbEntity
  8
1
100
AcDbLine
 10
2878.06261702525
 20
5678.291300024715
 30
0.0
 11
2878.06261702525
 21
5788.791300024715
 31
0.0
  0
LINE
  5
7CBF
330
8432
100
AcDbEntity
  8
1
100
AcDbLine
 10
2370.062617025251
 20
5678.291300024715
 30
0.0
 11
2370.062617025251
 21
5788.791300024715
 31
0.0
  0
LINE
  5
7CC0
330
8432
100
AcDbEntity
  8
1
100
AcDbLine
 10
1432.062617025251
 20
5678.291300024715
 30
0.0
 11
1432.06261702525
 21
5788.791300024715
 31
0.0
  0
LINE
  5
7CC1
330
8432
100
AcDbEntity
  8
1
100
AcDbLine
 10
1196.06261702525
 20
5678.291300024715
 30
0.0
 11
1196.06261702525
 21
5788.791300024715
 31
0.0
  0
LINE
  5
7CC2
330
8432
100
AcDbEntity
  8
1
100
AcDbLine
 10
2878.06261702525
 20
5678.291300024715
 30
0.0
 11
2370.062617025251
 21
5678.291300024715
 31
0.0
  0
LINE
  5
7CC3
330
8432
100
AcDbEntity
  8
1
100
AcDbLine
 10
2878.062617025251
 20
5788.791300024715
 30
0.0
 11
2370.062617025251
 21
5788.791300024715
 31
0.0
  0
LINE
  5
7CC4
330
8432
100
AcDbEntity
  8
1
100
AcDbLine
 10
1432.06261702525
 20
5788.791300024715
 30
0.0
 11
1196.06261702525
 21
5788.791300024715
 31
0.0
  0
LINE
  5
7CC5
330
8432
100
AcDbEntity
  8
1
100
AcDbLine
 10
1432.062617025251
 20
5678.291300024715
 30
0.0
 11
1196.06261702525
 21
5678.291300024715
 31
0.0
  0
LINE
  5
7CC6
330
8432
100
AcDbEntity
  8
1
100
AcDbLine
 10
3384.062617025249
 20
7560.591300024717
 30
0.0
 11
3384.062617025249
 21
5960.591300024716
 31
0.0
  0
LINE
  5
7CC7
330
8432
100
AcDbEntity
  8
1
100
AcDbLine
 10
1655.06261702525
 20
7510.591300024717
 30
0.0
 11
1655.06261702525
 21
6010.591300024715
 31
0.0
  0
LINE
  5
7CC8
330
8432
100
AcDbEntity
  8
1
100
AcDbLine
 10
3384.062617025249
 20
7510.591300024717
 30
0.0
 11
1655.06261702525
 21
7510.591300024717
 31
0.0
  0
LINE
  5
7CC9
330
8432
100
AcDbEntity
  8
1
100
AcDbLine
 10
3384.062617025251
 20
6010.591300024715
 30
0.0
 11
1655.06261702525
 21
6010.591300024715
 31
0.0
  0
LINE
  5
7CCA
330
8432
100
AcDbEntity
  8
1
100
AcDbLine
 10
3384.062617025249
 20
7560.591300024717
 30
0.0
 11
3380.062617025251
 21
7560.591300024717
 31
0.0
  0
LINE
  5
7CCB
330
8432
100
AcDbEntity
  8
1
100
AcDbLine
 10
3384.062617025251
 20
5960.591300024716
 30
0.0
 11
3380.062617025251
 21
5960.591300024716
 31
0.0
  0
LINE
  5
7CCC
330
8432
100
AcDbEntity
  8
1
100
AcDbLine
 10
3380.062617025251
 20
7560.591300024717
 30
0.0
 11
3380.062617025251
 21
5960.591300024716
 31
0.0
  0
LINE
  5
7CCD
330
8432
100
AcDbEntity
  8
1
100
AcDbLine
 10
2659.062617025251
 20
6010.591300024715
 30
0.0
 11
2659.062617025251
 21
5788.791300024715
 31
0.0
  0
LINE
  5
7CCE
330
8432
100
AcDbEntity
  8
1
100
AcDbLine
 10
2589.062617025251
 20
6010.591300024715
 30
0.0
 11
2589.062617025251
 21
5788.791300024715
 31
0.0
  0
LINE
  5
7CCF
330
8432
100
AcDbEntity
  8
1
100
AcDbLine
 10
1513.062617025251
 20
6480.791300024716
 30
0.0
 11
1513.062617025252
 21
5823.291300024715
 31
0.0
  0
LINE
  5
7CD0
330
8432
100
AcDbEntity
  8
1
100
AcDbLine
 10
1115.062617025251
 20
6480.791300024716
 30
0.0
 11
1115.062617025253
 21
5823.291300024714
 31
0.0
  0
LINE
  5
7CD1
330
8432
100
AcDbEntity
  8
1
100
AcDbLine
 10
1513.062617025251
 20
6480.791300024716
 30
0.0
 11
1115.062617025251
 21
6480.791300024716
 31
0.0
  0
LINE
  5
7CD2
330
8432
100
AcDbEntity
  8
1
100
AcDbLine
 10
1513.062617025254
 20
5823.291300024715
 30
0.0
 11
1115.062617025254
 21
5823.291300024715
 31
0.0
  0
LINE
  5
7CD3
330
8432
100
AcDbEntity
  8
1
100
AcDbLine
 10
1341.562617025252
 20
5823.291300024715
 30
0.0
 11
1341.562617025252
 21
5788.791300024715
 31
0.0
  0
LINE
  5
7CD4
330
8432
100
AcDbEntity
  8
1
100
AcDbLine
 10
1286.562617025252
 20
5823.291300024715
 30
0.0
 11
1286.562617025252
 21
5788.791300024715
 31
0.0
  0
LINE
  5
7CD5
330
8432
100
AcDbEntity
  8
1
100
AcDbLine
 10
4893.752841307507
 20
3125.19220934338
 30
0.0
 11
4703.752841307504
 21
3125.19220934338
 31
0.0
  0
LINE
  5
7CD6
330
8432
100
AcDbEntity
  8
1
100
AcDbLine
 10
4893.752841307507
 20
2727.19220934338
 30
0.0
 11
4703.752841307506
 21
2727.19220934338
 31
0.0
  0
LINE
  5
7CD7
330
8432
100
AcDbEntity
  8
1
100
AcDbLine
 10
4703.752841307506
 20
2727.192209343379
 30
0.0
 11
4703.752841307504
 21
3125.192209343378
 31
0.0
  0
LINE
  5
7CD8
330
8432
100
AcDbEntity
  8
1
100
AcDbLine
 10
4703.752841307505
 20
2898.69220934338
 30
0.0
 11
4669.252841307505
 21
2898.69220934338
 31
0.0
  0
LINE
  5
7CD9
330
8432
100
AcDbEntity
  8
1
100
AcDbLine
 10
4703.752841307505
 20
2953.69220934338
 30
0.0
 11
4669.252841307505
 21
2953.69220934338
 31
0.0
  0
LINE
  5
7CE2
330
8432
100
AcDbEntity
  8
1
100
AcDbLine
 10
3284.062617025251
 20
6010.591300024715
 30
0.0
 11
3284.062617025251
 21
5678.591300024717
 31
0.0
  0
LINE
  5
7CE3
330
8432
100
AcDbEntity
  8
1
100
AcDbLine
 10
4893.752841307505
 20
3404.192209343379
 30
0.0
 11
6393.752841307505
 21
3404.192209343379
 31
0.0
  0
LINE
  5
7CE4
330
8432
100
AcDbEntity
  8
1
100
AcDbLine
 10
6393.752841307505
 20
4554.192209343379
 30
0.0
 11
4893.752841307505
 21
3404.192209343379
 31
0.0
  0
LINE
  5
7CE5
330
8432
100
AcDbEntity
  8
1
100
AcDbLine
 10
4893.752841307505
 20
4554.192209343379
 30
0.0
 11
6393.752841307505
 21
3404.192209343379
 31
0.0
  0
LINE
  5
7F14
330
8432
100
AcDbEntity
  8
4
100
AcDbLine
 10
6475.0
 20
1411.801532643661
 30
0.0
 11
6475.0
 21
711.8015326436618
 31
0.0
  0
LINE
  5
7F15
330
8432
100
AcDbEntity
  8
4
100
AcDbLine
 10
4025.0
 20
1411.801532643661
 30
0.0
 11
4025.0
 21
711.8015326436618
 31
0.0
  0
LINE
  5
7F16
330
8432
100
AcDbEntity
  8
4
100
AcDbLine
 10
2275.0
 20
1411.801532643661
 30
0.0
 11
2275.0
 21
711.8015326436618
 31
0.0
  0
LINE
  5
7F19
330
8432
100
AcDbEntity
  8
4
100
AcDbLine
 10
2275.0
 20
711.8015326436616
 30
0.0
 11
6475.0
 21
711.8015326436616
 31
0.0
  0
LINE
  5
7F1A
330
8432
100
AcDbEntity
  8
4
100
AcDbLine
 10
2275.0
 20
1061.80153264366
 30
0.0
 11
6475.0
 21
1061.80153264366
 31
0.0
  0
TEXT
  5
7F1B
330
8432
100
AcDbEntity
  8
4
100
AcDbText
 10
2409.757282964156
 20
1172.202123176806
 30
0.0
 40
175.0
  1
機器名称
100
AcDbText
  0
TEXT
  5
7F1C
330
8432
100
AcDbEntity
  8
4
100
AcDbText
 10
2401.903371086791
 20
787.5595812056999
 30
0.0
 40
175.0
  1
機器型番
100
AcDbText
  0
TEXT
  5
7F1D
330
8432
100
AcDbEntity
  8
4
100
AcDbText
 10
4121.875609206827
 20
1140.80272399515
 30
0.0
 40
175.0
  1
ミツヤ多翼送風機
100
AcDbText
  0
TEXT
  5
7F1E
330
8432
100
AcDbEntity
  8
4
100
AcDbText
 10
4153.290734549183
 20
771.8600776234634
 30
0.0
 40
175.0
  1
MF#7-5
100
AcDbText
  0
TEXT
  5
7F20
330
8432
100
AcDbEntity
  8
4
100
AcDbText
 10
2760.156519165358
 20
8342.000944663805
 30
0.0
 40
188.9999999999998
  1
床置防振ベット
100
AcDbText
  0
TEXT
  5
7F21
330
8432
100
AcDbEntity
  8
4
100
AcDbText
 10
1106.586576653062
 20
8868.583416697545
 30
0.0
 40
252.0
  1
遠心式両吸込両持多翼ファン
100
AcDbText
  0
LINE
  5
7F22
330
8432
100
AcDbEntity
  8
4
100
AcDbLine
 10
875.0
 20
8642.930639926817
 30
0.0
 11
6475.0
 21
8642.930639926817
 31
0.0
  0
LINE
  5
7F23
330
8432
100
AcDbEntity
  8
4
100
AcDbLine
 10
875.0
 20
9342.930639926818
 30
0.0
 11
6475.0
 21
9342.930639926818
 31
0.0
  0
LINE
  5
7F24
330
8432
100
AcDbEntity
  8
4
100
AcDbLine
 10
2275.0
 20
1411.801532643661
 30
0.0
 11
6475.0
 21
1411.801532643661
 31
0.0
  0
LINE
  5
7F25
330
8432
100
AcDbEntity
  8
4
100
AcDbLine
 10
875.0
 20
9342.930639926818
 30
0.0
 11
875.0
 21
8642.930639926817
 31
0.0
  0
TEXT
  5
7F26
330
8432
100
AcDbEntity
  8
4
100
AcDbText
 10
1234.650606315899
 20
8338.118171412203
 30
0.0
 40
188.9999999999998
  1
右回転右横向
100
AcDbText
  0
TEXT
  5
7F27
330
8432
100
AcDbEntity
  8
4
100
AcDbText
 10
5141.393457372513
 20
9471.21378523358
 30
0.0
 40
196.0
  1
No.
100
AcDbText
  0
TEXT
  5
7F28
330
8432
100
AcDbEntity
  8
4
100
AcDbText
 10
4589.536219100046
 20
8342.000944663805
 30
0.0
 40
188.9999999999998
  1
縮尺：1/35
100
AcDbText
  0
LINE
  5
7F29
330
8432
100
AcDbEntity
  8
4
100
AcDbLine
 10
6475.0
 20
9342.930639926818
 30
0.0
 11
6475.0
 21
8642.930639926817
 31
0.0
  0
LINE
  5
7F2A
330
8432
100
AcDbEntity
  8
4
100
AcDbLine
 10
7350.0
 20
10325.0
 30
0.0
 11
7350.0
 21
10325.0
 31
0.0
  0
LINE
  5
7F2B
330
8432
100
AcDbEntity
  8
4
100
AcDbLine
 10
5042.160978259526
 20
9384.422540938905
 30
0.0
 11
5042.160978259526
 21
9753.282915424136
 31
0.0
  0
LINE
  5
7F2C
330
8432
100
AcDbEntity
  8
4
100
AcDbLine
 10
5042.160978259526
 20
9753.282915424136
 30
0.0
 11
6475.0
 21
9753.282915424136
 31
0.0
  0
LINE
  5
7F2D
330
8432
100
AcDbEntity
  8
4
100
AcDbLine
 10
6475.0
 20
9753.282915424136
 30
0.0
 11
6475.0
 21
9384.422540938905
 31
0.0
  0
LINE
  5
7F2E
330
8432
100
AcDbEntity
  8
4
100
AcDbLine
 10
6475.0
 20
9384.422540938905
 30
0.0
 11
5042.160978259526
 21
9384.422540938905
 31
0.0
  0
LINE
  5
7F2F
330
8432
100
AcDbEntity
  8
4
100
AcDbLine
 10
0.0
 20
0.0
 30
0.0
 11
0.0
 21
10325.0
 31
0.0
  0
LINE
  5
7F30
330
8432
100
AcDbEntity
  8
4
100
AcDbLine
 10
0.0
 20
10325.0
 30
0.0
 11
7350.0
 21
10325.0
 31
0.0
  0
LINE
  5
7F31
330
8432
100
AcDbEntity
  8
4
100
AcDbLine
 10
7350.0
 20
10325.0
 30
0.0
 11
7350.0
 21
0.0
 31
0.0
  0
LINE
  5
7F32
330
8432
100
AcDbEntity
  8
4
100
AcDbLine
 10
7350.0
 20
0.0
 30
0.0
 11
0.0
 21
0.0
 31
0.0
  0
DIMENSION
  5
81C7
330
8432
100
AcDbEntity
  8
3
100
AcDbDimension
  2
*D21
 10
2624.062617025251
 20
2190.52784082877
 30
0.0
 11
1824.062617025251
 21
2278.02784082877
 31
0.0
 71
     5
 42
-1.0
  3
Standard
100
AcDbAlignedDimension
 13
1024.062617025251
 23
2431.192209343379
 33
0.0
 14
2624.062617025251
 24
2431.192209343379
 34
0.0
100
AcDbRotatedDimension
1001
ACAD
1000
DSTYLE
1002
{
1070
   172
1070
     1
1070
    40
1040
35.0
1070
   271
1070
     0
1070
   143
1040
0.039
1002
}
  0
DIMENSION
  5
81D4
330
8432
100
AcDbEntity
  8
3
100
AcDbDimension
  2
*D22
 10
3284.062617025249
 20
2190.52784082877
 30
0.0
 11
2954.062617025249
 21
2278.02784082877
 31
0.0
 71
     5
 42
-1.0
  3
Standard
100
AcDbAlignedDimension
 13
2624.062617025251
 23
2431.192209343379
 33
0.0
 14
3284.062617025249
 24
2431.192209343379
 34
0.0
100
AcDbRotatedDimension
1001
ACAD
1000
DSTYLE
1002
{
1070
   172
1070
     1
1070
    40
1040
35.0
1070
   271
1070
     0
1070
   143
1040
0.039
1002
}
  0
DIMENSION
  5
81E1
330
8432
100
AcDbEntity
  8
3
100
AcDbDimension
  2
*D23
 10
5643.752841307506
 20
2190.52784082877
 30
0.0
 11
5102.752841307498
 21
2278.02784082877
 31
0.0
 71
     5
 42
-1.0
  3
Standard
100
AcDbAlignedDimension
 13
4561.752841307494
 23
2431.192209343379
 33
0.0
 14
5643.752841307506
 24
2431.192209343379
 34
0.0
100
AcDbRotatedDimension
1001
ACAD
1000
DSTYLE
1002
{
1070
   172
1070
     1
1070
    40
1040
35.0
1070
   271
1070
     0
1070
   143
1040
0.039
1002
}
  0
DIMENSION
  5
81EE
330
8432
100
AcDbEntity
  8
3
100
AcDbDimension
  2
*D24
 10
6461.752841307485
 20
2190.52784082877
 30
0.0
 11
6052.752841307496
 21
2278.02784082877
 31
0.0
 71
     5
 42
-1.0
  3
Standard
100
AcDbAlignedDimension
 13
5643.752841307506
 23
2431.192209343379
 33
0.0
 14
6461.752841307485
 24
2431.192209343379
 34
0.0
100
AcDbRotatedDimension
1001
ACAD
1000
DSTYLE
1002
{
1070
   172
1070
     1
1070
    40
1040
35.0
1070
   271
1070
     0
1070
   143
1040
0.039
1002
}
  0
DIMENSION
  5
8481
330
8432
100
AcDbEntity
  8
3
100
AcDbDimension
  2
*D28
 10
6897.993617555382
 20
2796.192209343378
 30
0.0
 11
6810.49361755538
 21
3356.19220934338
 31
0.0
 70
    32
 71
     5
 42
1120.0
  3
IGA
100
AcDbAlignedDimension
 13
6393.752841307505
 23
3916.192209343378
 33
0.0
 14
6393.752841307504
 24
2796.192209343378
 34
0.0
 50
90.0
100
AcDbRotatedDimension
1001
ACAD
1000
DSTYLE
1002
{
1070
    40
1040
35.0
1070
   143
1040
0.039
1070
   172
1070
     1
1070
   271
1070
     4
1070
   272
1070
     4
1070
   279
1070
     0
1070
   284
1070
     0
1070
   285
1070
     0
1070
   286
1070
     0
1070
   341
1005
8445
1070
   343
1005
8445
1070
   344
1005
8445
1002
}
  0
DIMENSION
  5
848E
330
8432
100
AcDbEntity
  8
3
100
AcDbDimension
  2
*D29
 10
6393.752841307505
 20
4807.631848395777
 30
0.0
 11
5643.752841307505
 21
4895.131848395777
 31
0.0
 70
    32
 71
     5
 42
1500.0
  3
IGA
100
AcDbAlignedDimension
 13
4893.752841307505
 23
4554.192209343379
 33
0.0
 14
6393.752841307505
 24
4554.192209343379
 34
0.0
100
AcDbRotatedDimension
1001
ACAD
1000
DSTYLE
1002
{
1070
    40
1040
35.0
1070
   143
1040
0.039
1070
   172
1070
     1
1070
   271
1070
     4
1070
   272
1070
     4
1070
   279
1070
     0
1070
   284
1070
     0
1070
   285
1070
     0
1070
   286
1070
     0
1070
   341
1005
8445
1070
   343
1005
8445
1070
   344
1005
8445
1002
}
  0
DIMENSION
  5
849B
330
8432
100
AcDbEntity
  8
3
100
AcDbDimension
  2
*D30
 10
5643.752841307505
 20
5046.751112831964
 30
0.0
 11
5083.752841307505
 21
5161.751112831964
 31
0.0
 70
    32
  1
(<>)
 71
     5
 42
1120.0
  3
IGA
100
AcDbAlignedDimension
 13
4523.752841307505
 23
3736.192209343379
 33
0.0
 14
5643.752841307505
 24
4947.631848395777
 34
0.0
100
AcDbRotatedDimension
1001
ACAD
1000
DSTYLE
1002
{
1070
    40
1040
35.0
1070
   143
1040
0.039
1070
   172
1070
     1
1070
   271
1070
     4
1070
   272
1070
     4
1070
   279
1070
     0
1070
   284
1070
     0
1070
   285
1070
     0
1070
   286
1070
     0
1070
   341
1005
8445
1070
   343
1005
8445
1070
   344
1005
8445
1002
}
  0
DIMENSION
  5
84A8
330
8432
100
AcDbEntity
  8
3
100
AcDbDimension
  2
*D31
 10
6573.752841307504
 20
5046.751112831964
 30
0.0
 11
6108.752841307504
 21
5161.751112831964
 31
0.0
 70
    32
  1
(<>)
 71
     5
 42
929.9999999999981
  3
IGA
100
AcDbAlignedDimension
 13
5643.752841307505
 23
4947.631848395777
 33
0.0
 14
6573.752841307504
 24
3283.192209343379
 34
0.0
100
AcDbRotatedDimension
1001
ACAD
1000
DSTYLE
1002
{
1070
    40
1040
35.0
1070
   143
1040
0.039
1070
   172
1070
     1
1070
   271
1070
     4
1070
   272
1070
     4
1070
   279
1070
     1
1070
   284
1070
     0
1070
   285
1070
     0
1070
   286
1070
     0
1070
   341
1005
8445
1070
   343
1005
8445
1070
   344
1005
8445
1002
}
  0
DIMENSION
  5
8516
330
8432
100
AcDbEntity
  8
3
100
AcDbDimension
  2
*D33
 10
808.2474876895394
 20
6578.591300024716
 30
0.0
 11
720.7474876895384
 21
6128.591300024716
 31
0.0
 70
    32
 71
     5
 42
900.0
  3
IGA
100
AcDbAlignedDimension
 13
1024.06261702525
 23
5678.591300024716
 33
0.0
 14
1024.06261702525
 24
6578.591300024716
 34
0.0
 50
90.0
100
AcDbRotatedDimension
1001
ACAD
1000
DSTYLE
1002
{
1070
    40
1040
35.0
1070
   143
1040
0.039
1070
   172
1070
     1
1070
   271
1070
     4
1070
   272
1070
     4
1070
   279
1070
     0
1070
   284
1070
     0
1070
   285
1070
     0
1070
   286
1070
     0
1070
   341
1005
8445
1070
   343
1005
8445
1070
   344
1005
8445
1002
}
  0
DIMENSION
  5
8523
330
8432
100
AcDbEntity
  8
3
100
AcDbDimension
  2
*D34
 10
1964.062617025251
 20
7808.010105037642
 30
0.0
 11
1494.06261702525
 21
7895.510105037641
 31
0.0
 70
    32
 71
     5
 42
940.0000000000009
  3
IGA
100
AcDbAlignedDimension
 13
1024.06261702525
 23
6578.591300024716
 33
0.0
 14
1964.062617025251
 24
7578.591300024716
 34
0.0
100
AcDbRotatedDimension
1001
ACAD
1000
DSTYLE
1002
{
1070
    40
1040
35.0
1070
   143
1040
0.039
1070
   172
1070
     1
1070
   271
1070
     4
1070
   272
1070
     4
1070
   279
1070
     0
1070
   284
1070
     0
1070
   285
1070
     0
1070
   286
1070
     0
1070
   341
1005
8445
1070
   343
1005
8445
1070
   344
1005
8445
1002
}
  0
DIMENSION
  5
8530
330
8432
100
AcDbEntity
  8
3
100
AcDbDimension
  2
*D35
 10
3284.062617025249
 20
7808.010105037642
 30
0.0
 11
2624.06261702525
 21
7895.510105037641
 31
0.0
 70
    32
 71
     5
 42
1319.999999999998
  3
IGA
100
AcDbAlignedDimension
 13
1964.062617025251
 23
7578.591300024716
 33
0.0
 14
3284.062617025249
 24
7578.591300024716
 34
0.0
100
AcDbRotatedDimension
1001
ACAD
1000
DSTYLE
1002
{
1070
    40
1040
35.0
1070
   143
1040
0.039
1070
   172
1070
     1
1070
   271
1070
     4
1070
   272
1070
     4
1070
   279
1070
     1
1070
   284
1070
     0
1070
   285
1070
     0
1070
   286
1070
     0
1070
   341
1005
8445
1070
   343
1005
8445
1070
   344
1005
8445
1002
}
  0
DIMENSION
  5
853D
330
8432
100
AcDbEntity
  8
3
100
AcDbDimension
  2
*D36
 10
3719.797915355993
 20
5678.591300024717
 30
0.0
 11
3632.297915355992
 21
6628.591300024716
 31
0.0
 70
    32
 71
     5
 42
1899.999999999999
  3
IGA
100
AcDbAlignedDimension
 13
3284.062617025249
 23
7578.591300024716
 33
0.0
 14
3284.062617025251
 24
5678.591300024717
 34
0.0
 50
90.0
100
AcDbRotatedDimension
1001
ACAD
1000
DSTYLE
1002
{
1070
    40
1040
35.0
1070
   143
1040
0.039
1070
   172
1070
     1
1070
   271
1070
     4
1070
   272
1070
     4
1070
   279
1070
     0
1070
   284
1070
     0
1070
   285
1070
     0
1070
   286
1070
     0
1070
   341
1005
8445
1070
   343
1005
8445
1070
   344
1005
8445
1002
}
  0
DIMENSION
  5
854A
330
8432
100
AcDbEntity
  8
3
100
AcDbDimension
  2
*D37
 10
1024.06261702525
 20
5331.934663388967
 30
0.0
 11
2154.062617025251
 21
5419.434663388967
 31
0.0
 70
    32
 71
     5
 42
2260.000000000001
  3
IGA
100
AcDbAlignedDimension
 13
3284.062617025251
 23
5678.591300024717
 33
0.0
 14
1024.06261702525
 24
5678.591300024716
 34
0.0
100
AcDbRotatedDimension
1001
ACAD
1000
DSTYLE
1002
{
1070
    40
1040
35.0
1070
   143
1040
0.039
1070
   172
1070
     1
1070
   271
1070
     4
1070
   272
1070
     4
1070
   279
1070
     0
1070
   284
1070
     0
1070
   285
1070
     0
1070
   286
1070
     0
1070
   341
1005
8445
1070
   343
1005
8445
1070
   344
1005
8445
1002
}
  0
DIMENSION
  5
8557
330
8432
100
AcDbEntity
  8
3
100
AcDbDimension
  2
*D38
 10
2624.062617025249
 20
4810.525596269836
 30
0.0
 11
3004.06261702525
 21
4898.025596269835
 31
0.0
 70
    32
 71
     5
 42
760.0
  3
IGA
100
AcDbAlignedDimension
 13
3384.062617025249
 23
4607.192209343378
 33
0.0
 14
2624.062617025249
 24
4670.105732334348
 34
0.0
100
AcDbRotatedDimension
1001
ACAD
1000
DSTYLE
1002
{
1070
    40
1040
35.0
1070
   143
1040
0.039
1070
   172
1070
     1
1070
   271
1070
     4
1070
   272
1070
     4
1070
   279
1070
     0
1070
   284
1070
     0
1070
   285
1070
     0
1070
   286
1070
     0
1070
   341
1005
8445
1070
   343
1005
8445
1070
   344
1005
8445
1002
}
  0
DIMENSION
  5
8564
330
8432
100
AcDbEntity
  8
3
100
AcDbDimension
  2
*D39
 10
1655.06261702525
 20
4810.525596269836
 30
0.0
 11
2139.56261702525
 21
4898.025596269835
 31
0.0
 70
    32
 71
     5
 42
968.9999999999987
  3
IGA
100
AcDbAlignedDimension
 13
2624.062617025249
 23
4670.105732334348
 33
0.0
 14
1655.06261702525
 24
3438.192209343378
 34
0.0
100
AcDbRotatedDimension
1001
ACAD
1000
DSTYLE
1002
{
1070
    40
1040
35.0
1070
   143
1040
0.039
1070
   172
1070
     1
1070
   271
1070
     4
1070
   272
1070
     4
1070
   279
1070
     1
1070
   284
1070
     0
1070
   285
1070
     0
1070
   286
1070
     0
1070
   341
1005
8445
1070
   343
1005
8445
1070
   344
1005
8445
1002
}
  0
DIMENSION
  5
8571
330
8432
100
AcDbEntity
  8
3
100
AcDbDimension
  2
*D40
 10
1024.062617025251
 20
5002.684932965962
 30
0.0
 11
2204.06261702525
 21
5090.184932965962
 31
0.0
 70
    32
 71
     5
 42
2359.999999999998
  3
IGA
100
AcDbAlignedDimension
 13
3384.062617025249
 23
4607.192209343378
 33
0.0
 14
1024.062617025251
 24
2641.192209343379
 34
0.0
100
AcDbRotatedDimension
1001
ACAD
1000
DSTYLE
1002
{
1070
    40
1040
35.0
1070
   143
1040
0.039
1070
   172
1070
     1
1070
   271
1070
     4
1070
   272
1070
     4
1070
   279
1070
     0
1070
   284
1070
     0
1070
   285
1070
     0
1070
   286
1070
     0
1070
   341
1005
8445
1070
   343
1005
8445
1070
   344
1005
8445
1002
}
  0
DIMENSION
  5
857E
330
8432
100
AcDbEntity
  8
3
100
AcDbDimension
  2
*D41
 10
3584.170933309517
 20
3404.192209343379
 30
0.0
 11
3496.670933309517
 21
3979.19220934338
 31
0.0
 70
    32
 71
     5
 42
1149.999999999999
  3
IGA
100
AcDbAlignedDimension
 13
3384.062617025249
 23
4554.192209343379
 33
0.0
 14
3384.062617025249
 24
3404.192209343379
 34
0.0
 50
90.0
100
AcDbRotatedDimension
1001
ACAD
1000
DSTYLE
1002
{
1070
    40
1040
35.0
1070
   143
1040
0.039
1070
   172
1070
     1
1070
   271
1070
     4
1070
   272
1070
     4
1070
   279
1070
     0
1070
   284
1070
     0
1070
   285
1070
     0
1070
   286
1070
     0
1070
   341
1005
8445
1070
   343
1005
8445
1070
   344
1005
8445
1002
}
  0
DIMENSION
  5
858B
330
8432
100
AcDbEntity
  8
3
100
AcDbDimension
  2
*D42
 10
3784.322584171019
 20
3356.192209343378
 30
0.0
 11
3696.822584171019
 21
3955.19220934338
 31
0.0
 70
    32
 71
     5
 42
1198.0
  3
IGA
100
AcDbAlignedDimension
 13
3384.062617025249
 23
4554.192209343379
 33
0.0
 14
3530.843268478227
 24
3356.192209343378
 34
0.0
 50
90.0
100
AcDbRotatedDimension
1001
ACAD
1000
DSTYLE
1002
{
1070
    40
1040
35.0
1070
   143
1040
0.039
1070
   172
1070
     1
1070
   271
1070
     4
1070
   272
1070
     4
1070
   279
1070
     0
1070
   284
1070
     0
1070
   285
1070
     0
1070
   286
1070
     0
1070
   341
1005
8445
1070
   343
1005
8445
1070
   344
1005
8445
1002
}
  0
DIMENSION
  5
8598
330
8432
100
AcDbEntity
  8
3
100
AcDbDimension
  2
*D43
 10
3784.322584171019
 20
2516.192209343379
 30
0.0
 11
3696.822584171019
 21
2936.19220934338
 31
0.0
 70
    32
 71
     5
 42
839.9999999999995
  3
IGA
100
AcDbAlignedDimension
 13
3530.843268478227
 23
3356.192209343378
 33
0.0
 14
3284.062617025249
 24
2516.192209343379
 34
0.0
 50
90.0
100
AcDbRotatedDimension
1001
ACAD
1000
DSTYLE
1002
{
1070
    40
1040
35.0
1070
   143
1040
0.039
1070
   172
1070
     1
1070
   271
1070
     4
1070
   272
1070
     4
1070
   279
1070
     1
1070
   284
1070
     0
1070
   285
1070
     0
1070
   286
1070
     0
1070
   341
1005
8445
1070
   343
1005
8445
1070
   344
1005
8445
1002
}
  0
DIMENSION
  5
85A5
330
8432
100
AcDbEntity
  8
3
100
AcDbDimension
  2
*D44
 10
3784.322584171019
 20
2496.192209343379
 30
0.0
 11
3996.822584171019
 21
2639.442209343379
 31
0.0
 70
    32
  1
(<>)
 71
     5
 42
20.0
  3
IGA
100
AcDbAlignedDimension
 13
3284.062617025249
 23
2516.192209343379
 33
0.0
 14
3284.062617025249
 24
2496.192209343379
 34
0.0
 50
90.0
100
AcDbRotatedDimension
1001
ACAD
1000
DSTYLE
1002
{
1070
    40
1040
35.0
1070
   143
1040
0.039
1070
   172
1070
     1
1070
   271
1070
     4
1070
   272
1070
     4
1070
   279
1070
     1
1070
   284
1070
     0
1070
   285
1070
     0
1070
   286
1070
     0
1070
   341
1005
8445
1070
   343
1005
8445
1070
   344
1005
8679
1002
}
  0
DIMENSION
  5
85B7
330
8432
100
AcDbEntity
  8
3
100
AcDbDimension
  2
*D45
 10
3784.322584171019
 20
2431.192209343379
 30
0.0
 11
3784.322584171019
 21
2291.192209343379
 31
0.0
 70
   160
 71
     5
 42
65.0
  3
IGA
100
AcDbAlignedDimension
 13
3284.062617025249
 23
2496.192209343379
 33
0.0
 14
3284.062617025249
 24
2431.192209343379
 34
0.0
 50
90.0
100
AcDbRotatedDimension
1001
ACAD
1000
DSTYLE
1002
{
1070
    40
1040
35.0
1070
   143
1040
0.039
1070
   172
1070
     1
1070
   271
1070
     4
1070
   272
1070
     4
1070
   279
1070
     1
1070
   284
1070
     0
1070
   285
1070
     0
1070
   286
1070
     0
1070
   341
1005
8445
1070
   343
1005
8679
1070
   344
1005
8445
1002
}
  0
DIMENSION
  5
85C9
330
8432
100
AcDbEntity
  8
3
100
AcDbDimension
  2
*D46
 10
4175.000473495573
 20
4554.192209343379
 30
0.0
 11
4060.000473495572
 21
3492.69220934338
 31
0.0
 70
    32
  1
(<>)
 71
     5
 42
2123.0
  3
IGA
100
AcDbAlignedDimension
 13
3284.062617025249
 23
2431.192209343379
 33
0.0
 14
3384.062617025249
 24
4554.192209343379
 34
0.0
 50
90.0
100
AcDbRotatedDimension
1001
ACAD
1000
DSTYLE
1002
{
1070
    40
1040
35.0
1070
   143
1040
0.039
1070
   172
1070
     1
1070
   271
1070
     4
1070
   272
1070
     4
1070
   279
1070
     0
1070
   284
1070
     0
1070
   285
1070
     0
1070
   286
1070
     0
1070
   341
1005
8445
1070
   343
1005
8445
1070
   344
1005
8445
1002
}
  0
ENDSEC
  0
SECTION
  2
OBJECTS
  0
DICTIONARY
  5
83CF
330
0
100
AcDbDictionary
281
     1
  3
ACAD_CIP_PREVIOUS_PRODUCT_INFO
350
8479
  3
ACAD_COLOR
350
8425
  3
ACAD_DETAILVIEWSTYLE
350
842C
  3
ACAD_GROUP
350
83D0
  3
ACAD_LAYOUT
350
8424
  3
ACAD_MATERIAL
350
83D3
  3
ACAD_MLEADERSTYLE
350
8428
  3
ACAD_MLINESTYLE
350
8421
  3
ACAD_PLOTSETTINGS
350
8423
  3
ACAD_PLOTSTYLENAME
350
83D1
  3
ACAD_SCALELIST
350
8405
  3
ACAD_SECTIONVIEWSTYLE
350
842A
  3
ACAD_TABLESTYLE
350
8426
  3
ACAD_VISUALSTYLE
350
83EC
  3
ACDB_RECOMPOSE_DATA
350
8706
  3
AcDbVariableDictionary
350
86F9
  3
DWGPROPS
350
8707
  0
DICTIONARY
  5
86EF
330
8417
100
AcDbDictionary
280
     1
281
     1
  3
ADSK_XREC_LAYER_RECONCILED
360
86F0
  0
DICTIONARY
  5
86F1
330
8436
100
AcDbDictionary
280
     1
281
     1
  3
ADSK_XREC_LAYER_RECONCILED
360
86F2
  0
DICTIONARY
  5
86F3
330
8439
100
AcDbDictionary
280
     1
281
     1
  3
ADSK_XREC_LAYER_RECONCILED
360
86F4
  0
DICTIONARY
  5
86F5
330
843A
100
AcDbDictionary
280
     1
281
     1
  3
ADSK_XREC_LAYER_RECONCILED
360
86F6
  0
DICTIONARY
  5
86F7
330
843B
100
AcDbDictionary
280
     1
281
     1
  3
ADSK_XREC_LAYER_RECONCILED
360
86F8
  0
DICTIONARY
  5
847B
330
8432
100
AcDbDictionary
280
     1
281
     1
  3
ACAD_SORTENTS
360
847C
  0
XRECORD
  5
8479
102
{ACAD_REACTORS
330
83CF
102
}
330
83CF
100
AcDbXrecord
280
     1
300
ACDLT
300
2015
300
INVLTS_F_S
  0
DICTIONARY
  5
8425
102
{ACAD_REACTORS
330
83CF
102
}
330
83CF
100
AcDbDictionary
281
     1
  0
DICTIONARY
  5
842C
102
{ACAD_REACTORS
330
83CF
102
}
330
83CF
100
AcDbDictionary
281
     1
  3
Imperial24
350
842D
  0
DICTIONARY
  5
83D0
102
{ACAD_REACTORS
330
83CF
102
}
330
83CF
100
AcDbDictionary
281
     1
  0
DICTIONARY
  5
8424
102
{ACAD_REACTORS
330
83CF
102
}
330
83CF
100
AcDbDictionary
281
     1
  3
Model
350
8435
  3
レイアウト1
350
8431
  0
DICTIONARY
  5
83D3
102
{ACAD_REACTORS
330
83CF
102
}
330
83CF
100
AcDbDictionary
281
     1
  3
ByBlock
350
83DC
  3
ByLayer
350
83D4
  3
Global
350
83E4
  0
DICTIONARY
  5
8428
102
{ACAD_REACTORS
330
83CF
102
}
330
83CF
100
AcDbDictionary
281
     1
  3
Standard
350
8429
  0
DICTIONARY
  5
8421
102
{ACAD_REACTORS
330
83CF
102
}
330
83CF
100
AcDbDictionary
281
     1
  3
Standard
350
8422
  0
DICTIONARY
  5
8423
102
{ACAD_REACTORS
330
83CF
102
}
330
83CF
100
AcDbDictionary
281
     1
  0
ACDBDICTIONARYWDFLT
  5
83D1
102
{ACAD_REACTORS
330
83CF
102
}
330
83CF
100
AcDbDictionary
281
     1
  3
Normal
350
83D2
100
AcDbDictionaryWithDefault
340
83D2
  0
DICTIONARY
  5
8405
102
{ACAD_REACTORS
330
83CF
102
}
330
83CF
100
AcDbDictionary
281
     1
  3
A0
350
8406
  3
A1
350
8407
  3
A2
350
8408
  3
A3
350
8409
  3
A4
350
840A
  3
A5
350
840B
  3
A6
350
840C
  3
A7
350
840D
  3
A8
350
840E
  3
A9
350
840F
  3
B0
350
8410
  3
B1
350
8411
  3
B2
350
8412
  3
B3
350
8413
  3
B4
350
8414
  3
B5
350
8415
  3
B6
350
8416
  0
DICTIONARY
  5
842A
102
{ACAD_REACTORS
330
83CF
102
}
330
83CF
100
AcDbDictionary
281
     1
  3
Imperial24
350
842B
  0
DICTIONARY
  5
8426
102
{ACAD_REACTORS
330
83CF
102
}
330
83CF
100
AcDbDictionary
281
     1
  3
Standard
350
8427
  0
DICTIONARY
  5
83EC
102
{ACAD_REACTORS
330
83CF
102
}
330
83CF
100
AcDbDictionary
281
     1
  3
2dWireframe
350
83F2
  3
Basic
350
83F1
  3
Brighten
350
83F8
  3
ColorChange
350
83FC
  3
Conceptual
350
83F5
  3
Dim
350
83F7
  3
EdgeColorOff
350
8404
  3
Facepattern
350
83FB
  3
Flat
350
83ED
  3
FlatWithEdges
350
83EE
  3
Gouraud
350
83EF
  3
GouraudWithEdges
350
83F0
  3
Hidden
350
83F4
  3
JitterOff
350
8402
  3
Linepattern
350
83FA
  3
OverhangOff
350
8403
  3
Realistic
350
83F6
  3
Shaded
350
8401
  3
Shaded with edges
350
8400
  3
Shades of Gray
350
83FD
  3
Sketchy
350
83FE
  3
Thicken
350
83F9
  3
Wireframe
350
83F3
  3
X-Ray
350
83FF
  0
XRECORD
  5
8706
102
{ACAD_REACTORS
330
83CF
102
}
330
83CF
100
AcDbXrecord
280
     1
 90
        1
330
8427
  0
DICTIONARY
  5
86F9
102
{ACAD_REACTORS
330
83CF
102
}
330
83CF
100
AcDbDictionary
281
     1
  3
CANNOSCALE
350
86FE
  3
CMLEADERSTYLE
350
86FB
  3
CTABLESTYLE
350
86FA
  3
CVIEWDETAILSTYLE
350
86FC
  3
CVIEWSECTIONSTYLE
350
86FD
  3
DIMASSOC
350
8701
  3
INDEXCTL
350
8700
  3
SORTENTS
350
86FF
  3
XCLIPFRAME
350
8702
  0
XRECORD
  5
8707
102
{ACAD_REACTORS
330
83CF
102
}
330
83CF
100
AcDbXrecord
280
     1
  1
DWGPROPS COOKIE
  2

  3

  4

  6

  7

  8
yasukiyo.ogawa
  9

300
=
301
=
302
=
303
=
304
=
305
=
306
=
307
=
308
=
309
=
 40
0.0206903240740741
 41
2451390.386212616
 42
2460273.570890405
  1

 90
        0
  0
XRECORD
  5
86F0
102
{ACAD_REACTORS
330
86EF
102
}
330
86EF
100
AcDbXrecord
280
     1
290
     1
  0
XRECORD
  5
86F2
102
{ACAD_REACTORS
330
86F1
102
}
330
86F1
100
AcDbXrecord
280
     1
290
     1
  0
XRECORD
  5
86F4
102
{ACAD_REACTORS
330
86F3
102
}
330
86F3
100
AcDbXrecord
280
     1
290
     1
  0
XRECORD
  5
86F6
102
{ACAD_REACTORS
330
86F5
102
}
330
86F5
100
AcDbXrecord
280
     1
290
     1
  0
XRECORD
  5
86F8
102
{ACAD_REACTORS
330
86F7
102
}
330
86F7
100
AcDbXrecord
280
     1
290
     1
  0
SORTENTSTABLE
  5
847C
102
{ACAD_REACTORS
330
847B
102
}
330
847B
100
AcDbSortentsTable
330
8432
331
7C90
  5
7C93
331
7CA1
  5
7CA3
331
7C39
  5
7C3B
331
7C4A
  5
7C4C
331
7CC3
  5
7CC5
331
7CD4
  5
7CD6
331
7C6C
  5
7C6E
331
7F1E
  5
7F21
331
7CE5
  5
7F15
331
7C7D
  5
7C7F
331
7C5B
  5
7C5E
331
7C28
  5
7C28
331
7C17
  5
7C17
331
7F28
  5
7F2A
331
7C91
  5
7C95
331
7CA2
  5
7CA4
331
7C3A
  5
7C3C
331
7C4B
  5
7C4D
331
7CC4
  5
7CC6
331
7CD5
  5
7CD7
331
7C6D
  5
7C6F
331
7C7E
  5
7C80
331
7C5C
  5
7C5F
331
7C29
  5
7C29
331
7C18
  5
7C18
331
7F29
  5
7F2B
331
7F20
  5
7F22
331
7CA3
  5
7CA5
331
7C3B
  5
7C3D
331
7CC5
  5
7CC7
331
7C4C
  5
7C4E
331
7CD6
  5
7CD8
331
7C6E
  5
7C70
331
7C7F
  5
7C81
331
7C2A
  5
7C2A
331
7C19
  5
7C19
331
7F2A
  5
7F2C
331
7F21
  5
7F23
331
7C80
  5
7C82
331
7C93
  5
7C96
331
7C2B
  5
7C2D
331
7CA4
  5
7CA6
331
7C3C
  5
7C3F
331
7CC6
  5
7CC8
331
7C5E
  5
7C60
331
7C4D
  5
7C4F
331
7CD7
  5
7CD9
331
7C1A
  5
7C1A
331
7CD8
  5
7CE1
331
7F2B
  5
7F2D
331
7F22
  5
7F24
331
7C81
  5
7C83
331
7CA5
  5
7CA7
331
7C3D
  5
7C40
331
7C2C
  5
7C2E
331
7CC7
  5
7CC9
331
7C5F
  5
7C63
331
7C4E
  5
7C53
331
7C1B
  5
7C1B
331
7CC8
  5
7CCA
331
7C60
  5
7C64
331
7CD9
  5
7CE2
331
7C71
  5
7C73
331
7F2C
  5
7F2E
331
7F23
  5
7F25
331
7C82
  5
7C84
331
7CA6
  5
7CA8
331
7C2D
  5
7C2F
331
7C4F
  5
7C54
331
7C1C
  5
7C1C
331
7CC9
  5
7CCB
331
7CB8
  5
7CBA
331
7F2D
  5
7F2F
331
7F24
  5
7F26
331
7C83
  5
7C86
331
7C72
  5
7C74
331
7C96
  5
7C99
331
7C2E
  5
7C30
331
7C1D
  5
7C1D
331
7CCA
  5
7CCC
331
7CB9
  5
7CBB
331
7CA8
  5
7CAA
331
7F2E
  5
7F30
331
7F25
  5
7F27
331
7F14
  5
7F16
331
7C73
  5
7C75
331
7C2F
  5
7C31
331
7C1E
  5
7C1E
331
7CBA
  5
7CBC
331
7CA9
  5
7CAB
331
7C98
  5
7C9C
331
7C30
  5
7C32
331
7CCB
  5
7CCD
331
7C63
  5
7C65
331
7F2F
  5
7F31
331
7F26
  5
7F28
331
7F15
  5
7F19
331
7C74
  5
7C76
331
7C1F
  5
7C1F
331
7C88
  5
7C8A
331
7C99
  5
7C9D
331
7C31
  5
7C33
331
7CAA
  5
7CAC
331
7C42
  5
7C44
331
7CBB
  5
7CBD
331
7CCC
  5
7CCE
331
7C64
  5
7C66
331
81EE
  5
820A
331
81D4
  5
81EE
331
7F30
  5
7F32
331
7F27
  5
7F29
331
7F16
  5
7F1A
331
7C75
  5
7C77
331
7C53
  5
7C55
331
7C20
  5
7C20
331
7C89
  5
7C8B
331
7CAB
  5
7CAD
331
7C43
  5
7C45
331
7C32
  5
7C34
331
7CBC
  5
7CBE
331
7C54
  5
7C56
331
7CCD
  5
7CCF
331
7F31
  5
81C7
331
7C76
  5
7C78
331
7C65
  5
7C67
331
7C21
  5
7C21
331
7C8A
  5
7C8D
331
7CAC
  5
7CAE
331
7C44
  5
7C46
331
7C33
  5
7C36
331
7CBD
  5
7CBF
331
7C55
  5
7C57
331
7CCE
  5
7CD0
331
7F32
  5
81D4
331
7C77
  5
7C79
331
7C66
  5
7C69
331
7C22
  5
7C22
331
7C8B
  5
7C8E
331
7C9C
  5
7C9E
331
7C34
  5
7C37
331
7CAD
  5
7CAF
331
7C45
  5
7C4A
331
7CBE
  5
7CC0
331
7CCF
  5
7CD1
331
7C67
  5
7C6C
331
7F19
  5
7F1B
331
7C78
  5
7C7A
331
7C56
  5
7C58
331
7C23
  5
7C23
331
81E1
  5
81FD
331
7C9D
  5
7C9F
331
7CAE
  5
7CB0
331
7C46
  5
7C4B
331
7CD0
  5
7CD2
331
7CBF
  5
7CC1
331
7C57
  5
7C59
331
81C7
  5
81E1
331
7F1A
  5
7F1C
331
7C79
  5
7C7B
331
7C24
  5
7C24
331
7C13
  5
7C13
331
7C8D
  5
7C8F
331
7C9E
  5
7CA0
331
7C36
  5
7C38
331
7CC0
  5
7CC2
331
7C58
  5
7C5A
331
7CD1
  5
7CD3
331
7F1B
  5
7F1D
331
7CE2
  5
7CE4
331
7C7A
  5
7C7C
331
7C69
  5
7C6D
331
7C25
  5
7C25
331
7C8E
  5
7C90
331
7C9F
  5
7CA1
331
7C37
  5
7C39
331
7CD2
  5
7CD4
331
7CC1
  5
7CC3
331
7C59
  5
7C5B
331
7F1C
  5
7F1E
331
7CE3
  5
7CE5
331
7C7B
  5
7C7D
331
7C26
  5
7C26
331
7C15
  5
7C15
331
7C8F
  5
7C91
331
7CA0
  5
7CA2
331
7C38
  5
7C3A
331
7CD3
  5
7CD5
331
7CC2
  5
7CC4
331
7C5A
  5
7C5C
331
7F1D
  5
7F20
331
7CE4
  5
7F14
331
7C7C
  5
7C7E
331
7C27
  5
7C27
331
7C16
  5
7C16
  0
ACDBDETAILVIEWSTYLE
  5
842D
102
{ACAD_XDICTIONARY
360
873F
102
}
102
{ACAD_REACTORS
330
842C
102
}
330
842C
100
AcDbModelDocViewStyle
 70
     0
  3
Imperial24
290
     0
100
AcDbDetailViewStyle
 70
     0
 71
     0
 90
        3
 71
     1
340
8418
 40
0.24
340
0
 40
0.24
300

 40
0.36
280
     3
 71
     2
340
841F
 90
       25
 71
     3
340
8418
 40
0.24
 90
        1
 40
0.75
 90
        1
300
%<\AcVar ViewType \f "%tc1">% %<\AcVar ViewDetailId>%\PSCALE %<\AcVar ViewScale \f "%sn">%
 71
     4
340
841F
 90
       25
340
841F
 90
       25
280
     0
  0
LAYOUT
  5
8435
102
{ACAD_XDICTIONARY
360
8743
102
}
102
{ACAD_REACTORS
330
8424
102
}
330
8424
100
AcDbPlotSettings
  1

  2
RICOH imagio MP W3600 RPCS
  4

  6

 40
0.0
 41
0.0
 42
0.0
 43
0.0
 44
0.0
 45
0.0
 46
0.0
 47
0.0
 48
0.0
 49
0.0
140
0.0
141
0.0
142
1.0
143
1.0
 70
  1712
 72
     0
 73
     0
 74
     0
  7

 75
     0
147
1.0
148
0.0
149
0.0
100
AcDbLayout
  1
Model
 70
     1
 71
     0
 10
0.0
 20
0.0
 11
12.0
 21
9.0
 12
0.0
 22
0.0
 32
0.0
 14
0.0
 24
0.0
 34
0.0
 15
0.0
 25
0.0
 35
0.0
146
0.0
 13
0.0
 23
0.0
 33
0.0
 16
1.0
 26
0.0
 36
0.0
 17
0.0
 27
1.0
 37
0.0
 76
     0
330
8432
331
8437
  0
LAYOUT
  5
8431
102
{ACAD_XDICTIONARY
360
8741
102
}
102
{ACAD_REACTORS
330
8424
102
}
330
8424
100
AcDbPlotSettings
  1

  2
RICOH imagio MP W3600 RPCS
  4

  6

 40
0.0
 41
0.0
 42
0.0
 43
0.0
 44
0.0
 45
0.0
 46
0.0
 47
0.0
 48
0.0
 49
0.0
140
0.0
141
0.0
142
1.0
143
1.0
 70
   688
 72
     0
 73
     0
 74
     5
  7

 75
    16
147
1.0
148
0.0
149
0.0
100
AcDbLayout
  1
レイアウト1
 70
     1
 71
     1
 10
0.0
 20
0.0
 11
12.0
 21
9.0
 12
0.0
 22
0.0
 32
0.0
 14
1.000000000000000E+20
 24
1.000000000000000E+20
 34
1.000000000000000E+20
 15
-1.000000000000000E+20
 25
-1.000000000000000E+20
 35
-1.000000000000000E+20
146
0.0
 13
0.0
 23
0.0
 33
0.0
 16
1.0
 26
0.0
 36
0.0
 17
0.0
 27
1.0
 37
0.0
 76
     0
330
842E
  0
MATERIAL
  5
83DC
102
{ACAD_XDICTIONARY
360
83DD
102
}
102
{ACAD_REACTORS
330
83D3
102
}
330
83D3
100
AcDbMaterial
  1
ByBlock
 72
     0
 43
0.0208333333333333
 43
0.0
 43
0.0
 43
0.0
 43
0.0
 43
0.0208333333333333
 43
0.0
 43
0.0
 43
0.0
 43
0.0
 43
1.0
 43
0.0
 43
0.0
 43
0.0
 43
0.0
 43
1.0
 77
     0
 47
0.0208333333333333
 47
0.0
 47
0.0
 47
0.0
 47
0.0
 47
0.0208333333333333
 47
0.0
 47
0.0
 47
0.0
 47
0.0
 47
1.0
 47
0.0
 47
0.0
 47
0.0
 47
0.0
 47
1.0
171
     0
 49
0.0208333333333333
 49
0.0
 49
0.0
 49
0.0
 49
0.0
 49
0.0208333333333333
 49
0.0
 49
0.0
 49
0.0
 49
0.0
 49
1.0
 49
0.0
 49
0.0
 49
0.0
 49
0.0
 49
1.0
175
     0
142
0.0208333333333333
142
0.0
142
0.0
142
0.0
142
0.0
142
0.0208333333333333
142
0.0
142
0.0
142
0.0
142
0.0
142
1.0
142
0.0
142
0.0
142
0.0
142
0.0
142
1.0
179
     0
144
0.0208333333333333
144
0.0
144
0.0
144
0.0
144
0.0
144
0.0208333333333333
144
0.0
144
0.0
144
0.0
144
0.0
144
1.0
144
0.0
144
0.0
144
0.0
144
0.0
144
1.0
147
0.0208333333333333
147
0.0
147
0.0
147
0.0
147
0.0
147
0.0208333333333333
147
0.0
147
0.0
147
0.0
147
0.0
147
1.0
147
0.0
147
0.0
147
0.0
147
0.0
147
1.0
  0
MATERIAL
  5
83D4
102
{ACAD_XDICTIONARY
360
83D5
102
}
102
{ACAD_REACTORS
330
83D3
102
}
330
83D3
100
AcDbMaterial
  1
ByLayer
 72
     0
 43
0.0208333333333333
 43
0.0
 43
0.0
 43
0.0
 43
0.0
 43
0.0208333333333333
 43
0.0
 43
0.0
 43
0.0
 43
0.0
 43
1.0
 43
0.0
 43
0.0
 43
0.0
 43
0.0
 43
1.0
 77
     0
 47
0.0208333333333333
 47
0.0
 47
0.0
 47
0.0
 47
0.0
 47
0.0208333333333333
 47
0.0
 47
0.0
 47
0.0
 47
0.0
 47
1.0
 47
0.0
 47
0.0
 47
0.0
 47
0.0
 47
1.0
171
     0
 49
0.0208333333333333
 49
0.0
 49
0.0
 49
0.0
 49
0.0
 49
0.0208333333333333
 49
0.0
 49
0.0
 49
0.0
 49
0.0
 49
1.0
 49
0.0
 49
0.0
 49
0.0
 49
0.0
 49
1.0
175
     0
142
0.0208333333333333
142
0.0
142
0.0
142
0.0
142
0.0
142
0.0208333333333333
142
0.0
142
0.0
142
0.0
142
0.0
142
1.0
142
0.0
142
0.0
142
0.0
142
0.0
142
1.0
179
     0
144
0.0208333333333333
144
0.0
144
0.0
144
0.0
144
0.0
144
0.0208333333333333
144
0.0
144
0.0
144
0.0
144
0.0
144
1.0
144
0.0
144
0.0
144
0.0
144
0.0
144
1.0
147
0.0208333333333333
147
0.0
147
0.0
147
0.0
147
0.0
147
0.0208333333333333
147
0.0
147
0.0
147
0.0
147
0.0
147
1.0
147
0.0
147
0.0
147
0.0
147
0.0
147
1.0
  0
MATERIAL
  5
83E4
102
{ACAD_XDICTIONARY
360
83E5
102
}
102
{ACAD_REACTORS
330
83D3
102
}
330
83D3
100
AcDbMaterial
  1
Global
 72
     0
 43
0.0208333333333333
 43
0.0
 43
0.0
 43
0.0
 43
0.0
 43
0.0208333333333333
 43
0.0
 43
0.0
 43
0.0
 43
0.0
 43
1.0
 43
0.0
 43
0.0
 43
0.0
 43
0.0
 43
1.0
 77
     0
 47
0.0208333333333333
 47
0.0
 47
0.0
 47
0.0
 47
0.0
 47
0.0208333333333333
 47
0.0
 47
0.0
 47
0.0
 47
0.0
 47
1.0
 47
0.0
 47
0.0
 47
0.0
 47
0.0
 47
1.0
171
     0
 49
0.0208333333333333
 49
0.0
 49
0.0
 49
0.0
 49
0.0
 49
0.0208333333333333
 49
0.0
 49
0.0
 49
0.0
 49
0.0
 49
1.0
 49
0.0
 49
0.0
 49
0.0
 49
0.0
 49
1.0
175
     0
142
0.0208333333333333
142
0.0
142
0.0
142
0.0
142
0.0
142
0.0208333333333333
142
0.0
142
0.0
142
0.0
142
0.0
142
1.0
142
0.0
142
0.0
142
0.0
142
0.0
142
1.0
179
     0
144
0.0208333333333333
144
0.0
144
0.0
144
0.0
144
0.0
144
0.0208333333333333
144
0.0
144
0.0
144
0.0
144
0.0
144
1.0
144
0.0
144
0.0
144
0.0
144
0.0
144
1.0
147
0.0208333333333333
147
0.0
147
0.0
147
0.0
147
0.0
147
0.0208333333333333
147
0.0
147
0.0
147
0.0
147
0.0
147
1.0
147
0.0
147
0.0
147
0.0
147
0.0
147
1.0
  0
MLEADERSTYLE
  5
8429
102
{ACAD_REACTORS
330
8428
102
}
330
8428
100
AcDbMLeaderStyle
170
     2
171
     1
172
     0
 90
        2
 40
0.0
 41
0.0
173
     1
 91
-1056964608
340
841D
 92
       -2
290
     1
 42
0.09
291
     1
 43
0.36
  3
Standard
 44
0.18
300

342
8418
174
     1
178
     6
175
     1
176
     0
 93
-1056964608
 45
0.18
292
     0
297
     0
 46
0.18
 94
-1056964608
 47
1.0
 49
1.0
140
1.0
293
     1
141
0.0
294
     1
177
     0
142
1.0
295
     0
296
     0
143
0.125
1001
ACAD_MLEADERVER
1070
     2
  0
MLINESTYLE
  5
8422
102
{ACAD_REACTORS
330
8421
102
}
330
8421
100
AcDbMlineStyle
  2
STANDARD
 70
     0
  3

 62
   256
 51
90.0
 52
90.0
 71
     2
 49
0.5
 62
   256
  6
BYLAYER
 49
-0.5
 62
   256
  6
BYLAYER
  0
ACDBPLACEHOLDER
  5
83D2
102
{ACAD_REACTORS
330
83D1
102
}
330
83D1
  0
SCALE
  5
8406
102
{ACAD_REACTORS
330
8405
102
}
330
8405
100
AcDbScale
 70
     0
300
1:1
140
1.0
141
1.0
290
     1
  0
SCALE
  5
8407
102
{ACAD_REACTORS
330
8405
102
}
330
8405
100
AcDbScale
 70
     0
300
1/128" = 1'-0"
140
0.0078125
141
12.0
290
     0
  0
SCALE
  5
8408
102
{ACAD_REACTORS
330
8405
102
}
330
8405
100
AcDbScale
 70
     0
300
1/64" = 1'-0"
140
0.015625
141
12.0
290
     0
  0
SCALE
  5
8409
102
{ACAD_REACTORS
330
8405
102
}
330
8405
100
AcDbScale
 70
     0
300
1/32" = 1'-0"
140
0.03125
141
12.0
290
     0
  0
SCALE
  5
840A
102
{ACAD_REACTORS
330
8405
102
}
330
8405
100
AcDbScale
 70
     0
300
1/16" = 1'-0"
140
0.0625
141
12.0
290
     0
  0
SCALE
  5
840B
102
{ACAD_REACTORS
330
8405
102
}
330
8405
100
AcDbScale
 70
     0
300
3/32" = 1'-0"
140
0.09375
141
12.0
290
     0
  0
SCALE
  5
840C
102
{ACAD_REACTORS
330
8405
102
}
330
8405
100
AcDbScale
 70
     0
300
1/8" = 1'-0"
140
0.125
141
12.0
290
     0
  0
SCALE
  5
840D
102
{ACAD_REACTORS
330
8405
102
}
330
8405
100
AcDbScale
 70
     0
300
3/16" = 1'-0"
140
0.1875
141
12.0
290
     0
  0
SCALE
  5
840E
102
{ACAD_REACTORS
330
8405
102
}
330
8405
100
AcDbScale
 70
     0
300
1/4" = 1'-0"
140
0.25
141
12.0
290
     0
  0
SCALE
  5
840F
102
{ACAD_REACTORS
330
8405
102
}
330
8405
100
AcDbScale
 70
     0
300
3/8" = 1'-0"
140
0.375
141
12.0
290
     0
  0
SCALE
  5
8410
102
{ACAD_REACTORS
330
8405
102
}
330
8405
100
AcDbScale
 70
     0
300
1/2" = 1'-0"
140
0.5
141
12.0
290
     0
  0
SCALE
  5
8411
102
{ACAD_REACTORS
330
8405
102
}
330
8405
100
AcDbScale
 70
     0
300
3/4" = 1'-0"
140
0.75
141
12.0
290
     0
  0
SCALE
  5
8412
102
{ACAD_REACTORS
330
8405
102
}
330
8405
100
AcDbScale
 70
     0
300
1" = 1'-0"
140
1.0
141
12.0
290
     0
  0
SCALE
  5
8413
102
{ACAD_REACTORS
330
8405
102
}
330
8405
100
AcDbScale
 70
     0
300
1-1/2" = 1'-0"
140
1.5
141
12.0
290
     0
  0
SCALE
  5
8414
102
{ACAD_REACTORS
330
8405
102
}
330
8405
100
AcDbScale
 70
     0
300
3" = 1'-0"
140
3.0
141
12.0
290
     0
  0
SCALE
  5
8415
102
{ACAD_REACTORS
330
8405
102
}
330
8405
100
AcDbScale
 70
     0
300
6" = 1'-0"
140
6.0
141
12.0
290
     0
  0
SCALE
  5
8416
102
{ACAD_REACTORS
330
8405
102
}
330
8405
100
AcDbScale
 70
     0
300
1'-0" = 1'-0"
140
12.0
141
12.0
290
     0
  0
ACDBSECTIONVIEWSTYLE
  5
842B
102
{ACAD_XDICTIONARY
360
873D
102
}
102
{ACAD_REACTORS
330
842A
102
}
330
842A
100
AcDbModelDocViewStyle
 70
     0
  3
Imperial24
290
     0
100
AcDbSectionViewStyle
 70
     0
 71
     0
 90
       78
 71
     1
340
8418
 40
0.24
340
0
340
0
 40
0.24
300
I, O, Q, S, X, Z
 40
0.48
 90
        3
 40
0.18
 90
        1
 71
     2
340
841F
 90
       25
340
841F
 90
       50
 40
0.24
 40
0.0
 40
0.24
 71
     3
340
8418
 40
0.24
 90
        1
 40
0.75
 90
        1
300
%<\AcVar ViewType \f "%tc1">% %<\AcVar ViewSectionStartId>%-%<\AcVar ViewSectionEndId>%\PSCALE %<\AcVar ViewScale \f "%sn">%
 71
     4
300
ANSI31
 40
1.0
 90
        0
290
     0
290
     0
 90
        6
 40
0.0
 40
1.570796326794896
 40
0.2617993877991494
 40
1.308996938995747
 40
-0.2617993877991494
 40
1.832595714594046
  0
TABLESTYLE
  5
8427
102
{ACAD_XDICTIONARY
360
8704
102
}
102
{ACAD_REACTORS
330
8426
102
}
330
8426
100
AcDbTableStyle
  3
Standard
 70
     0
 71
     0
 40
0.06
 41
0.06
280
     0
281
     0
  7
STANDARD
140
0.18
170
     2
 62
     0
 63
     7
283
     0
274
    -2
284
     1
 64
     0
275
    -2
285
     1
 65
     0
276
    -2
286
     1
 66
     0
277
    -2
287
     1
 67
     0
278
    -2
288
     1
 68
     0
279
    -2
289
     1
 69
     0
  7
STANDARD
140
0.25
170
     5
 62
     0
 63
     7
283
     0
274
    -2
284
     1
 64
     0
275
    -2
285
     1
 65
     0
276
    -2
286
     1
 66
     0
277
    -2
287
     1
 67
     0
278
    -2
288
     1
 68
     0
279
    -2
289
     1
 69
     0
  7
STANDARD
140
0.18
170
     5
 62
     0
 63
     7
283
     0
274
    -2
284
     1
 64
     0
275
    -2
285
     1
 65
     0
276
    -2
286
     1
 66
     0
277
    -2
287
     1
 67
     0
278
    -2
288
     1
 68
     0
279
    -2
289
     1
 69
     0
  0
VISUALSTYLE
  5
83F2
102
{ACAD_XDICTIONARY
360
8715
102
}
102
{ACAD_REACTORS
330
83EC
102
}
330
83EC
100
AcDbVisualStyle
  2
2dWireframe
 70
     4
 71
     0
 72
     2
 73
     0
 90
        0
 40
-0.6
 41
-30.0
 62
     5
 63
     7
 74
     1
 91
        4
 64
     7
 65
   257
 75
     1
175
     1
 42
1.0
 92
        0
 66
   257
 43
1.0
 76
     1
 77
     6
 78
     2
 67
     7
 79
     5
170
     0
171
     0
290
     0
174
     0
 93
        1
 44
0.0
173
     0
291
     0
 45
0.0
1001
ACAD
1000
AcDbSavedByObjectVersion
1070
     0
  0
VISUALSTYLE
  5
83F1
102
{ACAD_XDICTIONARY
360
8713
102
}
102
{ACAD_REACTORS
330
83EC
102
}
330
83EC
100
AcDbVisualStyle
  2
Basic
 70
     7
 71
     1
 72
     0
 73
     1
 90
        0
 40
-0.6
 41
-30.0
 62
     5
 63
     7
 74
     0
 91
        4
 64
     7
 65
   257
 75
     1
175
     1
 42
1.0
 92
        8
 66
     7
 43
1.0
 76
     1
 77
     6
 78
     2
 67
     7
 79
     5
170
     0
171
     0
290
     0
174
     0
 93
        1
 44
0.0
173
     0
291
     1
 45
0.0
1001
ACAD
1000
AcDbSavedByObjectVersion
1070
     0
  0
VISUALSTYLE
  5
83F8
102
{ACAD_XDICTIONARY
360
8721
102
}
102
{ACAD_REACTORS
330
83EC
102
}
330
83EC
100
AcDbVisualStyle
  2
Brighten
 70
    12
 71
     2
 72
     2
 73
     0
 90
        0
 40
-0.6
 41
-30.0
 62
     5
 63
     7
 74
     1
 91
        4
 64
     7
 65
   257
 75
     1
175
     1
 42
1.0
 92
        8
 66
     7
 43
1.0
 76
     1
 77
     6
 78
     2
 67
     7
 79
     5
170
     0
171
     0
290
     0
174
     0
 93
        1
 44
50.0
173
     0
291
     1
 45
0.0
1001
ACAD
1000
AcDbSavedByObjectVersion
1070
     0
  0
VISUALSTYLE
  5
83FC
102
{ACAD_XDICTIONARY
360
8729
102
}
102
{ACAD_REACTORS
330
83EC
102
}
330
83EC
100
AcDbVisualStyle
  2
ColorChange
 70
    16
 71
     2
 72
     2
 73
     3
 90
        0
 40
-0.6
 41
-30.0
 62
     5
 63
     8
 74
     1
 91
        4
 64
     7
 65
   257
 75
     1
175
     1
 42
1.0
 92
        8
 66
     8
 43
1.0
 76
     1
 77
     6
 78
     2
 67
     7
 79
     5
170
     0
171
     0
290
     0
174
     0
 93
        1
 44
0.0
173
     0
291
     1
 45
0.0
1001
ACAD
1000
AcDbSavedByObjectVersion
1070
     0
  0
VISUALSTYLE
  5
83F5
102
{ACAD_XDICTIONARY
360
871B
102
}
102
{ACAD_REACTORS
330
83EC
102
}
330
83EC
100
AcDbVisualStyle
  2
Conceptual
 70
     9
 71
     3
 72
     2
 73
     0
 90
        0
 40
-0.6
 41
-30.0
 62
     5
 63
     7
 74
     2
 91
        2
 64
     7
 65
   257
 75
     1
175
     1
 42
179.0
 92
        8
 66
     7
 43
1.0
 76
     1
 77
     6
 78
     2
 67
     7
 79
     3
170
     0
171
     0
290
     0
174
     0
 93
        1
 44
0.0
173
     0
291
     0
 45
0.0
1001
ACAD
1000
AcDbSavedByObjectVersion
1070
     0
  0
VISUALSTYLE
  5
83F7
102
{ACAD_XDICTIONARY
360
871F
102
}
102
{ACAD_REACTORS
330
83EC
102
}
330
83EC
100
AcDbVisualStyle
  2
Dim
 70
    11
 71
     2
 72
     2
 73
     0
 90
        0
 40
-0.6
 41
-30.0
 62
     5
 63
     7
 74
     1
 91
        4
 64
     7
 65
   257
 75
     1
175
     1
 42
1.0
 92
        8
 66
     7
 43
1.0
 76
     1
 77
     6
 78
     2
 67
     7
 79
     5
170
     0
171
     0
290
     0
174
     0
 93
        1
 44
-50.0
173
     0
291
     1
 45
0.0
1001
ACAD
1000
AcDbSavedByObjectVersion
1070
     0
  0
VISUALSTYLE
  5
8404
102
{ACAD_XDICTIONARY
360
8739
102
}
102
{ACAD_REACTORS
330
83EC
102
}
330
83EC
100
AcDbVisualStyle
  2
EdgeColorOff
 70
    22
 71
     2
 72
     2
 73
     0
 90
        0
 40
-0.6
 41
-30.0
 62
     5
 63
     7
 74
     1
 91
        4
 64
     7
 65
   257
 75
     1
175
     1
 42
1.0
 92
        8
 66
     7
 43
1.0
 76
     1
 77
     6
 78
     2
 67
     7
 79
     5
170
     0
171
     0
290
     0
174
     0
 93
        1
 44
0.0
173
     0
291
     1
 45
0.0
1001
ACAD
1000
AcDbSavedByObjectVersion
1070
     0
  0
VISUALSTYLE
  5
83FB
102
{ACAD_XDICTIONARY
360
8727
102
}
102
{ACAD_REACTORS
330
83EC
102
}
330
83EC
100
AcDbVisualStyle
  2
Facepattern
 70
    15
 71
     2
 72
     2
 73
     0
 90
        0
 40
-0.6
 41
-30.0
 62
     5
 63
     7
 74
     1
 91
        4
 64
     7
 65
   257
 75
     1
175
     1
 42
1.0
 92
        8
 66
     7
 43
1.0
 76
     1
 77
     6
 78
     2
 67
     7
 79
     5
170
     0
171
     0
290
     0
174
     0
 93
        1
 44
0.0
173
     0
291
     1
 45
0.0
1001
ACAD
1000
AcDbSavedByObjectVersion
1070
     0
  0
VISUALSTYLE
  5
83ED
102
{ACAD_XDICTIONARY
360
870B
102
}
102
{ACAD_REACTORS
330
83EC
102
}
330
83EC
100
AcDbVisualStyle
  2
Flat
 70
     0
 71
     2
 72
     1
 73
     1
 90
        2
 40
-0.6
 41
30.0
 62
     5
 63
     7
 74
     0
 91
        0
 64
     7
 65
   257
 75
     1
175
     1
 42
1.0
 92
        8
 66
     7
 43
1.0
 76
     1
 77
     6
 78
     2
 67
     7
 79
     5
170
     0
171
     0
290
     0
174
     0
 93
       13
 44
0.0
173
     0
291
     1
 45
0.0
1001
ACAD
1000
AcDbSavedByObjectVersion
1070
     0
  0
VISUALSTYLE
  5
83EE
102
{ACAD_XDICTIONARY
360
870D
102
}
102
{ACAD_REACTORS
330
83EC
102
}
330
83EC
100
AcDbVisualStyle
  2
FlatWithEdges
 70
     1
 71
     2
 72
     1
 73
     1
 90
        2
 40
-0.6
 41
30.0
 62
     5
 63
     7
 74
     1
 91
        0
 64
     7
 65
   257
 75
     1
175
     1
 42
1.0
 92
        0
 66
   257
 43
1.0
 76
     1
 77
     6
 78
     2
 67
     7
 79
     5
170
     0
171
     0
290
     0
174
     0
 93
       13
 44
0.0
173
     0
291
     1
 45
0.0
1001
ACAD
1000
AcDbSavedByObjectVersion
1070
     0
  0
VISUALSTYLE
  5
83EF
102
{ACAD_XDICTIONARY
360
870F
102
}
102
{ACAD_REACTORS
330
83EC
102
}
330
83EC
100
AcDbVisualStyle
  2
Gouraud
 70
     2
 71
     2
 72
     2
 73
     1
 90
        2
 40
-0.6
 41
30.0
 62
     5
 63
     7
 74
     0
 91
        0
 64
     7
 65
   257
 75
     1
175
     1
 42
1.0
 92
        0
 66
     7
 43
1.0
 76
     1
 77
     6
 78
     2
 67
     7
 79
     5
170
     0
171
     0
290
     0
174
     0
 93
       13
 44
0.0
173
     0
291
     1
 45
0.0
1001
ACAD
1000
AcDbSavedByObjectVersion
1070
     0
  0
VISUALSTYLE
  5
83F0
102
{ACAD_XDICTIONARY
360
8711
102
}
102
{ACAD_REACTORS
330
83EC
102
}
330
83EC
100
AcDbVisualStyle
  2
GouraudWithEdges
 70
     3
 71
     2
 72
     2
 73
     1
 90
        2
 40
-0.6
 41
30.0
 62
     5
 63
     7
 74
     1
 91
        0
 64
     7
 65
   257
 75
     1
175
     1
 42
1.0
 92
        0
 66
   257
 43
1.0
 76
     1
 77
     6
 78
     2
 67
     7
 79
     5
170
     0
171
     0
290
     0
174
     0
 93
       13
 44
0.0
173
     0
291
     1
 45
0.0
1001
ACAD
1000
AcDbSavedByObjectVersion
1070
     0
  0
VISUALSTYLE
  5
83F4
102
{ACAD_XDICTIONARY
360
8719
102
}
102
{ACAD_REACTORS
330
83EC
102
}
330
83EC
100
AcDbVisualStyle
  2
Hidden
 70
     6
 71
     1
 72
     2
 73
     2
 90
        0
 40
-0.6
 41
-30.0
 62
     5
 63
     7
 74
     2
 91
        2
 64
     7
 65
   257
 75
     2
175
     1
 42
40.0
 92
        0
 66
   257
 43
1.0
 76
     1
 77
     6
 78
     2
 67
     7
 79
     3
170
     0
171
     0
290
     0
174
     0
 93
        1
 44
0.0
173
     0
291
     0
 45
0.0
1001
ACAD
1000
AcDbSavedByObjectVersion
1070
     0
  0
VISUALSTYLE
  5
8402
102
{ACAD_XDICTIONARY
360
8735
102
}
102
{ACAD_REACTORS
330
83EC
102
}
330
83EC
100
AcDbVisualStyle
  2
JitterOff
 70
    20
 71
     2
 72
     2
 73
     0
 90
        0
 40
-0.6
 41
-30.0
 62
     5
 63
     7
 74
     1
 91
        4
 64
     7
 65
   257
 75
     1
175
     1
 42
1.0
 92
       10
 66
     7
 43
1.0
 76
     1
 77
     6
 78
     2
 67
     7
 79
     5
170
     0
171
     0
290
     0
174
     0
 93
        1
 44
0.0
173
     0
291
     1
 45
0.0
1001
ACAD
1000
AcDbSavedByObjectVersion
1070
     0
  0
VISUALSTYLE
  5
83FA
102
{ACAD_XDICTIONARY
360
8725
102
}
102
{ACAD_REACTORS
330
83EC
102
}
330
83EC
100
AcDbVisualStyle
  2
Linepattern
 70
    14
 71
     2
 72
     2
 73
     0
 90
        0
 40
-0.6
 41
-30.0
 62
     5
 63
     7
 74
     1
 91
        4
 64
     7
 65
   257
 75
     7
175
     7
 42
1.0
 92
        8
 66
     7
 43
1.0
 76
     1
 77
     6
 78
     2
 67
     7
 79
     5
170
     0
171
     0
290
     0
174
     0
 93
        1
 44
0.0
173
     0
291
     1
 45
0.0
1001
ACAD
1000
AcDbSavedByObjectVersion
1070
     0
  0
VISUALSTYLE
  5
8403
102
{ACAD_XDICTIONARY
360
8737
102
}
102
{ACAD_REACTORS
330
83EC
102
}
330
83EC
100
AcDbVisualStyle
  2
OverhangOff
 70
    21
 71
     2
 72
     2
 73
     0
 90
        0
 40
-0.6
 41
-30.0
 62
     5
 63
     7
 74
     1
 91
        4
 64
     7
 65
   257
 75
     1
175
     1
 42
1.0
 92
        9
 66
     7
 43
1.0
 76
     1
 77
     6
 78
     2
 67
     7
 79
     5
170
     0
171
     0
290
     0
174
     0
 93
        1
 44
0.0
173
     0
291
     1
 45
0.0
1001
ACAD
1000
AcDbSavedByObjectVersion
1070
     0
  0
VISUALSTYLE
  5
83F6
102
{ACAD_XDICTIONARY
360
871D
102
}
102
{ACAD_REACTORS
330
83EC
102
}
330
83EC
100
AcDbVisualStyle
  2
Realistic
 70
     8
 71
     2
 72
     3
 73
     0
 90
        2
 40
-0.6
 41
30.0
 62
     5
 63
     7
 74
     0
 91
        0
 64
     7
 65
   257
 75
     1
175
     1
 42
1.0
 92
        8
 66
   257
 43
1.0
 76
     1
 77
     6
 78
     2
 67
     7
 79
     3
170
     0
171
     0
290
     0
174
     0
 93
       13
 44
0.0
173
     0
291
     0
 45
0.0
1001
ACAD
1000
AcDbSavedByObjectVersion
1070
     0
  0
VISUALSTYLE
  5
8401
102
{ACAD_XDICTIONARY
360
8733
102
}
102
{ACAD_REACTORS
330
83EC
102
}
330
83EC
100
AcDbVisualStyle
  2
Shaded
 70
    27
 71
     2
 72
     2
 73
     1
 90
        2
 40
-0.6
 41
30.0
 62
     5
 63
     7
 74
     0
 91
        4
 64
     7
 65
   257
 75
     1
175
     1
 42
1.0
 92
        8
 66
   257
 43
1.0
 76
     1
 77
     6
 78
     2
 67
     8
 79
     3
170
     0
171
     0
290
     0
174
     0
 93
        5
 44
0.0
173
     0
291
     0
 45
0.0
1001
ACAD
1000
AcDbSavedByObjectVersion
1070
     0
  0
VISUALSTYLE
  5
8400
102
{ACAD_XDICTIONARY
360
8731
102
}
102
{ACAD_REACTORS
330
83EC
102
}
330
83EC
100
AcDbVisualStyle
  2
Shaded with edges
 70
    26
 71
     2
 72
     2
 73
     1
 90
        2
 40
-0.6
 41
30.0
 62
     5
 63
     7
 74
     1
 91
       10
 64
     7
 65
   257
 75
     2
175
     1
 42
1.0
 92
        8
 66
   257
 43
1.0
 76
     1
 77
     6
 78
     2
 67
     7
 79
     3
170
     0
171
     0
290
     0
174
     0
 93
        5
 44
0.0
173
     0
291
     0
 45
0.0
1001
ACAD
1000
AcDbSavedByObjectVersion
1070
     0
  0
VISUALSTYLE
  5
83FD
102
{ACAD_XDICTIONARY
360
872B
102
}
102
{ACAD_REACTORS
330
83EC
102
}
330
83EC
100
AcDbVisualStyle
  2
Shades of Gray
 70
    23
 71
     2
 72
     2
 73
     3
 90
        0
 40
-0.6
 41
-30.0
 62
     5
 63
     7
 74
     2
 91
        2
 64
     7
 65
     7
 75
     1
175
     1
 42
40.0
 92
        8
 66
     7
 43
1.0
 76
     1
 77
     6
 78
     2
 67
     7
 79
     3
170
     0
171
     0
290
     0
174
     0
 93
        1
 44
0.0
173
     0
291
     0
 45
0.0
1001
ACAD
1000
AcDbSavedByObjectVersion
1070
     0
  0
VISUALSTYLE
  5
83FE
102
{ACAD_XDICTIONARY
360
872D
102
}
102
{ACAD_REACTORS
330
83EC
102
}
330
83EC
100
AcDbVisualStyle
  2
Sketchy
 70
    24
 71
     1
 72
     2
 73
     2
 90
        0
 40
-0.6
 41
-30.0
 62
     5
 63
     7
 74
     2
 91
        2
 64
     7
 65
     7
 75
     1
175
     1
 42
40.0
 92
       11
 66
     7
 43
1.0
 76
     1
 77
     6
 78
     2
 67
     7
 79
     6
170
     0
171
     0
290
     0
174
     0
 93
        1
 44
0.0
173
     0
291
     0
 45
0.0
1001
ACAD
1000
AcDbSavedByObjectVersion
1070
     0
  0
VISUALSTYLE
  5
83F9
102
{ACAD_XDICTIONARY
360
8723
102
}
102
{ACAD_REACTORS
330
83EC
102
}
330
83EC
100
AcDbVisualStyle
  2
Thicken
 70
    13
 71
     2
 72
     2
 73
     0
 90
        0
 40
-0.6
 41
-30.0
 62
     5
 63
     7
 74
     1
 91
        4
 64
     7
 65
   257
 75
     1
175
     1
 42
1.0
 92
       12
 66
     7
 43
1.0
 76
     1
 77
     6
 78
     2
 67
     7
 79
     5
170
     0
171
     0
290
     0
174
     0
 93
        1
 44
0.0
173
     0
291
     1
 45
0.0
1001
ACAD
1000
AcDbSavedByObjectVersion
1070
     0
  0
VISUALSTYLE
  5
83F3
102
{ACAD_XDICTIONARY
360
8717
102
}
102
{ACAD_REACTORS
330
83EC
102
}
330
83EC
100
AcDbVisualStyle
  2
Wireframe
 70
     5
 71
     0
 72
     2
 73
     0
 90
        0
 40
-0.6
 41
-30.0
 62
     5
 63
     7
 74
     1
 91
        4
 64
     7
 65
   257
 75
     1
175
     1
 42
1.0
 92
        0
 66
   257
 43
1.0
 76
     1
 77
     6
 78
     2
 67
     7
 79
     3
170
     0
171
     0
290
     0
174
     0
 93
        1
 44
0.0
173
     0
291
     0
 45
0.0
1001
ACAD
1000
AcDbSavedByObjectVersion
1070
     0
  0
VISUALSTYLE
  5
83FF
102
{ACAD_XDICTIONARY
360
872F
102
}
102
{ACAD_REACTORS
330
83EC
102
}
330
83EC
100
AcDbVisualStyle
  2
X-Ray
 70
    25
 71
     2
 72
     2
 73
     1
 90
        1
 40
0.5
 41
-30.0
 62
     5
 63
     7
 74
     1
 91
        0
 64
     7
 65
   257
 75
     1
175
     1
 42
1.0
 92
        8
 66
     7
 43
1.0
 76
     1
 77
     6
 78
     2
 67
     7
 79
     3
170
     0
171
     0
290
     0
174
     0
 93
       13
 44
0.0
173
     0
291
     0
 45
0.0
1001
ACAD
1000
AcDbSavedByObjectVersion
1070
     0
  0
DICTIONARYVAR
  5
86FE
102
{ACAD_REACTORS
330
86F9
102
}
330
86F9
100
DictionaryVariables
280
     0
  1
1:1
  0
DICTIONARYVAR
  5
86FB
102
{ACAD_REACTORS
330
86F9
102
}
330
86F9
100
DictionaryVariables
280
     0
  1
STANDARD
  0
DICTIONARYVAR
  5
86FA
102
{ACAD_REACTORS
330
86F9
102
}
330
86F9
100
DictionaryVariables
280
     0
  1
STANDARD
  0
DICTIONARYVAR
  5
86FC
102
{ACAD_REACTORS
330
86F9
102
}
330
86F9
100
DictionaryVariables
280
     0
  1
Imperial24
  0
DICTIONARYVAR
  5
86FD
102
{ACAD_REACTORS
330
86F9
102
}
330
86F9
100
DictionaryVariables
280
     0
  1
Imperial24
  0
DICTIONARYVAR
  5
8701
102
{ACAD_REACTORS
330
86F9
102
}
330
86F9
100
DictionaryVariables
280
     0
  1
1
  0
DICTIONARYVAR
  5
8700
102
{ACAD_REACTORS
330
86F9
102
}
330
86F9
100
DictionaryVariables
280
     0
  1
0
  0
DICTIONARYVAR
  5
86FF
102
{ACAD_REACTORS
330
86F9
102
}
330
86F9
100
DictionaryVariables
280
     0
  1
127
  0
DICTIONARYVAR
  5
8702
102
{ACAD_REACTORS
330
86F9
102
}
330
86F9
100
DictionaryVariables
280
     0
  1
2
  0
DICTIONARY
  5
873F
330
842D
100
AcDbDictionary
280
     1
281
     1
  3
ACAD_XREC_ROUNDTRIP
360
8740
  0
DICTIONARY
  5
8743
330
8435
100
AcDbDictionary
280
     1
281
     1
  3
ACAD_XREC_ROUNDTRIP
360
8744
  0
DICTIONARY
  5
8741
330
8431
100
AcDbDictionary
280
     1
281
     1
  3
ACAD_XREC_ROUNDTRIP
360
8742
  0
DICTIONARY
  5
83DD
330
83DC
100
AcDbDictionary
280
     1
281
     1
  3
ACAD_XREC_ROUNDTRIP
360
8709
  3
BUMPTILE
360
83DF
  3
DIFFUSETILE
360
83DE
  3
OPACITYTILE
360
83E2
  3
REFLECTIONTILE
360
83E1
  3
REFRACTIONTILE
360
83E3
  3
SPECULARTILE
360
83E0
  0
DICTIONARY
  5
83D5
330
83D4
100
AcDbDictionary
280
     1
281
     1
  3
ACAD_XREC_ROUNDTRIP
360
8708
  3
BUMPTILE
360
83D7
  3
DIFFUSETILE
360
83D6
  3
OPACITYTILE
360
83DA
  3
REFLECTIONTILE
360
83D9
  3
REFRACTIONTILE
360
83DB
  3
SPECULARTILE
360
83D8
  0
DICTIONARY
  5
83E5
330
83E4
100
AcDbDictionary
280
     1
281
     1
  3
ACAD_XREC_ROUNDTRIP
360
870A
  3
BUMPTILE
360
83E7
  3
DIFFUSETILE
360
83E6
  3
FBXASSET
360
847E
  3
OPACITYTILE
360
83EA
  3
REFLECTIONTILE
360
83E9
  3
REFRACTIONTILE
360
83EB
  3
SPECULARTILE
360
83E8
  0
DICTIONARY
  5
873D
330
842B
100
AcDbDictionary
280
     1
281
     1
  3
ACAD_XREC_ROUNDTRIP
360
873E
  0
DICTIONARY
  5
8704
330
8427
100
AcDbDictionary
280
     1
281
     1
  3
ACAD_ROUNDTRIP_2008_TABLESTYLE_CELLSTYLEMAP
360
8705
  3
ACAD_XREC_ROUNDTRIP
360
873B
  0
DICTIONARY
  5
8715
330
83F2
100
AcDbDictionary
280
     1
281
     1
  3
ACAD_XREC_ROUNDTRIP
360
8716
  0
DICTIONARY
  5
8713
330
83F1
100
AcDbDictionary
280
     1
281
     1
  3
ACAD_XREC_ROUNDTRIP
360
8714
  0
DICTIONARY
  5
8721
330
83F8
100
AcDbDictionary
280
     1
281
     1
  3
ACAD_XREC_ROUNDTRIP
360
8722
  0
DICTIONARY
  5
8729
330
83FC
100
AcDbDictionary
280
     1
281
     1
  3
ACAD_XREC_ROUNDTRIP
360
872A
  0
DICTIONARY
  5
871B
330
83F5
100
AcDbDictionary
280
     1
281
     1
  3
ACAD_XREC_ROUNDTRIP
360
871C
  0
DICTIONARY
  5
871F
330
83F7
100
AcDbDictionary
280
     1
281
     1
  3
ACAD_XREC_ROUNDTRIP
360
8720
  0
DICTIONARY
  5
8739
330
8404
100
AcDbDictionary
280
     1
281
     1
  3
ACAD_XREC_ROUNDTRIP
360
873A
  0
DICTIONARY
  5
8727
330
83FB
100
AcDbDictionary
280
     1
281
     1
  3
ACAD_XREC_ROUNDTRIP
360
8728
  0
DICTIONARY
  5
870B
330
83ED
100
AcDbDictionary
280
     1
281
     1
  3
ACAD_XREC_ROUNDTRIP
360
870C
  0
DICTIONARY
  5
870D
330
83EE
100
AcDbDictionary
280
     1
281
     1
  3
ACAD_XREC_ROUNDTRIP
360
870E
  0
DICTIONARY
  5
870F
330
83EF
100
AcDbDictionary
280
     1
281
     1
  3
ACAD_XREC_ROUNDTRIP
360
8710
  0
DICTIONARY
  5
8711
330
83F0
100
AcDbDictionary
280
     1
281
     1
  3
ACAD_XREC_ROUNDTRIP
360
8712
  0
DICTIONARY
  5
8719
330
83F4
100
AcDbDictionary
280
     1
281
     1
  3
ACAD_XREC_ROUNDTRIP
360
871A
  0
DICTIONARY
  5
8735
330
8402
100
AcDbDictionary
280
     1
281
     1
  3
ACAD_XREC_ROUNDTRIP
360
8736
  0
DICTIONARY
  5
8725
330
83FA
100
AcDbDictionary
280
     1
281
     1
  3
ACAD_XREC_ROUNDTRIP
360
8726
  0
DICTIONARY
  5
8737
330
8403
100
AcDbDictionary
280
     1
281
     1
  3
ACAD_XREC_ROUNDTRIP
360
8738
  0
DICTIONARY
  5
871D
330
83F6
100
AcDbDictionary
280
     1
281
     1
  3
ACAD_XREC_ROUNDTRIP
360
871E
  0
DICTIONARY
  5
8733
330
8401
100
AcDbDictionary
280
     1
281
     1
  3
ACAD_XREC_ROUNDTRIP
360
8734
  0
DICTIONARY
  5
8731
330
8400
100
AcDbDictionary
280
     1
281
     1
  3
ACAD_XREC_ROUNDTRIP
360
8732
  0
DICTIONARY
  5
872B
330
83FD
100
AcDbDictionary
280
     1
281
     1
  3
ACAD_XREC_ROUNDTRIP
360
872C
  0
DICTIONARY
  5
872D
330
83FE
100
AcDbDictionary
280
     1
281
     1
  3
ACAD_XREC_ROUNDTRIP
360
872E
  0
DICTIONARY
  5
8723
330
83F9
100
AcDbDictionary
280
     1
281
     1
  3
ACAD_XREC_ROUNDTRIP
360
8724
  0
DICTIONARY
  5
8717
330
83F3
100
AcDbDictionary
280
     1
281
     1
  3
ACAD_XREC_ROUNDTRIP
360
8718
  0
DICTIONARY
  5
872F
330
83FF
100
AcDbDictionary
280
     1
281
     1
  3
ACAD_XREC_ROUNDTRIP
360
8730
  0
XRECORD
  5
8740
102
{ACAD_REACTORS
330
873F
102
}
330
873F
100
AcDbXrecord
280
     1
102
DISPLAYNAME
  1
Imperial24
102
FLAGS
 90
        0
  0
XRECORD
  5
8744
102
{ACAD_REACTORS
330
8743
102
}
330
8743
100
AcDbXrecord
280
     1
102
SHADEPLOT
 70
     0
102
SHADEPLOTRESLEVEL
 70
     2
102
SHADEPLOTCUSTOMDPI
 70
   300
  0
XRECORD
  5
8742
102
{ACAD_REACTORS
330
8741
102
}
330
8741
100
AcDbXrecord
280
     1
102
SHADEPLOT
 70
     0
102
SHADEPLOTRESLEVEL
 70
     2
102
SHADEPLOTCUSTOMDPI
 70
   300
  0
XRECORD
  5
8709
102
{ACAD_REACTORS
330
83DD
102
}
330
83DD
100
AcDbXrecord
280
     1
102
MATERIAL
148
0.0
149
0.0
149
0.0
 93
        0
 94
      127
282
     0
 72
     0
 77
     0
171
     0
175
     0
179
     0
273
     0
  0
XRECORD
  5
83DF
102
{ACAD_REACTORS
330
83DD
102
}
330
83DD
100
AcDbXrecord
280
     1
270
     1
271
     1
  0
XRECORD
  5
83DE
102
{ACAD_REACTORS
330
83DD
102
}
330
83DD
100
AcDbXrecord
280
     1
270
     1
271
     1
  0
XRECORD
  5
83E2
102
{ACAD_REACTORS
330
83DD
102
}
330
83DD
100
AcDbXrecord
280
     1
270
     1
271
     1
  0
XRECORD
  5
83E1
102
{ACAD_REACTORS
330
83DD
102
}
330
83DD
100
AcDbXrecord
280
     1
270
     1
271
     1
  0
XRECORD
  5
83E3
102
{ACAD_REACTORS
330
83DD
102
}
330
83DD
100
AcDbXrecord
280
     1
270
     1
271
     1
  0
XRECORD
  5
83E0
102
{ACAD_REACTORS
330
83DD
102
}
330
83DD
100
AcDbXrecord
280
     1
270
     1
271
     1
  0
XRECORD
  5
8708
102
{ACAD_REACTORS
330
83D5
102
}
330
83D5
100
AcDbXrecord
280
     1
102
MATERIAL
148
0.0
149
0.0
149
0.0
 93
        0
 94
      127
282
     0
 72
     0
 77
     0
171
     0
175
     0
179
     0
273
     0
  0
XRECORD
  5
83D7
102
{ACAD_REACTORS
330
83D5
102
}
330
83D5
100
AcDbXrecord
280
     1
270
     1
271
     1
  0
XRECORD
  5
83D6
102
{ACAD_REACTORS
330
83D5
102
}
330
83D5
100
AcDbXrecord
280
     1
270
     1
271
     1
  0
XRECORD
  5
83DA
102
{ACAD_REACTORS
330
83D5
102
}
330
83D5
100
AcDbXrecord
280
     1
270
     1
271
     1
  0
XRECORD
  5
83D9
102
{ACAD_REACTORS
330
83D5
102
}
330
83D5
100
AcDbXrecord
280
     1
270
     1
271
     1
  0
XRECORD
  5
83DB
102
{ACAD_REACTORS
330
83D5
102
}
330
83D5
100
AcDbXrecord
280
     1
270
     1
271
     1
  0
XRECORD
  5
83D8
102
{ACAD_REACTORS
330
83D5
102
}
330
83D5
100
AcDbXrecord
280
     1
270
     1
271
     1
  0
XRECORD
  5
870A
102
{ACAD_REACTORS
330
83E5
102
}
330
83E5
100
AcDbXrecord
280
     1
102
MATERIAL
148
0.0
149
0.0
149
0.0
 93
        0
 94
      127
282
     0
 72
     0
 77
     0
171
     0
175
     0
179
     0
273
     0
  0
XRECORD
  5
83E7
102
{ACAD_REACTORS
330
83E5
102
}
330
83E5
100
AcDbXrecord
280
     1
270
     1
271
     1
  0
XRECORD
  5
83E6
102
{ACAD_REACTORS
330
83E5
102
}
330
83E5
100
AcDbXrecord
280
     1
270
     1
271
     1
  0
XRECORD
  5
847E
102
{ACAD_REACTORS
330
83E5
102
}
330
83E5
100
AcDbXrecord
280
     1
 70
     1
 90
1959938040
 71
     1
  1
7DDEE314-AF74-4699-AF5F-F980634BE6C7
311
504B0304140006080800906C7857C24AD32CD7000000200100004F00000039393144413233422D384335332D343435382D383438312D3436394246323638333745422F4173736574446174612F446566696E6974696F6E4974657261746F7250726F706572746965732E62696EEB606060F80F0540260323103700495E20ED
311
9E9A975A94991C9C9C919A9BC8C00612C9C94F4ACC6147C831019920AE4B6A5A62694E0948976F6671726A4E4E625E6A7E69B12042A9426E6209D0B8C41C3D90264E20860914834C48875806B2DF0F88414E02D189290556F689C5C5A925B6FA694915FACE064606C6CE2EAEBAA6AEC62EBA26E6466EBA4E2E2E26BACE864E
311
AE46262616E626A616FA45A9C5F9A545C9A9C5FA46FA06F15093E30BF2D283221DEB0C19188280D6B330BCDF9715AE15501EDE63A707B4C825BD3966A7C1CC4D402612D80700504B0304140006080800906C78576907D3D000010000300200004500000039393144413233422D384335332D343435382D383438312D343639
311
4246323638333745422F4173736574446174612F496E7374616E636550726F706572746965732E62696EEB606060F80F0540260323103700495E20ED9E9A975A94991C9C9C919A9BA802143077717175353634D175743337D13531B3B404B24CDD74DD2C2D0CCC8C4D9C5CCD9CCDD9111A415A80AA5D5C8D4C2D754D4D4C8C
311
815A8C0C759DDC9C5C740DCD8D0D9CCD9C9D2D1D5D2D81CAC0F63268C6F41FFAAA71C51E483301C51A8018C607D3403E107CB087A8666010706010000B81091507041B2B0BA81102E00CACCA808270051F9881BC0620866A7D00A57980429800148E0819B821180A53763A6088A108606A0519AD81A4E6833D0B90078A2D3E
311
200E2E4F2C49CED0752A4ACC4B494D01C9303068375CBDDAA00D668239AB42A16C1419145568EA60EA916900504B0304140006080800906C785728BB58AF800100009E0500003D00000039393144413233422D384335332D343435382D383438312D3436394246323638333745422F536368656D61732F436F6D6D6F6E5363
311
68656D612E786D6CBD544D4FC23018BEFB2B96DE15493C78601010A34B880709DEDFB52FD0D8B54BD70DF6EFED3AC0B12E6442E2716BFB3CEFF3D18E26FB440405EA8C2B1992E1C323095052C5B8DC842437EBFB673219DF8DA659866649B798C078B48AE6410122242F2A4994AC7F93815DF85C049C8564CA0A901499DD88
311
6B2EB9B1E02448F358701A9235880C49A0119892A20C89D1B9FD768815CAD268CB5E0355B40B1E47F3E37A2020464BED06AA57CE8FCC20C3C3446D46761A2632A8C1283D07031EFF2AE7CCB1BFEEE916E406DFAC8E36FFD99A9D60A6944090EEDC3B670C7DC13DE86B6B2C5C240D6E503BB85ACD579D513F1B9F9A69DC9CC2
311
2AFA80C426D40AF0B21EA168559156B6276F0F726A6BFF04DCD513A87A62CAD41FB24FCB2858B3952E3D852084DA25B9303C15687973CC8E8AAE11DF2836C38C6A9E765E8C1BA1BFB1DC29CDFE518C8B5A7655A4ED7E77291ABEB80DBD82EC866ADE1B8D05AF9E35CF09D7A061F38A986D9EC412B8F0F65E5D81534D9B231D
311
1E5A8FE577A241F3A5FD01504B0304140006080800906C78572CCEBD668A040000E01200003E00000039393144413233422D384335332D343435382D383438312D3436394246323638333745422F536368656D61732F47656E65726963536368656D612E786D6CD5586D6FDB380CFE7EBF42F0F7A649B70E1B90744856B497
311
0F450FCD7A5F05459613EDE4174872DADCAF3F522F8ED3B88D2F1D06AC4050DBA2493EE4438AF2F8EB73AEC8466823CB62928C06C384888297A92C5693A4B6D9D9E7E4EBD51FE3A931C22EF85AE4EC6AFC38BF261BA626C9AD288496DC3F4FCEAFC63366845F7A10452AF41DB320C0D44EC26EAB2091873556558269567081
311
1A6A49643A49A6E9069FA4604A64B29016DC4B48552F95E4932463CA888468C1D2B250DB4962750DF7CE273069CE8363F1FF4EDB00E0A21999574AE4A2B00C353B93F3BD4777B8A61ED8F604ABFEDD79CE56A2B7BDFBDBC50996E0ADDE16FED26223C5D30956C29BDF4A55EA686E5E58B112DA45CE67F76F4FA27EFA3FB672
311
FD7372FC388FAECDCA5209E693CAD167BADCD272F943701B3812F8A3D852008B1D2E32DB927B2F833C6EA95879925356D254582695095A3CE982924720BE5774A3CB9CDCDB350427D2DF20DA1B5532EBE2D5D6288D75D4F7E4FD9890A0EF8E3D93EBB8F8BA4758158EF6FB90A6F9520281C93DE7AAC6D24607DA296BB96018
311
123F821A7D6A5C5884050C475DA4865442732C8B95684A50165CBB3A32F25F783A4A480ED59AD7F924B968AEA50131F46303223E6A397B0E52976030DC1DCA81D7E7C1EDEEA42C19FF27635C505E2BD5198A599020DF50A2330FCB3AAF28CB0124108429553EF1B228802E2265D8F7CC2401042B155BCC7070F1E5C55F13B4
311
A9577362CCCE46C32174E010C3C378C44841A4BDA00FE3A12006CE11EE6AEC59894D3526DDE1CD59D503ECC324017F8061B7F162162FA62EDD81AE3308617770796DCBDAD2B2625C5AE8A63DE20B2C8AA5E95E76E5730823955956E33E705425A2187C185D36489A1B44D3DCEC2172F6BA2105C3546287A7194B2331768EBB
311
E64F6E70A9930ABE0ADEA89E9E2C38523B810287AD67A54A039C1606EAFE68F8304610BB9093DBDDABC0B2AE4E290DCDA15376D7E39F72B556F0B32EAB5D3D498B4C41ABADEC3A1434C422D87E8025A84BDCB2B1417ED750FAE4DA8976863974C577C7F902D3F156AD354DEA3540DE6BEAE2BEA52F7A2EB4CA43802ECE5BF2
311
CE2EDC9347179FFB023CE412E60BE16DA0BE29B374988A553F561DC04615DD35F7D2C8979F60E5955CE93DF29DED8AFA1EE6642D53418086C03C47C377910F75F7E8F5EF665F70B60FFB22AEDF897D119E8423C773E819A3C1E55E550599EE6EDCA34D0C86FD72057DF2CD46F16A470682471C164E4346D5306BF12D7D12D8
311
2CFF673D41636C347443FEB51B50D72EA171A8E4A58623A4A16E0FA2B8B10A0D23268D87C33896EE8FB73305A74BF224EDBADFA0BD674AB354D63DB7BD5D83426761C077DE767728235446A552754EB93B755891C3C4CC6CADE37CF0E912A7BB38DBA010F9DE1282EDF470CA69A9CDA482E334C4A6EA4107987980B17E72F3
311
1730EBF88BBD39E7C629F56797A3C0009C2C5AE7951D9A05A02773440F02EEB4DE396A3B6A570C72CCFBCD823B0B8ED3F1D5CEDDFED772FA70236C83FB7D86C385D570B87107535572A60A96035F8F7C6A7192F13007246BBE0521855E6AC46F3E27689CEE7D186A6FD679D98CDCAD13333E04EBE7ED6F55FF01504B030414
311
0006080800906C78576180134D5F0100006B0300004500000039393144413233422D384335332D343435382D383438312D3436394246323638333745422F536368656D61732F52656E6465724D6174657269616C536368656D612E786D6CA5934D6FC2300C86EFFB1551EEE343DBA41D1A103009551ADAD40EAE28A4A68D94
311
26284961FCFBE5A340113B2071746D3F765EBF4DC6BFB5407BD0862B49F0B037C0082453059725C18DDD3EBFE3F1E829991803366715D474942CD30FB4A782E00C64017A412D684E454CE3FE28995203B162A6EA5AC94B66997D225E109CD63B0135484BAD1B3C07E9080CA35DB3119C11BCA5C200461A68A1A438126C75E3
311
E230D40FF81FB3F03C91D1E3A3A0AF79FE28E25BC39EC3E17E4C2A2D94A0833A51AF55BCCA7D88572FCBAC529C4140B020FC3AAFA886621DCED7EAD7664CC86024E806DC297DA1BB393E4156543457A4537DB8817349A70F8ACBF09B3EEE2CB2F33E91B65D60786E4E3B39B77E3FEEEF5650424525DA657FB8B46BE6BF0646
311
46F0A0F7327C0BC1BC1B4CBBC1C419FA3CCB23500007872A2580CAAE5461865565294E4EDB4617B62FF579DF9A5B2F54E834076A597573A020912FED777F9B3F504B0304140006080800906C7857A7174D704F000000570000004700000039393144413233422D384335332D343435382D383438312D343639424632363833
311
3745422F4173736574446174612F41737365745461626C654F66436F6E74656E74732E62696E536160603077717175353634D175743337D13531B3B404B24CDD74DD2C2D0CCC8C4D9C5CCD9CCD8580EA72134B528B321373120B0A52138B12F39253818260C00B24DD53F380B2C9C1C919A9B98900504B0304140006080800
311
906C7857F865834058000000680000004500000039393144413233422D384335332D343435382D383438312D3436394246323638333745422F4173736574446174612F53747265616D56657273696F6E5461626C652E696E66558CBD0A80300C06F73E4B117FB66E451741D041DC5BF98480A492E4FDD18EAEC7DD4555D89E
311
F28DF51A0B1BD8340C4DE7DD848B988C0ACF0649566493F2408C508DDEBB99D5129FF8F1AF8CF5B9503E20FAE5A16B5AF702504B0304140006080800906C7857FF587F08340100009A0400003600000039393144413233422D384335332D343435382D383438312D3436394246323638333745422F4173736574446174612F
311
636E782E786D6CCD94314FC3301085FF4AE43D769320842AC71582A51348540C6C57E752AC3A76645F10FC7BEC3403A888A943D7F3BBF3F327BF939BCFC1161F18A2F1AE65155FB1029DF69D7187964DD49777ACD82819BCA71F32563818B065B9CC943C043F8D4BA9C31E269BABD6B8E352BC8F1169077B8B4FFD8377848E
311
222BB485185B16F53B0EC06122DF613CF20E0878C503463F058D6912990197493A2010764CD5ABBA29ABAAAC6F7655B36E6ED74DFD2645562AB9F7DE2E7A932E0B7E2CF4E956A65652E46325A760164D7E0B537F79E47BE3A4484A252385C464E9A0AF3175C0385AA381123AE13521954984304871122B2932835F241EB137
311
CEE4966D3206E4C373B287810C5E1D91FFBC5E9ECCD64502A7F17A799C3BBC3C8597F907BD9E023927E6DA7272EE901BD75F2025625E23293479ABA86F504B0304140006080800906C78578A576268070100004F0300003400000039393144413233422D384335332D343435382D383438312D343639424632363833374542
311
2F536368656D61732F636E782E786D6CCD93BD4E042114855F85D00FCC8F3166C3B08585958D5AD921DC5DC90277028CD1B717468ADDC44E8BEDE0F0859C73B888FDA777E40362B218663AB09E12081A8D0DC799AEF9D0DD51B2972222E6338C92A03CCCB4CA548A63C475699281835A5D559D0DA726DEA3F7189EF53B7845
311
89762AA599A66DCBD49AD1403A31A3B262038B90708D1ACA0DD97A6837E8082A83A172ECC7A91B866EBC7919A6DD74BB9BC657C12B29C51BA26BBC0D19222E4463598462A717BC1E4BB146DB989A81CA736FACB4217821A44839960E1A99BF9642AA657156AB5CAAE21BF8C348C16BD48BC00F10205A7D9D892FCCFD5BE427
311
0806E26379A56895BBCEE4BF79FC5B017C9BFD3202F52BC86F504B0304140006080800906C7857410A3D5871000000A40000002C00000039393144413233422D384335332D343435382D383438312D3436394246323638333745422F636E782E786D6C55CC4D0E82301086E1AB34B31774E7A22D31F1069E60020334B633A6
311
3FC6E34B0909B07DDE2F9FEE7EC1AB2FC5E4840DDC9A2B28E25E06C7938192C7CB1D54677514C9871928C640062A83D55394F2D968A0118BAFEA1DBF377CA444F98919176EAB9FEAAB9F2960DA5BBB1E2ED3FA6FFF504B0304140006080800906C78577DE3DFB47F000000A300000007000000636E782E786D6C4D8C4D0EC2
311
201805AF42BE3D2A8556488046FCB947636943A460B0188F2F982E5CBD64F26664FF593C7ADBF472312820BB03201BEE7174615690D7097340BD9629C6F5EF06280C8B5550316839A7989F1B1AED34645FA977E1B14121C8E5D45083F9B9A598B19663CE38C1AC13E6D6749C1EAFA618FBAA94F9F5CAD6BCFE02504B030414
311
0006080800906C785716E99B5DA600000035010000130000005B436F6E74656E745F54797065735D2E786D6C9590410E82301045AFD2740F4517C6180A0BF5065E60AC53688469D30E066F6F91AD9AB89CF9FFFD3F99BA9DC7413C3026E749CB4D59498164FCCD51A7E5C4B6D84BD136F5E5193089ECA5A465CF1C0E4A25D3
311
E308A9F401292BD6C711388FB15301CC1D3A54DBAADA29E38991B8E0254336F5092D4C038BF39CD76B6FC6A538AEBEA54A4B08617006389FA516557DE4AE8E7E70DE30729138228C5F021CD93F02D4FB0DCD0B504B0304140006080800906C78573DEE336E64000000790000001B0000006175746F6465736B2D6465736967
311
6E2D7061636B6167652E786D6C35CBC10E83200C00D05F21DCA56CA76D41FC96062B120735B69A7DBE268BB7777961F8D5AF396893C2ADB70FE7ADA196782C2DF776D7A97B5933C430F15651E5469C55D70F80A4992A3ADC954792C525AE70A1E4D6AD9816CC044FEFDF01FE3FDE907802504B0304140006080800906C7857
311
3A6C4C82F9000000960100003700000039393144413233422D384335332D343435382D383438312D3436394246323638333745422F4173736574446174612F636F72652E786D6C8550CB6E833010FC15B477436C034D22E38896F2053DF56619875A0936F2A3EAE7D70E546A4F3DED6A76667677D8E56BB9179FCA796D4D07
311
B83C40A18CB493367307315CD1118A0B67CEDAF08B0685118BEA20C3C0D9EC6C5C77485A1394C9A8B193DA41E1BD0A50C87B6A3AF0F2432DA214312486BF95AB903731AB12971B8FB318F5B44BF594DCF4552B07BC1D9A17DA8C148D7D7F42F5F1D0A2D3F0445133929AF4AFCF03A62DABB298B3A0979FEDD22911D4049C1C
311
0845182352BF617AA6ED999277566526673EB8F4F3BE347F07BCCF570F2208566DD33FAE719DFE778DDA044A76D74DE181E374E463C05995534AE51161AA3951FE0D504B0304140006080800906C7857623D8F97F8000000940100003500000039393144413233422D384335332D343435382D383438312D34363942463236
311
38333745422F536368656D61732F636F72652E786D6C8550416E833010FC0ADABB21B681269171444BF9407BEACDC20EB1126C84EDAACFAF0D546A4F3DED6A76667677D8E56B7A649F6A71DA9A06707E804C99C14A6DC60682BFA2236417CE166BFD2F1A64464CAA81040367E362C3BC4383355E99841A2BD50E0AE794876C
311
78C4A60137DCD42472117C64B87B3E8BE12E4695E37CE371168296BB54CBE8A6AF5A2DC0EBAE7AA1554F51DFB627541E0F353A754F14553D2949FBFADC615AB3228939F37AFAD93E2C4A7825819303A1086344CA774CCFB43E53F2C18AC4E4CCF925FEBC2F4DDF017F5BEF74ACD8667F3CC32CFFF70CDA784A76CF4DE180E3
311
78E23AE0AC4819C5B206186BCA937F03504B0304140006080800906C78578E75994301010000D70100002D00000039393144413233422D384335332D343435382D383438312D3436394246323638333745422F636F72652E786D6C95914D7284201085AF62F51E1D408D4E2153313F27C82A3B223D869A112CC0548E1F8CA6
311
92EC9215D4E37BDDBC6E717A9FAED91BFA609CED80E607C8D00E4E1B3B76B0C43369203B49E19D8B3F30C8AC9AB08355062946EF967997066723DA55B54EE32EAA103042365CD3A58330BCE2A472B5C444844B3EABE1A246CC69BE715244337D59078F2AA206C90E8C134A092B9F283FF2FAC8D9B32856528AC5D8C8D9DE0C
311
A717D4999B638A04B212C5F69AA8C5E89D313AFDD19C0D7A906D4BEF6F19EF49735771529655439AB2A1A4ACDBFE91D50DBF79E85391649622449F26B3175967F057FB66FC956C99F53F936D8E00927E872AD6314B517CEE209DEB4AE407504B0304140006080800906C78576F03D30508010000B201000008000000636F72
311
652E786D6C8D50C172832014FC15E6DD518168930C92B1B57E414FBD51210913054730D3FE7D21DA99F6D6D36376F7BD5D969F3EC701DDF5EC8DB33590AC00A46DEF94B1971A9670C67B4027C167E7C22F19202B475D438241F0CBEC9669837A6783B609B54EE90D94DEEB00A81FE2A306DF5FF52833B984A8F0B76C92FD4D
311
5E7446B255277830E3CF6A3F6B19B402410BCA302198EEDE083BB2EAC8E83BCF9352F065316AB3322ABA9BB3D13388AA2D5F58D931DC35CD01EFF645850FED13C3654777B4797D6E09AB789E9605F7618E7FDE8EC49C0179794FBE3C5F29C13F9C1B36410CA590B3C3178882E789F8137A99D43F421B1B18DD0EAE1B1E0489
311
811E44344E0DC6F1A837CED4B6F806504B01021400140006080800906C7857C24AD32CD7000000200100004F000000000000000000000000000000000039393144413233422D384335332D343435382D383438312D3436394246323638333745422F4173736574446174612F446566696E6974696F6E4974657261746F7250
311
726F706572746965732E62696E504B01021400140006080800906C78576907D3D0000100003002000045000000000000000000000000004401000039393144413233422D384335332D343435382D383438312D3436394246323638333745422F4173736574446174612F496E7374616E636550726F706572746965732E6269
311
6E504B01021400140006080800906C785728BB58AF800100009E0500003D00000000000000000000000000A702000039393144413233422D384335332D343435382D383438312D3436394246323638333745422F536368656D61732F436F6D6D6F6E536368656D612E786D6C504B01021400140006080800906C78572CCEBD
311
668A040000E01200003E000000000000000000000000008204000039393144413233422D384335332D343435382D383438312D3436394246323638333745422F536368656D61732F47656E65726963536368656D612E786D6C504B01021400140006080800906C78576180134D5F0100006B03000045000000000000000000
311
000000006809000039393144413233422D384335332D343435382D383438312D3436394246323638333745422F536368656D61732F52656E6465724D6174657269616C536368656D612E786D6C504B01021400140006080800906C7857A7174D704F0000005700000047000000000000000000000000002A0B000039393144
311
413233422D384335332D343435382D383438312D3436394246323638333745422F4173736574446174612F41737365745461626C654F66436F6E74656E74732E62696E504B01021400140006080800906C7857F865834058000000680000004500000000000000000000000000DE0B000039393144413233422D384335332D
311
343435382D383438312D3436394246323638333745422F4173736574446174612F53747265616D56657273696F6E5461626C652E696E66504B01021400140006080800906C7857FF587F08340100009A0400003600000000000000000000000000990C000039393144413233422D384335332D343435382D383438312D3436
311
394246323638333745422F4173736574446174612F636E782E786D6C504B01021400140006080800906C78578A576268070100004F0300003400000000000000000000000000210E000039393144413233422D384335332D343435382D383438312D3436394246323638333745422F536368656D61732F636E782E786D6C50
311
4B01021400140006080800906C7857410A3D5871000000A40000002C000000000000000000000000007A0F000039393144413233422D384335332D343435382D383438312D3436394246323638333745422F636E782E786D6C504B01021400140006080800906C78577DE3DFB47F000000A300000007000000000000000000
311
0000000035100000636E782E786D6C504B01021400140006080800906C785716E99B5DA6000000350100001300000000000000000000000000D91000005B436F6E74656E745F54797065735D2E786D6C504B01021400140006080800906C78573DEE336E64000000790000001B00000000000000000000000000B011000061
311
75746F6465736B2D64657369676E2D7061636B6167652E786D6C504B01021400140006080800906C78573A6C4C82F90000009601000037000000000000000000000000004D12000039393144413233422D384335332D343435382D383438312D3436394246323638333745422F4173736574446174612F636F72652E786D6C
311
504B01021400140006080800906C7857623D8F97F80000009401000035000000000000000000000000009B13000039393144413233422D384335332D343435382D383438312D3436394246323638333745422F536368656D61732F636F72652E786D6C504B01021400140006080800906C78578E75994301010000D7010000
311
2D00000000000000000000000000E614000039393144413233422D384335332D343435382D383438312D3436394246323638333745422F636F72652E786D6C504B01021400140006080800906C78576F03D30508010000B2010000080000000000000000000000000032160000636F72652E786D6C504B0506000000001100
311
11005A060000601700000000
310
504B0304140006080800906C7857000000000000000000000000370000006662782F44353430323345452D323545312D343737312D423836332D3338314530354146423533462F617474726962757465732E62696E504B0304140006080800906C7857000000000000000000000000350000006662782F4435343032334545
310
2D323545312D343737312D423836332D3338314530354146423533462F76657274696365732E62696E504B0304140006080800906C7857F270F1330600000004000000360000006662782F44353430323345452D323545312D343737312D423836332D3338314530354146423533462F747269616E676C65732E62696E6366
310
60600000504B0304140006080800906C785751464CB48900000043010000360000006662782F44353430323345452D323545312D343737312D423836332D3338314530354146423533462F6469726563746F72792E786D6C9D8F310EC2300C45AF127987122606C71DD918B841D4B851A43646695A717C52A85029031293A5
310
A76FBF6FACEF7DA7264E43906840EF0FA03836E242F406C6DCEE4EA06AC22492573150D1F66C60C640E8938CB705396EEDD86DE9B5042FE27813D640EA63BB001C722AF6E55CB61E4863F58284D5D3F53DD715CE1C3985E63FD7F1B7EBDD617E9F1E504B0304140006080800906C785780A9FE4536070000201C0000340000
310
006662782F44353430323345452D323545312D343737312D423836332D3338314530354146423533462F6F626A656374732E786D6CDD595B6FE23814FE2B56F665F7815C20D032A28C5A2E2334EA4C356856FB1699C4506F73939DB4747FFD1E3B76484280B43B238DB6954A6AECE373BE733F997CDC47217A268CD324BE31
310
1CD3361089FD24A0F1EEC6C8B36DEFDA401FA768C29224ABEC33508C2372638865633AD9B1244FD55240B6380F9BABCBBBBF10F7494C0CE48798F31B83FB8F24C226CEB32420FCC90C7086CDDD766F3A66B1B14E76C770FAD8B82AC58CC419B00AEB3150511C38F57F41246B3AB1C486DAB67EB76D8333DB2C29789D511AF3
310
0CC7FE11570D3AFD6E5C0D1C77BEE80FC7BDA1EB0E7AEEA8EFF4EE9677F39E7335B067A3D96C7CBB181B683AD92449582A202571005A7C35A6CEC412DF94E22B14DAF8F6933826BE42B36D4340145D4A7813931AB08E14ADA29042D6CAC2A0A3F027B67502A5C6520D6D2D9CFEAC5A6FB2F91B40E05DAC947122AC9C670C74
310
ADB02FFCC19E58C56A4D2F94A3086784511CA2906E1866A020D85A28A84646788B20850466528B9A5E955730ECCBBED4C6E5360F43E1BFC6547A9A07FE48322E39A3FF1076E0BE7A1BF004D2E634CEAE95B0D96B0A24C6134B2E16DF0DFAEACB0248B40DF10EAC05C4149B06FD065E33110B567363FA79B9D9AF457C68BF3C
310
65494A58262C4F3AB3F23BADC18A6981F17500A5C0B5AEBB032ADF00FA2F807CC90B9A80E618DDBB7B57CBCE70CCB7098B403BC8463D1BFED8483C1E3D4DACF2F014A15AAC3C8529B8ED0FC2B42646EDEE0AA4D3C933187DC2064AB8B58F43B0E97B1A0B3F07434161024B10EFB79BBD315D41308545388543901E7E279678
310
44F051D08178D3D0505BF8EDA028ED304D3F3BE8EA13D80CA37EA9AA9A8CA7F01DFE107C6FE7EBCFEB9C6DB14FEE9563CFC996C6348364DACE500DF49ACB7F5F7D911E79244F6D970FF7EC1211385AF4B2567A415231C08AC8C3856AE4CA3D05770F431C9324E76ABD2D50F94998306FF3EA153EDC7AD79FDA088ACBC0BF85
310
05B40633C8EE3EA3A900C5982AF1CA48681E7012715019E0AE50AAB7C1FE9380D7F32162BD870FB05ACC9A44F328F57094E4B108DFC7E6DD14CD1CD8F2C771C67D7BDCBF1E8FB4B05C92D7DEA34343C9BCB827C2E9894B66356DA9A8A129177EE442B46C93C0879A29CFBC24C53ECDDA6DA12184F25000FB2CCB01DD6E730E
310
41BD159606C7E6C01922BBF2B7BCE43CF7EA128F467847BC2D1619AEF5BE1A4025712D412B32BB30E19CC684CB0AE528723550B14D080485DD6AAA2D4648B917910CBFC7FE64CA6B981F23DBD0835A2A13D5EC65EBD30CAAEC798AA2A8DC92D893F2BF7A1C4769585469973070FA8D1B5A71154C8B2B9EC1DE3C9C79764064
310
D17D897A191734BE9DA88FDF4DFE043C0CFF7478F415144A6FC8919735EB9843672C7EAE21A88C86CEE04A2BE21256FAAA4CD420610E5593FFEABD10BA7BEC16D03ADDC349B8F56818E69157E4838C445082E12C679DFC7534B48F94AFE242C3212A376D69080572E7A0296B0F5D7D8054B2F83815342BD7805034861EAD93
310
204752B49AB0D485EC4745DB7559FB6FA7FA9FE365B54F7922AF2F090B5A39AD9711BA02D3058308972AC3957624294F2755E78B64E3721907571351F1ADE812948530F24CC560427640ADFD037FC1990F81742D3F7B77E01101090E35458D9C1A731853B85453D3756AB5D3816027D247ADF05A89801AC1B4018B387B2F1E
310
C26F18540D951FB754556315EB2B91D84C18AC1CF83843EBEBA775830AAC743EFD2030222F0D0A6A75260AB933A4BEAF0EF56A838292E8FBEACCF1EC318F3631A622330AB3C041FAE1A3EC256F2C6814AC99DDB707B3F9A2375C0CE63DF7AABFECDDCDE76E6FE6DC2DFAAE7B7DE50EAF2D467892339F70AB6FD99EAE9DD278
310
A70DA380AE4B47015385CBAD9FB6E7A682FFC71D45986CF0295BFC551B8AB2DC130559C317BB3614AD817AF3B6EADF390AD4ED49EC4D9573312BD0067E3E6D4130D2F9BE7B69A149EB4AA29DE74A467C63E23DD9ADFCF41C530BE8ADF9A1B6A32DE4D76331CC9E5AB294EE6E655CBB9ACF170B9839F66E97572ECC60C76378
310
1A2E7B4B28DD4603F76E319A1D6A37950BBBE6955F22866A662B63349806F324A430942701DA91043A20983A7488AF2C225C76365000A834AEDF087438FD5CCC5433BC09F569FF11C3603A541939F761280A5DC78DA1D6D16F3006159348399C329F20F1286B3750CEE88D01269051C82FE606C659727828A937C695A0361C
310
EF44CF549C2AFF3F1C13E880AD1CE42AF774C1454956B34E180EA4F23D01443B5D90BC5F74CD0EC2193C6EF2AC14E6B070904681A05F0814C2C1D4EF49C1BB87C0735E2EC7947B6A90749ACC9FB583826A2FC36C27C7EB15BC6FE70F96988CAFBEA234CC77429DE7F27D8D524FD419615E0CA12660184ACC148B3E7CF6C17A
310
6009BC628AD0928211A0DFF7D7A33FAC591245495C2C59B7EA45155A3FC26BA7C0D2233F285C6C6768C9BA478DF5616EC5898903FE040BA05A46C56CB480B866006578AA1880D688D0051CABED5FCD914A029512B65ABA0A78E44C1F8123897739C26DAA1B2A0348F005E0AA98D3960F7A61623118824FFF05504B03041400
310
06080800906C7857BD45A5653D01000046050000300000006662782F44353430323345452D323545312D343737312D423836332D3338314530354146423533462F636E782E786D6CCD94CF4A033110C65F25E4BEFF45A46453F0E01378106FD9EC748DCD66966456ECDB9BD46D55A4E2A1D0DEC2E41BF87E331F23D6EFA365
310
6FE08341D7F22A2F3903A7B1376E68F94C9BEC8EB3B5141E91BEC938736A8496A7329762F0384F4BA9878D9A6DAA5AE3B64B511179D3CD0481336D55082D0FFA054695AB99B087B0CD7B452AAF720F0167AF21F6931961E9D71E1441CF655DD64D5655597DF35835ABE676D5D4CFA2484A293A44BBE88D23F038318DF1E1A2
310
995214E95B8AD99B459308B8FC729677C68922FE4B11A25B372C3ADA4D49374DD66845714C056A02CAA208D4288A4FB11445E2FD41FD70FF7470C07AE34113FADD8506509D1AC0D1581E93F03FFEBDF06F6CEC5E23EEA5B67D1276B17536D4435A438CEBEFFDC7142937D8EB0BFDD1D8F9331F4F09197D7DC8075F67222EF6
310
272F2E3D5D40F901504B0304140006080800906C78576B08D7D27E000000A30000000B0000006662782F636E782E786D6C4D8C410EC2201405AF42FE1E85522C0BA0B191DEA3B1B4215230588CC7174C17AE5E327933B2FF6C1EBD6D7AB91814D0130164C33DCE2EAC0AF2BE6001A8D732C5B8FFDD008569B30A2A062DD714
310
F3F340B35DA6EC2BF52E3C0E78E32D699831B8E186E2B6EB281EC4856126A821FC3A0E9C8DC53857A5CCAF57B6E6F517504B0304140006080800906C7857A6D797065F0000008200000007000000636E782E786D6C4DCB3B0E80201045D1AD90E9FD7516806B51190811670C8A61F982B1B0BAC9C97B72CA7B1037C6D33329
310
18DA1E04D2CAC69353902EDB8C20262D23F3F59B81A079470595414B17391D1F19B4730A5583A7ED43BBE4025D9592775E5ADFFA01504B0304140006080800906C78574FEB6A7CA0000000F4000000130000005B436F6E74656E745F54797065735D2E786D6C7D8F4B0EC2300C44AF1279DFA6B0400835ED02B8011730C16D
310
239A8F121795DB93D02D6269CFBC19BBED573B8B17C564BC53B0AB1B10E4B47F18372A5878A88E20FAAEBDBD032591BD2E299898C349CAA427B2986A1FC86565F0D122E7318E32A07EE24872DF3407A9BD63725C71C980AEBDD080CBCCE2BAE6F5D69B7110E7CD57AA146008B3D1C8F92C5954F993BB1BF787F39A89ABC491
310
D09600F9FDA2FB00504B0304140006080800906C78573DEE336E64000000790000001B0000006175746F6465736B2D64657369676E2D7061636B6167652E786D6C35CBC10E83200C00D05F21DCA56CA76D41FC96062B120735B69A7DBE268BB7777961F8D5AF396893C2ADB70FE7ADA196782C2DF776D7A97B5933C430F156
310
51E5469C55D70F80A4992A3ADC954792C525AE70A1E4D6AD9816CC044FEFDF01FE3FDE907802504B0304140006080800906C7857A1DA6F22F8000000960100003B0000006662782F44353430323345452D323545312D343737312D423836332D3338314530354146423533462F7265736F75726365732F636F72652E786D6C
310
8550CB6E833010FC15B47703C6943C641CA58DF8829E7AB3CC86580936F2A3EAE7D70E546A4F3DAD3D3B33BB3BFCF4353F8A4F745E5BD3032D6B28D0283B6A33F510C395ECA13809EEAC0DBF68501839630F1906C12767E3B241CA9A8026A3C68EB881D27B0C50A8477AF4E0D50D6759CA1812C3DFCB45AABB9CB0A4E5CA13
310
3C463D6E523D26377DD5E840BCD1FDC0CEAF1DA9EB4B4BDA03A3E490FEA4DD35E7A11B5E2EF5AEE555160B1EF4FC335D39940147104DDD30422969DA77CA8EAC3BB2E683579929B80F2EDDBC0DCDD78170E86D740A3DAFD6EE1FD7B88CFFBB466D026B36D755E141D0B4E4B3217895534AE51961AA3951F10D504B03041400
310
06080800906C785735CCFB31F1000000B1010000310000006662782F44353430323345452D323545312D343737312D423836332D3338314530354146423533462F636F72652E786D6C8D50CB6EC32010FC156BEFD806ECC48A3051A33A5FD0536F0888831283C5A3EAE71712576A6F392D9A9D6166871DBF977BF5A57D30CE
310
8E80EB162A6DA553C6CE23A47841035447CEBC73F10F0D2A2B163D428181B3D9BBB46E9074366A5B50EB94DE4011828E50C97B7E8C10E4552FA216296646B8D5AB903731EB1AD74F1E67D12CBF52E9B5885A01272DA1086344BA0F4C0F7477A0E4933585C9594A466D564665777331DA037FEFBB2C9A2644FA09A36EBFC7E8
310
34EC28A2039EDAFEED7CEAE9993545CC59883EDFBC7D52AE7B55FE14FECB9C56F542666323259BE1531180E39CE7B1E0AC2905E6F16837CF5236FF01504B0304140006080800906C7857CD33980F53010000DD0200000C0000006662782F636F72652E786D6C8D52CB6E833010FC15E4BB01034DD2C8384A1BE50B7AEACD31
310
0EB502363236CAE777CD432987A61512D8B33BB33B23E8E1DE36D1206DAF8C2E11895314492D4CA5745D22EFAE7887A203A3D618F7A30D459AB7B24401468CD6D6F86E8684D14EEA806A53C919E47D2F1D8A44038712F5E24BB63CE6DE41477F8B3B2E6EBC963189A73E46BD57D54C5515A8A9AB9216B177B23BE7C7B70D4E
310
D353818BD79CE057B8E3629B1DCF9BF3CB29DD16340964469D6A97E9C24AEE648558966639260467C507C9F7F9669F679F34099D8CF6CE82E779687087D8F572A7C984AFF47C57FDADE795767936EB4D8C1E3102EB8D054693900F7CC6F0D619C260C8CFF14BB358B8013448E18C2DA05219FF280DBCF112A4D3687C683255
310
417914F84D277BA2F35C0382E2BA86D5B883E3C5BB307DBD53272D1EDC3DD2C6B6BC792C37ADF8783F06AD2C2D74611A63FFC35EAC2E6126E1C764DF504B0304140006080800906C78574EED271E07010000B201000008000000636F72652E786D6C8D50CB6EC32010FC15B4776C1EAEF310264A1BF90B7AEA8D1AE2A2D860
310
191CB57F5F885DA9BDF5B43033BB33BBE2F4390EE86EE660BD6B80160490719DD7D6F50D2CF18AF7804E52CCDEC75F32404E8DA6810C8314FDEC9769833AEFA27119755E9B0D54219808A81BD2A381D07D9851156A8949116EC5A4BA9BEA4D418B552745B4E34F6B371B158D06C908E39852CCAA57CA8FBC3E72F626CAAC94
310
6259ACDEACAC4EEEF66ACD0CF285EE5B7E7EAE3121970A57074EF121FD71B563E7B66E9F2E64578932374B11E29C76DE86A49C110575CFBEA25C2929DEBD1F36410AA59177C3174822CA4CFC09BD4CFA1FA1AD8B9C6D03D78E0092A6400F2219E70BA6F2386FAAF9DAF21B504B01021400140006080800906C785700000000
310
00000000000000003700000000000000000000000000000000006662782F44353430323345452D323545312D343737312D423836332D3338314530354146423533462F617474726962757465732E62696E504B01021400140006080800906C7857000000000000000000000000350000000000000000000000000055000000
310
6662782F44353430323345452D323545312D343737312D423836332D3338314530354146423533462F76657274696365732E62696E504B01021400140006080800906C7857F270F13306000000040000003600000000000000000000000000A80000006662782F44353430323345452D323545312D343737312D423836332D
310
3338314530354146423533462F747269616E676C65732E62696E504B01021400140006080800906C785751464CB489000000430100003600000000000000000000000000020100006662782F44353430323345452D323545312D343737312D423836332D3338314530354146423533462F6469726563746F72792E786D6C50
310
4B01021400140006080800906C785780A9FE4536070000201C00003400000000000000000000000000DF0100006662782F44353430323345452D323545312D343737312D423836332D3338314530354146423533462F6F626A656374732E786D6C504B01021400140006080800906C7857BD45A5653D010000460500003000
310
000000000000000000000000670900006662782F44353430323345452D323545312D343737312D423836332D3338314530354146423533462F636E782E786D6C504B01021400140006080800906C78576B08D7D27E000000A30000000B00000000000000000000000000F20A00006662782F636E782E786D6C504B01021400
310
140006080800906C7857A6D797065F000000820000000700000000000000000000000000990B0000636E782E786D6C504B01021400140006080800906C78574FEB6A7CA0000000F400000013000000000000000000000000001D0C00005B436F6E74656E745F54797065735D2E786D6C504B01021400140006080800906C78
310
573DEE336E64000000790000001B00000000000000000000000000EE0C00006175746F6465736B2D64657369676E2D7061636B6167652E786D6C504B01021400140006080800906C7857A1DA6F22F8000000960100003B000000000000000000000000008B0D00006662782F44353430323345452D323545312D343737312D
310
423836332D3338314530354146423533462F7265736F75726365732F636F72652E786D6C504B01021400140006080800906C785735CCFB31F1000000B10100003100000000000000000000000000DC0E00006662782F44353430323345452D323545312D343737312D423836332D3338314530354146423533462F636F7265
310
2E786D6C504B01021400140006080800906C7857CD33980F53010000DD0200000C000000000000000000000000001C1000006662782F636F72652E786D6C504B01021400140006080800906C78574EED271E07010000B2010000080000000000000000000000000099110000636F72652E786D6C504B0506000000000E000E
310
0080040000C61200000000
  0
XRECORD
  5
83EA
102
{ACAD_REACTORS
330
83E5
102
}
330
83E5
100
AcDbXrecord
280
     1
270
     1
271
     1
  0
XRECORD
  5
83E9
102
{ACAD_REACTORS
330
83E5
102
}
330
83E5
100
AcDbXrecord
280
     1
270
     1
271
     1
  0
XRECORD
  5
83EB
102
{ACAD_REACTORS
330
83E5
102
}
330
83E5
100
AcDbXrecord
280
     1
270
     1
271
     1
  0
XRECORD
  5
83E8
102
{ACAD_REACTORS
330
83E5
102
}
330
83E5
100
AcDbXrecord
280
     1
270
     1
271
     1
  0
XRECORD
  5
873E
102
{ACAD_REACTORS
330
873D
102
}
330
873D
100
AcDbXrecord
280
     1
102
DISPLAYNAME
  1
Imperial24
102
FLAGS
 90
        0
  0
CELLSTYLEMAP
  5
8705
102
{ACAD_REACTORS
330
8704
102
}
330
8704
100
AcDbCellStyleMap
 90
        3
300
CELLSTYLE
  1
TABLEFORMAT_BEGIN
 90
        5
170
     1
 91
        0
 92
    32768
 62
   257
 93
        1
300
CONTENTFORMAT
  1
CONTENTFORMAT_BEGIN
 90
        0
 91
        0
 92
      512
 93
        0
300

 40
0.0
140
1.0
 94
        5
 62
     0
340
8418
144
0.25
309
CONTENTFORMAT_END
171
     0
 94
        0
309
TABLEFORMAT_END
  1
CELLSTYLE_BEGIN
 90
        1
 91
        1
300
_TITLE
309
CELLSTYLE_END
300
CELLSTYLE
  1
TABLEFORMAT_BEGIN
 90
        5
170
     1
 91
        0
 92
        0
 62
   257
 93
        1
300
CONTENTFORMAT
  1
CONTENTFORMAT_BEGIN
 90
        0
 91
        0
 92
      512
 93
        0
300

 40
0.0
140
1.0
 94
        5
 62
     0
340
8418
144
0.18
309
CONTENTFORMAT_END
171
     0
 94
        0
309
TABLEFORMAT_END
  1
CELLSTYLE_BEGIN
 90
        2
 91
        1
300
_HEADER
309
CELLSTYLE_END
300
CELLSTYLE
  1
TABLEFORMAT_BEGIN
 90
        5
170
     1
 91
        0
 92
        0
 62
   257
 93
        1
300
CONTENTFORMAT
  1
CONTENTFORMAT_BEGIN
 90
        0
 91
        0
 92
      512
 93
        0
300

 40
0.0
140
1.0
 94
        2
 62
     0
340
8418
144
0.18
309
CONTENTFORMAT_END
171
     0
 94
        0
309
TABLEFORMAT_END
  1
CELLSTYLE_BEGIN
 90
        3
 91
        2
300
_DATA
309
CELLSTYLE_END
  0
XRECORD
  5
873B
102
{ACAD_REACTORS
330
8704
102
}
330
8704
100
AcDbXrecord
280
     1
102
ACAD_ROUNDTRIP_PRE2007_TABLESTYLE
 90
      512
 91
        0
  1

 92
      512
 93
        0
  2

 94
      512
 95
        0
  3

  0
XRECORD
  5
8716
102
{ACAD_REACTORS
330
8715
102
}
330
8715
100
AcDbXrecord
280
     1
102
RTVSPost2010Prop28
280
     1
102
RTVSPost2010PropOp28
 70
     1
102
RTVSPost2010Prop29
280
     1
102
RTVSPost2010PropOp29
 70
     1
102
RTVSPost2010Prop30
280
     0
102
RTVSPost2010PropOp30
 70
     1
102
RTVSPost2010Prop31
280
     0
102
RTVSPost2010PropOp31
 70
     1
102
RTVSPost2010Prop32
280
     0
102
RTVSPost2010PropOp32
 70
     1
102
RTVSPost2010Prop33
280
     0
102
RTVSPost2010PropOp33
 70
     1
102
RTVSPost2010Prop34
280
     0
102
RTVSPost2010PropOp34
 70
     1
102
RTVSPost2010Prop35
280
     0
102
RTVSPost2010PropOp35
 70
     1
102
RTVSPost2010Prop36
280
     0
102
RTVSPost2010PropOp36
 70
     1
102
RTVSPost2010Prop37
 90
       50
102
RTVSPost2010PropOp37
 70
     1
102
RTVSPost2010Prop38
140
0.0
102
RTVSPost2010PropOp38
 70
     1
102
RTVSPost2010Prop39
140
1.0
102
RTVSPost2010PropOp39
 70
     1
102
RTVSPost2010Prop40
 90
        0
102
RTVSPost2010PropOp40
 70
     1
102
RTVSPost2010Prop41ColorIndex
 90
       18
102
RTVSPost2010Prop41ColorRGB
 90
        0
102
RTVSPost2010PropOp41
 70
     1
102
RTVSPost2010Prop42
 90
       50
102
RTVSPost2010PropOp42
 70
     1
102
RTVSPost2010Prop43
 90
        3
102
RTVSPost2010PropOp43
 70
     1
102
RTVSPost2010Prop44ColorIndex
 90
        5
102
RTVSPost2010Prop44ColorRGB
 90
      255
102
RTVSPost2010PropOp44
 70
     1
102
RTVSPost2010Prop45
280
     0
102
RTVSPost2010PropOp45
 70
     1
102
RTVSPost2010Prop46
 90
       50
102
RTVSPost2010PropOp46
 70
     1
102
RTVSPost2010Prop47
 90
       50
102
RTVSPost2010PropOp47
 70
     1
102
RTVSPost2010Prop48
 90
       50
102
RTVSPost2010PropOp48
 70
     1
102
RTVSPost2010Prop49
280
     0
102
RTVSPost2010PropOp49
 70
     1
102
RTVSPost2010Prop50
 90
       50
102
RTVSPost2010PropOp50
 70
     1
102
RTVSPost2010Prop51ColorIndex
 90
      256
102
RTVSPost2010Prop51ColorRGB
 90
-16777216
102
RTVSPost2010PropOp51
 70
     0
102
RTVSPost2010Prop52
140
1.0
102
RTVSPost2010PropOp52
 70
     0
102
RTVSPost2010Prop53
 90
        2
102
RTVSPost2010PropOp53
 70
     1
102
RTVSPost2010Prop54
  1
strokes_ogs.tif
102
RTVSPost2010PropOp54
 70
     1
102
RTVSPost2010Prop55
280
     0
102
RTVSPost2010PropOp55
 70
     1
102
RTVSPost2010Prop56
140
1.0
102
RTVSPost2010PropOp56
 70
     1
102
RTVSPost2010Prop57
140
1.0
102
RTVSPost2010PropOp57
 70
     1
102
RTVSPropertyOp0
 70
     1
102
RTVSPropertyOp1
 70
     1
102
RTVSPropertyOp2
 70
     1
102
RTVSPropertyOp3
 70
     1
102
RTVSPropertyOp4
 70
     1
102
RTVSPropertyOp5
 70
     1
102
RTVSPropertyOp6
 70
     1
102
RTVSPropertyOp7
 70
     1
102
RTVSPropertyOp8
 70
     1
102
RTVSPropertyOp9
 70
     1
102
RTVSPropertyOp10
 70
     1
102
RTVSPropertyOp11
 70
     1
102
RTVSPropertyOp12
 70
     1
102
RTVSPropertyOp13
 70
     1
102
RTVSPropertyOp14
 70
     1
102
RTVSPropertyOp15
 70
     1
102
RTVSPropertyOp16
 70
     1
102
RTVSPropertyOp17
 70
     1
102
RTVSPropertyOp18
 70
     1
102
RTVSPropertyOp19
 70
     1
102
RTVSPropertyOp20
 70
     1
102
RTVSPropertyOp21
 70
     1
102
RTVSPropertyOp22
 70
     1
102
RTVSPropertyOp23
 70
     1
102
RTVSPropertyOp24
 70
     1
102
RTVSPropertyOp25
 70
     1
102
RTVSPropertyOp26
 70
     1
102
RTVSPropertyOp27
 70
     1
102
RTVSPropertyOp28
 70
     1
102
RTVSPropertyOp29
 70
     1
102
RTVSPropertyOp30
 70
     1
102
RTVSPropertyOp31
 70
     1
102
RTVSPropertyOp32
 70
     1
102
RTVSPropertyOp33
 70
     1
102
RTVSPropertyOp34
 70
     1
102
RTVSPropertyOp35
 70
     1
102
RTVSPropertyOp36
 70
     1
102
RTVSPropertyOp37
 70
     1
102
RTVSPropertyOp38
 70
     1
102
RTVSPropertyOp39
 70
     1
102
RTVSPropertyOp40
 70
     1
102
RTVSPropertyOp41
 70
     1
102
RTVSPropertyOp42
 70
     1
102
RTVSPropertyOp43
 70
     1
102
RTVSPropertyOp44
 70
     1
102
RTVSPropertyOp45
 70
     1
102
RTVSPropertyOp46
 70
     1
102
RTVSPropertyOp47
 70
     1
102
RTVSPropertyOp48
 70
     1
102
RTVSPropertyOp49
 70
     1
102
RTVSPropertyOp50
 70
     1
102
RTVSPropertyOp51
 70
     0
102
RTVSPropertyOp52
 70
     0
102
RTVSPropertyOp53
 70
     1
102
RTVSPropertyOp54
 70
     1
102
RTVSPropertyOp55
 70
     1
102
RTVSPropertyOp56
 70
     1
102
RTVSPropertyOp57
 70
     1
102
RTVSPropertyOp58
 70
     1
102
RTVSPropertyOp59
 70
     1
102
RTVSPropertyOp60
 70
     1
102
RTVSPropertyOp61
 70
     1
102
RTVSPropertyOp62
 70
     1
  0
XRECORD
  5
8714
102
{ACAD_REACTORS
330
8713
102
}
330
8713
100
AcDbXrecord
280
     1
102
RTVSPost2010Prop28
280
     0
102
RTVSPost2010PropOp28
 70
     1
102
RTVSPost2010Prop29
280
     1
102
RTVSPost2010PropOp29
 70
     1
102
RTVSPost2010Prop30
280
     1
102
RTVSPost2010PropOp30
 70
     1
102
RTVSPost2010Prop31
280
     0
102
RTVSPost2010PropOp31
 70
     1
102
RTVSPost2010Prop32
280
     0
102
RTVSPost2010PropOp32
 70
     1
102
RTVSPost2010Prop33
280
     0
102
RTVSPost2010PropOp33
 70
     1
102
RTVSPost2010Prop34
280
     0
102
RTVSPost2010PropOp34
 70
     1
102
RTVSPost2010Prop35
280
     0
102
RTVSPost2010PropOp35
 70
     1
102
RTVSPost2010Prop36
280
     0
102
RTVSPost2010PropOp36
 70
     1
102
RTVSPost2010Prop37
 90
       50
102
RTVSPost2010PropOp37
 70
     1
102
RTVSPost2010Prop38
140
0.0
102
RTVSPost2010PropOp38
 70
     1
102
RTVSPost2010Prop39
140
1.0
102
RTVSPost2010PropOp39
 70
     1
102
RTVSPost2010Prop40
 90
        0
102
RTVSPost2010PropOp40
 70
     1
102
RTVSPost2010Prop41ColorIndex
 90
       18
102
RTVSPost2010Prop41ColorRGB
 90
        0
102
RTVSPost2010PropOp41
 70
     1
102
RTVSPost2010Prop42
 90
       50
102
RTVSPost2010PropOp42
 70
     1
102
RTVSPost2010Prop43
 90
        3
102
RTVSPost2010PropOp43
 70
     1
102
RTVSPost2010Prop44ColorIndex
 90
        5
102
RTVSPost2010Prop44ColorRGB
 90
      255
102
RTVSPost2010PropOp44
 70
     1
102
RTVSPost2010Prop45
280
     0
102
RTVSPost2010PropOp45
 70
     1
102
RTVSPost2010Prop46
 90
       50
102
RTVSPost2010PropOp46
 70
     1
102
RTVSPost2010Prop47
 90
       50
102
RTVSPost2010PropOp47
 70
     1
102
RTVSPost2010Prop48
 90
       50
102
RTVSPost2010PropOp48
 70
     1
102
RTVSPost2010Prop49
280
     0
102
RTVSPost2010PropOp49
 70
     1
102
RTVSPost2010Prop50
 90
       50
102
RTVSPost2010PropOp50
 70
     1
102
RTVSPost2010Prop51ColorIndex
 90
      256
102
RTVSPost2010Prop51ColorRGB
 90
-16777216
102
RTVSPost2010PropOp51
 70
     0
102
RTVSPost2010Prop52
140
1.0
102
RTVSPost2010PropOp52
 70
     0
102
RTVSPost2010Prop53
 90
        2
102
RTVSPost2010PropOp53
 70
     1
102
RTVSPost2010Prop54
  1
strokes_ogs.tif
102
RTVSPost2010PropOp54
 70
     1
102
RTVSPost2010Prop55
280
     0
102
RTVSPost2010PropOp55
 70
     1
102
RTVSPost2010Prop56
140
1.0
102
RTVSPost2010PropOp56
 70
     1
102
RTVSPost2010Prop57
140
1.0
102
RTVSPost2010PropOp57
 70
     1
102
RTVSPropertyOp0
 70
     1
102
RTVSPropertyOp1
 70
     1
102
RTVSPropertyOp2
 70
     1
102
RTVSPropertyOp3
 70
     1
102
RTVSPropertyOp4
 70
     1
102
RTVSPropertyOp5
 70
     1
102
RTVSPropertyOp6
 70
     1
102
RTVSPropertyOp7
 70
     1
102
RTVSPropertyOp8
 70
     1
102
RTVSPropertyOp9
 70
     1
102
RTVSPropertyOp10
 70
     1
102
RTVSPropertyOp11
 70
     1
102
RTVSPropertyOp12
 70
     1
102
RTVSPropertyOp13
 70
     1
102
RTVSPropertyOp14
 70
     1
102
RTVSPropertyOp15
 70
     1
102
RTVSPropertyOp16
 70
     1
102
RTVSPropertyOp17
 70
     1
102
RTVSPropertyOp18
 70
     1
102
RTVSPropertyOp19
 70
     1
102
RTVSPropertyOp20
 70
     1
102
RTVSPropertyOp21
 70
     1
102
RTVSPropertyOp22
 70
     1
102
RTVSPropertyOp23
 70
     1
102
RTVSPropertyOp24
 70
     1
102
RTVSPropertyOp25
 70
     1
102
RTVSPropertyOp26
 70
     1
102
RTVSPropertyOp27
 70
     1
102
RTVSPropertyOp28
 70
     1
102
RTVSPropertyOp29
 70
     1
102
RTVSPropertyOp30
 70
     1
102
RTVSPropertyOp31
 70
     1
102
RTVSPropertyOp32
 70
     1
102
RTVSPropertyOp33
 70
     1
102
RTVSPropertyOp34
 70
     1
102
RTVSPropertyOp35
 70
     1
102
RTVSPropertyOp36
 70
     1
102
RTVSPropertyOp37
 70
     1
102
RTVSPropertyOp38
 70
     1
102
RTVSPropertyOp39
 70
     1
102
RTVSPropertyOp40
 70
     1
102
RTVSPropertyOp41
 70
     1
102
RTVSPropertyOp42
 70
     1
102
RTVSPropertyOp43
 70
     1
102
RTVSPropertyOp44
 70
     1
102
RTVSPropertyOp45
 70
     1
102
RTVSPropertyOp46
 70
     1
102
RTVSPropertyOp47
 70
     1
102
RTVSPropertyOp48
 70
     1
102
RTVSPropertyOp49
 70
     1
102
RTVSPropertyOp50
 70
     1
102
RTVSPropertyOp51
 70
     0
102
RTVSPropertyOp52
 70
     0
102
RTVSPropertyOp53
 70
     1
102
RTVSPropertyOp54
 70
     1
102
RTVSPropertyOp55
 70
     1
102
RTVSPropertyOp56
 70
     1
102
RTVSPropertyOp57
 70
     1
102
RTVSPropertyOp58
 70
     1
102
RTVSPropertyOp59
 70
     1
102
RTVSPropertyOp60
 70
     1
102
RTVSPropertyOp61
 70
     1
102
RTVSPropertyOp62
 70
     1
  0
XRECORD
  5
8722
102
{ACAD_REACTORS
330
8721
102
}
330
8721
100
AcDbXrecord
280
     1
102
RTVSPost2010Prop28
280
     0
102
RTVSPost2010PropOp28
 70
     1
102
RTVSPost2010Prop29
280
     1
102
RTVSPost2010PropOp29
 70
     1
102
RTVSPost2010Prop30
280
     1
102
RTVSPost2010PropOp30
 70
     1
102
RTVSPost2010Prop31
280
     0
102
RTVSPost2010PropOp31
 70
     1
102
RTVSPost2010Prop32
280
     0
102
RTVSPost2010PropOp32
 70
     1
102
RTVSPost2010Prop33
280
     0
102
RTVSPost2010PropOp33
 70
     1
102
RTVSPost2010Prop34
280
     0
102
RTVSPost2010PropOp34
 70
     1
102
RTVSPost2010Prop35
280
     0
102
RTVSPost2010PropOp35
 70
     1
102
RTVSPost2010Prop36
280
     0
102
RTVSPost2010PropOp36
 70
     1
102
RTVSPost2010Prop37
 90
       50
102
RTVSPost2010PropOp37
 70
     1
102
RTVSPost2010Prop38
140
0.0
102
RTVSPost2010PropOp38
 70
     1
102
RTVSPost2010Prop39
140
1.0
102
RTVSPost2010PropOp39
 70
     1
102
RTVSPost2010Prop40
 90
        0
102
RTVSPost2010PropOp40
 70
     1
102
RTVSPost2010Prop41ColorIndex
 90
       18
102
RTVSPost2010Prop41ColorRGB
 90
        0
102
RTVSPost2010PropOp41
 70
     1
102
RTVSPost2010Prop42
 90
       50
102
RTVSPost2010PropOp42
 70
     1
102
RTVSPost2010Prop43
 90
        3
102
RTVSPost2010PropOp43
 70
     1
102
RTVSPost2010Prop44ColorIndex
 90
        5
102
RTVSPost2010Prop44ColorRGB
 90
      255
102
RTVSPost2010PropOp44
 70
     1
102
RTVSPost2010Prop45
280
     0
102
RTVSPost2010PropOp45
 70
     1
102
RTVSPost2010Prop46
 90
       50
102
RTVSPost2010PropOp46
 70
     1
102
RTVSPost2010Prop47
 90
       50
102
RTVSPost2010PropOp47
 70
     1
102
RTVSPost2010Prop48
 90
       50
102
RTVSPost2010PropOp48
 70
     1
102
RTVSPost2010Prop49
280
     0
102
RTVSPost2010PropOp49
 70
     1
102
RTVSPost2010Prop50
 90
       50
102
RTVSPost2010PropOp50
 70
     1
102
RTVSPost2010Prop51ColorIndex
 90
      256
102
RTVSPost2010Prop51ColorRGB
 90
-16777216
102
RTVSPost2010PropOp51
 70
     0
102
RTVSPost2010Prop52
140
1.0
102
RTVSPost2010PropOp52
 70
     0
102
RTVSPost2010Prop53
 90
        2
102
RTVSPost2010PropOp53
 70
     1
102
RTVSPost2010Prop54
  1
strokes_ogs.tif
102
RTVSPost2010PropOp54
 70
     1
102
RTVSPost2010Prop55
280
     0
102
RTVSPost2010PropOp55
 70
     1
102
RTVSPost2010Prop56
140
1.0
102
RTVSPost2010PropOp56
 70
     1
102
RTVSPost2010Prop57
140
1.0
102
RTVSPost2010PropOp57
 70
     1
102
RTVSPropertyOp0
 70
     1
102
RTVSPropertyOp1
 70
     1
102
RTVSPropertyOp2
 70
     1
102
RTVSPropertyOp3
 70
     1
102
RTVSPropertyOp4
 70
     1
102
RTVSPropertyOp5
 70
     1
102
RTVSPropertyOp6
 70
     1
102
RTVSPropertyOp7
 70
     1
102
RTVSPropertyOp8
 70
     1
102
RTVSPropertyOp9
 70
     1
102
RTVSPropertyOp10
 70
     1
102
RTVSPropertyOp11
 70
     1
102
RTVSPropertyOp12
 70
     1
102
RTVSPropertyOp13
 70
     1
102
RTVSPropertyOp14
 70
     1
102
RTVSPropertyOp15
 70
     1
102
RTVSPropertyOp16
 70
     1
102
RTVSPropertyOp17
 70
     1
102
RTVSPropertyOp18
 70
     1
102
RTVSPropertyOp19
 70
     1
102
RTVSPropertyOp20
 70
     1
102
RTVSPropertyOp21
 70
     1
102
RTVSPropertyOp22
 70
     1
102
RTVSPropertyOp23
 70
     1
102
RTVSPropertyOp24
 70
     1
102
RTVSPropertyOp25
 70
     1
102
RTVSPropertyOp26
 70
     1
102
RTVSPropertyOp27
 70
     1
102
RTVSPropertyOp28
 70
     1
102
RTVSPropertyOp29
 70
     1
102
RTVSPropertyOp30
 70
     1
102
RTVSPropertyOp31
 70
     1
102
RTVSPropertyOp32
 70
     1
102
RTVSPropertyOp33
 70
     1
102
RTVSPropertyOp34
 70
     1
102
RTVSPropertyOp35
 70
     1
102
RTVSPropertyOp36
 70
     1
102
RTVSPropertyOp37
 70
     1
102
RTVSPropertyOp38
 70
     1
102
RTVSPropertyOp39
 70
     1
102
RTVSPropertyOp40
 70
     1
102
RTVSPropertyOp41
 70
     1
102
RTVSPropertyOp42
 70
     1
102
RTVSPropertyOp43
 70
     1
102
RTVSPropertyOp44
 70
     1
102
RTVSPropertyOp45
 70
     1
102
RTVSPropertyOp46
 70
     1
102
RTVSPropertyOp47
 70
     1
102
RTVSPropertyOp48
 70
     1
102
RTVSPropertyOp49
 70
     1
102
RTVSPropertyOp50
 70
     1
102
RTVSPropertyOp51
 70
     0
102
RTVSPropertyOp52
 70
     0
102
RTVSPropertyOp53
 70
     1
102
RTVSPropertyOp54
 70
     1
102
RTVSPropertyOp55
 70
     1
102
RTVSPropertyOp56
 70
     1
102
RTVSPropertyOp57
 70
     1
102
RTVSPropertyOp58
 70
     1
102
RTVSPropertyOp59
 70
     1
102
RTVSPropertyOp60
 70
     1
102
RTVSPropertyOp61
 70
     1
102
RTVSPropertyOp62
 70
     1
  0
XRECORD
  5
872A
102
{ACAD_REACTORS
330
8729
102
}
330
8729
100
AcDbXrecord
280
     1
102
RTVSPost2010Prop28
280
     0
102
RTVSPost2010PropOp28
 70
     1
102
RTVSPost2010Prop29
280
     1
102
RTVSPost2010PropOp29
 70
     1
102
RTVSPost2010Prop30
280
     1
102
RTVSPost2010PropOp30
 70
     1
102
RTVSPost2010Prop31
280
     0
102
RTVSPost2010PropOp31
 70
     1
102
RTVSPost2010Prop32
280
     0
102
RTVSPost2010PropOp32
 70
     1
102
RTVSPost2010Prop33
280
     0
102
RTVSPost2010PropOp33
 70
     1
102
RTVSPost2010Prop34
280
     0
102
RTVSPost2010PropOp34
 70
     1
102
RTVSPost2010Prop35
280
     0
102
RTVSPost2010PropOp35
 70
     1
102
RTVSPost2010Prop36
280
     0
102
RTVSPost2010PropOp36
 70
     1
102
RTVSPost2010Prop37
 90
       50
102
RTVSPost2010PropOp37
 70
     1
102
RTVSPost2010Prop38
140
0.0
102
RTVSPost2010PropOp38
 70
     1
102
RTVSPost2010Prop39
140
1.0
102
RTVSPost2010PropOp39
 70
     1
102
RTVSPost2010Prop40
 90
        0
102
RTVSPost2010PropOp40
 70
     1
102
RTVSPost2010Prop41ColorIndex
 90
       18
102
RTVSPost2010Prop41ColorRGB
 90
        0
102
RTVSPost2010PropOp41
 70
     1
102
RTVSPost2010Prop42
 90
       50
102
RTVSPost2010PropOp42
 70
     1
102
RTVSPost2010Prop43
 90
        3
102
RTVSPost2010PropOp43
 70
     1
102
RTVSPost2010Prop44ColorIndex
 90
        5
102
RTVSPost2010Prop44ColorRGB
 90
      255
102
RTVSPost2010PropOp44
 70
     1
102
RTVSPost2010Prop45
280
     0
102
RTVSPost2010PropOp45
 70
     1
102
RTVSPost2010Prop46
 90
       50
102
RTVSPost2010PropOp46
 70
     1
102
RTVSPost2010Prop47
 90
       50
102
RTVSPost2010PropOp47
 70
     1
102
RTVSPost2010Prop48
 90
       50
102
RTVSPost2010PropOp48
 70
     1
102
RTVSPost2010Prop49
280
     0
102
RTVSPost2010PropOp49
 70
     1
102
RTVSPost2010Prop50
 90
       50
102
RTVSPost2010PropOp50
 70
     1
102
RTVSPost2010Prop51ColorIndex
 90
      256
102
RTVSPost2010Prop51ColorRGB
 90
-16777216
102
RTVSPost2010PropOp51
 70
     0
102
RTVSPost2010Prop52
140
1.0
102
RTVSPost2010PropOp52
 70
     0
102
RTVSPost2010Prop53
 90
        2
102
RTVSPost2010PropOp53
 70
     1
102
RTVSPost2010Prop54
  1
strokes_ogs.tif
102
RTVSPost2010PropOp54
 70
     1
102
RTVSPost2010Prop55
280
     0
102
RTVSPost2010PropOp55
 70
     1
102
RTVSPost2010Prop56
140
1.0
102
RTVSPost2010PropOp56
 70
     1
102
RTVSPost2010Prop57
140
1.0
102
RTVSPost2010PropOp57
 70
     1
102
RTVSPropertyOp0
 70
     1
102
RTVSPropertyOp1
 70
     1
102
RTVSPropertyOp2
 70
     1
102
RTVSPropertyOp3
 70
     1
102
RTVSPropertyOp4
 70
     1
102
RTVSPropertyOp5
 70
     1
102
RTVSPropertyOp6
 70
     1
102
RTVSPropertyOp7
 70
     1
102
RTVSPropertyOp8
 70
     1
102
RTVSPropertyOp9
 70
     1
102
RTVSPropertyOp10
 70
     1
102
RTVSPropertyOp11
 70
     1
102
RTVSPropertyOp12
 70
     1
102
RTVSPropertyOp13
 70
     1
102
RTVSPropertyOp14
 70
     1
102
RTVSPropertyOp15
 70
     1
102
RTVSPropertyOp16
 70
     1
102
RTVSPropertyOp17
 70
     1
102
RTVSPropertyOp18
 70
     1
102
RTVSPropertyOp19
 70
     1
102
RTVSPropertyOp20
 70
     1
102
RTVSPropertyOp21
 70
     1
102
RTVSPropertyOp22
 70
     1
102
RTVSPropertyOp23
 70
     1
102
RTVSPropertyOp24
 70
     1
102
RTVSPropertyOp25
 70
     1
102
RTVSPropertyOp26
 70
     1
102
RTVSPropertyOp27
 70
     1
102
RTVSPropertyOp28
 70
     1
102
RTVSPropertyOp29
 70
     1
102
RTVSPropertyOp30
 70
     1
102
RTVSPropertyOp31
 70
     1
102
RTVSPropertyOp32
 70
     1
102
RTVSPropertyOp33
 70
     1
102
RTVSPropertyOp34
 70
     1
102
RTVSPropertyOp35
 70
     1
102
RTVSPropertyOp36
 70
     1
102
RTVSPropertyOp37
 70
     1
102
RTVSPropertyOp38
 70
     1
102
RTVSPropertyOp39
 70
     1
102
RTVSPropertyOp40
 70
     1
102
RTVSPropertyOp41
 70
     1
102
RTVSPropertyOp42
 70
     1
102
RTVSPropertyOp43
 70
     1
102
RTVSPropertyOp44
 70
     1
102
RTVSPropertyOp45
 70
     1
102
RTVSPropertyOp46
 70
     1
102
RTVSPropertyOp47
 70
     1
102
RTVSPropertyOp48
 70
     1
102
RTVSPropertyOp49
 70
     1
102
RTVSPropertyOp50
 70
     1
102
RTVSPropertyOp51
 70
     0
102
RTVSPropertyOp52
 70
     0
102
RTVSPropertyOp53
 70
     1
102
RTVSPropertyOp54
 70
     1
102
RTVSPropertyOp55
 70
     1
102
RTVSPropertyOp56
 70
     1
102
RTVSPropertyOp57
 70
     1
102
RTVSPropertyOp58
 70
     1
102
RTVSPropertyOp59
 70
     1
102
RTVSPropertyOp60
 70
     1
102
RTVSPropertyOp61
 70
     1
102
RTVSPropertyOp62
 70
     1
  0
XRECORD
  5
871C
102
{ACAD_REACTORS
330
871B
102
}
330
871B
100
AcDbXrecord
280
     1
102
RTVSPost2010Prop28
280
     0
102
RTVSPost2010PropOp28
 70
     1
102
RTVSPost2010Prop29
280
     1
102
RTVSPost2010PropOp29
 70
     1
102
RTVSPost2010Prop30
280
     1
102
RTVSPost2010PropOp30
 70
     1
102
RTVSPost2010Prop31
280
     0
102
RTVSPost2010PropOp31
 70
     1
102
RTVSPost2010Prop32
280
     0
102
RTVSPost2010PropOp32
 70
     1
102
RTVSPost2010Prop33
280
     0
102
RTVSPost2010PropOp33
 70
     1
102
RTVSPost2010Prop34
280
     0
102
RTVSPost2010PropOp34
 70
     1
102
RTVSPost2010Prop35
280
     0
102
RTVSPost2010PropOp35
 70
     1
102
RTVSPost2010Prop36
280
     0
102
RTVSPost2010PropOp36
 70
     1
102
RTVSPost2010Prop37
 90
       50
102
RTVSPost2010PropOp37
 70
     1
102
RTVSPost2010Prop38
140
0.0
102
RTVSPost2010PropOp38
 70
     1
102
RTVSPost2010Prop39
140
1.0
102
RTVSPost2010PropOp39
 70
     1
102
RTVSPost2010Prop40
 90
        0
102
RTVSPost2010PropOp40
 70
     1
102
RTVSPost2010Prop41ColorIndex
 90
       18
102
RTVSPost2010Prop41ColorRGB
 90
        0
102
RTVSPost2010PropOp41
 70
     1
102
RTVSPost2010Prop42
 90
       50
102
RTVSPost2010PropOp42
 70
     1
102
RTVSPost2010Prop43
 90
        3
102
RTVSPost2010PropOp43
 70
     1
102
RTVSPost2010Prop44ColorIndex
 90
        5
102
RTVSPost2010Prop44ColorRGB
 90
      255
102
RTVSPost2010PropOp44
 70
     1
102
RTVSPost2010Prop45
280
     0
102
RTVSPost2010PropOp45
 70
     1
102
RTVSPost2010Prop46
 90
       50
102
RTVSPost2010PropOp46
 70
     1
102
RTVSPost2010Prop47
 90
       50
102
RTVSPost2010PropOp47
 70
     1
102
RTVSPost2010Prop48
 90
       50
102
RTVSPost2010PropOp48
 70
     1
102
RTVSPost2010Prop49
280
     0
102
RTVSPost2010PropOp49
 70
     1
102
RTVSPost2010Prop50
 90
       50
102
RTVSPost2010PropOp50
 70
     1
102
RTVSPost2010Prop51ColorIndex
 90
      256
102
RTVSPost2010Prop51ColorRGB
 90
-16777216
102
RTVSPost2010PropOp51
 70
     0
102
RTVSPost2010Prop52
140
1.0
102
RTVSPost2010PropOp52
 70
     0
102
RTVSPost2010Prop53
 90
        2
102
RTVSPost2010PropOp53
 70
     1
102
RTVSPost2010Prop54
  1
strokes_ogs.tif
102
RTVSPost2010PropOp54
 70
     1
102
RTVSPost2010Prop55
280
     0
102
RTVSPost2010PropOp55
 70
     1
102
RTVSPost2010Prop56
140
1.0
102
RTVSPost2010PropOp56
 70
     1
102
RTVSPost2010Prop57
140
1.0
102
RTVSPost2010PropOp57
 70
     1
102
RTVSPropertyOp0
 70
     1
102
RTVSPropertyOp1
 70
     1
102
RTVSPropertyOp2
 70
     1
102
RTVSPropertyOp3
 70
     1
102
RTVSPropertyOp4
 70
     1
102
RTVSPropertyOp5
 70
     1
102
RTVSPropertyOp6
 70
     1
102
RTVSPropertyOp7
 70
     1
102
RTVSPropertyOp8
 70
     1
102
RTVSPropertyOp9
 70
     1
102
RTVSPropertyOp10
 70
     1
102
RTVSPropertyOp11
 70
     1
102
RTVSPropertyOp12
 70
     1
102
RTVSPropertyOp13
 70
     1
102
RTVSPropertyOp14
 70
     1
102
RTVSPropertyOp15
 70
     1
102
RTVSPropertyOp16
 70
     1
102
RTVSPropertyOp17
 70
     1
102
RTVSPropertyOp18
 70
     1
102
RTVSPropertyOp19
 70
     1
102
RTVSPropertyOp20
 70
     1
102
RTVSPropertyOp21
 70
     1
102
RTVSPropertyOp22
 70
     1
102
RTVSPropertyOp23
 70
     1
102
RTVSPropertyOp24
 70
     1
102
RTVSPropertyOp25
 70
     1
102
RTVSPropertyOp26
 70
     1
102
RTVSPropertyOp27
 70
     1
102
RTVSPropertyOp28
 70
     1
102
RTVSPropertyOp29
 70
     1
102
RTVSPropertyOp30
 70
     1
102
RTVSPropertyOp31
 70
     1
102
RTVSPropertyOp32
 70
     1
102
RTVSPropertyOp33
 70
     1
102
RTVSPropertyOp34
 70
     1
102
RTVSPropertyOp35
 70
     1
102
RTVSPropertyOp36
 70
     1
102
RTVSPropertyOp37
 70
     1
102
RTVSPropertyOp38
 70
     1
102
RTVSPropertyOp39
 70
     1
102
RTVSPropertyOp40
 70
     1
102
RTVSPropertyOp41
 70
     1
102
RTVSPropertyOp42
 70
     1
102
RTVSPropertyOp43
 70
     1
102
RTVSPropertyOp44
 70
     1
102
RTVSPropertyOp45
 70
     1
102
RTVSPropertyOp46
 70
     1
102
RTVSPropertyOp47
 70
     1
102
RTVSPropertyOp48
 70
     1
102
RTVSPropertyOp49
 70
     1
102
RTVSPropertyOp50
 70
     1
102
RTVSPropertyOp51
 70
     0
102
RTVSPropertyOp52
 70
     0
102
RTVSPropertyOp53
 70
     1
102
RTVSPropertyOp54
 70
     1
102
RTVSPropertyOp55
 70
     1
102
RTVSPropertyOp56
 70
     1
102
RTVSPropertyOp57
 70
     1
102
RTVSPropertyOp58
 70
     1
102
RTVSPropertyOp59
 70
     1
102
RTVSPropertyOp60
 70
     1
102
RTVSPropertyOp61
 70
     1
102
RTVSPropertyOp62
 70
     1
  0
XRECORD
  5
8720
102
{ACAD_REACTORS
330
871F
102
}
330
871F
100
AcDbXrecord
280
     1
102
RTVSPost2010Prop28
280
     0
102
RTVSPost2010PropOp28
 70
     1
102
RTVSPost2010Prop29
280
     1
102
RTVSPost2010PropOp29
 70
     1
102
RTVSPost2010Prop30
280
     1
102
RTVSPost2010PropOp30
 70
     1
102
RTVSPost2010Prop31
280
     0
102
RTVSPost2010PropOp31
 70
     1
102
RTVSPost2010Prop32
280
     0
102
RTVSPost2010PropOp32
 70
     1
102
RTVSPost2010Prop33
280
     0
102
RTVSPost2010PropOp33
 70
     1
102
RTVSPost2010Prop34
280
     0
102
RTVSPost2010PropOp34
 70
     1
102
RTVSPost2010Prop35
280
     0
102
RTVSPost2010PropOp35
 70
     1
102
RTVSPost2010Prop36
280
     0
102
RTVSPost2010PropOp36
 70
     1
102
RTVSPost2010Prop37
 90
       50
102
RTVSPost2010PropOp37
 70
     1
102
RTVSPost2010Prop38
140
0.0
102
RTVSPost2010PropOp38
 70
     1
102
RTVSPost2010Prop39
140
1.0
102
RTVSPost2010PropOp39
 70
     1
102
RTVSPost2010Prop40
 90
        0
102
RTVSPost2010PropOp40
 70
     1
102
RTVSPost2010Prop41ColorIndex
 90
       18
102
RTVSPost2010Prop41ColorRGB
 90
        0
102
RTVSPost2010PropOp41
 70
     1
102
RTVSPost2010Prop42
 90
       50
102
RTVSPost2010PropOp42
 70
     1
102
RTVSPost2010Prop43
 90
        3
102
RTVSPost2010PropOp43
 70
     1
102
RTVSPost2010Prop44ColorIndex
 90
        5
102
RTVSPost2010Prop44ColorRGB
 90
      255
102
RTVSPost2010PropOp44
 70
     1
102
RTVSPost2010Prop45
280
     0
102
RTVSPost2010PropOp45
 70
     1
102
RTVSPost2010Prop46
 90
       50
102
RTVSPost2010PropOp46
 70
     1
102
RTVSPost2010Prop47
 90
       50
102
RTVSPost2010PropOp47
 70
     1
102
RTVSPost2010Prop48
 90
       50
102
RTVSPost2010PropOp48
 70
     1
102
RTVSPost2010Prop49
280
     0
102
RTVSPost2010PropOp49
 70
     1
102
RTVSPost2010Prop50
 90
       50
102
RTVSPost2010PropOp50
 70
     1
102
RTVSPost2010Prop51ColorIndex
 90
      256
102
RTVSPost2010Prop51ColorRGB
 90
-16777216
102
RTVSPost2010PropOp51
 70
     0
102
RTVSPost2010Prop52
140
1.0
102
RTVSPost2010PropOp52
 70
     0
102
RTVSPost2010Prop53
 90
        2
102
RTVSPost2010PropOp53
 70
     1
102
RTVSPost2010Prop54
  1
strokes_ogs.tif
102
RTVSPost2010PropOp54
 70
     1
102
RTVSPost2010Prop55
280
     0
102
RTVSPost2010PropOp55
 70
     1
102
RTVSPost2010Prop56
140
1.0
102
RTVSPost2010PropOp56
 70
     1
102
RTVSPost2010Prop57
140
1.0
102
RTVSPost2010PropOp57
 70
     1
102
RTVSPropertyOp0
 70
     1
102
RTVSPropertyOp1
 70
     1
102
RTVSPropertyOp2
 70
     1
102
RTVSPropertyOp3
 70
     1
102
RTVSPropertyOp4
 70
     1
102
RTVSPropertyOp5
 70
     1
102
RTVSPropertyOp6
 70
     1
102
RTVSPropertyOp7
 70
     1
102
RTVSPropertyOp8
 70
     1
102
RTVSPropertyOp9
 70
     1
102
RTVSPropertyOp10
 70
     1
102
RTVSPropertyOp11
 70
     1
102
RTVSPropertyOp12
 70
     1
102
RTVSPropertyOp13
 70
     1
102
RTVSPropertyOp14
 70
     1
102
RTVSPropertyOp15
 70
     1
102
RTVSPropertyOp16
 70
     1
102
RTVSPropertyOp17
 70
     1
102
RTVSPropertyOp18
 70
     1
102
RTVSPropertyOp19
 70
     1
102
RTVSPropertyOp20
 70
     1
102
RTVSPropertyOp21
 70
     1
102
RTVSPropertyOp22
 70
     1
102
RTVSPropertyOp23
 70
     1
102
RTVSPropertyOp24
 70
     1
102
RTVSPropertyOp25
 70
     1
102
RTVSPropertyOp26
 70
     1
102
RTVSPropertyOp27
 70
     1
102
RTVSPropertyOp28
 70
     1
102
RTVSPropertyOp29
 70
     1
102
RTVSPropertyOp30
 70
     1
102
RTVSPropertyOp31
 70
     1
102
RTVSPropertyOp32
 70
     1
102
RTVSPropertyOp33
 70
     1
102
RTVSPropertyOp34
 70
     1
102
RTVSPropertyOp35
 70
     1
102
RTVSPropertyOp36
 70
     1
102
RTVSPropertyOp37
 70
     1
102
RTVSPropertyOp38
 70
     1
102
RTVSPropertyOp39
 70
     1
102
RTVSPropertyOp40
 70
     1
102
RTVSPropertyOp41
 70
     1
102
RTVSPropertyOp42
 70
     1
102
RTVSPropertyOp43
 70
     1
102
RTVSPropertyOp44
 70
     1
102
RTVSPropertyOp45
 70
     1
102
RTVSPropertyOp46
 70
     1
102
RTVSPropertyOp47
 70
     1
102
RTVSPropertyOp48
 70
     1
102
RTVSPropertyOp49
 70
     1
102
RTVSPropertyOp50
 70
     1
102
RTVSPropertyOp51
 70
     0
102
RTVSPropertyOp52
 70
     0
102
RTVSPropertyOp53
 70
     1
102
RTVSPropertyOp54
 70
     1
102
RTVSPropertyOp55
 70
     1
102
RTVSPropertyOp56
 70
     1
102
RTVSPropertyOp57
 70
     1
102
RTVSPropertyOp58
 70
     1
102
RTVSPropertyOp59
 70
     1
102
RTVSPropertyOp60
 70
     1
102
RTVSPropertyOp61
 70
     1
102
RTVSPropertyOp62
 70
     1
  0
XRECORD
  5
873A
102
{ACAD_REACTORS
330
8739
102
}
330
8739
100
AcDbXrecord
280
     1
102
RTVSPost2010Prop28
280
     0
102
RTVSPost2010PropOp28
 70
     1
102
RTVSPost2010Prop29
280
     1
102
RTVSPost2010PropOp29
 70
     1
102
RTVSPost2010Prop30
280
     1
102
RTVSPost2010PropOp30
 70
     1
102
RTVSPost2010Prop31
280
     0
102
RTVSPost2010PropOp31
 70
     1
102
RTVSPost2010Prop32
280
     0
102
RTVSPost2010PropOp32
 70
     1
102
RTVSPost2010Prop33
280
     0
102
RTVSPost2010PropOp33
 70
     1
102
RTVSPost2010Prop34
280
     0
102
RTVSPost2010PropOp34
 70
     1
102
RTVSPost2010Prop35
280
     0
102
RTVSPost2010PropOp35
 70
     1
102
RTVSPost2010Prop36
280
     0
102
RTVSPost2010PropOp36
 70
     1
102
RTVSPost2010Prop37
 90
       50
102
RTVSPost2010PropOp37
 70
     0
102
RTVSPost2010Prop38
140
0.0
102
RTVSPost2010PropOp38
 70
     0
102
RTVSPost2010Prop39
140
1.0
102
RTVSPost2010PropOp39
 70
     0
102
RTVSPost2010Prop40
 90
        0
102
RTVSPost2010PropOp40
 70
     0
102
RTVSPost2010Prop41ColorIndex
 90
       18
102
RTVSPost2010Prop41ColorRGB
 90
        0
102
RTVSPost2010PropOp41
 70
     0
102
RTVSPost2010Prop42
 90
       50
102
RTVSPost2010PropOp42
 70
     0
102
RTVSPost2010Prop43
 90
        3
102
RTVSPost2010PropOp43
 70
     0
102
RTVSPost2010Prop44ColorIndex
 90
        5
102
RTVSPost2010Prop44ColorRGB
 90
      255
102
RTVSPost2010PropOp44
 70
     0
102
RTVSPost2010Prop45
280
     0
102
RTVSPost2010PropOp45
 70
     1
102
RTVSPost2010Prop46
 90
       50
102
RTVSPost2010PropOp46
 70
     0
102
RTVSPost2010Prop47
 90
       50
102
RTVSPost2010PropOp47
 70
     0
102
RTVSPost2010Prop48
 90
       50
102
RTVSPost2010PropOp48
 70
     0
102
RTVSPost2010Prop49
280
     0
102
RTVSPost2010PropOp49
 70
     1
102
RTVSPost2010Prop50
 90
       50
102
RTVSPost2010PropOp50
 70
     0
102
RTVSPost2010Prop51ColorIndex
 90
      256
102
RTVSPost2010Prop51ColorRGB
 90
-16777216
102
RTVSPost2010PropOp51
 70
     0
102
RTVSPost2010Prop52
140
1.0
102
RTVSPost2010PropOp52
 70
     0
102
RTVSPost2010Prop53
 90
        2
102
RTVSPost2010PropOp53
 70
     0
102
RTVSPost2010Prop54
  1
strokes_ogs.tif
102
RTVSPost2010PropOp54
 70
     0
102
RTVSPost2010Prop55
280
     0
102
RTVSPost2010PropOp55
 70
     1
102
RTVSPost2010Prop56
140
1.0
102
RTVSPost2010PropOp56
 70
     0
102
RTVSPost2010Prop57
140
1.0
102
RTVSPost2010PropOp57
 70
     0
102
RTVSPropertyOp0
 70
     0
102
RTVSPropertyOp1
 70
     0
102
RTVSPropertyOp2
 70
     0
102
RTVSPropertyOp3
 70
     0
102
RTVSPropertyOp4
 70
     0
102
RTVSPropertyOp5
 70
     0
102
RTVSPropertyOp6
 70
     0
102
RTVSPropertyOp7
 70
     0
102
RTVSPropertyOp8
 70
     0
102
RTVSPropertyOp9
 70
     0
102
RTVSPropertyOp10
 70
     0
102
RTVSPropertyOp11
 70
     0
102
RTVSPropertyOp12
 70
     0
102
RTVSPropertyOp13
 70
     0
102
RTVSPropertyOp14
 70
     2
102
RTVSPropertyOp15
 70
     0
102
RTVSPropertyOp16
 70
     0
102
RTVSPropertyOp17
 70
     0
102
RTVSPropertyOp18
 70
     0
102
RTVSPropertyOp19
 70
     0
102
RTVSPropertyOp20
 70
     0
102
RTVSPropertyOp21
 70
     0
102
RTVSPropertyOp22
 70
     0
102
RTVSPropertyOp23
 70
     0
102
RTVSPropertyOp24
 70
     0
102
RTVSPropertyOp25
 70
     0
102
RTVSPropertyOp26
 70
     0
102
RTVSPropertyOp27
 70
     0
102
RTVSPropertyOp28
 70
     1
102
RTVSPropertyOp29
 70
     1
102
RTVSPropertyOp30
 70
     1
102
RTVSPropertyOp31
 70
     1
102
RTVSPropertyOp32
 70
     1
102
RTVSPropertyOp33
 70
     1
102
RTVSPropertyOp34
 70
     1
102
RTVSPropertyOp35
 70
     1
102
RTVSPropertyOp36
 70
     1
102
RTVSPropertyOp37
 70
     0
102
RTVSPropertyOp38
 70
     0
102
RTVSPropertyOp39
 70
     0
102
RTVSPropertyOp40
 70
     0
102
RTVSPropertyOp41
 70
     0
102
RTVSPropertyOp42
 70
     0
102
RTVSPropertyOp43
 70
     0
102
RTVSPropertyOp44
 70
     0
102
RTVSPropertyOp45
 70
     1
102
RTVSPropertyOp46
 70
     0
102
RTVSPropertyOp47
 70
     0
102
RTVSPropertyOp48
 70
     0
102
RTVSPropertyOp49
 70
     1
102
RTVSPropertyOp50
 70
     0
102
RTVSPropertyOp51
 70
     0
102
RTVSPropertyOp52
 70
     0
102
RTVSPropertyOp53
 70
     0
102
RTVSPropertyOp54
 70
     0
102
RTVSPropertyOp55
 70
     1
102
RTVSPropertyOp56
 70
     0
102
RTVSPropertyOp57
 70
     0
102
RTVSPropertyOp58
 70
     0
102
RTVSPropertyOp59
 70
     0
102
RTVSPropertyOp60
 70
     0
102
RTVSPropertyOp61
 70
     0
102
RTVSPropertyOp62
 70
     0
  0
XRECORD
  5
8728
102
{ACAD_REACTORS
330
8727
102
}
330
8727
100
AcDbXrecord
280
     1
102
RTVSPost2010Prop28
280
     0
102
RTVSPost2010PropOp28
 70
     1
102
RTVSPost2010Prop29
280
     1
102
RTVSPost2010PropOp29
 70
     1
102
RTVSPost2010Prop30
280
     1
102
RTVSPost2010PropOp30
 70
     1
102
RTVSPost2010Prop31
280
     0
102
RTVSPost2010PropOp31
 70
     1
102
RTVSPost2010Prop32
280
     0
102
RTVSPost2010PropOp32
 70
     1
102
RTVSPost2010Prop33
280
     0
102
RTVSPost2010PropOp33
 70
     1
102
RTVSPost2010Prop34
280
     0
102
RTVSPost2010PropOp34
 70
     1
102
RTVSPost2010Prop35
280
     0
102
RTVSPost2010PropOp35
 70
     1
102
RTVSPost2010Prop36
280
     0
102
RTVSPost2010PropOp36
 70
     1
102
RTVSPost2010Prop37
 90
       50
102
RTVSPost2010PropOp37
 70
     1
102
RTVSPost2010Prop38
140
0.0
102
RTVSPost2010PropOp38
 70
     1
102
RTVSPost2010Prop39
140
1.0
102
RTVSPost2010PropOp39
 70
     1
102
RTVSPost2010Prop40
 90
        0
102
RTVSPost2010PropOp40
 70
     1
102
RTVSPost2010Prop41ColorIndex
 90
       18
102
RTVSPost2010Prop41ColorRGB
 90
        0
102
RTVSPost2010PropOp41
 70
     1
102
RTVSPost2010Prop42
 90
       50
102
RTVSPost2010PropOp42
 70
     1
102
RTVSPost2010Prop43
 90
        3
102
RTVSPost2010PropOp43
 70
     1
102
RTVSPost2010Prop44ColorIndex
 90
        5
102
RTVSPost2010Prop44ColorRGB
 90
      255
102
RTVSPost2010PropOp44
 70
     1
102
RTVSPost2010Prop45
280
     0
102
RTVSPost2010PropOp45
 70
     1
102
RTVSPost2010Prop46
 90
       50
102
RTVSPost2010PropOp46
 70
     1
102
RTVSPost2010Prop47
 90
       50
102
RTVSPost2010PropOp47
 70
     1
102
RTVSPost2010Prop48
 90
       50
102
RTVSPost2010PropOp48
 70
     1
102
RTVSPost2010Prop49
280
     0
102
RTVSPost2010PropOp49
 70
     1
102
RTVSPost2010Prop50
 90
       50
102
RTVSPost2010PropOp50
 70
     1
102
RTVSPost2010Prop51ColorIndex
 90
      256
102
RTVSPost2010Prop51ColorRGB
 90
-16777216
102
RTVSPost2010PropOp51
 70
     0
102
RTVSPost2010Prop52
140
1.0
102
RTVSPost2010PropOp52
 70
     0
102
RTVSPost2010Prop53
 90
        2
102
RTVSPost2010PropOp53
 70
     1
102
RTVSPost2010Prop54
  1
strokes_ogs.tif
102
RTVSPost2010PropOp54
 70
     1
102
RTVSPost2010Prop55
280
     0
102
RTVSPost2010PropOp55
 70
     1
102
RTVSPost2010Prop56
140
1.0
102
RTVSPost2010PropOp56
 70
     1
102
RTVSPost2010Prop57
140
1.0
102
RTVSPost2010PropOp57
 70
     1
102
RTVSPropertyOp0
 70
     1
102
RTVSPropertyOp1
 70
     1
102
RTVSPropertyOp2
 70
     1
102
RTVSPropertyOp3
 70
     1
102
RTVSPropertyOp4
 70
     1
102
RTVSPropertyOp5
 70
     1
102
RTVSPropertyOp6
 70
     1
102
RTVSPropertyOp7
 70
     1
102
RTVSPropertyOp8
 70
     1
102
RTVSPropertyOp9
 70
     1
102
RTVSPropertyOp10
 70
     1
102
RTVSPropertyOp11
 70
     1
102
RTVSPropertyOp12
 70
     1
102
RTVSPropertyOp13
 70
     1
102
RTVSPropertyOp14
 70
     1
102
RTVSPropertyOp15
 70
     1
102
RTVSPropertyOp16
 70
     1
102
RTVSPropertyOp17
 70
     1
102
RTVSPropertyOp18
 70
     1
102
RTVSPropertyOp19
 70
     1
102
RTVSPropertyOp20
 70
     1
102
RTVSPropertyOp21
 70
     1
102
RTVSPropertyOp22
 70
     1
102
RTVSPropertyOp23
 70
     1
102
RTVSPropertyOp24
 70
     1
102
RTVSPropertyOp25
 70
     1
102
RTVSPropertyOp26
 70
     1
102
RTVSPropertyOp27
 70
     1
102
RTVSPropertyOp28
 70
     1
102
RTVSPropertyOp29
 70
     1
102
RTVSPropertyOp30
 70
     1
102
RTVSPropertyOp31
 70
     1
102
RTVSPropertyOp32
 70
     1
102
RTVSPropertyOp33
 70
     1
102
RTVSPropertyOp34
 70
     1
102
RTVSPropertyOp35
 70
     1
102
RTVSPropertyOp36
 70
     1
102
RTVSPropertyOp37
 70
     1
102
RTVSPropertyOp38
 70
     1
102
RTVSPropertyOp39
 70
     1
102
RTVSPropertyOp40
 70
     1
102
RTVSPropertyOp41
 70
     1
102
RTVSPropertyOp42
 70
     1
102
RTVSPropertyOp43
 70
     1
102
RTVSPropertyOp44
 70
     1
102
RTVSPropertyOp45
 70
     1
102
RTVSPropertyOp46
 70
     1
102
RTVSPropertyOp47
 70
     1
102
RTVSPropertyOp48
 70
     1
102
RTVSPropertyOp49
 70
     1
102
RTVSPropertyOp50
 70
     1
102
RTVSPropertyOp51
 70
     0
102
RTVSPropertyOp52
 70
     0
102
RTVSPropertyOp53
 70
     1
102
RTVSPropertyOp54
 70
     1
102
RTVSPropertyOp55
 70
     1
102
RTVSPropertyOp56
 70
     1
102
RTVSPropertyOp57
 70
     1
102
RTVSPropertyOp58
 70
     1
102
RTVSPropertyOp59
 70
     1
102
RTVSPropertyOp60
 70
     1
102
RTVSPropertyOp61
 70
     1
102
RTVSPropertyOp62
 70
     1
  0
XRECORD
  5
870C
102
{ACAD_REACTORS
330
870B
102
}
330
870B
100
AcDbXrecord
280
     1
102
RTVSPost2010Prop28
280
     0
102
RTVSPost2010PropOp28
 70
     1
102
RTVSPost2010Prop29
280
     1
102
RTVSPost2010PropOp29
 70
     1
102
RTVSPost2010Prop30
280
     1
102
RTVSPost2010PropOp30
 70
     1
102
RTVSPost2010Prop31
280
     0
102
RTVSPost2010PropOp31
 70
     1
102
RTVSPost2010Prop32
280
     0
102
RTVSPost2010PropOp32
 70
     1
102
RTVSPost2010Prop33
280
     0
102
RTVSPost2010PropOp33
 70
     1
102
RTVSPost2010Prop34
280
     0
102
RTVSPost2010PropOp34
 70
     1
102
RTVSPost2010Prop35
280
     0
102
RTVSPost2010PropOp35
 70
     1
102
RTVSPost2010Prop36
280
     0
102
RTVSPost2010PropOp36
 70
     1
102
RTVSPost2010Prop37
 90
       50
102
RTVSPost2010PropOp37
 70
     1
102
RTVSPost2010Prop38
140
0.0
102
RTVSPost2010PropOp38
 70
     1
102
RTVSPost2010Prop39
140
1.0
102
RTVSPost2010PropOp39
 70
     1
102
RTVSPost2010Prop40
 90
        0
102
RTVSPost2010PropOp40
 70
     1
102
RTVSPost2010Prop41ColorIndex
 90
       18
102
RTVSPost2010Prop41ColorRGB
 90
        0
102
RTVSPost2010PropOp41
 70
     1
102
RTVSPost2010Prop42
 90
       50
102
RTVSPost2010PropOp42
 70
     1
102
RTVSPost2010Prop43
 90
        3
102
RTVSPost2010PropOp43
 70
     1
102
RTVSPost2010Prop44ColorIndex
 90
        5
102
RTVSPost2010Prop44ColorRGB
 90
      255
102
RTVSPost2010PropOp44
 70
     1
102
RTVSPost2010Prop45
280
     0
102
RTVSPost2010PropOp45
 70
     1
102
RTVSPost2010Prop46
 90
       50
102
RTVSPost2010PropOp46
 70
     1
102
RTVSPost2010Prop47
 90
       50
102
RTVSPost2010PropOp47
 70
     1
102
RTVSPost2010Prop48
 90
       50
102
RTVSPost2010PropOp48
 70
     1
102
RTVSPost2010Prop49
280
     0
102
RTVSPost2010PropOp49
 70
     1
102
RTVSPost2010Prop50
 90
       50
102
RTVSPost2010PropOp50
 70
     1
102
RTVSPost2010Prop51ColorIndex
 90
      256
102
RTVSPost2010Prop51ColorRGB
 90
-16777216
102
RTVSPost2010PropOp51
 70
     0
102
RTVSPost2010Prop52
140
1.0
102
RTVSPost2010PropOp52
 70
     0
102
RTVSPost2010Prop53
 90
        2
102
RTVSPost2010PropOp53
 70
     1
102
RTVSPost2010Prop54
  1
strokes_ogs.tif
102
RTVSPost2010PropOp54
 70
     1
102
RTVSPost2010Prop55
280
     0
102
RTVSPost2010PropOp55
 70
     1
102
RTVSPost2010Prop56
140
1.0
102
RTVSPost2010PropOp56
 70
     1
102
RTVSPost2010Prop57
140
1.0
102
RTVSPost2010PropOp57
 70
     1
102
RTVSPropertyOp0
 70
     1
102
RTVSPropertyOp1
 70
     1
102
RTVSPropertyOp2
 70
     1
102
RTVSPropertyOp3
 70
     1
102
RTVSPropertyOp4
 70
     1
102
RTVSPropertyOp5
 70
     1
102
RTVSPropertyOp6
 70
     1
102
RTVSPropertyOp7
 70
     1
102
RTVSPropertyOp8
 70
     1
102
RTVSPropertyOp9
 70
     1
102
RTVSPropertyOp10
 70
     1
102
RTVSPropertyOp11
 70
     1
102
RTVSPropertyOp12
 70
     1
102
RTVSPropertyOp13
 70
     1
102
RTVSPropertyOp14
 70
     1
102
RTVSPropertyOp15
 70
     1
102
RTVSPropertyOp16
 70
     1
102
RTVSPropertyOp17
 70
     1
102
RTVSPropertyOp18
 70
     1
102
RTVSPropertyOp19
 70
     1
102
RTVSPropertyOp20
 70
     1
102
RTVSPropertyOp21
 70
     1
102
RTVSPropertyOp22
 70
     1
102
RTVSPropertyOp23
 70
     1
102
RTVSPropertyOp24
 70
     1
102
RTVSPropertyOp25
 70
     1
102
RTVSPropertyOp26
 70
     1
102
RTVSPropertyOp27
 70
     1
102
RTVSPropertyOp28
 70
     1
102
RTVSPropertyOp29
 70
     1
102
RTVSPropertyOp30
 70
     1
102
RTVSPropertyOp31
 70
     1
102
RTVSPropertyOp32
 70
     1
102
RTVSPropertyOp33
 70
     1
102
RTVSPropertyOp34
 70
     1
102
RTVSPropertyOp35
 70
     1
102
RTVSPropertyOp36
 70
     1
102
RTVSPropertyOp37
 70
     1
102
RTVSPropertyOp38
 70
     1
102
RTVSPropertyOp39
 70
     1
102
RTVSPropertyOp40
 70
     1
102
RTVSPropertyOp41
 70
     1
102
RTVSPropertyOp42
 70
     1
102
RTVSPropertyOp43
 70
     1
102
RTVSPropertyOp44
 70
     1
102
RTVSPropertyOp45
 70
     1
102
RTVSPropertyOp46
 70
     1
102
RTVSPropertyOp47
 70
     1
102
RTVSPropertyOp48
 70
     1
102
RTVSPropertyOp49
 70
     1
102
RTVSPropertyOp50
 70
     1
102
RTVSPropertyOp51
 70
     0
102
RTVSPropertyOp52
 70
     0
102
RTVSPropertyOp53
 70
     1
102
RTVSPropertyOp54
 70
     1
102
RTVSPropertyOp55
 70
     1
102
RTVSPropertyOp56
 70
     1
102
RTVSPropertyOp57
 70
     1
102
RTVSPropertyOp58
 70
     1
102
RTVSPropertyOp59
 70
     1
102
RTVSPropertyOp60
 70
     1
102
RTVSPropertyOp61
 70
     1
102
RTVSPropertyOp62
 70
     1
  0
XRECORD
  5
870E
102
{ACAD_REACTORS
330
870D
102
}
330
870D
100
AcDbXrecord
280
     1
102
RTVSPost2010Prop28
280
     0
102
RTVSPost2010PropOp28
 70
     1
102
RTVSPost2010Prop29
280
     1
102
RTVSPost2010PropOp29
 70
     1
102
RTVSPost2010Prop30
280
     1
102
RTVSPost2010PropOp30
 70
     1
102
RTVSPost2010Prop31
280
     0
102
RTVSPost2010PropOp31
 70
     1
102
RTVSPost2010Prop32
280
     0
102
RTVSPost2010PropOp32
 70
     1
102
RTVSPost2010Prop33
280
     0
102
RTVSPost2010PropOp33
 70
     1
102
RTVSPost2010Prop34
280
     0
102
RTVSPost2010PropOp34
 70
     1
102
RTVSPost2010Prop35
280
     0
102
RTVSPost2010PropOp35
 70
     1
102
RTVSPost2010Prop36
280
     0
102
RTVSPost2010PropOp36
 70
     1
102
RTVSPost2010Prop37
 90
       50
102
RTVSPost2010PropOp37
 70
     1
102
RTVSPost2010Prop38
140
0.0
102
RTVSPost2010PropOp38
 70
     1
102
RTVSPost2010Prop39
140
1.0
102
RTVSPost2010PropOp39
 70
     1
102
RTVSPost2010Prop40
 90
        0
102
RTVSPost2010PropOp40
 70
     1
102
RTVSPost2010Prop41ColorIndex
 90
       18
102
RTVSPost2010Prop41ColorRGB
 90
        0
102
RTVSPost2010PropOp41
 70
     1
102
RTVSPost2010Prop42
 90
       50
102
RTVSPost2010PropOp42
 70
     1
102
RTVSPost2010Prop43
 90
        3
102
RTVSPost2010PropOp43
 70
     1
102
RTVSPost2010Prop44ColorIndex
 90
        5
102
RTVSPost2010Prop44ColorRGB
 90
      255
102
RTVSPost2010PropOp44
 70
     1
102
RTVSPost2010Prop45
280
     0
102
RTVSPost2010PropOp45
 70
     1
102
RTVSPost2010Prop46
 90
       50
102
RTVSPost2010PropOp46
 70
     1
102
RTVSPost2010Prop47
 90
       50
102
RTVSPost2010PropOp47
 70
     1
102
RTVSPost2010Prop48
 90
       50
102
RTVSPost2010PropOp48
 70
     1
102
RTVSPost2010Prop49
280
     0
102
RTVSPost2010PropOp49
 70
     1
102
RTVSPost2010Prop50
 90
       50
102
RTVSPost2010PropOp50
 70
     1
102
RTVSPost2010Prop51ColorIndex
 90
      256
102
RTVSPost2010Prop51ColorRGB
 90
-16777216
102
RTVSPost2010PropOp51
 70
     0
102
RTVSPost2010Prop52
140
1.0
102
RTVSPost2010PropOp52
 70
     0
102
RTVSPost2010Prop53
 90
        2
102
RTVSPost2010PropOp53
 70
     1
102
RTVSPost2010Prop54
  1
strokes_ogs.tif
102
RTVSPost2010PropOp54
 70
     1
102
RTVSPost2010Prop55
280
     0
102
RTVSPost2010PropOp55
 70
     1
102
RTVSPost2010Prop56
140
1.0
102
RTVSPost2010PropOp56
 70
     1
102
RTVSPost2010Prop57
140
1.0
102
RTVSPost2010PropOp57
 70
     1
102
RTVSPropertyOp0
 70
     1
102
RTVSPropertyOp1
 70
     1
102
RTVSPropertyOp2
 70
     1
102
RTVSPropertyOp3
 70
     1
102
RTVSPropertyOp4
 70
     1
102
RTVSPropertyOp5
 70
     1
102
RTVSPropertyOp6
 70
     1
102
RTVSPropertyOp7
 70
     1
102
RTVSPropertyOp8
 70
     1
102
RTVSPropertyOp9
 70
     1
102
RTVSPropertyOp10
 70
     1
102
RTVSPropertyOp11
 70
     1
102
RTVSPropertyOp12
 70
     1
102
RTVSPropertyOp13
 70
     1
102
RTVSPropertyOp14
 70
     1
102
RTVSPropertyOp15
 70
     1
102
RTVSPropertyOp16
 70
     1
102
RTVSPropertyOp17
 70
     1
102
RTVSPropertyOp18
 70
     1
102
RTVSPropertyOp19
 70
     1
102
RTVSPropertyOp20
 70
     1
102
RTVSPropertyOp21
 70
     1
102
RTVSPropertyOp22
 70
     1
102
RTVSPropertyOp23
 70
     1
102
RTVSPropertyOp24
 70
     1
102
RTVSPropertyOp25
 70
     1
102
RTVSPropertyOp26
 70
     1
102
RTVSPropertyOp27
 70
     1
102
RTVSPropertyOp28
 70
     1
102
RTVSPropertyOp29
 70
     1
102
RTVSPropertyOp30
 70
     1
102
RTVSPropertyOp31
 70
     1
102
RTVSPropertyOp32
 70
     1
102
RTVSPropertyOp33
 70
     1
102
RTVSPropertyOp34
 70
     1
102
RTVSPropertyOp35
 70
     1
102
RTVSPropertyOp36
 70
     1
102
RTVSPropertyOp37
 70
     1
102
RTVSPropertyOp38
 70
     1
102
RTVSPropertyOp39
 70
     1
102
RTVSPropertyOp40
 70
     1
102
RTVSPropertyOp41
 70
     1
102
RTVSPropertyOp42
 70
     1
102
RTVSPropertyOp43
 70
     1
102
RTVSPropertyOp44
 70
     1
102
RTVSPropertyOp45
 70
     1
102
RTVSPropertyOp46
 70
     1
102
RTVSPropertyOp47
 70
     1
102
RTVSPropertyOp48
 70
     1
102
RTVSPropertyOp49
 70
     1
102
RTVSPropertyOp50
 70
     1
102
RTVSPropertyOp51
 70
     0
102
RTVSPropertyOp52
 70
     0
102
RTVSPropertyOp53
 70
     1
102
RTVSPropertyOp54
 70
     1
102
RTVSPropertyOp55
 70
     1
102
RTVSPropertyOp56
 70
     1
102
RTVSPropertyOp57
 70
     1
102
RTVSPropertyOp58
 70
     1
102
RTVSPropertyOp59
 70
     1
102
RTVSPropertyOp60
 70
     1
102
RTVSPropertyOp61
 70
     1
102
RTVSPropertyOp62
 70
     1
  0
XRECORD
  5
8710
102
{ACAD_REACTORS
330
870F
102
}
330
870F
100
AcDbXrecord
280
     1
102
RTVSPost2010Prop28
280
     0
102
RTVSPost2010PropOp28
 70
     1
102
RTVSPost2010Prop29
280
     1
102
RTVSPost2010PropOp29
 70
     1
102
RTVSPost2010Prop30
280
     1
102
RTVSPost2010PropOp30
 70
     1
102
RTVSPost2010Prop31
280
     0
102
RTVSPost2010PropOp31
 70
     1
102
RTVSPost2010Prop32
280
     0
102
RTVSPost2010PropOp32
 70
     1
102
RTVSPost2010Prop33
280
     0
102
RTVSPost2010PropOp33
 70
     1
102
RTVSPost2010Prop34
280
     0
102
RTVSPost2010PropOp34
 70
     1
102
RTVSPost2010Prop35
280
     0
102
RTVSPost2010PropOp35
 70
     1
102
RTVSPost2010Prop36
280
     0
102
RTVSPost2010PropOp36
 70
     1
102
RTVSPost2010Prop37
 90
       50
102
RTVSPost2010PropOp37
 70
     1
102
RTVSPost2010Prop38
140
0.0
102
RTVSPost2010PropOp38
 70
     1
102
RTVSPost2010Prop39
140
1.0
102
RTVSPost2010PropOp39
 70
     1
102
RTVSPost2010Prop40
 90
        0
102
RTVSPost2010PropOp40
 70
     1
102
RTVSPost2010Prop41ColorIndex
 90
       18
102
RTVSPost2010Prop41ColorRGB
 90
        0
102
RTVSPost2010PropOp41
 70
     1
102
RTVSPost2010Prop42
 90
       50
102
RTVSPost2010PropOp42
 70
     1
102
RTVSPost2010Prop43
 90
        3
102
RTVSPost2010PropOp43
 70
     1
102
RTVSPost2010Prop44ColorIndex
 90
        5
102
RTVSPost2010Prop44ColorRGB
 90
      255
102
RTVSPost2010PropOp44
 70
     1
102
RTVSPost2010Prop45
280
     0
102
RTVSPost2010PropOp45
 70
     1
102
RTVSPost2010Prop46
 90
       50
102
RTVSPost2010PropOp46
 70
     1
102
RTVSPost2010Prop47
 90
       50
102
RTVSPost2010PropOp47
 70
     1
102
RTVSPost2010Prop48
 90
       50
102
RTVSPost2010PropOp48
 70
     1
102
RTVSPost2010Prop49
280
     0
102
RTVSPost2010PropOp49
 70
     1
102
RTVSPost2010Prop50
 90
       50
102
RTVSPost2010PropOp50
 70
     1
102
RTVSPost2010Prop51ColorIndex
 90
      256
102
RTVSPost2010Prop51ColorRGB
 90
-16777216
102
RTVSPost2010PropOp51
 70
     0
102
RTVSPost2010Prop52
140
1.0
102
RTVSPost2010PropOp52
 70
     0
102
RTVSPost2010Prop53
 90
        2
102
RTVSPost2010PropOp53
 70
     1
102
RTVSPost2010Prop54
  1
strokes_ogs.tif
102
RTVSPost2010PropOp54
 70
     1
102
RTVSPost2010Prop55
280
     0
102
RTVSPost2010PropOp55
 70
     1
102
RTVSPost2010Prop56
140
1.0
102
RTVSPost2010PropOp56
 70
     1
102
RTVSPost2010Prop57
140
1.0
102
RTVSPost2010PropOp57
 70
     1
102
RTVSPropertyOp0
 70
     1
102
RTVSPropertyOp1
 70
     1
102
RTVSPropertyOp2
 70
     1
102
RTVSPropertyOp3
 70
     1
102
RTVSPropertyOp4
 70
     1
102
RTVSPropertyOp5
 70
     1
102
RTVSPropertyOp6
 70
     1
102
RTVSPropertyOp7
 70
     1
102
RTVSPropertyOp8
 70
     1
102
RTVSPropertyOp9
 70
     1
102
RTVSPropertyOp10
 70
     1
102
RTVSPropertyOp11
 70
     1
102
RTVSPropertyOp12
 70
     1
102
RTVSPropertyOp13
 70
     1
102
RTVSPropertyOp14
 70
     1
102
RTVSPropertyOp15
 70
     1
102
RTVSPropertyOp16
 70
     1
102
RTVSPropertyOp17
 70
     1
102
RTVSPropertyOp18
 70
     1
102
RTVSPropertyOp19
 70
     1
102
RTVSPropertyOp20
 70
     1
102
RTVSPropertyOp21
 70
     1
102
RTVSPropertyOp22
 70
     1
102
RTVSPropertyOp23
 70
     1
102
RTVSPropertyOp24
 70
     1
102
RTVSPropertyOp25
 70
     1
102
RTVSPropertyOp26
 70
     1
102
RTVSPropertyOp27
 70
     1
102
RTVSPropertyOp28
 70
     1
102
RTVSPropertyOp29
 70
     1
102
RTVSPropertyOp30
 70
     1
102
RTVSPropertyOp31
 70
     1
102
RTVSPropertyOp32
 70
     1
102
RTVSPropertyOp33
 70
     1
102
RTVSPropertyOp34
 70
     1
102
RTVSPropertyOp35
 70
     1
102
RTVSPropertyOp36
 70
     1
102
RTVSPropertyOp37
 70
     1
102
RTVSPropertyOp38
 70
     1
102
RTVSPropertyOp39
 70
     1
102
RTVSPropertyOp40
 70
     1
102
RTVSPropertyOp41
 70
     1
102
RTVSPropertyOp42
 70
     1
102
RTVSPropertyOp43
 70
     1
102
RTVSPropertyOp44
 70
     1
102
RTVSPropertyOp45
 70
     1
102
RTVSPropertyOp46
 70
     1
102
RTVSPropertyOp47
 70
     1
102
RTVSPropertyOp48
 70
     1
102
RTVSPropertyOp49
 70
     1
102
RTVSPropertyOp50
 70
     1
102
RTVSPropertyOp51
 70
     0
102
RTVSPropertyOp52
 70
     0
102
RTVSPropertyOp53
 70
     1
102
RTVSPropertyOp54
 70
     1
102
RTVSPropertyOp55
 70
     1
102
RTVSPropertyOp56
 70
     1
102
RTVSPropertyOp57
 70
     1
102
RTVSPropertyOp58
 70
     1
102
RTVSPropertyOp59
 70
     1
102
RTVSPropertyOp60
 70
     1
102
RTVSPropertyOp61
 70
     1
102
RTVSPropertyOp62
 70
     1
  0
XRECORD
  5
8712
102
{ACAD_REACTORS
330
8711
102
}
330
8711
100
AcDbXrecord
280
     1
102
RTVSPost2010Prop28
280
     0
102
RTVSPost2010PropOp28
 70
     1
102
RTVSPost2010Prop29
280
     1
102
RTVSPost2010PropOp29
 70
     1
102
RTVSPost2010Prop30
280
     1
102
RTVSPost2010PropOp30
 70
     1
102
RTVSPost2010Prop31
280
     0
102
RTVSPost2010PropOp31
 70
     1
102
RTVSPost2010Prop32
280
     0
102
RTVSPost2010PropOp32
 70
     1
102
RTVSPost2010Prop33
280
     0
102
RTVSPost2010PropOp33
 70
     1
102
RTVSPost2010Prop34
280
     0
102
RTVSPost2010PropOp34
 70
     1
102
RTVSPost2010Prop35
280
     0
102
RTVSPost2010PropOp35
 70
     1
102
RTVSPost2010Prop36
280
     0
102
RTVSPost2010PropOp36
 70
     1
102
RTVSPost2010Prop37
 90
       50
102
RTVSPost2010PropOp37
 70
     1
102
RTVSPost2010Prop38
140
0.0
102
RTVSPost2010PropOp38
 70
     1
102
RTVSPost2010Prop39
140
1.0
102
RTVSPost2010PropOp39
 70
     1
102
RTVSPost2010Prop40
 90
        0
102
RTVSPost2010PropOp40
 70
     1
102
RTVSPost2010Prop41ColorIndex
 90
       18
102
RTVSPost2010Prop41ColorRGB
 90
        0
102
RTVSPost2010PropOp41
 70
     1
102
RTVSPost2010Prop42
 90
       50
102
RTVSPost2010PropOp42
 70
     1
102
RTVSPost2010Prop43
 90
        3
102
RTVSPost2010PropOp43
 70
     1
102
RTVSPost2010Prop44ColorIndex
 90
        5
102
RTVSPost2010Prop44ColorRGB
 90
      255
102
RTVSPost2010PropOp44
 70
     1
102
RTVSPost2010Prop45
280
     0
102
RTVSPost2010PropOp45
 70
     1
102
RTVSPost2010Prop46
 90
       50
102
RTVSPost2010PropOp46
 70
     1
102
RTVSPost2010Prop47
 90
       50
102
RTVSPost2010PropOp47
 70
     1
102
RTVSPost2010Prop48
 90
       50
102
RTVSPost2010PropOp48
 70
     1
102
RTVSPost2010Prop49
280
     0
102
RTVSPost2010PropOp49
 70
     1
102
RTVSPost2010Prop50
 90
       50
102
RTVSPost2010PropOp50
 70
     1
102
RTVSPost2010Prop51ColorIndex
 90
      256
102
RTVSPost2010Prop51ColorRGB
 90
-16777216
102
RTVSPost2010PropOp51
 70
     0
102
RTVSPost2010Prop52
140
1.0
102
RTVSPost2010PropOp52
 70
     0
102
RTVSPost2010Prop53
 90
        2
102
RTVSPost2010PropOp53
 70
     1
102
RTVSPost2010Prop54
  1
strokes_ogs.tif
102
RTVSPost2010PropOp54
 70
     1
102
RTVSPost2010Prop55
280
     0
102
RTVSPost2010PropOp55
 70
     1
102
RTVSPost2010Prop56
140
1.0
102
RTVSPost2010PropOp56
 70
     1
102
RTVSPost2010Prop57
140
1.0
102
RTVSPost2010PropOp57
 70
     1
102
RTVSPropertyOp0
 70
     1
102
RTVSPropertyOp1
 70
     1
102
RTVSPropertyOp2
 70
     1
102
RTVSPropertyOp3
 70
     1
102
RTVSPropertyOp4
 70
     1
102
RTVSPropertyOp5
 70
     1
102
RTVSPropertyOp6
 70
     1
102
RTVSPropertyOp7
 70
     1
102
RTVSPropertyOp8
 70
     1
102
RTVSPropertyOp9
 70
     1
102
RTVSPropertyOp10
 70
     1
102
RTVSPropertyOp11
 70
     1
102
RTVSPropertyOp12
 70
     1
102
RTVSPropertyOp13
 70
     1
102
RTVSPropertyOp14
 70
     1
102
RTVSPropertyOp15
 70
     1
102
RTVSPropertyOp16
 70
     1
102
RTVSPropertyOp17
 70
     1
102
RTVSPropertyOp18
 70
     1
102
RTVSPropertyOp19
 70
     1
102
RTVSPropertyOp20
 70
     1
102
RTVSPropertyOp21
 70
     1
102
RTVSPropertyOp22
 70
     1
102
RTVSPropertyOp23
 70
     1
102
RTVSPropertyOp24
 70
     1
102
RTVSPropertyOp25
 70
     1
102
RTVSPropertyOp26
 70
     1
102
RTVSPropertyOp27
 70
     1
102
RTVSPropertyOp28
 70
     1
102
RTVSPropertyOp29
 70
     1
102
RTVSPropertyOp30
 70
     1
102
RTVSPropertyOp31
 70
     1
102
RTVSPropertyOp32
 70
     1
102
RTVSPropertyOp33
 70
     1
102
RTVSPropertyOp34
 70
     1
102
RTVSPropertyOp35
 70
     1
102
RTVSPropertyOp36
 70
     1
102
RTVSPropertyOp37
 70
     1
102
RTVSPropertyOp38
 70
     1
102
RTVSPropertyOp39
 70
     1
102
RTVSPropertyOp40
 70
     1
102
RTVSPropertyOp41
 70
     1
102
RTVSPropertyOp42
 70
     1
102
RTVSPropertyOp43
 70
     1
102
RTVSPropertyOp44
 70
     1
102
RTVSPropertyOp45
 70
     1
102
RTVSPropertyOp46
 70
     1
102
RTVSPropertyOp47
 70
     1
102
RTVSPropertyOp48
 70
     1
102
RTVSPropertyOp49
 70
     1
102
RTVSPropertyOp50
 70
     1
102
RTVSPropertyOp51
 70
     0
102
RTVSPropertyOp52
 70
     0
102
RTVSPropertyOp53
 70
     1
102
RTVSPropertyOp54
 70
     1
102
RTVSPropertyOp55
 70
     1
102
RTVSPropertyOp56
 70
     1
102
RTVSPropertyOp57
 70
     1
102
RTVSPropertyOp58
 70
     1
102
RTVSPropertyOp59
 70
     1
102
RTVSPropertyOp60
 70
     1
102
RTVSPropertyOp61
 70
     1
102
RTVSPropertyOp62
 70
     1
  0
XRECORD
  5
871A
102
{ACAD_REACTORS
330
8719
102
}
330
8719
100
AcDbXrecord
280
     1
102
RTVSPost2010Prop28
280
     0
102
RTVSPost2010PropOp28
 70
     1
102
RTVSPost2010Prop29
280
     1
102
RTVSPost2010PropOp29
 70
     1
102
RTVSPost2010Prop30
280
     1
102
RTVSPost2010PropOp30
 70
     1
102
RTVSPost2010Prop31
280
     0
102
RTVSPost2010PropOp31
 70
     1
102
RTVSPost2010Prop32
280
     0
102
RTVSPost2010PropOp32
 70
     1
102
RTVSPost2010Prop33
280
     0
102
RTVSPost2010PropOp33
 70
     1
102
RTVSPost2010Prop34
280
     0
102
RTVSPost2010PropOp34
 70
     1
102
RTVSPost2010Prop35
280
     0
102
RTVSPost2010PropOp35
 70
     1
102
RTVSPost2010Prop36
280
     0
102
RTVSPost2010PropOp36
 70
     1
102
RTVSPost2010Prop37
 90
       50
102
RTVSPost2010PropOp37
 70
     1
102
RTVSPost2010Prop38
140
0.0
102
RTVSPost2010PropOp38
 70
     1
102
RTVSPost2010Prop39
140
1.0
102
RTVSPost2010PropOp39
 70
     1
102
RTVSPost2010Prop40
 90
        0
102
RTVSPost2010PropOp40
 70
     1
102
RTVSPost2010Prop41ColorIndex
 90
       18
102
RTVSPost2010Prop41ColorRGB
 90
        0
102
RTVSPost2010PropOp41
 70
     1
102
RTVSPost2010Prop42
 90
       50
102
RTVSPost2010PropOp42
 70
     1
102
RTVSPost2010Prop43
 90
        3
102
RTVSPost2010PropOp43
 70
     1
102
RTVSPost2010Prop44ColorIndex
 90
        5
102
RTVSPost2010Prop44ColorRGB
 90
      255
102
RTVSPost2010PropOp44
 70
     1
102
RTVSPost2010Prop45
280
     0
102
RTVSPost2010PropOp45
 70
     1
102
RTVSPost2010Prop46
 90
       50
102
RTVSPost2010PropOp46
 70
     1
102
RTVSPost2010Prop47
 90
       50
102
RTVSPost2010PropOp47
 70
     1
102
RTVSPost2010Prop48
 90
       50
102
RTVSPost2010PropOp48
 70
     1
102
RTVSPost2010Prop49
280
     0
102
RTVSPost2010PropOp49
 70
     1
102
RTVSPost2010Prop50
 90
       50
102
RTVSPost2010PropOp50
 70
     1
102
RTVSPost2010Prop51ColorIndex
 90
      256
102
RTVSPost2010Prop51ColorRGB
 90
-16777216
102
RTVSPost2010PropOp51
 70
     0
102
RTVSPost2010Prop52
140
1.0
102
RTVSPost2010PropOp52
 70
     0
102
RTVSPost2010Prop53
 90
        2
102
RTVSPost2010PropOp53
 70
     1
102
RTVSPost2010Prop54
  1
strokes_ogs.tif
102
RTVSPost2010PropOp54
 70
     1
102
RTVSPost2010Prop55
280
     0
102
RTVSPost2010PropOp55
 70
     1
102
RTVSPost2010Prop56
140
1.0
102
RTVSPost2010PropOp56
 70
     1
102
RTVSPost2010Prop57
140
1.0
102
RTVSPost2010PropOp57
 70
     1
102
RTVSPropertyOp0
 70
     1
102
RTVSPropertyOp1
 70
     1
102
RTVSPropertyOp2
 70
     1
102
RTVSPropertyOp3
 70
     1
102
RTVSPropertyOp4
 70
     1
102
RTVSPropertyOp5
 70
     1
102
RTVSPropertyOp6
 70
     1
102
RTVSPropertyOp7
 70
     1
102
RTVSPropertyOp8
 70
     1
102
RTVSPropertyOp9
 70
     1
102
RTVSPropertyOp10
 70
     1
102
RTVSPropertyOp11
 70
     1
102
RTVSPropertyOp12
 70
     1
102
RTVSPropertyOp13
 70
     1
102
RTVSPropertyOp14
 70
     1
102
RTVSPropertyOp15
 70
     1
102
RTVSPropertyOp16
 70
     1
102
RTVSPropertyOp17
 70
     1
102
RTVSPropertyOp18
 70
     1
102
RTVSPropertyOp19
 70
     1
102
RTVSPropertyOp20
 70
     1
102
RTVSPropertyOp21
 70
     1
102
RTVSPropertyOp22
 70
     1
102
RTVSPropertyOp23
 70
     1
102
RTVSPropertyOp24
 70
     1
102
RTVSPropertyOp25
 70
     1
102
RTVSPropertyOp26
 70
     1
102
RTVSPropertyOp27
 70
     1
102
RTVSPropertyOp28
 70
     1
102
RTVSPropertyOp29
 70
     1
102
RTVSPropertyOp30
 70
     1
102
RTVSPropertyOp31
 70
     1
102
RTVSPropertyOp32
 70
     1
102
RTVSPropertyOp33
 70
     1
102
RTVSPropertyOp34
 70
     1
102
RTVSPropertyOp35
 70
     1
102
RTVSPropertyOp36
 70
     1
102
RTVSPropertyOp37
 70
     1
102
RTVSPropertyOp38
 70
     1
102
RTVSPropertyOp39
 70
     1
102
RTVSPropertyOp40
 70
     1
102
RTVSPropertyOp41
 70
     1
102
RTVSPropertyOp42
 70
     1
102
RTVSPropertyOp43
 70
     1
102
RTVSPropertyOp44
 70
     1
102
RTVSPropertyOp45
 70
     1
102
RTVSPropertyOp46
 70
     1
102
RTVSPropertyOp47
 70
     1
102
RTVSPropertyOp48
 70
     1
102
RTVSPropertyOp49
 70
     1
102
RTVSPropertyOp50
 70
     1
102
RTVSPropertyOp51
 70
     0
102
RTVSPropertyOp52
 70
     0
102
RTVSPropertyOp53
 70
     1
102
RTVSPropertyOp54
 70
     1
102
RTVSPropertyOp55
 70
     1
102
RTVSPropertyOp56
 70
     1
102
RTVSPropertyOp57
 70
     1
102
RTVSPropertyOp58
 70
     1
102
RTVSPropertyOp59
 70
     1
102
RTVSPropertyOp60
 70
     1
102
RTVSPropertyOp61
 70
     1
102
RTVSPropertyOp62
 70
     1
  0
XRECORD
  5
8736
102
{ACAD_REACTORS
330
8735
102
}
330
8735
100
AcDbXrecord
280
     1
102
RTVSPost2010Prop28
280
     0
102
RTVSPost2010PropOp28
 70
     1
102
RTVSPost2010Prop29
280
     1
102
RTVSPost2010PropOp29
 70
     1
102
RTVSPost2010Prop30
280
     1
102
RTVSPost2010PropOp30
 70
     1
102
RTVSPost2010Prop31
280
     0
102
RTVSPost2010PropOp31
 70
     1
102
RTVSPost2010Prop32
280
     0
102
RTVSPost2010PropOp32
 70
     1
102
RTVSPost2010Prop33
280
     0
102
RTVSPost2010PropOp33
 70
     1
102
RTVSPost2010Prop34
280
     0
102
RTVSPost2010PropOp34
 70
     1
102
RTVSPost2010Prop35
280
     0
102
RTVSPost2010PropOp35
 70
     1
102
RTVSPost2010Prop36
280
     0
102
RTVSPost2010PropOp36
 70
     1
102
RTVSPost2010Prop37
 90
       50
102
RTVSPost2010PropOp37
 70
     0
102
RTVSPost2010Prop38
140
0.0
102
RTVSPost2010PropOp38
 70
     0
102
RTVSPost2010Prop39
140
1.0
102
RTVSPost2010PropOp39
 70
     0
102
RTVSPost2010Prop40
 90
        0
102
RTVSPost2010PropOp40
 70
     0
102
RTVSPost2010Prop41ColorIndex
 90
       18
102
RTVSPost2010Prop41ColorRGB
 90
        0
102
RTVSPost2010PropOp41
 70
     0
102
RTVSPost2010Prop42
 90
       50
102
RTVSPost2010PropOp42
 70
     0
102
RTVSPost2010Prop43
 90
        3
102
RTVSPost2010PropOp43
 70
     0
102
RTVSPost2010Prop44ColorIndex
 90
        5
102
RTVSPost2010Prop44ColorRGB
 90
      255
102
RTVSPost2010PropOp44
 70
     0
102
RTVSPost2010Prop45
280
     0
102
RTVSPost2010PropOp45
 70
     1
102
RTVSPost2010Prop46
 90
       50
102
RTVSPost2010PropOp46
 70
     0
102
RTVSPost2010Prop47
 90
       50
102
RTVSPost2010PropOp47
 70
     0
102
RTVSPost2010Prop48
 90
       50
102
RTVSPost2010PropOp48
 70
     0
102
RTVSPost2010Prop49
280
     0
102
RTVSPost2010PropOp49
 70
     1
102
RTVSPost2010Prop50
 90
       50
102
RTVSPost2010PropOp50
 70
     0
102
RTVSPost2010Prop51ColorIndex
 90
      256
102
RTVSPost2010Prop51ColorRGB
 90
-16777216
102
RTVSPost2010PropOp51
 70
     0
102
RTVSPost2010Prop52
140
1.0
102
RTVSPost2010PropOp52
 70
     0
102
RTVSPost2010Prop53
 90
        2
102
RTVSPost2010PropOp53
 70
     0
102
RTVSPost2010Prop54
  1
strokes_ogs.tif
102
RTVSPost2010PropOp54
 70
     0
102
RTVSPost2010Prop55
280
     0
102
RTVSPost2010PropOp55
 70
     1
102
RTVSPost2010Prop56
140
1.0
102
RTVSPost2010PropOp56
 70
     0
102
RTVSPost2010Prop57
140
1.0
102
RTVSPost2010PropOp57
 70
     0
102
RTVSPropertyOp0
 70
     0
102
RTVSPropertyOp1
 70
     0
102
RTVSPropertyOp2
 70
     0
102
RTVSPropertyOp3
 70
     0
102
RTVSPropertyOp4
 70
     0
102
RTVSPropertyOp5
 70
     0
102
RTVSPropertyOp6
 70
     0
102
RTVSPropertyOp7
 70
     0
102
RTVSPropertyOp8
 70
     0
102
RTVSPropertyOp9
 70
     0
102
RTVSPropertyOp10
 70
     0
102
RTVSPropertyOp11
 70
     0
102
RTVSPropertyOp12
 70
     0
102
RTVSPropertyOp13
 70
     0
102
RTVSPropertyOp14
 70
     2
102
RTVSPropertyOp15
 70
     0
102
RTVSPropertyOp16
 70
     0
102
RTVSPropertyOp17
 70
     0
102
RTVSPropertyOp18
 70
     0
102
RTVSPropertyOp19
 70
     0
102
RTVSPropertyOp20
 70
     0
102
RTVSPropertyOp21
 70
     0
102
RTVSPropertyOp22
 70
     0
102
RTVSPropertyOp23
 70
     0
102
RTVSPropertyOp24
 70
     0
102
RTVSPropertyOp25
 70
     0
102
RTVSPropertyOp26
 70
     0
102
RTVSPropertyOp27
 70
     0
102
RTVSPropertyOp28
 70
     1
102
RTVSPropertyOp29
 70
     1
102
RTVSPropertyOp30
 70
     1
102
RTVSPropertyOp31
 70
     1
102
RTVSPropertyOp32
 70
     1
102
RTVSPropertyOp33
 70
     1
102
RTVSPropertyOp34
 70
     1
102
RTVSPropertyOp35
 70
     1
102
RTVSPropertyOp36
 70
     1
102
RTVSPropertyOp37
 70
     0
102
RTVSPropertyOp38
 70
     0
102
RTVSPropertyOp39
 70
     0
102
RTVSPropertyOp40
 70
     0
102
RTVSPropertyOp41
 70
     0
102
RTVSPropertyOp42
 70
     0
102
RTVSPropertyOp43
 70
     0
102
RTVSPropertyOp44
 70
     0
102
RTVSPropertyOp45
 70
     1
102
RTVSPropertyOp46
 70
     0
102
RTVSPropertyOp47
 70
     0
102
RTVSPropertyOp48
 70
     0
102
RTVSPropertyOp49
 70
     1
102
RTVSPropertyOp50
 70
     0
102
RTVSPropertyOp51
 70
     0
102
RTVSPropertyOp52
 70
     0
102
RTVSPropertyOp53
 70
     0
102
RTVSPropertyOp54
 70
     0
102
RTVSPropertyOp55
 70
     1
102
RTVSPropertyOp56
 70
     0
102
RTVSPropertyOp57
 70
     0
102
RTVSPropertyOp58
 70
     0
102
RTVSPropertyOp59
 70
     0
102
RTVSPropertyOp60
 70
     0
102
RTVSPropertyOp61
 70
     0
102
RTVSPropertyOp62
 70
     0
  0
XRECORD
  5
8726
102
{ACAD_REACTORS
330
8725
102
}
330
8725
100
AcDbXrecord
280
     1
102
RTVSPost2010Prop28
280
     0
102
RTVSPost2010PropOp28
 70
     1
102
RTVSPost2010Prop29
280
     1
102
RTVSPost2010PropOp29
 70
     1
102
RTVSPost2010Prop30
280
     1
102
RTVSPost2010PropOp30
 70
     1
102
RTVSPost2010Prop31
280
     0
102
RTVSPost2010PropOp31
 70
     1
102
RTVSPost2010Prop32
280
     0
102
RTVSPost2010PropOp32
 70
     1
102
RTVSPost2010Prop33
280
     0
102
RTVSPost2010PropOp33
 70
     1
102
RTVSPost2010Prop34
280
     0
102
RTVSPost2010PropOp34
 70
     1
102
RTVSPost2010Prop35
280
     0
102
RTVSPost2010PropOp35
 70
     1
102
RTVSPost2010Prop36
280
     0
102
RTVSPost2010PropOp36
 70
     1
102
RTVSPost2010Prop37
 90
       50
102
RTVSPost2010PropOp37
 70
     1
102
RTVSPost2010Prop38
140
0.0
102
RTVSPost2010PropOp38
 70
     1
102
RTVSPost2010Prop39
140
1.0
102
RTVSPost2010PropOp39
 70
     1
102
RTVSPost2010Prop40
 90
        0
102
RTVSPost2010PropOp40
 70
     1
102
RTVSPost2010Prop41ColorIndex
 90
       18
102
RTVSPost2010Prop41ColorRGB
 90
        0
102
RTVSPost2010PropOp41
 70
     1
102
RTVSPost2010Prop42
 90
       50
102
RTVSPost2010PropOp42
 70
     1
102
RTVSPost2010Prop43
 90
        3
102
RTVSPost2010PropOp43
 70
     1
102
RTVSPost2010Prop44ColorIndex
 90
        5
102
RTVSPost2010Prop44ColorRGB
 90
      255
102
RTVSPost2010PropOp44
 70
     1
102
RTVSPost2010Prop45
280
     0
102
RTVSPost2010PropOp45
 70
     1
102
RTVSPost2010Prop46
 90
       50
102
RTVSPost2010PropOp46
 70
     1
102
RTVSPost2010Prop47
 90
       50
102
RTVSPost2010PropOp47
 70
     1
102
RTVSPost2010Prop48
 90
       50
102
RTVSPost2010PropOp48
 70
     1
102
RTVSPost2010Prop49
280
     0
102
RTVSPost2010PropOp49
 70
     1
102
RTVSPost2010Prop50
 90
       50
102
RTVSPost2010PropOp50
 70
     1
102
RTVSPost2010Prop51ColorIndex
 90
      256
102
RTVSPost2010Prop51ColorRGB
 90
-16777216
102
RTVSPost2010PropOp51
 70
     0
102
RTVSPost2010Prop52
140
1.0
102
RTVSPost2010PropOp52
 70
     0
102
RTVSPost2010Prop53
 90
        2
102
RTVSPost2010PropOp53
 70
     1
102
RTVSPost2010Prop54
  1
strokes_ogs.tif
102
RTVSPost2010PropOp54
 70
     1
102
RTVSPost2010Prop55
280
     0
102
RTVSPost2010PropOp55
 70
     1
102
RTVSPost2010Prop56
140
1.0
102
RTVSPost2010PropOp56
 70
     1
102
RTVSPost2010Prop57
140
1.0
102
RTVSPost2010PropOp57
 70
     1
102
RTVSPropertyOp0
 70
     1
102
RTVSPropertyOp1
 70
     1
102
RTVSPropertyOp2
 70
     1
102
RTVSPropertyOp3
 70
     1
102
RTVSPropertyOp4
 70
     1
102
RTVSPropertyOp5
 70
     1
102
RTVSPropertyOp6
 70
     1
102
RTVSPropertyOp7
 70
     1
102
RTVSPropertyOp8
 70
     1
102
RTVSPropertyOp9
 70
     1
102
RTVSPropertyOp10
 70
     1
102
RTVSPropertyOp11
 70
     1
102
RTVSPropertyOp12
 70
     1
102
RTVSPropertyOp13
 70
     1
102
RTVSPropertyOp14
 70
     1
102
RTVSPropertyOp15
 70
     1
102
RTVSPropertyOp16
 70
     1
102
RTVSPropertyOp17
 70
     1
102
RTVSPropertyOp18
 70
     1
102
RTVSPropertyOp19
 70
     1
102
RTVSPropertyOp20
 70
     1
102
RTVSPropertyOp21
 70
     1
102
RTVSPropertyOp22
 70
     1
102
RTVSPropertyOp23
 70
     1
102
RTVSPropertyOp24
 70
     1
102
RTVSPropertyOp25
 70
     1
102
RTVSPropertyOp26
 70
     1
102
RTVSPropertyOp27
 70
     1
102
RTVSPropertyOp28
 70
     1
102
RTVSPropertyOp29
 70
     1
102
RTVSPropertyOp30
 70
     1
102
RTVSPropertyOp31
 70
     1
102
RTVSPropertyOp32
 70
     1
102
RTVSPropertyOp33
 70
     1
102
RTVSPropertyOp34
 70
     1
102
RTVSPropertyOp35
 70
     1
102
RTVSPropertyOp36
 70
     1
102
RTVSPropertyOp37
 70
     1
102
RTVSPropertyOp38
 70
     1
102
RTVSPropertyOp39
 70
     1
102
RTVSPropertyOp40
 70
     1
102
RTVSPropertyOp41
 70
     1
102
RTVSPropertyOp42
 70
     1
102
RTVSPropertyOp43
 70
     1
102
RTVSPropertyOp44
 70
     1
102
RTVSPropertyOp45
 70
     1
102
RTVSPropertyOp46
 70
     1
102
RTVSPropertyOp47
 70
     1
102
RTVSPropertyOp48
 70
     1
102
RTVSPropertyOp49
 70
     1
102
RTVSPropertyOp50
 70
     1
102
RTVSPropertyOp51
 70
     0
102
RTVSPropertyOp52
 70
     0
102
RTVSPropertyOp53
 70
     1
102
RTVSPropertyOp54
 70
     1
102
RTVSPropertyOp55
 70
     1
102
RTVSPropertyOp56
 70
     1
102
RTVSPropertyOp57
 70
     1
102
RTVSPropertyOp58
 70
     1
102
RTVSPropertyOp59
 70
     1
102
RTVSPropertyOp60
 70
     1
102
RTVSPropertyOp61
 70
     1
102
RTVSPropertyOp62
 70
     1
  0
XRECORD
  5
8738
102
{ACAD_REACTORS
330
8737
102
}
330
8737
100
AcDbXrecord
280
     1
102
RTVSPost2010Prop28
280
     0
102
RTVSPost2010PropOp28
 70
     1
102
RTVSPost2010Prop29
280
     1
102
RTVSPost2010PropOp29
 70
     1
102
RTVSPost2010Prop30
280
     1
102
RTVSPost2010PropOp30
 70
     1
102
RTVSPost2010Prop31
280
     0
102
RTVSPost2010PropOp31
 70
     1
102
RTVSPost2010Prop32
280
     0
102
RTVSPost2010PropOp32
 70
     1
102
RTVSPost2010Prop33
280
     0
102
RTVSPost2010PropOp33
 70
     1
102
RTVSPost2010Prop34
280
     0
102
RTVSPost2010PropOp34
 70
     1
102
RTVSPost2010Prop35
280
     0
102
RTVSPost2010PropOp35
 70
     1
102
RTVSPost2010Prop36
280
     0
102
RTVSPost2010PropOp36
 70
     1
102
RTVSPost2010Prop37
 90
       50
102
RTVSPost2010PropOp37
 70
     0
102
RTVSPost2010Prop38
140
0.0
102
RTVSPost2010PropOp38
 70
     0
102
RTVSPost2010Prop39
140
1.0
102
RTVSPost2010PropOp39
 70
     0
102
RTVSPost2010Prop40
 90
        0
102
RTVSPost2010PropOp40
 70
     0
102
RTVSPost2010Prop41ColorIndex
 90
       18
102
RTVSPost2010Prop41ColorRGB
 90
        0
102
RTVSPost2010PropOp41
 70
     0
102
RTVSPost2010Prop42
 90
       50
102
RTVSPost2010PropOp42
 70
     0
102
RTVSPost2010Prop43
 90
        3
102
RTVSPost2010PropOp43
 70
     0
102
RTVSPost2010Prop44ColorIndex
 90
        5
102
RTVSPost2010Prop44ColorRGB
 90
      255
102
RTVSPost2010PropOp44
 70
     0
102
RTVSPost2010Prop45
280
     0
102
RTVSPost2010PropOp45
 70
     1
102
RTVSPost2010Prop46
 90
       50
102
RTVSPost2010PropOp46
 70
     0
102
RTVSPost2010Prop47
 90
       50
102
RTVSPost2010PropOp47
 70
     0
102
RTVSPost2010Prop48
 90
       50
102
RTVSPost2010PropOp48
 70
     0
102
RTVSPost2010Prop49
280
     0
102
RTVSPost2010PropOp49
 70
     1
102
RTVSPost2010Prop50
 90
       50
102
RTVSPost2010PropOp50
 70
     0
102
RTVSPost2010Prop51ColorIndex
 90
      256
102
RTVSPost2010Prop51ColorRGB
 90
-16777216
102
RTVSPost2010PropOp51
 70
     0
102
RTVSPost2010Prop52
140
1.0
102
RTVSPost2010PropOp52
 70
     0
102
RTVSPost2010Prop53
 90
        2
102
RTVSPost2010PropOp53
 70
     0
102
RTVSPost2010Prop54
  1
strokes_ogs.tif
102
RTVSPost2010PropOp54
 70
     0
102
RTVSPost2010Prop55
280
     0
102
RTVSPost2010PropOp55
 70
     1
102
RTVSPost2010Prop56
140
1.0
102
RTVSPost2010PropOp56
 70
     0
102
RTVSPost2010Prop57
140
1.0
102
RTVSPost2010PropOp57
 70
     0
102
RTVSPropertyOp0
 70
     0
102
RTVSPropertyOp1
 70
     0
102
RTVSPropertyOp2
 70
     0
102
RTVSPropertyOp3
 70
     0
102
RTVSPropertyOp4
 70
     0
102
RTVSPropertyOp5
 70
     0
102
RTVSPropertyOp6
 70
     0
102
RTVSPropertyOp7
 70
     0
102
RTVSPropertyOp8
 70
     0
102
RTVSPropertyOp9
 70
     0
102
RTVSPropertyOp10
 70
     0
102
RTVSPropertyOp11
 70
     0
102
RTVSPropertyOp12
 70
     0
102
RTVSPropertyOp13
 70
     0
102
RTVSPropertyOp14
 70
     2
102
RTVSPropertyOp15
 70
     0
102
RTVSPropertyOp16
 70
     0
102
RTVSPropertyOp17
 70
     0
102
RTVSPropertyOp18
 70
     0
102
RTVSPropertyOp19
 70
     0
102
RTVSPropertyOp20
 70
     0
102
RTVSPropertyOp21
 70
     0
102
RTVSPropertyOp22
 70
     0
102
RTVSPropertyOp23
 70
     0
102
RTVSPropertyOp24
 70
     0
102
RTVSPropertyOp25
 70
     0
102
RTVSPropertyOp26
 70
     0
102
RTVSPropertyOp27
 70
     0
102
RTVSPropertyOp28
 70
     1
102
RTVSPropertyOp29
 70
     1
102
RTVSPropertyOp30
 70
     1
102
RTVSPropertyOp31
 70
     1
102
RTVSPropertyOp32
 70
     1
102
RTVSPropertyOp33
 70
     1
102
RTVSPropertyOp34
 70
     1
102
RTVSPropertyOp35
 70
     1
102
RTVSPropertyOp36
 70
     1
102
RTVSPropertyOp37
 70
     0
102
RTVSPropertyOp38
 70
     0
102
RTVSPropertyOp39
 70
     0
102
RTVSPropertyOp40
 70
     0
102
RTVSPropertyOp41
 70
     0
102
RTVSPropertyOp42
 70
     0
102
RTVSPropertyOp43
 70
     0
102
RTVSPropertyOp44
 70
     0
102
RTVSPropertyOp45
 70
     1
102
RTVSPropertyOp46
 70
     0
102
RTVSPropertyOp47
 70
     0
102
RTVSPropertyOp48
 70
     0
102
RTVSPropertyOp49
 70
     1
102
RTVSPropertyOp50
 70
     0
102
RTVSPropertyOp51
 70
     0
102
RTVSPropertyOp52
 70
     0
102
RTVSPropertyOp53
 70
     0
102
RTVSPropertyOp54
 70
     0
102
RTVSPropertyOp55
 70
     1
102
RTVSPropertyOp56
 70
     0
102
RTVSPropertyOp57
 70
     0
102
RTVSPropertyOp58
 70
     0
102
RTVSPropertyOp59
 70
     0
102
RTVSPropertyOp60
 70
     0
102
RTVSPropertyOp61
 70
     0
102
RTVSPropertyOp62
 70
     0
  0
XRECORD
  5
871E
102
{ACAD_REACTORS
330
871D
102
}
330
871D
100
AcDbXrecord
280
     1
102
RTVSPost2010Prop28
280
     0
102
RTVSPost2010PropOp28
 70
     1
102
RTVSPost2010Prop29
280
     1
102
RTVSPost2010PropOp29
 70
     1
102
RTVSPost2010Prop30
280
     1
102
RTVSPost2010PropOp30
 70
     1
102
RTVSPost2010Prop31
280
     0
102
RTVSPost2010PropOp31
 70
     1
102
RTVSPost2010Prop32
280
     0
102
RTVSPost2010PropOp32
 70
     1
102
RTVSPost2010Prop33
280
     0
102
RTVSPost2010PropOp33
 70
     1
102
RTVSPost2010Prop34
280
     0
102
RTVSPost2010PropOp34
 70
     1
102
RTVSPost2010Prop35
280
     0
102
RTVSPost2010PropOp35
 70
     1
102
RTVSPost2010Prop36
280
     0
102
RTVSPost2010PropOp36
 70
     1
102
RTVSPost2010Prop37
 90
       50
102
RTVSPost2010PropOp37
 70
     1
102
RTVSPost2010Prop38
140
0.0
102
RTVSPost2010PropOp38
 70
     1
102
RTVSPost2010Prop39
140
1.0
102
RTVSPost2010PropOp39
 70
     1
102
RTVSPost2010Prop40
 90
        0
102
RTVSPost2010PropOp40
 70
     1
102
RTVSPost2010Prop41ColorIndex
 90
       18
102
RTVSPost2010Prop41ColorRGB
 90
        0
102
RTVSPost2010PropOp41
 70
     1
102
RTVSPost2010Prop42
 90
       50
102
RTVSPost2010PropOp42
 70
     1
102
RTVSPost2010Prop43
 90
        3
102
RTVSPost2010PropOp43
 70
     1
102
RTVSPost2010Prop44ColorIndex
 90
        5
102
RTVSPost2010Prop44ColorRGB
 90
      255
102
RTVSPost2010PropOp44
 70
     1
102
RTVSPost2010Prop45
280
     0
102
RTVSPost2010PropOp45
 70
     1
102
RTVSPost2010Prop46
 90
       50
102
RTVSPost2010PropOp46
 70
     1
102
RTVSPost2010Prop47
 90
       50
102
RTVSPost2010PropOp47
 70
     1
102
RTVSPost2010Prop48
 90
       50
102
RTVSPost2010PropOp48
 70
     1
102
RTVSPost2010Prop49
280
     0
102
RTVSPost2010PropOp49
 70
     1
102
RTVSPost2010Prop50
 90
       50
102
RTVSPost2010PropOp50
 70
     1
102
RTVSPost2010Prop51ColorIndex
 90
      256
102
RTVSPost2010Prop51ColorRGB
 90
-16777216
102
RTVSPost2010PropOp51
 70
     0
102
RTVSPost2010Prop52
140
1.0
102
RTVSPost2010PropOp52
 70
     0
102
RTVSPost2010Prop53
 90
        2
102
RTVSPost2010PropOp53
 70
     1
102
RTVSPost2010Prop54
  1
strokes_ogs.tif
102
RTVSPost2010PropOp54
 70
     1
102
RTVSPost2010Prop55
280
     0
102
RTVSPost2010PropOp55
 70
     1
102
RTVSPost2010Prop56
140
1.0
102
RTVSPost2010PropOp56
 70
     1
102
RTVSPost2010Prop57
140
1.0
102
RTVSPost2010PropOp57
 70
     1
102
RTVSPropertyOp0
 70
     1
102
RTVSPropertyOp1
 70
     1
102
RTVSPropertyOp2
 70
     1
102
RTVSPropertyOp3
 70
     1
102
RTVSPropertyOp4
 70
     1
102
RTVSPropertyOp5
 70
     1
102
RTVSPropertyOp6
 70
     1
102
RTVSPropertyOp7
 70
     1
102
RTVSPropertyOp8
 70
     1
102
RTVSPropertyOp9
 70
     1
102
RTVSPropertyOp10
 70
     1
102
RTVSPropertyOp11
 70
     1
102
RTVSPropertyOp12
 70
     1
102
RTVSPropertyOp13
 70
     1
102
RTVSPropertyOp14
 70
     1
102
RTVSPropertyOp15
 70
     1
102
RTVSPropertyOp16
 70
     1
102
RTVSPropertyOp17
 70
     1
102
RTVSPropertyOp18
 70
     1
102
RTVSPropertyOp19
 70
     1
102
RTVSPropertyOp20
 70
     1
102
RTVSPropertyOp21
 70
     1
102
RTVSPropertyOp22
 70
     1
102
RTVSPropertyOp23
 70
     1
102
RTVSPropertyOp24
 70
     1
102
RTVSPropertyOp25
 70
     1
102
RTVSPropertyOp26
 70
     1
102
RTVSPropertyOp27
 70
     1
102
RTVSPropertyOp28
 70
     1
102
RTVSPropertyOp29
 70
     1
102
RTVSPropertyOp30
 70
     1
102
RTVSPropertyOp31
 70
     1
102
RTVSPropertyOp32
 70
     1
102
RTVSPropertyOp33
 70
     1
102
RTVSPropertyOp34
 70
     1
102
RTVSPropertyOp35
 70
     1
102
RTVSPropertyOp36
 70
     1
102
RTVSPropertyOp37
 70
     1
102
RTVSPropertyOp38
 70
     1
102
RTVSPropertyOp39
 70
     1
102
RTVSPropertyOp40
 70
     1
102
RTVSPropertyOp41
 70
     1
102
RTVSPropertyOp42
 70
     1
102
RTVSPropertyOp43
 70
     1
102
RTVSPropertyOp44
 70
     1
102
RTVSPropertyOp45
 70
     1
102
RTVSPropertyOp46
 70
     1
102
RTVSPropertyOp47
 70
     1
102
RTVSPropertyOp48
 70
     1
102
RTVSPropertyOp49
 70
     1
102
RTVSPropertyOp50
 70
     1
102
RTVSPropertyOp51
 70
     0
102
RTVSPropertyOp52
 70
     0
102
RTVSPropertyOp53
 70
     1
102
RTVSPropertyOp54
 70
     1
102
RTVSPropertyOp55
 70
     1
102
RTVSPropertyOp56
 70
     1
102
RTVSPropertyOp57
 70
     1
102
RTVSPropertyOp58
 70
     1
102
RTVSPropertyOp59
 70
     1
102
RTVSPropertyOp60
 70
     1
102
RTVSPropertyOp61
 70
     1
102
RTVSPropertyOp62
 70
     1
  0
XRECORD
  5
8734
102
{ACAD_REACTORS
330
8733
102
}
330
8733
100
AcDbXrecord
280
     1
102
RTVSPost2010Prop28
280
     0
102
RTVSPost2010PropOp28
 70
     1
102
RTVSPost2010Prop29
280
     1
102
RTVSPost2010PropOp29
 70
     1
102
RTVSPost2010Prop30
280
     1
102
RTVSPost2010PropOp30
 70
     1
102
RTVSPost2010Prop31
280
     0
102
RTVSPost2010PropOp31
 70
     1
102
RTVSPost2010Prop32
280
     0
102
RTVSPost2010PropOp32
 70
     1
102
RTVSPost2010Prop33
280
     0
102
RTVSPost2010PropOp33
 70
     1
102
RTVSPost2010Prop34
280
     0
102
RTVSPost2010PropOp34
 70
     1
102
RTVSPost2010Prop35
280
     0
102
RTVSPost2010PropOp35
 70
     1
102
RTVSPost2010Prop36
280
     0
102
RTVSPost2010PropOp36
 70
     1
102
RTVSPost2010Prop37
 90
       50
102
RTVSPost2010PropOp37
 70
     1
102
RTVSPost2010Prop38
140
0.0
102
RTVSPost2010PropOp38
 70
     1
102
RTVSPost2010Prop39
140
1.0
102
RTVSPost2010PropOp39
 70
     1
102
RTVSPost2010Prop40
 90
        0
102
RTVSPost2010PropOp40
 70
     1
102
RTVSPost2010Prop41ColorIndex
 90
       18
102
RTVSPost2010Prop41ColorRGB
 90
        0
102
RTVSPost2010PropOp41
 70
     1
102
RTVSPost2010Prop42
 90
       50
102
RTVSPost2010PropOp42
 70
     1
102
RTVSPost2010Prop43
 90
        3
102
RTVSPost2010PropOp43
 70
     1
102
RTVSPost2010Prop44ColorIndex
 90
        5
102
RTVSPost2010Prop44ColorRGB
 90
      255
102
RTVSPost2010PropOp44
 70
     1
102
RTVSPost2010Prop45
280
     0
102
RTVSPost2010PropOp45
 70
     1
102
RTVSPost2010Prop46
 90
       50
102
RTVSPost2010PropOp46
 70
     1
102
RTVSPost2010Prop47
 90
       50
102
RTVSPost2010PropOp47
 70
     1
102
RTVSPost2010Prop48
 90
       50
102
RTVSPost2010PropOp48
 70
     1
102
RTVSPost2010Prop49
280
     0
102
RTVSPost2010PropOp49
 70
     1
102
RTVSPost2010Prop50
 90
       50
102
RTVSPost2010PropOp50
 70
     1
102
RTVSPost2010Prop51ColorIndex
 90
      256
102
RTVSPost2010Prop51ColorRGB
 90
-16777216
102
RTVSPost2010PropOp51
 70
     0
102
RTVSPost2010Prop52
140
1.0
102
RTVSPost2010PropOp52
 70
     0
102
RTVSPost2010Prop53
 90
        2
102
RTVSPost2010PropOp53
 70
     1
102
RTVSPost2010Prop54
  1
strokes_ogs.tif
102
RTVSPost2010PropOp54
 70
     1
102
RTVSPost2010Prop55
280
     0
102
RTVSPost2010PropOp55
 70
     1
102
RTVSPost2010Prop56
140
1.0
102
RTVSPost2010PropOp56
 70
     1
102
RTVSPost2010Prop57
140
1.0
102
RTVSPost2010PropOp57
 70
     1
102
RTVSPropertyOp0
 70
     1
102
RTVSPropertyOp1
 70
     1
102
RTVSPropertyOp2
 70
     1
102
RTVSPropertyOp3
 70
     1
102
RTVSPropertyOp4
 70
     1
102
RTVSPropertyOp5
 70
     1
102
RTVSPropertyOp6
 70
     1
102
RTVSPropertyOp7
 70
     1
102
RTVSPropertyOp8
 70
     1
102
RTVSPropertyOp9
 70
     1
102
RTVSPropertyOp10
 70
     1
102
RTVSPropertyOp11
 70
     1
102
RTVSPropertyOp12
 70
     1
102
RTVSPropertyOp13
 70
     1
102
RTVSPropertyOp14
 70
     1
102
RTVSPropertyOp15
 70
     1
102
RTVSPropertyOp16
 70
     1
102
RTVSPropertyOp17
 70
     1
102
RTVSPropertyOp18
 70
     1
102
RTVSPropertyOp19
 70
     1
102
RTVSPropertyOp20
 70
     1
102
RTVSPropertyOp21
 70
     1
102
RTVSPropertyOp22
 70
     1
102
RTVSPropertyOp23
 70
     1
102
RTVSPropertyOp24
 70
     1
102
RTVSPropertyOp25
 70
     1
102
RTVSPropertyOp26
 70
     1
102
RTVSPropertyOp27
 70
     1
102
RTVSPropertyOp28
 70
     1
102
RTVSPropertyOp29
 70
     1
102
RTVSPropertyOp30
 70
     1
102
RTVSPropertyOp31
 70
     1
102
RTVSPropertyOp32
 70
     1
102
RTVSPropertyOp33
 70
     1
102
RTVSPropertyOp34
 70
     1
102
RTVSPropertyOp35
 70
     1
102
RTVSPropertyOp36
 70
     1
102
RTVSPropertyOp37
 70
     1
102
RTVSPropertyOp38
 70
     1
102
RTVSPropertyOp39
 70
     1
102
RTVSPropertyOp40
 70
     1
102
RTVSPropertyOp41
 70
     1
102
RTVSPropertyOp42
 70
     1
102
RTVSPropertyOp43
 70
     1
102
RTVSPropertyOp44
 70
     1
102
RTVSPropertyOp45
 70
     1
102
RTVSPropertyOp46
 70
     1
102
RTVSPropertyOp47
 70
     1
102
RTVSPropertyOp48
 70
     1
102
RTVSPropertyOp49
 70
     1
102
RTVSPropertyOp50
 70
     1
102
RTVSPropertyOp51
 70
     0
102
RTVSPropertyOp52
 70
     0
102
RTVSPropertyOp53
 70
     1
102
RTVSPropertyOp54
 70
     1
102
RTVSPropertyOp55
 70
     1
102
RTVSPropertyOp56
 70
     1
102
RTVSPropertyOp57
 70
     1
102
RTVSPropertyOp58
 70
     1
102
RTVSPropertyOp59
 70
     1
102
RTVSPropertyOp60
 70
     1
102
RTVSPropertyOp61
 70
     1
102
RTVSPropertyOp62
 70
     1
  0
XRECORD
  5
8732
102
{ACAD_REACTORS
330
8731
102
}
330
8731
100
AcDbXrecord
280
     1
102
RTVSPost2010Prop28
280
     0
102
RTVSPost2010PropOp28
 70
     1
102
RTVSPost2010Prop29
280
     1
102
RTVSPost2010PropOp29
 70
     1
102
RTVSPost2010Prop30
280
     1
102
RTVSPost2010PropOp30
 70
     1
102
RTVSPost2010Prop31
280
     0
102
RTVSPost2010PropOp31
 70
     1
102
RTVSPost2010Prop32
280
     0
102
RTVSPost2010PropOp32
 70
     1
102
RTVSPost2010Prop33
280
     0
102
RTVSPost2010PropOp33
 70
     1
102
RTVSPost2010Prop34
280
     0
102
RTVSPost2010PropOp34
 70
     1
102
RTVSPost2010Prop35
280
     0
102
RTVSPost2010PropOp35
 70
     1
102
RTVSPost2010Prop36
280
     0
102
RTVSPost2010PropOp36
 70
     1
102
RTVSPost2010Prop37
 90
       50
102
RTVSPost2010PropOp37
 70
     1
102
RTVSPost2010Prop38
140
0.0
102
RTVSPost2010PropOp38
 70
     1
102
RTVSPost2010Prop39
140
1.0
102
RTVSPost2010PropOp39
 70
     1
102
RTVSPost2010Prop40
 90
        0
102
RTVSPost2010PropOp40
 70
     1
102
RTVSPost2010Prop41ColorIndex
 90
       18
102
RTVSPost2010Prop41ColorRGB
 90
        0
102
RTVSPost2010PropOp41
 70
     1
102
RTVSPost2010Prop42
 90
       50
102
RTVSPost2010PropOp42
 70
     1
102
RTVSPost2010Prop43
 90
        3
102
RTVSPost2010PropOp43
 70
     1
102
RTVSPost2010Prop44ColorIndex
 90
        5
102
RTVSPost2010Prop44ColorRGB
 90
      255
102
RTVSPost2010PropOp44
 70
     1
102
RTVSPost2010Prop45
280
     0
102
RTVSPost2010PropOp45
 70
     1
102
RTVSPost2010Prop46
 90
       50
102
RTVSPost2010PropOp46
 70
     1
102
RTVSPost2010Prop47
 90
       50
102
RTVSPost2010PropOp47
 70
     1
102
RTVSPost2010Prop48
 90
       50
102
RTVSPost2010PropOp48
 70
     1
102
RTVSPost2010Prop49
280
     0
102
RTVSPost2010PropOp49
 70
     1
102
RTVSPost2010Prop50
 90
       50
102
RTVSPost2010PropOp50
 70
     1
102
RTVSPost2010Prop51ColorIndex
 90
      256
102
RTVSPost2010Prop51ColorRGB
 90
-16777216
102
RTVSPost2010PropOp51
 70
     0
102
RTVSPost2010Prop52
140
1.0
102
RTVSPost2010PropOp52
 70
     0
102
RTVSPost2010Prop53
 90
        2
102
RTVSPost2010PropOp53
 70
     1
102
RTVSPost2010Prop54
  1
strokes_ogs.tif
102
RTVSPost2010PropOp54
 70
     1
102
RTVSPost2010Prop55
280
     0
102
RTVSPost2010PropOp55
 70
     1
102
RTVSPost2010Prop56
140
1.0
102
RTVSPost2010PropOp56
 70
     1
102
RTVSPost2010Prop57
140
1.0
102
RTVSPost2010PropOp57
 70
     1
102
RTVSPropertyOp0
 70
     1
102
RTVSPropertyOp1
 70
     1
102
RTVSPropertyOp2
 70
     1
102
RTVSPropertyOp3
 70
     1
102
RTVSPropertyOp4
 70
     1
102
RTVSPropertyOp5
 70
     1
102
RTVSPropertyOp6
 70
     1
102
RTVSPropertyOp7
 70
     1
102
RTVSPropertyOp8
 70
     1
102
RTVSPropertyOp9
 70
     1
102
RTVSPropertyOp10
 70
     1
102
RTVSPropertyOp11
 70
     1
102
RTVSPropertyOp12
 70
     1
102
RTVSPropertyOp13
 70
     1
102
RTVSPropertyOp14
 70
     1
102
RTVSPropertyOp15
 70
     1
102
RTVSPropertyOp16
 70
     1
102
RTVSPropertyOp17
 70
     1
102
RTVSPropertyOp18
 70
     1
102
RTVSPropertyOp19
 70
     1
102
RTVSPropertyOp20
 70
     1
102
RTVSPropertyOp21
 70
     1
102
RTVSPropertyOp22
 70
     1
102
RTVSPropertyOp23
 70
     1
102
RTVSPropertyOp24
 70
     1
102
RTVSPropertyOp25
 70
     1
102
RTVSPropertyOp26
 70
     1
102
RTVSPropertyOp27
 70
     1
102
RTVSPropertyOp28
 70
     1
102
RTVSPropertyOp29
 70
     1
102
RTVSPropertyOp30
 70
     1
102
RTVSPropertyOp31
 70
     1
102
RTVSPropertyOp32
 70
     1
102
RTVSPropertyOp33
 70
     1
102
RTVSPropertyOp34
 70
     1
102
RTVSPropertyOp35
 70
     1
102
RTVSPropertyOp36
 70
     1
102
RTVSPropertyOp37
 70
     1
102
RTVSPropertyOp38
 70
     1
102
RTVSPropertyOp39
 70
     1
102
RTVSPropertyOp40
 70
     1
102
RTVSPropertyOp41
 70
     1
102
RTVSPropertyOp42
 70
     1
102
RTVSPropertyOp43
 70
     1
102
RTVSPropertyOp44
 70
     1
102
RTVSPropertyOp45
 70
     1
102
RTVSPropertyOp46
 70
     1
102
RTVSPropertyOp47
 70
     1
102
RTVSPropertyOp48
 70
     1
102
RTVSPropertyOp49
 70
     1
102
RTVSPropertyOp50
 70
     1
102
RTVSPropertyOp51
 70
     0
102
RTVSPropertyOp52
 70
     0
102
RTVSPropertyOp53
 70
     1
102
RTVSPropertyOp54
 70
     1
102
RTVSPropertyOp55
 70
     1
102
RTVSPropertyOp56
 70
     1
102
RTVSPropertyOp57
 70
     1
102
RTVSPropertyOp58
 70
     1
102
RTVSPropertyOp59
 70
     1
102
RTVSPropertyOp60
 70
     1
102
RTVSPropertyOp61
 70
     1
102
RTVSPropertyOp62
 70
     1
  0
XRECORD
  5
872C
102
{ACAD_REACTORS
330
872B
102
}
330
872B
100
AcDbXrecord
280
     1
102
RTVSPost2010Prop28
280
     0
102
RTVSPost2010PropOp28
 70
     1
102
RTVSPost2010Prop29
280
     1
102
RTVSPost2010PropOp29
 70
     1
102
RTVSPost2010Prop30
280
     1
102
RTVSPost2010PropOp30
 70
     1
102
RTVSPost2010Prop31
280
     0
102
RTVSPost2010PropOp31
 70
     1
102
RTVSPost2010Prop32
280
     0
102
RTVSPost2010PropOp32
 70
     1
102
RTVSPost2010Prop33
280
     0
102
RTVSPost2010PropOp33
 70
     1
102
RTVSPost2010Prop34
280
     0
102
RTVSPost2010PropOp34
 70
     1
102
RTVSPost2010Prop35
280
     0
102
RTVSPost2010PropOp35
 70
     1
102
RTVSPost2010Prop36
280
     0
102
RTVSPost2010PropOp36
 70
     1
102
RTVSPost2010Prop37
 90
       50
102
RTVSPost2010PropOp37
 70
     1
102
RTVSPost2010Prop38
140
0.0
102
RTVSPost2010PropOp38
 70
     1
102
RTVSPost2010Prop39
140
1.0
102
RTVSPost2010PropOp39
 70
     1
102
RTVSPost2010Prop40
 90
        0
102
RTVSPost2010PropOp40
 70
     1
102
RTVSPost2010Prop41ColorIndex
 90
       18
102
RTVSPost2010Prop41ColorRGB
 90
        0
102
RTVSPost2010PropOp41
 70
     1
102
RTVSPost2010Prop42
 90
       50
102
RTVSPost2010PropOp42
 70
     1
102
RTVSPost2010Prop43
 90
        3
102
RTVSPost2010PropOp43
 70
     1
102
RTVSPost2010Prop44ColorIndex
 90
        5
102
RTVSPost2010Prop44ColorRGB
 90
      255
102
RTVSPost2010PropOp44
 70
     1
102
RTVSPost2010Prop45
280
     0
102
RTVSPost2010PropOp45
 70
     1
102
RTVSPost2010Prop46
 90
       50
102
RTVSPost2010PropOp46
 70
     1
102
RTVSPost2010Prop47
 90
       50
102
RTVSPost2010PropOp47
 70
     1
102
RTVSPost2010Prop48
 90
       50
102
RTVSPost2010PropOp48
 70
     1
102
RTVSPost2010Prop49
280
     0
102
RTVSPost2010PropOp49
 70
     1
102
RTVSPost2010Prop50
 90
       50
102
RTVSPost2010PropOp50
 70
     1
102
RTVSPost2010Prop51ColorIndex
 90
      256
102
RTVSPost2010Prop51ColorRGB
 90
-16777216
102
RTVSPost2010PropOp51
 70
     0
102
RTVSPost2010Prop52
140
1.0
102
RTVSPost2010PropOp52
 70
     0
102
RTVSPost2010Prop53
 90
        2
102
RTVSPost2010PropOp53
 70
     1
102
RTVSPost2010Prop54
  1
strokes_ogs.tif
102
RTVSPost2010PropOp54
 70
     1
102
RTVSPost2010Prop55
280
     0
102
RTVSPost2010PropOp55
 70
     1
102
RTVSPost2010Prop56
140
1.0
102
RTVSPost2010PropOp56
 70
     1
102
RTVSPost2010Prop57
140
1.0
102
RTVSPost2010PropOp57
 70
     1
102
RTVSPropertyOp0
 70
     1
102
RTVSPropertyOp1
 70
     1
102
RTVSPropertyOp2
 70
     1
102
RTVSPropertyOp3
 70
     1
102
RTVSPropertyOp4
 70
     1
102
RTVSPropertyOp5
 70
     1
102
RTVSPropertyOp6
 70
     1
102
RTVSPropertyOp7
 70
     1
102
RTVSPropertyOp8
 70
     1
102
RTVSPropertyOp9
 70
     1
102
RTVSPropertyOp10
 70
     1
102
RTVSPropertyOp11
 70
     1
102
RTVSPropertyOp12
 70
     1
102
RTVSPropertyOp13
 70
     1
102
RTVSPropertyOp14
 70
     1
102
RTVSPropertyOp15
 70
     1
102
RTVSPropertyOp16
 70
     1
102
RTVSPropertyOp17
 70
     1
102
RTVSPropertyOp18
 70
     1
102
RTVSPropertyOp19
 70
     1
102
RTVSPropertyOp20
 70
     1
102
RTVSPropertyOp21
 70
     1
102
RTVSPropertyOp22
 70
     1
102
RTVSPropertyOp23
 70
     1
102
RTVSPropertyOp24
 70
     1
102
RTVSPropertyOp25
 70
     1
102
RTVSPropertyOp26
 70
     1
102
RTVSPropertyOp27
 70
     1
102
RTVSPropertyOp28
 70
     1
102
RTVSPropertyOp29
 70
     1
102
RTVSPropertyOp30
 70
     1
102
RTVSPropertyOp31
 70
     1
102
RTVSPropertyOp32
 70
     1
102
RTVSPropertyOp33
 70
     1
102
RTVSPropertyOp34
 70
     1
102
RTVSPropertyOp35
 70
     1
102
RTVSPropertyOp36
 70
     1
102
RTVSPropertyOp37
 70
     1
102
RTVSPropertyOp38
 70
     1
102
RTVSPropertyOp39
 70
     1
102
RTVSPropertyOp40
 70
     1
102
RTVSPropertyOp41
 70
     1
102
RTVSPropertyOp42
 70
     1
102
RTVSPropertyOp43
 70
     1
102
RTVSPropertyOp44
 70
     1
102
RTVSPropertyOp45
 70
     1
102
RTVSPropertyOp46
 70
     1
102
RTVSPropertyOp47
 70
     1
102
RTVSPropertyOp48
 70
     1
102
RTVSPropertyOp49
 70
     1
102
RTVSPropertyOp50
 70
     1
102
RTVSPropertyOp51
 70
     0
102
RTVSPropertyOp52
 70
     0
102
RTVSPropertyOp53
 70
     1
102
RTVSPropertyOp54
 70
     1
102
RTVSPropertyOp55
 70
     1
102
RTVSPropertyOp56
 70
     1
102
RTVSPropertyOp57
 70
     1
102
RTVSPropertyOp58
 70
     1
102
RTVSPropertyOp59
 70
     1
102
RTVSPropertyOp60
 70
     1
102
RTVSPropertyOp61
 70
     1
102
RTVSPropertyOp62
 70
     1
  0
XRECORD
  5
872E
102
{ACAD_REACTORS
330
872D
102
}
330
872D
100
AcDbXrecord
280
     1
102
RTVSPost2010Prop28
280
     0
102
RTVSPost2010PropOp28
 70
     1
102
RTVSPost2010Prop29
280
     1
102
RTVSPost2010PropOp29
 70
     1
102
RTVSPost2010Prop30
280
     1
102
RTVSPost2010PropOp30
 70
     1
102
RTVSPost2010Prop31
280
     0
102
RTVSPost2010PropOp31
 70
     1
102
RTVSPost2010Prop32
280
     0
102
RTVSPost2010PropOp32
 70
     1
102
RTVSPost2010Prop33
280
     0
102
RTVSPost2010PropOp33
 70
     1
102
RTVSPost2010Prop34
280
     0
102
RTVSPost2010PropOp34
 70
     1
102
RTVSPost2010Prop35
280
     0
102
RTVSPost2010PropOp35
 70
     1
102
RTVSPost2010Prop36
280
     0
102
RTVSPost2010PropOp36
 70
     1
102
RTVSPost2010Prop37
 90
       50
102
RTVSPost2010PropOp37
 70
     1
102
RTVSPost2010Prop38
140
0.0
102
RTVSPost2010PropOp38
 70
     1
102
RTVSPost2010Prop39
140
1.0
102
RTVSPost2010PropOp39
 70
     1
102
RTVSPost2010Prop40
 90
        0
102
RTVSPost2010PropOp40
 70
     1
102
RTVSPost2010Prop41ColorIndex
 90
       18
102
RTVSPost2010Prop41ColorRGB
 90
        0
102
RTVSPost2010PropOp41
 70
     1
102
RTVSPost2010Prop42
 90
       50
102
RTVSPost2010PropOp42
 70
     1
102
RTVSPost2010Prop43
 90
        3
102
RTVSPost2010PropOp43
 70
     1
102
RTVSPost2010Prop44ColorIndex
 90
        5
102
RTVSPost2010Prop44ColorRGB
 90
      255
102
RTVSPost2010PropOp44
 70
     1
102
RTVSPost2010Prop45
280
     0
102
RTVSPost2010PropOp45
 70
     1
102
RTVSPost2010Prop46
 90
       50
102
RTVSPost2010PropOp46
 70
     1
102
RTVSPost2010Prop47
 90
       50
102
RTVSPost2010PropOp47
 70
     1
102
RTVSPost2010Prop48
 90
       50
102
RTVSPost2010PropOp48
 70
     1
102
RTVSPost2010Prop49
280
     0
102
RTVSPost2010PropOp49
 70
     1
102
RTVSPost2010Prop50
 90
       50
102
RTVSPost2010PropOp50
 70
     1
102
RTVSPost2010Prop51ColorIndex
 90
      256
102
RTVSPost2010Prop51ColorRGB
 90
-16777216
102
RTVSPost2010PropOp51
 70
     0
102
RTVSPost2010Prop52
140
1.0
102
RTVSPost2010PropOp52
 70
     0
102
RTVSPost2010Prop53
 90
        2
102
RTVSPost2010PropOp53
 70
     1
102
RTVSPost2010Prop54
  1
strokes_ogs.tif
102
RTVSPost2010PropOp54
 70
     1
102
RTVSPost2010Prop55
280
     0
102
RTVSPost2010PropOp55
 70
     1
102
RTVSPost2010Prop56
140
1.0
102
RTVSPost2010PropOp56
 70
     1
102
RTVSPost2010Prop57
140
1.0
102
RTVSPost2010PropOp57
 70
     1
102
RTVSPropertyOp0
 70
     1
102
RTVSPropertyOp1
 70
     1
102
RTVSPropertyOp2
 70
     1
102
RTVSPropertyOp3
 70
     1
102
RTVSPropertyOp4
 70
     1
102
RTVSPropertyOp5
 70
     1
102
RTVSPropertyOp6
 70
     1
102
RTVSPropertyOp7
 70
     1
102
RTVSPropertyOp8
 70
     1
102
RTVSPropertyOp9
 70
     1
102
RTVSPropertyOp10
 70
     1
102
RTVSPropertyOp11
 70
     1
102
RTVSPropertyOp12
 70
     1
102
RTVSPropertyOp13
 70
     1
102
RTVSPropertyOp14
 70
     1
102
RTVSPropertyOp15
 70
     1
102
RTVSPropertyOp16
 70
     1
102
RTVSPropertyOp17
 70
     1
102
RTVSPropertyOp18
 70
     1
102
RTVSPropertyOp19
 70
     1
102
RTVSPropertyOp20
 70
     1
102
RTVSPropertyOp21
 70
     1
102
RTVSPropertyOp22
 70
     1
102
RTVSPropertyOp23
 70
     1
102
RTVSPropertyOp24
 70
     1
102
RTVSPropertyOp25
 70
     1
102
RTVSPropertyOp26
 70
     1
102
RTVSPropertyOp27
 70
     1
102
RTVSPropertyOp28
 70
     1
102
RTVSPropertyOp29
 70
     1
102
RTVSPropertyOp30
 70
     1
102
RTVSPropertyOp31
 70
     1
102
RTVSPropertyOp32
 70
     1
102
RTVSPropertyOp33
 70
     1
102
RTVSPropertyOp34
 70
     1
102
RTVSPropertyOp35
 70
     1
102
RTVSPropertyOp36
 70
     1
102
RTVSPropertyOp37
 70
     1
102
RTVSPropertyOp38
 70
     1
102
RTVSPropertyOp39
 70
     1
102
RTVSPropertyOp40
 70
     1
102
RTVSPropertyOp41
 70
     1
102
RTVSPropertyOp42
 70
     1
102
RTVSPropertyOp43
 70
     1
102
RTVSPropertyOp44
 70
     1
102
RTVSPropertyOp45
 70
     1
102
RTVSPropertyOp46
 70
     1
102
RTVSPropertyOp47
 70
     1
102
RTVSPropertyOp48
 70
     1
102
RTVSPropertyOp49
 70
     1
102
RTVSPropertyOp50
 70
     1
102
RTVSPropertyOp51
 70
     0
102
RTVSPropertyOp52
 70
     0
102
RTVSPropertyOp53
 70
     1
102
RTVSPropertyOp54
 70
     1
102
RTVSPropertyOp55
 70
     1
102
RTVSPropertyOp56
 70
     1
102
RTVSPropertyOp57
 70
     1
102
RTVSPropertyOp58
 70
     1
102
RTVSPropertyOp59
 70
     1
102
RTVSPropertyOp60
 70
     1
102
RTVSPropertyOp61
 70
     1
102
RTVSPropertyOp62
 70
     1
  0
XRECORD
  5
8724
102
{ACAD_REACTORS
330
8723
102
}
330
8723
100
AcDbXrecord
280
     1
102
RTVSPost2010Prop28
280
     0
102
RTVSPost2010PropOp28
 70
     1
102
RTVSPost2010Prop29
280
     1
102
RTVSPost2010PropOp29
 70
     1
102
RTVSPost2010Prop30
280
     1
102
RTVSPost2010PropOp30
 70
     1
102
RTVSPost2010Prop31
280
     0
102
RTVSPost2010PropOp31
 70
     1
102
RTVSPost2010Prop32
280
     0
102
RTVSPost2010PropOp32
 70
     1
102
RTVSPost2010Prop33
280
     0
102
RTVSPost2010PropOp33
 70
     1
102
RTVSPost2010Prop34
280
     0
102
RTVSPost2010PropOp34
 70
     1
102
RTVSPost2010Prop35
280
     0
102
RTVSPost2010PropOp35
 70
     1
102
RTVSPost2010Prop36
280
     0
102
RTVSPost2010PropOp36
 70
     1
102
RTVSPost2010Prop37
 90
       50
102
RTVSPost2010PropOp37
 70
     1
102
RTVSPost2010Prop38
140
0.0
102
RTVSPost2010PropOp38
 70
     1
102
RTVSPost2010Prop39
140
1.0
102
RTVSPost2010PropOp39
 70
     1
102
RTVSPost2010Prop40
 90
        0
102
RTVSPost2010PropOp40
 70
     1
102
RTVSPost2010Prop41ColorIndex
 90
       18
102
RTVSPost2010Prop41ColorRGB
 90
        0
102
RTVSPost2010PropOp41
 70
     1
102
RTVSPost2010Prop42
 90
       50
102
RTVSPost2010PropOp42
 70
     1
102
RTVSPost2010Prop43
 90
        3
102
RTVSPost2010PropOp43
 70
     1
102
RTVSPost2010Prop44ColorIndex
 90
        5
102
RTVSPost2010Prop44ColorRGB
 90
      255
102
RTVSPost2010PropOp44
 70
     1
102
RTVSPost2010Prop45
280
     0
102
RTVSPost2010PropOp45
 70
     1
102
RTVSPost2010Prop46
 90
       50
102
RTVSPost2010PropOp46
 70
     1
102
RTVSPost2010Prop47
 90
       50
102
RTVSPost2010PropOp47
 70
     1
102
RTVSPost2010Prop48
 90
       50
102
RTVSPost2010PropOp48
 70
     1
102
RTVSPost2010Prop49
280
     0
102
RTVSPost2010PropOp49
 70
     1
102
RTVSPost2010Prop50
 90
       50
102
RTVSPost2010PropOp50
 70
     1
102
RTVSPost2010Prop51ColorIndex
 90
      256
102
RTVSPost2010Prop51ColorRGB
 90
-16777216
102
RTVSPost2010PropOp51
 70
     0
102
RTVSPost2010Prop52
140
1.0
102
RTVSPost2010PropOp52
 70
     0
102
RTVSPost2010Prop53
 90
        2
102
RTVSPost2010PropOp53
 70
     1
102
RTVSPost2010Prop54
  1
strokes_ogs.tif
102
RTVSPost2010PropOp54
 70
     1
102
RTVSPost2010Prop55
280
     0
102
RTVSPost2010PropOp55
 70
     1
102
RTVSPost2010Prop56
140
1.0
102
RTVSPost2010PropOp56
 70
     1
102
RTVSPost2010Prop57
140
1.0
102
RTVSPost2010PropOp57
 70
     1
102
RTVSPropertyOp0
 70
     1
102
RTVSPropertyOp1
 70
     1
102
RTVSPropertyOp2
 70
     1
102
RTVSPropertyOp3
 70
     1
102
RTVSPropertyOp4
 70
     1
102
RTVSPropertyOp5
 70
     1
102
RTVSPropertyOp6
 70
     1
102
RTVSPropertyOp7
 70
     1
102
RTVSPropertyOp8
 70
     1
102
RTVSPropertyOp9
 70
     1
102
RTVSPropertyOp10
 70
     1
102
RTVSPropertyOp11
 70
     1
102
RTVSPropertyOp12
 70
     1
102
RTVSPropertyOp13
 70
     1
102
RTVSPropertyOp14
 70
     1
102
RTVSPropertyOp15
 70
     1
102
RTVSPropertyOp16
 70
     1
102
RTVSPropertyOp17
 70
     1
102
RTVSPropertyOp18
 70
     1
102
RTVSPropertyOp19
 70
     1
102
RTVSPropertyOp20
 70
     1
102
RTVSPropertyOp21
 70
     1
102
RTVSPropertyOp22
 70
     1
102
RTVSPropertyOp23
 70
     1
102
RTVSPropertyOp24
 70
     1
102
RTVSPropertyOp25
 70
     1
102
RTVSPropertyOp26
 70
     1
102
RTVSPropertyOp27
 70
     1
102
RTVSPropertyOp28
 70
     1
102
RTVSPropertyOp29
 70
     1
102
RTVSPropertyOp30
 70
     1
102
RTVSPropertyOp31
 70
     1
102
RTVSPropertyOp32
 70
     1
102
RTVSPropertyOp33
 70
     1
102
RTVSPropertyOp34
 70
     1
102
RTVSPropertyOp35
 70
     1
102
RTVSPropertyOp36
 70
     1
102
RTVSPropertyOp37
 70
     1
102
RTVSPropertyOp38
 70
     1
102
RTVSPropertyOp39
 70
     1
102
RTVSPropertyOp40
 70
     1
102
RTVSPropertyOp41
 70
     1
102
RTVSPropertyOp42
 70
     1
102
RTVSPropertyOp43
 70
     1
102
RTVSPropertyOp44
 70
     1
102
RTVSPropertyOp45
 70
     1
102
RTVSPropertyOp46
 70
     1
102
RTVSPropertyOp47
 70
     1
102
RTVSPropertyOp48
 70
     1
102
RTVSPropertyOp49
 70
     1
102
RTVSPropertyOp50
 70
     1
102
RTVSPropertyOp51
 70
     0
102
RTVSPropertyOp52
 70
     0
102
RTVSPropertyOp53
 70
     1
102
RTVSPropertyOp54
 70
     1
102
RTVSPropertyOp55
 70
     1
102
RTVSPropertyOp56
 70
     1
102
RTVSPropertyOp57
 70
     1
102
RTVSPropertyOp58
 70
     1
102
RTVSPropertyOp59
 70
     1
102
RTVSPropertyOp60
 70
     1
102
RTVSPropertyOp61
 70
     1
102
RTVSPropertyOp62
 70
     1
  0
XRECORD
  5
8718
102
{ACAD_REACTORS
330
8717
102
}
330
8717
100
AcDbXrecord
280
     1
102
RTVSPost2010Prop28
280
     0
102
RTVSPost2010PropOp28
 70
     1
102
RTVSPost2010Prop29
280
     1
102
RTVSPost2010PropOp29
 70
     1
102
RTVSPost2010Prop30
280
     1
102
RTVSPost2010PropOp30
 70
     1
102
RTVSPost2010Prop31
280
     0
102
RTVSPost2010PropOp31
 70
     1
102
RTVSPost2010Prop32
280
     0
102
RTVSPost2010PropOp32
 70
     1
102
RTVSPost2010Prop33
280
     0
102
RTVSPost2010PropOp33
 70
     1
102
RTVSPost2010Prop34
280
     0
102
RTVSPost2010PropOp34
 70
     1
102
RTVSPost2010Prop35
280
     0
102
RTVSPost2010PropOp35
 70
     1
102
RTVSPost2010Prop36
280
     0
102
RTVSPost2010PropOp36
 70
     1
102
RTVSPost2010Prop37
 90
       50
102
RTVSPost2010PropOp37
 70
     1
102
RTVSPost2010Prop38
140
0.0
102
RTVSPost2010PropOp38
 70
     1
102
RTVSPost2010Prop39
140
1.0
102
RTVSPost2010PropOp39
 70
     1
102
RTVSPost2010Prop40
 90
        0
102
RTVSPost2010PropOp40
 70
     1
102
RTVSPost2010Prop41ColorIndex
 90
       18
102
RTVSPost2010Prop41ColorRGB
 90
        0
102
RTVSPost2010PropOp41
 70
     1
102
RTVSPost2010Prop42
 90
       50
102
RTVSPost2010PropOp42
 70
     1
102
RTVSPost2010Prop43
 90
        3
102
RTVSPost2010PropOp43
 70
     1
102
RTVSPost2010Prop44ColorIndex
 90
        5
102
RTVSPost2010Prop44ColorRGB
 90
      255
102
RTVSPost2010PropOp44
 70
     1
102
RTVSPost2010Prop45
280
     0
102
RTVSPost2010PropOp45
 70
     1
102
RTVSPost2010Prop46
 90
       50
102
RTVSPost2010PropOp46
 70
     1
102
RTVSPost2010Prop47
 90
       50
102
RTVSPost2010PropOp47
 70
     1
102
RTVSPost2010Prop48
 90
       50
102
RTVSPost2010PropOp48
 70
     1
102
RTVSPost2010Prop49
280
     0
102
RTVSPost2010PropOp49
 70
     1
102
RTVSPost2010Prop50
 90
       50
102
RTVSPost2010PropOp50
 70
     1
102
RTVSPost2010Prop51ColorIndex
 90
      256
102
RTVSPost2010Prop51ColorRGB
 90
-16777216
102
RTVSPost2010PropOp51
 70
     0
102
RTVSPost2010Prop52
140
1.0
102
RTVSPost2010PropOp52
 70
     0
102
RTVSPost2010Prop53
 90
        2
102
RTVSPost2010PropOp53
 70
     1
102
RTVSPost2010Prop54
  1
strokes_ogs.tif
102
RTVSPost2010PropOp54
 70
     1
102
RTVSPost2010Prop55
280
     0
102
RTVSPost2010PropOp55
 70
     1
102
RTVSPost2010Prop56
140
1.0
102
RTVSPost2010PropOp56
 70
     1
102
RTVSPost2010Prop57
140
1.0
102
RTVSPost2010PropOp57
 70
     1
102
RTVSPropertyOp0
 70
     1
102
RTVSPropertyOp1
 70
     1
102
RTVSPropertyOp2
 70
     1
102
RTVSPropertyOp3
 70
     1
102
RTVSPropertyOp4
 70
     1
102
RTVSPropertyOp5
 70
     1
102
RTVSPropertyOp6
 70
     1
102
RTVSPropertyOp7
 70
     1
102
RTVSPropertyOp8
 70
     1
102
RTVSPropertyOp9
 70
     1
102
RTVSPropertyOp10
 70
     1
102
RTVSPropertyOp11
 70
     1
102
RTVSPropertyOp12
 70
     1
102
RTVSPropertyOp13
 70
     1
102
RTVSPropertyOp14
 70
     1
102
RTVSPropertyOp15
 70
     1
102
RTVSPropertyOp16
 70
     1
102
RTVSPropertyOp17
 70
     1
102
RTVSPropertyOp18
 70
     1
102
RTVSPropertyOp19
 70
     1
102
RTVSPropertyOp20
 70
     1
102
RTVSPropertyOp21
 70
     1
102
RTVSPropertyOp22
 70
     1
102
RTVSPropertyOp23
 70
     1
102
RTVSPropertyOp24
 70
     1
102
RTVSPropertyOp25
 70
     1
102
RTVSPropertyOp26
 70
     1
102
RTVSPropertyOp27
 70
     1
102
RTVSPropertyOp28
 70
     1
102
RTVSPropertyOp29
 70
     1
102
RTVSPropertyOp30
 70
     1
102
RTVSPropertyOp31
 70
     1
102
RTVSPropertyOp32
 70
     1
102
RTVSPropertyOp33
 70
     1
102
RTVSPropertyOp34
 70
     1
102
RTVSPropertyOp35
 70
     1
102
RTVSPropertyOp36
 70
     1
102
RTVSPropertyOp37
 70
     1
102
RTVSPropertyOp38
 70
     1
102
RTVSPropertyOp39
 70
     1
102
RTVSPropertyOp40
 70
     1
102
RTVSPropertyOp41
 70
     1
102
RTVSPropertyOp42
 70
     1
102
RTVSPropertyOp43
 70
     1
102
RTVSPropertyOp44
 70
     1
102
RTVSPropertyOp45
 70
     1
102
RTVSPropertyOp46
 70
     1
102
RTVSPropertyOp47
 70
     1
102
RTVSPropertyOp48
 70
     1
102
RTVSPropertyOp49
 70
     1
102
RTVSPropertyOp50
 70
     1
102
RTVSPropertyOp51
 70
     0
102
RTVSPropertyOp52
 70
     0
102
RTVSPropertyOp53
 70
     1
102
RTVSPropertyOp54
 70
     1
102
RTVSPropertyOp55
 70
     1
102
RTVSPropertyOp56
 70
     1
102
RTVSPropertyOp57
 70
     1
102
RTVSPropertyOp58
 70
     1
102
RTVSPropertyOp59
 70
     1
102
RTVSPropertyOp60
 70
     1
102
RTVSPropertyOp61
 70
     1
102
RTVSPropertyOp62
 70
     1
  0
XRECORD
  5
8730
102
{ACAD_REACTORS
330
872F
102
}
330
872F
100
AcDbXrecord
280
     1
102
RTVSPost2010Prop28
280
     0
102
RTVSPost2010PropOp28
 70
     1
102
RTVSPost2010Prop29
280
     1
102
RTVSPost2010PropOp29
 70
     1
102
RTVSPost2010Prop30
280
     1
102
RTVSPost2010PropOp30
 70
     1
102
RTVSPost2010Prop31
280
     0
102
RTVSPost2010PropOp31
 70
     1
102
RTVSPost2010Prop32
280
     0
102
RTVSPost2010PropOp32
 70
     1
102
RTVSPost2010Prop33
280
     0
102
RTVSPost2010PropOp33
 70
     1
102
RTVSPost2010Prop34
280
     0
102
RTVSPost2010PropOp34
 70
     1
102
RTVSPost2010Prop35
280
     0
102
RTVSPost2010PropOp35
 70
     1
102
RTVSPost2010Prop36
280
     0
102
RTVSPost2010PropOp36
 70
     1
102
RTVSPost2010Prop37
 90
       50
102
RTVSPost2010PropOp37
 70
     1
102
RTVSPost2010Prop38
140
0.0
102
RTVSPost2010PropOp38
 70
     1
102
RTVSPost2010Prop39
140
1.0
102
RTVSPost2010PropOp39
 70
     1
102
RTVSPost2010Prop40
 90
        0
102
RTVSPost2010PropOp40
 70
     1
102
RTVSPost2010Prop41ColorIndex
 90
       18
102
RTVSPost2010Prop41ColorRGB
 90
        0
102
RTVSPost2010PropOp41
 70
     1
102
RTVSPost2010Prop42
 90
       50
102
RTVSPost2010PropOp42
 70
     1
102
RTVSPost2010Prop43
 90
        3
102
RTVSPost2010PropOp43
 70
     1
102
RTVSPost2010Prop44ColorIndex
 90
        5
102
RTVSPost2010Prop44ColorRGB
 90
      255
102
RTVSPost2010PropOp44
 70
     1
102
RTVSPost2010Prop45
280
     0
102
RTVSPost2010PropOp45
 70
     1
102
RTVSPost2010Prop46
 90
       50
102
RTVSPost2010PropOp46
 70
     1
102
RTVSPost2010Prop47
 90
       50
102
RTVSPost2010PropOp47
 70
     1
102
RTVSPost2010Prop48
 90
       50
102
RTVSPost2010PropOp48
 70
     1
102
RTVSPost2010Prop49
280
     0
102
RTVSPost2010PropOp49
 70
     1
102
RTVSPost2010Prop50
 90
       50
102
RTVSPost2010PropOp50
 70
     1
102
RTVSPost2010Prop51ColorIndex
 90
      256
102
RTVSPost2010Prop51ColorRGB
 90
-16777216
102
RTVSPost2010PropOp51
 70
     0
102
RTVSPost2010Prop52
140
1.0
102
RTVSPost2010PropOp52
 70
     0
102
RTVSPost2010Prop53
 90
        2
102
RTVSPost2010PropOp53
 70
     1
102
RTVSPost2010Prop54
  1
strokes_ogs.tif
102
RTVSPost2010PropOp54
 70
     1
102
RTVSPost2010Prop55
280
     0
102
RTVSPost2010PropOp55
 70
     1
102
RTVSPost2010Prop56
140
1.0
102
RTVSPost2010PropOp56
 70
     1
102
RTVSPost2010Prop57
140
1.0
102
RTVSPost2010PropOp57
 70
     1
102
RTVSPropertyOp0
 70
     1
102
RTVSPropertyOp1
 70
     1
102
RTVSPropertyOp2
 70
     1
102
RTVSPropertyOp3
 70
     1
102
RTVSPropertyOp4
 70
     1
102
RTVSPropertyOp5
 70
     1
102
RTVSPropertyOp6
 70
     1
102
RTVSPropertyOp7
 70
     1
102
RTVSPropertyOp8
 70
     1
102
RTVSPropertyOp9
 70
     1
102
RTVSPropertyOp10
 70
     1
102
RTVSPropertyOp11
 70
     1
102
RTVSPropertyOp12
 70
     1
102
RTVSPropertyOp13
 70
     1
102
RTVSPropertyOp14
 70
     1
102
RTVSPropertyOp15
 70
     1
102
RTVSPropertyOp16
 70
     1
102
RTVSPropertyOp17
 70
     1
102
RTVSPropertyOp18
 70
     1
102
RTVSPropertyOp19
 70
     1
102
RTVSPropertyOp20
 70
     1
102
RTVSPropertyOp21
 70
     1
102
RTVSPropertyOp22
 70
     1
102
RTVSPropertyOp23
 70
     1
102
RTVSPropertyOp24
 70
     1
102
RTVSPropertyOp25
 70
     1
102
RTVSPropertyOp26
 70
     1
102
RTVSPropertyOp27
 70
     1
102
RTVSPropertyOp28
 70
     1
102
RTVSPropertyOp29
 70
     1
102
RTVSPropertyOp30
 70
     1
102
RTVSPropertyOp31
 70
     1
102
RTVSPropertyOp32
 70
     1
102
RTVSPropertyOp33
 70
     1
102
RTVSPropertyOp34
 70
     1
102
RTVSPropertyOp35
 70
     1
102
RTVSPropertyOp36
 70
     1
102
RTVSPropertyOp37
 70
     1
102
RTVSPropertyOp38
 70
     1
102
RTVSPropertyOp39
 70
     1
102
RTVSPropertyOp40
 70
     1
102
RTVSPropertyOp41
 70
     1
102
RTVSPropertyOp42
 70
     1
102
RTVSPropertyOp43
 70
     1
102
RTVSPropertyOp44
 70
     1
102
RTVSPropertyOp45
 70
     1
102
RTVSPropertyOp46
 70
     1
102
RTVSPropertyOp47
 70
     1
102
RTVSPropertyOp48
 70
     1
102
RTVSPropertyOp49
 70
     1
102
RTVSPropertyOp50
 70
     1
102
RTVSPropertyOp51
 70
     0
102
RTVSPropertyOp52
 70
     0
102
RTVSPropertyOp53
 70
     1
102
RTVSPropertyOp54
 70
     1
102
RTVSPropertyOp55
 70
     1
102
RTVSPropertyOp56
 70
     1
102
RTVSPropertyOp57
 70
     1
102
RTVSPropertyOp58
 70
     1
102
RTVSPropertyOp59
 70
     1
102
RTVSPropertyOp60
 70
     1
102
RTVSPropertyOp61
 70
     1
102
RTVSPropertyOp62
 70
     1
  0
ENDSEC
  0
EOF
