  0
SECTION
  2
HEADER
  9
$ACADVER
  1
AC1015
  9
$ACADMAINTVER
 70
    20
  9
$DWGCODEPAGE
  3
ANSI_932
  9
$INSBASE
 10
0.0
 20
0.0
 30
0.0
  9
$EXTMIN
 10
-0.2242870864283759
 20
-0.3150699547441036
 30
-0.0015258207003583
  9
$EXTMAX
 10
7350.224321312532
 20
10325.31511803427
 30
0.0000000349246037
  9
$LIMMIN
 10
0.0
 20
0.0
  9
$LIMMAX
 10
297.0
 20
210.0
  9
$ORTHOMODE
 70
     1
  9
$REGENMODE
 70
     1
  9
$FILLMODE
 70
     0
  9
$QTEXTMODE
 70
     0
  9
$MIRRTEXT
 70
     1
  9
$LTSCALE
 40
100.0
  9
$ATTMODE
 70
     1
  9
$TEXTSIZE
 40
180.0
  9
$TRACEWID
 40
0.05
  9
$TEXTSTYLE
  7
STANDARD
  9
$CLAYER
  8
3
  9
$CELTYPE
  6
ByLayer
  9
$CECOLOR
 62
   256
  9
$CELTSCALE
 40
1.0
  9
$DISPSILH
 70
     0
  9
$DIMSCALE
 40
35.0
  9
$DIMASZ
 40
2.0
  9
$DIMEXO
 40
0.5
  9
$DIMDLI
 40
10.0
  9
$DIMRND
 40
0.0
  9
$DIMDLE
 40
0.0
  9
$DIMEXE
 40
1.0
  9
$DIMTP
 40
1.0
  9
$DIMTM
 40
1.0
  9
$DIMTXT
 40
3.0
  9
$DIMCEN
 40
0.0
  9
$DIMTSZ
 40
0.0
  9
$DIMTOL
 70
     0
  9
$DIMLIM
 70
     0
  9
$DIMTIH
 70
     0
  9
$DIMTOH
 70
     0
  9
$DIMSE1
 70
     0
  9
$DIMSE2
 70
     0
  9
$DIMTAD
 70
     1
  9
$DIMZIN
 70
     8
  9
$DIMBLK
  1

  9
$DIMASO
 70
     1
  9
$DIMSHO
 70
     1
  9
$DIMPOST
  1

  9
$DIMAPOST
  1

  9
$DIMALT
 70
     0
  9
$DIMALTD
 70
     2
  9
$DIMALTF
 40
0.039
  9
$DIMLFAC
 40
1.0
  9
$DIMTOFL
 70
     1
  9
$DIMTVP
 40
0.0
  9
$DIMTIX
 70
     0
  9
$DIMSOXD
 70
     0
  9
$DIMSAH
 70
     1
  9
$DIMBLK1
  1
OPEN
  9
$DIMBLK2
  1
OPEN
  9
$DIMSTYLE
  2
IGA
  9
$DIMCLRD
 70
     0
  9
$DIMCLRE
 70
     0
  9
$DIMCLRT
 70
     0
  9
$DIMTFAC
 40
10.0
  9
$DIMGAP
 40
1.0
  9
$DIMJUST
 70
     0
  9
$DIMSD1
 70
     0
  9
$DIMSD2
 70
     0
  9
$DIMTOLJ
 70
     1
  9
$DIMTZIN
 70
     0
  9
$DIMALTZ
 70
     0
  9
$DIMALTTZ
 70
     0
  9
$DIMUPT
 70
     0
  9
$DIMDEC
 70
     4
  9
$DIMTDEC
 70
     4
  9
$DIMALTU
 70
     2
  9
$DIMALTTD
 70
     2
  9
$DIMTXSTY
  7
STANDARD
  9
$DIMAUNIT
 70
     0
  9
$DIMADEC
 70
     0
  9
$DIMALTRND
 40
0.0
  9
$DIMAZIN
 70
     0
  9
$DIMDSEP
 70
    46
  9
$DIMATFIT
 70
     3
  9
$DIMFRAC
 70
     0
  9
$DIMLDRBLK
  1
OPEN
  9
$DIMLUNIT
 70
     2
  9
$DIMLWD
 70
    -2
  9
$DIMLWE
 70
    -2
  9
$DIMTMOVE
 70
     0
  9
$LUNITS
 70
     2
  9
$LUPREC
 70
     3
  9
$SKETCHINC
 40
0.1
  9
$FILLETRAD
 40
50.0
  9
$AUNITS
 70
     0
  9
$AUPREC
 70
     0
  9
$MENU
  1
acad
  9
$ELEVATION
 40
0.0
  9
$PELEVATION
 40
0.0
  9
$THICKNESS
 40
0.0
  9
$LIMCHECK
 70
     0
  9
$CHAMFERA
 40
0.5
  9
$CHAMFERB
 40
0.5
  9
$CHAMFERC
 40
0.0
  9
$CHAMFERD
 40
0.0
  9
$SKPOLY
 70
     0
  9
$TDCREATE
 40
2451390.436124884
  9
$TDUCREATE
 40
2451390.061124884
  9
$TDUPDATE
 40
2460273.627855428
  9
$TDUUPDATE
 40
2460273.252855428
  9
$TDINDWG
 40
0.0779754051
  9
$TDUSRTIMER
 40
0.0779751736
  9
$USRTIMER
 70
     1
  9
$ANGBASE
 50
0.0
  9
$ANGDIR
 70
     0
  9
$PDMODE
 70
     0
  9
$PDSIZE
 40
0.0
  9
$PLINEWID
 40
0.0
  9
$SPLFRAME
 70
     0
  9
$SPLINETYPE
 70
     6
  9
$SPLINESEGS
 70
     8
  9
$HANDSEED
  5
873A
  9
$SURFTAB1
 70
     6
  9
$SURFTAB2
 70
     6
  9
$SURFTYPE
 70
     6
  9
$SURFU
 70
     6
  9
$SURFV
 70
     6
  9
$UCSBASE
  2

  9
$UCSNAME
  2

  9
$UCSORG
 10
0.0
 20
0.0
 30
0.0
  9
$UCSXDIR
 10
1.0
 20
0.0
 30
0.0
  9
$UCSYDIR
 10
0.0
 20
1.0
 30
0.0
  9
$UCSORTHOREF
  2

  9
$UCSORTHOVIEW
 70
     0
  9
$UCSORGTOP
 10
0.0
 20
0.0
 30
0.0
  9
$UCSORGBOTTOM
 10
0.0
 20
0.0
 30
0.0
  9
$UCSORGLEFT
 10
0.0
 20
0.0
 30
0.0
  9
$UCSORGRIGHT
 10
0.0
 20
0.0
 30
0.0
  9
$UCSORGFRONT
 10
0.0
 20
0.0
 30
0.0
  9
$UCSORGBACK
 10
0.0
 20
0.0
 30
0.0
  9
$PUCSBASE
  2

  9
$PUCSNAME
  2

  9
$PUCSORG
 10
0.0
 20
0.0
 30
0.0
  9
$PUCSXDIR
 10
1.0
 20
0.0
 30
0.0
  9
$PUCSYDIR
 10
0.0
 20
1.0
 30
0.0
  9
$PUCSORTHOREF
  2

  9
$PUCSORTHOVIEW
 70
     0
  9
$PUCSORGTOP
 10
0.0
 20
0.0
 30
0.0
  9
$PUCSORGBOTTOM
 10
0.0
 20
0.0
 30
0.0
  9
$PUCSORGLEFT
 10
0.0
 20
0.0
 30
0.0
  9
$PUCSORGRIGHT
 10
0.0
 20
0.0
 30
0.0
  9
$PUCSORGFRONT
 10
0.0
 20
0.0
 30
0.0
  9
$PUCSORGBACK
 10
0.0
 20
0.0
 30
0.0
  9
$USERI1
 70
     0
  9
$USERI2
 70
     0
  9
$USERI3
 70
     0
  9
$USERI4
 70
     0
  9
$USERI5
 70
     0
  9
$USERR1
 40
0.0
  9
$USERR2
 40
0.0
  9
$USERR3
 40
0.0
  9
$USERR4
 40
0.0
  9
$USERR5
 40
0.0
  9
$WORLDVIEW
 70
     1
  9
$SHADEDGE
 70
     3
  9
$SHADEDIF
 70
    70
  9
$TILEMODE
 70
     1
  9
$MAXACTVP
 70
    16
  9
$PINSBASE
 10
0.0
 20
0.0
 30
0.0
  9
$PLIMCHECK
 70
     0
  9
$PEXTMIN
 10
1.000000000000000E+20
 20
1.000000000000000E+20
 30
1.000000000000000E+20
  9
$PEXTMAX
 10
-1.000000000000000E+20
 20
-1.000000000000000E+20
 30
-1.000000000000000E+20
  9
$PLIMMIN
 10
0.0
 20
0.0
  9
$PLIMMAX
 10
12.0
 20
9.0
  9
$UNITMODE
 70
     0
  9
$VISRETAIN
 70
     0
  9
$PLINEGEN
 70
     0
  9
$PSLTSCALE
 70
     1
  9
$TREEDEPTH
 70
  3020
  9
$CMLSTYLE
  2
Standard
  9
$CMLJUST
 70
     0
  9
$CMLSCALE
 40
1.0
  9
$PROXYGRAPHICS
 70
     1
  9
$MEASUREMENT
 70
     0
  9
$CELWEIGHT
370
    -1
  9
$ENDCAPS
280
     0
  9
$JOINSTYLE
280
     0
  9
$LWDISPLAY
290
     0
  9
$INSUNITS
 70
     0
  9
$HYPERLINKBASE
  1

  9
$STYLESHEET
  1

  9
$XEDIT
290
     1
  9
$CEPSNTYPE
380
     0
  9
$PSTYLEMODE
290
     1
  9
$FINGERPRINTGUID
  2
{99859452-B245-49E2-B94D-B9D0E251BF99}
  9
$VERSIONGUID
  2
{4C93F1B0-E117-4F72-BBDB-2D3E09225433}
  9
$EXTNAMES
290
     1
  9
$PSVPSCALE
 40
0.0
  9
$OLESTARTUP
290
     0
  0
ENDSEC
  0
SECTION
  2
CLASSES
  0
CLASS
  1
ACDBDICTIONARYWDFLT
  2
AcDbDictionaryWithDefault
  3
ObjectDBX Classes
 90
        0
280
     0
281
     0
  0
CLASS
  1
MATERIAL
  2
AcDbMaterial
  3
ObjectDBX Classes
 90
     1153
280
     0
281
     0
  0
CLASS
  1
VISUALSTYLE
  2
AcDbVisualStyle
  3
ObjectDBX Classes
 90
     4095
280
     0
281
     0
  0
CLASS
  1
SCALE
  2
AcDbScale
  3
ObjectDBX Classes
 90
     1153
280
     0
281
     0
  0
CLASS
  1
TABLESTYLE
  2
AcDbTableStyle
  3
ObjectDBX Classes
 90
     4095
280
     0
281
     0
  0
CLASS
  1
MLEADERSTYLE
  2
AcDbMLeaderStyle
  3
ACDB_MLEADERSTYLE_CLASS
 90
     4095
280
     0
281
     0
  0
CLASS
  1
ACDBSECTIONVIEWSTYLE
  2
AcDbSectionViewStyle
  3
ObjectDBX Classes
 90
     1025
280
     0
281
     0
  0
CLASS
  1
ACDBDETAILVIEWSTYLE
  2
AcDbDetailViewStyle
  3
ObjectDBX Classes
 90
     1025
280
     0
281
     0
  0
CLASS
  1
SORTENTSTABLE
  2
AcDbSortentsTable
  3
ObjectDBX Classes
 90
        0
280
     0
281
     0
  0
CLASS
  1
DICTIONARYVAR
  2
AcDbDictionaryVar
  3
ObjectDBX Classes
 90
        0
280
     0
281
     0
  0
CLASS
  1
CELLSTYLEMAP
  2
AcDbCellStyleMap
  3
ObjectDBX Classes
 90
     1152
280
     0
281
     0
  0
CLASS
  1
ACDBPLACEHOLDER
  2
AcDbPlaceHolder
  3
ObjectDBX Classes
 90
        0
280
     0
281
     0
  0
CLASS
  1
LAYOUT
  2
AcDbLayout
  3
ObjectDBX Classes
 90
        0
280
     0
281
     0
  0
ENDSEC
  0
SECTION
  2
TABLES
  0
TABLE
  2
VPORT
  5
8353
330
0
100
AcDbSymbolTable
 70
     1
  0
VPORT
  5
83BF
330
8353
100
AcDbSymbolTableRecord
100
AcDbViewportTableRecord
  2
*ACTIVE
 70
     0
 10
0.0
 20
0.0
 11
1.0
 21
1.0
 12
3675.000017113053
 22
5162.500024039763
 13
0.0
 23
0.0
 14
10.0
 24
10.0
 15
10.0
 25
10.0
 16
0.0
 26
0.0
 36
1.0
 17
0.0
 27
0.0
 37
0.0
 40
10391.74948481712
 41
2.050213675213675
 42
50.0
 43
0.0
 44
0.0
 50
0.0
 51
0.0
 71
     0
 72
   100
 73
     1
 74
     0
 75
     0
 76
     0
 77
     0
 78
     0
281
     0
 65
     1
110
0.0
120
0.0
130
0.0
111
1.0
121
0.0
131
0.0
112
0.0
122
1.0
132
0.0
 79
     0
146
0.0
1001
ACAD_NAV_VCDISPLAY
1070
     3
  0
ENDTAB
  0
TABLE
  2
LTYPE
  5
8350
330
0
100
AcDbSymbolTable
 70
     3
  0
LTYPE
  5
83A5
330
8350
100
AcDbSymbolTableRecord
100
AcDbLinetypeTableRecord
  2
ByBlock
 70
     0
  3

 72
    65
 73
     0
 40
0.0
  0
LTYPE
  5
83A6
330
8350
100
AcDbSymbolTableRecord
100
AcDbLinetypeTableRecord
  2
ByLayer
 70
     0
  3

 72
    65
 73
     0
 40
0.0
  0
LTYPE
  5
83A7
330
8350
100
AcDbSymbolTableRecord
100
AcDbLinetypeTableRecord
  2
CONTINUOUS
 70
     0
  3
Solid line
 72
    65
 73
     0
 40
0.0
  0
LTYPE
  5
83C0
330
8350
100
AcDbSymbolTableRecord
100
AcDbLinetypeTableRecord
  2
CENTER
 70
     0
  3
____ _ ____ _ ____ _ ____ _ ____ _ ____ _ ____ 
 72
    65
 73
     4
 40
2.0
 49
1.25
 74
     0
 49
-0.25
 74
     0
 49
0.25
 74
     0
 49
-0.25
 74
     0
  0
ENDTAB
  0
TABLE
  2
LAYER
  5
834D
330
0
100
AcDbSymbolTable
 70
     6
  0
LAYER
  5
839F
102
{ACAD_XDICTIONARY
360
869A
102
}
330
834D
100
AcDbSymbolTableRecord
100
AcDbLayerTableRecord
  2
0
 70
     0
 62
     7
  6
CONTINUOUS
370
    -3
390
835A
  0
LAYER
  5
83BE
102
{ACAD_XDICTIONARY
360
869C
102
}
330
834D
100
AcDbSymbolTableRecord
100
AcDbLayerTableRecord
  2
3
 70
     0
 62
     2
  6
CONTINUOUS
370
    -3
390
835A
  0
LAYER
  5
83C1
102
{ACAD_XDICTIONARY
360
869E
102
}
330
834D
100
AcDbSymbolTableRecord
100
AcDbLayerTableRecord
  2
2
 70
     0
 62
     3
  6
CENTER
370
    -3
390
835A
  0
LAYER
  5
83C2
102
{ACAD_XDICTIONARY
360
86A0
102
}
330
834D
100
AcDbSymbolTableRecord
100
AcDbLayerTableRecord
  2
1
 70
     0
 62
     4
  6
CONTINUOUS
370
    -3
390
835A
  0
LAYER
  5
83C3
102
{ACAD_XDICTIONARY
360
86A2
102
}
330
834D
100
AcDbSymbolTableRecord
100
AcDbLayerTableRecord
  2
4
 70
     0
 62
     7
  6
CONTINUOUS
370
    -3
390
835A
  0
LAYER
  5
83C4
330
834D
100
AcDbSymbolTableRecord
100
AcDbLayerTableRecord
  2
DEFPOINTS
 70
     0
 62
     7
  6
CONTINUOUS
290
     0
370
    -3
390
835A
  0
ENDTAB
  0
TABLE
  2
STYLE
  5
834E
330
0
100
AcDbSymbolTable
 70
     2
  0
STYLE
  5
83A0
330
834E
100
AcDbSymbolTableRecord
100
AcDbTextStyleTableRecord
  2
STANDARD
 70
     0
 40
0.0
 41
1.0
 50
0.0
 71
     0
 42
180.0
  3
simplex.shx
  4
extfont.shx
  0
STYLE
  5
83A4
330
834E
100
AcDbSymbolTableRecord
100
AcDbTextStyleTableRecord
  2
Annotative
 70
     0
 40
0.0
 41
1.0
 50
0.0
 71
     0
 42
0.2
  3
txt
  4

1001
AcadAnnotative
1000
AnnotativeData
1002
{
1070
     1
1070
     1
1002
}
  0
ENDTAB
  0
TABLE
  2
VIEW
  5
8351
330
0
100
AcDbSymbolTable
 70
     0
  0
ENDTAB
  0
TABLE
  2
UCS
  5
8352
330
0
100
AcDbSymbolTable
 70
     0
  0
ENDTAB
  0
TABLE
  2
APPID
  5
8354
330
0
100
AcDbSymbolTable
 70
     8
  0
APPID
  5
83A1
330
8354
100
AcDbSymbolTableRecord
100
AcDbRegAppTableRecord
  2
ACAD
 70
     0
  0
APPID
  5
83A8
330
8354
100
AcDbSymbolTableRecord
100
AcDbRegAppTableRecord
  2
AcadAnnotative
 70
     0
  0
APPID
  5
8409
330
8354
100
AcDbSymbolTableRecord
100
AcDbRegAppTableRecord
  2
ACAD_DSTYLE_DIMJAG
 70
     0
  0
APPID
  5
840A
330
8354
100
AcDbSymbolTableRecord
100
AcDbRegAppTableRecord
  2
ACAD_DSTYLE_DIMTALN
 70
     0
  0
APPID
  5
843F
330
8354
100
AcDbSymbolTableRecord
100
AcDbRegAppTableRecord
  2
AcadAnnoMonitorAlertIconDisabled
 70
     0
  0
APPID
  5
8440
330
8354
100
AcDbSymbolTableRecord
100
AcDbRegAppTableRecord
  2
ACAD_EXEMPT_FROM_CAD_STANDARDS
 70
     0
  0
APPID
  5
86AE
330
8354
100
AcDbSymbolTableRecord
100
AcDbRegAppTableRecord
  2
ACAD_NAV_VCDISPLAY
 70
     0
  0
APPID
  5
8731
330
8354
100
AcDbSymbolTableRecord
100
AcDbRegAppTableRecord
  2
ACAD_MLEADERVER
 70
     0
  0
ENDTAB
  0
TABLE
  2
DIMSTYLE
  5
8355
330
0
100
AcDbSymbolTable
 70
     3
100
AcDbDimStyleTable
 71
     1
340
83C5
  0
DIMSTYLE
105
83A2
102
{ACAD_REACTORS
330
8156
330
8163
330
8170
330
817D
102
}
330
8355
100
AcDbSymbolTableRecord
100
AcDbDimStyleTableRecord
  2
Standard
 70
     0
340
83A0
  0
DIMSTYLE
105
83A3
330
8355
100
AcDbSymbolTableRecord
100
AcDbDimStyleTableRecord
  2
Annotative
 70
     0
340
83A0
1001
AcadAnnotative
1000
AnnotativeData
1002
{
1070
     1
1070
     1
1002
}
  0
DIMSTYLE
105
83C5
102
{ACAD_REACTORS
330
840B
330
8418
330
8425
330
8432
330
84BF
330
84CC
330
84D9
330
84E6
330
84F3
330
8500
330
850D
330
851A
330
8527
330
8534
330
8541
330
854E
330
855B
330
856D
330
857F
102
}
330
8355
100
AcDbSymbolTableRecord
100
AcDbDimStyleTableRecord
  2
IGA
 70
     0
 40
2.0
 41
2.0
 42
0.5
 43
10.0
 44
1.0
 47
1.0
 48
1.0
 73
     0
 74
     0
 77
     1
 78
     8
140
3.0
141
0.0
143
0.03937
146
10.0
147
1.0
173
     1
271
     3
272
     3
279
     2
284
     8
285
     8
286
     8
340
83A0
  0
ENDTAB
  0
TABLE
  2
BLOCK_RECORD
  5
834C
330
0
100
AcDbSymbolTable
 70
    51
  0
BLOCK_RECORD
  5
83BA
102
{ACAD_XDICTIONARY
360
8405
102
}
330
834C
100
AcDbSymbolTableRecord
100
AcDbBlockTableRecord
  2
*Model_Space
340
83BD
  0
BLOCK_RECORD
  5
83B6
330
834C
100
AcDbSymbolTableRecord
100
AcDbBlockTableRecord
  2
*Paper_Space
340
83B9
  0
BLOCK_RECORD
  5
83C9
330
834C
100
AcDbSymbolTableRecord
100
AcDbBlockTableRecord
  2
$MODEL_SPACE
340
0
  0
BLOCK_RECORD
  5
83CB
330
834C
100
AcDbSymbolTableRecord
100
AcDbBlockTableRecord
  2
$PAPER_SPACE
340
0
  0
BLOCK_RECORD
  5
83CD
330
834C
100
AcDbSymbolTableRecord
100
AcDbBlockTableRecord
  2
_OPEN
340
0
102
{BLKREFS
331
8331
331
8332
331
814F
331
8150
331
815C
331
815D
331
8169
331
816A
331
8176
331
8177
331
853B
331
853C
331
8548
331
8549
331
8555
331
8556
331
829F
331
82A0
331
82A8
331
82A9
331
82B1
331
82B2
331
82BA
331
82BB
331
82C3
331
82C4
331
82CC
331
82CD
331
84D3
331
84D4
331
84E0
331
84E1
331
84ED
331
84EE
331
84FA
331
84FB
331
8507
331
8508
331
8514
331
8515
331
8521
331
8522
331
852E
331
852F
331
82D5
331
82D6
331
82DE
331
82DF
331
848D
331
848E
331
8496
331
8497
331
84AC
331
84AD
331
84B9
331
84BA
331
84C6
331
84C7
331
82E7
331
82E8
331
82F0
331
82F1
331
82F9
331
82FA
331
8302
331
8303
331
830B
331
830C
331
8314
331
8315
331
8320
331
8328
331
8329
331
8192
331
8193
331
841F
331
8420
331
844E
331
844F
331
85C8
331
85C9
331
863C
331
8696
102
}
  0
BLOCK_RECORD
  5
83CF
330
834C
100
AcDbSymbolTableRecord
100
AcDbBlockTableRecord
  2
YA_N
340
0
102
{BLKREFS
331
7C1F
331
7C40
331
7C49
331
7C75
331
7C9D
102
}
  0
BLOCK_RECORD
  5
83D1
330
834C
100
AcDbSymbolTableRecord
100
AcDbBlockTableRecord
  2
*D4
340
0
  0
BLOCK_RECORD
  5
83D3
330
834C
100
AcDbSymbolTableRecord
100
AcDbBlockTableRecord
  2
*D5
340
0
  0
BLOCK_RECORD
  5
83D5
330
834C
100
AcDbSymbolTableRecord
100
AcDbBlockTableRecord
  2
*D6
340
0
  0
BLOCK_RECORD
  5
83D7
330
834C
100
AcDbSymbolTableRecord
100
AcDbBlockTableRecord
  2
*D7
340
0
  0
BLOCK_RECORD
  5
83D9
330
834C
100
AcDbSymbolTableRecord
100
AcDbBlockTableRecord
  2
*D8
340
0
  0
BLOCK_RECORD
  5
83DB
330
834C
100
AcDbSymbolTableRecord
100
AcDbBlockTableRecord
  2
*D9
340
0
  0
BLOCK_RECORD
  5
83DD
330
834C
100
AcDbSymbolTableRecord
100
AcDbBlockTableRecord
  2
*D10
340
0
  0
BLOCK_RECORD
  5
83DF
330
834C
100
AcDbSymbolTableRecord
100
AcDbBlockTableRecord
  2
*D11
340
0
  0
BLOCK_RECORD
  5
83E1
330
834C
100
AcDbSymbolTableRecord
100
AcDbBlockTableRecord
  2
*D12
340
0
  0
BLOCK_RECORD
  5
83E3
330
834C
100
AcDbSymbolTableRecord
100
AcDbBlockTableRecord
  2
*D13
340
0
  0
BLOCK_RECORD
  5
83E5
330
834C
100
AcDbSymbolTableRecord
100
AcDbBlockTableRecord
  2
*D14
340
0
  0
BLOCK_RECORD
  5
83E7
330
834C
100
AcDbSymbolTableRecord
100
AcDbBlockTableRecord
  2
*D15
340
0
  0
BLOCK_RECORD
  5
83E9
330
834C
100
AcDbSymbolTableRecord
100
AcDbBlockTableRecord
  2
*D16
340
0
  0
BLOCK_RECORD
  5
83EB
330
834C
100
AcDbSymbolTableRecord
100
AcDbBlockTableRecord
  2
*D17
340
0
  0
BLOCK_RECORD
  5
83ED
330
834C
100
AcDbSymbolTableRecord
100
AcDbBlockTableRecord
  2
*D18
340
0
  0
BLOCK_RECORD
  5
83EF
330
834C
100
AcDbSymbolTableRecord
100
AcDbBlockTableRecord
  2
_DOT
340
0
102
{BLKREFS
331
831F
102
}
  0
BLOCK_RECORD
  5
83F0
330
834C
100
AcDbSymbolTableRecord
100
AcDbBlockTableRecord
  2
*D20
340
0
  0
BLOCK_RECORD
  5
83F2
330
834C
100
AcDbSymbolTableRecord
100
AcDbBlockTableRecord
  2
*D21
340
0
  0
BLOCK_RECORD
  5
83F5
330
834C
100
AcDbSymbolTableRecord
100
AcDbBlockTableRecord
  2
*D22
340
0
  0
BLOCK_RECORD
  5
83F7
330
834C
100
AcDbSymbolTableRecord
100
AcDbBlockTableRecord
  2
*D23
340
0
  0
BLOCK_RECORD
  5
83F9
330
834C
100
AcDbSymbolTableRecord
100
AcDbBlockTableRecord
  2
*D24
340
0
  0
BLOCK_RECORD
  5
83FB
330
834C
100
AcDbSymbolTableRecord
100
AcDbBlockTableRecord
  2
*D25
340
0
  0
BLOCK_RECORD
  5
83FD
330
834C
100
AcDbSymbolTableRecord
100
AcDbBlockTableRecord
  2
_NONE
340
0
  0
BLOCK_RECORD
  5
83FF
330
834C
100
AcDbSymbolTableRecord
100
AcDbBlockTableRecord
  2
*D27
340
0
  0
BLOCK_RECORD
  5
8401
330
834C
100
AcDbSymbolTableRecord
100
AcDbBlockTableRecord
  2
*D28
340
0
  0
BLOCK_RECORD
  5
840C
330
834C
100
AcDbSymbolTableRecord
100
AcDbBlockTableRecord
  2
*D29
340
0
  0
BLOCK_RECORD
  5
8419
330
834C
100
AcDbSymbolTableRecord
100
AcDbBlockTableRecord
  2
*D30
340
0
  0
BLOCK_RECORD
  5
8426
330
834C
100
AcDbSymbolTableRecord
100
AcDbBlockTableRecord
  2
*D31
340
0
  0
BLOCK_RECORD
  5
8433
330
834C
100
AcDbSymbolTableRecord
100
AcDbBlockTableRecord
  2
*D32
340
0
  0
BLOCK_RECORD
  5
849D
330
834C
100
AcDbSymbolTableRecord
100
AcDbBlockTableRecord
  2
*D33
340
0
  0
BLOCK_RECORD
  5
84B3
330
834C
100
AcDbSymbolTableRecord
100
AcDbBlockTableRecord
  2
*D34
340
0
  0
BLOCK_RECORD
  5
84C0
330
834C
100
AcDbSymbolTableRecord
100
AcDbBlockTableRecord
  2
*D35
340
0
  0
BLOCK_RECORD
  5
84CD
330
834C
100
AcDbSymbolTableRecord
100
AcDbBlockTableRecord
  2
*D36
340
0
  0
BLOCK_RECORD
  5
84DA
330
834C
100
AcDbSymbolTableRecord
100
AcDbBlockTableRecord
  2
*D37
340
0
  0
BLOCK_RECORD
  5
84E7
330
834C
100
AcDbSymbolTableRecord
100
AcDbBlockTableRecord
  2
*D38
340
0
  0
BLOCK_RECORD
  5
84F4
330
834C
100
AcDbSymbolTableRecord
100
AcDbBlockTableRecord
  2
*D39
340
0
  0
BLOCK_RECORD
  5
8501
330
834C
100
AcDbSymbolTableRecord
100
AcDbBlockTableRecord
  2
*D40
340
0
  0
BLOCK_RECORD
  5
850E
330
834C
100
AcDbSymbolTableRecord
100
AcDbBlockTableRecord
  2
*D41
340
0
  0
BLOCK_RECORD
  5
851B
330
834C
100
AcDbSymbolTableRecord
100
AcDbBlockTableRecord
  2
*D42
340
0
  0
BLOCK_RECORD
  5
8528
330
834C
100
AcDbSymbolTableRecord
100
AcDbBlockTableRecord
  2
*D43
340
0
  0
BLOCK_RECORD
  5
8535
330
834C
100
AcDbSymbolTableRecord
100
AcDbBlockTableRecord
  2
*D44
340
0
  0
BLOCK_RECORD
  5
8542
330
834C
100
AcDbSymbolTableRecord
100
AcDbBlockTableRecord
  2
*D45
340
0
  0
BLOCK_RECORD
  5
854F
330
834C
100
AcDbSymbolTableRecord
100
AcDbBlockTableRecord
  2
*D46
340
0
  0
BLOCK_RECORD
  5
855C
330
834C
100
AcDbSymbolTableRecord
100
AcDbBlockTableRecord
  2
*D47
340
0
  0
BLOCK_RECORD
  5
856E
330
834C
100
AcDbSymbolTableRecord
100
AcDbBlockTableRecord
  2
*D48
340
0
  0
BLOCK_RECORD
  5
8580
330
834C
100
AcDbSymbolTableRecord
100
AcDbBlockTableRecord
  2
*D49
340
0
  0
BLOCK_RECORD
  5
862F
330
834C
100
AcDbSymbolTableRecord
100
AcDbBlockTableRecord
  2
_DotSmall
340
0
102
{BLKREFS
331
863D
331
8695
102
}
  0
ENDTAB
  0
ENDSEC
  0
SECTION
  2
BLOCKS
  0
BLOCK
  5
83BB
330
83BA
100
AcDbEntity
  8
0
100
AcDbBlockBegin
  2
*Model_Space
 70
     0
 10
0.0
 20
0.0
 30
0.0
  3
*Model_Space
  1

  0
ENDBLK
  5
83BC
330
83BA
100
AcDbEntity
  8
0
100
AcDbBlockEnd
  0
BLOCK
  5
83B7
330
83B6
100
AcDbEntity
 67
     1
  8
0
100
AcDbBlockBegin
  2
*Paper_Space
 70
     0
 10
0.0
 20
0.0
 30
0.0
  3
*Paper_Space
  1

  0
ENDBLK
  5
83B8
330
83B6
100
AcDbEntity
 67
     1
  8
0
100
AcDbBlockEnd
  0
BLOCK
  5
83CA
330
83C9
100
AcDbEntity
  8
0
100
AcDbBlockBegin
  2
$MODEL_SPACE
 70
     0
 10
0.0
 20
0.0
 30
0.0
  3
$MODEL_SPACE
  1

  0
ENDBLK
  5
1B
330
83C9
100
AcDbEntity
  8
0
100
AcDbBlockEnd
  0
BLOCK
  5
83CC
330
83CB
100
AcDbEntity
  8
0
100
AcDbBlockBegin
  2
$PAPER_SPACE
 70
     0
 10
0.0
 20
0.0
 30
0.0
  3
$PAPER_SPACE
  1

  0
ENDBLK
  5
18
330
83CB
100
AcDbEntity
  8
0
100
AcDbBlockEnd
  0
BLOCK
  5
83CE
330
83CD
100
AcDbEntity
  8
0
100
AcDbBlockBegin
  2
_OPEN
 70
     0
 10
0.0
 20
0.0
 30
0.0
  3
_OPEN
  1

  0
LINE
  5
79FD
330
83CD
100
AcDbEntity
  8
0
  6
ByBlock
 62
     0
100
AcDbLine
 10
-1.0
 20
0.1666666666666666
 30
0.0
 11
0.0
 21
0.0
 31
0.0
  0
LINE
  5
79FE
330
83CD
100
AcDbEntity
  8
0
  6
ByBlock
 62
     0
100
AcDbLine
 10
0.0
 20
0.0
 30
0.0
 11
-1.0
 21
-0.1666666666666666
 31
0.0
  0
LINE
  5
79FF
330
83CD
100
AcDbEntity
  8
0
  6
ByBlock
 62
     0
100
AcDbLine
 10
0.0
 20
0.0
 30
0.0
 11
-1.0
 21
0.0
 31
0.0
  0
ENDBLK
  5
7A01
330
83CD
100
AcDbEntity
  8
0
100
AcDbBlockEnd
  0
BLOCK
  5
83D0
330
83CF
100
AcDbEntity
  8
0
100
AcDbBlockBegin
  2
YA_N
 70
     0
 10
0.0
 20
0.0
 30
0.0
  3
YA_N
  1

  0
ENDBLK
  5
7A0C
330
83CF
100
AcDbEntity
  8
0
100
AcDbBlockEnd
  0
BLOCK
  5
83D2
330
83D1
100
AcDbEntity
  8
0
100
AcDbBlockBegin
  2
*D4
 70
     1
 10
0.0
 20
0.0
 30
0.0
  3
*D4
  1

  0
LINE
  5
829C
330
83D1
100
AcDbEntity
  8
3
 62
     0
100
AcDbLine
 10
3436.105211603564
 20
2577.572834317823
 30
0.0
 11
3653.71352788783
 21
2577.572834317823
 31
0.0
  0
LINE
  5
829D
330
83D1
100
AcDbEntity
  8
3
 62
     0
100
AcDbLine
 10
3436.105211603564
 20
3727.572834317824
 30
0.0
 11
3653.71352788783
 21
3727.572834317824
 31
0.0
  0
LINE
  5
829E
330
83D1
100
AcDbEntity
  8
3
 62
     0
100
AcDbLine
 10
3618.713527887829
 20
2647.572834317823
 30
0.0
 11
3618.713527887829
 21
3657.572834317824
 31
0.0
  0
INSERT
  5
829F
330
83D1
100
AcDbEntity
  8
3
 62
     0
100
AcDbBlockReference
  2
_OPEN
 10
3618.713527887829
 20
2577.572834317823
 30
0.0
 41
70.0
 42
70.0
 43
70.0
 50
270.0
  0
INSERT
  5
82A0
330
83D1
100
AcDbEntity
  8
3
 62
     0
100
AcDbBlockReference
  2
_OPEN
 10
3618.713527887829
 20
3727.572834317824
 30
0.0
 41
70.0
 42
70.0
 43
70.0
 50
90.0
  0
TEXT
  5
833A
330
83D1
100
AcDbEntity
  8
3
 62
     0
100
AcDbText
 10
3321.21
 20
2966.72
 30
0.0
 40
105.0
  1
1150
100
AcDbText
  0
POINT
  5
82A2
330
83D1
100
AcDbEntity
  8
DEFPOINTS
 62
     0
100
AcDbPoint
 10
3418.605211603564
 20
2577.572834317823
 30
0.0
  0
POINT
  5
82A3
330
83D1
100
AcDbEntity
  8
DEFPOINTS
 62
     0
100
AcDbPoint
 10
3418.605211603564
 20
3727.572834317824
 30
0.0
  0
POINT
  5
82A4
330
83D1
100
AcDbEntity
  8
DEFPOINTS
 62
     0
100
AcDbPoint
 10
3618.713527887829
 20
3727.572834317824
 30
0.0
  0
ENDBLK
  5
7FD7
330
83D1
100
AcDbEntity
  8
0
100
AcDbBlockEnd
  0
BLOCK
  5
83D4
330
83D3
100
AcDbEntity
  8
0
100
AcDbBlockBegin
  2
*D5
 70
     1
 10
0.0
 20
0.0
 30
0.0
  3
*D5
  1

  0
LINE
  5
82A5
330
83D3
100
AcDbEntity
  8
3
 62
     0
100
AcDbLine
 10
3436.105211603564
 20
2577.572834317823
 30
0.0
 11
3853.865178749332
 21
2577.572834317823
 31
0.0
  0
LINE
  5
82A6
330
83D3
100
AcDbEntity
  8
3
 62
     0
100
AcDbLine
 10
3521.944212502297
 20
3775.572834317824
 30
0.0
 11
3853.865178749332
 21
3775.572834317824
 31
0.0
  0
LINE
  5
82A7
330
83D3
100
AcDbEntity
  8
3
 62
     0
100
AcDbLine
 10
3818.865178749332
 20
2647.572834317823
 30
0.0
 11
3818.865178749332
 21
3705.572834317823
 31
0.0
  0
INSERT
  5
82A8
330
83D3
100
AcDbEntity
  8
3
 62
     0
100
AcDbBlockReference
  2
_OPEN
 10
3818.865178749332
 20
2577.572834317823
 30
0.0
 41
70.0
 42
70.0
 43
70.0
 50
270.0
  0
INSERT
  5
82A9
330
83D3
100
AcDbEntity
  8
3
 62
     0
100
AcDbBlockReference
  2
_OPEN
 10
3818.865178749332
 20
3775.572834317824
 30
0.0
 41
70.0
 42
70.0
 43
70.0
 50
90.0
  0
TEXT
  5
833B
330
83D3
100
AcDbEntity
  8
3
 62
     0
100
AcDbText
 10
3521.37
 20
2990.72
 30
0.0
 40
105.0
  1
1198
100
AcDbText
  0
POINT
  5
82AB
330
83D3
100
AcDbEntity
  8
DEFPOINTS
 62
     0
100
AcDbPoint
 10
3418.605211603564
 20
2577.572834317823
 30
0.0
  0
POINT
  5
82AC
330
83D3
100
AcDbEntity
  8
DEFPOINTS
 62
     0
100
AcDbPoint
 10
3504.444212502298
 20
3775.572834317824
 30
0.0
  0
POINT
  5
82AD
330
83D3
100
AcDbEntity
  8
DEFPOINTS
 62
     0
100
AcDbPoint
 10
3818.865178749332
 20
3775.572834317824
 30
0.0
  0
ENDBLK
  5
7FCC
330
83D3
100
AcDbEntity
  8
0
100
AcDbBlockEnd
  0
BLOCK
  5
83D6
330
83D5
100
AcDbEntity
  8
0
100
AcDbBlockBegin
  2
*D6
 70
     1
 10
0.0
 20
0.0
 30
0.0
  3
*D6
  1

  0
LINE
  5
82AE
330
83D5
100
AcDbEntity
  8
3
 62
     0
100
AcDbLine
 10
4893.752841307505
 20
4586.734455050655
 30
0.0
 11
4893.752841307505
 21
4869.01247337022
 31
0.0
  0
LINE
  5
82AF
330
83D5
100
AcDbEntity
  8
3
 62
     0
100
AcDbLine
 10
6393.752841307505
 20
4580.885518389041
 30
0.0
 11
6393.752841307505
 21
4869.01247337022
 31
0.0
  0
LINE
  5
82B0
330
83D5
100
AcDbEntity
  8
3
 62
     0
100
AcDbLine
 10
4963.752841307505
 20
4834.012473370222
 30
0.0
 11
6323.752841307506
 21
4834.012473370222
 31
0.0
  0
INSERT
  5
82B1
330
83D5
100
AcDbEntity
  8
3
 62
     0
100
AcDbBlockReference
  2
_OPEN
 10
4893.752841307505
 20
4834.012473370222
 30
0.0
 41
70.0
 42
70.0
 43
70.0
 50
180.0
  0
INSERT
  5
82B2
330
83D5
100
AcDbEntity
  8
3
 62
     0
100
AcDbBlockReference
  2
_OPEN
 10
6393.752841307505
 20
4834.012473370222
 30
0.0
 41
70.0
 42
70.0
 43
70.0
  0
TEXT
  5
833C
330
83D5
100
AcDbEntity
  8
3
 62
     0
100
AcDbText
 10
5433.749999999999
 20
4735.66
 30
0.0
 40
105.0
  1
1500
100
AcDbText
  0
POINT
  5
82B4
330
83D5
100
AcDbEntity
  8
DEFPOINTS
 62
     0
100
AcDbPoint
 10
4893.752841307505
 20
4569.234455050655
 30
0.0
  0
POINT
  5
82B5
330
83D5
100
AcDbEntity
  8
DEFPOINTS
 62
     0
100
AcDbPoint
 10
6393.752841307505
 20
4563.385518389041
 30
0.0
  0
POINT
  5
82B6
330
83D5
100
AcDbEntity
  8
DEFPOINTS
 62
     0
100
AcDbPoint
 10
6393.752841307505
 20
4834.012473370222
 30
0.0
  0
ENDBLK
  5
806A
330
83D5
100
AcDbEntity
  8
0
100
AcDbBlockEnd
  0
BLOCK
  5
83D8
330
83D7
100
AcDbEntity
  8
0
100
AcDbBlockBegin
  2
*D7
 70
     1
 10
0.0
 20
0.0
 30
0.0
  3
*D7
  1

  0
LINE
  5
82B7
330
83D7
100
AcDbEntity
  8
3
 62
     0
100
AcDbLine
 10
5643.752841307503
 20
5017.990239191
 30
0.0
 11
5643.752841307503
 21
5095.334276454416
 31
0.0
  0
LINE
  5
82B8
330
83D7
100
AcDbEntity
  8
3
 62
     0
100
AcDbLine
 10
6558.752841307502
 20
3706.112311423018
 30
0.0
 11
6558.752841307502
 21
5095.334276454416
 31
0.0
  0
LINE
  5
82B9
330
83D7
100
AcDbEntity
  8
3
 62
     0
100
AcDbLine
 10
5713.752841307503
 20
5060.334276454418
 30
0.0
 11
6488.752841307503
 21
5060.334276454418
 31
0.0
  0
INSERT
  5
82BA
330
83D7
100
AcDbEntity
  8
3
 62
     0
100
AcDbBlockReference
  2
_OPEN
 10
5643.752841307503
 20
5060.334276454418
 30
0.0
 41
70.0
 42
70.0
 43
70.0
 50
180.0
  0
INSERT
  5
82BB
330
83D7
100
AcDbEntity
  8
3
 62
     0
100
AcDbBlockReference
  2
_OPEN
 10
6558.752841307502
 20
5060.334276454418
 30
0.0
 41
70.0
 42
70.0
 43
70.0
  0
TEXT
  5
833D
330
83D7
100
AcDbEntity
  8
3
 62
     0
100
AcDbText
 10
5891.25
 20
4989.48
 30
0.0
 40
105.0
  1
(930)
100
AcDbText
  0
POINT
  5
82BD
330
83D7
100
AcDbEntity
  8
DEFPOINTS
 62
     0
100
AcDbPoint
 10
5643.752841307503
 20
5000.490239191
 30
0.0
  0
POINT
  5
82BE
330
83D7
100
AcDbEntity
  8
DEFPOINTS
 62
     0
100
AcDbPoint
 10
6558.752841307502
 20
3688.612311423018
 30
0.0
  0
POINT
  5
82BF
330
83D7
100
AcDbEntity
  8
DEFPOINTS
 62
     0
100
AcDbPoint
 10
6558.752841307502
 20
5060.334276454418
 30
0.0
  0
ENDBLK
  5
810A
330
83D7
100
AcDbEntity
  8
0
100
AcDbBlockEnd
  0
BLOCK
  5
83DA
330
83D9
100
AcDbEntity
  8
0
100
AcDbBlockBegin
  2
*D8
 70
     1
 10
0.0
 20
0.0
 30
0.0
  3
*D8
  1

  0
LINE
  5
82C0
330
83D9
100
AcDbEntity
  8
3
 62
     0
100
AcDbLine
 10
6416.752841307507
 20
3215.572834317824
 30
0.0
 11
6796.53560766302
 21
3215.572834317824
 31
0.0
  0
LINE
  5
82C1
330
83D9
100
AcDbEntity
  8
3
 62
     0
100
AcDbLine
 10
6416.752841307507
 20
4335.572834317824
 30
0.0
 11
6796.53560766302
 21
4335.572834317824
 31
0.0
  0
LINE
  5
82C2
330
83D9
100
AcDbEntity
  8
3
 62
     0
100
AcDbLine
 10
6761.535607663017
 20
3285.572834317823
 30
0.0
 11
6761.535607663017
 21
4265.572834317825
 31
0.0
  0
INSERT
  5
82C3
330
83D9
100
AcDbEntity
  8
3
 62
     0
100
AcDbBlockReference
  2
_OPEN
 10
6761.535607663017
 20
3215.572834317824
 30
0.0
 41
70.0
 42
70.0
 43
70.0
 50
270.0
  0
INSERT
  5
82C4
330
83D9
100
AcDbEntity
  8
3
 62
     0
100
AcDbBlockReference
  2
_OPEN
 10
6761.535607663017
 20
4335.572834317824
 30
0.0
 41
70.0
 42
70.0
 43
70.0
 50
90.0
  0
TEXT
  5
833E
330
83D9
100
AcDbEntity
  8
3
 62
     0
100
AcDbText
 10
6464.04
 20
3589.72
 30
0.0
 40
105.0
  1
\U+03C61120
100
AcDbText
  0
POINT
  5
82C6
330
83D9
100
AcDbEntity
  8
DEFPOINTS
 62
     0
100
AcDbPoint
 10
6399.252841307507
 20
3215.572834317824
 30
0.0
  0
POINT
  5
82C7
330
83D9
100
AcDbEntity
  8
DEFPOINTS
 62
     0
100
AcDbPoint
 10
6399.252841307507
 20
4335.572834317824
 30
0.0
  0
POINT
  5
82C8
330
83D9
100
AcDbEntity
  8
DEFPOINTS
 62
     0
100
AcDbPoint
 10
6761.535607663017
 20
4335.572834317824
 30
0.0
  0
ENDBLK
  5
8049
330
83D9
100
AcDbEntity
  8
0
100
AcDbBlockEnd
  0
BLOCK
  5
83DC
330
83DB
100
AcDbEntity
  8
0
100
AcDbBlockBegin
  2
*D9
 70
     1
 10
0.0
 20
0.0
 30
0.0
  3
*D9
  1

  0
LINE
  5
82C9
330
83DB
100
AcDbEntity
  8
3
 62
     0
100
AcDbLine
 10
4521.052841307505
 20
4173.072834317824
 30
0.0
 11
4521.052841307505
 21
5094.317625186006
 31
0.0
  0
LINE
  5
82CA
330
83DB
100
AcDbEntity
  8
3
 62
     0
100
AcDbLine
 10
5643.752841307503
 20
5017.990239191
 30
0.0
 11
5643.752841307503
 21
5094.317625186006
 31
0.0
  0
LINE
  5
82CB
330
83DB
100
AcDbEntity
  8
3
 62
     0
100
AcDbLine
 10
4591.052841307505
 20
5059.317625186006
 30
0.0
 11
5573.752841307503
 21
5059.317625186006
 31
0.0
  0
INSERT
  5
82CC
330
83DB
100
AcDbEntity
  8
3
 62
     0
100
AcDbBlockReference
  2
_OPEN
 10
4521.052841307505
 20
5059.317625186006
 30
0.0
 41
70.0
 42
70.0
 43
70.0
 50
180.0
  0
INSERT
  5
82CD
330
83DB
100
AcDbEntity
  8
3
 62
     0
100
AcDbBlockReference
  2
_OPEN
 10
5643.752841307503
 20
5059.317625186006
 30
0.0
 41
70.0
 42
70.0
 43
70.0
  0
TEXT
  5
833F
330
83DB
100
AcDbEntity
  8
3
 62
     0
100
AcDbText
 10
4872.399999999999
 20
5048.47
 30
0.0
 40
105.0
  1
MAX
100
AcDbText
  0
TEXT
  5
8340
330
83DB
100
AcDbEntity
  8
3
 62
     0
100
AcDbText
 10
4872.399999999999
 20
4911.97
 30
0.0
 40
105.0
  1
1120
100
AcDbText
  0
POINT
  5
82CF
330
83DB
100
AcDbEntity
  8
DEFPOINTS
 62
     0
100
AcDbPoint
 10
4521.052841307505
 20
4155.572834317824
 30
0.0
  0
POINT
  5
82D0
330
83DB
100
AcDbEntity
  8
DEFPOINTS
 62
     0
100
AcDbPoint
 10
5643.752841307503
 20
5000.490239191
 30
0.0
  0
POINT
  5
82D1
330
83DB
100
AcDbEntity
  8
DEFPOINTS
 62
     0
100
AcDbPoint
 10
5643.752841307503
 20
5059.317625186006
 30
0.0
  0
ENDBLK
  5
8115
330
83DB
100
AcDbEntity
  8
0
100
AcDbBlockEnd
  0
BLOCK
  5
83DE
330
83DD
100
AcDbEntity
  8
0
100
AcDbBlockBegin
  2
*D10
 70
     1
 10
0.0
 20
0.0
 30
0.0
  3
*D10
  1

  0
LINE
  5
82D2
330
83DD
100
AcDbEntity
  8
3
 62
     0
100
AcDbLine
 10
1998.605211603564
 20
7646.062273750783
 30
0.0
 11
1998.605211603564
 21
7837.569634221901
 31
0.0
  0
LINE
  5
82D3
330
83DD
100
AcDbEntity
  8
3
 62
     0
100
AcDbLine
 10
3318.605211603564
 20
7646.062273750786
 30
0.0
 11
3318.605211603564
 21
7837.569634221901
 31
0.0
  0
LINE
  5
82D4
330
83DD
100
AcDbEntity
  8
3
 62
     0
100
AcDbLine
 10
2068.605211603564
 20
7802.569634221902
 30
0.0
 11
3248.605211603564
 21
7802.569634221902
 31
0.0
  0
INSERT
  5
82D5
330
83DD
100
AcDbEntity
  8
3
 62
     0
100
AcDbBlockReference
  2
_OPEN
 10
1998.605211603564
 20
7802.569634221902
 30
0.0
 41
70.0
 42
70.0
 43
70.0
 50
180.0
  0
INSERT
  5
82D6
330
83DD
100
AcDbEntity
  8
3
 62
     0
100
AcDbBlockReference
  2
_OPEN
 10
3318.605211603564
 20
7802.569634221902
 30
0.0
 41
70.0
 42
70.0
 43
70.0
  0
TEXT
  5
8341
330
83DD
100
AcDbEntity
  8
3
 62
     0
100
AcDbText
 10
2448.61
 20
7704.220000000001
 30
0.0
 40
105.0
  1
1320
100
AcDbText
  0
POINT
  5
82D8
330
83DD
100
AcDbEntity
  8
DEFPOINTS
 62
     0
100
AcDbPoint
 10
1998.605211603564
 20
7628.562273750784
 30
0.0
  0
POINT
  5
82D9
330
83DD
100
AcDbEntity
  8
DEFPOINTS
 62
     0
100
AcDbPoint
 10
3318.605211603564
 20
7628.562273750786
 30
0.0
  0
POINT
  5
82DA
330
83DD
100
AcDbEntity
  8
DEFPOINTS
 62
     0
100
AcDbPoint
 10
3318.605211603564
 20
7802.569634221902
 30
0.0
  0
ENDBLK
  5
7F5E
330
83DD
100
AcDbEntity
  8
0
100
AcDbBlockEnd
  0
BLOCK
  5
83E0
330
83DF
100
AcDbEntity
  8
0
100
AcDbBlockBegin
  2
*D11
 70
     1
 10
0.0
 20
0.0
 30
0.0
  3
*D11
  1

  0
LINE
  5
82DB
330
83DF
100
AcDbEntity
  8
3
 62
     0
100
AcDbLine
 10
1041.105211603564
 20
6628.562273750784
 30
0.0
 11
844.7531743622132
 21
6628.562273750784
 31
0.0
  0
LINE
  5
82DC
330
83DF
100
AcDbEntity
  8
3
 62
     0
100
AcDbLine
 10
1041.105211603564
 20
5728.562273750783
 30
0.0
 11
844.753174362213
 21
5728.562273750783
 31
0.0
  0
LINE
  5
82DD
330
83DF
100
AcDbEntity
  8
3
 62
     0
100
AcDbLine
 10
879.7531743622132
 20
6558.562273750784
 30
0.0
 11
879.753174362213
 21
5798.562273750783
 31
0.0
  0
INSERT
  5
82DE
330
83DF
100
AcDbEntity
  8
3
 62
     0
100
AcDbBlockReference
  2
_OPEN
 10
879.7531743622132
 20
6628.562273750784
 30
0.0
 41
70.0
 42
70.0
 43
70.0
 50
90.0
  0
INSERT
  5
82DF
330
83DF
100
AcDbEntity
  8
3
 62
     0
100
AcDbBlockReference
  2
_OPEN
 10
879.753174362213
 20
5728.562273750783
 30
0.0
 41
70.0
 42
70.0
 43
70.0
 50
270.0
  0
TEXT
  5
8342
330
83DF
100
AcDbEntity
  8
3
 62
     0
100
AcDbText
 10
582.253
 20
5992.71
 30
0.0
 40
105.0
  1
900
100
AcDbText
  0
POINT
  5
82E1
330
83DF
100
AcDbEntity
  8
DEFPOINTS
 62
     0
100
AcDbPoint
 10
1058.605211603564
 20
6628.562273750784
 30
0.0
  0
POINT
  5
82E2
330
83DF
100
AcDbEntity
  8
DEFPOINTS
 62
     0
100
AcDbPoint
 10
1058.605211603564
 20
5728.562273750783
 30
0.0
  0
POINT
  5
82E3
330
83DF
100
AcDbEntity
  8
DEFPOINTS
 62
     0
100
AcDbPoint
 10
879.753174362213
 20
5728.562273750783
 30
0.0
  0
ENDBLK
  5
80E5
330
83DF
100
AcDbEntity
  8
0
100
AcDbBlockEnd
  0
BLOCK
  5
83E2
330
83E1
100
AcDbEntity
  8
0
100
AcDbBlockBegin
  2
*D12
 70
     1
 10
0.0
 20
0.0
 30
0.0
  3
*D12
  1

  0
LINE
  5
82E4
330
83E1
100
AcDbEntity
  8
3
 62
     0
100
AcDbLine
 10
1058.605211603564
 20
5711.062273750783
 30
0.0
 11
1058.605211603564
 21
5402.317081656836
 31
0.0
  0
LINE
  5
82E5
330
83E1
100
AcDbEntity
  8
3
 62
     0
100
AcDbLine
 10
3318.605211603564
 20
5711.062273750783
 30
0.0
 11
3318.605211603564
 21
5402.317081656836
 31
0.0
  0
LINE
  5
82E6
330
83E1
100
AcDbEntity
  8
3
 62
     0
100
AcDbLine
 10
1128.605211603564
 20
5437.317081656836
 30
0.0
 11
3248.605211603564
 21
5437.317081656836
 31
0.0
  0
INSERT
  5
82E7
330
83E1
100
AcDbEntity
  8
3
 62
     0
100
AcDbBlockReference
  2
_OPEN
 10
1058.605211603564
 20
5437.317081656836
 30
0.0
 41
70.0
 42
70.0
 43
70.0
 50
180.0
  0
INSERT
  5
82E8
330
83E1
100
AcDbEntity
  8
3
 62
     0
100
AcDbBlockReference
  2
_OPEN
 10
3318.605211603564
 20
5437.317081656836
 30
0.0
 41
70.0
 42
70.0
 43
70.0
  0
TEXT
  5
8343
330
83E1
100
AcDbEntity
  8
3
 62
     0
100
AcDbText
 10
1978.61
 20
5338.97
 30
0.0
 40
105.0
  1
2260
100
AcDbText
  0
POINT
  5
82EA
330
83E1
100
AcDbEntity
  8
DEFPOINTS
 62
     0
100
AcDbPoint
 10
1058.605211603564
 20
5728.562273750783
 30
0.0
  0
POINT
  5
82EB
330
83E1
100
AcDbEntity
  8
DEFPOINTS
 62
     0
100
AcDbPoint
 10
3318.605211603564
 20
5728.562273750783
 30
0.0
  0
POINT
  5
82EC
330
83E1
100
AcDbEntity
  8
DEFPOINTS
 62
     0
100
AcDbPoint
 10
3318.605211603564
 20
5437.317081656836
 30
0.0
  0
ENDBLK
  5
7F7F
330
83E1
100
AcDbEntity
  8
0
100
AcDbBlockEnd
  0
BLOCK
  5
83E4
330
83E3
100
AcDbEntity
  8
0
100
AcDbBlockBegin
  2
*D13
 70
     1
 10
0.0
 20
0.0
 30
0.0
  3
*D13
  1

  0
LINE
  5
82ED
330
83E3
100
AcDbEntity
  8
3
 62
     0
100
AcDbLine
 10
3336.105211603564
 20
7628.562273750786
 30
0.0
 11
3752.377466574617
 21
7628.562273750786
 31
0.0
  0
LINE
  5
82EE
330
83E3
100
AcDbEntity
  8
3
 62
     0
100
AcDbLine
 10
3336.105211603564
 20
5728.562273750783
 30
0.0
 11
3752.377466574616
 21
5728.562273750783
 31
0.0
  0
LINE
  5
82EF
330
83E3
100
AcDbEntity
  8
3
 62
     0
100
AcDbLine
 10
3717.377466574617
 20
7558.562273750786
 30
0.0
 11
3717.377466574617
 21
5798.562273750784
 31
0.0
  0
INSERT
  5
82F0
330
83E3
100
AcDbEntity
  8
3
 62
     0
100
AcDbBlockReference
  2
_OPEN
 10
3717.377466574617
 20
7628.562273750786
 30
0.0
 41
70.0
 42
70.0
 43
70.0
 50
90.0
  0
INSERT
  5
82F1
330
83E3
100
AcDbEntity
  8
3
 62
     0
100
AcDbBlockReference
  2
_OPEN
 10
3717.377466574617
 20
5728.562273750783
 30
0.0
 41
70.0
 42
70.0
 43
70.0
 50
270.0
  0
TEXT
  5
8344
330
83E3
100
AcDbEntity
  8
3
 62
     0
100
AcDbText
 10
3419.88
 20
6492.709999999999
 30
0.0
 40
105.0
  1
1900
100
AcDbText
  0
POINT
  5
82F3
330
83E3
100
AcDbEntity
  8
DEFPOINTS
 62
     0
100
AcDbPoint
 10
3318.605211603564
 20
7628.562273750786
 30
0.0
  0
POINT
  5
82F4
330
83E3
100
AcDbEntity
  8
DEFPOINTS
 62
     0
100
AcDbPoint
 10
3318.605211603564
 20
5728.562273750783
 30
0.0
  0
POINT
  5
82F5
330
83E3
100
AcDbEntity
  8
DEFPOINTS
 62
     0
100
AcDbPoint
 10
3717.377466574617
 20
5728.562273750783
 30
0.0
  0
ENDBLK
  5
7F8A
330
83E3
100
AcDbEntity
  8
0
100
AcDbBlockEnd
  0
BLOCK
  5
83E6
330
83E5
100
AcDbEntity
  8
0
100
AcDbBlockBegin
  2
*D14
 70
     1
 10
0.0
 20
0.0
 30
0.0
  3
*D14
  1

  0
LINE
  5
82F6
330
83E5
100
AcDbEntity
  8
3
 62
     0
100
AcDbLine
 10
1058.605211603564
 20
6646.062273750783
 30
0.0
 11
1058.605211603564
 21
7837.569634221901
 31
0.0
  0
LINE
  5
82F7
330
83E5
100
AcDbEntity
  8
3
 62
     0
100
AcDbLine
 10
1998.605211603564
 20
7646.062273750783
 30
0.0
 11
1998.605211603564
 21
7837.569634221901
 31
0.0
  0
LINE
  5
82F8
330
83E5
100
AcDbEntity
  8
3
 62
     0
100
AcDbLine
 10
1128.605211603564
 20
7802.569634221902
 30
0.0
 11
1928.605211603564
 21
7802.569634221902
 31
0.0
  0
INSERT
  5
82F9
330
83E5
100
AcDbEntity
  8
3
 62
     0
100
AcDbBlockReference
  2
_OPEN
 10
1058.605211603564
 20
7802.569634221902
 30
0.0
 41
70.0
 42
70.0
 43
70.0
 50
180.0
  0
INSERT
  5
82FA
330
83E5
100
AcDbEntity
  8
3
 62
     0
100
AcDbBlockReference
  2
_OPEN
 10
1998.605211603564
 20
7802.569634221902
 30
0.0
 41
70.0
 42
70.0
 43
70.0
  0
TEXT
  5
8345
330
83E5
100
AcDbEntity
  8
3
 62
     0
100
AcDbText
 10
1318.61
 20
7704.220000000001
 30
0.0
 40
105.0
  1
940
100
AcDbText
  0
POINT
  5
82FC
330
83E5
100
AcDbEntity
  8
DEFPOINTS
 62
     0
100
AcDbPoint
 10
1058.605211603564
 20
6628.562273750784
 30
0.0
  0
POINT
  5
82FD
330
83E5
100
AcDbEntity
  8
DEFPOINTS
 62
     0
100
AcDbPoint
 10
1998.605211603564
 20
7628.562273750784
 30
0.0
  0
POINT
  5
82FE
330
83E5
100
AcDbEntity
  8
DEFPOINTS
 62
     0
100
AcDbPoint
 10
1998.605211603564
 20
7802.569634221902
 30
0.0
  0
ENDBLK
  5
7F69
330
83E5
100
AcDbEntity
  8
0
100
AcDbBlockEnd
  0
BLOCK
  5
83E8
330
83E7
100
AcDbEntity
  8
0
100
AcDbBlockBegin
  2
*D15
 70
     1
 10
0.0
 20
0.0
 30
0.0
  3
*D15
  1

  0
LINE
  5
82FF
330
83E7
100
AcDbEntity
  8
3
 62
     0
100
AcDbLine
 10
3418.605211603564
 20
3774.025003066105
 30
0.0
 11
3418.605211603564
 21
5068.580333506538
 31
0.0
  0
LINE
  5
8300
330
83E7
100
AcDbEntity
  8
3
 62
     0
100
AcDbLine
 10
1058.605211603565
 20
2563.072834317823
 30
0.0
 11
1058.605211603565
 21
5068.580333506538
 31
0.0
  0
LINE
  5
8301
330
83E7
100
AcDbEntity
  8
3
 62
     0
100
AcDbLine
 10
3348.605211603564
 20
5033.580333506538
 30
0.0
 11
1128.605211603565
 21
5033.580333506538
 31
0.0
  0
INSERT
  5
8302
330
83E7
100
AcDbEntity
  8
3
 62
     0
100
AcDbBlockReference
  2
_OPEN
 10
3418.605211603564
 20
5033.580333506538
 30
0.0
 41
70.0
 42
70.0
 43
70.0
  0
INSERT
  5
8303
330
83E7
100
AcDbEntity
  8
3
 62
     0
100
AcDbBlockReference
  2
_OPEN
 10
1058.605211603565
 20
5033.580333506538
 30
0.0
 41
70.0
 42
70.0
 43
70.0
 50
180.0
  0
TEXT
  5
8346
330
83E7
100
AcDbEntity
  8
3
 62
     0
100
AcDbText
 10
2028.61
 20
4935.23
 30
0.0
 40
105.0
  1
2360
100
AcDbText
  0
POINT
  5
8305
330
83E7
100
AcDbEntity
  8
DEFPOINTS
 62
     0
100
AcDbPoint
 10
3418.605211603564
 20
3756.525003066105
 30
0.0
  0
POINT
  5
8306
330
83E7
100
AcDbEntity
  8
DEFPOINTS
 62
     0
100
AcDbPoint
 10
1058.605211603565
 20
2545.572834317823
 30
0.0
  0
POINT
  5
8307
330
83E7
100
AcDbEntity
  8
DEFPOINTS
 62
     0
100
AcDbPoint
 10
1058.605211603565
 20
5033.580333506538
 30
0.0
  0
ENDBLK
  5
7FA0
330
83E7
100
AcDbEntity
  8
0
100
AcDbBlockEnd
  0
BLOCK
  5
83EA
330
83E9
100
AcDbEntity
  8
0
100
AcDbBlockBegin
  2
*D16
 70
     1
 10
0.0
 20
0.0
 30
0.0
  3
*D16
  1

  0
LINE
  5
8308
330
83E9
100
AcDbEntity
  8
3
 62
     0
100
AcDbLine
 10
2594.105211603564
 20
4580.572834317824
 30
0.0
 11
4057.815125475139
 21
4580.572834317824
 31
0.0
  0
LINE
  5
8309
330
83E9
100
AcDbEntity
  8
3
 62
     0
100
AcDbLine
 10
3551.944212502297
 20
3775.572834317824
 30
0.0
 11
4057.815125475139
 21
3775.572834317824
 31
0.0
  0
LINE
  5
830A
330
83E9
100
AcDbEntity
  8
3
 62
     0
100
AcDbLine
 10
4022.81512547514
 20
4510.572834317824
 30
0.0
 11
4022.81512547514
 21
3845.572834317824
 31
0.0
  0
INSERT
  5
830B
330
83E9
100
AcDbEntity
  8
3
 62
     0
100
AcDbBlockReference
  2
_OPEN
 10
4022.81512547514
 20
4580.572834317824
 30
0.0
 41
70.0
 42
70.0
 43
70.0
 50
90.0
  0
INSERT
  5
830C
330
83E9
100
AcDbEntity
  8
3
 62
     0
100
AcDbBlockReference
  2
_OPEN
 10
4022.81512547514
 20
3775.572834317824
 30
0.0
 41
70.0
 42
70.0
 43
70.0
 50
270.0
  0
TEXT
  5
8347
330
83E9
100
AcDbEntity
  8
3
 62
     0
100
AcDbText
 10
3725.32
 20
3992.22
 30
0.0
 40
105.0
  1
805
100
AcDbText
  0
POINT
  5
830E
330
83E9
100
AcDbEntity
  8
DEFPOINTS
 62
     0
100
AcDbPoint
 10
2576.605211603564
 20
4580.572834317824
 30
0.0
  0
POINT
  5
830F
330
83E9
100
AcDbEntity
  8
DEFPOINTS
 62
     0
100
AcDbPoint
 10
3534.444212502297
 20
3775.572834317824
 30
0.0
  0
POINT
  5
8310
330
83E9
100
AcDbEntity
  8
DEFPOINTS
 62
     0
100
AcDbPoint
 10
4022.81512547514
 20
3775.572834317824
 30
0.0
  0
ENDBLK
  5
7FB6
330
83E9
100
AcDbEntity
  8
0
100
AcDbBlockEnd
  0
BLOCK
  5
83EC
330
83EB
100
AcDbEntity
  8
0
100
AcDbBlockBegin
  2
*D17
 70
     1
 10
0.0
 20
0.0
 30
0.0
  3
*D17
  1

  0
LINE
  5
8311
330
83EB
100
AcDbEntity
  8
3
 62
     0
100
AcDbLine
 10
3551.944212502297
 20
3775.572834317824
 30
0.0
 11
4057.81512547514
 21
3775.572834317824
 31
0.0
  0
LINE
  5
8312
330
83EB
100
AcDbEntity
  8
3
 62
     0
100
AcDbLine
 10
3336.105211603564
 20
2420.572834317823
 30
0.0
 11
4057.815125475139
 21
2420.572834317823
 31
0.0
  0
LINE
  5
8313
330
83EB
100
AcDbEntity
  8
3
 62
     0
100
AcDbLine
 10
4022.81512547514
 20
3705.572834317823
 30
0.0
 11
4022.81512547514
 21
2490.572834317823
 31
0.0
  0
INSERT
  5
8314
330
83EB
100
AcDbEntity
  8
3
 62
     0
100
AcDbBlockReference
  2
_OPEN
 10
4022.81512547514
 20
3775.572834317824
 30
0.0
 41
70.0
 42
70.0
 43
70.0
 50
90.0
  0
INSERT
  5
8315
330
83EB
100
AcDbEntity
  8
3
 62
     0
100
AcDbBlockReference
  2
_OPEN
 10
4022.81512547514
 20
2420.572834317823
 30
0.0
 41
70.0
 42
70.0
 43
70.0
 50
270.0
  0
TEXT
  5
8348
330
83EB
100
AcDbEntity
  8
3
 62
     0
100
AcDbText
 10
3725.32
 20
2912.22
 30
0.0
 40
105.0
  1
1355
100
AcDbText
  0
POINT
  5
8317
330
83EB
100
AcDbEntity
  8
DEFPOINTS
 62
     0
100
AcDbPoint
 10
3534.444212502297
 20
3775.572834317824
 30
0.0
  0
POINT
  5
8318
330
83EB
100
AcDbEntity
  8
DEFPOINTS
 62
     0
100
AcDbPoint
 10
3318.605211603564
 20
2420.572834317823
 30
0.0
  0
POINT
  5
8319
330
83EB
100
AcDbEntity
  8
DEFPOINTS
 62
     0
100
AcDbPoint
 10
4022.81512547514
 20
2420.572834317823
 30
0.0
  0
ENDBLK
  5
7FC1
330
83EB
100
AcDbEntity
  8
0
100
AcDbBlockEnd
  0
BLOCK
  5
83EE
330
83ED
100
AcDbEntity
  8
0
100
AcDbBlockBegin
  2
*D18
 70
     1
 10
0.0
 20
0.0
 30
0.0
  3
*D18
  1

  0
LINE
  5
831A
330
83ED
100
AcDbEntity
  8
3
 62
     0
100
AcDbLine
 10
3336.105211603564
 20
2400.572834317823
 30
0.0
 11
4057.815125475139
 21
2400.572834317823
 31
0.0
  0
LINE
  5
831B
330
83ED
100
AcDbEntity
  8
3
 62
     0
100
AcDbLine
 10
3336.105211603563
 20
2335.572834317823
 30
0.0
 11
4057.815125475139
 21
2335.572834317823
 31
0.0
  0
LINE
  5
831C
330
83ED
100
AcDbEntity
  8
3
 62
     0
100
AcDbLine
 10
4022.81512547514
 20
2470.572834317823
 30
0.0
 11
4022.81512547514
 21
2540.572834317823
 31
0.0
  0
LINE
  5
831D
330
83ED
100
AcDbEntity
  8
3
 62
     0
100
AcDbLine
 10
4022.81512547514
 20
2265.572834317823
 30
0.0
 11
4022.81512547514
 21
1955.572834317823
 31
0.0
  0
LINE
  5
831E
330
83ED
100
AcDbEntity
  8
3
 62
     0
100
AcDbLine
 10
4022.81512547514
 20
2400.572834317823
 30
0.0
 11
4022.81512547514
 21
2335.572834317823
 31
0.0
  0
INSERT
  5
831F
330
83ED
100
AcDbEntity
  8
3
 62
     0
100
AcDbBlockReference
  2
_DOT
 10
4022.81512547514
 20
2400.572834317823
 30
0.0
 41
70.0
 42
70.0
 43
70.0
 50
270.0
  0
INSERT
  5
8320
330
83ED
100
AcDbEntity
  8
3
 62
     0
100
AcDbBlockReference
  2
_OPEN
 10
4022.81512547514
 20
2335.572834317823
 30
0.0
 41
70.0
 42
70.0
 43
70.0
 50
90.0
  0
TEXT
  5
8349
330
83ED
100
AcDbEntity
  8
3
 62
     0
100
AcDbText
 10
3725.32
 20
1889.72
 30
0.0
 40
105.0
  1
65
100
AcDbText
  0
POINT
  5
8322
330
83ED
100
AcDbEntity
  8
DEFPOINTS
 62
     0
100
AcDbPoint
 10
3318.605211603564
 20
2400.572834317823
 30
0.0
  0
POINT
  5
8323
330
83ED
100
AcDbEntity
  8
DEFPOINTS
 62
     0
100
AcDbPoint
 10
3318.605211603564
 20
2335.572834317823
 30
0.0
  0
POINT
  5
8324
330
83ED
100
AcDbEntity
  8
DEFPOINTS
 62
     0
100
AcDbPoint
 10
4022.81512547514
 20
2335.572834317823
 30
0.0
  0
ENDBLK
  5
80CB
330
83ED
100
AcDbEntity
  8
0
100
AcDbBlockEnd
  0
BLOCK
  5
83F4
330
83EF
100
AcDbEntity
  8
0
100
AcDbBlockBegin
  2
_DOT
 70
     0
 10
0.0
 20
0.0
 30
0.0
  3
_DOT
  1

  0
LWPOLYLINE
  5
80CE
330
83EF
100
AcDbEntity
  8
0
  6
ByBlock
 62
     0
100
AcDbPolyline
 90
        2
 70
     1
 43
0.25
 10
-0.125
 20
0.0
 42
1.0
 10
0.125
 20
0.0
 42
1.0
  0
LINE
  5
80D2
330
83EF
100
AcDbEntity
  8
0
  6
ByBlock
 62
     0
100
AcDbLine
 10
-0.25
 20
0.0
 30
0.0
 11
-1.0
 21
0.0
 31
0.0
  0
ENDBLK
  5
80B1
330
83EF
100
AcDbEntity
  8
0
100
AcDbBlockEnd
  0
BLOCK
  5
83F1
330
83F0
100
AcDbEntity
  8
0
100
AcDbBlockBegin
  2
*D20
 70
     1
 10
0.0
 20
0.0
 30
0.0
  3
*D20
  1

  0
LINE
  5
8325
330
83F0
100
AcDbEntity
  8
3
 62
     0
100
AcDbLine
 10
3418.605211603564
 20
3798.072834317823
 30
0.0
 11
3418.605211603564
 21
4841.000164564144
 31
0.0
  0
LINE
  5
8326
330
83F0
100
AcDbEntity
  8
3
 62
     0
100
AcDbLine
 10
2658.605211603564
 20
4659.141027998225
 30
0.0
 11
2658.605211603564
 21
4841.000164564144
 31
0.0
  0
LINE
  5
8327
330
83F0
100
AcDbEntity
  8
3
 62
     0
100
AcDbLine
 10
3348.605211603564
 20
4806.000164564144
 30
0.0
 11
2728.605211603564
 21
4806.000164564144
 31
0.0
  0
INSERT
  5
8328
330
83F0
100
AcDbEntity
  8
3
 62
     0
100
AcDbBlockReference
  2
_OPEN
 10
3418.605211603564
 20
4806.000164564144
 30
0.0
 41
70.0
 42
70.0
 43
70.0
  0
INSERT
  5
8329
330
83F0
100
AcDbEntity
  8
3
 62
     0
100
AcDbBlockReference
  2
_OPEN
 10
2658.605211603564
 20
4806.000164564144
 30
0.0
 41
70.0
 42
70.0
 43
70.0
 50
180.0
  0
TEXT
  5
834A
330
83F0
100
AcDbEntity
  8
3
 62
     0
100
AcDbText
 10
2828.61
 20
4707.65
 30
0.0
 40
105.0
  1
760
100
AcDbText
  0
POINT
  5
832B
330
83F0
100
AcDbEntity
  8
DEFPOINTS
 62
     0
100
AcDbPoint
 10
3418.605211603564
 20
3780.572834317823
 30
0.0
  0
POINT
  5
832C
330
83F0
100
AcDbEntity
  8
DEFPOINTS
 62
     0
100
AcDbPoint
 10
2658.605211603564
 20
4641.641027998224
 30
0.0
  0
POINT
  5
832D
330
83F0
100
AcDbEntity
  8
DEFPOINTS
 62
     0
100
AcDbPoint
 10
2658.605211603564
 20
4806.000164564144
 30
0.0
  0
ENDBLK
  5
7F95
330
83F0
100
AcDbEntity
  8
0
100
AcDbBlockEnd
  0
BLOCK
  5
83F3
330
83F2
100
AcDbEntity
  8
0
100
AcDbBlockBegin
  2
*D21
 70
     1
 10
0.0
 20
0.0
 30
0.0
  3
*D21
  1

  0
LINE
  5
832E
330
83F2
100
AcDbEntity
  8
3
 62
     0
100
AcDbLine
 10
2658.605211603564
 20
4659.141027998225
 30
0.0
 11
2658.605211603564
 21
4841.000164564144
 31
0.0
  0
LINE
  5
832F
330
83F2
100
AcDbEntity
  8
3
 62
     0
100
AcDbLine
 10
1689.605211603564
 20
3711.072834317823
 30
0.0
 11
1689.605211603564
 21
4841.000164564144
 31
0.0
  0
LINE
  5
8330
330
83F2
100
AcDbEntity
  8
3
 62
     0
100
AcDbLine
 10
2588.605211603564
 20
4806.000164564144
 30
0.0
 11
1759.605211603564
 21
4806.000164564144
 31
0.0
  0
INSERT
  5
8331
330
83F2
100
AcDbEntity
  8
3
 62
     0
100
AcDbBlockReference
  2
_OPEN
 10
2658.605211603564
 20
4806.000164564144
 30
0.0
 41
70.0
 42
70.0
 43
70.0
  0
INSERT
  5
8332
330
83F2
100
AcDbEntity
  8
3
 62
     0
100
AcDbBlockReference
  2
_OPEN
 10
1689.605211603564
 20
4806.000164564144
 30
0.0
 41
70.0
 42
70.0
 43
70.0
 50
180.0
  0
TEXT
  5
834B
330
83F2
100
AcDbEntity
  8
3
 62
     0
100
AcDbText
 10
1964.109999999999
 20
4707.65
 30
0.0
 40
105.0
  1
969
100
AcDbText
  0
POINT
  5
8334
330
83F2
100
AcDbEntity
  8
DEFPOINTS
 62
     0
100
AcDbPoint
 10
2658.605211603564
 20
4641.641027998224
 30
0.0
  0
POINT
  5
8335
330
83F2
100
AcDbEntity
  8
DEFPOINTS
 62
     0
100
AcDbPoint
 10
1689.605211603564
 20
3693.572834317823
 30
0.0
  0
POINT
  5
8336
330
83F2
100
AcDbEntity
  8
DEFPOINTS
 62
     0
100
AcDbPoint
 10
1689.605211603564
 20
4806.000164564144
 30
0.0
  0
ENDBLK
  5
7FAB
330
83F2
100
AcDbEntity
  8
0
100
AcDbBlockEnd
  0
BLOCK
  5
83F6
330
83F5
100
AcDbEntity
  8
0
100
AcDbBlockBegin
  2
*D22
 70
     1
 10
0.0
 20
0.0
 30
0.0
  3
*D22
  1

  0
LINE
  5
814C
330
83F5
100
AcDbEntity
  8
0
  6
ByBlock
 62
     0
100
AcDbLine
 10
1058.605211603565
 20
2318.072834317823
 30
0.0
 11
1058.605211603565
 21
2061.993710778868
 31
0.0
  0
LINE
  5
814D
330
83F5
100
AcDbEntity
  8
0
  6
ByBlock
 62
     0
100
AcDbLine
 10
2658.605211603564
 20
2318.072834317823
 30
0.0
 11
2658.605211603564
 21
2061.993710778868
 31
0.0
  0
LINE
  5
814E
330
83F5
100
AcDbEntity
  8
0
  6
ByBlock
 62
     0
100
AcDbLine
 10
1128.605211603565
 20
2096.993710778868
 30
0.0
 11
2588.605211603565
 21
2096.993710778868
 31
0.0
  0
INSERT
  5
814F
330
83F5
100
AcDbEntity
  8
0
  6
ByBlock
 62
     0
100
AcDbBlockReference
  2
_OPEN
 10
1058.605211603565
 20
2096.993710778868
 30
0.0
 41
70.0
 42
70.0
 43
70.0
 50
180.0
  0
INSERT
  5
8150
330
83F5
100
AcDbEntity
  8
0
  6
ByBlock
 62
     0
100
AcDbBlockReference
  2
_OPEN
 10
2658.605211603564
 20
2096.993710778868
 30
0.0
 41
70.0
 42
70.0
 43
70.0
  0
TEXT
  5
8151
330
83F5
100
AcDbEntity
  8
3
 62
     0
100
AcDbText
 10
1683.605211603565
 20
2131.993710778868
 30
0.0
 40
105.0
  1
1600
100
AcDbText
  0
POINT
  5
8152
330
83F5
100
AcDbEntity
  8
DEFPOINTS
  6
ByBlock
 62
     0
100
AcDbPoint
 10
1058.605211603565
 20
2335.572834317823
 30
0.0
  0
POINT
  5
8153
330
83F5
100
AcDbEntity
  8
DEFPOINTS
  6
ByBlock
 62
     0
100
AcDbPoint
 10
2658.605211603564
 20
2335.572834317823
 30
0.0
  0
POINT
  5
8154
330
83F5
100
AcDbEntity
  8
DEFPOINTS
  6
ByBlock
 62
     0
100
AcDbPoint
 10
2658.605211603564
 20
2096.993710778868
 30
0.0
  0
ENDBLK
  5
8155
330
83F5
100
AcDbEntity
  8
0
100
AcDbBlockEnd
  0
BLOCK
  5
83F8
330
83F7
100
AcDbEntity
  8
0
100
AcDbBlockBegin
  2
*D23
 70
     1
 10
0.0
 20
0.0
 30
0.0
  3
*D23
  1

  0
LINE
  5
8159
330
83F7
100
AcDbEntity
  8
0
  6
ByBlock
 62
     0
100
AcDbLine
 10
2658.605211603564
 20
2318.072834317823
 30
0.0
 11
2658.605211603564
 21
2061.993710778868
 31
0.0
  0
LINE
  5
815A
330
83F7
100
AcDbEntity
  8
0
  6
ByBlock
 62
     0
100
AcDbLine
 10
3318.605211603564
 20
2318.072834317823
 30
0.0
 11
3318.605211603564
 21
2061.993710778868
 31
0.0
  0
LINE
  5
815B
330
83F7
100
AcDbEntity
  8
0
  6
ByBlock
 62
     0
100
AcDbLine
 10
2728.605211603564
 20
2096.993710778868
 30
0.0
 11
3248.605211603563
 21
2096.993710778868
 31
0.0
  0
INSERT
  5
815C
330
83F7
100
AcDbEntity
  8
0
  6
ByBlock
 62
     0
100
AcDbBlockReference
  2
_OPEN
 10
2658.605211603564
 20
2096.993710778868
 30
0.0
 41
70.0
 42
70.0
 43
70.0
 50
180.0
  0
INSERT
  5
815D
330
83F7
100
AcDbEntity
  8
0
  6
ByBlock
 62
     0
100
AcDbBlockReference
  2
_OPEN
 10
3318.605211603564
 20
2096.993710778868
 30
0.0
 41
70.0
 42
70.0
 43
70.0
  0
TEXT
  5
815E
330
83F7
100
AcDbEntity
  8
3
 62
     0
100
AcDbText
 10
2853.605211603564
 20
2131.993710778868
 30
0.0
 40
105.0
  1
660
100
AcDbText
  0
POINT
  5
815F
330
83F7
100
AcDbEntity
  8
DEFPOINTS
  6
ByBlock
 62
     0
100
AcDbPoint
 10
2658.605211603564
 20
2335.572834317823
 30
0.0
  0
POINT
  5
8160
330
83F7
100
AcDbEntity
  8
DEFPOINTS
  6
ByBlock
 62
     0
100
AcDbPoint
 10
3318.605211603564
 20
2335.572834317823
 30
0.0
  0
POINT
  5
8161
330
83F7
100
AcDbEntity
  8
DEFPOINTS
  6
ByBlock
 62
     0
100
AcDbPoint
 10
3318.605211603564
 20
2096.993710778868
 30
0.0
  0
ENDBLK
  5
8162
330
83F7
100
AcDbEntity
  8
0
100
AcDbBlockEnd
  0
BLOCK
  5
83FA
330
83F9
100
AcDbEntity
  8
0
100
AcDbBlockBegin
  2
*D24
 70
     1
 10
0.0
 20
0.0
 30
0.0
  3
*D24
  1

  0
LINE
  5
8166
330
83F9
100
AcDbEntity
  8
0
  6
ByBlock
 62
     0
100
AcDbLine
 10
4561.752841307494
 20
2318.072834317823
 30
0.0
 11
4561.752841307494
 21
2061.993710778868
 31
0.0
  0
LINE
  5
8167
330
83F9
100
AcDbEntity
  8
0
  6
ByBlock
 62
     0
100
AcDbLine
 10
5643.752841307505
 20
2318.072834317823
 30
0.0
 11
5643.752841307505
 21
2061.993710778868
 31
0.0
  0
LINE
  5
8168
330
83F9
100
AcDbEntity
  8
0
  6
ByBlock
 62
     0
100
AcDbLine
 10
4631.752841307494
 20
2096.993710778868
 30
0.0
 11
5573.752841307506
 21
2096.993710778868
 31
0.0
  0
INSERT
  5
8169
330
83F9
100
AcDbEntity
  8
0
  6
ByBlock
 62
     0
100
AcDbBlockReference
  2
_OPEN
 10
4561.752841307494
 20
2096.993710778868
 30
0.0
 41
70.0
 42
70.0
 43
70.0
 50
180.0
  0
INSERT
  5
816A
330
83F9
100
AcDbEntity
  8
0
  6
ByBlock
 62
     0
100
AcDbBlockReference
  2
_OPEN
 10
5643.752841307505
 20
2096.993710778868
 30
0.0
 41
70.0
 42
70.0
 43
70.0
  0
TEXT
  5
816B
330
83F9
100
AcDbEntity
  8
3
 62
     0
100
AcDbText
 10
4927.7528413075
 20
2131.993710778868
 30
0.0
 40
105.0
  1
1082
100
AcDbText
  0
POINT
  5
816C
330
83F9
100
AcDbEntity
  8
DEFPOINTS
  6
ByBlock
 62
     0
100
AcDbPoint
 10
4561.752841307494
 20
2335.572834317823
 30
0.0
  0
POINT
  5
816D
330
83F9
100
AcDbEntity
  8
DEFPOINTS
  6
ByBlock
 62
     0
100
AcDbPoint
 10
5643.752841307505
 20
2335.572834317823
 30
0.0
  0
POINT
  5
816E
330
83F9
100
AcDbEntity
  8
DEFPOINTS
  6
ByBlock
 62
     0
100
AcDbPoint
 10
5643.752841307505
 20
2096.993710778868
 30
0.0
  0
ENDBLK
  5
816F
330
83F9
100
AcDbEntity
  8
0
100
AcDbBlockEnd
  0
BLOCK
  5
83FC
330
83FB
100
AcDbEntity
  8
0
100
AcDbBlockBegin
  2
*D25
 70
     1
 10
0.0
 20
0.0
 30
0.0
  3
*D25
  1

  0
LINE
  5
8173
330
83FB
100
AcDbEntity
  8
0
  6
ByBlock
 62
     0
100
AcDbLine
 10
5643.752841307505
 20
2318.072834317823
 30
0.0
 11
5643.752841307505
 21
2061.993710778868
 31
0.0
  0
LINE
  5
8174
330
83FB
100
AcDbEntity
  8
0
  6
ByBlock
 62
     0
100
AcDbLine
 10
6461.752841307483
 20
2318.072834317823
 30
0.0
 11
6461.752841307483
 21
2061.993710778868
 31
0.0
  0
LINE
  5
8175
330
83FB
100
AcDbEntity
  8
0
  6
ByBlock
 62
     0
100
AcDbLine
 10
5713.752841307505
 20
2096.993710778868
 30
0.0
 11
6391.752841307484
 21
2096.993710778868
 31
0.0
  0
INSERT
  5
8176
330
83FB
100
AcDbEntity
  8
0
  6
ByBlock
 62
     0
100
AcDbBlockReference
  2
_OPEN
 10
5643.752841307505
 20
2096.993710778868
 30
0.0
 41
70.0
 42
70.0
 43
70.0
 50
180.0
  0
INSERT
  5
8177
330
83FB
100
AcDbEntity
  8
0
  6
ByBlock
 62
     0
100
AcDbBlockReference
  2
_OPEN
 10
6461.752841307483
 20
2096.993710778868
 30
0.0
 41
70.0
 42
70.0
 43
70.0
  0
TEXT
  5
8178
330
83FB
100
AcDbEntity
  8
3
 62
     0
100
AcDbText
 10
5927.752841307494
 20
2131.993710778868
 30
0.0
 40
105.0
  1
818
100
AcDbText
  0
POINT
  5
8179
330
83FB
100
AcDbEntity
  8
DEFPOINTS
  6
ByBlock
 62
     0
100
AcDbPoint
 10
5643.752841307505
 20
2335.572834317823
 30
0.0
  0
POINT
  5
817A
330
83FB
100
AcDbEntity
  8
DEFPOINTS
  6
ByBlock
 62
     0
100
AcDbPoint
 10
6461.752841307483
 20
2335.572834317823
 30
0.0
  0
POINT
  5
817B
330
83FB
100
AcDbEntity
  8
DEFPOINTS
  6
ByBlock
 62
     0
100
AcDbPoint
 10
6461.752841307483
 20
2096.993710778868
 30
0.0
  0
ENDBLK
  5
817C
330
83FB
100
AcDbEntity
  8
0
100
AcDbBlockEnd
  0
BLOCK
  5
83FE
330
83FD
100
AcDbEntity
  8
0
100
AcDbBlockBegin
  2
_NONE
 70
     0
 10
0.0
 20
0.0
 30
0.0
  3
_NONE
  1

  0
CIRCLE
  5
8180
330
83FD
100
AcDbEntity
  8
0
  6
ByBlock
 62
     0
100
AcDbCircle
 10
0.0
 20
0.0
 30
0.0
 40
0.25
  0
ENDBLK
  5
8181
330
83FD
100
AcDbEntity
  8
0
100
AcDbBlockEnd
  0
BLOCK
  5
8400
330
83FF
100
AcDbEntity
  8
0
100
AcDbBlockBegin
  2
*D27
 70
     1
 10
0.0
 20
0.0
 30
0.0
  3
*D27
  1

  0
LINE
  5
81AD
330
83FF
100
AcDbEntity
  8
0
  6
ByBlock
 62
     0
100
AcDbLine
 10
4022.193217638306
 20
2400.572834317823
 30
0.0
 11
4022.193217638306
 21
2400.572834317823
 31
0.0
  0
LINE
  5
81AE
330
83FF
100
AcDbEntity
  8
0
  6
ByBlock
 62
     0
100
AcDbLine
 10
4022.193217638306
 20
2420.572834317823
 30
0.0
 11
4022.193217638306
 21
2560.572834317823
 31
0.0
  0
TEXT
  5
81AF
330
83FF
100
AcDbEntity
  8
3
 62
     0
100
AcDbText
 10
4224.693217638305
 20
2163.572834317823
 30
0.0
 40
105.0
  1
   (20)
 50
90.0
100
AcDbText
  0
LINE
  5
81B0
330
83FF
100
AcDbEntity
  8
0
  6
ByBlock
 62
     0
100
AcDbLine
 10
4022.193217638306
 20
2400.572834317823
 30
0.0
 11
4022.193217638306
 21
2420.572834317823
 31
0.0
  0
POINT
  5
81B1
330
83FF
100
AcDbEntity
  8
DEFPOINTS
  6
ByBlock
 62
     0
100
AcDbPoint
 10
3318.605211603564
 20
2400.572834317823
 30
0.0
  0
POINT
  5
81B2
330
83FF
100
AcDbEntity
  8
DEFPOINTS
  6
ByBlock
 62
     0
100
AcDbPoint
 10
3318.605211603564
 20
2420.572834317823
 30
0.0
  0
POINT
  5
81B3
330
83FF
100
AcDbEntity
  8
DEFPOINTS
  6
ByBlock
 62
     0
100
AcDbPoint
 10
4022.193217638306
 20
2420.572834317823
 30
0.0
  0
ENDBLK
  5
81B4
330
83FF
100
AcDbEntity
  8
0
100
AcDbBlockEnd
  0
BLOCK
  5
8402
330
8401
100
AcDbEntity
  8
0
100
AcDbBlockBegin
  2
*D28
 70
     1
 10
0.0
 20
0.0
 30
0.0
  3
*D28
  1

  0
LINE
  5
818F
330
8401
100
AcDbEntity
  8
0
  6
ByBlock
 62
     0
100
AcDbLine
 10
3336.105211603563
 20
2335.572834317823
 30
0.0
 11
4324.13059146735
 21
2335.572834317823
 31
0.0
  0
LINE
  5
8190
330
8401
100
AcDbEntity
  8
0
  6
ByBlock
 62
     0
100
AcDbLine
 10
2611.605211603564
 20
4580.572834317824
 30
0.0
 11
4324.13059146735
 21
4580.572834317824
 31
0.0
  0
LINE
  5
8191
330
8401
100
AcDbEntity
  8
0
  6
ByBlock
 62
     0
100
AcDbLine
 10
4289.13059146735
 20
2405.572834317823
 30
0.0
 11
4289.13059146735
 21
4510.572834317824
 31
0.0
  0
INSERT
  5
8192
330
8401
100
AcDbEntity
  8
0
  6
ByBlock
 62
     0
100
AcDbBlockReference
  2
_OPEN
 10
4289.13059146735
 20
2335.572834317823
 30
0.0
 41
70.0
 42
70.0
 43
70.0
 50
270.0
  0
INSERT
  5
8193
330
8401
100
AcDbEntity
  8
0
  6
ByBlock
 62
     0
100
AcDbBlockReference
  2
_OPEN
 10
4289.13059146735
 20
4580.572834317824
 30
0.0
 41
70.0
 42
70.0
 43
70.0
 50
90.0
  0
TEXT
  5
8194
330
8401
100
AcDbEntity
  8
3
 62
     0
100
AcDbText
 10
4209.13059146735
 20
3205.572834317823
 30
0.0
 40
105.0
  1
(2245)
 50
90.0
100
AcDbText
  0
POINT
  5
8195
330
8401
100
AcDbEntity
  8
DEFPOINTS
  6
ByBlock
 62
     0
100
AcDbPoint
 10
3318.605211603564
 20
2335.572834317823
 30
0.0
  0
POINT
  5
8196
330
8401
100
AcDbEntity
  8
DEFPOINTS
  6
ByBlock
 62
     0
100
AcDbPoint
 10
2594.105211603564
 20
4580.572834317824
 30
0.0
  0
POINT
  5
8197
330
8401
100
AcDbEntity
  8
DEFPOINTS
  6
ByBlock
 62
     0
100
AcDbPoint
 10
4289.13059146735
 20
4580.572834317824
 30
0.0
  0
ENDBLK
  5
8198
330
8401
100
AcDbEntity
  8
0
100
AcDbBlockEnd
  0
BLOCK
  5
840D
330
840C
100
AcDbEntity
  8
0
100
AcDbBlockBegin
  2
*D29
 70
     1
 10
0.0
 20
0.0
 30
0.0
  3
*D29
  1

  0
LINE
  5
844B
330
840C
100
AcDbEntity
  8
3
 62
     0
370
    -2
100
AcDbLine
 10
6411.252841307505
 20
4335.572834317823
 30
0.0
 11
6877.496091453075
 21
4335.572834317823
 31
0.0
  0
LINE
  5
844C
330
840C
100
AcDbEntity
  8
3
 62
     0
370
    -2
100
AcDbLine
 10
6411.252841307504
 20
3215.572834317824
 30
0.0
 11
6877.496091453075
 21
3215.572834317824
 31
0.0
  0
LINE
  5
844D
330
840C
100
AcDbEntity
  8
3
 62
     0
370
    -2
100
AcDbLine
 10
6842.496091453075
 20
4265.572834317823
 30
0.0
 11
6842.496091453075
 21
3285.572834317823
 31
0.0
  0
INSERT
  5
844E
330
840C
100
AcDbEntity
  8
3
 62
     0
370
    -2
100
AcDbBlockReference
  2
_OPEN
 10
6842.496091453075
 20
4335.572834317823
 30
0.0
 41
70.0
 42
70.0
 43
70.0
 50
90.0
  0
INSERT
  5
844F
330
840C
100
AcDbEntity
  8
3
 62
     0
370
    -2
100
AcDbBlockReference
  2
_OPEN
 10
6842.496091453075
 20
3215.572834317824
 30
0.0
 41
70.0
 42
70.0
 43
70.0
 50
270.0
  0
MTEXT
  5
8450
330
840C
100
AcDbEntity
  8
3
 62
     0
100
AcDbMText
 10
6754.996091453074
 20
3775.572834317824
 30
0.0
 40
105.0
 41
0.0
 71
     5
 72
     1
  1
\A1;\U+03C61120
 11
0.0000000000000001
 21
1.0
 31
0.0
 73
     1
 44
1.0
1001
ACAD
1000
MTEXTBEGIN
1070
    73
1070
     1
1070
    44
1040
1.0
1070
    74
1070
     0
1000
MTEXTEND
  0
POINT
  5
8451
330
840C
100
AcDbEntity
  8
DEFPOINTS
 62
     0
100
AcDbPoint
 10
6393.752841307505
 20
4335.572834317823
 30
0.0
  0
POINT
  5
8452
330
840C
100
AcDbEntity
  8
DEFPOINTS
 62
     0
100
AcDbPoint
 10
6393.752841307504
 20
3215.572834317824
 30
0.0
  0
POINT
  5
8453
330
840C
100
AcDbEntity
  8
DEFPOINTS
 62
     0
100
AcDbPoint
 10
6842.496091453075
 20
3215.572834317824
 30
0.0
  0
ENDBLK
  5
840E
330
840C
100
AcDbEntity
  8
0
100
AcDbBlockEnd
  0
BLOCK
  5
841A
330
8419
100
AcDbEntity
  8
0
100
AcDbBlockBegin
  2
*D30
 70
     1
 10
0.0
 20
0.0
 30
0.0
  3
*D30
  1

  0
LINE
  5
841C
330
8419
100
AcDbEntity
  8
3
 62
     0
370
    -2
100
AcDbLine
 10
4893.752841307505
 20
4598.072834317824
 30
0.0
 11
4893.752841307505
 21
4869.012473370222
 31
0.0
  0
LINE
  5
841D
330
8419
100
AcDbEntity
  8
3
 62
     0
370
    -2
100
AcDbLine
 10
6393.752841307505
 20
4598.072834317824
 30
0.0
 11
6393.752841307505
 21
4869.012473370222
 31
0.0
  0
LINE
  5
841E
330
8419
100
AcDbEntity
  8
3
 62
     0
370
    -2
100
AcDbLine
 10
4963.752841307505
 20
4834.012473370222
 30
0.0
 11
6323.752841307506
 21
4834.012473370222
 31
0.0
  0
INSERT
  5
841F
330
8419
100
AcDbEntity
  8
3
 62
     0
370
    -2
100
AcDbBlockReference
  2
_OPEN
 10
4893.752841307505
 20
4834.012473370222
 30
0.0
 41
70.0
 42
70.0
 43
70.0
 50
180.0
  0
INSERT
  5
8420
330
8419
100
AcDbEntity
  8
3
 62
     0
370
    -2
100
AcDbBlockReference
  2
_OPEN
 10
6393.752841307505
 20
4834.012473370222
 30
0.0
 41
70.0
 42
70.0
 43
70.0
  0
MTEXT
  5
8421
330
8419
100
AcDbEntity
  8
3
 62
     0
100
AcDbMText
 10
5643.752841307505
 20
4921.512473370222
 30
0.0
 40
105.0
 41
0.0
 71
     5
 72
     1
  1
\A1;1500
 73
     1
 44
1.0
1001
ACAD
1000
MTEXTBEGIN
1070
    73
1070
     1
1070
    44
1040
1.0
1070
    74
1070
     0
1000
MTEXTEND
  0
POINT
  5
8422
330
8419
100
AcDbEntity
  8
DEFPOINTS
 62
     0
100
AcDbPoint
 10
4893.752841307505
 20
4580.572834317824
 30
0.0
  0
POINT
  5
8423
330
8419
100
AcDbEntity
  8
DEFPOINTS
 62
     0
100
AcDbPoint
 10
6393.752841307505
 20
4580.572834317824
 30
0.0
  0
POINT
  5
8424
330
8419
100
AcDbEntity
  8
DEFPOINTS
 62
     0
100
AcDbPoint
 10
6393.752841307505
 20
4834.012473370222
 30
0.0
  0
ENDBLK
  5
841B
330
8419
100
AcDbEntity
  8
0
100
AcDbBlockEnd
  0
BLOCK
  5
8427
330
8426
100
AcDbEntity
  8
0
100
AcDbBlockBegin
  2
*D31
 70
     1
 10
0.0
 20
0.0
 30
0.0
  3
*D31
  1

  0
LINE
  5
848A
330
8426
100
AcDbEntity
  8
3
 62
     0
370
    -2
100
AcDbLine
 10
4523.752841307505
 20
4173.072834317824
 30
0.0
 11
4523.752841307505
 21
5094.317625186006
 31
0.0
  0
LINE
  5
848B
330
8426
100
AcDbEntity
  8
3
 62
     0
370
    -2
100
AcDbLine
 10
5643.752841307505
 20
4991.512473370222
 30
0.0
 11
5643.752841307505
 21
5094.317625186006
 31
0.0
  0
LINE
  5
848C
330
8426
100
AcDbEntity
  8
3
 62
     0
370
    -2
100
AcDbLine
 10
4593.752841307504
 20
5059.317625186006
 30
0.0
 11
5573.752841307506
 21
5059.317625186006
 31
0.0
  0
INSERT
  5
848D
330
8426
100
AcDbEntity
  8
3
 62
     0
370
    -2
100
AcDbBlockReference
  2
_OPEN
 10
4523.752841307505
 20
5059.317625186006
 30
0.0
 41
70.0
 42
70.0
 43
70.0
 50
180.0
  0
INSERT
  5
848E
330
8426
100
AcDbEntity
  8
3
 62
     0
370
    -2
100
AcDbBlockReference
  2
_OPEN
 10
5643.752841307505
 20
5059.317625186006
 30
0.0
 41
70.0
 42
70.0
 43
70.0
  0
MTEXT
  5
848F
330
8426
100
AcDbEntity
  8
3
 62
     0
100
AcDbMText
 10
5083.752841307505
 20
5174.317625186006
 30
0.0
 40
105.0
 41
0.0
 71
     5
 72
     1
  1
\A1;(1120)
 73
     1
 44
1.0
1001
ACAD
1000
MTEXTBEGIN
1070
    73
1070
     1
1070
    44
1040
1.0
1070
    74
1070
     0
1000
MTEXTEND
  0
POINT
  5
8490
330
8426
100
AcDbEntity
  8
DEFPOINTS
 62
     0
100
AcDbPoint
 10
4523.752841307505
 20
4155.572834317824
 30
0.0
  0
POINT
  5
8491
330
8426
100
AcDbEntity
  8
DEFPOINTS
 62
     0
100
AcDbPoint
 10
5643.752841307505
 20
4974.012473370223
 30
0.0
  0
POINT
  5
8492
330
8426
100
AcDbEntity
  8
DEFPOINTS
 62
     0
100
AcDbPoint
 10
5643.752841307505
 20
5059.317625186006
 30
0.0
  0
ENDBLK
  5
8428
330
8426
100
AcDbEntity
  8
0
100
AcDbBlockEnd
  0
BLOCK
  5
8434
330
8433
100
AcDbEntity
  8
0
100
AcDbBlockBegin
  2
*D32
 70
     1
 10
0.0
 20
0.0
 30
0.0
  3
*D32
  1

  0
LINE
  5
8493
330
8433
100
AcDbEntity
  8
3
 62
     0
370
    -2
100
AcDbLine
 10
5643.752841307505
 20
4991.512473370222
 30
0.0
 11
5643.752841307505
 21
5094.317625186006
 31
0.0
  0
LINE
  5
8494
330
8433
100
AcDbEntity
  8
3
 62
     0
370
    -2
100
AcDbLine
 10
6573.752841307506
 20
3720.072834317824
 30
0.0
 11
6573.752841307506
 21
5094.317625186006
 31
0.0
  0
LINE
  5
8495
330
8433
100
AcDbEntity
  8
3
 62
     0
370
    -2
100
AcDbLine
 10
5713.752841307505
 20
5059.317625186006
 30
0.0
 11
6503.752841307505
 21
5059.317625186006
 31
0.0
  0
INSERT
  5
8496
330
8433
100
AcDbEntity
  8
3
 62
     0
370
    -2
100
AcDbBlockReference
  2
_OPEN
 10
5643.752841307505
 20
5059.317625186006
 30
0.0
 41
70.0
 42
70.0
 43
70.0
 50
180.0
  0
INSERT
  5
8497
330
8433
100
AcDbEntity
  8
3
 62
     0
370
    -2
100
AcDbBlockReference
  2
_OPEN
 10
6573.752841307506
 20
5059.317625186006
 30
0.0
 41
70.0
 42
70.0
 43
70.0
  0
MTEXT
  5
8498
330
8433
100
AcDbEntity
  8
3
 62
     0
100
AcDbMText
 10
6108.752841307506
 20
5174.317625186006
 30
0.0
 40
105.0
 41
0.0
 71
     5
 72
     1
  1
\A1;(930)
 73
     1
 44
1.0
1001
ACAD
1000
MTEXTBEGIN
1070
    73
1070
     1
1070
    44
1040
1.0
1070
    74
1070
     0
1000
MTEXTEND
  0
POINT
  5
8499
330
8433
100
AcDbEntity
  8
DEFPOINTS
 62
     0
100
AcDbPoint
 10
5643.752841307505
 20
4974.012473370223
 30
0.0
  0
POINT
  5
849A
330
8433
100
AcDbEntity
  8
DEFPOINTS
 62
     0
100
AcDbPoint
 10
6573.752841307506
 20
3702.572834317823
 30
0.0
  0
POINT
  5
849B
330
8433
100
AcDbEntity
  8
DEFPOINTS
 62
     0
100
AcDbPoint
 10
6573.752841307506
 20
5059.317625186006
 30
0.0
  0
ENDBLK
  5
8435
330
8433
100
AcDbEntity
  8
0
100
AcDbBlockEnd
  0
BLOCK
  5
849E
330
849D
100
AcDbEntity
  8
0
100
AcDbBlockBegin
  2
*D33
 70
     1
 10
0.0
 20
0.0
 30
0.0
  3
*D33
  1

  0
LINE
  5
84A9
330
849D
100
AcDbEntity
  8
3
 62
     0
370
    -2
100
AcDbLine
 10
3512.963443351298
 20
6810.562273750784
 30
0.0
 11
4059.491637713573
 21
6810.562273750784
 31
0.0
  0
LINE
  5
84AA
330
849D
100
AcDbEntity
  8
3
 62
     0
370
    -2
100
AcDbLine
 10
3056.105211603564
 20
5690.562273750784
 30
0.0
 11
4059.491637713573
 21
5690.562273750784
 31
0.0
  0
LINE
  5
84AB
330
849D
100
AcDbEntity
  8
3
 62
     0
370
    -2
100
AcDbLine
 10
4024.491637713574
 20
6740.562273750784
 30
0.0
 11
4024.491637713574
 21
5760.562273750784
 31
0.0
  0
INSERT
  5
84AC
330
849D
100
AcDbEntity
  8
3
 62
     0
370
    -2
100
AcDbBlockReference
  2
_OPEN
 10
4024.491637713574
 20
6810.562273750784
 30
0.0
 41
70.0
 42
70.0
 43
70.0
 50
90.0
  0
INSERT
  5
84AD
330
849D
100
AcDbEntity
  8
3
 62
     0
370
    -2
100
AcDbBlockReference
  2
_OPEN
 10
4024.491637713574
 20
5690.562273750784
 30
0.0
 41
70.0
 42
70.0
 43
70.0
 50
270.0
  0
MTEXT
  5
84AE
330
849D
100
AcDbEntity
  8
3
 62
     0
100
AcDbMText
 10
3936.991637713573
 20
6250.562273750785
 30
0.0
 40
105.0
 41
0.0
 71
     5
 72
     1
  1
\A1;1120
 11
0.0000000000000001
 21
1.0
 31
0.0
 73
     1
 44
1.0
1001
ACAD
1000
MTEXTBEGIN
1070
    73
1070
     1
1070
    44
1040
1.0
1070
    74
1070
     0
1000
MTEXTEND
  0
POINT
  5
84AF
330
849D
100
AcDbEntity
  8
DEFPOINTS
 62
     0
100
AcDbPoint
 10
3495.463443351297
 20
6810.562273750784
 30
0.0
  0
POINT
  5
84B0
330
849D
100
AcDbEntity
  8
DEFPOINTS
 62
     0
100
AcDbPoint
 10
3038.605211603564
 20
5690.562273750784
 30
0.0
  0
POINT
  5
84B1
330
849D
100
AcDbEntity
  8
DEFPOINTS
 62
     0
100
AcDbPoint
 10
4024.491637713574
 20
5690.562273750784
 30
0.0
  0
ENDBLK
  5
849F
330
849D
100
AcDbEntity
  8
0
100
AcDbBlockEnd
  0
BLOCK
  5
84B4
330
84B3
100
AcDbEntity
  8
0
100
AcDbBlockBegin
  2
*D34
 70
     1
 10
0.0
 20
0.0
 30
0.0
  3
*D34
  1

  0
LINE
  5
84B6
330
84B3
100
AcDbEntity
  8
3
 62
     0
370
    -2
100
AcDbLine
 10
1041.105211603564
 20
6628.562273750784
 30
0.0
 11
809.7531743622132
 21
6628.562273750784
 31
0.0
  0
LINE
  5
84B7
330
84B3
100
AcDbEntity
  8
3
 62
     0
370
    -2
100
AcDbLine
 10
1041.105211603564
 20
5728.562273750783
 30
0.0
 11
809.7531743622131
 21
5728.562273750783
 31
0.0
  0
LINE
  5
84B8
330
84B3
100
AcDbEntity
  8
3
 62
     0
370
    -2
100
AcDbLine
 10
844.7531743622132
 20
6558.562273750784
 30
0.0
 11
844.753174362213
 21
5798.562273750783
 31
0.0
  0
INSERT
  5
84B9
330
84B3
100
AcDbEntity
  8
3
 62
     0
370
    -2
100
AcDbBlockReference
  2
_OPEN
 10
844.7531743622132
 20
6628.562273750784
 30
0.0
 41
70.0
 42
70.0
 43
70.0
 50
90.0
  0
INSERT
  5
84BA
330
84B3
100
AcDbEntity
  8
3
 62
     0
370
    -2
100
AcDbBlockReference
  2
_OPEN
 10
844.753174362213
 20
5728.562273750783
 30
0.0
 41
70.0
 42
70.0
 43
70.0
 50
270.0
  0
MTEXT
  5
84BB
330
84B3
100
AcDbEntity
  8
3
 62
     0
100
AcDbMText
 10
757.2531743622121
 20
6178.562273750784
 30
0.0
 40
105.0
 41
0.0
 71
     5
 72
     1
  1
\A1;900
 11
0.0000000000000001
 21
1.0
 31
0.0
 73
     1
 44
1.0
1001
ACAD
1000
MTEXTBEGIN
1070
    73
1070
     1
1070
    44
1040
1.0
1070
    74
1070
     0
1000
MTEXTEND
  0
POINT
  5
84BC
330
84B3
100
AcDbEntity
  8
DEFPOINTS
 62
     0
100
AcDbPoint
 10
1058.605211603564
 20
6628.562273750784
 30
0.0
  0
POINT
  5
84BD
330
84B3
100
AcDbEntity
  8
DEFPOINTS
 62
     0
100
AcDbPoint
 10
1058.605211603564
 20
5728.562273750783
 30
0.0
  0
POINT
  5
84BE
330
84B3
100
AcDbEntity
  8
DEFPOINTS
 62
     0
100
AcDbPoint
 10
844.753174362213
 20
5728.562273750783
 30
0.0
  0
ENDBLK
  5
84B5
330
84B3
100
AcDbEntity
  8
0
100
AcDbBlockEnd
  0
BLOCK
  5
84C1
330
84C0
100
AcDbEntity
  8
0
100
AcDbBlockBegin
  2
*D35
 70
     1
 10
0.0
 20
0.0
 30
0.0
  3
*D35
  1

  0
LINE
  5
84C3
330
84C0
100
AcDbEntity
  8
3
 62
     0
370
    -2
100
AcDbLine
 10
1041.105211603564
 20
6628.562273750784
 30
0.0
 11
844.7531743622132
 21
6628.562273750784
 31
0.0
  0
LINE
  5
84C4
330
84C0
100
AcDbEntity
  8
3
 62
     0
370
    -2
100
AcDbLine
 10
1041.105211603564
 20
5728.562273750783
 30
0.0
 11
844.753174362213
 21
5728.562273750783
 31
0.0
  0
LINE
  5
84C5
330
84C0
100
AcDbEntity
  8
3
 62
     0
370
    -2
100
AcDbLine
 10
879.7531743622132
 20
6558.562273750784
 30
0.0
 11
879.753174362213
 21
5798.562273750783
 31
0.0
  0
INSERT
  5
84C6
330
84C0
100
AcDbEntity
  8
3
 62
     0
370
    -2
100
AcDbBlockReference
  2
_OPEN
 10
879.7531743622132
 20
6628.562273750784
 30
0.0
 41
70.0
 42
70.0
 43
70.0
 50
90.0
  0
INSERT
  5
84C7
330
84C0
100
AcDbEntity
  8
3
 62
     0
370
    -2
100
AcDbBlockReference
  2
_OPEN
 10
879.753174362213
 20
5728.562273750783
 30
0.0
 41
70.0
 42
70.0
 43
70.0
 50
270.0
  0
MTEXT
  5
84C8
330
84C0
100
AcDbEntity
  8
3
 62
     0
100
AcDbMText
 10
792.2531743622121
 20
6178.562273750784
 30
0.0
 40
105.0
 41
0.0
 71
     5
 72
     1
  1
\A1;900
 11
0.0000000000000001
 21
1.0
 31
0.0
 73
     1
 44
1.0
1001
ACAD
1000
MTEXTBEGIN
1070
    73
1070
     1
1070
    44
1040
1.0
1070
    74
1070
     0
1000
MTEXTEND
  0
POINT
  5
84C9
330
84C0
100
AcDbEntity
  8
DEFPOINTS
 62
     0
100
AcDbPoint
 10
1058.605211603564
 20
6628.562273750784
 30
0.0
  0
POINT
  5
84CA
330
84C0
100
AcDbEntity
  8
DEFPOINTS
 62
     0
100
AcDbPoint
 10
1058.605211603564
 20
5728.562273750783
 30
0.0
  0
POINT
  5
84CB
330
84C0
100
AcDbEntity
  8
DEFPOINTS
 62
     0
100
AcDbPoint
 10
879.753174362213
 20
5728.562273750783
 30
0.0
  0
ENDBLK
  5
84C2
330
84C0
100
AcDbEntity
  8
0
100
AcDbBlockEnd
  0
BLOCK
  5
84CE
330
84CD
100
AcDbEntity
  8
0
100
AcDbBlockBegin
  2
*D36
 70
     1
 10
0.0
 20
0.0
 30
0.0
  3
*D36
  1

  0
LINE
  5
84D0
330
84CD
100
AcDbEntity
  8
3
 62
     0
370
    -2
100
AcDbLine
 10
1058.605211603564
 20
5711.062273750783
 30
0.0
 11
1058.605211603564
 21
5402.317081656836
 31
0.0
  0
LINE
  5
84D1
330
84CD
100
AcDbEntity
  8
3
 62
     0
370
    -2
100
AcDbLine
 10
3318.605211603564
 20
5711.062273750783
 30
0.0
 11
3318.605211603564
 21
5402.317081656836
 31
0.0
  0
LINE
  5
84D2
330
84CD
100
AcDbEntity
  8
3
 62
     0
370
    -2
100
AcDbLine
 10
1128.605211603564
 20
5437.317081656836
 30
0.0
 11
3248.605211603564
 21
5437.317081656836
 31
0.0
  0
INSERT
  5
84D3
330
84CD
100
AcDbEntity
  8
3
 62
     0
370
    -2
100
AcDbBlockReference
  2
_OPEN
 10
1058.605211603564
 20
5437.317081656836
 30
0.0
 41
70.0
 42
70.0
 43
70.0
 50
180.0
  0
INSERT
  5
84D4
330
84CD
100
AcDbEntity
  8
3
 62
     0
370
    -2
100
AcDbBlockReference
  2
_OPEN
 10
3318.605211603564
 20
5437.317081656836
 30
0.0
 41
70.0
 42
70.0
 43
70.0
  0
MTEXT
  5
84D5
330
84CD
100
AcDbEntity
  8
3
 62
     0
100
AcDbMText
 10
2188.605211603564
 20
5524.817081656836
 30
0.0
 40
105.0
 41
0.0
 71
     5
 72
     1
  1
\A1;2260
 73
     1
 44
1.0
1001
ACAD
1000
MTEXTBEGIN
1070
    73
1070
     1
1070
    44
1040
1.0
1070
    74
1070
     0
1000
MTEXTEND
  0
POINT
  5
84D6
330
84CD
100
AcDbEntity
  8
DEFPOINTS
 62
     0
100
AcDbPoint
 10
1058.605211603564
 20
5728.562273750783
 30
0.0
  0
POINT
  5
84D7
330
84CD
100
AcDbEntity
  8
DEFPOINTS
 62
     0
100
AcDbPoint
 10
3318.605211603564
 20
5728.562273750783
 30
0.0
  0
POINT
  5
84D8
330
84CD
100
AcDbEntity
  8
DEFPOINTS
 62
     0
100
AcDbPoint
 10
3318.605211603564
 20
5437.317081656836
 30
0.0
  0
ENDBLK
  5
84CF
330
84CD
100
AcDbEntity
  8
0
100
AcDbBlockEnd
  0
BLOCK
  5
84DB
330
84DA
100
AcDbEntity
  8
0
100
AcDbBlockBegin
  2
*D37
 70
     1
 10
0.0
 20
0.0
 30
0.0
  3
*D37
  1

  0
LINE
  5
84DD
330
84DA
100
AcDbEntity
  8
3
 62
     0
370
    -2
100
AcDbLine
 10
1058.605211603564
 20
6646.062273750783
 30
0.0
 11
1058.605211603564
 21
7837.569634221901
 31
0.0
  0
LINE
  5
84DE
330
84DA
100
AcDbEntity
  8
3
 62
     0
370
    -2
100
AcDbLine
 10
1998.605211603564
 20
7646.062273750783
 30
0.0
 11
1998.605211603564
 21
7837.569634221901
 31
0.0
  0
LINE
  5
84DF
330
84DA
100
AcDbEntity
  8
3
 62
     0
370
    -2
100
AcDbLine
 10
1128.605211603564
 20
7802.569634221902
 30
0.0
 11
1928.605211603564
 21
7802.569634221902
 31
0.0
  0
INSERT
  5
84E0
330
84DA
100
AcDbEntity
  8
3
 62
     0
370
    -2
100
AcDbBlockReference
  2
_OPEN
 10
1058.605211603564
 20
7802.569634221902
 30
0.0
 41
70.0
 42
70.0
 43
70.0
 50
180.0
  0
INSERT
  5
84E1
330
84DA
100
AcDbEntity
  8
3
 62
     0
370
    -2
100
AcDbBlockReference
  2
_OPEN
 10
1998.605211603564
 20
7802.569634221902
 30
0.0
 41
70.0
 42
70.0
 43
70.0
  0
MTEXT
  5
84E2
330
84DA
100
AcDbEntity
  8
3
 62
     0
100
AcDbMText
 10
1528.605211603564
 20
7890.069634221902
 30
0.0
 40
105.0
 41
0.0
 71
     5
 72
     1
  1
\A1;940
 73
     1
 44
1.0
1001
ACAD
1000
MTEXTBEGIN
1070
    73
1070
     1
1070
    44
1040
1.0
1070
    74
1070
     0
1000
MTEXTEND
  0
POINT
  5
84E3
330
84DA
100
AcDbEntity
  8
DEFPOINTS
 62
     0
100
AcDbPoint
 10
1058.605211603564
 20
6628.562273750784
 30
0.0
  0
POINT
  5
84E4
330
84DA
100
AcDbEntity
  8
DEFPOINTS
 62
     0
100
AcDbPoint
 10
1998.605211603564
 20
7628.562273750784
 30
0.0
  0
POINT
  5
84E5
330
84DA
100
AcDbEntity
  8
DEFPOINTS
 62
     0
100
AcDbPoint
 10
1998.605211603564
 20
7802.569634221902
 30
0.0
  0
ENDBLK
  5
84DC
330
84DA
100
AcDbEntity
  8
0
100
AcDbBlockEnd
  0
BLOCK
  5
84E8
330
84E7
100
AcDbEntity
  8
0
100
AcDbBlockBegin
  2
*D38
 70
     1
 10
0.0
 20
0.0
 30
0.0
  3
*D38
  1

  0
LINE
  5
84EA
330
84E7
100
AcDbEntity
  8
3
 62
     0
370
    -2
100
AcDbLine
 10
1998.605211603564
 20
7646.062273750783
 30
0.0
 11
1998.605211603564
 21
7837.569634221901
 31
0.0
  0
LINE
  5
84EB
330
84E7
100
AcDbEntity
  8
3
 62
     0
370
    -2
100
AcDbLine
 10
3318.605211603564
 20
7646.062273750786
 30
0.0
 11
3318.605211603564
 21
7837.569634221901
 31
0.0
  0
LINE
  5
84EC
330
84E7
100
AcDbEntity
  8
3
 62
     0
370
    -2
100
AcDbLine
 10
2068.605211603564
 20
7802.569634221902
 30
0.0
 11
3248.605211603564
 21
7802.569634221902
 31
0.0
  0
INSERT
  5
84ED
330
84E7
100
AcDbEntity
  8
3
 62
     0
370
    -2
100
AcDbBlockReference
  2
_OPEN
 10
1998.605211603564
 20
7802.569634221902
 30
0.0
 41
70.0
 42
70.0
 43
70.0
 50
180.0
  0
INSERT
  5
84EE
330
84E7
100
AcDbEntity
  8
3
 62
     0
370
    -2
100
AcDbBlockReference
  2
_OPEN
 10
3318.605211603564
 20
7802.569634221902
 30
0.0
 41
70.0
 42
70.0
 43
70.0
  0
MTEXT
  5
84EF
330
84E7
100
AcDbEntity
  8
3
 62
     0
100
AcDbMText
 10
2658.605211603564
 20
7890.069634221902
 30
0.0
 40
105.0
 41
0.0
 71
     5
 72
     1
  1
\A1;1320
 73
     1
 44
1.0
1001
ACAD
1000
MTEXTBEGIN
1070
    73
1070
     1
1070
    44
1040
1.0
1070
    74
1070
     0
1000
MTEXTEND
  0
POINT
  5
84F0
330
84E7
100
AcDbEntity
  8
DEFPOINTS
 62
     0
100
AcDbPoint
 10
1998.605211603564
 20
7628.562273750784
 30
0.0
  0
POINT
  5
84F1
330
84E7
100
AcDbEntity
  8
DEFPOINTS
 62
     0
100
AcDbPoint
 10
3318.605211603564
 20
7628.562273750786
 30
0.0
  0
POINT
  5
84F2
330
84E7
100
AcDbEntity
  8
DEFPOINTS
 62
     0
100
AcDbPoint
 10
3318.605211603564
 20
7802.569634221902
 30
0.0
  0
ENDBLK
  5
84E9
330
84E7
100
AcDbEntity
  8
0
100
AcDbBlockEnd
  0
BLOCK
  5
84F5
330
84F4
100
AcDbEntity
  8
0
100
AcDbBlockBegin
  2
*D39
 70
     1
 10
0.0
 20
0.0
 30
0.0
  3
*D39
  1

  0
LINE
  5
84F7
330
84F4
100
AcDbEntity
  8
3
 62
     0
370
    -2
100
AcDbLine
 10
3336.105211603564
 20
7628.562273750784
 30
0.0
 11
3752.377466574618
 21
7628.562273750784
 31
0.0
  0
LINE
  5
84F8
330
84F4
100
AcDbEntity
  8
3
 62
     0
370
    -2
100
AcDbLine
 10
3336.105211603564
 20
5728.562273750783
 30
0.0
 11
3752.377466574617
 21
5728.562273750783
 31
0.0
  0
LINE
  5
84F9
330
84F4
100
AcDbEntity
  8
3
 62
     0
370
    -2
100
AcDbLine
 10
3717.377466574617
 20
7558.562273750784
 30
0.0
 11
3717.377466574617
 21
5798.562273750783
 31
0.0
  0
INSERT
  5
84FA
330
84F4
100
AcDbEntity
  8
3
 62
     0
370
    -2
100
AcDbBlockReference
  2
_OPEN
 10
3717.377466574617
 20
7628.562273750784
 30
0.0
 41
70.0
 42
70.0
 43
70.0
 50
90.0
  0
INSERT
  5
84FB
330
84F4
100
AcDbEntity
  8
3
 62
     0
370
    -2
100
AcDbBlockReference
  2
_OPEN
 10
3717.377466574617
 20
5728.562273750783
 30
0.0
 41
70.0
 42
70.0
 43
70.0
 50
270.0
  0
MTEXT
  5
84FC
330
84F4
100
AcDbEntity
  8
3
 62
     0
100
AcDbMText
 10
3629.877466574616
 20
6678.562273750784
 30
0.0
 40
105.0
 41
0.0
 71
     5
 72
     1
  1
\A1;1900
 11
0.0000000000000001
 21
1.0
 31
0.0
 73
     1
 44
1.0
1001
ACAD
1000
MTEXTBEGIN
1070
    73
1070
     1
1070
    44
1040
1.0
1070
    74
1070
     0
1000
MTEXTEND
  0
POINT
  5
84FD
330
84F4
100
AcDbEntity
  8
DEFPOINTS
 62
     0
100
AcDbPoint
 10
3318.605211603564
 20
7628.562273750784
 30
0.0
  0
POINT
  5
84FE
330
84F4
100
AcDbEntity
  8
DEFPOINTS
 62
     0
100
AcDbPoint
 10
3318.605211603564
 20
5728.562273750783
 30
0.0
  0
POINT
  5
84FF
330
84F4
100
AcDbEntity
  8
DEFPOINTS
 62
     0
100
AcDbPoint
 10
3717.377466574617
 20
5728.562273750783
 30
0.0
  0
ENDBLK
  5
84F6
330
84F4
100
AcDbEntity
  8
0
100
AcDbBlockEnd
  0
BLOCK
  5
8502
330
8501
100
AcDbEntity
  8
0
100
AcDbBlockBegin
  2
*D40
 70
     1
 10
0.0
 20
0.0
 30
0.0
  3
*D40
  1

  0
LINE
  5
8504
330
8501
100
AcDbEntity
  8
3
 62
     0
370
    -2
100
AcDbLine
 10
3418.605211603564
 20
3798.072834317823
 30
0.0
 11
3418.605211603564
 21
4841.000164564144
 31
0.0
  0
LINE
  5
8505
330
8501
100
AcDbEntity
  8
3
 62
     0
370
    -2
100
AcDbLine
 10
2658.605211603564
 20
4659.141027998224
 30
0.0
 11
2658.605211603564
 21
4841.000164564144
 31
0.0
  0
LINE
  5
8506
330
8501
100
AcDbEntity
  8
3
 62
     0
370
    -2
100
AcDbLine
 10
3348.605211603564
 20
4806.000164564144
 30
0.0
 11
2728.605211603564
 21
4806.000164564144
 31
0.0
  0
INSERT
  5
8507
330
8501
100
AcDbEntity
  8
3
 62
     0
370
    -2
100
AcDbBlockReference
  2
_OPEN
 10
3418.605211603564
 20
4806.000164564144
 30
0.0
 41
70.0
 42
70.0
 43
70.0
  0
INSERT
  5
8508
330
8501
100
AcDbEntity
  8
3
 62
     0
370
    -2
100
AcDbBlockReference
  2
_OPEN
 10
2658.605211603564
 20
4806.000164564144
 30
0.0
 41
70.0
 42
70.0
 43
70.0
 50
180.0
  0
MTEXT
  5
8509
330
8501
100
AcDbEntity
  8
3
 62
     0
100
AcDbMText
 10
3038.605211603564
 20
4893.500164564144
 30
0.0
 40
105.0
 41
0.0
 71
     5
 72
     1
  1
\A1;760
 73
     1
 44
1.0
1001
ACAD
1000
MTEXTBEGIN
1070
    73
1070
     1
1070
    44
1040
1.0
1070
    74
1070
     0
1000
MTEXTEND
  0
POINT
  5
850A
330
8501
100
AcDbEntity
  8
DEFPOINTS
 62
     0
100
AcDbPoint
 10
3418.605211603564
 20
3780.572834317823
 30
0.0
  0
POINT
  5
850B
330
8501
100
AcDbEntity
  8
DEFPOINTS
 62
     0
100
AcDbPoint
 10
2658.605211603564
 20
4641.641027998224
 30
0.0
  0
POINT
  5
850C
330
8501
100
AcDbEntity
  8
DEFPOINTS
 62
     0
100
AcDbPoint
 10
2658.605211603564
 20
4806.000164564144
 30
0.0
  0
ENDBLK
  5
8503
330
8501
100
AcDbEntity
  8
0
100
AcDbBlockEnd
  0
BLOCK
  5
850F
330
850E
100
AcDbEntity
  8
0
100
AcDbBlockBegin
  2
*D41
 70
     1
 10
0.0
 20
0.0
 30
0.0
  3
*D41
  1

  0
LINE
  5
8511
330
850E
100
AcDbEntity
  8
3
 62
     0
370
    -2
100
AcDbLine
 10
2658.605211603564
 20
4659.141027998224
 30
0.0
 11
2658.605211603564
 21
4841.000164564144
 31
0.0
  0
LINE
  5
8512
330
850E
100
AcDbEntity
  8
3
 62
     0
370
    -2
100
AcDbLine
 10
1689.605211603564
 20
3711.072834317823
 30
0.0
 11
1689.605211603564
 21
4841.000164564144
 31
0.0
  0
LINE
  5
8513
330
850E
100
AcDbEntity
  8
3
 62
     0
370
    -2
100
AcDbLine
 10
2588.605211603564
 20
4806.000164564144
 30
0.0
 11
1759.605211603564
 21
4806.000164564144
 31
0.0
  0
INSERT
  5
8514
330
850E
100
AcDbEntity
  8
3
 62
     0
370
    -2
100
AcDbBlockReference
  2
_OPEN
 10
2658.605211603564
 20
4806.000164564144
 30
0.0
 41
70.0
 42
70.0
 43
70.0
  0
INSERT
  5
8515
330
850E
100
AcDbEntity
  8
3
 62
     0
370
    -2
100
AcDbBlockReference
  2
_OPEN
 10
1689.605211603564
 20
4806.000164564144
 30
0.0
 41
70.0
 42
70.0
 43
70.0
 50
180.0
  0
MTEXT
  5
8516
330
850E
100
AcDbEntity
  8
3
 62
     0
100
AcDbMText
 10
2174.105211603564
 20
4893.500164564144
 30
0.0
 40
105.0
 41
0.0
 71
     5
 72
     1
  1
\A1;969
 73
     1
 44
1.0
1001
ACAD
1000
MTEXTBEGIN
1070
    73
1070
     1
1070
    44
1040
1.0
1070
    74
1070
     0
1000
MTEXTEND
  0
POINT
  5
8517
330
850E
100
AcDbEntity
  8
DEFPOINTS
 62
     0
100
AcDbPoint
 10
2658.605211603564
 20
4641.641027998224
 30
0.0
  0
POINT
  5
8518
330
850E
100
AcDbEntity
  8
DEFPOINTS
 62
     0
100
AcDbPoint
 10
1689.605211603564
 20
3693.572834317823
 30
0.0
  0
POINT
  5
8519
330
850E
100
AcDbEntity
  8
DEFPOINTS
 62
     0
100
AcDbPoint
 10
1689.605211603564
 20
4806.000164564144
 30
0.0
  0
ENDBLK
  5
8510
330
850E
100
AcDbEntity
  8
0
100
AcDbBlockEnd
  0
BLOCK
  5
851C
330
851B
100
AcDbEntity
  8
0
100
AcDbBlockBegin
  2
*D42
 70
     1
 10
0.0
 20
0.0
 30
0.0
  3
*D42
  1

  0
LINE
  5
851E
330
851B
100
AcDbEntity
  8
3
 62
     0
370
    -2
100
AcDbLine
 10
3418.605211603564
 20
3798.072834317823
 30
0.0
 11
3418.605211603564
 21
5068.580333506538
 31
0.0
  0
LINE
  5
851F
330
851B
100
AcDbEntity
  8
3
 62
     0
370
    -2
100
AcDbLine
 10
1058.605211603565
 20
2563.072834317823
 30
0.0
 11
1058.605211603565
 21
5068.580333506538
 31
0.0
  0
LINE
  5
8520
330
851B
100
AcDbEntity
  8
3
 62
     0
370
    -2
100
AcDbLine
 10
3348.605211603564
 20
5033.580333506538
 30
0.0
 11
1128.605211603565
 21
5033.580333506538
 31
0.0
  0
INSERT
  5
8521
330
851B
100
AcDbEntity
  8
3
 62
     0
370
    -2
100
AcDbBlockReference
  2
_OPEN
 10
3418.605211603564
 20
5033.580333506538
 30
0.0
 41
70.0
 42
70.0
 43
70.0
  0
INSERT
  5
8522
330
851B
100
AcDbEntity
  8
3
 62
     0
370
    -2
100
AcDbBlockReference
  2
_OPEN
 10
1058.605211603565
 20
5033.580333506538
 30
0.0
 41
70.0
 42
70.0
 43
70.0
 50
180.0
  0
MTEXT
  5
8523
330
851B
100
AcDbEntity
  8
3
 62
     0
100
AcDbMText
 10
2238.605211603565
 20
5121.080333506538
 30
0.0
 40
105.0
 41
0.0
 71
     5
 72
     1
  1
\A1;2360
 73
     1
 44
1.0
1001
ACAD
1000
MTEXTBEGIN
1070
    73
1070
     1
1070
    44
1040
1.0
1070
    74
1070
     0
1000
MTEXTEND
  0
POINT
  5
8524
330
851B
100
AcDbEntity
  8
DEFPOINTS
 62
     0
100
AcDbPoint
 10
3418.605211603564
 20
3780.572834317823
 30
0.0
  0
POINT
  5
8525
330
851B
100
AcDbEntity
  8
DEFPOINTS
 62
     0
100
AcDbPoint
 10
1058.605211603565
 20
2545.572834317823
 30
0.0
  0
POINT
  5
8526
330
851B
100
AcDbEntity
  8
DEFPOINTS
 62
     0
100
AcDbPoint
 10
1058.605211603565
 20
5033.580333506538
 30
0.0
  0
ENDBLK
  5
851D
330
851B
100
AcDbEntity
  8
0
100
AcDbBlockEnd
  0
BLOCK
  5
8529
330
8528
100
AcDbEntity
  8
0
100
AcDbBlockBegin
  2
*D43
 70
     1
 10
0.0
 20
0.0
 30
0.0
  3
*D43
  1

  0
LINE
  5
852B
330
8528
100
AcDbEntity
  8
3
 62
     0
370
    -2
100
AcDbLine
 10
3436.105211603564
 20
3727.572834317824
 30
0.0
 11
3653.71352788783
 21
3727.572834317824
 31
0.0
  0
LINE
  5
852C
330
8528
100
AcDbEntity
  8
3
 62
     0
370
    -2
100
AcDbLine
 10
3436.105211603564
 20
2577.572834317823
 30
0.0
 11
3653.71352788783
 21
2577.572834317823
 31
0.0
  0
LINE
  5
852D
330
8528
100
AcDbEntity
  8
3
 62
     0
370
    -2
100
AcDbLine
 10
3618.71352788783
 20
3657.572834317824
 30
0.0
 11
3618.713527887829
 21
2647.572834317823
 31
0.0
  0
INSERT
  5
852E
330
8528
100
AcDbEntity
  8
3
 62
     0
370
    -2
100
AcDbBlockReference
  2
_OPEN
 10
3618.71352788783
 20
3727.572834317824
 30
0.0
 41
70.0
 42
70.0
 43
70.0
 50
90.0
  0
INSERT
  5
852F
330
8528
100
AcDbEntity
  8
3
 62
     0
370
    -2
100
AcDbBlockReference
  2
_OPEN
 10
3618.713527887829
 20
2577.572834317823
 30
0.0
 41
70.0
 42
70.0
 43
70.0
 50
270.0
  0
MTEXT
  5
8530
330
8528
100
AcDbEntity
  8
3
 62
     0
100
AcDbMText
 10
3531.21352788783
 20
3152.572834317825
 30
0.0
 40
105.0
 41
0.0
 71
     5
 72
     1
  1
\A1;1150
 11
0.0000000000000001
 21
1.0
 31
0.0
 73
     1
 44
1.0
1001
ACAD
1000
MTEXTBEGIN
1070
    73
1070
     1
1070
    44
1040
1.0
1070
    74
1070
     0
1000
MTEXTEND
  0
POINT
  5
8531
330
8528
100
AcDbEntity
  8
DEFPOINTS
 62
     0
100
AcDbPoint
 10
3418.605211603564
 20
3727.572834317824
 30
0.0
  0
POINT
  5
8532
330
8528
100
AcDbEntity
  8
DEFPOINTS
 62
     0
100
AcDbPoint
 10
3418.605211603564
 20
2577.572834317823
 30
0.0
  0
POINT
  5
8533
330
8528
100
AcDbEntity
  8
DEFPOINTS
 62
     0
100
AcDbPoint
 10
3618.713527887829
 20
2577.572834317823
 30
0.0
  0
ENDBLK
  5
852A
330
8528
100
AcDbEntity
  8
0
100
AcDbBlockEnd
  0
BLOCK
  5
8536
330
8535
100
AcDbEntity
  8
0
100
AcDbBlockBegin
  2
*D44
 70
     1
 10
0.0
 20
0.0
 30
0.0
  3
*D44
  1

  0
LINE
  5
8538
330
8535
100
AcDbEntity
  8
3
 62
     0
370
    -2
100
AcDbLine
 10
3436.105211603564
 20
2577.572834317823
 30
0.0
 11
3853.865178749332
 21
2577.572834317823
 31
0.0
  0
LINE
  5
8539
330
8535
100
AcDbEntity
  8
3
 62
     0
370
    -2
100
AcDbLine
 10
3582.88586305654
 20
3775.572834317824
 30
0.0
 11
3853.865178749332
 21
3775.572834317824
 31
0.0
  0
LINE
  5
853A
330
8535
100
AcDbEntity
  8
3
 62
     0
370
    -2
100
AcDbLine
 10
3818.865178749332
 20
2647.572834317823
 30
0.0
 11
3818.865178749332
 21
3705.572834317823
 31
0.0
  0
INSERT
  5
853B
330
8535
100
AcDbEntity
  8
3
 62
     0
370
    -2
100
AcDbBlockReference
  2
_OPEN
 10
3818.865178749332
 20
2577.572834317823
 30
0.0
 41
70.0
 42
70.0
 43
70.0
 50
270.0
  0
INSERT
  5
853C
330
8535
100
AcDbEntity
  8
3
 62
     0
370
    -2
100
AcDbBlockReference
  2
_OPEN
 10
3818.865178749332
 20
3775.572834317824
 30
0.0
 41
70.0
 42
70.0
 43
70.0
 50
90.0
  0
MTEXT
  5
853D
330
8535
100
AcDbEntity
  8
3
 62
     0
100
AcDbMText
 10
3731.365178749332
 20
3176.572834317824
 30
0.0
 40
105.0
 41
0.0
 71
     5
 72
     1
  1
\A1;1198
 11
0.0000000000000001
 21
1.0
 31
0.0
 73
     1
 44
1.0
1001
ACAD
1000
MTEXTBEGIN
1070
    73
1070
     1
1070
    44
1040
1.0
1070
    74
1070
     0
1000
MTEXTEND
  0
POINT
  5
853E
330
8535
100
AcDbEntity
  8
DEFPOINTS
 62
     0
100
AcDbPoint
 10
3418.605211603564
 20
2577.572834317823
 30
0.0
  0
POINT
  5
853F
330
8535
100
AcDbEntity
  8
DEFPOINTS
 62
     0
100
AcDbPoint
 10
3565.38586305654
 20
3775.572834317824
 30
0.0
  0
POINT
  5
8540
330
8535
100
AcDbEntity
  8
DEFPOINTS
 62
     0
100
AcDbPoint
 10
3818.865178749332
 20
3775.572834317824
 30
0.0
  0
ENDBLK
  5
8537
330
8535
100
AcDbEntity
  8
0
100
AcDbBlockEnd
  0
BLOCK
  5
8543
330
8542
100
AcDbEntity
  8
0
100
AcDbBlockBegin
  2
*D45
 70
     1
 10
0.0
 20
0.0
 30
0.0
  3
*D45
  1

  0
LINE
  5
8545
330
8542
100
AcDbEntity
  8
3
 62
     0
370
    -2
100
AcDbLine
 10
2594.105211603564
 20
4580.572834317823
 30
0.0
 11
4057.81512547514
 21
4580.572834317823
 31
0.0
  0
LINE
  5
8546
330
8542
100
AcDbEntity
  8
3
 62
     0
370
    -2
100
AcDbLine
 10
3582.88586305654
 20
3775.572834317824
 30
0.0
 11
4057.81512547514
 21
3775.572834317824
 31
0.0
  0
LINE
  5
8547
330
8542
100
AcDbEntity
  8
3
 62
     0
370
    -2
100
AcDbLine
 10
4022.81512547514
 20
4510.572834317823
 30
0.0
 11
4022.81512547514
 21
3845.572834317823
 31
0.0
  0
INSERT
  5
8548
330
8542
100
AcDbEntity
  8
3
 62
     0
370
    -2
100
AcDbBlockReference
  2
_OPEN
 10
4022.81512547514
 20
4580.572834317823
 30
0.0
 41
70.0
 42
70.0
 43
70.0
 50
90.0
  0
INSERT
  5
8549
330
8542
100
AcDbEntity
  8
3
 62
     0
370
    -2
100
AcDbBlockReference
  2
_OPEN
 10
4022.81512547514
 20
3775.572834317824
 30
0.0
 41
70.0
 42
70.0
 43
70.0
 50
270.0
  0
MTEXT
  5
854A
330
8542
100
AcDbEntity
  8
3
 62
     0
100
AcDbMText
 10
3935.31512547514
 20
4178.072834317824
 30
0.0
 40
105.0
 41
0.0
 71
     5
 72
     1
  1
\A1;805
 11
0.0000000000000001
 21
1.0
 31
0.0
 73
     1
 44
1.0
1001
ACAD
1000
MTEXTBEGIN
1070
    73
1070
     1
1070
    44
1040
1.0
1070
    74
1070
     0
1000
MTEXTEND
  0
POINT
  5
854B
330
8542
100
AcDbEntity
  8
DEFPOINTS
 62
     0
100
AcDbPoint
 10
2576.605211603564
 20
4580.572834317823
 30
0.0
  0
POINT
  5
854C
330
8542
100
AcDbEntity
  8
DEFPOINTS
 62
     0
100
AcDbPoint
 10
3565.38586305654
 20
3775.572834317824
 30
0.0
  0
POINT
  5
854D
330
8542
100
AcDbEntity
  8
DEFPOINTS
 62
     0
100
AcDbPoint
 10
4022.81512547514
 20
3775.572834317824
 30
0.0
  0
ENDBLK
  5
8544
330
8542
100
AcDbEntity
  8
0
100
AcDbBlockEnd
  0
BLOCK
  5
8550
330
854F
100
AcDbEntity
  8
0
100
AcDbBlockBegin
  2
*D46
 70
     1
 10
0.0
 20
0.0
 30
0.0
  3
*D46
  1

  0
LINE
  5
8552
330
854F
100
AcDbEntity
  8
3
 62
     0
370
    -2
100
AcDbLine
 10
3582.88586305654
 20
3775.572834317824
 30
0.0
 11
4057.81512547514
 21
3775.572834317824
 31
0.0
  0
LINE
  5
8553
330
854F
100
AcDbEntity
  8
3
 62
     0
370
    -2
100
AcDbLine
 10
3336.105211603564
 20
2420.572834317823
 30
0.0
 11
4057.815125475139
 21
2420.572834317823
 31
0.0
  0
LINE
  5
8554
330
854F
100
AcDbEntity
  8
3
 62
     0
370
    -2
100
AcDbLine
 10
4022.81512547514
 20
3705.572834317823
 30
0.0
 11
4022.81512547514
 21
2490.572834317823
 31
0.0
  0
INSERT
  5
8555
330
854F
100
AcDbEntity
  8
3
 62
     0
370
    -2
100
AcDbBlockReference
  2
_OPEN
 10
4022.81512547514
 20
3775.572834317824
 30
0.0
 41
70.0
 42
70.0
 43
70.0
 50
90.0
  0
INSERT
  5
8556
330
854F
100
AcDbEntity
  8
3
 62
     0
370
    -2
100
AcDbBlockReference
  2
_OPEN
 10
4022.81512547514
 20
2420.572834317823
 30
0.0
 41
70.0
 42
70.0
 43
70.0
 50
270.0
  0
MTEXT
  5
8557
330
854F
100
AcDbEntity
  8
3
 62
     0
100
AcDbMText
 10
3935.315125475139
 20
3098.072834317824
 30
0.0
 40
105.0
 41
0.0
 71
     5
 72
     1
  1
\A1;1355
 11
0.0000000000000001
 21
1.0
 31
0.0
 73
     1
 44
1.0
1001
ACAD
1000
MTEXTBEGIN
1070
    73
1070
     1
1070
    44
1040
1.0
1070
    74
1070
     0
1000
MTEXTEND
  0
POINT
  5
8558
330
854F
100
AcDbEntity
  8
DEFPOINTS
 62
     0
100
AcDbPoint
 10
3565.38586305654
 20
3775.572834317824
 30
0.0
  0
POINT
  5
8559
330
854F
100
AcDbEntity
  8
DEFPOINTS
 62
     0
100
AcDbPoint
 10
3318.605211603564
 20
2420.572834317823
 30
0.0
  0
POINT
  5
855A
330
854F
100
AcDbEntity
  8
DEFPOINTS
 62
     0
100
AcDbPoint
 10
4022.81512547514
 20
2420.572834317823
 30
0.0
  0
ENDBLK
  5
8551
330
854F
100
AcDbEntity
  8
0
100
AcDbBlockEnd
  0
BLOCK
  5
855D
330
855C
100
AcDbEntity
  8
0
100
AcDbBlockBegin
  2
*D47
 70
     1
 10
0.0
 20
0.0
 30
0.0
  3
*D47
  1

  0
LINE
  5
8633
330
855C
100
AcDbEntity
  8
3
 62
     0
370
    -2
100
AcDbLine
 10
3336.105211603564
 20
2420.572834317823
 30
0.0
 11
4057.815125475139
 21
2420.572834317823
 31
0.0
  0
LINE
  5
8634
330
855C
100
AcDbEntity
  8
3
 62
     0
370
    -2
100
AcDbLine
 10
3336.105211603564
 20
2400.572834317823
 30
0.0
 11
4057.815125475139
 21
2400.572834317823
 31
0.0
  0
LINE
  5
8635
330
855C
100
AcDbEntity
  8
3
 62
     0
370
    -2
100
AcDbLine
 10
4022.81512547514
 20
2490.572834317823
 30
0.0
 11
4022.81512547514
 21
2560.572834317823
 31
0.0
  0
LINE
  5
8636
330
855C
100
AcDbEntity
  8
3
 62
     0
370
    -2
100
AcDbLine
 10
4022.81512547514
 20
2400.572834317823
 30
0.0
 11
4022.81512547514
 21
2330.572834317823
 31
0.0
  0
LINE
  5
8637
330
855C
100
AcDbEntity
  8
3
 62
     0
370
    -2
100
AcDbLine
 10
4022.81512547514
 20
2410.572834317823
 30
0.0
 11
4350.31512547514
 21
2508.822834317823
 31
0.0
  0
LINE
  5
8638
330
855C
100
AcDbEntity
  8
3
 62
     0
370
    -2
100
AcDbLine
 10
4350.31512547514
 20
2508.822834317823
 30
0.0
 11
4350.31512547514
 21
2883.822834317823
 31
0.0
  0
MTEXT
  5
8639
330
855C
100
AcDbEntity
  8
3
 62
     0
100
AcDbMText
 10
4235.315125475139
 20
2696.322834317824
 30
0.0
 40
105.0
 41
0.0
 71
     5
 72
     1
  1
\A1;(20)
 11
0.0000000000000001
 21
1.0
 31
0.0
 73
     1
 44
1.0
1001
ACAD
1000
MTEXTBEGIN
1070
    73
1070
     1
1070
    44
1040
1.0
1070
    74
1070
     0
1000
MTEXTEND
  0
LINE
  5
863A
330
855C
100
AcDbEntity
  8
3
 62
     0
370
    -2
100
AcDbLine
 10
4022.81512547514
 20
2420.572834317823
 30
0.0
 11
4022.81512547514
 21
2400.572834317823
 31
0.0
  0
LINE
  5
863B
330
855C
100
AcDbEntity
  8
3
 62
     0
370
    -2
100
AcDbLine
 10
4022.81512547514
 20
2420.572834317823
 30
0.0
 11
4022.81512547514
 21
2400.572834317823
 31
0.0
  0
INSERT
  5
863C
330
855C
100
AcDbEntity
  8
3
 62
     0
370
    -2
100
AcDbBlockReference
  2
_OPEN
 10
4022.81512547514
 20
2420.572834317823
 30
0.0
 41
70.0
 42
70.0
 43
70.0
 50
270.0
  0
INSERT
  5
863D
330
855C
100
AcDbEntity
  8
3
 62
     0
370
    -2
100
AcDbBlockReference
  2
_DotSmall
 10
4022.81512547514
 20
2400.572834317823
 30
0.0
 41
70.0
 42
70.0
 43
70.0
 50
90.0
  0
POINT
  5
863E
330
855C
100
AcDbEntity
  8
DEFPOINTS
 62
     0
100
AcDbPoint
 10
3318.605211603564
 20
2420.572834317823
 30
0.0
  0
POINT
  5
863F
330
855C
100
AcDbEntity
  8
DEFPOINTS
 62
     0
100
AcDbPoint
 10
3318.605211603564
 20
2400.572834317823
 30
0.0
  0
POINT
  5
8640
330
855C
100
AcDbEntity
  8
DEFPOINTS
 62
     0
100
AcDbPoint
 10
4022.81512547514
 20
2400.572834317823
 30
0.0
  0
ENDBLK
  5
855E
330
855C
100
AcDbEntity
  8
0
100
AcDbBlockEnd
  0
BLOCK
  5
856F
330
856E
100
AcDbEntity
  8
0
100
AcDbBlockBegin
  2
*D48
 70
     1
 10
0.0
 20
0.0
 30
0.0
  3
*D48
  1

  0
LINE
  5
868F
330
856E
100
AcDbEntity
  8
3
 62
     0
370
    -2
100
AcDbLine
 10
3336.105211603564
 20
2400.572834317823
 30
0.0
 11
4057.815125475139
 21
2400.572834317823
 31
0.0
  0
LINE
  5
8690
330
856E
100
AcDbEntity
  8
3
 62
     0
370
    -2
100
AcDbLine
 10
3336.105211603564
 20
2335.572834317823
 30
0.0
 11
4057.815125475139
 21
2335.572834317823
 31
0.0
  0
LINE
  5
8691
330
856E
100
AcDbEntity
  8
3
 62
     0
370
    -2
100
AcDbLine
 10
4022.81512547514
 20
2400.572834317823
 30
0.0
 11
4022.81512547514
 21
2470.572834317823
 31
0.0
  0
LINE
  5
8692
330
856E
100
AcDbEntity
  8
3
 62
     0
370
    -2
100
AcDbLine
 10
4022.81512547514
 20
2265.572834317823
 30
0.0
 11
4022.81512547514
 21
2195.572834317823
 31
0.0
  0
MTEXT
  5
8693
330
856E
100
AcDbEntity
  8
3
 62
     0
100
AcDbMText
 10
3935.31512547514
 20
2195.572834317823
 30
0.0
 40
105.0
 41
0.0
 71
     5
 72
     1
  1
\A1;65
 11
0.0000000000000001
 21
1.0
 31
0.0
 73
     1
 44
1.0
1001
ACAD
1000
MTEXTBEGIN
1070
    73
1070
     1
1070
    44
1040
1.0
1070
    74
1070
     0
1000
MTEXTEND
  0
LINE
  5
8694
330
856E
100
AcDbEntity
  8
3
 62
     0
370
    -2
100
AcDbLine
 10
4022.81512547514
 20
2400.572834317823
 30
0.0
 11
4022.81512547514
 21
2335.572834317823
 31
0.0
  0
INSERT
  5
8695
330
856E
100
AcDbEntity
  8
3
 62
     0
370
    -2
100
AcDbBlockReference
  2
_DotSmall
 10
4022.81512547514
 20
2400.572834317823
 30
0.0
 41
70.0
 42
70.0
 43
70.0
 50
270.0
  0
INSERT
  5
8696
330
856E
100
AcDbEntity
  8
3
 62
     0
370
    -2
100
AcDbBlockReference
  2
_OPEN
 10
4022.81512547514
 20
2335.572834317823
 30
0.0
 41
70.0
 42
70.0
 43
70.0
 50
90.0
  0
POINT
  5
8697
330
856E
100
AcDbEntity
  8
DEFPOINTS
 62
     0
100
AcDbPoint
 10
3318.605211603564
 20
2400.572834317823
 30
0.0
  0
POINT
  5
8698
330
856E
100
AcDbEntity
  8
DEFPOINTS
 62
     0
100
AcDbPoint
 10
3318.605211603564
 20
2335.572834317823
 30
0.0
  0
POINT
  5
8699
330
856E
100
AcDbEntity
  8
DEFPOINTS
 62
     0
100
AcDbPoint
 10
4022.81512547514
 20
2335.572834317823
 30
0.0
  0
ENDBLK
  5
8570
330
856E
100
AcDbEntity
  8
0
100
AcDbBlockEnd
  0
BLOCK
  5
8581
330
8580
100
AcDbEntity
  8
0
100
AcDbBlockBegin
  2
*D49
 70
     1
 10
0.0
 20
0.0
 30
0.0
  3
*D49
  1

  0
LINE
  5
85C5
330
8580
100
AcDbEntity
  8
3
 62
     0
370
    -2
100
AcDbLine
 10
3336.105211603564
 20
2335.572834317823
 30
0.0
 11
4440.287437983221
 21
2335.572834317823
 31
0.0
  0
LINE
  5
85C6
330
8580
100
AcDbEntity
  8
3
 62
     0
370
    -2
100
AcDbLine
 10
2594.105211603564
 20
4580.572834317823
 30
0.0
 11
4440.287437983221
 21
4580.572834317823
 31
0.0
  0
LINE
  5
85C7
330
8580
100
AcDbEntity
  8
3
 62
     0
370
    -2
100
AcDbLine
 10
4405.287437983221
 20
2405.572834317823
 30
0.0
 11
4405.287437983221
 21
4510.572834317823
 31
0.0
  0
INSERT
  5
85C8
330
8580
100
AcDbEntity
  8
3
 62
     0
370
    -2
100
AcDbBlockReference
  2
_OPEN
 10
4405.287437983221
 20
2335.572834317823
 30
0.0
 41
70.0
 42
70.0
 43
70.0
 50
270.0
  0
INSERT
  5
85C9
330
8580
100
AcDbEntity
  8
3
 62
     0
370
    -2
100
AcDbBlockReference
  2
_OPEN
 10
4405.287437983221
 20
4580.572834317823
 30
0.0
 41
70.0
 42
70.0
 43
70.0
 50
90.0
  0
MTEXT
  5
85CA
330
8580
100
AcDbEntity
  8
3
 62
     0
100
AcDbMText
 10
4290.28743798322
 20
3458.072834317824
 30
0.0
 40
105.0
 41
0.0
 71
     5
 72
     1
  1
\A1;(2245)
 11
0.0000000000000001
 21
1.0
 31
0.0
 73
     1
 44
1.0
1001
ACAD
1000
MTEXTBEGIN
1070
    73
1070
     1
1070
    44
1040
1.0
1070
    74
1070
     0
1000
MTEXTEND
  0
POINT
  5
85CB
330
8580
100
AcDbEntity
  8
DEFPOINTS
 62
     0
100
AcDbPoint
 10
3318.605211603564
 20
2335.572834317823
 30
0.0
  0
POINT
  5
85CC
330
8580
100
AcDbEntity
  8
DEFPOINTS
 62
     0
100
AcDbPoint
 10
2576.605211603564
 20
4580.572834317823
 30
0.0
  0
POINT
  5
85CD
330
8580
100
AcDbEntity
  8
DEFPOINTS
 62
     0
100
AcDbPoint
 10
4405.287437983221
 20
4580.572834317823
 30
0.0
  0
ENDBLK
  5
8582
330
8580
100
AcDbEntity
  8
0
100
AcDbBlockEnd
  0
BLOCK
  5
8631
330
862F
100
AcDbEntity
  8
0
100
AcDbBlockBegin
  2
_DotSmall
 70
     0
 10
0.0
 20
0.0
 30
0.0
  3
_DotSmall
  1

  0
LWPOLYLINE
  5
8630
330
862F
100
AcDbEntity
  8
0
  6
ByBlock
 62
     0
100
AcDbPolyline
 90
        2
 70
     1
 43
0.5
 10
-0.0625
 20
0.0
 42
1.0
 10
0.0625
 20
0.0
 42
1.0
  0
ENDBLK
  5
8632
330
862F
100
AcDbEntity
  8
0
100
AcDbBlockEnd
  0
ENDSEC
  0
SECTION
  2
ENTITIES
  0
INSERT
  5
7C1F
330
83BA
100
AcDbEntity
  8
0
100
AcDbBlockReference
  2
YA_N
 10
6.0
 20
5.0
 30
0.0
  0
LINE
  5
7C21
330
83BA
100
AcDbEntity
  8
2
100
AcDbLine
 10
3565.38586305654
 20
3775.572834317824
 30
0.0
 11
1592.230870489893
 21
3775.572834317824
 31
0.0
  0
LINE
  5
7C22
330
83BA
100
AcDbEntity
  8
2
100
AcDbLine
 10
2658.605211603564
 20
2335.572834317823
 30
0.0
 11
2658.605211603564
 21
4641.641027998224
 31
0.0
  0
LINE
  5
7C23
330
83BA
100
AcDbEntity
  8
1
100
AcDbLine
 10
3418.605211603564
 20
3780.572834317823
 30
0.0
 11
3418.605211603564
 21
2524.572834317823
 31
0.0
  0
LINE
  5
7C24
330
83BA
100
AcDbEntity
  8
1
100
AcDbLine
 10
3418.605211603564
 20
2524.572834317823
 30
0.0
 11
3414.605211603564
 21
2524.572834317823
 31
0.0
  0
LINE
  5
7C25
330
83BA
100
AcDbEntity
  8
1
100
AcDbLine
 10
3418.605211603564
 20
3780.572834317823
 30
0.0
 11
3414.605211603564
 21
3780.572834317823
 31
0.0
  0
LINE
  5
7C26
330
83BA
100
AcDbEntity
  8
1
100
AcDbLine
 10
3368.605211603564
 20
3727.572834317824
 30
0.0
 11
3368.605211603564
 21
2582.059922553261
 31
0.0
  0
LINE
  5
7C27
330
83BA
100
AcDbEntity
  8
1
100
AcDbLine
 10
3414.605211603564
 20
3780.572834317823
 30
0.0
 11
3414.605211603564
 21
2524.572834317823
 31
0.0
  0
LINE
  5
7C28
330
83BA
100
AcDbEntity
  8
1
100
AcDbLine
 10
3318.605211603564
 20
2420.572834317823
 30
0.0
 11
1058.605211603565
 21
2420.572834317823
 31
0.0
1001
ACAD
1000
ASC_BOUNDS
1002
{
1070
    19
1005
0
1002
}
  0
LINE
  5
7C29
330
83BA
100
AcDbEntity
  8
1
100
AcDbLine
 10
3318.605211603564
 20
2545.572834317823
 30
0.0
 11
3318.605211603564
 21
2420.572834317823
 31
0.0
  0
LINE
  5
7C2A
330
83BA
100
AcDbEntity
  8
1
100
AcDbLine
 10
1058.605211603565
 20
2545.572834317823
 30
0.0
 11
1058.605211603565
 21
2420.572834317823
 31
0.0
  0
LINE
  5
7C2B
330
83BA
100
AcDbEntity
  8
1
100
AcDbLine
 10
3318.605211603564
 20
2545.572834317823
 30
0.0
 11
1058.605211603565
 21
2545.572834317823
 31
0.0
  0
ARC
  5
7C2C
330
83BA
100
AcDbEntity
  8
1
100
AcDbCircle
 10
2740.605211603564
 20
3693.572834317823
 30
0.0
 40
1051.0
100
AcDbArc
 50
175.5251821014661
 51
265.5251821014661
  0
ARC
  5
7C2D
330
83BA
100
AcDbEntity
  8
1
100
AcDbCircle
 10
2576.605211603564
 20
3693.572834317823
 30
0.0
 40
887.0
100
AcDbArc
 50
84.69563479220409
 51
174.6956347922041
  0
ARC
  5
7C2E
330
83BA
100
AcDbEntity
  8
1
100
AcDbCircle
 10
2590.105211603564
 20
3844.072834317823
 30
0.0
 40
736.5
100
AcDbArc
 50
354.6633516786164
 51
84.66335167861648
  0
LINE
  5
7C2F
330
83BA
100
AcDbEntity
  8
1
100
AcDbLine
 10
3418.605211603564
 20
2577.572834317823
 30
0.0
 11
2658.605211603564
 21
2645.776575496481
 31
0.0
  0
LINE
  5
7C30
330
83BA
100
AcDbEntity
  8
1
100
AcDbLine
 10
3418.605211603564
 20
3727.572834317824
 30
0.0
 11
3324.878428835055
 21
3727.572834317824
 31
0.0
  0
LINE
  5
7C31
330
83BA
100
AcDbEntity
  8
2
100
AcDbLine
 10
1348.605211603564
 20
3119.431110473767
 30
0.0
 11
1348.605211603566
 21
2335.572834317823
 31
0.0
  0
LINE
  5
7C32
330
83BA
100
AcDbEntity
  8
2
100
AcDbLine
 10
1583.931506462543
 20
2805.572834317823
 30
0.0
 11
1084.440585621305
 21
2805.572834317823
 31
0.0
  0
LINE
  5
7C33
330
83BA
100
AcDbEntity
  8
1
100
AcDbLine
 10
4561.752841307504
 20
2420.572834317823
 30
0.0
 11
4626.752841307506
 21
2420.572834317823
 31
0.0
1001
ACAD
1000
ASC_BOUNDS
1002
{
1070
    19
1002
}
  0
LINE
  5
7C34
330
83BA
100
AcDbEntity
  8
1
100
AcDbLine
 10
4561.752841307504
 20
2545.572834317823
 30
0.0
 11
6461.752841307505
 21
2545.572834317823
 31
0.0
  0
LINE
  5
7C35
330
83BA
100
AcDbEntity
  8
1
100
AcDbLine
 10
4626.752841307506
 20
2420.572834317823
 30
0.0
 11
6461.752841307505
 21
2420.572834317823
 31
0.0
1001
ACAD
1000
ASC_BOUNDS
1002
{
1070
    19
1002
}
  0
LINE
  5
7C36
330
83BA
100
AcDbEntity
  8
2
100
AcDbLine
 10
4536.576091240408
 20
3775.572834317824
 30
0.0
 11
6568.740828384246
 21
3775.572834317824
 31
0.0
  0
LINE
  5
7C37
330
83BA
100
AcDbEntity
  8
1
100
AcDbLine
 10
4558.752841307506
 20
4029.572834317823
 30
0.0
 11
4558.752841307506
 21
2687.572834317823
 31
0.0
  0
LINE
  5
7C38
330
83BA
100
AcDbEntity
  8
1
100
AcDbLine
 10
4669.252841307506
 20
4029.572834317823
 30
0.0
 11
4669.252841307504
 21
2687.572834317823
 31
0.0
  0
LINE
  5
7C39
330
83BA
100
AcDbEntity
  8
2
100
AcDbLine
 10
4537.833902088377
 20
2805.572834317823
 30
0.0
 11
5000.698531242382
 21
2805.572834317823
 31
0.0
  0
LINE
  5
7C3A
330
83BA
100
AcDbEntity
  8
1
100
AcDbLine
 10
4523.752841307505
 20
4155.572834317824
 30
0.0
 11
4523.752841307504
 21
2585.572834317823
 31
0.0
  0
LINE
  5
7C3B
330
83BA
100
AcDbEntity
  8
1
100
AcDbLine
 10
4721.052841307505
 20
4155.572834317824
 30
0.0
 11
4721.052841307504
 21
4135.572834317824
 31
0.0
  0
LINE
  5
7C3C
330
83BA
100
AcDbEntity
  8
2
100
AcDbLine
 10
2658.605211603564
 20
7667.381660545842
 30
0.0
 11
2658.605211603564
 21
5651.616289845637
 31
0.0
  0
LINE
  5
7C3D
330
83BA
100
AcDbEntity
  8
2
100
AcDbLine
 10
3495.463443351297
 20
6810.562273750784
 30
0.0
 11
1559.200892146006
 21
6810.562273750784
 31
0.0
  0
LINE
  5
7C3E
330
83BA
100
AcDbEntity
  8
2
100
AcDbLine
 10
5643.752841307505
 20
4789.755160483649
 30
0.0
 11
5643.752841307505
 21
2335.572834317823
 31
0.0
  0
POINT
  5
7C3F
330
83BA
100
AcDbEntity
  8
1
100
AcDbPoint
 10
3459.806774102184
 20
3775.572834317824
 30
0.0
  0
INSERT
  5
7C40
330
83BA
100
AcDbEntity
  8
0
100
AcDbBlockReference
  2
YA_N
 10
-1074.779326041182
 20
-1311.669320613289
 30
0.0
 41
25.0
 42
25.0
 43
25.0
  0
LINE
  5
7C42
330
83BA
100
AcDbEntity
  8
1
100
AcDbLine
 10
3318.605211603564
 20
2400.572834317823
 30
0.0
 11
1058.605211603565
 21
2400.572834317823
 31
0.0
1001
ACAD
1000
ASC_BOUNDS
1002
{
1070
    19
1005
0
1002
}
  0
LINE
  5
7C43
330
83BA
100
AcDbEntity
  8
1
100
AcDbLine
 10
3318.605211603564
 20
2400.572834317823
 30
0.0
 11
3318.605211603564
 21
2335.572834317823
 31
0.0
  0
LINE
  5
7C44
330
83BA
100
AcDbEntity
  8
1
100
AcDbLine
 10
1058.605211603565
 20
2400.572834317823
 30
0.0
 11
1058.605211603565
 21
2335.572834317823
 31
0.0
  0
LINE
  5
7C45
330
83BA
100
AcDbEntity
  8
1
100
AcDbLine
 10
3318.605211603564
 20
2335.572834317823
 30
0.0
 11
1058.605211603565
 21
2335.572834317823
 31
0.0
1001
ACAD
1000
ASC_BOUNDS
1002
{
1070
    19
1002
}
  0
LINE
  5
7C46
330
83BA
100
AcDbEntity
  8
1
100
AcDbLine
 10
4564.252841307506
 20
2400.572834317823
 30
0.0
 11
6461.752841307506
 21
2400.572834317823
 31
0.0
1001
ACAD
1000
ASC_BOUNDS
1002
{
1070
    19
1002
}
  0
LINE
  5
7C47
330
83BA
100
AcDbEntity
  8
1
100
AcDbLine
 10
4561.752841307504
 20
2400.572834317823
 30
0.0
 11
4561.752841307494
 21
2335.572834317823
 31
0.0
  0
LINE
  5
7C48
330
83BA
100
AcDbEntity
  8
1
100
AcDbLine
 10
4561.752841307494
 20
2335.572834317823
 30
0.0
 11
6461.752841307483
 21
2335.572834317823
 31
0.0
  0
INSERT
  5
7C49
330
83BA
100
AcDbEntity
  8
0
100
AcDbBlockReference
  2
YA_N
 10
-346.9416476423939
 20
-375.8074592043958
 30
0.0
 41
25.0
 42
25.0
 43
25.0
  0
ARC
  5
7C4E
330
83BA
100
AcDbEntity
  8
1
100
AcDbCircle
 10
1348.605211603564
 20
2805.572834317823
 30
0.0
 40
203.5
100
AcDbArc
 50
285.603699
 51
254.39624
  0
LINE
  5
7C4F
330
83BA
100
AcDbEntity
  8
1
100
AcDbLine
 10
1293.867174603565
 20
2609.572834317823
 30
0.0
 11
1403.343248603565
 21
2609.572834317823
 31
0.0
  0
ARC
  5
7C50
330
83BA
100
AcDbEntity
  8
1
100
AcDbCircle
 10
1534.605211603564
 20
2622.572834317823
 30
0.0
 40
3.0
100
AcDbArc
 50
0.0
 51
90.0
  0
ARC
  5
7C51
330
83BA
100
AcDbEntity
  8
1
100
AcDbCircle
 10
1532.605211603564
 20
2679.899495317823
 30
0.0
 40
5.000066999999999
100
AcDbArc
 50
0.0
 51
55.056335
  0
LINE
  5
7C52
330
83BA
100
AcDbEntity
  8
1
100
AcDbLine
 10
1537.605211603564
 20
2679.899495317823
 30
0.0
 11
1537.605211603564
 21
2605.572834317823
 31
0.0
  0
LINE
  5
7C56
330
83BA
100
AcDbEntity
  8
1
100
AcDbLine
 10
1452.707781603565
 20
2630.716023317823
 30
0.0
 11
1458.105211603564
 21
2610.572834317823
 31
0.0
  0
LINE
  5
7C57
330
83BA
100
AcDbEntity
  8
1
100
AcDbLine
 10
1458.105211603564
 20
2622.572834317823
 30
0.0
 11
1458.105211603564
 21
2605.572834317823
 31
0.0
  0
LINE
  5
7C58
330
83BA
100
AcDbEntity
  8
1
100
AcDbLine
 10
1461.105211603564
 20
2625.572834317823
 30
0.0
 11
1534.605211603564
 21
2625.572834317823
 31
0.0
  0
ARC
  5
7C59
330
83BA
100
AcDbEntity
  8
1
100
AcDbCircle
 10
1461.105211603564
 20
2622.572834317823
 30
0.0
 40
3.0
100
AcDbArc
 50
90.0
 51
180.0
  0
LINE
  5
7C5A
330
83BA
100
AcDbEntity
  8
1
100
AcDbLine
 10
1535.468981603564
 20
2683.998127317825
 30
0.0
 11
1519.531115603565
 21
2695.134602317823
 31
0.0
  0
LINE
  5
7C5B
330
83BA
100
AcDbEntity
  8
1
100
AcDbLine
 10
1159.605211603564
 20
2679.899495317823
 30
0.0
 11
1159.605211603564
 21
2605.572834317823
 31
0.0
  0
LINE
  5
7C5F
330
83BA
100
AcDbEntity
  8
1
100
AcDbLine
 10
1244.502428603565
 20
2630.716145317823
 30
0.0
 11
1239.105211603564
 21
2610.572834317823
 31
0.0
  0
LINE
  5
7C60
330
83BA
100
AcDbEntity
  8
1
100
AcDbLine
 10
1239.105211603564
 20
2622.572834317823
 30
0.0
 11
1239.105211603564
 21
2605.572834317823
 31
0.0
  0
LINE
  5
7C61
330
83BA
100
AcDbEntity
  8
1
100
AcDbLine
 10
1236.105211603564
 20
2625.572834317823
 30
0.0
 11
1162.605211603564
 21
2625.572834317823
 31
0.0
  0
ARC
  5
7C62
330
83BA
100
AcDbEntity
  8
1
100
AcDbCircle
 10
1236.105211603564
 20
2622.572834317823
 30
0.0
 40
3.0
100
AcDbArc
 50
0.0
 51
90.0
  0
ARC
  5
7C63
330
83BA
100
AcDbEntity
  8
1
100
AcDbCircle
 10
1162.605211603564
 20
2622.572834317823
 30
0.0
 40
3.0
100
AcDbArc
 50
90.0
 51
180.0
  0
LINE
  5
7C64
330
83BA
100
AcDbEntity
  8
1
100
AcDbLine
 10
1161.741320603565
 20
2683.998127317825
 30
0.0
 11
1177.679186603565
 21
2695.134602317823
 31
0.0
  0
ARC
  5
7C65
330
83BA
100
AcDbEntity
  8
1
100
AcDbCircle
 10
1164.605211603564
 20
2679.899495317823
 30
0.0
 40
5.0
100
AcDbArc
 50
124.943661
 51
180.0
  0
LINE
  5
7C66
330
83BA
100
AcDbEntity
  8
1
100
AcDbLine
 10
1592.667467651654
 20
2605.572834317823
 30
0.0
 11
1418.605211603564
 21
2605.572834317823
 31
0.0
  0
LINE
  5
7C67
330
83BA
100
AcDbEntity
  8
1
100
AcDbLine
 10
1608.605211603566
 20
2545.572834317823
 30
0.0
 11
1592.667467651654
 21
2605.572834317823
 31
0.0
  0
LINE
  5
7C68
330
83BA
100
AcDbEntity
  8
1
100
AcDbLine
 10
1088.605211603566
 20
2545.572834317823
 30
0.0
 11
1104.590221509929
 21
2605.572834317823
 31
0.0
  0
LINE
  5
7C6A
330
83BA
100
AcDbEntity
  8
1
100
AcDbLine
 10
1418.605211603564
 20
2595.572834317823
 30
0.0
 11
1278.605211603565
 21
2595.572834317823
 31
0.0
  0
LINE
  5
7C6B
330
83BA
100
AcDbEntity
  8
1
100
AcDbLine
 10
1278.605211603565
 20
2605.572834317823
 30
0.0
 11
1278.605211603566
 21
2595.572834317823
 31
0.0
  0
LINE
  5
7C6C
330
83BA
100
AcDbEntity
  8
1
100
AcDbLine
 10
1418.605211603565
 20
2605.572834317823
 30
0.0
 11
1418.605211603565
 21
2595.572834317823
 31
0.0
  0
LINE
  5
7C6F
330
83BA
100
AcDbEntity
  8
1
100
AcDbLine
 10
1278.605211603565
 20
2605.572834317823
 30
0.0
 11
1104.590221509929
 21
2605.572834317823
 31
0.0
  0
CIRCLE
  5
7C70
330
83BA
100
AcDbEntity
  8
1
100
AcDbCircle
 10
1348.605211603564
 20
2805.572834317823
 30
0.0
 40
118.0
  0
LINE
  5
7C71
330
83BA
100
AcDbEntity
  8
1
100
AcDbLine
 10
4558.752841307505
 20
2923.572834317823
 30
0.0
 11
4669.252841307505
 21
2923.572834317823
 31
0.0
  0
LINE
  5
7C72
330
83BA
100
AcDbEntity
  8
1
100
AcDbLine
 10
4558.752841307506
 20
2687.572834317823
 30
0.0
 11
4669.252841307505
 21
2687.572834317823
 31
0.0
  0
LINE
  5
7C73
330
83BA
100
AcDbEntity
  8
1
100
AcDbLine
 10
4523.752841307505
 20
2585.572834317823
 30
0.0
 11
4721.052841307505
 21
2585.572834317823
 31
0.0
  0
INSERT
  5
7C75
330
83BA
100
AcDbEntity
  8
0
100
AcDbBlockReference
  2
YA_N
 10
-394.4722692372305
 20
-430.898429998433
 30
0.0
 41
25.0
 42
25.0
 43
25.0
  0
LINE
  5
7C78
330
83BA
100
AcDbEntity
  8
1
100
AcDbLine
 10
4893.752841307505
 20
2577.572834317823
 30
0.0
 11
4893.752841307507
 21
3775.572834317824
 31
0.0
  0
LINE
  5
7C79
330
83BA
100
AcDbEntity
  8
1
100
AcDbLine
 10
6393.752841307502
 20
2577.572834317823
 30
0.0
 11
6393.752841307506
 21
3775.572834317824
 31
0.0
  0
LINE
  5
7C7A
330
83BA
100
AcDbEntity
  8
1
100
AcDbLine
 10
4893.752841307505
 20
4580.572834317824
 30
0.0
 11
6393.752841307505
 21
4580.572834317824
 31
0.0
  0
LINE
  5
7C7B
330
83BA
100
AcDbEntity
  8
1
100
AcDbLine
 10
4893.752841307505
 20
3775.572834317824
 30
0.0
 11
4893.752841307505
 21
4580.572834317824
 31
0.0
  0
LINE
  5
7C7C
330
83BA
100
AcDbEntity
  8
1
100
AcDbLine
 10
6393.752841307505
 20
3775.572834317824
 30
0.0
 11
6393.752841307505
 21
4580.572834317824
 31
0.0
  0
LINE
  5
7C7D
330
83BA
100
AcDbEntity
  8
1
100
AcDbLine
 10
4736.252841307504
 20
3712.572834317823
 30
0.0
 11
4826.452841307505
 21
3712.572834317823
 31
0.0
  0
LINE
  5
7C7E
330
83BA
100
AcDbEntity
  8
1
100
AcDbLine
 10
4726.252841307505
 20
3702.572834317823
 30
0.0
 11
4726.252841307505
 21
3572.572834317823
 31
0.0
  0
LINE
  5
7C7F
330
83BA
100
AcDbEntity
  8
1
100
AcDbLine
 10
4866.252841307504
 20
3712.572834317823
 30
0.0
 11
4866.252841307503
 21
3562.572834317823
 31
0.0
  0
LINE
  5
7C80
330
83BA
100
AcDbEntity
  8
1
100
AcDbLine
 10
4736.252841307504
 20
3562.572834317823
 30
0.0
 11
4826.452841307505
 21
3562.572834317823
 31
0.0
  0
ARC
  5
7C81
330
83BA
100
AcDbEntity
  8
1
100
AcDbCircle
 10
4736.252841307504
 20
3702.572834317823
 30
0.0
 40
10.0
100
AcDbArc
 50
90.0
 51
180.0
  0
ARC
  5
7C82
330
83BA
100
AcDbEntity
  8
1
100
AcDbCircle
 10
4736.252841307504
 20
3572.572834317823
 30
0.0
 40
10.0
100
AcDbArc
 50
180.0
 51
270.0
  0
LINE
  5
7C83
330
83BA
100
AcDbEntity
  8
1
100
AcDbLine
 10
6421.252841307505
 20
3712.572834317823
 30
0.0
 11
6421.252841307505
 21
3562.572834317823
 31
0.0
  0
LINE
  5
7C84
330
83BA
100
AcDbEntity
  8
1
100
AcDbLine
 10
6573.752841307504
 20
3702.572834317823
 30
0.0
 11
6573.752841307504
 21
3572.572834317823
 31
0.0
  0
LINE
  5
7C85
330
83BA
100
AcDbEntity
  8
1
100
AcDbLine
 10
6563.752841307504
 20
3562.572834317823
 30
0.0
 11
6461.052841307509
 21
3562.572834317823
 31
0.0
  0
ARC
  5
7C86
330
83BA
100
AcDbEntity
  8
1
100
AcDbCircle
 10
6563.752841307504
 20
3572.572834317823
 30
0.0
 40
10.0
100
AcDbArc
 50
270.0
 51
0.0
  0
LINE
  5
7C87
330
83BA
100
AcDbEntity
  8
1
100
AcDbLine
 10
6563.752841307504
 20
3712.572834317823
 30
0.0
 11
6461.052841307509
 21
3712.572834317823
 31
0.0
  0
ARC
  5
7C88
330
83BA
100
AcDbEntity
  8
1
100
AcDbCircle
 10
6563.752841307504
 20
3702.572834317823
 30
0.0
 40
10.0
100
AcDbArc
 50
0.0
 51
90.0
  0
LINE
  5
7C89
330
83BA
100
AcDbEntity
  8
1
100
AcDbLine
 10
4698.752841307504
 20
3815.572834317823
 30
0.0
 11
4893.752841307504
 21
3815.572834317823
 31
0.0
  0
LINE
  5
7C8A
330
83BA
100
AcDbEntity
  8
1
100
AcDbLine
 10
4698.752841307505
 20
3735.572834317823
 30
0.0
 11
4893.752841307507
 21
3735.572834317823
 31
0.0
  0
LINE
  5
7C8B
330
83BA
100
AcDbEntity
  8
1
100
AcDbLine
 10
4698.752841307505
 20
3815.572834317823
 30
0.0
 11
4698.752841307505
 21
3735.572834317823
 31
0.0
  0
LINE
  5
7C8C
330
83BA
100
AcDbEntity
  8
1
100
AcDbLine
 10
4669.252841307506
 20
3808.072834317823
 30
0.0
 11
4698.752841307505
 21
3808.072834317823
 31
0.0
  0
LINE
  5
7C8D
330
83BA
100
AcDbEntity
  8
1
100
AcDbLine
 10
4669.252841307505
 20
3743.072834317823
 30
0.0
 11
4698.752841307505
 21
3743.072834317823
 31
0.0
  0
LINE
  5
7C92
330
83BA
100
AcDbEntity
  8
1
100
AcDbLine
 10
6461.052841307505
 20
3712.572834317823
 30
0.0
 11
6421.252841307505
 21
3712.572834317823
 31
0.0
  0
LINE
  5
7C93
330
83BA
100
AcDbEntity
  8
1
100
AcDbLine
 10
6461.052841307507
 20
3562.572834317823
 30
0.0
 11
6421.252841307505
 21
3562.572834317823
 31
0.0
  0
LINE
  5
7C94
330
83BA
100
AcDbEntity
  8
1
100
AcDbLine
 10
4826.452841307505
 20
3712.572834317823
 30
0.0
 11
4866.252841307504
 21
3712.572834317823
 31
0.0
  0
LINE
  5
7C95
330
83BA
100
AcDbEntity
  8
1
100
AcDbLine
 10
4826.452841307505
 20
3562.572834317823
 30
0.0
 11
4866.252841307504
 21
3562.572834317823
 31
0.0
  0
ARC
  5
7C97
330
83BA
100
AcDbEntity
  8
1
100
AcDbCircle
 10
2658.605211603564
 20
3775.572834317824
 30
0.0
 40
668.0
100
AcDbArc
 50
355.87938678605
 51
0.0
  0
LINE
  5
7C98
330
83BA
100
AcDbEntity
  8
1
100
AcDbLine
 10
1148.605211603565
 20
2337.572834317823
 30
0.0
 11
1148.605211603565
 21
2335.572834317823
 31
0.0
  0
LINE
  5
7C99
330
83BA
100
AcDbEntity
  8
1
100
AcDbLine
 10
6461.752841307505
 20
2545.572834317824
 30
0.0
 11
6461.752841307505
 21
2420.572834317823
 31
0.0
  0
LINE
  5
7C9A
330
83BA
100
AcDbEntity
  8
1
100
AcDbLine
 10
4561.752841307504
 20
2545.572834317823
 30
0.0
 11
4561.752841307504
 21
2420.572834317823
 31
0.0
  0
LINE
  5
7C9B
330
83BA
100
AcDbEntity
  8
1
100
AcDbLine
 10
6461.752841307506
 20
2400.572834317827
 30
0.0
 11
6461.752841307485
 21
2335.572834317823
 31
0.0
  0
INSERT
  5
7C9D
330
83BA
100
AcDbEntity
  8
0
100
AcDbBlockReference
  2
YA_N
 10
4305.350442567148
 20
-1988.400780944633
 30
0.0
  0
POINT
  5
7C9F
330
83BA
100
AcDbEntity
  8
1
100
AcDbPoint
 10
3318.605211603564
 20
2400.572834317823
 30
0.0
  0
POINT
  5
7CA0
330
83BA
100
AcDbEntity
  8
1
100
AcDbPoint
 10
3318.605211603564
 20
2335.572834317823
 30
0.0
  0
POINT
  5
7CA1
330
83BA
100
AcDbEntity
  8
1
100
AcDbPoint
 10
3318.605211603564
 20
2400.572834317823
 30
0.0
  0
POINT
  5
7CA2
330
83BA
100
AcDbEntity
  8
1
100
AcDbPoint
 10
3318.605211603564
 20
2420.572834317823
 30
0.0
  0
ARC
  5
7CA5
330
83BA
100
AcDbEntity
  8
1
100
AcDbCircle
 10
2658.605211603564
 20
3775.572834317824
 30
0.0
 40
380.0
100
AcDbArc
 50
300.8853038943515
 51
136.5147063857816
  0
CIRCLE
  5
7CA6
330
83BA
100
AcDbEntity
  8
1
100
AcDbCircle
 10
2658.605211603564
 20
3775.572834317824
 30
0.0
 40
254.0
  0
ARC
  5
7CA7
330
83BA
100
AcDbEntity
  8
1
100
AcDbCircle
 10
1348.605211603565
 20
2805.572834317823
 30
0.0
 40
220.0
100
AcDbArc
 50
132.1514845175897
 51
300.8853038943515
  0
LINE
  5
7CA8
330
83BA
100
AcDbEntity
  8
1
100
AcDbLine
 10
4558.752841307506
 20
4029.572834317823
 30
0.0
 11
4669.252841307506
 21
4029.572834317823
 31
0.0
  0
LINE
  5
7CA9
330
83BA
100
AcDbEntity
  8
1
100
AcDbLine
 10
4558.752841307506
 20
3521.572834317823
 30
0.0
 11
4669.252841307505
 21
3521.572834317823
 31
0.0
  0
LINE
  5
7CAA
330
83BA
100
AcDbEntity
  8
1
100
AcDbLine
 10
4523.752841307505
 20
4155.572834317824
 30
0.0
 11
4721.052841307505
 21
4155.572834317824
 31
0.0
  0
LINE
  5
7CAB
330
83BA
100
AcDbEntity
  8
1
100
AcDbLine
 10
4721.052841307504
 20
2605.572834317823
 30
0.0
 11
4721.052841307505
 21
2585.572834317823
 31
0.0
  0
LINE
  5
7CAD
330
83BA
100
AcDbEntity
  8
1
100
AcDbLine
 10
3318.605211603564
 20
7628.562273750784
 30
0.0
 11
1998.605211603564
 21
7628.562273750784
 31
0.0
  0
LINE
  5
7CAE
330
83BA
100
AcDbEntity
  8
1
100
AcDbLine
 10
3318.605211603564
 20
5728.562273750783
 30
0.0
 11
1058.605211603564
 21
5728.562273750783
 31
0.0
  0
LINE
  5
7CAF
330
83BA
100
AcDbEntity
  8
1
100
AcDbLine
 10
3318.605211603564
 20
7628.562273750786
 30
0.0
 11
3318.605211603564
 21
7560.562273750784
 31
0.0
  0
LINE
  5
7CB0
330
83BA
100
AcDbEntity
  8
1
100
AcDbLine
 10
1058.605211603564
 20
6628.562273750784
 30
0.0
 11
1058.605211603564
 21
5728.562273750783
 31
0.0
  0
LINE
  5
7CB1
330
83BA
100
AcDbEntity
  8
1
100
AcDbLine
 10
1998.605211603564
 20
7628.562273750784
 30
0.0
 11
1998.605211603564
 21
7560.562273750784
 31
0.0
  0
LINE
  5
7CB2
330
83BA
100
AcDbEntity
  8
1
100
AcDbLine
 10
1689.605211603564
 20
6628.562273750784
 30
0.0
 11
1058.605211603564
 21
6628.562273750784
 31
0.0
  0
LINE
  5
7CB3
330
83BA
100
AcDbEntity
  8
2
100
AcDbLine
 10
1348.605211603564
 20
6496.284850909109
 30
0.0
 11
1348.605211603568
 21
5651.616289845637
 31
0.0
  0
CIRCLE
  5
7CBC
330
83BA
100
AcDbEntity
  8
1
100
AcDbCircle
 10
2658.605211603564
 20
3775.572834317824
 30
0.0
 40
560.0
  0
CIRCLE
  5
7CBD
330
83BA
100
AcDbEntity
  8
1
100
AcDbCircle
 10
2658.605211603564
 20
3775.572834317824
 30
0.0
 40
610.0
  0
LINE
  5
7CBE
330
83BA
100
AcDbEntity
  8
1
100
AcDbLine
 10
3038.605211603565
 20
5690.562273750784
 30
0.0
 11
1128.605211603564
 21
5690.562273750784
 31
0.0
  0
LINE
  5
7CBF
330
83BA
100
AcDbEntity
  8
1
100
AcDbLine
 10
3038.605211603565
 20
5860.562273750783
 30
0.0
 11
1128.605211603564
 21
5860.562273750783
 31
0.0
  0
LINE
  5
7CC0
330
83BA
100
AcDbEntity
  8
1
100
AcDbLine
 10
3038.605211603564
 20
5690.562273750784
 30
0.0
 11
3038.605211603565
 21
5860.562273750783
 31
0.0
  0
LINE
  5
7CC1
330
83BA
100
AcDbEntity
  8
1
100
AcDbLine
 10
1128.605211603564
 20
5690.562273750784
 30
0.0
 11
1128.605211603564
 21
5860.562273750783
 31
0.0
  0
LINE
  5
7CC2
330
83BA
100
AcDbEntity
  8
1
100
AcDbLine
 10
2912.605211603564
 20
5728.262273750782
 30
0.0
 11
2912.605211603564
 21
5838.762273750782
 31
0.0
  0
LINE
  5
7CC3
330
83BA
100
AcDbEntity
  8
1
100
AcDbLine
 10
2404.605211603564
 20
5728.262273750782
 30
0.0
 11
2404.605211603564
 21
5838.762273750782
 31
0.0
  0
LINE
  5
7CC4
330
83BA
100
AcDbEntity
  8
1
100
AcDbLine
 10
1466.605211603564
 20
5728.262273750783
 30
0.0
 11
1466.605211603564
 21
5838.762273750782
 31
0.0
  0
LINE
  5
7CC5
330
83BA
100
AcDbEntity
  8
1
100
AcDbLine
 10
1230.605211603564
 20
5728.262273750782
 30
0.0
 11
1230.605211603564
 21
5838.762273750782
 31
0.0
  0
LINE
  5
7CC6
330
83BA
100
AcDbEntity
  8
1
100
AcDbLine
 10
2912.605211603564
 20
5728.262273750783
 30
0.0
 11
2404.605211603565
 21
5728.262273750783
 31
0.0
  0
LINE
  5
7CC7
330
83BA
100
AcDbEntity
  8
1
100
AcDbLine
 10
2912.605211603564
 20
5838.762273750782
 30
0.0
 11
2404.605211603564
 21
5838.762273750782
 31
0.0
  0
LINE
  5
7CC8
330
83BA
100
AcDbEntity
  8
1
100
AcDbLine
 10
1466.605211603564
 20
5838.762273750782
 30
0.0
 11
1230.605211603564
 21
5838.762273750782
 31
0.0
  0
LINE
  5
7CC9
330
83BA
100
AcDbEntity
  8
1
100
AcDbLine
 10
1466.605211603564
 20
5728.262273750783
 30
0.0
 11
1230.605211603564
 21
5728.262273750782
 31
0.0
  0
LINE
  5
7CCA
330
83BA
100
AcDbEntity
  8
1
100
AcDbLine
 10
3418.605211603564
 20
7610.562273750784
 30
0.0
 11
3418.605211603564
 21
6010.562273750783
 31
0.0
  0
LINE
  5
7CCB
330
83BA
100
AcDbEntity
  8
1
100
AcDbLine
 10
1689.605211603564
 20
7560.562273750784
 30
0.0
 11
1689.605211603564
 21
6060.562273750782
 31
0.0
  0
LINE
  5
7CCC
330
83BA
100
AcDbEntity
  8
1
100
AcDbLine
 10
3418.605211603564
 20
7560.562273750784
 30
0.0
 11
1689.605211603564
 21
7560.562273750784
 31
0.0
  0
LINE
  5
7CCD
330
83BA
100
AcDbEntity
  8
1
100
AcDbLine
 10
3418.605211603564
 20
6060.562273750782
 30
0.0
 11
1689.605211603564
 21
6060.562273750782
 31
0.0
  0
LINE
  5
7CCE
330
83BA
100
AcDbEntity
  8
1
100
AcDbLine
 10
3418.605211603564
 20
7610.562273750784
 30
0.0
 11
3414.605211603564
 21
7610.562273750784
 31
0.0
  0
LINE
  5
7CCF
330
83BA
100
AcDbEntity
  8
1
100
AcDbLine
 10
3418.605211603564
 20
6010.562273750783
 30
0.0
 11
3414.605211603564
 21
6010.562273750783
 31
0.0
  0
LINE
  5
7CD0
330
83BA
100
AcDbEntity
  8
1
100
AcDbLine
 10
3414.605211603564
 20
7610.562273750784
 30
0.0
 11
3414.605211603564
 21
6010.562273750783
 31
0.0
  0
LINE
  5
7CD1
330
83BA
100
AcDbEntity
  8
1
100
AcDbLine
 10
2693.605211603564
 20
6060.562273750782
 30
0.0
 11
2693.605211603564
 21
5838.762273750782
 31
0.0
  0
LINE
  5
7CD2
330
83BA
100
AcDbEntity
  8
1
100
AcDbLine
 10
2623.605211603564
 20
6060.562273750782
 30
0.0
 11
2623.605211603564
 21
5838.762273750782
 31
0.0
  0
LINE
  5
7CD3
330
83BA
100
AcDbEntity
  8
1
100
AcDbLine
 10
1547.605211603564
 20
6530.762273750783
 30
0.0
 11
1547.605211603566
 21
5873.262273750782
 31
0.0
  0
LINE
  5
7CD4
330
83BA
100
AcDbEntity
  8
1
100
AcDbLine
 10
1149.605211603564
 20
6530.762273750781
 30
0.0
 11
1149.605211603566
 21
5873.262273750781
 31
0.0
  0
LINE
  5
7CD5
330
83BA
100
AcDbEntity
  8
1
100
AcDbLine
 10
1547.605211603564
 20
6530.762273750783
 30
0.0
 11
1149.605211603564
 21
6530.762273750781
 31
0.0
  0
LINE
  5
7CD6
330
83BA
100
AcDbEntity
  8
1
100
AcDbLine
 10
1547.605211603568
 20
5873.262273750782
 30
0.0
 11
1149.605211603568
 21
5873.262273750782
 31
0.0
  0
LINE
  5
7CD7
330
83BA
100
AcDbEntity
  8
1
100
AcDbLine
 10
1376.105211603566
 20
5873.262273750782
 30
0.0
 11
1376.105211603566
 21
5838.762273750782
 31
0.0
  0
LINE
  5
7CD8
330
83BA
100
AcDbEntity
  8
1
100
AcDbLine
 10
1321.105211603566
 20
5873.262273750782
 30
0.0
 11
1321.105211603566
 21
5838.762273750782
 31
0.0
  0
LINE
  5
7CD9
330
83BA
100
AcDbEntity
  8
1
100
AcDbLine
 10
4893.752841307507
 20
3004.572834317825
 30
0.0
 11
4703.752841307504
 21
3004.572834317825
 31
0.0
  0
LINE
  5
7CDA
330
83BA
100
AcDbEntity
  8
1
100
AcDbLine
 10
4893.752841307507
 20
2606.572834317825
 30
0.0
 11
4703.752841307506
 21
2606.572834317825
 31
0.0
  0
LINE
  5
7CDB
330
83BA
100
AcDbEntity
  8
1
100
AcDbLine
 10
4703.752841307506
 20
2606.572834317823
 30
0.0
 11
4703.752841307504
 21
3004.572834317823
 31
0.0
  0
LINE
  5
7CDC
330
83BA
100
AcDbEntity
  8
1
100
AcDbLine
 10
4703.752841307505
 20
2778.072834317825
 30
0.0
 11
4669.252841307505
 21
2778.072834317825
 31
0.0
  0
LINE
  5
7CDD
330
83BA
100
AcDbEntity
  8
1
100
AcDbLine
 10
4703.752841307505
 20
2833.072834317825
 30
0.0
 11
4669.252841307505
 21
2833.072834317825
 31
0.0
  0
LINE
  5
7CEB
330
83BA
100
AcDbEntity
  8
1
100
AcDbLine
 10
2403.589845512115
 20
4057.294617389781
 30
0.0
 11
1200.964736497988
 21
2968.674919254221
 31
0.0
  0
LINE
  5
7CEC
330
83BA
100
AcDbEntity
  8
1
100
AcDbLine
 10
2853.667246870777
 20
3449.458126895093
 30
0.0
 11
1461.535863600372
 21
2616.769582652032
 31
0.0
  0
LINE
  5
7CED
330
83BA
100
AcDbEntity
  8
1
100
AcDbLine
 10
2490.950218633714
 20
3966.381123792571
 30
0.0
 11
1270.718246365601
 21
2894.216055412391
 31
0.0
  0
LINE
  5
7CEE
330
83BA
100
AcDbEntity
  8
1
100
AcDbLine
 10
2792.197246349855
 20
3559.542354402729
 30
0.0
 11
1410.667652942392
 21
2705.212217664354
 31
0.0
  0
LINE
  5
7CEF
330
83BA
100
AcDbEntity
  8
1
100
AcDbLine
 10
4893.752841307507
 20
2577.572834317823
 30
0.0
 11
6393.752841307502
 21
2577.572834317823
 31
0.0
  0
LINE
  5
7CF0
330
83BA
100
AcDbEntity
  8
1
100
AcDbLine
 10
4893.752841307506
 20
3727.572834317824
 30
0.0
 11
6393.752841307506
 21
3727.572834317824
 31
0.0
  0
LINE
  5
7CF1
330
83BA
100
AcDbEntity
  8
1
100
AcDbLine
 10
6393.752841307506
 20
3727.572834317824
 30
0.0
 11
4893.752841307505
 21
2577.572834317823
 31
0.0
  0
LINE
  5
7CF2
330
83BA
100
AcDbEntity
  8
1
100
AcDbLine
 10
4893.752841307507
 20
3727.572834317824
 30
0.0
 11
6393.752841307502
 21
2577.572834317823
 31
0.0
  0
LINE
  5
7CF3
330
83BA
100
AcDbEntity
  8
1
100
AcDbLine
 10
3318.605211603564
 20
6060.562273750782
 30
0.0
 11
3318.605211603564
 21
5728.562273750783
 31
0.0
  0
LINE
  5
7F35
330
83BA
100
AcDbEntity
  8
4
100
AcDbLine
 10
6475.0
 20
1750.0
 30
0.0
 11
6475.0
 21
1050.0
 31
0.0
  0
LINE
  5
7F36
330
83BA
100
AcDbEntity
  8
4
100
AcDbLine
 10
4025.0
 20
1750.0
 30
0.0
 11
4025.0
 21
1050.0
 31
0.0
  0
LINE
  5
7F37
330
83BA
100
AcDbEntity
  8
4
100
AcDbLine
 10
2275.0
 20
1750.0
 30
0.0
 11
2275.0
 21
1050.0
 31
0.0
  0
LINE
  5
7F3A
330
83BA
100
AcDbEntity
  8
4
100
AcDbLine
 10
2275.0
 20
1050.0
 30
0.0
 11
6475.0
 21
1050.0
 31
0.0
  0
LINE
  5
7F3B
330
83BA
100
AcDbEntity
  8
4
100
AcDbLine
 10
2275.0
 20
1400.0
 30
0.0
 11
6475.0
 21
1400.0
 31
0.0
  0
TEXT
  5
7F3C
330
83BA
100
AcDbEntity
  8
4
100
AcDbText
 10
2409.757282964156
 20
1510.400590533145
 30
0.0
 40
175.0
  1
機器名称
100
AcDbText
  0
TEXT
  5
7F3D
330
83BA
100
AcDbEntity
  8
4
100
AcDbText
 10
2401.903371086791
 20
1125.758048562038
 30
0.0
 40
175.0
  1
機器型番
100
AcDbText
  0
TEXT
  5
7F3E
330
83BA
100
AcDbEntity
  8
4
100
AcDbText
 10
4121.875609206827
 20
1479.00119135149
 30
0.0
 40
175.0
  1
ミツヤ多翼送風機
100
AcDbText
  0
TEXT
  5
7F3F
330
83BA
100
AcDbEntity
  8
4
100
AcDbText
 10
4153.290734549183
 20
1110.058544979801
 30
0.0
 40
175.0
  1
MF#7-5
100
AcDbText
  0
TEXT
  5
7F41
330
83BA
100
AcDbEntity
  8
4
100
AcDbText
 10
2778.638057536896
 20
8342.000944663805
 30
0.0
 40
188.9999999999998
  1
床置防振ベット
100
AcDbText
  0
TEXT
  5
7F42
330
83BA
100
AcDbEntity
  8
4
100
AcDbText
 10
1106.586576653062
 20
8868.583416697545
 30
0.0
 40
252.0
  1
遠心式両吸込両持多翼ファン
100
AcDbText
  0
LINE
  5
7F43
330
83BA
100
AcDbEntity
  8
4
100
AcDbLine
 10
875.0
 20
8642.930639926817
 30
0.0
 11
6475.0
 21
8642.930639926817
 31
0.0
  0
LINE
  5
7F44
330
83BA
100
AcDbEntity
  8
4
100
AcDbLine
 10
875.0
 20
9342.930639926818
 30
0.0
 11
6475.0
 21
9342.930639926818
 31
0.0
  0
LINE
  5
7F45
330
83BA
100
AcDbEntity
  8
4
100
AcDbLine
 10
2275.0
 20
1750.0
 30
0.0
 11
6475.0
 21
1750.0
 31
0.0
  0
LINE
  5
7F46
330
83BA
100
AcDbEntity
  8
4
100
AcDbLine
 10
875.0
 20
9342.930639926818
 30
0.0
 11
875.0
 21
8642.930639926817
 31
0.0
  0
TEXT
  5
7F47
330
83BA
100
AcDbEntity
  8
4
100
AcDbText
 10
1253.132144687439
 20
8338.118171412203
 30
0.0
 40
188.9999999999998
  1
左回転右横向
100
AcDbText
  0
TEXT
  5
7F48
330
83BA
100
AcDbEntity
  8
4
100
AcDbText
 10
5141.393457372513
 20
9471.21378523358
 30
0.0
 40
196.0
  1
No.
100
AcDbText
  0
TEXT
  5
7F49
330
83BA
100
AcDbEntity
  8
4
100
AcDbText
 10
4589.536219100046
 20
8342.000944663805
 30
0.0
 40
188.9999999999998
  1
縮尺：1/35
100
AcDbText
  0
LINE
  5
7F4A
330
83BA
100
AcDbEntity
  8
4
100
AcDbLine
 10
6475.0
 20
9342.930639926818
 30
0.0
 11
6475.0
 21
8642.930639926817
 31
0.0
  0
LINE
  5
7F4B
330
83BA
100
AcDbEntity
  8
4
100
AcDbLine
 10
7350.0
 20
10325.0
 30
0.0
 11
7350.0
 21
10325.0
 31
0.0
  0
LINE
  5
7F4C
330
83BA
100
AcDbEntity
  8
4
100
AcDbLine
 10
5042.160978259526
 20
9384.422540938905
 30
0.0
 11
5042.160978259526
 21
9753.282915424136
 31
0.0
  0
LINE
  5
7F4D
330
83BA
100
AcDbEntity
  8
4
100
AcDbLine
 10
5042.160978259526
 20
9753.282915424136
 30
0.0
 11
6475.0
 21
9753.282915424136
 31
0.0
  0
LINE
  5
7F4E
330
83BA
100
AcDbEntity
  8
4
100
AcDbLine
 10
6475.0
 20
9753.282915424136
 30
0.0
 11
6475.0
 21
9384.422540938905
 31
0.0
  0
LINE
  5
7F4F
330
83BA
100
AcDbEntity
  8
4
100
AcDbLine
 10
6475.0
 20
9384.422540938905
 30
0.0
 11
5042.160978259526
 21
9384.422540938905
 31
0.0
  0
LINE
  5
7F50
330
83BA
100
AcDbEntity
  8
4
100
AcDbLine
 10
0.0
 20
0.0
 30
0.0
 11
0.0
 21
10325.0
 31
0.0
  0
LINE
  5
7F51
330
83BA
100
AcDbEntity
  8
4
100
AcDbLine
 10
0.0
 20
10325.0
 30
0.0
 11
7350.0
 21
10325.0
 31
0.0
  0
LINE
  5
7F52
330
83BA
100
AcDbEntity
  8
4
100
AcDbLine
 10
7350.0
 20
10325.0
 30
0.0
 11
7350.0
 21
0.0
 31
0.0
  0
LINE
  5
7F53
330
83BA
100
AcDbEntity
  8
4
100
AcDbLine
 10
7350.0
 20
0.0
 30
0.0
 11
0.0
 21
0.0
 31
0.0
  0
DIMENSION
  5
8156
330
83BA
100
AcDbEntity
  8
3
100
AcDbDimension
  2
*D22
 10
2658.605211603564
 20
2096.993710778868
 30
0.0
 11
1858.605211603565
 21
2184.493710778868
 31
0.0
 71
     5
 42
-1.0
  3
Standard
100
AcDbAlignedDimension
 13
1058.605211603565
 23
2335.572834317823
 33
0.0
 14
2658.605211603564
 24
2335.572834317823
 34
0.0
100
AcDbRotatedDimension
1001
ACAD
1000
DSTYLE
1002
{
1070
   172
1070
     1
1070
    40
1040
35.0
1070
   271
1070
     0
1070
   143
1040
0.039
1002
}
  0
DIMENSION
  5
8163
330
83BA
100
AcDbEntity
  8
3
100
AcDbDimension
  2
*D23
 10
3318.605211603564
 20
2096.993710778868
 30
0.0
 11
2988.605211603564
 21
2184.493710778868
 31
0.0
 71
     5
 42
-1.0
  3
Standard
100
AcDbAlignedDimension
 13
2658.605211603564
 23
2335.572834317823
 33
0.0
 14
3318.605211603564
 24
2335.572834317823
 34
0.0
100
AcDbRotatedDimension
1001
ACAD
1000
DSTYLE
1002
{
1070
   172
1070
     1
1070
    40
1040
35.0
1070
   271
1070
     0
1070
   143
1040
0.039
1002
}
  0
DIMENSION
  5
8170
330
83BA
100
AcDbEntity
  8
3
100
AcDbDimension
  2
*D24
 10
5643.752841307505
 20
2096.993710778868
 30
0.0
 11
5102.752841307498
 21
2184.493710778868
 31
0.0
 71
     5
 42
-1.0
  3
Standard
100
AcDbAlignedDimension
 13
4561.752841307494
 23
2335.572834317823
 33
0.0
 14
5643.752841307505
 24
2335.572834317823
 34
0.0
100
AcDbRotatedDimension
1001
ACAD
1000
DSTYLE
1002
{
1070
   172
1070
     1
1070
    40
1040
35.0
1070
   271
1070
     0
1070
   143
1040
0.039
1002
}
  0
DIMENSION
  5
817D
330
83BA
100
AcDbEntity
  8
3
100
AcDbDimension
  2
*D25
 10
6461.752841307483
 20
2096.993710778868
 30
0.0
 11
6052.752841307494
 21
2184.493710778868
 31
0.0
 71
     5
 42
-1.0
  3
Standard
100
AcDbAlignedDimension
 13
5643.752841307505
 23
2335.572834317823
 33
0.0
 14
6461.752841307483
 24
2335.572834317823
 34
0.0
100
AcDbRotatedDimension
1001
ACAD
1000
DSTYLE
1002
{
1070
   172
1070
     1
1070
    40
1040
35.0
1070
   271
1070
     0
1070
   143
1040
0.039
1002
}
  0
DIMENSION
  5
840B
330
83BA
100
AcDbEntity
  8
3
100
AcDbDimension
  2
*D29
 10
6842.496091453075
 20
3215.572834317824
 30
0.0
 11
6754.996091453074
 21
3775.572834317824
 31
0.0
 70
    32
  1
\U+03C6<>
 71
     5
 42
1120.000000000001
  3
IGA
100
AcDbAlignedDimension
 13
6393.752841307505
 23
4335.572834317823
 33
0.0
 14
6393.752841307504
 24
3215.572834317824
 34
0.0
 50
90.0
100
AcDbRotatedDimension
1001
ACAD
1000
DSTYLE
1002
{
1070
    40
1040
35.0
1070
   143
1040
0.039
1070
   172
1070
     1
1070
   271
1070
     4
1070
   272
1070
     4
1070
   279
1070
     0
1070
   284
1070
     0
1070
   285
1070
     0
1070
   286
1070
     0
1070
   341
1005
83CD
1070
   343
1005
83CD
1070
   344
1005
83CD
1002
}
  0
DIMENSION
  5
8418
330
83BA
100
AcDbEntity
  8
3
100
AcDbDimension
  2
*D30
 10
6393.752841307505
 20
4834.012473370222
 30
0.0
 11
5643.752841307505
 21
4921.512473370222
 31
0.0
 70
    32
 71
     5
 42
1500.0
  3
IGA
100
AcDbAlignedDimension
 13
4893.752841307505
 23
4580.572834317824
 33
0.0
 14
6393.752841307505
 24
4580.572834317824
 34
0.0
100
AcDbRotatedDimension
1001
ACAD
1000
DSTYLE
1002
{
1070
    40
1040
35.0
1070
   143
1040
0.039
1070
   172
1070
     1
1070
   271
1070
     4
1070
   272
1070
     4
1070
   279
1070
     0
1070
   284
1070
     0
1070
   285
1070
     0
1070
   286
1070
     0
1070
   341
1005
83CD
1070
   343
1005
83CD
1070
   344
1005
83CD
1002
}
  0
DIMENSION
  5
8425
330
83BA
100
AcDbEntity
  8
3
100
AcDbDimension
  2
*D31
 10
5643.752841307505
 20
5059.317625186006
 30
0.0
 11
5083.752841307505
 21
5174.317625186006
 31
0.0
 70
    32
  1
(<>)
 71
     5
 42
1120.0
  3
IGA
100
AcDbAlignedDimension
 13
4523.752841307505
 23
4155.572834317824
 33
0.0
 14
5643.752841307505
 24
4974.012473370223
 34
0.0
100
AcDbRotatedDimension
1001
ACAD
1000
DSTYLE
1002
{
1070
    40
1040
35.0
1070
   143
1040
0.039
1070
   172
1070
     1
1070
   271
1070
     4
1070
   272
1070
     4
1070
   279
1070
     0
1070
   284
1070
     0
1070
   285
1070
     0
1070
   286
1070
     0
1070
   341
1005
83CD
1070
   343
1005
83CD
1070
   344
1005
83CD
1002
}
  0
DIMENSION
  5
8432
330
83BA
100
AcDbEntity
  8
3
100
AcDbDimension
  2
*D32
 10
6573.752841307506
 20
5059.317625186006
 30
0.0
 11
6108.752841307506
 21
5174.317625186006
 31
0.0
 70
    32
  1
(<>)
 71
     5
 42
930.0
  3
IGA
100
AcDbAlignedDimension
 13
5643.752841307505
 23
4974.012473370223
 33
0.0
 14
6573.752841307506
 24
3702.572834317823
 34
0.0
100
AcDbRotatedDimension
1001
ACAD
1000
DSTYLE
1002
{
1070
    40
1040
35.0
1070
   143
1040
0.039
1070
   172
1070
     1
1070
   271
1070
     4
1070
   272
1070
     4
1070
   279
1070
     1
1070
   284
1070
     0
1070
   285
1070
     0
1070
   286
1070
     0
1070
   341
1005
83CD
1070
   343
1005
83CD
1070
   344
1005
83CD
1002
}
  0
DIMENSION
  5
84BF
330
83BA
100
AcDbEntity
  8
3
100
AcDbDimension
  2
*D35
 10
879.753174362213
 20
5728.562273750783
 30
0.0
 11
792.2531743622121
 21
6178.562273750784
 31
0.0
 70
    32
 71
     5
 42
900.0000000000008
  3
IGA
100
AcDbAlignedDimension
 13
1058.605211603564
 23
6628.562273750784
 33
0.0
 14
1058.605211603564
 24
5728.562273750783
 34
0.0
 50
90.0
100
AcDbRotatedDimension
1001
ACAD
1000
DSTYLE
1002
{
1070
    40
1040
35.0
1070
   143
1040
0.039
1070
   172
1070
     1
1070
   271
1070
     4
1070
   272
1070
     4
1070
   279
1070
     0
1070
   284
1070
     0
1070
   285
1070
     0
1070
   286
1070
     0
1070
   341
1005
83CD
1070
   343
1005
83CD
1070
   344
1005
83CD
1002
}
  0
DIMENSION
  5
84CC
330
83BA
100
AcDbEntity
  8
3
100
AcDbDimension
  2
*D36
 10
3318.605211603564
 20
5437.317081656836
 30
0.0
 11
2188.605211603564
 21
5524.817081656836
 31
0.0
 70
    32
 71
     5
 42
2260.0
  3
IGA
100
AcDbAlignedDimension
 13
1058.605211603564
 23
5728.562273750783
 33
0.0
 14
3318.605211603564
 24
5728.562273750783
 34
0.0
100
AcDbRotatedDimension
1001
ACAD
1000
DSTYLE
1002
{
1070
    40
1040
35.0
1070
   143
1040
0.039
1070
   172
1070
     1
1070
   271
1070
     4
1070
   272
1070
     4
1070
   279
1070
     0
1070
   284
1070
     0
1070
   285
1070
     0
1070
   286
1070
     0
1070
   341
1005
83CD
1070
   343
1005
83CD
1070
   344
1005
83CD
1002
}
  0
DIMENSION
  5
84D9
330
83BA
100
AcDbEntity
  8
3
100
AcDbDimension
  2
*D37
 10
1998.605211603564
 20
7802.569634221902
 30
0.0
 11
1528.605211603564
 21
7890.069634221902
 31
0.0
 70
    32
 71
     5
 42
940.0000000000002
  3
IGA
100
AcDbAlignedDimension
 13
1058.605211603564
 23
6628.562273750784
 33
0.0
 14
1998.605211603564
 24
7628.562273750784
 34
0.0
100
AcDbRotatedDimension
1001
ACAD
1000
DSTYLE
1002
{
1070
    40
1040
35.0
1070
   143
1040
0.039
1070
   172
1070
     1
1070
   271
1070
     4
1070
   272
1070
     4
1070
   279
1070
     0
1070
   284
1070
     0
1070
   285
1070
     0
1070
   286
1070
     0
1070
   341
1005
83CD
1070
   343
1005
83CD
1070
   344
1005
83CD
1002
}
  0
DIMENSION
  5
84E6
330
83BA
100
AcDbEntity
  8
3
100
AcDbDimension
  2
*D38
 10
3318.605211603564
 20
7802.569634221902
 30
0.0
 11
2658.605211603564
 21
7890.069634221902
 31
0.0
 70
    32
 71
     5
 42
1320.0
  3
IGA
100
AcDbAlignedDimension
 13
1998.605211603564
 23
7628.562273750784
 33
0.0
 14
3318.605211603564
 24
7628.562273750786
 34
0.0
100
AcDbRotatedDimension
1001
ACAD
1000
DSTYLE
1002
{
1070
    40
1040
35.0
1070
   143
1040
0.039
1070
   172
1070
     1
1070
   271
1070
     4
1070
   272
1070
     4
1070
   279
1070
     1
1070
   284
1070
     0
1070
   285
1070
     0
1070
   286
1070
     0
1070
   341
1005
83CD
1070
   343
1005
83CD
1070
   344
1005
83CD
1002
}
  0
DIMENSION
  5
84F3
330
83BA
100
AcDbEntity
  8
3
100
AcDbDimension
  2
*D39
 10
3717.377466574617
 20
5728.562273750783
 30
0.0
 11
3629.877466574616
 21
6678.562273750784
 31
0.0
 70
    32
 71
     5
 42
1900.000000000001
  3
IGA
100
AcDbAlignedDimension
 13
3318.605211603564
 23
7628.562273750784
 33
0.0
 14
3318.605211603564
 24
5728.562273750783
 34
0.0
 50
90.0
100
AcDbRotatedDimension
1001
ACAD
1000
DSTYLE
1002
{
1070
    40
1040
35.0
1070
   143
1040
0.039
1070
   172
1070
     1
1070
   271
1070
     4
1070
   272
1070
     4
1070
   279
1070
     0
1070
   284
1070
     0
1070
   285
1070
     0
1070
   286
1070
     0
1070
   341
1005
83CD
1070
   343
1005
83CD
1070
   344
1005
83CD
1002
}
  0
DIMENSION
  5
8500
330
83BA
100
AcDbEntity
  8
3
100
AcDbDimension
  2
*D40
 10
2658.605211603564
 20
4806.000164564144
 30
0.0
 11
3038.605211603564
 21
4893.500164564144
 31
0.0
 70
    32
 71
     5
 42
760.0
  3
IGA
100
AcDbAlignedDimension
 13
3418.605211603564
 23
3780.572834317823
 33
0.0
 14
2658.605211603564
 24
4641.641027998224
 34
0.0
100
AcDbRotatedDimension
1001
ACAD
1000
DSTYLE
1002
{
1070
    40
1040
35.0
1070
   143
1040
0.039
1070
   172
1070
     1
1070
   271
1070
     4
1070
   272
1070
     4
1070
   279
1070
     0
1070
   284
1070
     0
1070
   285
1070
     0
1070
   286
1070
     0
1070
   341
1005
83CD
1070
   343
1005
83CD
1070
   344
1005
83CD
1002
}
  0
DIMENSION
  5
850D
330
83BA
100
AcDbEntity
  8
3
100
AcDbDimension
  2
*D41
 10
1689.605211603564
 20
4806.000164564144
 30
0.0
 11
2174.105211603564
 21
4893.500164564144
 31
0.0
 70
    32
 71
     5
 42
969.0
  3
IGA
100
AcDbAlignedDimension
 13
2658.605211603564
 23
4641.641027998224
 33
0.0
 14
1689.605211603564
 24
3693.572834317823
 34
0.0
100
AcDbRotatedDimension
1001
ACAD
1000
DSTYLE
1002
{
1070
    40
1040
35.0
1070
   143
1040
0.039
1070
   172
1070
     1
1070
   271
1070
     4
1070
   272
1070
     4
1070
   279
1070
     1
1070
   284
1070
     0
1070
   285
1070
     0
1070
   286
1070
     0
1070
   341
1005
83CD
1070
   343
1005
83CD
1070
   344
1005
83CD
1002
}
  0
DIMENSION
  5
851A
330
83BA
100
AcDbEntity
  8
3
100
AcDbDimension
  2
*D42
 10
1058.605211603565
 20
5033.580333506538
 30
0.0
 11
2238.605211603565
 21
5121.080333506538
 31
0.0
 70
    32
 71
     5
 42
2359.999999999999
  3
IGA
100
AcDbAlignedDimension
 13
3418.605211603564
 23
3780.572834317823
 33
0.0
 14
1058.605211603565
 24
2545.572834317823
 34
0.0
100
AcDbRotatedDimension
1001
ACAD
1000
DSTYLE
1002
{
1070
    40
1040
35.0
1070
   143
1040
0.039
1070
   172
1070
     1
1070
   271
1070
     4
1070
   272
1070
     4
1070
   279
1070
     0
1070
   284
1070
     0
1070
   285
1070
     0
1070
   286
1070
     0
1070
   341
1005
83CD
1070
   343
1005
83CD
1070
   344
1005
83CD
1002
}
  0
DIMENSION
  5
8527
330
83BA
100
AcDbEntity
  8
3
100
AcDbDimension
  2
*D43
 10
3618.713527887829
 20
2577.572834317823
 30
0.0
 11
3531.21352788783
 21
3152.572834317825
 31
0.0
 70
    32
 71
     5
 42
1150.000000000001
  3
IGA
100
AcDbAlignedDimension
 13
3418.605211603564
 23
3727.572834317824
 33
0.0
 14
3418.605211603564
 24
2577.572834317823
 34
0.0
 50
90.0
100
AcDbRotatedDimension
1001
ACAD
1000
DSTYLE
1002
{
1070
    40
1040
35.0
1070
   143
1040
0.039
1070
   172
1070
     1
1070
   271
1070
     4
1070
   272
1070
     4
1070
   279
1070
     0
1070
   284
1070
     0
1070
   285
1070
     0
1070
   286
1070
     0
1070
   341
1005
83CD
1070
   343
1005
83CD
1070
   344
1005
83CD
1002
}
  0
DIMENSION
  5
8534
330
83BA
100
AcDbEntity
  8
3
100
AcDbDimension
  2
*D44
 10
3818.865178749332
 20
3775.572834317824
 30
0.0
 11
3731.365178749332
 21
3176.572834317824
 31
0.0
 70
    32
 71
     5
 42
1198.0
  3
IGA
100
AcDbAlignedDimension
 13
3418.605211603564
 23
2577.572834317823
 33
0.0
 14
3565.38586305654
 24
3775.572834317824
 34
0.0
 50
90.0
100
AcDbRotatedDimension
1001
ACAD
1000
DSTYLE
1002
{
1070
    40
1040
35.0
1070
   143
1040
0.039
1070
   172
1070
     1
1070
   271
1070
     4
1070
   272
1070
     4
1070
   279
1070
     0
1070
   284
1070
     0
1070
   285
1070
     0
1070
   286
1070
     0
1070
   341
1005
83CD
1070
   343
1005
83CD
1070
   344
1005
83CD
1002
}
  0
DIMENSION
  5
8541
330
83BA
100
AcDbEntity
  8
3
100
AcDbDimension
  2
*D45
 10
4022.81512547514
 20
3775.572834317824
 30
0.0
 11
3935.31512547514
 21
4178.072834317824
 31
0.0
 70
    32
 71
     5
 42
805.0000000000004
  3
IGA
100
AcDbAlignedDimension
 13
2576.605211603564
 23
4580.572834317823
 33
0.0
 14
3565.38586305654
 24
3775.572834317824
 34
0.0
 50
90.0
100
AcDbRotatedDimension
1001
ACAD
1000
DSTYLE
1002
{
1070
    40
1040
35.0
1070
   143
1040
0.039
1070
   172
1070
     1
1070
   271
1070
     4
1070
   272
1070
     4
1070
   279
1070
     0
1070
   284
1070
     0
1070
   285
1070
     0
1070
   286
1070
     0
1070
   341
1005
83CD
1070
   343
1005
83CD
1070
   344
1005
83CD
1002
}
  0
DIMENSION
  5
854E
330
83BA
100
AcDbEntity
  8
3
100
AcDbDimension
  2
*D46
 10
4022.81512547514
 20
2420.572834317823
 30
0.0
 11
3935.315125475139
 21
3098.072834317824
 31
0.0
 70
    32
 71
     5
 42
1355.0
  3
IGA
100
AcDbAlignedDimension
 13
3565.38586305654
 23
3775.572834317824
 33
0.0
 14
3318.605211603564
 24
2420.572834317823
 34
0.0
 50
90.0
100
AcDbRotatedDimension
1001
ACAD
1000
DSTYLE
1002
{
1070
    40
1040
35.0
1070
   143
1040
0.039
1070
   172
1070
     1
1070
   271
1070
     4
1070
   272
1070
     4
1070
   279
1070
     1
1070
   284
1070
     0
1070
   285
1070
     0
1070
   286
1070
     0
1070
   341
1005
83CD
1070
   343
1005
83CD
1070
   344
1005
83CD
1002
}
  0
DIMENSION
  5
855B
330
83BA
100
AcDbEntity
  8
3
100
AcDbDimension
  2
*D47
 10
4022.81512547514
 20
2400.572834317823
 30
0.0
 11
4235.315125475139
 21
2543.822834317824
 31
0.0
 70
    32
  1
(<>)
 71
     5
 42
20.0
  3
IGA
100
AcDbAlignedDimension
 13
3318.605211603564
 23
2420.572834317823
 33
0.0
 14
3318.605211603564
 24
2400.572834317823
 34
0.0
 50
90.0
100
AcDbRotatedDimension
1001
ACAD
1000
DSTYLE
1002
{
1070
    40
1040
35.0
1070
   143
1040
0.039
1070
   172
1070
     1
1070
   271
1070
     4
1070
   272
1070
     4
1070
   279
1070
     1
1070
   284
1070
     0
1070
   285
1070
     0
1070
   286
1070
     0
1070
   341
1005
83CD
1070
   343
1005
83CD
1070
   344
1005
862F
1002
}
  0
DIMENSION
  5
856D
330
83BA
100
AcDbEntity
  8
3
100
AcDbDimension
  2
*D48
 10
4022.81512547514
 20
2335.572834317823
 30
0.0
 11
4022.81512547514
 21
2195.572834317823
 31
0.0
 70
   160
 71
     5
 42
65.0
  3
IGA
100
AcDbAlignedDimension
 13
3318.605211603564
 23
2400.572834317823
 33
0.0
 14
3318.605211603564
 24
2335.572834317823
 34
0.0
 50
90.0
100
AcDbRotatedDimension
1001
ACAD
1000
DSTYLE
1002
{
1070
    40
1040
35.0
1070
   143
1040
0.039
1070
   172
1070
     1
1070
   271
1070
     4
1070
   272
1070
     4
1070
   279
1070
     1
1070
   284
1070
     0
1070
   285
1070
     0
1070
   286
1070
     0
1070
   341
1005
83CD
1070
   343
1005
862F
1070
   344
1005
83CD
1002
}
  0
DIMENSION
  5
857F
330
83BA
100
AcDbEntity
  8
3
100
AcDbDimension
  2
*D49
 10
4405.287437983221
 20
4580.572834317823
 30
0.0
 11
4290.28743798322
 21
3458.072834317824
 31
0.0
 70
    32
  1
(<>)
 71
     5
 42
2245.0
  3
IGA
100
AcDbAlignedDimension
 13
3318.605211603564
 23
2335.572834317823
 33
0.0
 14
2576.605211603564
 24
4580.572834317823
 34
0.0
 50
90.0
100
AcDbRotatedDimension
1001
ACAD
1000
DSTYLE
1002
{
1070
    40
1040
35.0
1070
   143
1040
0.039
1070
   172
1070
     1
1070
   271
1070
     4
1070
   272
1070
     4
1070
   279
1070
     0
1070
   284
1070
     0
1070
   285
1070
     0
1070
   286
1070
     0
1070
   341
1005
83CD
1070
   343
1005
83CD
1070
   344
1005
83CD
1002
}
  0
ENDSEC
  0
SECTION
  2
OBJECTS
  0
DICTIONARY
  5
8357
330
0
100
AcDbDictionary
281
     1
  3
ACAD_CIP_PREVIOUS_PRODUCT_INFO
350
8403
  3
ACAD_COLOR
350
83AD
  3
ACAD_DETAILVIEWSTYLE
350
83B4
  3
ACAD_GROUP
350
8358
  3
ACAD_LAYOUT
350
83AC
  3
ACAD_MATERIAL
350
835B
  3
ACAD_MLEADERSTYLE
350
83B0
  3
ACAD_MLINESTYLE
350
83A9
  3
ACAD_PLOTSETTINGS
350
83AB
  3
ACAD_PLOTSTYLENAME
350
8359
  3
ACAD_SCALELIST
350
838D
  3
ACAD_SECTIONVIEWSTYLE
350
83B2
  3
ACAD_TABLESTYLE
350
83AE
  3
ACAD_VISUALSTYLE
350
8374
  3
ACDB_RECOMPOSE_DATA
350
86FB
  3
AcDbVariableDictionary
350
86A4
  3
DWGPROPS
350
86FC
  0
DICTIONARY
  5
869A
330
839F
100
AcDbDictionary
280
     1
281
     1
  3
ADSK_XREC_LAYER_RECONCILED
360
869B
  0
DICTIONARY
  5
869C
330
83BE
100
AcDbDictionary
280
     1
281
     1
  3
ADSK_XREC_LAYER_RECONCILED
360
869D
  0
DICTIONARY
  5
869E
330
83C1
100
AcDbDictionary
280
     1
281
     1
  3
ADSK_XREC_LAYER_RECONCILED
360
869F
  0
DICTIONARY
  5
86A0
330
83C2
100
AcDbDictionary
280
     1
281
     1
  3
ADSK_XREC_LAYER_RECONCILED
360
86A1
  0
DICTIONARY
  5
86A2
330
83C3
100
AcDbDictionary
280
     1
281
     1
  3
ADSK_XREC_LAYER_RECONCILED
360
86A3
  0
DICTIONARY
  5
8405
330
83BA
100
AcDbDictionary
280
     1
281
     1
  3
ACAD_SORTENTS
360
8406
  0
XRECORD
  5
8403
102
{ACAD_REACTORS
330
8357
102
}
330
8357
100
AcDbXrecord
280
     1
300
ACDLT
300
2015
300
INVLTS_F_S
  0
DICTIONARY
  5
83AD
102
{ACAD_REACTORS
330
8357
102
}
330
8357
100
AcDbDictionary
281
     1
  0
DICTIONARY
  5
83B4
102
{ACAD_REACTORS
330
8357
102
}
330
8357
100
AcDbDictionary
281
     1
  3
Imperial24
350
83B5
  0
DICTIONARY
  5
8358
102
{ACAD_REACTORS
330
8357
102
}
330
8357
100
AcDbDictionary
281
     1
  0
DICTIONARY
  5
83AC
102
{ACAD_REACTORS
330
8357
102
}
330
8357
100
AcDbDictionary
281
     1
  3
Model
350
83BD
  3
レイアウト1
350
83B9
  0
DICTIONARY
  5
835B
102
{ACAD_REACTORS
330
8357
102
}
330
8357
100
AcDbDictionary
281
     1
  3
ByBlock
350
8364
  3
ByLayer
350
835C
  3
Global
350
836C
  0
DICTIONARY
  5
83B0
102
{ACAD_REACTORS
330
8357
102
}
330
8357
100
AcDbDictionary
281
     1
  3
Standard
350
83B1
  0
DICTIONARY
  5
83A9
102
{ACAD_REACTORS
330
8357
102
}
330
8357
100
AcDbDictionary
281
     1
  3
Standard
350
83AA
  0
DICTIONARY
  5
83AB
102
{ACAD_REACTORS
330
8357
102
}
330
8357
100
AcDbDictionary
281
     1
  0
ACDBDICTIONARYWDFLT
  5
8359
102
{ACAD_REACTORS
330
8357
102
}
330
8357
100
AcDbDictionary
281
     1
  3
Normal
350
835A
100
AcDbDictionaryWithDefault
340
835A
  0
DICTIONARY
  5
838D
102
{ACAD_REACTORS
330
8357
102
}
330
8357
100
AcDbDictionary
281
     1
  3
A0
350
838E
  3
A1
350
838F
  3
A2
350
8390
  3
A3
350
8391
  3
A4
350
8392
  3
A5
350
8393
  3
A6
350
8394
  3
A7
350
8395
  3
A8
350
8396
  3
A9
350
8397
  3
B0
350
8398
  3
B1
350
8399
  3
B2
350
839A
  3
B3
350
839B
  3
B4
350
839C
  3
B5
350
839D
  3
B6
350
839E
  0
DICTIONARY
  5
83B2
102
{ACAD_REACTORS
330
8357
102
}
330
8357
100
AcDbDictionary
281
     1
  3
Imperial24
350
83B3
  0
DICTIONARY
  5
83AE
102
{ACAD_REACTORS
330
8357
102
}
330
8357
100
AcDbDictionary
281
     1
  3
Standard
350
83AF
  0
DICTIONARY
  5
8374
102
{ACAD_REACTORS
330
8357
102
}
330
8357
100
AcDbDictionary
281
     1
  3
2dWireframe
350
837A
  3
Basic
350
8379
  3
Brighten
350
8380
  3
ColorChange
350
8384
  3
Conceptual
350
837D
  3
Dim
350
837F
  3
EdgeColorOff
350
838C
  3
Facepattern
350
8383
  3
Flat
350
8375
  3
FlatWithEdges
350
8376
  3
Gouraud
350
8377
  3
GouraudWithEdges
350
8378
  3
Hidden
350
837C
  3
JitterOff
350
838A
  3
Linepattern
350
8382
  3
OverhangOff
350
838B
  3
Realistic
350
837E
  3
Shaded
350
8389
  3
Shaded with edges
350
8388
  3
Shades of Gray
350
8385
  3
Sketchy
350
8386
  3
Thicken
350
8381
  3
Wireframe
350
837B
  3
X-Ray
350
8387
  0
XRECORD
  5
86FB
102
{ACAD_REACTORS
330
8357
102
}
330
8357
100
AcDbXrecord
280
     1
 90
        1
330
83AF
  0
DICTIONARY
  5
86A4
102
{ACAD_REACTORS
330
8357
102
}
330
8357
100
AcDbDictionary
281
     1
  3
CANNOSCALE
350
86A9
  3
CMLEADERSTYLE
350
86A6
  3
CTABLESTYLE
350
86A5
  3
CVIEWDETAILSTYLE
350
86A7
  3
CVIEWSECTIONSTYLE
350
86A8
  3
DIMASSOC
350
86AC
  3
INDEXCTL
350
86AB
  3
SORTENTS
350
86AA
  3
XCLIPFRAME
350
86AD
  0
XRECORD
  5
86FC
102
{ACAD_REACTORS
330
8357
102
}
330
8357
100
AcDbXrecord
280
     1
  1
DWGPROPS COOKIE
  2

  3

  4

  6

  7

  8
yasukiyo.ogawa
  9

300
=
301
=
302
=
303
=
304
=
305
=
306
=
307
=
308
=
309
=
 40
0.0779746064814815
 41
2451390.436124884
 42
2460273.627855428
  1

 90
        0
  0
XRECORD
  5
869B
102
{ACAD_REACTORS
330
869A
102
}
330
869A
100
AcDbXrecord
280
     1
290
     1
  0
XRECORD
  5
869D
102
{ACAD_REACTORS
330
869C
102
}
330
869C
100
AcDbXrecord
280
     1
290
     1
  0
XRECORD
  5
869F
102
{ACAD_REACTORS
330
869E
102
}
330
869E
100
AcDbXrecord
280
     1
290
     1
  0
XRECORD
  5
86A1
102
{ACAD_REACTORS
330
86A0
102
}
330
86A0
100
AcDbXrecord
280
     1
290
     1
  0
XRECORD
  5
86A3
102
{ACAD_REACTORS
330
86A2
102
}
330
86A2
100
AcDbXrecord
280
     1
290
     1
  0
SORTENTSTABLE
  5
8406
102
{ACAD_REACTORS
330
8405
102
}
330
8405
100
AcDbSortentsTable
330
83BA
331
7CA2
  5
7CA6
331
7CB3
  5
7CB5
331
7CC4
  5
7CC6
331
7C3B
  5
7C3D
331
7CD5
  5
7CD7
331
7F49
  5
7F4B
331
7C7F
  5
7C81
331
7C2A
  5
7C2A
331
7C92
  5
7C94
331
7CD6
  5
7CD8
331
7CC5
  5
7CC7
331
7C3C
  5
7C3E
331
7F4A
  5
7F4C
331
7C80
  5
7C82
331
7C6F
  5
7C71
331
7C2B
  5
7C2B
331
7C93
  5
7C95
331
7CC6
  5
7CC8
331
7C3D
  5
7C3F
331
7CD7
  5
7CD9
331
7C4E
  5
7C50
331
7F4B
  5
7F4D
331
7C81
  5
7C83
331
7C70
  5
7C72
331
7C5F
  5
7C61
331
7C2C
  5
7C2C
331
7CA5
  5
7CA7
331
7C94
  5
7C97
331
7CC7
  5
7CC9
331
7C3E
  5
7C40
331
7CD8
  5
7CDA
331
7C4F
  5
7C51
331
7F4C
  5
7F4E
331
7C82
  5
7C84
331
7C71
  5
7C73
331
7C60
  5
7C62
331
7C2D
  5
7C2D
331
7CA6
  5
7CA8
331
7C95
  5
7C98
331
7CC8
  5
7CCA
331
7C3F
  5
7C42
331
7CD9
  5
7CDB
331
7C50
  5
7C52
331
7F4D
  5
7F4F
331
7C83
  5
7C85
331
7C72
  5
7C75
331
7C61
  5
7C63
331
7C2E
  5
7C2E
331
7CA7
  5
7CA9
331
7CC9
  5
7CCB
331
7C40
  5
7C43
331
7CDA
  5
7CDC
331
7C51
  5
7C56
331
7CEB
  5
7CED
331
7F4E
  5
7F50
331
7C84
  5
7C86
331
7C73
  5
7C78
331
7C62
  5
7C64
331
7C2F
  5
7C2F
331
817D
  5
8199
331
7C97
  5
7C99
331
7CA8
  5
7CAA
331
7CCA
  5
7CCC
331
7CDB
  5
7CDD
331
7C52
  5
7C57
331
7F35
  5
7F37
331
7CEC
  5
7CEE
331
7C63
  5
7C65
331
7F4F
  5
7F51
331
7C85
  5
7C87
331
7C30
  5
7C30
331
7C1F
  5
7C1F
331
7F50
  5
7F52
331
7CA9
  5
7CAB
331
7C98
  5
7C9A
331
7CDC
  5
7CE4
331
7CCB
  5
7CCD
331
7C42
  5
7C44
331
7CED
  5
7CEF
331
7C64
  5
7C66
331
7F36
  5
7F3A
331
7C75
  5
7C79
331
7C86
  5
7C88
331
7C31
  5
7C31
331
7F51
  5
7F53
331
7C99
  5
7C9B
331
7CAA
  5
7CAC
331
7CDD
  5
7CE5
331
7CCC
  5
7CCE
331
7C43
  5
7C45
331
7F37
  5
7F3B
331
7CEE
  5
7CF0
331
7C65
  5
7C67
331
7C87
  5
7C89
331
7C32
  5
7C32
331
7C21
  5
7C21
331
7F52
  5
8156
331
7F41
  5
7F43
331
7C88
  5
7C8A
331
7C9A
  5
7C9D
331
7CAB
  5
7CAD
331
7CBC
  5
7CBE
331
7CCD
  5
7CCF
331
7C44
  5
7C46
331
7CEF
  5
7CF1
331
7C66
  5
7C68
331
7C33
  5
7C33
331
7C22
  5
7C22
331
7CF0
  5
7CF2
331
8170
  5
818C
331
8156
  5
8170
331
7F53
  5
8163
331
7F42
  5
7F44
331
7C89
  5
7C8B
331
7C78
  5
7C7A
331
7C9B
  5
7C9F
331
7CBD
  5
7CBF
331
7CCE
  5
7CD0
331
7C45
  5
7C47
331
7C67
  5
7C6A
331
7C56
  5
7C58
331
7C34
  5
7C34
331
7C23
  5
7C23
331
7CF1
  5
7CF3
331
7C68
  5
7C6B
331
7F3A
  5
7F3C
331
7C79
  5
7C7B
331
7F43
  5
7F45
331
7C8A
  5
7C8C
331
7CAD
  5
7CAF
331
7CBE
  5
7CC0
331
7CCF
  5
7CD1
331
7C46
  5
7C48
331
7C57
  5
7C59
331
7C35
  5
7C35
331
7C24
  5
7C24
331
7CD0
  5
7CD2
331
7CF2
  5
7F35
331
7C58
  5
7C5A
331
7F3B
  5
7F3D
331
7C7A
  5
7C7C
331
7F44
  5
7F46
331
7C9D
  5
7CA0
331
7C8B
  5
7C8D
331
7CAE
  5
7CB0
331
7CBF
  5
7CC1
331
7C47
  5
7C49
331
7C36
  5
7C36
331
7C25
  5
7C25
331
7CC0
  5
7CC2
331
7CD1
  5
7CD3
331
7C48
  5
7C4B
331
7CF3
  5
7F36
331
7C6A
  5
7C6C
331
7C59
  5
7C5B
331
7F3C
  5
7F3E
331
7F45
  5
7F47
331
7C8C
  5
7C8E
331
7C7B
  5
7C7D
331
7CAF
  5
7CB1
331
7C37
  5
7C39
331
7C26
  5
7C26
331
7CB0
  5
7CB2
331
7CC1
  5
7CC3
331
7C38
  5
7C3A
331
7CD2
  5
7CD4
331
7C49
  5
7C4C
331
7F3D
  5
7F3F
331
7C7C
  5
7C7E
331
7C6B
  5
7C6F
331
8163
  5
817D
331
7F46
  5
7F48
331
7C8D
  5
7C90
331
7C9F
  5
7CA1
331
7C5A
  5
7C5F
331
7C27
  5
7C27
331
7CA0
  5
7CA2
331
7CB1
  5
7CB3
331
7CD3
  5
7CD5
331
7CC2
  5
7CC4
331
7C39
  5
7C3B
331
7C5B
  5
7C60
331
7F3E
  5
7F41
331
7C7D
  5
7C7F
331
7F47
  5
7F49
331
7C6C
  5
7C70
331
7C28
  5
7C28
331
7CA1
  5
7CA5
331
7CB2
  5
7CB4
331
7CC3
  5
7CC5
331
7C3A
  5
7C3C
331
7CD4
  5
7CD6
331
7F48
  5
7F4A
331
7F3F
  5
7F42
331
7C7E
  5
7C80
331
7C29
  5
7C29
  0
ACDBDETAILVIEWSTYLE
  5
83B5
102
{ACAD_XDICTIONARY
360
8734
102
}
102
{ACAD_REACTORS
330
83B4
102
}
330
83B4
100
AcDbModelDocViewStyle
 70
     0
  3
Imperial24
290
     0
100
AcDbDetailViewStyle
 70
     0
 71
     0
 90
        3
 71
     1
340
83A0
 40
0.24
340
0
 40
0.24
300

 40
0.36
280
     3
 71
     2
340
83A7
 90
       25
 71
     3
340
83A0
 40
0.24
 90
        1
 40
0.75
 90
        1
300
%<\AcVar ViewType \f "%tc1">% %<\AcVar ViewDetailId>%\PSCALE %<\AcVar ViewScale \f "%sn">%
 71
     4
340
83A7
 90
       25
340
83A7
 90
       25
280
     0
  0
LAYOUT
  5
83BD
102
{ACAD_XDICTIONARY
360
8738
102
}
102
{ACAD_REACTORS
330
83AC
102
}
330
83AC
100
AcDbPlotSettings
  1

  2
RICOH imagio MP W3600 RPCS
  4

  6

 40
0.0
 41
0.0
 42
0.0
 43
0.0
 44
0.0
 45
0.0
 46
0.0
 47
0.0
 48
0.0
 49
0.0
140
0.0
141
0.0
142
1.0
143
1.0
 70
  1712
 72
     0
 73
     0
 74
     0
  7

 75
     0
147
1.0
148
0.0
149
0.0
100
AcDbLayout
  1
Model
 70
     1
 71
     0
 10
0.0
 20
0.0
 11
12.0
 21
9.0
 12
0.0
 22
0.0
 32
0.0
 14
0.0
 24
0.0
 34
0.0
 15
0.0
 25
0.0
 35
0.0
146
0.0
 13
0.0
 23
0.0
 33
0.0
 16
1.0
 26
0.0
 36
0.0
 17
0.0
 27
1.0
 37
0.0
 76
     0
330
83BA
331
83BF
  0
LAYOUT
  5
83B9
102
{ACAD_XDICTIONARY
360
8736
102
}
102
{ACAD_REACTORS
330
83AC
102
}
330
83AC
100
AcDbPlotSettings
  1

  2
RICOH imagio MP W3600 RPCS
  4

  6

 40
0.0
 41
0.0
 42
0.0
 43
0.0
 44
0.0
 45
0.0
 46
0.0
 47
0.0
 48
0.0
 49
0.0
140
0.0
141
0.0
142
1.0
143
1.0
 70
   688
 72
     0
 73
     0
 74
     5
  7

 75
    16
147
1.0
148
0.0
149
0.0
100
AcDbLayout
  1
レイアウト1
 70
     1
 71
     1
 10
0.0
 20
0.0
 11
12.0
 21
9.0
 12
0.0
 22
0.0
 32
0.0
 14
1.000000000000000E+20
 24
1.000000000000000E+20
 34
1.000000000000000E+20
 15
-1.000000000000000E+20
 25
-1.000000000000000E+20
 35
-1.000000000000000E+20
146
0.0
 13
0.0
 23
0.0
 33
0.0
 16
1.0
 26
0.0
 36
0.0
 17
0.0
 27
1.0
 37
0.0
 76
     0
330
83B6
  0
MATERIAL
  5
8364
102
{ACAD_XDICTIONARY
360
8365
102
}
102
{ACAD_REACTORS
330
835B
102
}
330
835B
100
AcDbMaterial
  1
ByBlock
 72
     0
 43
0.0208333333333333
 43
0.0
 43
0.0
 43
0.0
 43
0.0
 43
0.0208333333333333
 43
0.0
 43
0.0
 43
0.0
 43
0.0
 43
1.0
 43
0.0
 43
0.0
 43
0.0
 43
0.0
 43
1.0
 77
     0
 47
0.0208333333333333
 47
0.0
 47
0.0
 47
0.0
 47
0.0
 47
0.0208333333333333
 47
0.0
 47
0.0
 47
0.0
 47
0.0
 47
1.0
 47
0.0
 47
0.0
 47
0.0
 47
0.0
 47
1.0
171
     0
 49
0.0208333333333333
 49
0.0
 49
0.0
 49
0.0
 49
0.0
 49
0.0208333333333333
 49
0.0
 49
0.0
 49
0.0
 49
0.0
 49
1.0
 49
0.0
 49
0.0
 49
0.0
 49
0.0
 49
1.0
175
     0
142
0.0208333333333333
142
0.0
142
0.0
142
0.0
142
0.0
142
0.0208333333333333
142
0.0
142
0.0
142
0.0
142
0.0
142
1.0
142
0.0
142
0.0
142
0.0
142
0.0
142
1.0
179
     0
144
0.0208333333333333
144
0.0
144
0.0
144
0.0
144
0.0
144
0.0208333333333333
144
0.0
144
0.0
144
0.0
144
0.0
144
1.0
144
0.0
144
0.0
144
0.0
144
0.0
144
1.0
147
0.0208333333333333
147
0.0
147
0.0
147
0.0
147
0.0
147
0.0208333333333333
147
0.0
147
0.0
147
0.0
147
0.0
147
1.0
147
0.0
147
0.0
147
0.0
147
0.0
147
1.0
  0
MATERIAL
  5
835C
102
{ACAD_XDICTIONARY
360
835D
102
}
102
{ACAD_REACTORS
330
835B
102
}
330
835B
100
AcDbMaterial
  1
ByLayer
 72
     0
 43
0.0208333333333333
 43
0.0
 43
0.0
 43
0.0
 43
0.0
 43
0.0208333333333333
 43
0.0
 43
0.0
 43
0.0
 43
0.0
 43
1.0
 43
0.0
 43
0.0
 43
0.0
 43
0.0
 43
1.0
 77
     0
 47
0.0208333333333333
 47
0.0
 47
0.0
 47
0.0
 47
0.0
 47
0.0208333333333333
 47
0.0
 47
0.0
 47
0.0
 47
0.0
 47
1.0
 47
0.0
 47
0.0
 47
0.0
 47
0.0
 47
1.0
171
     0
 49
0.0208333333333333
 49
0.0
 49
0.0
 49
0.0
 49
0.0
 49
0.0208333333333333
 49
0.0
 49
0.0
 49
0.0
 49
0.0
 49
1.0
 49
0.0
 49
0.0
 49
0.0
 49
0.0
 49
1.0
175
     0
142
0.0208333333333333
142
0.0
142
0.0
142
0.0
142
0.0
142
0.0208333333333333
142
0.0
142
0.0
142
0.0
142
0.0
142
1.0
142
0.0
142
0.0
142
0.0
142
0.0
142
1.0
179
     0
144
0.0208333333333333
144
0.0
144
0.0
144
0.0
144
0.0
144
0.0208333333333333
144
0.0
144
0.0
144
0.0
144
0.0
144
1.0
144
0.0
144
0.0
144
0.0
144
0.0
144
1.0
147
0.0208333333333333
147
0.0
147
0.0
147
0.0
147
0.0
147
0.0208333333333333
147
0.0
147
0.0
147
0.0
147
0.0
147
1.0
147
0.0
147
0.0
147
0.0
147
0.0
147
1.0
  0
MATERIAL
  5
836C
102
{ACAD_XDICTIONARY
360
836D
102
}
102
{ACAD_REACTORS
330
835B
102
}
330
835B
100
AcDbMaterial
  1
Global
 72
     0
 43
0.0208333333333333
 43
0.0
 43
0.0
 43
0.0
 43
0.0
 43
0.0208333333333333
 43
0.0
 43
0.0
 43
0.0
 43
0.0
 43
1.0
 43
0.0
 43
0.0
 43
0.0
 43
0.0
 43
1.0
 77
     0
 47
0.0208333333333333
 47
0.0
 47
0.0
 47
0.0
 47
0.0
 47
0.0208333333333333
 47
0.0
 47
0.0
 47
0.0
 47
0.0
 47
1.0
 47
0.0
 47
0.0
 47
0.0
 47
0.0
 47
1.0
171
     0
 49
0.0208333333333333
 49
0.0
 49
0.0
 49
0.0
 49
0.0
 49
0.0208333333333333
 49
0.0
 49
0.0
 49
0.0
 49
0.0
 49
1.0
 49
0.0
 49
0.0
 49
0.0
 49
0.0
 49
1.0
175
     0
142
0.0208333333333333
142
0.0
142
0.0
142
0.0
142
0.0
142
0.0208333333333333
142
0.0
142
0.0
142
0.0
142
0.0
142
1.0
142
0.0
142
0.0
142
0.0
142
0.0
142
1.0
179
     0
144
0.0208333333333333
144
0.0
144
0.0
144
0.0
144
0.0
144
0.0208333333333333
144
0.0
144
0.0
144
0.0
144
0.0
144
1.0
144
0.0
144
0.0
144
0.0
144
0.0
144
1.0
147
0.0208333333333333
147
0.0
147
0.0
147
0.0
147
0.0
147
0.0208333333333333
147
0.0
147
0.0
147
0.0
147
0.0
147
1.0
147
0.0
147
0.0
147
0.0
147
0.0
147
1.0
  0
MLEADERSTYLE
  5
83B1
102
{ACAD_REACTORS
330
83B0
102
}
330
83B0
100
AcDbMLeaderStyle
170
     2
171
     1
172
     0
 90
        2
 40
0.0
 41
0.0
173
     1
 91
-1056964608
340
83A5
 92
       -2
290
     1
 42
0.09
291
     1
 43
0.36
  3
Standard
 44
0.18
300

342
83A0
174
     1
178
     6
175
     1
176
     0
 93
-1056964608
 45
0.18
292
     0
297
     0
 46
0.18
 94
-1056964608
 47
1.0
 49
1.0
140
1.0
293
     1
141
0.0
294
     1
177
     0
142
1.0
295
     0
296
     0
143
0.125
1001
ACAD_MLEADERVER
1070
     2
  0
MLINESTYLE
  5
83AA
102
{ACAD_REACTORS
330
83A9
102
}
330
83A9
100
AcDbMlineStyle
  2
STANDARD
 70
     0
  3

 62
   256
 51
90.0
 52
90.0
 71
     2
 49
0.5
 62
   256
  6
BYLAYER
 49
-0.5
 62
   256
  6
BYLAYER
  0
ACDBPLACEHOLDER
  5
835A
102
{ACAD_REACTORS
330
8359
102
}
330
8359
  0
SCALE
  5
838E
102
{ACAD_REACTORS
330
838D
102
}
330
838D
100
AcDbScale
 70
     0
300
1:1
140
1.0
141
1.0
290
     1
  0
SCALE
  5
838F
102
{ACAD_REACTORS
330
838D
102
}
330
838D
100
AcDbScale
 70
     0
300
1/128" = 1'-0"
140
0.0078125
141
12.0
290
     0
  0
SCALE
  5
8390
102
{ACAD_REACTORS
330
838D
102
}
330
838D
100
AcDbScale
 70
     0
300
1/64" = 1'-0"
140
0.015625
141
12.0
290
     0
  0
SCALE
  5
8391
102
{ACAD_REACTORS
330
838D
102
}
330
838D
100
AcDbScale
 70
     0
300
1/32" = 1'-0"
140
0.03125
141
12.0
290
     0
  0
SCALE
  5
8392
102
{ACAD_REACTORS
330
838D
102
}
330
838D
100
AcDbScale
 70
     0
300
1/16" = 1'-0"
140
0.0625
141
12.0
290
     0
  0
SCALE
  5
8393
102
{ACAD_REACTORS
330
838D
102
}
330
838D
100
AcDbScale
 70
     0
300
3/32" = 1'-0"
140
0.09375
141
12.0
290
     0
  0
SCALE
  5
8394
102
{ACAD_REACTORS
330
838D
102
}
330
838D
100
AcDbScale
 70
     0
300
1/8" = 1'-0"
140
0.125
141
12.0
290
     0
  0
SCALE
  5
8395
102
{ACAD_REACTORS
330
838D
102
}
330
838D
100
AcDbScale
 70
     0
300
3/16" = 1'-0"
140
0.1875
141
12.0
290
     0
  0
SCALE
  5
8396
102
{ACAD_REACTORS
330
838D
102
}
330
838D
100
AcDbScale
 70
     0
300
1/4" = 1'-0"
140
0.25
141
12.0
290
     0
  0
SCALE
  5
8397
102
{ACAD_REACTORS
330
838D
102
}
330
838D
100
AcDbScale
 70
     0
300
3/8" = 1'-0"
140
0.375
141
12.0
290
     0
  0
SCALE
  5
8398
102
{ACAD_REACTORS
330
838D
102
}
330
838D
100
AcDbScale
 70
     0
300
1/2" = 1'-0"
140
0.5
141
12.0
290
     0
  0
SCALE
  5
8399
102
{ACAD_REACTORS
330
838D
102
}
330
838D
100
AcDbScale
 70
     0
300
3/4" = 1'-0"
140
0.75
141
12.0
290
     0
  0
SCALE
  5
839A
102
{ACAD_REACTORS
330
838D
102
}
330
838D
100
AcDbScale
 70
     0
300
1" = 1'-0"
140
1.0
141
12.0
290
     0
  0
SCALE
  5
839B
102
{ACAD_REACTORS
330
838D
102
}
330
838D
100
AcDbScale
 70
     0
300
1-1/2" = 1'-0"
140
1.5
141
12.0
290
     0
  0
SCALE
  5
839C
102
{ACAD_REACTORS
330
838D
102
}
330
838D
100
AcDbScale
 70
     0
300
3" = 1'-0"
140
3.0
141
12.0
290
     0
  0
SCALE
  5
839D
102
{ACAD_REACTORS
330
838D
102
}
330
838D
100
AcDbScale
 70
     0
300
6" = 1'-0"
140
6.0
141
12.0
290
     0
  0
SCALE
  5
839E
102
{ACAD_REACTORS
330
838D
102
}
330
838D
100
AcDbScale
 70
     0
300
1'-0" = 1'-0"
140
12.0
141
12.0
290
     0
  0
ACDBSECTIONVIEWSTYLE
  5
83B3
102
{ACAD_XDICTIONARY
360
8732
102
}
102
{ACAD_REACTORS
330
83B2
102
}
330
83B2
100
AcDbModelDocViewStyle
 70
     0
  3
Imperial24
290
     0
100
AcDbSectionViewStyle
 70
     0
 71
     0
 90
       78
 71
     1
340
83A0
 40
0.24
340
0
340
0
 40
0.24
300
I, O, Q, S, X, Z
 40
0.48
 90
        3
 40
0.18
 90
        1
 71
     2
340
83A7
 90
       25
340
83A7
 90
       50
 40
0.24
 40
0.0
 40
0.24
 71
     3
340
83A0
 40
0.24
 90
        1
 40
0.75
 90
        1
300
%<\AcVar ViewType \f "%tc1">% %<\AcVar ViewSectionStartId>%-%<\AcVar ViewSectionEndId>%\PSCALE %<\AcVar ViewScale \f "%sn">%
 71
     4
300
ANSI31
 40
1.0
 90
        0
290
     0
290
     0
 90
        6
 40
0.0
 40
1.570796326794896
 40
0.2617993877991494
 40
1.308996938995747
 40
-0.2617993877991494
 40
1.832595714594046
  0
TABLESTYLE
  5
83AF
102
{ACAD_XDICTIONARY
360
86F9
102
}
102
{ACAD_REACTORS
330
83AE
102
}
330
83AE
100
AcDbTableStyle
  3
Standard
 70
     0
 71
     0
 40
0.06
 41
0.06
280
     0
281
     0
  7
STANDARD
140
0.18
170
     2
 62
     0
 63
     7
283
     0
274
    -2
284
     1
 64
     0
275
    -2
285
     1
 65
     0
276
    -2
286
     1
 66
     0
277
    -2
287
     1
 67
     0
278
    -2
288
     1
 68
     0
279
    -2
289
     1
 69
     0
  7
STANDARD
140
0.25
170
     5
 62
     0
 63
     7
283
     0
274
    -2
284
     1
 64
     0
275
    -2
285
     1
 65
     0
276
    -2
286
     1
 66
     0
277
    -2
287
     1
 67
     0
278
    -2
288
     1
 68
     0
279
    -2
289
     1
 69
     0
  7
STANDARD
140
0.18
170
     5
 62
     0
 63
     7
283
     0
274
    -2
284
     1
 64
     0
275
    -2
285
     1
 65
     0
276
    -2
286
     1
 66
     0
277
    -2
287
     1
 67
     0
278
    -2
288
     1
 68
     0
279
    -2
289
     1
 69
     0
  0
VISUALSTYLE
  5
837A
102
{ACAD_XDICTIONARY
360
870A
102
}
102
{ACAD_REACTORS
330
8374
102
}
330
8374
100
AcDbVisualStyle
  2
2dWireframe
 70
     4
 71
     0
 72
     2
 73
     0
 90
        0
 40
-0.6
 41
-30.0
 62
     5
 63
     7
 74
     1
 91
        4
 64
     7
 65
   257
 75
     1
175
     1
 42
1.0
 92
        0
 66
   257
 43
1.0
 76
     1
 77
     6
 78
     2
 67
     7
 79
     5
170
     0
171
     0
290
     0
174
     0
 93
        1
 44
0.0
173
     0
291
     0
 45
0.0
1001
ACAD
1000
AcDbSavedByObjectVersion
1070
     0
  0
VISUALSTYLE
  5
8379
102
{ACAD_XDICTIONARY
360
8708
102
}
102
{ACAD_REACTORS
330
8374
102
}
330
8374
100
AcDbVisualStyle
  2
Basic
 70
     7
 71
     1
 72
     0
 73
     1
 90
        0
 40
-0.6
 41
-30.0
 62
     5
 63
     7
 74
     0
 91
        4
 64
     7
 65
   257
 75
     1
175
     1
 42
1.0
 92
        8
 66
     7
 43
1.0
 76
     1
 77
     6
 78
     2
 67
     7
 79
     5
170
     0
171
     0
290
     0
174
     0
 93
        1
 44
0.0
173
     0
291
     1
 45
0.0
1001
ACAD
1000
AcDbSavedByObjectVersion
1070
     0
  0
VISUALSTYLE
  5
8380
102
{ACAD_XDICTIONARY
360
8716
102
}
102
{ACAD_REACTORS
330
8374
102
}
330
8374
100
AcDbVisualStyle
  2
Brighten
 70
    12
 71
     2
 72
     2
 73
     0
 90
        0
 40
-0.6
 41
-30.0
 62
     5
 63
     7
 74
     1
 91
        4
 64
     7
 65
   257
 75
     1
175
     1
 42
1.0
 92
        8
 66
     7
 43
1.0
 76
     1
 77
     6
 78
     2
 67
     7
 79
     5
170
     0
171
     0
290
     0
174
     0
 93
        1
 44
50.0
173
     0
291
     1
 45
0.0
1001
ACAD
1000
AcDbSavedByObjectVersion
1070
     0
  0
VISUALSTYLE
  5
8384
102
{ACAD_XDICTIONARY
360
871E
102
}
102
{ACAD_REACTORS
330
8374
102
}
330
8374
100
AcDbVisualStyle
  2
ColorChange
 70
    16
 71
     2
 72
     2
 73
     3
 90
        0
 40
-0.6
 41
-30.0
 62
     5
 63
     8
 74
     1
 91
        4
 64
     7
 65
   257
 75
     1
175
     1
 42
1.0
 92
        8
 66
     8
 43
1.0
 76
     1
 77
     6
 78
     2
 67
     7
 79
     5
170
     0
171
     0
290
     0
174
     0
 93
        1
 44
0.0
173
     0
291
     1
 45
0.0
1001
ACAD
1000
AcDbSavedByObjectVersion
1070
     0
  0
VISUALSTYLE
  5
837D
102
{ACAD_XDICTIONARY
360
8710
102
}
102
{ACAD_REACTORS
330
8374
102
}
330
8374
100
AcDbVisualStyle
  2
Conceptual
 70
     9
 71
     3
 72
     2
 73
     0
 90
        0
 40
-0.6
 41
-30.0
 62
     5
 63
     7
 74
     2
 91
        2
 64
     7
 65
   257
 75
     1
175
     1
 42
179.0
 92
        8
 66
     7
 43
1.0
 76
     1
 77
     6
 78
     2
 67
     7
 79
     3
170
     0
171
     0
290
     0
174
     0
 93
        1
 44
0.0
173
     0
291
     0
 45
0.0
1001
ACAD
1000
AcDbSavedByObjectVersion
1070
     0
  0
VISUALSTYLE
  5
837F
102
{ACAD_XDICTIONARY
360
8714
102
}
102
{ACAD_REACTORS
330
8374
102
}
330
8374
100
AcDbVisualStyle
  2
Dim
 70
    11
 71
     2
 72
     2
 73
     0
 90
        0
 40
-0.6
 41
-30.0
 62
     5
 63
     7
 74
     1
 91
        4
 64
     7
 65
   257
 75
     1
175
     1
 42
1.0
 92
        8
 66
     7
 43
1.0
 76
     1
 77
     6
 78
     2
 67
     7
 79
     5
170
     0
171
     0
290
     0
174
     0
 93
        1
 44
-50.0
173
     0
291
     1
 45
0.0
1001
ACAD
1000
AcDbSavedByObjectVersion
1070
     0
  0
VISUALSTYLE
  5
838C
102
{ACAD_XDICTIONARY
360
872E
102
}
102
{ACAD_REACTORS
330
8374
102
}
330
8374
100
AcDbVisualStyle
  2
EdgeColorOff
 70
    22
 71
     2
 72
     2
 73
     0
 90
        0
 40
-0.6
 41
-30.0
 62
     5
 63
     7
 74
     1
 91
        4
 64
     7
 65
   257
 75
     1
175
     1
 42
1.0
 92
        8
 66
     7
 43
1.0
 76
     1
 77
     6
 78
     2
 67
     7
 79
     5
170
     0
171
     0
290
     0
174
     0
 93
        1
 44
0.0
173
     0
291
     1
 45
0.0
1001
ACAD
1000
AcDbSavedByObjectVersion
1070
     0
  0
VISUALSTYLE
  5
8383
102
{ACAD_XDICTIONARY
360
871C
102
}
102
{ACAD_REACTORS
330
8374
102
}
330
8374
100
AcDbVisualStyle
  2
Facepattern
 70
    15
 71
     2
 72
     2
 73
     0
 90
        0
 40
-0.6
 41
-30.0
 62
     5
 63
     7
 74
     1
 91
        4
 64
     7
 65
   257
 75
     1
175
     1
 42
1.0
 92
        8
 66
     7
 43
1.0
 76
     1
 77
     6
 78
     2
 67
     7
 79
     5
170
     0
171
     0
290
     0
174
     0
 93
        1
 44
0.0
173
     0
291
     1
 45
0.0
1001
ACAD
1000
AcDbSavedByObjectVersion
1070
     0
  0
VISUALSTYLE
  5
8375
102
{ACAD_XDICTIONARY
360
8700
102
}
102
{ACAD_REACTORS
330
8374
102
}
330
8374
100
AcDbVisualStyle
  2
Flat
 70
     0
 71
     2
 72
     1
 73
     1
 90
        2
 40
-0.6
 41
30.0
 62
     5
 63
     7
 74
     0
 91
        0
 64
     7
 65
   257
 75
     1
175
     1
 42
1.0
 92
        8
 66
     7
 43
1.0
 76
     1
 77
     6
 78
     2
 67
     7
 79
     5
170
     0
171
     0
290
     0
174
     0
 93
       13
 44
0.0
173
     0
291
     1
 45
0.0
1001
ACAD
1000
AcDbSavedByObjectVersion
1070
     0
  0
VISUALSTYLE
  5
8376
102
{ACAD_XDICTIONARY
360
8702
102
}
102
{ACAD_REACTORS
330
8374
102
}
330
8374
100
AcDbVisualStyle
  2
FlatWithEdges
 70
     1
 71
     2
 72
     1
 73
     1
 90
        2
 40
-0.6
 41
30.0
 62
     5
 63
     7
 74
     1
 91
        0
 64
     7
 65
   257
 75
     1
175
     1
 42
1.0
 92
        0
 66
   257
 43
1.0
 76
     1
 77
     6
 78
     2
 67
     7
 79
     5
170
     0
171
     0
290
     0
174
     0
 93
       13
 44
0.0
173
     0
291
     1
 45
0.0
1001
ACAD
1000
AcDbSavedByObjectVersion
1070
     0
  0
VISUALSTYLE
  5
8377
102
{ACAD_XDICTIONARY
360
8704
102
}
102
{ACAD_REACTORS
330
8374
102
}
330
8374
100
AcDbVisualStyle
  2
Gouraud
 70
     2
 71
     2
 72
     2
 73
     1
 90
        2
 40
-0.6
 41
30.0
 62
     5
 63
     7
 74
     0
 91
        0
 64
     7
 65
   257
 75
     1
175
     1
 42
1.0
 92
        0
 66
     7
 43
1.0
 76
     1
 77
     6
 78
     2
 67
     7
 79
     5
170
     0
171
     0
290
     0
174
     0
 93
       13
 44
0.0
173
     0
291
     1
 45
0.0
1001
ACAD
1000
AcDbSavedByObjectVersion
1070
     0
  0
VISUALSTYLE
  5
8378
102
{ACAD_XDICTIONARY
360
8706
102
}
102
{ACAD_REACTORS
330
8374
102
}
330
8374
100
AcDbVisualStyle
  2
GouraudWithEdges
 70
     3
 71
     2
 72
     2
 73
     1
 90
        2
 40
-0.6
 41
30.0
 62
     5
 63
     7
 74
     1
 91
        0
 64
     7
 65
   257
 75
     1
175
     1
 42
1.0
 92
        0
 66
   257
 43
1.0
 76
     1
 77
     6
 78
     2
 67
     7
 79
     5
170
     0
171
     0
290
     0
174
     0
 93
       13
 44
0.0
173
     0
291
     1
 45
0.0
1001
ACAD
1000
AcDbSavedByObjectVersion
1070
     0
  0
VISUALSTYLE
  5
837C
102
{ACAD_XDICTIONARY
360
870E
102
}
102
{ACAD_REACTORS
330
8374
102
}
330
8374
100
AcDbVisualStyle
  2
Hidden
 70
     6
 71
     1
 72
     2
 73
     2
 90
        0
 40
-0.6
 41
-30.0
 62
     5
 63
     7
 74
     2
 91
        2
 64
     7
 65
   257
 75
     2
175
     1
 42
40.0
 92
        0
 66
   257
 43
1.0
 76
     1
 77
     6
 78
     2
 67
     7
 79
     3
170
     0
171
     0
290
     0
174
     0
 93
        1
 44
0.0
173
     0
291
     0
 45
0.0
1001
ACAD
1000
AcDbSavedByObjectVersion
1070
     0
  0
VISUALSTYLE
  5
838A
102
{ACAD_XDICTIONARY
360
872A
102
}
102
{ACAD_REACTORS
330
8374
102
}
330
8374
100
AcDbVisualStyle
  2
JitterOff
 70
    20
 71
     2
 72
     2
 73
     0
 90
        0
 40
-0.6
 41
-30.0
 62
     5
 63
     7
 74
     1
 91
        4
 64
     7
 65
   257
 75
     1
175
     1
 42
1.0
 92
       10
 66
     7
 43
1.0
 76
     1
 77
     6
 78
     2
 67
     7
 79
     5
170
     0
171
     0
290
     0
174
     0
 93
        1
 44
0.0
173
     0
291
     1
 45
0.0
1001
ACAD
1000
AcDbSavedByObjectVersion
1070
     0
  0
VISUALSTYLE
  5
8382
102
{ACAD_XDICTIONARY
360
871A
102
}
102
{ACAD_REACTORS
330
8374
102
}
330
8374
100
AcDbVisualStyle
  2
Linepattern
 70
    14
 71
     2
 72
     2
 73
     0
 90
        0
 40
-0.6
 41
-30.0
 62
     5
 63
     7
 74
     1
 91
        4
 64
     7
 65
   257
 75
     7
175
     7
 42
1.0
 92
        8
 66
     7
 43
1.0
 76
     1
 77
     6
 78
     2
 67
     7
 79
     5
170
     0
171
     0
290
     0
174
     0
 93
        1
 44
0.0
173
     0
291
     1
 45
0.0
1001
ACAD
1000
AcDbSavedByObjectVersion
1070
     0
  0
VISUALSTYLE
  5
838B
102
{ACAD_XDICTIONARY
360
872C
102
}
102
{ACAD_REACTORS
330
8374
102
}
330
8374
100
AcDbVisualStyle
  2
OverhangOff
 70
    21
 71
     2
 72
     2
 73
     0
 90
        0
 40
-0.6
 41
-30.0
 62
     5
 63
     7
 74
     1
 91
        4
 64
     7
 65
   257
 75
     1
175
     1
 42
1.0
 92
        9
 66
     7
 43
1.0
 76
     1
 77
     6
 78
     2
 67
     7
 79
     5
170
     0
171
     0
290
     0
174
     0
 93
        1
 44
0.0
173
     0
291
     1
 45
0.0
1001
ACAD
1000
AcDbSavedByObjectVersion
1070
     0
  0
VISUALSTYLE
  5
837E
102
{ACAD_XDICTIONARY
360
8712
102
}
102
{ACAD_REACTORS
330
8374
102
}
330
8374
100
AcDbVisualStyle
  2
Realistic
 70
     8
 71
     2
 72
     3
 73
     0
 90
        2
 40
-0.6
 41
30.0
 62
     5
 63
     7
 74
     0
 91
        0
 64
     7
 65
   257
 75
     1
175
     1
 42
1.0
 92
        8
 66
   257
 43
1.0
 76
     1
 77
     6
 78
     2
 67
     7
 79
     3
170
     0
171
     0
290
     0
174
     0
 93
       13
 44
0.0
173
     0
291
     0
 45
0.0
1001
ACAD
1000
AcDbSavedByObjectVersion
1070
     0
  0
VISUALSTYLE
  5
8389
102
{ACAD_XDICTIONARY
360
8728
102
}
102
{ACAD_REACTORS
330
8374
102
}
330
8374
100
AcDbVisualStyle
  2
Shaded
 70
    27
 71
     2
 72
     2
 73
     1
 90
        2
 40
-0.6
 41
30.0
 62
     5
 63
     7
 74
     0
 91
        4
 64
     7
 65
   257
 75
     1
175
     1
 42
1.0
 92
        8
 66
   257
 43
1.0
 76
     1
 77
     6
 78
     2
 67
     8
 79
     3
170
     0
171
     0
290
     0
174
     0
 93
        5
 44
0.0
173
     0
291
     0
 45
0.0
1001
ACAD
1000
AcDbSavedByObjectVersion
1070
     0
  0
VISUALSTYLE
  5
8388
102
{ACAD_XDICTIONARY
360
8726
102
}
102
{ACAD_REACTORS
330
8374
102
}
330
8374
100
AcDbVisualStyle
  2
Shaded with edges
 70
    26
 71
     2
 72
     2
 73
     1
 90
        2
 40
-0.6
 41
30.0
 62
     5
 63
     7
 74
     1
 91
       10
 64
     7
 65
   257
 75
     2
175
     1
 42
1.0
 92
        8
 66
   257
 43
1.0
 76
     1
 77
     6
 78
     2
 67
     7
 79
     3
170
     0
171
     0
290
     0
174
     0
 93
        5
 44
0.0
173
     0
291
     0
 45
0.0
1001
ACAD
1000
AcDbSavedByObjectVersion
1070
     0
  0
VISUALSTYLE
  5
8385
102
{ACAD_XDICTIONARY
360
8720
102
}
102
{ACAD_REACTORS
330
8374
102
}
330
8374
100
AcDbVisualStyle
  2
Shades of Gray
 70
    23
 71
     2
 72
     2
 73
     3
 90
        0
 40
-0.6
 41
-30.0
 62
     5
 63
     7
 74
     2
 91
        2
 64
     7
 65
     7
 75
     1
175
     1
 42
40.0
 92
        8
 66
     7
 43
1.0
 76
     1
 77
     6
 78
     2
 67
     7
 79
     3
170
     0
171
     0
290
     0
174
     0
 93
        1
 44
0.0
173
     0
291
     0
 45
0.0
1001
ACAD
1000
AcDbSavedByObjectVersion
1070
     0
  0
VISUALSTYLE
  5
8386
102
{ACAD_XDICTIONARY
360
8722
102
}
102
{ACAD_REACTORS
330
8374
102
}
330
8374
100
AcDbVisualStyle
  2
Sketchy
 70
    24
 71
     1
 72
     2
 73
     2
 90
        0
 40
-0.6
 41
-30.0
 62
     5
 63
     7
 74
     2
 91
        2
 64
     7
 65
     7
 75
     1
175
     1
 42
40.0
 92
       11
 66
     7
 43
1.0
 76
     1
 77
     6
 78
     2
 67
     7
 79
     6
170
     0
171
     0
290
     0
174
     0
 93
        1
 44
0.0
173
     0
291
     0
 45
0.0
1001
ACAD
1000
AcDbSavedByObjectVersion
1070
     0
  0
VISUALSTYLE
  5
8381
102
{ACAD_XDICTIONARY
360
8718
102
}
102
{ACAD_REACTORS
330
8374
102
}
330
8374
100
AcDbVisualStyle
  2
Thicken
 70
    13
 71
     2
 72
     2
 73
     0
 90
        0
 40
-0.6
 41
-30.0
 62
     5
 63
     7
 74
     1
 91
        4
 64
     7
 65
   257
 75
     1
175
     1
 42
1.0
 92
       12
 66
     7
 43
1.0
 76
     1
 77
     6
 78
     2
 67
     7
 79
     5
170
     0
171
     0
290
     0
174
     0
 93
        1
 44
0.0
173
     0
291
     1
 45
0.0
1001
ACAD
1000
AcDbSavedByObjectVersion
1070
     0
  0
VISUALSTYLE
  5
837B
102
{ACAD_XDICTIONARY
360
870C
102
}
102
{ACAD_REACTORS
330
8374
102
}
330
8374
100
AcDbVisualStyle
  2
Wireframe
 70
     5
 71
     0
 72
     2
 73
     0
 90
        0
 40
-0.6
 41
-30.0
 62
     5
 63
     7
 74
     1
 91
        4
 64
     7
 65
   257
 75
     1
175
     1
 42
1.0
 92
        0
 66
   257
 43
1.0
 76
     1
 77
     6
 78
     2
 67
     7
 79
     3
170
     0
171
     0
290
     0
174
     0
 93
        1
 44
0.0
173
     0
291
     0
 45
0.0
1001
ACAD
1000
AcDbSavedByObjectVersion
1070
     0
  0
VISUALSTYLE
  5
8387
102
{ACAD_XDICTIONARY
360
8724
102
}
102
{ACAD_REACTORS
330
8374
102
}
330
8374
100
AcDbVisualStyle
  2
X-Ray
 70
    25
 71
     2
 72
     2
 73
     1
 90
        1
 40
0.5
 41
-30.0
 62
     5
 63
     7
 74
     1
 91
        0
 64
     7
 65
   257
 75
     1
175
     1
 42
1.0
 92
        8
 66
     7
 43
1.0
 76
     1
 77
     6
 78
     2
 67
     7
 79
     3
170
     0
171
     0
290
     0
174
     0
 93
       13
 44
0.0
173
     0
291
     0
 45
0.0
1001
ACAD
1000
AcDbSavedByObjectVersion
1070
     0
  0
DICTIONARYVAR
  5
86A9
102
{ACAD_REACTORS
330
86A4
102
}
330
86A4
100
DictionaryVariables
280
     0
  1
1:1
  0
DICTIONARYVAR
  5
86A6
102
{ACAD_REACTORS
330
86A4
102
}
330
86A4
100
DictionaryVariables
280
     0
  1
STANDARD
  0
DICTIONARYVAR
  5
86A5
102
{ACAD_REACTORS
330
86A4
102
}
330
86A4
100
DictionaryVariables
280
     0
  1
STANDARD
  0
DICTIONARYVAR
  5
86A7
102
{ACAD_REACTORS
330
86A4
102
}
330
86A4
100
DictionaryVariables
280
     0
  1
Imperial24
  0
DICTIONARYVAR
  5
86A8
102
{ACAD_REACTORS
330
86A4
102
}
330
86A4
100
DictionaryVariables
280
     0
  1
Imperial24
  0
DICTIONARYVAR
  5
86AC
102
{ACAD_REACTORS
330
86A4
102
}
330
86A4
100
DictionaryVariables
280
     0
  1
1
  0
DICTIONARYVAR
  5
86AB
102
{ACAD_REACTORS
330
86A4
102
}
330
86A4
100
DictionaryVariables
280
     0
  1
0
  0
DICTIONARYVAR
  5
86AA
102
{ACAD_REACTORS
330
86A4
102
}
330
86A4
100
DictionaryVariables
280
     0
  1
127
  0
DICTIONARYVAR
  5
86AD
102
{ACAD_REACTORS
330
86A4
102
}
330
86A4
100
DictionaryVariables
280
     0
  1
2
  0
DICTIONARY
  5
8734
330
83B5
100
AcDbDictionary
280
     1
281
     1
  3
ACAD_XREC_ROUNDTRIP
360
8735
  0
DICTIONARY
  5
8738
330
83BD
100
AcDbDictionary
280
     1
281
     1
  3
ACAD_XREC_ROUNDTRIP
360
8739
  0
DICTIONARY
  5
8736
330
83B9
100
AcDbDictionary
280
     1
281
     1
  3
ACAD_XREC_ROUNDTRIP
360
8737
  0
DICTIONARY
  5
8365
330
8364
100
AcDbDictionary
280
     1
281
     1
  3
ACAD_XREC_ROUNDTRIP
360
86FE
  3
BUMPTILE
360
8367
  3
DIFFUSETILE
360
8366
  3
OPACITYTILE
360
836A
  3
REFLECTIONTILE
360
8369
  3
REFRACTIONTILE
360
836B
  3
SPECULARTILE
360
8368
  0
DICTIONARY
  5
835D
330
835C
100
AcDbDictionary
280
     1
281
     1
  3
ACAD_XREC_ROUNDTRIP
360
86FD
  3
BUMPTILE
360
835F
  3
DIFFUSETILE
360
835E
  3
OPACITYTILE
360
8362
  3
REFLECTIONTILE
360
8361
  3
REFRACTIONTILE
360
8363
  3
SPECULARTILE
360
8360
  0
DICTIONARY
  5
836D
330
836C
100
AcDbDictionary
280
     1
281
     1
  3
ACAD_XREC_ROUNDTRIP
360
86FF
  3
BUMPTILE
360
836F
  3
DIFFUSETILE
360
836E
  3
FBXASSET
360
8408
  3
OPACITYTILE
360
8372
  3
REFLECTIONTILE
360
8371
  3
REFRACTIONTILE
360
8373
  3
SPECULARTILE
360
8370
  0
DICTIONARY
  5
8732
330
83B3
100
AcDbDictionary
280
     1
281
     1
  3
ACAD_XREC_ROUNDTRIP
360
8733
  0
DICTIONARY
  5
86F9
330
83AF
100
AcDbDictionary
280
     1
281
     1
  3
ACAD_ROUNDTRIP_2008_TABLESTYLE_CELLSTYLEMAP
360
86FA
  3
ACAD_XREC_ROUNDTRIP
360
8730
  0
DICTIONARY
  5
870A
330
837A
100
AcDbDictionary
280
     1
281
     1
  3
ACAD_XREC_ROUNDTRIP
360
870B
  0
DICTIONARY
  5
8708
330
8379
100
AcDbDictionary
280
     1
281
     1
  3
ACAD_XREC_ROUNDTRIP
360
8709
  0
DICTIONARY
  5
8716
330
8380
100
AcDbDictionary
280
     1
281
     1
  3
ACAD_XREC_ROUNDTRIP
360
8717
  0
DICTIONARY
  5
871E
330
8384
100
AcDbDictionary
280
     1
281
     1
  3
ACAD_XREC_ROUNDTRIP
360
871F
  0
DICTIONARY
  5
8710
330
837D
100
AcDbDictionary
280
     1
281
     1
  3
ACAD_XREC_ROUNDTRIP
360
8711
  0
DICTIONARY
  5
8714
330
837F
100
AcDbDictionary
280
     1
281
     1
  3
ACAD_XREC_ROUNDTRIP
360
8715
  0
DICTIONARY
  5
872E
330
838C
100
AcDbDictionary
280
     1
281
     1
  3
ACAD_XREC_ROUNDTRIP
360
872F
  0
DICTIONARY
  5
871C
330
8383
100
AcDbDictionary
280
     1
281
     1
  3
ACAD_XREC_ROUNDTRIP
360
871D
  0
DICTIONARY
  5
8700
330
8375
100
AcDbDictionary
280
     1
281
     1
  3
ACAD_XREC_ROUNDTRIP
360
8701
  0
DICTIONARY
  5
8702
330
8376
100
AcDbDictionary
280
     1
281
     1
  3
ACAD_XREC_ROUNDTRIP
360
8703
  0
DICTIONARY
  5
8704
330
8377
100
AcDbDictionary
280
     1
281
     1
  3
ACAD_XREC_ROUNDTRIP
360
8705
  0
DICTIONARY
  5
8706
330
8378
100
AcDbDictionary
280
     1
281
     1
  3
ACAD_XREC_ROUNDTRIP
360
8707
  0
DICTIONARY
  5
870E
330
837C
100
AcDbDictionary
280
     1
281
     1
  3
ACAD_XREC_ROUNDTRIP
360
870F
  0
DICTIONARY
  5
872A
330
838A
100
AcDbDictionary
280
     1
281
     1
  3
ACAD_XREC_ROUNDTRIP
360
872B
  0
DICTIONARY
  5
871A
330
8382
100
AcDbDictionary
280
     1
281
     1
  3
ACAD_XREC_ROUNDTRIP
360
871B
  0
DICTIONARY
  5
872C
330
838B
100
AcDbDictionary
280
     1
281
     1
  3
ACAD_XREC_ROUNDTRIP
360
872D
  0
DICTIONARY
  5
8712
330
837E
100
AcDbDictionary
280
     1
281
     1
  3
ACAD_XREC_ROUNDTRIP
360
8713
  0
DICTIONARY
  5
8728
330
8389
100
AcDbDictionary
280
     1
281
     1
  3
ACAD_XREC_ROUNDTRIP
360
8729
  0
DICTIONARY
  5
8726
330
8388
100
AcDbDictionary
280
     1
281
     1
  3
ACAD_XREC_ROUNDTRIP
360
8727
  0
DICTIONARY
  5
8720
330
8385
100
AcDbDictionary
280
     1
281
     1
  3
ACAD_XREC_ROUNDTRIP
360
8721
  0
DICTIONARY
  5
8722
330
8386
100
AcDbDictionary
280
     1
281
     1
  3
ACAD_XREC_ROUNDTRIP
360
8723
  0
DICTIONARY
  5
8718
330
8381
100
AcDbDictionary
280
     1
281
     1
  3
ACAD_XREC_ROUNDTRIP
360
8719
  0
DICTIONARY
  5
870C
330
837B
100
AcDbDictionary
280
     1
281
     1
  3
ACAD_XREC_ROUNDTRIP
360
870D
  0
DICTIONARY
  5
8724
330
8387
100
AcDbDictionary
280
     1
281
     1
  3
ACAD_XREC_ROUNDTRIP
360
8725
  0
XRECORD
  5
8735
102
{ACAD_REACTORS
330
8734
102
}
330
8734
100
AcDbXrecord
280
     1
102
DISPLAYNAME
  1
Imperial24
102
FLAGS
 90
        0
  0
XRECORD
  5
8739
102
{ACAD_REACTORS
330
8738
102
}
330
8738
100
AcDbXrecord
280
     1
102
SHADEPLOT
 70
     0
102
SHADEPLOTRESLEVEL
 70
     2
102
SHADEPLOTCUSTOMDPI
 70
   300
  0
XRECORD
  5
8737
102
{ACAD_REACTORS
330
8736
102
}
330
8736
100
AcDbXrecord
280
     1
102
SHADEPLOT
 70
     0
102
SHADEPLOTRESLEVEL
 70
     2
102
SHADEPLOTCUSTOMDPI
 70
   300
  0
XRECORD
  5
86FE
102
{ACAD_REACTORS
330
8365
102
}
330
8365
100
AcDbXrecord
280
     1
102
MATERIAL
148
0.0
149
0.0
149
0.0
 93
        0
 94
      127
282
     0
 72
     0
 77
     0
171
     0
175
     0
179
     0
273
     0
  0
XRECORD
  5
8367
102
{ACAD_REACTORS
330
8365
102
}
330
8365
100
AcDbXrecord
280
     1
270
     1
271
     1
  0
XRECORD
  5
8366
102
{ACAD_REACTORS
330
8365
102
}
330
8365
100
AcDbXrecord
280
     1
270
     1
271
     1
  0
XRECORD
  5
836A
102
{ACAD_REACTORS
330
8365
102
}
330
8365
100
AcDbXrecord
280
     1
270
     1
271
     1
  0
XRECORD
  5
8369
102
{ACAD_REACTORS
330
8365
102
}
330
8365
100
AcDbXrecord
280
     1
270
     1
271
     1
  0
XRECORD
  5
836B
102
{ACAD_REACTORS
330
8365
102
}
330
8365
100
AcDbXrecord
280
     1
270
     1
271
     1
  0
XRECORD
  5
8368
102
{ACAD_REACTORS
330
8365
102
}
330
8365
100
AcDbXrecord
280
     1
270
     1
271
     1
  0
XRECORD
  5
86FD
102
{ACAD_REACTORS
330
835D
102
}
330
835D
100
AcDbXrecord
280
     1
102
MATERIAL
148
0.0
149
0.0
149
0.0
 93
        0
 94
      127
282
     0
 72
     0
 77
     0
171
     0
175
     0
179
     0
273
     0
  0
XRECORD
  5
835F
102
{ACAD_REACTORS
330
835D
102
}
330
835D
100
AcDbXrecord
280
     1
270
     1
271
     1
  0
XRECORD
  5
835E
102
{ACAD_REACTORS
330
835D
102
}
330
835D
100
AcDbXrecord
280
     1
270
     1
271
     1
  0
XRECORD
  5
8362
102
{ACAD_REACTORS
330
835D
102
}
330
835D
100
AcDbXrecord
280
     1
270
     1
271
     1
  0
XRECORD
  5
8361
102
{ACAD_REACTORS
330
835D
102
}
330
835D
100
AcDbXrecord
280
     1
270
     1
271
     1
  0
XRECORD
  5
8363
102
{ACAD_REACTORS
330
835D
102
}
330
835D
100
AcDbXrecord
280
     1
270
     1
271
     1
  0
XRECORD
  5
8360
102
{ACAD_REACTORS
330
835D
102
}
330
835D
100
AcDbXrecord
280
     1
270
     1
271
     1
  0
XRECORD
  5
86FF
102
{ACAD_REACTORS
330
836D
102
}
330
836D
100
AcDbXrecord
280
     1
102
MATERIAL
148
0.0
149
0.0
149
0.0
 93
        0
 94
      127
282
     0
 72
     0
 77
     0
171
     0
175
     0
179
     0
273
     0
  0
XRECORD
  5
836F
102
{ACAD_REACTORS
330
836D
102
}
330
836D
100
AcDbXrecord
280
     1
270
     1
271
     1
  0
XRECORD
  5
836E
102
{ACAD_REACTORS
330
836D
102
}
330
836D
100
AcDbXrecord
280
     1
270
     1
271
     1
  0
XRECORD
  5
8408
102
{ACAD_REACTORS
330
836D
102
}
330
836D
100
AcDbXrecord
280
     1
 70
     1
 90
1959938040
 71
     1
  1
9D676304-999F-4B44-BA43-AA61C799BCDD
311
504B0304140006080800836B7857AD5E5353D9000000200100004F00000035343545423532312D424546372D343135412D413034332D4232353841333146423946332F4173736574446174612F446566696E6974696F6E4974657261746F7250726F706572746965732E62696E454E3D4FC33010350C200606FE41D5DDD871
311
5C1A456D911AA74CB0C0C4525D9D6B89E424559C488C8CFC6BB813453DE9DDBBCF77F72D84F8391985E282F045FE96F8095BEC6BFFEA3FB00171C595D0ED205C9F7B971472EA700F631878EBB98E1E438016BB31DE9D47270D0C2407E19E976E08FF85C80A87BF637CFF85C02F314375CC1F21461C966ABFFB5485363A2D5C
311
296765EAA49D9B8D5C3B676591AC4B636D36B7B34CF518BBB1F71895517A7B52DE1EDB435DAD1643DDE0A485069753DF23FD544D57469B54268934F62D497393E5FAE17DA178F217504B0304140006080800836B78576B13CF9DEF000000300200004500000035343545423532312D424546372D343135412D413034332D42
311
32353841333146423946332F4173736574446174612F496E7374616E636550726F706572746965732E62696EEB606060F80F0540260323103700495E20ED9E9A975A94991C9C9C919A9BA80214B074313337333630D1B5B4B474D335713231D175723431D6757434337436B7B474727671614768046931363471713532B5D4
311
3535012A34313332D475727372D13534373670367376B67474B5042A03DBCBA019D37FE8ABC6157B20CD04146B0062181F4C03F940F0C11EA29A8141C08141002C0426541C106CAC2CA046088033B02A030AC2157C6006F21A8018AAF50194E6010A610250382264E08660284CD9E98021862280A91564B406929A0FF62C40
311
1E28B6F88038B83CB1243943D7A928312F25350524131B1BFB9F161800504B0304140006080800836B785728BB58AF800100009E0500003D00000035343545423532312D424546372D343135412D413034332D4232353841333146423946332F536368656D61732F436F6D6D6F6E536368656D612E786D6CBD544D4FC23018
311
BEFB2B96DE15493C78601010A34B880709DEDFB52FD0D8B54BD70DF6EFED3AC0B12E6442E2716BFB3CEFF3D18E26FB440405EA8C2B1992E1C323095052C5B8DC842437EBFB673219DF8DA659866649B798C078B48AE6410122242F2A4994AC7F93815DF85C049C8564CA0A901499DD886B2EB9B1E02448F358701A9235880C
311
49A0119892A20C89D1B9FD768815CAD268CB5E0355B40B1E47F3E37A2020464BED06AA57CE8FCC20C3C3446D46761A2632A8C1283D07031EFF2AE7CCB1BFEEE916E406DFAC8E36FFD99A9D60A6944090EEDC3B670C7DC13DE86B6B2C5C240D6E503BB85ACD579D513F1B9F9A69DC9CC22AFA80C426D40AF0B21EA168559156
311
B6276F0F726A6BFF04DCD513A87A62CAD41FB24FCB2858B3952E3D852084DA25B9303C15687973CC8E8AAE11DF2836C38C6A9E765E8C1BA1BFB1DC29CDFE518C8B5A7655A4ED7E77291ABEB80DBD82EC866ADE1B8D05AF9E35CF09D7A061F38A986D9EC412B8F0F65E5D81534D9B231D1E5A8FE577A241F3A5FD01504B0304
311
140006080800836B78572CCEBD668A040000E01200003E00000035343545423532312D424546372D343135412D413034332D4232353841333146423946332F536368656D61732F47656E65726963536368656D612E786D6CD5586D6FDB380CFE7EBF42F0F7A649B70E1B90744856B4970F450FCD7A5F05459613EDE4174872
311
DADCAF3F522F8ED3B88D2F1D06AC4050DBA2493EE4438AF2F8EB73AEC8466823CB62928C06C384888297A92C5693A4B6D9D9E7E4EBD51FE3A931C22EF85AE4EC6AFC38BF261BA626C9AD288496DC3F4FCEAFC63366845F7A10452AF41DB320C0D44EC26EAB20918735565582695670811A6A49643A49A6E9069FA4604A64B2
311
9016DC4B48552F95E4932463CA888468C1D2B250DB4962750DF7CE273069CE8363F1FF4EDB00E0A21999574AE4A2B00C353B93F3BD4777B8A61ED8F604ABFEDD79CE56A2B7BDFBDBC50996E0ADDE16FED26223C5D30956C29BDF4A55EA686E5E58B112DA45CE67F76F4FA27EFA3FB672FD7372FC388FAECDCA5209E693CAD1
311
67BADCD272F943701B3812F8A3D852008B1D2E32DB927B2F833C6EA95879925356D254582695095A3CE982924720BE5774A3CB9CDCDB350427D2DF20DA1B5532EBE2D5D6288D75D4F7E4FD9890A0EF8E3D93EBB8F8BA4758158EF6FB90A6F9520281C93DE7AAC6D24607DA296BB96018123F821A7D6A5C5884050C475DA486
311
5442732C8B95684A50165CBB3A32F25F783A4A480ED59AD7F924B968AEA50131F46303223E6A397B0E52976030DC1DCA81D7E7C1EDEEA42C19FF27635C505E2BD5198A599020DF50A2330FCB3AAF28CB0124108429553EF1B228802E2265D8F7CC2401042B155BCC7070F1E5C55F13B4A9577362CCCE46C32174E010C3C378
311
C44841A4BDA00FE3A12006CE11EE6AEC59894D3526DDE1CD59D503ECC324017F8061B7F162162FA62EDD81AE3308617770796DCBDAD2B2625C5AE8A63DE20B2C8AA5E95E76E5730823955956E33E705425A2187C185D36489A1B44D3DCEC2172F6BA2105C3546287A7194B2331768EBBE64F6E70A9930ABE0ADEA89E9E2C38
311
523B810287AD67A54A039C1606EAFE68F8304610BB9093DBDDABC0B2AE4E290DCDA15376D7E39F72B556F0B32EAB5D3D498B4C41ABADEC3A1434C422D87E8025A84BDCB2B1417ED750FAE4DA8976863974C577C7F902D3F156AD354DEA3540DE6BEAE2BEA52F7A2EB4CA43802ECE5BF2CE2EDC9347179FFB023CE412E60BE1
311
6DA0BE29B374988A553F561DC04615DD35F7D2C8979F60E5955CE93DF29DED8AFA1EE6642D53418086C03C47C377910F75F7E8F5EF665F70B60FFB22AEDF897D119E8423C773E819A3C1E55E550599EE6EDCA34D0C86FD72057DF2CD46F16A470682471C164E4346D5306BF12D7D12D82CFF673D41636C347443FEB51B50D7
311
2EA171A8E4A58623A4A16E0FA2B8B10A0D23268D87C33896EE8FB73305A74BF224EDBADFA0BD674AB354D63DB7BD5D83426761C077DE767728235446A552754EB93B755891C3C4CC6CADE37CF0E912A7BB38DBA010F9DE1282EDF470CA69A9CDA482E334C4A6EA4107987980B17E72F31730EBF88BBD39E7C629F56797A3C0
311
009C2C5AE7951D9A05A02773440F02EEB4DE396A3B6A570C72CCFBCD823B0B8ED3F1D5CEDDFED772FA70236C83FB7D86C385D570B87107535572A60A96035F8F7C6A7192F13007246BBE0521855E6AC46F3E27689CEE7D186A6FD679D98CDCAD13333E04EBE7ED6F55FF01504B0304140006080800836B78576180134D5F01
311
00006B0300004500000035343545423532312D424546372D343135412D413034332D4232353841333146423946332F536368656D61732F52656E6465724D6174657269616C536368656D612E786D6CA5934D6FC2300C86EFFB1551EEE343DBA41D1A103009551ADAD40EAE28A4A68D9426284961FCFBE5A340113B2071746D
311
3F765EBF4DC6BFB5407BD0862B49F0B037C0082453059725C18DDD3EBFE3F1E829991803366715D474942CD30FB4A782E00C64017A412D684E454CE3FE28995203B162A6EA5AC94B66997D225E109CD63B0135484BAD1B3C07E9080CA35DB3119C11BCA5C200461A68A1A438126C75E3E230D40FF81FB3F03C91D1E3A3A0AF
311
79FE28E25BC39EC3E17E4C2A2D94A0833A51AF55BCCA7D88572FCBAC529C4140B020FC3AAFA886621DCED7EAD7664CC86024E806DC297DA1BB393E4156543457A4537DB8817349A70F8ACBF09B3EEE2CB2F33E91B65D60786E4E3B39B77E3FEEEF5650424525DA657FB8B46BE6BF064646F0A0F7327C0BC1BC1B4CBBC1C419
311
FA3CCB23500007872A2580CAAE5461865565294E4EDB4617B62FF579DF9A5B2F54E834076A597573A020912FED777F9B3F504B0304140006080800836B7857500E20A951000000570000004700000035343545423532312D424546372D343135412D413034332D4232353841333146423946332F4173736574446174612F41
311
737365745461626C654F66436F6E74656E74732E62696E53616060B074313337333630D1B5B4B474D335713231D175723431D6757434337436B7B4747276711102AACB4D2C492DCA4CCC492C28484D2C4ACC4B4E050A82012F90744FCD03CA26072767A4E6260200504B0304140006080800836B7857F86583405800000068
311
0000004500000035343545423532312D424546372D343135412D413034332D4232353841333146423946332F4173736574446174612F53747265616D56657273696F6E5461626C652E696E66558CBD0A80300C06F73E4B117FB66E451741D041DC5BF98480A492E4FDD18EAEC7DD4555D89EF28DF51A0B1BD8340C4DE7DD84
311
8B988C0ACF0649566493F2408C508DDEBB99D5129FF8F1AF8CF5B9503E20FAE5A16B5AF702504B0304140006080800836B785747CB5E32350100009A0400003600000035343545423532312D424546372D343135412D413034332D4232353841333146423946332F4173736574446174612F636E782E786D6CCD94314FC330
311
1085FF4AE43D76922254558E2B044B2790A818D8AECEA5B5EAD8917D41F0EFB1DB0CA022A60E5DCFEFCECF9FFC4EAE3F075B7C6088C6BB96D5BC62053AED3BE3F62D9BA82F97AC582B19BCA71F32563818B065B9CC94DC073F8D73A9C31E269BABD6B8E35C7C8811690B3B8BCFFDA377848E222BB485185B16F50107E03091
311
EF301E790704BCE601A39F82C63489CC80F3241D10083BA69AAA5994755D3677DB7AB16A96ABEAFE5D8AAC5472E7BD9DF5265D16FC58E8F3AD4C5552E46325A760664D7E0B537F79E43BE3A4484A252385C464EEA0AF3175C0385AA381123AE13521954984304871162B2932835F249EB037CEE4964D3206E4C34BB287810C
311
DE1C91FFBC5E9FCCC64502A7F176795C3ABC3E85D7D30F7A3B07F294985BCBC9A5436E5C7F859488D31A49A1C95B457D03504B0304140006080800836B7857A7609F39090100004F0300003400000035343545423532312D424546372D343135412D413034332D4232353841333146423946332F536368656D61732F636E78
311
2E786D6CCD93BD6EC32014855FC56237D84E5545112643874E5DDA4EDD28DC2428C0B5F8A9DAB72FB80C89D4AD1DB2C1E1133AE770E1FB4F67BB0F08D1A09FC94807D28157A88D3FCE24A743BF25DD5EF080982E30D279E960265526821F03E6A5491A0E32DBAA5AE3CF4D7C40E7D0BFA81338493A65658C3389EB96CA9C50
311
433C532D93A4230D10310705E586641CB41B5400994013310DD3A61FC77EBA7B1D37BB69BB1BEEDF38ABA4E0EF88B6F1C62708B8740ACBC2173B0367F558F01C4C636A06222EBDD1D2066785103CA6503A6864FA5A0A2997C51A2553A98AADE00F2338AB51AF023F828760D46D26BE32F76F919FC16B084FE5958291F63693
311
FFE6F16F05B075F6CB08D4AF20BE01504B0304140006080800836B7857410A3D5871000000A40000002C00000035343545423532312D424546372D343135412D413034332D4232353841333146423946332F636E782E786D6C55CC4D0E82301086E1AB34B31774E7A22D31F1069E60020334B633A63FC6E34B0909B07DDE2F
311
9FEE7EC1AB2FC5E4840DDC9A2B28E25E06C7938192C7CB1D54677514C9871928C640062A83D55394F2D968A0118BAFEA1DBF377CA444F98919176EAB9FEAAB9F2960DA5BBB1E2ED3FA6FFF504B0304140006080800836B78577F84A37E7E000000A300000007000000636E782E786D6C4D8CD10A832018465F45FE7BB74C65
311
0DCC50C8F7886521330D97638F3F1D5DECEA83C3778E183E9B476F9B5E2E861EC8A50164C323CE2EAC3DE463C11DA0418A14E3F1770314A6CDF6503148B1A698F713CD7699B2AFD4BBF03C21677CD4BC25588FE68619E10AAB8651AC5BDE294A8CBE1B5A8C6B55CAFC7A656B5E7E01504B0304140006080800836B785716E9
311
9B5DA600000035010000130000005B436F6E74656E745F54797065735D2E786D6C9590410E82301045AFD2740F4517C6180A0BF5065E60AC53688469D30E066F6F91AD9AB89CF9FFFD3F99BA9DC7413C3026E749CB4D59498164FCCD51A7E5C4B6D84BD136F5E5193089ECA5A465CF1C0E4A25D3E308A9F401292BD6C71138
311
8FB15301CC1D3A54DBAADA29E38991B8E0254336F5092D4C038BF39CD76B6FC6A538AEBEA54A4B08617006389FA516557DE4AE8E7E70DE30729138228C5F021CD93F02D4FB0DCD0B504B0304140006080800836B78573DEE336E64000000790000001B0000006175746F6465736B2D64657369676E2D7061636B6167652E78
311
6D6C35CBC10E83200C00D05F21DCA56CA76D41FC96062B120735B69A7DBE268BB7777961F8D5AF396893C2ADB70FE7ADA196782C2DF776D7A97B5933C430F15651E5469C55D70F80A4992A3ADC954792C525AE70A1E4D6AD9816CC044FEFDF01FE3FDE907802504B0304140006080800836B785735B41B3CF8000000960100
311
003700000035343545423532312D424546372D343135412D413034332D4232353841333146423946332F4173736574446174612F636F72652E786D6C8550CB6EC32010FC156BEFD806A3C6893051ECA45FD0536F08888B1283C5A3EAE71712576A4F3DED6A76667677D8F16BB9579FDA07E3EC00B86EA1D2563A65EC3C408A
311
57D44375E4CC3B177FD1A0B262D1031418389BBD4BEB064967A3B605B54EE90D1421E80895BCE76680203FF4226A916266845BBD0A7913B3AE71FDE4719692519BD4A8EC66AE467BE0633BD1DD65EC10BEEC4E88EE478CF6FD4811ED09A5AF743A4FB4634D117316CDF2B35D7A2DA256C0494BB2162342DF707720FDA17D79
311
674D617216A2CF3F6F4BCB77C04FE5EAB3888235CFE91FD7B4AAFF5D93B1B1239BEB531180E37CE463C0595352CAE51161AE2551FE0D504B0304140006080800836B78570B05ABCFF7000000940100003500000035343545423532312D424546372D343135412D413034332D4232353841333146423946332F536368656D61
311
732F636F72652E786D6C8550CB6E833010FC15B4770336564322E3A8D0F407DA536F9671889560233FAA7E7E6DA0527BEA6957B333B3BBC3CE5FF3A3F854CE6B6B3AC0650D8532D28EDA4C1DC470452D1467CE9CB5E1170D0A2366D5418681B3C9D9B8EC90B4262893516347B583C27B15A0908FD474E0E54DCDA214312486
311
BF978B907731A912971B8FB318F5B84BF598DCF4552B07BCAF077AB8F40DC297C333A2C71EA363DB53445B42E92B1D5E06DAB02A8B390B7AFED92E9D12418DC0494D92162342DF717322EDA97EFA60556672E6834B3FEF4BF377C0DFD63B3DABB6D91FCFB88CFF7B466D424376CF4DE181E374E23AE0ACCA19A5B206986ACE
311
937F03504B0304140006080800836B7857EA3B133100010000D70100002D00000035343545423532312D424546372D343135412D413034332D4232353841333146423946332F636F72652E786D6C9591C14EC42010865F8570A72DD06ADD50366DB2FB049EBC21CC76C96EA129607C7CA9AD516F7A82FC7CFF0CFF8C38BE4F
311
77F4064BB0DE7598161546E0B437D68D1D4EF1425A8C8E522CDEC71F18464E4DD0E155C6528C8B4FF32E69EF22B85575DEC02EAA102062A4EFF9D2E1A0AF30A942A59889702B66A56F6A8482161B2745B4D397552FA022182C59C538A194B0FA99F2036B0FD5C38B2857528A645DE46C6F06D32B18E4E7982361D988727BCD
311
54B26667ACC97FB4170B4B26EAE634348C92E1747E24356D7AD2573527036BDA9ED3F3F074E6B948364B11E29227B3175967F057FB66FC952CCDE69FC93647C0927E872AD7314B517EEE209FEB4AE407504B0304140006080800836B7857AF6C7BF206010000B201000008000000636F72652E786D6C8D50CB6EC32010FC15
311
B4776C8351E34498A876D32FE8A9376A8883628365206AFFBE90B8527BEB69D13C7686E5C7CF794237BD7AE36C0BA4A800693B3865ECD8420C67DC003A0ABE3A177EC9005939EB16320C828FAB8BCB060DCE066D336A9DD21B28BDD701D030A5470B7EB8E859163286A4F0D76291C3558EBA20C543277830F38F7558B50C5A
311
81A015AD312198B237521F6873A89EDE79999582C768D41665544A3767A357105DD5B3DDA94BB6D3EE19B37D47F0BEE918660D65EC95F52F3DAB7999CD82FBB0A63F6F4B52CF80BCBCE55C5E3E28C13F9C9B36412AA590B3D317888A9799F8533A2EEA1FA58D0D35DD163E1C1E044985EE440ACE174CE37EDE34F3B5C53750
311
4B01021400140006080800836B7857AD5E5353D9000000200100004F000000000000000000000000000000000035343545423532312D424546372D343135412D413034332D4232353841333146423946332F4173736574446174612F446566696E6974696F6E4974657261746F7250726F706572746965732E62696E504B01
311
021400140006080800836B78576B13CF9DEF0000003002000045000000000000000000000000004601000035343545423532312D424546372D343135412D413034332D4232353841333146423946332F4173736574446174612F496E7374616E636550726F706572746965732E62696E504B01021400140006080800836B78
311
5728BB58AF800100009E0500003D000000000000000000000000009802000035343545423532312D424546372D343135412D413034332D4232353841333146423946332F536368656D61732F436F6D6D6F6E536368656D612E786D6C504B01021400140006080800836B78572CCEBD668A040000E01200003E000000000000
311
000000000000007304000035343545423532312D424546372D343135412D413034332D4232353841333146423946332F536368656D61732F47656E65726963536368656D612E786D6C504B01021400140006080800836B78576180134D5F0100006B0300004500000000000000000000000000590900003534354542353231
311
2D424546372D343135412D413034332D4232353841333146423946332F536368656D61732F52656E6465724D6174657269616C536368656D612E786D6C504B01021400140006080800836B7857500E20A9510000005700000047000000000000000000000000001B0B000035343545423532312D424546372D343135412D41
311
3034332D4232353841333146423946332F4173736574446174612F41737365745461626C654F66436F6E74656E74732E62696E504B01021400140006080800836B7857F865834058000000680000004500000000000000000000000000D10B000035343545423532312D424546372D343135412D413034332D423235384133
311
3146423946332F4173736574446174612F53747265616D56657273696F6E5461626C652E696E66504B01021400140006080800836B785747CB5E32350100009A04000036000000000000000000000000008C0C000035343545423532312D424546372D343135412D413034332D4232353841333146423946332F4173736574
311
446174612F636E782E786D6C504B01021400140006080800836B7857A7609F39090100004F0300003400000000000000000000000000150E000035343545423532312D424546372D343135412D413034332D4232353841333146423946332F536368656D61732F636E782E786D6C504B01021400140006080800836B785741
311
0A3D5871000000A40000002C00000000000000000000000000700F000035343545423532312D424546372D343135412D413034332D4232353841333146423946332F636E782E786D6C504B01021400140006080800836B78577F84A37E7E000000A300000007000000000000000000000000002B100000636E782E786D6C50
311
4B01021400140006080800836B785716E99B5DA6000000350100001300000000000000000000000000CE1000005B436F6E74656E745F54797065735D2E786D6C504B01021400140006080800836B78573DEE336E64000000790000001B00000000000000000000000000A51100006175746F6465736B2D64657369676E2D70
311
61636B6167652E786D6C504B01021400140006080800836B785735B41B3CF80000009601000037000000000000000000000000004212000035343545423532312D424546372D343135412D413034332D4232353841333146423946332F4173736574446174612F636F72652E786D6C504B01021400140006080800836B7857
311
0B05ABCFF70000009401000035000000000000000000000000008F13000035343545423532312D424546372D343135412D413034332D4232353841333146423946332F536368656D61732F636F72652E786D6C504B01021400140006080800836B7857EA3B133100010000D70100002D00000000000000000000000000D914
311
000035343545423532312D424546372D343135412D413034332D4232353841333146423946332F636F72652E786D6C504B01021400140006080800836B7857AF6C7BF206010000B2010000080000000000000000000000000024160000636F72652E786D6C504B050600000000110011005A060000501700000000
310
504B0304140006080800836B7857000000000000000000000000370000006662782F39353842383431312D433636442D343937362D414335322D4531414534343331303132322F617474726962757465732E62696E504B0304140006080800836B7857000000000000000000000000350000006662782F3935384238343131
310
2D433636442D343937362D414335322D4531414534343331303132322F76657274696365732E62696E504B0304140006080800836B7857F270F1330600000004000000360000006662782F39353842383431312D433636442D343937362D414335322D4531414534343331303132322F747269616E676C65732E62696E6366
310
60600000504B0304140006080800836B785751464CB48900000043010000360000006662782F39353842383431312D433636442D343937362D414335322D4531414534343331303132322F6469726563746F72792E786D6C9D8F310EC2300C45AF127987122606C71DD918B841D4B851A43646695A717C52A85029031293A5
310
A76FBF6FACEF7DA7264E43906840EF0FA03836E242F406C6DCEE4EA06AC22492573150D1F66C60C640E8938CB705396EEDD86DE9B5042FE27813D640EA63BB001C722AF6E55CB61E4863F58284D5D3F53DD715CE1C3985E63FD7F1B7EBDD617E9F1E504B0304140006080800836B78573937B1BA39070000201C0000340000
310
006662782F39353842383431312D433636442D343937362D414335322D4531414534343331303132322F6F626A656374732E786D6CDD596D6FDB3610FE2B84F665FBA0375B76E2427111DB496114698B1A1DF64DA065DAE1A2379052E2ECD7EF4891B224CBB6D2B540B104481C863ADE3D77F7DCF1E4BFDFC7117A268CD334
310
B9315CCB311049C2744393DD8D51E45BF3DA40EFA7C867699AD7F61928C131B931C4B231F5772C2D32B5B4215B5C44EDD5FBD95F88872421060A23CCF98DC1C34712630B1779BA21FCC9DAE01C5BBBEDDE72AD726353EC8EE1ECB17554861949725015D61390A234709B7F8249F6D4B7C586C6B641BF6DC333DB6C69785351
310
9AF01C27E191562D39837E5A0D5D6F7137184DCC91E70D4D6F3C70CDD9FD6C61BA5743673E9ECF27B77713034DFD759A46950332926CC08BAFC6D4F56DF19FCA7C854297DE619A24245468766DD810259712DEC6A401AC2B4DAB39A4B4B5B630EC69FC896DBD4069A8D4405B1BA77FD7A3375DFF0D20F03E51CA381151CE73
310
06BE56D897F9E0F876B9DAF00BE528C63961144728A26B86193808B6960E6A8811D92244218199F4A29657D71502FB722E7569B92DA248E4AF31959916403E929C4BCDE83F841DB4AF9F063A81B5054DF26B656CFE9A8188896FCBC5F27FC381FA670924DA467807D102668A4DC3410BAFB9E082E5C2987EBC5FEF57821FBA
310
0FCF589A11968BC893C9ACF24E7BB0165A107C3D4029716DFAEE80CA5780FE13205FE9827CF01CA37B6FEF69DB194EF8366531780739C874E08783C4C7A34FBE5D3D3C45A8C195A73085B4FD419836CC689C5D8374EA3F43D0A76CA88C5B853882987EA089C873081414A5B0047CBF5DEF8DE912C81416E1291C81F5F0EDDB
310
E223825FA51CE09B9687BAE8B787A374C2B4F3ECE0AB0F10338C8695AB1A369EC277F443F0BD5DAC3EAE0AB6C521795089BD205B9AD01C8A69B7420DD01B29FF6DF94966E4913D8D5D219CB34B057174F865A5FC82A463401551874BD7C895070AE91E45382169C1D57A1751856994B260FD1A9439DC79D69F3A08CAC320BF
310
450474921954F790D14C80624C957915135A079C040FAA00DC954E0DD6387C12F0062130D6F7E801518B595B681167018ED32211F47D1CDE6DD3ACA123BF5C7732702683EBC9581BCBA5789D3D9A1A2AE5C53931CE4E1C326F784BB186965CE691076CD96541083D5391076986439A77C742CB0895A100F659953774BB2D38
310
907A272C2D8DADA13B424EED6775C879EDD521018DF18E045B2C2A5CE7790D802AE1DA824E647651CA394D08971DCA1173B550712C2082326EB5D48E20A43C88498EBF27FE64C96B851F23DB28805E2A17DDECE5E8D30AAAEA794AA2E8DCD22490F6BF061CC75954766997307007AD133A71154A8B239E21DE029C07CE86C8
310
A6FB92F48A1734BEBDA44FBE5BFC097818FEE9F0E82328B4DE50232F7BD6B546EE447C5D03A98C47EEF04A3BE21256FAA85CF42051015D53F81ABC10BA7BEC4768BDCEE124DA06348A8A3828EB414E6268C1705EB05EF93A1E3947CE57BCD04A88DA495B1A4183DC9B3465EFA1BB0FB04A361FA748B3760C184513B8A3F532
310
E4C88ACE1096BE90F75171EDBAECFDB74BFDCF7C59BFA73C91D797946D3A356DB611BA03D30D83A04B55E1AA389292A77E3DF9627971B98C83A785287E2B6F092A421879A66230216F409DF707FE82F3108874257F9B33C8880DD91C7A8A863835E630A670A896A6FBD4FA4D07C84E948F46E3B514841AC3B4010B9E7D101F
310
A2AF185C0D9D1FB755576397EB4B51D82C18AC1CF43823EBF387554B0AACF47EFA8BC088BCB424A8D5B968E4CE88FAB63CF4AB2D09CAA26FCB338FE78F45BC4E301595518405DE64EFDECBBBE48D0D17057BEE0C9CE17C71678EEE860BD3BB1ADC9BB3C5C233E7EEEC6EE079D757DEE8DA6684A7050B09B707B613E8DE294B
310
763A304AE8FADC2860AA70F9EAA7E3B9EDE0FFF18D224AD7F8542CFEAA178AAADD130D592B17FB5E283A897AFDB6EEDF3D22EAEE22F6A6CEB99C15E8003F5FB6808C74BDEFDF5A68D1BA93E8D6B95611DF58784FDE567E7A8D69107A677D68ECE8A2FC2617C3ECA9A34AE9DBADE4B5C9627C351E3A9E09CDDABDE9CD3CCF9C
310
DDC234F6F676ECCEAF2693D97CB1A81057B5B06F5DF92538542B5B1BA3C13498A71185A13CD9A01D49E1060453871EFCCA62C2E5CD061A0055C6F51B811E4F3F9733D51CAF23FD74F88861301DA98A5C843014855BC78DA1D6D16F3006159348399CB29EA0F0A8683750C1E88D01219053A82FD61AC659727828A5B7C695E0
310
369CECC49DA97CAAFAFBF098400762E56057B5A70F2ECAB24674C2702093EF0980ED7443F2FDA66B7510CEE1E3BAC82B630E0B076B1408FA8540691C4CFD9E14BC7B209EF376B996DCD380A4D764FE6C1C9452CD1CB39D1CAFD7F0BE5D7CB1C5647CF9196551B113EE3C57EF1B924CD16744453984F2213094991916F7F0F9
310
3BFB0B4BE115538CEE290401FA7D7F3DFEC39EA7719C26E5927DAB5E54A1D523BC76DAD87AE4078D8BE38E6CD9F7A8B13ECCAD38B1F0863FC102B89651311B2D216E0440454FB500D01E11BE80C71AFB970BA48A40AD85ADB7AE021E39D3479048E25D8E489BFA86DA00127201B42AE7B4D507BDE0DB0C86E0D37F01504B03
310
04140006080800836B78576A19FB6B3E01000046050000300000006662782F39353842383431312D433636442D343937362D414335322D4531414534343331303132322F636E782E786D6CCD94CF4A033110C65F25E4BED93F1529259B82079FC08378CB66A76BDA6CB22413B16F6F52B755918A87427B0B936FE0FBCD7C0C
310
5FBF8F86BC810FDAD996D6ACA204AC72BDB6434B236E8A25256BC1BD73F84D46899523B43497A9E08377719A4B3D6C6434B96AB4DDCD4589E87517110225CAC8105A1AD42B8C92C988AE87B063BD44C96AE621B8E815A47ED423CCFDCA8344E8A968AA6651D475D1DC3DD58B55B35C55F72FBCCC4AC13BE7CCACD716C1BB89
310
28971E3699A97899BF058F5ECF9A4C40C59733D669CBCBF42F78486EED30EB703F65DD3419AD24A631954E2160914420475E7E8A052F33EF0FEAC787E7A303D26B0F0A9DDF5F6900F5B9019C8CB19484FFF11F847F63BB6E9B70AFB5EDB3B0B3AD8BA11ED31A525C7FEF3FA548DAC1DC5EE84FC62E9FF9744A50ABDB433EFA
310
BA107179387969E9F9028A0F504B0304140006080800836B785792AC5CE67E000000A30000000B0000006662782F636E782E786D6C4D8CD10E822018465F85FDF79410126E8033F3415CA263223492D6E307CD8BAEBEEDEC3B47B69FCDA1B7892F1BBC0272AA0019FF0893F58B82B4CF58006AB58C21EC7F37407EDC8C8282
310
41CB2586F43CD064E631B9429DF5EB019B5ADC042304F79CDF316BAE1C777D4DF140BA81B10BA908A5D9381725CFAF97B7E4F517504B0304140006080800836B7857A6D797065F0000008200000007000000636E782E786D6C4DCB3B0E80201045D1AD90E9FD7516806B51190811670C8A61F982B1B0BAC9C97B72CA7B1037
310
C6D3332918DA1E04D2CAC69353902EDB8C20262D23F3F59B81A079470595414B17391D1F19B4730A5583A7ED43BBE4025D9592775E5ADFFA01504B0304140006080800836B78574FEB6A7CA0000000F4000000130000005B436F6E74656E745F54797065735D2E786D6C7D8F4B0EC2300C44AF1279DFA6B0400835ED02B801
310
1730C16D239A8F121795DB93D02D6269CFBC19BBED573B8B17C564BC53B0AB1B10E4B47F18372A5878A88E20FAAEBDBD032591BD2E299898C349CAA427B2986A1FC86565F0D122E7318E32A07EE24872DF3407A9BD63725C71C980AEBDD080CBCCE2BAE6F5D69B7110E7CD57AA146008B3D1C8F92C5954F993BB1BF787F39A
310
89ABC491D09600F9FDA2FB00504B0304140006080800836B78573DEE336E64000000790000001B0000006175746F6465736B2D64657369676E2D7061636B6167652E786D6C35CBC10E83200C00D05F21DCA56CA76D41FC96062B120735B69A7DBE268BB7777961F8D5AF396893C2ADB70FE7ADA196782C2DF776D7A97B5933
310
C430F15651E5469C55D70F80A4992A3ADC954792C525AE70A1E4D6AD9816CC044FEFDF01FE3FDE907802504B0304140006080800836B7857CE2DC124F9000000960100003B0000006662782F39353842383431312D433636442D343937362D414335322D4531414534343331303132322F7265736F75726365732F636F7265
310
2E786D6C8550CB6E833010FC15E4BB011BA820328EA0255FD0536F96D9102BC1467E54FDFCDA814AEDA9A7B56667663DC3CE5FEB23FB04EB94D13D22798932D0D2CC4A2F3D0AFE8A5B949D39B3C6F85F349469B1428F128C385BAC09DB0149A33DE8846A33C3010AE7C0A34C3EE2A3474EDE6015B9083E32DC3DDF84BC8B05
310
7292EF3CCE4250F321557374535705167132BDD1EAF23AE0B1AA265C93B1C1437329F138345DD7B65337D5841549CC9957EBCF756941789811A725AD302198D6EFA43AD1F654BE7CB022313973DEC6CCC7D1940E710BCE042BC1B162DFFE710DDBFCBF6B50DA57F470DD152EE6889F7C2E382B524B713C2B8C3335CABF0150
310
4B0304140006080800836B7857EDEF7E5CF1000000B1010000310000006662782F39353842383431312D433636442D343937362D414335322D4531414534343331303132322F636F72652E786D6C8D50CB6EC32010FC156BEF60831DD78930519AE60F7AEA0D01715162B07854FDFC42EC4AED2DA745B333CCECB0E3F77CAF
310
BEB40FC6D911086EA0D2563A65EC34428A57344075E4CC3B17FFD0A0B262D6231418389BBC4BCB064967A3B605B54EE90D1421E80895BCE7C708417EEA5960916266841B5E84BC89496382571E67D1CCBF52E9B5885A01A70D6D11218876EFA43DD0E1D0F41FAC2E4CCE52326AB3322ABB9BABD11EF87E37BC0E5DD69CFBFE
310
0D75FB971E9DCE3B8A2EE474E9BA963484525617316721FA7CF3F649B9EE59F92AFC97392DEA89CCC6C6966E86AB22002739CF63C1595D0ACCE3D16E9EA56CFE03504B0304140006080800836B7857FB8A589E54010000DD0200000C0000006662782F636F72652E786D6C8D52CB6E833010FC15E43B0F03A948651C252DF9
310
829E7A738C43AD808D8C8DF2F95DF350CAA1698564ACD99DD99D91C9E1DEB5C128CC20B52A118E121408C5752D55532267AF6181820325466BFBA30D058A75A2441E46943446BB7E81B85656288F2A5D8B0564C3202C0A780B97120DFC4B742C62CE42C7708B7AC66FAC11118EE63E4A9C93F5429535A8C9AB1406515CBDA7
310
D9F9ED189EB2AC0A737CDA85C7DD39094FC7DD7E5F14D5BECA31893D99122BBB753A37825951239A266916621CA6F907CE5ED3E23579F924B1EFA464B0063C2F43BD3B44AF973B89677CA3E7FAFA6F3D2795CDD2456F660CE000D69B0A94C43E1FF84DE16D3384C1909F659776B570036814DC6A9343A5D6EE511A59EB0448
310
27C1F49178AE82F224F09B4EFA44E7B90604C55403AB310BD78BB37EFA76A75E9870B4F74069D3B1F6B1DCBCE2E37C0CDA585AE95CB7DAFC87BD5A5DC38CFDC3A4DF504B0304140006080800836B78574164772007010000B201000008000000636F72652E786D6C8D50C16E842014FC15C21D15D44637C8465BF70B7AEA8D
310
0A6BC92A18C04DFBF7859526EDADA74766E6BD19869E3FD705DCA575CAE80EE2AC8040EAC908A5E70EEEFE8A1A08CE8C5A63FC2F19049AAFB28311868CCED6EC5B8226A3BDD411D546C80472E7A487605AC2A3836EFA902BCFF8EE83C2DDB28D4F373ECB0C67878E51AFD69FD5C94AEEA5808C14A444182352BDE2F2449A53
310
F1F446F3A86474DF9548564A04777555D24286C717525E9E7B3494E5882A3CD4A8AF2F051AFABA6D9B666CC70AD33C2E33EABC0D7F4E47424E0F1CBF475F9A1F14A3EFC62C4910420960F4F2055941F348FC09BD6FE21FA195F62549078F0D173287400F2218C706C378D41B666C9B7D03504B01021400140006080800836B
310
78570000000000000000000000003700000000000000000000000000000000006662782F39353842383431312D433636442D343937362D414335322D4531414534343331303132322F617474726962757465732E62696E504B01021400140006080800836B7857000000000000000000000000350000000000000000000000
310
0000550000006662782F39353842383431312D433636442D343937362D414335322D4531414534343331303132322F76657274696365732E62696E504B01021400140006080800836B7857F270F13306000000040000003600000000000000000000000000A80000006662782F39353842383431312D433636442D34393736
310
2D414335322D4531414534343331303132322F747269616E676C65732E62696E504B01021400140006080800836B785751464CB489000000430100003600000000000000000000000000020100006662782F39353842383431312D433636442D343937362D414335322D4531414534343331303132322F6469726563746F72
310
792E786D6C504B01021400140006080800836B78573937B1BA39070000201C00003400000000000000000000000000DF0100006662782F39353842383431312D433636442D343937362D414335322D4531414534343331303132322F6F626A656374732E786D6C504B01021400140006080800836B78576A19FB6B3E010000
310
4605000030000000000000000000000000006A0900006662782F39353842383431312D433636442D343937362D414335322D4531414534343331303132322F636E782E786D6C504B01021400140006080800836B785792AC5CE67E000000A30000000B00000000000000000000000000F60A00006662782F636E782E786D6C
310
504B01021400140006080800836B7857A6D797065F0000008200000007000000000000000000000000009D0B0000636E782E786D6C504B01021400140006080800836B78574FEB6A7CA0000000F40000001300000000000000000000000000210C00005B436F6E74656E745F54797065735D2E786D6C504B01021400140006
310
080800836B78573DEE336E64000000790000001B00000000000000000000000000F20C00006175746F6465736B2D64657369676E2D7061636B6167652E786D6C504B01021400140006080800836B7857CE2DC124F9000000960100003B000000000000000000000000008F0D00006662782F39353842383431312D43363644
310
2D343937362D414335322D4531414534343331303132322F7265736F75726365732F636F72652E786D6C504B01021400140006080800836B7857EDEF7E5CF1000000B10100003100000000000000000000000000E10E00006662782F39353842383431312D433636442D343937362D414335322D4531414534343331303132
310
322F636F72652E786D6C504B01021400140006080800836B7857FB8A589E54010000DD0200000C00000000000000000000000000211000006662782F636F72652E786D6C504B01021400140006080800836B78574164772007010000B201000008000000000000000000000000009F110000636F72652E786D6C504B050600
310
0000000E000E0080040000CC1200000000
  0
XRECORD
  5
8372
102
{ACAD_REACTORS
330
836D
102
}
330
836D
100
AcDbXrecord
280
     1
270
     1
271
     1
  0
XRECORD
  5
8371
102
{ACAD_REACTORS
330
836D
102
}
330
836D
100
AcDbXrecord
280
     1
270
     1
271
     1
  0
XRECORD
  5
8373
102
{ACAD_REACTORS
330
836D
102
}
330
836D
100
AcDbXrecord
280
     1
270
     1
271
     1
  0
XRECORD
  5
8370
102
{ACAD_REACTORS
330
836D
102
}
330
836D
100
AcDbXrecord
280
     1
270
     1
271
     1
  0
XRECORD
  5
8733
102
{ACAD_REACTORS
330
8732
102
}
330
8732
100
AcDbXrecord
280
     1
102
DISPLAYNAME
  1
Imperial24
102
FLAGS
 90
        0
  0
CELLSTYLEMAP
  5
86FA
102
{ACAD_REACTORS
330
86F9
102
}
330
86F9
100
AcDbCellStyleMap
 90
        3
300
CELLSTYLE
  1
TABLEFORMAT_BEGIN
 90
        5
170
     1
 91
        0
 92
    32768
 62
   257
 93
        1
300
CONTENTFORMAT
  1
CONTENTFORMAT_BEGIN
 90
        0
 91
        0
 92
      512
 93
        0
300

 40
0.0
140
1.0
 94
        5
 62
     0
340
83A0
144
0.25
309
CONTENTFORMAT_END
171
     0
 94
        0
309
TABLEFORMAT_END
  1
CELLSTYLE_BEGIN
 90
        1
 91
        1
300
_TITLE
309
CELLSTYLE_END
300
CELLSTYLE
  1
TABLEFORMAT_BEGIN
 90
        5
170
     1
 91
        0
 92
        0
 62
   257
 93
        1
300
CONTENTFORMAT
  1
CONTENTFORMAT_BEGIN
 90
        0
 91
        0
 92
      512
 93
        0
300

 40
0.0
140
1.0
 94
        5
 62
     0
340
83A0
144
0.18
309
CONTENTFORMAT_END
171
     0
 94
        0
309
TABLEFORMAT_END
  1
CELLSTYLE_BEGIN
 90
        2
 91
        1
300
_HEADER
309
CELLSTYLE_END
300
CELLSTYLE
  1
TABLEFORMAT_BEGIN
 90
        5
170
     1
 91
        0
 92
        0
 62
   257
 93
        1
300
CONTENTFORMAT
  1
CONTENTFORMAT_BEGIN
 90
        0
 91
        0
 92
      512
 93
        0
300

 40
0.0
140
1.0
 94
        2
 62
     0
340
83A0
144
0.18
309
CONTENTFORMAT_END
171
     0
 94
        0
309
TABLEFORMAT_END
  1
CELLSTYLE_BEGIN
 90
        3
 91
        2
300
_DATA
309
CELLSTYLE_END
  0
XRECORD
  5
8730
102
{ACAD_REACTORS
330
86F9
102
}
330
86F9
100
AcDbXrecord
280
     1
102
ACAD_ROUNDTRIP_PRE2007_TABLESTYLE
 90
      512
 91
        0
  1

 92
      512
 93
        0
  2

 94
      512
 95
        0
  3

  0
XRECORD
  5
870B
102
{ACAD_REACTORS
330
870A
102
}
330
870A
100
AcDbXrecord
280
     1
102
RTVSPost2010Prop28
280
     1
102
RTVSPost2010PropOp28
 70
     1
102
RTVSPost2010Prop29
280
     1
102
RTVSPost2010PropOp29
 70
     1
102
RTVSPost2010Prop30
280
     0
102
RTVSPost2010PropOp30
 70
     1
102
RTVSPost2010Prop31
280
     0
102
RTVSPost2010PropOp31
 70
     1
102
RTVSPost2010Prop32
280
     0
102
RTVSPost2010PropOp32
 70
     1
102
RTVSPost2010Prop33
280
     0
102
RTVSPost2010PropOp33
 70
     1
102
RTVSPost2010Prop34
280
     0
102
RTVSPost2010PropOp34
 70
     1
102
RTVSPost2010Prop35
280
     0
102
RTVSPost2010PropOp35
 70
     1
102
RTVSPost2010Prop36
280
     0
102
RTVSPost2010PropOp36
 70
     1
102
RTVSPost2010Prop37
 90
       50
102
RTVSPost2010PropOp37
 70
     1
102
RTVSPost2010Prop38
140
0.0
102
RTVSPost2010PropOp38
 70
     1
102
RTVSPost2010Prop39
140
1.0
102
RTVSPost2010PropOp39
 70
     1
102
RTVSPost2010Prop40
 90
        0
102
RTVSPost2010PropOp40
 70
     1
102
RTVSPost2010Prop41ColorIndex
 90
       18
102
RTVSPost2010Prop41ColorRGB
 90
        0
102
RTVSPost2010PropOp41
 70
     1
102
RTVSPost2010Prop42
 90
       50
102
RTVSPost2010PropOp42
 70
     1
102
RTVSPost2010Prop43
 90
        3
102
RTVSPost2010PropOp43
 70
     1
102
RTVSPost2010Prop44ColorIndex
 90
        5
102
RTVSPost2010Prop44ColorRGB
 90
      255
102
RTVSPost2010PropOp44
 70
     1
102
RTVSPost2010Prop45
280
     0
102
RTVSPost2010PropOp45
 70
     1
102
RTVSPost2010Prop46
 90
       50
102
RTVSPost2010PropOp46
 70
     1
102
RTVSPost2010Prop47
 90
       50
102
RTVSPost2010PropOp47
 70
     1
102
RTVSPost2010Prop48
 90
       50
102
RTVSPost2010PropOp48
 70
     1
102
RTVSPost2010Prop49
280
     0
102
RTVSPost2010PropOp49
 70
     1
102
RTVSPost2010Prop50
 90
       50
102
RTVSPost2010PropOp50
 70
     1
102
RTVSPost2010Prop51ColorIndex
 90
      256
102
RTVSPost2010Prop51ColorRGB
 90
-16777216
102
RTVSPost2010PropOp51
 70
     0
102
RTVSPost2010Prop52
140
1.0
102
RTVSPost2010PropOp52
 70
     0
102
RTVSPost2010Prop53
 90
        2
102
RTVSPost2010PropOp53
 70
     1
102
RTVSPost2010Prop54
  1
strokes_ogs.tif
102
RTVSPost2010PropOp54
 70
     1
102
RTVSPost2010Prop55
280
     0
102
RTVSPost2010PropOp55
 70
     1
102
RTVSPost2010Prop56
140
1.0
102
RTVSPost2010PropOp56
 70
     1
102
RTVSPost2010Prop57
140
1.0
102
RTVSPost2010PropOp57
 70
     1
102
RTVSPropertyOp0
 70
     1
102
RTVSPropertyOp1
 70
     1
102
RTVSPropertyOp2
 70
     1
102
RTVSPropertyOp3
 70
     1
102
RTVSPropertyOp4
 70
     1
102
RTVSPropertyOp5
 70
     1
102
RTVSPropertyOp6
 70
     1
102
RTVSPropertyOp7
 70
     1
102
RTVSPropertyOp8
 70
     1
102
RTVSPropertyOp9
 70
     1
102
RTVSPropertyOp10
 70
     1
102
RTVSPropertyOp11
 70
     1
102
RTVSPropertyOp12
 70
     1
102
RTVSPropertyOp13
 70
     1
102
RTVSPropertyOp14
 70
     1
102
RTVSPropertyOp15
 70
     1
102
RTVSPropertyOp16
 70
     1
102
RTVSPropertyOp17
 70
     1
102
RTVSPropertyOp18
 70
     1
102
RTVSPropertyOp19
 70
     1
102
RTVSPropertyOp20
 70
     1
102
RTVSPropertyOp21
 70
     1
102
RTVSPropertyOp22
 70
     1
102
RTVSPropertyOp23
 70
     1
102
RTVSPropertyOp24
 70
     1
102
RTVSPropertyOp25
 70
     1
102
RTVSPropertyOp26
 70
     1
102
RTVSPropertyOp27
 70
     1
102
RTVSPropertyOp28
 70
     1
102
RTVSPropertyOp29
 70
     1
102
RTVSPropertyOp30
 70
     1
102
RTVSPropertyOp31
 70
     1
102
RTVSPropertyOp32
 70
     1
102
RTVSPropertyOp33
 70
     1
102
RTVSPropertyOp34
 70
     1
102
RTVSPropertyOp35
 70
     1
102
RTVSPropertyOp36
 70
     1
102
RTVSPropertyOp37
 70
     1
102
RTVSPropertyOp38
 70
     1
102
RTVSPropertyOp39
 70
     1
102
RTVSPropertyOp40
 70
     1
102
RTVSPropertyOp41
 70
     1
102
RTVSPropertyOp42
 70
     1
102
RTVSPropertyOp43
 70
     1
102
RTVSPropertyOp44
 70
     1
102
RTVSPropertyOp45
 70
     1
102
RTVSPropertyOp46
 70
     1
102
RTVSPropertyOp47
 70
     1
102
RTVSPropertyOp48
 70
     1
102
RTVSPropertyOp49
 70
     1
102
RTVSPropertyOp50
 70
     1
102
RTVSPropertyOp51
 70
     0
102
RTVSPropertyOp52
 70
     0
102
RTVSPropertyOp53
 70
     1
102
RTVSPropertyOp54
 70
     1
102
RTVSPropertyOp55
 70
     1
102
RTVSPropertyOp56
 70
     1
102
RTVSPropertyOp57
 70
     1
102
RTVSPropertyOp58
 70
     1
102
RTVSPropertyOp59
 70
     1
102
RTVSPropertyOp60
 70
     1
102
RTVSPropertyOp61
 70
     1
102
RTVSPropertyOp62
 70
     1
  0
XRECORD
  5
8709
102
{ACAD_REACTORS
330
8708
102
}
330
8708
100
AcDbXrecord
280
     1
102
RTVSPost2010Prop28
280
     0
102
RTVSPost2010PropOp28
 70
     1
102
RTVSPost2010Prop29
280
     1
102
RTVSPost2010PropOp29
 70
     1
102
RTVSPost2010Prop30
280
     1
102
RTVSPost2010PropOp30
 70
     1
102
RTVSPost2010Prop31
280
     0
102
RTVSPost2010PropOp31
 70
     1
102
RTVSPost2010Prop32
280
     0
102
RTVSPost2010PropOp32
 70
     1
102
RTVSPost2010Prop33
280
     0
102
RTVSPost2010PropOp33
 70
     1
102
RTVSPost2010Prop34
280
     0
102
RTVSPost2010PropOp34
 70
     1
102
RTVSPost2010Prop35
280
     0
102
RTVSPost2010PropOp35
 70
     1
102
RTVSPost2010Prop36
280
     0
102
RTVSPost2010PropOp36
 70
     1
102
RTVSPost2010Prop37
 90
       50
102
RTVSPost2010PropOp37
 70
     1
102
RTVSPost2010Prop38
140
0.0
102
RTVSPost2010PropOp38
 70
     1
102
RTVSPost2010Prop39
140
1.0
102
RTVSPost2010PropOp39
 70
     1
102
RTVSPost2010Prop40
 90
        0
102
RTVSPost2010PropOp40
 70
     1
102
RTVSPost2010Prop41ColorIndex
 90
       18
102
RTVSPost2010Prop41ColorRGB
 90
        0
102
RTVSPost2010PropOp41
 70
     1
102
RTVSPost2010Prop42
 90
       50
102
RTVSPost2010PropOp42
 70
     1
102
RTVSPost2010Prop43
 90
        3
102
RTVSPost2010PropOp43
 70
     1
102
RTVSPost2010Prop44ColorIndex
 90
        5
102
RTVSPost2010Prop44ColorRGB
 90
      255
102
RTVSPost2010PropOp44
 70
     1
102
RTVSPost2010Prop45
280
     0
102
RTVSPost2010PropOp45
 70
     1
102
RTVSPost2010Prop46
 90
       50
102
RTVSPost2010PropOp46
 70
     1
102
RTVSPost2010Prop47
 90
       50
102
RTVSPost2010PropOp47
 70
     1
102
RTVSPost2010Prop48
 90
       50
102
RTVSPost2010PropOp48
 70
     1
102
RTVSPost2010Prop49
280
     0
102
RTVSPost2010PropOp49
 70
     1
102
RTVSPost2010Prop50
 90
       50
102
RTVSPost2010PropOp50
 70
     1
102
RTVSPost2010Prop51ColorIndex
 90
      256
102
RTVSPost2010Prop51ColorRGB
 90
-16777216
102
RTVSPost2010PropOp51
 70
     0
102
RTVSPost2010Prop52
140
1.0
102
RTVSPost2010PropOp52
 70
     0
102
RTVSPost2010Prop53
 90
        2
102
RTVSPost2010PropOp53
 70
     1
102
RTVSPost2010Prop54
  1
strokes_ogs.tif
102
RTVSPost2010PropOp54
 70
     1
102
RTVSPost2010Prop55
280
     0
102
RTVSPost2010PropOp55
 70
     1
102
RTVSPost2010Prop56
140
1.0
102
RTVSPost2010PropOp56
 70
     1
102
RTVSPost2010Prop57
140
1.0
102
RTVSPost2010PropOp57
 70
     1
102
RTVSPropertyOp0
 70
     1
102
RTVSPropertyOp1
 70
     1
102
RTVSPropertyOp2
 70
     1
102
RTVSPropertyOp3
 70
     1
102
RTVSPropertyOp4
 70
     1
102
RTVSPropertyOp5
 70
     1
102
RTVSPropertyOp6
 70
     1
102
RTVSPropertyOp7
 70
     1
102
RTVSPropertyOp8
 70
     1
102
RTVSPropertyOp9
 70
     1
102
RTVSPropertyOp10
 70
     1
102
RTVSPropertyOp11
 70
     1
102
RTVSPropertyOp12
 70
     1
102
RTVSPropertyOp13
 70
     1
102
RTVSPropertyOp14
 70
     1
102
RTVSPropertyOp15
 70
     1
102
RTVSPropertyOp16
 70
     1
102
RTVSPropertyOp17
 70
     1
102
RTVSPropertyOp18
 70
     1
102
RTVSPropertyOp19
 70
     1
102
RTVSPropertyOp20
 70
     1
102
RTVSPropertyOp21
 70
     1
102
RTVSPropertyOp22
 70
     1
102
RTVSPropertyOp23
 70
     1
102
RTVSPropertyOp24
 70
     1
102
RTVSPropertyOp25
 70
     1
102
RTVSPropertyOp26
 70
     1
102
RTVSPropertyOp27
 70
     1
102
RTVSPropertyOp28
 70
     1
102
RTVSPropertyOp29
 70
     1
102
RTVSPropertyOp30
 70
     1
102
RTVSPropertyOp31
 70
     1
102
RTVSPropertyOp32
 70
     1
102
RTVSPropertyOp33
 70
     1
102
RTVSPropertyOp34
 70
     1
102
RTVSPropertyOp35
 70
     1
102
RTVSPropertyOp36
 70
     1
102
RTVSPropertyOp37
 70
     1
102
RTVSPropertyOp38
 70
     1
102
RTVSPropertyOp39
 70
     1
102
RTVSPropertyOp40
 70
     1
102
RTVSPropertyOp41
 70
     1
102
RTVSPropertyOp42
 70
     1
102
RTVSPropertyOp43
 70
     1
102
RTVSPropertyOp44
 70
     1
102
RTVSPropertyOp45
 70
     1
102
RTVSPropertyOp46
 70
     1
102
RTVSPropertyOp47
 70
     1
102
RTVSPropertyOp48
 70
     1
102
RTVSPropertyOp49
 70
     1
102
RTVSPropertyOp50
 70
     1
102
RTVSPropertyOp51
 70
     0
102
RTVSPropertyOp52
 70
     0
102
RTVSPropertyOp53
 70
     1
102
RTVSPropertyOp54
 70
     1
102
RTVSPropertyOp55
 70
     1
102
RTVSPropertyOp56
 70
     1
102
RTVSPropertyOp57
 70
     1
102
RTVSPropertyOp58
 70
     1
102
RTVSPropertyOp59
 70
     1
102
RTVSPropertyOp60
 70
     1
102
RTVSPropertyOp61
 70
     1
102
RTVSPropertyOp62
 70
     1
  0
XRECORD
  5
8717
102
{ACAD_REACTORS
330
8716
102
}
330
8716
100
AcDbXrecord
280
     1
102
RTVSPost2010Prop28
280
     0
102
RTVSPost2010PropOp28
 70
     1
102
RTVSPost2010Prop29
280
     1
102
RTVSPost2010PropOp29
 70
     1
102
RTVSPost2010Prop30
280
     1
102
RTVSPost2010PropOp30
 70
     1
102
RTVSPost2010Prop31
280
     0
102
RTVSPost2010PropOp31
 70
     1
102
RTVSPost2010Prop32
280
     0
102
RTVSPost2010PropOp32
 70
     1
102
RTVSPost2010Prop33
280
     0
102
RTVSPost2010PropOp33
 70
     1
102
RTVSPost2010Prop34
280
     0
102
RTVSPost2010PropOp34
 70
     1
102
RTVSPost2010Prop35
280
     0
102
RTVSPost2010PropOp35
 70
     1
102
RTVSPost2010Prop36
280
     0
102
RTVSPost2010PropOp36
 70
     1
102
RTVSPost2010Prop37
 90
       50
102
RTVSPost2010PropOp37
 70
     1
102
RTVSPost2010Prop38
140
0.0
102
RTVSPost2010PropOp38
 70
     1
102
RTVSPost2010Prop39
140
1.0
102
RTVSPost2010PropOp39
 70
     1
102
RTVSPost2010Prop40
 90
        0
102
RTVSPost2010PropOp40
 70
     1
102
RTVSPost2010Prop41ColorIndex
 90
       18
102
RTVSPost2010Prop41ColorRGB
 90
        0
102
RTVSPost2010PropOp41
 70
     1
102
RTVSPost2010Prop42
 90
       50
102
RTVSPost2010PropOp42
 70
     1
102
RTVSPost2010Prop43
 90
        3
102
RTVSPost2010PropOp43
 70
     1
102
RTVSPost2010Prop44ColorIndex
 90
        5
102
RTVSPost2010Prop44ColorRGB
 90
      255
102
RTVSPost2010PropOp44
 70
     1
102
RTVSPost2010Prop45
280
     0
102
RTVSPost2010PropOp45
 70
     1
102
RTVSPost2010Prop46
 90
       50
102
RTVSPost2010PropOp46
 70
     1
102
RTVSPost2010Prop47
 90
       50
102
RTVSPost2010PropOp47
 70
     1
102
RTVSPost2010Prop48
 90
       50
102
RTVSPost2010PropOp48
 70
     1
102
RTVSPost2010Prop49
280
     0
102
RTVSPost2010PropOp49
 70
     1
102
RTVSPost2010Prop50
 90
       50
102
RTVSPost2010PropOp50
 70
     1
102
RTVSPost2010Prop51ColorIndex
 90
      256
102
RTVSPost2010Prop51ColorRGB
 90
-16777216
102
RTVSPost2010PropOp51
 70
     0
102
RTVSPost2010Prop52
140
1.0
102
RTVSPost2010PropOp52
 70
     0
102
RTVSPost2010Prop53
 90
        2
102
RTVSPost2010PropOp53
 70
     1
102
RTVSPost2010Prop54
  1
strokes_ogs.tif
102
RTVSPost2010PropOp54
 70
     1
102
RTVSPost2010Prop55
280
     0
102
RTVSPost2010PropOp55
 70
     1
102
RTVSPost2010Prop56
140
1.0
102
RTVSPost2010PropOp56
 70
     1
102
RTVSPost2010Prop57
140
1.0
102
RTVSPost2010PropOp57
 70
     1
102
RTVSPropertyOp0
 70
     1
102
RTVSPropertyOp1
 70
     1
102
RTVSPropertyOp2
 70
     1
102
RTVSPropertyOp3
 70
     1
102
RTVSPropertyOp4
 70
     1
102
RTVSPropertyOp5
 70
     1
102
RTVSPropertyOp6
 70
     1
102
RTVSPropertyOp7
 70
     1
102
RTVSPropertyOp8
 70
     1
102
RTVSPropertyOp9
 70
     1
102
RTVSPropertyOp10
 70
     1
102
RTVSPropertyOp11
 70
     1
102
RTVSPropertyOp12
 70
     1
102
RTVSPropertyOp13
 70
     1
102
RTVSPropertyOp14
 70
     1
102
RTVSPropertyOp15
 70
     1
102
RTVSPropertyOp16
 70
     1
102
RTVSPropertyOp17
 70
     1
102
RTVSPropertyOp18
 70
     1
102
RTVSPropertyOp19
 70
     1
102
RTVSPropertyOp20
 70
     1
102
RTVSPropertyOp21
 70
     1
102
RTVSPropertyOp22
 70
     1
102
RTVSPropertyOp23
 70
     1
102
RTVSPropertyOp24
 70
     1
102
RTVSPropertyOp25
 70
     1
102
RTVSPropertyOp26
 70
     1
102
RTVSPropertyOp27
 70
     1
102
RTVSPropertyOp28
 70
     1
102
RTVSPropertyOp29
 70
     1
102
RTVSPropertyOp30
 70
     1
102
RTVSPropertyOp31
 70
     1
102
RTVSPropertyOp32
 70
     1
102
RTVSPropertyOp33
 70
     1
102
RTVSPropertyOp34
 70
     1
102
RTVSPropertyOp35
 70
     1
102
RTVSPropertyOp36
 70
     1
102
RTVSPropertyOp37
 70
     1
102
RTVSPropertyOp38
 70
     1
102
RTVSPropertyOp39
 70
     1
102
RTVSPropertyOp40
 70
     1
102
RTVSPropertyOp41
 70
     1
102
RTVSPropertyOp42
 70
     1
102
RTVSPropertyOp43
 70
     1
102
RTVSPropertyOp44
 70
     1
102
RTVSPropertyOp45
 70
     1
102
RTVSPropertyOp46
 70
     1
102
RTVSPropertyOp47
 70
     1
102
RTVSPropertyOp48
 70
     1
102
RTVSPropertyOp49
 70
     1
102
RTVSPropertyOp50
 70
     1
102
RTVSPropertyOp51
 70
     0
102
RTVSPropertyOp52
 70
     0
102
RTVSPropertyOp53
 70
     1
102
RTVSPropertyOp54
 70
     1
102
RTVSPropertyOp55
 70
     1
102
RTVSPropertyOp56
 70
     1
102
RTVSPropertyOp57
 70
     1
102
RTVSPropertyOp58
 70
     1
102
RTVSPropertyOp59
 70
     1
102
RTVSPropertyOp60
 70
     1
102
RTVSPropertyOp61
 70
     1
102
RTVSPropertyOp62
 70
     1
  0
XRECORD
  5
871F
102
{ACAD_REACTORS
330
871E
102
}
330
871E
100
AcDbXrecord
280
     1
102
RTVSPost2010Prop28
280
     0
102
RTVSPost2010PropOp28
 70
     1
102
RTVSPost2010Prop29
280
     1
102
RTVSPost2010PropOp29
 70
     1
102
RTVSPost2010Prop30
280
     1
102
RTVSPost2010PropOp30
 70
     1
102
RTVSPost2010Prop31
280
     0
102
RTVSPost2010PropOp31
 70
     1
102
RTVSPost2010Prop32
280
     0
102
RTVSPost2010PropOp32
 70
     1
102
RTVSPost2010Prop33
280
     0
102
RTVSPost2010PropOp33
 70
     1
102
RTVSPost2010Prop34
280
     0
102
RTVSPost2010PropOp34
 70
     1
102
RTVSPost2010Prop35
280
     0
102
RTVSPost2010PropOp35
 70
     1
102
RTVSPost2010Prop36
280
     0
102
RTVSPost2010PropOp36
 70
     1
102
RTVSPost2010Prop37
 90
       50
102
RTVSPost2010PropOp37
 70
     1
102
RTVSPost2010Prop38
140
0.0
102
RTVSPost2010PropOp38
 70
     1
102
RTVSPost2010Prop39
140
1.0
102
RTVSPost2010PropOp39
 70
     1
102
RTVSPost2010Prop40
 90
        0
102
RTVSPost2010PropOp40
 70
     1
102
RTVSPost2010Prop41ColorIndex
 90
       18
102
RTVSPost2010Prop41ColorRGB
 90
        0
102
RTVSPost2010PropOp41
 70
     1
102
RTVSPost2010Prop42
 90
       50
102
RTVSPost2010PropOp42
 70
     1
102
RTVSPost2010Prop43
 90
        3
102
RTVSPost2010PropOp43
 70
     1
102
RTVSPost2010Prop44ColorIndex
 90
        5
102
RTVSPost2010Prop44ColorRGB
 90
      255
102
RTVSPost2010PropOp44
 70
     1
102
RTVSPost2010Prop45
280
     0
102
RTVSPost2010PropOp45
 70
     1
102
RTVSPost2010Prop46
 90
       50
102
RTVSPost2010PropOp46
 70
     1
102
RTVSPost2010Prop47
 90
       50
102
RTVSPost2010PropOp47
 70
     1
102
RTVSPost2010Prop48
 90
       50
102
RTVSPost2010PropOp48
 70
     1
102
RTVSPost2010Prop49
280
     0
102
RTVSPost2010PropOp49
 70
     1
102
RTVSPost2010Prop50
 90
       50
102
RTVSPost2010PropOp50
 70
     1
102
RTVSPost2010Prop51ColorIndex
 90
      256
102
RTVSPost2010Prop51ColorRGB
 90
-16777216
102
RTVSPost2010PropOp51
 70
     0
102
RTVSPost2010Prop52
140
1.0
102
RTVSPost2010PropOp52
 70
     0
102
RTVSPost2010Prop53
 90
        2
102
RTVSPost2010PropOp53
 70
     1
102
RTVSPost2010Prop54
  1
strokes_ogs.tif
102
RTVSPost2010PropOp54
 70
     1
102
RTVSPost2010Prop55
280
     0
102
RTVSPost2010PropOp55
 70
     1
102
RTVSPost2010Prop56
140
1.0
102
RTVSPost2010PropOp56
 70
     1
102
RTVSPost2010Prop57
140
1.0
102
RTVSPost2010PropOp57
 70
     1
102
RTVSPropertyOp0
 70
     1
102
RTVSPropertyOp1
 70
     1
102
RTVSPropertyOp2
 70
     1
102
RTVSPropertyOp3
 70
     1
102
RTVSPropertyOp4
 70
     1
102
RTVSPropertyOp5
 70
     1
102
RTVSPropertyOp6
 70
     1
102
RTVSPropertyOp7
 70
     1
102
RTVSPropertyOp8
 70
     1
102
RTVSPropertyOp9
 70
     1
102
RTVSPropertyOp10
 70
     1
102
RTVSPropertyOp11
 70
     1
102
RTVSPropertyOp12
 70
     1
102
RTVSPropertyOp13
 70
     1
102
RTVSPropertyOp14
 70
     1
102
RTVSPropertyOp15
 70
     1
102
RTVSPropertyOp16
 70
     1
102
RTVSPropertyOp17
 70
     1
102
RTVSPropertyOp18
 70
     1
102
RTVSPropertyOp19
 70
     1
102
RTVSPropertyOp20
 70
     1
102
RTVSPropertyOp21
 70
     1
102
RTVSPropertyOp22
 70
     1
102
RTVSPropertyOp23
 70
     1
102
RTVSPropertyOp24
 70
     1
102
RTVSPropertyOp25
 70
     1
102
RTVSPropertyOp26
 70
     1
102
RTVSPropertyOp27
 70
     1
102
RTVSPropertyOp28
 70
     1
102
RTVSPropertyOp29
 70
     1
102
RTVSPropertyOp30
 70
     1
102
RTVSPropertyOp31
 70
     1
102
RTVSPropertyOp32
 70
     1
102
RTVSPropertyOp33
 70
     1
102
RTVSPropertyOp34
 70
     1
102
RTVSPropertyOp35
 70
     1
102
RTVSPropertyOp36
 70
     1
102
RTVSPropertyOp37
 70
     1
102
RTVSPropertyOp38
 70
     1
102
RTVSPropertyOp39
 70
     1
102
RTVSPropertyOp40
 70
     1
102
RTVSPropertyOp41
 70
     1
102
RTVSPropertyOp42
 70
     1
102
RTVSPropertyOp43
 70
     1
102
RTVSPropertyOp44
 70
     1
102
RTVSPropertyOp45
 70
     1
102
RTVSPropertyOp46
 70
     1
102
RTVSPropertyOp47
 70
     1
102
RTVSPropertyOp48
 70
     1
102
RTVSPropertyOp49
 70
     1
102
RTVSPropertyOp50
 70
     1
102
RTVSPropertyOp51
 70
     0
102
RTVSPropertyOp52
 70
     0
102
RTVSPropertyOp53
 70
     1
102
RTVSPropertyOp54
 70
     1
102
RTVSPropertyOp55
 70
     1
102
RTVSPropertyOp56
 70
     1
102
RTVSPropertyOp57
 70
     1
102
RTVSPropertyOp58
 70
     1
102
RTVSPropertyOp59
 70
     1
102
RTVSPropertyOp60
 70
     1
102
RTVSPropertyOp61
 70
     1
102
RTVSPropertyOp62
 70
     1
  0
XRECORD
  5
8711
102
{ACAD_REACTORS
330
8710
102
}
330
8710
100
AcDbXrecord
280
     1
102
RTVSPost2010Prop28
280
     0
102
RTVSPost2010PropOp28
 70
     1
102
RTVSPost2010Prop29
280
     1
102
RTVSPost2010PropOp29
 70
     1
102
RTVSPost2010Prop30
280
     1
102
RTVSPost2010PropOp30
 70
     1
102
RTVSPost2010Prop31
280
     0
102
RTVSPost2010PropOp31
 70
     1
102
RTVSPost2010Prop32
280
     0
102
RTVSPost2010PropOp32
 70
     1
102
RTVSPost2010Prop33
280
     0
102
RTVSPost2010PropOp33
 70
     1
102
RTVSPost2010Prop34
280
     0
102
RTVSPost2010PropOp34
 70
     1
102
RTVSPost2010Prop35
280
     0
102
RTVSPost2010PropOp35
 70
     1
102
RTVSPost2010Prop36
280
     0
102
RTVSPost2010PropOp36
 70
     1
102
RTVSPost2010Prop37
 90
       50
102
RTVSPost2010PropOp37
 70
     1
102
RTVSPost2010Prop38
140
0.0
102
RTVSPost2010PropOp38
 70
     1
102
RTVSPost2010Prop39
140
1.0
102
RTVSPost2010PropOp39
 70
     1
102
RTVSPost2010Prop40
 90
        0
102
RTVSPost2010PropOp40
 70
     1
102
RTVSPost2010Prop41ColorIndex
 90
       18
102
RTVSPost2010Prop41ColorRGB
 90
        0
102
RTVSPost2010PropOp41
 70
     1
102
RTVSPost2010Prop42
 90
       50
102
RTVSPost2010PropOp42
 70
     1
102
RTVSPost2010Prop43
 90
        3
102
RTVSPost2010PropOp43
 70
     1
102
RTVSPost2010Prop44ColorIndex
 90
        5
102
RTVSPost2010Prop44ColorRGB
 90
      255
102
RTVSPost2010PropOp44
 70
     1
102
RTVSPost2010Prop45
280
     0
102
RTVSPost2010PropOp45
 70
     1
102
RTVSPost2010Prop46
 90
       50
102
RTVSPost2010PropOp46
 70
     1
102
RTVSPost2010Prop47
 90
       50
102
RTVSPost2010PropOp47
 70
     1
102
RTVSPost2010Prop48
 90
       50
102
RTVSPost2010PropOp48
 70
     1
102
RTVSPost2010Prop49
280
     0
102
RTVSPost2010PropOp49
 70
     1
102
RTVSPost2010Prop50
 90
       50
102
RTVSPost2010PropOp50
 70
     1
102
RTVSPost2010Prop51ColorIndex
 90
      256
102
RTVSPost2010Prop51ColorRGB
 90
-16777216
102
RTVSPost2010PropOp51
 70
     0
102
RTVSPost2010Prop52
140
1.0
102
RTVSPost2010PropOp52
 70
     0
102
RTVSPost2010Prop53
 90
        2
102
RTVSPost2010PropOp53
 70
     1
102
RTVSPost2010Prop54
  1
strokes_ogs.tif
102
RTVSPost2010PropOp54
 70
     1
102
RTVSPost2010Prop55
280
     0
102
RTVSPost2010PropOp55
 70
     1
102
RTVSPost2010Prop56
140
1.0
102
RTVSPost2010PropOp56
 70
     1
102
RTVSPost2010Prop57
140
1.0
102
RTVSPost2010PropOp57
 70
     1
102
RTVSPropertyOp0
 70
     1
102
RTVSPropertyOp1
 70
     1
102
RTVSPropertyOp2
 70
     1
102
RTVSPropertyOp3
 70
     1
102
RTVSPropertyOp4
 70
     1
102
RTVSPropertyOp5
 70
     1
102
RTVSPropertyOp6
 70
     1
102
RTVSPropertyOp7
 70
     1
102
RTVSPropertyOp8
 70
     1
102
RTVSPropertyOp9
 70
     1
102
RTVSPropertyOp10
 70
     1
102
RTVSPropertyOp11
 70
     1
102
RTVSPropertyOp12
 70
     1
102
RTVSPropertyOp13
 70
     1
102
RTVSPropertyOp14
 70
     1
102
RTVSPropertyOp15
 70
     1
102
RTVSPropertyOp16
 70
     1
102
RTVSPropertyOp17
 70
     1
102
RTVSPropertyOp18
 70
     1
102
RTVSPropertyOp19
 70
     1
102
RTVSPropertyOp20
 70
     1
102
RTVSPropertyOp21
 70
     1
102
RTVSPropertyOp22
 70
     1
102
RTVSPropertyOp23
 70
     1
102
RTVSPropertyOp24
 70
     1
102
RTVSPropertyOp25
 70
     1
102
RTVSPropertyOp26
 70
     1
102
RTVSPropertyOp27
 70
     1
102
RTVSPropertyOp28
 70
     1
102
RTVSPropertyOp29
 70
     1
102
RTVSPropertyOp30
 70
     1
102
RTVSPropertyOp31
 70
     1
102
RTVSPropertyOp32
 70
     1
102
RTVSPropertyOp33
 70
     1
102
RTVSPropertyOp34
 70
     1
102
RTVSPropertyOp35
 70
     1
102
RTVSPropertyOp36
 70
     1
102
RTVSPropertyOp37
 70
     1
102
RTVSPropertyOp38
 70
     1
102
RTVSPropertyOp39
 70
     1
102
RTVSPropertyOp40
 70
     1
102
RTVSPropertyOp41
 70
     1
102
RTVSPropertyOp42
 70
     1
102
RTVSPropertyOp43
 70
     1
102
RTVSPropertyOp44
 70
     1
102
RTVSPropertyOp45
 70
     1
102
RTVSPropertyOp46
 70
     1
102
RTVSPropertyOp47
 70
     1
102
RTVSPropertyOp48
 70
     1
102
RTVSPropertyOp49
 70
     1
102
RTVSPropertyOp50
 70
     1
102
RTVSPropertyOp51
 70
     0
102
RTVSPropertyOp52
 70
     0
102
RTVSPropertyOp53
 70
     1
102
RTVSPropertyOp54
 70
     1
102
RTVSPropertyOp55
 70
     1
102
RTVSPropertyOp56
 70
     1
102
RTVSPropertyOp57
 70
     1
102
RTVSPropertyOp58
 70
     1
102
RTVSPropertyOp59
 70
     1
102
RTVSPropertyOp60
 70
     1
102
RTVSPropertyOp61
 70
     1
102
RTVSPropertyOp62
 70
     1
  0
XRECORD
  5
8715
102
{ACAD_REACTORS
330
8714
102
}
330
8714
100
AcDbXrecord
280
     1
102
RTVSPost2010Prop28
280
     0
102
RTVSPost2010PropOp28
 70
     1
102
RTVSPost2010Prop29
280
     1
102
RTVSPost2010PropOp29
 70
     1
102
RTVSPost2010Prop30
280
     1
102
RTVSPost2010PropOp30
 70
     1
102
RTVSPost2010Prop31
280
     0
102
RTVSPost2010PropOp31
 70
     1
102
RTVSPost2010Prop32
280
     0
102
RTVSPost2010PropOp32
 70
     1
102
RTVSPost2010Prop33
280
     0
102
RTVSPost2010PropOp33
 70
     1
102
RTVSPost2010Prop34
280
     0
102
RTVSPost2010PropOp34
 70
     1
102
RTVSPost2010Prop35
280
     0
102
RTVSPost2010PropOp35
 70
     1
102
RTVSPost2010Prop36
280
     0
102
RTVSPost2010PropOp36
 70
     1
102
RTVSPost2010Prop37
 90
       50
102
RTVSPost2010PropOp37
 70
     1
102
RTVSPost2010Prop38
140
0.0
102
RTVSPost2010PropOp38
 70
     1
102
RTVSPost2010Prop39
140
1.0
102
RTVSPost2010PropOp39
 70
     1
102
RTVSPost2010Prop40
 90
        0
102
RTVSPost2010PropOp40
 70
     1
102
RTVSPost2010Prop41ColorIndex
 90
       18
102
RTVSPost2010Prop41ColorRGB
 90
        0
102
RTVSPost2010PropOp41
 70
     1
102
RTVSPost2010Prop42
 90
       50
102
RTVSPost2010PropOp42
 70
     1
102
RTVSPost2010Prop43
 90
        3
102
RTVSPost2010PropOp43
 70
     1
102
RTVSPost2010Prop44ColorIndex
 90
        5
102
RTVSPost2010Prop44ColorRGB
 90
      255
102
RTVSPost2010PropOp44
 70
     1
102
RTVSPost2010Prop45
280
     0
102
RTVSPost2010PropOp45
 70
     1
102
RTVSPost2010Prop46
 90
       50
102
RTVSPost2010PropOp46
 70
     1
102
RTVSPost2010Prop47
 90
       50
102
RTVSPost2010PropOp47
 70
     1
102
RTVSPost2010Prop48
 90
       50
102
RTVSPost2010PropOp48
 70
     1
102
RTVSPost2010Prop49
280
     0
102
RTVSPost2010PropOp49
 70
     1
102
RTVSPost2010Prop50
 90
       50
102
RTVSPost2010PropOp50
 70
     1
102
RTVSPost2010Prop51ColorIndex
 90
      256
102
RTVSPost2010Prop51ColorRGB
 90
-16777216
102
RTVSPost2010PropOp51
 70
     0
102
RTVSPost2010Prop52
140
1.0
102
RTVSPost2010PropOp52
 70
     0
102
RTVSPost2010Prop53
 90
        2
102
RTVSPost2010PropOp53
 70
     1
102
RTVSPost2010Prop54
  1
strokes_ogs.tif
102
RTVSPost2010PropOp54
 70
     1
102
RTVSPost2010Prop55
280
     0
102
RTVSPost2010PropOp55
 70
     1
102
RTVSPost2010Prop56
140
1.0
102
RTVSPost2010PropOp56
 70
     1
102
RTVSPost2010Prop57
140
1.0
102
RTVSPost2010PropOp57
 70
     1
102
RTVSPropertyOp0
 70
     1
102
RTVSPropertyOp1
 70
     1
102
RTVSPropertyOp2
 70
     1
102
RTVSPropertyOp3
 70
     1
102
RTVSPropertyOp4
 70
     1
102
RTVSPropertyOp5
 70
     1
102
RTVSPropertyOp6
 70
     1
102
RTVSPropertyOp7
 70
     1
102
RTVSPropertyOp8
 70
     1
102
RTVSPropertyOp9
 70
     1
102
RTVSPropertyOp10
 70
     1
102
RTVSPropertyOp11
 70
     1
102
RTVSPropertyOp12
 70
     1
102
RTVSPropertyOp13
 70
     1
102
RTVSPropertyOp14
 70
     1
102
RTVSPropertyOp15
 70
     1
102
RTVSPropertyOp16
 70
     1
102
RTVSPropertyOp17
 70
     1
102
RTVSPropertyOp18
 70
     1
102
RTVSPropertyOp19
 70
     1
102
RTVSPropertyOp20
 70
     1
102
RTVSPropertyOp21
 70
     1
102
RTVSPropertyOp22
 70
     1
102
RTVSPropertyOp23
 70
     1
102
RTVSPropertyOp24
 70
     1
102
RTVSPropertyOp25
 70
     1
102
RTVSPropertyOp26
 70
     1
102
RTVSPropertyOp27
 70
     1
102
RTVSPropertyOp28
 70
     1
102
RTVSPropertyOp29
 70
     1
102
RTVSPropertyOp30
 70
     1
102
RTVSPropertyOp31
 70
     1
102
RTVSPropertyOp32
 70
     1
102
RTVSPropertyOp33
 70
     1
102
RTVSPropertyOp34
 70
     1
102
RTVSPropertyOp35
 70
     1
102
RTVSPropertyOp36
 70
     1
102
RTVSPropertyOp37
 70
     1
102
RTVSPropertyOp38
 70
     1
102
RTVSPropertyOp39
 70
     1
102
RTVSPropertyOp40
 70
     1
102
RTVSPropertyOp41
 70
     1
102
RTVSPropertyOp42
 70
     1
102
RTVSPropertyOp43
 70
     1
102
RTVSPropertyOp44
 70
     1
102
RTVSPropertyOp45
 70
     1
102
RTVSPropertyOp46
 70
     1
102
RTVSPropertyOp47
 70
     1
102
RTVSPropertyOp48
 70
     1
102
RTVSPropertyOp49
 70
     1
102
RTVSPropertyOp50
 70
     1
102
RTVSPropertyOp51
 70
     0
102
RTVSPropertyOp52
 70
     0
102
RTVSPropertyOp53
 70
     1
102
RTVSPropertyOp54
 70
     1
102
RTVSPropertyOp55
 70
     1
102
RTVSPropertyOp56
 70
     1
102
RTVSPropertyOp57
 70
     1
102
RTVSPropertyOp58
 70
     1
102
RTVSPropertyOp59
 70
     1
102
RTVSPropertyOp60
 70
     1
102
RTVSPropertyOp61
 70
     1
102
RTVSPropertyOp62
 70
     1
  0
XRECORD
  5
872F
102
{ACAD_REACTORS
330
872E
102
}
330
872E
100
AcDbXrecord
280
     1
102
RTVSPost2010Prop28
280
     0
102
RTVSPost2010PropOp28
 70
     1
102
RTVSPost2010Prop29
280
     1
102
RTVSPost2010PropOp29
 70
     1
102
RTVSPost2010Prop30
280
     1
102
RTVSPost2010PropOp30
 70
     1
102
RTVSPost2010Prop31
280
     0
102
RTVSPost2010PropOp31
 70
     1
102
RTVSPost2010Prop32
280
     0
102
RTVSPost2010PropOp32
 70
     1
102
RTVSPost2010Prop33
280
     0
102
RTVSPost2010PropOp33
 70
     1
102
RTVSPost2010Prop34
280
     0
102
RTVSPost2010PropOp34
 70
     1
102
RTVSPost2010Prop35
280
     0
102
RTVSPost2010PropOp35
 70
     1
102
RTVSPost2010Prop36
280
     0
102
RTVSPost2010PropOp36
 70
     1
102
RTVSPost2010Prop37
 90
       50
102
RTVSPost2010PropOp37
 70
     0
102
RTVSPost2010Prop38
140
0.0
102
RTVSPost2010PropOp38
 70
     0
102
RTVSPost2010Prop39
140
1.0
102
RTVSPost2010PropOp39
 70
     0
102
RTVSPost2010Prop40
 90
        0
102
RTVSPost2010PropOp40
 70
     0
102
RTVSPost2010Prop41ColorIndex
 90
       18
102
RTVSPost2010Prop41ColorRGB
 90
        0
102
RTVSPost2010PropOp41
 70
     0
102
RTVSPost2010Prop42
 90
       50
102
RTVSPost2010PropOp42
 70
     0
102
RTVSPost2010Prop43
 90
        3
102
RTVSPost2010PropOp43
 70
     0
102
RTVSPost2010Prop44ColorIndex
 90
        5
102
RTVSPost2010Prop44ColorRGB
 90
      255
102
RTVSPost2010PropOp44
 70
     0
102
RTVSPost2010Prop45
280
     0
102
RTVSPost2010PropOp45
 70
     1
102
RTVSPost2010Prop46
 90
       50
102
RTVSPost2010PropOp46
 70
     0
102
RTVSPost2010Prop47
 90
       50
102
RTVSPost2010PropOp47
 70
     0
102
RTVSPost2010Prop48
 90
       50
102
RTVSPost2010PropOp48
 70
     0
102
RTVSPost2010Prop49
280
     0
102
RTVSPost2010PropOp49
 70
     1
102
RTVSPost2010Prop50
 90
       50
102
RTVSPost2010PropOp50
 70
     0
102
RTVSPost2010Prop51ColorIndex
 90
      256
102
RTVSPost2010Prop51ColorRGB
 90
-16777216
102
RTVSPost2010PropOp51
 70
     0
102
RTVSPost2010Prop52
140
1.0
102
RTVSPost2010PropOp52
 70
     0
102
RTVSPost2010Prop53
 90
        2
102
RTVSPost2010PropOp53
 70
     0
102
RTVSPost2010Prop54
  1
strokes_ogs.tif
102
RTVSPost2010PropOp54
 70
     0
102
RTVSPost2010Prop55
280
     0
102
RTVSPost2010PropOp55
 70
     1
102
RTVSPost2010Prop56
140
1.0
102
RTVSPost2010PropOp56
 70
     0
102
RTVSPost2010Prop57
140
1.0
102
RTVSPost2010PropOp57
 70
     0
102
RTVSPropertyOp0
 70
     0
102
RTVSPropertyOp1
 70
     0
102
RTVSPropertyOp2
 70
     0
102
RTVSPropertyOp3
 70
     0
102
RTVSPropertyOp4
 70
     0
102
RTVSPropertyOp5
 70
     0
102
RTVSPropertyOp6
 70
     0
102
RTVSPropertyOp7
 70
     0
102
RTVSPropertyOp8
 70
     0
102
RTVSPropertyOp9
 70
     0
102
RTVSPropertyOp10
 70
     0
102
RTVSPropertyOp11
 70
     0
102
RTVSPropertyOp12
 70
     0
102
RTVSPropertyOp13
 70
     0
102
RTVSPropertyOp14
 70
     2
102
RTVSPropertyOp15
 70
     0
102
RTVSPropertyOp16
 70
     0
102
RTVSPropertyOp17
 70
     0
102
RTVSPropertyOp18
 70
     0
102
RTVSPropertyOp19
 70
     0
102
RTVSPropertyOp20
 70
     0
102
RTVSPropertyOp21
 70
     0
102
RTVSPropertyOp22
 70
     0
102
RTVSPropertyOp23
 70
     0
102
RTVSPropertyOp24
 70
     0
102
RTVSPropertyOp25
 70
     0
102
RTVSPropertyOp26
 70
     0
102
RTVSPropertyOp27
 70
     0
102
RTVSPropertyOp28
 70
     1
102
RTVSPropertyOp29
 70
     1
102
RTVSPropertyOp30
 70
     1
102
RTVSPropertyOp31
 70
     1
102
RTVSPropertyOp32
 70
     1
102
RTVSPropertyOp33
 70
     1
102
RTVSPropertyOp34
 70
     1
102
RTVSPropertyOp35
 70
     1
102
RTVSPropertyOp36
 70
     1
102
RTVSPropertyOp37
 70
     0
102
RTVSPropertyOp38
 70
     0
102
RTVSPropertyOp39
 70
     0
102
RTVSPropertyOp40
 70
     0
102
RTVSPropertyOp41
 70
     0
102
RTVSPropertyOp42
 70
     0
102
RTVSPropertyOp43
 70
     0
102
RTVSPropertyOp44
 70
     0
102
RTVSPropertyOp45
 70
     1
102
RTVSPropertyOp46
 70
     0
102
RTVSPropertyOp47
 70
     0
102
RTVSPropertyOp48
 70
     0
102
RTVSPropertyOp49
 70
     1
102
RTVSPropertyOp50
 70
     0
102
RTVSPropertyOp51
 70
     0
102
RTVSPropertyOp52
 70
     0
102
RTVSPropertyOp53
 70
     0
102
RTVSPropertyOp54
 70
     0
102
RTVSPropertyOp55
 70
     1
102
RTVSPropertyOp56
 70
     0
102
RTVSPropertyOp57
 70
     0
102
RTVSPropertyOp58
 70
     0
102
RTVSPropertyOp59
 70
     0
102
RTVSPropertyOp60
 70
     0
102
RTVSPropertyOp61
 70
     0
102
RTVSPropertyOp62
 70
     0
  0
XRECORD
  5
871D
102
{ACAD_REACTORS
330
871C
102
}
330
871C
100
AcDbXrecord
280
     1
102
RTVSPost2010Prop28
280
     0
102
RTVSPost2010PropOp28
 70
     1
102
RTVSPost2010Prop29
280
     1
102
RTVSPost2010PropOp29
 70
     1
102
RTVSPost2010Prop30
280
     1
102
RTVSPost2010PropOp30
 70
     1
102
RTVSPost2010Prop31
280
     0
102
RTVSPost2010PropOp31
 70
     1
102
RTVSPost2010Prop32
280
     0
102
RTVSPost2010PropOp32
 70
     1
102
RTVSPost2010Prop33
280
     0
102
RTVSPost2010PropOp33
 70
     1
102
RTVSPost2010Prop34
280
     0
102
RTVSPost2010PropOp34
 70
     1
102
RTVSPost2010Prop35
280
     0
102
RTVSPost2010PropOp35
 70
     1
102
RTVSPost2010Prop36
280
     0
102
RTVSPost2010PropOp36
 70
     1
102
RTVSPost2010Prop37
 90
       50
102
RTVSPost2010PropOp37
 70
     1
102
RTVSPost2010Prop38
140
0.0
102
RTVSPost2010PropOp38
 70
     1
102
RTVSPost2010Prop39
140
1.0
102
RTVSPost2010PropOp39
 70
     1
102
RTVSPost2010Prop40
 90
        0
102
RTVSPost2010PropOp40
 70
     1
102
RTVSPost2010Prop41ColorIndex
 90
       18
102
RTVSPost2010Prop41ColorRGB
 90
        0
102
RTVSPost2010PropOp41
 70
     1
102
RTVSPost2010Prop42
 90
       50
102
RTVSPost2010PropOp42
 70
     1
102
RTVSPost2010Prop43
 90
        3
102
RTVSPost2010PropOp43
 70
     1
102
RTVSPost2010Prop44ColorIndex
 90
        5
102
RTVSPost2010Prop44ColorRGB
 90
      255
102
RTVSPost2010PropOp44
 70
     1
102
RTVSPost2010Prop45
280
     0
102
RTVSPost2010PropOp45
 70
     1
102
RTVSPost2010Prop46
 90
       50
102
RTVSPost2010PropOp46
 70
     1
102
RTVSPost2010Prop47
 90
       50
102
RTVSPost2010PropOp47
 70
     1
102
RTVSPost2010Prop48
 90
       50
102
RTVSPost2010PropOp48
 70
     1
102
RTVSPost2010Prop49
280
     0
102
RTVSPost2010PropOp49
 70
     1
102
RTVSPost2010Prop50
 90
       50
102
RTVSPost2010PropOp50
 70
     1
102
RTVSPost2010Prop51ColorIndex
 90
      256
102
RTVSPost2010Prop51ColorRGB
 90
-16777216
102
RTVSPost2010PropOp51
 70
     0
102
RTVSPost2010Prop52
140
1.0
102
RTVSPost2010PropOp52
 70
     0
102
RTVSPost2010Prop53
 90
        2
102
RTVSPost2010PropOp53
 70
     1
102
RTVSPost2010Prop54
  1
strokes_ogs.tif
102
RTVSPost2010PropOp54
 70
     1
102
RTVSPost2010Prop55
280
     0
102
RTVSPost2010PropOp55
 70
     1
102
RTVSPost2010Prop56
140
1.0
102
RTVSPost2010PropOp56
 70
     1
102
RTVSPost2010Prop57
140
1.0
102
RTVSPost2010PropOp57
 70
     1
102
RTVSPropertyOp0
 70
     1
102
RTVSPropertyOp1
 70
     1
102
RTVSPropertyOp2
 70
     1
102
RTVSPropertyOp3
 70
     1
102
RTVSPropertyOp4
 70
     1
102
RTVSPropertyOp5
 70
     1
102
RTVSPropertyOp6
 70
     1
102
RTVSPropertyOp7
 70
     1
102
RTVSPropertyOp8
 70
     1
102
RTVSPropertyOp9
 70
     1
102
RTVSPropertyOp10
 70
     1
102
RTVSPropertyOp11
 70
     1
102
RTVSPropertyOp12
 70
     1
102
RTVSPropertyOp13
 70
     1
102
RTVSPropertyOp14
 70
     1
102
RTVSPropertyOp15
 70
     1
102
RTVSPropertyOp16
 70
     1
102
RTVSPropertyOp17
 70
     1
102
RTVSPropertyOp18
 70
     1
102
RTVSPropertyOp19
 70
     1
102
RTVSPropertyOp20
 70
     1
102
RTVSPropertyOp21
 70
     1
102
RTVSPropertyOp22
 70
     1
102
RTVSPropertyOp23
 70
     1
102
RTVSPropertyOp24
 70
     1
102
RTVSPropertyOp25
 70
     1
102
RTVSPropertyOp26
 70
     1
102
RTVSPropertyOp27
 70
     1
102
RTVSPropertyOp28
 70
     1
102
RTVSPropertyOp29
 70
     1
102
RTVSPropertyOp30
 70
     1
102
RTVSPropertyOp31
 70
     1
102
RTVSPropertyOp32
 70
     1
102
RTVSPropertyOp33
 70
     1
102
RTVSPropertyOp34
 70
     1
102
RTVSPropertyOp35
 70
     1
102
RTVSPropertyOp36
 70
     1
102
RTVSPropertyOp37
 70
     1
102
RTVSPropertyOp38
 70
     1
102
RTVSPropertyOp39
 70
     1
102
RTVSPropertyOp40
 70
     1
102
RTVSPropertyOp41
 70
     1
102
RTVSPropertyOp42
 70
     1
102
RTVSPropertyOp43
 70
     1
102
RTVSPropertyOp44
 70
     1
102
RTVSPropertyOp45
 70
     1
102
RTVSPropertyOp46
 70
     1
102
RTVSPropertyOp47
 70
     1
102
RTVSPropertyOp48
 70
     1
102
RTVSPropertyOp49
 70
     1
102
RTVSPropertyOp50
 70
     1
102
RTVSPropertyOp51
 70
     0
102
RTVSPropertyOp52
 70
     0
102
RTVSPropertyOp53
 70
     1
102
RTVSPropertyOp54
 70
     1
102
RTVSPropertyOp55
 70
     1
102
RTVSPropertyOp56
 70
     1
102
RTVSPropertyOp57
 70
     1
102
RTVSPropertyOp58
 70
     1
102
RTVSPropertyOp59
 70
     1
102
RTVSPropertyOp60
 70
     1
102
RTVSPropertyOp61
 70
     1
102
RTVSPropertyOp62
 70
     1
  0
XRECORD
  5
8701
102
{ACAD_REACTORS
330
8700
102
}
330
8700
100
AcDbXrecord
280
     1
102
RTVSPost2010Prop28
280
     0
102
RTVSPost2010PropOp28
 70
     1
102
RTVSPost2010Prop29
280
     1
102
RTVSPost2010PropOp29
 70
     1
102
RTVSPost2010Prop30
280
     1
102
RTVSPost2010PropOp30
 70
     1
102
RTVSPost2010Prop31
280
     0
102
RTVSPost2010PropOp31
 70
     1
102
RTVSPost2010Prop32
280
     0
102
RTVSPost2010PropOp32
 70
     1
102
RTVSPost2010Prop33
280
     0
102
RTVSPost2010PropOp33
 70
     1
102
RTVSPost2010Prop34
280
     0
102
RTVSPost2010PropOp34
 70
     1
102
RTVSPost2010Prop35
280
     0
102
RTVSPost2010PropOp35
 70
     1
102
RTVSPost2010Prop36
280
     0
102
RTVSPost2010PropOp36
 70
     1
102
RTVSPost2010Prop37
 90
       50
102
RTVSPost2010PropOp37
 70
     1
102
RTVSPost2010Prop38
140
0.0
102
RTVSPost2010PropOp38
 70
     1
102
RTVSPost2010Prop39
140
1.0
102
RTVSPost2010PropOp39
 70
     1
102
RTVSPost2010Prop40
 90
        0
102
RTVSPost2010PropOp40
 70
     1
102
RTVSPost2010Prop41ColorIndex
 90
       18
102
RTVSPost2010Prop41ColorRGB
 90
        0
102
RTVSPost2010PropOp41
 70
     1
102
RTVSPost2010Prop42
 90
       50
102
RTVSPost2010PropOp42
 70
     1
102
RTVSPost2010Prop43
 90
        3
102
RTVSPost2010PropOp43
 70
     1
102
RTVSPost2010Prop44ColorIndex
 90
        5
102
RTVSPost2010Prop44ColorRGB
 90
      255
102
RTVSPost2010PropOp44
 70
     1
102
RTVSPost2010Prop45
280
     0
102
RTVSPost2010PropOp45
 70
     1
102
RTVSPost2010Prop46
 90
       50
102
RTVSPost2010PropOp46
 70
     1
102
RTVSPost2010Prop47
 90
       50
102
RTVSPost2010PropOp47
 70
     1
102
RTVSPost2010Prop48
 90
       50
102
RTVSPost2010PropOp48
 70
     1
102
RTVSPost2010Prop49
280
     0
102
RTVSPost2010PropOp49
 70
     1
102
RTVSPost2010Prop50
 90
       50
102
RTVSPost2010PropOp50
 70
     1
102
RTVSPost2010Prop51ColorIndex
 90
      256
102
RTVSPost2010Prop51ColorRGB
 90
-16777216
102
RTVSPost2010PropOp51
 70
     0
102
RTVSPost2010Prop52
140
1.0
102
RTVSPost2010PropOp52
 70
     0
102
RTVSPost2010Prop53
 90
        2
102
RTVSPost2010PropOp53
 70
     1
102
RTVSPost2010Prop54
  1
strokes_ogs.tif
102
RTVSPost2010PropOp54
 70
     1
102
RTVSPost2010Prop55
280
     0
102
RTVSPost2010PropOp55
 70
     1
102
RTVSPost2010Prop56
140
1.0
102
RTVSPost2010PropOp56
 70
     1
102
RTVSPost2010Prop57
140
1.0
102
RTVSPost2010PropOp57
 70
     1
102
RTVSPropertyOp0
 70
     1
102
RTVSPropertyOp1
 70
     1
102
RTVSPropertyOp2
 70
     1
102
RTVSPropertyOp3
 70
     1
102
RTVSPropertyOp4
 70
     1
102
RTVSPropertyOp5
 70
     1
102
RTVSPropertyOp6
 70
     1
102
RTVSPropertyOp7
 70
     1
102
RTVSPropertyOp8
 70
     1
102
RTVSPropertyOp9
 70
     1
102
RTVSPropertyOp10
 70
     1
102
RTVSPropertyOp11
 70
     1
102
RTVSPropertyOp12
 70
     1
102
RTVSPropertyOp13
 70
     1
102
RTVSPropertyOp14
 70
     1
102
RTVSPropertyOp15
 70
     1
102
RTVSPropertyOp16
 70
     1
102
RTVSPropertyOp17
 70
     1
102
RTVSPropertyOp18
 70
     1
102
RTVSPropertyOp19
 70
     1
102
RTVSPropertyOp20
 70
     1
102
RTVSPropertyOp21
 70
     1
102
RTVSPropertyOp22
 70
     1
102
RTVSPropertyOp23
 70
     1
102
RTVSPropertyOp24
 70
     1
102
RTVSPropertyOp25
 70
     1
102
RTVSPropertyOp26
 70
     1
102
RTVSPropertyOp27
 70
     1
102
RTVSPropertyOp28
 70
     1
102
RTVSPropertyOp29
 70
     1
102
RTVSPropertyOp30
 70
     1
102
RTVSPropertyOp31
 70
     1
102
RTVSPropertyOp32
 70
     1
102
RTVSPropertyOp33
 70
     1
102
RTVSPropertyOp34
 70
     1
102
RTVSPropertyOp35
 70
     1
102
RTVSPropertyOp36
 70
     1
102
RTVSPropertyOp37
 70
     1
102
RTVSPropertyOp38
 70
     1
102
RTVSPropertyOp39
 70
     1
102
RTVSPropertyOp40
 70
     1
102
RTVSPropertyOp41
 70
     1
102
RTVSPropertyOp42
 70
     1
102
RTVSPropertyOp43
 70
     1
102
RTVSPropertyOp44
 70
     1
102
RTVSPropertyOp45
 70
     1
102
RTVSPropertyOp46
 70
     1
102
RTVSPropertyOp47
 70
     1
102
RTVSPropertyOp48
 70
     1
102
RTVSPropertyOp49
 70
     1
102
RTVSPropertyOp50
 70
     1
102
RTVSPropertyOp51
 70
     0
102
RTVSPropertyOp52
 70
     0
102
RTVSPropertyOp53
 70
     1
102
RTVSPropertyOp54
 70
     1
102
RTVSPropertyOp55
 70
     1
102
RTVSPropertyOp56
 70
     1
102
RTVSPropertyOp57
 70
     1
102
RTVSPropertyOp58
 70
     1
102
RTVSPropertyOp59
 70
     1
102
RTVSPropertyOp60
 70
     1
102
RTVSPropertyOp61
 70
     1
102
RTVSPropertyOp62
 70
     1
  0
XRECORD
  5
8703
102
{ACAD_REACTORS
330
8702
102
}
330
8702
100
AcDbXrecord
280
     1
102
RTVSPost2010Prop28
280
     0
102
RTVSPost2010PropOp28
 70
     1
102
RTVSPost2010Prop29
280
     1
102
RTVSPost2010PropOp29
 70
     1
102
RTVSPost2010Prop30
280
     1
102
RTVSPost2010PropOp30
 70
     1
102
RTVSPost2010Prop31
280
     0
102
RTVSPost2010PropOp31
 70
     1
102
RTVSPost2010Prop32
280
     0
102
RTVSPost2010PropOp32
 70
     1
102
RTVSPost2010Prop33
280
     0
102
RTVSPost2010PropOp33
 70
     1
102
RTVSPost2010Prop34
280
     0
102
RTVSPost2010PropOp34
 70
     1
102
RTVSPost2010Prop35
280
     0
102
RTVSPost2010PropOp35
 70
     1
102
RTVSPost2010Prop36
280
     0
102
RTVSPost2010PropOp36
 70
     1
102
RTVSPost2010Prop37
 90
       50
102
RTVSPost2010PropOp37
 70
     1
102
RTVSPost2010Prop38
140
0.0
102
RTVSPost2010PropOp38
 70
     1
102
RTVSPost2010Prop39
140
1.0
102
RTVSPost2010PropOp39
 70
     1
102
RTVSPost2010Prop40
 90
        0
102
RTVSPost2010PropOp40
 70
     1
102
RTVSPost2010Prop41ColorIndex
 90
       18
102
RTVSPost2010Prop41ColorRGB
 90
        0
102
RTVSPost2010PropOp41
 70
     1
102
RTVSPost2010Prop42
 90
       50
102
RTVSPost2010PropOp42
 70
     1
102
RTVSPost2010Prop43
 90
        3
102
RTVSPost2010PropOp43
 70
     1
102
RTVSPost2010Prop44ColorIndex
 90
        5
102
RTVSPost2010Prop44ColorRGB
 90
      255
102
RTVSPost2010PropOp44
 70
     1
102
RTVSPost2010Prop45
280
     0
102
RTVSPost2010PropOp45
 70
     1
102
RTVSPost2010Prop46
 90
       50
102
RTVSPost2010PropOp46
 70
     1
102
RTVSPost2010Prop47
 90
       50
102
RTVSPost2010PropOp47
 70
     1
102
RTVSPost2010Prop48
 90
       50
102
RTVSPost2010PropOp48
 70
     1
102
RTVSPost2010Prop49
280
     0
102
RTVSPost2010PropOp49
 70
     1
102
RTVSPost2010Prop50
 90
       50
102
RTVSPost2010PropOp50
 70
     1
102
RTVSPost2010Prop51ColorIndex
 90
      256
102
RTVSPost2010Prop51ColorRGB
 90
-16777216
102
RTVSPost2010PropOp51
 70
     0
102
RTVSPost2010Prop52
140
1.0
102
RTVSPost2010PropOp52
 70
     0
102
RTVSPost2010Prop53
 90
        2
102
RTVSPost2010PropOp53
 70
     1
102
RTVSPost2010Prop54
  1
strokes_ogs.tif
102
RTVSPost2010PropOp54
 70
     1
102
RTVSPost2010Prop55
280
     0
102
RTVSPost2010PropOp55
 70
     1
102
RTVSPost2010Prop56
140
1.0
102
RTVSPost2010PropOp56
 70
     1
102
RTVSPost2010Prop57
140
1.0
102
RTVSPost2010PropOp57
 70
     1
102
RTVSPropertyOp0
 70
     1
102
RTVSPropertyOp1
 70
     1
102
RTVSPropertyOp2
 70
     1
102
RTVSPropertyOp3
 70
     1
102
RTVSPropertyOp4
 70
     1
102
RTVSPropertyOp5
 70
     1
102
RTVSPropertyOp6
 70
     1
102
RTVSPropertyOp7
 70
     1
102
RTVSPropertyOp8
 70
     1
102
RTVSPropertyOp9
 70
     1
102
RTVSPropertyOp10
 70
     1
102
RTVSPropertyOp11
 70
     1
102
RTVSPropertyOp12
 70
     1
102
RTVSPropertyOp13
 70
     1
102
RTVSPropertyOp14
 70
     1
102
RTVSPropertyOp15
 70
     1
102
RTVSPropertyOp16
 70
     1
102
RTVSPropertyOp17
 70
     1
102
RTVSPropertyOp18
 70
     1
102
RTVSPropertyOp19
 70
     1
102
RTVSPropertyOp20
 70
     1
102
RTVSPropertyOp21
 70
     1
102
RTVSPropertyOp22
 70
     1
102
RTVSPropertyOp23
 70
     1
102
RTVSPropertyOp24
 70
     1
102
RTVSPropertyOp25
 70
     1
102
RTVSPropertyOp26
 70
     1
102
RTVSPropertyOp27
 70
     1
102
RTVSPropertyOp28
 70
     1
102
RTVSPropertyOp29
 70
     1
102
RTVSPropertyOp30
 70
     1
102
RTVSPropertyOp31
 70
     1
102
RTVSPropertyOp32
 70
     1
102
RTVSPropertyOp33
 70
     1
102
RTVSPropertyOp34
 70
     1
102
RTVSPropertyOp35
 70
     1
102
RTVSPropertyOp36
 70
     1
102
RTVSPropertyOp37
 70
     1
102
RTVSPropertyOp38
 70
     1
102
RTVSPropertyOp39
 70
     1
102
RTVSPropertyOp40
 70
     1
102
RTVSPropertyOp41
 70
     1
102
RTVSPropertyOp42
 70
     1
102
RTVSPropertyOp43
 70
     1
102
RTVSPropertyOp44
 70
     1
102
RTVSPropertyOp45
 70
     1
102
RTVSPropertyOp46
 70
     1
102
RTVSPropertyOp47
 70
     1
102
RTVSPropertyOp48
 70
     1
102
RTVSPropertyOp49
 70
     1
102
RTVSPropertyOp50
 70
     1
102
RTVSPropertyOp51
 70
     0
102
RTVSPropertyOp52
 70
     0
102
RTVSPropertyOp53
 70
     1
102
RTVSPropertyOp54
 70
     1
102
RTVSPropertyOp55
 70
     1
102
RTVSPropertyOp56
 70
     1
102
RTVSPropertyOp57
 70
     1
102
RTVSPropertyOp58
 70
     1
102
RTVSPropertyOp59
 70
     1
102
RTVSPropertyOp60
 70
     1
102
RTVSPropertyOp61
 70
     1
102
RTVSPropertyOp62
 70
     1
  0
XRECORD
  5
8705
102
{ACAD_REACTORS
330
8704
102
}
330
8704
100
AcDbXrecord
280
     1
102
RTVSPost2010Prop28
280
     0
102
RTVSPost2010PropOp28
 70
     1
102
RTVSPost2010Prop29
280
     1
102
RTVSPost2010PropOp29
 70
     1
102
RTVSPost2010Prop30
280
     1
102
RTVSPost2010PropOp30
 70
     1
102
RTVSPost2010Prop31
280
     0
102
RTVSPost2010PropOp31
 70
     1
102
RTVSPost2010Prop32
280
     0
102
RTVSPost2010PropOp32
 70
     1
102
RTVSPost2010Prop33
280
     0
102
RTVSPost2010PropOp33
 70
     1
102
RTVSPost2010Prop34
280
     0
102
RTVSPost2010PropOp34
 70
     1
102
RTVSPost2010Prop35
280
     0
102
RTVSPost2010PropOp35
 70
     1
102
RTVSPost2010Prop36
280
     0
102
RTVSPost2010PropOp36
 70
     1
102
RTVSPost2010Prop37
 90
       50
102
RTVSPost2010PropOp37
 70
     1
102
RTVSPost2010Prop38
140
0.0
102
RTVSPost2010PropOp38
 70
     1
102
RTVSPost2010Prop39
140
1.0
102
RTVSPost2010PropOp39
 70
     1
102
RTVSPost2010Prop40
 90
        0
102
RTVSPost2010PropOp40
 70
     1
102
RTVSPost2010Prop41ColorIndex
 90
       18
102
RTVSPost2010Prop41ColorRGB
 90
        0
102
RTVSPost2010PropOp41
 70
     1
102
RTVSPost2010Prop42
 90
       50
102
RTVSPost2010PropOp42
 70
     1
102
RTVSPost2010Prop43
 90
        3
102
RTVSPost2010PropOp43
 70
     1
102
RTVSPost2010Prop44ColorIndex
 90
        5
102
RTVSPost2010Prop44ColorRGB
 90
      255
102
RTVSPost2010PropOp44
 70
     1
102
RTVSPost2010Prop45
280
     0
102
RTVSPost2010PropOp45
 70
     1
102
RTVSPost2010Prop46
 90
       50
102
RTVSPost2010PropOp46
 70
     1
102
RTVSPost2010Prop47
 90
       50
102
RTVSPost2010PropOp47
 70
     1
102
RTVSPost2010Prop48
 90
       50
102
RTVSPost2010PropOp48
 70
     1
102
RTVSPost2010Prop49
280
     0
102
RTVSPost2010PropOp49
 70
     1
102
RTVSPost2010Prop50
 90
       50
102
RTVSPost2010PropOp50
 70
     1
102
RTVSPost2010Prop51ColorIndex
 90
      256
102
RTVSPost2010Prop51ColorRGB
 90
-16777216
102
RTVSPost2010PropOp51
 70
     0
102
RTVSPost2010Prop52
140
1.0
102
RTVSPost2010PropOp52
 70
     0
102
RTVSPost2010Prop53
 90
        2
102
RTVSPost2010PropOp53
 70
     1
102
RTVSPost2010Prop54
  1
strokes_ogs.tif
102
RTVSPost2010PropOp54
 70
     1
102
RTVSPost2010Prop55
280
     0
102
RTVSPost2010PropOp55
 70
     1
102
RTVSPost2010Prop56
140
1.0
102
RTVSPost2010PropOp56
 70
     1
102
RTVSPost2010Prop57
140
1.0
102
RTVSPost2010PropOp57
 70
     1
102
RTVSPropertyOp0
 70
     1
102
RTVSPropertyOp1
 70
     1
102
RTVSPropertyOp2
 70
     1
102
RTVSPropertyOp3
 70
     1
102
RTVSPropertyOp4
 70
     1
102
RTVSPropertyOp5
 70
     1
102
RTVSPropertyOp6
 70
     1
102
RTVSPropertyOp7
 70
     1
102
RTVSPropertyOp8
 70
     1
102
RTVSPropertyOp9
 70
     1
102
RTVSPropertyOp10
 70
     1
102
RTVSPropertyOp11
 70
     1
102
RTVSPropertyOp12
 70
     1
102
RTVSPropertyOp13
 70
     1
102
RTVSPropertyOp14
 70
     1
102
RTVSPropertyOp15
 70
     1
102
RTVSPropertyOp16
 70
     1
102
RTVSPropertyOp17
 70
     1
102
RTVSPropertyOp18
 70
     1
102
RTVSPropertyOp19
 70
     1
102
RTVSPropertyOp20
 70
     1
102
RTVSPropertyOp21
 70
     1
102
RTVSPropertyOp22
 70
     1
102
RTVSPropertyOp23
 70
     1
102
RTVSPropertyOp24
 70
     1
102
RTVSPropertyOp25
 70
     1
102
RTVSPropertyOp26
 70
     1
102
RTVSPropertyOp27
 70
     1
102
RTVSPropertyOp28
 70
     1
102
RTVSPropertyOp29
 70
     1
102
RTVSPropertyOp30
 70
     1
102
RTVSPropertyOp31
 70
     1
102
RTVSPropertyOp32
 70
     1
102
RTVSPropertyOp33
 70
     1
102
RTVSPropertyOp34
 70
     1
102
RTVSPropertyOp35
 70
     1
102
RTVSPropertyOp36
 70
     1
102
RTVSPropertyOp37
 70
     1
102
RTVSPropertyOp38
 70
     1
102
RTVSPropertyOp39
 70
     1
102
RTVSPropertyOp40
 70
     1
102
RTVSPropertyOp41
 70
     1
102
RTVSPropertyOp42
 70
     1
102
RTVSPropertyOp43
 70
     1
102
RTVSPropertyOp44
 70
     1
102
RTVSPropertyOp45
 70
     1
102
RTVSPropertyOp46
 70
     1
102
RTVSPropertyOp47
 70
     1
102
RTVSPropertyOp48
 70
     1
102
RTVSPropertyOp49
 70
     1
102
RTVSPropertyOp50
 70
     1
102
RTVSPropertyOp51
 70
     0
102
RTVSPropertyOp52
 70
     0
102
RTVSPropertyOp53
 70
     1
102
RTVSPropertyOp54
 70
     1
102
RTVSPropertyOp55
 70
     1
102
RTVSPropertyOp56
 70
     1
102
RTVSPropertyOp57
 70
     1
102
RTVSPropertyOp58
 70
     1
102
RTVSPropertyOp59
 70
     1
102
RTVSPropertyOp60
 70
     1
102
RTVSPropertyOp61
 70
     1
102
RTVSPropertyOp62
 70
     1
  0
XRECORD
  5
8707
102
{ACAD_REACTORS
330
8706
102
}
330
8706
100
AcDbXrecord
280
     1
102
RTVSPost2010Prop28
280
     0
102
RTVSPost2010PropOp28
 70
     1
102
RTVSPost2010Prop29
280
     1
102
RTVSPost2010PropOp29
 70
     1
102
RTVSPost2010Prop30
280
     1
102
RTVSPost2010PropOp30
 70
     1
102
RTVSPost2010Prop31
280
     0
102
RTVSPost2010PropOp31
 70
     1
102
RTVSPost2010Prop32
280
     0
102
RTVSPost2010PropOp32
 70
     1
102
RTVSPost2010Prop33
280
     0
102
RTVSPost2010PropOp33
 70
     1
102
RTVSPost2010Prop34
280
     0
102
RTVSPost2010PropOp34
 70
     1
102
RTVSPost2010Prop35
280
     0
102
RTVSPost2010PropOp35
 70
     1
102
RTVSPost2010Prop36
280
     0
102
RTVSPost2010PropOp36
 70
     1
102
RTVSPost2010Prop37
 90
       50
102
RTVSPost2010PropOp37
 70
     1
102
RTVSPost2010Prop38
140
0.0
102
RTVSPost2010PropOp38
 70
     1
102
RTVSPost2010Prop39
140
1.0
102
RTVSPost2010PropOp39
 70
     1
102
RTVSPost2010Prop40
 90
        0
102
RTVSPost2010PropOp40
 70
     1
102
RTVSPost2010Prop41ColorIndex
 90
       18
102
RTVSPost2010Prop41ColorRGB
 90
        0
102
RTVSPost2010PropOp41
 70
     1
102
RTVSPost2010Prop42
 90
       50
102
RTVSPost2010PropOp42
 70
     1
102
RTVSPost2010Prop43
 90
        3
102
RTVSPost2010PropOp43
 70
     1
102
RTVSPost2010Prop44ColorIndex
 90
        5
102
RTVSPost2010Prop44ColorRGB
 90
      255
102
RTVSPost2010PropOp44
 70
     1
102
RTVSPost2010Prop45
280
     0
102
RTVSPost2010PropOp45
 70
     1
102
RTVSPost2010Prop46
 90
       50
102
RTVSPost2010PropOp46
 70
     1
102
RTVSPost2010Prop47
 90
       50
102
RTVSPost2010PropOp47
 70
     1
102
RTVSPost2010Prop48
 90
       50
102
RTVSPost2010PropOp48
 70
     1
102
RTVSPost2010Prop49
280
     0
102
RTVSPost2010PropOp49
 70
     1
102
RTVSPost2010Prop50
 90
       50
102
RTVSPost2010PropOp50
 70
     1
102
RTVSPost2010Prop51ColorIndex
 90
      256
102
RTVSPost2010Prop51ColorRGB
 90
-16777216
102
RTVSPost2010PropOp51
 70
     0
102
RTVSPost2010Prop52
140
1.0
102
RTVSPost2010PropOp52
 70
     0
102
RTVSPost2010Prop53
 90
        2
102
RTVSPost2010PropOp53
 70
     1
102
RTVSPost2010Prop54
  1
strokes_ogs.tif
102
RTVSPost2010PropOp54
 70
     1
102
RTVSPost2010Prop55
280
     0
102
RTVSPost2010PropOp55
 70
     1
102
RTVSPost2010Prop56
140
1.0
102
RTVSPost2010PropOp56
 70
     1
102
RTVSPost2010Prop57
140
1.0
102
RTVSPost2010PropOp57
 70
     1
102
RTVSPropertyOp0
 70
     1
102
RTVSPropertyOp1
 70
     1
102
RTVSPropertyOp2
 70
     1
102
RTVSPropertyOp3
 70
     1
102
RTVSPropertyOp4
 70
     1
102
RTVSPropertyOp5
 70
     1
102
RTVSPropertyOp6
 70
     1
102
RTVSPropertyOp7
 70
     1
102
RTVSPropertyOp8
 70
     1
102
RTVSPropertyOp9
 70
     1
102
RTVSPropertyOp10
 70
     1
102
RTVSPropertyOp11
 70
     1
102
RTVSPropertyOp12
 70
     1
102
RTVSPropertyOp13
 70
     1
102
RTVSPropertyOp14
 70
     1
102
RTVSPropertyOp15
 70
     1
102
RTVSPropertyOp16
 70
     1
102
RTVSPropertyOp17
 70
     1
102
RTVSPropertyOp18
 70
     1
102
RTVSPropertyOp19
 70
     1
102
RTVSPropertyOp20
 70
     1
102
RTVSPropertyOp21
 70
     1
102
RTVSPropertyOp22
 70
     1
102
RTVSPropertyOp23
 70
     1
102
RTVSPropertyOp24
 70
     1
102
RTVSPropertyOp25
 70
     1
102
RTVSPropertyOp26
 70
     1
102
RTVSPropertyOp27
 70
     1
102
RTVSPropertyOp28
 70
     1
102
RTVSPropertyOp29
 70
     1
102
RTVSPropertyOp30
 70
     1
102
RTVSPropertyOp31
 70
     1
102
RTVSPropertyOp32
 70
     1
102
RTVSPropertyOp33
 70
     1
102
RTVSPropertyOp34
 70
     1
102
RTVSPropertyOp35
 70
     1
102
RTVSPropertyOp36
 70
     1
102
RTVSPropertyOp37
 70
     1
102
RTVSPropertyOp38
 70
     1
102
RTVSPropertyOp39
 70
     1
102
RTVSPropertyOp40
 70
     1
102
RTVSPropertyOp41
 70
     1
102
RTVSPropertyOp42
 70
     1
102
RTVSPropertyOp43
 70
     1
102
RTVSPropertyOp44
 70
     1
102
RTVSPropertyOp45
 70
     1
102
RTVSPropertyOp46
 70
     1
102
RTVSPropertyOp47
 70
     1
102
RTVSPropertyOp48
 70
     1
102
RTVSPropertyOp49
 70
     1
102
RTVSPropertyOp50
 70
     1
102
RTVSPropertyOp51
 70
     0
102
RTVSPropertyOp52
 70
     0
102
RTVSPropertyOp53
 70
     1
102
RTVSPropertyOp54
 70
     1
102
RTVSPropertyOp55
 70
     1
102
RTVSPropertyOp56
 70
     1
102
RTVSPropertyOp57
 70
     1
102
RTVSPropertyOp58
 70
     1
102
RTVSPropertyOp59
 70
     1
102
RTVSPropertyOp60
 70
     1
102
RTVSPropertyOp61
 70
     1
102
RTVSPropertyOp62
 70
     1
  0
XRECORD
  5
870F
102
{ACAD_REACTORS
330
870E
102
}
330
870E
100
AcDbXrecord
280
     1
102
RTVSPost2010Prop28
280
     0
102
RTVSPost2010PropOp28
 70
     1
102
RTVSPost2010Prop29
280
     1
102
RTVSPost2010PropOp29
 70
     1
102
RTVSPost2010Prop30
280
     1
102
RTVSPost2010PropOp30
 70
     1
102
RTVSPost2010Prop31
280
     0
102
RTVSPost2010PropOp31
 70
     1
102
RTVSPost2010Prop32
280
     0
102
RTVSPost2010PropOp32
 70
     1
102
RTVSPost2010Prop33
280
     0
102
RTVSPost2010PropOp33
 70
     1
102
RTVSPost2010Prop34
280
     0
102
RTVSPost2010PropOp34
 70
     1
102
RTVSPost2010Prop35
280
     0
102
RTVSPost2010PropOp35
 70
     1
102
RTVSPost2010Prop36
280
     0
102
RTVSPost2010PropOp36
 70
     1
102
RTVSPost2010Prop37
 90
       50
102
RTVSPost2010PropOp37
 70
     1
102
RTVSPost2010Prop38
140
0.0
102
RTVSPost2010PropOp38
 70
     1
102
RTVSPost2010Prop39
140
1.0
102
RTVSPost2010PropOp39
 70
     1
102
RTVSPost2010Prop40
 90
        0
102
RTVSPost2010PropOp40
 70
     1
102
RTVSPost2010Prop41ColorIndex
 90
       18
102
RTVSPost2010Prop41ColorRGB
 90
        0
102
RTVSPost2010PropOp41
 70
     1
102
RTVSPost2010Prop42
 90
       50
102
RTVSPost2010PropOp42
 70
     1
102
RTVSPost2010Prop43
 90
        3
102
RTVSPost2010PropOp43
 70
     1
102
RTVSPost2010Prop44ColorIndex
 90
        5
102
RTVSPost2010Prop44ColorRGB
 90
      255
102
RTVSPost2010PropOp44
 70
     1
102
RTVSPost2010Prop45
280
     0
102
RTVSPost2010PropOp45
 70
     1
102
RTVSPost2010Prop46
 90
       50
102
RTVSPost2010PropOp46
 70
     1
102
RTVSPost2010Prop47
 90
       50
102
RTVSPost2010PropOp47
 70
     1
102
RTVSPost2010Prop48
 90
       50
102
RTVSPost2010PropOp48
 70
     1
102
RTVSPost2010Prop49
280
     0
102
RTVSPost2010PropOp49
 70
     1
102
RTVSPost2010Prop50
 90
       50
102
RTVSPost2010PropOp50
 70
     1
102
RTVSPost2010Prop51ColorIndex
 90
      256
102
RTVSPost2010Prop51ColorRGB
 90
-16777216
102
RTVSPost2010PropOp51
 70
     0
102
RTVSPost2010Prop52
140
1.0
102
RTVSPost2010PropOp52
 70
     0
102
RTVSPost2010Prop53
 90
        2
102
RTVSPost2010PropOp53
 70
     1
102
RTVSPost2010Prop54
  1
strokes_ogs.tif
102
RTVSPost2010PropOp54
 70
     1
102
RTVSPost2010Prop55
280
     0
102
RTVSPost2010PropOp55
 70
     1
102
RTVSPost2010Prop56
140
1.0
102
RTVSPost2010PropOp56
 70
     1
102
RTVSPost2010Prop57
140
1.0
102
RTVSPost2010PropOp57
 70
     1
102
RTVSPropertyOp0
 70
     1
102
RTVSPropertyOp1
 70
     1
102
RTVSPropertyOp2
 70
     1
102
RTVSPropertyOp3
 70
     1
102
RTVSPropertyOp4
 70
     1
102
RTVSPropertyOp5
 70
     1
102
RTVSPropertyOp6
 70
     1
102
RTVSPropertyOp7
 70
     1
102
RTVSPropertyOp8
 70
     1
102
RTVSPropertyOp9
 70
     1
102
RTVSPropertyOp10
 70
     1
102
RTVSPropertyOp11
 70
     1
102
RTVSPropertyOp12
 70
     1
102
RTVSPropertyOp13
 70
     1
102
RTVSPropertyOp14
 70
     1
102
RTVSPropertyOp15
 70
     1
102
RTVSPropertyOp16
 70
     1
102
RTVSPropertyOp17
 70
     1
102
RTVSPropertyOp18
 70
     1
102
RTVSPropertyOp19
 70
     1
102
RTVSPropertyOp20
 70
     1
102
RTVSPropertyOp21
 70
     1
102
RTVSPropertyOp22
 70
     1
102
RTVSPropertyOp23
 70
     1
102
RTVSPropertyOp24
 70
     1
102
RTVSPropertyOp25
 70
     1
102
RTVSPropertyOp26
 70
     1
102
RTVSPropertyOp27
 70
     1
102
RTVSPropertyOp28
 70
     1
102
RTVSPropertyOp29
 70
     1
102
RTVSPropertyOp30
 70
     1
102
RTVSPropertyOp31
 70
     1
102
RTVSPropertyOp32
 70
     1
102
RTVSPropertyOp33
 70
     1
102
RTVSPropertyOp34
 70
     1
102
RTVSPropertyOp35
 70
     1
102
RTVSPropertyOp36
 70
     1
102
RTVSPropertyOp37
 70
     1
102
RTVSPropertyOp38
 70
     1
102
RTVSPropertyOp39
 70
     1
102
RTVSPropertyOp40
 70
     1
102
RTVSPropertyOp41
 70
     1
102
RTVSPropertyOp42
 70
     1
102
RTVSPropertyOp43
 70
     1
102
RTVSPropertyOp44
 70
     1
102
RTVSPropertyOp45
 70
     1
102
RTVSPropertyOp46
 70
     1
102
RTVSPropertyOp47
 70
     1
102
RTVSPropertyOp48
 70
     1
102
RTVSPropertyOp49
 70
     1
102
RTVSPropertyOp50
 70
     1
102
RTVSPropertyOp51
 70
     0
102
RTVSPropertyOp52
 70
     0
102
RTVSPropertyOp53
 70
     1
102
RTVSPropertyOp54
 70
     1
102
RTVSPropertyOp55
 70
     1
102
RTVSPropertyOp56
 70
     1
102
RTVSPropertyOp57
 70
     1
102
RTVSPropertyOp58
 70
     1
102
RTVSPropertyOp59
 70
     1
102
RTVSPropertyOp60
 70
     1
102
RTVSPropertyOp61
 70
     1
102
RTVSPropertyOp62
 70
     1
  0
XRECORD
  5
872B
102
{ACAD_REACTORS
330
872A
102
}
330
872A
100
AcDbXrecord
280
     1
102
RTVSPost2010Prop28
280
     0
102
RTVSPost2010PropOp28
 70
     1
102
RTVSPost2010Prop29
280
     1
102
RTVSPost2010PropOp29
 70
     1
102
RTVSPost2010Prop30
280
     1
102
RTVSPost2010PropOp30
 70
     1
102
RTVSPost2010Prop31
280
     0
102
RTVSPost2010PropOp31
 70
     1
102
RTVSPost2010Prop32
280
     0
102
RTVSPost2010PropOp32
 70
     1
102
RTVSPost2010Prop33
280
     0
102
RTVSPost2010PropOp33
 70
     1
102
RTVSPost2010Prop34
280
     0
102
RTVSPost2010PropOp34
 70
     1
102
RTVSPost2010Prop35
280
     0
102
RTVSPost2010PropOp35
 70
     1
102
RTVSPost2010Prop36
280
     0
102
RTVSPost2010PropOp36
 70
     1
102
RTVSPost2010Prop37
 90
       50
102
RTVSPost2010PropOp37
 70
     0
102
RTVSPost2010Prop38
140
0.0
102
RTVSPost2010PropOp38
 70
     0
102
RTVSPost2010Prop39
140
1.0
102
RTVSPost2010PropOp39
 70
     0
102
RTVSPost2010Prop40
 90
        0
102
RTVSPost2010PropOp40
 70
     0
102
RTVSPost2010Prop41ColorIndex
 90
       18
102
RTVSPost2010Prop41ColorRGB
 90
        0
102
RTVSPost2010PropOp41
 70
     0
102
RTVSPost2010Prop42
 90
       50
102
RTVSPost2010PropOp42
 70
     0
102
RTVSPost2010Prop43
 90
        3
102
RTVSPost2010PropOp43
 70
     0
102
RTVSPost2010Prop44ColorIndex
 90
        5
102
RTVSPost2010Prop44ColorRGB
 90
      255
102
RTVSPost2010PropOp44
 70
     0
102
RTVSPost2010Prop45
280
     0
102
RTVSPost2010PropOp45
 70
     1
102
RTVSPost2010Prop46
 90
       50
102
RTVSPost2010PropOp46
 70
     0
102
RTVSPost2010Prop47
 90
       50
102
RTVSPost2010PropOp47
 70
     0
102
RTVSPost2010Prop48
 90
       50
102
RTVSPost2010PropOp48
 70
     0
102
RTVSPost2010Prop49
280
     0
102
RTVSPost2010PropOp49
 70
     1
102
RTVSPost2010Prop50
 90
       50
102
RTVSPost2010PropOp50
 70
     0
102
RTVSPost2010Prop51ColorIndex
 90
      256
102
RTVSPost2010Prop51ColorRGB
 90
-16777216
102
RTVSPost2010PropOp51
 70
     0
102
RTVSPost2010Prop52
140
1.0
102
RTVSPost2010PropOp52
 70
     0
102
RTVSPost2010Prop53
 90
        2
102
RTVSPost2010PropOp53
 70
     0
102
RTVSPost2010Prop54
  1
strokes_ogs.tif
102
RTVSPost2010PropOp54
 70
     0
102
RTVSPost2010Prop55
280
     0
102
RTVSPost2010PropOp55
 70
     1
102
RTVSPost2010Prop56
140
1.0
102
RTVSPost2010PropOp56
 70
     0
102
RTVSPost2010Prop57
140
1.0
102
RTVSPost2010PropOp57
 70
     0
102
RTVSPropertyOp0
 70
     0
102
RTVSPropertyOp1
 70
     0
102
RTVSPropertyOp2
 70
     0
102
RTVSPropertyOp3
 70
     0
102
RTVSPropertyOp4
 70
     0
102
RTVSPropertyOp5
 70
     0
102
RTVSPropertyOp6
 70
     0
102
RTVSPropertyOp7
 70
     0
102
RTVSPropertyOp8
 70
     0
102
RTVSPropertyOp9
 70
     0
102
RTVSPropertyOp10
 70
     0
102
RTVSPropertyOp11
 70
     0
102
RTVSPropertyOp12
 70
     0
102
RTVSPropertyOp13
 70
     0
102
RTVSPropertyOp14
 70
     2
102
RTVSPropertyOp15
 70
     0
102
RTVSPropertyOp16
 70
     0
102
RTVSPropertyOp17
 70
     0
102
RTVSPropertyOp18
 70
     0
102
RTVSPropertyOp19
 70
     0
102
RTVSPropertyOp20
 70
     0
102
RTVSPropertyOp21
 70
     0
102
RTVSPropertyOp22
 70
     0
102
RTVSPropertyOp23
 70
     0
102
RTVSPropertyOp24
 70
     0
102
RTVSPropertyOp25
 70
     0
102
RTVSPropertyOp26
 70
     0
102
RTVSPropertyOp27
 70
     0
102
RTVSPropertyOp28
 70
     1
102
RTVSPropertyOp29
 70
     1
102
RTVSPropertyOp30
 70
     1
102
RTVSPropertyOp31
 70
     1
102
RTVSPropertyOp32
 70
     1
102
RTVSPropertyOp33
 70
     1
102
RTVSPropertyOp34
 70
     1
102
RTVSPropertyOp35
 70
     1
102
RTVSPropertyOp36
 70
     1
102
RTVSPropertyOp37
 70
     0
102
RTVSPropertyOp38
 70
     0
102
RTVSPropertyOp39
 70
     0
102
RTVSPropertyOp40
 70
     0
102
RTVSPropertyOp41
 70
     0
102
RTVSPropertyOp42
 70
     0
102
RTVSPropertyOp43
 70
     0
102
RTVSPropertyOp44
 70
     0
102
RTVSPropertyOp45
 70
     1
102
RTVSPropertyOp46
 70
     0
102
RTVSPropertyOp47
 70
     0
102
RTVSPropertyOp48
 70
     0
102
RTVSPropertyOp49
 70
     1
102
RTVSPropertyOp50
 70
     0
102
RTVSPropertyOp51
 70
     0
102
RTVSPropertyOp52
 70
     0
102
RTVSPropertyOp53
 70
     0
102
RTVSPropertyOp54
 70
     0
102
RTVSPropertyOp55
 70
     1
102
RTVSPropertyOp56
 70
     0
102
RTVSPropertyOp57
 70
     0
102
RTVSPropertyOp58
 70
     0
102
RTVSPropertyOp59
 70
     0
102
RTVSPropertyOp60
 70
     0
102
RTVSPropertyOp61
 70
     0
102
RTVSPropertyOp62
 70
     0
  0
XRECORD
  5
871B
102
{ACAD_REACTORS
330
871A
102
}
330
871A
100
AcDbXrecord
280
     1
102
RTVSPost2010Prop28
280
     0
102
RTVSPost2010PropOp28
 70
     1
102
RTVSPost2010Prop29
280
     1
102
RTVSPost2010PropOp29
 70
     1
102
RTVSPost2010Prop30
280
     1
102
RTVSPost2010PropOp30
 70
     1
102
RTVSPost2010Prop31
280
     0
102
RTVSPost2010PropOp31
 70
     1
102
RTVSPost2010Prop32
280
     0
102
RTVSPost2010PropOp32
 70
     1
102
RTVSPost2010Prop33
280
     0
102
RTVSPost2010PropOp33
 70
     1
102
RTVSPost2010Prop34
280
     0
102
RTVSPost2010PropOp34
 70
     1
102
RTVSPost2010Prop35
280
     0
102
RTVSPost2010PropOp35
 70
     1
102
RTVSPost2010Prop36
280
     0
102
RTVSPost2010PropOp36
 70
     1
102
RTVSPost2010Prop37
 90
       50
102
RTVSPost2010PropOp37
 70
     1
102
RTVSPost2010Prop38
140
0.0
102
RTVSPost2010PropOp38
 70
     1
102
RTVSPost2010Prop39
140
1.0
102
RTVSPost2010PropOp39
 70
     1
102
RTVSPost2010Prop40
 90
        0
102
RTVSPost2010PropOp40
 70
     1
102
RTVSPost2010Prop41ColorIndex
 90
       18
102
RTVSPost2010Prop41ColorRGB
 90
        0
102
RTVSPost2010PropOp41
 70
     1
102
RTVSPost2010Prop42
 90
       50
102
RTVSPost2010PropOp42
 70
     1
102
RTVSPost2010Prop43
 90
        3
102
RTVSPost2010PropOp43
 70
     1
102
RTVSPost2010Prop44ColorIndex
 90
        5
102
RTVSPost2010Prop44ColorRGB
 90
      255
102
RTVSPost2010PropOp44
 70
     1
102
RTVSPost2010Prop45
280
     0
102
RTVSPost2010PropOp45
 70
     1
102
RTVSPost2010Prop46
 90
       50
102
RTVSPost2010PropOp46
 70
     1
102
RTVSPost2010Prop47
 90
       50
102
RTVSPost2010PropOp47
 70
     1
102
RTVSPost2010Prop48
 90
       50
102
RTVSPost2010PropOp48
 70
     1
102
RTVSPost2010Prop49
280
     0
102
RTVSPost2010PropOp49
 70
     1
102
RTVSPost2010Prop50
 90
       50
102
RTVSPost2010PropOp50
 70
     1
102
RTVSPost2010Prop51ColorIndex
 90
      256
102
RTVSPost2010Prop51ColorRGB
 90
-16777216
102
RTVSPost2010PropOp51
 70
     0
102
RTVSPost2010Prop52
140
1.0
102
RTVSPost2010PropOp52
 70
     0
102
RTVSPost2010Prop53
 90
        2
102
RTVSPost2010PropOp53
 70
     1
102
RTVSPost2010Prop54
  1
strokes_ogs.tif
102
RTVSPost2010PropOp54
 70
     1
102
RTVSPost2010Prop55
280
     0
102
RTVSPost2010PropOp55
 70
     1
102
RTVSPost2010Prop56
140
1.0
102
RTVSPost2010PropOp56
 70
     1
102
RTVSPost2010Prop57
140
1.0
102
RTVSPost2010PropOp57
 70
     1
102
RTVSPropertyOp0
 70
     1
102
RTVSPropertyOp1
 70
     1
102
RTVSPropertyOp2
 70
     1
102
RTVSPropertyOp3
 70
     1
102
RTVSPropertyOp4
 70
     1
102
RTVSPropertyOp5
 70
     1
102
RTVSPropertyOp6
 70
     1
102
RTVSPropertyOp7
 70
     1
102
RTVSPropertyOp8
 70
     1
102
RTVSPropertyOp9
 70
     1
102
RTVSPropertyOp10
 70
     1
102
RTVSPropertyOp11
 70
     1
102
RTVSPropertyOp12
 70
     1
102
RTVSPropertyOp13
 70
     1
102
RTVSPropertyOp14
 70
     1
102
RTVSPropertyOp15
 70
     1
102
RTVSPropertyOp16
 70
     1
102
RTVSPropertyOp17
 70
     1
102
RTVSPropertyOp18
 70
     1
102
RTVSPropertyOp19
 70
     1
102
RTVSPropertyOp20
 70
     1
102
RTVSPropertyOp21
 70
     1
102
RTVSPropertyOp22
 70
     1
102
RTVSPropertyOp23
 70
     1
102
RTVSPropertyOp24
 70
     1
102
RTVSPropertyOp25
 70
     1
102
RTVSPropertyOp26
 70
     1
102
RTVSPropertyOp27
 70
     1
102
RTVSPropertyOp28
 70
     1
102
RTVSPropertyOp29
 70
     1
102
RTVSPropertyOp30
 70
     1
102
RTVSPropertyOp31
 70
     1
102
RTVSPropertyOp32
 70
     1
102
RTVSPropertyOp33
 70
     1
102
RTVSPropertyOp34
 70
     1
102
RTVSPropertyOp35
 70
     1
102
RTVSPropertyOp36
 70
     1
102
RTVSPropertyOp37
 70
     1
102
RTVSPropertyOp38
 70
     1
102
RTVSPropertyOp39
 70
     1
102
RTVSPropertyOp40
 70
     1
102
RTVSPropertyOp41
 70
     1
102
RTVSPropertyOp42
 70
     1
102
RTVSPropertyOp43
 70
     1
102
RTVSPropertyOp44
 70
     1
102
RTVSPropertyOp45
 70
     1
102
RTVSPropertyOp46
 70
     1
102
RTVSPropertyOp47
 70
     1
102
RTVSPropertyOp48
 70
     1
102
RTVSPropertyOp49
 70
     1
102
RTVSPropertyOp50
 70
     1
102
RTVSPropertyOp51
 70
     0
102
RTVSPropertyOp52
 70
     0
102
RTVSPropertyOp53
 70
     1
102
RTVSPropertyOp54
 70
     1
102
RTVSPropertyOp55
 70
     1
102
RTVSPropertyOp56
 70
     1
102
RTVSPropertyOp57
 70
     1
102
RTVSPropertyOp58
 70
     1
102
RTVSPropertyOp59
 70
     1
102
RTVSPropertyOp60
 70
     1
102
RTVSPropertyOp61
 70
     1
102
RTVSPropertyOp62
 70
     1
  0
XRECORD
  5
872D
102
{ACAD_REACTORS
330
872C
102
}
330
872C
100
AcDbXrecord
280
     1
102
RTVSPost2010Prop28
280
     0
102
RTVSPost2010PropOp28
 70
     1
102
RTVSPost2010Prop29
280
     1
102
RTVSPost2010PropOp29
 70
     1
102
RTVSPost2010Prop30
280
     1
102
RTVSPost2010PropOp30
 70
     1
102
RTVSPost2010Prop31
280
     0
102
RTVSPost2010PropOp31
 70
     1
102
RTVSPost2010Prop32
280
     0
102
RTVSPost2010PropOp32
 70
     1
102
RTVSPost2010Prop33
280
     0
102
RTVSPost2010PropOp33
 70
     1
102
RTVSPost2010Prop34
280
     0
102
RTVSPost2010PropOp34
 70
     1
102
RTVSPost2010Prop35
280
     0
102
RTVSPost2010PropOp35
 70
     1
102
RTVSPost2010Prop36
280
     0
102
RTVSPost2010PropOp36
 70
     1
102
RTVSPost2010Prop37
 90
       50
102
RTVSPost2010PropOp37
 70
     0
102
RTVSPost2010Prop38
140
0.0
102
RTVSPost2010PropOp38
 70
     0
102
RTVSPost2010Prop39
140
1.0
102
RTVSPost2010PropOp39
 70
     0
102
RTVSPost2010Prop40
 90
        0
102
RTVSPost2010PropOp40
 70
     0
102
RTVSPost2010Prop41ColorIndex
 90
       18
102
RTVSPost2010Prop41ColorRGB
 90
        0
102
RTVSPost2010PropOp41
 70
     0
102
RTVSPost2010Prop42
 90
       50
102
RTVSPost2010PropOp42
 70
     0
102
RTVSPost2010Prop43
 90
        3
102
RTVSPost2010PropOp43
 70
     0
102
RTVSPost2010Prop44ColorIndex
 90
        5
102
RTVSPost2010Prop44ColorRGB
 90
      255
102
RTVSPost2010PropOp44
 70
     0
102
RTVSPost2010Prop45
280
     0
102
RTVSPost2010PropOp45
 70
     1
102
RTVSPost2010Prop46
 90
       50
102
RTVSPost2010PropOp46
 70
     0
102
RTVSPost2010Prop47
 90
       50
102
RTVSPost2010PropOp47
 70
     0
102
RTVSPost2010Prop48
 90
       50
102
RTVSPost2010PropOp48
 70
     0
102
RTVSPost2010Prop49
280
     0
102
RTVSPost2010PropOp49
 70
     1
102
RTVSPost2010Prop50
 90
       50
102
RTVSPost2010PropOp50
 70
     0
102
RTVSPost2010Prop51ColorIndex
 90
      256
102
RTVSPost2010Prop51ColorRGB
 90
-16777216
102
RTVSPost2010PropOp51
 70
     0
102
RTVSPost2010Prop52
140
1.0
102
RTVSPost2010PropOp52
 70
     0
102
RTVSPost2010Prop53
 90
        2
102
RTVSPost2010PropOp53
 70
     0
102
RTVSPost2010Prop54
  1
strokes_ogs.tif
102
RTVSPost2010PropOp54
 70
     0
102
RTVSPost2010Prop55
280
     0
102
RTVSPost2010PropOp55
 70
     1
102
RTVSPost2010Prop56
140
1.0
102
RTVSPost2010PropOp56
 70
     0
102
RTVSPost2010Prop57
140
1.0
102
RTVSPost2010PropOp57
 70
     0
102
RTVSPropertyOp0
 70
     0
102
RTVSPropertyOp1
 70
     0
102
RTVSPropertyOp2
 70
     0
102
RTVSPropertyOp3
 70
     0
102
RTVSPropertyOp4
 70
     0
102
RTVSPropertyOp5
 70
     0
102
RTVSPropertyOp6
 70
     0
102
RTVSPropertyOp7
 70
     0
102
RTVSPropertyOp8
 70
     0
102
RTVSPropertyOp9
 70
     0
102
RTVSPropertyOp10
 70
     0
102
RTVSPropertyOp11
 70
     0
102
RTVSPropertyOp12
 70
     0
102
RTVSPropertyOp13
 70
     0
102
RTVSPropertyOp14
 70
     2
102
RTVSPropertyOp15
 70
     0
102
RTVSPropertyOp16
 70
     0
102
RTVSPropertyOp17
 70
     0
102
RTVSPropertyOp18
 70
     0
102
RTVSPropertyOp19
 70
     0
102
RTVSPropertyOp20
 70
     0
102
RTVSPropertyOp21
 70
     0
102
RTVSPropertyOp22
 70
     0
102
RTVSPropertyOp23
 70
     0
102
RTVSPropertyOp24
 70
     0
102
RTVSPropertyOp25
 70
     0
102
RTVSPropertyOp26
 70
     0
102
RTVSPropertyOp27
 70
     0
102
RTVSPropertyOp28
 70
     1
102
RTVSPropertyOp29
 70
     1
102
RTVSPropertyOp30
 70
     1
102
RTVSPropertyOp31
 70
     1
102
RTVSPropertyOp32
 70
     1
102
RTVSPropertyOp33
 70
     1
102
RTVSPropertyOp34
 70
     1
102
RTVSPropertyOp35
 70
     1
102
RTVSPropertyOp36
 70
     1
102
RTVSPropertyOp37
 70
     0
102
RTVSPropertyOp38
 70
     0
102
RTVSPropertyOp39
 70
     0
102
RTVSPropertyOp40
 70
     0
102
RTVSPropertyOp41
 70
     0
102
RTVSPropertyOp42
 70
     0
102
RTVSPropertyOp43
 70
     0
102
RTVSPropertyOp44
 70
     0
102
RTVSPropertyOp45
 70
     1
102
RTVSPropertyOp46
 70
     0
102
RTVSPropertyOp47
 70
     0
102
RTVSPropertyOp48
 70
     0
102
RTVSPropertyOp49
 70
     1
102
RTVSPropertyOp50
 70
     0
102
RTVSPropertyOp51
 70
     0
102
RTVSPropertyOp52
 70
     0
102
RTVSPropertyOp53
 70
     0
102
RTVSPropertyOp54
 70
     0
102
RTVSPropertyOp55
 70
     1
102
RTVSPropertyOp56
 70
     0
102
RTVSPropertyOp57
 70
     0
102
RTVSPropertyOp58
 70
     0
102
RTVSPropertyOp59
 70
     0
102
RTVSPropertyOp60
 70
     0
102
RTVSPropertyOp61
 70
     0
102
RTVSPropertyOp62
 70
     0
  0
XRECORD
  5
8713
102
{ACAD_REACTORS
330
8712
102
}
330
8712
100
AcDbXrecord
280
     1
102
RTVSPost2010Prop28
280
     0
102
RTVSPost2010PropOp28
 70
     1
102
RTVSPost2010Prop29
280
     1
102
RTVSPost2010PropOp29
 70
     1
102
RTVSPost2010Prop30
280
     1
102
RTVSPost2010PropOp30
 70
     1
102
RTVSPost2010Prop31
280
     0
102
RTVSPost2010PropOp31
 70
     1
102
RTVSPost2010Prop32
280
     0
102
RTVSPost2010PropOp32
 70
     1
102
RTVSPost2010Prop33
280
     0
102
RTVSPost2010PropOp33
 70
     1
102
RTVSPost2010Prop34
280
     0
102
RTVSPost2010PropOp34
 70
     1
102
RTVSPost2010Prop35
280
     0
102
RTVSPost2010PropOp35
 70
     1
102
RTVSPost2010Prop36
280
     0
102
RTVSPost2010PropOp36
 70
     1
102
RTVSPost2010Prop37
 90
       50
102
RTVSPost2010PropOp37
 70
     1
102
RTVSPost2010Prop38
140
0.0
102
RTVSPost2010PropOp38
 70
     1
102
RTVSPost2010Prop39
140
1.0
102
RTVSPost2010PropOp39
 70
     1
102
RTVSPost2010Prop40
 90
        0
102
RTVSPost2010PropOp40
 70
     1
102
RTVSPost2010Prop41ColorIndex
 90
       18
102
RTVSPost2010Prop41ColorRGB
 90
        0
102
RTVSPost2010PropOp41
 70
     1
102
RTVSPost2010Prop42
 90
       50
102
RTVSPost2010PropOp42
 70
     1
102
RTVSPost2010Prop43
 90
        3
102
RTVSPost2010PropOp43
 70
     1
102
RTVSPost2010Prop44ColorIndex
 90
        5
102
RTVSPost2010Prop44ColorRGB
 90
      255
102
RTVSPost2010PropOp44
 70
     1
102
RTVSPost2010Prop45
280
     0
102
RTVSPost2010PropOp45
 70
     1
102
RTVSPost2010Prop46
 90
       50
102
RTVSPost2010PropOp46
 70
     1
102
RTVSPost2010Prop47
 90
       50
102
RTVSPost2010PropOp47
 70
     1
102
RTVSPost2010Prop48
 90
       50
102
RTVSPost2010PropOp48
 70
     1
102
RTVSPost2010Prop49
280
     0
102
RTVSPost2010PropOp49
 70
     1
102
RTVSPost2010Prop50
 90
       50
102
RTVSPost2010PropOp50
 70
     1
102
RTVSPost2010Prop51ColorIndex
 90
      256
102
RTVSPost2010Prop51ColorRGB
 90
-16777216
102
RTVSPost2010PropOp51
 70
     0
102
RTVSPost2010Prop52
140
1.0
102
RTVSPost2010PropOp52
 70
     0
102
RTVSPost2010Prop53
 90
        2
102
RTVSPost2010PropOp53
 70
     1
102
RTVSPost2010Prop54
  1
strokes_ogs.tif
102
RTVSPost2010PropOp54
 70
     1
102
RTVSPost2010Prop55
280
     0
102
RTVSPost2010PropOp55
 70
     1
102
RTVSPost2010Prop56
140
1.0
102
RTVSPost2010PropOp56
 70
     1
102
RTVSPost2010Prop57
140
1.0
102
RTVSPost2010PropOp57
 70
     1
102
RTVSPropertyOp0
 70
     1
102
RTVSPropertyOp1
 70
     1
102
RTVSPropertyOp2
 70
     1
102
RTVSPropertyOp3
 70
     1
102
RTVSPropertyOp4
 70
     1
102
RTVSPropertyOp5
 70
     1
102
RTVSPropertyOp6
 70
     1
102
RTVSPropertyOp7
 70
     1
102
RTVSPropertyOp8
 70
     1
102
RTVSPropertyOp9
 70
     1
102
RTVSPropertyOp10
 70
     1
102
RTVSPropertyOp11
 70
     1
102
RTVSPropertyOp12
 70
     1
102
RTVSPropertyOp13
 70
     1
102
RTVSPropertyOp14
 70
     1
102
RTVSPropertyOp15
 70
     1
102
RTVSPropertyOp16
 70
     1
102
RTVSPropertyOp17
 70
     1
102
RTVSPropertyOp18
 70
     1
102
RTVSPropertyOp19
 70
     1
102
RTVSPropertyOp20
 70
     1
102
RTVSPropertyOp21
 70
     1
102
RTVSPropertyOp22
 70
     1
102
RTVSPropertyOp23
 70
     1
102
RTVSPropertyOp24
 70
     1
102
RTVSPropertyOp25
 70
     1
102
RTVSPropertyOp26
 70
     1
102
RTVSPropertyOp27
 70
     1
102
RTVSPropertyOp28
 70
     1
102
RTVSPropertyOp29
 70
     1
102
RTVSPropertyOp30
 70
     1
102
RTVSPropertyOp31
 70
     1
102
RTVSPropertyOp32
 70
     1
102
RTVSPropertyOp33
 70
     1
102
RTVSPropertyOp34
 70
     1
102
RTVSPropertyOp35
 70
     1
102
RTVSPropertyOp36
 70
     1
102
RTVSPropertyOp37
 70
     1
102
RTVSPropertyOp38
 70
     1
102
RTVSPropertyOp39
 70
     1
102
RTVSPropertyOp40
 70
     1
102
RTVSPropertyOp41
 70
     1
102
RTVSPropertyOp42
 70
     1
102
RTVSPropertyOp43
 70
     1
102
RTVSPropertyOp44
 70
     1
102
RTVSPropertyOp45
 70
     1
102
RTVSPropertyOp46
 70
     1
102
RTVSPropertyOp47
 70
     1
102
RTVSPropertyOp48
 70
     1
102
RTVSPropertyOp49
 70
     1
102
RTVSPropertyOp50
 70
     1
102
RTVSPropertyOp51
 70
     0
102
RTVSPropertyOp52
 70
     0
102
RTVSPropertyOp53
 70
     1
102
RTVSPropertyOp54
 70
     1
102
RTVSPropertyOp55
 70
     1
102
RTVSPropertyOp56
 70
     1
102
RTVSPropertyOp57
 70
     1
102
RTVSPropertyOp58
 70
     1
102
RTVSPropertyOp59
 70
     1
102
RTVSPropertyOp60
 70
     1
102
RTVSPropertyOp61
 70
     1
102
RTVSPropertyOp62
 70
     1
  0
XRECORD
  5
8729
102
{ACAD_REACTORS
330
8728
102
}
330
8728
100
AcDbXrecord
280
     1
102
RTVSPost2010Prop28
280
     0
102
RTVSPost2010PropOp28
 70
     1
102
RTVSPost2010Prop29
280
     1
102
RTVSPost2010PropOp29
 70
     1
102
RTVSPost2010Prop30
280
     1
102
RTVSPost2010PropOp30
 70
     1
102
RTVSPost2010Prop31
280
     0
102
RTVSPost2010PropOp31
 70
     1
102
RTVSPost2010Prop32
280
     0
102
RTVSPost2010PropOp32
 70
     1
102
RTVSPost2010Prop33
280
     0
102
RTVSPost2010PropOp33
 70
     1
102
RTVSPost2010Prop34
280
     0
102
RTVSPost2010PropOp34
 70
     1
102
RTVSPost2010Prop35
280
     0
102
RTVSPost2010PropOp35
 70
     1
102
RTVSPost2010Prop36
280
     0
102
RTVSPost2010PropOp36
 70
     1
102
RTVSPost2010Prop37
 90
       50
102
RTVSPost2010PropOp37
 70
     1
102
RTVSPost2010Prop38
140
0.0
102
RTVSPost2010PropOp38
 70
     1
102
RTVSPost2010Prop39
140
1.0
102
RTVSPost2010PropOp39
 70
     1
102
RTVSPost2010Prop40
 90
        0
102
RTVSPost2010PropOp40
 70
     1
102
RTVSPost2010Prop41ColorIndex
 90
       18
102
RTVSPost2010Prop41ColorRGB
 90
        0
102
RTVSPost2010PropOp41
 70
     1
102
RTVSPost2010Prop42
 90
       50
102
RTVSPost2010PropOp42
 70
     1
102
RTVSPost2010Prop43
 90
        3
102
RTVSPost2010PropOp43
 70
     1
102
RTVSPost2010Prop44ColorIndex
 90
        5
102
RTVSPost2010Prop44ColorRGB
 90
      255
102
RTVSPost2010PropOp44
 70
     1
102
RTVSPost2010Prop45
280
     0
102
RTVSPost2010PropOp45
 70
     1
102
RTVSPost2010Prop46
 90
       50
102
RTVSPost2010PropOp46
 70
     1
102
RTVSPost2010Prop47
 90
       50
102
RTVSPost2010PropOp47
 70
     1
102
RTVSPost2010Prop48
 90
       50
102
RTVSPost2010PropOp48
 70
     1
102
RTVSPost2010Prop49
280
     0
102
RTVSPost2010PropOp49
 70
     1
102
RTVSPost2010Prop50
 90
       50
102
RTVSPost2010PropOp50
 70
     1
102
RTVSPost2010Prop51ColorIndex
 90
      256
102
RTVSPost2010Prop51ColorRGB
 90
-16777216
102
RTVSPost2010PropOp51
 70
     0
102
RTVSPost2010Prop52
140
1.0
102
RTVSPost2010PropOp52
 70
     0
102
RTVSPost2010Prop53
 90
        2
102
RTVSPost2010PropOp53
 70
     1
102
RTVSPost2010Prop54
  1
strokes_ogs.tif
102
RTVSPost2010PropOp54
 70
     1
102
RTVSPost2010Prop55
280
     0
102
RTVSPost2010PropOp55
 70
     1
102
RTVSPost2010Prop56
140
1.0
102
RTVSPost2010PropOp56
 70
     1
102
RTVSPost2010Prop57
140
1.0
102
RTVSPost2010PropOp57
 70
     1
102
RTVSPropertyOp0
 70
     1
102
RTVSPropertyOp1
 70
     1
102
RTVSPropertyOp2
 70
     1
102
RTVSPropertyOp3
 70
     1
102
RTVSPropertyOp4
 70
     1
102
RTVSPropertyOp5
 70
     1
102
RTVSPropertyOp6
 70
     1
102
RTVSPropertyOp7
 70
     1
102
RTVSPropertyOp8
 70
     1
102
RTVSPropertyOp9
 70
     1
102
RTVSPropertyOp10
 70
     1
102
RTVSPropertyOp11
 70
     1
102
RTVSPropertyOp12
 70
     1
102
RTVSPropertyOp13
 70
     1
102
RTVSPropertyOp14
 70
     1
102
RTVSPropertyOp15
 70
     1
102
RTVSPropertyOp16
 70
     1
102
RTVSPropertyOp17
 70
     1
102
RTVSPropertyOp18
 70
     1
102
RTVSPropertyOp19
 70
     1
102
RTVSPropertyOp20
 70
     1
102
RTVSPropertyOp21
 70
     1
102
RTVSPropertyOp22
 70
     1
102
RTVSPropertyOp23
 70
     1
102
RTVSPropertyOp24
 70
     1
102
RTVSPropertyOp25
 70
     1
102
RTVSPropertyOp26
 70
     1
102
RTVSPropertyOp27
 70
     1
102
RTVSPropertyOp28
 70
     1
102
RTVSPropertyOp29
 70
     1
102
RTVSPropertyOp30
 70
     1
102
RTVSPropertyOp31
 70
     1
102
RTVSPropertyOp32
 70
     1
102
RTVSPropertyOp33
 70
     1
102
RTVSPropertyOp34
 70
     1
102
RTVSPropertyOp35
 70
     1
102
RTVSPropertyOp36
 70
     1
102
RTVSPropertyOp37
 70
     1
102
RTVSPropertyOp38
 70
     1
102
RTVSPropertyOp39
 70
     1
102
RTVSPropertyOp40
 70
     1
102
RTVSPropertyOp41
 70
     1
102
RTVSPropertyOp42
 70
     1
102
RTVSPropertyOp43
 70
     1
102
RTVSPropertyOp44
 70
     1
102
RTVSPropertyOp45
 70
     1
102
RTVSPropertyOp46
 70
     1
102
RTVSPropertyOp47
 70
     1
102
RTVSPropertyOp48
 70
     1
102
RTVSPropertyOp49
 70
     1
102
RTVSPropertyOp50
 70
     1
102
RTVSPropertyOp51
 70
     0
102
RTVSPropertyOp52
 70
     0
102
RTVSPropertyOp53
 70
     1
102
RTVSPropertyOp54
 70
     1
102
RTVSPropertyOp55
 70
     1
102
RTVSPropertyOp56
 70
     1
102
RTVSPropertyOp57
 70
     1
102
RTVSPropertyOp58
 70
     1
102
RTVSPropertyOp59
 70
     1
102
RTVSPropertyOp60
 70
     1
102
RTVSPropertyOp61
 70
     1
102
RTVSPropertyOp62
 70
     1
  0
XRECORD
  5
8727
102
{ACAD_REACTORS
330
8726
102
}
330
8726
100
AcDbXrecord
280
     1
102
RTVSPost2010Prop28
280
     0
102
RTVSPost2010PropOp28
 70
     1
102
RTVSPost2010Prop29
280
     1
102
RTVSPost2010PropOp29
 70
     1
102
RTVSPost2010Prop30
280
     1
102
RTVSPost2010PropOp30
 70
     1
102
RTVSPost2010Prop31
280
     0
102
RTVSPost2010PropOp31
 70
     1
102
RTVSPost2010Prop32
280
     0
102
RTVSPost2010PropOp32
 70
     1
102
RTVSPost2010Prop33
280
     0
102
RTVSPost2010PropOp33
 70
     1
102
RTVSPost2010Prop34
280
     0
102
RTVSPost2010PropOp34
 70
     1
102
RTVSPost2010Prop35
280
     0
102
RTVSPost2010PropOp35
 70
     1
102
RTVSPost2010Prop36
280
     0
102
RTVSPost2010PropOp36
 70
     1
102
RTVSPost2010Prop37
 90
       50
102
RTVSPost2010PropOp37
 70
     1
102
RTVSPost2010Prop38
140
0.0
102
RTVSPost2010PropOp38
 70
     1
102
RTVSPost2010Prop39
140
1.0
102
RTVSPost2010PropOp39
 70
     1
102
RTVSPost2010Prop40
 90
        0
102
RTVSPost2010PropOp40
 70
     1
102
RTVSPost2010Prop41ColorIndex
 90
       18
102
RTVSPost2010Prop41ColorRGB
 90
        0
102
RTVSPost2010PropOp41
 70
     1
102
RTVSPost2010Prop42
 90
       50
102
RTVSPost2010PropOp42
 70
     1
102
RTVSPost2010Prop43
 90
        3
102
RTVSPost2010PropOp43
 70
     1
102
RTVSPost2010Prop44ColorIndex
 90
        5
102
RTVSPost2010Prop44ColorRGB
 90
      255
102
RTVSPost2010PropOp44
 70
     1
102
RTVSPost2010Prop45
280
     0
102
RTVSPost2010PropOp45
 70
     1
102
RTVSPost2010Prop46
 90
       50
102
RTVSPost2010PropOp46
 70
     1
102
RTVSPost2010Prop47
 90
       50
102
RTVSPost2010PropOp47
 70
     1
102
RTVSPost2010Prop48
 90
       50
102
RTVSPost2010PropOp48
 70
     1
102
RTVSPost2010Prop49
280
     0
102
RTVSPost2010PropOp49
 70
     1
102
RTVSPost2010Prop50
 90
       50
102
RTVSPost2010PropOp50
 70
     1
102
RTVSPost2010Prop51ColorIndex
 90
      256
102
RTVSPost2010Prop51ColorRGB
 90
-16777216
102
RTVSPost2010PropOp51
 70
     0
102
RTVSPost2010Prop52
140
1.0
102
RTVSPost2010PropOp52
 70
     0
102
RTVSPost2010Prop53
 90
        2
102
RTVSPost2010PropOp53
 70
     1
102
RTVSPost2010Prop54
  1
strokes_ogs.tif
102
RTVSPost2010PropOp54
 70
     1
102
RTVSPost2010Prop55
280
     0
102
RTVSPost2010PropOp55
 70
     1
102
RTVSPost2010Prop56
140
1.0
102
RTVSPost2010PropOp56
 70
     1
102
RTVSPost2010Prop57
140
1.0
102
RTVSPost2010PropOp57
 70
     1
102
RTVSPropertyOp0
 70
     1
102
RTVSPropertyOp1
 70
     1
102
RTVSPropertyOp2
 70
     1
102
RTVSPropertyOp3
 70
     1
102
RTVSPropertyOp4
 70
     1
102
RTVSPropertyOp5
 70
     1
102
RTVSPropertyOp6
 70
     1
102
RTVSPropertyOp7
 70
     1
102
RTVSPropertyOp8
 70
     1
102
RTVSPropertyOp9
 70
     1
102
RTVSPropertyOp10
 70
     1
102
RTVSPropertyOp11
 70
     1
102
RTVSPropertyOp12
 70
     1
102
RTVSPropertyOp13
 70
     1
102
RTVSPropertyOp14
 70
     1
102
RTVSPropertyOp15
 70
     1
102
RTVSPropertyOp16
 70
     1
102
RTVSPropertyOp17
 70
     1
102
RTVSPropertyOp18
 70
     1
102
RTVSPropertyOp19
 70
     1
102
RTVSPropertyOp20
 70
     1
102
RTVSPropertyOp21
 70
     1
102
RTVSPropertyOp22
 70
     1
102
RTVSPropertyOp23
 70
     1
102
RTVSPropertyOp24
 70
     1
102
RTVSPropertyOp25
 70
     1
102
RTVSPropertyOp26
 70
     1
102
RTVSPropertyOp27
 70
     1
102
RTVSPropertyOp28
 70
     1
102
RTVSPropertyOp29
 70
     1
102
RTVSPropertyOp30
 70
     1
102
RTVSPropertyOp31
 70
     1
102
RTVSPropertyOp32
 70
     1
102
RTVSPropertyOp33
 70
     1
102
RTVSPropertyOp34
 70
     1
102
RTVSPropertyOp35
 70
     1
102
RTVSPropertyOp36
 70
     1
102
RTVSPropertyOp37
 70
     1
102
RTVSPropertyOp38
 70
     1
102
RTVSPropertyOp39
 70
     1
102
RTVSPropertyOp40
 70
     1
102
RTVSPropertyOp41
 70
     1
102
RTVSPropertyOp42
 70
     1
102
RTVSPropertyOp43
 70
     1
102
RTVSPropertyOp44
 70
     1
102
RTVSPropertyOp45
 70
     1
102
RTVSPropertyOp46
 70
     1
102
RTVSPropertyOp47
 70
     1
102
RTVSPropertyOp48
 70
     1
102
RTVSPropertyOp49
 70
     1
102
RTVSPropertyOp50
 70
     1
102
RTVSPropertyOp51
 70
     0
102
RTVSPropertyOp52
 70
     0
102
RTVSPropertyOp53
 70
     1
102
RTVSPropertyOp54
 70
     1
102
RTVSPropertyOp55
 70
     1
102
RTVSPropertyOp56
 70
     1
102
RTVSPropertyOp57
 70
     1
102
RTVSPropertyOp58
 70
     1
102
RTVSPropertyOp59
 70
     1
102
RTVSPropertyOp60
 70
     1
102
RTVSPropertyOp61
 70
     1
102
RTVSPropertyOp62
 70
     1
  0
XRECORD
  5
8721
102
{ACAD_REACTORS
330
8720
102
}
330
8720
100
AcDbXrecord
280
     1
102
RTVSPost2010Prop28
280
     0
102
RTVSPost2010PropOp28
 70
     1
102
RTVSPost2010Prop29
280
     1
102
RTVSPost2010PropOp29
 70
     1
102
RTVSPost2010Prop30
280
     1
102
RTVSPost2010PropOp30
 70
     1
102
RTVSPost2010Prop31
280
     0
102
RTVSPost2010PropOp31
 70
     1
102
RTVSPost2010Prop32
280
     0
102
RTVSPost2010PropOp32
 70
     1
102
RTVSPost2010Prop33
280
     0
102
RTVSPost2010PropOp33
 70
     1
102
RTVSPost2010Prop34
280
     0
102
RTVSPost2010PropOp34
 70
     1
102
RTVSPost2010Prop35
280
     0
102
RTVSPost2010PropOp35
 70
     1
102
RTVSPost2010Prop36
280
     0
102
RTVSPost2010PropOp36
 70
     1
102
RTVSPost2010Prop37
 90
       50
102
RTVSPost2010PropOp37
 70
     1
102
RTVSPost2010Prop38
140
0.0
102
RTVSPost2010PropOp38
 70
     1
102
RTVSPost2010Prop39
140
1.0
102
RTVSPost2010PropOp39
 70
     1
102
RTVSPost2010Prop40
 90
        0
102
RTVSPost2010PropOp40
 70
     1
102
RTVSPost2010Prop41ColorIndex
 90
       18
102
RTVSPost2010Prop41ColorRGB
 90
        0
102
RTVSPost2010PropOp41
 70
     1
102
RTVSPost2010Prop42
 90
       50
102
RTVSPost2010PropOp42
 70
     1
102
RTVSPost2010Prop43
 90
        3
102
RTVSPost2010PropOp43
 70
     1
102
RTVSPost2010Prop44ColorIndex
 90
        5
102
RTVSPost2010Prop44ColorRGB
 90
      255
102
RTVSPost2010PropOp44
 70
     1
102
RTVSPost2010Prop45
280
     0
102
RTVSPost2010PropOp45
 70
     1
102
RTVSPost2010Prop46
 90
       50
102
RTVSPost2010PropOp46
 70
     1
102
RTVSPost2010Prop47
 90
       50
102
RTVSPost2010PropOp47
 70
     1
102
RTVSPost2010Prop48
 90
       50
102
RTVSPost2010PropOp48
 70
     1
102
RTVSPost2010Prop49
280
     0
102
RTVSPost2010PropOp49
 70
     1
102
RTVSPost2010Prop50
 90
       50
102
RTVSPost2010PropOp50
 70
     1
102
RTVSPost2010Prop51ColorIndex
 90
      256
102
RTVSPost2010Prop51ColorRGB
 90
-16777216
102
RTVSPost2010PropOp51
 70
     0
102
RTVSPost2010Prop52
140
1.0
102
RTVSPost2010PropOp52
 70
     0
102
RTVSPost2010Prop53
 90
        2
102
RTVSPost2010PropOp53
 70
     1
102
RTVSPost2010Prop54
  1
strokes_ogs.tif
102
RTVSPost2010PropOp54
 70
     1
102
RTVSPost2010Prop55
280
     0
102
RTVSPost2010PropOp55
 70
     1
102
RTVSPost2010Prop56
140
1.0
102
RTVSPost2010PropOp56
 70
     1
102
RTVSPost2010Prop57
140
1.0
102
RTVSPost2010PropOp57
 70
     1
102
RTVSPropertyOp0
 70
     1
102
RTVSPropertyOp1
 70
     1
102
RTVSPropertyOp2
 70
     1
102
RTVSPropertyOp3
 70
     1
102
RTVSPropertyOp4
 70
     1
102
RTVSPropertyOp5
 70
     1
102
RTVSPropertyOp6
 70
     1
102
RTVSPropertyOp7
 70
     1
102
RTVSPropertyOp8
 70
     1
102
RTVSPropertyOp9
 70
     1
102
RTVSPropertyOp10
 70
     1
102
RTVSPropertyOp11
 70
     1
102
RTVSPropertyOp12
 70
     1
102
RTVSPropertyOp13
 70
     1
102
RTVSPropertyOp14
 70
     1
102
RTVSPropertyOp15
 70
     1
102
RTVSPropertyOp16
 70
     1
102
RTVSPropertyOp17
 70
     1
102
RTVSPropertyOp18
 70
     1
102
RTVSPropertyOp19
 70
     1
102
RTVSPropertyOp20
 70
     1
102
RTVSPropertyOp21
 70
     1
102
RTVSPropertyOp22
 70
     1
102
RTVSPropertyOp23
 70
     1
102
RTVSPropertyOp24
 70
     1
102
RTVSPropertyOp25
 70
     1
102
RTVSPropertyOp26
 70
     1
102
RTVSPropertyOp27
 70
     1
102
RTVSPropertyOp28
 70
     1
102
RTVSPropertyOp29
 70
     1
102
RTVSPropertyOp30
 70
     1
102
RTVSPropertyOp31
 70
     1
102
RTVSPropertyOp32
 70
     1
102
RTVSPropertyOp33
 70
     1
102
RTVSPropertyOp34
 70
     1
102
RTVSPropertyOp35
 70
     1
102
RTVSPropertyOp36
 70
     1
102
RTVSPropertyOp37
 70
     1
102
RTVSPropertyOp38
 70
     1
102
RTVSPropertyOp39
 70
     1
102
RTVSPropertyOp40
 70
     1
102
RTVSPropertyOp41
 70
     1
102
RTVSPropertyOp42
 70
     1
102
RTVSPropertyOp43
 70
     1
102
RTVSPropertyOp44
 70
     1
102
RTVSPropertyOp45
 70
     1
102
RTVSPropertyOp46
 70
     1
102
RTVSPropertyOp47
 70
     1
102
RTVSPropertyOp48
 70
     1
102
RTVSPropertyOp49
 70
     1
102
RTVSPropertyOp50
 70
     1
102
RTVSPropertyOp51
 70
     0
102
RTVSPropertyOp52
 70
     0
102
RTVSPropertyOp53
 70
     1
102
RTVSPropertyOp54
 70
     1
102
RTVSPropertyOp55
 70
     1
102
RTVSPropertyOp56
 70
     1
102
RTVSPropertyOp57
 70
     1
102
RTVSPropertyOp58
 70
     1
102
RTVSPropertyOp59
 70
     1
102
RTVSPropertyOp60
 70
     1
102
RTVSPropertyOp61
 70
     1
102
RTVSPropertyOp62
 70
     1
  0
XRECORD
  5
8723
102
{ACAD_REACTORS
330
8722
102
}
330
8722
100
AcDbXrecord
280
     1
102
RTVSPost2010Prop28
280
     0
102
RTVSPost2010PropOp28
 70
     1
102
RTVSPost2010Prop29
280
     1
102
RTVSPost2010PropOp29
 70
     1
102
RTVSPost2010Prop30
280
     1
102
RTVSPost2010PropOp30
 70
     1
102
RTVSPost2010Prop31
280
     0
102
RTVSPost2010PropOp31
 70
     1
102
RTVSPost2010Prop32
280
     0
102
RTVSPost2010PropOp32
 70
     1
102
RTVSPost2010Prop33
280
     0
102
RTVSPost2010PropOp33
 70
     1
102
RTVSPost2010Prop34
280
     0
102
RTVSPost2010PropOp34
 70
     1
102
RTVSPost2010Prop35
280
     0
102
RTVSPost2010PropOp35
 70
     1
102
RTVSPost2010Prop36
280
     0
102
RTVSPost2010PropOp36
 70
     1
102
RTVSPost2010Prop37
 90
       50
102
RTVSPost2010PropOp37
 70
     1
102
RTVSPost2010Prop38
140
0.0
102
RTVSPost2010PropOp38
 70
     1
102
RTVSPost2010Prop39
140
1.0
102
RTVSPost2010PropOp39
 70
     1
102
RTVSPost2010Prop40
 90
        0
102
RTVSPost2010PropOp40
 70
     1
102
RTVSPost2010Prop41ColorIndex
 90
       18
102
RTVSPost2010Prop41ColorRGB
 90
        0
102
RTVSPost2010PropOp41
 70
     1
102
RTVSPost2010Prop42
 90
       50
102
RTVSPost2010PropOp42
 70
     1
102
RTVSPost2010Prop43
 90
        3
102
RTVSPost2010PropOp43
 70
     1
102
RTVSPost2010Prop44ColorIndex
 90
        5
102
RTVSPost2010Prop44ColorRGB
 90
      255
102
RTVSPost2010PropOp44
 70
     1
102
RTVSPost2010Prop45
280
     0
102
RTVSPost2010PropOp45
 70
     1
102
RTVSPost2010Prop46
 90
       50
102
RTVSPost2010PropOp46
 70
     1
102
RTVSPost2010Prop47
 90
       50
102
RTVSPost2010PropOp47
 70
     1
102
RTVSPost2010Prop48
 90
       50
102
RTVSPost2010PropOp48
 70
     1
102
RTVSPost2010Prop49
280
     0
102
RTVSPost2010PropOp49
 70
     1
102
RTVSPost2010Prop50
 90
       50
102
RTVSPost2010PropOp50
 70
     1
102
RTVSPost2010Prop51ColorIndex
 90
      256
102
RTVSPost2010Prop51ColorRGB
 90
-16777216
102
RTVSPost2010PropOp51
 70
     0
102
RTVSPost2010Prop52
140
1.0
102
RTVSPost2010PropOp52
 70
     0
102
RTVSPost2010Prop53
 90
        2
102
RTVSPost2010PropOp53
 70
     1
102
RTVSPost2010Prop54
  1
strokes_ogs.tif
102
RTVSPost2010PropOp54
 70
     1
102
RTVSPost2010Prop55
280
     0
102
RTVSPost2010PropOp55
 70
     1
102
RTVSPost2010Prop56
140
1.0
102
RTVSPost2010PropOp56
 70
     1
102
RTVSPost2010Prop57
140
1.0
102
RTVSPost2010PropOp57
 70
     1
102
RTVSPropertyOp0
 70
     1
102
RTVSPropertyOp1
 70
     1
102
RTVSPropertyOp2
 70
     1
102
RTVSPropertyOp3
 70
     1
102
RTVSPropertyOp4
 70
     1
102
RTVSPropertyOp5
 70
     1
102
RTVSPropertyOp6
 70
     1
102
RTVSPropertyOp7
 70
     1
102
RTVSPropertyOp8
 70
     1
102
RTVSPropertyOp9
 70
     1
102
RTVSPropertyOp10
 70
     1
102
RTVSPropertyOp11
 70
     1
102
RTVSPropertyOp12
 70
     1
102
RTVSPropertyOp13
 70
     1
102
RTVSPropertyOp14
 70
     1
102
RTVSPropertyOp15
 70
     1
102
RTVSPropertyOp16
 70
     1
102
RTVSPropertyOp17
 70
     1
102
RTVSPropertyOp18
 70
     1
102
RTVSPropertyOp19
 70
     1
102
RTVSPropertyOp20
 70
     1
102
RTVSPropertyOp21
 70
     1
102
RTVSPropertyOp22
 70
     1
102
RTVSPropertyOp23
 70
     1
102
RTVSPropertyOp24
 70
     1
102
RTVSPropertyOp25
 70
     1
102
RTVSPropertyOp26
 70
     1
102
RTVSPropertyOp27
 70
     1
102
RTVSPropertyOp28
 70
     1
102
RTVSPropertyOp29
 70
     1
102
RTVSPropertyOp30
 70
     1
102
RTVSPropertyOp31
 70
     1
102
RTVSPropertyOp32
 70
     1
102
RTVSPropertyOp33
 70
     1
102
RTVSPropertyOp34
 70
     1
102
RTVSPropertyOp35
 70
     1
102
RTVSPropertyOp36
 70
     1
102
RTVSPropertyOp37
 70
     1
102
RTVSPropertyOp38
 70
     1
102
RTVSPropertyOp39
 70
     1
102
RTVSPropertyOp40
 70
     1
102
RTVSPropertyOp41
 70
     1
102
RTVSPropertyOp42
 70
     1
102
RTVSPropertyOp43
 70
     1
102
RTVSPropertyOp44
 70
     1
102
RTVSPropertyOp45
 70
     1
102
RTVSPropertyOp46
 70
     1
102
RTVSPropertyOp47
 70
     1
102
RTVSPropertyOp48
 70
     1
102
RTVSPropertyOp49
 70
     1
102
RTVSPropertyOp50
 70
     1
102
RTVSPropertyOp51
 70
     0
102
RTVSPropertyOp52
 70
     0
102
RTVSPropertyOp53
 70
     1
102
RTVSPropertyOp54
 70
     1
102
RTVSPropertyOp55
 70
     1
102
RTVSPropertyOp56
 70
     1
102
RTVSPropertyOp57
 70
     1
102
RTVSPropertyOp58
 70
     1
102
RTVSPropertyOp59
 70
     1
102
RTVSPropertyOp60
 70
     1
102
RTVSPropertyOp61
 70
     1
102
RTVSPropertyOp62
 70
     1
  0
XRECORD
  5
8719
102
{ACAD_REACTORS
330
8718
102
}
330
8718
100
AcDbXrecord
280
     1
102
RTVSPost2010Prop28
280
     0
102
RTVSPost2010PropOp28
 70
     1
102
RTVSPost2010Prop29
280
     1
102
RTVSPost2010PropOp29
 70
     1
102
RTVSPost2010Prop30
280
     1
102
RTVSPost2010PropOp30
 70
     1
102
RTVSPost2010Prop31
280
     0
102
RTVSPost2010PropOp31
 70
     1
102
RTVSPost2010Prop32
280
     0
102
RTVSPost2010PropOp32
 70
     1
102
RTVSPost2010Prop33
280
     0
102
RTVSPost2010PropOp33
 70
     1
102
RTVSPost2010Prop34
280
     0
102
RTVSPost2010PropOp34
 70
     1
102
RTVSPost2010Prop35
280
     0
102
RTVSPost2010PropOp35
 70
     1
102
RTVSPost2010Prop36
280
     0
102
RTVSPost2010PropOp36
 70
     1
102
RTVSPost2010Prop37
 90
       50
102
RTVSPost2010PropOp37
 70
     1
102
RTVSPost2010Prop38
140
0.0
102
RTVSPost2010PropOp38
 70
     1
102
RTVSPost2010Prop39
140
1.0
102
RTVSPost2010PropOp39
 70
     1
102
RTVSPost2010Prop40
 90
        0
102
RTVSPost2010PropOp40
 70
     1
102
RTVSPost2010Prop41ColorIndex
 90
       18
102
RTVSPost2010Prop41ColorRGB
 90
        0
102
RTVSPost2010PropOp41
 70
     1
102
RTVSPost2010Prop42
 90
       50
102
RTVSPost2010PropOp42
 70
     1
102
RTVSPost2010Prop43
 90
        3
102
RTVSPost2010PropOp43
 70
     1
102
RTVSPost2010Prop44ColorIndex
 90
        5
102
RTVSPost2010Prop44ColorRGB
 90
      255
102
RTVSPost2010PropOp44
 70
     1
102
RTVSPost2010Prop45
280
     0
102
RTVSPost2010PropOp45
 70
     1
102
RTVSPost2010Prop46
 90
       50
102
RTVSPost2010PropOp46
 70
     1
102
RTVSPost2010Prop47
 90
       50
102
RTVSPost2010PropOp47
 70
     1
102
RTVSPost2010Prop48
 90
       50
102
RTVSPost2010PropOp48
 70
     1
102
RTVSPost2010Prop49
280
     0
102
RTVSPost2010PropOp49
 70
     1
102
RTVSPost2010Prop50
 90
       50
102
RTVSPost2010PropOp50
 70
     1
102
RTVSPost2010Prop51ColorIndex
 90
      256
102
RTVSPost2010Prop51ColorRGB
 90
-16777216
102
RTVSPost2010PropOp51
 70
     0
102
RTVSPost2010Prop52
140
1.0
102
RTVSPost2010PropOp52
 70
     0
102
RTVSPost2010Prop53
 90
        2
102
RTVSPost2010PropOp53
 70
     1
102
RTVSPost2010Prop54
  1
strokes_ogs.tif
102
RTVSPost2010PropOp54
 70
     1
102
RTVSPost2010Prop55
280
     0
102
RTVSPost2010PropOp55
 70
     1
102
RTVSPost2010Prop56
140
1.0
102
RTVSPost2010PropOp56
 70
     1
102
RTVSPost2010Prop57
140
1.0
102
RTVSPost2010PropOp57
 70
     1
102
RTVSPropertyOp0
 70
     1
102
RTVSPropertyOp1
 70
     1
102
RTVSPropertyOp2
 70
     1
102
RTVSPropertyOp3
 70
     1
102
RTVSPropertyOp4
 70
     1
102
RTVSPropertyOp5
 70
     1
102
RTVSPropertyOp6
 70
     1
102
RTVSPropertyOp7
 70
     1
102
RTVSPropertyOp8
 70
     1
102
RTVSPropertyOp9
 70
     1
102
RTVSPropertyOp10
 70
     1
102
RTVSPropertyOp11
 70
     1
102
RTVSPropertyOp12
 70
     1
102
RTVSPropertyOp13
 70
     1
102
RTVSPropertyOp14
 70
     1
102
RTVSPropertyOp15
 70
     1
102
RTVSPropertyOp16
 70
     1
102
RTVSPropertyOp17
 70
     1
102
RTVSPropertyOp18
 70
     1
102
RTVSPropertyOp19
 70
     1
102
RTVSPropertyOp20
 70
     1
102
RTVSPropertyOp21
 70
     1
102
RTVSPropertyOp22
 70
     1
102
RTVSPropertyOp23
 70
     1
102
RTVSPropertyOp24
 70
     1
102
RTVSPropertyOp25
 70
     1
102
RTVSPropertyOp26
 70
     1
102
RTVSPropertyOp27
 70
     1
102
RTVSPropertyOp28
 70
     1
102
RTVSPropertyOp29
 70
     1
102
RTVSPropertyOp30
 70
     1
102
RTVSPropertyOp31
 70
     1
102
RTVSPropertyOp32
 70
     1
102
RTVSPropertyOp33
 70
     1
102
RTVSPropertyOp34
 70
     1
102
RTVSPropertyOp35
 70
     1
102
RTVSPropertyOp36
 70
     1
102
RTVSPropertyOp37
 70
     1
102
RTVSPropertyOp38
 70
     1
102
RTVSPropertyOp39
 70
     1
102
RTVSPropertyOp40
 70
     1
102
RTVSPropertyOp41
 70
     1
102
RTVSPropertyOp42
 70
     1
102
RTVSPropertyOp43
 70
     1
102
RTVSPropertyOp44
 70
     1
102
RTVSPropertyOp45
 70
     1
102
RTVSPropertyOp46
 70
     1
102
RTVSPropertyOp47
 70
     1
102
RTVSPropertyOp48
 70
     1
102
RTVSPropertyOp49
 70
     1
102
RTVSPropertyOp50
 70
     1
102
RTVSPropertyOp51
 70
     0
102
RTVSPropertyOp52
 70
     0
102
RTVSPropertyOp53
 70
     1
102
RTVSPropertyOp54
 70
     1
102
RTVSPropertyOp55
 70
     1
102
RTVSPropertyOp56
 70
     1
102
RTVSPropertyOp57
 70
     1
102
RTVSPropertyOp58
 70
     1
102
RTVSPropertyOp59
 70
     1
102
RTVSPropertyOp60
 70
     1
102
RTVSPropertyOp61
 70
     1
102
RTVSPropertyOp62
 70
     1
  0
XRECORD
  5
870D
102
{ACAD_REACTORS
330
870C
102
}
330
870C
100
AcDbXrecord
280
     1
102
RTVSPost2010Prop28
280
     0
102
RTVSPost2010PropOp28
 70
     1
102
RTVSPost2010Prop29
280
     1
102
RTVSPost2010PropOp29
 70
     1
102
RTVSPost2010Prop30
280
     1
102
RTVSPost2010PropOp30
 70
     1
102
RTVSPost2010Prop31
280
     0
102
RTVSPost2010PropOp31
 70
     1
102
RTVSPost2010Prop32
280
     0
102
RTVSPost2010PropOp32
 70
     1
102
RTVSPost2010Prop33
280
     0
102
RTVSPost2010PropOp33
 70
     1
102
RTVSPost2010Prop34
280
     0
102
RTVSPost2010PropOp34
 70
     1
102
RTVSPost2010Prop35
280
     0
102
RTVSPost2010PropOp35
 70
     1
102
RTVSPost2010Prop36
280
     0
102
RTVSPost2010PropOp36
 70
     1
102
RTVSPost2010Prop37
 90
       50
102
RTVSPost2010PropOp37
 70
     1
102
RTVSPost2010Prop38
140
0.0
102
RTVSPost2010PropOp38
 70
     1
102
RTVSPost2010Prop39
140
1.0
102
RTVSPost2010PropOp39
 70
     1
102
RTVSPost2010Prop40
 90
        0
102
RTVSPost2010PropOp40
 70
     1
102
RTVSPost2010Prop41ColorIndex
 90
       18
102
RTVSPost2010Prop41ColorRGB
 90
        0
102
RTVSPost2010PropOp41
 70
     1
102
RTVSPost2010Prop42
 90
       50
102
RTVSPost2010PropOp42
 70
     1
102
RTVSPost2010Prop43
 90
        3
102
RTVSPost2010PropOp43
 70
     1
102
RTVSPost2010Prop44ColorIndex
 90
        5
102
RTVSPost2010Prop44ColorRGB
 90
      255
102
RTVSPost2010PropOp44
 70
     1
102
RTVSPost2010Prop45
280
     0
102
RTVSPost2010PropOp45
 70
     1
102
RTVSPost2010Prop46
 90
       50
102
RTVSPost2010PropOp46
 70
     1
102
RTVSPost2010Prop47
 90
       50
102
RTVSPost2010PropOp47
 70
     1
102
RTVSPost2010Prop48
 90
       50
102
RTVSPost2010PropOp48
 70
     1
102
RTVSPost2010Prop49
280
     0
102
RTVSPost2010PropOp49
 70
     1
102
RTVSPost2010Prop50
 90
       50
102
RTVSPost2010PropOp50
 70
     1
102
RTVSPost2010Prop51ColorIndex
 90
      256
102
RTVSPost2010Prop51ColorRGB
 90
-16777216
102
RTVSPost2010PropOp51
 70
     0
102
RTVSPost2010Prop52
140
1.0
102
RTVSPost2010PropOp52
 70
     0
102
RTVSPost2010Prop53
 90
        2
102
RTVSPost2010PropOp53
 70
     1
102
RTVSPost2010Prop54
  1
strokes_ogs.tif
102
RTVSPost2010PropOp54
 70
     1
102
RTVSPost2010Prop55
280
     0
102
RTVSPost2010PropOp55
 70
     1
102
RTVSPost2010Prop56
140
1.0
102
RTVSPost2010PropOp56
 70
     1
102
RTVSPost2010Prop57
140
1.0
102
RTVSPost2010PropOp57
 70
     1
102
RTVSPropertyOp0
 70
     1
102
RTVSPropertyOp1
 70
     1
102
RTVSPropertyOp2
 70
     1
102
RTVSPropertyOp3
 70
     1
102
RTVSPropertyOp4
 70
     1
102
RTVSPropertyOp5
 70
     1
102
RTVSPropertyOp6
 70
     1
102
RTVSPropertyOp7
 70
     1
102
RTVSPropertyOp8
 70
     1
102
RTVSPropertyOp9
 70
     1
102
RTVSPropertyOp10
 70
     1
102
RTVSPropertyOp11
 70
     1
102
RTVSPropertyOp12
 70
     1
102
RTVSPropertyOp13
 70
     1
102
RTVSPropertyOp14
 70
     1
102
RTVSPropertyOp15
 70
     1
102
RTVSPropertyOp16
 70
     1
102
RTVSPropertyOp17
 70
     1
102
RTVSPropertyOp18
 70
     1
102
RTVSPropertyOp19
 70
     1
102
RTVSPropertyOp20
 70
     1
102
RTVSPropertyOp21
 70
     1
102
RTVSPropertyOp22
 70
     1
102
RTVSPropertyOp23
 70
     1
102
RTVSPropertyOp24
 70
     1
102
RTVSPropertyOp25
 70
     1
102
RTVSPropertyOp26
 70
     1
102
RTVSPropertyOp27
 70
     1
102
RTVSPropertyOp28
 70
     1
102
RTVSPropertyOp29
 70
     1
102
RTVSPropertyOp30
 70
     1
102
RTVSPropertyOp31
 70
     1
102
RTVSPropertyOp32
 70
     1
102
RTVSPropertyOp33
 70
     1
102
RTVSPropertyOp34
 70
     1
102
RTVSPropertyOp35
 70
     1
102
RTVSPropertyOp36
 70
     1
102
RTVSPropertyOp37
 70
     1
102
RTVSPropertyOp38
 70
     1
102
RTVSPropertyOp39
 70
     1
102
RTVSPropertyOp40
 70
     1
102
RTVSPropertyOp41
 70
     1
102
RTVSPropertyOp42
 70
     1
102
RTVSPropertyOp43
 70
     1
102
RTVSPropertyOp44
 70
     1
102
RTVSPropertyOp45
 70
     1
102
RTVSPropertyOp46
 70
     1
102
RTVSPropertyOp47
 70
     1
102
RTVSPropertyOp48
 70
     1
102
RTVSPropertyOp49
 70
     1
102
RTVSPropertyOp50
 70
     1
102
RTVSPropertyOp51
 70
     0
102
RTVSPropertyOp52
 70
     0
102
RTVSPropertyOp53
 70
     1
102
RTVSPropertyOp54
 70
     1
102
RTVSPropertyOp55
 70
     1
102
RTVSPropertyOp56
 70
     1
102
RTVSPropertyOp57
 70
     1
102
RTVSPropertyOp58
 70
     1
102
RTVSPropertyOp59
 70
     1
102
RTVSPropertyOp60
 70
     1
102
RTVSPropertyOp61
 70
     1
102
RTVSPropertyOp62
 70
     1
  0
XRECORD
  5
8725
102
{ACAD_REACTORS
330
8724
102
}
330
8724
100
AcDbXrecord
280
     1
102
RTVSPost2010Prop28
280
     0
102
RTVSPost2010PropOp28
 70
     1
102
RTVSPost2010Prop29
280
     1
102
RTVSPost2010PropOp29
 70
     1
102
RTVSPost2010Prop30
280
     1
102
RTVSPost2010PropOp30
 70
     1
102
RTVSPost2010Prop31
280
     0
102
RTVSPost2010PropOp31
 70
     1
102
RTVSPost2010Prop32
280
     0
102
RTVSPost2010PropOp32
 70
     1
102
RTVSPost2010Prop33
280
     0
102
RTVSPost2010PropOp33
 70
     1
102
RTVSPost2010Prop34
280
     0
102
RTVSPost2010PropOp34
 70
     1
102
RTVSPost2010Prop35
280
     0
102
RTVSPost2010PropOp35
 70
     1
102
RTVSPost2010Prop36
280
     0
102
RTVSPost2010PropOp36
 70
     1
102
RTVSPost2010Prop37
 90
       50
102
RTVSPost2010PropOp37
 70
     1
102
RTVSPost2010Prop38
140
0.0
102
RTVSPost2010PropOp38
 70
     1
102
RTVSPost2010Prop39
140
1.0
102
RTVSPost2010PropOp39
 70
     1
102
RTVSPost2010Prop40
 90
        0
102
RTVSPost2010PropOp40
 70
     1
102
RTVSPost2010Prop41ColorIndex
 90
       18
102
RTVSPost2010Prop41ColorRGB
 90
        0
102
RTVSPost2010PropOp41
 70
     1
102
RTVSPost2010Prop42
 90
       50
102
RTVSPost2010PropOp42
 70
     1
102
RTVSPost2010Prop43
 90
        3
102
RTVSPost2010PropOp43
 70
     1
102
RTVSPost2010Prop44ColorIndex
 90
        5
102
RTVSPost2010Prop44ColorRGB
 90
      255
102
RTVSPost2010PropOp44
 70
     1
102
RTVSPost2010Prop45
280
     0
102
RTVSPost2010PropOp45
 70
     1
102
RTVSPost2010Prop46
 90
       50
102
RTVSPost2010PropOp46
 70
     1
102
RTVSPost2010Prop47
 90
       50
102
RTVSPost2010PropOp47
 70
     1
102
RTVSPost2010Prop48
 90
       50
102
RTVSPost2010PropOp48
 70
     1
102
RTVSPost2010Prop49
280
     0
102
RTVSPost2010PropOp49
 70
     1
102
RTVSPost2010Prop50
 90
       50
102
RTVSPost2010PropOp50
 70
     1
102
RTVSPost2010Prop51ColorIndex
 90
      256
102
RTVSPost2010Prop51ColorRGB
 90
-16777216
102
RTVSPost2010PropOp51
 70
     0
102
RTVSPost2010Prop52
140
1.0
102
RTVSPost2010PropOp52
 70
     0
102
RTVSPost2010Prop53
 90
        2
102
RTVSPost2010PropOp53
 70
     1
102
RTVSPost2010Prop54
  1
strokes_ogs.tif
102
RTVSPost2010PropOp54
 70
     1
102
RTVSPost2010Prop55
280
     0
102
RTVSPost2010PropOp55
 70
     1
102
RTVSPost2010Prop56
140
1.0
102
RTVSPost2010PropOp56
 70
     1
102
RTVSPost2010Prop57
140
1.0
102
RTVSPost2010PropOp57
 70
     1
102
RTVSPropertyOp0
 70
     1
102
RTVSPropertyOp1
 70
     1
102
RTVSPropertyOp2
 70
     1
102
RTVSPropertyOp3
 70
     1
102
RTVSPropertyOp4
 70
     1
102
RTVSPropertyOp5
 70
     1
102
RTVSPropertyOp6
 70
     1
102
RTVSPropertyOp7
 70
     1
102
RTVSPropertyOp8
 70
     1
102
RTVSPropertyOp9
 70
     1
102
RTVSPropertyOp10
 70
     1
102
RTVSPropertyOp11
 70
     1
102
RTVSPropertyOp12
 70
     1
102
RTVSPropertyOp13
 70
     1
102
RTVSPropertyOp14
 70
     1
102
RTVSPropertyOp15
 70
     1
102
RTVSPropertyOp16
 70
     1
102
RTVSPropertyOp17
 70
     1
102
RTVSPropertyOp18
 70
     1
102
RTVSPropertyOp19
 70
     1
102
RTVSPropertyOp20
 70
     1
102
RTVSPropertyOp21
 70
     1
102
RTVSPropertyOp22
 70
     1
102
RTVSPropertyOp23
 70
     1
102
RTVSPropertyOp24
 70
     1
102
RTVSPropertyOp25
 70
     1
102
RTVSPropertyOp26
 70
     1
102
RTVSPropertyOp27
 70
     1
102
RTVSPropertyOp28
 70
     1
102
RTVSPropertyOp29
 70
     1
102
RTVSPropertyOp30
 70
     1
102
RTVSPropertyOp31
 70
     1
102
RTVSPropertyOp32
 70
     1
102
RTVSPropertyOp33
 70
     1
102
RTVSPropertyOp34
 70
     1
102
RTVSPropertyOp35
 70
     1
102
RTVSPropertyOp36
 70
     1
102
RTVSPropertyOp37
 70
     1
102
RTVSPropertyOp38
 70
     1
102
RTVSPropertyOp39
 70
     1
102
RTVSPropertyOp40
 70
     1
102
RTVSPropertyOp41
 70
     1
102
RTVSPropertyOp42
 70
     1
102
RTVSPropertyOp43
 70
     1
102
RTVSPropertyOp44
 70
     1
102
RTVSPropertyOp45
 70
     1
102
RTVSPropertyOp46
 70
     1
102
RTVSPropertyOp47
 70
     1
102
RTVSPropertyOp48
 70
     1
102
RTVSPropertyOp49
 70
     1
102
RTVSPropertyOp50
 70
     1
102
RTVSPropertyOp51
 70
     0
102
RTVSPropertyOp52
 70
     0
102
RTVSPropertyOp53
 70
     1
102
RTVSPropertyOp54
 70
     1
102
RTVSPropertyOp55
 70
     1
102
RTVSPropertyOp56
 70
     1
102
RTVSPropertyOp57
 70
     1
102
RTVSPropertyOp58
 70
     1
102
RTVSPropertyOp59
 70
     1
102
RTVSPropertyOp60
 70
     1
102
RTVSPropertyOp61
 70
     1
102
RTVSPropertyOp62
 70
     1
  0
ENDSEC
  0
EOF
