  0
SECTION
  2
HEADER
  9
$ACADVER
  1
AC1015
  9
$ACADMAINTVER
 70
    20
  9
$DWGCODEPAGE
  3
ANSI_932
  9
$INSBASE
 10
0.0
 20
0.0
 30
0.0
  9
$EXTMIN
 10
-0.2242870864283759
 20
-0.3150699547441036
 30
-0.0015258207003583
  9
$EXTMAX
 10
7350.224321312532
 20
10325.31511803427
 30
0.0000000349246037
  9
$LIMMIN
 10
0.0
 20
0.0
  9
$LIMMAX
 10
297.0
 20
210.0
  9
$ORTHOMODE
 70
     1
  9
$REGENMODE
 70
     1
  9
$FILLMODE
 70
     0
  9
$QTEXTMODE
 70
     0
  9
$MIRRTEXT
 70
     1
  9
$LTSCALE
 40
100.0
  9
$ATTMODE
 70
     1
  9
$TEXTSIZE
 40
180.0
  9
$TRACEWID
 40
0.05
  9
$TEXTSTYLE
  7
STANDARD
  9
$CLAYER
  8
3
  9
$CELTYPE
  6
ByLayer
  9
$CECOLOR
 62
   256
  9
$CELTSCALE
 40
1.0
  9
$DISPSILH
 70
     0
  9
$DIMSCALE
 40
35.0
  9
$DIMASZ
 40
2.0
  9
$DIMEXO
 40
0.5
  9
$DIMDLI
 40
10.0
  9
$DIMRND
 40
0.0
  9
$DIMDLE
 40
0.0
  9
$DIMEXE
 40
1.0
  9
$DIMTP
 40
1.0
  9
$DIMTM
 40
1.0
  9
$DIMTXT
 40
3.0
  9
$DIMCEN
 40
0.0
  9
$DIMTSZ
 40
0.0
  9
$DIMTOL
 70
     0
  9
$DIMLIM
 70
     0
  9
$DIMTIH
 70
     0
  9
$DIMTOH
 70
     0
  9
$DIMSE1
 70
     0
  9
$DIMSE2
 70
     0
  9
$DIMTAD
 70
     1
  9
$DIMZIN
 70
     8
  9
$DIMBLK
  1

  9
$DIMASO
 70
     1
  9
$DIMSHO
 70
     1
  9
$DIMPOST
  1

  9
$DIMAPOST
  1

  9
$DIMALT
 70
     0
  9
$DIMALTD
 70
     2
  9
$DIMALTF
 40
0.039
  9
$DIMLFAC
 40
1.0
  9
$DIMTOFL
 70
     1
  9
$DIMTVP
 40
0.0
  9
$DIMTIX
 70
     0
  9
$DIMSOXD
 70
     0
  9
$DIMSAH
 70
     1
  9
$DIMBLK1
  1
OPEN
  9
$DIMBLK2
  1
OPEN
  9
$DIMSTYLE
  2
IGA
  9
$DIMCLRD
 70
     0
  9
$DIMCLRE
 70
     0
  9
$DIMCLRT
 70
     0
  9
$DIMTFAC
 40
10.0
  9
$DIMGAP
 40
1.0
  9
$DIMJUST
 70
     0
  9
$DIMSD1
 70
     0
  9
$DIMSD2
 70
     0
  9
$DIMTOLJ
 70
     1
  9
$DIMTZIN
 70
     0
  9
$DIMALTZ
 70
     0
  9
$DIMALTTZ
 70
     0
  9
$DIMUPT
 70
     0
  9
$DIMDEC
 70
     4
  9
$DIMTDEC
 70
     4
  9
$DIMALTU
 70
     2
  9
$DIMALTTD
 70
     2
  9
$DIMTXSTY
  7
STANDARD
  9
$DIMAUNIT
 70
     0
  9
$DIMADEC
 70
     0
  9
$DIMALTRND
 40
0.0
  9
$DIMAZIN
 70
     0
  9
$DIMDSEP
 70
    46
  9
$DIMATFIT
 70
     3
  9
$DIMFRAC
 70
     0
  9
$DIMLDRBLK
  1
OPEN
  9
$DIMLUNIT
 70
     2
  9
$DIMLWD
 70
    -2
  9
$DIMLWE
 70
    -2
  9
$DIMTMOVE
 70
     0
  9
$LUNITS
 70
     2
  9
$LUPREC
 70
     3
  9
$SKETCHINC
 40
0.1
  9
$FILLETRAD
 40
50.0
  9
$AUNITS
 70
     0
  9
$AUPREC
 70
     0
  9
$MENU
  1
acad
  9
$ELEVATION
 40
0.0
  9
$PELEVATION
 40
0.0
  9
$THICKNESS
 40
0.0
  9
$LIMCHECK
 70
     0
  9
$CHAMFERA
 40
0.5
  9
$CHAMFERB
 40
0.5
  9
$CHAMFERC
 40
0.0
  9
$CHAMFERD
 40
0.0
  9
$SKPOLY
 70
     0
  9
$TDCREATE
 40
2451390.429135880
  9
$TDUCREATE
 40
2451390.054135880
  9
$TDUPDATE
 40
2460273.560506343
  9
$TDUUPDATE
 40
2460273.185506343
  9
$TDINDWG
 40
0.0142724769
  9
$TDUSRTIMER
 40
0.0142722222
  9
$USRTIMER
 70
     1
  9
$ANGBASE
 50
0.0
  9
$ANGDIR
 70
     0
  9
$PDMODE
 70
     0
  9
$PDSIZE
 40
0.0
  9
$PLINEWID
 40
0.0
  9
$SPLFRAME
 70
     0
  9
$SPLINETYPE
 70
     6
  9
$SPLINESEGS
 70
     8
  9
$HANDSEED
  5
86A3
  9
$SURFTAB1
 70
     6
  9
$SURFTAB2
 70
     6
  9
$SURFTYPE
 70
     6
  9
$SURFU
 70
     6
  9
$SURFV
 70
     6
  9
$UCSBASE
  2

  9
$UCSNAME
  2

  9
$UCSORG
 10
0.0
 20
0.0
 30
0.0
  9
$UCSXDIR
 10
1.0
 20
0.0
 30
0.0
  9
$UCSYDIR
 10
0.0
 20
1.0
 30
0.0
  9
$UCSORTHOREF
  2

  9
$UCSORTHOVIEW
 70
     0
  9
$UCSORGTOP
 10
0.0
 20
0.0
 30
0.0
  9
$UCSORGBOTTOM
 10
0.0
 20
0.0
 30
0.0
  9
$UCSORGLEFT
 10
0.0
 20
0.0
 30
0.0
  9
$UCSORGRIGHT
 10
0.0
 20
0.0
 30
0.0
  9
$UCSORGFRONT
 10
0.0
 20
0.0
 30
0.0
  9
$UCSORGBACK
 10
0.0
 20
0.0
 30
0.0
  9
$PUCSBASE
  2

  9
$PUCSNAME
  2

  9
$PUCSORG
 10
0.0
 20
0.0
 30
0.0
  9
$PUCSXDIR
 10
1.0
 20
0.0
 30
0.0
  9
$PUCSYDIR
 10
0.0
 20
1.0
 30
0.0
  9
$PUCSORTHOREF
  2

  9
$PUCSORTHOVIEW
 70
     0
  9
$PUCSORGTOP
 10
0.0
 20
0.0
 30
0.0
  9
$PUCSORGBOTTOM
 10
0.0
 20
0.0
 30
0.0
  9
$PUCSORGLEFT
 10
0.0
 20
0.0
 30
0.0
  9
$PUCSORGRIGHT
 10
0.0
 20
0.0
 30
0.0
  9
$PUCSORGFRONT
 10
0.0
 20
0.0
 30
0.0
  9
$PUCSORGBACK
 10
0.0
 20
0.0
 30
0.0
  9
$USERI1
 70
     0
  9
$USERI2
 70
     0
  9
$USERI3
 70
     0
  9
$USERI4
 70
     0
  9
$USERI5
 70
     0
  9
$USERR1
 40
0.0
  9
$USERR2
 40
0.0
  9
$USERR3
 40
0.0
  9
$USERR4
 40
0.0
  9
$USERR5
 40
0.0
  9
$WORLDVIEW
 70
     1
  9
$SHADEDGE
 70
     3
  9
$SHADEDIF
 70
    70
  9
$TILEMODE
 70
     1
  9
$MAXACTVP
 70
    16
  9
$PINSBASE
 10
0.0
 20
0.0
 30
0.0
  9
$PLIMCHECK
 70
     0
  9
$PEXTMIN
 10
1.000000000000000E+20
 20
1.000000000000000E+20
 30
1.000000000000000E+20
  9
$PEXTMAX
 10
-1.000000000000000E+20
 20
-1.000000000000000E+20
 30
-1.000000000000000E+20
  9
$PLIMMIN
 10
0.0
 20
0.0
  9
$PLIMMAX
 10
12.0
 20
9.0
  9
$UNITMODE
 70
     0
  9
$VISRETAIN
 70
     0
  9
$PLINEGEN
 70
     0
  9
$PSLTSCALE
 70
     1
  9
$TREEDEPTH
 70
  3020
  9
$CMLSTYLE
  2
Standard
  9
$CMLJUST
 70
     0
  9
$CMLSCALE
 40
1.0
  9
$PROXYGRAPHICS
 70
     1
  9
$MEASUREMENT
 70
     0
  9
$CELWEIGHT
370
    -1
  9
$ENDCAPS
280
     0
  9
$JOINSTYLE
280
     0
  9
$LWDISPLAY
290
     0
  9
$INSUNITS
 70
     0
  9
$HYPERLINKBASE
  1

  9
$STYLESHEET
  1

  9
$XEDIT
290
     1
  9
$CEPSNTYPE
380
     0
  9
$PSTYLEMODE
290
     1
  9
$FINGERPRINTGUID
  2
{745EAA6F-B403-47D4-B5DE-D5750BA3E023}
  9
$VERSIONGUID
  2
{B9675D33-7327-477C-BEEF-9C4CD803CA01}
  9
$EXTNAMES
290
     1
  9
$PSVPSCALE
 40
0.0
  9
$OLESTARTUP
290
     0
  0
ENDSEC
  0
SECTION
  2
CLASSES
  0
CLASS
  1
ACDBDICTIONARYWDFLT
  2
AcDbDictionaryWithDefault
  3
ObjectDBX Classes
 90
        0
280
     0
281
     0
  0
CLASS
  1
MATERIAL
  2
AcDbMaterial
  3
ObjectDBX Classes
 90
     1153
280
     0
281
     0
  0
CLASS
  1
VISUALSTYLE
  2
AcDbVisualStyle
  3
ObjectDBX Classes
 90
     4095
280
     0
281
     0
  0
CLASS
  1
SCALE
  2
AcDbScale
  3
ObjectDBX Classes
 90
     1153
280
     0
281
     0
  0
CLASS
  1
TABLESTYLE
  2
AcDbTableStyle
  3
ObjectDBX Classes
 90
     4095
280
     0
281
     0
  0
CLASS
  1
MLEADERSTYLE
  2
AcDbMLeaderStyle
  3
ACDB_MLEADERSTYLE_CLASS
 90
     4095
280
     0
281
     0
  0
CLASS
  1
ACDBSECTIONVIEWSTYLE
  2
AcDbSectionViewStyle
  3
ObjectDBX Classes
 90
     1025
280
     0
281
     0
  0
CLASS
  1
ACDBDETAILVIEWSTYLE
  2
AcDbDetailViewStyle
  3
ObjectDBX Classes
 90
     1025
280
     0
281
     0
  0
CLASS
  1
SORTENTSTABLE
  2
AcDbSortentsTable
  3
ObjectDBX Classes
 90
        0
280
     0
281
     0
  0
CLASS
  1
DICTIONARYVAR
  2
AcDbDictionaryVar
  3
ObjectDBX Classes
 90
        0
280
     0
281
     0
  0
CLASS
  1
CELLSTYLEMAP
  2
AcDbCellStyleMap
  3
ObjectDBX Classes
 90
     1152
280
     0
281
     0
  0
CLASS
  1
ACDBPLACEHOLDER
  2
AcDbPlaceHolder
  3
ObjectDBX Classes
 90
        0
280
     0
281
     0
  0
CLASS
  1
LAYOUT
  2
AcDbLayout
  3
ObjectDBX Classes
 90
        0
280
     0
281
     0
  0
ENDSEC
  0
SECTION
  2
TABLES
  0
TABLE
  2
VPORT
  5
832B
330
0
100
AcDbSymbolTable
 70
     1
  0
VPORT
  5
8397
330
832B
100
AcDbSymbolTableRecord
100
AcDbViewportTableRecord
  2
*ACTIVE
 70
     0
 10
0.0
 20
0.0
 11
1.0
 21
1.0
 12
3675.000017113053
 22
5162.500024039763
 13
0.0
 23
0.0
 14
10.0
 24
10.0
 15
10.0
 25
10.0
 16
0.0
 26
0.0
 36
1.0
 17
0.0
 27
0.0
 37
0.0
 40
10391.74948481712
 41
2.050213675213675
 42
50.0
 43
0.0
 44
0.0
 50
0.0
 51
0.0
 71
     0
 72
   100
 73
     1
 74
     0
 75
     0
 76
     0
 77
     0
 78
     0
281
     0
 65
     1
110
0.0
120
0.0
130
0.0
111
1.0
121
0.0
131
0.0
112
0.0
122
1.0
132
0.0
 79
     0
146
0.0
1001
ACAD_NAV_VCDISPLAY
1070
     3
  0
ENDTAB
  0
TABLE
  2
LTYPE
  5
8328
330
0
100
AcDbSymbolTable
 70
     3
  0
LTYPE
  5
837D
330
8328
100
AcDbSymbolTableRecord
100
AcDbLinetypeTableRecord
  2
ByBlock
 70
     0
  3

 72
    65
 73
     0
 40
0.0
  0
LTYPE
  5
837E
330
8328
100
AcDbSymbolTableRecord
100
AcDbLinetypeTableRecord
  2
ByLayer
 70
     0
  3

 72
    65
 73
     0
 40
0.0
  0
LTYPE
  5
837F
330
8328
100
AcDbSymbolTableRecord
100
AcDbLinetypeTableRecord
  2
CONTINUOUS
 70
     0
  3
Solid line
 72
    65
 73
     0
 40
0.0
  0
LTYPE
  5
8398
330
8328
100
AcDbSymbolTableRecord
100
AcDbLinetypeTableRecord
  2
CENTER
 70
     0
  3
____ _ ____ _ ____ _ ____ _ ____ _ ____ _ ____ 
 72
    65
 73
     4
 40
2.0
 49
1.25
 74
     0
 49
-0.25
 74
     0
 49
0.25
 74
     0
 49
-0.25
 74
     0
  0
ENDTAB
  0
TABLE
  2
LAYER
  5
8325
330
0
100
AcDbSymbolTable
 70
     6
  0
LAYER
  5
8377
102
{ACAD_XDICTIONARY
360
864D
102
}
330
8325
100
AcDbSymbolTableRecord
100
AcDbLayerTableRecord
  2
0
 70
     0
 62
     7
  6
CONTINUOUS
370
    -3
390
8332
  0
LAYER
  5
8396
102
{ACAD_XDICTIONARY
360
864F
102
}
330
8325
100
AcDbSymbolTableRecord
100
AcDbLayerTableRecord
  2
3
 70
     0
 62
     2
  6
CONTINUOUS
370
    -3
390
8332
  0
LAYER
  5
8399
102
{ACAD_XDICTIONARY
360
8651
102
}
330
8325
100
AcDbSymbolTableRecord
100
AcDbLayerTableRecord
  2
2
 70
     0
 62
     3
  6
CENTER
370
    -3
390
8332
  0
LAYER
  5
839A
102
{ACAD_XDICTIONARY
360
8653
102
}
330
8325
100
AcDbSymbolTableRecord
100
AcDbLayerTableRecord
  2
1
 70
     0
 62
     4
  6
CONTINUOUS
370
    -3
390
8332
  0
LAYER
  5
839B
102
{ACAD_XDICTIONARY
360
8655
102
}
330
8325
100
AcDbSymbolTableRecord
100
AcDbLayerTableRecord
  2
4
 70
     0
 62
     7
  6
CONTINUOUS
370
    -3
390
8332
  0
LAYER
  5
839C
330
8325
100
AcDbSymbolTableRecord
100
AcDbLayerTableRecord
  2
DEFPOINTS
 70
     0
 62
     7
  6
CONTINUOUS
290
     0
370
    -3
390
8332
  0
ENDTAB
  0
TABLE
  2
STYLE
  5
8326
330
0
100
AcDbSymbolTable
 70
     2
  0
STYLE
  5
8378
330
8326
100
AcDbSymbolTableRecord
100
AcDbTextStyleTableRecord
  2
STANDARD
 70
     0
 40
0.0
 41
1.0
 50
0.0
 71
     0
 42
180.0
  3
simplex.shx
  4
extfont.shx
  0
STYLE
  5
837C
330
8326
100
AcDbSymbolTableRecord
100
AcDbTextStyleTableRecord
  2
Annotative
 70
     0
 40
0.0
 41
1.0
 50
0.0
 71
     0
 42
0.2
  3
txt
  4

1001
AcadAnnotative
1000
AnnotativeData
1002
{
1070
     1
1070
     1
1002
}
  0
ENDTAB
  0
TABLE
  2
VIEW
  5
8329
330
0
100
AcDbSymbolTable
 70
     0
  0
ENDTAB
  0
TABLE
  2
UCS
  5
832A
330
0
100
AcDbSymbolTable
 70
     0
  0
ENDTAB
  0
TABLE
  2
APPID
  5
832C
330
0
100
AcDbSymbolTable
 70
     8
  0
APPID
  5
8379
330
832C
100
AcDbSymbolTableRecord
100
AcDbRegAppTableRecord
  2
ACAD
 70
     0
  0
APPID
  5
8380
330
832C
100
AcDbSymbolTableRecord
100
AcDbRegAppTableRecord
  2
AcadAnnotative
 70
     0
  0
APPID
  5
83DF
330
832C
100
AcDbSymbolTableRecord
100
AcDbRegAppTableRecord
  2
ACAD_DSTYLE_DIMJAG
 70
     0
  0
APPID
  5
83E0
330
832C
100
AcDbSymbolTableRecord
100
AcDbRegAppTableRecord
  2
ACAD_DSTYLE_DIMTALN
 70
     0
  0
APPID
  5
8415
330
832C
100
AcDbSymbolTableRecord
100
AcDbRegAppTableRecord
  2
AcadAnnoMonitorAlertIconDisabled
 70
     0
  0
APPID
  5
8416
330
832C
100
AcDbSymbolTableRecord
100
AcDbRegAppTableRecord
  2
ACAD_EXEMPT_FROM_CAD_STANDARDS
 70
     0
  0
APPID
  5
8661
330
832C
100
AcDbSymbolTableRecord
100
AcDbRegAppTableRecord
  2
ACAD_NAV_VCDISPLAY
 70
     0
  0
APPID
  5
869A
330
832C
100
AcDbSymbolTableRecord
100
AcDbRegAppTableRecord
  2
ACAD_MLEADERVER
 70
     0
  0
ENDTAB
  0
TABLE
  2
DIMSTYLE
  5
832D
330
0
100
AcDbSymbolTable
 70
     3
100
AcDbDimStyleTable
 71
     1
340
839D
  0
DIMSTYLE
105
837A
102
{ACAD_REACTORS
330
8141
330
814E
330
815B
330
8168
102
}
330
832D
100
AcDbSymbolTableRecord
100
AcDbDimStyleTableRecord
  2
Standard
 70
     0
340
8378
  0
DIMSTYLE
105
837B
330
832D
100
AcDbSymbolTableRecord
100
AcDbDimStyleTableRecord
  2
Annotative
 70
     0
340
8378
1001
AcadAnnotative
1000
AnnotativeData
1002
{
1070
     1
1070
     1
1002
}
  0
DIMSTYLE
105
839D
102
{ACAD_REACTORS
330
83E1
330
83EE
330
83FB
330
8408
330
8488
330
8495
330
84A2
330
84AF
330
84BC
330
84C9
330
84D6
330
84E3
330
84F0
330
84FD
330
850A
330
8517
330
8529
330
853B
102
}
330
832D
100
AcDbSymbolTableRecord
100
AcDbDimStyleTableRecord
  2
IGA
 70
     0
 40
2.0
 41
2.0
 42
0.5
 43
10.0
 44
1.0
 47
1.0
 48
1.0
 73
     0
 74
     0
 77
     1
 78
     8
140
3.0
141
0.0
143
0.03937
146
10.0
147
1.0
173
     1
271
     3
272
     3
279
     2
284
     8
285
     8
286
     8
340
8378
  0
ENDTAB
  0
TABLE
  2
BLOCK_RECORD
  5
8324
330
0
100
AcDbSymbolTable
 70
    48
  0
BLOCK_RECORD
  5
8392
102
{ACAD_XDICTIONARY
360
83DB
102
}
330
8324
100
AcDbSymbolTableRecord
100
AcDbBlockTableRecord
  2
*Model_Space
340
8395
  0
BLOCK_RECORD
  5
838E
330
8324
100
AcDbSymbolTableRecord
100
AcDbBlockTableRecord
  2
*Paper_Space
340
8391
  0
BLOCK_RECORD
  5
83A1
330
8324
100
AcDbSymbolTableRecord
100
AcDbBlockTableRecord
  2
$MODEL_SPACE
340
0
  0
BLOCK_RECORD
  5
83A3
330
8324
100
AcDbSymbolTableRecord
100
AcDbBlockTableRecord
  2
$PAPER_SPACE
340
0
  0
BLOCK_RECORD
  5
83A5
330
8324
100
AcDbSymbolTableRecord
100
AcDbBlockTableRecord
  2
_OPEN
340
0
102
{BLKREFS
331
85EF
331
8649
331
857B
331
857C
331
8281
331
8282
331
828A
331
828B
331
8293
331
8294
331
829C
331
829D
331
82A5
331
82A6
331
84B6
331
84B7
331
84C3
331
84C4
331
84D0
331
84D1
331
84DD
331
84DE
331
84EA
331
84EB
331
84F7
331
84F8
331
8504
331
8505
331
8511
331
8512
331
82AE
331
82AF
331
8463
331
8464
331
846C
331
846D
331
8482
331
8483
331
848F
331
8490
331
849C
331
849D
331
84A9
331
84AA
331
82B7
331
82B8
331
8154
331
8155
331
8161
331
8162
331
8198
331
8199
331
82C0
331
82C1
331
82C9
331
82CA
331
82D2
331
82D3
331
813A
331
813B
331
8147
331
8148
331
82DB
331
82DC
331
82E4
331
82E5
331
82ED
331
82EE
331
82F6
331
82F7
331
82FF
331
8300
331
830B
331
83F5
331
83F6
331
8424
331
8425
102
}
  0
BLOCK_RECORD
  5
83A7
330
8324
100
AcDbSymbolTableRecord
100
AcDbBlockTableRecord
  2
YA_N
340
0
102
{BLKREFS
331
7C14
331
7C35
331
7C3E
331
7C6A
331
7C90
102
}
  0
BLOCK_RECORD
  5
83A9
330
8324
100
AcDbSymbolTableRecord
100
AcDbBlockTableRecord
  2
*D4
340
0
  0
BLOCK_RECORD
  5
83AB
330
8324
100
AcDbSymbolTableRecord
100
AcDbBlockTableRecord
  2
*D5
340
0
  0
BLOCK_RECORD
  5
83AD
330
8324
100
AcDbSymbolTableRecord
100
AcDbBlockTableRecord
  2
*D6
340
0
  0
BLOCK_RECORD
  5
83AF
330
8324
100
AcDbSymbolTableRecord
100
AcDbBlockTableRecord
  2
*D7
340
0
  0
BLOCK_RECORD
  5
83B1
330
8324
100
AcDbSymbolTableRecord
100
AcDbBlockTableRecord
  2
*D8
340
0
  0
BLOCK_RECORD
  5
83B3
330
8324
100
AcDbSymbolTableRecord
100
AcDbBlockTableRecord
  2
*D9
340
0
  0
BLOCK_RECORD
  5
83B5
330
8324
100
AcDbSymbolTableRecord
100
AcDbBlockTableRecord
  2
*D10
340
0
  0
BLOCK_RECORD
  5
83B7
330
8324
100
AcDbSymbolTableRecord
100
AcDbBlockTableRecord
  2
*D11
340
0
  0
BLOCK_RECORD
  5
83B9
330
8324
100
AcDbSymbolTableRecord
100
AcDbBlockTableRecord
  2
*D12
340
0
  0
BLOCK_RECORD
  5
83BB
330
8324
100
AcDbSymbolTableRecord
100
AcDbBlockTableRecord
  2
*D13
340
0
  0
BLOCK_RECORD
  5
83BD
330
8324
100
AcDbSymbolTableRecord
100
AcDbBlockTableRecord
  2
*D14
340
0
  0
BLOCK_RECORD
  5
83BF
330
8324
100
AcDbSymbolTableRecord
100
AcDbBlockTableRecord
  2
*D15
340
0
  0
BLOCK_RECORD
  5
83C1
330
8324
100
AcDbSymbolTableRecord
100
AcDbBlockTableRecord
  2
*D16
340
0
  0
BLOCK_RECORD
  5
83C3
330
8324
100
AcDbSymbolTableRecord
100
AcDbBlockTableRecord
  2
*D17
340
0
  0
BLOCK_RECORD
  5
83C5
330
8324
100
AcDbSymbolTableRecord
100
AcDbBlockTableRecord
  2
*D18
340
0
  0
BLOCK_RECORD
  5
83C7
330
8324
100
AcDbSymbolTableRecord
100
AcDbBlockTableRecord
  2
*D19
340
0
  0
BLOCK_RECORD
  5
83C9
330
8324
100
AcDbSymbolTableRecord
100
AcDbBlockTableRecord
  2
_DOT
340
0
102
{BLKREFS
331
830A
102
}
  0
BLOCK_RECORD
  5
83CB
330
8324
100
AcDbSymbolTableRecord
100
AcDbBlockTableRecord
  2
*D21
340
0
  0
BLOCK_RECORD
  5
83CD
330
8324
100
AcDbSymbolTableRecord
100
AcDbBlockTableRecord
  2
*D22
340
0
  0
BLOCK_RECORD
  5
83CF
330
8324
100
AcDbSymbolTableRecord
100
AcDbBlockTableRecord
  2
*D23
340
0
  0
BLOCK_RECORD
  5
83D1
330
8324
100
AcDbSymbolTableRecord
100
AcDbBlockTableRecord
  2
*D24
340
0
  0
BLOCK_RECORD
  5
83D3
330
8324
100
AcDbSymbolTableRecord
100
AcDbBlockTableRecord
  2
_NONE
340
0
  0
BLOCK_RECORD
  5
83D5
330
8324
100
AcDbSymbolTableRecord
100
AcDbBlockTableRecord
  2
*D26
340
0
  0
BLOCK_RECORD
  5
83D7
330
8324
100
AcDbSymbolTableRecord
100
AcDbBlockTableRecord
  2
*D27
340
0
  0
BLOCK_RECORD
  5
83E2
330
8324
100
AcDbSymbolTableRecord
100
AcDbBlockTableRecord
  2
*D28
340
0
  0
BLOCK_RECORD
  5
83EF
330
8324
100
AcDbSymbolTableRecord
100
AcDbBlockTableRecord
  2
*D29
340
0
  0
BLOCK_RECORD
  5
83FC
330
8324
100
AcDbSymbolTableRecord
100
AcDbBlockTableRecord
  2
*D30
340
0
  0
BLOCK_RECORD
  5
8409
330
8324
100
AcDbSymbolTableRecord
100
AcDbBlockTableRecord
  2
*D31
340
0
  0
BLOCK_RECORD
  5
8473
330
8324
100
AcDbSymbolTableRecord
100
AcDbBlockTableRecord
  2
*D32
340
0
  0
BLOCK_RECORD
  5
8489
330
8324
100
AcDbSymbolTableRecord
100
AcDbBlockTableRecord
  2
*D33
340
0
  0
BLOCK_RECORD
  5
8496
330
8324
100
AcDbSymbolTableRecord
100
AcDbBlockTableRecord
  2
*D34
340
0
  0
BLOCK_RECORD
  5
84A3
330
8324
100
AcDbSymbolTableRecord
100
AcDbBlockTableRecord
  2
*D35
340
0
  0
BLOCK_RECORD
  5
84B0
330
8324
100
AcDbSymbolTableRecord
100
AcDbBlockTableRecord
  2
*D36
340
0
  0
BLOCK_RECORD
  5
84BD
330
8324
100
AcDbSymbolTableRecord
100
AcDbBlockTableRecord
  2
*D37
340
0
  0
BLOCK_RECORD
  5
84CA
330
8324
100
AcDbSymbolTableRecord
100
AcDbBlockTableRecord
  2
*D38
340
0
  0
BLOCK_RECORD
  5
84D7
330
8324
100
AcDbSymbolTableRecord
100
AcDbBlockTableRecord
  2
*D39
340
0
  0
BLOCK_RECORD
  5
84E4
330
8324
100
AcDbSymbolTableRecord
100
AcDbBlockTableRecord
  2
*D40
340
0
  0
BLOCK_RECORD
  5
84F1
330
8324
100
AcDbSymbolTableRecord
100
AcDbBlockTableRecord
  2
*D41
340
0
  0
BLOCK_RECORD
  5
84FE
330
8324
100
AcDbSymbolTableRecord
100
AcDbBlockTableRecord
  2
*D42
340
0
  0
BLOCK_RECORD
  5
850B
330
8324
100
AcDbSymbolTableRecord
100
AcDbBlockTableRecord
  2
*D43
340
0
  0
BLOCK_RECORD
  5
8518
330
8324
100
AcDbSymbolTableRecord
100
AcDbBlockTableRecord
  2
*D44
340
0
  0
BLOCK_RECORD
  5
852A
330
8324
100
AcDbSymbolTableRecord
100
AcDbBlockTableRecord
  2
*D45
340
0
  0
BLOCK_RECORD
  5
853C
330
8324
100
AcDbSymbolTableRecord
100
AcDbBlockTableRecord
  2
*D46
340
0
  0
BLOCK_RECORD
  5
85E2
330
8324
100
AcDbSymbolTableRecord
100
AcDbBlockTableRecord
  2
_DotSmall
340
0
102
{BLKREFS
331
85F0
331
8648
102
}
  0
ENDTAB
  0
ENDSEC
  0
SECTION
  2
BLOCKS
  0
BLOCK
  5
8393
330
8392
100
AcDbEntity
  8
0
100
AcDbBlockBegin
  2
*Model_Space
 70
     0
 10
0.0
 20
0.0
 30
0.0
  3
*Model_Space
  1

  0
ENDBLK
  5
8394
330
8392
100
AcDbEntity
  8
0
100
AcDbBlockEnd
  0
BLOCK
  5
838F
330
838E
100
AcDbEntity
 67
     1
  8
0
100
AcDbBlockBegin
  2
*Paper_Space
 70
     0
 10
0.0
 20
0.0
 30
0.0
  3
*Paper_Space
  1

  0
ENDBLK
  5
8390
330
838E
100
AcDbEntity
 67
     1
  8
0
100
AcDbBlockEnd
  0
BLOCK
  5
83A2
330
83A1
100
AcDbEntity
  8
0
100
AcDbBlockBegin
  2
$MODEL_SPACE
 70
     0
 10
0.0
 20
0.0
 30
0.0
  3
$MODEL_SPACE
  1

  0
ENDBLK
  5
1B
330
83A1
100
AcDbEntity
  8
0
100
AcDbBlockEnd
  0
BLOCK
  5
83A4
330
83A3
100
AcDbEntity
  8
0
100
AcDbBlockBegin
  2
$PAPER_SPACE
 70
     0
 10
0.0
 20
0.0
 30
0.0
  3
$PAPER_SPACE
  1

  0
ENDBLK
  5
18
330
83A3
100
AcDbEntity
  8
0
100
AcDbBlockEnd
  0
BLOCK
  5
83A6
330
83A5
100
AcDbEntity
  8
0
100
AcDbBlockBegin
  2
_OPEN
 70
     0
 10
0.0
 20
0.0
 30
0.0
  3
_OPEN
  1

  0
LINE
  5
79FD
330
83A5
100
AcDbEntity
  8
0
  6
ByBlock
 62
     0
100
AcDbLine
 10
-1.0
 20
0.1666666666666666
 30
0.0
 11
0.0
 21
0.0
 31
0.0
  0
LINE
  5
79FE
330
83A5
100
AcDbEntity
  8
0
  6
ByBlock
 62
     0
100
AcDbLine
 10
0.0
 20
0.0
 30
0.0
 11
-1.0
 21
-0.1666666666666666
 31
0.0
  0
LINE
  5
79FF
330
83A5
100
AcDbEntity
  8
0
  6
ByBlock
 62
     0
100
AcDbLine
 10
0.0
 20
0.0
 30
0.0
 11
-1.0
 21
0.0
 31
0.0
  0
ENDBLK
  5
7A01
330
83A5
100
AcDbEntity
  8
0
100
AcDbBlockEnd
  0
BLOCK
  5
83A8
330
83A7
100
AcDbEntity
  8
0
100
AcDbBlockBegin
  2
YA_N
 70
     0
 10
0.0
 20
0.0
 30
0.0
  3
YA_N
  1

  0
ENDBLK
  5
7A0C
330
83A7
100
AcDbEntity
  8
0
100
AcDbBlockEnd
  0
BLOCK
  5
83AA
330
83A9
100
AcDbEntity
  8
0
100
AcDbBlockBegin
  2
*D4
 70
     1
 10
0.0
 20
0.0
 30
0.0
  3
*D4
  1

  0
LINE
  5
827E
330
83A9
100
AcDbEntity
  8
3
 62
     0
100
AcDbLine
 10
3461.56856939381
 20
4204.787145966451
 30
0.0
 11
3461.56856939381
 21
4422.395462250719
 31
0.0
  0
LINE
  5
827F
330
83A9
100
AcDbEntity
  8
3
 62
     0
100
AcDbLine
 10
2311.568569393809
 20
4204.787145966451
 30
0.0
 11
2311.568569393809
 21
4422.395462250719
 31
0.0
  0
LINE
  5
8280
330
83A9
100
AcDbEntity
  8
3
 62
     0
100
AcDbLine
 10
3391.56856939381
 20
4387.395462250719
 30
0.0
 11
2381.56856939381
 21
4387.395462250719
 31
0.0
  0
INSERT
  5
8281
330
83A9
100
AcDbEntity
  8
3
 62
     0
100
AcDbBlockReference
  2
_OPEN
 10
3461.56856939381
 20
4387.395462250719
 30
0.0
 41
70.0
 42
70.0
 43
70.0
  0
INSERT
  5
8282
330
83A9
100
AcDbEntity
  8
3
 62
     0
100
AcDbBlockReference
  2
_OPEN
 10
2311.568569393809
 20
4387.395462250719
 30
0.0
 41
70.0
 42
70.0
 43
70.0
 50
180.0
  0
TEXT
  5
8313
330
83A9
100
AcDbEntity
  8
3
 62
     0
100
AcDbText
 10
2676.57
 20
4289.05
 30
0.0
 40
105.0
  1
1150
100
AcDbText
  0
POINT
  5
8284
330
83A9
100
AcDbEntity
  8
DEFPOINTS
 62
     0
100
AcDbPoint
 10
3461.56856939381
 20
4187.287145966453
 30
0.0
  0
POINT
  5
8285
330
83A9
100
AcDbEntity
  8
DEFPOINTS
 62
     0
100
AcDbPoint
 10
2311.568569393809
 20
4187.287145966453
 30
0.0
  0
POINT
  5
8286
330
83A9
100
AcDbEntity
  8
DEFPOINTS
 62
     0
100
AcDbPoint
 10
2311.568569393809
 20
4387.395462250719
 30
0.0
  0
ENDBLK
  5
7F7F
330
83A9
100
AcDbEntity
  8
0
100
AcDbBlockEnd
  0
BLOCK
  5
83AC
330
83AB
100
AcDbEntity
  8
0
100
AcDbBlockBegin
  2
*D5
 70
     1
 10
0.0
 20
0.0
 30
0.0
  3
*D5
  1

  0
LINE
  5
8287
330
83AB
100
AcDbEntity
  8
3
 62
     0
100
AcDbLine
 10
3461.56856939381
 20
4204.787145966451
 30
0.0
 11
3461.56856939381
 21
4622.547113112221
 31
0.0
  0
LINE
  5
8288
330
83AB
100
AcDbEntity
  8
3
 62
     0
100
AcDbLine
 10
2263.568569393809
 20
4290.626146865185
 30
0.0
 11
2263.568569393809
 21
4622.547113112221
 31
0.0
  0
LINE
  5
8289
330
83AB
100
AcDbEntity
  8
3
 62
     0
100
AcDbLine
 10
3391.56856939381
 20
4587.547113112221
 30
0.0
 11
2333.568569393809
 21
4587.547113112221
 31
0.0
  0
INSERT
  5
828A
330
83AB
100
AcDbEntity
  8
3
 62
     0
100
AcDbBlockReference
  2
_OPEN
 10
3461.56856939381
 20
4587.547113112221
 30
0.0
 41
70.0
 42
70.0
 43
70.0
  0
INSERT
  5
828B
330
83AB
100
AcDbEntity
  8
3
 62
     0
100
AcDbBlockReference
  2
_OPEN
 10
2263.568569393809
 20
4587.547113112221
 30
0.0
 41
70.0
 42
70.0
 43
70.0
 50
180.0
  0
TEXT
  5
8314
330
83AB
100
AcDbEntity
  8
3
 62
     0
100
AcDbText
 10
2652.57
 20
4489.199999999999
 30
0.0
 40
105.0
  1
1198
100
AcDbText
  0
POINT
  5
828D
330
83AB
100
AcDbEntity
  8
DEFPOINTS
 62
     0
100
AcDbPoint
 10
3461.56856939381
 20
4187.287145966453
 30
0.0
  0
POINT
  5
828E
330
83AB
100
AcDbEntity
  8
DEFPOINTS
 62
     0
100
AcDbPoint
 10
2263.568569393809
 20
4273.126146865187
 30
0.0
  0
POINT
  5
828F
330
83AB
100
AcDbEntity
  8
DEFPOINTS
 62
     0
100
AcDbPoint
 10
2263.568569393809
 20
4587.547113112221
 30
0.0
  0
ENDBLK
  5
7F8A
330
83AB
100
AcDbEntity
  8
0
100
AcDbBlockEnd
  0
BLOCK
  5
83AE
330
83AD
100
AcDbEntity
  8
0
100
AcDbBlockBegin
  2
*D6
 70
     1
 10
0.0
 20
0.0
 30
0.0
  3
*D6
  1

  0
LINE
  5
8290
330
83AD
100
AcDbEntity
  8
3
 62
     0
100
AcDbLine
 10
4727.419090021525
 20
4200.127419168548
 30
0.0
 11
4727.419090021525
 21
4482.405437488114
 31
0.0
  0
LINE
  5
8291
330
83AD
100
AcDbEntity
  8
3
 62
     0
100
AcDbLine
 10
6227.419090021524
 20
4194.278482506933
 30
0.0
 11
6227.419090021524
 21
4482.405437488114
 31
0.0
  0
LINE
  5
8292
330
83AD
100
AcDbEntity
  8
3
 62
     0
100
AcDbLine
 10
4797.419090021525
 20
4447.405437488114
 30
0.0
 11
6157.419090021527
 21
4447.405437488114
 31
0.0
  0
INSERT
  5
8293
330
83AD
100
AcDbEntity
  8
3
 62
     0
100
AcDbBlockReference
  2
_OPEN
 10
4727.419090021525
 20
4447.405437488114
 30
0.0
 41
70.0
 42
70.0
 43
70.0
 50
180.0
  0
INSERT
  5
8294
330
83AD
100
AcDbEntity
  8
3
 62
     0
100
AcDbBlockReference
  2
_OPEN
 10
6227.419090021524
 20
4447.405437488114
 30
0.0
 41
70.0
 42
70.0
 43
70.0
  0
TEXT
  5
8315
330
83AD
100
AcDbEntity
  8
3
 62
     0
100
AcDbText
 10
5267.42
 20
4349.06
 30
0.0
 40
105.0
  1
1500
100
AcDbText
  0
POINT
  5
8296
330
83AD
100
AcDbEntity
  8
DEFPOINTS
 62
     0
100
AcDbPoint
 10
4727.419090021525
 20
4182.627419168547
 30
0.0
  0
POINT
  5
8297
330
83AD
100
AcDbEntity
  8
DEFPOINTS
 62
     0
100
AcDbPoint
 10
6227.419090021524
 20
4176.778482506934
 30
0.0
  0
POINT
  5
8298
330
83AD
100
AcDbEntity
  8
DEFPOINTS
 62
     0
100
AcDbPoint
 10
6227.419090021524
 20
4447.405437488114
 30
0.0
  0
ENDBLK
  5
8028
330
83AD
100
AcDbEntity
  8
0
100
AcDbBlockEnd
  0
BLOCK
  5
83B0
330
83AF
100
AcDbEntity
  8
0
100
AcDbBlockBegin
  2
*D7
 70
     1
 10
0.0
 20
0.0
 30
0.0
  3
*D7
  1

  0
LINE
  5
8299
330
83AF
100
AcDbEntity
  8
3
 62
     0
100
AcDbLine
 10
5477.419090021525
 20
4631.383203308891
 30
0.0
 11
5477.419090021525
 21
4719.158983634345
 31
0.0
  0
LINE
  5
829A
330
83AF
100
AcDbEntity
  8
3
 62
     0
100
AcDbLine
 10
6392.419090021522
 20
3357.826623071648
 30
0.0
 11
6392.419090021522
 21
4719.158983634345
 31
0.0
  0
LINE
  5
829B
330
83AF
100
AcDbEntity
  8
3
 62
     0
100
AcDbLine
 10
5547.419090021525
 20
4684.158983634346
 30
0.0
 11
6322.419090021522
 21
4684.158983634346
 31
0.0
  0
INSERT
  5
829C
330
83AF
100
AcDbEntity
  8
3
 62
     0
100
AcDbBlockReference
  2
_OPEN
 10
5477.419090021525
 20
4684.158983634346
 30
0.0
 41
70.0
 42
70.0
 43
70.0
 50
180.0
  0
INSERT
  5
829D
330
83AF
100
AcDbEntity
  8
3
 62
     0
100
AcDbBlockReference
  2
_OPEN
 10
6392.419090021522
 20
4684.158983634346
 30
0.0
 41
70.0
 42
70.0
 43
70.0
  0
TEXT
  5
8316
330
83AF
100
AcDbEntity
  8
3
 62
     0
100
AcDbText
 10
5724.92
 20
4613.310000000001
 30
0.0
 40
105.0
  1
(930)
100
AcDbText
  0
POINT
  5
829F
330
83AF
100
AcDbEntity
  8
DEFPOINTS
 62
     0
100
AcDbPoint
 10
5477.419090021525
 20
4613.883203308893
 30
0.0
  0
POINT
  5
82A0
330
83AF
100
AcDbEntity
  8
DEFPOINTS
 62
     0
100
AcDbPoint
 10
6392.419090021522
 20
3340.326623071647
 30
0.0
  0
POINT
  5
82A1
330
83AF
100
AcDbEntity
  8
DEFPOINTS
 62
     0
100
AcDbPoint
 10
6392.419090021522
 20
4684.158983634346
 30
0.0
  0
ENDBLK
  5
812C
330
83AF
100
AcDbEntity
  8
0
100
AcDbBlockEnd
  0
BLOCK
  5
83B2
330
83B1
100
AcDbEntity
  8
0
100
AcDbBlockBegin
  2
*D8
 70
     1
 10
0.0
 20
0.0
 30
0.0
  3
*D8
  1

  0
LINE
  5
82A2
330
83B1
100
AcDbEntity
  8
3
 62
     0
100
AcDbLine
 10
6250.419090021528
 20
2867.287145966454
 30
0.0
 11
6630.20185637704
 21
2867.287145966454
 31
0.0
  0
LINE
  5
82A3
330
83B1
100
AcDbEntity
  8
3
 62
     0
100
AcDbLine
 10
6250.419090021528
 20
3987.287145966454
 30
0.0
 11
6630.20185637704
 21
3987.287145966454
 31
0.0
  0
LINE
  5
82A4
330
83B1
100
AcDbEntity
  8
3
 62
     0
100
AcDbLine
 10
6595.201856377039
 20
2937.287145966454
 30
0.0
 11
6595.201856377039
 21
3917.287145966453
 31
0.0
  0
INSERT
  5
82A5
330
83B1
100
AcDbEntity
  8
3
 62
     0
100
AcDbBlockReference
  2
_OPEN
 10
6595.201856377039
 20
2867.287145966454
 30
0.0
 41
70.0
 42
70.0
 43
70.0
 50
270.0
  0
INSERT
  5
82A6
330
83B1
100
AcDbEntity
  8
3
 62
     0
100
AcDbBlockReference
  2
_OPEN
 10
6595.201856377039
 20
3987.287145966454
 30
0.0
 41
70.0
 42
70.0
 43
70.0
 50
90.0
  0
TEXT
  5
8317
330
83B1
100
AcDbEntity
  8
3
 62
     0
100
AcDbText
 10
6297.699999999999
 20
3241.44
 30
0.0
 40
105.0
  1
\U+03C61120
100
AcDbText
  0
POINT
  5
82A8
330
83B1
100
AcDbEntity
  8
DEFPOINTS
 62
     0
100
AcDbPoint
 10
6232.919090021528
 20
2867.287145966454
 30
0.0
  0
POINT
  5
82A9
330
83B1
100
AcDbEntity
  8
DEFPOINTS
 62
     0
100
AcDbPoint
 10
6232.919090021528
 20
3987.287145966454
 30
0.0
  0
POINT
  5
82AA
330
83B1
100
AcDbEntity
  8
DEFPOINTS
 62
     0
100
AcDbPoint
 10
6595.201856377039
 20
3987.287145966454
 30
0.0
  0
ENDBLK
  5
801D
330
83B1
100
AcDbEntity
  8
0
100
AcDbBlockEnd
  0
BLOCK
  5
83B4
330
83B3
100
AcDbEntity
  8
0
100
AcDbBlockBegin
  2
*D9
 70
     1
 10
0.0
 20
0.0
 30
0.0
  3
*D9
  1

  0
LINE
  5
82AB
330
83B3
100
AcDbEntity
  8
3
 62
     0
100
AcDbLine
 10
4354.719090021525
 20
3824.787145966454
 30
0.0
 11
4354.719090021525
 21
4718.142332365935
 31
0.0
  0
LINE
  5
82AC
330
83B3
100
AcDbEntity
  8
3
 62
     0
100
AcDbLine
 10
5477.419090021525
 20
4631.383203308891
 30
0.0
 11
5477.419090021525
 21
4718.142332365935
 31
0.0
  0
LINE
  5
82AD
330
83B3
100
AcDbEntity
  8
3
 62
     0
100
AcDbLine
 10
4424.719090021525
 20
4683.142332365934
 30
0.0
 11
5407.419090021526
 21
4683.142332365934
 31
0.0
  0
INSERT
  5
82AE
330
83B3
100
AcDbEntity
  8
3
 62
     0
100
AcDbBlockReference
  2
_OPEN
 10
4354.719090021525
 20
4683.142332365934
 30
0.0
 41
70.0
 42
70.0
 43
70.0
 50
180.0
  0
INSERT
  5
82AF
330
83B3
100
AcDbEntity
  8
3
 62
     0
100
AcDbBlockReference
  2
_OPEN
 10
5477.419090021525
 20
4683.142332365934
 30
0.0
 41
70.0
 42
70.0
 43
70.0
  0
TEXT
  5
8318
330
83B3
100
AcDbEntity
  8
3
 62
     0
100
AcDbText
 10
4706.069999999999
 20
4672.29
 30
0.0
 40
105.0
  1
MAX
100
AcDbText
  0
TEXT
  5
8319
330
83B3
100
AcDbEntity
  8
3
 62
     0
100
AcDbText
 10
4706.069999999999
 20
4535.79
 30
0.0
 40
105.0
  1
1120
100
AcDbText
  0
POINT
  5
82B1
330
83B3
100
AcDbEntity
  8
DEFPOINTS
 62
     0
100
AcDbPoint
 10
4354.719090021525
 20
3807.287145966454
 30
0.0
  0
POINT
  5
82B2
330
83B3
100
AcDbEntity
  8
DEFPOINTS
 62
     0
100
AcDbPoint
 10
5477.419090021525
 20
4613.883203308893
 30
0.0
  0
POINT
  5
82B3
330
83B3
100
AcDbEntity
  8
DEFPOINTS
 62
     0
100
AcDbPoint
 10
5477.419090021525
 20
4683.142332365934
 30
0.0
  0
ENDBLK
  5
8121
330
83B3
100
AcDbEntity
  8
0
100
AcDbBlockEnd
  0
BLOCK
  5
83B6
330
83B5
100
AcDbEntity
  8
0
100
AcDbBlockBegin
  2
*D10
 70
     1
 10
0.0
 20
0.0
 30
0.0
  3
*D10
  1

  0
LINE
  5
82B4
330
83B5
100
AcDbEntity
  8
3
 62
     0
100
AcDbLine
 10
2923.56856939381
 20
7667.186236647791
 30
0.0
 11
2923.56856939381
 21
7858.693597118909
 31
0.0
  0
LINE
  5
82B5
330
83B5
100
AcDbEntity
  8
3
 62
     0
100
AcDbLine
 10
1603.56856939381
 20
7667.186236647791
 30
0.0
 11
1603.56856939381
 21
7858.693597118909
 31
0.0
  0
LINE
  5
82B6
330
83B5
100
AcDbEntity
  8
3
 62
     0
100
AcDbLine
 10
2853.568569393809
 20
7823.69359711891
 30
0.0
 11
1673.56856939381
 21
7823.69359711891
 31
0.0
  0
INSERT
  5
82B7
330
83B5
100
AcDbEntity
  8
3
 62
     0
100
AcDbBlockReference
  2
_OPEN
 10
2923.56856939381
 20
7823.69359711891
 30
0.0
 41
70.0
 42
70.0
 43
70.0
  0
INSERT
  5
82B8
330
83B5
100
AcDbEntity
  8
3
 62
     0
100
AcDbBlockReference
  2
_OPEN
 10
1603.56856939381
 20
7823.69359711891
 30
0.0
 41
70.0
 42
70.0
 43
70.0
 50
180.0
  0
TEXT
  5
831A
330
83B5
100
AcDbEntity
  8
3
 62
     0
100
AcDbText
 10
2053.57
 20
7725.34
 30
0.0
 40
105.0
  1
1320
100
AcDbText
  0
POINT
  5
82BA
330
83B5
100
AcDbEntity
  8
DEFPOINTS
 62
     0
100
AcDbPoint
 10
2923.56856939381
 20
7649.686236647792
 30
0.0
  0
POINT
  5
82BB
330
83B5
100
AcDbEntity
  8
DEFPOINTS
 62
     0
100
AcDbPoint
 10
1603.56856939381
 20
7649.686236647792
 30
0.0
  0
POINT
  5
82BC
330
83B5
100
AcDbEntity
  8
DEFPOINTS
 62
     0
100
AcDbPoint
 10
1603.56856939381
 20
7823.69359711891
 30
0.0
  0
ENDBLK
  5
7F48
330
83B5
100
AcDbEntity
  8
0
100
AcDbBlockEnd
  0
BLOCK
  5
83B8
330
83B7
100
AcDbEntity
  8
0
100
AcDbBlockBegin
  2
*D11
 70
     1
 10
0.0
 20
0.0
 30
0.0
  3
*D11
  1

  0
LINE
  5
82BD
330
83B7
100
AcDbEntity
  8
3
 62
     0
100
AcDbLine
 10
3881.06856939381
 20
6649.686236647792
 30
0.0
 11
4299.198978687672
 21
6649.686236647792
 31
0.0
  0
LINE
  5
82BE
330
83B7
100
AcDbEntity
  8
3
 62
     0
100
AcDbLine
 10
3881.06856939381
 20
5749.686236647789
 30
0.0
 11
4299.198978687672
 21
5749.686236647789
 31
0.0
  0
LINE
  5
82BF
330
83B7
100
AcDbEntity
  8
3
 62
     0
100
AcDbLine
 10
4264.198978687672
 20
6579.686236647791
 30
0.0
 11
4264.198978687672
 21
5819.686236647791
 31
0.0
  0
INSERT
  5
82C0
330
83B7
100
AcDbEntity
  8
3
 62
     0
100
AcDbBlockReference
  2
_OPEN
 10
4264.198978687672
 20
6649.686236647792
 30
0.0
 41
70.0
 42
70.0
 43
70.0
 50
90.0
  0
INSERT
  5
82C1
330
83B7
100
AcDbEntity
  8
3
 62
     0
100
AcDbBlockReference
  2
_OPEN
 10
4264.198978687672
 20
5749.686236647789
 30
0.0
 41
70.0
 42
70.0
 43
70.0
 50
270.0
  0
TEXT
  5
831B
330
83B7
100
AcDbEntity
  8
3
 62
     0
100
AcDbText
 10
3966.7
 20
6013.84
 30
0.0
 40
105.0
  1
900
100
AcDbText
  0
POINT
  5
82C3
330
83B7
100
AcDbEntity
  8
DEFPOINTS
 62
     0
100
AcDbPoint
 10
3863.568569393811
 20
6649.686236647792
 30
0.0
  0
POINT
  5
82C4
330
83B7
100
AcDbEntity
  8
DEFPOINTS
 62
     0
100
AcDbPoint
 10
3863.568569393811
 20
5749.686236647789
 30
0.0
  0
POINT
  5
82C5
330
83B7
100
AcDbEntity
  8
DEFPOINTS
 62
     0
100
AcDbPoint
 10
4264.198978687672
 20
5749.686236647789
 30
0.0
  0
ENDBLK
  5
7F5E
330
83B7
100
AcDbEntity
  8
0
100
AcDbBlockEnd
  0
BLOCK
  5
83BA
330
83B9
100
AcDbEntity
  8
0
100
AcDbBlockBegin
  2
*D12
 70
     1
 10
0.0
 20
0.0
 30
0.0
  3
*D12
  1

  0
LINE
  5
82C6
330
83B9
100
AcDbEntity
  8
3
 62
     0
100
AcDbLine
 10
3863.568569393811
 20
5732.186236647791
 30
0.0
 11
3863.568569393811
 21
5423.441044553842
 31
0.0
  0
LINE
  5
82C7
330
83B9
100
AcDbEntity
  8
3
 62
     0
100
AcDbLine
 10
1603.56856939381
 20
5732.186236647791
 30
0.0
 11
1603.56856939381
 21
5423.441044553842
 31
0.0
  0
LINE
  5
82C8
330
83B9
100
AcDbEntity
  8
3
 62
     0
100
AcDbLine
 10
3793.56856939381
 20
5458.441044553842
 30
0.0
 11
1673.56856939381
 21
5458.441044553842
 31
0.0
  0
INSERT
  5
82C9
330
83B9
100
AcDbEntity
  8
3
 62
     0
100
AcDbBlockReference
  2
_OPEN
 10
3863.568569393811
 20
5458.441044553842
 30
0.0
 41
70.0
 42
70.0
 43
70.0
  0
INSERT
  5
82CA
330
83B9
100
AcDbEntity
  8
3
 62
     0
100
AcDbBlockReference
  2
_OPEN
 10
1603.56856939381
 20
5458.441044553842
 30
0.0
 41
70.0
 42
70.0
 43
70.0
 50
180.0
  0
TEXT
  5
831C
330
83B9
100
AcDbEntity
  8
3
 62
     0
100
AcDbText
 10
2523.57
 20
5360.09
 30
0.0
 40
105.0
  1
2260
100
AcDbText
  0
POINT
  5
82CC
330
83B9
100
AcDbEntity
  8
DEFPOINTS
 62
     0
100
AcDbPoint
 10
3863.568569393811
 20
5749.68623664779
 30
0.0
  0
POINT
  5
82CD
330
83B9
100
AcDbEntity
  8
DEFPOINTS
 62
     0
100
AcDbPoint
 10
1603.56856939381
 20
5749.68623664779
 30
0.0
  0
POINT
  5
82CE
330
83B9
100
AcDbEntity
  8
DEFPOINTS
 62
     0
100
AcDbPoint
 10
1603.56856939381
 20
5458.441044553842
 30
0.0
  0
ENDBLK
  5
7F69
330
83B9
100
AcDbEntity
  8
0
100
AcDbBlockEnd
  0
BLOCK
  5
83BC
330
83BB
100
AcDbEntity
  8
0
100
AcDbBlockBegin
  2
*D13
 70
     1
 10
0.0
 20
0.0
 30
0.0
  3
*D13
  1

  0
LINE
  5
82CF
330
83BB
100
AcDbEntity
  8
3
 62
     0
100
AcDbLine
 10
1586.06856939381
 20
7649.686236647792
 30
0.0
 11
1169.796314422758
 21
7649.686236647792
 31
0.0
  0
LINE
  5
82D0
330
83BB
100
AcDbEntity
  8
3
 62
     0
100
AcDbLine
 10
1586.06856939381
 20
5749.68623664779
 30
0.0
 11
1169.796314422757
 21
5749.68623664779
 31
0.0
  0
LINE
  5
82D1
330
83BB
100
AcDbEntity
  8
3
 62
     0
100
AcDbLine
 10
1204.796314422758
 20
7579.686236647791
 30
0.0
 11
1204.796314422758
 21
5819.686236647791
 31
0.0
  0
INSERT
  5
82D2
330
83BB
100
AcDbEntity
  8
3
 62
     0
100
AcDbBlockReference
  2
_OPEN
 10
1204.796314422758
 20
7649.686236647792
 30
0.0
 41
70.0
 42
70.0
 43
70.0
 50
90.0
  0
INSERT
  5
82D3
330
83BB
100
AcDbEntity
  8
3
 62
     0
100
AcDbBlockReference
  2
_OPEN
 10
1204.796314422758
 20
5749.68623664779
 30
0.0
 41
70.0
 42
70.0
 43
70.0
 50
270.0
  0
TEXT
  5
831D
330
83BB
100
AcDbEntity
  8
3
 62
     0
100
AcDbText
 10
907.296
 20
6513.84
 30
0.0
 40
105.0
  1
1900
100
AcDbText
  0
POINT
  5
82D5
330
83BB
100
AcDbEntity
  8
DEFPOINTS
 62
     0
100
AcDbPoint
 10
1603.56856939381
 20
7649.686236647792
 30
0.0
  0
POINT
  5
82D6
330
83BB
100
AcDbEntity
  8
DEFPOINTS
 62
     0
100
AcDbPoint
 10
1603.56856939381
 20
5749.68623664779
 30
0.0
  0
POINT
  5
82D7
330
83BB
100
AcDbEntity
  8
DEFPOINTS
 62
     0
100
AcDbPoint
 10
1204.796314422758
 20
5749.68623664779
 30
0.0
  0
ENDBLK
  5
7F3D
330
83BB
100
AcDbEntity
  8
0
100
AcDbBlockEnd
  0
BLOCK
  5
83BE
330
83BD
100
AcDbEntity
  8
0
100
AcDbBlockBegin
  2
*D14
 70
     1
 10
0.0
 20
0.0
 30
0.0
  3
*D14
  1

  0
LINE
  5
82D8
330
83BD
100
AcDbEntity
  8
3
 62
     0
100
AcDbLine
 10
3863.568569393811
 20
6667.186236647791
 30
0.0
 11
3863.568569393811
 21
7858.693597118909
 31
0.0
  0
LINE
  5
82D9
330
83BD
100
AcDbEntity
  8
3
 62
     0
100
AcDbLine
 10
2923.56856939381
 20
7667.186236647792
 30
0.0
 11
2923.56856939381
 21
7858.693597118909
 31
0.0
  0
LINE
  5
82DA
330
83BD
100
AcDbEntity
  8
3
 62
     0
100
AcDbLine
 10
3793.56856939381
 20
7823.69359711891
 30
0.0
 11
2993.56856939381
 21
7823.69359711891
 31
0.0
  0
INSERT
  5
82DB
330
83BD
100
AcDbEntity
  8
3
 62
     0
100
AcDbBlockReference
  2
_OPEN
 10
3863.568569393811
 20
7823.69359711891
 30
0.0
 41
70.0
 42
70.0
 43
70.0
  0
INSERT
  5
82DC
330
83BD
100
AcDbEntity
  8
3
 62
     0
100
AcDbBlockReference
  2
_OPEN
 10
2923.56856939381
 20
7823.69359711891
 30
0.0
 41
70.0
 42
70.0
 43
70.0
 50
180.0
  0
TEXT
  5
831E
330
83BD
100
AcDbEntity
  8
3
 62
     0
100
AcDbText
 10
3183.57
 20
7725.34
 30
0.0
 40
105.0
  1
940
100
AcDbText
  0
POINT
  5
82DE
330
83BD
100
AcDbEntity
  8
DEFPOINTS
 62
     0
100
AcDbPoint
 10
3863.568569393811
 20
6649.686236647792
 30
0.0
  0
POINT
  5
82DF
330
83BD
100
AcDbEntity
  8
DEFPOINTS
 62
     0
100
AcDbPoint
 10
2923.56856939381
 20
7649.686236647792
 30
0.0
  0
POINT
  5
82E0
330
83BD
100
AcDbEntity
  8
DEFPOINTS
 62
     0
100
AcDbPoint
 10
2923.56856939381
 20
7823.69359711891
 30
0.0
  0
ENDBLK
  5
7F53
330
83BD
100
AcDbEntity
  8
0
100
AcDbBlockEnd
  0
BLOCK
  5
83C0
330
83BF
100
AcDbEntity
  8
0
100
AcDbBlockBegin
  2
*D15
 70
     1
 10
0.0
 20
0.0
 30
0.0
  3
*D15
  1

  0
LINE
  5
82E1
330
83BF
100
AcDbEntity
  8
3
 62
     0
100
AcDbLine
 10
2263.568569393809
 20
4290.626146865185
 30
0.0
 11
2263.568569393809
 21
4622.547113112221
 31
0.0
  0
LINE
  5
82E2
330
83BF
100
AcDbEntity
  8
3
 62
     0
100
AcDbLine
 10
1458.56856939381
 20
3362.787145966454
 30
0.0
 11
1458.56856939381
 21
4622.547113112221
 31
0.0
  0
LINE
  5
82E3
330
83BF
100
AcDbEntity
  8
3
 62
     0
100
AcDbLine
 10
2193.568569393809
 20
4587.547113112221
 30
0.0
 11
1528.56856939381
 21
4587.547113112221
 31
0.0
  0
INSERT
  5
82E4
330
83BF
100
AcDbEntity
  8
3
 62
     0
100
AcDbBlockReference
  2
_OPEN
 10
2263.568569393809
 20
4587.547113112221
 30
0.0
 41
70.0
 42
70.0
 43
70.0
  0
INSERT
  5
82E5
330
83BF
100
AcDbEntity
  8
3
 62
     0
100
AcDbBlockReference
  2
_OPEN
 10
1458.56856939381
 20
4587.547113112221
 30
0.0
 41
70.0
 42
70.0
 43
70.0
 50
180.0
  0
TEXT
  5
831F
330
83BF
100
AcDbEntity
  8
3
 62
     0
100
AcDbText
 10
1651.07
 20
4489.199999999999
 30
0.0
 40
105.0
  1
805
100
AcDbText
  0
POINT
  5
82E7
330
83BF
100
AcDbEntity
  8
DEFPOINTS
 62
     0
100
AcDbPoint
 10
2263.568569393809
 20
4273.126146865187
 30
0.0
  0
POINT
  5
82E8
330
83BF
100
AcDbEntity
  8
DEFPOINTS
 62
     0
100
AcDbPoint
 10
1458.56856939381
 20
3345.287145966454
 30
0.0
  0
POINT
  5
82E9
330
83BF
100
AcDbEntity
  8
DEFPOINTS
 62
     0
100
AcDbPoint
 10
1458.56856939381
 20
4587.547113112221
 30
0.0
  0
ENDBLK
  5
7F95
330
83BF
100
AcDbEntity
  8
0
100
AcDbBlockEnd
  0
BLOCK
  5
83C2
330
83C1
100
AcDbEntity
  8
0
100
AcDbBlockBegin
  2
*D16
 70
     1
 10
0.0
 20
0.0
 30
0.0
  3
*D16
  1

  0
LINE
  5
82EA
330
83C1
100
AcDbEntity
  8
3
 62
     0
100
AcDbLine
 10
1458.56856939381
 20
3362.787145966454
 30
0.0
 11
1458.56856939381
 21
4854.488514716802
 31
0.0
  0
LINE
  5
82EB
330
83C1
100
AcDbEntity
  8
3
 62
     0
100
AcDbLine
 10
3863.568569393809
 20
2559.787145966453
 30
0.0
 11
3863.568569393809
 21
4854.488514716802
 31
0.0
  0
LINE
  5
82EC
330
83C1
100
AcDbEntity
  8
3
 62
     0
100
AcDbLine
 10
1528.56856939381
 20
4819.488514716802
 30
0.0
 11
3793.56856939381
 21
4819.488514716802
 31
0.0
  0
INSERT
  5
82ED
330
83C1
100
AcDbEntity
  8
3
 62
     0
100
AcDbBlockReference
  2
_OPEN
 10
1458.56856939381
 20
4819.488514716802
 30
0.0
 41
70.0
 42
70.0
 43
70.0
 50
180.0
  0
INSERT
  5
82EE
330
83C1
100
AcDbEntity
  8
3
 62
     0
100
AcDbBlockReference
  2
_OPEN
 10
3863.568569393809
 20
4819.488514716802
 30
0.0
 41
70.0
 42
70.0
 43
70.0
  0
TEXT
  5
8320
330
83C1
100
AcDbEntity
  8
3
 62
     0
100
AcDbText
 10
2451.07
 20
4721.140000000001
 30
0.0
 40
105.0
  1
2405
100
AcDbText
  0
POINT
  5
82F0
330
83C1
100
AcDbEntity
  8
DEFPOINTS
 62
     0
100
AcDbPoint
 10
1458.56856939381
 20
3345.287145966454
 30
0.0
  0
POINT
  5
82F1
330
83C1
100
AcDbEntity
  8
DEFPOINTS
 62
     0
100
AcDbPoint
 10
3863.568569393809
 20
2542.287145966453
 30
0.0
  0
POINT
  5
82F2
330
83C1
100
AcDbEntity
  8
DEFPOINTS
 62
     0
100
AcDbPoint
 10
3863.568569393809
 20
4819.488514716802
 30
0.0
  0
ENDBLK
  5
7F74
330
83C1
100
AcDbEntity
  8
0
100
AcDbBlockEnd
  0
BLOCK
  5
83C4
330
83C3
100
AcDbEntity
  8
0
100
AcDbBlockBegin
  2
*D17
 70
     1
 10
0.0
 20
0.0
 30
0.0
  3
*D17
  1

  0
LINE
  5
82F3
330
83C3
100
AcDbEntity
  8
3
 62
     0
100
AcDbLine
 10
2241.06856939381
 20
4187.287145966453
 30
0.0
 11
1157.58168657474
 21
4187.287145966453
 31
0.0
  0
LINE
  5
82F4
330
83C3
100
AcDbEntity
  8
3
 62
     0
100
AcDbLine
 10
1339.287917940833
 20
3427.287145966452
 30
0.0
 11
1157.58168657474
 21
3427.287145966452
 31
0.0
  0
LINE
  5
82F5
330
83C3
100
AcDbEntity
  8
3
 62
     0
100
AcDbLine
 10
1192.58168657474
 20
4117.287145966453
 30
0.0
 11
1192.58168657474
 21
3497.287145966453
 31
0.0
  0
INSERT
  5
82F6
330
83C3
100
AcDbEntity
  8
3
 62
     0
100
AcDbBlockReference
  2
_OPEN
 10
1192.58168657474
 20
4187.287145966453
 30
0.0
 41
70.0
 42
70.0
 43
70.0
 50
90.0
  0
INSERT
  5
82F7
330
83C3
100
AcDbEntity
  8
3
 62
     0
100
AcDbBlockReference
  2
_OPEN
 10
1192.58168657474
 20
3427.287145966452
 30
0.0
 41
70.0
 42
70.0
 43
70.0
 50
270.0
  0
TEXT
  5
8321
330
83C3
100
AcDbEntity
  8
3
 62
     0
100
AcDbText
 10
895.082
 20
3621.440000000001
 30
0.0
 40
105.0
  1
760
100
AcDbText
  0
POINT
  5
82F9
330
83C3
100
AcDbEntity
  8
DEFPOINTS
 62
     0
100
AcDbPoint
 10
2258.56856939381
 20
4187.287145966453
 30
0.0
  0
POINT
  5
82FA
330
83C3
100
AcDbEntity
  8
DEFPOINTS
 62
     0
100
AcDbPoint
 10
1356.787917940833
 20
3427.287145966452
 30
0.0
  0
POINT
  5
82FB
330
83C3
100
AcDbEntity
  8
DEFPOINTS
 62
     0
100
AcDbPoint
 10
1192.58168657474
 20
3427.287145966452
 30
0.0
  0
ENDBLK
  5
7FAB
330
83C3
100
AcDbEntity
  8
0
100
AcDbBlockEnd
  0
BLOCK
  5
83C6
330
83C5
100
AcDbEntity
  8
0
100
AcDbBlockBegin
  2
*D18
 70
     1
 10
0.0
 20
0.0
 30
0.0
  3
*D18
  1

  0
LINE
  5
82FC
330
83C5
100
AcDbEntity
  8
3
 62
     0
100
AcDbLine
 10
1339.287917940833
 20
3427.287145966452
 30
0.0
 11
1157.58168657474
 21
3427.287145966452
 31
0.0
  0
LINE
  5
82FD
330
83C5
100
AcDbEntity
  8
3
 62
     0
100
AcDbLine
 10
1586.06856939381
 20
2417.287145966453
 30
0.0
 11
1157.58168657474
 21
2417.287145966453
 31
0.0
  0
LINE
  5
82FE
330
83C5
100
AcDbEntity
  8
3
 62
     0
100
AcDbLine
 10
1192.58168657474
 20
3357.287145966453
 30
0.0
 11
1192.58168657474
 21
2487.287145966453
 31
0.0
  0
INSERT
  5
82FF
330
83C5
100
AcDbEntity
  8
3
 62
     0
100
AcDbBlockReference
  2
_OPEN
 10
1192.58168657474
 20
3427.287145966452
 30
0.0
 41
70.0
 42
70.0
 43
70.0
 50
90.0
  0
INSERT
  5
8300
330
83C5
100
AcDbEntity
  8
3
 62
     0
100
AcDbBlockReference
  2
_OPEN
 10
1192.58168657474
 20
2417.287145966453
 30
0.0
 41
70.0
 42
70.0
 43
70.0
 50
270.0
  0
TEXT
  5
8322
330
83C5
100
AcDbEntity
  8
3
 62
     0
100
AcDbText
 10
895.082
 20
2736.44
 30
0.0
 40
105.0
  1
1010
100
AcDbText
  0
POINT
  5
8302
330
83C5
100
AcDbEntity
  8
DEFPOINTS
 62
     0
100
AcDbPoint
 10
1356.787917940833
 20
3427.287145966452
 30
0.0
  0
POINT
  5
8303
330
83C5
100
AcDbEntity
  8
DEFPOINTS
 62
     0
100
AcDbPoint
 10
1603.56856939381
 20
2417.287145966453
 30
0.0
  0
POINT
  5
8304
330
83C5
100
AcDbEntity
  8
DEFPOINTS
 62
     0
100
AcDbPoint
 10
1192.58168657474
 20
2417.287145966453
 30
0.0
  0
ENDBLK
  5
7FA0
330
83C5
100
AcDbEntity
  8
0
100
AcDbBlockEnd
  0
BLOCK
  5
83C8
330
83C7
100
AcDbEntity
  8
0
100
AcDbBlockBegin
  2
*D19
 70
     1
 10
0.0
 20
0.0
 30
0.0
  3
*D19
  1

  0
LINE
  5
8305
330
83C7
100
AcDbEntity
  8
3
 62
     0
100
AcDbLine
 10
1586.06856939381
 20
2397.287145966453
 30
0.0
 11
1157.58168657474
 21
2397.287145966453
 31
0.0
  0
LINE
  5
8306
330
83C7
100
AcDbEntity
  8
3
 62
     0
100
AcDbLine
 10
1586.06856939381
 20
2332.287145966453
 30
0.0
 11
1157.58168657474
 21
2332.287145966453
 31
0.0
  0
LINE
  5
8307
330
83C7
100
AcDbEntity
  8
3
 62
     0
100
AcDbLine
 10
1192.58168657474
 20
2467.287145966453
 30
0.0
 11
1192.58168657474
 21
2537.287145966453
 31
0.0
  0
LINE
  5
8308
330
83C7
100
AcDbEntity
  8
3
 62
     0
100
AcDbLine
 10
1192.58168657474
 20
2262.287145966453
 30
0.0
 11
1192.58168657474
 21
1952.287145966453
 31
0.0
  0
LINE
  5
8309
330
83C7
100
AcDbEntity
  8
3
 62
     0
100
AcDbLine
 10
1192.58168657474
 20
2397.287145966453
 30
0.0
 11
1192.58168657474
 21
2332.287145966453
 31
0.0
  0
INSERT
  5
830A
330
83C7
100
AcDbEntity
  8
3
 62
     0
100
AcDbBlockReference
  2
_DOT
 10
1192.58168657474
 20
2397.287145966453
 30
0.0
 41
70.0
 42
70.0
 43
70.0
 50
270.0
  0
INSERT
  5
830B
330
83C7
100
AcDbEntity
  8
3
 62
     0
100
AcDbBlockReference
  2
_OPEN
 10
1192.58168657474
 20
2332.287145966453
 30
0.0
 41
70.0
 42
70.0
 43
70.0
 50
90.0
  0
TEXT
  5
8323
330
83C7
100
AcDbEntity
  8
3
 62
     0
100
AcDbText
 10
895.082
 20
1886.44
 30
0.0
 40
105.0
  1
65
100
AcDbText
  0
POINT
  5
830D
330
83C7
100
AcDbEntity
  8
DEFPOINTS
 62
     0
100
AcDbPoint
 10
1603.56856939381
 20
2397.287145966453
 30
0.0
  0
POINT
  5
830E
330
83C7
100
AcDbEntity
  8
DEFPOINTS
 62
     0
100
AcDbPoint
 10
1603.56856939381
 20
2332.287145966453
 30
0.0
  0
POINT
  5
830F
330
83C7
100
AcDbEntity
  8
DEFPOINTS
 62
     0
100
AcDbPoint
 10
1192.58168657474
 20
2332.287145966453
 30
0.0
  0
ENDBLK
  5
80D6
330
83C7
100
AcDbEntity
  8
0
100
AcDbBlockEnd
  0
BLOCK
  5
83CA
330
83C9
100
AcDbEntity
  8
0
100
AcDbBlockBegin
  2
_DOT
 70
     0
 10
0.0
 20
0.0
 30
0.0
  3
_DOT
  1

  0
LWPOLYLINE
  5
80DA
330
83C9
100
AcDbEntity
  8
0
  6
ByBlock
 62
     0
100
AcDbPolyline
 90
        2
 70
     1
 43
0.25
 10
-0.125
 20
0.0
 42
1.0
 10
0.125
 20
0.0
 42
1.0
  0
LINE
  5
80DE
330
83C9
100
AcDbEntity
  8
0
  6
ByBlock
 62
     0
100
AcDbLine
 10
-0.25
 20
0.0
 30
0.0
 11
-1.0
 21
0.0
 31
0.0
  0
ENDBLK
  5
80BC
330
83C9
100
AcDbEntity
  8
0
100
AcDbBlockEnd
  0
BLOCK
  5
83CC
330
83CB
100
AcDbEntity
  8
0
100
AcDbBlockBegin
  2
*D21
 70
     1
 10
0.0
 20
0.0
 30
0.0
  3
*D21
  1

  0
LINE
  5
8137
330
83CB
100
AcDbEntity
  8
0
  6
ByBlock
 62
     0
100
AcDbLine
 10
1603.56856939381
 20
2314.787145966453
 30
0.0
 11
1603.56856939381
 21
2077.342426966486
 31
0.0
  0
LINE
  5
8138
330
83CB
100
AcDbEntity
  8
0
  6
ByBlock
 62
     0
100
AcDbLine
 10
2263.568569393809
 20
2314.787145966453
 30
0.0
 11
2263.568569393809
 21
2077.342426966486
 31
0.0
  0
LINE
  5
8139
330
83CB
100
AcDbEntity
  8
0
  6
ByBlock
 62
     0
100
AcDbLine
 10
1673.56856939381
 20
2112.342426966486
 30
0.0
 11
2193.568569393809
 21
2112.342426966486
 31
0.0
  0
INSERT
  5
813A
330
83CB
100
AcDbEntity
  8
0
  6
ByBlock
 62
     0
100
AcDbBlockReference
  2
_OPEN
 10
1603.56856939381
 20
2112.342426966486
 30
0.0
 41
70.0
 42
70.0
 43
70.0
 50
180.0
  0
INSERT
  5
813B
330
83CB
100
AcDbEntity
  8
0
  6
ByBlock
 62
     0
100
AcDbBlockReference
  2
_OPEN
 10
2263.568569393809
 20
2112.342426966486
 30
0.0
 41
70.0
 42
70.0
 43
70.0
  0
TEXT
  5
813C
330
83CB
100
AcDbEntity
  8
3
 62
     0
100
AcDbText
 10
1798.568569393809
 20
2147.342426966486
 30
0.0
 40
105.0
  1
660
100
AcDbText
  0
POINT
  5
813D
330
83CB
100
AcDbEntity
  8
DEFPOINTS
  6
ByBlock
 62
     0
100
AcDbPoint
 10
1603.56856939381
 20
2332.287145966453
 30
0.0
  0
POINT
  5
813E
330
83CB
100
AcDbEntity
  8
DEFPOINTS
  6
ByBlock
 62
     0
100
AcDbPoint
 10
2263.568569393809
 20
2332.287145966453
 30
0.0
  0
POINT
  5
813F
330
83CB
100
AcDbEntity
  8
DEFPOINTS
  6
ByBlock
 62
     0
100
AcDbPoint
 10
2263.568569393809
 20
2112.342426966486
 30
0.0
  0
ENDBLK
  5
8140
330
83CB
100
AcDbEntity
  8
0
100
AcDbBlockEnd
  0
BLOCK
  5
83CE
330
83CD
100
AcDbEntity
  8
0
100
AcDbBlockBegin
  2
*D22
 70
     1
 10
0.0
 20
0.0
 30
0.0
  3
*D22
  1

  0
LINE
  5
8144
330
83CD
100
AcDbEntity
  8
0
  6
ByBlock
 62
     0
100
AcDbLine
 10
2263.568569393809
 20
2314.787145966453
 30
0.0
 11
2263.568569393809
 21
2077.342426966486
 31
0.0
  0
LINE
  5
8145
330
83CD
100
AcDbEntity
  8
0
  6
ByBlock
 62
     0
100
AcDbLine
 10
3863.568569393809
 20
2314.787145966453
 30
0.0
 11
3863.568569393809
 21
2077.342426966486
 31
0.0
  0
LINE
  5
8146
330
83CD
100
AcDbEntity
  8
0
  6
ByBlock
 62
     0
100
AcDbLine
 10
2333.568569393809
 20
2112.342426966486
 30
0.0
 11
3793.56856939381
 21
2112.342426966486
 31
0.0
  0
INSERT
  5
8147
330
83CD
100
AcDbEntity
  8
0
  6
ByBlock
 62
     0
100
AcDbBlockReference
  2
_OPEN
 10
2263.568569393809
 20
2112.342426966486
 30
0.0
 41
70.0
 42
70.0
 43
70.0
 50
180.0
  0
INSERT
  5
8148
330
83CD
100
AcDbEntity
  8
0
  6
ByBlock
 62
     0
100
AcDbBlockReference
  2
_OPEN
 10
3863.568569393809
 20
2112.342426966486
 30
0.0
 41
70.0
 42
70.0
 43
70.0
  0
TEXT
  5
8149
330
83CD
100
AcDbEntity
  8
3
 62
     0
100
AcDbText
 10
2888.56856939381
 20
2147.342426966486
 30
0.0
 40
105.0
  1
1600
100
AcDbText
  0
POINT
  5
814A
330
83CD
100
AcDbEntity
  8
DEFPOINTS
  6
ByBlock
 62
     0
100
AcDbPoint
 10
2263.568569393809
 20
2332.287145966453
 30
0.0
  0
POINT
  5
814B
330
83CD
100
AcDbEntity
  8
DEFPOINTS
  6
ByBlock
 62
     0
100
AcDbPoint
 10
3863.568569393809
 20
2332.287145966453
 30
0.0
  0
POINT
  5
814C
330
83CD
100
AcDbEntity
  8
DEFPOINTS
  6
ByBlock
 62
     0
100
AcDbPoint
 10
3863.568569393809
 20
2112.342426966486
 30
0.0
  0
ENDBLK
  5
814D
330
83CD
100
AcDbEntity
  8
0
100
AcDbBlockEnd
  0
BLOCK
  5
83D0
330
83CF
100
AcDbEntity
  8
0
100
AcDbBlockBegin
  2
*D23
 70
     1
 10
0.0
 20
0.0
 30
0.0
  3
*D23
  1

  0
LINE
  5
8151
330
83CF
100
AcDbEntity
  8
0
  6
ByBlock
 62
     0
100
AcDbLine
 10
4395.419090021515
 20
2314.787145966453
 30
0.0
 11
4395.419090021515
 21
2077.342426966486
 31
0.0
  0
LINE
  5
8152
330
83CF
100
AcDbEntity
  8
0
  6
ByBlock
 62
     0
100
AcDbLine
 10
5477.419090021525
 20
2314.787145966453
 30
0.0
 11
5477.419090021525
 21
2077.342426966486
 31
0.0
  0
LINE
  5
8153
330
83CF
100
AcDbEntity
  8
0
  6
ByBlock
 62
     0
100
AcDbLine
 10
4465.419090021515
 20
2112.342426966486
 30
0.0
 11
5407.419090021527
 21
2112.342426966486
 31
0.0
  0
INSERT
  5
8154
330
83CF
100
AcDbEntity
  8
0
  6
ByBlock
 62
     0
100
AcDbBlockReference
  2
_OPEN
 10
4395.419090021515
 20
2112.342426966486
 30
0.0
 41
70.0
 42
70.0
 43
70.0
 50
180.0
  0
INSERT
  5
8155
330
83CF
100
AcDbEntity
  8
0
  6
ByBlock
 62
     0
100
AcDbBlockReference
  2
_OPEN
 10
5477.419090021525
 20
2112.342426966486
 30
0.0
 41
70.0
 42
70.0
 43
70.0
  0
TEXT
  5
8156
330
83CF
100
AcDbEntity
  8
3
 62
     0
100
AcDbText
 10
4761.41909002152
 20
2147.342426966486
 30
0.0
 40
105.0
  1
1082
100
AcDbText
  0
POINT
  5
8157
330
83CF
100
AcDbEntity
  8
DEFPOINTS
  6
ByBlock
 62
     0
100
AcDbPoint
 10
4395.419090021515
 20
2332.287145966453
 30
0.0
  0
POINT
  5
8158
330
83CF
100
AcDbEntity
  8
DEFPOINTS
  6
ByBlock
 62
     0
100
AcDbPoint
 10
5477.419090021525
 20
2332.287145966453
 30
0.0
  0
POINT
  5
8159
330
83CF
100
AcDbEntity
  8
DEFPOINTS
  6
ByBlock
 62
     0
100
AcDbPoint
 10
5477.419090021525
 20
2112.342426966486
 30
0.0
  0
ENDBLK
  5
815A
330
83CF
100
AcDbEntity
  8
0
100
AcDbBlockEnd
  0
BLOCK
  5
83D2
330
83D1
100
AcDbEntity
  8
0
100
AcDbBlockBegin
  2
*D24
 70
     1
 10
0.0
 20
0.0
 30
0.0
  3
*D24
  1

  0
LINE
  5
815E
330
83D1
100
AcDbEntity
  8
0
  6
ByBlock
 62
     0
100
AcDbLine
 10
5477.419090021525
 20
2314.787145966453
 30
0.0
 11
5477.419090021525
 21
2077.342426966486
 31
0.0
  0
LINE
  5
815F
330
83D1
100
AcDbEntity
  8
0
  6
ByBlock
 62
     0
100
AcDbLine
 10
6295.419090021505
 20
2314.787145966453
 30
0.0
 11
6295.419090021505
 21
2077.342426966486
 31
0.0
  0
LINE
  5
8160
330
83D1
100
AcDbEntity
  8
0
  6
ByBlock
 62
     0
100
AcDbLine
 10
5547.419090021525
 20
2112.342426966486
 30
0.0
 11
6225.419090021507
 21
2112.342426966486
 31
0.0
  0
INSERT
  5
8161
330
83D1
100
AcDbEntity
  8
0
  6
ByBlock
 62
     0
100
AcDbBlockReference
  2
_OPEN
 10
5477.419090021525
 20
2112.342426966486
 30
0.0
 41
70.0
 42
70.0
 43
70.0
 50
180.0
  0
INSERT
  5
8162
330
83D1
100
AcDbEntity
  8
0
  6
ByBlock
 62
     0
100
AcDbBlockReference
  2
_OPEN
 10
6295.419090021505
 20
2112.342426966486
 30
0.0
 41
70.0
 42
70.0
 43
70.0
  0
TEXT
  5
8163
330
83D1
100
AcDbEntity
  8
3
 62
     0
100
AcDbText
 10
5761.419090021515
 20
2147.342426966486
 30
0.0
 40
105.0
  1
818
100
AcDbText
  0
POINT
  5
8164
330
83D1
100
AcDbEntity
  8
DEFPOINTS
  6
ByBlock
 62
     0
100
AcDbPoint
 10
5477.419090021525
 20
2332.287145966453
 30
0.0
  0
POINT
  5
8165
330
83D1
100
AcDbEntity
  8
DEFPOINTS
  6
ByBlock
 62
     0
100
AcDbPoint
 10
6295.419090021505
 20
2332.287145966453
 30
0.0
  0
POINT
  5
8166
330
83D1
100
AcDbEntity
  8
DEFPOINTS
  6
ByBlock
 62
     0
100
AcDbPoint
 10
6295.419090021505
 20
2112.342426966486
 30
0.0
  0
ENDBLK
  5
8167
330
83D1
100
AcDbEntity
  8
0
100
AcDbBlockEnd
  0
BLOCK
  5
83D4
330
83D3
100
AcDbEntity
  8
0
100
AcDbBlockBegin
  2
_NONE
 70
     0
 10
0.0
 20
0.0
 30
0.0
  3
_NONE
  1

  0
CIRCLE
  5
816B
330
83D3
100
AcDbEntity
  8
0
  6
ByBlock
 62
     0
100
AcDbCircle
 10
0.0
 20
0.0
 30
0.0
 40
0.25
  0
ENDBLK
  5
816C
330
83D3
100
AcDbEntity
  8
0
100
AcDbBlockEnd
  0
BLOCK
  5
83D6
330
83D5
100
AcDbEntity
  8
0
100
AcDbBlockBegin
  2
*D26
 70
     1
 10
0.0
 20
0.0
 30
0.0
  3
*D26
  1

  0
LINE
  5
818B
330
83D5
100
AcDbEntity
  8
0
  6
ByBlock
 62
     0
100
AcDbLine
 10
1194.662383736489
 20
2397.287145966453
 30
0.0
 11
1194.662383736489
 21
2397.287145966453
 31
0.0
  0
LINE
  5
818C
330
83D5
100
AcDbEntity
  8
0
  6
ByBlock
 62
     0
100
AcDbLine
 10
1194.662383736489
 20
2417.287145966453
 30
0.0
 11
1194.662383736489
 21
2557.287145966453
 31
0.0
  0
TEXT
  5
818D
330
83D5
100
AcDbEntity
  8
3
 62
     0
100
AcDbText
 10
1062.162383736489
 20
2160.287145966452
 30
0.0
 40
105.0
  1
   (20)
 50
90.0
100
AcDbText
  0
LINE
  5
818E
330
83D5
100
AcDbEntity
  8
0
  6
ByBlock
 62
     0
100
AcDbLine
 10
1194.662383736489
 20
2397.287145966453
 30
0.0
 11
1194.662383736489
 21
2417.287145966453
 31
0.0
  0
POINT
  5
818F
330
83D5
100
AcDbEntity
  8
DEFPOINTS
  6
ByBlock
 62
     0
100
AcDbPoint
 10
1603.56856939381
 20
2397.287145966453
 30
0.0
  0
POINT
  5
8190
330
83D5
100
AcDbEntity
  8
DEFPOINTS
  6
ByBlock
 62
     0
100
AcDbPoint
 10
1603.56856939381
 20
2417.287145966453
 30
0.0
  0
POINT
  5
8191
330
83D5
100
AcDbEntity
  8
DEFPOINTS
  6
ByBlock
 62
     0
100
AcDbPoint
 10
1194.662383736489
 20
2417.287145966453
 30
0.0
  0
ENDBLK
  5
8192
330
83D5
100
AcDbEntity
  8
0
100
AcDbBlockEnd
  0
BLOCK
  5
83D8
330
83D7
100
AcDbEntity
  8
0
100
AcDbBlockBegin
  2
*D27
 70
     1
 10
0.0
 20
0.0
 30
0.0
  3
*D27
  1

  0
LINE
  5
8195
330
83D7
100
AcDbEntity
  8
0
  6
ByBlock
 62
     0
100
AcDbLine
 10
1586.06856939381
 20
2332.287145966453
 30
0.0
 11
858.6250914379196
 21
2332.287145966453
 31
0.0
  0
LINE
  5
8196
330
83D7
100
AcDbEntity
  8
0
  6
ByBlock
 62
     0
100
AcDbLine
 10
2241.06856939381
 20
4187.287145966453
 30
0.0
 11
858.6250914379196
 21
4187.287145966453
 31
0.0
  0
LINE
  5
8197
330
83D7
100
AcDbEntity
  8
0
  6
ByBlock
 62
     0
100
AcDbLine
 10
893.6250914379197
 20
2402.287145966452
 30
0.0
 11
893.6250914379197
 21
4117.287145966453
 31
0.0
  0
INSERT
  5
8198
330
83D7
100
AcDbEntity
  8
0
  6
ByBlock
 62
     0
100
AcDbBlockReference
  2
_OPEN
 10
893.6250914379197
 20
2332.287145966453
 30
0.0
 41
70.0
 42
70.0
 43
70.0
 50
270.0
  0
INSERT
  5
8199
330
83D7
100
AcDbEntity
  8
0
  6
ByBlock
 62
     0
100
AcDbBlockReference
  2
_OPEN
 10
893.6250914379197
 20
4187.287145966453
 30
0.0
 41
70.0
 42
70.0
 43
70.0
 50
90.0
  0
TEXT
  5
819A
330
83D7
100
AcDbEntity
  8
3
 62
     0
100
AcDbText
 10
813.6250914379196
 20
3017.287145966454
 30
0.0
 40
105.0
  1
(1855)
 50
90.0
100
AcDbText
  0
POINT
  5
819B
330
83D7
100
AcDbEntity
  8
DEFPOINTS
  6
ByBlock
 62
     0
100
AcDbPoint
 10
1603.56856939381
 20
2332.287145966453
 30
0.0
  0
POINT
  5
819C
330
83D7
100
AcDbEntity
  8
DEFPOINTS
  6
ByBlock
 62
     0
100
AcDbPoint
 10
2258.56856939381
 20
4187.287145966453
 30
0.0
  0
POINT
  5
819D
330
83D7
100
AcDbEntity
  8
DEFPOINTS
  6
ByBlock
 62
     0
100
AcDbPoint
 10
893.6250914379197
 20
4187.287145966453
 30
0.0
  0
ENDBLK
  5
819E
330
83D7
100
AcDbEntity
  8
0
100
AcDbBlockEnd
  0
BLOCK
  5
83E3
330
83E2
100
AcDbEntity
  8
0
100
AcDbBlockBegin
  2
*D28
 70
     1
 10
0.0
 20
0.0
 30
0.0
  3
*D28
  1

  0
LINE
  5
8421
330
83E2
100
AcDbEntity
  8
3
 62
     0
370
    -2
100
AcDbLine
 10
6244.919090021524
 20
3987.287145966453
 30
0.0
 11
6669.725036711411
 21
3987.287145966453
 31
0.0
  0
LINE
  5
8422
330
83E2
100
AcDbEntity
  8
3
 62
     0
370
    -2
100
AcDbLine
 10
6244.919090021525
 20
2867.287145966452
 30
0.0
 11
6669.725036711411
 21
2867.287145966452
 31
0.0
  0
LINE
  5
8423
330
83E2
100
AcDbEntity
  8
3
 62
     0
370
    -2
100
AcDbLine
 10
6634.72503671141
 20
3917.287145966452
 30
0.0
 11
6634.72503671141
 21
2937.287145966452
 31
0.0
  0
INSERT
  5
8424
330
83E2
100
AcDbEntity
  8
3
 62
     0
370
    -2
100
AcDbBlockReference
  2
_OPEN
 10
6634.72503671141
 20
3987.287145966453
 30
0.0
 41
70.0
 42
70.0
 43
70.0
 50
90.0
  0
INSERT
  5
8425
330
83E2
100
AcDbEntity
  8
3
 62
     0
370
    -2
100
AcDbBlockReference
  2
_OPEN
 10
6634.72503671141
 20
2867.287145966452
 30
0.0
 41
70.0
 42
70.0
 43
70.0
 50
270.0
  0
MTEXT
  5
8426
330
83E2
100
AcDbEntity
  8
3
 62
     0
100
AcDbMText
 10
6547.225036711409
 20
3427.287145966453
 30
0.0
 40
105.0
 41
0.0
 71
     5
 72
     1
  1
\A1;\U+03C61120
 11
0.0000000000000001
 21
1.0
 31
0.0
 73
     1
 44
1.0
1001
ACAD
1000
MTEXTBEGIN
1070
    73
1070
     1
1070
    44
1040
1.0
1070
    74
1070
     0
1000
MTEXTEND
  0
POINT
  5
8427
330
83E2
100
AcDbEntity
  8
DEFPOINTS
 62
     0
100
AcDbPoint
 10
6227.419090021524
 20
3987.287145966453
 30
0.0
  0
POINT
  5
8428
330
83E2
100
AcDbEntity
  8
DEFPOINTS
 62
     0
100
AcDbPoint
 10
6227.419090021525
 20
2867.287145966452
 30
0.0
  0
POINT
  5
8429
330
83E2
100
AcDbEntity
  8
DEFPOINTS
 62
     0
100
AcDbPoint
 10
6634.72503671141
 20
2867.287145966452
 30
0.0
  0
ENDBLK
  5
83E4
330
83E2
100
AcDbEntity
  8
0
100
AcDbBlockEnd
  0
BLOCK
  5
83F0
330
83EF
100
AcDbEntity
  8
0
100
AcDbBlockBegin
  2
*D29
 70
     1
 10
0.0
 20
0.0
 30
0.0
  3
*D29
  1

  0
LINE
  5
83F2
330
83EF
100
AcDbEntity
  8
3
 62
     0
370
    -2
100
AcDbLine
 10
4727.419090021525
 20
4204.787145966452
 30
0.0
 11
4727.419090021525
 21
4482.405437488114
 31
0.0
  0
LINE
  5
83F3
330
83EF
100
AcDbEntity
  8
3
 62
     0
370
    -2
100
AcDbLine
 10
6227.419090021524
 20
4204.787145966452
 30
0.0
 11
6227.419090021524
 21
4482.405437488114
 31
0.0
  0
LINE
  5
83F4
330
83EF
100
AcDbEntity
  8
3
 62
     0
370
    -2
100
AcDbLine
 10
4797.419090021525
 20
4447.405437488114
 30
0.0
 11
6157.419090021524
 21
4447.405437488114
 31
0.0
  0
INSERT
  5
83F5
330
83EF
100
AcDbEntity
  8
3
 62
     0
370
    -2
100
AcDbBlockReference
  2
_OPEN
 10
4727.419090021525
 20
4447.405437488114
 30
0.0
 41
70.0
 42
70.0
 43
70.0
 50
180.0
  0
INSERT
  5
83F6
330
83EF
100
AcDbEntity
  8
3
 62
     0
370
    -2
100
AcDbBlockReference
  2
_OPEN
 10
6227.419090021524
 20
4447.405437488114
 30
0.0
 41
70.0
 42
70.0
 43
70.0
  0
MTEXT
  5
83F7
330
83EF
100
AcDbEntity
  8
3
 62
     0
100
AcDbMText
 10
5477.419090021525
 20
4534.905437488113
 30
0.0
 40
105.0
 41
0.0
 71
     5
 72
     1
  1
\A1;1500
 73
     1
 44
1.0
1001
ACAD
1000
MTEXTBEGIN
1070
    73
1070
     1
1070
    44
1040
1.0
1070
    74
1070
     0
1000
MTEXTEND
  0
POINT
  5
83F8
330
83EF
100
AcDbEntity
  8
DEFPOINTS
 62
     0
100
AcDbPoint
 10
4727.419090021525
 20
4187.287145966453
 30
0.0
  0
POINT
  5
83F9
330
83EF
100
AcDbEntity
  8
DEFPOINTS
 62
     0
100
AcDbPoint
 10
6227.419090021524
 20
4187.287145966453
 30
0.0
  0
POINT
  5
83FA
330
83EF
100
AcDbEntity
  8
DEFPOINTS
 62
     0
100
AcDbPoint
 10
6227.419090021524
 20
4447.405437488114
 30
0.0
  0
ENDBLK
  5
83F1
330
83EF
100
AcDbEntity
  8
0
100
AcDbBlockEnd
  0
BLOCK
  5
83FD
330
83FC
100
AcDbEntity
  8
0
100
AcDbBlockBegin
  2
*D30
 70
     1
 10
0.0
 20
0.0
 30
0.0
  3
*D30
  1

  0
LINE
  5
8460
330
83FC
100
AcDbEntity
  8
3
 62
     0
370
    -2
100
AcDbLine
 10
4357.419090021525
 20
3824.787145966454
 30
0.0
 11
4357.419090021525
 21
4718.142332365934
 31
0.0
  0
LINE
  5
8461
330
83FC
100
AcDbEntity
  8
3
 62
     0
370
    -2
100
AcDbLine
 10
5477.419090021525
 20
4604.905437488113
 30
0.0
 11
5477.419090021525
 21
4718.142332365934
 31
0.0
  0
LINE
  5
8462
330
83FC
100
AcDbEntity
  8
3
 62
     0
370
    -2
100
AcDbLine
 10
4427.419090021525
 20
4683.142332365934
 30
0.0
 11
5407.419090021526
 21
4683.142332365934
 31
0.0
  0
INSERT
  5
8463
330
83FC
100
AcDbEntity
  8
3
 62
     0
370
    -2
100
AcDbBlockReference
  2
_OPEN
 10
4357.419090021525
 20
4683.142332365934
 30
0.0
 41
70.0
 42
70.0
 43
70.0
 50
180.0
  0
INSERT
  5
8464
330
83FC
100
AcDbEntity
  8
3
 62
     0
370
    -2
100
AcDbBlockReference
  2
_OPEN
 10
5477.419090021525
 20
4683.142332365934
 30
0.0
 41
70.0
 42
70.0
 43
70.0
  0
MTEXT
  5
8465
330
83FC
100
AcDbEntity
  8
3
 62
     0
100
AcDbMText
 10
4917.419090021525
 20
4798.142332365933
 30
0.0
 40
105.0
 41
0.0
 71
     5
 72
     1
  1
\A1;(1120)
 73
     1
 44
1.0
1001
ACAD
1000
MTEXTBEGIN
1070
    73
1070
     1
1070
    44
1040
1.0
1070
    74
1070
     0
1000
MTEXTEND
  0
POINT
  5
8466
330
83FC
100
AcDbEntity
  8
DEFPOINTS
 62
     0
100
AcDbPoint
 10
4357.419090021525
 20
3807.287145966454
 30
0.0
  0
POINT
  5
8467
330
83FC
100
AcDbEntity
  8
DEFPOINTS
 62
     0
100
AcDbPoint
 10
5477.419090021525
 20
4587.405437488113
 30
0.0
  0
POINT
  5
8468
330
83FC
100
AcDbEntity
  8
DEFPOINTS
 62
     0
100
AcDbPoint
 10
5477.419090021525
 20
4683.142332365934
 30
0.0
  0
ENDBLK
  5
83FE
330
83FC
100
AcDbEntity
  8
0
100
AcDbBlockEnd
  0
BLOCK
  5
840A
330
8409
100
AcDbEntity
  8
0
100
AcDbBlockBegin
  2
*D31
 70
     1
 10
0.0
 20
0.0
 30
0.0
  3
*D31
  1

  0
LINE
  5
8469
330
8409
100
AcDbEntity
  8
3
 62
     0
370
    -2
100
AcDbLine
 10
5477.419090021525
 20
4604.905437488113
 30
0.0
 11
5477.419090021525
 21
4718.142332365934
 31
0.0
  0
LINE
  5
846A
330
8409
100
AcDbEntity
  8
3
 62
     0
370
    -2
100
AcDbLine
 10
6407.419090021524
 20
3371.787145966454
 30
0.0
 11
6407.419090021524
 21
4718.142332365934
 31
0.0
  0
LINE
  5
846B
330
8409
100
AcDbEntity
  8
3
 62
     0
370
    -2
100
AcDbLine
 10
5547.419090021525
 20
4683.142332365934
 30
0.0
 11
6337.419090021525
 21
4683.142332365934
 31
0.0
  0
INSERT
  5
846C
330
8409
100
AcDbEntity
  8
3
 62
     0
370
    -2
100
AcDbBlockReference
  2
_OPEN
 10
5477.419090021525
 20
4683.142332365934
 30
0.0
 41
70.0
 42
70.0
 43
70.0
 50
180.0
  0
INSERT
  5
846D
330
8409
100
AcDbEntity
  8
3
 62
     0
370
    -2
100
AcDbBlockReference
  2
_OPEN
 10
6407.419090021524
 20
4683.142332365934
 30
0.0
 41
70.0
 42
70.0
 43
70.0
  0
MTEXT
  5
846E
330
8409
100
AcDbEntity
  8
3
 62
     0
100
AcDbMText
 10
5942.419090021525
 20
4798.142332365933
 30
0.0
 40
105.0
 41
0.0
 71
     5
 72
     1
  1
\A1;(930)
 73
     1
 44
1.0
1001
ACAD
1000
MTEXTBEGIN
1070
    73
1070
     1
1070
    44
1040
1.0
1070
    74
1070
     0
1000
MTEXTEND
  0
POINT
  5
846F
330
8409
100
AcDbEntity
  8
DEFPOINTS
 62
     0
100
AcDbPoint
 10
5477.419090021525
 20
4587.405437488113
 30
0.0
  0
POINT
  5
8470
330
8409
100
AcDbEntity
  8
DEFPOINTS
 62
     0
100
AcDbPoint
 10
6407.419090021524
 20
3354.287145966453
 30
0.0
  0
POINT
  5
8471
330
8409
100
AcDbEntity
  8
DEFPOINTS
 62
     0
100
AcDbPoint
 10
6407.419090021524
 20
4683.142332365934
 30
0.0
  0
ENDBLK
  5
840B
330
8409
100
AcDbEntity
  8
0
100
AcDbBlockEnd
  0
BLOCK
  5
8474
330
8473
100
AcDbEntity
  8
0
100
AcDbBlockBegin
  2
*D32
 70
     1
 10
0.0
 20
0.0
 30
0.0
  3
*D32
  1

  0
LINE
  5
847F
330
8473
100
AcDbEntity
  8
3
 62
     0
370
    -2
100
AcDbLine
 10
1358.265471673999
 20
6831.68623664779
 30
0.0
 11
650.4879982330022
 21
6831.68623664779
 31
0.0
  0
LINE
  5
8480
330
8473
100
AcDbEntity
  8
3
 62
     0
370
    -2
100
AcDbLine
 10
1866.06856939381
 20
5711.686236647791
 30
0.0
 11
650.487998233002
 21
5711.686236647791
 31
0.0
  0
LINE
  5
8481
330
8473
100
AcDbEntity
  8
3
 62
     0
370
    -2
100
AcDbLine
 10
685.4879982330023
 20
6761.68623664779
 30
0.0
 11
685.487998233002
 21
5781.68623664779
 31
0.0
  0
INSERT
  5
8482
330
8473
100
AcDbEntity
  8
3
 62
     0
370
    -2
100
AcDbBlockReference
  2
_OPEN
 10
685.4879982330023
 20
6831.68623664779
 30
0.0
 41
70.0
 42
70.0
 43
70.0
 50
90.0
  0
INSERT
  5
8483
330
8473
100
AcDbEntity
  8
3
 62
     0
370
    -2
100
AcDbBlockReference
  2
_OPEN
 10
685.487998233002
 20
5711.686236647791
 30
0.0
 41
70.0
 42
70.0
 43
70.0
 50
270.0
  0
MTEXT
  5
8484
330
8473
100
AcDbEntity
  8
3
 62
     0
100
AcDbMText
 10
597.9879982330011
 20
6271.686236647791
 30
0.0
 40
105.0
 41
0.0
 71
     5
 72
     1
  1
\A1;1120
 11
0.0000000000000001
 21
1.0
 31
0.0
 73
     1
 44
1.0
1001
ACAD
1000
MTEXTBEGIN
1070
    73
1070
     1
1070
    44
1040
1.0
1070
    74
1070
     0
1000
MTEXTEND
  0
POINT
  5
8485
330
8473
100
AcDbEntity
  8
DEFPOINTS
 62
     0
100
AcDbPoint
 10
1375.765471673999
 20
6831.68623664779
 30
0.0
  0
POINT
  5
8486
330
8473
100
AcDbEntity
  8
DEFPOINTS
 62
     0
100
AcDbPoint
 10
1883.56856939381
 20
5711.686236647791
 30
0.0
  0
POINT
  5
8487
330
8473
100
AcDbEntity
  8
DEFPOINTS
 62
     0
100
AcDbPoint
 10
685.487998233002
 20
5711.686236647791
 30
0.0
  0
ENDBLK
  5
8475
330
8473
100
AcDbEntity
  8
0
100
AcDbBlockEnd
  0
BLOCK
  5
848A
330
8489
100
AcDbEntity
  8
0
100
AcDbBlockBegin
  2
*D33
 70
     1
 10
0.0
 20
0.0
 30
0.0
  3
*D33
  1

  0
LINE
  5
848C
330
8489
100
AcDbEntity
  8
3
 62
     0
370
    -2
100
AcDbLine
 10
1586.06856939381
 20
7649.686236647792
 30
0.0
 11
1169.796314422758
 21
7649.686236647792
 31
0.0
  0
LINE
  5
848D
330
8489
100
AcDbEntity
  8
3
 62
     0
370
    -2
100
AcDbLine
 10
1586.06856939381
 20
5749.68623664779
 30
0.0
 11
1169.796314422758
 21
5749.68623664779
 31
0.0
  0
LINE
  5
848E
330
8489
100
AcDbEntity
  8
3
 62
     0
370
    -2
100
AcDbLine
 10
1204.796314422758
 20
7579.686236647791
 30
0.0
 11
1204.796314422758
 21
5819.686236647791
 31
0.0
  0
INSERT
  5
848F
330
8489
100
AcDbEntity
  8
3
 62
     0
370
    -2
100
AcDbBlockReference
  2
_OPEN
 10
1204.796314422758
 20
7649.686236647792
 30
0.0
 41
70.0
 42
70.0
 43
70.0
 50
90.0
  0
INSERT
  5
8490
330
8489
100
AcDbEntity
  8
3
 62
     0
370
    -2
100
AcDbBlockReference
  2
_OPEN
 10
1204.796314422758
 20
5749.68623664779
 30
0.0
 41
70.0
 42
70.0
 43
70.0
 50
270.0
  0
MTEXT
  5
8491
330
8489
100
AcDbEntity
  8
3
 62
     0
100
AcDbMText
 10
1117.296314422757
 20
6699.686236647791
 30
0.0
 40
105.0
 41
0.0
 71
     5
 72
     1
  1
\A1;1900
 11
0.0000000000000001
 21
1.0
 31
0.0
 73
     1
 44
1.0
1001
ACAD
1000
MTEXTBEGIN
1070
    73
1070
     1
1070
    44
1040
1.0
1070
    74
1070
     0
1000
MTEXTEND
  0
POINT
  5
8492
330
8489
100
AcDbEntity
  8
DEFPOINTS
 62
     0
100
AcDbPoint
 10
1603.56856939381
 20
7649.686236647792
 30
0.0
  0
POINT
  5
8493
330
8489
100
AcDbEntity
  8
DEFPOINTS
 62
     0
100
AcDbPoint
 10
1603.56856939381
 20
5749.68623664779
 30
0.0
  0
POINT
  5
8494
330
8489
100
AcDbEntity
  8
DEFPOINTS
 62
     0
100
AcDbPoint
 10
1204.796314422758
 20
5749.68623664779
 30
0.0
  0
ENDBLK
  5
848B
330
8489
100
AcDbEntity
  8
0
100
AcDbBlockEnd
  0
BLOCK
  5
8497
330
8496
100
AcDbEntity
  8
0
100
AcDbBlockBegin
  2
*D34
 70
     1
 10
0.0
 20
0.0
 30
0.0
  3
*D34
  1

  0
LINE
  5
8499
330
8496
100
AcDbEntity
  8
3
 62
     0
370
    -2
100
AcDbLine
 10
1603.56856939381
 20
5732.186236647791
 30
0.0
 11
1603.56856939381
 21
5423.441044553842
 31
0.0
  0
LINE
  5
849A
330
8496
100
AcDbEntity
  8
3
 62
     0
370
    -2
100
AcDbLine
 10
3863.568569393811
 20
5732.186236647791
 30
0.0
 11
3863.568569393811
 21
5423.441044553842
 31
0.0
  0
LINE
  5
849B
330
8496
100
AcDbEntity
  8
3
 62
     0
370
    -2
100
AcDbLine
 10
1673.56856939381
 20
5458.441044553842
 30
0.0
 11
3793.568569393811
 21
5458.441044553842
 31
0.0
  0
INSERT
  5
849C
330
8496
100
AcDbEntity
  8
3
 62
     0
370
    -2
100
AcDbBlockReference
  2
_OPEN
 10
1603.56856939381
 20
5458.441044553842
 30
0.0
 41
70.0
 42
70.0
 43
70.0
 50
180.0
  0
INSERT
  5
849D
330
8496
100
AcDbEntity
  8
3
 62
     0
370
    -2
100
AcDbBlockReference
  2
_OPEN
 10
3863.568569393811
 20
5458.441044553842
 30
0.0
 41
70.0
 42
70.0
 43
70.0
  0
MTEXT
  5
849E
330
8496
100
AcDbEntity
  8
3
 62
     0
100
AcDbMText
 10
2733.56856939381
 20
5545.941044553842
 30
0.0
 40
105.0
 41
0.0
 71
     5
 72
     1
  1
\A1;2260
 73
     1
 44
1.0
1001
ACAD
1000
MTEXTBEGIN
1070
    73
1070
     1
1070
    44
1040
1.0
1070
    74
1070
     0
1000
MTEXTEND
  0
POINT
  5
849F
330
8496
100
AcDbEntity
  8
DEFPOINTS
 62
     0
100
AcDbPoint
 10
1603.56856939381
 20
5749.68623664779
 30
0.0
  0
POINT
  5
84A0
330
8496
100
AcDbEntity
  8
DEFPOINTS
 62
     0
100
AcDbPoint
 10
3863.568569393811
 20
5749.68623664779
 30
0.0
  0
POINT
  5
84A1
330
8496
100
AcDbEntity
  8
DEFPOINTS
 62
     0
100
AcDbPoint
 10
3863.568569393811
 20
5458.441044553842
 30
0.0
  0
ENDBLK
  5
8498
330
8496
100
AcDbEntity
  8
0
100
AcDbBlockEnd
  0
BLOCK
  5
84A4
330
84A3
100
AcDbEntity
  8
0
100
AcDbBlockBegin
  2
*D35
 70
     1
 10
0.0
 20
0.0
 30
0.0
  3
*D35
  1

  0
LINE
  5
84A6
330
84A3
100
AcDbEntity
  8
3
 62
     0
370
    -2
100
AcDbLine
 10
3881.068569393811
 20
5749.686236647789
 30
0.0
 11
4299.198978687672
 21
5749.686236647789
 31
0.0
  0
LINE
  5
84A7
330
84A3
100
AcDbEntity
  8
3
 62
     0
370
    -2
100
AcDbLine
 10
3881.068569393811
 20
6649.686236647792
 30
0.0
 11
4299.198978687672
 21
6649.686236647792
 31
0.0
  0
LINE
  5
84A8
330
84A3
100
AcDbEntity
  8
3
 62
     0
370
    -2
100
AcDbLine
 10
4264.198978687672
 20
5819.686236647789
 30
0.0
 11
4264.198978687672
 21
6579.686236647792
 31
0.0
  0
INSERT
  5
84A9
330
84A3
100
AcDbEntity
  8
3
 62
     0
370
    -2
100
AcDbBlockReference
  2
_OPEN
 10
4264.198978687672
 20
5749.686236647789
 30
0.0
 41
70.0
 42
70.0
 43
70.0
 50
270.0
  0
INSERT
  5
84AA
330
84A3
100
AcDbEntity
  8
3
 62
     0
370
    -2
100
AcDbBlockReference
  2
_OPEN
 10
4264.198978687672
 20
6649.686236647792
 30
0.0
 41
70.0
 42
70.0
 43
70.0
 50
90.0
  0
MTEXT
  5
84AB
330
84A3
100
AcDbEntity
  8
3
 62
     0
100
AcDbMText
 10
4176.698978687671
 20
6199.68623664779
 30
0.0
 40
105.0
 41
0.0
 71
     5
 72
     1
  1
\A1;900
 11
0.0000000000000001
 21
1.0
 31
0.0
 73
     1
 44
1.0
1001
ACAD
1000
MTEXTBEGIN
1070
    73
1070
     1
1070
    44
1040
1.0
1070
    74
1070
     0
1000
MTEXTEND
  0
POINT
  5
84AC
330
84A3
100
AcDbEntity
  8
DEFPOINTS
 62
     0
100
AcDbPoint
 10
3863.568569393811
 20
5749.686236647789
 30
0.0
  0
POINT
  5
84AD
330
84A3
100
AcDbEntity
  8
DEFPOINTS
 62
     0
100
AcDbPoint
 10
3863.568569393811
 20
6649.686236647792
 30
0.0
  0
POINT
  5
84AE
330
84A3
100
AcDbEntity
  8
DEFPOINTS
 62
     0
100
AcDbPoint
 10
4264.198978687672
 20
6649.686236647792
 30
0.0
  0
ENDBLK
  5
84A5
330
84A3
100
AcDbEntity
  8
0
100
AcDbBlockEnd
  0
BLOCK
  5
84B1
330
84B0
100
AcDbEntity
  8
0
100
AcDbBlockBegin
  2
*D36
 70
     1
 10
0.0
 20
0.0
 30
0.0
  3
*D36
  1

  0
LINE
  5
84B3
330
84B0
100
AcDbEntity
  8
3
 62
     0
370
    -2
100
AcDbLine
 10
1603.56856939381
 20
7667.186236647791
 30
0.0
 11
1603.56856939381
 21
7858.693597118909
 31
0.0
  0
LINE
  5
84B4
330
84B0
100
AcDbEntity
  8
3
 62
     0
370
    -2
100
AcDbLine
 10
2923.56856939381
 20
7667.186236647791
 30
0.0
 11
2923.56856939381
 21
7858.693597118909
 31
0.0
  0
LINE
  5
84B5
330
84B0
100
AcDbEntity
  8
3
 62
     0
370
    -2
100
AcDbLine
 10
1673.56856939381
 20
7823.69359711891
 30
0.0
 11
2853.568569393809
 21
7823.69359711891
 31
0.0
  0
INSERT
  5
84B6
330
84B0
100
AcDbEntity
  8
3
 62
     0
370
    -2
100
AcDbBlockReference
  2
_OPEN
 10
1603.56856939381
 20
7823.69359711891
 30
0.0
 41
70.0
 42
70.0
 43
70.0
 50
180.0
  0
INSERT
  5
84B7
330
84B0
100
AcDbEntity
  8
3
 62
     0
370
    -2
100
AcDbBlockReference
  2
_OPEN
 10
2923.56856939381
 20
7823.69359711891
 30
0.0
 41
70.0
 42
70.0
 43
70.0
  0
MTEXT
  5
84B8
330
84B0
100
AcDbEntity
  8
3
 62
     0
100
AcDbMText
 10
2263.56856939381
 20
7911.193597118909
 30
0.0
 40
105.0
 41
0.0
 71
     5
 72
     1
  1
\A1;1320
 73
     1
 44
1.0
1001
ACAD
1000
MTEXTBEGIN
1070
    73
1070
     1
1070
    44
1040
1.0
1070
    74
1070
     0
1000
MTEXTEND
  0
POINT
  5
84B9
330
84B0
100
AcDbEntity
  8
DEFPOINTS
 62
     0
100
AcDbPoint
 10
1603.56856939381
 20
7649.686236647792
 30
0.0
  0
POINT
  5
84BA
330
84B0
100
AcDbEntity
  8
DEFPOINTS
 62
     0
100
AcDbPoint
 10
2923.56856939381
 20
7649.686236647792
 30
0.0
  0
POINT
  5
84BB
330
84B0
100
AcDbEntity
  8
DEFPOINTS
 62
     0
100
AcDbPoint
 10
2923.56856939381
 20
7823.69359711891
 30
0.0
  0
ENDBLK
  5
84B2
330
84B0
100
AcDbEntity
  8
0
100
AcDbBlockEnd
  0
BLOCK
  5
84BE
330
84BD
100
AcDbEntity
  8
0
100
AcDbBlockBegin
  2
*D37
 70
     1
 10
0.0
 20
0.0
 30
0.0
  3
*D37
  1

  0
LINE
  5
84C0
330
84BD
100
AcDbEntity
  8
3
 62
     0
370
    -2
100
AcDbLine
 10
2923.56856939381
 20
7667.186236647791
 30
0.0
 11
2923.56856939381
 21
7858.693597118909
 31
0.0
  0
LINE
  5
84C1
330
84BD
100
AcDbEntity
  8
3
 62
     0
370
    -2
100
AcDbLine
 10
3863.568569393811
 20
6667.186236647792
 30
0.0
 11
3863.568569393811
 21
7858.693597118909
 31
0.0
  0
LINE
  5
84C2
330
84BD
100
AcDbEntity
  8
3
 62
     0
370
    -2
100
AcDbLine
 10
2993.56856939381
 20
7823.69359711891
 30
0.0
 11
3793.568569393811
 21
7823.69359711891
 31
0.0
  0
INSERT
  5
84C3
330
84BD
100
AcDbEntity
  8
3
 62
     0
370
    -2
100
AcDbBlockReference
  2
_OPEN
 10
2923.56856939381
 20
7823.69359711891
 30
0.0
 41
70.0
 42
70.0
 43
70.0
 50
180.0
  0
INSERT
  5
84C4
330
84BD
100
AcDbEntity
  8
3
 62
     0
370
    -2
100
AcDbBlockReference
  2
_OPEN
 10
3863.568569393811
 20
7823.69359711891
 30
0.0
 41
70.0
 42
70.0
 43
70.0
  0
MTEXT
  5
84C5
330
84BD
100
AcDbEntity
  8
3
 62
     0
100
AcDbMText
 10
3393.56856939381
 20
7911.193597118909
 30
0.0
 40
105.0
 41
0.0
 71
     5
 72
     1
  1
\A1;940
 73
     1
 44
1.0
1001
ACAD
1000
MTEXTBEGIN
1070
    73
1070
     1
1070
    44
1040
1.0
1070
    74
1070
     0
1000
MTEXTEND
  0
POINT
  5
84C6
330
84BD
100
AcDbEntity
  8
DEFPOINTS
 62
     0
100
AcDbPoint
 10
2923.56856939381
 20
7649.686236647792
 30
0.0
  0
POINT
  5
84C7
330
84BD
100
AcDbEntity
  8
DEFPOINTS
 62
     0
100
AcDbPoint
 10
3863.568569393811
 20
6649.686236647792
 30
0.0
  0
POINT
  5
84C8
330
84BD
100
AcDbEntity
  8
DEFPOINTS
 62
     0
100
AcDbPoint
 10
3863.568569393811
 20
7823.69359711891
 30
0.0
  0
ENDBLK
  5
84BF
330
84BD
100
AcDbEntity
  8
0
100
AcDbBlockEnd
  0
BLOCK
  5
84CB
330
84CA
100
AcDbEntity
  8
0
100
AcDbBlockBegin
  2
*D38
 70
     1
 10
0.0
 20
0.0
 30
0.0
  3
*D38
  1

  0
LINE
  5
84CD
330
84CA
100
AcDbEntity
  8
3
 62
     0
370
    -2
100
AcDbLine
 10
3461.56856939381
 20
4204.787145966452
 30
0.0
 11
3461.56856939381
 21
4422.395462250719
 31
0.0
  0
LINE
  5
84CE
330
84CA
100
AcDbEntity
  8
3
 62
     0
370
    -2
100
AcDbLine
 10
2311.568569393809
 20
4204.787145966452
 30
0.0
 11
2311.568569393809
 21
4422.395462250719
 31
0.0
  0
LINE
  5
84CF
330
84CA
100
AcDbEntity
  8
3
 62
     0
370
    -2
100
AcDbLine
 10
3391.56856939381
 20
4387.395462250719
 30
0.0
 11
2381.56856939381
 21
4387.395462250719
 31
0.0
  0
INSERT
  5
84D0
330
84CA
100
AcDbEntity
  8
3
 62
     0
370
    -2
100
AcDbBlockReference
  2
_OPEN
 10
3461.56856939381
 20
4387.395462250719
 30
0.0
 41
70.0
 42
70.0
 43
70.0
  0
INSERT
  5
84D1
330
84CA
100
AcDbEntity
  8
3
 62
     0
370
    -2
100
AcDbBlockReference
  2
_OPEN
 10
2311.568569393809
 20
4387.395462250719
 30
0.0
 41
70.0
 42
70.0
 43
70.0
 50
180.0
  0
MTEXT
  5
84D2
330
84CA
100
AcDbEntity
  8
3
 62
     0
100
AcDbMText
 10
2886.568569393809
 20
4474.895462250719
 30
0.0
 40
105.0
 41
0.0
 71
     5
 72
     1
  1
\A1;1150
 73
     1
 44
1.0
1001
ACAD
1000
MTEXTBEGIN
1070
    73
1070
     1
1070
    44
1040
1.0
1070
    74
1070
     0
1000
MTEXTEND
  0
POINT
  5
84D3
330
84CA
100
AcDbEntity
  8
DEFPOINTS
 62
     0
100
AcDbPoint
 10
3461.56856939381
 20
4187.287145966453
 30
0.0
  0
POINT
  5
84D4
330
84CA
100
AcDbEntity
  8
DEFPOINTS
 62
     0
100
AcDbPoint
 10
2311.568569393809
 20
4187.287145966453
 30
0.0
  0
POINT
  5
84D5
330
84CA
100
AcDbEntity
  8
DEFPOINTS
 62
     0
100
AcDbPoint
 10
2311.568569393809
 20
4387.395462250719
 30
0.0
  0
ENDBLK
  5
84CC
330
84CA
100
AcDbEntity
  8
0
100
AcDbBlockEnd
  0
BLOCK
  5
84D8
330
84D7
100
AcDbEntity
  8
0
100
AcDbBlockBegin
  2
*D39
 70
     1
 10
0.0
 20
0.0
 30
0.0
  3
*D39
  1

  0
LINE
  5
84DA
330
84D7
100
AcDbEntity
  8
3
 62
     0
370
    -2
100
AcDbLine
 10
3461.56856939381
 20
4204.787145966452
 30
0.0
 11
3461.56856939381
 21
4622.547113112221
 31
0.0
  0
LINE
  5
84DB
330
84D7
100
AcDbEntity
  8
3
 62
     0
370
    -2
100
AcDbLine
 10
2263.568569393809
 20
4272.679405696564
 30
0.0
 11
2263.568569393809
 21
4622.547113112221
 31
0.0
  0
LINE
  5
84DC
330
84D7
100
AcDbEntity
  8
3
 62
     0
370
    -2
100
AcDbLine
 10
3391.56856939381
 20
4587.547113112221
 30
0.0
 11
2333.568569393809
 21
4587.547113112221
 31
0.0
  0
INSERT
  5
84DD
330
84D7
100
AcDbEntity
  8
3
 62
     0
370
    -2
100
AcDbBlockReference
  2
_OPEN
 10
3461.56856939381
 20
4587.547113112221
 30
0.0
 41
70.0
 42
70.0
 43
70.0
  0
INSERT
  5
84DE
330
84D7
100
AcDbEntity
  8
3
 62
     0
370
    -2
100
AcDbBlockReference
  2
_OPEN
 10
2263.568569393809
 20
4587.547113112221
 30
0.0
 41
70.0
 42
70.0
 43
70.0
 50
180.0
  0
MTEXT
  5
84DF
330
84D7
100
AcDbEntity
  8
3
 62
     0
100
AcDbMText
 10
2862.56856939381
 20
4675.047113112221
 30
0.0
 40
105.0
 41
0.0
 71
     5
 72
     1
  1
\A1;1198
 73
     1
 44
1.0
1001
ACAD
1000
MTEXTBEGIN
1070
    73
1070
     1
1070
    44
1040
1.0
1070
    74
1070
     0
1000
MTEXTEND
  0
POINT
  5
84E0
330
84D7
100
AcDbEntity
  8
DEFPOINTS
 62
     0
100
AcDbPoint
 10
3461.56856939381
 20
4187.287145966453
 30
0.0
  0
POINT
  5
84E1
330
84D7
100
AcDbEntity
  8
DEFPOINTS
 62
     0
100
AcDbPoint
 10
2263.568569393809
 20
4255.179405696565
 30
0.0
  0
POINT
  5
84E2
330
84D7
100
AcDbEntity
  8
DEFPOINTS
 62
     0
100
AcDbPoint
 10
2263.568569393809
 20
4587.547113112221
 30
0.0
  0
ENDBLK
  5
84D9
330
84D7
100
AcDbEntity
  8
0
100
AcDbBlockEnd
  0
BLOCK
  5
84E5
330
84E4
100
AcDbEntity
  8
0
100
AcDbBlockBegin
  2
*D40
 70
     1
 10
0.0
 20
0.0
 30
0.0
  3
*D40
  1

  0
LINE
  5
84E7
330
84E4
100
AcDbEntity
  8
3
 62
     0
370
    -2
100
AcDbLine
 10
2263.568569393809
 20
4272.679405696564
 30
0.0
 11
2263.568569393809
 21
4622.547113112221
 31
0.0
  0
LINE
  5
84E8
330
84E4
100
AcDbEntity
  8
3
 62
     0
370
    -2
100
AcDbLine
 10
1458.568569393809
 20
3362.787145966454
 30
0.0
 11
1458.568569393809
 21
4622.547113112221
 31
0.0
  0
LINE
  5
84E9
330
84E4
100
AcDbEntity
  8
3
 62
     0
370
    -2
100
AcDbLine
 10
2193.568569393809
 20
4587.547113112221
 30
0.0
 11
1528.568569393809
 21
4587.547113112221
 31
0.0
  0
INSERT
  5
84EA
330
84E4
100
AcDbEntity
  8
3
 62
     0
370
    -2
100
AcDbBlockReference
  2
_OPEN
 10
2263.568569393809
 20
4587.547113112221
 30
0.0
 41
70.0
 42
70.0
 43
70.0
  0
INSERT
  5
84EB
330
84E4
100
AcDbEntity
  8
3
 62
     0
370
    -2
100
AcDbBlockReference
  2
_OPEN
 10
1458.568569393809
 20
4587.547113112221
 30
0.0
 41
70.0
 42
70.0
 43
70.0
 50
180.0
  0
MTEXT
  5
84EC
330
84E4
100
AcDbEntity
  8
3
 62
     0
100
AcDbMText
 10
1861.068569393809
 20
4675.047113112221
 30
0.0
 40
105.0
 41
0.0
 71
     5
 72
     1
  1
\A1;805
 73
     1
 44
1.0
1001
ACAD
1000
MTEXTBEGIN
1070
    73
1070
     1
1070
    44
1040
1.0
1070
    74
1070
     0
1000
MTEXTEND
  0
POINT
  5
84ED
330
84E4
100
AcDbEntity
  8
DEFPOINTS
 62
     0
100
AcDbPoint
 10
2263.568569393809
 20
4255.179405696565
 30
0.0
  0
POINT
  5
84EE
330
84E4
100
AcDbEntity
  8
DEFPOINTS
 62
     0
100
AcDbPoint
 10
1458.568569393809
 20
3345.287145966454
 30
0.0
  0
POINT
  5
84EF
330
84E4
100
AcDbEntity
  8
DEFPOINTS
 62
     0
100
AcDbPoint
 10
1458.568569393809
 20
4587.547113112221
 30
0.0
  0
ENDBLK
  5
84E6
330
84E4
100
AcDbEntity
  8
0
100
AcDbBlockEnd
  0
BLOCK
  5
84F2
330
84F1
100
AcDbEntity
  8
0
100
AcDbBlockBegin
  2
*D41
 70
     1
 10
0.0
 20
0.0
 30
0.0
  3
*D41
  1

  0
LINE
  5
84F4
330
84F1
100
AcDbEntity
  8
3
 62
     0
370
    -2
100
AcDbLine
 10
1458.568569393809
 20
3362.787145966454
 30
0.0
 11
1458.568569393809
 21
4854.488514716802
 31
0.0
  0
LINE
  5
84F5
330
84F1
100
AcDbEntity
  8
3
 62
     0
370
    -2
100
AcDbLine
 10
3863.568569393809
 20
2559.787145966453
 30
0.0
 11
3863.568569393809
 21
4854.488514716802
 31
0.0
  0
LINE
  5
84F6
330
84F1
100
AcDbEntity
  8
3
 62
     0
370
    -2
100
AcDbLine
 10
1528.568569393809
 20
4819.488514716802
 30
0.0
 11
3793.56856939381
 21
4819.488514716802
 31
0.0
  0
INSERT
  5
84F7
330
84F1
100
AcDbEntity
  8
3
 62
     0
370
    -2
100
AcDbBlockReference
  2
_OPEN
 10
1458.568569393809
 20
4819.488514716802
 30
0.0
 41
70.0
 42
70.0
 43
70.0
 50
180.0
  0
INSERT
  5
84F8
330
84F1
100
AcDbEntity
  8
3
 62
     0
370
    -2
100
AcDbBlockReference
  2
_OPEN
 10
3863.568569393809
 20
4819.488514716802
 30
0.0
 41
70.0
 42
70.0
 43
70.0
  0
MTEXT
  5
84F9
330
84F1
100
AcDbEntity
  8
3
 62
     0
100
AcDbMText
 10
2661.06856939381
 20
4906.988514716801
 30
0.0
 40
105.0
 41
0.0
 71
     5
 72
     1
  1
\A1;2405
 73
     1
 44
1.0
1001
ACAD
1000
MTEXTBEGIN
1070
    73
1070
     1
1070
    44
1040
1.0
1070
    74
1070
     0
1000
MTEXTEND
  0
POINT
  5
84FA
330
84F1
100
AcDbEntity
  8
DEFPOINTS
 62
     0
100
AcDbPoint
 10
1458.568569393809
 20
3345.287145966454
 30
0.0
  0
POINT
  5
84FB
330
84F1
100
AcDbEntity
  8
DEFPOINTS
 62
     0
100
AcDbPoint
 10
3863.568569393809
 20
2542.287145966453
 30
0.0
  0
POINT
  5
84FC
330
84F1
100
AcDbEntity
  8
DEFPOINTS
 62
     0
100
AcDbPoint
 10
3863.568569393809
 20
4819.488514716802
 30
0.0
  0
ENDBLK
  5
84F3
330
84F1
100
AcDbEntity
  8
0
100
AcDbBlockEnd
  0
BLOCK
  5
84FF
330
84FE
100
AcDbEntity
  8
0
100
AcDbBlockBegin
  2
*D42
 70
     1
 10
0.0
 20
0.0
 30
0.0
  3
*D42
  1

  0
LINE
  5
8501
330
84FE
100
AcDbEntity
  8
3
 62
     0
370
    -2
100
AcDbLine
 10
2241.06856939381
 20
4187.287145966453
 30
0.0
 11
1157.58168657474
 21
4187.287145966453
 31
0.0
  0
LINE
  5
8502
330
84FE
100
AcDbEntity
  8
3
 62
     0
370
    -2
100
AcDbLine
 10
1339.287917940833
 20
3427.287145966452
 30
0.0
 11
1157.58168657474
 21
3427.287145966452
 31
0.0
  0
LINE
  5
8503
330
84FE
100
AcDbEntity
  8
3
 62
     0
370
    -2
100
AcDbLine
 10
1192.58168657474
 20
4117.287145966454
 30
0.0
 11
1192.58168657474
 21
3497.287145966453
 31
0.0
  0
INSERT
  5
8504
330
84FE
100
AcDbEntity
  8
3
 62
     0
370
    -2
100
AcDbBlockReference
  2
_OPEN
 10
1192.58168657474
 20
4187.287145966453
 30
0.0
 41
70.0
 42
70.0
 43
70.0
 50
90.0
  0
INSERT
  5
8505
330
84FE
100
AcDbEntity
  8
3
 62
     0
370
    -2
100
AcDbBlockReference
  2
_OPEN
 10
1192.58168657474
 20
3427.287145966452
 30
0.0
 41
70.0
 42
70.0
 43
70.0
 50
270.0
  0
MTEXT
  5
8506
330
84FE
100
AcDbEntity
  8
3
 62
     0
100
AcDbMText
 10
1105.081686574739
 20
3807.287145966454
 30
0.0
 40
105.0
 41
0.0
 71
     5
 72
     1
  1
\A1;760
 11
0.0000000000000001
 21
1.0
 31
0.0
 73
     1
 44
1.0
1001
ACAD
1000
MTEXTBEGIN
1070
    73
1070
     1
1070
    44
1040
1.0
1070
    74
1070
     0
1000
MTEXTEND
  0
POINT
  5
8507
330
84FE
100
AcDbEntity
  8
DEFPOINTS
 62
     0
100
AcDbPoint
 10
2258.56856939381
 20
4187.287145966453
 30
0.0
  0
POINT
  5
8508
330
84FE
100
AcDbEntity
  8
DEFPOINTS
 62
     0
100
AcDbPoint
 10
1356.787917940833
 20
3427.287145966452
 30
0.0
  0
POINT
  5
8509
330
84FE
100
AcDbEntity
  8
DEFPOINTS
 62
     0
100
AcDbPoint
 10
1192.58168657474
 20
3427.287145966452
 30
0.0
  0
ENDBLK
  5
8500
330
84FE
100
AcDbEntity
  8
0
100
AcDbBlockEnd
  0
BLOCK
  5
850C
330
850B
100
AcDbEntity
  8
0
100
AcDbBlockBegin
  2
*D43
 70
     1
 10
0.0
 20
0.0
 30
0.0
  3
*D43
  1

  0
LINE
  5
850E
330
850B
100
AcDbEntity
  8
3
 62
     0
370
    -2
100
AcDbLine
 10
1339.287917940833
 20
3427.287145966452
 30
0.0
 11
1157.58168657474
 21
3427.287145966452
 31
0.0
  0
LINE
  5
850F
330
850B
100
AcDbEntity
  8
3
 62
     0
370
    -2
100
AcDbLine
 10
1586.06856939381
 20
2417.287145966453
 30
0.0
 11
1157.581686574739
 21
2417.287145966453
 31
0.0
  0
LINE
  5
8510
330
850B
100
AcDbEntity
  8
3
 62
     0
370
    -2
100
AcDbLine
 10
1192.58168657474
 20
3357.287145966452
 30
0.0
 11
1192.581686574739
 21
2487.287145966453
 31
0.0
  0
INSERT
  5
8511
330
850B
100
AcDbEntity
  8
3
 62
     0
370
    -2
100
AcDbBlockReference
  2
_OPEN
 10
1192.58168657474
 20
3427.287145966452
 30
0.0
 41
70.0
 42
70.0
 43
70.0
 50
90.0
  0
INSERT
  5
8512
330
850B
100
AcDbEntity
  8
3
 62
     0
370
    -2
100
AcDbBlockReference
  2
_OPEN
 10
1192.581686574739
 20
2417.287145966453
 30
0.0
 41
70.0
 42
70.0
 43
70.0
 50
270.0
  0
MTEXT
  5
8513
330
850B
100
AcDbEntity
  8
3
 62
     0
100
AcDbMText
 10
1105.081686574739
 20
2922.287145966453
 30
0.0
 40
105.0
 41
0.0
 71
     5
 72
     1
  1
\A1;1010
 11
0.0000000000000001
 21
1.0
 31
0.0
 73
     1
 44
1.0
1001
ACAD
1000
MTEXTBEGIN
1070
    73
1070
     1
1070
    44
1040
1.0
1070
    74
1070
     0
1000
MTEXTEND
  0
POINT
  5
8514
330
850B
100
AcDbEntity
  8
DEFPOINTS
 62
     0
100
AcDbPoint
 10
1356.787917940833
 20
3427.287145966452
 30
0.0
  0
POINT
  5
8515
330
850B
100
AcDbEntity
  8
DEFPOINTS
 62
     0
100
AcDbPoint
 10
1603.56856939381
 20
2417.287145966453
 30
0.0
  0
POINT
  5
8516
330
850B
100
AcDbEntity
  8
DEFPOINTS
 62
     0
100
AcDbPoint
 10
1192.581686574739
 20
2417.287145966453
 30
0.0
  0
ENDBLK
  5
850D
330
850B
100
AcDbEntity
  8
0
100
AcDbBlockEnd
  0
BLOCK
  5
8519
330
8518
100
AcDbEntity
  8
0
100
AcDbBlockBegin
  2
*D44
 70
     1
 10
0.0
 20
0.0
 30
0.0
  3
*D44
  1

  0
LINE
  5
85E6
330
8518
100
AcDbEntity
  8
3
 62
     0
370
    -2
100
AcDbLine
 10
1586.06856939381
 20
2417.287145966453
 30
0.0
 11
1157.581686574739
 21
2417.287145966453
 31
0.0
  0
LINE
  5
85E7
330
8518
100
AcDbEntity
  8
3
 62
     0
370
    -2
100
AcDbLine
 10
1586.06856939381
 20
2397.287145966453
 30
0.0
 11
1157.581686574739
 21
2397.287145966453
 31
0.0
  0
LINE
  5
85E8
330
8518
100
AcDbEntity
  8
3
 62
     0
370
    -2
100
AcDbLine
 10
1192.581686574739
 20
2487.287145966453
 30
0.0
 11
1192.581686574739
 21
2557.287145966453
 31
0.0
  0
LINE
  5
85E9
330
8518
100
AcDbEntity
  8
3
 62
     0
370
    -2
100
AcDbLine
 10
1192.581686574739
 20
2397.287145966453
 30
0.0
 11
1192.581686574739
 21
2327.287145966453
 31
0.0
  0
LINE
  5
85EA
330
8518
100
AcDbEntity
  8
3
 62
     0
370
    -2
100
AcDbLine
 10
1192.581686574739
 20
2407.287145966453
 30
0.0
 11
937.5816865747397
 21
2483.787145966454
 31
0.0
  0
LINE
  5
85EB
330
8518
100
AcDbEntity
  8
3
 62
     0
370
    -2
100
AcDbLine
 10
937.5816865747397
 20
2483.787145966454
 30
0.0
 11
937.5816865747399
 21
2858.787145966454
 31
0.0
  0
MTEXT
  5
85EC
330
8518
100
AcDbEntity
  8
3
 62
     0
100
AcDbMText
 10
735.0816865747393
 20
2671.287145966454
 30
0.0
 40
105.0
 41
0.0
 71
     5
 72
     1
  1
\A1;\P(20)
 11
0.0000000000000001
 21
1.0
 31
0.0
 73
     1
 44
1.0
1001
ACAD
1000
MTEXTBEGIN
1070
    73
1070
     1
1070
    44
1040
1.0
1070
    74
1070
     0
1000
MTEXTEND
  0
LINE
  5
85ED
330
8518
100
AcDbEntity
  8
3
 62
     0
370
    -2
100
AcDbLine
 10
1192.581686574739
 20
2417.287145966453
 30
0.0
 11
1192.581686574739
 21
2397.287145966453
 31
0.0
  0
LINE
  5
85EE
330
8518
100
AcDbEntity
  8
3
 62
     0
370
    -2
100
AcDbLine
 10
1192.581686574739
 20
2417.287145966453
 30
0.0
 11
1192.581686574739
 21
2397.287145966453
 31
0.0
  0
INSERT
  5
85EF
330
8518
100
AcDbEntity
  8
3
 62
     0
370
    -2
100
AcDbBlockReference
  2
_OPEN
 10
1192.581686574739
 20
2417.287145966453
 30
0.0
 41
70.0
 42
70.0
 43
70.0
 50
270.0
  0
INSERT
  5
85F0
330
8518
100
AcDbEntity
  8
3
 62
     0
370
    -2
100
AcDbBlockReference
  2
_DotSmall
 10
1192.581686574739
 20
2397.287145966453
 30
0.0
 41
70.0
 42
70.0
 43
70.0
 50
90.0
  0
POINT
  5
85F1
330
8518
100
AcDbEntity
  8
DEFPOINTS
 62
     0
100
AcDbPoint
 10
1603.56856939381
 20
2417.287145966453
 30
0.0
  0
POINT
  5
85F2
330
8518
100
AcDbEntity
  8
DEFPOINTS
 62
     0
100
AcDbPoint
 10
1603.56856939381
 20
2397.287145966453
 30
0.0
  0
POINT
  5
85F3
330
8518
100
AcDbEntity
  8
DEFPOINTS
 62
     0
100
AcDbPoint
 10
1192.581686574739
 20
2397.287145966453
 30
0.0
  0
ENDBLK
  5
851A
330
8518
100
AcDbEntity
  8
0
100
AcDbBlockEnd
  0
BLOCK
  5
852B
330
852A
100
AcDbEntity
  8
0
100
AcDbBlockBegin
  2
*D45
 70
     1
 10
0.0
 20
0.0
 30
0.0
  3
*D45
  1

  0
LINE
  5
8642
330
852A
100
AcDbEntity
  8
3
 62
     0
370
    -2
100
AcDbLine
 10
1586.06856939381
 20
2397.287145966453
 30
0.0
 11
1157.581686574739
 21
2397.287145966453
 31
0.0
  0
LINE
  5
8643
330
852A
100
AcDbEntity
  8
3
 62
     0
370
    -2
100
AcDbLine
 10
1586.06856939381
 20
2332.287145966453
 30
0.0
 11
1157.581686574739
 21
2332.287145966453
 31
0.0
  0
LINE
  5
8644
330
852A
100
AcDbEntity
  8
3
 62
     0
370
    -2
100
AcDbLine
 10
1192.581686574739
 20
2397.287145966453
 30
0.0
 11
1192.581686574739
 21
2467.287145966453
 31
0.0
  0
LINE
  5
8645
330
852A
100
AcDbEntity
  8
3
 62
     0
370
    -2
100
AcDbLine
 10
1192.581686574739
 20
2262.287145966453
 30
0.0
 11
1192.581686574739
 21
2192.287145966453
 31
0.0
  0
MTEXT
  5
8646
330
852A
100
AcDbEntity
  8
3
 62
     0
100
AcDbMText
 10
1105.081686574739
 20
2192.287145966453
 30
0.0
 40
105.0
 41
0.0
 71
     5
 72
     1
  1
\A1;65
 11
0.0000000000000001
 21
1.0
 31
0.0
 73
     1
 44
1.0
1001
ACAD
1000
MTEXTBEGIN
1070
    73
1070
     1
1070
    44
1040
1.0
1070
    74
1070
     0
1000
MTEXTEND
  0
LINE
  5
8647
330
852A
100
AcDbEntity
  8
3
 62
     0
370
    -2
100
AcDbLine
 10
1192.581686574739
 20
2397.287145966453
 30
0.0
 11
1192.581686574739
 21
2332.287145966453
 31
0.0
  0
INSERT
  5
8648
330
852A
100
AcDbEntity
  8
3
 62
     0
370
    -2
100
AcDbBlockReference
  2
_DotSmall
 10
1192.581686574739
 20
2397.287145966453
 30
0.0
 41
70.0
 42
70.0
 43
70.0
 50
270.0
  0
INSERT
  5
8649
330
852A
100
AcDbEntity
  8
3
 62
     0
370
    -2
100
AcDbBlockReference
  2
_OPEN
 10
1192.581686574739
 20
2332.287145966453
 30
0.0
 41
70.0
 42
70.0
 43
70.0
 50
90.0
  0
POINT
  5
864A
330
852A
100
AcDbEntity
  8
DEFPOINTS
 62
     0
100
AcDbPoint
 10
1603.56856939381
 20
2397.287145966453
 30
0.0
  0
POINT
  5
864B
330
852A
100
AcDbEntity
  8
DEFPOINTS
 62
     0
100
AcDbPoint
 10
1603.56856939381
 20
2332.287145966453
 30
0.0
  0
POINT
  5
864C
330
852A
100
AcDbEntity
  8
DEFPOINTS
 62
     0
100
AcDbPoint
 10
1192.581686574739
 20
2332.287145966453
 30
0.0
  0
ENDBLK
  5
852C
330
852A
100
AcDbEntity
  8
0
100
AcDbBlockEnd
  0
BLOCK
  5
853D
330
853C
100
AcDbEntity
  8
0
100
AcDbBlockBegin
  2
*D46
 70
     1
 10
0.0
 20
0.0
 30
0.0
  3
*D46
  1

  0
LINE
  5
8578
330
853C
100
AcDbEntity
  8
3
 62
     0
370
    -2
100
AcDbLine
 10
1586.06856939381
 20
2332.287145966453
 30
0.0
 11
639.2740051090438
 21
2332.287145966454
 31
0.0
  0
LINE
  5
8579
330
853C
100
AcDbEntity
  8
3
 62
     0
370
    -2
100
AcDbLine
 10
2241.06856939381
 20
4183.287145966453
 30
0.0
 11
639.2740051090441
 21
4183.287145966454
 31
0.0
  0
LINE
  5
857A
330
853C
100
AcDbEntity
  8
3
 62
     0
370
    -2
100
AcDbLine
 10
674.2740051090438
 20
2402.287145966454
 30
0.0
 11
674.2740051090442
 21
4113.287145966454
 31
0.0
  0
INSERT
  5
857B
330
853C
100
AcDbEntity
  8
3
 62
     0
370
    -2
100
AcDbBlockReference
  2
_OPEN
 10
674.2740051090438
 20
2332.287145966454
 30
0.0
 41
70.0
 42
70.0
 43
70.0
 50
270.0
  0
INSERT
  5
857C
330
853C
100
AcDbEntity
  8
3
 62
     0
370
    -2
100
AcDbBlockReference
  2
_OPEN
 10
674.2740051090442
 20
4183.287145966454
 30
0.0
 41
70.0
 42
70.0
 43
70.0
 50
90.0
  0
MTEXT
  5
857D
330
853C
100
AcDbEntity
  8
3
 62
     0
100
AcDbMText
 10
559.2740051090435
 20
3257.787145966454
 30
0.0
 40
105.0
 41
0.0
 71
     5
 72
     1
  1
\A1;(1851)
 11
0.0000000000000001
 21
1.0
 31
0.0
 73
     1
 44
1.0
1001
ACAD
1000
MTEXTBEGIN
1070
    73
1070
     1
1070
    44
1040
1.0
1070
    74
1070
     0
1000
MTEXTEND
  0
POINT
  5
857E
330
853C
100
AcDbEntity
  8
DEFPOINTS
 62
     0
100
AcDbPoint
 10
1603.56856939381
 20
2332.287145966453
 30
0.0
  0
POINT
  5
857F
330
853C
100
AcDbEntity
  8
DEFPOINTS
 62
     0
100
AcDbPoint
 10
2258.56856939381
 20
4183.287145966453
 30
0.0
  0
POINT
  5
8580
330
853C
100
AcDbEntity
  8
DEFPOINTS
 62
     0
100
AcDbPoint
 10
674.2740051090442
 20
4183.287145966454
 30
0.0
  0
ENDBLK
  5
853E
330
853C
100
AcDbEntity
  8
0
100
AcDbBlockEnd
  0
BLOCK
  5
85E4
330
85E2
100
AcDbEntity
  8
0
100
AcDbBlockBegin
  2
_DotSmall
 70
     0
 10
0.0
 20
0.0
 30
0.0
  3
_DotSmall
  1

  0
LWPOLYLINE
  5
85E3
330
85E2
100
AcDbEntity
  8
0
  6
ByBlock
 62
     0
100
AcDbPolyline
 90
        2
 70
     1
 43
0.5
 10
-0.0625
 20
0.0
 42
1.0
 10
0.0625
 20
0.0
 42
1.0
  0
ENDBLK
  5
85E5
330
85E2
100
AcDbEntity
  8
0
100
AcDbBlockEnd
  0
ENDSEC
  0
SECTION
  2
ENTITIES
  0
INSERT
  5
7C14
330
8392
100
AcDbEntity
  8
0
100
AcDbBlockReference
  2
YA_N
 10
6.0
 20
5.0
 30
0.0
  0
LINE
  5
7C16
330
8392
100
AcDbEntity
  8
2
100
AcDbLine
 10
1356.787917940833
 20
3427.287145966452
 30
0.0
 11
3329.942910507481
 21
3427.287145966452
 31
0.0
  0
LINE
  5
7C17
330
8392
100
AcDbEntity
  8
2
100
AcDbLine
 10
2263.568569393809
 20
2332.287145966453
 30
0.0
 11
2263.568569393809
 21
4255.179405696565
 31
0.0
  0
LINE
  5
7C18
330
8392
100
AcDbEntity
  8
1
100
AcDbLine
 10
2258.56856939381
 20
4187.287145966453
 30
0.0
 11
3514.56856939381
 21
4187.287145966453
 31
0.0
  0
LINE
  5
7C19
330
8392
100
AcDbEntity
  8
1
100
AcDbLine
 10
3514.56856939381
 20
4187.287145966453
 30
0.0
 11
3514.56856939381
 21
4183.287145966453
 31
0.0
  0
LINE
  5
7C1A
330
8392
100
AcDbEntity
  8
1
100
AcDbLine
 10
2258.56856939381
 20
4187.287145966453
 30
0.0
 11
2258.56856939381
 21
4183.287145966453
 31
0.0
  0
LINE
  5
7C1B
330
8392
100
AcDbEntity
  8
1
100
AcDbLine
 10
2311.568569393809
 20
4137.287145966452
 30
0.0
 11
3457.081481158371
 21
4137.287145966452
 31
0.0
  0
LINE
  5
7C1C
330
8392
100
AcDbEntity
  8
1
100
AcDbLine
 10
2258.56856939381
 20
4183.287145966453
 30
0.0
 11
3514.56856939381
 21
4183.287145966453
 31
0.0
  0
LINE
  5
7C1D
330
8392
100
AcDbEntity
  8
1
100
AcDbLine
 10
1603.56856939381
 20
2417.287145966453
 30
0.0
 11
3863.568569393809
 21
2417.287145966453
 31
0.0
1001
ACAD
1000
ASC_BOUNDS
1002
{
1070
    19
1005
0
1002
}
  0
LINE
  5
7C1E
330
8392
100
AcDbEntity
  8
1
100
AcDbLine
 10
1603.56856939381
 20
2542.287145966453
 30
0.0
 11
1603.56856939381
 21
2417.287145966453
 31
0.0
  0
LINE
  5
7C1F
330
8392
100
AcDbEntity
  8
1
100
AcDbLine
 10
3863.568569393809
 20
2542.287145966453
 30
0.0
 11
3863.568569393809
 21
2417.287145966453
 31
0.0
  0
LINE
  5
7C20
330
8392
100
AcDbEntity
  8
1
100
AcDbLine
 10
1603.56856939381
 20
2542.287145966453
 30
0.0
 11
3863.568569393809
 21
2542.287145966453
 31
0.0
  0
ARC
  5
7C21
330
8392
100
AcDbEntity
  8
1
100
AcDbCircle
 10
2345.568569393809
 20
3509.287145966454
 30
0.0
 40
1051.0
100
AcDbArc
 50
293.0627876000036
 51
355.5251821014662
  0
ARC
  5
7C22
330
8392
100
AcDbEntity
  8
1
100
AcDbCircle
 10
2345.568569393809
 20
3345.287145966454
 30
0.0
 40
887.0
100
AcDbArc
 50
174.695634792204
 51
244.8635510921249
  0
ARC
  5
7C23
330
8392
100
AcDbEntity
  8
1
100
AcDbCircle
 10
2195.068569393809
 20
3358.787145966452
 30
0.0
 40
736.5
100
AcDbArc
 50
84.66335167861648
 51
174.6633516786165
  0
LINE
  5
7C24
330
8392
100
AcDbEntity
  8
1
100
AcDbLine
 10
3461.56856939381
 20
4187.287145966453
 30
0.0
 11
3393.364828215151
 21
3427.287145966452
 31
0.0
  0
LINE
  5
7C25
330
8392
100
AcDbEntity
  8
1
100
AcDbLine
 10
2311.568569393809
 20
4187.287145966453
 30
0.0
 11
2311.568569393809
 21
4093.560363197943
 31
0.0
  0
LINE
  5
7C26
330
8392
100
AcDbEntity
  8
2
100
AcDbLine
 10
3573.56856939381
 20
3116.145422122397
 30
0.0
 11
3573.568569393808
 21
2332.287145966453
 31
0.0
  0
LINE
  5
7C27
330
8392
100
AcDbEntity
  8
2
100
AcDbLine
 10
3338.242274534831
 20
2802.287145966452
 30
0.0
 11
3837.733195376069
 21
2802.287145966452
 31
0.0
  0
LINE
  5
7C28
330
8392
100
AcDbEntity
  8
1
100
AcDbLine
 10
4395.419090021525
 20
2417.287145966453
 30
0.0
 11
4460.419090021525
 21
2417.287145966453
 31
0.0
1001
ACAD
1000
ASC_BOUNDS
1002
{
1070
    19
1002
}
  0
LINE
  5
7C29
330
8392
100
AcDbEntity
  8
1
100
AcDbLine
 10
4395.419090021525
 20
2542.287145966453
 30
0.0
 11
6295.419090021525
 21
2542.287145966453
 31
0.0
  0
LINE
  5
7C2A
330
8392
100
AcDbEntity
  8
1
100
AcDbLine
 10
4460.419090021527
 20
2417.287145966453
 30
0.0
 11
6295.419090021525
 21
2417.287145966453
 31
0.0
1001
ACAD
1000
ASC_BOUNDS
1002
{
1070
    19
1002
}
  0
LINE
  5
7C2B
330
8392
100
AcDbEntity
  8
2
100
AcDbLine
 10
4372.942339954427
 20
3427.287145966452
 30
0.0
 11
6402.407077098266
 21
3427.287145966452
 31
0.0
  0
LINE
  5
7C2C
330
8392
100
AcDbEntity
  8
1
100
AcDbLine
 10
4392.419090021526
 20
3681.287145966452
 30
0.0
 11
4392.419090021526
 21
2684.287145966453
 31
0.0
  0
LINE
  5
7C2D
330
8392
100
AcDbEntity
  8
1
100
AcDbLine
 10
4502.919090021526
 20
3681.287145966452
 30
0.0
 11
4502.919090021525
 21
2684.287145966453
 31
0.0
  0
LINE
  5
7C2E
330
8392
100
AcDbEntity
  8
2
100
AcDbLine
 10
4374.200150802397
 20
2802.287145966452
 30
0.0
 11
5269.164116557966
 21
2802.287145966452
 31
0.0
  0
LINE
  5
7C2F
330
8392
100
AcDbEntity
  8
1
100
AcDbLine
 10
4357.419090021525
 20
3807.287145966454
 30
0.0
 11
4357.419090021523
 21
2582.287145966453
 31
0.0
  0
LINE
  5
7C30
330
8392
100
AcDbEntity
  8
1
100
AcDbLine
 10
4554.719090021525
 20
3807.287145966454
 30
0.0
 11
4554.719090021523
 21
3787.287145966454
 31
0.0
  0
LINE
  5
7C31
330
8392
100
AcDbEntity
  8
2
100
AcDbLine
 10
2263.568569393809
 20
7671.633580304304
 30
0.0
 11
2263.568569393809
 21
5672.740252742644
 31
0.0
  0
LINE
  5
7C32
330
8392
100
AcDbEntity
  8
2
100
AcDbLine
 10
1375.765471673999
 20
6831.68623664779
 30
0.0
 11
3556.608583508635
 21
6831.68623664779
 31
0.0
  0
LINE
  5
7C33
330
8392
100
AcDbEntity
  8
2
100
AcDbLine
 10
5477.419090021525
 20
4403.148124601544
 30
0.0
 11
5477.419090021525
 21
2332.287145966453
 31
0.0
  0
POINT
  5
7C34
330
8392
100
AcDbEntity
  8
1
100
AcDbPoint
 10
2263.568569393809
 20
4228.488708465071
 30
0.0
  0
INSERT
  5
7C35
330
8392
100
AcDbEntity
  8
0
100
AcDbBlockReference
  2
YA_N
 10
-1074.779326041182
 20
-1311.669320613289
 30
0.0
 41
25.0
 42
25.0
 43
25.0
  0
LINE
  5
7C37
330
8392
100
AcDbEntity
  8
1
100
AcDbLine
 10
1603.56856939381
 20
2397.287145966453
 30
0.0
 11
3863.568569393809
 21
2397.287145966453
 31
0.0
1001
ACAD
1000
ASC_BOUNDS
1002
{
1070
    19
1005
0
1002
}
  0
LINE
  5
7C38
330
8392
100
AcDbEntity
  8
1
100
AcDbLine
 10
1603.56856939381
 20
2397.287145966453
 30
0.0
 11
1603.56856939381
 21
2332.287145966453
 31
0.0
  0
LINE
  5
7C39
330
8392
100
AcDbEntity
  8
1
100
AcDbLine
 10
3863.568569393809
 20
2397.287145966453
 30
0.0
 11
3863.568569393809
 21
2332.287145966453
 31
0.0
  0
LINE
  5
7C3A
330
8392
100
AcDbEntity
  8
1
100
AcDbLine
 10
1603.56856939381
 20
2332.287145966453
 30
0.0
 11
3863.568569393809
 21
2332.287145966453
 31
0.0
1001
ACAD
1000
ASC_BOUNDS
1002
{
1070
    19
1002
}
  0
LINE
  5
7C3B
330
8392
100
AcDbEntity
  8
1
100
AcDbLine
 10
4397.919090021527
 20
2397.287145966453
 30
0.0
 11
6295.419090021526
 21
2397.287145966453
 31
0.0
1001
ACAD
1000
ASC_BOUNDS
1002
{
1070
    19
1002
}
  0
LINE
  5
7C3C
330
8392
100
AcDbEntity
  8
1
100
AcDbLine
 10
4395.419090021525
 20
2397.287145966453
 30
0.0
 11
4395.419090021515
 21
2332.287145966453
 31
0.0
  0
LINE
  5
7C3D
330
8392
100
AcDbEntity
  8
1
100
AcDbLine
 10
4395.419090021514
 20
2332.287145966453
 30
0.0
 11
6295.419090021503
 21
2332.287145966453
 31
0.0
  0
INSERT
  5
7C3E
330
8392
100
AcDbEntity
  8
0
100
AcDbBlockReference
  2
YA_N
 10
-346.9416476423939
 20
-375.8074592043958
 30
0.0
 41
25.0
 42
25.0
 43
25.0
  0
ARC
  5
7C43
330
8392
100
AcDbEntity
  8
1
100
AcDbCircle
 10
3573.56856939381
 20
2802.287145966452
 30
0.0
 40
203.5
100
AcDbArc
 50
285.60376
 51
254.396301
  0
LINE
  5
7C44
330
8392
100
AcDbEntity
  8
1
100
AcDbLine
 10
3628.30660639381
 20
2606.287145966453
 30
0.0
 11
3518.83053239381
 21
2606.287145966453
 31
0.0
  0
ARC
  5
7C45
330
8392
100
AcDbEntity
  8
1
100
AcDbCircle
 10
3387.56856939381
 20
2619.287145966453
 30
0.0
 40
3.0
100
AcDbArc
 50
90.0
 51
180.0
  0
ARC
  5
7C46
330
8392
100
AcDbEntity
  8
1
100
AcDbCircle
 10
3389.568569393809
 20
2676.613806966453
 30
0.0
 40
5.000066999999999
100
AcDbArc
 50
124.943665
 51
180.0
  0
LINE
  5
7C47
330
8392
100
AcDbEntity
  8
1
100
AcDbLine
 10
3384.56856939381
 20
2676.613806966453
 30
0.0
 11
3384.56856939381
 21
2602.287145966453
 31
0.0
  0
LINE
  5
7C4B
330
8392
100
AcDbEntity
  8
1
100
AcDbLine
 10
3469.46599939381
 20
2627.430334966453
 30
0.0
 11
3464.06856939381
 21
2607.287145966453
 31
0.0
  0
LINE
  5
7C4C
330
8392
100
AcDbEntity
  8
1
100
AcDbLine
 10
3464.06856939381
 20
2619.287145966453
 30
0.0
 11
3464.06856939381
 21
2602.287145966453
 31
0.0
  0
LINE
  5
7C4D
330
8392
100
AcDbEntity
  8
1
100
AcDbLine
 10
3461.068569393809
 20
2622.287145966453
 30
0.0
 11
3387.56856939381
 21
2622.287145966453
 31
0.0
  0
ARC
  5
7C4E
330
8392
100
AcDbEntity
  8
1
100
AcDbCircle
 10
3461.068569393809
 20
2619.287145966453
 30
0.0
 40
3.0
100
AcDbArc
 50
0.0
 51
90.0
  0
LINE
  5
7C4F
330
8392
100
AcDbEntity
  8
1
100
AcDbLine
 10
3386.70479939381
 20
2680.712438966453
 30
0.0
 11
3402.642665393809
 21
2691.848913966453
 31
0.0
  0
LINE
  5
7C50
330
8392
100
AcDbEntity
  8
1
100
AcDbLine
 10
3762.56856939381
 20
2676.613806966453
 30
0.0
 11
3762.56856939381
 21
2602.287145966453
 31
0.0
  0
LINE
  5
7C54
330
8392
100
AcDbEntity
  8
1
100
AcDbLine
 10
3677.671352393809
 20
2627.430456966453
 30
0.0
 11
3683.068569393809
 21
2607.287145966453
 31
0.0
  0
LINE
  5
7C55
330
8392
100
AcDbEntity
  8
1
100
AcDbLine
 10
3683.068569393809
 20
2619.287145966453
 30
0.0
 11
3683.068569393809
 21
2602.287145966453
 31
0.0
  0
LINE
  5
7C56
330
8392
100
AcDbEntity
  8
1
100
AcDbLine
 10
3686.06856939381
 20
2622.287145966453
 30
0.0
 11
3759.56856939381
 21
2622.287145966453
 31
0.0
  0
ARC
  5
7C57
330
8392
100
AcDbEntity
  8
1
100
AcDbCircle
 10
3686.06856939381
 20
2619.287145966453
 30
0.0
 40
3.0
100
AcDbArc
 50
90.0
 51
180.0
  0
ARC
  5
7C58
330
8392
100
AcDbEntity
  8
1
100
AcDbCircle
 10
3759.56856939381
 20
2619.287145966453
 30
0.0
 40
3.0
100
AcDbArc
 50
0.0
 51
90.0
  0
LINE
  5
7C59
330
8392
100
AcDbEntity
  8
1
100
AcDbLine
 10
3760.43246039381
 20
2680.712438966453
 30
0.0
 11
3744.49459439381
 21
2691.848913966453
 31
0.0
  0
ARC
  5
7C5A
330
8392
100
AcDbEntity
  8
1
100
AcDbCircle
 10
3757.56856939381
 20
2676.613806966453
 30
0.0
 40
5.0
100
AcDbArc
 50
0.0
 51
55.05633899999998
  0
LINE
  5
7C5B
330
8392
100
AcDbEntity
  8
1
100
AcDbLine
 10
3329.506313345721
 20
2602.287145966453
 30
0.0
 11
3503.568569393809
 21
2602.287145966453
 31
0.0
  0
LINE
  5
7C5C
330
8392
100
AcDbEntity
  8
1
100
AcDbLine
 10
3313.568569393808
 20
2542.287145966453
 30
0.0
 11
3329.506313345719
 21
2602.287145966453
 31
0.0
  0
LINE
  5
7C5D
330
8392
100
AcDbEntity
  8
1
100
AcDbLine
 10
3833.56856939381
 20
2542.287145966453
 30
0.0
 11
3817.583559487445
 21
2602.287145966453
 31
0.0
  0
LINE
  5
7C5F
330
8392
100
AcDbEntity
  8
1
100
AcDbLine
 10
3503.568569393809
 20
2592.287145966453
 30
0.0
 11
3643.56856939381
 21
2592.287145966453
 31
0.0
  0
LINE
  5
7C60
330
8392
100
AcDbEntity
  8
1
100
AcDbLine
 10
3643.56856939381
 20
2602.287145966453
 30
0.0
 11
3643.568569393809
 21
2592.287145966453
 31
0.0
  0
LINE
  5
7C61
330
8392
100
AcDbEntity
  8
1
100
AcDbLine
 10
3503.568569393809
 20
2602.287145966453
 30
0.0
 11
3503.568569393809
 21
2592.287145966453
 31
0.0
  0
LINE
  5
7C64
330
8392
100
AcDbEntity
  8
1
100
AcDbLine
 10
3643.56856939381
 20
2602.287145966453
 30
0.0
 11
3817.583559487445
 21
2602.287145966453
 31
0.0
  0
CIRCLE
  5
7C65
330
8392
100
AcDbEntity
  8
1
100
AcDbCircle
 10
3573.56856939381
 20
2802.287145966452
 30
0.0
 40
118.0
  0
LINE
  5
7C66
330
8392
100
AcDbEntity
  8
1
100
AcDbLine
 10
4392.419090021525
 20
2920.287145966454
 30
0.0
 11
4502.919090021525
 21
2920.287145966454
 31
0.0
  0
LINE
  5
7C67
330
8392
100
AcDbEntity
  8
1
100
AcDbLine
 10
4392.419090021526
 20
2684.287145966453
 30
0.0
 11
4502.919090021525
 21
2684.287145966453
 31
0.0
  0
LINE
  5
7C68
330
8392
100
AcDbEntity
  8
1
100
AcDbLine
 10
4357.419090021525
 20
2582.287145966453
 30
0.0
 11
4554.719090021525
 21
2582.287145966453
 31
0.0
  0
INSERT
  5
7C6A
330
8392
100
AcDbEntity
  8
0
100
AcDbBlockReference
  2
YA_N
 10
-394.4722692372305
 20
-430.898429998433
 30
0.0
 41
25.0
 42
25.0
 43
25.0
  0
LINE
  5
7C6D
330
8392
100
AcDbEntity
  8
1
100
AcDbLine
 10
6227.419090021524
 20
2542.287145966453
 30
0.0
 11
6227.419090021527
 21
3427.287145966452
 31
0.0
  0
LINE
  5
7C6E
330
8392
100
AcDbEntity
  8
1
100
AcDbLine
 10
4727.419090021525
 20
3427.287145966452
 30
0.0
 11
4727.419090021525
 21
4187.287145966453
 31
0.0
  0
LINE
  5
7C6F
330
8392
100
AcDbEntity
  8
1
100
AcDbLine
 10
6227.419090021524
 20
3427.287145966452
 30
0.0
 11
6227.419090021524
 21
4187.287145966453
 31
0.0
  0
LINE
  5
7C70
330
8392
100
AcDbEntity
  8
1
100
AcDbLine
 10
4569.919090021525
 20
3364.287145966452
 30
0.0
 11
4660.119090021525
 21
3364.287145966452
 31
0.0
  0
LINE
  5
7C71
330
8392
100
AcDbEntity
  8
1
100
AcDbLine
 10
4559.919090021526
 20
3354.287145966453
 30
0.0
 11
4559.919090021526
 21
3224.287145966453
 31
0.0
  0
LINE
  5
7C72
330
8392
100
AcDbEntity
  8
1
100
AcDbLine
 10
4699.919090021525
 20
3364.287145966452
 30
0.0
 11
4699.919090021523
 21
3214.287145966451
 31
0.0
  0
LINE
  5
7C73
330
8392
100
AcDbEntity
  8
1
100
AcDbLine
 10
4569.919090021525
 20
3214.287145966452
 30
0.0
 11
4660.119090021525
 21
3214.287145966451
 31
0.0
  0
ARC
  5
7C74
330
8392
100
AcDbEntity
  8
1
100
AcDbCircle
 10
4569.919090021525
 20
3354.287145966453
 30
0.0
 40
10.0
100
AcDbArc
 50
90.0
 51
180.0
  0
ARC
  5
7C75
330
8392
100
AcDbEntity
  8
1
100
AcDbCircle
 10
4569.919090021525
 20
3224.287145966453
 30
0.0
 40
10.0
100
AcDbArc
 50
180.0
 51
270.0
  0
LINE
  5
7C76
330
8392
100
AcDbEntity
  8
1
100
AcDbLine
 10
6254.919090021524
 20
3364.287145966452
 30
0.0
 11
6254.919090021527
 21
3214.287145966451
 31
0.0
  0
LINE
  5
7C77
330
8392
100
AcDbEntity
  8
1
100
AcDbLine
 10
6407.419090021524
 20
3354.287145966453
 30
0.0
 11
6407.419090021524
 21
3224.287145966453
 31
0.0
  0
LINE
  5
7C78
330
8392
100
AcDbEntity
  8
1
100
AcDbLine
 10
6397.419090021525
 20
3214.287145966452
 30
0.0
 11
6294.719090021528
 21
3214.287145966451
 31
0.0
  0
ARC
  5
7C79
330
8392
100
AcDbEntity
  8
1
100
AcDbCircle
 10
6397.419090021525
 20
3224.287145966453
 30
0.0
 40
10.0
100
AcDbArc
 50
270.0
 51
0.0
  0
LINE
  5
7C7A
330
8392
100
AcDbEntity
  8
1
100
AcDbLine
 10
6397.419090021525
 20
3364.287145966452
 30
0.0
 11
6294.719090021528
 21
3364.287145966452
 31
0.0
  0
ARC
  5
7C7B
330
8392
100
AcDbEntity
  8
1
100
AcDbCircle
 10
6397.419090021525
 20
3354.287145966453
 30
0.0
 40
10.0
100
AcDbArc
 50
0.0
 51
90.0
  0
LINE
  5
7C7C
330
8392
100
AcDbEntity
  8
1
100
AcDbLine
 10
4532.419090021526
 20
3467.287145966452
 30
0.0
 11
4727.419090021525
 21
3467.287145966452
 31
0.0
  0
LINE
  5
7C7D
330
8392
100
AcDbEntity
  8
1
100
AcDbLine
 10
4532.419090021526
 20
3387.287145966454
 30
0.0
 11
4727.419090021527
 21
3387.287145966454
 31
0.0
  0
LINE
  5
7C7E
330
8392
100
AcDbEntity
  8
1
100
AcDbLine
 10
4532.419090021526
 20
3467.287145966452
 30
0.0
 11
4532.419090021526
 21
3387.287145966454
 31
0.0
  0
LINE
  5
7C7F
330
8392
100
AcDbEntity
  8
1
100
AcDbLine
 10
4502.919090021526
 20
3459.787145966453
 30
0.0
 11
4532.419090021526
 21
3459.787145966453
 31
0.0
  0
LINE
  5
7C80
330
8392
100
AcDbEntity
  8
1
100
AcDbLine
 10
4502.919090021525
 20
3394.787145966454
 30
0.0
 11
4532.419090021526
 21
3394.787145966454
 31
0.0
  0
LINE
  5
7C85
330
8392
100
AcDbEntity
  8
1
100
AcDbLine
 10
6294.719090021525
 20
3364.287145966452
 30
0.0
 11
6254.919090021524
 21
3364.287145966452
 31
0.0
  0
LINE
  5
7C86
330
8392
100
AcDbEntity
  8
1
100
AcDbLine
 10
6294.719090021527
 20
3214.287145966451
 30
0.0
 11
6254.919090021524
 21
3214.287145966451
 31
0.0
  0
LINE
  5
7C87
330
8392
100
AcDbEntity
  8
1
100
AcDbLine
 10
4660.119090021525
 20
3364.287145966452
 30
0.0
 11
4699.919090021525
 21
3364.287145966452
 31
0.0
  0
LINE
  5
7C88
330
8392
100
AcDbEntity
  8
1
100
AcDbLine
 10
4660.119090021525
 20
3214.287145966451
 30
0.0
 11
4699.919090021525
 21
3214.287145966451
 31
0.0
  0
ARC
  5
7C8A
330
8392
100
AcDbEntity
  8
1
100
AcDbCircle
 10
2263.568569393809
 20
3427.287145966452
 30
0.0
 40
668.0
100
AcDbArc
 50
85.87938678604993
 51
90.0
  0
LINE
  5
7C8B
330
8392
100
AcDbEntity
  8
1
100
AcDbLine
 10
3773.568569393809
 20
2334.287145966452
 30
0.0
 11
3773.568569393809
 21
2332.287145966453
 31
0.0
  0
LINE
  5
7C8C
330
8392
100
AcDbEntity
  8
1
100
AcDbLine
 10
6295.419090021525
 20
2542.287145966453
 30
0.0
 11
6295.419090021525
 21
2417.287145966453
 31
0.0
  0
LINE
  5
7C8D
330
8392
100
AcDbEntity
  8
1
100
AcDbLine
 10
4395.419090021525
 20
2542.287145966453
 30
0.0
 11
4395.419090021525
 21
2417.287145966453
 31
0.0
  0
LINE
  5
7C8E
330
8392
100
AcDbEntity
  8
1
100
AcDbLine
 10
6295.419090021526
 20
2397.287145966456
 30
0.0
 11
6295.419090021505
 21
2332.287145966453
 31
0.0
  0
INSERT
  5
7C90
330
8392
100
AcDbEntity
  8
0
100
AcDbBlockReference
  2
YA_N
 10
4305.350442567148
 20
-1988.400780944633
 30
0.0
  0
POINT
  5
7C92
330
8392
100
AcDbEntity
  8
1
100
AcDbPoint
 10
1603.56856939381
 20
2397.287145966453
 30
0.0
  0
POINT
  5
7C93
330
8392
100
AcDbEntity
  8
1
100
AcDbPoint
 10
1603.56856939381
 20
2332.287145966453
 30
0.0
  0
POINT
  5
7C94
330
8392
100
AcDbEntity
  8
1
100
AcDbPoint
 10
1603.56856939381
 20
2397.287145966453
 30
0.0
  0
POINT
  5
7C95
330
8392
100
AcDbEntity
  8
1
100
AcDbPoint
 10
1603.56856939381
 20
2417.287145966453
 30
0.0
  0
ARC
  5
7C98
330
8392
100
AcDbEntity
  8
1
100
AcDbCircle
 10
2263.568569393809
 20
3427.287145966452
 30
0.0
 40
380.0
100
AcDbArc
 50
64.22111760467493
 51
257.4717657595268
  0
CIRCLE
  5
7C99
330
8392
100
AcDbEntity
  8
1
100
AcDbCircle
 10
2263.568569393809
 20
3427.287145966452
 30
0.0
 40
254.0
  0
ARC
  5
7C9A
330
8392
100
AcDbEntity
  8
1
100
AcDbCircle
 10
3573.56856939381
 20
2802.287145966452
 30
0.0
 40
220.0
100
AcDbArc
 50
257.4717657595268
 51
64.22111760467493
  0
LINE
  5
7C9B
330
8392
100
AcDbEntity
  8
1
100
AcDbLine
 10
2428.830279746091
 20
3769.469213134561
 30
0.0
 11
3669.246401703025
 21
3000.392553274304
 31
0.0
  0
LINE
  5
7C9C
330
8392
100
AcDbEntity
  8
1
100
AcDbLine
 10
2370.035298634965
 20
3657.896849935497
 30
0.0
 11
3623.029490852299
 21
2909.42078796782
 31
0.0
  0
LINE
  5
7C9D
330
8392
100
AcDbEntity
  8
1
100
AcDbLine
 10
2204.163409213426
 20
3180.331629842712
 30
0.0
 11
3545.970896554104
 21
2687.55978020818
 31
0.0
  0
LINE
  5
7C9E
330
8392
100
AcDbEntity
  8
1
100
AcDbLine
 10
2181.138708245297
 20
3056.335238044365
 30
0.0
 11
3525.846018202566
 21
2587.525515064192
 31
0.0
  0
LINE
  5
7C9F
330
8392
100
AcDbEntity
  8
1
100
AcDbLine
 10
4392.419090021526
 20
3681.287145966452
 30
0.0
 11
4502.919090021526
 21
3681.287145966452
 31
0.0
  0
LINE
  5
7CA0
330
8392
100
AcDbEntity
  8
1
100
AcDbLine
 10
4392.419090021526
 20
3173.287145966453
 30
0.0
 11
4502.919090021525
 21
3173.287145966453
 31
0.0
  0
LINE
  5
7CA1
330
8392
100
AcDbEntity
  8
1
100
AcDbLine
 10
4357.419090021525
 20
3807.287145966454
 30
0.0
 11
4554.719090021525
 21
3807.287145966454
 31
0.0
  0
LINE
  5
7CA2
330
8392
100
AcDbEntity
  8
1
100
AcDbLine
 10
4554.719090021523
 20
2602.287145966453
 30
0.0
 11
4554.719090021525
 21
2582.287145966453
 31
0.0
  0
LINE
  5
7CA4
330
8392
100
AcDbEntity
  8
1
100
AcDbLine
 10
1603.56856939381
 20
7649.686236647792
 30
0.0
 11
2923.56856939381
 21
7649.686236647792
 31
0.0
  0
LINE
  5
7CA5
330
8392
100
AcDbEntity
  8
1
100
AcDbLine
 10
1603.56856939381
 20
5749.68623664779
 30
0.0
 11
3863.568569393811
 21
5749.68623664779
 31
0.0
  0
LINE
  5
7CA6
330
8392
100
AcDbEntity
  8
1
100
AcDbLine
 10
1603.56856939381
 20
7649.686236647792
 30
0.0
 11
1603.56856939381
 21
7581.68623664779
 31
0.0
  0
LINE
  5
7CA7
330
8392
100
AcDbEntity
  8
1
100
AcDbLine
 10
3863.568569393811
 20
6649.686236647792
 30
0.0
 11
3863.568569393811
 21
5749.686236647789
 31
0.0
  0
LINE
  5
7CA8
330
8392
100
AcDbEntity
  8
1
100
AcDbLine
 10
2923.56856939381
 20
7649.686236647792
 30
0.0
 11
2923.56856939381
 21
7581.68623664779
 31
0.0
  0
LINE
  5
7CA9
330
8392
100
AcDbEntity
  8
1
100
AcDbLine
 10
3461.56856939381
 20
6649.686236647792
 30
0.0
 11
3863.568569393811
 21
6649.686236647792
 31
0.0
  0
LINE
  5
7CAA
330
8392
100
AcDbEntity
  8
2
100
AcDbLine
 10
3573.56856939381
 20
6517.408813806117
 30
0.0
 11
3573.568569393807
 21
5672.740252742644
 31
0.0
  0
CIRCLE
  5
7CB2
330
8392
100
AcDbEntity
  8
1
100
AcDbCircle
 10
2263.568569393809
 20
3427.287145966452
 30
0.0
 40
560.0
  0
CIRCLE
  5
7CB3
330
8392
100
AcDbEntity
  8
1
100
AcDbCircle
 10
2263.568569393809
 20
3427.287145966452
 30
0.0
 40
610.0
  0
LINE
  5
7CB4
330
8392
100
AcDbEntity
  8
1
100
AcDbLine
 10
1883.56856939381
 20
5711.686236647791
 30
0.0
 11
3793.56856939381
 21
5711.686236647791
 31
0.0
  0
LINE
  5
7CB5
330
8392
100
AcDbEntity
  8
1
100
AcDbLine
 10
1883.56856939381
 20
5881.686236647791
 30
0.0
 11
3793.56856939381
 21
5881.686236647791
 31
0.0
  0
LINE
  5
7CB6
330
8392
100
AcDbEntity
  8
1
100
AcDbLine
 10
1883.56856939381
 20
5711.686236647791
 30
0.0
 11
1883.56856939381
 21
5881.686236647791
 31
0.0
  0
LINE
  5
7CB7
330
8392
100
AcDbEntity
  8
1
100
AcDbLine
 10
3793.56856939381
 20
5711.686236647791
 30
0.0
 11
3793.56856939381
 21
5881.686236647791
 31
0.0
  0
LINE
  5
7CB8
330
8392
100
AcDbEntity
  8
1
100
AcDbLine
 10
2009.56856939381
 20
5749.38623664779
 30
0.0
 11
2009.56856939381
 21
5859.886236647791
 31
0.0
  0
LINE
  5
7CB9
330
8392
100
AcDbEntity
  8
1
100
AcDbLine
 10
2517.56856939381
 20
5749.38623664779
 30
0.0
 11
2517.56856939381
 21
5859.886236647791
 31
0.0
  0
LINE
  5
7CBA
330
8392
100
AcDbEntity
  8
1
100
AcDbLine
 10
3455.56856939381
 20
5749.38623664779
 30
0.0
 11
3455.56856939381
 21
5859.886236647791
 31
0.0
  0
LINE
  5
7CBB
330
8392
100
AcDbEntity
  8
1
100
AcDbLine
 10
3691.56856939381
 20
5749.38623664779
 30
0.0
 11
3691.56856939381
 21
5859.886236647791
 31
0.0
  0
LINE
  5
7CBC
330
8392
100
AcDbEntity
  8
1
100
AcDbLine
 10
2009.56856939381
 20
5749.38623664779
 30
0.0
 11
2517.56856939381
 21
5749.38623664779
 31
0.0
  0
LINE
  5
7CBD
330
8392
100
AcDbEntity
  8
1
100
AcDbLine
 10
2009.56856939381
 20
5859.886236647791
 30
0.0
 11
2517.56856939381
 21
5859.886236647791
 31
0.0
  0
LINE
  5
7CBE
330
8392
100
AcDbEntity
  8
1
100
AcDbLine
 10
3455.56856939381
 20
5859.886236647791
 30
0.0
 11
3691.56856939381
 21
5859.886236647791
 31
0.0
  0
LINE
  5
7CBF
330
8392
100
AcDbEntity
  8
1
100
AcDbLine
 10
3455.56856939381
 20
5749.38623664779
 30
0.0
 11
3691.56856939381
 21
5749.38623664779
 31
0.0
  0
LINE
  5
7CC0
330
8392
100
AcDbEntity
  8
1
100
AcDbLine
 10
1458.56856939381
 20
7581.68623664779
 30
0.0
 11
3461.56856939381
 21
7581.68623664779
 31
0.0
  0
LINE
  5
7CC1
330
8392
100
AcDbEntity
  8
1
100
AcDbLine
 10
1458.56856939381
 20
6081.686236647789
 30
0.0
 11
3461.56856939381
 21
6081.68623664779
 31
0.0
  0
LINE
  5
7CC2
330
8392
100
AcDbEntity
  8
1
100
AcDbLine
 10
2228.568569393809
 20
6081.68623664779
 30
0.0
 11
2228.568569393809
 21
5859.886236647791
 31
0.0
  0
LINE
  5
7CC3
330
8392
100
AcDbEntity
  8
1
100
AcDbLine
 10
2298.568569393809
 20
6081.68623664779
 30
0.0
 11
2298.568569393809
 21
5859.886236647791
 31
0.0
  0
LINE
  5
7CC4
330
8392
100
AcDbEntity
  8
1
100
AcDbLine
 10
3374.568569393809
 20
6081.686236647792
 30
0.0
 11
3374.568569393808
 21
5894.386236647791
 31
0.0
  0
LINE
  5
7CC5
330
8392
100
AcDbEntity
  8
1
100
AcDbLine
 10
3772.56856939381
 20
6551.88623664779
 30
0.0
 11
3772.568569393808
 21
5894.38623664779
 31
0.0
  0
LINE
  5
7CC6
330
8392
100
AcDbEntity
  8
1
100
AcDbLine
 10
3461.56856939381
 20
6551.88623664779
 30
0.0
 11
3772.56856939381
 21
6551.88623664779
 31
0.0
  0
LINE
  5
7CC7
330
8392
100
AcDbEntity
  8
1
100
AcDbLine
 10
3374.568569393806
 20
5894.386236647791
 30
0.0
 11
3772.568569393806
 21
5894.38623664779
 31
0.0
  0
LINE
  5
7CC8
330
8392
100
AcDbEntity
  8
1
100
AcDbLine
 10
3546.068569393808
 20
5894.38623664779
 30
0.0
 11
3546.068569393808
 21
5859.886236647791
 31
0.0
  0
LINE
  5
7CC9
330
8392
100
AcDbEntity
  8
1
100
AcDbLine
 10
3601.068569393808
 20
5894.38623664779
 30
0.0
 11
3601.068569393808
 21
5859.886236647791
 31
0.0
  0
LINE
  5
7CCA
330
8392
100
AcDbEntity
  8
1
100
AcDbLine
 10
5194.919090021525
 20
3001.287145966454
 30
0.0
 11
4537.419090021522
 21
3001.287145966454
 31
0.0
  0
LINE
  5
7CCB
330
8392
100
AcDbEntity
  8
1
100
AcDbLine
 10
5194.919090021528
 20
2603.287145966453
 30
0.0
 11
4537.419090021526
 21
2603.287145966453
 31
0.0
  0
LINE
  5
7CCC
330
8392
100
AcDbEntity
  8
1
100
AcDbLine
 10
4537.419090021526
 20
2603.287145966453
 30
0.0
 11
4537.419090021525
 21
3001.287145966452
 31
0.0
  0
LINE
  5
7CCD
330
8392
100
AcDbEntity
  8
1
100
AcDbLine
 10
4537.419090021525
 20
2774.787145966453
 30
0.0
 11
4502.919090021525
 21
2774.787145966453
 31
0.0
  0
LINE
  5
7CCE
330
8392
100
AcDbEntity
  8
1
100
AcDbLine
 10
4537.419090021525
 20
2829.787145966454
 30
0.0
 11
4502.919090021525
 21
2829.787145966454
 31
0.0
  0
LINE
  5
7CD5
330
8392
100
AcDbEntity
  8
1
100
AcDbLine
 10
1603.56856939381
 20
6081.68623664779
 30
0.0
 11
1603.56856939381
 21
5749.68623664779
 31
0.0
  0
LINE
  5
7CDD
330
8392
100
AcDbEntity
  8
1
100
AcDbLine
 10
4677.419090021525
 20
4187.287145966453
 30
0.0
 11
6277.419090021528
 21
4187.287145966453
 31
0.0
  0
LINE
  5
7CDE
330
8392
100
AcDbEntity
  8
1
100
AcDbLine
 10
4677.419090021525
 20
4183.287145966453
 30
0.0
 11
6277.419090021528
 21
4183.287145966453
 31
0.0
  0
LINE
  5
7CDF
330
8392
100
AcDbEntity
  8
1
100
AcDbLine
 10
4677.419090021525
 20
4183.287145966453
 30
0.0
 11
4677.419090021525
 21
4187.287145966453
 31
0.0
  0
LINE
  5
7CE0
330
8392
100
AcDbEntity
  8
1
100
AcDbLine
 10
6277.419090021528
 20
4183.287145966453
 30
0.0
 11
6277.419090021524
 21
4187.287145966453
 31
0.0
  0
LINE
  5
7CE1
330
8392
100
AcDbEntity
  8
1
100
AcDbLine
 10
3461.56856939381
 20
7581.68623664779
 30
0.0
 11
3461.56856939381
 21
6081.68623664779
 31
0.0
  0
LINE
  5
7CE2
330
8392
100
AcDbEntity
  8
1
100
AcDbLine
 10
1458.56856939381
 20
7581.68623664779
 30
0.0
 11
1458.56856939381
 21
6081.686236647789
 31
0.0
  0
LINE
  5
7CE3
330
8392
100
AcDbEntity
  8
1
100
AcDbLine
 10
2311.568569393809
 20
7581.68623664779
 30
0.0
 11
2311.568569393809
 21
6081.68623664779
 31
0.0
  0
LINE
  5
7CE4
330
8392
100
AcDbEntity
  8
1
100
AcDbLine
 10
2311.568569393809
 20
7581.68623664779
 30
0.0
 11
3461.56856939381
 21
6081.68623664779
 31
0.0
  0
LINE
  5
7CE5
330
8392
100
AcDbEntity
  8
1
100
AcDbLine
 10
3461.56856939381
 20
7581.68623664779
 30
0.0
 11
2311.568569393809
 21
6081.68623664779
 31
0.0
  0
LINE
  5
7CE6
330
8392
100
AcDbEntity
  8
1
100
AcDbLine
 10
5194.919090021526
 20
2603.287145966453
 30
0.0
 11
5194.919090021525
 21
3001.287145966455
 31
0.0
  0
LINE
  5
7CE7
330
8392
100
AcDbEntity
  8
1
100
AcDbLine
 10
4727.419090021527
 20
3001.287145966454
 30
0.0
 11
4727.419090021527
 21
3427.287145966452
 31
0.0
  0
LINE
  5
7CE8
330
8392
100
AcDbEntity
  8
1
100
AcDbLine
 10
5080.947678353766
 20
2603.287145966453
 30
0.0
 11
5080.947678353766
 21
2542.287145966453
 31
0.0
  0
LINE
  5
7CE9
330
8392
100
AcDbEntity
  8
1
100
AcDbLine
 10
4605.783620309096
 20
2603.287145966453
 30
0.0
 11
4605.783620309096
 21
2542.287145966453
 31
0.0
  0
LINE
  5
7F14
330
8392
100
AcDbEntity
  8
4
100
AcDbLine
 10
6475.0
 20
1750.0
 30
0.0
 11
6475.0
 21
1050.0
 31
0.0
  0
LINE
  5
7F15
330
8392
100
AcDbEntity
  8
4
100
AcDbLine
 10
4025.0
 20
1750.0
 30
0.0
 11
4025.0
 21
1050.0
 31
0.0
  0
LINE
  5
7F16
330
8392
100
AcDbEntity
  8
4
100
AcDbLine
 10
2275.0
 20
1750.0
 30
0.0
 11
2275.0
 21
1050.0
 31
0.0
  0
LINE
  5
7F19
330
8392
100
AcDbEntity
  8
4
100
AcDbLine
 10
2275.0
 20
1050.0
 30
0.0
 11
6475.0
 21
1050.0
 31
0.0
  0
LINE
  5
7F1A
330
8392
100
AcDbEntity
  8
4
100
AcDbLine
 10
2275.0
 20
1400.0
 30
0.0
 11
6475.0
 21
1400.0
 31
0.0
  0
TEXT
  5
7F1B
330
8392
100
AcDbEntity
  8
4
100
AcDbText
 10
2409.757282964156
 20
1510.400590533145
 30
0.0
 40
175.0
  1
機器名称
100
AcDbText
  0
TEXT
  5
7F1C
330
8392
100
AcDbEntity
  8
4
100
AcDbText
 10
2401.903371086791
 20
1125.758048562038
 30
0.0
 40
175.0
  1
機器型番
100
AcDbText
  0
TEXT
  5
7F1D
330
8392
100
AcDbEntity
  8
4
100
AcDbText
 10
4121.875609206827
 20
1479.00119135149
 30
0.0
 40
175.0
  1
ミツヤ多翼送風機
100
AcDbText
  0
TEXT
  5
7F1E
330
8392
100
AcDbEntity
  8
4
100
AcDbText
 10
4153.290734549183
 20
1110.058544979801
 30
0.0
 40
175.0
  1
MF#7-5
100
AcDbText
  0
TEXT
  5
7F20
330
8392
100
AcDbEntity
  8
4
100
AcDbText
 10
2704.711910906815
 20
8342.000944663805
 30
0.0
 40
188.9999999999998
  1
床置防振ベット
100
AcDbText
  0
TEXT
  5
7F21
330
8392
100
AcDbEntity
  8
4
100
AcDbText
 10
1106.586576653062
 20
8868.583416697545
 30
0.0
 40
252.0
  1
遠心式両吸込両持多翼ファン
100
AcDbText
  0
LINE
  5
7F22
330
8392
100
AcDbEntity
  8
4
100
AcDbLine
 10
875.0
 20
8642.930639926817
 30
0.0
 11
6475.0
 21
8642.930639926817
 31
0.0
  0
LINE
  5
7F23
330
8392
100
AcDbEntity
  8
4
100
AcDbLine
 10
875.0
 20
9342.930639926818
 30
0.0
 11
6475.0
 21
9342.930639926818
 31
0.0
  0
LINE
  5
7F24
330
8392
100
AcDbEntity
  8
4
100
AcDbLine
 10
2275.0
 20
1750.0
 30
0.0
 11
6475.0
 21
1750.0
 31
0.0
  0
LINE
  5
7F25
330
8392
100
AcDbEntity
  8
4
100
AcDbLine
 10
875.0
 20
9342.930639926818
 30
0.0
 11
875.0
 21
8642.930639926817
 31
0.0
  0
TEXT
  5
7F26
330
8392
100
AcDbEntity
  8
4
100
AcDbText
 10
1179.205998057357
 20
8338.118171412203
 30
0.0
 40
188.9999999999998
  1
左回転上向
100
AcDbText
  0
TEXT
  5
7F27
330
8392
100
AcDbEntity
  8
4
100
AcDbText
 10
5141.393457372513
 20
9471.21378523358
 30
0.0
 40
196.0
  1
No.
100
AcDbText
  0
TEXT
  5
7F28
330
8392
100
AcDbEntity
  8
4
100
AcDbText
 10
4589.536219100046
 20
8342.000944663805
 30
0.0
 40
188.9999999999998
  1
縮尺：1/35
100
AcDbText
  0
LINE
  5
7F29
330
8392
100
AcDbEntity
  8
4
100
AcDbLine
 10
6475.0
 20
9342.930639926818
 30
0.0
 11
6475.0
 21
8642.930639926817
 31
0.0
  0
LINE
  5
7F2A
330
8392
100
AcDbEntity
  8
4
100
AcDbLine
 10
7350.0
 20
10325.0
 30
0.0
 11
7350.0
 21
10325.0
 31
0.0
  0
LINE
  5
7F2B
330
8392
100
AcDbEntity
  8
4
100
AcDbLine
 10
5042.160978259526
 20
9384.422540938905
 30
0.0
 11
5042.160978259526
 21
9753.282915424136
 31
0.0
  0
LINE
  5
7F2C
330
8392
100
AcDbEntity
  8
4
100
AcDbLine
 10
5042.160978259526
 20
9753.282915424136
 30
0.0
 11
6475.0
 21
9753.282915424136
 31
0.0
  0
LINE
  5
7F2D
330
8392
100
AcDbEntity
  8
4
100
AcDbLine
 10
6475.0
 20
9753.282915424136
 30
0.0
 11
6475.0
 21
9384.422540938905
 31
0.0
  0
LINE
  5
7F2E
330
8392
100
AcDbEntity
  8
4
100
AcDbLine
 10
6475.0
 20
9384.422540938905
 30
0.0
 11
5042.160978259526
 21
9384.422540938905
 31
0.0
  0
LINE
  5
7F2F
330
8392
100
AcDbEntity
  8
4
100
AcDbLine
 10
0.0
 20
0.0
 30
0.0
 11
0.0
 21
10325.0
 31
0.0
  0
LINE
  5
7F30
330
8392
100
AcDbEntity
  8
4
100
AcDbLine
 10
0.0
 20
10325.0
 30
0.0
 11
7350.0
 21
10325.0
 31
0.0
  0
LINE
  5
7F31
330
8392
100
AcDbEntity
  8
4
100
AcDbLine
 10
7350.0
 20
10325.0
 30
0.0
 11
7350.0
 21
0.0
 31
0.0
  0
LINE
  5
7F32
330
8392
100
AcDbEntity
  8
4
100
AcDbLine
 10
7350.0
 20
0.0
 30
0.0
 11
0.0
 21
0.0
 31
0.0
  0
DIMENSION
  5
8141
330
8392
100
AcDbEntity
  8
3
100
AcDbDimension
  2
*D21
 10
2263.568569393809
 20
2112.342426966486
 30
0.0
 11
1933.568569393809
 21
2199.842426966486
 31
0.0
 71
     5
 42
-1.0
  3
Standard
100
AcDbAlignedDimension
 13
1603.56856939381
 23
2332.287145966453
 33
0.0
 14
2263.568569393809
 24
2332.287145966453
 34
0.0
100
AcDbRotatedDimension
1001
ACAD
1000
DSTYLE
1002
{
1070
   172
1070
     1
1070
    40
1040
35.0
1070
   271
1070
     0
1070
   143
1040
0.039
1002
}
  0
DIMENSION
  5
814E
330
8392
100
AcDbEntity
  8
3
100
AcDbDimension
  2
*D22
 10
3863.568569393809
 20
2112.342426966486
 30
0.0
 11
3063.568569393809
 21
2199.842426966486
 31
0.0
 71
     5
 42
-1.0
  3
Standard
100
AcDbAlignedDimension
 13
2263.568569393809
 23
2332.287145966453
 33
0.0
 14
3863.568569393809
 24
2332.287145966453
 34
0.0
100
AcDbRotatedDimension
1001
ACAD
1000
DSTYLE
1002
{
1070
   172
1070
     1
1070
    40
1040
35.0
1070
   271
1070
     0
1070
   143
1040
0.039
1002
}
  0
DIMENSION
  5
815B
330
8392
100
AcDbEntity
  8
3
100
AcDbDimension
  2
*D23
 10
5477.419090021525
 20
2112.342426966486
 30
0.0
 11
4936.419090021519
 21
2199.842426966486
 31
0.0
 71
     5
 42
-1.0
  3
Standard
100
AcDbAlignedDimension
 13
4395.419090021515
 23
2332.287145966453
 33
0.0
 14
5477.419090021525
 24
2332.287145966453
 34
0.0
100
AcDbRotatedDimension
1001
ACAD
1000
DSTYLE
1002
{
1070
   172
1070
     1
1070
    40
1040
35.0
1070
   271
1070
     0
1070
   143
1040
0.039
1002
}
  0
DIMENSION
  5
8168
330
8392
100
AcDbEntity
  8
3
100
AcDbDimension
  2
*D24
 10
6295.419090021505
 20
2112.342426966486
 30
0.0
 11
5886.419090021515
 21
2199.842426966486
 31
0.0
 71
     5
 42
-1.0
  3
Standard
100
AcDbAlignedDimension
 13
5477.419090021525
 23
2332.287145966453
 33
0.0
 14
6295.419090021505
 24
2332.287145966453
 34
0.0
100
AcDbRotatedDimension
1001
ACAD
1000
DSTYLE
1002
{
1070
   172
1070
     1
1070
    40
1040
35.0
1070
   271
1070
     0
1070
   143
1040
0.039
1002
}
  0
DIMENSION
  5
83E1
330
8392
100
AcDbEntity
  8
3
100
AcDbDimension
  2
*D28
 10
6634.72503671141
 20
2867.287145966452
 30
0.0
 11
6547.225036711409
 21
3427.287145966453
 31
0.0
 70
    32
  1
\U+03C6<>
 71
     5
 42
1120.0
  3
IGA
100
AcDbAlignedDimension
 13
6227.419090021524
 23
3987.287145966453
 33
0.0
 14
6227.419090021525
 24
2867.287145966452
 34
0.0
 50
90.0
100
AcDbRotatedDimension
1001
ACAD
1000
DSTYLE
1002
{
1070
    40
1040
35.0
1070
   143
1040
0.039
1070
   172
1070
     1
1070
   271
1070
     4
1070
   272
1070
     4
1070
   279
1070
     0
1070
   284
1070
     0
1070
   285
1070
     0
1070
   286
1070
     0
1070
   341
1005
83A5
1070
   343
1005
83A5
1070
   344
1005
83A5
1002
}
  0
DIMENSION
  5
83EE
330
8392
100
AcDbEntity
  8
3
100
AcDbDimension
  2
*D29
 10
6227.419090021524
 20
4447.405437488114
 30
0.0
 11
5477.419090021525
 21
4534.905437488113
 31
0.0
 70
    32
 71
     5
 42
1499.999999999999
  3
IGA
100
AcDbAlignedDimension
 13
4727.419090021525
 23
4187.287145966453
 33
0.0
 14
6227.419090021524
 24
4187.287145966453
 34
0.0
100
AcDbRotatedDimension
1001
ACAD
1000
DSTYLE
1002
{
1070
    40
1040
35.0
1070
   143
1040
0.039
1070
   172
1070
     1
1070
   271
1070
     4
1070
   272
1070
     4
1070
   279
1070
     0
1070
   284
1070
     0
1070
   285
1070
     0
1070
   286
1070
     0
1070
   341
1005
83A5
1070
   343
1005
83A5
1070
   344
1005
83A5
1002
}
  0
DIMENSION
  5
83FB
330
8392
100
AcDbEntity
  8
3
100
AcDbDimension
  2
*D30
 10
5477.419090021525
 20
4683.142332365934
 30
0.0
 11
4917.419090021525
 21
4798.142332365933
 31
0.0
 70
    32
  1
(<>)
 71
     5
 42
1120.0
  3
IGA
100
AcDbAlignedDimension
 13
4357.419090021525
 23
3807.287145966454
 33
0.0
 14
5477.419090021525
 24
4587.405437488113
 34
0.0
100
AcDbRotatedDimension
1001
ACAD
1000
DSTYLE
1002
{
1070
    40
1040
35.0
1070
   143
1040
0.039
1070
   172
1070
     1
1070
   271
1070
     4
1070
   272
1070
     4
1070
   279
1070
     0
1070
   284
1070
     0
1070
   285
1070
     0
1070
   286
1070
     0
1070
   341
1005
83A5
1070
   343
1005
83A5
1070
   344
1005
83A5
1002
}
  0
DIMENSION
  5
8408
330
8392
100
AcDbEntity
  8
3
100
AcDbDimension
  2
*D31
 10
6407.419090021524
 20
4683.142332365934
 30
0.0
 11
5942.419090021525
 21
4798.142332365933
 31
0.0
 70
    32
  1
(<>)
 71
     5
 42
929.9999999999991
  3
IGA
100
AcDbAlignedDimension
 13
5477.419090021525
 23
4587.405437488113
 33
0.0
 14
6407.419090021524
 24
3354.287145966453
 34
0.0
100
AcDbRotatedDimension
1001
ACAD
1000
DSTYLE
1002
{
1070
    40
1040
35.0
1070
   143
1040
0.039
1070
   172
1070
     1
1070
   271
1070
     4
1070
   272
1070
     4
1070
   279
1070
     1
1070
   284
1070
     0
1070
   285
1070
     0
1070
   286
1070
     0
1070
   341
1005
83A5
1070
   343
1005
83A5
1070
   344
1005
83A5
1002
}
  0
DIMENSION
  5
8488
330
8392
100
AcDbEntity
  8
3
100
AcDbDimension
  2
*D33
 10
1204.796314422758
 20
5749.68623664779
 30
0.0
 11
1117.296314422757
 21
6699.686236647791
 31
0.0
 70
    32
 71
     5
 42
1900.0
  3
IGA
100
AcDbAlignedDimension
 13
1603.56856939381
 23
7649.686236647792
 33
0.0
 14
1603.56856939381
 24
5749.68623664779
 34
0.0
 50
90.0
100
AcDbRotatedDimension
1001
ACAD
1000
DSTYLE
1002
{
1070
    40
1040
35.0
1070
   143
1040
0.039
1070
   172
1070
     1
1070
   271
1070
     4
1070
   272
1070
     4
1070
   279
1070
     0
1070
   284
1070
     0
1070
   285
1070
     0
1070
   286
1070
     0
1070
   341
1005
83A5
1070
   343
1005
83A5
1070
   344
1005
83A5
1002
}
  0
DIMENSION
  5
8495
330
8392
100
AcDbEntity
  8
3
100
AcDbDimension
  2
*D34
 10
3863.568569393811
 20
5458.441044553842
 30
0.0
 11
2733.56856939381
 21
5545.941044553842
 31
0.0
 70
    32
 71
     5
 42
2260.0
  3
IGA
100
AcDbAlignedDimension
 13
1603.56856939381
 23
5749.68623664779
 33
0.0
 14
3863.568569393811
 24
5749.68623664779
 34
0.0
100
AcDbRotatedDimension
1001
ACAD
1000
DSTYLE
1002
{
1070
    40
1040
35.0
1070
   143
1040
0.039
1070
   172
1070
     1
1070
   271
1070
     4
1070
   272
1070
     4
1070
   279
1070
     0
1070
   284
1070
     0
1070
   285
1070
     0
1070
   286
1070
     0
1070
   341
1005
83A5
1070
   343
1005
83A5
1070
   344
1005
83A5
1002
}
  0
DIMENSION
  5
84A2
330
8392
100
AcDbEntity
  8
3
100
AcDbDimension
  2
*D35
 10
4264.198978687672
 20
6649.686236647792
 30
0.0
 11
4176.698978687671
 21
6199.68623664779
 31
0.0
 70
    32
 71
     5
 42
900.0000000000026
  3
IGA
100
AcDbAlignedDimension
 13
3863.568569393811
 23
5749.686236647789
 33
0.0
 14
3863.568569393811
 24
6649.686236647792
 34
0.0
 50
90.0
100
AcDbRotatedDimension
1001
ACAD
1000
DSTYLE
1002
{
1070
    40
1040
35.0
1070
   143
1040
0.039
1070
   172
1070
     1
1070
   271
1070
     4
1070
   272
1070
     4
1070
   279
1070
     0
1070
   284
1070
     0
1070
   285
1070
     0
1070
   286
1070
     0
1070
   341
1005
83A5
1070
   343
1005
83A5
1070
   344
1005
83A5
1002
}
  0
DIMENSION
  5
84AF
330
8392
100
AcDbEntity
  8
3
100
AcDbDimension
  2
*D36
 10
2923.56856939381
 20
7823.69359711891
 30
0.0
 11
2263.56856939381
 21
7911.193597118909
 31
0.0
 70
    32
 71
     5
 42
1319.999999999999
  3
IGA
100
AcDbAlignedDimension
 13
1603.56856939381
 23
7649.686236647792
 33
0.0
 14
2923.56856939381
 24
7649.686236647792
 34
0.0
100
AcDbRotatedDimension
1001
ACAD
1000
DSTYLE
1002
{
1070
    40
1040
35.0
1070
   143
1040
0.039
1070
   172
1070
     1
1070
   271
1070
     4
1070
   272
1070
     4
1070
   279
1070
     0
1070
   284
1070
     0
1070
   285
1070
     0
1070
   286
1070
     0
1070
   341
1005
83A5
1070
   343
1005
83A5
1070
   344
1005
83A5
1002
}
  0
DIMENSION
  5
84BC
330
8392
100
AcDbEntity
  8
3
100
AcDbDimension
  2
*D37
 10
3863.568569393811
 20
7823.69359711891
 30
0.0
 11
3393.56856939381
 21
7911.193597118909
 31
0.0
 70
    32
 71
     5
 42
940.0000000000009
  3
IGA
100
AcDbAlignedDimension
 13
2923.56856939381
 23
7649.686236647792
 33
0.0
 14
3863.568569393811
 24
6649.686236647792
 34
0.0
100
AcDbRotatedDimension
1001
ACAD
1000
DSTYLE
1002
{
1070
    40
1040
35.0
1070
   143
1040
0.039
1070
   172
1070
     1
1070
   271
1070
     4
1070
   272
1070
     4
1070
   279
1070
     1
1070
   284
1070
     0
1070
   285
1070
     0
1070
   286
1070
     0
1070
   341
1005
83A5
1070
   343
1005
83A5
1070
   344
1005
83A5
1002
}
  0
DIMENSION
  5
84C9
330
8392
100
AcDbEntity
  8
3
100
AcDbDimension
  2
*D38
 10
2311.568569393809
 20
4387.395462250719
 30
0.0
 11
2886.568569393809
 21
4474.895462250719
 31
0.0
 70
    32
 71
     5
 42
1150.0
  3
IGA
100
AcDbAlignedDimension
 13
3461.56856939381
 23
4187.287145966453
 33
0.0
 14
2311.568569393809
 24
4187.287145966453
 34
0.0
100
AcDbRotatedDimension
1001
ACAD
1000
DSTYLE
1002
{
1070
    40
1040
35.0
1070
   143
1040
0.039
1070
   172
1070
     1
1070
   271
1070
     4
1070
   272
1070
     4
1070
   279
1070
     0
1070
   284
1070
     0
1070
   285
1070
     0
1070
   286
1070
     0
1070
   341
1005
83A5
1070
   343
1005
83A5
1070
   344
1005
83A5
1002
}
  0
DIMENSION
  5
84D6
330
8392
100
AcDbEntity
  8
3
100
AcDbDimension
  2
*D39
 10
2263.568569393809
 20
4587.547113112221
 30
0.0
 11
2862.56856939381
 21
4675.047113112221
 31
0.0
 70
    32
 71
     5
 42
1198.0
  3
IGA
100
AcDbAlignedDimension
 13
3461.56856939381
 23
4187.287145966453
 33
0.0
 14
2263.568569393809
 24
4255.179405696565
 34
0.0
100
AcDbRotatedDimension
1001
ACAD
1000
DSTYLE
1002
{
1070
    40
1040
35.0
1070
   143
1040
0.039
1070
   172
1070
     1
1070
   271
1070
     4
1070
   272
1070
     4
1070
   279
1070
     0
1070
   284
1070
     0
1070
   285
1070
     0
1070
   286
1070
     0
1070
   341
1005
83A5
1070
   343
1005
83A5
1070
   344
1005
83A5
1002
}
  0
DIMENSION
  5
84E3
330
8392
100
AcDbEntity
  8
3
100
AcDbDimension
  2
*D40
 10
1458.568569393809
 20
4587.547113112221
 30
0.0
 11
1861.068569393809
 21
4675.047113112221
 31
0.0
 70
    32
 71
     5
 42
805.0
  3
IGA
100
AcDbAlignedDimension
 13
2263.568569393809
 23
4255.179405696565
 33
0.0
 14
1458.568569393809
 24
3345.287145966454
 34
0.0
100
AcDbRotatedDimension
1001
ACAD
1000
DSTYLE
1002
{
1070
    40
1040
35.0
1070
   143
1040
0.039
1070
   172
1070
     1
1070
   271
1070
     4
1070
   272
1070
     4
1070
   279
1070
     1
1070
   284
1070
     0
1070
   285
1070
     0
1070
   286
1070
     0
1070
   341
1005
83A5
1070
   343
1005
83A5
1070
   344
1005
83A5
1002
}
  0
DIMENSION
  5
84F0
330
8392
100
AcDbEntity
  8
3
100
AcDbDimension
  2
*D41
 10
3863.568569393809
 20
4819.488514716802
 30
0.0
 11
2661.06856939381
 21
4906.988514716801
 31
0.0
 70
    32
 71
     5
 42
2405.0
  3
IGA
100
AcDbAlignedDimension
 13
1458.568569393809
 23
3345.287145966454
 33
0.0
 14
3863.568569393809
 24
2542.287145966453
 34
0.0
100
AcDbRotatedDimension
1001
ACAD
1000
DSTYLE
1002
{
1070
    40
1040
35.0
1070
   143
1040
0.039
1070
   172
1070
     1
1070
   271
1070
     4
1070
   272
1070
     4
1070
   279
1070
     0
1070
   284
1070
     0
1070
   285
1070
     0
1070
   286
1070
     0
1070
   341
1005
83A5
1070
   343
1005
83A5
1070
   344
1005
83A5
1002
}
  0
DIMENSION
  5
84FD
330
8392
100
AcDbEntity
  8
3
100
AcDbDimension
  2
*D42
 10
1192.58168657474
 20
3427.287145966452
 30
0.0
 11
1105.081686574739
 21
3807.287145966454
 31
0.0
 70
    32
 71
     5
 42
760.0000000000013
  3
IGA
100
AcDbAlignedDimension
 13
2258.56856939381
 23
4187.287145966453
 33
0.0
 14
1356.787917940833
 24
3427.287145966452
 34
0.0
 50
90.0
100
AcDbRotatedDimension
1001
ACAD
1000
DSTYLE
1002
{
1070
    40
1040
35.0
1070
   143
1040
0.039
1070
   172
1070
     1
1070
   271
1070
     4
1070
   272
1070
     4
1070
   279
1070
     0
1070
   284
1070
     0
1070
   285
1070
     0
1070
   286
1070
     0
1070
   341
1005
83A5
1070
   343
1005
83A5
1070
   344
1005
83A5
1002
}
  0
DIMENSION
  5
850A
330
8392
100
AcDbEntity
  8
3
100
AcDbDimension
  2
*D43
 10
1192.581686574739
 20
2417.287145966453
 30
0.0
 11
1105.081686574739
 21
2922.287145966453
 31
0.0
 70
    32
 71
     5
 42
1009.999999999999
  3
IGA
100
AcDbAlignedDimension
 13
1356.787917940833
 23
3427.287145966452
 33
0.0
 14
1603.56856939381
 24
2417.287145966453
 34
0.0
 50
90.0
100
AcDbRotatedDimension
1001
ACAD
1000
DSTYLE
1002
{
1070
    40
1040
35.0
1070
   143
1040
0.039
1070
   172
1070
     1
1070
   271
1070
     4
1070
   272
1070
     4
1070
   279
1070
     1
1070
   284
1070
     0
1070
   285
1070
     0
1070
   286
1070
     0
1070
   341
1005
83A5
1070
   343
1005
83A5
1070
   344
1005
83A5
1002
}
  0
DIMENSION
  5
8517
330
8392
100
AcDbEntity
  8
3
100
AcDbDimension
  2
*D44
 10
1192.581686574739
 20
2397.287145966453
 30
0.0
 11
735.0816865747393
 21
2518.787145966454
 31
0.0
 70
    32
  1
\P(<>)
 71
     5
 42
20.0
  3
IGA
100
AcDbAlignedDimension
 13
1603.56856939381
 23
2417.287145966453
 33
0.0
 14
1603.56856939381
 24
2397.287145966453
 34
0.0
 50
90.0
100
AcDbRotatedDimension
1001
ACAD
1000
DSTYLE
1002
{
1070
    40
1040
35.0
1070
   143
1040
0.039
1070
   172
1070
     1
1070
   271
1070
     4
1070
   272
1070
     4
1070
   279
1070
     1
1070
   284
1070
     0
1070
   285
1070
     0
1070
   286
1070
     0
1070
   341
1005
83A5
1070
   343
1005
83A5
1070
   344
1005
85E2
1002
}
  0
DIMENSION
  5
8529
330
8392
100
AcDbEntity
  8
3
100
AcDbDimension
  2
*D45
 10
1192.581686574739
 20
2332.287145966453
 30
0.0
 11
1192.581686574739
 21
2192.287145966453
 31
0.0
 70
   160
 71
     5
 42
65.0
  3
IGA
100
AcDbAlignedDimension
 13
1603.56856939381
 23
2397.287145966453
 33
0.0
 14
1603.56856939381
 24
2332.287145966453
 34
0.0
 50
90.0
100
AcDbRotatedDimension
1001
ACAD
1000
DSTYLE
1002
{
1070
    40
1040
35.0
1070
   143
1040
0.039
1070
   172
1070
     1
1070
   271
1070
     4
1070
   272
1070
     4
1070
   279
1070
     1
1070
   284
1070
     0
1070
   285
1070
     0
1070
   286
1070
     0
1070
   341
1005
83A5
1070
   343
1005
85E2
1070
   344
1005
83A5
1002
}
  0
DIMENSION
  5
853B
330
8392
100
AcDbEntity
  8
3
100
AcDbDimension
  2
*D46
 10
674.2740051090442
 20
4183.287145966454
 30
0.0
 11
559.2740051090435
 21
3257.787145966454
 31
0.0
 70
    32
  1
(<>)
 71
     5
 42
1851.0
  3
IGA
100
AcDbAlignedDimension
 13
1603.56856939381
 23
2332.287145966453
 33
0.0
 14
2258.56856939381
 24
4183.287145966453
 34
0.0
 50
90.0
100
AcDbRotatedDimension
1001
ACAD
1000
DSTYLE
1002
{
1070
    40
1040
35.0
1070
   143
1040
0.039
1070
   172
1070
     1
1070
   271
1070
     4
1070
   272
1070
     4
1070
   279
1070
     0
1070
   284
1070
     0
1070
   285
1070
     0
1070
   286
1070
     0
1070
   341
1005
83A5
1070
   343
1005
83A5
1070
   344
1005
83A5
1002
}
  0
ENDSEC
  0
SECTION
  2
OBJECTS
  0
DICTIONARY
  5
832F
330
0
100
AcDbDictionary
281
     1
  3
ACAD_CIP_PREVIOUS_PRODUCT_INFO
350
83D9
  3
ACAD_COLOR
350
8385
  3
ACAD_DETAILVIEWSTYLE
350
838C
  3
ACAD_GROUP
350
8330
  3
ACAD_LAYOUT
350
8384
  3
ACAD_MATERIAL
350
8333
  3
ACAD_MLEADERSTYLE
350
8388
  3
ACAD_MLINESTYLE
350
8381
  3
ACAD_PLOTSETTINGS
350
8383
  3
ACAD_PLOTSTYLENAME
350
8331
  3
ACAD_SCALELIST
350
8365
  3
ACAD_SECTIONVIEWSTYLE
350
838A
  3
ACAD_TABLESTYLE
350
8386
  3
ACAD_VISUALSTYLE
350
834C
  3
ACDB_RECOMPOSE_DATA
350
8664
  3
AcDbVariableDictionary
350
8657
  3
DWGPROPS
350
8665
  0
DICTIONARY
  5
864D
330
8377
100
AcDbDictionary
280
     1
281
     1
  3
ADSK_XREC_LAYER_RECONCILED
360
864E
  0
DICTIONARY
  5
864F
330
8396
100
AcDbDictionary
280
     1
281
     1
  3
ADSK_XREC_LAYER_RECONCILED
360
8650
  0
DICTIONARY
  5
8651
330
8399
100
AcDbDictionary
280
     1
281
     1
  3
ADSK_XREC_LAYER_RECONCILED
360
8652
  0
DICTIONARY
  5
8653
330
839A
100
AcDbDictionary
280
     1
281
     1
  3
ADSK_XREC_LAYER_RECONCILED
360
8654
  0
DICTIONARY
  5
8655
330
839B
100
AcDbDictionary
280
     1
281
     1
  3
ADSK_XREC_LAYER_RECONCILED
360
8656
  0
DICTIONARY
  5
83DB
330
8392
100
AcDbDictionary
280
     1
281
     1
  3
ACAD_SORTENTS
360
83DC
  0
XRECORD
  5
83D9
102
{ACAD_REACTORS
330
832F
102
}
330
832F
100
AcDbXrecord
280
     1
300
ACDLT
300
2015
300
INVLTS_F_S
  0
DICTIONARY
  5
8385
102
{ACAD_REACTORS
330
832F
102
}
330
832F
100
AcDbDictionary
281
     1
  0
DICTIONARY
  5
838C
102
{ACAD_REACTORS
330
832F
102
}
330
832F
100
AcDbDictionary
281
     1
  3
Imperial24
350
838D
  0
DICTIONARY
  5
8330
102
{ACAD_REACTORS
330
832F
102
}
330
832F
100
AcDbDictionary
281
     1
  0
DICTIONARY
  5
8384
102
{ACAD_REACTORS
330
832F
102
}
330
832F
100
AcDbDictionary
281
     1
  3
Model
350
8395
  3
レイアウト1
350
8391
  0
DICTIONARY
  5
8333
102
{ACAD_REACTORS
330
832F
102
}
330
832F
100
AcDbDictionary
281
     1
  3
ByBlock
350
833C
  3
ByLayer
350
8334
  3
Global
350
8344
  0
DICTIONARY
  5
8388
102
{ACAD_REACTORS
330
832F
102
}
330
832F
100
AcDbDictionary
281
     1
  3
Standard
350
8389
  0
DICTIONARY
  5
8381
102
{ACAD_REACTORS
330
832F
102
}
330
832F
100
AcDbDictionary
281
     1
  3
Standard
350
8382
  0
DICTIONARY
  5
8383
102
{ACAD_REACTORS
330
832F
102
}
330
832F
100
AcDbDictionary
281
     1
  0
ACDBDICTIONARYWDFLT
  5
8331
102
{ACAD_REACTORS
330
832F
102
}
330
832F
100
AcDbDictionary
281
     1
  3
Normal
350
8332
100
AcDbDictionaryWithDefault
340
8332
  0
DICTIONARY
  5
8365
102
{ACAD_REACTORS
330
832F
102
}
330
832F
100
AcDbDictionary
281
     1
  3
A0
350
8366
  3
A1
350
8367
  3
A2
350
8368
  3
A3
350
8369
  3
A4
350
836A
  3
A5
350
836B
  3
A6
350
836C
  3
A7
350
836D
  3
A8
350
836E
  3
A9
350
836F
  3
B0
350
8370
  3
B1
350
8371
  3
B2
350
8372
  3
B3
350
8373
  3
B4
350
8374
  3
B5
350
8375
  3
B6
350
8376
  0
DICTIONARY
  5
838A
102
{ACAD_REACTORS
330
832F
102
}
330
832F
100
AcDbDictionary
281
     1
  3
Imperial24
350
838B
  0
DICTIONARY
  5
8386
102
{ACAD_REACTORS
330
832F
102
}
330
832F
100
AcDbDictionary
281
     1
  3
Standard
350
8387
  0
DICTIONARY
  5
834C
102
{ACAD_REACTORS
330
832F
102
}
330
832F
100
AcDbDictionary
281
     1
  3
2dWireframe
350
8352
  3
Basic
350
8351
  3
Brighten
350
8358
  3
ColorChange
350
835C
  3
Conceptual
350
8355
  3
Dim
350
8357
  3
EdgeColorOff
350
8364
  3
Facepattern
350
835B
  3
Flat
350
834D
  3
FlatWithEdges
350
834E
  3
Gouraud
350
834F
  3
GouraudWithEdges
350
8350
  3
Hidden
350
8354
  3
JitterOff
350
8362
  3
Linepattern
350
835A
  3
OverhangOff
350
8363
  3
Realistic
350
8356
  3
Shaded
350
8361
  3
Shaded with edges
350
8360
  3
Shades of Gray
350
835D
  3
Sketchy
350
835E
  3
Thicken
350
8359
  3
Wireframe
350
8353
  3
X-Ray
350
835F
  0
XRECORD
  5
8664
102
{ACAD_REACTORS
330
832F
102
}
330
832F
100
AcDbXrecord
280
     1
 90
        1
330
8387
  0
DICTIONARY
  5
8657
102
{ACAD_REACTORS
330
832F
102
}
330
832F
100
AcDbDictionary
281
     1
  3
CANNOSCALE
350
865C
  3
CMLEADERSTYLE
350
8659
  3
CTABLESTYLE
350
8658
  3
CVIEWDETAILSTYLE
350
865A
  3
CVIEWSECTIONSTYLE
350
865B
  3
DIMASSOC
350
865F
  3
INDEXCTL
350
865E
  3
SORTENTS
350
865D
  3
XCLIPFRAME
350
8660
  0
XRECORD
  5
8665
102
{ACAD_REACTORS
330
832F
102
}
330
832F
100
AcDbXrecord
280
     1
  1
DWGPROPS COOKIE
  2

  3

  4

  6

  7

  8
yasukiyo.ogawa
  9

300
=
301
=
302
=
303
=
304
=
305
=
306
=
307
=
308
=
309
=
 40
0.0142716087962963
 41
2451390.42913588
 42
2460273.560506343
  1

 90
        0
  0
XRECORD
  5
864E
102
{ACAD_REACTORS
330
864D
102
}
330
864D
100
AcDbXrecord
280
     1
290
     1
  0
XRECORD
  5
8650
102
{ACAD_REACTORS
330
864F
102
}
330
864F
100
AcDbXrecord
280
     1
290
     1
  0
XRECORD
  5
8652
102
{ACAD_REACTORS
330
8651
102
}
330
8651
100
AcDbXrecord
280
     1
290
     1
  0
XRECORD
  5
8654
102
{ACAD_REACTORS
330
8653
102
}
330
8653
100
AcDbXrecord
280
     1
290
     1
  0
XRECORD
  5
8656
102
{ACAD_REACTORS
330
8655
102
}
330
8655
100
AcDbXrecord
280
     1
290
     1
  0
SORTENTSTABLE
  5
83DC
102
{ACAD_REACTORS
330
83DB
102
}
330
83DB
100
AcDbSortentsTable
330
8392
331
7CB8
  5
7CBA
331
7C30
  5
7C32
331
7CC9
  5
7CCB
331
7F1C
  5
7F1E
331
7C74
  5
7C76
331
7F25
  5
7F27
331
7C85
  5
7C87
331
7CA7
  5
7CA9
331
7C1F
  5
7C1F
331
7CA8
  5
7CAA
331
7CCA
  5
7CCC
331
7CB9
  5
7CBB
331
7C31
  5
7C33
331
7F1D
  5
7F20
331
7C75
  5
7C77
331
7C64
  5
7C66
331
7F26
  5
7F28
331
7C86
  5
7C88
331
7C20
  5
7C20
331
8168
  5
819F
331
7C98
  5
7C9A
331
7CA9
  5
7CAB
331
7CBA
  5
7CBC
331
7C32
  5
7C34
331
7CCB
  5
7CCD
331
7C43
  5
7C45
331
7F1E
  5
7F21
331
7C76
  5
7C78
331
7C65
  5
7C67
331
7F27
  5
7F29
331
7C87
  5
7C8A
331
7C54
  5
7C56
331
7C21
  5
7C21
331
7C99
  5
7C9B
331
7C88
  5
7C8B
331
7CAA
  5
7CAC
331
7CBB
  5
7CBD
331
7C33
  5
7C35
331
7CCC
  5
7CCE
331
7C44
  5
7C46
331
7CDD
  5
7CDF
331
7F28
  5
7F2A
331
7C77
  5
7C79
331
7C66
  5
7C68
331
7C55
  5
7C57
331
7C22
  5
7C22
331
7C9A
  5
7C9C
331
7CBC
  5
7CBE
331
7C34
  5
7C37
331
7CCD
  5
7CD5
331
7C45
  5
7C47
331
7CDE
  5
7CE0
331
7F29
  5
7F2B
331
7C78
  5
7C7A
331
7C67
  5
7C6A
331
7C56
  5
7C58
331
7C23
  5
7C23
331
7C9B
  5
7C9D
331
7C8A
  5
7C8C
331
7CBD
  5
7CBF
331
7C35
  5
7C38
331
7CCE
  5
7CD6
331
7C46
  5
7C4B
331
7CDF
  5
7CE1
331
7F2A
  5
7F2C
331
7C79
  5
7C7B
331
7C68
  5
7C6D
331
7C57
  5
7C59
331
7C24
  5
7C24
331
815B
  5
8177
331
7C8B
  5
7C8D
331
7C9C
  5
7C9E
331
7CBE
  5
7CC0
331
7CE0
  5
7CE2
331
7C58
  5
7C5A
331
7C47
  5
7C4C
331
814E
  5
8168
331
7F2B
  5
7F2D
331
7C7A
  5
7C7C
331
7C25
  5
7C25
331
7C14
  5
7C14
331
7C9D
  5
7C9F
331
7C8C
  5
7C8E
331
7CBF
  5
7CC1
331
7C37
  5
7C39
331
7CE1
  5
7CE3
331
7C59
  5
7C5B
331
7F2C
  5
7F2E
331
7C7B
  5
7C7D
331
7C6A
  5
7C6E
331
7C26
  5
7C26
331
7C8D
  5
7C90
331
7C9E
  5
7CA0
331
7CC0
  5
7CC2
331
7C38
  5
7C3A
331
7CE2
  5
7CE4
331
7C5A
  5
7C5C
331
7F2D
  5
7F2F
331
7C7C
  5
7C7E
331
7C27
  5
7C27
331
7C16
  5
7C16
331
7C8E
  5
7C92
331
7C9F
  5
7CA1
331
7CC1
  5
7CC3
331
7C39
  5
7C3B
331
7F14
  5
7F16
331
7CE3
  5
7CE5
331
7C5B
  5
7C5D
331
7F2E
  5
7F30
331
7C7D
  5
7C7F
331
7C28
  5
7C28
331
7C17
  5
7C17
331
8141
  5
815B
331
7CA0
  5
7CA2
331
7CC2
  5
7CC4
331
7C3A
  5
7C3C
331
7CE4
  5
7CE6
331
7C5C
  5
7C5F
331
7C4B
  5
7C4D
331
7F15
  5
7F19
331
7C6D
  5
7C6F
331
7F2F
  5
7F31
331
7C7E
  5
7C80
331
7C29
  5
7C29
331
7C18
  5
7C18
331
7F30
  5
7F32
331
7C90
  5
7C93
331
7CA1
  5
7CA3
331
7CB2
  5
7CB4
331
7CC3
  5
7CC5
331
7C3B
  5
7C3D
331
7CE5
  5
7CE7
331
7C5D
  5
7C60
331
7C4C
  5
7C4E
331
7F16
  5
7F1A
331
7C7F
  5
7C81
331
7C6E
  5
7C70
331
7C2A
  5
7C2A
331
7C19
  5
7C19
331
7F31
  5
8141
331
7F20
  5
7F22
331
7C80
  5
7C83
331
7CA2
  5
7CA4
331
7CB3
  5
7CB5
331
7CC4
  5
7CC6
331
7C3C
  5
7C3E
331
7CE6
  5
7CE8
331
7CD5
  5
7CD7
331
7C4D
  5
7C4F
331
7C6F
  5
7C71
331
7C2B
  5
7C2B
331
7C1A
  5
7C1A
331
7F32
  5
814E
331
7F21
  5
7F23
331
7C70
  5
7C72
331
7C92
  5
7C94
331
7CB4
  5
7CB6
331
7C2C
  5
7C2E
331
7CC5
  5
7CC7
331
7C3D
  5
7C40
331
7CE7
  5
7CE9
331
7C5F
  5
7C61
331
7C4E
  5
7C50
331
7C1B
  5
7C1B
331
7CE8
  5
7F14
331
7C60
  5
7C64
331
7F22
  5
7F24
331
7F19
  5
7F1B
331
7C71
  5
7C73
331
7C93
  5
7C95
331
7CA4
  5
7CA6
331
7CB5
  5
7CB7
331
7C2D
  5
7C2F
331
7CC6
  5
7CC8
331
7C3E
  5
7C41
331
7C4F
  5
7C54
331
7C1C
  5
7C1C
331
7C50
  5
7C55
331
7CE9
  5
7F15
331
7C61
  5
7C65
331
7F1A
  5
7F1C
331
7C72
  5
7C74
331
7F23
  5
7F25
331
7C94
  5
7C98
331
7CA5
  5
7CA7
331
7CC7
  5
7CC9
331
7CB6
  5
7CB8
331
7C2E
  5
7C30
331
7C1D
  5
7C1D
331
7CC8
  5
7CCA
331
7F1B
  5
7F1D
331
7C73
  5
7C75
331
7F24
  5
7F26
331
7C95
  5
7C99
331
7CA6
  5
7CA8
331
7CB7
  5
7CB9
331
7C2F
  5
7C31
331
7C1E
  5
7C1E
  0
ACDBDETAILVIEWSTYLE
  5
838D
102
{ACAD_XDICTIONARY
360
869D
102
}
102
{ACAD_REACTORS
330
838C
102
}
330
838C
100
AcDbModelDocViewStyle
 70
     0
  3
Imperial24
290
     0
100
AcDbDetailViewStyle
 70
     0
 71
     0
 90
        3
 71
     1
340
8378
 40
0.24
340
0
 40
0.24
300

 40
0.36
280
     3
 71
     2
340
837F
 90
       25
 71
     3
340
8378
 40
0.24
 90
        1
 40
0.75
 90
        1
300
%<\AcVar ViewType \f "%tc1">% %<\AcVar ViewDetailId>%\PSCALE %<\AcVar ViewScale \f "%sn">%
 71
     4
340
837F
 90
       25
340
837F
 90
       25
280
     0
  0
LAYOUT
  5
8395
102
{ACAD_XDICTIONARY
360
86A1
102
}
102
{ACAD_REACTORS
330
8384
102
}
330
8384
100
AcDbPlotSettings
  1

  2
RICOH imagio MP W3600 RPCS
  4

  6

 40
0.0
 41
0.0
 42
0.0
 43
0.0
 44
0.0
 45
0.0
 46
0.0
 47
0.0
 48
0.0
 49
0.0
140
0.0
141
0.0
142
1.0
143
1.0
 70
  1712
 72
     0
 73
     0
 74
     0
  7

 75
     0
147
1.0
148
0.0
149
0.0
100
AcDbLayout
  1
Model
 70
     1
 71
     0
 10
0.0
 20
0.0
 11
12.0
 21
9.0
 12
0.0
 22
0.0
 32
0.0
 14
0.0
 24
0.0
 34
0.0
 15
0.0
 25
0.0
 35
0.0
146
0.0
 13
0.0
 23
0.0
 33
0.0
 16
1.0
 26
0.0
 36
0.0
 17
0.0
 27
1.0
 37
0.0
 76
     0
330
8392
331
8397
  0
LAYOUT
  5
8391
102
{ACAD_XDICTIONARY
360
869F
102
}
102
{ACAD_REACTORS
330
8384
102
}
330
8384
100
AcDbPlotSettings
  1

  2
RICOH imagio MP W3600 RPCS
  4

  6

 40
0.0
 41
0.0
 42
0.0
 43
0.0
 44
0.0
 45
0.0
 46
0.0
 47
0.0
 48
0.0
 49
0.0
140
0.0
141
0.0
142
1.0
143
1.0
 70
   688
 72
     0
 73
     0
 74
     5
  7

 75
    16
147
1.0
148
0.0
149
0.0
100
AcDbLayout
  1
レイアウト1
 70
     1
 71
     1
 10
0.0
 20
0.0
 11
12.0
 21
9.0
 12
0.0
 22
0.0
 32
0.0
 14
1.000000000000000E+20
 24
1.000000000000000E+20
 34
1.000000000000000E+20
 15
-1.000000000000000E+20
 25
-1.000000000000000E+20
 35
-1.000000000000000E+20
146
0.0
 13
0.0
 23
0.0
 33
0.0
 16
1.0
 26
0.0
 36
0.0
 17
0.0
 27
1.0
 37
0.0
 76
     0
330
838E
  0
MATERIAL
  5
833C
102
{ACAD_XDICTIONARY
360
833D
102
}
102
{ACAD_REACTORS
330
8333
102
}
330
8333
100
AcDbMaterial
  1
ByBlock
 72
     0
 43
0.0208333333333333
 43
0.0
 43
0.0
 43
0.0
 43
0.0
 43
0.0208333333333333
 43
0.0
 43
0.0
 43
0.0
 43
0.0
 43
1.0
 43
0.0
 43
0.0
 43
0.0
 43
0.0
 43
1.0
 77
     0
 47
0.0208333333333333
 47
0.0
 47
0.0
 47
0.0
 47
0.0
 47
0.0208333333333333
 47
0.0
 47
0.0
 47
0.0
 47
0.0
 47
1.0
 47
0.0
 47
0.0
 47
0.0
 47
0.0
 47
1.0
171
     0
 49
0.0208333333333333
 49
0.0
 49
0.0
 49
0.0
 49
0.0
 49
0.0208333333333333
 49
0.0
 49
0.0
 49
0.0
 49
0.0
 49
1.0
 49
0.0
 49
0.0
 49
0.0
 49
0.0
 49
1.0
175
     0
142
0.0208333333333333
142
0.0
142
0.0
142
0.0
142
0.0
142
0.0208333333333333
142
0.0
142
0.0
142
0.0
142
0.0
142
1.0
142
0.0
142
0.0
142
0.0
142
0.0
142
1.0
179
     0
144
0.0208333333333333
144
0.0
144
0.0
144
0.0
144
0.0
144
0.0208333333333333
144
0.0
144
0.0
144
0.0
144
0.0
144
1.0
144
0.0
144
0.0
144
0.0
144
0.0
144
1.0
147
0.0208333333333333
147
0.0
147
0.0
147
0.0
147
0.0
147
0.0208333333333333
147
0.0
147
0.0
147
0.0
147
0.0
147
1.0
147
0.0
147
0.0
147
0.0
147
0.0
147
1.0
  0
MATERIAL
  5
8334
102
{ACAD_XDICTIONARY
360
8335
102
}
102
{ACAD_REACTORS
330
8333
102
}
330
8333
100
AcDbMaterial
  1
ByLayer
 72
     0
 43
0.0208333333333333
 43
0.0
 43
0.0
 43
0.0
 43
0.0
 43
0.0208333333333333
 43
0.0
 43
0.0
 43
0.0
 43
0.0
 43
1.0
 43
0.0
 43
0.0
 43
0.0
 43
0.0
 43
1.0
 77
     0
 47
0.0208333333333333
 47
0.0
 47
0.0
 47
0.0
 47
0.0
 47
0.0208333333333333
 47
0.0
 47
0.0
 47
0.0
 47
0.0
 47
1.0
 47
0.0
 47
0.0
 47
0.0
 47
0.0
 47
1.0
171
     0
 49
0.0208333333333333
 49
0.0
 49
0.0
 49
0.0
 49
0.0
 49
0.0208333333333333
 49
0.0
 49
0.0
 49
0.0
 49
0.0
 49
1.0
 49
0.0
 49
0.0
 49
0.0
 49
0.0
 49
1.0
175
     0
142
0.0208333333333333
142
0.0
142
0.0
142
0.0
142
0.0
142
0.0208333333333333
142
0.0
142
0.0
142
0.0
142
0.0
142
1.0
142
0.0
142
0.0
142
0.0
142
0.0
142
1.0
179
     0
144
0.0208333333333333
144
0.0
144
0.0
144
0.0
144
0.0
144
0.0208333333333333
144
0.0
144
0.0
144
0.0
144
0.0
144
1.0
144
0.0
144
0.0
144
0.0
144
0.0
144
1.0
147
0.0208333333333333
147
0.0
147
0.0
147
0.0
147
0.0
147
0.0208333333333333
147
0.0
147
0.0
147
0.0
147
0.0
147
1.0
147
0.0
147
0.0
147
0.0
147
0.0
147
1.0
  0
MATERIAL
  5
8344
102
{ACAD_XDICTIONARY
360
8345
102
}
102
{ACAD_REACTORS
330
8333
102
}
330
8333
100
AcDbMaterial
  1
Global
 72
     0
 43
0.0208333333333333
 43
0.0
 43
0.0
 43
0.0
 43
0.0
 43
0.0208333333333333
 43
0.0
 43
0.0
 43
0.0
 43
0.0
 43
1.0
 43
0.0
 43
0.0
 43
0.0
 43
0.0
 43
1.0
 77
     0
 47
0.0208333333333333
 47
0.0
 47
0.0
 47
0.0
 47
0.0
 47
0.0208333333333333
 47
0.0
 47
0.0
 47
0.0
 47
0.0
 47
1.0
 47
0.0
 47
0.0
 47
0.0
 47
0.0
 47
1.0
171
     0
 49
0.0208333333333333
 49
0.0
 49
0.0
 49
0.0
 49
0.0
 49
0.0208333333333333
 49
0.0
 49
0.0
 49
0.0
 49
0.0
 49
1.0
 49
0.0
 49
0.0
 49
0.0
 49
0.0
 49
1.0
175
     0
142
0.0208333333333333
142
0.0
142
0.0
142
0.0
142
0.0
142
0.0208333333333333
142
0.0
142
0.0
142
0.0
142
0.0
142
1.0
142
0.0
142
0.0
142
0.0
142
0.0
142
1.0
179
     0
144
0.0208333333333333
144
0.0
144
0.0
144
0.0
144
0.0
144
0.0208333333333333
144
0.0
144
0.0
144
0.0
144
0.0
144
1.0
144
0.0
144
0.0
144
0.0
144
0.0
144
1.0
147
0.0208333333333333
147
0.0
147
0.0
147
0.0
147
0.0
147
0.0208333333333333
147
0.0
147
0.0
147
0.0
147
0.0
147
1.0
147
0.0
147
0.0
147
0.0
147
0.0
147
1.0
  0
MLEADERSTYLE
  5
8389
102
{ACAD_REACTORS
330
8388
102
}
330
8388
100
AcDbMLeaderStyle
170
     2
171
     1
172
     0
 90
        2
 40
0.0
 41
0.0
173
     1
 91
-1056964608
340
837D
 92
       -2
290
     1
 42
0.09
291
     1
 43
0.36
  3
Standard
 44
0.18
300

342
8378
174
     1
178
     6
175
     1
176
     0
 93
-1056964608
 45
0.18
292
     0
297
     0
 46
0.18
 94
-1056964608
 47
1.0
 49
1.0
140
1.0
293
     1
141
0.0
294
     1
177
     0
142
1.0
295
     0
296
     0
143
0.125
1001
ACAD_MLEADERVER
1070
     2
  0
MLINESTYLE
  5
8382
102
{ACAD_REACTORS
330
8381
102
}
330
8381
100
AcDbMlineStyle
  2
STANDARD
 70
     0
  3

 62
   256
 51
90.0
 52
90.0
 71
     2
 49
0.5
 62
   256
  6
BYLAYER
 49
-0.5
 62
   256
  6
BYLAYER
  0
ACDBPLACEHOLDER
  5
8332
102
{ACAD_REACTORS
330
8331
102
}
330
8331
  0
SCALE
  5
8366
102
{ACAD_REACTORS
330
8365
102
}
330
8365
100
AcDbScale
 70
     0
300
1:1
140
1.0
141
1.0
290
     1
  0
SCALE
  5
8367
102
{ACAD_REACTORS
330
8365
102
}
330
8365
100
AcDbScale
 70
     0
300
1/128" = 1'-0"
140
0.0078125
141
12.0
290
     0
  0
SCALE
  5
8368
102
{ACAD_REACTORS
330
8365
102
}
330
8365
100
AcDbScale
 70
     0
300
1/64" = 1'-0"
140
0.015625
141
12.0
290
     0
  0
SCALE
  5
8369
102
{ACAD_REACTORS
330
8365
102
}
330
8365
100
AcDbScale
 70
     0
300
1/32" = 1'-0"
140
0.03125
141
12.0
290
     0
  0
SCALE
  5
836A
102
{ACAD_REACTORS
330
8365
102
}
330
8365
100
AcDbScale
 70
     0
300
1/16" = 1'-0"
140
0.0625
141
12.0
290
     0
  0
SCALE
  5
836B
102
{ACAD_REACTORS
330
8365
102
}
330
8365
100
AcDbScale
 70
     0
300
3/32" = 1'-0"
140
0.09375
141
12.0
290
     0
  0
SCALE
  5
836C
102
{ACAD_REACTORS
330
8365
102
}
330
8365
100
AcDbScale
 70
     0
300
1/8" = 1'-0"
140
0.125
141
12.0
290
     0
  0
SCALE
  5
836D
102
{ACAD_REACTORS
330
8365
102
}
330
8365
100
AcDbScale
 70
     0
300
3/16" = 1'-0"
140
0.1875
141
12.0
290
     0
  0
SCALE
  5
836E
102
{ACAD_REACTORS
330
8365
102
}
330
8365
100
AcDbScale
 70
     0
300
1/4" = 1'-0"
140
0.25
141
12.0
290
     0
  0
SCALE
  5
836F
102
{ACAD_REACTORS
330
8365
102
}
330
8365
100
AcDbScale
 70
     0
300
3/8" = 1'-0"
140
0.375
141
12.0
290
     0
  0
SCALE
  5
8370
102
{ACAD_REACTORS
330
8365
102
}
330
8365
100
AcDbScale
 70
     0
300
1/2" = 1'-0"
140
0.5
141
12.0
290
     0
  0
SCALE
  5
8371
102
{ACAD_REACTORS
330
8365
102
}
330
8365
100
AcDbScale
 70
     0
300
3/4" = 1'-0"
140
0.75
141
12.0
290
     0
  0
SCALE
  5
8372
102
{ACAD_REACTORS
330
8365
102
}
330
8365
100
AcDbScale
 70
     0
300
1" = 1'-0"
140
1.0
141
12.0
290
     0
  0
SCALE
  5
8373
102
{ACAD_REACTORS
330
8365
102
}
330
8365
100
AcDbScale
 70
     0
300
1-1/2" = 1'-0"
140
1.5
141
12.0
290
     0
  0
SCALE
  5
8374
102
{ACAD_REACTORS
330
8365
102
}
330
8365
100
AcDbScale
 70
     0
300
3" = 1'-0"
140
3.0
141
12.0
290
     0
  0
SCALE
  5
8375
102
{ACAD_REACTORS
330
8365
102
}
330
8365
100
AcDbScale
 70
     0
300
6" = 1'-0"
140
6.0
141
12.0
290
     0
  0
SCALE
  5
8376
102
{ACAD_REACTORS
330
8365
102
}
330
8365
100
AcDbScale
 70
     0
300
1'-0" = 1'-0"
140
12.0
141
12.0
290
     0
  0
ACDBSECTIONVIEWSTYLE
  5
838B
102
{ACAD_XDICTIONARY
360
869B
102
}
102
{ACAD_REACTORS
330
838A
102
}
330
838A
100
AcDbModelDocViewStyle
 70
     0
  3
Imperial24
290
     0
100
AcDbSectionViewStyle
 70
     0
 71
     0
 90
       78
 71
     1
340
8378
 40
0.24
340
0
340
0
 40
0.24
300
I, O, Q, S, X, Z
 40
0.48
 90
        3
 40
0.18
 90
        1
 71
     2
340
837F
 90
       25
340
837F
 90
       50
 40
0.24
 40
0.0
 40
0.24
 71
     3
340
8378
 40
0.24
 90
        1
 40
0.75
 90
        1
300
%<\AcVar ViewType \f "%tc1">% %<\AcVar ViewSectionStartId>%-%<\AcVar ViewSectionEndId>%\PSCALE %<\AcVar ViewScale \f "%sn">%
 71
     4
300
ANSI31
 40
1.0
 90
        0
290
     0
290
     0
 90
        6
 40
0.0
 40
1.570796326794896
 40
0.2617993877991494
 40
1.308996938995747
 40
-0.2617993877991494
 40
1.832595714594046
  0
TABLESTYLE
  5
8387
102
{ACAD_XDICTIONARY
360
8662
102
}
102
{ACAD_REACTORS
330
8386
102
}
330
8386
100
AcDbTableStyle
  3
Standard
 70
     0
 71
     0
 40
0.06
 41
0.06
280
     0
281
     0
  7
STANDARD
140
0.18
170
     2
 62
     0
 63
     7
283
     0
274
    -2
284
     1
 64
     0
275
    -2
285
     1
 65
     0
276
    -2
286
     1
 66
     0
277
    -2
287
     1
 67
     0
278
    -2
288
     1
 68
     0
279
    -2
289
     1
 69
     0
  7
STANDARD
140
0.25
170
     5
 62
     0
 63
     7
283
     0
274
    -2
284
     1
 64
     0
275
    -2
285
     1
 65
     0
276
    -2
286
     1
 66
     0
277
    -2
287
     1
 67
     0
278
    -2
288
     1
 68
     0
279
    -2
289
     1
 69
     0
  7
STANDARD
140
0.18
170
     5
 62
     0
 63
     7
283
     0
274
    -2
284
     1
 64
     0
275
    -2
285
     1
 65
     0
276
    -2
286
     1
 66
     0
277
    -2
287
     1
 67
     0
278
    -2
288
     1
 68
     0
279
    -2
289
     1
 69
     0
  0
VISUALSTYLE
  5
8352
102
{ACAD_XDICTIONARY
360
8673
102
}
102
{ACAD_REACTORS
330
834C
102
}
330
834C
100
AcDbVisualStyle
  2
2dWireframe
 70
     4
 71
     0
 72
     2
 73
     0
 90
        0
 40
-0.6
 41
-30.0
 62
     5
 63
     7
 74
     1
 91
        4
 64
     7
 65
   257
 75
     1
175
     1
 42
1.0
 92
        0
 66
   257
 43
1.0
 76
     1
 77
     6
 78
     2
 67
     7
 79
     5
170
     0
171
     0
290
     0
174
     0
 93
        1
 44
0.0
173
     0
291
     0
 45
0.0
1001
ACAD
1000
AcDbSavedByObjectVersion
1070
     0
  0
VISUALSTYLE
  5
8351
102
{ACAD_XDICTIONARY
360
8671
102
}
102
{ACAD_REACTORS
330
834C
102
}
330
834C
100
AcDbVisualStyle
  2
Basic
 70
     7
 71
     1
 72
     0
 73
     1
 90
        0
 40
-0.6
 41
-30.0
 62
     5
 63
     7
 74
     0
 91
        4
 64
     7
 65
   257
 75
     1
175
     1
 42
1.0
 92
        8
 66
     7
 43
1.0
 76
     1
 77
     6
 78
     2
 67
     7
 79
     5
170
     0
171
     0
290
     0
174
     0
 93
        1
 44
0.0
173
     0
291
     1
 45
0.0
1001
ACAD
1000
AcDbSavedByObjectVersion
1070
     0
  0
VISUALSTYLE
  5
8358
102
{ACAD_XDICTIONARY
360
867F
102
}
102
{ACAD_REACTORS
330
834C
102
}
330
834C
100
AcDbVisualStyle
  2
Brighten
 70
    12
 71
     2
 72
     2
 73
     0
 90
        0
 40
-0.6
 41
-30.0
 62
     5
 63
     7
 74
     1
 91
        4
 64
     7
 65
   257
 75
     1
175
     1
 42
1.0
 92
        8
 66
     7
 43
1.0
 76
     1
 77
     6
 78
     2
 67
     7
 79
     5
170
     0
171
     0
290
     0
174
     0
 93
        1
 44
50.0
173
     0
291
     1
 45
0.0
1001
ACAD
1000
AcDbSavedByObjectVersion
1070
     0
  0
VISUALSTYLE
  5
835C
102
{ACAD_XDICTIONARY
360
8687
102
}
102
{ACAD_REACTORS
330
834C
102
}
330
834C
100
AcDbVisualStyle
  2
ColorChange
 70
    16
 71
     2
 72
     2
 73
     3
 90
        0
 40
-0.6
 41
-30.0
 62
     5
 63
     8
 74
     1
 91
        4
 64
     7
 65
   257
 75
     1
175
     1
 42
1.0
 92
        8
 66
     8
 43
1.0
 76
     1
 77
     6
 78
     2
 67
     7
 79
     5
170
     0
171
     0
290
     0
174
     0
 93
        1
 44
0.0
173
     0
291
     1
 45
0.0
1001
ACAD
1000
AcDbSavedByObjectVersion
1070
     0
  0
VISUALSTYLE
  5
8355
102
{ACAD_XDICTIONARY
360
8679
102
}
102
{ACAD_REACTORS
330
834C
102
}
330
834C
100
AcDbVisualStyle
  2
Conceptual
 70
     9
 71
     3
 72
     2
 73
     0
 90
        0
 40
-0.6
 41
-30.0
 62
     5
 63
     7
 74
     2
 91
        2
 64
     7
 65
   257
 75
     1
175
     1
 42
179.0
 92
        8
 66
     7
 43
1.0
 76
     1
 77
     6
 78
     2
 67
     7
 79
     3
170
     0
171
     0
290
     0
174
     0
 93
        1
 44
0.0
173
     0
291
     0
 45
0.0
1001
ACAD
1000
AcDbSavedByObjectVersion
1070
     0
  0
VISUALSTYLE
  5
8357
102
{ACAD_XDICTIONARY
360
867D
102
}
102
{ACAD_REACTORS
330
834C
102
}
330
834C
100
AcDbVisualStyle
  2
Dim
 70
    11
 71
     2
 72
     2
 73
     0
 90
        0
 40
-0.6
 41
-30.0
 62
     5
 63
     7
 74
     1
 91
        4
 64
     7
 65
   257
 75
     1
175
     1
 42
1.0
 92
        8
 66
     7
 43
1.0
 76
     1
 77
     6
 78
     2
 67
     7
 79
     5
170
     0
171
     0
290
     0
174
     0
 93
        1
 44
-50.0
173
     0
291
     1
 45
0.0
1001
ACAD
1000
AcDbSavedByObjectVersion
1070
     0
  0
VISUALSTYLE
  5
8364
102
{ACAD_XDICTIONARY
360
8697
102
}
102
{ACAD_REACTORS
330
834C
102
}
330
834C
100
AcDbVisualStyle
  2
EdgeColorOff
 70
    22
 71
     2
 72
     2
 73
     0
 90
        0
 40
-0.6
 41
-30.0
 62
     5
 63
     7
 74
     1
 91
        4
 64
     7
 65
   257
 75
     1
175
     1
 42
1.0
 92
        8
 66
     7
 43
1.0
 76
     1
 77
     6
 78
     2
 67
     7
 79
     5
170
     0
171
     0
290
     0
174
     0
 93
        1
 44
0.0
173
     0
291
     1
 45
0.0
1001
ACAD
1000
AcDbSavedByObjectVersion
1070
     0
  0
VISUALSTYLE
  5
835B
102
{ACAD_XDICTIONARY
360
8685
102
}
102
{ACAD_REACTORS
330
834C
102
}
330
834C
100
AcDbVisualStyle
  2
Facepattern
 70
    15
 71
     2
 72
     2
 73
     0
 90
        0
 40
-0.6
 41
-30.0
 62
     5
 63
     7
 74
     1
 91
        4
 64
     7
 65
   257
 75
     1
175
     1
 42
1.0
 92
        8
 66
     7
 43
1.0
 76
     1
 77
     6
 78
     2
 67
     7
 79
     5
170
     0
171
     0
290
     0
174
     0
 93
        1
 44
0.0
173
     0
291
     1
 45
0.0
1001
ACAD
1000
AcDbSavedByObjectVersion
1070
     0
  0
VISUALSTYLE
  5
834D
102
{ACAD_XDICTIONARY
360
8669
102
}
102
{ACAD_REACTORS
330
834C
102
}
330
834C
100
AcDbVisualStyle
  2
Flat
 70
     0
 71
     2
 72
     1
 73
     1
 90
        2
 40
-0.6
 41
30.0
 62
     5
 63
     7
 74
     0
 91
        0
 64
     7
 65
   257
 75
     1
175
     1
 42
1.0
 92
        8
 66
     7
 43
1.0
 76
     1
 77
     6
 78
     2
 67
     7
 79
     5
170
     0
171
     0
290
     0
174
     0
 93
       13
 44
0.0
173
     0
291
     1
 45
0.0
1001
ACAD
1000
AcDbSavedByObjectVersion
1070
     0
  0
VISUALSTYLE
  5
834E
102
{ACAD_XDICTIONARY
360
866B
102
}
102
{ACAD_REACTORS
330
834C
102
}
330
834C
100
AcDbVisualStyle
  2
FlatWithEdges
 70
     1
 71
     2
 72
     1
 73
     1
 90
        2
 40
-0.6
 41
30.0
 62
     5
 63
     7
 74
     1
 91
        0
 64
     7
 65
   257
 75
     1
175
     1
 42
1.0
 92
        0
 66
   257
 43
1.0
 76
     1
 77
     6
 78
     2
 67
     7
 79
     5
170
     0
171
     0
290
     0
174
     0
 93
       13
 44
0.0
173
     0
291
     1
 45
0.0
1001
ACAD
1000
AcDbSavedByObjectVersion
1070
     0
  0
VISUALSTYLE
  5
834F
102
{ACAD_XDICTIONARY
360
866D
102
}
102
{ACAD_REACTORS
330
834C
102
}
330
834C
100
AcDbVisualStyle
  2
Gouraud
 70
     2
 71
     2
 72
     2
 73
     1
 90
        2
 40
-0.6
 41
30.0
 62
     5
 63
     7
 74
     0
 91
        0
 64
     7
 65
   257
 75
     1
175
     1
 42
1.0
 92
        0
 66
     7
 43
1.0
 76
     1
 77
     6
 78
     2
 67
     7
 79
     5
170
     0
171
     0
290
     0
174
     0
 93
       13
 44
0.0
173
     0
291
     1
 45
0.0
1001
ACAD
1000
AcDbSavedByObjectVersion
1070
     0
  0
VISUALSTYLE
  5
8350
102
{ACAD_XDICTIONARY
360
866F
102
}
102
{ACAD_REACTORS
330
834C
102
}
330
834C
100
AcDbVisualStyle
  2
GouraudWithEdges
 70
     3
 71
     2
 72
     2
 73
     1
 90
        2
 40
-0.6
 41
30.0
 62
     5
 63
     7
 74
     1
 91
        0
 64
     7
 65
   257
 75
     1
175
     1
 42
1.0
 92
        0
 66
   257
 43
1.0
 76
     1
 77
     6
 78
     2
 67
     7
 79
     5
170
     0
171
     0
290
     0
174
     0
 93
       13
 44
0.0
173
     0
291
     1
 45
0.0
1001
ACAD
1000
AcDbSavedByObjectVersion
1070
     0
  0
VISUALSTYLE
  5
8354
102
{ACAD_XDICTIONARY
360
8677
102
}
102
{ACAD_REACTORS
330
834C
102
}
330
834C
100
AcDbVisualStyle
  2
Hidden
 70
     6
 71
     1
 72
     2
 73
     2
 90
        0
 40
-0.6
 41
-30.0
 62
     5
 63
     7
 74
     2
 91
        2
 64
     7
 65
   257
 75
     2
175
     1
 42
40.0
 92
        0
 66
   257
 43
1.0
 76
     1
 77
     6
 78
     2
 67
     7
 79
     3
170
     0
171
     0
290
     0
174
     0
 93
        1
 44
0.0
173
     0
291
     0
 45
0.0
1001
ACAD
1000
AcDbSavedByObjectVersion
1070
     0
  0
VISUALSTYLE
  5
8362
102
{ACAD_XDICTIONARY
360
8693
102
}
102
{ACAD_REACTORS
330
834C
102
}
330
834C
100
AcDbVisualStyle
  2
JitterOff
 70
    20
 71
     2
 72
     2
 73
     0
 90
        0
 40
-0.6
 41
-30.0
 62
     5
 63
     7
 74
     1
 91
        4
 64
     7
 65
   257
 75
     1
175
     1
 42
1.0
 92
       10
 66
     7
 43
1.0
 76
     1
 77
     6
 78
     2
 67
     7
 79
     5
170
     0
171
     0
290
     0
174
     0
 93
        1
 44
0.0
173
     0
291
     1
 45
0.0
1001
ACAD
1000
AcDbSavedByObjectVersion
1070
     0
  0
VISUALSTYLE
  5
835A
102
{ACAD_XDICTIONARY
360
8683
102
}
102
{ACAD_REACTORS
330
834C
102
}
330
834C
100
AcDbVisualStyle
  2
Linepattern
 70
    14
 71
     2
 72
     2
 73
     0
 90
        0
 40
-0.6
 41
-30.0
 62
     5
 63
     7
 74
     1
 91
        4
 64
     7
 65
   257
 75
     7
175
     7
 42
1.0
 92
        8
 66
     7
 43
1.0
 76
     1
 77
     6
 78
     2
 67
     7
 79
     5
170
     0
171
     0
290
     0
174
     0
 93
        1
 44
0.0
173
     0
291
     1
 45
0.0
1001
ACAD
1000
AcDbSavedByObjectVersion
1070
     0
  0
VISUALSTYLE
  5
8363
102
{ACAD_XDICTIONARY
360
8695
102
}
102
{ACAD_REACTORS
330
834C
102
}
330
834C
100
AcDbVisualStyle
  2
OverhangOff
 70
    21
 71
     2
 72
     2
 73
     0
 90
        0
 40
-0.6
 41
-30.0
 62
     5
 63
     7
 74
     1
 91
        4
 64
     7
 65
   257
 75
     1
175
     1
 42
1.0
 92
        9
 66
     7
 43
1.0
 76
     1
 77
     6
 78
     2
 67
     7
 79
     5
170
     0
171
     0
290
     0
174
     0
 93
        1
 44
0.0
173
     0
291
     1
 45
0.0
1001
ACAD
1000
AcDbSavedByObjectVersion
1070
     0
  0
VISUALSTYLE
  5
8356
102
{ACAD_XDICTIONARY
360
867B
102
}
102
{ACAD_REACTORS
330
834C
102
}
330
834C
100
AcDbVisualStyle
  2
Realistic
 70
     8
 71
     2
 72
     3
 73
     0
 90
        2
 40
-0.6
 41
30.0
 62
     5
 63
     7
 74
     0
 91
        0
 64
     7
 65
   257
 75
     1
175
     1
 42
1.0
 92
        8
 66
   257
 43
1.0
 76
     1
 77
     6
 78
     2
 67
     7
 79
     3
170
     0
171
     0
290
     0
174
     0
 93
       13
 44
0.0
173
     0
291
     0
 45
0.0
1001
ACAD
1000
AcDbSavedByObjectVersion
1070
     0
  0
VISUALSTYLE
  5
8361
102
{ACAD_XDICTIONARY
360
8691
102
}
102
{ACAD_REACTORS
330
834C
102
}
330
834C
100
AcDbVisualStyle
  2
Shaded
 70
    27
 71
     2
 72
     2
 73
     1
 90
        2
 40
-0.6
 41
30.0
 62
     5
 63
     7
 74
     0
 91
        4
 64
     7
 65
   257
 75
     1
175
     1
 42
1.0
 92
        8
 66
   257
 43
1.0
 76
     1
 77
     6
 78
     2
 67
     8
 79
     3
170
     0
171
     0
290
     0
174
     0
 93
        5
 44
0.0
173
     0
291
     0
 45
0.0
1001
ACAD
1000
AcDbSavedByObjectVersion
1070
     0
  0
VISUALSTYLE
  5
8360
102
{ACAD_XDICTIONARY
360
868F
102
}
102
{ACAD_REACTORS
330
834C
102
}
330
834C
100
AcDbVisualStyle
  2
Shaded with edges
 70
    26
 71
     2
 72
     2
 73
     1
 90
        2
 40
-0.6
 41
30.0
 62
     5
 63
     7
 74
     1
 91
       10
 64
     7
 65
   257
 75
     2
175
     1
 42
1.0
 92
        8
 66
   257
 43
1.0
 76
     1
 77
     6
 78
     2
 67
     7
 79
     3
170
     0
171
     0
290
     0
174
     0
 93
        5
 44
0.0
173
     0
291
     0
 45
0.0
1001
ACAD
1000
AcDbSavedByObjectVersion
1070
     0
  0
VISUALSTYLE
  5
835D
102
{ACAD_XDICTIONARY
360
8689
102
}
102
{ACAD_REACTORS
330
834C
102
}
330
834C
100
AcDbVisualStyle
  2
Shades of Gray
 70
    23
 71
     2
 72
     2
 73
     3
 90
        0
 40
-0.6
 41
-30.0
 62
     5
 63
     7
 74
     2
 91
        2
 64
     7
 65
     7
 75
     1
175
     1
 42
40.0
 92
        8
 66
     7
 43
1.0
 76
     1
 77
     6
 78
     2
 67
     7
 79
     3
170
     0
171
     0
290
     0
174
     0
 93
        1
 44
0.0
173
     0
291
     0
 45
0.0
1001
ACAD
1000
AcDbSavedByObjectVersion
1070
     0
  0
VISUALSTYLE
  5
835E
102
{ACAD_XDICTIONARY
360
868B
102
}
102
{ACAD_REACTORS
330
834C
102
}
330
834C
100
AcDbVisualStyle
  2
Sketchy
 70
    24
 71
     1
 72
     2
 73
     2
 90
        0
 40
-0.6
 41
-30.0
 62
     5
 63
     7
 74
     2
 91
        2
 64
     7
 65
     7
 75
     1
175
     1
 42
40.0
 92
       11
 66
     7
 43
1.0
 76
     1
 77
     6
 78
     2
 67
     7
 79
     6
170
     0
171
     0
290
     0
174
     0
 93
        1
 44
0.0
173
     0
291
     0
 45
0.0
1001
ACAD
1000
AcDbSavedByObjectVersion
1070
     0
  0
VISUALSTYLE
  5
8359
102
{ACAD_XDICTIONARY
360
8681
102
}
102
{ACAD_REACTORS
330
834C
102
}
330
834C
100
AcDbVisualStyle
  2
Thicken
 70
    13
 71
     2
 72
     2
 73
     0
 90
        0
 40
-0.6
 41
-30.0
 62
     5
 63
     7
 74
     1
 91
        4
 64
     7
 65
   257
 75
     1
175
     1
 42
1.0
 92
       12
 66
     7
 43
1.0
 76
     1
 77
     6
 78
     2
 67
     7
 79
     5
170
     0
171
     0
290
     0
174
     0
 93
        1
 44
0.0
173
     0
291
     1
 45
0.0
1001
ACAD
1000
AcDbSavedByObjectVersion
1070
     0
  0
VISUALSTYLE
  5
8353
102
{ACAD_XDICTIONARY
360
8675
102
}
102
{ACAD_REACTORS
330
834C
102
}
330
834C
100
AcDbVisualStyle
  2
Wireframe
 70
     5
 71
     0
 72
     2
 73
     0
 90
        0
 40
-0.6
 41
-30.0
 62
     5
 63
     7
 74
     1
 91
        4
 64
     7
 65
   257
 75
     1
175
     1
 42
1.0
 92
        0
 66
   257
 43
1.0
 76
     1
 77
     6
 78
     2
 67
     7
 79
     3
170
     0
171
     0
290
     0
174
     0
 93
        1
 44
0.0
173
     0
291
     0
 45
0.0
1001
ACAD
1000
AcDbSavedByObjectVersion
1070
     0
  0
VISUALSTYLE
  5
835F
102
{ACAD_XDICTIONARY
360
868D
102
}
102
{ACAD_REACTORS
330
834C
102
}
330
834C
100
AcDbVisualStyle
  2
X-Ray
 70
    25
 71
     2
 72
     2
 73
     1
 90
        1
 40
0.5
 41
-30.0
 62
     5
 63
     7
 74
     1
 91
        0
 64
     7
 65
   257
 75
     1
175
     1
 42
1.0
 92
        8
 66
     7
 43
1.0
 76
     1
 77
     6
 78
     2
 67
     7
 79
     3
170
     0
171
     0
290
     0
174
     0
 93
       13
 44
0.0
173
     0
291
     0
 45
0.0
1001
ACAD
1000
AcDbSavedByObjectVersion
1070
     0
  0
DICTIONARYVAR
  5
865C
102
{ACAD_REACTORS
330
8657
102
}
330
8657
100
DictionaryVariables
280
     0
  1
1:1
  0
DICTIONARYVAR
  5
8659
102
{ACAD_REACTORS
330
8657
102
}
330
8657
100
DictionaryVariables
280
     0
  1
STANDARD
  0
DICTIONARYVAR
  5
8658
102
{ACAD_REACTORS
330
8657
102
}
330
8657
100
DictionaryVariables
280
     0
  1
STANDARD
  0
DICTIONARYVAR
  5
865A
102
{ACAD_REACTORS
330
8657
102
}
330
8657
100
DictionaryVariables
280
     0
  1
Imperial24
  0
DICTIONARYVAR
  5
865B
102
{ACAD_REACTORS
330
8657
102
}
330
8657
100
DictionaryVariables
280
     0
  1
Imperial24
  0
DICTIONARYVAR
  5
865F
102
{ACAD_REACTORS
330
8657
102
}
330
8657
100
DictionaryVariables
280
     0
  1
1
  0
DICTIONARYVAR
  5
865E
102
{ACAD_REACTORS
330
8657
102
}
330
8657
100
DictionaryVariables
280
     0
  1
0
  0
DICTIONARYVAR
  5
865D
102
{ACAD_REACTORS
330
8657
102
}
330
8657
100
DictionaryVariables
280
     0
  1
127
  0
DICTIONARYVAR
  5
8660
102
{ACAD_REACTORS
330
8657
102
}
330
8657
100
DictionaryVariables
280
     0
  1
2
  0
DICTIONARY
  5
869D
330
838D
100
AcDbDictionary
280
     1
281
     1
  3
ACAD_XREC_ROUNDTRIP
360
869E
  0
DICTIONARY
  5
86A1
330
8395
100
AcDbDictionary
280
     1
281
     1
  3
ACAD_XREC_ROUNDTRIP
360
86A2
  0
DICTIONARY
  5
869F
330
8391
100
AcDbDictionary
280
     1
281
     1
  3
ACAD_XREC_ROUNDTRIP
360
86A0
  0
DICTIONARY
  5
833D
330
833C
100
AcDbDictionary
280
     1
281
     1
  3
ACAD_XREC_ROUNDTRIP
360
8667
  3
BUMPTILE
360
833F
  3
DIFFUSETILE
360
833E
  3
OPACITYTILE
360
8342
  3
REFLECTIONTILE
360
8341
  3
REFRACTIONTILE
360
8343
  3
SPECULARTILE
360
8340
  0
DICTIONARY
  5
8335
330
8334
100
AcDbDictionary
280
     1
281
     1
  3
ACAD_XREC_ROUNDTRIP
360
8666
  3
BUMPTILE
360
8337
  3
DIFFUSETILE
360
8336
  3
OPACITYTILE
360
833A
  3
REFLECTIONTILE
360
8339
  3
REFRACTIONTILE
360
833B
  3
SPECULARTILE
360
8338
  0
DICTIONARY
  5
8345
330
8344
100
AcDbDictionary
280
     1
281
     1
  3
ACAD_XREC_ROUNDTRIP
360
8668
  3
BUMPTILE
360
8347
  3
DIFFUSETILE
360
8346
  3
FBXASSET
360
83DE
  3
OPACITYTILE
360
834A
  3
REFLECTIONTILE
360
8349
  3
REFRACTIONTILE
360
834B
  3
SPECULARTILE
360
8348
  0
DICTIONARY
  5
869B
330
838B
100
AcDbDictionary
280
     1
281
     1
  3
ACAD_XREC_ROUNDTRIP
360
869C
  0
DICTIONARY
  5
8662
330
8387
100
AcDbDictionary
280
     1
281
     1
  3
ACAD_ROUNDTRIP_2008_TABLESTYLE_CELLSTYLEMAP
360
8663
  3
ACAD_XREC_ROUNDTRIP
360
8699
  0
DICTIONARY
  5
8673
330
8352
100
AcDbDictionary
280
     1
281
     1
  3
ACAD_XREC_ROUNDTRIP
360
8674
  0
DICTIONARY
  5
8671
330
8351
100
AcDbDictionary
280
     1
281
     1
  3
ACAD_XREC_ROUNDTRIP
360
8672
  0
DICTIONARY
  5
867F
330
8358
100
AcDbDictionary
280
     1
281
     1
  3
ACAD_XREC_ROUNDTRIP
360
8680
  0
DICTIONARY
  5
8687
330
835C
100
AcDbDictionary
280
     1
281
     1
  3
ACAD_XREC_ROUNDTRIP
360
8688
  0
DICTIONARY
  5
8679
330
8355
100
AcDbDictionary
280
     1
281
     1
  3
ACAD_XREC_ROUNDTRIP
360
867A
  0
DICTIONARY
  5
867D
330
8357
100
AcDbDictionary
280
     1
281
     1
  3
ACAD_XREC_ROUNDTRIP
360
867E
  0
DICTIONARY
  5
8697
330
8364
100
AcDbDictionary
280
     1
281
     1
  3
ACAD_XREC_ROUNDTRIP
360
8698
  0
DICTIONARY
  5
8685
330
835B
100
AcDbDictionary
280
     1
281
     1
  3
ACAD_XREC_ROUNDTRIP
360
8686
  0
DICTIONARY
  5
8669
330
834D
100
AcDbDictionary
280
     1
281
     1
  3
ACAD_XREC_ROUNDTRIP
360
866A
  0
DICTIONARY
  5
866B
330
834E
100
AcDbDictionary
280
     1
281
     1
  3
ACAD_XREC_ROUNDTRIP
360
866C
  0
DICTIONARY
  5
866D
330
834F
100
AcDbDictionary
280
     1
281
     1
  3
ACAD_XREC_ROUNDTRIP
360
866E
  0
DICTIONARY
  5
866F
330
8350
100
AcDbDictionary
280
     1
281
     1
  3
ACAD_XREC_ROUNDTRIP
360
8670
  0
DICTIONARY
  5
8677
330
8354
100
AcDbDictionary
280
     1
281
     1
  3
ACAD_XREC_ROUNDTRIP
360
8678
  0
DICTIONARY
  5
8693
330
8362
100
AcDbDictionary
280
     1
281
     1
  3
ACAD_XREC_ROUNDTRIP
360
8694
  0
DICTIONARY
  5
8683
330
835A
100
AcDbDictionary
280
     1
281
     1
  3
ACAD_XREC_ROUNDTRIP
360
8684
  0
DICTIONARY
  5
8695
330
8363
100
AcDbDictionary
280
     1
281
     1
  3
ACAD_XREC_ROUNDTRIP
360
8696
  0
DICTIONARY
  5
867B
330
8356
100
AcDbDictionary
280
     1
281
     1
  3
ACAD_XREC_ROUNDTRIP
360
867C
  0
DICTIONARY
  5
8691
330
8361
100
AcDbDictionary
280
     1
281
     1
  3
ACAD_XREC_ROUNDTRIP
360
8692
  0
DICTIONARY
  5
868F
330
8360
100
AcDbDictionary
280
     1
281
     1
  3
ACAD_XREC_ROUNDTRIP
360
8690
  0
DICTIONARY
  5
8689
330
835D
100
AcDbDictionary
280
     1
281
     1
  3
ACAD_XREC_ROUNDTRIP
360
868A
  0
DICTIONARY
  5
868B
330
835E
100
AcDbDictionary
280
     1
281
     1
  3
ACAD_XREC_ROUNDTRIP
360
868C
  0
DICTIONARY
  5
8681
330
8359
100
AcDbDictionary
280
     1
281
     1
  3
ACAD_XREC_ROUNDTRIP
360
8682
  0
DICTIONARY
  5
8675
330
8353
100
AcDbDictionary
280
     1
281
     1
  3
ACAD_XREC_ROUNDTRIP
360
8676
  0
DICTIONARY
  5
868D
330
835F
100
AcDbDictionary
280
     1
281
     1
  3
ACAD_XREC_ROUNDTRIP
360
868E
  0
XRECORD
  5
869E
102
{ACAD_REACTORS
330
869D
102
}
330
869D
100
AcDbXrecord
280
     1
102
DISPLAYNAME
  1
Imperial24
102
FLAGS
 90
        0
  0
XRECORD
  5
86A2
102
{ACAD_REACTORS
330
86A1
102
}
330
86A1
100
AcDbXrecord
280
     1
102
SHADEPLOT
 70
     0
102
SHADEPLOTRESLEVEL
 70
     2
102
SHADEPLOTCUSTOMDPI
 70
   300
  0
XRECORD
  5
86A0
102
{ACAD_REACTORS
330
869F
102
}
330
869F
100
AcDbXrecord
280
     1
102
SHADEPLOT
 70
     0
102
SHADEPLOTRESLEVEL
 70
     2
102
SHADEPLOTCUSTOMDPI
 70
   300
  0
XRECORD
  5
8667
102
{ACAD_REACTORS
330
833D
102
}
330
833D
100
AcDbXrecord
280
     1
102
MATERIAL
148
0.0
149
0.0
149
0.0
 93
        0
 94
      127
282
     0
 72
     0
 77
     0
171
     0
175
     0
179
     0
273
     0
  0
XRECORD
  5
833F
102
{ACAD_REACTORS
330
833D
102
}
330
833D
100
AcDbXrecord
280
     1
270
     1
271
     1
  0
XRECORD
  5
833E
102
{ACAD_REACTORS
330
833D
102
}
330
833D
100
AcDbXrecord
280
     1
270
     1
271
     1
  0
XRECORD
  5
8342
102
{ACAD_REACTORS
330
833D
102
}
330
833D
100
AcDbXrecord
280
     1
270
     1
271
     1
  0
XRECORD
  5
8341
102
{ACAD_REACTORS
330
833D
102
}
330
833D
100
AcDbXrecord
280
     1
270
     1
271
     1
  0
XRECORD
  5
8343
102
{ACAD_REACTORS
330
833D
102
}
330
833D
100
AcDbXrecord
280
     1
270
     1
271
     1
  0
XRECORD
  5
8340
102
{ACAD_REACTORS
330
833D
102
}
330
833D
100
AcDbXrecord
280
     1
270
     1
271
     1
  0
XRECORD
  5
8666
102
{ACAD_REACTORS
330
8335
102
}
330
8335
100
AcDbXrecord
280
     1
102
MATERIAL
148
0.0
149
0.0
149
0.0
 93
        0
 94
      127
282
     0
 72
     0
 77
     0
171
     0
175
     0
179
     0
273
     0
  0
XRECORD
  5
8337
102
{ACAD_REACTORS
330
8335
102
}
330
8335
100
AcDbXrecord
280
     1
270
     1
271
     1
  0
XRECORD
  5
8336
102
{ACAD_REACTORS
330
8335
102
}
330
8335
100
AcDbXrecord
280
     1
270
     1
271
     1
  0
XRECORD
  5
833A
102
{ACAD_REACTORS
330
8335
102
}
330
8335
100
AcDbXrecord
280
     1
270
     1
271
     1
  0
XRECORD
  5
8339
102
{ACAD_REACTORS
330
8335
102
}
330
8335
100
AcDbXrecord
280
     1
270
     1
271
     1
  0
XRECORD
  5
833B
102
{ACAD_REACTORS
330
8335
102
}
330
8335
100
AcDbXrecord
280
     1
270
     1
271
     1
  0
XRECORD
  5
8338
102
{ACAD_REACTORS
330
8335
102
}
330
8335
100
AcDbXrecord
280
     1
270
     1
271
     1
  0
XRECORD
  5
8668
102
{ACAD_REACTORS
330
8345
102
}
330
8345
100
AcDbXrecord
280
     1
102
MATERIAL
148
0.0
149
0.0
149
0.0
 93
        0
 94
      127
282
     0
 72
     0
 77
     0
171
     0
175
     0
179
     0
273
     0
  0
XRECORD
  5
8347
102
{ACAD_REACTORS
330
8345
102
}
330
8345
100
AcDbXrecord
280
     1
270
     1
271
     1
  0
XRECORD
  5
8346
102
{ACAD_REACTORS
330
8345
102
}
330
8345
100
AcDbXrecord
280
     1
270
     1
271
     1
  0
XRECORD
  5
83DE
102
{ACAD_REACTORS
330
8345
102
}
330
8345
100
AcDbXrecord
280
     1
 70
     1
 90
1959938040
 71
     1
  1
EDB44249-E40F-4EB7-8F69-BB31AA7E36AB
311
504B0304140006080800C36A7857FB440F69D7000000200100004F00000033313033373444322D383843422D344346372D394330322D3438313844463932413730342F4173736574446174612F446566696E6974696F6E4974657261746F7250726F706572746965732E62696EEB606060F80F0540260323103700495E20ED
311
9E9A975A94991C9C9C919A9BC8C00612C9C94F4ACC6147C831019920AE4B6A5A62694E0948976F6671726A4E4E625E6A7E69B12042A9426E6209D0B8C41C3D90264E20860914834C48875806B2DF0F88414E02D189290556F689C5C5A925B6FA694915FACE064606C6CE2EAEBAA6AEC62EBA26E6466EBA4E2E2E26BACE864E
311
AE46262616E626A616FA45A9C5F9A545C9A9C5FA46FA06F15093E30BF2D283221DEB0C19188280D6B330BCDF77326CA76B79788F9D1ED02297F4E6989D063337019948601F00504B0304140006080800C36A7857562F0A2AF0000000300200004500000033313033373444322D383843422D344346372D394330322D343831
311
3844463932413730342F4173736574446174612F496E7374616E636550726F706572746965732E62696EEB606060F80F0540260323103700495E20ED9E9A975A94991C9C9C919A9BA8021470757132313132B1D475353170D335717532D7B57033B3D4757232367474347735367374624768046931363471713532B5D43535
311
3131D635313332D475727372D13534373670367376B67474B5042A03DBCBA019D37FE8ABC6157B20CD04146B0062181F4C03F940F0C11EA29A8141C08141002C0426541C106CAC2CA046088033B02A030AC2157C6006F21A8018AAF50194E6010A610250382264E08660284CD9E98021862280A91564B406929A0FF62C401E
311
28B6F88038B83CB1243943D7A928312F25350524131B1BFB9F161800504B0304140006080800C36A785728BB58AF800100009E0500003D00000033313033373444322D383843422D344346372D394330322D3438313844463932413730342F536368656D61732F436F6D6D6F6E536368656D612E786D6CBD544D4FC23018BE
311
FB2B96DE15493C78601010A34B880709DEDFB52FD0D8B54BD70DF6EFED3AC0B12E6442E2716BFB3CEFF3D18E26FB440405EA8C2B1992E1C323095052C5B8DC842437EBFB673219DF8DA659866649B798C078B48AE6410122242F2A4994AC7F93815DF85C049C8564CA0A901499DD886B2EB9B1E02448F358701A9235880C49
311
A0119892A20C89D1B9FD768815CAD268CB5E0355B40B1E47F3E37A2020464BED06AA57CE8FCC20C3C3446D46761A2632A8C1283D07031EFF2AE7CCB1BFEEE916E406DFAC8E36FFD99A9D60A6944090EEDC3B670C7DC13DE86B6B2C5C240D6E503BB85ACD579D513F1B9F9A69DC9CC22AFA80C426D40AF0B21EA168559156B6
311
276F0F726A6BFF04DCD513A87A62CAD41FB24FCB2858B3952E3D852084DA25B9303C15687973CC8E8AAE11DF2836C38C6A9E765E8C1BA1BFB1DC29CDFE518C8B5A7655A4ED7E77291ABEB80DBD82EC866ADE1B8D05AF9E35CF09D7A061F38A986D9EC412B8F0F65E5D81534D9B231D1E5A8FE577A241F3A5FD01504B030414
311
0006080800C36A78572CCEBD668A040000E01200003E00000033313033373444322D383843422D344346372D394330322D3438313844463932413730342F536368656D61732F47656E65726963536368656D612E786D6CD5586D6FDB380CFE7EBF42F0F7A649B70E1B90744856B4970F450FCD7A5F05459613EDE4174872DA
311
DCAF3F522F8ED3B88D2F1D06AC4050DBA2493EE4438AF2F8EB73AEC8466823CB62928C06C384888297A92C5693A4B6D9D9E7E4EBD51FE3A931C22EF85AE4EC6AFC38BF261BA626C9AD288496DC3F4FCEAFC63366845F7A10452AF41DB320C0D44EC26EAB20918735565582695670811A6A49643A49A6E9069FA4604A64B290
311
16DC4B48552F95E4932463CA888468C1D2B250DB4962750DF7CE273069CE8363F1FF4EDB00E0A21999574AE4A2B00C353B93F3BD4777B8A61ED8F604ABFEDD79CE56A2B7BDFBDBC50996E0ADDE16FED26223C5D30956C29BDF4A55EA686E5E58B112DA45CE67F76F4FA27EFA3FB672FD7372FC388FAECDCA5209E693CAD167
311
BADCD272F943701B3812F8A3D852008B1D2E32DB927B2F833C6EA95879925356D254582695095A3CE982924720BE5774A3CB9CDCDB350427D2DF20DA1B5532EBE2D5D6288D75D4F7E4FD9890A0EF8E3D93EBB8F8BA4758158EF6FB90A6F9520281C93DE7AAC6D24607DA296BB96018123F821A7D6A5C5884050C475DA48654
311
42732C8B95684A50165CBB3A32F25F783A4A480ED59AD7F924B968AEA50131F46303223E6A397B0E52976030DC1DCA81D7E7C1EDEEA42C19FF27635C505E2BD5198A599020DF50A2330FCB3AAF28CB0124108429553EF1B228802E2265D8F7CC2401042B155BCC7070F1E5C55F13B4A9577362CCCE46C32174E010C3C378C4
311
4841A4BDA00FE3A12006CE11EE6AEC59894D3526DDE1CD59D503ECC324017F8061B7F162162FA62EDD81AE3308617770796DCBDAD2B2625C5AE8A63DE20B2C8AA5E95E76E5730823955956E33E705425A2187C185D36489A1B44D3DCEC2172F6BA2105C3546287A7194B2331768EBBE64F6E70A9930ABE0ADEA89E9E2C3852
311
3B810287AD67A54A039C1606EAFE68F8304610BB9093DBDDABC0B2AE4E290DCDA15376D7E39F72B556F0B32EAB5D3D498B4C41ABADEC3A1434C422D87E8025A84BDCB2B1417ED750FAE4DA8976863974C577C7F902D3F156AD354DEA3540DE6BEAE2BEA52F7A2EB4CA43802ECE5BF2CE2EDC9347179FFB023CE412E60BE16D
311
A0BE29B374988A553F561DC04615DD35F7D2C8979F60E5955CE93DF29DED8AFA1EE6642D53418086C03C47C377910F75F7E8F5EF665F70B60FFB22AEDF897D119E8423C773E819A3C1E55E550599EE6EDCA34D0C86FD72057DF2CD46F16A470682471C164E4346D5306BF12D7D12D82CFF673D41636C347443FEB51B50D72E
311
A171A8E4A58623A4A16E0FA2B8B10A0D23268D87C33896EE8FB73305A74BF224EDBADFA0BD674AB354D63DB7BD5D83426761C077DE767728235446A552754EB93B755891C3C4CC6CADE37CF0E912A7BB38DBA010F9DE1282EDF470CA69A9CDA482E334C4A6EA4107987980B17E72F31730EBF88BBD39E7C629F56797A3C000
311
9C2C5AE7951D9A05A02773440F02EEB4DE396A3B6A570C72CCFBCD823B0B8ED3F1D5CEDDFED772FA70236C83FB7D86C385D570B87107535572A60A96035F8F7C6A7192F13007246BBE0521855E6AC46F3E27689CEE7D186A6FD679D98CDCAD13333E04EBE7ED6F55FF01504B0304140006080800C36A78576180134D5F0100
311
006B0300004500000033313033373444322D383843422D344346372D394330322D3438313844463932413730342F536368656D61732F52656E6465724D6174657269616C536368656D612E786D6CA5934D6FC2300C86EFFB1551EEE343DBA41D1A103009551ADAD40EAE28A4A68D9426284961FCFBE5A340113B2071746D3F
311
765EBF4DC6BFB5407BD0862B49F0B037C0082453059725C18DDD3EBFE3F1E829991803366715D474942CD30FB4A782E00C64017A412D684E454CE3FE28995203B162A6EA5AC94B66997D225E109CD63B0135484BAD1B3C07E9080CA35DB3119C11BCA5C200461A68A1A438126C75E3E230D40FF81FB3F03C91D1E3A3A0AF79
311
FE28E25BC39EC3E17E4C2A2D94A0833A51AF55BCCA7D88572FCBAC529C4140B020FC3AAFA886621DCED7EAD7664CC86024E806DC297DA1BB393E4156543457A4537DB8817349A70F8ACBF09B3EEE2CB2F33E91B65D60786E4E3B39B77E3FEEEF5650424525DA657FB8B46BE6BF064646F0A0F7327C0BC1BC1B4CBBC1C419FA
311
3CCB23500007872A2580CAAE5461865565294E4EDB4617B62FF579DF9A5B2F54E834076A597573A020912FED777F9B3F504B0304140006080800C36A78577141670C51000000570000004700000033313033373444322D383843422D344346372D394330322D3438313844463932413730342F4173736574446174612F4173
311
7365745461626C654F66436F6E74656E74732E62696E5361606070757132313132B1D475353170D335717532D7B57033B3D47572323674743477353673741202AACB4D2C492DCA4CCC492C28484D2C4ACC4B4E050A82012F90744FCD03CA26072767A4E6260200504B0304140006080800C36A7857F8658340580000006800
311
00004500000033313033373444322D383843422D344346372D394330322D3438313844463932413730342F4173736574446174612F53747265616D56657273696F6E5461626C652E696E66558CBD0A80300C06F73E4B117FB66E451741D041DC5BF98480A492E4FDD18EAEC7DD4555D89EF28DF51A0B1BD8340C4DE7DD848B
311
988C0ACF0649566493F2408C508DDEBB99D5129FF8F1AF8CF5B9503E20FAE5A16B5AF702504B0304140006080800C36A7857C3221575340100009A0400003600000033313033373444322D383843422D344346372D394330322D3438313844463932413730342F4173736574446174612F636E782E786D6CCD94314FC33010
311
85FF4AE43D769222812AC71582A51348540C6C57E752AC3A76645F10FC7BEC3403A888A943D7F3BBF3F327BF939BCFC1161F18A2F1AE6535AF58814EFBCEB843CB26EACB3B566C940CDED30F192B1C0CD8B25C664A1E829FC6A5D4610F93CD556BDC7129DEC788B483BDC5A7FEC13B42479115DA428C2D8BFA1D07E03091EF
311
301E790704BCE601A39F82C63489CC80CB241D10083BA69AAA5995755D3637BB7AB56E9A7575FB2645562AB9F7DE2E7A932E0B7E2CF4E956A62A29F2B19253308B26BF85A9BF3CF2BD715224A592914262B274D0D7983A601CADD140099DF09A90CA244218A43889951499C12F128FD81B6772CB361903F2E139D9C34006AF
311
8EC87F5E2F4F66EB2281D378BD3CCE1D5E9EC2CBFC835E4F819C13736D393977C88DEB2F901231AF91149ABC55D437504B0304140006080800C36A7857E272E6E5080100004F0300003400000033313033373444322D383843422D344346372D394330322D3438313844463932413730342F536368656D61732F636E782E78
311
6D6CCD93BD4E042114855F85D02FCCCC9A68360C5B5858D9A8951DC2DD952C7027FC187D7B61A4D84DECB4D80E0E5FC839878BD87F7A473E20268B61A6231B2881A0D1D8709C69C987CD1D257B2922623EC32809CAC34C9B4CA538462C4B970C1C54714D75369CBA788FDE6378D6EFE01525DAA994669AD62D5325A3817462
311
4665C546162161891AEA0DD97AE837E8082A83A1721AA6ED661C37D3CDCBB8DD4DD36EB87D15BC9152BC21BACEDB9021E24234D645A87606C1DBB11425DACEB40C549E7B63B50DC12B2145CAB176D0C9FCB554522D8BB35AE55A155FC11F460ADEA25E047E8000D1EAEB4C7C61EEDF223F4130101FEB2B45ABDC7526FFCDE3
311
DF0AE0EBECD711685F417E03504B0304140006080800C36A7857410A3D5871000000A40000002C00000033313033373444322D383843422D344346372D394330322D3438313844463932413730342F636E782E786D6C55CC4D0E82301086E1AB34B31774E7A22D31F1069E60020334B633A63FC6E34B0909B07DDE2F9FEE7E
311
C1AB2FC5E4840DDC9A2B28E25E06C7938192C7CB1D54677514C9871928C640062A83D55394F2D968A0118BAFEA1DBF377CA444F98919176EAB9FEAAB9F2960DA5BBB1E2ED3FA6FFF504B0304140006080800C36A785778BDAE647E000000A300000007000000636E782E786D6C4D8CD10A832018465F45FE7B373521033536
311
A3F7886521330D97638F3F1D5DECEA83C3778EEC3F9B476F9B5E2E0605F44200D9F088B30BAB827C2C5800EAB54C311E7F374061DAAC828A41CB35C5BC9F68B6CB947DA5DE85E7091B4A9A960F0C0B61EE989BB1C59D210C7341C53076ECD6125E8C6B55CAFC7A656B5E7F01504B0304140006080800C36A785716E99B5DA6
311
00000035010000130000005B436F6E74656E745F54797065735D2E786D6C9590410E82301045AFD2740F4517C6180A0BF5065E60AC53688469D30E066F6F91AD9AB89CF9FFFD3F99BA9DC7413C3026E749CB4D59498164FCCD51A7E5C4B6D84BD136F5E5193089ECA5A465CF1C0E4A25D3E308A9F401292BD6C711388FB153
311
01CC1D3A54DBAADA29E38991B8E0254336F5092D4C038BF39CD76B6FC6A538AEBEA54A4B08617006389FA516557DE4AE8E7E70DE30729138228C5F021CD93F02D4FB0DCD0B504B0304140006080800C36A78573DEE336E64000000790000001B0000006175746F6465736B2D64657369676E2D7061636B6167652E786D6C35
311
CBC10E83200C00D05F21DCA56CA76D41FC96062B120735B69A7DBE268BB7777961F8D5AF396893C2ADB70FE7ADA196782C2DF776D7A97B5933C430F15651E5469C55D70F80A4992A3ADC954792C525AE70A1E4D6AD9816CC044FEFDF01FE3FDE907802504B0304140006080800C36A78574927ACCBF8000000960100003700
311
000033313033373444322D383843422D344346372D394330322D3438313844463932413730342F4173736574446174612F636F72652E786D6C8550CB4EC33010FC9568EF4EFC08102AC755DA882FE0C4CD72DCD46A63477E203E1FBB09129C38ED6A76667677F8F16BB9579FDA07E36C0FA4C65069ABDC64ECDC438A17D441
311
7514DC3B177FD1A0B272D13D1418049FBD4BEB0E2967A3B605B56ED23B2843D0112A75CF4D0F415DF5226B996266845BBD4A7593B3AE49BDF1044FC94CBBD44CD9CD5C8CF620D88871F77A6E11260CA3F63460D4E18EA06E38B1F1AD65F8FCF4CC9B22163C9AE567BBF25A463D81A098324408A2ED3B61074A0FF8E5833785
311
2978883EFFBC2F2DDF8118CAD5A38C9237DBF48F6B5AA7FF5D93B191D1DD75530410241FF91808DE9494727944986B49547C03504B0304140006080800C36A78574060EF24F6000000940100003500000033313033373444322D383843422D344346372D394330322D3438313844463932413730342F536368656D61732F63
311
6F72652E786D6C8550CB4EC33010FC9568EF4EFC08102AC7551FE207E0C4CDB2DD60B5B1233F109F8F9D06094E9C76353B33BB3B7CFF35DF9A4F13A2F56E04D262688C535E5B378D90D3050DD0EC050FDEA75F34689C9CCD081506C1A7E0F3B241CABB645C459DD76603658C2641A36EA51921AA0F33CB56E65418F1DA2E52
311
5DE5645AD2DE7982E76CF526B5BAB8D98B3501043B633C3C9F7A8409C3A83F1E301AF040D07038B2F34BCFF0E9E19177552C78B2F3CF76158C4C4683A098324408A2FD1B613B4A77F8E99D779529784CA1FCBC2DADDF81785DEF8CBCBBCFFE78E645FFEF99AD4B8C6E9E77450441CA89EB40F0AE6654CA1A60A9354FF10D50
311
4B0304140006080800C36A7857E083B69301010000D70100002D00000033313033373444322D383843422D344346372D394330322D3438313844463932413730342F636F72652E786D6C9591416EC3201045AF82668F0DD8959D0813B5897282AEBAA366E2A0C46001AE7AFCE2DA55DB5DBB027DDE9FE1CFC8C3FB78276F18
311
A2F5AE035E3020E87A6FAC1B3A98D385B6400E4A06EFD30F0C88D32376B0C8A0E410FC3C6D52EF5D42B7A8CE1BDC441D232620FD3D5F3A88FD15475DE8396522DE8A49F7373D60C18B955332D9F1CBDA07D4090D28C1444539A7A27EE6D55E883D6B5E64B9904ACED6A54A6CCD707C4543FC947224500FB25C5F33355BB331
311
D6E43FDA8BC500AAE2AC6AEA93A06D7B7CA2F5F1DCD0DD91095AB7BC3D9D77E2B161752E92CD4AC614F264B622CB0CFE6A5F8DBF92CD93F967B2D51141F1EF50E5326625CBCF1DE4735989FA00504B0304140006080800C36A7857AE43ADE706010000B201000008000000636F72652E786D6C8D50CB6EC32010FC15B4776C
311
306EEB4698280FF50B7AEA8D1AE2A2D860F188DABF2FC4AED4DE7A5A3433BB330CDF7FCE13BA691F8CB33DD08A00D27670CAD8B187142FB803B417DC3B177FC9005939EB1E0A0C828FDEA565830667A3B605B54EE90D9421E8086898F2A387307CE8595632C5AC08D76A91C3558EBAA2D5AA133C9AF96775F05A46AD4034A4
311
619852DCB4AF94ED9A66479EDE785D9482A764D4666554763717A33D087626A47B3EB5985046707B3C10DC918EE2EE7064E7979691D3C323AFCBB2E021FAFCE7ED48CE195190B7E2CBEB9512FCDDB96913E4500A393B7D8120BC2EC49FD06951FF086D6C64CD7670DD0820680E7427B27169308F7BBD7996B6C537504B0102
311
1400140006080800C36A7857FB440F69D7000000200100004F000000000000000000000000000000000033313033373444322D383843422D344346372D394330322D3438313844463932413730342F4173736574446174612F446566696E6974696F6E4974657261746F7250726F706572746965732E62696E504B01021400
311
140006080800C36A7857562F0A2AF00000003002000045000000000000000000000000004401000033313033373444322D383843422D344346372D394330322D3438313844463932413730342F4173736574446174612F496E7374616E636550726F706572746965732E62696E504B01021400140006080800C36A785728BB
311
58AF800100009E0500003D000000000000000000000000009702000033313033373444322D383843422D344346372D394330322D3438313844463932413730342F536368656D61732F436F6D6D6F6E536368656D612E786D6C504B01021400140006080800C36A78572CCEBD668A040000E01200003E000000000000000000
311
000000007204000033313033373444322D383843422D344346372D394330322D3438313844463932413730342F536368656D61732F47656E65726963536368656D612E786D6C504B01021400140006080800C36A78576180134D5F0100006B03000045000000000000000000000000005809000033313033373444322D3838
311
43422D344346372D394330322D3438313844463932413730342F536368656D61732F52656E6465724D6174657269616C536368656D612E786D6C504B01021400140006080800C36A78577141670C510000005700000047000000000000000000000000001A0B000033313033373444322D383843422D344346372D39433032
311
2D3438313844463932413730342F4173736574446174612F41737365745461626C654F66436F6E74656E74732E62696E504B01021400140006080800C36A7857F865834058000000680000004500000000000000000000000000D00B000033313033373444322D383843422D344346372D394330322D343831384446393241
311
3730342F4173736574446174612F53747265616D56657273696F6E5461626C652E696E66504B01021400140006080800C36A7857C3221575340100009A04000036000000000000000000000000008B0C000033313033373444322D383843422D344346372D394330322D3438313844463932413730342F4173736574446174
311
612F636E782E786D6C504B01021400140006080800C36A7857E272E6E5080100004F0300003400000000000000000000000000130E000033313033373444322D383843422D344346372D394330322D3438313844463932413730342F536368656D61732F636E782E786D6C504B01021400140006080800C36A7857410A3D58
311
71000000A40000002C000000000000000000000000006D0F000033313033373444322D383843422D344346372D394330322D3438313844463932413730342F636E782E786D6C504B01021400140006080800C36A785778BDAE647E000000A3000000070000000000000000000000000028100000636E782E786D6C504B0102
311
1400140006080800C36A785716E99B5DA6000000350100001300000000000000000000000000CB1000005B436F6E74656E745F54797065735D2E786D6C504B01021400140006080800C36A78573DEE336E64000000790000001B00000000000000000000000000A21100006175746F6465736B2D64657369676E2D7061636B
311
6167652E786D6C504B01021400140006080800C36A78574927ACCBF80000009601000037000000000000000000000000003F12000033313033373444322D383843422D344346372D394330322D3438313844463932413730342F4173736574446174612F636F72652E786D6C504B01021400140006080800C36A78574060EF
311
24F60000009401000035000000000000000000000000008C13000033313033373444322D383843422D344346372D394330322D3438313844463932413730342F536368656D61732F636F72652E786D6C504B01021400140006080800C36A7857E083B69301010000D70100002D00000000000000000000000000D514000033
311
313033373444322D383843422D344346372D394330322D3438313844463932413730342F636F72652E786D6C504B01021400140006080800C36A7857AE43ADE706010000B2010000080000000000000000000000000021160000636F72652E786D6C504B050600000000110011005A0600004D1700000000
310
504B0304140006080800C36A7857000000000000000000000000370000006662782F45433133423534362D444441372D344231342D393143452D3843424244313245454338422F617474726962757465732E62696E504B0304140006080800C36A7857000000000000000000000000350000006662782F4543313342353436
310
2D444441372D344231342D393143452D3843424244313245454338422F76657274696365732E62696E504B0304140006080800C36A7857F270F1330600000004000000360000006662782F45433133423534362D444441372D344231342D393143452D3843424244313245454338422F747269616E676C65732E62696E6366
310
60600000504B0304140006080800C36A785751464CB48900000043010000360000006662782F45433133423534362D444441372D344231342D393143452D3843424244313245454338422F6469726563746F72792E786D6C9D8F310EC2300C45AF127987122606C71DD918B841D4B851A43646695A717C52A85029031293A5
310
A76FBF6FACEF7DA7264E43906840EF0FA03836E242F406C6DCEE4EA06AC22492573150D1F66C60C640E8938CB705396EEDD86DE9B5042FE27813D640EA63BB001C722AF6E55CB61E4863F58284D5D3F53DD715CE1C3985E63FD7F1B7EBDD617E9F1E504B0304140006080800C36A785713824D853F070000201C0000340000
310
006662782F45433133423534362D444441372D344231342D393143452D3843424244313245454338422F6F626A656374732E786D6CDD595B6FE23814FE2B56F665F7212481D0C288322A978ED0A833A341B3DAB7C80443BD752E729296EEAFDF63C70E711A209D8BB4DA562AD4B18FCFF9CEFD64F2FE1031F444784693F8C6
310
F27AAE85481C265B1AEF6FAC22DFD9230BBD9FA2094F92BCB6CF42318EC88D2596ADE964CF9322554B5BB2C3056BAEDECDFE4259486262A190E12CBBB1B2F08144B8878B3CD992ECB1B7C539EEED77879ED72B379A64F71CA70F8DAB52CC499C03ABB01E0315C58167FE0B2239D389233618DB06DDB6F5CF6C73A4E026A334
310
CE721C87AFB86A5CD73FC155E3BA81E72F96FDE1D81EFAFEC0F6AFFA9E3DBB9B2D6CEF7AE0CEAFE6F3F1ED726CA1E9649324AC52404AE22D68F1C59A7A13473CA9C45728B4F11D26714C428566DB862D517429C99A9818C07A52B49A424A596B0B838EC29FD8D609148325036D2D9CFEAC5B6FB2F91B40C8BA5829CF88B0F2
310
2CE7A06B857DE90FEEC429570DBDD00C4538279C628618DD70CC4141B0B554904146788B20850466528B9A5E9D5730ECCBBED4C6E5AE604CF8AF35959E16803F923C939CD17F083F725FBF0D7802690B1AE723256CFE920289F1C4918BE5B3415F3D2C81443B86F7602D20A6D834E837F09A8B58B05A58D38F779BC35AC487
310
F6CB539EA484E7C2F2A4332BBFD31AAC9916185F07504A5C4DDD1D51F90AD07F02E42B5ED00434C7E9C13FF85A768EE36C97F008B4835C64BBF0C745E2EBAB6F13A73A3C45C88895A73005B7FD49981A621877D7209D4E9EC0E8133E50C2AD43CCC0A6EF692CFC1C0C05B1049620DEEF36076BBA82600A8B700A33901E7E27
310
8EF88AE0A3A403F1A6A1A1B6F0DB4151DA619A7E76D4D507B0194EC34A55868CA7F01DFE147C6F17EB8FEB82EF7048EE95632FC88EC6348764DACE9001BAE1F2DF569FA4477E60C906B3E369635308D7EC1311375AD4B2566A41522FC08948C3A566E4CA3D056F670CC7242932B5DE16A7C284253CD8BC04A50BB7DEF5A7B6
310
81F2326500ADB10C927BC8692A30B1A64A5B5520ECD504050BC35C59E0BED46AB029A234C05152C422D4BE36C5261F106784250255494D1BB6F65A4D764B77BB2283E0D54A726E00A9FC59132E2DDC8738D6C62F273B8E2189267140210783B3B4DE605C5081779EE78CB05D40192BA2604719E49120C2E909FA1D25A867AE
310
47F2F29CF06D2B41D3B2B44F6A1B12802B6035483A5B95315FE99493272ACA4C99CF74363076A83AD49AFA27D285C8142D806A639466BE5CCC7CBFEF8FEDA5EFDED9FE72766D8FEEAEC6F66C36F06E6FAF9783ABDB59934F1DADEAF90E5429CA1CC3FFF28722DAC498327820C4C6DBF4DD7B993D6F1C088DCEDCEDBB83F962
310
690F978385ED5FF7EFECD962E1DB736FB6ECFBFEE8DA1F8E1C4EB2A4E021C99CBEE306DA24D3787F8A2BCDDDEB180A65CDE564A7F5D514E67F1C439B39C150E27F358856B1ABA520EC1A44C5D16608C5E1A348514108555FABFB348268938FB638F7C6B8ECF606AEFCF1BC71DF1DF747E3ABCAD8CF066A79CF0FC7B9360942
310
E83B8B3C48521CD2BC3DA13670E918A7DF945B7A036F88009DEA6F75C9F93CA32E096884F724D861D125B404C64B12B4E6B03D4BB28CC624935DDEABEAAF41D3ED413165E6DC1623A45910911C7F8FFDC9B6A161D3109B5900FD682E260217AB82CAA05507728AA2E87E21714BF95F820C47292B3BDD4B18787D0D81EE71DA
310
2C4E302DAE78027B0B701EB85B22071797A857ECEBFAA0556B4DEAE3EF267F021E5DD7FC4278F415DD4BA7DED01B8B9F110495ABA137B8D68AB88495BE2A177D1C2BA0F30C5F826742F70F9D0ACD6E3AA9956C65519D9308DA589C17BC93BF5E0DDD5717A9B8D07088DA4D6F2C0E65FFA63B38404F3670A7CADBDA355087D2
310
18E65C9D04792545AB094B5DC8999E185DBDC1AFCF2ABB4EF587E3E52FAF98EBCE17C9E1CF651CA05A2E03B08A3E464DDD5A751BF550F68CF31002E95A7EDA33F0882DD91E1B33835C5B89AEEBD34BD5F34A04D40826B658C4D97BF1857DC5A06AE89E33E74359B439E5FA4A24B61E0CA78F7C184C9BB43E7F5837A8C04AE7
310
D35F0446E4B94141ADCE45377C86D4B7D5B1E76F5050127D5B9D39FE9FE828B4026B633498066709A33094275BB42709646F183B74E8367844329995C1785590D26F043A9C7E2A67AA39DE307D3A7CC0309866AA172B42188A42C6BCB1D43AFA0DC6A06212298753BD4768C3540CB350C1E98D05169B53E8B67A1B1867C9E1
310
A1A4DE18578263E3782FF27D79AAFAFF784CA00351E92857B5A70B2E4A32C399A0B04DE57B02A8FACA07D3C9F78BAED9413887AF9B22AF84392E1CA55120E81702A57030F57B54F01EA0A0382F97D7937B0C483A4DE6CFDA4149D5CE31DFCBF17A0DEFDBC517474CC6579F51CA8ABD50E7B9EED7A0648BAE9B15E5146A0286
310
A1C44CB1A821E7EF9C2F3C81574C11BAA36004E8F7C3E8EA0F679E445112974BCEAD7A5185D60FF0DA69EBE8911FB4F1AE3774E414408DF5830DCE480F6FB3475800D5722A66A325C4860154D1B466005A23421770CCD8BF5A20551BD52624F5B02BE091337D048E24DEE508B7A96FA80D20C117802BF9F0F8452F4C1C0E43
310
F0E9BF504B0304140006080800C36A78574E26105A3E01000046050000300000006662782F45433133423534362D444441372D344231342D393143452D3843424244313245454338422F636E782E786D6CCD94414EC3301045AF62799F3849914095E34A2C38010BC4CE71A6C134B1237B8CE8EDB18B5340A88845A576678D
310
FF48FFCD7C0DDFBC4F237903E7B5352DADCB8A1230CAF6DA0C2D0DB82DEE28D908EEACC56F324A8C9CA0A5A94C051F9C0D732EF5B095614CD5519B5D2E4A44A7BB80E02951A3F4BEA55EBDC0244B19D0F6E077652F519675E9C0DBE014C47ED413E47EE54022F4543455B32AEABA686E1EEBD5BA69D6D5ED336749297867ED
310
98F5DA20383B1365E3C344331567E95BF0E074D624022ABE9C959D369CC57FC17D746B86ACC3FD9C74F33C6A25318E895985804514819C38FB140BCE12EF0FEA87FBA7C501E9B50385D6ED2F3480FAD4008EC6CA9884FFF11F847F63DBEE35E25E6ADB2761B3ADB3A12E69F531AEBFF71F5324CD305E5FE88FC6CE9FF9784A
310
50ABEB435E7C9D89981D4E5E5C7ABA80E203504B0304140006080800C36A7857978CD2B67E000000A30000000B0000006662782F636E782E786D6C4D8C4D0EC2201805AF42BE3D2A8A8A09D0C8CF411A4B1B520A068BF1F882E9C2D54B266F86779F25A0B7CB2F9FA200B23B0072F191061F2701651D3103D4499E535AFF6E
310
8062BF38010D83E4534EE5B9A1C18D7D098D061FE70D5A4D4EEA4C2FD898FB15534528BE116D31D34A1972B45633558D7D53EAFC7A755B5E7E01504B0304140006080800C36A7857A6D797065F0000008200000007000000636E782E786D6C4DCB3B0E80201045D1AD90E9FD7516806B51190811670C8A61F982B1B0BAC9C9
310
7B72CA7B1037C6D3332918DA1E04D2CAC69353902EDB8C20262D23F3F59B81A079470595414B17391D1F19B4730A5583A7ED43BBE4025D9592775E5ADFFA01504B0304140006080800C36A78574FEB6A7CA0000000F4000000130000005B436F6E74656E745F54797065735D2E786D6C7D8F4B0EC2300C44AF1279DFA6B040
310
0835ED02B8011730C16D239A8F121795DB93D02D6269CFBC19BBED573B8B17C564BC53B0AB1B10E4B47F18372A5878A88E20FAAEBDBD032591BD2E299898C349CAA427B2986A1FC86565F0D122E7318E32A07EE24872DF3407A9BD63725C71C980AEBDD080CBCCE2BAE6F5D69B7110E7CD57AA146008B3D1C8F92C5954F993
310
BB1BF787F39A89ABC491D09600F9FDA2FB00504B0304140006080800C36A78573DEE336E64000000790000001B0000006175746F6465736B2D64657369676E2D7061636B6167652E786D6C35CBC10E83200C00D05F21DCA56CA76D41FC96062B120735B69A7DBE268BB7777961F8D5AF396893C2ADB70FE7ADA196782C2DF7
310
76D7A97B5933C430F15651E5469C55D70F80A4992A3ADC954792C525AE70A1E4D6AD9816CC044FEFDF01FE3FDE907802504B0304140006080800C36A785742F62DF7F9000000960100003B0000006662782F45433133423534362D444441372D344231342D393143452D3843424244313245454338422F7265736F75726365
310
732F636F72652E786D6C8550CB6E833010FC15B47703861450641C5142BFA0A7DE2CB32156828DFCA8FAF9B5132AB5A79E76353B33BB3BECF4B5DEB34FB44E19DD03CD4BC8504B332BBDF410FC8574909D38B3C6F85F34C8B458B1870403678B3561DB2169B4479D506D66DC41E11C7AC8E43D363D3879C555E422F8C870B7
310
7C13F22616CC69FEE47116829A77A99AA39BBA28B4C08776A263DB94A4698733394C6F673274F5489A6E9CA6EEA5695F9B811549CC9957EBCF766951789C81576555134A497578A7F5B1AA8E65FBC18AC4E4CC791B7FDE97A6EF805B742658898E15CFE91FD7B0CDFFBB06A57D5DEDAE4F85034EE3918F0167454A29964784
310
B1A644F937504B0304140006080800C36A7857BF3A5D1CF2000000B1010000310000006662782F45433133423534362D444441372D344231342D393143452D3843424244313245454338422F636F72652E786D6C8D50CB6EC32010FC156BEFD806BB4D1A61A2FAF1073DF58680382831583CAA7E7E2176A5F696D3A2D91966
310
76E8F97BB9175FCA796D4D07B8ACA1504658A9CDDC410C177484E2CCA8B336FCA14161F8A23AC830303A3B1BD71D12D60465326AAC543BC8BD57010A714F8F0EBCB8AA85973C86C4F0B772E5E2C66755E272E3311AF4F22B154EF1A02430529306618C48FB819B1321A7FAF049ABCC6434462D772B2D93BBBE68E5804D036E
310
FA97F6158DE3FB01B53D6ED11B1E26741CFA7EC4649A86634FAB2C66D407976EDE3FC9D73D2BDF84FF32C7553E91599BD090DD7053786038E5792C18AD7281693CDA4D3397CD7E00504B0304140006080800C36A7857BDB9481054010000DD0200000C0000006662782F636F72652E786D6C8D52CB6E833010FC15E4BB79A6
310
8022E38826F40B7AEACD310EB102363236CAE7D7E621CAA1698564ACD9DD999D91D1E9D9B5DEC8D4C0A52840E487C06382CA9A8BA60046DF600EBC13464A4AFDA30D788274AC000E0618354A9A7E81A8149A09870A59B30524C3C034F0686B2F0518E89D75C42746DB8EE1E1F7843E48C3FCC89FFB303286D7CB28AF2D1BBF
310
71A6002EB32A3A676908D3ACBCC043F57181659E9C619A9FAB2A7F4BB3F7B444811BC648F36E55A78A11CD6A80E3304E6014C1F8F01925C7383E86D9170A5C27468356D6F322EADC017CBB3E5130E33B3ED3D77FF3192E74122F7CF3C4007064D79B0A18052E1FFB9BC2DB6768856D7E9A5CDBD5C2C34223A35AAA83ADD4D2
310
6CA591B48659EAD09B3E14CC55CB3C11FCC613BFE079CD618322A2B1AB116DAF57A39DFA7EA79E2938EAA727A4EA48BB2D37AFB89D9BD0CED23A4E652BD57FA657AB6B98817B98F81B504B0304140006080800C36A785775F026CC08010000B201000008000000636F72652E786D6C8D50C16E842014FC15F2EEA8E056CD06
310
D958D77E414FBD51612D590503B869FFBEB06B93F6D6D32333F3DE0CC34E9FCB8C6ECA796D4D0B242B0029335AA9CDD4C2162EB80174E2CC591B7EC90019B1A816120C9C4DCE6EEB0E8DD60465126AAC543B28BC5701D038C7470B7EFC508BC8C416A2C25FB3558C5731A98C640F1D67412F3FABA3532228099C16B4C48460
310
7A7825E591D26351BFB13C2939DB362D772B2DA3BBBE68E58077F540FABA2A705577677C185ECEB86BCA1E574D3F0CCD53553F571DCBD332673EB8F8E7FD48CC199017B7E4CBF207C5D9BBB5F32E88A124B266FE025EB03C117F426FABFC47686D4249F7838F0D0F9CC44077221AA706E3B8D71B676A9B7F03504B01021400
310
140006080800C36A78570000000000000000000000003700000000000000000000000000000000006662782F45433133423534362D444441372D344231342D393143452D3843424244313245454338422F617474726962757465732E62696E504B01021400140006080800C36A785700000000000000000000000035000000
310
00000000000000000000550000006662782F45433133423534362D444441372D344231342D393143452D3843424244313245454338422F76657274696365732E62696E504B01021400140006080800C36A7857F270F13306000000040000003600000000000000000000000000A80000006662782F45433133423534362D44
310
4441372D344231342D393143452D3843424244313245454338422F747269616E676C65732E62696E504B01021400140006080800C36A785751464CB489000000430100003600000000000000000000000000020100006662782F45433133423534362D444441372D344231342D393143452D3843424244313245454338422F
310
6469726563746F72792E786D6C504B01021400140006080800C36A785713824D853F070000201C00003400000000000000000000000000DF0100006662782F45433133423534362D444441372D344231342D393143452D3843424244313245454338422F6F626A656374732E786D6C504B01021400140006080800C36A7857
310
4E26105A3E010000460500003000000000000000000000000000700900006662782F45433133423534362D444441372D344231342D393143452D3843424244313245454338422F636E782E786D6C504B01021400140006080800C36A7857978CD2B67E000000A30000000B00000000000000000000000000FC0A0000666278
310
2F636E782E786D6C504B01021400140006080800C36A7857A6D797065F000000820000000700000000000000000000000000A30B0000636E782E786D6C504B01021400140006080800C36A78574FEB6A7CA0000000F40000001300000000000000000000000000270C00005B436F6E74656E745F54797065735D2E786D6C50
310
4B01021400140006080800C36A78573DEE336E64000000790000001B00000000000000000000000000F80C00006175746F6465736B2D64657369676E2D7061636B6167652E786D6C504B01021400140006080800C36A785742F62DF7F9000000960100003B00000000000000000000000000950D00006662782F4543313342
310
3534362D444441372D344231342D393143452D3843424244313245454338422F7265736F75726365732F636F72652E786D6C504B01021400140006080800C36A7857BF3A5D1CF2000000B10100003100000000000000000000000000E70E00006662782F45433133423534362D444441372D344231342D393143452D384342
310
4244313245454338422F636F72652E786D6C504B01021400140006080800C36A7857BDB9481054010000DD0200000C00000000000000000000000000281000006662782F636F72652E786D6C504B01021400140006080800C36A785775F026CC08010000B20100000800000000000000000000000000A6110000636F72652E
310
786D6C504B0506000000000E000E0080040000D41200000000
  0
XRECORD
  5
834A
102
{ACAD_REACTORS
330
8345
102
}
330
8345
100
AcDbXrecord
280
     1
270
     1
271
     1
  0
XRECORD
  5
8349
102
{ACAD_REACTORS
330
8345
102
}
330
8345
100
AcDbXrecord
280
     1
270
     1
271
     1
  0
XRECORD
  5
834B
102
{ACAD_REACTORS
330
8345
102
}
330
8345
100
AcDbXrecord
280
     1
270
     1
271
     1
  0
XRECORD
  5
8348
102
{ACAD_REACTORS
330
8345
102
}
330
8345
100
AcDbXrecord
280
     1
270
     1
271
     1
  0
XRECORD
  5
869C
102
{ACAD_REACTORS
330
869B
102
}
330
869B
100
AcDbXrecord
280
     1
102
DISPLAYNAME
  1
Imperial24
102
FLAGS
 90
        0
  0
CELLSTYLEMAP
  5
8663
102
{ACAD_REACTORS
330
8662
102
}
330
8662
100
AcDbCellStyleMap
 90
        3
300
CELLSTYLE
  1
TABLEFORMAT_BEGIN
 90
        5
170
     1
 91
        0
 92
    32768
 62
   257
 93
        1
300
CONTENTFORMAT
  1
CONTENTFORMAT_BEGIN
 90
        0
 91
        0
 92
      512
 93
        0
300

 40
0.0
140
1.0
 94
        5
 62
     0
340
8378
144
0.25
309
CONTENTFORMAT_END
171
     0
 94
        0
309
TABLEFORMAT_END
  1
CELLSTYLE_BEGIN
 90
        1
 91
        1
300
_TITLE
309
CELLSTYLE_END
300
CELLSTYLE
  1
TABLEFORMAT_BEGIN
 90
        5
170
     1
 91
        0
 92
        0
 62
   257
 93
        1
300
CONTENTFORMAT
  1
CONTENTFORMAT_BEGIN
 90
        0
 91
        0
 92
      512
 93
        0
300

 40
0.0
140
1.0
 94
        5
 62
     0
340
8378
144
0.18
309
CONTENTFORMAT_END
171
     0
 94
        0
309
TABLEFORMAT_END
  1
CELLSTYLE_BEGIN
 90
        2
 91
        1
300
_HEADER
309
CELLSTYLE_END
300
CELLSTYLE
  1
TABLEFORMAT_BEGIN
 90
        5
170
     1
 91
        0
 92
        0
 62
   257
 93
        1
300
CONTENTFORMAT
  1
CONTENTFORMAT_BEGIN
 90
        0
 91
        0
 92
      512
 93
        0
300

 40
0.0
140
1.0
 94
        2
 62
     0
340
8378
144
0.18
309
CONTENTFORMAT_END
171
     0
 94
        0
309
TABLEFORMAT_END
  1
CELLSTYLE_BEGIN
 90
        3
 91
        2
300
_DATA
309
CELLSTYLE_END
  0
XRECORD
  5
8699
102
{ACAD_REACTORS
330
8662
102
}
330
8662
100
AcDbXrecord
280
     1
102
ACAD_ROUNDTRIP_PRE2007_TABLESTYLE
 90
      512
 91
        0
  1

 92
      512
 93
        0
  2

 94
      512
 95
        0
  3

  0
XRECORD
  5
8674
102
{ACAD_REACTORS
330
8673
102
}
330
8673
100
AcDbXrecord
280
     1
102
RTVSPost2010Prop28
280
     1
102
RTVSPost2010PropOp28
 70
     1
102
RTVSPost2010Prop29
280
     1
102
RTVSPost2010PropOp29
 70
     1
102
RTVSPost2010Prop30
280
     0
102
RTVSPost2010PropOp30
 70
     1
102
RTVSPost2010Prop31
280
     0
102
RTVSPost2010PropOp31
 70
     1
102
RTVSPost2010Prop32
280
     0
102
RTVSPost2010PropOp32
 70
     1
102
RTVSPost2010Prop33
280
     0
102
RTVSPost2010PropOp33
 70
     1
102
RTVSPost2010Prop34
280
     0
102
RTVSPost2010PropOp34
 70
     1
102
RTVSPost2010Prop35
280
     0
102
RTVSPost2010PropOp35
 70
     1
102
RTVSPost2010Prop36
280
     0
102
RTVSPost2010PropOp36
 70
     1
102
RTVSPost2010Prop37
 90
       50
102
RTVSPost2010PropOp37
 70
     1
102
RTVSPost2010Prop38
140
0.0
102
RTVSPost2010PropOp38
 70
     1
102
RTVSPost2010Prop39
140
1.0
102
RTVSPost2010PropOp39
 70
     1
102
RTVSPost2010Prop40
 90
        0
102
RTVSPost2010PropOp40
 70
     1
102
RTVSPost2010Prop41ColorIndex
 90
       18
102
RTVSPost2010Prop41ColorRGB
 90
        0
102
RTVSPost2010PropOp41
 70
     1
102
RTVSPost2010Prop42
 90
       50
102
RTVSPost2010PropOp42
 70
     1
102
RTVSPost2010Prop43
 90
        3
102
RTVSPost2010PropOp43
 70
     1
102
RTVSPost2010Prop44ColorIndex
 90
        5
102
RTVSPost2010Prop44ColorRGB
 90
      255
102
RTVSPost2010PropOp44
 70
     1
102
RTVSPost2010Prop45
280
     0
102
RTVSPost2010PropOp45
 70
     1
102
RTVSPost2010Prop46
 90
       50
102
RTVSPost2010PropOp46
 70
     1
102
RTVSPost2010Prop47
 90
       50
102
RTVSPost2010PropOp47
 70
     1
102
RTVSPost2010Prop48
 90
       50
102
RTVSPost2010PropOp48
 70
     1
102
RTVSPost2010Prop49
280
     0
102
RTVSPost2010PropOp49
 70
     1
102
RTVSPost2010Prop50
 90
       50
102
RTVSPost2010PropOp50
 70
     1
102
RTVSPost2010Prop51ColorIndex
 90
      256
102
RTVSPost2010Prop51ColorRGB
 90
-16777216
102
RTVSPost2010PropOp51
 70
     0
102
RTVSPost2010Prop52
140
1.0
102
RTVSPost2010PropOp52
 70
     0
102
RTVSPost2010Prop53
 90
        2
102
RTVSPost2010PropOp53
 70
     1
102
RTVSPost2010Prop54
  1
strokes_ogs.tif
102
RTVSPost2010PropOp54
 70
     1
102
RTVSPost2010Prop55
280
     0
102
RTVSPost2010PropOp55
 70
     1
102
RTVSPost2010Prop56
140
1.0
102
RTVSPost2010PropOp56
 70
     1
102
RTVSPost2010Prop57
140
1.0
102
RTVSPost2010PropOp57
 70
     1
102
RTVSPropertyOp0
 70
     1
102
RTVSPropertyOp1
 70
     1
102
RTVSPropertyOp2
 70
     1
102
RTVSPropertyOp3
 70
     1
102
RTVSPropertyOp4
 70
     1
102
RTVSPropertyOp5
 70
     1
102
RTVSPropertyOp6
 70
     1
102
RTVSPropertyOp7
 70
     1
102
RTVSPropertyOp8
 70
     1
102
RTVSPropertyOp9
 70
     1
102
RTVSPropertyOp10
 70
     1
102
RTVSPropertyOp11
 70
     1
102
RTVSPropertyOp12
 70
     1
102
RTVSPropertyOp13
 70
     1
102
RTVSPropertyOp14
 70
     1
102
RTVSPropertyOp15
 70
     1
102
RTVSPropertyOp16
 70
     1
102
RTVSPropertyOp17
 70
     1
102
RTVSPropertyOp18
 70
     1
102
RTVSPropertyOp19
 70
     1
102
RTVSPropertyOp20
 70
     1
102
RTVSPropertyOp21
 70
     1
102
RTVSPropertyOp22
 70
     1
102
RTVSPropertyOp23
 70
     1
102
RTVSPropertyOp24
 70
     1
102
RTVSPropertyOp25
 70
     1
102
RTVSPropertyOp26
 70
     1
102
RTVSPropertyOp27
 70
     1
102
RTVSPropertyOp28
 70
     1
102
RTVSPropertyOp29
 70
     1
102
RTVSPropertyOp30
 70
     1
102
RTVSPropertyOp31
 70
     1
102
RTVSPropertyOp32
 70
     1
102
RTVSPropertyOp33
 70
     1
102
RTVSPropertyOp34
 70
     1
102
RTVSPropertyOp35
 70
     1
102
RTVSPropertyOp36
 70
     1
102
RTVSPropertyOp37
 70
     1
102
RTVSPropertyOp38
 70
     1
102
RTVSPropertyOp39
 70
     1
102
RTVSPropertyOp40
 70
     1
102
RTVSPropertyOp41
 70
     1
102
RTVSPropertyOp42
 70
     1
102
RTVSPropertyOp43
 70
     1
102
RTVSPropertyOp44
 70
     1
102
RTVSPropertyOp45
 70
     1
102
RTVSPropertyOp46
 70
     1
102
RTVSPropertyOp47
 70
     1
102
RTVSPropertyOp48
 70
     1
102
RTVSPropertyOp49
 70
     1
102
RTVSPropertyOp50
 70
     1
102
RTVSPropertyOp51
 70
     0
102
RTVSPropertyOp52
 70
     0
102
RTVSPropertyOp53
 70
     1
102
RTVSPropertyOp54
 70
     1
102
RTVSPropertyOp55
 70
     1
102
RTVSPropertyOp56
 70
     1
102
RTVSPropertyOp57
 70
     1
102
RTVSPropertyOp58
 70
     1
102
RTVSPropertyOp59
 70
     1
102
RTVSPropertyOp60
 70
     1
102
RTVSPropertyOp61
 70
     1
102
RTVSPropertyOp62
 70
     1
  0
XRECORD
  5
8672
102
{ACAD_REACTORS
330
8671
102
}
330
8671
100
AcDbXrecord
280
     1
102
RTVSPost2010Prop28
280
     0
102
RTVSPost2010PropOp28
 70
     1
102
RTVSPost2010Prop29
280
     1
102
RTVSPost2010PropOp29
 70
     1
102
RTVSPost2010Prop30
280
     1
102
RTVSPost2010PropOp30
 70
     1
102
RTVSPost2010Prop31
280
     0
102
RTVSPost2010PropOp31
 70
     1
102
RTVSPost2010Prop32
280
     0
102
RTVSPost2010PropOp32
 70
     1
102
RTVSPost2010Prop33
280
     0
102
RTVSPost2010PropOp33
 70
     1
102
RTVSPost2010Prop34
280
     0
102
RTVSPost2010PropOp34
 70
     1
102
RTVSPost2010Prop35
280
     0
102
RTVSPost2010PropOp35
 70
     1
102
RTVSPost2010Prop36
280
     0
102
RTVSPost2010PropOp36
 70
     1
102
RTVSPost2010Prop37
 90
       50
102
RTVSPost2010PropOp37
 70
     1
102
RTVSPost2010Prop38
140
0.0
102
RTVSPost2010PropOp38
 70
     1
102
RTVSPost2010Prop39
140
1.0
102
RTVSPost2010PropOp39
 70
     1
102
RTVSPost2010Prop40
 90
        0
102
RTVSPost2010PropOp40
 70
     1
102
RTVSPost2010Prop41ColorIndex
 90
       18
102
RTVSPost2010Prop41ColorRGB
 90
        0
102
RTVSPost2010PropOp41
 70
     1
102
RTVSPost2010Prop42
 90
       50
102
RTVSPost2010PropOp42
 70
     1
102
RTVSPost2010Prop43
 90
        3
102
RTVSPost2010PropOp43
 70
     1
102
RTVSPost2010Prop44ColorIndex
 90
        5
102
RTVSPost2010Prop44ColorRGB
 90
      255
102
RTVSPost2010PropOp44
 70
     1
102
RTVSPost2010Prop45
280
     0
102
RTVSPost2010PropOp45
 70
     1
102
RTVSPost2010Prop46
 90
       50
102
RTVSPost2010PropOp46
 70
     1
102
RTVSPost2010Prop47
 90
       50
102
RTVSPost2010PropOp47
 70
     1
102
RTVSPost2010Prop48
 90
       50
102
RTVSPost2010PropOp48
 70
     1
102
RTVSPost2010Prop49
280
     0
102
RTVSPost2010PropOp49
 70
     1
102
RTVSPost2010Prop50
 90
       50
102
RTVSPost2010PropOp50
 70
     1
102
RTVSPost2010Prop51ColorIndex
 90
      256
102
RTVSPost2010Prop51ColorRGB
 90
-16777216
102
RTVSPost2010PropOp51
 70
     0
102
RTVSPost2010Prop52
140
1.0
102
RTVSPost2010PropOp52
 70
     0
102
RTVSPost2010Prop53
 90
        2
102
RTVSPost2010PropOp53
 70
     1
102
RTVSPost2010Prop54
  1
strokes_ogs.tif
102
RTVSPost2010PropOp54
 70
     1
102
RTVSPost2010Prop55
280
     0
102
RTVSPost2010PropOp55
 70
     1
102
RTVSPost2010Prop56
140
1.0
102
RTVSPost2010PropOp56
 70
     1
102
RTVSPost2010Prop57
140
1.0
102
RTVSPost2010PropOp57
 70
     1
102
RTVSPropertyOp0
 70
     1
102
RTVSPropertyOp1
 70
     1
102
RTVSPropertyOp2
 70
     1
102
RTVSPropertyOp3
 70
     1
102
RTVSPropertyOp4
 70
     1
102
RTVSPropertyOp5
 70
     1
102
RTVSPropertyOp6
 70
     1
102
RTVSPropertyOp7
 70
     1
102
RTVSPropertyOp8
 70
     1
102
RTVSPropertyOp9
 70
     1
102
RTVSPropertyOp10
 70
     1
102
RTVSPropertyOp11
 70
     1
102
RTVSPropertyOp12
 70
     1
102
RTVSPropertyOp13
 70
     1
102
RTVSPropertyOp14
 70
     1
102
RTVSPropertyOp15
 70
     1
102
RTVSPropertyOp16
 70
     1
102
RTVSPropertyOp17
 70
     1
102
RTVSPropertyOp18
 70
     1
102
RTVSPropertyOp19
 70
     1
102
RTVSPropertyOp20
 70
     1
102
RTVSPropertyOp21
 70
     1
102
RTVSPropertyOp22
 70
     1
102
RTVSPropertyOp23
 70
     1
102
RTVSPropertyOp24
 70
     1
102
RTVSPropertyOp25
 70
     1
102
RTVSPropertyOp26
 70
     1
102
RTVSPropertyOp27
 70
     1
102
RTVSPropertyOp28
 70
     1
102
RTVSPropertyOp29
 70
     1
102
RTVSPropertyOp30
 70
     1
102
RTVSPropertyOp31
 70
     1
102
RTVSPropertyOp32
 70
     1
102
RTVSPropertyOp33
 70
     1
102
RTVSPropertyOp34
 70
     1
102
RTVSPropertyOp35
 70
     1
102
RTVSPropertyOp36
 70
     1
102
RTVSPropertyOp37
 70
     1
102
RTVSPropertyOp38
 70
     1
102
RTVSPropertyOp39
 70
     1
102
RTVSPropertyOp40
 70
     1
102
RTVSPropertyOp41
 70
     1
102
RTVSPropertyOp42
 70
     1
102
RTVSPropertyOp43
 70
     1
102
RTVSPropertyOp44
 70
     1
102
RTVSPropertyOp45
 70
     1
102
RTVSPropertyOp46
 70
     1
102
RTVSPropertyOp47
 70
     1
102
RTVSPropertyOp48
 70
     1
102
RTVSPropertyOp49
 70
     1
102
RTVSPropertyOp50
 70
     1
102
RTVSPropertyOp51
 70
     0
102
RTVSPropertyOp52
 70
     0
102
RTVSPropertyOp53
 70
     1
102
RTVSPropertyOp54
 70
     1
102
RTVSPropertyOp55
 70
     1
102
RTVSPropertyOp56
 70
     1
102
RTVSPropertyOp57
 70
     1
102
RTVSPropertyOp58
 70
     1
102
RTVSPropertyOp59
 70
     1
102
RTVSPropertyOp60
 70
     1
102
RTVSPropertyOp61
 70
     1
102
RTVSPropertyOp62
 70
     1
  0
XRECORD
  5
8680
102
{ACAD_REACTORS
330
867F
102
}
330
867F
100
AcDbXrecord
280
     1
102
RTVSPost2010Prop28
280
     0
102
RTVSPost2010PropOp28
 70
     1
102
RTVSPost2010Prop29
280
     1
102
RTVSPost2010PropOp29
 70
     1
102
RTVSPost2010Prop30
280
     1
102
RTVSPost2010PropOp30
 70
     1
102
RTVSPost2010Prop31
280
     0
102
RTVSPost2010PropOp31
 70
     1
102
RTVSPost2010Prop32
280
     0
102
RTVSPost2010PropOp32
 70
     1
102
RTVSPost2010Prop33
280
     0
102
RTVSPost2010PropOp33
 70
     1
102
RTVSPost2010Prop34
280
     0
102
RTVSPost2010PropOp34
 70
     1
102
RTVSPost2010Prop35
280
     0
102
RTVSPost2010PropOp35
 70
     1
102
RTVSPost2010Prop36
280
     0
102
RTVSPost2010PropOp36
 70
     1
102
RTVSPost2010Prop37
 90
       50
102
RTVSPost2010PropOp37
 70
     1
102
RTVSPost2010Prop38
140
0.0
102
RTVSPost2010PropOp38
 70
     1
102
RTVSPost2010Prop39
140
1.0
102
RTVSPost2010PropOp39
 70
     1
102
RTVSPost2010Prop40
 90
        0
102
RTVSPost2010PropOp40
 70
     1
102
RTVSPost2010Prop41ColorIndex
 90
       18
102
RTVSPost2010Prop41ColorRGB
 90
        0
102
RTVSPost2010PropOp41
 70
     1
102
RTVSPost2010Prop42
 90
       50
102
RTVSPost2010PropOp42
 70
     1
102
RTVSPost2010Prop43
 90
        3
102
RTVSPost2010PropOp43
 70
     1
102
RTVSPost2010Prop44ColorIndex
 90
        5
102
RTVSPost2010Prop44ColorRGB
 90
      255
102
RTVSPost2010PropOp44
 70
     1
102
RTVSPost2010Prop45
280
     0
102
RTVSPost2010PropOp45
 70
     1
102
RTVSPost2010Prop46
 90
       50
102
RTVSPost2010PropOp46
 70
     1
102
RTVSPost2010Prop47
 90
       50
102
RTVSPost2010PropOp47
 70
     1
102
RTVSPost2010Prop48
 90
       50
102
RTVSPost2010PropOp48
 70
     1
102
RTVSPost2010Prop49
280
     0
102
RTVSPost2010PropOp49
 70
     1
102
RTVSPost2010Prop50
 90
       50
102
RTVSPost2010PropOp50
 70
     1
102
RTVSPost2010Prop51ColorIndex
 90
      256
102
RTVSPost2010Prop51ColorRGB
 90
-16777216
102
RTVSPost2010PropOp51
 70
     0
102
RTVSPost2010Prop52
140
1.0
102
RTVSPost2010PropOp52
 70
     0
102
RTVSPost2010Prop53
 90
        2
102
RTVSPost2010PropOp53
 70
     1
102
RTVSPost2010Prop54
  1
strokes_ogs.tif
102
RTVSPost2010PropOp54
 70
     1
102
RTVSPost2010Prop55
280
     0
102
RTVSPost2010PropOp55
 70
     1
102
RTVSPost2010Prop56
140
1.0
102
RTVSPost2010PropOp56
 70
     1
102
RTVSPost2010Prop57
140
1.0
102
RTVSPost2010PropOp57
 70
     1
102
RTVSPropertyOp0
 70
     1
102
RTVSPropertyOp1
 70
     1
102
RTVSPropertyOp2
 70
     1
102
RTVSPropertyOp3
 70
     1
102
RTVSPropertyOp4
 70
     1
102
RTVSPropertyOp5
 70
     1
102
RTVSPropertyOp6
 70
     1
102
RTVSPropertyOp7
 70
     1
102
RTVSPropertyOp8
 70
     1
102
RTVSPropertyOp9
 70
     1
102
RTVSPropertyOp10
 70
     1
102
RTVSPropertyOp11
 70
     1
102
RTVSPropertyOp12
 70
     1
102
RTVSPropertyOp13
 70
     1
102
RTVSPropertyOp14
 70
     1
102
RTVSPropertyOp15
 70
     1
102
RTVSPropertyOp16
 70
     1
102
RTVSPropertyOp17
 70
     1
102
RTVSPropertyOp18
 70
     1
102
RTVSPropertyOp19
 70
     1
102
RTVSPropertyOp20
 70
     1
102
RTVSPropertyOp21
 70
     1
102
RTVSPropertyOp22
 70
     1
102
RTVSPropertyOp23
 70
     1
102
RTVSPropertyOp24
 70
     1
102
RTVSPropertyOp25
 70
     1
102
RTVSPropertyOp26
 70
     1
102
RTVSPropertyOp27
 70
     1
102
RTVSPropertyOp28
 70
     1
102
RTVSPropertyOp29
 70
     1
102
RTVSPropertyOp30
 70
     1
102
RTVSPropertyOp31
 70
     1
102
RTVSPropertyOp32
 70
     1
102
RTVSPropertyOp33
 70
     1
102
RTVSPropertyOp34
 70
     1
102
RTVSPropertyOp35
 70
     1
102
RTVSPropertyOp36
 70
     1
102
RTVSPropertyOp37
 70
     1
102
RTVSPropertyOp38
 70
     1
102
RTVSPropertyOp39
 70
     1
102
RTVSPropertyOp40
 70
     1
102
RTVSPropertyOp41
 70
     1
102
RTVSPropertyOp42
 70
     1
102
RTVSPropertyOp43
 70
     1
102
RTVSPropertyOp44
 70
     1
102
RTVSPropertyOp45
 70
     1
102
RTVSPropertyOp46
 70
     1
102
RTVSPropertyOp47
 70
     1
102
RTVSPropertyOp48
 70
     1
102
RTVSPropertyOp49
 70
     1
102
RTVSPropertyOp50
 70
     1
102
RTVSPropertyOp51
 70
     0
102
RTVSPropertyOp52
 70
     0
102
RTVSPropertyOp53
 70
     1
102
RTVSPropertyOp54
 70
     1
102
RTVSPropertyOp55
 70
     1
102
RTVSPropertyOp56
 70
     1
102
RTVSPropertyOp57
 70
     1
102
RTVSPropertyOp58
 70
     1
102
RTVSPropertyOp59
 70
     1
102
RTVSPropertyOp60
 70
     1
102
RTVSPropertyOp61
 70
     1
102
RTVSPropertyOp62
 70
     1
  0
XRECORD
  5
8688
102
{ACAD_REACTORS
330
8687
102
}
330
8687
100
AcDbXrecord
280
     1
102
RTVSPost2010Prop28
280
     0
102
RTVSPost2010PropOp28
 70
     1
102
RTVSPost2010Prop29
280
     1
102
RTVSPost2010PropOp29
 70
     1
102
RTVSPost2010Prop30
280
     1
102
RTVSPost2010PropOp30
 70
     1
102
RTVSPost2010Prop31
280
     0
102
RTVSPost2010PropOp31
 70
     1
102
RTVSPost2010Prop32
280
     0
102
RTVSPost2010PropOp32
 70
     1
102
RTVSPost2010Prop33
280
     0
102
RTVSPost2010PropOp33
 70
     1
102
RTVSPost2010Prop34
280
     0
102
RTVSPost2010PropOp34
 70
     1
102
RTVSPost2010Prop35
280
     0
102
RTVSPost2010PropOp35
 70
     1
102
RTVSPost2010Prop36
280
     0
102
RTVSPost2010PropOp36
 70
     1
102
RTVSPost2010Prop37
 90
       50
102
RTVSPost2010PropOp37
 70
     1
102
RTVSPost2010Prop38
140
0.0
102
RTVSPost2010PropOp38
 70
     1
102
RTVSPost2010Prop39
140
1.0
102
RTVSPost2010PropOp39
 70
     1
102
RTVSPost2010Prop40
 90
        0
102
RTVSPost2010PropOp40
 70
     1
102
RTVSPost2010Prop41ColorIndex
 90
       18
102
RTVSPost2010Prop41ColorRGB
 90
        0
102
RTVSPost2010PropOp41
 70
     1
102
RTVSPost2010Prop42
 90
       50
102
RTVSPost2010PropOp42
 70
     1
102
RTVSPost2010Prop43
 90
        3
102
RTVSPost2010PropOp43
 70
     1
102
RTVSPost2010Prop44ColorIndex
 90
        5
102
RTVSPost2010Prop44ColorRGB
 90
      255
102
RTVSPost2010PropOp44
 70
     1
102
RTVSPost2010Prop45
280
     0
102
RTVSPost2010PropOp45
 70
     1
102
RTVSPost2010Prop46
 90
       50
102
RTVSPost2010PropOp46
 70
     1
102
RTVSPost2010Prop47
 90
       50
102
RTVSPost2010PropOp47
 70
     1
102
RTVSPost2010Prop48
 90
       50
102
RTVSPost2010PropOp48
 70
     1
102
RTVSPost2010Prop49
280
     0
102
RTVSPost2010PropOp49
 70
     1
102
RTVSPost2010Prop50
 90
       50
102
RTVSPost2010PropOp50
 70
     1
102
RTVSPost2010Prop51ColorIndex
 90
      256
102
RTVSPost2010Prop51ColorRGB
 90
-16777216
102
RTVSPost2010PropOp51
 70
     0
102
RTVSPost2010Prop52
140
1.0
102
RTVSPost2010PropOp52
 70
     0
102
RTVSPost2010Prop53
 90
        2
102
RTVSPost2010PropOp53
 70
     1
102
RTVSPost2010Prop54
  1
strokes_ogs.tif
102
RTVSPost2010PropOp54
 70
     1
102
RTVSPost2010Prop55
280
     0
102
RTVSPost2010PropOp55
 70
     1
102
RTVSPost2010Prop56
140
1.0
102
RTVSPost2010PropOp56
 70
     1
102
RTVSPost2010Prop57
140
1.0
102
RTVSPost2010PropOp57
 70
     1
102
RTVSPropertyOp0
 70
     1
102
RTVSPropertyOp1
 70
     1
102
RTVSPropertyOp2
 70
     1
102
RTVSPropertyOp3
 70
     1
102
RTVSPropertyOp4
 70
     1
102
RTVSPropertyOp5
 70
     1
102
RTVSPropertyOp6
 70
     1
102
RTVSPropertyOp7
 70
     1
102
RTVSPropertyOp8
 70
     1
102
RTVSPropertyOp9
 70
     1
102
RTVSPropertyOp10
 70
     1
102
RTVSPropertyOp11
 70
     1
102
RTVSPropertyOp12
 70
     1
102
RTVSPropertyOp13
 70
     1
102
RTVSPropertyOp14
 70
     1
102
RTVSPropertyOp15
 70
     1
102
RTVSPropertyOp16
 70
     1
102
RTVSPropertyOp17
 70
     1
102
RTVSPropertyOp18
 70
     1
102
RTVSPropertyOp19
 70
     1
102
RTVSPropertyOp20
 70
     1
102
RTVSPropertyOp21
 70
     1
102
RTVSPropertyOp22
 70
     1
102
RTVSPropertyOp23
 70
     1
102
RTVSPropertyOp24
 70
     1
102
RTVSPropertyOp25
 70
     1
102
RTVSPropertyOp26
 70
     1
102
RTVSPropertyOp27
 70
     1
102
RTVSPropertyOp28
 70
     1
102
RTVSPropertyOp29
 70
     1
102
RTVSPropertyOp30
 70
     1
102
RTVSPropertyOp31
 70
     1
102
RTVSPropertyOp32
 70
     1
102
RTVSPropertyOp33
 70
     1
102
RTVSPropertyOp34
 70
     1
102
RTVSPropertyOp35
 70
     1
102
RTVSPropertyOp36
 70
     1
102
RTVSPropertyOp37
 70
     1
102
RTVSPropertyOp38
 70
     1
102
RTVSPropertyOp39
 70
     1
102
RTVSPropertyOp40
 70
     1
102
RTVSPropertyOp41
 70
     1
102
RTVSPropertyOp42
 70
     1
102
RTVSPropertyOp43
 70
     1
102
RTVSPropertyOp44
 70
     1
102
RTVSPropertyOp45
 70
     1
102
RTVSPropertyOp46
 70
     1
102
RTVSPropertyOp47
 70
     1
102
RTVSPropertyOp48
 70
     1
102
RTVSPropertyOp49
 70
     1
102
RTVSPropertyOp50
 70
     1
102
RTVSPropertyOp51
 70
     0
102
RTVSPropertyOp52
 70
     0
102
RTVSPropertyOp53
 70
     1
102
RTVSPropertyOp54
 70
     1
102
RTVSPropertyOp55
 70
     1
102
RTVSPropertyOp56
 70
     1
102
RTVSPropertyOp57
 70
     1
102
RTVSPropertyOp58
 70
     1
102
RTVSPropertyOp59
 70
     1
102
RTVSPropertyOp60
 70
     1
102
RTVSPropertyOp61
 70
     1
102
RTVSPropertyOp62
 70
     1
  0
XRECORD
  5
867A
102
{ACAD_REACTORS
330
8679
102
}
330
8679
100
AcDbXrecord
280
     1
102
RTVSPost2010Prop28
280
     0
102
RTVSPost2010PropOp28
 70
     1
102
RTVSPost2010Prop29
280
     1
102
RTVSPost2010PropOp29
 70
     1
102
RTVSPost2010Prop30
280
     1
102
RTVSPost2010PropOp30
 70
     1
102
RTVSPost2010Prop31
280
     0
102
RTVSPost2010PropOp31
 70
     1
102
RTVSPost2010Prop32
280
     0
102
RTVSPost2010PropOp32
 70
     1
102
RTVSPost2010Prop33
280
     0
102
RTVSPost2010PropOp33
 70
     1
102
RTVSPost2010Prop34
280
     0
102
RTVSPost2010PropOp34
 70
     1
102
RTVSPost2010Prop35
280
     0
102
RTVSPost2010PropOp35
 70
     1
102
RTVSPost2010Prop36
280
     0
102
RTVSPost2010PropOp36
 70
     1
102
RTVSPost2010Prop37
 90
       50
102
RTVSPost2010PropOp37
 70
     1
102
RTVSPost2010Prop38
140
0.0
102
RTVSPost2010PropOp38
 70
     1
102
RTVSPost2010Prop39
140
1.0
102
RTVSPost2010PropOp39
 70
     1
102
RTVSPost2010Prop40
 90
        0
102
RTVSPost2010PropOp40
 70
     1
102
RTVSPost2010Prop41ColorIndex
 90
       18
102
RTVSPost2010Prop41ColorRGB
 90
        0
102
RTVSPost2010PropOp41
 70
     1
102
RTVSPost2010Prop42
 90
       50
102
RTVSPost2010PropOp42
 70
     1
102
RTVSPost2010Prop43
 90
        3
102
RTVSPost2010PropOp43
 70
     1
102
RTVSPost2010Prop44ColorIndex
 90
        5
102
RTVSPost2010Prop44ColorRGB
 90
      255
102
RTVSPost2010PropOp44
 70
     1
102
RTVSPost2010Prop45
280
     0
102
RTVSPost2010PropOp45
 70
     1
102
RTVSPost2010Prop46
 90
       50
102
RTVSPost2010PropOp46
 70
     1
102
RTVSPost2010Prop47
 90
       50
102
RTVSPost2010PropOp47
 70
     1
102
RTVSPost2010Prop48
 90
       50
102
RTVSPost2010PropOp48
 70
     1
102
RTVSPost2010Prop49
280
     0
102
RTVSPost2010PropOp49
 70
     1
102
RTVSPost2010Prop50
 90
       50
102
RTVSPost2010PropOp50
 70
     1
102
RTVSPost2010Prop51ColorIndex
 90
      256
102
RTVSPost2010Prop51ColorRGB
 90
-16777216
102
RTVSPost2010PropOp51
 70
     0
102
RTVSPost2010Prop52
140
1.0
102
RTVSPost2010PropOp52
 70
     0
102
RTVSPost2010Prop53
 90
        2
102
RTVSPost2010PropOp53
 70
     1
102
RTVSPost2010Prop54
  1
strokes_ogs.tif
102
RTVSPost2010PropOp54
 70
     1
102
RTVSPost2010Prop55
280
     0
102
RTVSPost2010PropOp55
 70
     1
102
RTVSPost2010Prop56
140
1.0
102
RTVSPost2010PropOp56
 70
     1
102
RTVSPost2010Prop57
140
1.0
102
RTVSPost2010PropOp57
 70
     1
102
RTVSPropertyOp0
 70
     1
102
RTVSPropertyOp1
 70
     1
102
RTVSPropertyOp2
 70
     1
102
RTVSPropertyOp3
 70
     1
102
RTVSPropertyOp4
 70
     1
102
RTVSPropertyOp5
 70
     1
102
RTVSPropertyOp6
 70
     1
102
RTVSPropertyOp7
 70
     1
102
RTVSPropertyOp8
 70
     1
102
RTVSPropertyOp9
 70
     1
102
RTVSPropertyOp10
 70
     1
102
RTVSPropertyOp11
 70
     1
102
RTVSPropertyOp12
 70
     1
102
RTVSPropertyOp13
 70
     1
102
RTVSPropertyOp14
 70
     1
102
RTVSPropertyOp15
 70
     1
102
RTVSPropertyOp16
 70
     1
102
RTVSPropertyOp17
 70
     1
102
RTVSPropertyOp18
 70
     1
102
RTVSPropertyOp19
 70
     1
102
RTVSPropertyOp20
 70
     1
102
RTVSPropertyOp21
 70
     1
102
RTVSPropertyOp22
 70
     1
102
RTVSPropertyOp23
 70
     1
102
RTVSPropertyOp24
 70
     1
102
RTVSPropertyOp25
 70
     1
102
RTVSPropertyOp26
 70
     1
102
RTVSPropertyOp27
 70
     1
102
RTVSPropertyOp28
 70
     1
102
RTVSPropertyOp29
 70
     1
102
RTVSPropertyOp30
 70
     1
102
RTVSPropertyOp31
 70
     1
102
RTVSPropertyOp32
 70
     1
102
RTVSPropertyOp33
 70
     1
102
RTVSPropertyOp34
 70
     1
102
RTVSPropertyOp35
 70
     1
102
RTVSPropertyOp36
 70
     1
102
RTVSPropertyOp37
 70
     1
102
RTVSPropertyOp38
 70
     1
102
RTVSPropertyOp39
 70
     1
102
RTVSPropertyOp40
 70
     1
102
RTVSPropertyOp41
 70
     1
102
RTVSPropertyOp42
 70
     1
102
RTVSPropertyOp43
 70
     1
102
RTVSPropertyOp44
 70
     1
102
RTVSPropertyOp45
 70
     1
102
RTVSPropertyOp46
 70
     1
102
RTVSPropertyOp47
 70
     1
102
RTVSPropertyOp48
 70
     1
102
RTVSPropertyOp49
 70
     1
102
RTVSPropertyOp50
 70
     1
102
RTVSPropertyOp51
 70
     0
102
RTVSPropertyOp52
 70
     0
102
RTVSPropertyOp53
 70
     1
102
RTVSPropertyOp54
 70
     1
102
RTVSPropertyOp55
 70
     1
102
RTVSPropertyOp56
 70
     1
102
RTVSPropertyOp57
 70
     1
102
RTVSPropertyOp58
 70
     1
102
RTVSPropertyOp59
 70
     1
102
RTVSPropertyOp60
 70
     1
102
RTVSPropertyOp61
 70
     1
102
RTVSPropertyOp62
 70
     1
  0
XRECORD
  5
867E
102
{ACAD_REACTORS
330
867D
102
}
330
867D
100
AcDbXrecord
280
     1
102
RTVSPost2010Prop28
280
     0
102
RTVSPost2010PropOp28
 70
     1
102
RTVSPost2010Prop29
280
     1
102
RTVSPost2010PropOp29
 70
     1
102
RTVSPost2010Prop30
280
     1
102
RTVSPost2010PropOp30
 70
     1
102
RTVSPost2010Prop31
280
     0
102
RTVSPost2010PropOp31
 70
     1
102
RTVSPost2010Prop32
280
     0
102
RTVSPost2010PropOp32
 70
     1
102
RTVSPost2010Prop33
280
     0
102
RTVSPost2010PropOp33
 70
     1
102
RTVSPost2010Prop34
280
     0
102
RTVSPost2010PropOp34
 70
     1
102
RTVSPost2010Prop35
280
     0
102
RTVSPost2010PropOp35
 70
     1
102
RTVSPost2010Prop36
280
     0
102
RTVSPost2010PropOp36
 70
     1
102
RTVSPost2010Prop37
 90
       50
102
RTVSPost2010PropOp37
 70
     1
102
RTVSPost2010Prop38
140
0.0
102
RTVSPost2010PropOp38
 70
     1
102
RTVSPost2010Prop39
140
1.0
102
RTVSPost2010PropOp39
 70
     1
102
RTVSPost2010Prop40
 90
        0
102
RTVSPost2010PropOp40
 70
     1
102
RTVSPost2010Prop41ColorIndex
 90
       18
102
RTVSPost2010Prop41ColorRGB
 90
        0
102
RTVSPost2010PropOp41
 70
     1
102
RTVSPost2010Prop42
 90
       50
102
RTVSPost2010PropOp42
 70
     1
102
RTVSPost2010Prop43
 90
        3
102
RTVSPost2010PropOp43
 70
     1
102
RTVSPost2010Prop44ColorIndex
 90
        5
102
RTVSPost2010Prop44ColorRGB
 90
      255
102
RTVSPost2010PropOp44
 70
     1
102
RTVSPost2010Prop45
280
     0
102
RTVSPost2010PropOp45
 70
     1
102
RTVSPost2010Prop46
 90
       50
102
RTVSPost2010PropOp46
 70
     1
102
RTVSPost2010Prop47
 90
       50
102
RTVSPost2010PropOp47
 70
     1
102
RTVSPost2010Prop48
 90
       50
102
RTVSPost2010PropOp48
 70
     1
102
RTVSPost2010Prop49
280
     0
102
RTVSPost2010PropOp49
 70
     1
102
RTVSPost2010Prop50
 90
       50
102
RTVSPost2010PropOp50
 70
     1
102
RTVSPost2010Prop51ColorIndex
 90
      256
102
RTVSPost2010Prop51ColorRGB
 90
-16777216
102
RTVSPost2010PropOp51
 70
     0
102
RTVSPost2010Prop52
140
1.0
102
RTVSPost2010PropOp52
 70
     0
102
RTVSPost2010Prop53
 90
        2
102
RTVSPost2010PropOp53
 70
     1
102
RTVSPost2010Prop54
  1
strokes_ogs.tif
102
RTVSPost2010PropOp54
 70
     1
102
RTVSPost2010Prop55
280
     0
102
RTVSPost2010PropOp55
 70
     1
102
RTVSPost2010Prop56
140
1.0
102
RTVSPost2010PropOp56
 70
     1
102
RTVSPost2010Prop57
140
1.0
102
RTVSPost2010PropOp57
 70
     1
102
RTVSPropertyOp0
 70
     1
102
RTVSPropertyOp1
 70
     1
102
RTVSPropertyOp2
 70
     1
102
RTVSPropertyOp3
 70
     1
102
RTVSPropertyOp4
 70
     1
102
RTVSPropertyOp5
 70
     1
102
RTVSPropertyOp6
 70
     1
102
RTVSPropertyOp7
 70
     1
102
RTVSPropertyOp8
 70
     1
102
RTVSPropertyOp9
 70
     1
102
RTVSPropertyOp10
 70
     1
102
RTVSPropertyOp11
 70
     1
102
RTVSPropertyOp12
 70
     1
102
RTVSPropertyOp13
 70
     1
102
RTVSPropertyOp14
 70
     1
102
RTVSPropertyOp15
 70
     1
102
RTVSPropertyOp16
 70
     1
102
RTVSPropertyOp17
 70
     1
102
RTVSPropertyOp18
 70
     1
102
RTVSPropertyOp19
 70
     1
102
RTVSPropertyOp20
 70
     1
102
RTVSPropertyOp21
 70
     1
102
RTVSPropertyOp22
 70
     1
102
RTVSPropertyOp23
 70
     1
102
RTVSPropertyOp24
 70
     1
102
RTVSPropertyOp25
 70
     1
102
RTVSPropertyOp26
 70
     1
102
RTVSPropertyOp27
 70
     1
102
RTVSPropertyOp28
 70
     1
102
RTVSPropertyOp29
 70
     1
102
RTVSPropertyOp30
 70
     1
102
RTVSPropertyOp31
 70
     1
102
RTVSPropertyOp32
 70
     1
102
RTVSPropertyOp33
 70
     1
102
RTVSPropertyOp34
 70
     1
102
RTVSPropertyOp35
 70
     1
102
RTVSPropertyOp36
 70
     1
102
RTVSPropertyOp37
 70
     1
102
RTVSPropertyOp38
 70
     1
102
RTVSPropertyOp39
 70
     1
102
RTVSPropertyOp40
 70
     1
102
RTVSPropertyOp41
 70
     1
102
RTVSPropertyOp42
 70
     1
102
RTVSPropertyOp43
 70
     1
102
RTVSPropertyOp44
 70
     1
102
RTVSPropertyOp45
 70
     1
102
RTVSPropertyOp46
 70
     1
102
RTVSPropertyOp47
 70
     1
102
RTVSPropertyOp48
 70
     1
102
RTVSPropertyOp49
 70
     1
102
RTVSPropertyOp50
 70
     1
102
RTVSPropertyOp51
 70
     0
102
RTVSPropertyOp52
 70
     0
102
RTVSPropertyOp53
 70
     1
102
RTVSPropertyOp54
 70
     1
102
RTVSPropertyOp55
 70
     1
102
RTVSPropertyOp56
 70
     1
102
RTVSPropertyOp57
 70
     1
102
RTVSPropertyOp58
 70
     1
102
RTVSPropertyOp59
 70
     1
102
RTVSPropertyOp60
 70
     1
102
RTVSPropertyOp61
 70
     1
102
RTVSPropertyOp62
 70
     1
  0
XRECORD
  5
8698
102
{ACAD_REACTORS
330
8697
102
}
330
8697
100
AcDbXrecord
280
     1
102
RTVSPost2010Prop28
280
     0
102
RTVSPost2010PropOp28
 70
     1
102
RTVSPost2010Prop29
280
     1
102
RTVSPost2010PropOp29
 70
     1
102
RTVSPost2010Prop30
280
     1
102
RTVSPost2010PropOp30
 70
     1
102
RTVSPost2010Prop31
280
     0
102
RTVSPost2010PropOp31
 70
     1
102
RTVSPost2010Prop32
280
     0
102
RTVSPost2010PropOp32
 70
     1
102
RTVSPost2010Prop33
280
     0
102
RTVSPost2010PropOp33
 70
     1
102
RTVSPost2010Prop34
280
     0
102
RTVSPost2010PropOp34
 70
     1
102
RTVSPost2010Prop35
280
     0
102
RTVSPost2010PropOp35
 70
     1
102
RTVSPost2010Prop36
280
     0
102
RTVSPost2010PropOp36
 70
     1
102
RTVSPost2010Prop37
 90
       50
102
RTVSPost2010PropOp37
 70
     0
102
RTVSPost2010Prop38
140
0.0
102
RTVSPost2010PropOp38
 70
     0
102
RTVSPost2010Prop39
140
1.0
102
RTVSPost2010PropOp39
 70
     0
102
RTVSPost2010Prop40
 90
        0
102
RTVSPost2010PropOp40
 70
     0
102
RTVSPost2010Prop41ColorIndex
 90
       18
102
RTVSPost2010Prop41ColorRGB
 90
        0
102
RTVSPost2010PropOp41
 70
     0
102
RTVSPost2010Prop42
 90
       50
102
RTVSPost2010PropOp42
 70
     0
102
RTVSPost2010Prop43
 90
        3
102
RTVSPost2010PropOp43
 70
     0
102
RTVSPost2010Prop44ColorIndex
 90
        5
102
RTVSPost2010Prop44ColorRGB
 90
      255
102
RTVSPost2010PropOp44
 70
     0
102
RTVSPost2010Prop45
280
     0
102
RTVSPost2010PropOp45
 70
     1
102
RTVSPost2010Prop46
 90
       50
102
RTVSPost2010PropOp46
 70
     0
102
RTVSPost2010Prop47
 90
       50
102
RTVSPost2010PropOp47
 70
     0
102
RTVSPost2010Prop48
 90
       50
102
RTVSPost2010PropOp48
 70
     0
102
RTVSPost2010Prop49
280
     0
102
RTVSPost2010PropOp49
 70
     1
102
RTVSPost2010Prop50
 90
       50
102
RTVSPost2010PropOp50
 70
     0
102
RTVSPost2010Prop51ColorIndex
 90
      256
102
RTVSPost2010Prop51ColorRGB
 90
-16777216
102
RTVSPost2010PropOp51
 70
     0
102
RTVSPost2010Prop52
140
1.0
102
RTVSPost2010PropOp52
 70
     0
102
RTVSPost2010Prop53
 90
        2
102
RTVSPost2010PropOp53
 70
     0
102
RTVSPost2010Prop54
  1
strokes_ogs.tif
102
RTVSPost2010PropOp54
 70
     0
102
RTVSPost2010Prop55
280
     0
102
RTVSPost2010PropOp55
 70
     1
102
RTVSPost2010Prop56
140
1.0
102
RTVSPost2010PropOp56
 70
     0
102
RTVSPost2010Prop57
140
1.0
102
RTVSPost2010PropOp57
 70
     0
102
RTVSPropertyOp0
 70
     0
102
RTVSPropertyOp1
 70
     0
102
RTVSPropertyOp2
 70
     0
102
RTVSPropertyOp3
 70
     0
102
RTVSPropertyOp4
 70
     0
102
RTVSPropertyOp5
 70
     0
102
RTVSPropertyOp6
 70
     0
102
RTVSPropertyOp7
 70
     0
102
RTVSPropertyOp8
 70
     0
102
RTVSPropertyOp9
 70
     0
102
RTVSPropertyOp10
 70
     0
102
RTVSPropertyOp11
 70
     0
102
RTVSPropertyOp12
 70
     0
102
RTVSPropertyOp13
 70
     0
102
RTVSPropertyOp14
 70
     2
102
RTVSPropertyOp15
 70
     0
102
RTVSPropertyOp16
 70
     0
102
RTVSPropertyOp17
 70
     0
102
RTVSPropertyOp18
 70
     0
102
RTVSPropertyOp19
 70
     0
102
RTVSPropertyOp20
 70
     0
102
RTVSPropertyOp21
 70
     0
102
RTVSPropertyOp22
 70
     0
102
RTVSPropertyOp23
 70
     0
102
RTVSPropertyOp24
 70
     0
102
RTVSPropertyOp25
 70
     0
102
RTVSPropertyOp26
 70
     0
102
RTVSPropertyOp27
 70
     0
102
RTVSPropertyOp28
 70
     1
102
RTVSPropertyOp29
 70
     1
102
RTVSPropertyOp30
 70
     1
102
RTVSPropertyOp31
 70
     1
102
RTVSPropertyOp32
 70
     1
102
RTVSPropertyOp33
 70
     1
102
RTVSPropertyOp34
 70
     1
102
RTVSPropertyOp35
 70
     1
102
RTVSPropertyOp36
 70
     1
102
RTVSPropertyOp37
 70
     0
102
RTVSPropertyOp38
 70
     0
102
RTVSPropertyOp39
 70
     0
102
RTVSPropertyOp40
 70
     0
102
RTVSPropertyOp41
 70
     0
102
RTVSPropertyOp42
 70
     0
102
RTVSPropertyOp43
 70
     0
102
RTVSPropertyOp44
 70
     0
102
RTVSPropertyOp45
 70
     1
102
RTVSPropertyOp46
 70
     0
102
RTVSPropertyOp47
 70
     0
102
RTVSPropertyOp48
 70
     0
102
RTVSPropertyOp49
 70
     1
102
RTVSPropertyOp50
 70
     0
102
RTVSPropertyOp51
 70
     0
102
RTVSPropertyOp52
 70
     0
102
RTVSPropertyOp53
 70
     0
102
RTVSPropertyOp54
 70
     0
102
RTVSPropertyOp55
 70
     1
102
RTVSPropertyOp56
 70
     0
102
RTVSPropertyOp57
 70
     0
102
RTVSPropertyOp58
 70
     0
102
RTVSPropertyOp59
 70
     0
102
RTVSPropertyOp60
 70
     0
102
RTVSPropertyOp61
 70
     0
102
RTVSPropertyOp62
 70
     0
  0
XRECORD
  5
8686
102
{ACAD_REACTORS
330
8685
102
}
330
8685
100
AcDbXrecord
280
     1
102
RTVSPost2010Prop28
280
     0
102
RTVSPost2010PropOp28
 70
     1
102
RTVSPost2010Prop29
280
     1
102
RTVSPost2010PropOp29
 70
     1
102
RTVSPost2010Prop30
280
     1
102
RTVSPost2010PropOp30
 70
     1
102
RTVSPost2010Prop31
280
     0
102
RTVSPost2010PropOp31
 70
     1
102
RTVSPost2010Prop32
280
     0
102
RTVSPost2010PropOp32
 70
     1
102
RTVSPost2010Prop33
280
     0
102
RTVSPost2010PropOp33
 70
     1
102
RTVSPost2010Prop34
280
     0
102
RTVSPost2010PropOp34
 70
     1
102
RTVSPost2010Prop35
280
     0
102
RTVSPost2010PropOp35
 70
     1
102
RTVSPost2010Prop36
280
     0
102
RTVSPost2010PropOp36
 70
     1
102
RTVSPost2010Prop37
 90
       50
102
RTVSPost2010PropOp37
 70
     1
102
RTVSPost2010Prop38
140
0.0
102
RTVSPost2010PropOp38
 70
     1
102
RTVSPost2010Prop39
140
1.0
102
RTVSPost2010PropOp39
 70
     1
102
RTVSPost2010Prop40
 90
        0
102
RTVSPost2010PropOp40
 70
     1
102
RTVSPost2010Prop41ColorIndex
 90
       18
102
RTVSPost2010Prop41ColorRGB
 90
        0
102
RTVSPost2010PropOp41
 70
     1
102
RTVSPost2010Prop42
 90
       50
102
RTVSPost2010PropOp42
 70
     1
102
RTVSPost2010Prop43
 90
        3
102
RTVSPost2010PropOp43
 70
     1
102
RTVSPost2010Prop44ColorIndex
 90
        5
102
RTVSPost2010Prop44ColorRGB
 90
      255
102
RTVSPost2010PropOp44
 70
     1
102
RTVSPost2010Prop45
280
     0
102
RTVSPost2010PropOp45
 70
     1
102
RTVSPost2010Prop46
 90
       50
102
RTVSPost2010PropOp46
 70
     1
102
RTVSPost2010Prop47
 90
       50
102
RTVSPost2010PropOp47
 70
     1
102
RTVSPost2010Prop48
 90
       50
102
RTVSPost2010PropOp48
 70
     1
102
RTVSPost2010Prop49
280
     0
102
RTVSPost2010PropOp49
 70
     1
102
RTVSPost2010Prop50
 90
       50
102
RTVSPost2010PropOp50
 70
     1
102
RTVSPost2010Prop51ColorIndex
 90
      256
102
RTVSPost2010Prop51ColorRGB
 90
-16777216
102
RTVSPost2010PropOp51
 70
     0
102
RTVSPost2010Prop52
140
1.0
102
RTVSPost2010PropOp52
 70
     0
102
RTVSPost2010Prop53
 90
        2
102
RTVSPost2010PropOp53
 70
     1
102
RTVSPost2010Prop54
  1
strokes_ogs.tif
102
RTVSPost2010PropOp54
 70
     1
102
RTVSPost2010Prop55
280
     0
102
RTVSPost2010PropOp55
 70
     1
102
RTVSPost2010Prop56
140
1.0
102
RTVSPost2010PropOp56
 70
     1
102
RTVSPost2010Prop57
140
1.0
102
RTVSPost2010PropOp57
 70
     1
102
RTVSPropertyOp0
 70
     1
102
RTVSPropertyOp1
 70
     1
102
RTVSPropertyOp2
 70
     1
102
RTVSPropertyOp3
 70
     1
102
RTVSPropertyOp4
 70
     1
102
RTVSPropertyOp5
 70
     1
102
RTVSPropertyOp6
 70
     1
102
RTVSPropertyOp7
 70
     1
102
RTVSPropertyOp8
 70
     1
102
RTVSPropertyOp9
 70
     1
102
RTVSPropertyOp10
 70
     1
102
RTVSPropertyOp11
 70
     1
102
RTVSPropertyOp12
 70
     1
102
RTVSPropertyOp13
 70
     1
102
RTVSPropertyOp14
 70
     1
102
RTVSPropertyOp15
 70
     1
102
RTVSPropertyOp16
 70
     1
102
RTVSPropertyOp17
 70
     1
102
RTVSPropertyOp18
 70
     1
102
RTVSPropertyOp19
 70
     1
102
RTVSPropertyOp20
 70
     1
102
RTVSPropertyOp21
 70
     1
102
RTVSPropertyOp22
 70
     1
102
RTVSPropertyOp23
 70
     1
102
RTVSPropertyOp24
 70
     1
102
RTVSPropertyOp25
 70
     1
102
RTVSPropertyOp26
 70
     1
102
RTVSPropertyOp27
 70
     1
102
RTVSPropertyOp28
 70
     1
102
RTVSPropertyOp29
 70
     1
102
RTVSPropertyOp30
 70
     1
102
RTVSPropertyOp31
 70
     1
102
RTVSPropertyOp32
 70
     1
102
RTVSPropertyOp33
 70
     1
102
RTVSPropertyOp34
 70
     1
102
RTVSPropertyOp35
 70
     1
102
RTVSPropertyOp36
 70
     1
102
RTVSPropertyOp37
 70
     1
102
RTVSPropertyOp38
 70
     1
102
RTVSPropertyOp39
 70
     1
102
RTVSPropertyOp40
 70
     1
102
RTVSPropertyOp41
 70
     1
102
RTVSPropertyOp42
 70
     1
102
RTVSPropertyOp43
 70
     1
102
RTVSPropertyOp44
 70
     1
102
RTVSPropertyOp45
 70
     1
102
RTVSPropertyOp46
 70
     1
102
RTVSPropertyOp47
 70
     1
102
RTVSPropertyOp48
 70
     1
102
RTVSPropertyOp49
 70
     1
102
RTVSPropertyOp50
 70
     1
102
RTVSPropertyOp51
 70
     0
102
RTVSPropertyOp52
 70
     0
102
RTVSPropertyOp53
 70
     1
102
RTVSPropertyOp54
 70
     1
102
RTVSPropertyOp55
 70
     1
102
RTVSPropertyOp56
 70
     1
102
RTVSPropertyOp57
 70
     1
102
RTVSPropertyOp58
 70
     1
102
RTVSPropertyOp59
 70
     1
102
RTVSPropertyOp60
 70
     1
102
RTVSPropertyOp61
 70
     1
102
RTVSPropertyOp62
 70
     1
  0
XRECORD
  5
866A
102
{ACAD_REACTORS
330
8669
102
}
330
8669
100
AcDbXrecord
280
     1
102
RTVSPost2010Prop28
280
     0
102
RTVSPost2010PropOp28
 70
     1
102
RTVSPost2010Prop29
280
     1
102
RTVSPost2010PropOp29
 70
     1
102
RTVSPost2010Prop30
280
     1
102
RTVSPost2010PropOp30
 70
     1
102
RTVSPost2010Prop31
280
     0
102
RTVSPost2010PropOp31
 70
     1
102
RTVSPost2010Prop32
280
     0
102
RTVSPost2010PropOp32
 70
     1
102
RTVSPost2010Prop33
280
     0
102
RTVSPost2010PropOp33
 70
     1
102
RTVSPost2010Prop34
280
     0
102
RTVSPost2010PropOp34
 70
     1
102
RTVSPost2010Prop35
280
     0
102
RTVSPost2010PropOp35
 70
     1
102
RTVSPost2010Prop36
280
     0
102
RTVSPost2010PropOp36
 70
     1
102
RTVSPost2010Prop37
 90
       50
102
RTVSPost2010PropOp37
 70
     1
102
RTVSPost2010Prop38
140
0.0
102
RTVSPost2010PropOp38
 70
     1
102
RTVSPost2010Prop39
140
1.0
102
RTVSPost2010PropOp39
 70
     1
102
RTVSPost2010Prop40
 90
        0
102
RTVSPost2010PropOp40
 70
     1
102
RTVSPost2010Prop41ColorIndex
 90
       18
102
RTVSPost2010Prop41ColorRGB
 90
        0
102
RTVSPost2010PropOp41
 70
     1
102
RTVSPost2010Prop42
 90
       50
102
RTVSPost2010PropOp42
 70
     1
102
RTVSPost2010Prop43
 90
        3
102
RTVSPost2010PropOp43
 70
     1
102
RTVSPost2010Prop44ColorIndex
 90
        5
102
RTVSPost2010Prop44ColorRGB
 90
      255
102
RTVSPost2010PropOp44
 70
     1
102
RTVSPost2010Prop45
280
     0
102
RTVSPost2010PropOp45
 70
     1
102
RTVSPost2010Prop46
 90
       50
102
RTVSPost2010PropOp46
 70
     1
102
RTVSPost2010Prop47
 90
       50
102
RTVSPost2010PropOp47
 70
     1
102
RTVSPost2010Prop48
 90
       50
102
RTVSPost2010PropOp48
 70
     1
102
RTVSPost2010Prop49
280
     0
102
RTVSPost2010PropOp49
 70
     1
102
RTVSPost2010Prop50
 90
       50
102
RTVSPost2010PropOp50
 70
     1
102
RTVSPost2010Prop51ColorIndex
 90
      256
102
RTVSPost2010Prop51ColorRGB
 90
-16777216
102
RTVSPost2010PropOp51
 70
     0
102
RTVSPost2010Prop52
140
1.0
102
RTVSPost2010PropOp52
 70
     0
102
RTVSPost2010Prop53
 90
        2
102
RTVSPost2010PropOp53
 70
     1
102
RTVSPost2010Prop54
  1
strokes_ogs.tif
102
RTVSPost2010PropOp54
 70
     1
102
RTVSPost2010Prop55
280
     0
102
RTVSPost2010PropOp55
 70
     1
102
RTVSPost2010Prop56
140
1.0
102
RTVSPost2010PropOp56
 70
     1
102
RTVSPost2010Prop57
140
1.0
102
RTVSPost2010PropOp57
 70
     1
102
RTVSPropertyOp0
 70
     1
102
RTVSPropertyOp1
 70
     1
102
RTVSPropertyOp2
 70
     1
102
RTVSPropertyOp3
 70
     1
102
RTVSPropertyOp4
 70
     1
102
RTVSPropertyOp5
 70
     1
102
RTVSPropertyOp6
 70
     1
102
RTVSPropertyOp7
 70
     1
102
RTVSPropertyOp8
 70
     1
102
RTVSPropertyOp9
 70
     1
102
RTVSPropertyOp10
 70
     1
102
RTVSPropertyOp11
 70
     1
102
RTVSPropertyOp12
 70
     1
102
RTVSPropertyOp13
 70
     1
102
RTVSPropertyOp14
 70
     1
102
RTVSPropertyOp15
 70
     1
102
RTVSPropertyOp16
 70
     1
102
RTVSPropertyOp17
 70
     1
102
RTVSPropertyOp18
 70
     1
102
RTVSPropertyOp19
 70
     1
102
RTVSPropertyOp20
 70
     1
102
RTVSPropertyOp21
 70
     1
102
RTVSPropertyOp22
 70
     1
102
RTVSPropertyOp23
 70
     1
102
RTVSPropertyOp24
 70
     1
102
RTVSPropertyOp25
 70
     1
102
RTVSPropertyOp26
 70
     1
102
RTVSPropertyOp27
 70
     1
102
RTVSPropertyOp28
 70
     1
102
RTVSPropertyOp29
 70
     1
102
RTVSPropertyOp30
 70
     1
102
RTVSPropertyOp31
 70
     1
102
RTVSPropertyOp32
 70
     1
102
RTVSPropertyOp33
 70
     1
102
RTVSPropertyOp34
 70
     1
102
RTVSPropertyOp35
 70
     1
102
RTVSPropertyOp36
 70
     1
102
RTVSPropertyOp37
 70
     1
102
RTVSPropertyOp38
 70
     1
102
RTVSPropertyOp39
 70
     1
102
RTVSPropertyOp40
 70
     1
102
RTVSPropertyOp41
 70
     1
102
RTVSPropertyOp42
 70
     1
102
RTVSPropertyOp43
 70
     1
102
RTVSPropertyOp44
 70
     1
102
RTVSPropertyOp45
 70
     1
102
RTVSPropertyOp46
 70
     1
102
RTVSPropertyOp47
 70
     1
102
RTVSPropertyOp48
 70
     1
102
RTVSPropertyOp49
 70
     1
102
RTVSPropertyOp50
 70
     1
102
RTVSPropertyOp51
 70
     0
102
RTVSPropertyOp52
 70
     0
102
RTVSPropertyOp53
 70
     1
102
RTVSPropertyOp54
 70
     1
102
RTVSPropertyOp55
 70
     1
102
RTVSPropertyOp56
 70
     1
102
RTVSPropertyOp57
 70
     1
102
RTVSPropertyOp58
 70
     1
102
RTVSPropertyOp59
 70
     1
102
RTVSPropertyOp60
 70
     1
102
RTVSPropertyOp61
 70
     1
102
RTVSPropertyOp62
 70
     1
  0
XRECORD
  5
866C
102
{ACAD_REACTORS
330
866B
102
}
330
866B
100
AcDbXrecord
280
     1
102
RTVSPost2010Prop28
280
     0
102
RTVSPost2010PropOp28
 70
     1
102
RTVSPost2010Prop29
280
     1
102
RTVSPost2010PropOp29
 70
     1
102
RTVSPost2010Prop30
280
     1
102
RTVSPost2010PropOp30
 70
     1
102
RTVSPost2010Prop31
280
     0
102
RTVSPost2010PropOp31
 70
     1
102
RTVSPost2010Prop32
280
     0
102
RTVSPost2010PropOp32
 70
     1
102
RTVSPost2010Prop33
280
     0
102
RTVSPost2010PropOp33
 70
     1
102
RTVSPost2010Prop34
280
     0
102
RTVSPost2010PropOp34
 70
     1
102
RTVSPost2010Prop35
280
     0
102
RTVSPost2010PropOp35
 70
     1
102
RTVSPost2010Prop36
280
     0
102
RTVSPost2010PropOp36
 70
     1
102
RTVSPost2010Prop37
 90
       50
102
RTVSPost2010PropOp37
 70
     1
102
RTVSPost2010Prop38
140
0.0
102
RTVSPost2010PropOp38
 70
     1
102
RTVSPost2010Prop39
140
1.0
102
RTVSPost2010PropOp39
 70
     1
102
RTVSPost2010Prop40
 90
        0
102
RTVSPost2010PropOp40
 70
     1
102
RTVSPost2010Prop41ColorIndex
 90
       18
102
RTVSPost2010Prop41ColorRGB
 90
        0
102
RTVSPost2010PropOp41
 70
     1
102
RTVSPost2010Prop42
 90
       50
102
RTVSPost2010PropOp42
 70
     1
102
RTVSPost2010Prop43
 90
        3
102
RTVSPost2010PropOp43
 70
     1
102
RTVSPost2010Prop44ColorIndex
 90
        5
102
RTVSPost2010Prop44ColorRGB
 90
      255
102
RTVSPost2010PropOp44
 70
     1
102
RTVSPost2010Prop45
280
     0
102
RTVSPost2010PropOp45
 70
     1
102
RTVSPost2010Prop46
 90
       50
102
RTVSPost2010PropOp46
 70
     1
102
RTVSPost2010Prop47
 90
       50
102
RTVSPost2010PropOp47
 70
     1
102
RTVSPost2010Prop48
 90
       50
102
RTVSPost2010PropOp48
 70
     1
102
RTVSPost2010Prop49
280
     0
102
RTVSPost2010PropOp49
 70
     1
102
RTVSPost2010Prop50
 90
       50
102
RTVSPost2010PropOp50
 70
     1
102
RTVSPost2010Prop51ColorIndex
 90
      256
102
RTVSPost2010Prop51ColorRGB
 90
-16777216
102
RTVSPost2010PropOp51
 70
     0
102
RTVSPost2010Prop52
140
1.0
102
RTVSPost2010PropOp52
 70
     0
102
RTVSPost2010Prop53
 90
        2
102
RTVSPost2010PropOp53
 70
     1
102
RTVSPost2010Prop54
  1
strokes_ogs.tif
102
RTVSPost2010PropOp54
 70
     1
102
RTVSPost2010Prop55
280
     0
102
RTVSPost2010PropOp55
 70
     1
102
RTVSPost2010Prop56
140
1.0
102
RTVSPost2010PropOp56
 70
     1
102
RTVSPost2010Prop57
140
1.0
102
RTVSPost2010PropOp57
 70
     1
102
RTVSPropertyOp0
 70
     1
102
RTVSPropertyOp1
 70
     1
102
RTVSPropertyOp2
 70
     1
102
RTVSPropertyOp3
 70
     1
102
RTVSPropertyOp4
 70
     1
102
RTVSPropertyOp5
 70
     1
102
RTVSPropertyOp6
 70
     1
102
RTVSPropertyOp7
 70
     1
102
RTVSPropertyOp8
 70
     1
102
RTVSPropertyOp9
 70
     1
102
RTVSPropertyOp10
 70
     1
102
RTVSPropertyOp11
 70
     1
102
RTVSPropertyOp12
 70
     1
102
RTVSPropertyOp13
 70
     1
102
RTVSPropertyOp14
 70
     1
102
RTVSPropertyOp15
 70
     1
102
RTVSPropertyOp16
 70
     1
102
RTVSPropertyOp17
 70
     1
102
RTVSPropertyOp18
 70
     1
102
RTVSPropertyOp19
 70
     1
102
RTVSPropertyOp20
 70
     1
102
RTVSPropertyOp21
 70
     1
102
RTVSPropertyOp22
 70
     1
102
RTVSPropertyOp23
 70
     1
102
RTVSPropertyOp24
 70
     1
102
RTVSPropertyOp25
 70
     1
102
RTVSPropertyOp26
 70
     1
102
RTVSPropertyOp27
 70
     1
102
RTVSPropertyOp28
 70
     1
102
RTVSPropertyOp29
 70
     1
102
RTVSPropertyOp30
 70
     1
102
RTVSPropertyOp31
 70
     1
102
RTVSPropertyOp32
 70
     1
102
RTVSPropertyOp33
 70
     1
102
RTVSPropertyOp34
 70
     1
102
RTVSPropertyOp35
 70
     1
102
RTVSPropertyOp36
 70
     1
102
RTVSPropertyOp37
 70
     1
102
RTVSPropertyOp38
 70
     1
102
RTVSPropertyOp39
 70
     1
102
RTVSPropertyOp40
 70
     1
102
RTVSPropertyOp41
 70
     1
102
RTVSPropertyOp42
 70
     1
102
RTVSPropertyOp43
 70
     1
102
RTVSPropertyOp44
 70
     1
102
RTVSPropertyOp45
 70
     1
102
RTVSPropertyOp46
 70
     1
102
RTVSPropertyOp47
 70
     1
102
RTVSPropertyOp48
 70
     1
102
RTVSPropertyOp49
 70
     1
102
RTVSPropertyOp50
 70
     1
102
RTVSPropertyOp51
 70
     0
102
RTVSPropertyOp52
 70
     0
102
RTVSPropertyOp53
 70
     1
102
RTVSPropertyOp54
 70
     1
102
RTVSPropertyOp55
 70
     1
102
RTVSPropertyOp56
 70
     1
102
RTVSPropertyOp57
 70
     1
102
RTVSPropertyOp58
 70
     1
102
RTVSPropertyOp59
 70
     1
102
RTVSPropertyOp60
 70
     1
102
RTVSPropertyOp61
 70
     1
102
RTVSPropertyOp62
 70
     1
  0
XRECORD
  5
866E
102
{ACAD_REACTORS
330
866D
102
}
330
866D
100
AcDbXrecord
280
     1
102
RTVSPost2010Prop28
280
     0
102
RTVSPost2010PropOp28
 70
     1
102
RTVSPost2010Prop29
280
     1
102
RTVSPost2010PropOp29
 70
     1
102
RTVSPost2010Prop30
280
     1
102
RTVSPost2010PropOp30
 70
     1
102
RTVSPost2010Prop31
280
     0
102
RTVSPost2010PropOp31
 70
     1
102
RTVSPost2010Prop32
280
     0
102
RTVSPost2010PropOp32
 70
     1
102
RTVSPost2010Prop33
280
     0
102
RTVSPost2010PropOp33
 70
     1
102
RTVSPost2010Prop34
280
     0
102
RTVSPost2010PropOp34
 70
     1
102
RTVSPost2010Prop35
280
     0
102
RTVSPost2010PropOp35
 70
     1
102
RTVSPost2010Prop36
280
     0
102
RTVSPost2010PropOp36
 70
     1
102
RTVSPost2010Prop37
 90
       50
102
RTVSPost2010PropOp37
 70
     1
102
RTVSPost2010Prop38
140
0.0
102
RTVSPost2010PropOp38
 70
     1
102
RTVSPost2010Prop39
140
1.0
102
RTVSPost2010PropOp39
 70
     1
102
RTVSPost2010Prop40
 90
        0
102
RTVSPost2010PropOp40
 70
     1
102
RTVSPost2010Prop41ColorIndex
 90
       18
102
RTVSPost2010Prop41ColorRGB
 90
        0
102
RTVSPost2010PropOp41
 70
     1
102
RTVSPost2010Prop42
 90
       50
102
RTVSPost2010PropOp42
 70
     1
102
RTVSPost2010Prop43
 90
        3
102
RTVSPost2010PropOp43
 70
     1
102
RTVSPost2010Prop44ColorIndex
 90
        5
102
RTVSPost2010Prop44ColorRGB
 90
      255
102
RTVSPost2010PropOp44
 70
     1
102
RTVSPost2010Prop45
280
     0
102
RTVSPost2010PropOp45
 70
     1
102
RTVSPost2010Prop46
 90
       50
102
RTVSPost2010PropOp46
 70
     1
102
RTVSPost2010Prop47
 90
       50
102
RTVSPost2010PropOp47
 70
     1
102
RTVSPost2010Prop48
 90
       50
102
RTVSPost2010PropOp48
 70
     1
102
RTVSPost2010Prop49
280
     0
102
RTVSPost2010PropOp49
 70
     1
102
RTVSPost2010Prop50
 90
       50
102
RTVSPost2010PropOp50
 70
     1
102
RTVSPost2010Prop51ColorIndex
 90
      256
102
RTVSPost2010Prop51ColorRGB
 90
-16777216
102
RTVSPost2010PropOp51
 70
     0
102
RTVSPost2010Prop52
140
1.0
102
RTVSPost2010PropOp52
 70
     0
102
RTVSPost2010Prop53
 90
        2
102
RTVSPost2010PropOp53
 70
     1
102
RTVSPost2010Prop54
  1
strokes_ogs.tif
102
RTVSPost2010PropOp54
 70
     1
102
RTVSPost2010Prop55
280
     0
102
RTVSPost2010PropOp55
 70
     1
102
RTVSPost2010Prop56
140
1.0
102
RTVSPost2010PropOp56
 70
     1
102
RTVSPost2010Prop57
140
1.0
102
RTVSPost2010PropOp57
 70
     1
102
RTVSPropertyOp0
 70
     1
102
RTVSPropertyOp1
 70
     1
102
RTVSPropertyOp2
 70
     1
102
RTVSPropertyOp3
 70
     1
102
RTVSPropertyOp4
 70
     1
102
RTVSPropertyOp5
 70
     1
102
RTVSPropertyOp6
 70
     1
102
RTVSPropertyOp7
 70
     1
102
RTVSPropertyOp8
 70
     1
102
RTVSPropertyOp9
 70
     1
102
RTVSPropertyOp10
 70
     1
102
RTVSPropertyOp11
 70
     1
102
RTVSPropertyOp12
 70
     1
102
RTVSPropertyOp13
 70
     1
102
RTVSPropertyOp14
 70
     1
102
RTVSPropertyOp15
 70
     1
102
RTVSPropertyOp16
 70
     1
102
RTVSPropertyOp17
 70
     1
102
RTVSPropertyOp18
 70
     1
102
RTVSPropertyOp19
 70
     1
102
RTVSPropertyOp20
 70
     1
102
RTVSPropertyOp21
 70
     1
102
RTVSPropertyOp22
 70
     1
102
RTVSPropertyOp23
 70
     1
102
RTVSPropertyOp24
 70
     1
102
RTVSPropertyOp25
 70
     1
102
RTVSPropertyOp26
 70
     1
102
RTVSPropertyOp27
 70
     1
102
RTVSPropertyOp28
 70
     1
102
RTVSPropertyOp29
 70
     1
102
RTVSPropertyOp30
 70
     1
102
RTVSPropertyOp31
 70
     1
102
RTVSPropertyOp32
 70
     1
102
RTVSPropertyOp33
 70
     1
102
RTVSPropertyOp34
 70
     1
102
RTVSPropertyOp35
 70
     1
102
RTVSPropertyOp36
 70
     1
102
RTVSPropertyOp37
 70
     1
102
RTVSPropertyOp38
 70
     1
102
RTVSPropertyOp39
 70
     1
102
RTVSPropertyOp40
 70
     1
102
RTVSPropertyOp41
 70
     1
102
RTVSPropertyOp42
 70
     1
102
RTVSPropertyOp43
 70
     1
102
RTVSPropertyOp44
 70
     1
102
RTVSPropertyOp45
 70
     1
102
RTVSPropertyOp46
 70
     1
102
RTVSPropertyOp47
 70
     1
102
RTVSPropertyOp48
 70
     1
102
RTVSPropertyOp49
 70
     1
102
RTVSPropertyOp50
 70
     1
102
RTVSPropertyOp51
 70
     0
102
RTVSPropertyOp52
 70
     0
102
RTVSPropertyOp53
 70
     1
102
RTVSPropertyOp54
 70
     1
102
RTVSPropertyOp55
 70
     1
102
RTVSPropertyOp56
 70
     1
102
RTVSPropertyOp57
 70
     1
102
RTVSPropertyOp58
 70
     1
102
RTVSPropertyOp59
 70
     1
102
RTVSPropertyOp60
 70
     1
102
RTVSPropertyOp61
 70
     1
102
RTVSPropertyOp62
 70
     1
  0
XRECORD
  5
8670
102
{ACAD_REACTORS
330
866F
102
}
330
866F
100
AcDbXrecord
280
     1
102
RTVSPost2010Prop28
280
     0
102
RTVSPost2010PropOp28
 70
     1
102
RTVSPost2010Prop29
280
     1
102
RTVSPost2010PropOp29
 70
     1
102
RTVSPost2010Prop30
280
     1
102
RTVSPost2010PropOp30
 70
     1
102
RTVSPost2010Prop31
280
     0
102
RTVSPost2010PropOp31
 70
     1
102
RTVSPost2010Prop32
280
     0
102
RTVSPost2010PropOp32
 70
     1
102
RTVSPost2010Prop33
280
     0
102
RTVSPost2010PropOp33
 70
     1
102
RTVSPost2010Prop34
280
     0
102
RTVSPost2010PropOp34
 70
     1
102
RTVSPost2010Prop35
280
     0
102
RTVSPost2010PropOp35
 70
     1
102
RTVSPost2010Prop36
280
     0
102
RTVSPost2010PropOp36
 70
     1
102
RTVSPost2010Prop37
 90
       50
102
RTVSPost2010PropOp37
 70
     1
102
RTVSPost2010Prop38
140
0.0
102
RTVSPost2010PropOp38
 70
     1
102
RTVSPost2010Prop39
140
1.0
102
RTVSPost2010PropOp39
 70
     1
102
RTVSPost2010Prop40
 90
        0
102
RTVSPost2010PropOp40
 70
     1
102
RTVSPost2010Prop41ColorIndex
 90
       18
102
RTVSPost2010Prop41ColorRGB
 90
        0
102
RTVSPost2010PropOp41
 70
     1
102
RTVSPost2010Prop42
 90
       50
102
RTVSPost2010PropOp42
 70
     1
102
RTVSPost2010Prop43
 90
        3
102
RTVSPost2010PropOp43
 70
     1
102
RTVSPost2010Prop44ColorIndex
 90
        5
102
RTVSPost2010Prop44ColorRGB
 90
      255
102
RTVSPost2010PropOp44
 70
     1
102
RTVSPost2010Prop45
280
     0
102
RTVSPost2010PropOp45
 70
     1
102
RTVSPost2010Prop46
 90
       50
102
RTVSPost2010PropOp46
 70
     1
102
RTVSPost2010Prop47
 90
       50
102
RTVSPost2010PropOp47
 70
     1
102
RTVSPost2010Prop48
 90
       50
102
RTVSPost2010PropOp48
 70
     1
102
RTVSPost2010Prop49
280
     0
102
RTVSPost2010PropOp49
 70
     1
102
RTVSPost2010Prop50
 90
       50
102
RTVSPost2010PropOp50
 70
     1
102
RTVSPost2010Prop51ColorIndex
 90
      256
102
RTVSPost2010Prop51ColorRGB
 90
-16777216
102
RTVSPost2010PropOp51
 70
     0
102
RTVSPost2010Prop52
140
1.0
102
RTVSPost2010PropOp52
 70
     0
102
RTVSPost2010Prop53
 90
        2
102
RTVSPost2010PropOp53
 70
     1
102
RTVSPost2010Prop54
  1
strokes_ogs.tif
102
RTVSPost2010PropOp54
 70
     1
102
RTVSPost2010Prop55
280
     0
102
RTVSPost2010PropOp55
 70
     1
102
RTVSPost2010Prop56
140
1.0
102
RTVSPost2010PropOp56
 70
     1
102
RTVSPost2010Prop57
140
1.0
102
RTVSPost2010PropOp57
 70
     1
102
RTVSPropertyOp0
 70
     1
102
RTVSPropertyOp1
 70
     1
102
RTVSPropertyOp2
 70
     1
102
RTVSPropertyOp3
 70
     1
102
RTVSPropertyOp4
 70
     1
102
RTVSPropertyOp5
 70
     1
102
RTVSPropertyOp6
 70
     1
102
RTVSPropertyOp7
 70
     1
102
RTVSPropertyOp8
 70
     1
102
RTVSPropertyOp9
 70
     1
102
RTVSPropertyOp10
 70
     1
102
RTVSPropertyOp11
 70
     1
102
RTVSPropertyOp12
 70
     1
102
RTVSPropertyOp13
 70
     1
102
RTVSPropertyOp14
 70
     1
102
RTVSPropertyOp15
 70
     1
102
RTVSPropertyOp16
 70
     1
102
RTVSPropertyOp17
 70
     1
102
RTVSPropertyOp18
 70
     1
102
RTVSPropertyOp19
 70
     1
102
RTVSPropertyOp20
 70
     1
102
RTVSPropertyOp21
 70
     1
102
RTVSPropertyOp22
 70
     1
102
RTVSPropertyOp23
 70
     1
102
RTVSPropertyOp24
 70
     1
102
RTVSPropertyOp25
 70
     1
102
RTVSPropertyOp26
 70
     1
102
RTVSPropertyOp27
 70
     1
102
RTVSPropertyOp28
 70
     1
102
RTVSPropertyOp29
 70
     1
102
RTVSPropertyOp30
 70
     1
102
RTVSPropertyOp31
 70
     1
102
RTVSPropertyOp32
 70
     1
102
RTVSPropertyOp33
 70
     1
102
RTVSPropertyOp34
 70
     1
102
RTVSPropertyOp35
 70
     1
102
RTVSPropertyOp36
 70
     1
102
RTVSPropertyOp37
 70
     1
102
RTVSPropertyOp38
 70
     1
102
RTVSPropertyOp39
 70
     1
102
RTVSPropertyOp40
 70
     1
102
RTVSPropertyOp41
 70
     1
102
RTVSPropertyOp42
 70
     1
102
RTVSPropertyOp43
 70
     1
102
RTVSPropertyOp44
 70
     1
102
RTVSPropertyOp45
 70
     1
102
RTVSPropertyOp46
 70
     1
102
RTVSPropertyOp47
 70
     1
102
RTVSPropertyOp48
 70
     1
102
RTVSPropertyOp49
 70
     1
102
RTVSPropertyOp50
 70
     1
102
RTVSPropertyOp51
 70
     0
102
RTVSPropertyOp52
 70
     0
102
RTVSPropertyOp53
 70
     1
102
RTVSPropertyOp54
 70
     1
102
RTVSPropertyOp55
 70
     1
102
RTVSPropertyOp56
 70
     1
102
RTVSPropertyOp57
 70
     1
102
RTVSPropertyOp58
 70
     1
102
RTVSPropertyOp59
 70
     1
102
RTVSPropertyOp60
 70
     1
102
RTVSPropertyOp61
 70
     1
102
RTVSPropertyOp62
 70
     1
  0
XRECORD
  5
8678
102
{ACAD_REACTORS
330
8677
102
}
330
8677
100
AcDbXrecord
280
     1
102
RTVSPost2010Prop28
280
     0
102
RTVSPost2010PropOp28
 70
     1
102
RTVSPost2010Prop29
280
     1
102
RTVSPost2010PropOp29
 70
     1
102
RTVSPost2010Prop30
280
     1
102
RTVSPost2010PropOp30
 70
     1
102
RTVSPost2010Prop31
280
     0
102
RTVSPost2010PropOp31
 70
     1
102
RTVSPost2010Prop32
280
     0
102
RTVSPost2010PropOp32
 70
     1
102
RTVSPost2010Prop33
280
     0
102
RTVSPost2010PropOp33
 70
     1
102
RTVSPost2010Prop34
280
     0
102
RTVSPost2010PropOp34
 70
     1
102
RTVSPost2010Prop35
280
     0
102
RTVSPost2010PropOp35
 70
     1
102
RTVSPost2010Prop36
280
     0
102
RTVSPost2010PropOp36
 70
     1
102
RTVSPost2010Prop37
 90
       50
102
RTVSPost2010PropOp37
 70
     1
102
RTVSPost2010Prop38
140
0.0
102
RTVSPost2010PropOp38
 70
     1
102
RTVSPost2010Prop39
140
1.0
102
RTVSPost2010PropOp39
 70
     1
102
RTVSPost2010Prop40
 90
        0
102
RTVSPost2010PropOp40
 70
     1
102
RTVSPost2010Prop41ColorIndex
 90
       18
102
RTVSPost2010Prop41ColorRGB
 90
        0
102
RTVSPost2010PropOp41
 70
     1
102
RTVSPost2010Prop42
 90
       50
102
RTVSPost2010PropOp42
 70
     1
102
RTVSPost2010Prop43
 90
        3
102
RTVSPost2010PropOp43
 70
     1
102
RTVSPost2010Prop44ColorIndex
 90
        5
102
RTVSPost2010Prop44ColorRGB
 90
      255
102
RTVSPost2010PropOp44
 70
     1
102
RTVSPost2010Prop45
280
     0
102
RTVSPost2010PropOp45
 70
     1
102
RTVSPost2010Prop46
 90
       50
102
RTVSPost2010PropOp46
 70
     1
102
RTVSPost2010Prop47
 90
       50
102
RTVSPost2010PropOp47
 70
     1
102
RTVSPost2010Prop48
 90
       50
102
RTVSPost2010PropOp48
 70
     1
102
RTVSPost2010Prop49
280
     0
102
RTVSPost2010PropOp49
 70
     1
102
RTVSPost2010Prop50
 90
       50
102
RTVSPost2010PropOp50
 70
     1
102
RTVSPost2010Prop51ColorIndex
 90
      256
102
RTVSPost2010Prop51ColorRGB
 90
-16777216
102
RTVSPost2010PropOp51
 70
     0
102
RTVSPost2010Prop52
140
1.0
102
RTVSPost2010PropOp52
 70
     0
102
RTVSPost2010Prop53
 90
        2
102
RTVSPost2010PropOp53
 70
     1
102
RTVSPost2010Prop54
  1
strokes_ogs.tif
102
RTVSPost2010PropOp54
 70
     1
102
RTVSPost2010Prop55
280
     0
102
RTVSPost2010PropOp55
 70
     1
102
RTVSPost2010Prop56
140
1.0
102
RTVSPost2010PropOp56
 70
     1
102
RTVSPost2010Prop57
140
1.0
102
RTVSPost2010PropOp57
 70
     1
102
RTVSPropertyOp0
 70
     1
102
RTVSPropertyOp1
 70
     1
102
RTVSPropertyOp2
 70
     1
102
RTVSPropertyOp3
 70
     1
102
RTVSPropertyOp4
 70
     1
102
RTVSPropertyOp5
 70
     1
102
RTVSPropertyOp6
 70
     1
102
RTVSPropertyOp7
 70
     1
102
RTVSPropertyOp8
 70
     1
102
RTVSPropertyOp9
 70
     1
102
RTVSPropertyOp10
 70
     1
102
RTVSPropertyOp11
 70
     1
102
RTVSPropertyOp12
 70
     1
102
RTVSPropertyOp13
 70
     1
102
RTVSPropertyOp14
 70
     1
102
RTVSPropertyOp15
 70
     1
102
RTVSPropertyOp16
 70
     1
102
RTVSPropertyOp17
 70
     1
102
RTVSPropertyOp18
 70
     1
102
RTVSPropertyOp19
 70
     1
102
RTVSPropertyOp20
 70
     1
102
RTVSPropertyOp21
 70
     1
102
RTVSPropertyOp22
 70
     1
102
RTVSPropertyOp23
 70
     1
102
RTVSPropertyOp24
 70
     1
102
RTVSPropertyOp25
 70
     1
102
RTVSPropertyOp26
 70
     1
102
RTVSPropertyOp27
 70
     1
102
RTVSPropertyOp28
 70
     1
102
RTVSPropertyOp29
 70
     1
102
RTVSPropertyOp30
 70
     1
102
RTVSPropertyOp31
 70
     1
102
RTVSPropertyOp32
 70
     1
102
RTVSPropertyOp33
 70
     1
102
RTVSPropertyOp34
 70
     1
102
RTVSPropertyOp35
 70
     1
102
RTVSPropertyOp36
 70
     1
102
RTVSPropertyOp37
 70
     1
102
RTVSPropertyOp38
 70
     1
102
RTVSPropertyOp39
 70
     1
102
RTVSPropertyOp40
 70
     1
102
RTVSPropertyOp41
 70
     1
102
RTVSPropertyOp42
 70
     1
102
RTVSPropertyOp43
 70
     1
102
RTVSPropertyOp44
 70
     1
102
RTVSPropertyOp45
 70
     1
102
RTVSPropertyOp46
 70
     1
102
RTVSPropertyOp47
 70
     1
102
RTVSPropertyOp48
 70
     1
102
RTVSPropertyOp49
 70
     1
102
RTVSPropertyOp50
 70
     1
102
RTVSPropertyOp51
 70
     0
102
RTVSPropertyOp52
 70
     0
102
RTVSPropertyOp53
 70
     1
102
RTVSPropertyOp54
 70
     1
102
RTVSPropertyOp55
 70
     1
102
RTVSPropertyOp56
 70
     1
102
RTVSPropertyOp57
 70
     1
102
RTVSPropertyOp58
 70
     1
102
RTVSPropertyOp59
 70
     1
102
RTVSPropertyOp60
 70
     1
102
RTVSPropertyOp61
 70
     1
102
RTVSPropertyOp62
 70
     1
  0
XRECORD
  5
8694
102
{ACAD_REACTORS
330
8693
102
}
330
8693
100
AcDbXrecord
280
     1
102
RTVSPost2010Prop28
280
     0
102
RTVSPost2010PropOp28
 70
     1
102
RTVSPost2010Prop29
280
     1
102
RTVSPost2010PropOp29
 70
     1
102
RTVSPost2010Prop30
280
     1
102
RTVSPost2010PropOp30
 70
     1
102
RTVSPost2010Prop31
280
     0
102
RTVSPost2010PropOp31
 70
     1
102
RTVSPost2010Prop32
280
     0
102
RTVSPost2010PropOp32
 70
     1
102
RTVSPost2010Prop33
280
     0
102
RTVSPost2010PropOp33
 70
     1
102
RTVSPost2010Prop34
280
     0
102
RTVSPost2010PropOp34
 70
     1
102
RTVSPost2010Prop35
280
     0
102
RTVSPost2010PropOp35
 70
     1
102
RTVSPost2010Prop36
280
     0
102
RTVSPost2010PropOp36
 70
     1
102
RTVSPost2010Prop37
 90
       50
102
RTVSPost2010PropOp37
 70
     0
102
RTVSPost2010Prop38
140
0.0
102
RTVSPost2010PropOp38
 70
     0
102
RTVSPost2010Prop39
140
1.0
102
RTVSPost2010PropOp39
 70
     0
102
RTVSPost2010Prop40
 90
        0
102
RTVSPost2010PropOp40
 70
     0
102
RTVSPost2010Prop41ColorIndex
 90
       18
102
RTVSPost2010Prop41ColorRGB
 90
        0
102
RTVSPost2010PropOp41
 70
     0
102
RTVSPost2010Prop42
 90
       50
102
RTVSPost2010PropOp42
 70
     0
102
RTVSPost2010Prop43
 90
        3
102
RTVSPost2010PropOp43
 70
     0
102
RTVSPost2010Prop44ColorIndex
 90
        5
102
RTVSPost2010Prop44ColorRGB
 90
      255
102
RTVSPost2010PropOp44
 70
     0
102
RTVSPost2010Prop45
280
     0
102
RTVSPost2010PropOp45
 70
     1
102
RTVSPost2010Prop46
 90
       50
102
RTVSPost2010PropOp46
 70
     0
102
RTVSPost2010Prop47
 90
       50
102
RTVSPost2010PropOp47
 70
     0
102
RTVSPost2010Prop48
 90
       50
102
RTVSPost2010PropOp48
 70
     0
102
RTVSPost2010Prop49
280
     0
102
RTVSPost2010PropOp49
 70
     1
102
RTVSPost2010Prop50
 90
       50
102
RTVSPost2010PropOp50
 70
     0
102
RTVSPost2010Prop51ColorIndex
 90
      256
102
RTVSPost2010Prop51ColorRGB
 90
-16777216
102
RTVSPost2010PropOp51
 70
     0
102
RTVSPost2010Prop52
140
1.0
102
RTVSPost2010PropOp52
 70
     0
102
RTVSPost2010Prop53
 90
        2
102
RTVSPost2010PropOp53
 70
     0
102
RTVSPost2010Prop54
  1
strokes_ogs.tif
102
RTVSPost2010PropOp54
 70
     0
102
RTVSPost2010Prop55
280
     0
102
RTVSPost2010PropOp55
 70
     1
102
RTVSPost2010Prop56
140
1.0
102
RTVSPost2010PropOp56
 70
     0
102
RTVSPost2010Prop57
140
1.0
102
RTVSPost2010PropOp57
 70
     0
102
RTVSPropertyOp0
 70
     0
102
RTVSPropertyOp1
 70
     0
102
RTVSPropertyOp2
 70
     0
102
RTVSPropertyOp3
 70
     0
102
RTVSPropertyOp4
 70
     0
102
RTVSPropertyOp5
 70
     0
102
RTVSPropertyOp6
 70
     0
102
RTVSPropertyOp7
 70
     0
102
RTVSPropertyOp8
 70
     0
102
RTVSPropertyOp9
 70
     0
102
RTVSPropertyOp10
 70
     0
102
RTVSPropertyOp11
 70
     0
102
RTVSPropertyOp12
 70
     0
102
RTVSPropertyOp13
 70
     0
102
RTVSPropertyOp14
 70
     2
102
RTVSPropertyOp15
 70
     0
102
RTVSPropertyOp16
 70
     0
102
RTVSPropertyOp17
 70
     0
102
RTVSPropertyOp18
 70
     0
102
RTVSPropertyOp19
 70
     0
102
RTVSPropertyOp20
 70
     0
102
RTVSPropertyOp21
 70
     0
102
RTVSPropertyOp22
 70
     0
102
RTVSPropertyOp23
 70
     0
102
RTVSPropertyOp24
 70
     0
102
RTVSPropertyOp25
 70
     0
102
RTVSPropertyOp26
 70
     0
102
RTVSPropertyOp27
 70
     0
102
RTVSPropertyOp28
 70
     1
102
RTVSPropertyOp29
 70
     1
102
RTVSPropertyOp30
 70
     1
102
RTVSPropertyOp31
 70
     1
102
RTVSPropertyOp32
 70
     1
102
RTVSPropertyOp33
 70
     1
102
RTVSPropertyOp34
 70
     1
102
RTVSPropertyOp35
 70
     1
102
RTVSPropertyOp36
 70
     1
102
RTVSPropertyOp37
 70
     0
102
RTVSPropertyOp38
 70
     0
102
RTVSPropertyOp39
 70
     0
102
RTVSPropertyOp40
 70
     0
102
RTVSPropertyOp41
 70
     0
102
RTVSPropertyOp42
 70
     0
102
RTVSPropertyOp43
 70
     0
102
RTVSPropertyOp44
 70
     0
102
RTVSPropertyOp45
 70
     1
102
RTVSPropertyOp46
 70
     0
102
RTVSPropertyOp47
 70
     0
102
RTVSPropertyOp48
 70
     0
102
RTVSPropertyOp49
 70
     1
102
RTVSPropertyOp50
 70
     0
102
RTVSPropertyOp51
 70
     0
102
RTVSPropertyOp52
 70
     0
102
RTVSPropertyOp53
 70
     0
102
RTVSPropertyOp54
 70
     0
102
RTVSPropertyOp55
 70
     1
102
RTVSPropertyOp56
 70
     0
102
RTVSPropertyOp57
 70
     0
102
RTVSPropertyOp58
 70
     0
102
RTVSPropertyOp59
 70
     0
102
RTVSPropertyOp60
 70
     0
102
RTVSPropertyOp61
 70
     0
102
RTVSPropertyOp62
 70
     0
  0
XRECORD
  5
8684
102
{ACAD_REACTORS
330
8683
102
}
330
8683
100
AcDbXrecord
280
     1
102
RTVSPost2010Prop28
280
     0
102
RTVSPost2010PropOp28
 70
     1
102
RTVSPost2010Prop29
280
     1
102
RTVSPost2010PropOp29
 70
     1
102
RTVSPost2010Prop30
280
     1
102
RTVSPost2010PropOp30
 70
     1
102
RTVSPost2010Prop31
280
     0
102
RTVSPost2010PropOp31
 70
     1
102
RTVSPost2010Prop32
280
     0
102
RTVSPost2010PropOp32
 70
     1
102
RTVSPost2010Prop33
280
     0
102
RTVSPost2010PropOp33
 70
     1
102
RTVSPost2010Prop34
280
     0
102
RTVSPost2010PropOp34
 70
     1
102
RTVSPost2010Prop35
280
     0
102
RTVSPost2010PropOp35
 70
     1
102
RTVSPost2010Prop36
280
     0
102
RTVSPost2010PropOp36
 70
     1
102
RTVSPost2010Prop37
 90
       50
102
RTVSPost2010PropOp37
 70
     1
102
RTVSPost2010Prop38
140
0.0
102
RTVSPost2010PropOp38
 70
     1
102
RTVSPost2010Prop39
140
1.0
102
RTVSPost2010PropOp39
 70
     1
102
RTVSPost2010Prop40
 90
        0
102
RTVSPost2010PropOp40
 70
     1
102
RTVSPost2010Prop41ColorIndex
 90
       18
102
RTVSPost2010Prop41ColorRGB
 90
        0
102
RTVSPost2010PropOp41
 70
     1
102
RTVSPost2010Prop42
 90
       50
102
RTVSPost2010PropOp42
 70
     1
102
RTVSPost2010Prop43
 90
        3
102
RTVSPost2010PropOp43
 70
     1
102
RTVSPost2010Prop44ColorIndex
 90
        5
102
RTVSPost2010Prop44ColorRGB
 90
      255
102
RTVSPost2010PropOp44
 70
     1
102
RTVSPost2010Prop45
280
     0
102
RTVSPost2010PropOp45
 70
     1
102
RTVSPost2010Prop46
 90
       50
102
RTVSPost2010PropOp46
 70
     1
102
RTVSPost2010Prop47
 90
       50
102
RTVSPost2010PropOp47
 70
     1
102
RTVSPost2010Prop48
 90
       50
102
RTVSPost2010PropOp48
 70
     1
102
RTVSPost2010Prop49
280
     0
102
RTVSPost2010PropOp49
 70
     1
102
RTVSPost2010Prop50
 90
       50
102
RTVSPost2010PropOp50
 70
     1
102
RTVSPost2010Prop51ColorIndex
 90
      256
102
RTVSPost2010Prop51ColorRGB
 90
-16777216
102
RTVSPost2010PropOp51
 70
     0
102
RTVSPost2010Prop52
140
1.0
102
RTVSPost2010PropOp52
 70
     0
102
RTVSPost2010Prop53
 90
        2
102
RTVSPost2010PropOp53
 70
     1
102
RTVSPost2010Prop54
  1
strokes_ogs.tif
102
RTVSPost2010PropOp54
 70
     1
102
RTVSPost2010Prop55
280
     0
102
RTVSPost2010PropOp55
 70
     1
102
RTVSPost2010Prop56
140
1.0
102
RTVSPost2010PropOp56
 70
     1
102
RTVSPost2010Prop57
140
1.0
102
RTVSPost2010PropOp57
 70
     1
102
RTVSPropertyOp0
 70
     1
102
RTVSPropertyOp1
 70
     1
102
RTVSPropertyOp2
 70
     1
102
RTVSPropertyOp3
 70
     1
102
RTVSPropertyOp4
 70
     1
102
RTVSPropertyOp5
 70
     1
102
RTVSPropertyOp6
 70
     1
102
RTVSPropertyOp7
 70
     1
102
RTVSPropertyOp8
 70
     1
102
RTVSPropertyOp9
 70
     1
102
RTVSPropertyOp10
 70
     1
102
RTVSPropertyOp11
 70
     1
102
RTVSPropertyOp12
 70
     1
102
RTVSPropertyOp13
 70
     1
102
RTVSPropertyOp14
 70
     1
102
RTVSPropertyOp15
 70
     1
102
RTVSPropertyOp16
 70
     1
102
RTVSPropertyOp17
 70
     1
102
RTVSPropertyOp18
 70
     1
102
RTVSPropertyOp19
 70
     1
102
RTVSPropertyOp20
 70
     1
102
RTVSPropertyOp21
 70
     1
102
RTVSPropertyOp22
 70
     1
102
RTVSPropertyOp23
 70
     1
102
RTVSPropertyOp24
 70
     1
102
RTVSPropertyOp25
 70
     1
102
RTVSPropertyOp26
 70
     1
102
RTVSPropertyOp27
 70
     1
102
RTVSPropertyOp28
 70
     1
102
RTVSPropertyOp29
 70
     1
102
RTVSPropertyOp30
 70
     1
102
RTVSPropertyOp31
 70
     1
102
RTVSPropertyOp32
 70
     1
102
RTVSPropertyOp33
 70
     1
102
RTVSPropertyOp34
 70
     1
102
RTVSPropertyOp35
 70
     1
102
RTVSPropertyOp36
 70
     1
102
RTVSPropertyOp37
 70
     1
102
RTVSPropertyOp38
 70
     1
102
RTVSPropertyOp39
 70
     1
102
RTVSPropertyOp40
 70
     1
102
RTVSPropertyOp41
 70
     1
102
RTVSPropertyOp42
 70
     1
102
RTVSPropertyOp43
 70
     1
102
RTVSPropertyOp44
 70
     1
102
RTVSPropertyOp45
 70
     1
102
RTVSPropertyOp46
 70
     1
102
RTVSPropertyOp47
 70
     1
102
RTVSPropertyOp48
 70
     1
102
RTVSPropertyOp49
 70
     1
102
RTVSPropertyOp50
 70
     1
102
RTVSPropertyOp51
 70
     0
102
RTVSPropertyOp52
 70
     0
102
RTVSPropertyOp53
 70
     1
102
RTVSPropertyOp54
 70
     1
102
RTVSPropertyOp55
 70
     1
102
RTVSPropertyOp56
 70
     1
102
RTVSPropertyOp57
 70
     1
102
RTVSPropertyOp58
 70
     1
102
RTVSPropertyOp59
 70
     1
102
RTVSPropertyOp60
 70
     1
102
RTVSPropertyOp61
 70
     1
102
RTVSPropertyOp62
 70
     1
  0
XRECORD
  5
8696
102
{ACAD_REACTORS
330
8695
102
}
330
8695
100
AcDbXrecord
280
     1
102
RTVSPost2010Prop28
280
     0
102
RTVSPost2010PropOp28
 70
     1
102
RTVSPost2010Prop29
280
     1
102
RTVSPost2010PropOp29
 70
     1
102
RTVSPost2010Prop30
280
     1
102
RTVSPost2010PropOp30
 70
     1
102
RTVSPost2010Prop31
280
     0
102
RTVSPost2010PropOp31
 70
     1
102
RTVSPost2010Prop32
280
     0
102
RTVSPost2010PropOp32
 70
     1
102
RTVSPost2010Prop33
280
     0
102
RTVSPost2010PropOp33
 70
     1
102
RTVSPost2010Prop34
280
     0
102
RTVSPost2010PropOp34
 70
     1
102
RTVSPost2010Prop35
280
     0
102
RTVSPost2010PropOp35
 70
     1
102
RTVSPost2010Prop36
280
     0
102
RTVSPost2010PropOp36
 70
     1
102
RTVSPost2010Prop37
 90
       50
102
RTVSPost2010PropOp37
 70
     0
102
RTVSPost2010Prop38
140
0.0
102
RTVSPost2010PropOp38
 70
     0
102
RTVSPost2010Prop39
140
1.0
102
RTVSPost2010PropOp39
 70
     0
102
RTVSPost2010Prop40
 90
        0
102
RTVSPost2010PropOp40
 70
     0
102
RTVSPost2010Prop41ColorIndex
 90
       18
102
RTVSPost2010Prop41ColorRGB
 90
        0
102
RTVSPost2010PropOp41
 70
     0
102
RTVSPost2010Prop42
 90
       50
102
RTVSPost2010PropOp42
 70
     0
102
RTVSPost2010Prop43
 90
        3
102
RTVSPost2010PropOp43
 70
     0
102
RTVSPost2010Prop44ColorIndex
 90
        5
102
RTVSPost2010Prop44ColorRGB
 90
      255
102
RTVSPost2010PropOp44
 70
     0
102
RTVSPost2010Prop45
280
     0
102
RTVSPost2010PropOp45
 70
     1
102
RTVSPost2010Prop46
 90
       50
102
RTVSPost2010PropOp46
 70
     0
102
RTVSPost2010Prop47
 90
       50
102
RTVSPost2010PropOp47
 70
     0
102
RTVSPost2010Prop48
 90
       50
102
RTVSPost2010PropOp48
 70
     0
102
RTVSPost2010Prop49
280
     0
102
RTVSPost2010PropOp49
 70
     1
102
RTVSPost2010Prop50
 90
       50
102
RTVSPost2010PropOp50
 70
     0
102
RTVSPost2010Prop51ColorIndex
 90
      256
102
RTVSPost2010Prop51ColorRGB
 90
-16777216
102
RTVSPost2010PropOp51
 70
     0
102
RTVSPost2010Prop52
140
1.0
102
RTVSPost2010PropOp52
 70
     0
102
RTVSPost2010Prop53
 90
        2
102
RTVSPost2010PropOp53
 70
     0
102
RTVSPost2010Prop54
  1
strokes_ogs.tif
102
RTVSPost2010PropOp54
 70
     0
102
RTVSPost2010Prop55
280
     0
102
RTVSPost2010PropOp55
 70
     1
102
RTVSPost2010Prop56
140
1.0
102
RTVSPost2010PropOp56
 70
     0
102
RTVSPost2010Prop57
140
1.0
102
RTVSPost2010PropOp57
 70
     0
102
RTVSPropertyOp0
 70
     0
102
RTVSPropertyOp1
 70
     0
102
RTVSPropertyOp2
 70
     0
102
RTVSPropertyOp3
 70
     0
102
RTVSPropertyOp4
 70
     0
102
RTVSPropertyOp5
 70
     0
102
RTVSPropertyOp6
 70
     0
102
RTVSPropertyOp7
 70
     0
102
RTVSPropertyOp8
 70
     0
102
RTVSPropertyOp9
 70
     0
102
RTVSPropertyOp10
 70
     0
102
RTVSPropertyOp11
 70
     0
102
RTVSPropertyOp12
 70
     0
102
RTVSPropertyOp13
 70
     0
102
RTVSPropertyOp14
 70
     2
102
RTVSPropertyOp15
 70
     0
102
RTVSPropertyOp16
 70
     0
102
RTVSPropertyOp17
 70
     0
102
RTVSPropertyOp18
 70
     0
102
RTVSPropertyOp19
 70
     0
102
RTVSPropertyOp20
 70
     0
102
RTVSPropertyOp21
 70
     0
102
RTVSPropertyOp22
 70
     0
102
RTVSPropertyOp23
 70
     0
102
RTVSPropertyOp24
 70
     0
102
RTVSPropertyOp25
 70
     0
102
RTVSPropertyOp26
 70
     0
102
RTVSPropertyOp27
 70
     0
102
RTVSPropertyOp28
 70
     1
102
RTVSPropertyOp29
 70
     1
102
RTVSPropertyOp30
 70
     1
102
RTVSPropertyOp31
 70
     1
102
RTVSPropertyOp32
 70
     1
102
RTVSPropertyOp33
 70
     1
102
RTVSPropertyOp34
 70
     1
102
RTVSPropertyOp35
 70
     1
102
RTVSPropertyOp36
 70
     1
102
RTVSPropertyOp37
 70
     0
102
RTVSPropertyOp38
 70
     0
102
RTVSPropertyOp39
 70
     0
102
RTVSPropertyOp40
 70
     0
102
RTVSPropertyOp41
 70
     0
102
RTVSPropertyOp42
 70
     0
102
RTVSPropertyOp43
 70
     0
102
RTVSPropertyOp44
 70
     0
102
RTVSPropertyOp45
 70
     1
102
RTVSPropertyOp46
 70
     0
102
RTVSPropertyOp47
 70
     0
102
RTVSPropertyOp48
 70
     0
102
RTVSPropertyOp49
 70
     1
102
RTVSPropertyOp50
 70
     0
102
RTVSPropertyOp51
 70
     0
102
RTVSPropertyOp52
 70
     0
102
RTVSPropertyOp53
 70
     0
102
RTVSPropertyOp54
 70
     0
102
RTVSPropertyOp55
 70
     1
102
RTVSPropertyOp56
 70
     0
102
RTVSPropertyOp57
 70
     0
102
RTVSPropertyOp58
 70
     0
102
RTVSPropertyOp59
 70
     0
102
RTVSPropertyOp60
 70
     0
102
RTVSPropertyOp61
 70
     0
102
RTVSPropertyOp62
 70
     0
  0
XRECORD
  5
867C
102
{ACAD_REACTORS
330
867B
102
}
330
867B
100
AcDbXrecord
280
     1
102
RTVSPost2010Prop28
280
     0
102
RTVSPost2010PropOp28
 70
     1
102
RTVSPost2010Prop29
280
     1
102
RTVSPost2010PropOp29
 70
     1
102
RTVSPost2010Prop30
280
     1
102
RTVSPost2010PropOp30
 70
     1
102
RTVSPost2010Prop31
280
     0
102
RTVSPost2010PropOp31
 70
     1
102
RTVSPost2010Prop32
280
     0
102
RTVSPost2010PropOp32
 70
     1
102
RTVSPost2010Prop33
280
     0
102
RTVSPost2010PropOp33
 70
     1
102
RTVSPost2010Prop34
280
     0
102
RTVSPost2010PropOp34
 70
     1
102
RTVSPost2010Prop35
280
     0
102
RTVSPost2010PropOp35
 70
     1
102
RTVSPost2010Prop36
280
     0
102
RTVSPost2010PropOp36
 70
     1
102
RTVSPost2010Prop37
 90
       50
102
RTVSPost2010PropOp37
 70
     1
102
RTVSPost2010Prop38
140
0.0
102
RTVSPost2010PropOp38
 70
     1
102
RTVSPost2010Prop39
140
1.0
102
RTVSPost2010PropOp39
 70
     1
102
RTVSPost2010Prop40
 90
        0
102
RTVSPost2010PropOp40
 70
     1
102
RTVSPost2010Prop41ColorIndex
 90
       18
102
RTVSPost2010Prop41ColorRGB
 90
        0
102
RTVSPost2010PropOp41
 70
     1
102
RTVSPost2010Prop42
 90
       50
102
RTVSPost2010PropOp42
 70
     1
102
RTVSPost2010Prop43
 90
        3
102
RTVSPost2010PropOp43
 70
     1
102
RTVSPost2010Prop44ColorIndex
 90
        5
102
RTVSPost2010Prop44ColorRGB
 90
      255
102
RTVSPost2010PropOp44
 70
     1
102
RTVSPost2010Prop45
280
     0
102
RTVSPost2010PropOp45
 70
     1
102
RTVSPost2010Prop46
 90
       50
102
RTVSPost2010PropOp46
 70
     1
102
RTVSPost2010Prop47
 90
       50
102
RTVSPost2010PropOp47
 70
     1
102
RTVSPost2010Prop48
 90
       50
102
RTVSPost2010PropOp48
 70
     1
102
RTVSPost2010Prop49
280
     0
102
RTVSPost2010PropOp49
 70
     1
102
RTVSPost2010Prop50
 90
       50
102
RTVSPost2010PropOp50
 70
     1
102
RTVSPost2010Prop51ColorIndex
 90
      256
102
RTVSPost2010Prop51ColorRGB
 90
-16777216
102
RTVSPost2010PropOp51
 70
     0
102
RTVSPost2010Prop52
140
1.0
102
RTVSPost2010PropOp52
 70
     0
102
RTVSPost2010Prop53
 90
        2
102
RTVSPost2010PropOp53
 70
     1
102
RTVSPost2010Prop54
  1
strokes_ogs.tif
102
RTVSPost2010PropOp54
 70
     1
102
RTVSPost2010Prop55
280
     0
102
RTVSPost2010PropOp55
 70
     1
102
RTVSPost2010Prop56
140
1.0
102
RTVSPost2010PropOp56
 70
     1
102
RTVSPost2010Prop57
140
1.0
102
RTVSPost2010PropOp57
 70
     1
102
RTVSPropertyOp0
 70
     1
102
RTVSPropertyOp1
 70
     1
102
RTVSPropertyOp2
 70
     1
102
RTVSPropertyOp3
 70
     1
102
RTVSPropertyOp4
 70
     1
102
RTVSPropertyOp5
 70
     1
102
RTVSPropertyOp6
 70
     1
102
RTVSPropertyOp7
 70
     1
102
RTVSPropertyOp8
 70
     1
102
RTVSPropertyOp9
 70
     1
102
RTVSPropertyOp10
 70
     1
102
RTVSPropertyOp11
 70
     1
102
RTVSPropertyOp12
 70
     1
102
RTVSPropertyOp13
 70
     1
102
RTVSPropertyOp14
 70
     1
102
RTVSPropertyOp15
 70
     1
102
RTVSPropertyOp16
 70
     1
102
RTVSPropertyOp17
 70
     1
102
RTVSPropertyOp18
 70
     1
102
RTVSPropertyOp19
 70
     1
102
RTVSPropertyOp20
 70
     1
102
RTVSPropertyOp21
 70
     1
102
RTVSPropertyOp22
 70
     1
102
RTVSPropertyOp23
 70
     1
102
RTVSPropertyOp24
 70
     1
102
RTVSPropertyOp25
 70
     1
102
RTVSPropertyOp26
 70
     1
102
RTVSPropertyOp27
 70
     1
102
RTVSPropertyOp28
 70
     1
102
RTVSPropertyOp29
 70
     1
102
RTVSPropertyOp30
 70
     1
102
RTVSPropertyOp31
 70
     1
102
RTVSPropertyOp32
 70
     1
102
RTVSPropertyOp33
 70
     1
102
RTVSPropertyOp34
 70
     1
102
RTVSPropertyOp35
 70
     1
102
RTVSPropertyOp36
 70
     1
102
RTVSPropertyOp37
 70
     1
102
RTVSPropertyOp38
 70
     1
102
RTVSPropertyOp39
 70
     1
102
RTVSPropertyOp40
 70
     1
102
RTVSPropertyOp41
 70
     1
102
RTVSPropertyOp42
 70
     1
102
RTVSPropertyOp43
 70
     1
102
RTVSPropertyOp44
 70
     1
102
RTVSPropertyOp45
 70
     1
102
RTVSPropertyOp46
 70
     1
102
RTVSPropertyOp47
 70
     1
102
RTVSPropertyOp48
 70
     1
102
RTVSPropertyOp49
 70
     1
102
RTVSPropertyOp50
 70
     1
102
RTVSPropertyOp51
 70
     0
102
RTVSPropertyOp52
 70
     0
102
RTVSPropertyOp53
 70
     1
102
RTVSPropertyOp54
 70
     1
102
RTVSPropertyOp55
 70
     1
102
RTVSPropertyOp56
 70
     1
102
RTVSPropertyOp57
 70
     1
102
RTVSPropertyOp58
 70
     1
102
RTVSPropertyOp59
 70
     1
102
RTVSPropertyOp60
 70
     1
102
RTVSPropertyOp61
 70
     1
102
RTVSPropertyOp62
 70
     1
  0
XRECORD
  5
8692
102
{ACAD_REACTORS
330
8691
102
}
330
8691
100
AcDbXrecord
280
     1
102
RTVSPost2010Prop28
280
     0
102
RTVSPost2010PropOp28
 70
     1
102
RTVSPost2010Prop29
280
     1
102
RTVSPost2010PropOp29
 70
     1
102
RTVSPost2010Prop30
280
     1
102
RTVSPost2010PropOp30
 70
     1
102
RTVSPost2010Prop31
280
     0
102
RTVSPost2010PropOp31
 70
     1
102
RTVSPost2010Prop32
280
     0
102
RTVSPost2010PropOp32
 70
     1
102
RTVSPost2010Prop33
280
     0
102
RTVSPost2010PropOp33
 70
     1
102
RTVSPost2010Prop34
280
     0
102
RTVSPost2010PropOp34
 70
     1
102
RTVSPost2010Prop35
280
     0
102
RTVSPost2010PropOp35
 70
     1
102
RTVSPost2010Prop36
280
     0
102
RTVSPost2010PropOp36
 70
     1
102
RTVSPost2010Prop37
 90
       50
102
RTVSPost2010PropOp37
 70
     1
102
RTVSPost2010Prop38
140
0.0
102
RTVSPost2010PropOp38
 70
     1
102
RTVSPost2010Prop39
140
1.0
102
RTVSPost2010PropOp39
 70
     1
102
RTVSPost2010Prop40
 90
        0
102
RTVSPost2010PropOp40
 70
     1
102
RTVSPost2010Prop41ColorIndex
 90
       18
102
RTVSPost2010Prop41ColorRGB
 90
        0
102
RTVSPost2010PropOp41
 70
     1
102
RTVSPost2010Prop42
 90
       50
102
RTVSPost2010PropOp42
 70
     1
102
RTVSPost2010Prop43
 90
        3
102
RTVSPost2010PropOp43
 70
     1
102
RTVSPost2010Prop44ColorIndex
 90
        5
102
RTVSPost2010Prop44ColorRGB
 90
      255
102
RTVSPost2010PropOp44
 70
     1
102
RTVSPost2010Prop45
280
     0
102
RTVSPost2010PropOp45
 70
     1
102
RTVSPost2010Prop46
 90
       50
102
RTVSPost2010PropOp46
 70
     1
102
RTVSPost2010Prop47
 90
       50
102
RTVSPost2010PropOp47
 70
     1
102
RTVSPost2010Prop48
 90
       50
102
RTVSPost2010PropOp48
 70
     1
102
RTVSPost2010Prop49
280
     0
102
RTVSPost2010PropOp49
 70
     1
102
RTVSPost2010Prop50
 90
       50
102
RTVSPost2010PropOp50
 70
     1
102
RTVSPost2010Prop51ColorIndex
 90
      256
102
RTVSPost2010Prop51ColorRGB
 90
-16777216
102
RTVSPost2010PropOp51
 70
     0
102
RTVSPost2010Prop52
140
1.0
102
RTVSPost2010PropOp52
 70
     0
102
RTVSPost2010Prop53
 90
        2
102
RTVSPost2010PropOp53
 70
     1
102
RTVSPost2010Prop54
  1
strokes_ogs.tif
102
RTVSPost2010PropOp54
 70
     1
102
RTVSPost2010Prop55
280
     0
102
RTVSPost2010PropOp55
 70
     1
102
RTVSPost2010Prop56
140
1.0
102
RTVSPost2010PropOp56
 70
     1
102
RTVSPost2010Prop57
140
1.0
102
RTVSPost2010PropOp57
 70
     1
102
RTVSPropertyOp0
 70
     1
102
RTVSPropertyOp1
 70
     1
102
RTVSPropertyOp2
 70
     1
102
RTVSPropertyOp3
 70
     1
102
RTVSPropertyOp4
 70
     1
102
RTVSPropertyOp5
 70
     1
102
RTVSPropertyOp6
 70
     1
102
RTVSPropertyOp7
 70
     1
102
RTVSPropertyOp8
 70
     1
102
RTVSPropertyOp9
 70
     1
102
RTVSPropertyOp10
 70
     1
102
RTVSPropertyOp11
 70
     1
102
RTVSPropertyOp12
 70
     1
102
RTVSPropertyOp13
 70
     1
102
RTVSPropertyOp14
 70
     1
102
RTVSPropertyOp15
 70
     1
102
RTVSPropertyOp16
 70
     1
102
RTVSPropertyOp17
 70
     1
102
RTVSPropertyOp18
 70
     1
102
RTVSPropertyOp19
 70
     1
102
RTVSPropertyOp20
 70
     1
102
RTVSPropertyOp21
 70
     1
102
RTVSPropertyOp22
 70
     1
102
RTVSPropertyOp23
 70
     1
102
RTVSPropertyOp24
 70
     1
102
RTVSPropertyOp25
 70
     1
102
RTVSPropertyOp26
 70
     1
102
RTVSPropertyOp27
 70
     1
102
RTVSPropertyOp28
 70
     1
102
RTVSPropertyOp29
 70
     1
102
RTVSPropertyOp30
 70
     1
102
RTVSPropertyOp31
 70
     1
102
RTVSPropertyOp32
 70
     1
102
RTVSPropertyOp33
 70
     1
102
RTVSPropertyOp34
 70
     1
102
RTVSPropertyOp35
 70
     1
102
RTVSPropertyOp36
 70
     1
102
RTVSPropertyOp37
 70
     1
102
RTVSPropertyOp38
 70
     1
102
RTVSPropertyOp39
 70
     1
102
RTVSPropertyOp40
 70
     1
102
RTVSPropertyOp41
 70
     1
102
RTVSPropertyOp42
 70
     1
102
RTVSPropertyOp43
 70
     1
102
RTVSPropertyOp44
 70
     1
102
RTVSPropertyOp45
 70
     1
102
RTVSPropertyOp46
 70
     1
102
RTVSPropertyOp47
 70
     1
102
RTVSPropertyOp48
 70
     1
102
RTVSPropertyOp49
 70
     1
102
RTVSPropertyOp50
 70
     1
102
RTVSPropertyOp51
 70
     0
102
RTVSPropertyOp52
 70
     0
102
RTVSPropertyOp53
 70
     1
102
RTVSPropertyOp54
 70
     1
102
RTVSPropertyOp55
 70
     1
102
RTVSPropertyOp56
 70
     1
102
RTVSPropertyOp57
 70
     1
102
RTVSPropertyOp58
 70
     1
102
RTVSPropertyOp59
 70
     1
102
RTVSPropertyOp60
 70
     1
102
RTVSPropertyOp61
 70
     1
102
RTVSPropertyOp62
 70
     1
  0
XRECORD
  5
8690
102
{ACAD_REACTORS
330
868F
102
}
330
868F
100
AcDbXrecord
280
     1
102
RTVSPost2010Prop28
280
     0
102
RTVSPost2010PropOp28
 70
     1
102
RTVSPost2010Prop29
280
     1
102
RTVSPost2010PropOp29
 70
     1
102
RTVSPost2010Prop30
280
     1
102
RTVSPost2010PropOp30
 70
     1
102
RTVSPost2010Prop31
280
     0
102
RTVSPost2010PropOp31
 70
     1
102
RTVSPost2010Prop32
280
     0
102
RTVSPost2010PropOp32
 70
     1
102
RTVSPost2010Prop33
280
     0
102
RTVSPost2010PropOp33
 70
     1
102
RTVSPost2010Prop34
280
     0
102
RTVSPost2010PropOp34
 70
     1
102
RTVSPost2010Prop35
280
     0
102
RTVSPost2010PropOp35
 70
     1
102
RTVSPost2010Prop36
280
     0
102
RTVSPost2010PropOp36
 70
     1
102
RTVSPost2010Prop37
 90
       50
102
RTVSPost2010PropOp37
 70
     1
102
RTVSPost2010Prop38
140
0.0
102
RTVSPost2010PropOp38
 70
     1
102
RTVSPost2010Prop39
140
1.0
102
RTVSPost2010PropOp39
 70
     1
102
RTVSPost2010Prop40
 90
        0
102
RTVSPost2010PropOp40
 70
     1
102
RTVSPost2010Prop41ColorIndex
 90
       18
102
RTVSPost2010Prop41ColorRGB
 90
        0
102
RTVSPost2010PropOp41
 70
     1
102
RTVSPost2010Prop42
 90
       50
102
RTVSPost2010PropOp42
 70
     1
102
RTVSPost2010Prop43
 90
        3
102
RTVSPost2010PropOp43
 70
     1
102
RTVSPost2010Prop44ColorIndex
 90
        5
102
RTVSPost2010Prop44ColorRGB
 90
      255
102
RTVSPost2010PropOp44
 70
     1
102
RTVSPost2010Prop45
280
     0
102
RTVSPost2010PropOp45
 70
     1
102
RTVSPost2010Prop46
 90
       50
102
RTVSPost2010PropOp46
 70
     1
102
RTVSPost2010Prop47
 90
       50
102
RTVSPost2010PropOp47
 70
     1
102
RTVSPost2010Prop48
 90
       50
102
RTVSPost2010PropOp48
 70
     1
102
RTVSPost2010Prop49
280
     0
102
RTVSPost2010PropOp49
 70
     1
102
RTVSPost2010Prop50
 90
       50
102
RTVSPost2010PropOp50
 70
     1
102
RTVSPost2010Prop51ColorIndex
 90
      256
102
RTVSPost2010Prop51ColorRGB
 90
-16777216
102
RTVSPost2010PropOp51
 70
     0
102
RTVSPost2010Prop52
140
1.0
102
RTVSPost2010PropOp52
 70
     0
102
RTVSPost2010Prop53
 90
        2
102
RTVSPost2010PropOp53
 70
     1
102
RTVSPost2010Prop54
  1
strokes_ogs.tif
102
RTVSPost2010PropOp54
 70
     1
102
RTVSPost2010Prop55
280
     0
102
RTVSPost2010PropOp55
 70
     1
102
RTVSPost2010Prop56
140
1.0
102
RTVSPost2010PropOp56
 70
     1
102
RTVSPost2010Prop57
140
1.0
102
RTVSPost2010PropOp57
 70
     1
102
RTVSPropertyOp0
 70
     1
102
RTVSPropertyOp1
 70
     1
102
RTVSPropertyOp2
 70
     1
102
RTVSPropertyOp3
 70
     1
102
RTVSPropertyOp4
 70
     1
102
RTVSPropertyOp5
 70
     1
102
RTVSPropertyOp6
 70
     1
102
RTVSPropertyOp7
 70
     1
102
RTVSPropertyOp8
 70
     1
102
RTVSPropertyOp9
 70
     1
102
RTVSPropertyOp10
 70
     1
102
RTVSPropertyOp11
 70
     1
102
RTVSPropertyOp12
 70
     1
102
RTVSPropertyOp13
 70
     1
102
RTVSPropertyOp14
 70
     1
102
RTVSPropertyOp15
 70
     1
102
RTVSPropertyOp16
 70
     1
102
RTVSPropertyOp17
 70
     1
102
RTVSPropertyOp18
 70
     1
102
RTVSPropertyOp19
 70
     1
102
RTVSPropertyOp20
 70
     1
102
RTVSPropertyOp21
 70
     1
102
RTVSPropertyOp22
 70
     1
102
RTVSPropertyOp23
 70
     1
102
RTVSPropertyOp24
 70
     1
102
RTVSPropertyOp25
 70
     1
102
RTVSPropertyOp26
 70
     1
102
RTVSPropertyOp27
 70
     1
102
RTVSPropertyOp28
 70
     1
102
RTVSPropertyOp29
 70
     1
102
RTVSPropertyOp30
 70
     1
102
RTVSPropertyOp31
 70
     1
102
RTVSPropertyOp32
 70
     1
102
RTVSPropertyOp33
 70
     1
102
RTVSPropertyOp34
 70
     1
102
RTVSPropertyOp35
 70
     1
102
RTVSPropertyOp36
 70
     1
102
RTVSPropertyOp37
 70
     1
102
RTVSPropertyOp38
 70
     1
102
RTVSPropertyOp39
 70
     1
102
RTVSPropertyOp40
 70
     1
102
RTVSPropertyOp41
 70
     1
102
RTVSPropertyOp42
 70
     1
102
RTVSPropertyOp43
 70
     1
102
RTVSPropertyOp44
 70
     1
102
RTVSPropertyOp45
 70
     1
102
RTVSPropertyOp46
 70
     1
102
RTVSPropertyOp47
 70
     1
102
RTVSPropertyOp48
 70
     1
102
RTVSPropertyOp49
 70
     1
102
RTVSPropertyOp50
 70
     1
102
RTVSPropertyOp51
 70
     0
102
RTVSPropertyOp52
 70
     0
102
RTVSPropertyOp53
 70
     1
102
RTVSPropertyOp54
 70
     1
102
RTVSPropertyOp55
 70
     1
102
RTVSPropertyOp56
 70
     1
102
RTVSPropertyOp57
 70
     1
102
RTVSPropertyOp58
 70
     1
102
RTVSPropertyOp59
 70
     1
102
RTVSPropertyOp60
 70
     1
102
RTVSPropertyOp61
 70
     1
102
RTVSPropertyOp62
 70
     1
  0
XRECORD
  5
868A
102
{ACAD_REACTORS
330
8689
102
}
330
8689
100
AcDbXrecord
280
     1
102
RTVSPost2010Prop28
280
     0
102
RTVSPost2010PropOp28
 70
     1
102
RTVSPost2010Prop29
280
     1
102
RTVSPost2010PropOp29
 70
     1
102
RTVSPost2010Prop30
280
     1
102
RTVSPost2010PropOp30
 70
     1
102
RTVSPost2010Prop31
280
     0
102
RTVSPost2010PropOp31
 70
     1
102
RTVSPost2010Prop32
280
     0
102
RTVSPost2010PropOp32
 70
     1
102
RTVSPost2010Prop33
280
     0
102
RTVSPost2010PropOp33
 70
     1
102
RTVSPost2010Prop34
280
     0
102
RTVSPost2010PropOp34
 70
     1
102
RTVSPost2010Prop35
280
     0
102
RTVSPost2010PropOp35
 70
     1
102
RTVSPost2010Prop36
280
     0
102
RTVSPost2010PropOp36
 70
     1
102
RTVSPost2010Prop37
 90
       50
102
RTVSPost2010PropOp37
 70
     1
102
RTVSPost2010Prop38
140
0.0
102
RTVSPost2010PropOp38
 70
     1
102
RTVSPost2010Prop39
140
1.0
102
RTVSPost2010PropOp39
 70
     1
102
RTVSPost2010Prop40
 90
        0
102
RTVSPost2010PropOp40
 70
     1
102
RTVSPost2010Prop41ColorIndex
 90
       18
102
RTVSPost2010Prop41ColorRGB
 90
        0
102
RTVSPost2010PropOp41
 70
     1
102
RTVSPost2010Prop42
 90
       50
102
RTVSPost2010PropOp42
 70
     1
102
RTVSPost2010Prop43
 90
        3
102
RTVSPost2010PropOp43
 70
     1
102
RTVSPost2010Prop44ColorIndex
 90
        5
102
RTVSPost2010Prop44ColorRGB
 90
      255
102
RTVSPost2010PropOp44
 70
     1
102
RTVSPost2010Prop45
280
     0
102
RTVSPost2010PropOp45
 70
     1
102
RTVSPost2010Prop46
 90
       50
102
RTVSPost2010PropOp46
 70
     1
102
RTVSPost2010Prop47
 90
       50
102
RTVSPost2010PropOp47
 70
     1
102
RTVSPost2010Prop48
 90
       50
102
RTVSPost2010PropOp48
 70
     1
102
RTVSPost2010Prop49
280
     0
102
RTVSPost2010PropOp49
 70
     1
102
RTVSPost2010Prop50
 90
       50
102
RTVSPost2010PropOp50
 70
     1
102
RTVSPost2010Prop51ColorIndex
 90
      256
102
RTVSPost2010Prop51ColorRGB
 90
-16777216
102
RTVSPost2010PropOp51
 70
     0
102
RTVSPost2010Prop52
140
1.0
102
RTVSPost2010PropOp52
 70
     0
102
RTVSPost2010Prop53
 90
        2
102
RTVSPost2010PropOp53
 70
     1
102
RTVSPost2010Prop54
  1
strokes_ogs.tif
102
RTVSPost2010PropOp54
 70
     1
102
RTVSPost2010Prop55
280
     0
102
RTVSPost2010PropOp55
 70
     1
102
RTVSPost2010Prop56
140
1.0
102
RTVSPost2010PropOp56
 70
     1
102
RTVSPost2010Prop57
140
1.0
102
RTVSPost2010PropOp57
 70
     1
102
RTVSPropertyOp0
 70
     1
102
RTVSPropertyOp1
 70
     1
102
RTVSPropertyOp2
 70
     1
102
RTVSPropertyOp3
 70
     1
102
RTVSPropertyOp4
 70
     1
102
RTVSPropertyOp5
 70
     1
102
RTVSPropertyOp6
 70
     1
102
RTVSPropertyOp7
 70
     1
102
RTVSPropertyOp8
 70
     1
102
RTVSPropertyOp9
 70
     1
102
RTVSPropertyOp10
 70
     1
102
RTVSPropertyOp11
 70
     1
102
RTVSPropertyOp12
 70
     1
102
RTVSPropertyOp13
 70
     1
102
RTVSPropertyOp14
 70
     1
102
RTVSPropertyOp15
 70
     1
102
RTVSPropertyOp16
 70
     1
102
RTVSPropertyOp17
 70
     1
102
RTVSPropertyOp18
 70
     1
102
RTVSPropertyOp19
 70
     1
102
RTVSPropertyOp20
 70
     1
102
RTVSPropertyOp21
 70
     1
102
RTVSPropertyOp22
 70
     1
102
RTVSPropertyOp23
 70
     1
102
RTVSPropertyOp24
 70
     1
102
RTVSPropertyOp25
 70
     1
102
RTVSPropertyOp26
 70
     1
102
RTVSPropertyOp27
 70
     1
102
RTVSPropertyOp28
 70
     1
102
RTVSPropertyOp29
 70
     1
102
RTVSPropertyOp30
 70
     1
102
RTVSPropertyOp31
 70
     1
102
RTVSPropertyOp32
 70
     1
102
RTVSPropertyOp33
 70
     1
102
RTVSPropertyOp34
 70
     1
102
RTVSPropertyOp35
 70
     1
102
RTVSPropertyOp36
 70
     1
102
RTVSPropertyOp37
 70
     1
102
RTVSPropertyOp38
 70
     1
102
RTVSPropertyOp39
 70
     1
102
RTVSPropertyOp40
 70
     1
102
RTVSPropertyOp41
 70
     1
102
RTVSPropertyOp42
 70
     1
102
RTVSPropertyOp43
 70
     1
102
RTVSPropertyOp44
 70
     1
102
RTVSPropertyOp45
 70
     1
102
RTVSPropertyOp46
 70
     1
102
RTVSPropertyOp47
 70
     1
102
RTVSPropertyOp48
 70
     1
102
RTVSPropertyOp49
 70
     1
102
RTVSPropertyOp50
 70
     1
102
RTVSPropertyOp51
 70
     0
102
RTVSPropertyOp52
 70
     0
102
RTVSPropertyOp53
 70
     1
102
RTVSPropertyOp54
 70
     1
102
RTVSPropertyOp55
 70
     1
102
RTVSPropertyOp56
 70
     1
102
RTVSPropertyOp57
 70
     1
102
RTVSPropertyOp58
 70
     1
102
RTVSPropertyOp59
 70
     1
102
RTVSPropertyOp60
 70
     1
102
RTVSPropertyOp61
 70
     1
102
RTVSPropertyOp62
 70
     1
  0
XRECORD
  5
868C
102
{ACAD_REACTORS
330
868B
102
}
330
868B
100
AcDbXrecord
280
     1
102
RTVSPost2010Prop28
280
     0
102
RTVSPost2010PropOp28
 70
     1
102
RTVSPost2010Prop29
280
     1
102
RTVSPost2010PropOp29
 70
     1
102
RTVSPost2010Prop30
280
     1
102
RTVSPost2010PropOp30
 70
     1
102
RTVSPost2010Prop31
280
     0
102
RTVSPost2010PropOp31
 70
     1
102
RTVSPost2010Prop32
280
     0
102
RTVSPost2010PropOp32
 70
     1
102
RTVSPost2010Prop33
280
     0
102
RTVSPost2010PropOp33
 70
     1
102
RTVSPost2010Prop34
280
     0
102
RTVSPost2010PropOp34
 70
     1
102
RTVSPost2010Prop35
280
     0
102
RTVSPost2010PropOp35
 70
     1
102
RTVSPost2010Prop36
280
     0
102
RTVSPost2010PropOp36
 70
     1
102
RTVSPost2010Prop37
 90
       50
102
RTVSPost2010PropOp37
 70
     1
102
RTVSPost2010Prop38
140
0.0
102
RTVSPost2010PropOp38
 70
     1
102
RTVSPost2010Prop39
140
1.0
102
RTVSPost2010PropOp39
 70
     1
102
RTVSPost2010Prop40
 90
        0
102
RTVSPost2010PropOp40
 70
     1
102
RTVSPost2010Prop41ColorIndex
 90
       18
102
RTVSPost2010Prop41ColorRGB
 90
        0
102
RTVSPost2010PropOp41
 70
     1
102
RTVSPost2010Prop42
 90
       50
102
RTVSPost2010PropOp42
 70
     1
102
RTVSPost2010Prop43
 90
        3
102
RTVSPost2010PropOp43
 70
     1
102
RTVSPost2010Prop44ColorIndex
 90
        5
102
RTVSPost2010Prop44ColorRGB
 90
      255
102
RTVSPost2010PropOp44
 70
     1
102
RTVSPost2010Prop45
280
     0
102
RTVSPost2010PropOp45
 70
     1
102
RTVSPost2010Prop46
 90
       50
102
RTVSPost2010PropOp46
 70
     1
102
RTVSPost2010Prop47
 90
       50
102
RTVSPost2010PropOp47
 70
     1
102
RTVSPost2010Prop48
 90
       50
102
RTVSPost2010PropOp48
 70
     1
102
RTVSPost2010Prop49
280
     0
102
RTVSPost2010PropOp49
 70
     1
102
RTVSPost2010Prop50
 90
       50
102
RTVSPost2010PropOp50
 70
     1
102
RTVSPost2010Prop51ColorIndex
 90
      256
102
RTVSPost2010Prop51ColorRGB
 90
-16777216
102
RTVSPost2010PropOp51
 70
     0
102
RTVSPost2010Prop52
140
1.0
102
RTVSPost2010PropOp52
 70
     0
102
RTVSPost2010Prop53
 90
        2
102
RTVSPost2010PropOp53
 70
     1
102
RTVSPost2010Prop54
  1
strokes_ogs.tif
102
RTVSPost2010PropOp54
 70
     1
102
RTVSPost2010Prop55
280
     0
102
RTVSPost2010PropOp55
 70
     1
102
RTVSPost2010Prop56
140
1.0
102
RTVSPost2010PropOp56
 70
     1
102
RTVSPost2010Prop57
140
1.0
102
RTVSPost2010PropOp57
 70
     1
102
RTVSPropertyOp0
 70
     1
102
RTVSPropertyOp1
 70
     1
102
RTVSPropertyOp2
 70
     1
102
RTVSPropertyOp3
 70
     1
102
RTVSPropertyOp4
 70
     1
102
RTVSPropertyOp5
 70
     1
102
RTVSPropertyOp6
 70
     1
102
RTVSPropertyOp7
 70
     1
102
RTVSPropertyOp8
 70
     1
102
RTVSPropertyOp9
 70
     1
102
RTVSPropertyOp10
 70
     1
102
RTVSPropertyOp11
 70
     1
102
RTVSPropertyOp12
 70
     1
102
RTVSPropertyOp13
 70
     1
102
RTVSPropertyOp14
 70
     1
102
RTVSPropertyOp15
 70
     1
102
RTVSPropertyOp16
 70
     1
102
RTVSPropertyOp17
 70
     1
102
RTVSPropertyOp18
 70
     1
102
RTVSPropertyOp19
 70
     1
102
RTVSPropertyOp20
 70
     1
102
RTVSPropertyOp21
 70
     1
102
RTVSPropertyOp22
 70
     1
102
RTVSPropertyOp23
 70
     1
102
RTVSPropertyOp24
 70
     1
102
RTVSPropertyOp25
 70
     1
102
RTVSPropertyOp26
 70
     1
102
RTVSPropertyOp27
 70
     1
102
RTVSPropertyOp28
 70
     1
102
RTVSPropertyOp29
 70
     1
102
RTVSPropertyOp30
 70
     1
102
RTVSPropertyOp31
 70
     1
102
RTVSPropertyOp32
 70
     1
102
RTVSPropertyOp33
 70
     1
102
RTVSPropertyOp34
 70
     1
102
RTVSPropertyOp35
 70
     1
102
RTVSPropertyOp36
 70
     1
102
RTVSPropertyOp37
 70
     1
102
RTVSPropertyOp38
 70
     1
102
RTVSPropertyOp39
 70
     1
102
RTVSPropertyOp40
 70
     1
102
RTVSPropertyOp41
 70
     1
102
RTVSPropertyOp42
 70
     1
102
RTVSPropertyOp43
 70
     1
102
RTVSPropertyOp44
 70
     1
102
RTVSPropertyOp45
 70
     1
102
RTVSPropertyOp46
 70
     1
102
RTVSPropertyOp47
 70
     1
102
RTVSPropertyOp48
 70
     1
102
RTVSPropertyOp49
 70
     1
102
RTVSPropertyOp50
 70
     1
102
RTVSPropertyOp51
 70
     0
102
RTVSPropertyOp52
 70
     0
102
RTVSPropertyOp53
 70
     1
102
RTVSPropertyOp54
 70
     1
102
RTVSPropertyOp55
 70
     1
102
RTVSPropertyOp56
 70
     1
102
RTVSPropertyOp57
 70
     1
102
RTVSPropertyOp58
 70
     1
102
RTVSPropertyOp59
 70
     1
102
RTVSPropertyOp60
 70
     1
102
RTVSPropertyOp61
 70
     1
102
RTVSPropertyOp62
 70
     1
  0
XRECORD
  5
8682
102
{ACAD_REACTORS
330
8681
102
}
330
8681
100
AcDbXrecord
280
     1
102
RTVSPost2010Prop28
280
     0
102
RTVSPost2010PropOp28
 70
     1
102
RTVSPost2010Prop29
280
     1
102
RTVSPost2010PropOp29
 70
     1
102
RTVSPost2010Prop30
280
     1
102
RTVSPost2010PropOp30
 70
     1
102
RTVSPost2010Prop31
280
     0
102
RTVSPost2010PropOp31
 70
     1
102
RTVSPost2010Prop32
280
     0
102
RTVSPost2010PropOp32
 70
     1
102
RTVSPost2010Prop33
280
     0
102
RTVSPost2010PropOp33
 70
     1
102
RTVSPost2010Prop34
280
     0
102
RTVSPost2010PropOp34
 70
     1
102
RTVSPost2010Prop35
280
     0
102
RTVSPost2010PropOp35
 70
     1
102
RTVSPost2010Prop36
280
     0
102
RTVSPost2010PropOp36
 70
     1
102
RTVSPost2010Prop37
 90
       50
102
RTVSPost2010PropOp37
 70
     1
102
RTVSPost2010Prop38
140
0.0
102
RTVSPost2010PropOp38
 70
     1
102
RTVSPost2010Prop39
140
1.0
102
RTVSPost2010PropOp39
 70
     1
102
RTVSPost2010Prop40
 90
        0
102
RTVSPost2010PropOp40
 70
     1
102
RTVSPost2010Prop41ColorIndex
 90
       18
102
RTVSPost2010Prop41ColorRGB
 90
        0
102
RTVSPost2010PropOp41
 70
     1
102
RTVSPost2010Prop42
 90
       50
102
RTVSPost2010PropOp42
 70
     1
102
RTVSPost2010Prop43
 90
        3
102
RTVSPost2010PropOp43
 70
     1
102
RTVSPost2010Prop44ColorIndex
 90
        5
102
RTVSPost2010Prop44ColorRGB
 90
      255
102
RTVSPost2010PropOp44
 70
     1
102
RTVSPost2010Prop45
280
     0
102
RTVSPost2010PropOp45
 70
     1
102
RTVSPost2010Prop46
 90
       50
102
RTVSPost2010PropOp46
 70
     1
102
RTVSPost2010Prop47
 90
       50
102
RTVSPost2010PropOp47
 70
     1
102
RTVSPost2010Prop48
 90
       50
102
RTVSPost2010PropOp48
 70
     1
102
RTVSPost2010Prop49
280
     0
102
RTVSPost2010PropOp49
 70
     1
102
RTVSPost2010Prop50
 90
       50
102
RTVSPost2010PropOp50
 70
     1
102
RTVSPost2010Prop51ColorIndex
 90
      256
102
RTVSPost2010Prop51ColorRGB
 90
-16777216
102
RTVSPost2010PropOp51
 70
     0
102
RTVSPost2010Prop52
140
1.0
102
RTVSPost2010PropOp52
 70
     0
102
RTVSPost2010Prop53
 90
        2
102
RTVSPost2010PropOp53
 70
     1
102
RTVSPost2010Prop54
  1
strokes_ogs.tif
102
RTVSPost2010PropOp54
 70
     1
102
RTVSPost2010Prop55
280
     0
102
RTVSPost2010PropOp55
 70
     1
102
RTVSPost2010Prop56
140
1.0
102
RTVSPost2010PropOp56
 70
     1
102
RTVSPost2010Prop57
140
1.0
102
RTVSPost2010PropOp57
 70
     1
102
RTVSPropertyOp0
 70
     1
102
RTVSPropertyOp1
 70
     1
102
RTVSPropertyOp2
 70
     1
102
RTVSPropertyOp3
 70
     1
102
RTVSPropertyOp4
 70
     1
102
RTVSPropertyOp5
 70
     1
102
RTVSPropertyOp6
 70
     1
102
RTVSPropertyOp7
 70
     1
102
RTVSPropertyOp8
 70
     1
102
RTVSPropertyOp9
 70
     1
102
RTVSPropertyOp10
 70
     1
102
RTVSPropertyOp11
 70
     1
102
RTVSPropertyOp12
 70
     1
102
RTVSPropertyOp13
 70
     1
102
RTVSPropertyOp14
 70
     1
102
RTVSPropertyOp15
 70
     1
102
RTVSPropertyOp16
 70
     1
102
RTVSPropertyOp17
 70
     1
102
RTVSPropertyOp18
 70
     1
102
RTVSPropertyOp19
 70
     1
102
RTVSPropertyOp20
 70
     1
102
RTVSPropertyOp21
 70
     1
102
RTVSPropertyOp22
 70
     1
102
RTVSPropertyOp23
 70
     1
102
RTVSPropertyOp24
 70
     1
102
RTVSPropertyOp25
 70
     1
102
RTVSPropertyOp26
 70
     1
102
RTVSPropertyOp27
 70
     1
102
RTVSPropertyOp28
 70
     1
102
RTVSPropertyOp29
 70
     1
102
RTVSPropertyOp30
 70
     1
102
RTVSPropertyOp31
 70
     1
102
RTVSPropertyOp32
 70
     1
102
RTVSPropertyOp33
 70
     1
102
RTVSPropertyOp34
 70
     1
102
RTVSPropertyOp35
 70
     1
102
RTVSPropertyOp36
 70
     1
102
RTVSPropertyOp37
 70
     1
102
RTVSPropertyOp38
 70
     1
102
RTVSPropertyOp39
 70
     1
102
RTVSPropertyOp40
 70
     1
102
RTVSPropertyOp41
 70
     1
102
RTVSPropertyOp42
 70
     1
102
RTVSPropertyOp43
 70
     1
102
RTVSPropertyOp44
 70
     1
102
RTVSPropertyOp45
 70
     1
102
RTVSPropertyOp46
 70
     1
102
RTVSPropertyOp47
 70
     1
102
RTVSPropertyOp48
 70
     1
102
RTVSPropertyOp49
 70
     1
102
RTVSPropertyOp50
 70
     1
102
RTVSPropertyOp51
 70
     0
102
RTVSPropertyOp52
 70
     0
102
RTVSPropertyOp53
 70
     1
102
RTVSPropertyOp54
 70
     1
102
RTVSPropertyOp55
 70
     1
102
RTVSPropertyOp56
 70
     1
102
RTVSPropertyOp57
 70
     1
102
RTVSPropertyOp58
 70
     1
102
RTVSPropertyOp59
 70
     1
102
RTVSPropertyOp60
 70
     1
102
RTVSPropertyOp61
 70
     1
102
RTVSPropertyOp62
 70
     1
  0
XRECORD
  5
8676
102
{ACAD_REACTORS
330
8675
102
}
330
8675
100
AcDbXrecord
280
     1
102
RTVSPost2010Prop28
280
     0
102
RTVSPost2010PropOp28
 70
     1
102
RTVSPost2010Prop29
280
     1
102
RTVSPost2010PropOp29
 70
     1
102
RTVSPost2010Prop30
280
     1
102
RTVSPost2010PropOp30
 70
     1
102
RTVSPost2010Prop31
280
     0
102
RTVSPost2010PropOp31
 70
     1
102
RTVSPost2010Prop32
280
     0
102
RTVSPost2010PropOp32
 70
     1
102
RTVSPost2010Prop33
280
     0
102
RTVSPost2010PropOp33
 70
     1
102
RTVSPost2010Prop34
280
     0
102
RTVSPost2010PropOp34
 70
     1
102
RTVSPost2010Prop35
280
     0
102
RTVSPost2010PropOp35
 70
     1
102
RTVSPost2010Prop36
280
     0
102
RTVSPost2010PropOp36
 70
     1
102
RTVSPost2010Prop37
 90
       50
102
RTVSPost2010PropOp37
 70
     1
102
RTVSPost2010Prop38
140
0.0
102
RTVSPost2010PropOp38
 70
     1
102
RTVSPost2010Prop39
140
1.0
102
RTVSPost2010PropOp39
 70
     1
102
RTVSPost2010Prop40
 90
        0
102
RTVSPost2010PropOp40
 70
     1
102
RTVSPost2010Prop41ColorIndex
 90
       18
102
RTVSPost2010Prop41ColorRGB
 90
        0
102
RTVSPost2010PropOp41
 70
     1
102
RTVSPost2010Prop42
 90
       50
102
RTVSPost2010PropOp42
 70
     1
102
RTVSPost2010Prop43
 90
        3
102
RTVSPost2010PropOp43
 70
     1
102
RTVSPost2010Prop44ColorIndex
 90
        5
102
RTVSPost2010Prop44ColorRGB
 90
      255
102
RTVSPost2010PropOp44
 70
     1
102
RTVSPost2010Prop45
280
     0
102
RTVSPost2010PropOp45
 70
     1
102
RTVSPost2010Prop46
 90
       50
102
RTVSPost2010PropOp46
 70
     1
102
RTVSPost2010Prop47
 90
       50
102
RTVSPost2010PropOp47
 70
     1
102
RTVSPost2010Prop48
 90
       50
102
RTVSPost2010PropOp48
 70
     1
102
RTVSPost2010Prop49
280
     0
102
RTVSPost2010PropOp49
 70
     1
102
RTVSPost2010Prop50
 90
       50
102
RTVSPost2010PropOp50
 70
     1
102
RTVSPost2010Prop51ColorIndex
 90
      256
102
RTVSPost2010Prop51ColorRGB
 90
-16777216
102
RTVSPost2010PropOp51
 70
     0
102
RTVSPost2010Prop52
140
1.0
102
RTVSPost2010PropOp52
 70
     0
102
RTVSPost2010Prop53
 90
        2
102
RTVSPost2010PropOp53
 70
     1
102
RTVSPost2010Prop54
  1
strokes_ogs.tif
102
RTVSPost2010PropOp54
 70
     1
102
RTVSPost2010Prop55
280
     0
102
RTVSPost2010PropOp55
 70
     1
102
RTVSPost2010Prop56
140
1.0
102
RTVSPost2010PropOp56
 70
     1
102
RTVSPost2010Prop57
140
1.0
102
RTVSPost2010PropOp57
 70
     1
102
RTVSPropertyOp0
 70
     1
102
RTVSPropertyOp1
 70
     1
102
RTVSPropertyOp2
 70
     1
102
RTVSPropertyOp3
 70
     1
102
RTVSPropertyOp4
 70
     1
102
RTVSPropertyOp5
 70
     1
102
RTVSPropertyOp6
 70
     1
102
RTVSPropertyOp7
 70
     1
102
RTVSPropertyOp8
 70
     1
102
RTVSPropertyOp9
 70
     1
102
RTVSPropertyOp10
 70
     1
102
RTVSPropertyOp11
 70
     1
102
RTVSPropertyOp12
 70
     1
102
RTVSPropertyOp13
 70
     1
102
RTVSPropertyOp14
 70
     1
102
RTVSPropertyOp15
 70
     1
102
RTVSPropertyOp16
 70
     1
102
RTVSPropertyOp17
 70
     1
102
RTVSPropertyOp18
 70
     1
102
RTVSPropertyOp19
 70
     1
102
RTVSPropertyOp20
 70
     1
102
RTVSPropertyOp21
 70
     1
102
RTVSPropertyOp22
 70
     1
102
RTVSPropertyOp23
 70
     1
102
RTVSPropertyOp24
 70
     1
102
RTVSPropertyOp25
 70
     1
102
RTVSPropertyOp26
 70
     1
102
RTVSPropertyOp27
 70
     1
102
RTVSPropertyOp28
 70
     1
102
RTVSPropertyOp29
 70
     1
102
RTVSPropertyOp30
 70
     1
102
RTVSPropertyOp31
 70
     1
102
RTVSPropertyOp32
 70
     1
102
RTVSPropertyOp33
 70
     1
102
RTVSPropertyOp34
 70
     1
102
RTVSPropertyOp35
 70
     1
102
RTVSPropertyOp36
 70
     1
102
RTVSPropertyOp37
 70
     1
102
RTVSPropertyOp38
 70
     1
102
RTVSPropertyOp39
 70
     1
102
RTVSPropertyOp40
 70
     1
102
RTVSPropertyOp41
 70
     1
102
RTVSPropertyOp42
 70
     1
102
RTVSPropertyOp43
 70
     1
102
RTVSPropertyOp44
 70
     1
102
RTVSPropertyOp45
 70
     1
102
RTVSPropertyOp46
 70
     1
102
RTVSPropertyOp47
 70
     1
102
RTVSPropertyOp48
 70
     1
102
RTVSPropertyOp49
 70
     1
102
RTVSPropertyOp50
 70
     1
102
RTVSPropertyOp51
 70
     0
102
RTVSPropertyOp52
 70
     0
102
RTVSPropertyOp53
 70
     1
102
RTVSPropertyOp54
 70
     1
102
RTVSPropertyOp55
 70
     1
102
RTVSPropertyOp56
 70
     1
102
RTVSPropertyOp57
 70
     1
102
RTVSPropertyOp58
 70
     1
102
RTVSPropertyOp59
 70
     1
102
RTVSPropertyOp60
 70
     1
102
RTVSPropertyOp61
 70
     1
102
RTVSPropertyOp62
 70
     1
  0
XRECORD
  5
868E
102
{ACAD_REACTORS
330
868D
102
}
330
868D
100
AcDbXrecord
280
     1
102
RTVSPost2010Prop28
280
     0
102
RTVSPost2010PropOp28
 70
     1
102
RTVSPost2010Prop29
280
     1
102
RTVSPost2010PropOp29
 70
     1
102
RTVSPost2010Prop30
280
     1
102
RTVSPost2010PropOp30
 70
     1
102
RTVSPost2010Prop31
280
     0
102
RTVSPost2010PropOp31
 70
     1
102
RTVSPost2010Prop32
280
     0
102
RTVSPost2010PropOp32
 70
     1
102
RTVSPost2010Prop33
280
     0
102
RTVSPost2010PropOp33
 70
     1
102
RTVSPost2010Prop34
280
     0
102
RTVSPost2010PropOp34
 70
     1
102
RTVSPost2010Prop35
280
     0
102
RTVSPost2010PropOp35
 70
     1
102
RTVSPost2010Prop36
280
     0
102
RTVSPost2010PropOp36
 70
     1
102
RTVSPost2010Prop37
 90
       50
102
RTVSPost2010PropOp37
 70
     1
102
RTVSPost2010Prop38
140
0.0
102
RTVSPost2010PropOp38
 70
     1
102
RTVSPost2010Prop39
140
1.0
102
RTVSPost2010PropOp39
 70
     1
102
RTVSPost2010Prop40
 90
        0
102
RTVSPost2010PropOp40
 70
     1
102
RTVSPost2010Prop41ColorIndex
 90
       18
102
RTVSPost2010Prop41ColorRGB
 90
        0
102
RTVSPost2010PropOp41
 70
     1
102
RTVSPost2010Prop42
 90
       50
102
RTVSPost2010PropOp42
 70
     1
102
RTVSPost2010Prop43
 90
        3
102
RTVSPost2010PropOp43
 70
     1
102
RTVSPost2010Prop44ColorIndex
 90
        5
102
RTVSPost2010Prop44ColorRGB
 90
      255
102
RTVSPost2010PropOp44
 70
     1
102
RTVSPost2010Prop45
280
     0
102
RTVSPost2010PropOp45
 70
     1
102
RTVSPost2010Prop46
 90
       50
102
RTVSPost2010PropOp46
 70
     1
102
RTVSPost2010Prop47
 90
       50
102
RTVSPost2010PropOp47
 70
     1
102
RTVSPost2010Prop48
 90
       50
102
RTVSPost2010PropOp48
 70
     1
102
RTVSPost2010Prop49
280
     0
102
RTVSPost2010PropOp49
 70
     1
102
RTVSPost2010Prop50
 90
       50
102
RTVSPost2010PropOp50
 70
     1
102
RTVSPost2010Prop51ColorIndex
 90
      256
102
RTVSPost2010Prop51ColorRGB
 90
-16777216
102
RTVSPost2010PropOp51
 70
     0
102
RTVSPost2010Prop52
140
1.0
102
RTVSPost2010PropOp52
 70
     0
102
RTVSPost2010Prop53
 90
        2
102
RTVSPost2010PropOp53
 70
     1
102
RTVSPost2010Prop54
  1
strokes_ogs.tif
102
RTVSPost2010PropOp54
 70
     1
102
RTVSPost2010Prop55
280
     0
102
RTVSPost2010PropOp55
 70
     1
102
RTVSPost2010Prop56
140
1.0
102
RTVSPost2010PropOp56
 70
     1
102
RTVSPost2010Prop57
140
1.0
102
RTVSPost2010PropOp57
 70
     1
102
RTVSPropertyOp0
 70
     1
102
RTVSPropertyOp1
 70
     1
102
RTVSPropertyOp2
 70
     1
102
RTVSPropertyOp3
 70
     1
102
RTVSPropertyOp4
 70
     1
102
RTVSPropertyOp5
 70
     1
102
RTVSPropertyOp6
 70
     1
102
RTVSPropertyOp7
 70
     1
102
RTVSPropertyOp8
 70
     1
102
RTVSPropertyOp9
 70
     1
102
RTVSPropertyOp10
 70
     1
102
RTVSPropertyOp11
 70
     1
102
RTVSPropertyOp12
 70
     1
102
RTVSPropertyOp13
 70
     1
102
RTVSPropertyOp14
 70
     1
102
RTVSPropertyOp15
 70
     1
102
RTVSPropertyOp16
 70
     1
102
RTVSPropertyOp17
 70
     1
102
RTVSPropertyOp18
 70
     1
102
RTVSPropertyOp19
 70
     1
102
RTVSPropertyOp20
 70
     1
102
RTVSPropertyOp21
 70
     1
102
RTVSPropertyOp22
 70
     1
102
RTVSPropertyOp23
 70
     1
102
RTVSPropertyOp24
 70
     1
102
RTVSPropertyOp25
 70
     1
102
RTVSPropertyOp26
 70
     1
102
RTVSPropertyOp27
 70
     1
102
RTVSPropertyOp28
 70
     1
102
RTVSPropertyOp29
 70
     1
102
RTVSPropertyOp30
 70
     1
102
RTVSPropertyOp31
 70
     1
102
RTVSPropertyOp32
 70
     1
102
RTVSPropertyOp33
 70
     1
102
RTVSPropertyOp34
 70
     1
102
RTVSPropertyOp35
 70
     1
102
RTVSPropertyOp36
 70
     1
102
RTVSPropertyOp37
 70
     1
102
RTVSPropertyOp38
 70
     1
102
RTVSPropertyOp39
 70
     1
102
RTVSPropertyOp40
 70
     1
102
RTVSPropertyOp41
 70
     1
102
RTVSPropertyOp42
 70
     1
102
RTVSPropertyOp43
 70
     1
102
RTVSPropertyOp44
 70
     1
102
RTVSPropertyOp45
 70
     1
102
RTVSPropertyOp46
 70
     1
102
RTVSPropertyOp47
 70
     1
102
RTVSPropertyOp48
 70
     1
102
RTVSPropertyOp49
 70
     1
102
RTVSPropertyOp50
 70
     1
102
RTVSPropertyOp51
 70
     0
102
RTVSPropertyOp52
 70
     0
102
RTVSPropertyOp53
 70
     1
102
RTVSPropertyOp54
 70
     1
102
RTVSPropertyOp55
 70
     1
102
RTVSPropertyOp56
 70
     1
102
RTVSPropertyOp57
 70
     1
102
RTVSPropertyOp58
 70
     1
102
RTVSPropertyOp59
 70
     1
102
RTVSPropertyOp60
 70
     1
102
RTVSPropertyOp61
 70
     1
102
RTVSPropertyOp62
 70
     1
  0
ENDSEC
  0
EOF
