  0
SECTION
  2
HEADER
  9
$ACADVER
  1
AC1015
  9
$ACADMAINTVER
 70
    20
  9
$DWGCODEPAGE
  3
ANSI_932
  9
$INSBASE
 10
0.0
 20
0.0
 30
0.0
  9
$EXTMIN
 10
-0.2242870864283759
 20
-0.3150699547441036
 30
-0.0015258207003583
  9
$EXTMAX
 10
7350.224321312532
 20
10325.31511803427
 30
0.0000000349246037
  9
$LIMMIN
 10
0.0
 20
0.0
  9
$LIMMAX
 10
297.0
 20
210.0
  9
$ORTHOMODE
 70
     1
  9
$REGENMODE
 70
     1
  9
$FILLMODE
 70
     0
  9
$QTEXTMODE
 70
     0
  9
$MIRRTEXT
 70
     1
  9
$LTSCALE
 40
100.0
  9
$ATTMODE
 70
     1
  9
$TEXTSIZE
 40
180.0
  9
$TRACEWID
 40
0.05
  9
$TEXTSTYLE
  7
STANDARD
  9
$CLAYER
  8
3
  9
$CELTYPE
  6
ByLayer
  9
$CECOLOR
 62
   256
  9
$CELTSCALE
 40
1.0
  9
$DISPSILH
 70
     0
  9
$DIMSCALE
 40
35.0
  9
$DIMASZ
 40
2.0
  9
$DIMEXO
 40
0.5
  9
$DIMDLI
 40
10.0
  9
$DIMRND
 40
0.0
  9
$DIMDLE
 40
0.0
  9
$DIMEXE
 40
1.0
  9
$DIMTP
 40
1.0
  9
$DIMTM
 40
1.0
  9
$DIMTXT
 40
3.0
  9
$DIMCEN
 40
0.0
  9
$DIMTSZ
 40
0.0
  9
$DIMTOL
 70
     0
  9
$DIMLIM
 70
     0
  9
$DIMTIH
 70
     0
  9
$DIMTOH
 70
     0
  9
$DIMSE1
 70
     0
  9
$DIMSE2
 70
     0
  9
$DIMTAD
 70
     1
  9
$DIMZIN
 70
     8
  9
$DIMBLK
  1

  9
$DIMASO
 70
     1
  9
$DIMSHO
 70
     1
  9
$DIMPOST
  1

  9
$DIMAPOST
  1

  9
$DIMALT
 70
     0
  9
$DIMALTD
 70
     2
  9
$DIMALTF
 40
0.039
  9
$DIMLFAC
 40
1.0
  9
$DIMTOFL
 70
     1
  9
$DIMTVP
 40
0.0
  9
$DIMTIX
 70
     0
  9
$DIMSOXD
 70
     0
  9
$DIMSAH
 70
     1
  9
$DIMBLK1
  1
OPEN
  9
$DIMBLK2
  1
OPEN
  9
$DIMSTYLE
  2
IGA
  9
$DIMCLRD
 70
     0
  9
$DIMCLRE
 70
     0
  9
$DIMCLRT
 70
     0
  9
$DIMTFAC
 40
10.0
  9
$DIMGAP
 40
1.0
  9
$DIMJUST
 70
     0
  9
$DIMSD1
 70
     0
  9
$DIMSD2
 70
     0
  9
$DIMTOLJ
 70
     1
  9
$DIMTZIN
 70
     0
  9
$DIMALTZ
 70
     0
  9
$DIMALTTZ
 70
     0
  9
$DIMUPT
 70
     0
  9
$DIMDEC
 70
     4
  9
$DIMTDEC
 70
     4
  9
$DIMALTU
 70
     2
  9
$DIMALTTD
 70
     2
  9
$DIMTXSTY
  7
STANDARD
  9
$DIMAUNIT
 70
     0
  9
$DIMADEC
 70
     0
  9
$DIMALTRND
 40
0.0
  9
$DIMAZIN
 70
     0
  9
$DIMDSEP
 70
    46
  9
$DIMATFIT
 70
     3
  9
$DIMFRAC
 70
     0
  9
$DIMLDRBLK
  1
OPEN
  9
$DIMLUNIT
 70
     2
  9
$DIMLWD
 70
    -2
  9
$DIMLWE
 70
    -2
  9
$DIMTMOVE
 70
     0
  9
$LUNITS
 70
     2
  9
$LUPREC
 70
     3
  9
$SKETCHINC
 40
0.1
  9
$FILLETRAD
 40
50.0
  9
$AUNITS
 70
     0
  9
$AUPREC
 70
     0
  9
$MENU
  1
acad
  9
$ELEVATION
 40
0.0
  9
$PELEVATION
 40
0.0
  9
$THICKNESS
 40
0.0
  9
$LIMCHECK
 70
     0
  9
$CHAMFERA
 40
0.5
  9
$CHAMFERB
 40
0.5
  9
$CHAMFERC
 40
0.0
  9
$CHAMFERD
 40
0.0
  9
$SKPOLY
 70
     0
  9
$TDCREATE
 40
2451390.404617130
  9
$TDUCREATE
 40
2451390.029617130
  9
$TDUPDATE
 40
2460273.541800151
  9
$TDUUPDATE
 40
2460273.166800151
  9
$TDINDWG
 40
0.0196611921
  9
$TDUSRTIMER
 40
0.0196609259
  9
$USRTIMER
 70
     1
  9
$ANGBASE
 50
0.0
  9
$ANGDIR
 70
     0
  9
$PDMODE
 70
     0
  9
$PDSIZE
 40
0.0
  9
$PLINEWID
 40
0.0
  9
$SPLFRAME
 70
     0
  9
$SPLINETYPE
 70
     6
  9
$SPLINESEGS
 70
     8
  9
$HANDSEED
  5
8625
  9
$SURFTAB1
 70
     6
  9
$SURFTAB2
 70
     6
  9
$SURFTYPE
 70
     6
  9
$SURFU
 70
     6
  9
$SURFV
 70
     6
  9
$UCSBASE
  2

  9
$UCSNAME
  2

  9
$UCSORG
 10
0.0
 20
0.0
 30
0.0
  9
$UCSXDIR
 10
1.0
 20
0.0
 30
0.0
  9
$UCSYDIR
 10
0.0
 20
1.0
 30
0.0
  9
$UCSORTHOREF
  2

  9
$UCSORTHOVIEW
 70
     0
  9
$UCSORGTOP
 10
0.0
 20
0.0
 30
0.0
  9
$UCSORGBOTTOM
 10
0.0
 20
0.0
 30
0.0
  9
$UCSORGLEFT
 10
0.0
 20
0.0
 30
0.0
  9
$UCSORGRIGHT
 10
0.0
 20
0.0
 30
0.0
  9
$UCSORGFRONT
 10
0.0
 20
0.0
 30
0.0
  9
$UCSORGBACK
 10
0.0
 20
0.0
 30
0.0
  9
$PUCSBASE
  2

  9
$PUCSNAME
  2

  9
$PUCSORG
 10
0.0
 20
0.0
 30
0.0
  9
$PUCSXDIR
 10
1.0
 20
0.0
 30
0.0
  9
$PUCSYDIR
 10
0.0
 20
1.0
 30
0.0
  9
$PUCSORTHOREF
  2

  9
$PUCSORTHOVIEW
 70
     0
  9
$PUCSORGTOP
 10
0.0
 20
0.0
 30
0.0
  9
$PUCSORGBOTTOM
 10
0.0
 20
0.0
 30
0.0
  9
$PUCSORGLEFT
 10
0.0
 20
0.0
 30
0.0
  9
$PUCSORGRIGHT
 10
0.0
 20
0.0
 30
0.0
  9
$PUCSORGFRONT
 10
0.0
 20
0.0
 30
0.0
  9
$PUCSORGBACK
 10
0.0
 20
0.0
 30
0.0
  9
$USERI1
 70
     0
  9
$USERI2
 70
     0
  9
$USERI3
 70
     0
  9
$USERI4
 70
     0
  9
$USERI5
 70
     0
  9
$USERR1
 40
0.0
  9
$USERR2
 40
0.0
  9
$USERR3
 40
0.0
  9
$USERR4
 40
0.0
  9
$USERR5
 40
0.0
  9
$WORLDVIEW
 70
     1
  9
$SHADEDGE
 70
     3
  9
$SHADEDIF
 70
    70
  9
$TILEMODE
 70
     1
  9
$MAXACTVP
 70
    16
  9
$PINSBASE
 10
0.0
 20
0.0
 30
0.0
  9
$PLIMCHECK
 70
     0
  9
$PEXTMIN
 10
1.000000000000000E+20
 20
1.000000000000000E+20
 30
1.000000000000000E+20
  9
$PEXTMAX
 10
-1.000000000000000E+20
 20
-1.000000000000000E+20
 30
-1.000000000000000E+20
  9
$PLIMMIN
 10
0.0
 20
0.0
  9
$PLIMMAX
 10
12.0
 20
9.0
  9
$UNITMODE
 70
     0
  9
$VISRETAIN
 70
     0
  9
$PLINEGEN
 70
     0
  9
$PSLTSCALE
 70
     1
  9
$TREEDEPTH
 70
  3020
  9
$CMLSTYLE
  2
Standard
  9
$CMLJUST
 70
     0
  9
$CMLSCALE
 40
1.0
  9
$PROXYGRAPHICS
 70
     1
  9
$MEASUREMENT
 70
     0
  9
$CELWEIGHT
370
    -1
  9
$ENDCAPS
280
     0
  9
$JOINSTYLE
280
     0
  9
$LWDISPLAY
290
     0
  9
$INSUNITS
 70
     0
  9
$HYPERLINKBASE
  1

  9
$STYLESHEET
  1

  9
$XEDIT
290
     1
  9
$CEPSNTYPE
380
     0
  9
$PSTYLEMODE
290
     1
  9
$FINGERPRINTGUID
  2
{2C89EADC-2055-4C06-97C5-BC102483F652}
  9
$VERSIONGUID
  2
{1F37E80F-EF0A-40CA-9970-91C95D514F03}
  9
$EXTNAMES
290
     1
  9
$PSVPSCALE
 40
0.0
  9
$OLESTARTUP
290
     0
  0
ENDSEC
  0
SECTION
  2
CLASSES
  0
CLASS
  1
ACDBDICTIONARYWDFLT
  2
AcDbDictionaryWithDefault
  3
ObjectDBX Classes
 90
        0
280
     0
281
     0
  0
CLASS
  1
MATERIAL
  2
AcDbMaterial
  3
ObjectDBX Classes
 90
     1153
280
     0
281
     0
  0
CLASS
  1
VISUALSTYLE
  2
AcDbVisualStyle
  3
ObjectDBX Classes
 90
     4095
280
     0
281
     0
  0
CLASS
  1
SCALE
  2
AcDbScale
  3
ObjectDBX Classes
 90
     1153
280
     0
281
     0
  0
CLASS
  1
TABLESTYLE
  2
AcDbTableStyle
  3
ObjectDBX Classes
 90
     4095
280
     0
281
     0
  0
CLASS
  1
MLEADERSTYLE
  2
AcDbMLeaderStyle
  3
ACDB_MLEADERSTYLE_CLASS
 90
     4095
280
     0
281
     0
  0
CLASS
  1
ACDBSECTIONVIEWSTYLE
  2
AcDbSectionViewStyle
  3
ObjectDBX Classes
 90
     1025
280
     0
281
     0
  0
CLASS
  1
ACDBDETAILVIEWSTYLE
  2
AcDbDetailViewStyle
  3
ObjectDBX Classes
 90
     1025
280
     0
281
     0
  0
CLASS
  1
SORTENTSTABLE
  2
AcDbSortentsTable
  3
ObjectDBX Classes
 90
        0
280
     0
281
     0
  0
CLASS
  1
DICTIONARYVAR
  2
AcDbDictionaryVar
  3
ObjectDBX Classes
 90
        0
280
     0
281
     0
  0
CLASS
  1
CELLSTYLEMAP
  2
AcDbCellStyleMap
  3
ObjectDBX Classes
 90
     1152
280
     0
281
     0
  0
CLASS
  1
ACDBPLACEHOLDER
  2
AcDbPlaceHolder
  3
ObjectDBX Classes
 90
        0
280
     0
281
     0
  0
CLASS
  1
LAYOUT
  2
AcDbLayout
  3
ObjectDBX Classes
 90
        0
280
     0
281
     0
  0
ENDSEC
  0
SECTION
  2
TABLES
  0
TABLE
  2
VPORT
  5
839A
330
0
100
AcDbSymbolTable
 70
     1
  0
VPORT
  5
8406
330
839A
100
AcDbSymbolTableRecord
100
AcDbViewportTableRecord
  2
*ACTIVE
 70
     0
 10
0.0
 20
0.0
 11
1.0
 21
1.0
 12
3675.000015312355
 22
5173.602295715902
 13
0.0
 23
0.0
 14
10.0
 24
10.0
 15
10.0
 25
10.0
 16
0.0
 26
0.0
 36
1.0
 17
0.0
 27
0.0
 37
0.0
 40
10391.74947961865
 41
2.050213675213675
 42
50.0
 43
0.0
 44
0.0
 50
0.0
 51
0.0
 71
     0
 72
   100
 73
     1
 74
     0
 75
     0
 76
     0
 77
     0
 78
     0
281
     0
 65
     1
110
0.0
120
0.0
130
0.0
111
1.0
121
0.0
131
0.0
112
0.0
122
1.0
132
0.0
 79
     0
146
0.0
1001
ACAD_NAV_VCDISPLAY
1070
     3
  0
ENDTAB
  0
TABLE
  2
LTYPE
  5
8397
330
0
100
AcDbSymbolTable
 70
     3
  0
LTYPE
  5
83EC
330
8397
100
AcDbSymbolTableRecord
100
AcDbLinetypeTableRecord
  2
ByBlock
 70
     0
  3

 72
    65
 73
     0
 40
0.0
  0
LTYPE
  5
83ED
330
8397
100
AcDbSymbolTableRecord
100
AcDbLinetypeTableRecord
  2
ByLayer
 70
     0
  3

 72
    65
 73
     0
 40
0.0
  0
LTYPE
  5
83EE
330
8397
100
AcDbSymbolTableRecord
100
AcDbLinetypeTableRecord
  2
CONTINUOUS
 70
     0
  3
Solid line
 72
    65
 73
     0
 40
0.0
  0
LTYPE
  5
8407
330
8397
100
AcDbSymbolTableRecord
100
AcDbLinetypeTableRecord
  2
CENTER
 70
     0
  3
____ _ ____ _ ____ _ ____ _ ____ _ ____ _ ____ 
 72
    65
 73
     4
 40
2.0
 49
1.25
 74
     0
 49
-0.25
 74
     0
 49
0.25
 74
     0
 49
-0.25
 74
     0
  0
ENDTAB
  0
TABLE
  2
LAYER
  5
8394
330
0
100
AcDbSymbolTable
 70
     6
  0
LAYER
  5
83E6
102
{ACAD_XDICTIONARY
360
858E
102
}
330
8394
100
AcDbSymbolTableRecord
100
AcDbLayerTableRecord
  2
0
 70
     0
 62
     7
  6
CONTINUOUS
370
    -3
390
83A1
  0
LAYER
  5
8405
102
{ACAD_XDICTIONARY
360
8590
102
}
330
8394
100
AcDbSymbolTableRecord
100
AcDbLayerTableRecord
  2
3
 70
     0
 62
     2
  6
CONTINUOUS
370
    -3
390
83A1
  0
LAYER
  5
8408
102
{ACAD_XDICTIONARY
360
8592
102
}
330
8394
100
AcDbSymbolTableRecord
100
AcDbLayerTableRecord
  2
2
 70
     0
 62
     3
  6
CENTER
370
    -3
390
83A1
  0
LAYER
  5
8409
102
{ACAD_XDICTIONARY
360
8594
102
}
330
8394
100
AcDbSymbolTableRecord
100
AcDbLayerTableRecord
  2
1
 70
     0
 62
     4
  6
CONTINUOUS
370
    -3
390
83A1
  0
LAYER
  5
840A
102
{ACAD_XDICTIONARY
360
8596
102
}
330
8394
100
AcDbSymbolTableRecord
100
AcDbLayerTableRecord
  2
4
 70
     0
 62
     7
  6
CONTINUOUS
370
    -3
390
83A1
  0
LAYER
  5
840B
330
8394
100
AcDbSymbolTableRecord
100
AcDbLayerTableRecord
  2
DEFPOINTS
 70
     0
 62
     7
  6
CONTINUOUS
290
     0
370
    -3
390
83A1
  0
ENDTAB
  0
TABLE
  2
STYLE
  5
8395
330
0
100
AcDbSymbolTable
 70
     2
  0
STYLE
  5
83E7
330
8395
100
AcDbSymbolTableRecord
100
AcDbTextStyleTableRecord
  2
STANDARD
 70
     0
 40
0.0
 41
1.0
 50
0.0
 71
     0
 42
180.0
  3
simplex.shx
  4
extfont.shx
  0
STYLE
  5
83EB
330
8395
100
AcDbSymbolTableRecord
100
AcDbTextStyleTableRecord
  2
Annotative
 70
     0
 40
0.0
 41
1.0
 50
0.0
 71
     0
 42
0.2
  3
txt
  4

1001
AcadAnnotative
1000
AnnotativeData
1002
{
1070
     1
1070
     1
1002
}
  0
ENDTAB
  0
TABLE
  2
VIEW
  5
8398
330
0
100
AcDbSymbolTable
 70
     0
  0
ENDTAB
  0
TABLE
  2
UCS
  5
8399
330
0
100
AcDbSymbolTable
 70
     0
  0
ENDTAB
  0
TABLE
  2
APPID
  5
839B
330
0
100
AcDbSymbolTable
 70
     6
  0
APPID
  5
83E8
330
839B
100
AcDbSymbolTableRecord
100
AcDbRegAppTableRecord
  2
ACAD
 70
     0
  0
APPID
  5
83EF
330
839B
100
AcDbSymbolTableRecord
100
AcDbRegAppTableRecord
  2
AcadAnnotative
 70
     0
  0
APPID
  5
847F
330
839B
100
AcDbSymbolTableRecord
100
AcDbRegAppTableRecord
  2
AcadAnnoMonitorAlertIconDisabled
 70
     0
  0
APPID
  5
8480
330
839B
100
AcDbSymbolTableRecord
100
AcDbRegAppTableRecord
  2
ACAD_EXEMPT_FROM_CAD_STANDARDS
 70
     0
  0
APPID
  5
85A2
330
839B
100
AcDbSymbolTableRecord
100
AcDbRegAppTableRecord
  2
ACAD_NAV_VCDISPLAY
 70
     0
  0
APPID
  5
861C
330
839B
100
AcDbSymbolTableRecord
100
AcDbRegAppTableRecord
  2
ACAD_MLEADERVER
 70
     0
  0
ENDTAB
  0
TABLE
  2
DIMSTYLE
  5
839C
330
0
100
AcDbSymbolTable
 70
     3
100
AcDbDimStyleTable
 71
     1
340
840C
  0
DIMSTYLE
105
83E9
102
{ACAD_REACTORS
330
81DF
330
81EC
330
81F9
330
8206
330
8213
102
}
330
839C
100
AcDbSymbolTableRecord
100
AcDbDimStyleTableRecord
  2
Standard
 70
     0
340
83E7
  0
DIMSTYLE
105
83EA
330
839C
100
AcDbSymbolTableRecord
100
AcDbDimStyleTableRecord
  2
Annotative
 70
     0
340
83E7
1001
AcadAnnotative
1000
AnnotativeData
1002
{
1070
     1
1070
     1
1002
}
  0
DIMSTYLE
105
840C
102
{ACAD_REACTORS
330
844B
330
8458
330
8465
330
8472
330
84F2
330
84FF
330
850C
330
8519
330
8526
330
8533
330
8540
330
854D
330
855A
330
8567
330
8574
330
8581
102
}
330
839C
100
AcDbSymbolTableRecord
100
AcDbDimStyleTableRecord
  2
IGA
 70
     0
 40
2.0
 41
2.0
 42
0.5
 43
10.0
 44
1.0
 47
1.0
 48
1.0
 73
     0
 74
     0
 77
     1
 78
     8
140
3.0
141
0.0
143
0.03937
146
10.0
147
1.0
173
     1
271
     3
272
     3
279
     2
284
     8
285
     8
286
     8
340
83E7
  0
ENDTAB
  0
TABLE
  2
BLOCK_RECORD
  5
8393
330
0
100
AcDbSymbolTable
 70
    44
  0
BLOCK_RECORD
  5
8401
102
{ACAD_XDICTIONARY
360
8448
102
}
330
8393
100
AcDbSymbolTableRecord
100
AcDbBlockTableRecord
  2
*Model_Space
340
8404
  0
BLOCK_RECORD
  5
83FD
330
8393
100
AcDbSymbolTableRecord
100
AcDbBlockTableRecord
  2
*Paper_Space
340
8400
  0
BLOCK_RECORD
  5
8410
330
8393
100
AcDbSymbolTableRecord
100
AcDbBlockTableRecord
  2
$MODEL_SPACE
340
0
  0
BLOCK_RECORD
  5
8412
330
8393
100
AcDbSymbolTableRecord
100
AcDbBlockTableRecord
  2
$PAPER_SPACE
340
0
  0
BLOCK_RECORD
  5
8414
330
8393
100
AcDbSymbolTableRecord
100
AcDbBlockTableRecord
  2
_OPEN
340
0
102
{BLKREFS
331
82F2
331
82F3
331
82FB
331
82FC
331
8304
331
8305
331
830D
331
830E
331
8316
331
8317
331
831F
331
8547
331
8548
331
8554
331
8555
331
8561
331
8562
331
856E
331
856F
331
857B
331
857C
331
8588
331
8589
331
8320
331
8328
331
8329
331
8331
331
8332
331
833A
331
833B
331
8343
331
8344
331
834C
331
834D
331
8355
331
8356
331
835E
331
835F
331
8367
331
84F9
331
84FA
331
8506
331
8507
331
8513
331
8514
331
8520
331
8521
331
852D
331
852E
331
853A
331
853B
331
8368
331
81FF
331
8200
331
820C
331
820D
331
84CD
331
84CE
331
84D6
331
84D7
331
84EC
331
84ED
331
8370
331
8371
331
8379
331
837A
331
81D8
331
81D9
331
81E5
331
81E6
331
81F2
331
81F3
331
845F
331
8460
331
848E
331
848F
102
}
  0
BLOCK_RECORD
  5
8416
330
8393
100
AcDbSymbolTableRecord
100
AcDbBlockTableRecord
  2
YA_N
340
0
102
{BLKREFS
331
7C22
331
7C43
331
7C4C
331
7C78
331
7C9F
102
}
  0
BLOCK_RECORD
  5
8418
330
8393
100
AcDbSymbolTableRecord
100
AcDbBlockTableRecord
  2
*D4
340
0
  0
BLOCK_RECORD
  5
841A
330
8393
100
AcDbSymbolTableRecord
100
AcDbBlockTableRecord
  2
*D5
340
0
  0
BLOCK_RECORD
  5
841C
330
8393
100
AcDbSymbolTableRecord
100
AcDbBlockTableRecord
  2
*D6
340
0
  0
BLOCK_RECORD
  5
841E
330
8393
100
AcDbSymbolTableRecord
100
AcDbBlockTableRecord
  2
*D7
340
0
  0
BLOCK_RECORD
  5
8420
330
8393
100
AcDbSymbolTableRecord
100
AcDbBlockTableRecord
  2
*D8
340
0
  0
BLOCK_RECORD
  5
8422
330
8393
100
AcDbSymbolTableRecord
100
AcDbBlockTableRecord
  2
*D9
340
0
  0
BLOCK_RECORD
  5
8424
330
8393
100
AcDbSymbolTableRecord
100
AcDbBlockTableRecord
  2
*D10
340
0
  0
BLOCK_RECORD
  5
8426
330
8393
100
AcDbSymbolTableRecord
100
AcDbBlockTableRecord
  2
*D11
340
0
  0
BLOCK_RECORD
  5
8428
330
8393
100
AcDbSymbolTableRecord
100
AcDbBlockTableRecord
  2
*D12
340
0
  0
BLOCK_RECORD
  5
842A
330
8393
100
AcDbSymbolTableRecord
100
AcDbBlockTableRecord
  2
*D13
340
0
  0
BLOCK_RECORD
  5
842C
330
8393
100
AcDbSymbolTableRecord
100
AcDbBlockTableRecord
  2
*D14
340
0
  0
BLOCK_RECORD
  5
842E
330
8393
100
AcDbSymbolTableRecord
100
AcDbBlockTableRecord
  2
*D15
340
0
  0
BLOCK_RECORD
  5
8430
330
8393
100
AcDbSymbolTableRecord
100
AcDbBlockTableRecord
  2
*D16
340
0
  0
BLOCK_RECORD
  5
8432
330
8393
100
AcDbSymbolTableRecord
100
AcDbBlockTableRecord
  2
*D17
340
0
  0
BLOCK_RECORD
  5
8434
330
8393
100
AcDbSymbolTableRecord
100
AcDbBlockTableRecord
  2
*D18
340
0
  0
BLOCK_RECORD
  5
8436
330
8393
100
AcDbSymbolTableRecord
100
AcDbBlockTableRecord
  2
*D19
340
0
  0
BLOCK_RECORD
  5
8438
330
8393
100
AcDbSymbolTableRecord
100
AcDbBlockTableRecord
  2
_DOT
340
0
  0
BLOCK_RECORD
  5
843A
330
8393
100
AcDbSymbolTableRecord
100
AcDbBlockTableRecord
  2
_NONE
340
0
  0
BLOCK_RECORD
  5
843C
330
8393
100
AcDbSymbolTableRecord
100
AcDbBlockTableRecord
  2
*D22
340
0
  0
BLOCK_RECORD
  5
843E
330
8393
100
AcDbSymbolTableRecord
100
AcDbBlockTableRecord
  2
*D23
340
0
  0
BLOCK_RECORD
  5
8440
330
8393
100
AcDbSymbolTableRecord
100
AcDbBlockTableRecord
  2
*D24
340
0
  0
BLOCK_RECORD
  5
8442
330
8393
100
AcDbSymbolTableRecord
100
AcDbBlockTableRecord
  2
*D25
340
0
  0
BLOCK_RECORD
  5
8444
330
8393
100
AcDbSymbolTableRecord
100
AcDbBlockTableRecord
  2
*D26
340
0
  0
BLOCK_RECORD
  5
844C
330
8393
100
AcDbSymbolTableRecord
100
AcDbBlockTableRecord
  2
*D27
340
0
  0
BLOCK_RECORD
  5
8459
330
8393
100
AcDbSymbolTableRecord
100
AcDbBlockTableRecord
  2
*D28
340
0
  0
BLOCK_RECORD
  5
8466
330
8393
100
AcDbSymbolTableRecord
100
AcDbBlockTableRecord
  2
*D29
340
0
  0
BLOCK_RECORD
  5
8473
330
8393
100
AcDbSymbolTableRecord
100
AcDbBlockTableRecord
  2
*D30
340
0
  0
BLOCK_RECORD
  5
84DD
330
8393
100
AcDbSymbolTableRecord
100
AcDbBlockTableRecord
  2
*D31
340
0
  0
BLOCK_RECORD
  5
84F3
330
8393
100
AcDbSymbolTableRecord
100
AcDbBlockTableRecord
  2
*D32
340
0
  0
BLOCK_RECORD
  5
8500
330
8393
100
AcDbSymbolTableRecord
100
AcDbBlockTableRecord
  2
*D33
340
0
  0
BLOCK_RECORD
  5
850D
330
8393
100
AcDbSymbolTableRecord
100
AcDbBlockTableRecord
  2
*D34
340
0
  0
BLOCK_RECORD
  5
851A
330
8393
100
AcDbSymbolTableRecord
100
AcDbBlockTableRecord
  2
*D35
340
0
  0
BLOCK_RECORD
  5
8527
330
8393
100
AcDbSymbolTableRecord
100
AcDbBlockTableRecord
  2
*D36
340
0
  0
BLOCK_RECORD
  5
8534
330
8393
100
AcDbSymbolTableRecord
100
AcDbBlockTableRecord
  2
*D37
340
0
  0
BLOCK_RECORD
  5
8541
330
8393
100
AcDbSymbolTableRecord
100
AcDbBlockTableRecord
  2
*D38
340
0
  0
BLOCK_RECORD
  5
854E
330
8393
100
AcDbSymbolTableRecord
100
AcDbBlockTableRecord
  2
*D39
340
0
  0
BLOCK_RECORD
  5
855B
330
8393
100
AcDbSymbolTableRecord
100
AcDbBlockTableRecord
  2
*D40
340
0
  0
BLOCK_RECORD
  5
8568
330
8393
100
AcDbSymbolTableRecord
100
AcDbBlockTableRecord
  2
*D41
340
0
  0
BLOCK_RECORD
  5
8575
330
8393
100
AcDbSymbolTableRecord
100
AcDbBlockTableRecord
  2
*D42
340
0
  0
BLOCK_RECORD
  5
8582
330
8393
100
AcDbSymbolTableRecord
100
AcDbBlockTableRecord
  2
*D43
340
0
  0
ENDTAB
  0
ENDSEC
  0
SECTION
  2
BLOCKS
  0
BLOCK
  5
8402
330
8401
100
AcDbEntity
  8
0
100
AcDbBlockBegin
  2
*Model_Space
 70
     0
 10
0.0
 20
0.0
 30
0.0
  3
*Model_Space
  1

  0
ENDBLK
  5
8403
330
8401
100
AcDbEntity
  8
0
100
AcDbBlockEnd
  0
BLOCK
  5
83FE
330
83FD
100
AcDbEntity
 67
     1
  8
0
100
AcDbBlockBegin
  2
*Paper_Space
 70
     0
 10
0.0
 20
0.0
 30
0.0
  3
*Paper_Space
  1

  0
ENDBLK
  5
83FF
330
83FD
100
AcDbEntity
 67
     1
  8
0
100
AcDbBlockEnd
  0
BLOCK
  5
8411
330
8410
100
AcDbEntity
  8
0
100
AcDbBlockBegin
  2
$MODEL_SPACE
 70
     0
 10
0.0
 20
0.0
 30
0.0
  3
$MODEL_SPACE
  1

  0
ENDBLK
  5
1B
330
8410
100
AcDbEntity
  8
0
100
AcDbBlockEnd
  0
BLOCK
  5
8413
330
8412
100
AcDbEntity
  8
0
100
AcDbBlockBegin
  2
$PAPER_SPACE
 70
     0
 10
0.0
 20
0.0
 30
0.0
  3
$PAPER_SPACE
  1

  0
ENDBLK
  5
18
330
8412
100
AcDbEntity
  8
0
100
AcDbBlockEnd
  0
BLOCK
  5
8415
330
8414
100
AcDbEntity
  8
0
100
AcDbBlockBegin
  2
_OPEN
 70
     0
 10
0.0
 20
0.0
 30
0.0
  3
_OPEN
  1

  0
LINE
  5
79FD
330
8414
100
AcDbEntity
  8
0
  6
ByBlock
 62
     0
100
AcDbLine
 10
-1.0
 20
0.1666666666666666
 30
0.0
 11
0.0
 21
0.0
 31
0.0
  0
LINE
  5
79FE
330
8414
100
AcDbEntity
  8
0
  6
ByBlock
 62
     0
100
AcDbLine
 10
0.0
 20
0.0
 30
0.0
 11
-1.0
 21
-0.1666666666666666
 31
0.0
  0
LINE
  5
79FF
330
8414
100
AcDbEntity
  8
0
  6
ByBlock
 62
     0
100
AcDbLine
 10
0.0
 20
0.0
 30
0.0
 11
-1.0
 21
0.0
 31
0.0
  0
ENDBLK
  5
7A01
330
8414
100
AcDbEntity
  8
0
100
AcDbBlockEnd
  0
BLOCK
  5
8417
330
8416
100
AcDbEntity
  8
0
100
AcDbBlockBegin
  2
YA_N
 70
     0
 10
0.0
 20
0.0
 30
0.0
  3
YA_N
  1

  0
ENDBLK
  5
7A0C
330
8416
100
AcDbEntity
  8
0
100
AcDbBlockEnd
  0
BLOCK
  5
8419
330
8418
100
AcDbEntity
  8
0
100
AcDbBlockBegin
  2
*D4
 70
     1
 10
0.0
 20
0.0
 30
0.0
  3
*D4
  1

  0
LINE
  5
82EF
330
8418
100
AcDbEntity
  8
3
 62
     0
100
AcDbLine
 10
1770.717971633641
 20
2616.867032643556
 30
0.0
 11
1553.109655349375
 21
2616.867032643556
 31
0.0
  0
LINE
  5
82F0
330
8418
100
AcDbEntity
  8
3
 62
     0
100
AcDbLine
 10
1770.717971633641
 20
3766.867032643556
 30
0.0
 11
1553.109655349375
 21
3766.867032643556
 31
0.0
  0
LINE
  5
82F1
330
8418
100
AcDbEntity
  8
3
 62
     0
100
AcDbLine
 10
1588.109655349375
 20
2686.867032643556
 30
0.0
 11
1588.109655349375
 21
3696.867032643557
 31
0.0
  0
INSERT
  5
82F2
330
8418
100
AcDbEntity
  8
3
 62
     0
100
AcDbBlockReference
  2
_OPEN
 10
1588.109655349375
 20
2616.867032643556
 30
0.0
 41
70.0
 42
70.0
 43
70.0
 50
270.0
  0
INSERT
  5
82F3
330
8418
100
AcDbEntity
  8
3
 62
     0
100
AcDbBlockReference
  2
_OPEN
 10
1588.109655349375
 20
3766.867032643556
 30
0.0
 41
70.0
 42
70.0
 43
70.0
 50
90.0
  0
TEXT
  5
8382
330
8418
100
AcDbEntity
  8
3
 62
     0
100
AcDbText
 10
1290.61
 20
3006.02
 30
0.0
 40
105.0
  1
1150
100
AcDbText
  0
POINT
  5
82F5
330
8418
100
AcDbEntity
  8
DEFPOINTS
 62
     0
100
AcDbPoint
 10
1788.21797163364
 20
2616.867032643556
 30
0.0
  0
POINT
  5
82F6
330
8418
100
AcDbEntity
  8
DEFPOINTS
 62
     0
100
AcDbPoint
 10
1788.21797163364
 20
3766.867032643556
 30
0.0
  0
POINT
  5
82F7
330
8418
100
AcDbEntity
  8
DEFPOINTS
 62
     0
100
AcDbPoint
 10
1588.109655349375
 20
3766.867032643556
 30
0.0
  0
ENDBLK
  5
8018
330
8418
100
AcDbEntity
  8
0
100
AcDbBlockEnd
  0
BLOCK
  5
841B
330
841A
100
AcDbEntity
  8
0
100
AcDbBlockBegin
  2
*D5
 70
     1
 10
0.0
 20
0.0
 30
0.0
  3
*D5
  1

  0
LINE
  5
82F8
330
841A
100
AcDbEntity
  8
3
 62
     0
100
AcDbLine
 10
1770.717971633641
 20
2616.867032643556
 30
0.0
 11
1352.958004487872
 21
2616.867032643556
 31
0.0
  0
LINE
  5
82F9
330
841A
100
AcDbEntity
  8
3
 62
     0
100
AcDbLine
 10
1684.878970734906
 20
3814.867032643557
 30
0.0
 11
1352.958004487873
 21
3814.867032643557
 31
0.0
  0
LINE
  5
82FA
330
841A
100
AcDbEntity
  8
3
 62
     0
100
AcDbLine
 10
1387.958004487872
 20
2686.867032643556
 30
0.0
 11
1387.958004487873
 21
3744.867032643556
 31
0.0
  0
INSERT
  5
82FB
330
841A
100
AcDbEntity
  8
3
 62
     0
100
AcDbBlockReference
  2
_OPEN
 10
1387.958004487872
 20
2616.867032643556
 30
0.0
 41
70.0
 42
70.0
 43
70.0
 50
270.0
  0
INSERT
  5
82FC
330
841A
100
AcDbEntity
  8
3
 62
     0
100
AcDbBlockReference
  2
_OPEN
 10
1387.958004487873
 20
3814.867032643557
 30
0.0
 41
70.0
 42
70.0
 43
70.0
 50
90.0
  0
TEXT
  5
8383
330
841A
100
AcDbEntity
  8
3
 62
     0
100
AcDbText
 10
1090.46
 20
3030.02
 30
0.0
 40
105.0
  1
1198
100
AcDbText
  0
POINT
  5
82FE
330
841A
100
AcDbEntity
  8
DEFPOINTS
 62
     0
100
AcDbPoint
 10
1788.21797163364
 20
2616.867032643556
 30
0.0
  0
POINT
  5
82FF
330
841A
100
AcDbEntity
  8
DEFPOINTS
 62
     0
100
AcDbPoint
 10
1702.378970734907
 20
3814.867032643557
 30
0.0
  0
POINT
  5
8300
330
841A
100
AcDbEntity
  8
DEFPOINTS
 62
     0
100
AcDbPoint
 10
1387.958004487873
 20
3814.867032643557
 30
0.0
  0
ENDBLK
  5
800D
330
841A
100
AcDbEntity
  8
0
100
AcDbBlockEnd
  0
BLOCK
  5
841D
330
841C
100
AcDbEntity
  8
0
100
AcDbBlockBegin
  2
*D6
 70
     1
 10
0.0
 20
0.0
 30
0.0
  3
*D6
  1

  0
LINE
  5
8301
330
841C
100
AcDbEntity
  8
3
 62
     0
100
AcDbLine
 10
4887.400400804152
 20
4626.028653376388
 30
0.0
 11
4887.400400804152
 21
4908.306671695953
 31
0.0
  0
LINE
  5
8302
330
841C
100
AcDbEntity
  8
3
 62
     0
100
AcDbLine
 10
6387.400400804152
 20
4620.179716714774
 30
0.0
 11
6387.400400804152
 21
4908.306671695953
 31
0.0
  0
LINE
  5
8303
330
841C
100
AcDbEntity
  8
3
 62
     0
100
AcDbLine
 10
4957.400400804152
 20
4873.306671695954
 30
0.0
 11
6317.400400804152
 21
4873.306671695954
 31
0.0
  0
INSERT
  5
8304
330
841C
100
AcDbEntity
  8
3
 62
     0
100
AcDbBlockReference
  2
_OPEN
 10
4887.400400804152
 20
4873.306671695954
 30
0.0
 41
70.0
 42
70.0
 43
70.0
 50
180.0
  0
INSERT
  5
8305
330
841C
100
AcDbEntity
  8
3
 62
     0
100
AcDbBlockReference
  2
_OPEN
 10
6387.400400804152
 20
4873.306671695954
 30
0.0
 41
70.0
 42
70.0
 43
70.0
  0
TEXT
  5
8384
330
841C
100
AcDbEntity
  8
3
 62
     0
100
AcDbText
 10
5427.4
 20
4774.96
 30
0.0
 40
105.0
  1
1500
100
AcDbText
  0
POINT
  5
8307
330
841C
100
AcDbEntity
  8
DEFPOINTS
 62
     0
100
AcDbPoint
 10
4887.400400804152
 20
4608.528653376388
 30
0.0
  0
POINT
  5
8308
330
841C
100
AcDbEntity
  8
DEFPOINTS
 62
     0
100
AcDbPoint
 10
6387.400400804152
 20
4602.679716714773
 30
0.0
  0
POINT
  5
8309
330
841C
100
AcDbEntity
  8
DEFPOINTS
 62
     0
100
AcDbPoint
 10
6387.400400804152
 20
4873.306671695954
 30
0.0
  0
ENDBLK
  5
7F6F
330
841C
100
AcDbEntity
  8
0
100
AcDbBlockEnd
  0
BLOCK
  5
841F
330
841E
100
AcDbEntity
  8
0
100
AcDbBlockBegin
  2
*D7
 70
     1
 10
0.0
 20
0.0
 30
0.0
  3
*D7
  1

  0
LINE
  5
830A
330
841E
100
AcDbEntity
  8
3
 62
     0
100
AcDbLine
 10
5637.40040080415
 20
5057.284437516734
 30
0.0
 11
5637.40040080415
 21
5106.314032088929
 31
0.0
  0
LINE
  5
830B
330
841E
100
AcDbEntity
  8
3
 62
     0
100
AcDbLine
 10
6552.400400804149
 20
3745.406509748752
 30
0.0
 11
6552.400400804149
 21
5106.314032088929
 31
0.0
  0
LINE
  5
830C
330
841E
100
AcDbEntity
  8
3
 62
     0
100
AcDbLine
 10
5707.40040080415
 20
5071.314032088928
 30
0.0
 11
6482.40040080415
 21
5071.314032088928
 31
0.0
  0
INSERT
  5
830D
330
841E
100
AcDbEntity
  8
3
 62
     0
100
AcDbBlockReference
  2
_OPEN
 10
5637.40040080415
 20
5071.314032088928
 30
0.0
 41
70.0
 42
70.0
 43
70.0
 50
180.0
  0
INSERT
  5
830E
330
841E
100
AcDbEntity
  8
3
 62
     0
100
AcDbBlockReference
  2
_OPEN
 10
6552.400400804149
 20
5071.314032088928
 30
0.0
 41
70.0
 42
70.0
 43
70.0
  0
TEXT
  5
8385
330
841E
100
AcDbEntity
  8
3
 62
     0
100
AcDbText
 10
5884.9
 20
5000.46
 30
0.0
 40
105.0
  1
(930)
100
AcDbText
  0
POINT
  5
8310
330
841E
100
AcDbEntity
  8
DEFPOINTS
 62
     0
100
AcDbPoint
 10
5637.40040080415
 20
5039.784437516733
 30
0.0
  0
POINT
  5
8311
330
841E
100
AcDbEntity
  8
DEFPOINTS
 62
     0
100
AcDbPoint
 10
6552.400400804149
 20
3727.906509748752
 30
0.0
  0
POINT
  5
8312
330
841E
100
AcDbEntity
  8
DEFPOINTS
 62
     0
100
AcDbPoint
 10
6552.400400804149
 20
5071.314032088928
 30
0.0
  0
ENDBLK
  5
811C
330
841E
100
AcDbEntity
  8
0
100
AcDbBlockEnd
  0
BLOCK
  5
8421
330
8420
100
AcDbEntity
  8
0
100
AcDbBlockBegin
  2
*D8
 70
     1
 10
0.0
 20
0.0
 30
0.0
  3
*D8
  1

  0
LINE
  5
8313
330
8420
100
AcDbEntity
  8
3
 62
     0
100
AcDbLine
 10
6410.400400804154
 20
3254.867032643557
 30
0.0
 11
6790.183167159667
 21
3254.867032643557
 31
0.0
  0
LINE
  5
8314
330
8420
100
AcDbEntity
  8
3
 62
     0
100
AcDbLine
 10
6410.400400804154
 20
4374.867032643556
 30
0.0
 11
6790.183167159667
 21
4374.867032643556
 31
0.0
  0
LINE
  5
8315
330
8420
100
AcDbEntity
  8
3
 62
     0
100
AcDbLine
 10
6755.183167159666
 20
3324.867032643556
 30
0.0
 11
6755.183167159666
 21
4304.867032643556
 31
0.0
  0
INSERT
  5
8316
330
8420
100
AcDbEntity
  8
3
 62
     0
100
AcDbBlockReference
  2
_OPEN
 10
6755.183167159666
 20
3254.867032643557
 30
0.0
 41
70.0
 42
70.0
 43
70.0
 50
270.0
  0
INSERT
  5
8317
330
8420
100
AcDbEntity
  8
3
 62
     0
100
AcDbBlockReference
  2
_OPEN
 10
6755.183167159666
 20
4374.867032643556
 30
0.0
 41
70.0
 42
70.0
 43
70.0
 50
90.0
  0
TEXT
  5
8386
330
8420
100
AcDbEntity
  8
3
 62
     0
100
AcDbText
 10
6457.68
 20
3629.02
 30
0.0
 40
105.0
  1
\U+03C61120
100
AcDbText
  0
POINT
  5
8319
330
8420
100
AcDbEntity
  8
DEFPOINTS
 62
     0
100
AcDbPoint
 10
6392.900400804154
 20
3254.867032643557
 30
0.0
  0
POINT
  5
831A
330
8420
100
AcDbEntity
  8
DEFPOINTS
 62
     0
100
AcDbPoint
 10
6392.900400804154
 20
4374.867032643556
 30
0.0
  0
POINT
  5
831B
330
8420
100
AcDbEntity
  8
DEFPOINTS
 62
     0
100
AcDbPoint
 10
6755.183167159666
 20
4374.867032643556
 30
0.0
  0
ENDBLK
  5
7F85
330
8420
100
AcDbEntity
  8
0
100
AcDbBlockEnd
  0
BLOCK
  5
8423
330
8422
100
AcDbEntity
  8
0
100
AcDbBlockBegin
  2
*D9
 70
     1
 10
0.0
 20
0.0
 30
0.0
  3
*D9
  1

  0
LINE
  5
831C
330
8422
100
AcDbEntity
  8
3
 62
     0
100
AcDbLine
 10
4514.700400804152
 20
4212.367032643555
 30
0.0
 11
4514.700400804152
 21
5105.297380820517
 31
0.0
  0
LINE
  5
831D
330
8422
100
AcDbEntity
  8
3
 62
     0
100
AcDbLine
 10
5637.40040080415
 20
5057.284437516734
 30
0.0
 11
5637.40040080415
 21
5105.297380820517
 31
0.0
  0
LINE
  5
831E
330
8422
100
AcDbEntity
  8
3
 62
     0
100
AcDbLine
 10
4584.700400804152
 20
5070.297380820517
 30
0.0
 11
5567.400400804149
 21
5070.297380820517
 31
0.0
  0
INSERT
  5
831F
330
8422
100
AcDbEntity
  8
3
 62
     0
100
AcDbBlockReference
  2
_OPEN
 10
4514.700400804152
 20
5070.297380820517
 30
0.0
 41
70.0
 42
70.0
 43
70.0
 50
180.0
  0
INSERT
  5
8320
330
8422
100
AcDbEntity
  8
3
 62
     0
100
AcDbBlockReference
  2
_OPEN
 10
5637.40040080415
 20
5070.297380820517
 30
0.0
 41
70.0
 42
70.0
 43
70.0
  0
TEXT
  5
8387
330
8422
100
AcDbEntity
  8
3
 62
     0
100
AcDbText
 10
4866.050000000001
 20
5059.45
 30
0.0
 40
105.0
  1
MAX
100
AcDbText
  0
TEXT
  5
8388
330
8422
100
AcDbEntity
  8
3
 62
     0
100
AcDbText
 10
4866.050000000001
 20
4922.95
 30
0.0
 40
105.0
  1
1120
100
AcDbText
  0
POINT
  5
8322
330
8422
100
AcDbEntity
  8
DEFPOINTS
 62
     0
100
AcDbPoint
 10
4514.700400804152
 20
4194.867032643556
 30
0.0
  0
POINT
  5
8323
330
8422
100
AcDbEntity
  8
DEFPOINTS
 62
     0
100
AcDbPoint
 10
5637.40040080415
 20
5039.784437516733
 30
0.0
  0
POINT
  5
8324
330
8422
100
AcDbEntity
  8
DEFPOINTS
 62
     0
100
AcDbPoint
 10
5637.40040080415
 20
5070.297380820517
 30
0.0
  0
ENDBLK
  5
8111
330
8422
100
AcDbEntity
  8
0
100
AcDbBlockEnd
  0
BLOCK
  5
8425
330
8424
100
AcDbEntity
  8
0
100
AcDbBlockBegin
  2
*D10
 70
     1
 10
0.0
 20
0.0
 30
0.0
  3
*D10
  1

  0
LINE
  5
8325
330
8424
100
AcDbEntity
  8
3
 62
     0
100
AcDbLine
 10
3208.217971633641
 20
7710.981934815961
 30
0.0
 11
3208.217971633641
 21
7902.489295287082
 31
0.0
  0
LINE
  5
8326
330
8424
100
AcDbEntity
  8
3
 62
     0
100
AcDbLine
 10
1888.21797163364
 20
7710.981934815961
 30
0.0
 11
1888.21797163364
 21
7902.489295287082
 31
0.0
  0
LINE
  5
8327
330
8424
100
AcDbEntity
  8
3
 62
     0
100
AcDbLine
 10
3138.217971633641
 20
7867.489295287082
 30
0.0
 11
1958.217971633641
 21
7867.489295287082
 31
0.0
  0
INSERT
  5
8328
330
8424
100
AcDbEntity
  8
3
 62
     0
100
AcDbBlockReference
  2
_OPEN
 10
3208.217971633641
 20
7867.489295287082
 30
0.0
 41
70.0
 42
70.0
 43
70.0
  0
INSERT
  5
8329
330
8424
100
AcDbEntity
  8
3
 62
     0
100
AcDbBlockReference
  2
_OPEN
 10
1888.21797163364
 20
7867.489295287082
 30
0.0
 41
70.0
 42
70.0
 43
70.0
 50
180.0
  0
TEXT
  5
8389
330
8424
100
AcDbEntity
  8
3
 62
     0
100
AcDbText
 10
2338.22
 20
7769.14
 30
0.0
 40
105.0
  1
1320
100
AcDbText
  0
POINT
  5
832B
330
8424
100
AcDbEntity
  8
DEFPOINTS
 62
     0
100
AcDbPoint
 10
3208.217971633641
 20
7693.481934815962
 30
0.0
  0
POINT
  5
832C
330
8424
100
AcDbEntity
  8
DEFPOINTS
 62
     0
100
AcDbPoint
 10
1888.21797163364
 20
7693.481934815962
 30
0.0
  0
POINT
  5
832D
330
8424
100
AcDbEntity
  8
DEFPOINTS
 62
     0
100
AcDbPoint
 10
1888.21797163364
 20
7867.489295287082
 30
0.0
  0
ENDBLK
  5
802E
330
8424
100
AcDbEntity
  8
0
100
AcDbBlockEnd
  0
BLOCK
  5
8427
330
8426
100
AcDbEntity
  8
0
100
AcDbBlockBegin
  2
*D11
 70
     1
 10
0.0
 20
0.0
 30
0.0
  3
*D11
  1

  0
LINE
  5
832E
330
8426
100
AcDbEntity
  8
3
 62
     0
100
AcDbLine
 10
4165.717971633641
 20
6693.481934815962
 30
0.0
 11
4583.848380927505
 21
6693.481934815962
 31
0.0
  0
LINE
  5
832F
330
8426
100
AcDbEntity
  8
3
 62
     0
100
AcDbLine
 10
4165.717971633641
 20
5793.481934815961
 30
0.0
 11
4583.848380927504
 21
5793.481934815961
 31
0.0
  0
LINE
  5
8330
330
8426
100
AcDbEntity
  8
3
 62
     0
100
AcDbLine
 10
4548.848380927505
 20
6623.481934815962
 30
0.0
 11
4548.848380927504
 21
5863.481934815961
 31
0.0
  0
INSERT
  5
8331
330
8426
100
AcDbEntity
  8
3
 62
     0
100
AcDbBlockReference
  2
_OPEN
 10
4548.848380927505
 20
6693.481934815962
 30
0.0
 41
70.0
 42
70.0
 43
70.0
 50
90.0
  0
INSERT
  5
8332
330
8426
100
AcDbEntity
  8
3
 62
     0
100
AcDbBlockReference
  2
_OPEN
 10
4548.848380927504
 20
5793.481934815961
 30
0.0
 41
70.0
 42
70.0
 43
70.0
 50
270.0
  0
TEXT
  5
838A
330
8426
100
AcDbEntity
  8
3
 62
     0
100
AcDbText
 10
4251.350000000001
 20
6057.63
 30
0.0
 40
105.0
  1
900
100
AcDbText
  0
POINT
  5
8334
330
8426
100
AcDbEntity
  8
DEFPOINTS
 62
     0
100
AcDbPoint
 10
4148.21797163364
 20
6693.481934815962
 30
0.0
  0
POINT
  5
8335
330
8426
100
AcDbEntity
  8
DEFPOINTS
 62
     0
100
AcDbPoint
 10
4148.21797163364
 20
5793.481934815961
 30
0.0
  0
POINT
  5
8336
330
8426
100
AcDbEntity
  8
DEFPOINTS
 62
     0
100
AcDbPoint
 10
4548.848380927504
 20
5793.481934815961
 30
0.0
  0
ENDBLK
  5
8044
330
8426
100
AcDbEntity
  8
0
100
AcDbBlockEnd
  0
BLOCK
  5
8429
330
8428
100
AcDbEntity
  8
0
100
AcDbBlockBegin
  2
*D12
 70
     1
 10
0.0
 20
0.0
 30
0.0
  3
*D12
  1

  0
LINE
  5
8337
330
8428
100
AcDbEntity
  8
3
 62
     0
100
AcDbLine
 10
4148.21797163364
 20
5775.981934815962
 30
0.0
 11
4148.21797163364
 21
5467.236742722015
 31
0.0
  0
LINE
  5
8338
330
8428
100
AcDbEntity
  8
3
 62
     0
100
AcDbLine
 10
1888.21797163364
 20
5775.981934815962
 30
0.0
 11
1888.21797163364
 21
5467.236742722015
 31
0.0
  0
LINE
  5
8339
330
8428
100
AcDbEntity
  8
3
 62
     0
100
AcDbLine
 10
4078.21797163364
 20
5502.236742722015
 30
0.0
 11
1958.217971633641
 21
5502.236742722015
 31
0.0
  0
INSERT
  5
833A
330
8428
100
AcDbEntity
  8
3
 62
     0
100
AcDbBlockReference
  2
_OPEN
 10
4148.21797163364
 20
5502.236742722015
 30
0.0
 41
70.0
 42
70.0
 43
70.0
  0
INSERT
  5
833B
330
8428
100
AcDbEntity
  8
3
 62
     0
100
AcDbBlockReference
  2
_OPEN
 10
1888.21797163364
 20
5502.236742722015
 30
0.0
 41
70.0
 42
70.0
 43
70.0
 50
180.0
  0
TEXT
  5
838B
330
8428
100
AcDbEntity
  8
3
 62
     0
100
AcDbText
 10
2808.22
 20
5403.89
 30
0.0
 40
105.0
  1
2260
100
AcDbText
  0
POINT
  5
833D
330
8428
100
AcDbEntity
  8
DEFPOINTS
 62
     0
100
AcDbPoint
 10
4148.21797163364
 20
5793.481934815962
 30
0.0
  0
POINT
  5
833E
330
8428
100
AcDbEntity
  8
DEFPOINTS
 62
     0
100
AcDbPoint
 10
1888.21797163364
 20
5793.481934815962
 30
0.0
  0
POINT
  5
833F
330
8428
100
AcDbEntity
  8
DEFPOINTS
 62
     0
100
AcDbPoint
 10
1888.21797163364
 20
5502.236742722015
 30
0.0
  0
ENDBLK
  5
805A
330
8428
100
AcDbEntity
  8
0
100
AcDbBlockEnd
  0
BLOCK
  5
842B
330
842A
100
AcDbEntity
  8
0
100
AcDbBlockBegin
  2
*D13
 70
     1
 10
0.0
 20
0.0
 30
0.0
  3
*D13
  1

  0
LINE
  5
8340
330
842A
100
AcDbEntity
  8
3
 62
     0
100
AcDbLine
 10
1870.717971633641
 20
7693.481934815962
 30
0.0
 11
1454.445716662589
 21
7693.481934815962
 31
0.0
  0
LINE
  5
8341
330
842A
100
AcDbEntity
  8
3
 62
     0
100
AcDbLine
 10
1870.717971633641
 20
5793.481934815962
 30
0.0
 11
1454.445716662589
 21
5793.481934815962
 31
0.0
  0
LINE
  5
8342
330
842A
100
AcDbEntity
  8
3
 62
     0
100
AcDbLine
 10
1489.445716662589
 20
7623.481934815962
 30
0.0
 11
1489.445716662588
 21
5863.481934815961
 31
0.0
  0
INSERT
  5
8343
330
842A
100
AcDbEntity
  8
3
 62
     0
100
AcDbBlockReference
  2
_OPEN
 10
1489.445716662589
 20
7693.481934815962
 30
0.0
 41
70.0
 42
70.0
 43
70.0
 50
90.0
  0
INSERT
  5
8344
330
842A
100
AcDbEntity
  8
3
 62
     0
100
AcDbBlockReference
  2
_OPEN
 10
1489.445716662588
 20
5793.481934815962
 30
0.0
 41
70.0
 42
70.0
 43
70.0
 50
270.0
  0
TEXT
  5
838C
330
842A
100
AcDbEntity
  8
3
 62
     0
100
AcDbText
 10
1191.95
 20
6557.63
 30
0.0
 40
105.0
  1
1900
100
AcDbText
  0
POINT
  5
8346
330
842A
100
AcDbEntity
  8
DEFPOINTS
 62
     0
100
AcDbPoint
 10
1888.21797163364
 20
7693.481934815962
 30
0.0
  0
POINT
  5
8347
330
842A
100
AcDbEntity
  8
DEFPOINTS
 62
     0
100
AcDbPoint
 10
1888.21797163364
 20
5793.481934815962
 30
0.0
  0
POINT
  5
8348
330
842A
100
AcDbEntity
  8
DEFPOINTS
 62
     0
100
AcDbPoint
 10
1489.445716662588
 20
5793.481934815962
 30
0.0
  0
ENDBLK
  5
8023
330
842A
100
AcDbEntity
  8
0
100
AcDbBlockEnd
  0
BLOCK
  5
842D
330
842C
100
AcDbEntity
  8
0
100
AcDbBlockBegin
  2
*D14
 70
     1
 10
0.0
 20
0.0
 30
0.0
  3
*D14
  1

  0
LINE
  5
8349
330
842C
100
AcDbEntity
  8
3
 62
     0
100
AcDbLine
 10
4148.21797163364
 20
6710.98193481596
 30
0.0
 11
4148.21797163364
 21
7902.489295287082
 31
0.0
  0
LINE
  5
834A
330
842C
100
AcDbEntity
  8
3
 62
     0
100
AcDbLine
 10
3208.217971633641
 20
7710.981934815961
 30
0.0
 11
3208.217971633641
 21
7902.489295287082
 31
0.0
  0
LINE
  5
834B
330
842C
100
AcDbEntity
  8
3
 62
     0
100
AcDbLine
 10
4078.21797163364
 20
7867.489295287082
 30
0.0
 11
3278.217971633641
 21
7867.489295287082
 31
0.0
  0
INSERT
  5
834C
330
842C
100
AcDbEntity
  8
3
 62
     0
100
AcDbBlockReference
  2
_OPEN
 10
4148.21797163364
 20
7867.489295287082
 30
0.0
 41
70.0
 42
70.0
 43
70.0
  0
INSERT
  5
834D
330
842C
100
AcDbEntity
  8
3
 62
     0
100
AcDbBlockReference
  2
_OPEN
 10
3208.217971633641
 20
7867.489295287082
 30
0.0
 41
70.0
 42
70.0
 43
70.0
 50
180.0
  0
TEXT
  5
838D
330
842C
100
AcDbEntity
  8
3
 62
     0
100
AcDbText
 10
3468.22
 20
7769.14
 30
0.0
 40
105.0
  1
940
100
AcDbText
  0
POINT
  5
834F
330
842C
100
AcDbEntity
  8
DEFPOINTS
 62
     0
100
AcDbPoint
 10
4148.21797163364
 20
6693.481934815962
 30
0.0
  0
POINT
  5
8350
330
842C
100
AcDbEntity
  8
DEFPOINTS
 62
     0
100
AcDbPoint
 10
3208.217971633641
 20
7693.481934815962
 30
0.0
  0
POINT
  5
8351
330
842C
100
AcDbEntity
  8
DEFPOINTS
 62
     0
100
AcDbPoint
 10
3208.217971633641
 20
7867.489295287082
 30
0.0
  0
ENDBLK
  5
8039
330
842C
100
AcDbEntity
  8
0
100
AcDbBlockEnd
  0
BLOCK
  5
842F
330
842E
100
AcDbEntity
  8
0
100
AcDbBlockBegin
  2
*D15
 70
     1
 10
0.0
 20
0.0
 30
0.0
  3
*D15
  1

  0
LINE
  5
8352
330
842E
100
AcDbEntity
  8
3
 62
     0
100
AcDbLine
 10
1788.21797163364
 20
3813.31920139184
 30
0.0
 11
1788.21797163364
 21
5107.874531832273
 31
0.0
  0
LINE
  5
8353
330
842E
100
AcDbEntity
  8
3
 62
     0
100
AcDbLine
 10
4148.21797163364
 20
2602.367032643556
 30
0.0
 11
4148.21797163364
 21
5107.874531832273
 31
0.0
  0
LINE
  5
8354
330
842E
100
AcDbEntity
  8
3
 62
     0
100
AcDbLine
 10
1858.217971633641
 20
5072.874531832272
 30
0.0
 11
4078.21797163364
 21
5072.874531832272
 31
0.0
  0
INSERT
  5
8355
330
842E
100
AcDbEntity
  8
3
 62
     0
100
AcDbBlockReference
  2
_OPEN
 10
1788.21797163364
 20
5072.874531832272
 30
0.0
 41
70.0
 42
70.0
 43
70.0
 50
180.0
  0
INSERT
  5
8356
330
842E
100
AcDbEntity
  8
3
 62
     0
100
AcDbBlockReference
  2
_OPEN
 10
4148.21797163364
 20
5072.874531832272
 30
0.0
 41
70.0
 42
70.0
 43
70.0
  0
TEXT
  5
838E
330
842E
100
AcDbEntity
  8
3
 62
     0
100
AcDbText
 10
2758.22
 20
4974.52
 30
0.0
 40
105.0
  1
2360
100
AcDbText
  0
POINT
  5
8358
330
842E
100
AcDbEntity
  8
DEFPOINTS
 62
     0
100
AcDbPoint
 10
1788.21797163364
 20
3795.819201391839
 30
0.0
  0
POINT
  5
8359
330
842E
100
AcDbEntity
  8
DEFPOINTS
 62
     0
100
AcDbPoint
 10
4148.21797163364
 20
2584.867032643556
 30
0.0
  0
POINT
  5
835A
330
842E
100
AcDbEntity
  8
DEFPOINTS
 62
     0
100
AcDbPoint
 10
4148.21797163364
 20
5072.874531832272
 30
0.0
  0
ENDBLK
  5
804F
330
842E
100
AcDbEntity
  8
0
100
AcDbBlockEnd
  0
BLOCK
  5
8431
330
8430
100
AcDbEntity
  8
0
100
AcDbBlockBegin
  2
*D16
 70
     1
 10
0.0
 20
0.0
 30
0.0
  3
*D16
  1

  0
LINE
  5
835B
330
8430
100
AcDbEntity
  8
3
 62
     0
100
AcDbLine
 10
2612.717971633641
 20
4619.867032643557
 30
0.0
 11
1149.008057762066
 21
4619.867032643557
 31
0.0
  0
LINE
  5
835C
330
8430
100
AcDbEntity
  8
3
 62
     0
100
AcDbLine
 10
1654.878970734908
 20
3814.867032643557
 30
0.0
 11
1149.008057762066
 21
3814.867032643557
 31
0.0
  0
LINE
  5
835D
330
8430
100
AcDbEntity
  8
3
 62
     0
100
AcDbLine
 10
1184.008057762066
 20
4549.867032643557
 30
0.0
 11
1184.008057762066
 21
3884.867032643557
 31
0.0
  0
INSERT
  5
835E
330
8430
100
AcDbEntity
  8
3
 62
     0
100
AcDbBlockReference
  2
_OPEN
 10
1184.008057762066
 20
4619.867032643557
 30
0.0
 41
70.0
 42
70.0
 43
70.0
 50
90.0
  0
INSERT
  5
835F
330
8430
100
AcDbEntity
  8
3
 62
     0
100
AcDbBlockReference
  2
_OPEN
 10
1184.008057762066
 20
3814.867032643557
 30
0.0
 41
70.0
 42
70.0
 43
70.0
 50
270.0
  0
TEXT
  5
838F
330
8430
100
AcDbEntity
  8
3
 62
     0
100
AcDbText
 10
886.508
 20
4031.519999999999
 30
0.0
 40
105.0
  1
805
100
AcDbText
  0
POINT
  5
8361
330
8430
100
AcDbEntity
  8
DEFPOINTS
 62
     0
100
AcDbPoint
 10
2630.217971633641
 20
4619.867032643557
 30
0.0
  0
POINT
  5
8362
330
8430
100
AcDbEntity
  8
DEFPOINTS
 62
     0
100
AcDbPoint
 10
1672.378970734906
 20
3814.867032643557
 30
0.0
  0
POINT
  5
8363
330
8430
100
AcDbEntity
  8
DEFPOINTS
 62
     0
100
AcDbPoint
 10
1184.008057762066
 20
3814.867032643557
 30
0.0
  0
ENDBLK
  5
8002
330
8430
100
AcDbEntity
  8
0
100
AcDbBlockEnd
  0
BLOCK
  5
8433
330
8432
100
AcDbEntity
  8
0
100
AcDbBlockBegin
  2
*D17
 70
     1
 10
0.0
 20
0.0
 30
0.0
  3
*D17
  1

  0
LINE
  5
8364
330
8432
100
AcDbEntity
  8
3
 62
     0
100
AcDbLine
 10
1654.878970734908
 20
3814.867032643557
 30
0.0
 11
1149.008057762067
 21
3814.867032643557
 31
0.0
  0
LINE
  5
8365
330
8432
100
AcDbEntity
  8
3
 62
     0
100
AcDbLine
 10
1870.717971633641
 20
2459.867032643556
 30
0.0
 11
1149.008057762066
 21
2459.867032643556
 31
0.0
  0
LINE
  5
8366
330
8432
100
AcDbEntity
  8
3
 62
     0
100
AcDbLine
 10
1184.008057762067
 20
3744.867032643556
 30
0.0
 11
1184.008057762066
 21
2529.867032643557
 31
0.0
  0
INSERT
  5
8367
330
8432
100
AcDbEntity
  8
3
 62
     0
100
AcDbBlockReference
  2
_OPEN
 10
1184.008057762067
 20
3814.867032643557
 30
0.0
 41
70.0
 42
70.0
 43
70.0
 50
90.0
  0
INSERT
  5
8368
330
8432
100
AcDbEntity
  8
3
 62
     0
100
AcDbBlockReference
  2
_OPEN
 10
1184.008057762066
 20
2459.867032643556
 30
0.0
 41
70.0
 42
70.0
 43
70.0
 50
270.0
  0
TEXT
  5
8390
330
8432
100
AcDbEntity
  8
3
 62
     0
100
AcDbText
 10
886.508
 20
2951.52
 30
0.0
 40
105.0
  1
1355
100
AcDbText
  0
POINT
  5
836A
330
8432
100
AcDbEntity
  8
DEFPOINTS
 62
     0
100
AcDbPoint
 10
1672.378970734906
 20
3814.867032643557
 30
0.0
  0
POINT
  5
836B
330
8432
100
AcDbEntity
  8
DEFPOINTS
 62
     0
100
AcDbPoint
 10
1888.21797163364
 20
2459.867032643556
 30
0.0
  0
POINT
  5
836C
330
8432
100
AcDbEntity
  8
DEFPOINTS
 62
     0
100
AcDbPoint
 10
1184.008057762066
 20
2459.867032643556
 30
0.0
  0
ENDBLK
  5
7FEC
330
8432
100
AcDbEntity
  8
0
100
AcDbBlockEnd
  0
BLOCK
  5
8435
330
8434
100
AcDbEntity
  8
0
100
AcDbBlockBegin
  2
*D18
 70
     1
 10
0.0
 20
0.0
 30
0.0
  3
*D18
  1

  0
LINE
  5
836D
330
8434
100
AcDbEntity
  8
3
 62
     0
100
AcDbLine
 10
1788.21797163364
 20
3837.367032643556
 30
0.0
 11
1788.21797163364
 21
4880.294362889877
 31
0.0
  0
LINE
  5
836E
330
8434
100
AcDbEntity
  8
3
 62
     0
100
AcDbLine
 10
2548.217971633641
 20
4698.435226323957
 30
0.0
 11
2548.217971633641
 21
4880.294362889877
 31
0.0
  0
LINE
  5
836F
330
8434
100
AcDbEntity
  8
3
 62
     0
100
AcDbLine
 10
1858.217971633641
 20
4845.294362889877
 30
0.0
 11
2478.217971633641
 21
4845.294362889877
 31
0.0
  0
INSERT
  5
8370
330
8434
100
AcDbEntity
  8
3
 62
     0
100
AcDbBlockReference
  2
_OPEN
 10
1788.21797163364
 20
4845.294362889877
 30
0.0
 41
70.0
 42
70.0
 43
70.0
 50
180.0
  0
INSERT
  5
8371
330
8434
100
AcDbEntity
  8
3
 62
     0
100
AcDbBlockReference
  2
_OPEN
 10
2548.217971633641
 20
4845.294362889877
 30
0.0
 41
70.0
 42
70.0
 43
70.0
  0
TEXT
  5
8391
330
8434
100
AcDbEntity
  8
3
 62
     0
100
AcDbText
 10
1958.22
 20
4746.94
 30
0.0
 40
105.0
  1
760
100
AcDbText
  0
POINT
  5
8373
330
8434
100
AcDbEntity
  8
DEFPOINTS
 62
     0
100
AcDbPoint
 10
1788.21797163364
 20
3819.867032643557
 30
0.0
  0
POINT
  5
8374
330
8434
100
AcDbEntity
  8
DEFPOINTS
 62
     0
100
AcDbPoint
 10
2548.217971633641
 20
4680.935226323958
 30
0.0
  0
POINT
  5
8375
330
8434
100
AcDbEntity
  8
DEFPOINTS
 62
     0
100
AcDbPoint
 10
2548.217971633641
 20
4845.294362889877
 30
0.0
  0
ENDBLK
  5
8070
330
8434
100
AcDbEntity
  8
0
100
AcDbBlockEnd
  0
BLOCK
  5
8437
330
8436
100
AcDbEntity
  8
0
100
AcDbBlockBegin
  2
*D19
 70
     1
 10
0.0
 20
0.0
 30
0.0
  3
*D19
  1

  0
LINE
  5
8376
330
8436
100
AcDbEntity
  8
3
 62
     0
100
AcDbLine
 10
2548.217971633641
 20
4698.435226323957
 30
0.0
 11
2548.217971633641
 21
4880.294362889877
 31
0.0
  0
LINE
  5
8377
330
8436
100
AcDbEntity
  8
3
 62
     0
100
AcDbLine
 10
3517.217971633641
 20
3750.367032643556
 30
0.0
 11
3517.217971633641
 21
4880.294362889877
 31
0.0
  0
LINE
  5
8378
330
8436
100
AcDbEntity
  8
3
 62
     0
100
AcDbLine
 10
2618.217971633641
 20
4845.294362889877
 30
0.0
 11
3447.217971633641
 21
4845.294362889877
 31
0.0
  0
INSERT
  5
8379
330
8436
100
AcDbEntity
  8
3
 62
     0
100
AcDbBlockReference
  2
_OPEN
 10
2548.217971633641
 20
4845.294362889877
 30
0.0
 41
70.0
 42
70.0
 43
70.0
 50
180.0
  0
INSERT
  5
837A
330
8436
100
AcDbEntity
  8
3
 62
     0
100
AcDbBlockReference
  2
_OPEN
 10
3517.217971633641
 20
4845.294362889877
 30
0.0
 41
70.0
 42
70.0
 43
70.0
  0
TEXT
  5
8392
330
8436
100
AcDbEntity
  8
3
 62
     0
100
AcDbText
 10
2822.72
 20
4746.94
 30
0.0
 40
105.0
  1
969
100
AcDbText
  0
POINT
  5
837C
330
8436
100
AcDbEntity
  8
DEFPOINTS
 62
     0
100
AcDbPoint
 10
2548.217971633641
 20
4680.935226323958
 30
0.0
  0
POINT
  5
837D
330
8436
100
AcDbEntity
  8
DEFPOINTS
 62
     0
100
AcDbPoint
 10
3517.217971633641
 20
3732.867032643557
 30
0.0
  0
POINT
  5
837E
330
8436
100
AcDbEntity
  8
DEFPOINTS
 62
     0
100
AcDbPoint
 10
3517.217971633641
 20
4845.294362889877
 30
0.0
  0
ENDBLK
  5
8065
330
8436
100
AcDbEntity
  8
0
100
AcDbBlockEnd
  0
BLOCK
  5
8439
330
8438
100
AcDbEntity
  8
0
100
AcDbBlockBegin
  2
_DOT
 70
     0
 10
0.0
 20
0.0
 30
0.0
  3
_DOT
  1

  0
LWPOLYLINE
  5
80CA
330
8438
100
AcDbEntity
  8
0
  6
ByBlock
 62
     0
100
AcDbPolyline
 90
        2
 70
     1
 43
0.25
 10
-0.125
 20
0.0
 42
1.0
 10
0.125
 20
0.0
 42
1.0
  0
LINE
  5
80CE
330
8438
100
AcDbEntity
  8
0
  6
ByBlock
 62
     0
100
AcDbLine
 10
-0.25
 20
0.0
 30
0.0
 11
-1.0
 21
0.0
 31
0.0
  0
ENDBLK
  5
80AC
330
8438
100
AcDbEntity
  8
0
100
AcDbBlockEnd
  0
BLOCK
  5
843B
330
843A
100
AcDbEntity
  8
0
100
AcDbBlockBegin
  2
_NONE
 70
     0
 10
0.0
 20
0.0
 30
0.0
  3
_NONE
  1

  0
CIRCLE
  5
815B
330
843A
100
AcDbEntity
  8
0
  6
ByBlock
 62
     0
100
AcDbCircle
 10
0.0
 20
0.0
 30
0.0
 40
0.25
  0
ENDBLK
  5
815C
330
843A
100
AcDbEntity
  8
0
100
AcDbBlockEnd
  0
BLOCK
  5
843D
330
843C
100
AcDbEntity
  8
0
100
AcDbBlockBegin
  2
*D22
 70
     1
 10
0.0
 20
0.0
 30
0.0
  3
*D22
  1

  0
LINE
  5
81D5
330
843C
100
AcDbEntity
  8
0
  6
ByBlock
 62
     0
100
AcDbLine
 10
1888.21797163364
 20
2442.367032643558
 30
0.0
 11
1888.21797163364
 21
2172.791420376423
 31
0.0
  0
LINE
  5
81D6
330
843C
100
AcDbEntity
  8
0
  6
ByBlock
 62
     0
100
AcDbLine
 10
2548.217971633641
 20
2442.367032643558
 30
0.0
 11
2548.217971633641
 21
2172.791420376423
 31
0.0
  0
LINE
  5
81D7
330
843C
100
AcDbEntity
  8
0
  6
ByBlock
 62
     0
100
AcDbLine
 10
1958.217971633641
 20
2207.791420376423
 30
0.0
 11
2478.21797163364
 21
2207.791420376423
 31
0.0
  0
INSERT
  5
81D8
330
843C
100
AcDbEntity
  8
0
  6
ByBlock
 62
     0
100
AcDbBlockReference
  2
_OPEN
 10
1888.21797163364
 20
2207.791420376423
 30
0.0
 41
70.0
 42
70.0
 43
70.0
 50
180.0
  0
INSERT
  5
81D9
330
843C
100
AcDbEntity
  8
0
  6
ByBlock
 62
     0
100
AcDbBlockReference
  2
_OPEN
 10
2548.217971633641
 20
2207.791420376423
 30
0.0
 41
70.0
 42
70.0
 43
70.0
  0
TEXT
  5
81DA
330
843C
100
AcDbEntity
  8
3
 62
     0
100
AcDbText
 10
2083.217971633641
 20
2242.791420376423
 30
0.0
 40
105.0
  1
660
100
AcDbText
  0
POINT
  5
81DB
330
843C
100
AcDbEntity
  8
DEFPOINTS
  6
ByBlock
 62
     0
100
AcDbPoint
 10
1888.21797163364
 20
2459.867032643556
 30
0.0
  0
POINT
  5
81DC
330
843C
100
AcDbEntity
  8
DEFPOINTS
  6
ByBlock
 62
     0
100
AcDbPoint
 10
2548.217971633641
 20
2459.867032643556
 30
0.0
  0
POINT
  5
81DD
330
843C
100
AcDbEntity
  8
DEFPOINTS
  6
ByBlock
 62
     0
100
AcDbPoint
 10
2548.217971633641
 20
2207.791420376423
 30
0.0
  0
ENDBLK
  5
81DE
330
843C
100
AcDbEntity
  8
0
100
AcDbBlockEnd
  0
BLOCK
  5
843F
330
843E
100
AcDbEntity
  8
0
100
AcDbBlockBegin
  2
*D23
 70
     1
 10
0.0
 20
0.0
 30
0.0
  3
*D23
  1

  0
LINE
  5
81E2
330
843E
100
AcDbEntity
  8
0
  6
ByBlock
 62
     0
100
AcDbLine
 10
2548.217971633641
 20
2442.367032643558
 30
0.0
 11
2548.217971633641
 21
2172.791420376423
 31
0.0
  0
LINE
  5
81E3
330
843E
100
AcDbEntity
  8
0
  6
ByBlock
 62
     0
100
AcDbLine
 10
4148.21797163364
 20
2442.367032643558
 30
0.0
 11
4148.21797163364
 21
2172.791420376423
 31
0.0
  0
LINE
  5
81E4
330
843E
100
AcDbEntity
  8
0
  6
ByBlock
 62
     0
100
AcDbLine
 10
2618.217971633641
 20
2207.791420376423
 30
0.0
 11
4078.21797163364
 21
2207.791420376423
 31
0.0
  0
INSERT
  5
81E5
330
843E
100
AcDbEntity
  8
0
  6
ByBlock
 62
     0
100
AcDbBlockReference
  2
_OPEN
 10
2548.217971633641
 20
2207.791420376423
 30
0.0
 41
70.0
 42
70.0
 43
70.0
 50
180.0
  0
INSERT
  5
81E6
330
843E
100
AcDbEntity
  8
0
  6
ByBlock
 62
     0
100
AcDbBlockReference
  2
_OPEN
 10
4148.21797163364
 20
2207.791420376423
 30
0.0
 41
70.0
 42
70.0
 43
70.0
  0
TEXT
  5
81E7
330
843E
100
AcDbEntity
  8
3
 62
     0
100
AcDbText
 10
3173.21797163364
 20
2242.791420376423
 30
0.0
 40
105.0
  1
1600
100
AcDbText
  0
POINT
  5
81E8
330
843E
100
AcDbEntity
  8
DEFPOINTS
  6
ByBlock
 62
     0
100
AcDbPoint
 10
2548.217971633641
 20
2459.867032643556
 30
0.0
  0
POINT
  5
81E9
330
843E
100
AcDbEntity
  8
DEFPOINTS
  6
ByBlock
 62
     0
100
AcDbPoint
 10
4148.21797163364
 20
2459.867032643556
 30
0.0
  0
POINT
  5
81EA
330
843E
100
AcDbEntity
  8
DEFPOINTS
  6
ByBlock
 62
     0
100
AcDbPoint
 10
4148.21797163364
 20
2207.791420376423
 30
0.0
  0
ENDBLK
  5
81EB
330
843E
100
AcDbEntity
  8
0
100
AcDbBlockEnd
  0
BLOCK
  5
8441
330
8440
100
AcDbEntity
  8
0
100
AcDbBlockBegin
  2
*D24
 70
     1
 10
0.0
 20
0.0
 30
0.0
  3
*D24
  1

  0
LINE
  5
81EF
330
8440
100
AcDbEntity
  8
0
  6
ByBlock
 62
     0
100
AcDbLine
 10
4555.400400804151
 20
2442.367032643558
 30
0.0
 11
4555.400400804151
 21
2172.791420376423
 31
0.0
  0
LINE
  5
81F0
330
8440
100
AcDbEntity
  8
0
  6
ByBlock
 62
     0
100
AcDbLine
 10
5637.400400804153
 20
2442.367032643558
 30
0.0
 11
5637.400400804153
 21
2172.791420376423
 31
0.0
  0
LINE
  5
81F1
330
8440
100
AcDbEntity
  8
0
  6
ByBlock
 62
     0
100
AcDbLine
 10
4625.400400804151
 20
2207.791420376423
 30
0.0
 11
5567.400400804153
 21
2207.791420376423
 31
0.0
  0
INSERT
  5
81F2
330
8440
100
AcDbEntity
  8
0
  6
ByBlock
 62
     0
100
AcDbBlockReference
  2
_OPEN
 10
4555.400400804151
 20
2207.791420376423
 30
0.0
 41
70.0
 42
70.0
 43
70.0
 50
180.0
  0
INSERT
  5
81F3
330
8440
100
AcDbEntity
  8
0
  6
ByBlock
 62
     0
100
AcDbBlockReference
  2
_OPEN
 10
5637.400400804153
 20
2207.791420376423
 30
0.0
 41
70.0
 42
70.0
 43
70.0
  0
TEXT
  5
81F4
330
8440
100
AcDbEntity
  8
3
 62
     0
100
AcDbText
 10
4921.400400804152
 20
2242.791420376423
 30
0.0
 40
105.0
  1
1082
100
AcDbText
  0
POINT
  5
81F5
330
8440
100
AcDbEntity
  8
DEFPOINTS
  6
ByBlock
 62
     0
100
AcDbPoint
 10
4555.400400804151
 20
2459.867032643556
 30
0.0
  0
POINT
  5
81F6
330
8440
100
AcDbEntity
  8
DEFPOINTS
  6
ByBlock
 62
     0
100
AcDbPoint
 10
5637.400400804153
 20
2459.867032643556
 30
0.0
  0
POINT
  5
81F7
330
8440
100
AcDbEntity
  8
DEFPOINTS
  6
ByBlock
 62
     0
100
AcDbPoint
 10
5637.400400804153
 20
2207.791420376423
 30
0.0
  0
ENDBLK
  5
81F8
330
8440
100
AcDbEntity
  8
0
100
AcDbBlockEnd
  0
BLOCK
  5
8443
330
8442
100
AcDbEntity
  8
0
100
AcDbBlockBegin
  2
*D25
 70
     1
 10
0.0
 20
0.0
 30
0.0
  3
*D25
  1

  0
LINE
  5
81FC
330
8442
100
AcDbEntity
  8
0
  6
ByBlock
 62
     0
100
AcDbLine
 10
5637.400400804153
 20
2442.367032643558
 30
0.0
 11
5637.400400804153
 21
2172.791420376423
 31
0.0
  0
LINE
  5
81FD
330
8442
100
AcDbEntity
  8
0
  6
ByBlock
 62
     0
100
AcDbLine
 10
6455.40040080415
 20
2442.367032643558
 30
0.0
 11
6455.40040080415
 21
2172.791420376423
 31
0.0
  0
LINE
  5
81FE
330
8442
100
AcDbEntity
  8
0
  6
ByBlock
 62
     0
100
AcDbLine
 10
5707.400400804153
 20
2207.791420376423
 30
0.0
 11
6385.400400804152
 21
2207.791420376423
 31
0.0
  0
INSERT
  5
81FF
330
8442
100
AcDbEntity
  8
0
  6
ByBlock
 62
     0
100
AcDbBlockReference
  2
_OPEN
 10
5637.400400804153
 20
2207.791420376423
 30
0.0
 41
70.0
 42
70.0
 43
70.0
 50
180.0
  0
INSERT
  5
8200
330
8442
100
AcDbEntity
  8
0
  6
ByBlock
 62
     0
100
AcDbBlockReference
  2
_OPEN
 10
6455.40040080415
 20
2207.791420376423
 30
0.0
 41
70.0
 42
70.0
 43
70.0
  0
TEXT
  5
8201
330
8442
100
AcDbEntity
  8
3
 62
     0
100
AcDbText
 10
5921.400400804152
 20
2242.791420376423
 30
0.0
 40
105.0
  1
818
100
AcDbText
  0
POINT
  5
8202
330
8442
100
AcDbEntity
  8
DEFPOINTS
  6
ByBlock
 62
     0
100
AcDbPoint
 10
5637.400400804153
 20
2459.867032643556
 30
0.0
  0
POINT
  5
8203
330
8442
100
AcDbEntity
  8
DEFPOINTS
  6
ByBlock
 62
     0
100
AcDbPoint
 10
6455.40040080415
 20
2459.867032643556
 30
0.0
  0
POINT
  5
8204
330
8442
100
AcDbEntity
  8
DEFPOINTS
  6
ByBlock
 62
     0
100
AcDbPoint
 10
6455.40040080415
 20
2207.791420376423
 30
0.0
  0
ENDBLK
  5
8205
330
8442
100
AcDbEntity
  8
0
100
AcDbBlockEnd
  0
BLOCK
  5
8445
330
8444
100
AcDbEntity
  8
0
100
AcDbBlockBegin
  2
*D26
 70
     1
 10
0.0
 20
0.0
 30
0.0
  3
*D26
  1

  0
LINE
  5
8209
330
8444
100
AcDbEntity
  8
0
  6
ByBlock
 62
     0
100
AcDbLine
 10
1870.717971633641
 20
2459.867032643556
 30
0.0
 11
940.0826638516514
 21
2459.867032643556
 31
0.0
  0
LINE
  5
820A
330
8444
100
AcDbEntity
  8
0
  6
ByBlock
 62
     0
100
AcDbLine
 10
2595.217971633641
 20
4619.867032643557
 30
0.0
 11
940.0826638516514
 21
4619.867032643557
 31
0.0
  0
LINE
  5
820B
330
8444
100
AcDbEntity
  8
0
  6
ByBlock
 62
     0
100
AcDbLine
 10
975.0826638516521
 20
2529.867032643557
 30
0.0
 11
975.0826638516521
 21
4549.867032643557
 31
0.0
  0
INSERT
  5
820C
330
8444
100
AcDbEntity
  8
0
  6
ByBlock
 62
     0
100
AcDbBlockReference
  2
_OPEN
 10
975.0826638516521
 20
2459.867032643556
 30
0.0
 41
70.0
 42
70.0
 43
70.0
 50
270.0
  0
INSERT
  5
820D
330
8444
100
AcDbEntity
  8
0
  6
ByBlock
 62
     0
100
AcDbBlockReference
  2
_OPEN
 10
975.0826638516521
 20
4619.867032643557
 30
0.0
 41
70.0
 42
70.0
 43
70.0
 50
90.0
  0
TEXT
  5
820E
330
8444
100
AcDbEntity
  8
3
 62
     0
100
AcDbText
 10
940.0826638516514
 20
3364.867032643557
 30
0.0
 40
105.0
  1
2160
 50
90.0
100
AcDbText
  0
POINT
  5
820F
330
8444
100
AcDbEntity
  8
DEFPOINTS
  6
ByBlock
 62
     0
100
AcDbPoint
 10
1888.21797163364
 20
2459.867032643556
 30
0.0
  0
POINT
  5
8210
330
8444
100
AcDbEntity
  8
DEFPOINTS
  6
ByBlock
 62
     0
100
AcDbPoint
 10
2612.717971633641
 20
4619.867032643557
 30
0.0
  0
POINT
  5
8211
330
8444
100
AcDbEntity
  8
DEFPOINTS
  6
ByBlock
 62
     0
100
AcDbPoint
 10
975.0826638516521
 20
4619.867032643557
 30
0.0
  0
ENDBLK
  5
8212
330
8444
100
AcDbEntity
  8
0
100
AcDbBlockEnd
  0
BLOCK
  5
844D
330
844C
100
AcDbEntity
  8
0
100
AcDbBlockBegin
  2
*D27
 70
     1
 10
0.0
 20
0.0
 30
0.0
  3
*D27
  1

  0
LINE
  5
848B
330
844C
100
AcDbEntity
  8
3
 62
     0
370
    -2
100
AcDbLine
 10
6404.900400804152
 20
4374.867032643556
 30
0.0
 11
6874.022644889329
 21
4374.867032643556
 31
0.0
  0
LINE
  5
848C
330
844C
100
AcDbEntity
  8
3
 62
     0
370
    -2
100
AcDbLine
 10
6404.900400804152
 20
3254.867032643557
 30
0.0
 11
6874.022644889329
 21
3254.867032643557
 31
0.0
  0
LINE
  5
848D
330
844C
100
AcDbEntity
  8
3
 62
     0
370
    -2
100
AcDbLine
 10
6839.02264488933
 20
4304.867032643556
 30
0.0
 11
6839.02264488933
 21
3324.867032643557
 31
0.0
  0
INSERT
  5
848E
330
844C
100
AcDbEntity
  8
3
 62
     0
370
    -2
100
AcDbBlockReference
  2
_OPEN
 10
6839.02264488933
 20
4374.867032643556
 30
0.0
 41
70.0
 42
70.0
 43
70.0
 50
90.0
  0
INSERT
  5
848F
330
844C
100
AcDbEntity
  8
3
 62
     0
370
    -2
100
AcDbBlockReference
  2
_OPEN
 10
6839.02264488933
 20
3254.867032643557
 30
0.0
 41
70.0
 42
70.0
 43
70.0
 50
270.0
  0
MTEXT
  5
8490
330
844C
100
AcDbEntity
  8
3
 62
     0
100
AcDbMText
 10
6751.522644889329
 20
3814.867032643558
 30
0.0
 40
105.0
 41
0.0
 71
     5
 72
     1
  1
\A1;\U+03C61120
 11
0.0000000000000001
 21
1.0
 31
0.0
 73
     1
 44
1.0
1001
ACAD
1000
MTEXTBEGIN
1070
    73
1070
     1
1070
    44
1040
1.0
1070
    74
1070
     0
1000
MTEXTEND
  0
POINT
  5
8491
330
844C
100
AcDbEntity
  8
DEFPOINTS
 62
     0
100
AcDbPoint
 10
6387.400400804152
 20
4374.867032643556
 30
0.0
  0
POINT
  5
8492
330
844C
100
AcDbEntity
  8
DEFPOINTS
 62
     0
100
AcDbPoint
 10
6387.400400804152
 20
3254.867032643557
 30
0.0
  0
POINT
  5
8493
330
844C
100
AcDbEntity
  8
DEFPOINTS
 62
     0
100
AcDbPoint
 10
6839.02264488933
 20
3254.867032643557
 30
0.0
  0
ENDBLK
  5
844E
330
844C
100
AcDbEntity
  8
0
100
AcDbBlockEnd
  0
BLOCK
  5
845A
330
8459
100
AcDbEntity
  8
0
100
AcDbBlockBegin
  2
*D28
 70
     1
 10
0.0
 20
0.0
 30
0.0
  3
*D28
  1

  0
LINE
  5
845C
330
8459
100
AcDbEntity
  8
3
 62
     0
370
    -2
100
AcDbLine
 10
4887.400400804152
 20
4637.367032643556
 30
0.0
 11
4887.400400804152
 21
4908.306671695953
 31
0.0
  0
LINE
  5
845D
330
8459
100
AcDbEntity
  8
3
 62
     0
370
    -2
100
AcDbLine
 10
6387.400400804152
 20
4637.367032643556
 30
0.0
 11
6387.400400804152
 21
4908.306671695953
 31
0.0
  0
LINE
  5
845E
330
8459
100
AcDbEntity
  8
3
 62
     0
370
    -2
100
AcDbLine
 10
4957.400400804152
 20
4873.306671695954
 30
0.0
 11
6317.400400804152
 21
4873.306671695954
 31
0.0
  0
INSERT
  5
845F
330
8459
100
AcDbEntity
  8
3
 62
     0
370
    -2
100
AcDbBlockReference
  2
_OPEN
 10
4887.400400804152
 20
4873.306671695954
 30
0.0
 41
70.0
 42
70.0
 43
70.0
 50
180.0
  0
INSERT
  5
8460
330
8459
100
AcDbEntity
  8
3
 62
     0
370
    -2
100
AcDbBlockReference
  2
_OPEN
 10
6387.400400804152
 20
4873.306671695954
 30
0.0
 41
70.0
 42
70.0
 43
70.0
  0
MTEXT
  5
8461
330
8459
100
AcDbEntity
  8
3
 62
     0
100
AcDbMText
 10
5637.400400804152
 20
4960.806671695954
 30
0.0
 40
105.0
 41
0.0
 71
     5
 72
     1
  1
\A1;1500
 73
     1
 44
1.0
1001
ACAD
1000
MTEXTBEGIN
1070
    73
1070
     1
1070
    44
1040
1.0
1070
    74
1070
     0
1000
MTEXTEND
  0
POINT
  5
8462
330
8459
100
AcDbEntity
  8
DEFPOINTS
 62
     0
100
AcDbPoint
 10
4887.400400804152
 20
4619.867032643557
 30
0.0
  0
POINT
  5
8463
330
8459
100
AcDbEntity
  8
DEFPOINTS
 62
     0
100
AcDbPoint
 10
6387.400400804152
 20
4619.867032643557
 30
0.0
  0
POINT
  5
8464
330
8459
100
AcDbEntity
  8
DEFPOINTS
 62
     0
100
AcDbPoint
 10
6387.400400804152
 20
4873.306671695954
 30
0.0
  0
ENDBLK
  5
845B
330
8459
100
AcDbEntity
  8
0
100
AcDbBlockEnd
  0
BLOCK
  5
8467
330
8466
100
AcDbEntity
  8
0
100
AcDbBlockBegin
  2
*D29
 70
     1
 10
0.0
 20
0.0
 30
0.0
  3
*D29
  1

  0
LINE
  5
84CA
330
8466
100
AcDbEntity
  8
3
 62
     0
370
    -2
100
AcDbLine
 10
4517.400400804151
 20
4212.367032643555
 30
0.0
 11
4517.400400804151
 21
5105.297380820517
 31
0.0
  0
LINE
  5
84CB
330
8466
100
AcDbEntity
  8
3
 62
     0
370
    -2
100
AcDbLine
 10
5637.400400804152
 20
5030.806671695954
 30
0.0
 11
5637.400400804152
 21
5105.297380820517
 31
0.0
  0
LINE
  5
84CC
330
8466
100
AcDbEntity
  8
3
 62
     0
370
    -2
100
AcDbLine
 10
4587.400400804152
 20
5070.297380820517
 30
0.0
 11
5567.400400804152
 21
5070.297380820517
 31
0.0
  0
INSERT
  5
84CD
330
8466
100
AcDbEntity
  8
3
 62
     0
370
    -2
100
AcDbBlockReference
  2
_OPEN
 10
4517.400400804151
 20
5070.297380820517
 30
0.0
 41
70.0
 42
70.0
 43
70.0
 50
180.0
  0
INSERT
  5
84CE
330
8466
100
AcDbEntity
  8
3
 62
     0
370
    -2
100
AcDbBlockReference
  2
_OPEN
 10
5637.400400804152
 20
5070.297380820517
 30
0.0
 41
70.0
 42
70.0
 43
70.0
  0
MTEXT
  5
84CF
330
8466
100
AcDbEntity
  8
3
 62
     0
100
AcDbMText
 10
5077.400400804152
 20
5185.297380820517
 30
0.0
 40
105.0
 41
0.0
 71
     5
 72
     1
  1
\A1;(1120)
 73
     1
 44
1.0
1001
ACAD
1000
MTEXTBEGIN
1070
    73
1070
     1
1070
    44
1040
1.0
1070
    74
1070
     0
1000
MTEXTEND
  0
POINT
  5
84D0
330
8466
100
AcDbEntity
  8
DEFPOINTS
 62
     0
100
AcDbPoint
 10
4517.400400804151
 20
4194.867032643556
 30
0.0
  0
POINT
  5
84D1
330
8466
100
AcDbEntity
  8
DEFPOINTS
 62
     0
100
AcDbPoint
 10
5637.400400804152
 20
5013.306671695954
 30
0.0
  0
POINT
  5
84D2
330
8466
100
AcDbEntity
  8
DEFPOINTS
 62
     0
100
AcDbPoint
 10
5637.400400804152
 20
5070.297380820517
 30
0.0
  0
ENDBLK
  5
8468
330
8466
100
AcDbEntity
  8
0
100
AcDbBlockEnd
  0
BLOCK
  5
8474
330
8473
100
AcDbEntity
  8
0
100
AcDbBlockBegin
  2
*D30
 70
     1
 10
0.0
 20
0.0
 30
0.0
  3
*D30
  1

  0
LINE
  5
84D3
330
8473
100
AcDbEntity
  8
3
 62
     0
370
    -2
100
AcDbLine
 10
5637.400400804152
 20
5030.806671695954
 30
0.0
 11
5637.400400804152
 21
5105.297380820517
 31
0.0
  0
LINE
  5
84D4
330
8473
100
AcDbEntity
  8
3
 62
     0
370
    -2
100
AcDbLine
 10
6567.40040080415
 20
3759.367032643556
 30
0.0
 11
6567.40040080415
 21
5105.297380820517
 31
0.0
  0
LINE
  5
84D5
330
8473
100
AcDbEntity
  8
3
 62
     0
370
    -2
100
AcDbLine
 10
5707.400400804152
 20
5070.297380820517
 30
0.0
 11
6497.40040080415
 21
5070.297380820517
 31
0.0
  0
INSERT
  5
84D6
330
8473
100
AcDbEntity
  8
3
 62
     0
370
    -2
100
AcDbBlockReference
  2
_OPEN
 10
5637.400400804152
 20
5070.297380820517
 30
0.0
 41
70.0
 42
70.0
 43
70.0
 50
180.0
  0
INSERT
  5
84D7
330
8473
100
AcDbEntity
  8
3
 62
     0
370
    -2
100
AcDbBlockReference
  2
_OPEN
 10
6567.40040080415
 20
5070.297380820517
 30
0.0
 41
70.0
 42
70.0
 43
70.0
  0
MTEXT
  5
84D8
330
8473
100
AcDbEntity
  8
3
 62
     0
100
AcDbMText
 10
6102.400400804151
 20
5185.297380820517
 30
0.0
 40
105.0
 41
0.0
 71
     5
 72
     1
  1
\A1;(930)
 73
     1
 44
1.0
1001
ACAD
1000
MTEXTBEGIN
1070
    73
1070
     1
1070
    44
1040
1.0
1070
    74
1070
     0
1000
MTEXTEND
  0
POINT
  5
84D9
330
8473
100
AcDbEntity
  8
DEFPOINTS
 62
     0
100
AcDbPoint
 10
5637.400400804152
 20
5013.306671695954
 30
0.0
  0
POINT
  5
84DA
330
8473
100
AcDbEntity
  8
DEFPOINTS
 62
     0
100
AcDbPoint
 10
6567.40040080415
 20
3741.867032643556
 30
0.0
  0
POINT
  5
84DB
330
8473
100
AcDbEntity
  8
DEFPOINTS
 62
     0
100
AcDbPoint
 10
6567.40040080415
 20
5070.297380820517
 30
0.0
  0
ENDBLK
  5
8475
330
8473
100
AcDbEntity
  8
0
100
AcDbBlockEnd
  0
BLOCK
  5
84DE
330
84DD
100
AcDbEntity
  8
0
100
AcDbBlockBegin
  2
*D31
 70
     1
 10
0.0
 20
0.0
 30
0.0
  3
*D31
  1

  0
LINE
  5
84E9
330
84DD
100
AcDbEntity
  8
3
 62
     0
370
    -2
100
AcDbLine
 10
3655.635409496289
 20
6875.481934815962
 30
0.0
 11
4971.924630949173
 21
6875.481934815962
 31
0.0
  0
LINE
  5
84EA
330
84DD
100
AcDbEntity
  8
3
 62
     0
370
    -2
100
AcDbLine
 10
4095.717971633639
 20
5755.481934815962
 30
0.0
 11
4971.924630949172
 21
5755.481934815962
 31
0.0
  0
LINE
  5
84EB
330
84DD
100
AcDbEntity
  8
3
 62
     0
370
    -2
100
AcDbLine
 10
4936.924630949173
 20
6805.481934815961
 30
0.0
 11
4936.924630949172
 21
5825.481934815962
 31
0.0
  0
INSERT
  5
84EC
330
84DD
100
AcDbEntity
  8
3
 62
     0
370
    -2
100
AcDbBlockReference
  2
_OPEN
 10
4936.924630949173
 20
6875.481934815962
 30
0.0
 41
70.0
 42
70.0
 43
70.0
 50
90.0
  0
INSERT
  5
84ED
330
84DD
100
AcDbEntity
  8
3
 62
     0
370
    -2
100
AcDbBlockReference
  2
_OPEN
 10
4936.924630949172
 20
5755.481934815962
 30
0.0
 41
70.0
 42
70.0
 43
70.0
 50
270.0
  0
MTEXT
  5
84EE
330
84DD
100
AcDbEntity
  8
3
 62
     0
100
AcDbMText
 10
4849.424630949171
 20
6315.481934815963
 30
0.0
 40
105.0
 41
0.0
 71
     5
 72
     1
  1
\A1;1120
 11
0.0000000000000001
 21
1.0
 31
0.0
 73
     1
 44
1.0
1001
ACAD
1000
MTEXTBEGIN
1070
    73
1070
     1
1070
    44
1040
1.0
1070
    74
1070
     0
1000
MTEXTEND
  0
POINT
  5
84EF
330
84DD
100
AcDbEntity
  8
DEFPOINTS
 62
     0
100
AcDbPoint
 10
3638.135409496288
 20
6875.481934815962
 30
0.0
  0
POINT
  5
84F0
330
84DD
100
AcDbEntity
  8
DEFPOINTS
 62
     0
100
AcDbPoint
 10
4078.21797163364
 20
5755.481934815962
 30
0.0
  0
POINT
  5
84F1
330
84DD
100
AcDbEntity
  8
DEFPOINTS
 62
     0
100
AcDbPoint
 10
4936.924630949172
 20
5755.481934815962
 30
0.0
  0
ENDBLK
  5
84DF
330
84DD
100
AcDbEntity
  8
0
100
AcDbBlockEnd
  0
BLOCK
  5
84F4
330
84F3
100
AcDbEntity
  8
0
100
AcDbBlockBegin
  2
*D32
 70
     1
 10
0.0
 20
0.0
 30
0.0
  3
*D32
  1

  0
LINE
  5
84F6
330
84F3
100
AcDbEntity
  8
3
 62
     0
370
    -2
100
AcDbLine
 10
1870.717971633641
 20
7693.481934815962
 30
0.0
 11
1454.445716662588
 21
7693.481934815962
 31
0.0
  0
LINE
  5
84F7
330
84F3
100
AcDbEntity
  8
3
 62
     0
370
    -2
100
AcDbLine
 10
1870.717971633641
 20
5793.481934815962
 30
0.0
 11
1454.445716662588
 21
5793.481934815962
 31
0.0
  0
LINE
  5
84F8
330
84F3
100
AcDbEntity
  8
3
 62
     0
370
    -2
100
AcDbLine
 10
1489.445716662588
 20
7623.481934815962
 30
0.0
 11
1489.445716662588
 21
5863.481934815961
 31
0.0
  0
INSERT
  5
84F9
330
84F3
100
AcDbEntity
  8
3
 62
     0
370
    -2
100
AcDbBlockReference
  2
_OPEN
 10
1489.445716662588
 20
7693.481934815962
 30
0.0
 41
70.0
 42
70.0
 43
70.0
 50
90.0
  0
INSERT
  5
84FA
330
84F3
100
AcDbEntity
  8
3
 62
     0
370
    -2
100
AcDbBlockReference
  2
_OPEN
 10
1489.445716662588
 20
5793.481934815962
 30
0.0
 41
70.0
 42
70.0
 43
70.0
 50
270.0
  0
MTEXT
  5
84FB
330
84F3
100
AcDbEntity
  8
3
 62
     0
100
AcDbMText
 10
1401.945716662587
 20
6743.481934815962
 30
0.0
 40
105.0
 41
0.0
 71
     5
 72
     1
  1
\A1;1900
 11
0.0000000000000001
 21
1.0
 31
0.0
 73
     1
 44
1.0
1001
ACAD
1000
MTEXTBEGIN
1070
    73
1070
     1
1070
    44
1040
1.0
1070
    74
1070
     0
1000
MTEXTEND
  0
POINT
  5
84FC
330
84F3
100
AcDbEntity
  8
DEFPOINTS
 62
     0
100
AcDbPoint
 10
1888.21797163364
 20
7693.481934815962
 30
0.0
  0
POINT
  5
84FD
330
84F3
100
AcDbEntity
  8
DEFPOINTS
 62
     0
100
AcDbPoint
 10
1888.21797163364
 20
5793.481934815962
 30
0.0
  0
POINT
  5
84FE
330
84F3
100
AcDbEntity
  8
DEFPOINTS
 62
     0
100
AcDbPoint
 10
1489.445716662588
 20
5793.481934815962
 30
0.0
  0
ENDBLK
  5
84F5
330
84F3
100
AcDbEntity
  8
0
100
AcDbBlockEnd
  0
BLOCK
  5
8501
330
8500
100
AcDbEntity
  8
0
100
AcDbBlockBegin
  2
*D33
 70
     1
 10
0.0
 20
0.0
 30
0.0
  3
*D33
  1

  0
LINE
  5
8503
330
8500
100
AcDbEntity
  8
3
 62
     0
370
    -2
100
AcDbLine
 10
1888.21797163364
 20
7710.981934815961
 30
0.0
 11
1888.21797163364
 21
7902.489295287082
 31
0.0
  0
LINE
  5
8504
330
8500
100
AcDbEntity
  8
3
 62
     0
370
    -2
100
AcDbLine
 10
3208.217971633641
 20
7710.981934815961
 30
0.0
 11
3208.217971633641
 21
7902.489295287082
 31
0.0
  0
LINE
  5
8505
330
8500
100
AcDbEntity
  8
3
 62
     0
370
    -2
100
AcDbLine
 10
1958.217971633641
 20
7867.489295287082
 30
0.0
 11
3138.217971633641
 21
7867.489295287082
 31
0.0
  0
INSERT
  5
8506
330
8500
100
AcDbEntity
  8
3
 62
     0
370
    -2
100
AcDbBlockReference
  2
_OPEN
 10
1888.21797163364
 20
7867.489295287082
 30
0.0
 41
70.0
 42
70.0
 43
70.0
 50
180.0
  0
INSERT
  5
8507
330
8500
100
AcDbEntity
  8
3
 62
     0
370
    -2
100
AcDbBlockReference
  2
_OPEN
 10
3208.217971633641
 20
7867.489295287082
 30
0.0
 41
70.0
 42
70.0
 43
70.0
  0
MTEXT
  5
8508
330
8500
100
AcDbEntity
  8
3
 62
     0
100
AcDbMText
 10
2548.217971633641
 20
7954.989295287082
 30
0.0
 40
105.0
 41
0.0
 71
     5
 72
     1
  1
\A1;1320
 73
     1
 44
1.0
1001
ACAD
1000
MTEXTBEGIN
1070
    73
1070
     1
1070
    44
1040
1.0
1070
    74
1070
     0
1000
MTEXTEND
  0
POINT
  5
8509
330
8500
100
AcDbEntity
  8
DEFPOINTS
 62
     0
100
AcDbPoint
 10
1888.21797163364
 20
7693.481934815962
 30
0.0
  0
POINT
  5
850A
330
8500
100
AcDbEntity
  8
DEFPOINTS
 62
     0
100
AcDbPoint
 10
3208.217971633641
 20
7693.481934815962
 30
0.0
  0
POINT
  5
850B
330
8500
100
AcDbEntity
  8
DEFPOINTS
 62
     0
100
AcDbPoint
 10
3208.217971633641
 20
7867.489295287082
 30
0.0
  0
ENDBLK
  5
8502
330
8500
100
AcDbEntity
  8
0
100
AcDbBlockEnd
  0
BLOCK
  5
850E
330
850D
100
AcDbEntity
  8
0
100
AcDbBlockBegin
  2
*D34
 70
     1
 10
0.0
 20
0.0
 30
0.0
  3
*D34
  1

  0
LINE
  5
8510
330
850D
100
AcDbEntity
  8
3
 62
     0
370
    -2
100
AcDbLine
 10
3208.217971633641
 20
7710.981934815961
 30
0.0
 11
3208.217971633641
 21
7902.489295287082
 31
0.0
  0
LINE
  5
8511
330
850D
100
AcDbEntity
  8
3
 62
     0
370
    -2
100
AcDbLine
 10
4148.21797163364
 20
6710.981934815961
 30
0.0
 11
4148.21797163364
 21
7902.489295287082
 31
0.0
  0
LINE
  5
8512
330
850D
100
AcDbEntity
  8
3
 62
     0
370
    -2
100
AcDbLine
 10
3278.217971633641
 20
7867.489295287082
 30
0.0
 11
4078.21797163364
 21
7867.489295287082
 31
0.0
  0
INSERT
  5
8513
330
850D
100
AcDbEntity
  8
3
 62
     0
370
    -2
100
AcDbBlockReference
  2
_OPEN
 10
3208.217971633641
 20
7867.489295287082
 30
0.0
 41
70.0
 42
70.0
 43
70.0
 50
180.0
  0
INSERT
  5
8514
330
850D
100
AcDbEntity
  8
3
 62
     0
370
    -2
100
AcDbBlockReference
  2
_OPEN
 10
4148.21797163364
 20
7867.489295287082
 30
0.0
 41
70.0
 42
70.0
 43
70.0
  0
MTEXT
  5
8515
330
850D
100
AcDbEntity
  8
3
 62
     0
100
AcDbMText
 10
3678.217971633641
 20
7954.989295287082
 30
0.0
 40
105.0
 41
0.0
 71
     5
 72
     1
  1
\A1;940
 73
     1
 44
1.0
1001
ACAD
1000
MTEXTBEGIN
1070
    73
1070
     1
1070
    44
1040
1.0
1070
    74
1070
     0
1000
MTEXTEND
  0
POINT
  5
8516
330
850D
100
AcDbEntity
  8
DEFPOINTS
 62
     0
100
AcDbPoint
 10
3208.217971633641
 20
7693.481934815962
 30
0.0
  0
POINT
  5
8517
330
850D
100
AcDbEntity
  8
DEFPOINTS
 62
     0
100
AcDbPoint
 10
4148.21797163364
 20
6693.481934815962
 30
0.0
  0
POINT
  5
8518
330
850D
100
AcDbEntity
  8
DEFPOINTS
 62
     0
100
AcDbPoint
 10
4148.21797163364
 20
7867.489295287082
 30
0.0
  0
ENDBLK
  5
850F
330
850D
100
AcDbEntity
  8
0
100
AcDbBlockEnd
  0
BLOCK
  5
851B
330
851A
100
AcDbEntity
  8
0
100
AcDbBlockBegin
  2
*D35
 70
     1
 10
0.0
 20
0.0
 30
0.0
  3
*D35
  1

  0
LINE
  5
851D
330
851A
100
AcDbEntity
  8
3
 62
     0
370
    -2
100
AcDbLine
 10
4165.71797163364
 20
6693.481934815962
 30
0.0
 11
4583.848380927505
 21
6693.481934815962
 31
0.0
  0
LINE
  5
851E
330
851A
100
AcDbEntity
  8
3
 62
     0
370
    -2
100
AcDbLine
 10
4165.71797163364
 20
5793.481934815961
 30
0.0
 11
4583.848380927504
 21
5793.481934815961
 31
0.0
  0
LINE
  5
851F
330
851A
100
AcDbEntity
  8
3
 62
     0
370
    -2
100
AcDbLine
 10
4548.848380927505
 20
6623.481934815962
 30
0.0
 11
4548.848380927504
 21
5863.481934815961
 31
0.0
  0
INSERT
  5
8520
330
851A
100
AcDbEntity
  8
3
 62
     0
370
    -2
100
AcDbBlockReference
  2
_OPEN
 10
4548.848380927505
 20
6693.481934815962
 30
0.0
 41
70.0
 42
70.0
 43
70.0
 50
90.0
  0
INSERT
  5
8521
330
851A
100
AcDbEntity
  8
3
 62
     0
370
    -2
100
AcDbBlockReference
  2
_OPEN
 10
4548.848380927504
 20
5793.481934815961
 30
0.0
 41
70.0
 42
70.0
 43
70.0
 50
270.0
  0
MTEXT
  5
8522
330
851A
100
AcDbEntity
  8
3
 62
     0
100
AcDbMText
 10
4461.348380927502
 20
6243.481934815962
 30
0.0
 40
105.0
 41
0.0
 71
     5
 72
     1
  1
\A1;900
 11
0.0000000000000001
 21
1.0
 31
0.0
 73
     1
 44
1.0
1001
ACAD
1000
MTEXTBEGIN
1070
    73
1070
     1
1070
    44
1040
1.0
1070
    74
1070
     0
1000
MTEXTEND
  0
POINT
  5
8523
330
851A
100
AcDbEntity
  8
DEFPOINTS
 62
     0
100
AcDbPoint
 10
4148.21797163364
 20
6693.481934815962
 30
0.0
  0
POINT
  5
8524
330
851A
100
AcDbEntity
  8
DEFPOINTS
 62
     0
100
AcDbPoint
 10
4148.21797163364
 20
5793.481934815961
 30
0.0
  0
POINT
  5
8525
330
851A
100
AcDbEntity
  8
DEFPOINTS
 62
     0
100
AcDbPoint
 10
4548.848380927504
 20
5793.481934815961
 30
0.0
  0
ENDBLK
  5
851C
330
851A
100
AcDbEntity
  8
0
100
AcDbBlockEnd
  0
BLOCK
  5
8528
330
8527
100
AcDbEntity
  8
0
100
AcDbBlockBegin
  2
*D36
 70
     1
 10
0.0
 20
0.0
 30
0.0
  3
*D36
  1

  0
LINE
  5
852A
330
8527
100
AcDbEntity
  8
3
 62
     0
370
    -2
100
AcDbLine
 10
1888.21797163364
 20
5775.981934815962
 30
0.0
 11
1888.21797163364
 21
5467.236742722015
 31
0.0
  0
LINE
  5
852B
330
8527
100
AcDbEntity
  8
3
 62
     0
370
    -2
100
AcDbLine
 10
4148.21797163364
 20
5775.981934815961
 30
0.0
 11
4148.21797163364
 21
5467.236742722015
 31
0.0
  0
LINE
  5
852C
330
8527
100
AcDbEntity
  8
3
 62
     0
370
    -2
100
AcDbLine
 10
1958.217971633641
 20
5502.236742722015
 30
0.0
 11
4078.21797163364
 21
5502.236742722015
 31
0.0
  0
INSERT
  5
852D
330
8527
100
AcDbEntity
  8
3
 62
     0
370
    -2
100
AcDbBlockReference
  2
_OPEN
 10
1888.21797163364
 20
5502.236742722015
 30
0.0
 41
70.0
 42
70.0
 43
70.0
 50
180.0
  0
INSERT
  5
852E
330
8527
100
AcDbEntity
  8
3
 62
     0
370
    -2
100
AcDbBlockReference
  2
_OPEN
 10
4148.21797163364
 20
5502.236742722015
 30
0.0
 41
70.0
 42
70.0
 43
70.0
  0
MTEXT
  5
852F
330
8527
100
AcDbEntity
  8
3
 62
     0
100
AcDbMText
 10
3018.217971633641
 20
5589.736742722015
 30
0.0
 40
105.0
 41
0.0
 71
     5
 72
     1
  1
\A1;2260
 73
     1
 44
1.0
1001
ACAD
1000
MTEXTBEGIN
1070
    73
1070
     1
1070
    44
1040
1.0
1070
    74
1070
     0
1000
MTEXTEND
  0
POINT
  5
8530
330
8527
100
AcDbEntity
  8
DEFPOINTS
 62
     0
100
AcDbPoint
 10
1888.21797163364
 20
5793.481934815962
 30
0.0
  0
POINT
  5
8531
330
8527
100
AcDbEntity
  8
DEFPOINTS
 62
     0
100
AcDbPoint
 10
4148.21797163364
 20
5793.481934815961
 30
0.0
  0
POINT
  5
8532
330
8527
100
AcDbEntity
  8
DEFPOINTS
 62
     0
100
AcDbPoint
 10
4148.21797163364
 20
5502.236742722015
 30
0.0
  0
ENDBLK
  5
8529
330
8527
100
AcDbEntity
  8
0
100
AcDbBlockEnd
  0
BLOCK
  5
8535
330
8534
100
AcDbEntity
  8
0
100
AcDbBlockBegin
  2
*D37
 70
     1
 10
0.0
 20
0.0
 30
0.0
  3
*D37
  1

  0
LINE
  5
8537
330
8534
100
AcDbEntity
  8
3
 62
     0
370
    -2
100
AcDbLine
 10
1788.21797163364
 20
3837.367032643557
 30
0.0
 11
1788.21797163364
 21
4880.294362889877
 31
0.0
  0
LINE
  5
8538
330
8534
100
AcDbEntity
  8
3
 62
     0
370
    -2
100
AcDbLine
 10
2548.217971633641
 20
4698.435226323957
 30
0.0
 11
2548.217971633641
 21
4880.294362889877
 31
0.0
  0
LINE
  5
8539
330
8534
100
AcDbEntity
  8
3
 62
     0
370
    -2
100
AcDbLine
 10
1858.217971633641
 20
4845.294362889877
 30
0.0
 11
2478.217971633641
 21
4845.294362889877
 31
0.0
  0
INSERT
  5
853A
330
8534
100
AcDbEntity
  8
3
 62
     0
370
    -2
100
AcDbBlockReference
  2
_OPEN
 10
1788.21797163364
 20
4845.294362889877
 30
0.0
 41
70.0
 42
70.0
 43
70.0
 50
180.0
  0
INSERT
  5
853B
330
8534
100
AcDbEntity
  8
3
 62
     0
370
    -2
100
AcDbBlockReference
  2
_OPEN
 10
2548.217971633641
 20
4845.294362889877
 30
0.0
 41
70.0
 42
70.0
 43
70.0
  0
MTEXT
  5
853C
330
8534
100
AcDbEntity
  8
3
 62
     0
100
AcDbMText
 10
2168.217971633641
 20
4932.794362889876
 30
0.0
 40
105.0
 41
0.0
 71
     5
 72
     1
  1
\A1;760
 73
     1
 44
1.0
1001
ACAD
1000
MTEXTBEGIN
1070
    73
1070
     1
1070
    44
1040
1.0
1070
    74
1070
     0
1000
MTEXTEND
  0
POINT
  5
853D
330
8534
100
AcDbEntity
  8
DEFPOINTS
 62
     0
100
AcDbPoint
 10
1788.21797163364
 20
3819.867032643557
 30
0.0
  0
POINT
  5
853E
330
8534
100
AcDbEntity
  8
DEFPOINTS
 62
     0
100
AcDbPoint
 10
2548.217971633641
 20
4680.935226323958
 30
0.0
  0
POINT
  5
853F
330
8534
100
AcDbEntity
  8
DEFPOINTS
 62
     0
100
AcDbPoint
 10
2548.217971633641
 20
4845.294362889877
 30
0.0
  0
ENDBLK
  5
8536
330
8534
100
AcDbEntity
  8
0
100
AcDbBlockEnd
  0
BLOCK
  5
8542
330
8541
100
AcDbEntity
  8
0
100
AcDbBlockBegin
  2
*D38
 70
     1
 10
0.0
 20
0.0
 30
0.0
  3
*D38
  1

  0
LINE
  5
8544
330
8541
100
AcDbEntity
  8
3
 62
     0
370
    -2
100
AcDbLine
 10
2548.217971633641
 20
4698.435226323957
 30
0.0
 11
2548.217971633641
 21
4880.294362889877
 31
0.0
  0
LINE
  5
8545
330
8541
100
AcDbEntity
  8
3
 62
     0
370
    -2
100
AcDbLine
 10
3517.217971633641
 20
3750.367032643558
 30
0.0
 11
3517.217971633641
 21
4880.294362889877
 31
0.0
  0
LINE
  5
8546
330
8541
100
AcDbEntity
  8
3
 62
     0
370
    -2
100
AcDbLine
 10
2618.217971633641
 20
4845.294362889877
 30
0.0
 11
3447.217971633641
 21
4845.294362889877
 31
0.0
  0
INSERT
  5
8547
330
8541
100
AcDbEntity
  8
3
 62
     0
370
    -2
100
AcDbBlockReference
  2
_OPEN
 10
2548.217971633641
 20
4845.294362889877
 30
0.0
 41
70.0
 42
70.0
 43
70.0
 50
180.0
  0
INSERT
  5
8548
330
8541
100
AcDbEntity
  8
3
 62
     0
370
    -2
100
AcDbBlockReference
  2
_OPEN
 10
3517.217971633641
 20
4845.294362889877
 30
0.0
 41
70.0
 42
70.0
 43
70.0
  0
MTEXT
  5
8549
330
8541
100
AcDbEntity
  8
3
 62
     0
100
AcDbMText
 10
3032.717971633641
 20
4932.794362889876
 30
0.0
 40
105.0
 41
0.0
 71
     5
 72
     1
  1
\A1;969
 73
     1
 44
1.0
1001
ACAD
1000
MTEXTBEGIN
1070
    73
1070
     1
1070
    44
1040
1.0
1070
    74
1070
     0
1000
MTEXTEND
  0
POINT
  5
854A
330
8541
100
AcDbEntity
  8
DEFPOINTS
 62
     0
100
AcDbPoint
 10
2548.217971633641
 20
4680.935226323958
 30
0.0
  0
POINT
  5
854B
330
8541
100
AcDbEntity
  8
DEFPOINTS
 62
     0
100
AcDbPoint
 10
3517.217971633641
 20
3732.867032643557
 30
0.0
  0
POINT
  5
854C
330
8541
100
AcDbEntity
  8
DEFPOINTS
 62
     0
100
AcDbPoint
 10
3517.217971633641
 20
4845.294362889877
 30
0.0
  0
ENDBLK
  5
8543
330
8541
100
AcDbEntity
  8
0
100
AcDbBlockEnd
  0
BLOCK
  5
854F
330
854E
100
AcDbEntity
  8
0
100
AcDbBlockBegin
  2
*D39
 70
     1
 10
0.0
 20
0.0
 30
0.0
  3
*D39
  1

  0
LINE
  5
8551
330
854E
100
AcDbEntity
  8
3
 62
     0
370
    -2
100
AcDbLine
 10
4148.21797163364
 20
2602.367032643556
 30
0.0
 11
4148.21797163364
 21
5107.874531832272
 31
0.0
  0
LINE
  5
8552
330
854E
100
AcDbEntity
  8
3
 62
     0
370
    -2
100
AcDbLine
 10
1788.21797163364
 20
3837.367032643557
 30
0.0
 11
1788.21797163364
 21
5107.874531832272
 31
0.0
  0
LINE
  5
8553
330
854E
100
AcDbEntity
  8
3
 62
     0
370
    -2
100
AcDbLine
 10
4078.21797163364
 20
5072.874531832272
 30
0.0
 11
1858.217971633641
 21
5072.874531832272
 31
0.0
  0
INSERT
  5
8554
330
854E
100
AcDbEntity
  8
3
 62
     0
370
    -2
100
AcDbBlockReference
  2
_OPEN
 10
4148.21797163364
 20
5072.874531832272
 30
0.0
 41
70.0
 42
70.0
 43
70.0
  0
INSERT
  5
8555
330
854E
100
AcDbEntity
  8
3
 62
     0
370
    -2
100
AcDbBlockReference
  2
_OPEN
 10
1788.21797163364
 20
5072.874531832272
 30
0.0
 41
70.0
 42
70.0
 43
70.0
 50
180.0
  0
MTEXT
  5
8556
330
854E
100
AcDbEntity
  8
3
 62
     0
100
AcDbMText
 10
2968.217971633641
 20
5160.374531832271
 30
0.0
 40
105.0
 41
0.0
 71
     5
 72
     1
  1
\A1;2360
 73
     1
 44
1.0
1001
ACAD
1000
MTEXTBEGIN
1070
    73
1070
     1
1070
    44
1040
1.0
1070
    74
1070
     0
1000
MTEXTEND
  0
POINT
  5
8557
330
854E
100
AcDbEntity
  8
DEFPOINTS
 62
     0
100
AcDbPoint
 10
4148.21797163364
 20
2584.867032643556
 30
0.0
  0
POINT
  5
8558
330
854E
100
AcDbEntity
  8
DEFPOINTS
 62
     0
100
AcDbPoint
 10
1788.21797163364
 20
3819.867032643557
 30
0.0
  0
POINT
  5
8559
330
854E
100
AcDbEntity
  8
DEFPOINTS
 62
     0
100
AcDbPoint
 10
1788.21797163364
 20
5072.874531832272
 30
0.0
  0
ENDBLK
  5
8550
330
854E
100
AcDbEntity
  8
0
100
AcDbBlockEnd
  0
BLOCK
  5
855C
330
855B
100
AcDbEntity
  8
0
100
AcDbBlockBegin
  2
*D40
 70
     1
 10
0.0
 20
0.0
 30
0.0
  3
*D40
  1

  0
LINE
  5
855E
330
855B
100
AcDbEntity
  8
3
 62
     0
370
    -2
100
AcDbLine
 10
1770.717971633641
 20
3766.867032643556
 30
0.0
 11
1553.109655349375
 21
3766.867032643556
 31
0.0
  0
LINE
  5
855F
330
855B
100
AcDbEntity
  8
3
 62
     0
370
    -2
100
AcDbLine
 10
1770.717971633641
 20
2616.867032643556
 30
0.0
 11
1553.109655349375
 21
2616.867032643556
 31
0.0
  0
LINE
  5
8560
330
855B
100
AcDbEntity
  8
3
 62
     0
370
    -2
100
AcDbLine
 10
1588.109655349375
 20
3696.867032643556
 30
0.0
 11
1588.109655349375
 21
2686.867032643556
 31
0.0
  0
INSERT
  5
8561
330
855B
100
AcDbEntity
  8
3
 62
     0
370
    -2
100
AcDbBlockReference
  2
_OPEN
 10
1588.109655349375
 20
3766.867032643556
 30
0.0
 41
70.0
 42
70.0
 43
70.0
 50
90.0
  0
INSERT
  5
8562
330
855B
100
AcDbEntity
  8
3
 62
     0
370
    -2
100
AcDbBlockReference
  2
_OPEN
 10
1588.109655349375
 20
2616.867032643556
 30
0.0
 41
70.0
 42
70.0
 43
70.0
 50
270.0
  0
MTEXT
  5
8563
330
855B
100
AcDbEntity
  8
3
 62
     0
100
AcDbMText
 10
1500.609655349375
 20
3191.867032643556
 30
0.0
 40
105.0
 41
0.0
 71
     5
 72
     1
  1
\A1;1150
 11
0.0000000000000001
 21
1.0
 31
0.0
 73
     1
 44
1.0
1001
ACAD
1000
MTEXTBEGIN
1070
    73
1070
     1
1070
    44
1040
1.0
1070
    74
1070
     0
1000
MTEXTEND
  0
POINT
  5
8564
330
855B
100
AcDbEntity
  8
DEFPOINTS
 62
     0
100
AcDbPoint
 10
1788.21797163364
 20
3766.867032643556
 30
0.0
  0
POINT
  5
8565
330
855B
100
AcDbEntity
  8
DEFPOINTS
 62
     0
100
AcDbPoint
 10
1788.21797163364
 20
2616.867032643556
 30
0.0
  0
POINT
  5
8566
330
855B
100
AcDbEntity
  8
DEFPOINTS
 62
     0
100
AcDbPoint
 10
1588.109655349375
 20
2616.867032643556
 30
0.0
  0
ENDBLK
  5
855D
330
855B
100
AcDbEntity
  8
0
100
AcDbBlockEnd
  0
BLOCK
  5
8569
330
8568
100
AcDbEntity
  8
0
100
AcDbBlockBegin
  2
*D41
 70
     1
 10
0.0
 20
0.0
 30
0.0
  3
*D41
  1

  0
LINE
  5
856B
330
8568
100
AcDbEntity
  8
3
 62
     0
370
    -2
100
AcDbLine
 10
1770.717971633641
 20
2616.867032643556
 30
0.0
 11
1352.958004487872
 21
2616.867032643556
 31
0.0
  0
LINE
  5
856C
330
8568
100
AcDbEntity
  8
3
 62
     0
370
    -2
100
AcDbLine
 10
1623.937320180664
 20
3814.867032643557
 30
0.0
 11
1352.958004487873
 21
3814.867032643557
 31
0.0
  0
LINE
  5
856D
330
8568
100
AcDbEntity
  8
3
 62
     0
370
    -2
100
AcDbLine
 10
1387.958004487872
 20
2686.867032643556
 30
0.0
 11
1387.958004487873
 21
3744.867032643558
 31
0.0
  0
INSERT
  5
856E
330
8568
100
AcDbEntity
  8
3
 62
     0
370
    -2
100
AcDbBlockReference
  2
_OPEN
 10
1387.958004487872
 20
2616.867032643556
 30
0.0
 41
70.0
 42
70.0
 43
70.0
 50
270.0
  0
INSERT
  5
856F
330
8568
100
AcDbEntity
  8
3
 62
     0
370
    -2
100
AcDbBlockReference
  2
_OPEN
 10
1387.958004487873
 20
3814.867032643557
 30
0.0
 41
70.0
 42
70.0
 43
70.0
 50
90.0
  0
MTEXT
  5
8570
330
8568
100
AcDbEntity
  8
3
 62
     0
100
AcDbMText
 10
1300.458004487872
 20
3215.867032643557
 30
0.0
 40
105.0
 41
0.0
 71
     5
 72
     1
  1
\A1;1198
 11
0.0000000000000001
 21
1.0
 31
0.0
 73
     1
 44
1.0
1001
ACAD
1000
MTEXTBEGIN
1070
    73
1070
     1
1070
    44
1040
1.0
1070
    74
1070
     0
1000
MTEXTEND
  0
POINT
  5
8571
330
8568
100
AcDbEntity
  8
DEFPOINTS
 62
     0
100
AcDbPoint
 10
1788.21797163364
 20
2616.867032643556
 30
0.0
  0
POINT
  5
8572
330
8568
100
AcDbEntity
  8
DEFPOINTS
 62
     0
100
AcDbPoint
 10
1641.437320180664
 20
3814.867032643557
 30
0.0
  0
POINT
  5
8573
330
8568
100
AcDbEntity
  8
DEFPOINTS
 62
     0
100
AcDbPoint
 10
1387.958004487873
 20
3814.867032643557
 30
0.0
  0
ENDBLK
  5
856A
330
8568
100
AcDbEntity
  8
0
100
AcDbBlockEnd
  0
BLOCK
  5
8576
330
8575
100
AcDbEntity
  8
0
100
AcDbBlockBegin
  2
*D42
 70
     1
 10
0.0
 20
0.0
 30
0.0
  3
*D42
  1

  0
LINE
  5
8578
330
8575
100
AcDbEntity
  8
3
 62
     0
370
    -2
100
AcDbLine
 10
1870.717971633641
 20
2459.867032643556
 30
0.0
 11
1149.008057762066
 21
2459.867032643556
 31
0.0
  0
LINE
  5
8579
330
8575
100
AcDbEntity
  8
3
 62
     0
370
    -2
100
AcDbLine
 10
1623.937320180664
 20
3814.867032643557
 30
0.0
 11
1149.008057762067
 21
3814.867032643557
 31
0.0
  0
LINE
  5
857A
330
8575
100
AcDbEntity
  8
3
 62
     0
370
    -2
100
AcDbLine
 10
1184.008057762066
 20
2529.867032643556
 30
0.0
 11
1184.008057762067
 21
3744.867032643558
 31
0.0
  0
INSERT
  5
857B
330
8575
100
AcDbEntity
  8
3
 62
     0
370
    -2
100
AcDbBlockReference
  2
_OPEN
 10
1184.008057762066
 20
2459.867032643556
 30
0.0
 41
70.0
 42
70.0
 43
70.0
 50
270.0
  0
INSERT
  5
857C
330
8575
100
AcDbEntity
  8
3
 62
     0
370
    -2
100
AcDbBlockReference
  2
_OPEN
 10
1184.008057762067
 20
3814.867032643557
 30
0.0
 41
70.0
 42
70.0
 43
70.0
 50
90.0
  0
MTEXT
  5
857D
330
8575
100
AcDbEntity
  8
3
 62
     0
100
AcDbMText
 10
1096.508057762066
 20
3137.367032643557
 30
0.0
 40
105.0
 41
0.0
 71
     5
 72
     1
  1
\A1;1355
 11
0.0000000000000001
 21
1.0
 31
0.0
 73
     1
 44
1.0
1001
ACAD
1000
MTEXTBEGIN
1070
    73
1070
     1
1070
    44
1040
1.0
1070
    74
1070
     0
1000
MTEXTEND
  0
POINT
  5
857E
330
8575
100
AcDbEntity
  8
DEFPOINTS
 62
     0
100
AcDbPoint
 10
1888.21797163364
 20
2459.867032643556
 30
0.0
  0
POINT
  5
857F
330
8575
100
AcDbEntity
  8
DEFPOINTS
 62
     0
100
AcDbPoint
 10
1641.437320180664
 20
3814.867032643557
 30
0.0
  0
POINT
  5
8580
330
8575
100
AcDbEntity
  8
DEFPOINTS
 62
     0
100
AcDbPoint
 10
1184.008057762067
 20
3814.867032643557
 30
0.0
  0
ENDBLK
  5
8577
330
8575
100
AcDbEntity
  8
0
100
AcDbBlockEnd
  0
BLOCK
  5
8583
330
8582
100
AcDbEntity
  8
0
100
AcDbBlockBegin
  2
*D43
 70
     1
 10
0.0
 20
0.0
 30
0.0
  3
*D43
  1

  0
LINE
  5
8585
330
8582
100
AcDbEntity
  8
3
 62
     0
370
    -2
100
AcDbLine
 10
1623.937320180664
 20
3814.867032643557
 30
0.0
 11
1149.008057762067
 21
3814.867032643557
 31
0.0
  0
LINE
  5
8586
330
8582
100
AcDbEntity
  8
3
 62
     0
370
    -2
100
AcDbLine
 10
2612.717971633641
 20
4619.867032643557
 30
0.0
 11
1149.008057762067
 21
4619.867032643557
 31
0.0
  0
LINE
  5
8587
330
8582
100
AcDbEntity
  8
3
 62
     0
370
    -2
100
AcDbLine
 10
1184.008057762067
 20
3884.867032643557
 30
0.0
 11
1184.008057762067
 21
4549.867032643557
 31
0.0
  0
INSERT
  5
8588
330
8582
100
AcDbEntity
  8
3
 62
     0
370
    -2
100
AcDbBlockReference
  2
_OPEN
 10
1184.008057762067
 20
3814.867032643557
 30
0.0
 41
70.0
 42
70.0
 43
70.0
 50
270.0
  0
INSERT
  5
8589
330
8582
100
AcDbEntity
  8
3
 62
     0
370
    -2
100
AcDbBlockReference
  2
_OPEN
 10
1184.008057762067
 20
4619.867032643557
 30
0.0
 41
70.0
 42
70.0
 43
70.0
 50
90.0
  0
MTEXT
  5
858A
330
8582
100
AcDbEntity
  8
3
 62
     0
100
AcDbMText
 10
1096.508057762066
 20
4217.367032643557
 30
0.0
 40
105.0
 41
0.0
 71
     5
 72
     1
  1
\A1;805
 11
0.0000000000000001
 21
1.0
 31
0.0
 73
     1
 44
1.0
1001
ACAD
1000
MTEXTBEGIN
1070
    73
1070
     1
1070
    44
1040
1.0
1070
    74
1070
     0
1000
MTEXTEND
  0
POINT
  5
858B
330
8582
100
AcDbEntity
  8
DEFPOINTS
 62
     0
100
AcDbPoint
 10
1641.437320180664
 20
3814.867032643557
 30
0.0
  0
POINT
  5
858C
330
8582
100
AcDbEntity
  8
DEFPOINTS
 62
     0
100
AcDbPoint
 10
2630.217971633641
 20
4619.867032643557
 30
0.0
  0
POINT
  5
858D
330
8582
100
AcDbEntity
  8
DEFPOINTS
 62
     0
100
AcDbPoint
 10
1184.008057762067
 20
4619.867032643557
 30
0.0
  0
ENDBLK
  5
8584
330
8582
100
AcDbEntity
  8
0
100
AcDbBlockEnd
  0
ENDSEC
  0
SECTION
  2
ENTITIES
  0
INSERT
  5
7C22
330
8401
100
AcDbEntity
  8
0
100
AcDbBlockReference
  2
YA_N
 10
6.0
 20
5.0
 30
0.0
  0
LINE
  5
7C24
330
8401
100
AcDbEntity
  8
2
100
AcDbLine
 10
1641.437320180664
 20
3814.867032643557
 30
0.0
 11
3614.592312747312
 21
3814.867032643557
 31
0.0
  0
LINE
  5
7C25
330
8401
100
AcDbEntity
  8
2
100
AcDbLine
 10
2548.217971633641
 20
2459.867032643556
 30
0.0
 11
2548.217971633641
 21
4680.935226323958
 31
0.0
  0
LINE
  5
7C26
330
8401
100
AcDbEntity
  8
1
100
AcDbLine
 10
1788.21797163364
 20
3819.867032643557
 30
0.0
 11
1788.21797163364
 21
2563.867032643557
 31
0.0
  0
LINE
  5
7C27
330
8401
100
AcDbEntity
  8
1
100
AcDbLine
 10
1788.21797163364
 20
2563.867032643557
 30
0.0
 11
1792.217971633641
 21
2563.867032643557
 31
0.0
  0
LINE
  5
7C28
330
8401
100
AcDbEntity
  8
1
100
AcDbLine
 10
1788.21797163364
 20
3819.867032643557
 30
0.0
 11
1792.217971633641
 21
3819.867032643557
 31
0.0
  0
LINE
  5
7C29
330
8401
100
AcDbEntity
  8
1
100
AcDbLine
 10
1838.21797163364
 20
3766.867032643556
 30
0.0
 11
1838.217971633642
 21
2621.354120878995
 31
0.0
  0
LINE
  5
7C2A
330
8401
100
AcDbEntity
  8
1
100
AcDbLine
 10
1792.217971633641
 20
3819.867032643557
 30
0.0
 11
1792.217971633641
 21
2563.867032643557
 31
0.0
  0
LINE
  5
7C2B
330
8401
100
AcDbEntity
  8
1
100
AcDbLine
 10
1888.21797163364
 20
2459.867032643556
 30
0.0
 11
4148.21797163364
 21
2459.867032643556
 31
0.0
1001
ACAD
1000
ASC_BOUNDS
1002
{
1070
    19
1005
0
1002
}
  0
LINE
  5
7C2C
330
8401
100
AcDbEntity
  8
1
100
AcDbLine
 10
1888.21797163364
 20
2584.867032643556
 30
0.0
 11
1888.21797163364
 21
2459.867032643556
 31
0.0
  0
LINE
  5
7C2D
330
8401
100
AcDbEntity
  8
1
100
AcDbLine
 10
4148.21797163364
 20
2584.867032643556
 30
0.0
 11
4148.21797163364
 21
2459.867032643556
 31
0.0
  0
LINE
  5
7C2E
330
8401
100
AcDbEntity
  8
1
100
AcDbLine
 10
1888.21797163364
 20
2584.867032643556
 30
0.0
 11
4148.21797163364
 21
2584.867032643556
 31
0.0
  0
ARC
  5
7C2F
330
8401
100
AcDbEntity
  8
1
100
AcDbCircle
 10
2466.217971633641
 20
3732.867032643557
 30
0.0
 40
1051.0
100
AcDbArc
 50
274.4748178985337
 51
4.474817898533836
  0
ARC
  5
7C30
330
8401
100
AcDbEntity
  8
1
100
AcDbCircle
 10
2630.217971633641
 20
3732.867032643557
 30
0.0
 40
887.0
100
AcDbArc
 50
5.304365207795823
 51
95.30436520779584
  0
ARC
  5
7C31
330
8401
100
AcDbEntity
  8
1
100
AcDbCircle
 10
2616.717971633641
 20
3883.367032643556
 30
0.0
 40
736.5
100
AcDbArc
 50
95.33664832138349
 51
185.3366483213833
  0
LINE
  5
7C32
330
8401
100
AcDbEntity
  8
1
100
AcDbLine
 10
1788.21797163364
 20
2616.867032643556
 30
0.0
 11
2548.217971633641
 21
2685.070773822214
 31
0.0
  0
LINE
  5
7C33
330
8401
100
AcDbEntity
  8
1
100
AcDbLine
 10
1788.21797163364
 20
3766.867032643556
 30
0.0
 11
1881.944754402151
 21
3766.867032643556
 31
0.0
  0
LINE
  5
7C34
330
8401
100
AcDbEntity
  8
2
100
AcDbLine
 10
3858.217971633641
 20
3158.725308799501
 30
0.0
 11
3858.217971633639
 21
2459.867032643558
 31
0.0
  0
LINE
  5
7C35
330
8401
100
AcDbEntity
  8
2
100
AcDbLine
 10
3622.891676774662
 20
2844.867032643557
 30
0.0
 11
4122.3825976159
 21
2844.867032643557
 31
0.0
  0
LINE
  5
7C36
330
8401
100
AcDbEntity
  8
1
100
AcDbLine
 10
4555.400400804151
 20
2459.867032643556
 30
0.0
 11
4620.400400804152
 21
2459.867032643556
 31
0.0
1001
ACAD
1000
ASC_BOUNDS
1002
{
1070
    19
1002
}
  0
LINE
  5
7C37
330
8401
100
AcDbEntity
  8
1
100
AcDbLine
 10
4555.400400804152
 20
2584.867032643556
 30
0.0
 11
6455.40040080415
 21
2584.867032643556
 31
0.0
  0
LINE
  5
7C38
330
8401
100
AcDbEntity
  8
1
100
AcDbLine
 10
4620.400400804153
 20
2459.867032643556
 30
0.0
 11
6455.40040080415
 21
2459.867032643556
 31
0.0
1001
ACAD
1000
ASC_BOUNDS
1002
{
1070
    19
1002
}
  0
LINE
  5
7C39
330
8401
100
AcDbEntity
  8
2
100
AcDbLine
 10
4532.923650737052
 20
3814.867032643557
 30
0.0
 11
6562.388387880893
 21
3814.867032643557
 31
0.0
  0
LINE
  5
7C3A
330
8401
100
AcDbEntity
  8
1
100
AcDbLine
 10
4552.400400804152
 20
4068.867032643557
 30
0.0
 11
4552.400400804152
 21
2726.867032643558
 31
0.0
  0
LINE
  5
7C3B
330
8401
100
AcDbEntity
  8
1
100
AcDbLine
 10
4662.900400804153
 20
4068.867032643557
 30
0.0
 11
4662.900400804151
 21
2726.867032643558
 31
0.0
  0
LINE
  5
7C3C
330
8401
100
AcDbEntity
  8
2
100
AcDbLine
 10
4534.181461585022
 20
2844.867032643557
 30
0.0
 11
5409.521147892139
 21
2844.867032643557
 31
0.0
  0
LINE
  5
7C3D
330
8401
100
AcDbEntity
  8
1
100
AcDbLine
 10
4517.400400804151
 20
4194.867032643556
 30
0.0
 11
4517.400400804151
 21
2624.867032643557
 31
0.0
  0
LINE
  5
7C3E
330
8401
100
AcDbEntity
  8
1
100
AcDbLine
 10
4714.700400804152
 20
4194.867032643556
 30
0.0
 11
4714.700400804151
 21
4174.867032643557
 31
0.0
  0
LINE
  5
7C3F
330
8401
100
AcDbEntity
  8
2
100
AcDbLine
 10
2548.217971633641
 20
7559.114361450955
 30
0.0
 11
2548.217971633641
 21
5716.535950910814
 31
0.0
  0
LINE
  5
7C40
330
8401
100
AcDbEntity
  8
2
100
AcDbLine
 10
1701.872858290997
 20
6875.481934815962
 30
0.0
 11
3638.135409496288
 21
6875.481934815962
 31
0.0
  0
LINE
  5
7C41
330
8401
100
AcDbEntity
  8
2
100
AcDbLine
 10
5637.400400804152
 20
4829.049358809385
 30
0.0
 11
5637.400400804153
 21
2459.867032643556
 31
0.0
  0
POINT
  5
7C42
330
8401
100
AcDbEntity
  8
1
100
AcDbPoint
 10
1747.01640913502
 20
3814.867032643557
 30
0.0
  0
INSERT
  5
7C43
330
8401
100
AcDbEntity
  8
0
100
AcDbBlockReference
  2
YA_N
 10
-1074.779326041182
 20
-1311.669320613289
 30
0.0
 41
25.0
 42
25.0
 43
25.0
  0
INSERT
  5
7C4C
330
8401
100
AcDbEntity
  8
0
100
AcDbBlockReference
  2
YA_N
 10
-346.9416476423939
 20
-375.8074592043958
 30
0.0
 41
25.0
 42
25.0
 43
25.0
  0
ARC
  5
7C51
330
8401
100
AcDbEntity
  8
1
100
AcDbCircle
 10
3858.217971633641
 20
2844.867032643557
 30
0.0
 40
203.5
100
AcDbArc
 50
285.60376
 51
254.396301
  0
LINE
  5
7C52
330
8401
100
AcDbEntity
  8
1
100
AcDbLine
 10
3912.956008633641
 20
2648.867032643556
 30
0.0
 11
3803.47993463364
 21
2648.867032643556
 31
0.0
  0
ARC
  5
7C53
330
8401
100
AcDbEntity
  8
1
100
AcDbCircle
 10
3672.217971633641
 20
2661.867032643556
 30
0.0
 40
3.0
100
AcDbArc
 50
90.0
 51
180.0
  0
ARC
  5
7C54
330
8401
100
AcDbEntity
  8
1
100
AcDbCircle
 10
3674.217971633641
 20
2719.193693643557
 30
0.0
 40
5.000066999999999
100
AcDbArc
 50
124.943665
 51
180.0
  0
LINE
  5
7C55
330
8401
100
AcDbEntity
  8
1
100
AcDbLine
 10
3669.217971633641
 20
2719.193693643557
 30
0.0
 11
3669.217971633641
 21
2644.867032643556
 31
0.0
  0
LINE
  5
7C59
330
8401
100
AcDbEntity
  8
1
100
AcDbLine
 10
3754.11540163364
 20
2670.010221643557
 30
0.0
 11
3748.717971633641
 21
2649.867032643558
 31
0.0
  0
LINE
  5
7C5A
330
8401
100
AcDbEntity
  8
1
100
AcDbLine
 10
3748.717971633641
 20
2661.867032643556
 30
0.0
 11
3748.717971633641
 21
2644.867032643556
 31
0.0
  0
LINE
  5
7C5B
330
8401
100
AcDbEntity
  8
1
100
AcDbLine
 10
3745.717971633641
 20
2664.867032643556
 30
0.0
 11
3672.217971633641
 21
2664.867032643556
 31
0.0
  0
ARC
  5
7C5C
330
8401
100
AcDbEntity
  8
1
100
AcDbCircle
 10
3745.717971633641
 20
2661.867032643556
 30
0.0
 40
3.0
100
AcDbArc
 50
0.0
 51
90.0
  0
LINE
  5
7C5D
330
8401
100
AcDbEntity
  8
1
100
AcDbLine
 10
3671.354201633641
 20
2723.292325643557
 30
0.0
 11
3687.292067633641
 21
2734.428800643556
 31
0.0
  0
LINE
  5
7C5E
330
8401
100
AcDbEntity
  8
1
100
AcDbLine
 10
4047.217971633641
 20
2719.193693643557
 30
0.0
 11
4047.217971633641
 21
2644.867032643556
 31
0.0
  0
LINE
  5
7C62
330
8401
100
AcDbEntity
  8
1
100
AcDbLine
 10
3962.32075463364
 20
2670.010343643556
 30
0.0
 11
3967.717971633641
 21
2649.867032643558
 31
0.0
  0
LINE
  5
7C63
330
8401
100
AcDbEntity
  8
1
100
AcDbLine
 10
3967.717971633641
 20
2661.867032643556
 30
0.0
 11
3967.717971633641
 21
2644.867032643556
 31
0.0
  0
LINE
  5
7C64
330
8401
100
AcDbEntity
  8
1
100
AcDbLine
 10
3970.717971633641
 20
2664.867032643556
 30
0.0
 11
4044.217971633641
 21
2664.867032643556
 31
0.0
  0
ARC
  5
7C65
330
8401
100
AcDbEntity
  8
1
100
AcDbCircle
 10
3970.717971633641
 20
2661.867032643556
 30
0.0
 40
3.0
100
AcDbArc
 50
90.0
 51
180.0
  0
ARC
  5
7C66
330
8401
100
AcDbEntity
  8
1
100
AcDbCircle
 10
4044.217971633641
 20
2661.867032643556
 30
0.0
 40
3.0
100
AcDbArc
 50
0.0
 51
90.0
  0
LINE
  5
7C67
330
8401
100
AcDbEntity
  8
1
100
AcDbLine
 10
4045.081862633639
 20
2723.292325643557
 30
0.0
 11
4029.14399663364
 21
2734.428800643556
 31
0.0
  0
ARC
  5
7C68
330
8401
100
AcDbEntity
  8
1
100
AcDbCircle
 10
4042.217971633641
 20
2719.193693643557
 30
0.0
 40
5.0
100
AcDbArc
 50
0.0
 51
55.05633899999998
  0
LINE
  5
7C69
330
8401
100
AcDbEntity
  8
1
100
AcDbLine
 10
3614.155715585552
 20
2644.867032643556
 30
0.0
 11
3788.217971633641
 21
2644.867032643556
 31
0.0
  0
LINE
  5
7C6A
330
8401
100
AcDbEntity
  8
1
100
AcDbLine
 10
3598.217971633639
 20
2584.867032643556
 30
0.0
 11
3614.155715585552
 21
2644.867032643556
 31
0.0
  0
LINE
  5
7C6B
330
8401
100
AcDbEntity
  8
1
100
AcDbLine
 10
4118.217971633638
 20
2584.867032643556
 30
0.0
 11
4102.232961727276
 21
2644.867032643556
 31
0.0
  0
LINE
  5
7C6D
330
8401
100
AcDbEntity
  8
1
100
AcDbLine
 10
3788.217971633641
 20
2634.867032643557
 30
0.0
 11
3928.217971633641
 21
2634.867032643557
 31
0.0
  0
LINE
  5
7C6E
330
8401
100
AcDbEntity
  8
1
100
AcDbLine
 10
3928.217971633641
 20
2644.867032643556
 30
0.0
 11
3928.217971633639
 21
2634.867032643557
 31
0.0
  0
LINE
  5
7C6F
330
8401
100
AcDbEntity
  8
1
100
AcDbLine
 10
3788.217971633641
 20
2644.867032643556
 30
0.0
 11
3788.217971633641
 21
2634.867032643557
 31
0.0
  0
LINE
  5
7C72
330
8401
100
AcDbEntity
  8
1
100
AcDbLine
 10
3928.217971633641
 20
2644.867032643556
 30
0.0
 11
4102.232961727276
 21
2644.867032643556
 31
0.0
  0
CIRCLE
  5
7C73
330
8401
100
AcDbEntity
  8
1
100
AcDbCircle
 10
3858.217971633641
 20
2844.867032643557
 30
0.0
 40
118.0
  0
LINE
  5
7C74
330
8401
100
AcDbEntity
  8
1
100
AcDbLine
 10
4552.400400804152
 20
2962.867032643556
 30
0.0
 11
4662.900400804152
 21
2962.867032643556
 31
0.0
  0
LINE
  5
7C75
330
8401
100
AcDbEntity
  8
1
100
AcDbLine
 10
4552.400400804152
 20
2726.867032643558
 30
0.0
 11
4662.900400804152
 21
2726.867032643558
 31
0.0
  0
LINE
  5
7C76
330
8401
100
AcDbEntity
  8
1
100
AcDbLine
 10
4517.400400804151
 20
2624.867032643557
 30
0.0
 11
4714.700400804152
 21
2624.867032643557
 31
0.0
  0
INSERT
  5
7C78
330
8401
100
AcDbEntity
  8
0
100
AcDbBlockReference
  2
YA_N
 10
-394.4722692372305
 20
-430.898429998433
 30
0.0
 41
25.0
 42
25.0
 43
25.0
  0
LINE
  5
7C7B
330
8401
100
AcDbEntity
  8
1
100
AcDbLine
 10
6387.40040080415
 20
2616.867032643556
 30
0.0
 11
6387.400400804153
 21
3814.867032643557
 31
0.0
  0
LINE
  5
7C7C
330
8401
100
AcDbEntity
  8
1
100
AcDbLine
 10
4887.400400804152
 20
4619.867032643557
 30
0.0
 11
6387.400400804152
 21
4619.867032643557
 31
0.0
  0
LINE
  5
7C7D
330
8401
100
AcDbEntity
  8
1
100
AcDbLine
 10
4887.400400804152
 20
3814.867032643557
 30
0.0
 11
4887.400400804152
 21
4619.867032643557
 31
0.0
  0
LINE
  5
7C7E
330
8401
100
AcDbEntity
  8
1
100
AcDbLine
 10
6387.400400804152
 20
3814.867032643557
 30
0.0
 11
6387.400400804152
 21
4619.867032643557
 31
0.0
  0
LINE
  5
7C7F
330
8401
100
AcDbEntity
  8
1
100
AcDbLine
 10
4729.900400804151
 20
3751.867032643556
 30
0.0
 11
4820.100400804152
 21
3751.867032643556
 31
0.0
  0
LINE
  5
7C80
330
8401
100
AcDbEntity
  8
1
100
AcDbLine
 10
4719.900400804151
 20
3741.867032643556
 30
0.0
 11
4719.900400804151
 21
3611.867032643557
 31
0.0
  0
LINE
  5
7C81
330
8401
100
AcDbEntity
  8
1
100
AcDbLine
 10
4859.900400804151
 20
3751.867032643556
 30
0.0
 11
4859.90040080415
 21
3601.867032643556
 31
0.0
  0
LINE
  5
7C82
330
8401
100
AcDbEntity
  8
1
100
AcDbLine
 10
4729.900400804151
 20
3601.867032643556
 30
0.0
 11
4820.100400804152
 21
3601.867032643556
 31
0.0
  0
ARC
  5
7C83
330
8401
100
AcDbEntity
  8
1
100
AcDbCircle
 10
4729.900400804151
 20
3741.867032643556
 30
0.0
 40
10.0
100
AcDbArc
 50
90.0
 51
180.0
  0
ARC
  5
7C84
330
8401
100
AcDbEntity
  8
1
100
AcDbCircle
 10
4729.900400804151
 20
3611.867032643557
 30
0.0
 40
10.0
100
AcDbArc
 50
180.0
 51
270.0
  0
LINE
  5
7C85
330
8401
100
AcDbEntity
  8
1
100
AcDbLine
 10
6414.90040080415
 20
3751.867032643556
 30
0.0
 11
6414.90040080415
 21
3601.867032643556
 31
0.0
  0
LINE
  5
7C86
330
8401
100
AcDbEntity
  8
1
100
AcDbLine
 10
6567.40040080415
 20
3741.867032643556
 30
0.0
 11
6567.40040080415
 21
3611.867032643557
 31
0.0
  0
LINE
  5
7C87
330
8401
100
AcDbEntity
  8
1
100
AcDbLine
 10
6557.40040080415
 20
3601.867032643556
 30
0.0
 11
6454.700400804154
 21
3601.867032643556
 31
0.0
  0
ARC
  5
7C88
330
8401
100
AcDbEntity
  8
1
100
AcDbCircle
 10
6557.40040080415
 20
3611.867032643557
 30
0.0
 40
10.0
100
AcDbArc
 50
270.0
 51
0.0
  0
LINE
  5
7C89
330
8401
100
AcDbEntity
  8
1
100
AcDbLine
 10
6557.40040080415
 20
3751.867032643556
 30
0.0
 11
6454.700400804154
 21
3751.867032643556
 31
0.0
  0
ARC
  5
7C8A
330
8401
100
AcDbEntity
  8
1
100
AcDbCircle
 10
6557.40040080415
 20
3741.867032643556
 30
0.0
 40
10.0
100
AcDbArc
 50
0.0
 51
90.0
  0
LINE
  5
7C8B
330
8401
100
AcDbEntity
  8
1
100
AcDbLine
 10
4692.400400804151
 20
3854.867032643557
 30
0.0
 11
4887.400400804151
 21
3854.867032643557
 31
0.0
  0
LINE
  5
7C8C
330
8401
100
AcDbEntity
  8
1
100
AcDbLine
 10
4692.400400804152
 20
3774.867032643556
 30
0.0
 11
4887.400400804153
 21
3774.867032643556
 31
0.0
  0
LINE
  5
7C8D
330
8401
100
AcDbEntity
  8
1
100
AcDbLine
 10
4692.400400804152
 20
3854.867032643557
 30
0.0
 11
4692.400400804152
 21
3774.867032643556
 31
0.0
  0
LINE
  5
7C8E
330
8401
100
AcDbEntity
  8
1
100
AcDbLine
 10
4662.900400804153
 20
3847.367032643557
 30
0.0
 11
4692.400400804152
 21
3847.367032643557
 31
0.0
  0
LINE
  5
7C8F
330
8401
100
AcDbEntity
  8
1
100
AcDbLine
 10
4662.900400804152
 20
3782.367032643558
 30
0.0
 11
4692.400400804152
 21
3782.367032643558
 31
0.0
  0
LINE
  5
7C94
330
8401
100
AcDbEntity
  8
1
100
AcDbLine
 10
6454.700400804153
 20
3751.867032643556
 30
0.0
 11
6414.90040080415
 21
3751.867032643556
 31
0.0
  0
LINE
  5
7C95
330
8401
100
AcDbEntity
  8
1
100
AcDbLine
 10
6454.700400804154
 20
3601.867032643556
 30
0.0
 11
6414.90040080415
 21
3601.867032643556
 31
0.0
  0
LINE
  5
7C96
330
8401
100
AcDbEntity
  8
1
100
AcDbLine
 10
4820.100400804152
 20
3751.867032643556
 30
0.0
 11
4859.900400804151
 21
3751.867032643556
 31
0.0
  0
LINE
  5
7C97
330
8401
100
AcDbEntity
  8
1
100
AcDbLine
 10
4820.100400804152
 20
3601.867032643556
 30
0.0
 11
4859.900400804151
 21
3601.867032643556
 31
0.0
  0
ARC
  5
7C99
330
8401
100
AcDbEntity
  8
1
100
AcDbCircle
 10
2548.217971633641
 20
3814.867032643557
 30
0.0
 40
668.0
100
AcDbArc
 50
180.0
 51
184.12061321395
  0
LINE
  5
7C9B
330
8401
100
AcDbEntity
  8
1
100
AcDbLine
 10
6455.40040080415
 20
2584.867032643558
 30
0.0
 11
6455.40040080415
 21
2459.867032643556
 31
0.0
  0
LINE
  5
7C9C
330
8401
100
AcDbEntity
  8
1
100
AcDbLine
 10
4555.400400804152
 20
2584.867032643556
 30
0.0
 11
4555.400400804152
 21
2459.867032643556
 31
0.0
  0
INSERT
  5
7C9F
330
8401
100
AcDbEntity
  8
0
100
AcDbBlockReference
  2
YA_N
 10
4305.350442567148
 20
-1988.400780944633
 30
0.0
  0
POINT
  5
7CA4
330
8401
100
AcDbEntity
  8
1
100
AcDbPoint
 10
1888.21797163364
 20
2459.867032643556
 30
0.0
  0
ARC
  5
7CA7
330
8401
100
AcDbEntity
  8
1
100
AcDbCircle
 10
2548.217971633641
 20
3814.867032643557
 30
0.0
 40
380.0
100
AcDbArc
 50
43.48529361421837
 51
239.1146961056485
  0
CIRCLE
  5
7CA8
330
8401
100
AcDbEntity
  8
1
100
AcDbCircle
 10
2548.217971633641
 20
3814.867032643557
 30
0.0
 40
254.0
  0
ARC
  5
7CA9
330
8401
100
AcDbEntity
  8
1
100
AcDbCircle
 10
3858.21797163364
 20
2844.867032643557
 30
0.0
 40
220.0
100
AcDbArc
 50
239.1146961056485
 51
47.84851548241022
  0
LINE
  5
7CAA
330
8401
100
AcDbEntity
  8
1
100
AcDbLine
 10
4552.400400804152
 20
4068.867032643557
 30
0.0
 11
4662.900400804153
 21
4068.867032643557
 31
0.0
  0
LINE
  5
7CAB
330
8401
100
AcDbEntity
  8
1
100
AcDbLine
 10
4552.400400804152
 20
3560.867032643556
 30
0.0
 11
4662.900400804152
 21
3560.867032643556
 31
0.0
  0
LINE
  5
7CAC
330
8401
100
AcDbEntity
  8
1
100
AcDbLine
 10
4517.400400804151
 20
4194.867032643556
 30
0.0
 11
4714.700400804152
 21
4194.867032643556
 31
0.0
  0
LINE
  5
7CAD
330
8401
100
AcDbEntity
  8
1
100
AcDbLine
 10
4714.700400804151
 20
2644.867032643556
 30
0.0
 11
4714.700400804152
 21
2624.867032643557
 31
0.0
  0
LINE
  5
7CAF
330
8401
100
AcDbEntity
  8
1
100
AcDbLine
 10
1888.21797163364
 20
7693.481934815962
 30
0.0
 11
3208.217971633641
 21
7693.481934815962
 31
0.0
  0
LINE
  5
7CB0
330
8401
100
AcDbEntity
  8
1
100
AcDbLine
 10
1888.21797163364
 20
5793.481934815962
 30
0.0
 11
4148.21797163364
 21
5793.481934815962
 31
0.0
  0
LINE
  5
7CB1
330
8401
100
AcDbEntity
  8
1
100
AcDbLine
 10
1888.21797163364
 20
7693.481934815962
 30
0.0
 11
1888.21797163364
 21
7625.481934815962
 31
0.0
  0
LINE
  5
7CB2
330
8401
100
AcDbEntity
  8
1
100
AcDbLine
 10
4148.21797163364
 20
6693.481934815962
 30
0.0
 11
4148.21797163364
 21
5793.481934815961
 31
0.0
  0
LINE
  5
7CB3
330
8401
100
AcDbEntity
  8
1
100
AcDbLine
 10
3208.217971633641
 20
7693.481934815962
 30
0.0
 11
3208.217971633641
 21
7625.481934815962
 31
0.0
  0
LINE
  5
7CB4
330
8401
100
AcDbEntity
  8
1
100
AcDbLine
 10
3517.217971633641
 20
6693.48193481596
 30
0.0
 11
4148.21797163364
 21
6693.481934815962
 31
0.0
  0
LINE
  5
7CB5
330
8401
100
AcDbEntity
  8
2
100
AcDbLine
 10
3858.217971633641
 20
6561.204511974287
 30
0.0
 11
3858.217971633639
 21
5716.535950910814
 31
0.0
  0
CIRCLE
  5
7CBE
330
8401
100
AcDbEntity
  8
1
100
AcDbCircle
 10
2548.217971633641
 20
3814.867032643557
 30
0.0
 40
560.0
  0
CIRCLE
  5
7CBF
330
8401
100
AcDbEntity
  8
1
100
AcDbCircle
 10
2548.217971633641
 20
3814.867032643557
 30
0.0
 40
610.0
  0
LINE
  5
7CC0
330
8401
100
AcDbEntity
  8
1
100
AcDbLine
 10
2168.21797163364
 20
5755.481934815962
 30
0.0
 11
4078.21797163364
 21
5755.481934815962
 31
0.0
  0
LINE
  5
7CC1
330
8401
100
AcDbEntity
  8
1
100
AcDbLine
 10
2168.21797163364
 20
5925.481934815962
 30
0.0
 11
4078.21797163364
 21
5925.481934815962
 31
0.0
  0
LINE
  5
7CC2
330
8401
100
AcDbEntity
  8
1
100
AcDbLine
 10
2168.217971633641
 20
5755.481934815962
 30
0.0
 11
2168.21797163364
 21
5925.481934815962
 31
0.0
  0
LINE
  5
7CC3
330
8401
100
AcDbEntity
  8
1
100
AcDbLine
 10
4078.21797163364
 20
5755.481934815962
 30
0.0
 11
4078.21797163364
 21
5925.481934815962
 31
0.0
  0
LINE
  5
7CC4
330
8401
100
AcDbEntity
  8
1
100
AcDbLine
 10
2294.217971633641
 20
5793.18193481596
 30
0.0
 11
2294.217971633641
 21
5903.681934815961
 31
0.0
  0
LINE
  5
7CC5
330
8401
100
AcDbEntity
  8
1
100
AcDbLine
 10
2802.217971633641
 20
5793.18193481596
 30
0.0
 11
2802.217971633641
 21
5903.681934815961
 31
0.0
  0
LINE
  5
7CC6
330
8401
100
AcDbEntity
  8
1
100
AcDbLine
 10
3740.217971633641
 20
5793.181934815961
 30
0.0
 11
3740.217971633641
 21
5903.681934815961
 31
0.0
  0
LINE
  5
7CC7
330
8401
100
AcDbEntity
  8
1
100
AcDbLine
 10
3976.217971633641
 20
5793.18193481596
 30
0.0
 11
3976.217971633641
 21
5903.681934815961
 31
0.0
  0
LINE
  5
7CC8
330
8401
100
AcDbEntity
  8
1
100
AcDbLine
 10
2294.217971633641
 20
5793.181934815961
 30
0.0
 11
2802.21797163364
 21
5793.181934815961
 31
0.0
  0
LINE
  5
7CC9
330
8401
100
AcDbEntity
  8
1
100
AcDbLine
 10
2294.217971633641
 20
5903.681934815961
 30
0.0
 11
2802.217971633641
 21
5903.681934815961
 31
0.0
  0
LINE
  5
7CCA
330
8401
100
AcDbEntity
  8
1
100
AcDbLine
 10
3740.217971633641
 20
5903.681934815961
 30
0.0
 11
3976.217971633641
 21
5903.681934815961
 31
0.0
  0
LINE
  5
7CCB
330
8401
100
AcDbEntity
  8
1
100
AcDbLine
 10
3740.217971633641
 20
5793.181934815961
 30
0.0
 11
3976.217971633641
 21
5793.18193481596
 31
0.0
  0
LINE
  5
7CCC
330
8401
100
AcDbEntity
  8
1
100
AcDbLine
 10
1788.21797163364
 20
7675.481934815961
 30
0.0
 11
1788.21797163364
 21
6075.481934815961
 31
0.0
  0
LINE
  5
7CCD
330
8401
100
AcDbEntity
  8
1
100
AcDbLine
 10
3517.217971633641
 20
7625.481934815962
 30
0.0
 11
3517.217971633641
 21
6125.481934815962
 31
0.0
  0
LINE
  5
7CCE
330
8401
100
AcDbEntity
  8
1
100
AcDbLine
 10
1788.21797163364
 20
7625.481934815962
 30
0.0
 11
3517.217971633641
 21
7625.481934815962
 31
0.0
  0
LINE
  5
7CCF
330
8401
100
AcDbEntity
  8
1
100
AcDbLine
 10
1788.21797163364
 20
6125.481934815961
 30
0.0
 11
3517.217971633641
 21
6125.481934815962
 31
0.0
  0
LINE
  5
7CD0
330
8401
100
AcDbEntity
  8
1
100
AcDbLine
 10
1788.21797163364
 20
7675.481934815961
 30
0.0
 11
1792.217971633641
 21
7675.481934815961
 31
0.0
  0
LINE
  5
7CD1
330
8401
100
AcDbEntity
  8
1
100
AcDbLine
 10
1788.21797163364
 20
6075.481934815961
 30
0.0
 11
1792.217971633641
 21
6075.481934815961
 31
0.0
  0
LINE
  5
7CD2
330
8401
100
AcDbEntity
  8
1
100
AcDbLine
 10
1792.217971633641
 20
7675.481934815961
 30
0.0
 11
1792.217971633641
 21
6075.481934815961
 31
0.0
  0
LINE
  5
7CD3
330
8401
100
AcDbEntity
  8
1
100
AcDbLine
 10
2513.217971633641
 20
6125.481934815962
 30
0.0
 11
2513.217971633641
 21
5903.681934815961
 31
0.0
  0
LINE
  5
7CD4
330
8401
100
AcDbEntity
  8
1
100
AcDbLine
 10
2583.217971633641
 20
6125.481934815962
 30
0.0
 11
2583.217971633641
 21
5903.681934815961
 31
0.0
  0
LINE
  5
7CD5
330
8401
100
AcDbEntity
  8
1
100
AcDbLine
 10
3659.217971633641
 20
6595.681934815961
 30
0.0
 11
3659.217971633639
 21
5938.181934815961
 31
0.0
  0
LINE
  5
7CD6
330
8401
100
AcDbEntity
  8
1
100
AcDbLine
 10
4057.217971633639
 20
6595.68193481596
 30
0.0
 11
4057.217971633639
 21
5938.181934815959
 31
0.0
  0
LINE
  5
7CD7
330
8401
100
AcDbEntity
  8
1
100
AcDbLine
 10
3659.217971633641
 20
6595.681934815961
 30
0.0
 11
4057.21797163364
 21
6595.68193481596
 31
0.0
  0
LINE
  5
7CD8
330
8401
100
AcDbEntity
  8
1
100
AcDbLine
 10
3659.217971633637
 20
5938.181934815961
 30
0.0
 11
4057.217971633638
 21
5938.181934815959
 31
0.0
  0
LINE
  5
7CD9
330
8401
100
AcDbEntity
  8
1
100
AcDbLine
 10
3830.71797163364
 20
5938.181934815959
 30
0.0
 11
3830.71797163364
 21
5903.681934815961
 31
0.0
  0
LINE
  5
7CDA
330
8401
100
AcDbEntity
  8
1
100
AcDbLine
 10
3885.717971633639
 20
5938.181934815959
 30
0.0
 11
3885.717971633639
 21
5903.681934815961
 31
0.0
  0
LINE
  5
7CDB
330
8401
100
AcDbEntity
  8
1
100
AcDbLine
 10
5354.900400804149
 20
3043.867032643558
 30
0.0
 11
4697.40040080415
 21
3043.867032643558
 31
0.0
  0
LINE
  5
7CDC
330
8401
100
AcDbEntity
  8
1
100
AcDbLine
 10
5354.900400804153
 20
2645.867032643558
 30
0.0
 11
4697.400400804153
 21
2645.867032643558
 31
0.0
  0
LINE
  5
7CDD
330
8401
100
AcDbEntity
  8
1
100
AcDbLine
 10
4697.400400804153
 20
2645.867032643556
 30
0.0
 11
4697.400400804151
 21
3043.867032643556
 31
0.0
  0
LINE
  5
7CDE
330
8401
100
AcDbEntity
  8
1
100
AcDbLine
 10
4697.400400804151
 20
2817.367032643558
 30
0.0
 11
4662.900400804152
 21
2817.367032643558
 31
0.0
  0
LINE
  5
7CDF
330
8401
100
AcDbEntity
  8
1
100
AcDbLine
 10
4697.400400804151
 20
2872.367032643558
 30
0.0
 11
4662.900400804152
 21
2872.367032643558
 31
0.0
  0
LINE
  5
7CED
330
8401
100
AcDbEntity
  8
1
100
AcDbLine
 10
2803.233337725091
 20
4096.588815715515
 30
0.0
 11
4005.858446739217
 21
3007.969117579953
 31
0.0
  0
LINE
  5
7CEE
330
8401
100
AcDbEntity
  8
1
100
AcDbLine
 10
2353.155936366428
 20
3488.752325220827
 30
0.0
 11
3745.287319636833
 21
2656.063780977765
 31
0.0
  0
LINE
  5
7CEF
330
8401
100
AcDbEntity
  8
1
100
AcDbLine
 10
2715.872964603492
 20
4005.675322118303
 30
0.0
 11
3936.104936871604
 21
2933.510253738124
 31
0.0
  0
LINE
  5
7CF0
330
8401
100
AcDbEntity
  8
1
100
AcDbLine
 10
2414.625936887349
 20
3598.836552728462
 30
0.0
 11
3796.155530294814
 21
2744.506415990088
 31
0.0
  0
LINE
  5
7CF1
330
8401
100
AcDbEntity
  8
1
100
AcDbLine
 10
5290.166101963095
 20
2616.867032643556
 30
0.0
 11
6387.40040080415
 21
2616.867032643556
 31
0.0
  0
LINE
  5
7CF5
330
8401
100
AcDbEntity
  8
1
100
AcDbLine
 10
1888.21797163364
 20
6125.481934815961
 30
0.0
 11
1888.21797163364
 21
5793.481934815962
 31
0.0
  0
LINE
  5
7CF6
330
8401
100
AcDbEntity
  8
1
100
AcDbLine
 10
5354.900400804153
 20
2645.867032643559
 30
0.0
 11
5354.900400804151
 21
3043.867032643559
 31
0.0
  0
LINE
  5
7CF7
330
8401
100
AcDbEntity
  8
1
100
AcDbLine
 10
4887.400400804152
 20
3043.867032643558
 30
0.0
 11
4887.400400804153
 21
3814.867032643557
 31
0.0
  0
LINE
  5
7CF8
330
8401
100
AcDbEntity
  8
1
100
AcDbLine
 10
5290.166101963095
 20
2645.867032643558
 30
0.0
 11
5290.166101963095
 21
2584.867032643556
 31
0.0
  0
LINE
  5
7CF9
330
8401
100
AcDbEntity
  8
1
100
AcDbLine
 10
4784.467551281657
 20
2645.867032643558
 30
0.0
 11
4784.467551281657
 21
2584.867032643556
 31
0.0
  0
LINE
  5
7F3B
330
8401
100
AcDbEntity
  8
4
100
AcDbLine
 10
6475.0
 20
1750.0
 30
0.0
 11
6475.0
 21
1050.0
 31
0.0
  0
LINE
  5
7F3C
330
8401
100
AcDbEntity
  8
4
100
AcDbLine
 10
4025.0
 20
1750.0
 30
0.0
 11
4025.0
 21
1050.0
 31
0.0
  0
LINE
  5
7F3D
330
8401
100
AcDbEntity
  8
4
100
AcDbLine
 10
2275.0
 20
1750.0
 30
0.0
 11
2275.0
 21
1050.0
 31
0.0
  0
LINE
  5
7F40
330
8401
100
AcDbEntity
  8
4
100
AcDbLine
 10
2275.0
 20
1050.0
 30
0.0
 11
6475.0
 21
1050.0
 31
0.0
  0
LINE
  5
7F41
330
8401
100
AcDbEntity
  8
4
100
AcDbLine
 10
2275.0
 20
1400.0
 30
0.0
 11
6475.0
 21
1400.0
 31
0.0
  0
TEXT
  5
7F42
330
8401
100
AcDbEntity
  8
4
100
AcDbText
 10
2409.757282964156
 20
1510.400590533145
 30
0.0
 40
175.0
  1
機器名称
100
AcDbText
  0
TEXT
  5
7F43
330
8401
100
AcDbEntity
  8
4
100
AcDbText
 10
2401.903371086791
 20
1125.758048562038
 30
0.0
 40
175.0
  1
機器型番
100
AcDbText
  0
TEXT
  5
7F44
330
8401
100
AcDbEntity
  8
4
100
AcDbText
 10
4121.875609206827
 20
1479.00119135149
 30
0.0
 40
175.0
  1
ミツヤ多翼送風機
100
AcDbText
  0
TEXT
  5
7F45
330
8401
100
AcDbEntity
  8
4
100
AcDbText
 10
4153.290734549183
 20
1110.058544979801
 30
0.0
 40
175.0
  1
MF#7-5
100
AcDbText
  0
TEXT
  5
7F47
330
8401
100
AcDbEntity
  8
4
100
AcDbText
 10
2871.045700049421
 20
8342.000944663805
 30
0.0
 40
188.9999999999998
  1
床置ベット
100
AcDbText
  0
TEXT
  5
7F48
330
8401
100
AcDbEntity
  8
4
100
AcDbText
 10
1106.586576653062
 20
8868.583416697545
 30
0.0
 40
252.0
  1
遠心式両吸込両持多翼ファン
100
AcDbText
  0
LINE
  5
7F49
330
8401
100
AcDbEntity
  8
4
100
AcDbLine
 10
875.0
 20
8642.930639926817
 30
0.0
 11
6475.0
 21
8642.930639926817
 31
0.0
  0
LINE
  5
7F4A
330
8401
100
AcDbEntity
  8
4
100
AcDbLine
 10
875.0
 20
9342.930639926818
 30
0.0
 11
6475.0
 21
9342.930639926818
 31
0.0
  0
LINE
  5
7F4B
330
8401
100
AcDbEntity
  8
4
100
AcDbLine
 10
2275.0
 20
1750.0
 30
0.0
 11
6475.0
 21
1750.0
 31
0.0
  0
LINE
  5
7F4C
330
8401
100
AcDbEntity
  8
4
100
AcDbLine
 10
875.0
 20
9342.930639926818
 30
0.0
 11
875.0
 21
8642.930639926817
 31
0.0
  0
TEXT
  5
7F4D
330
8401
100
AcDbEntity
  8
4
100
AcDbText
 10
1345.539787199963
 20
8338.118171412203
 30
0.0
 40
188.9999999999998
  1
右回転左横向
100
AcDbText
  0
TEXT
  5
7F4E
330
8401
100
AcDbEntity
  8
4
100
AcDbText
 10
5141.393457372513
 20
9471.21378523358
 30
0.0
 40
196.0
  1
No.
100
AcDbText
  0
TEXT
  5
7F4F
330
8401
100
AcDbEntity
  8
4
100
AcDbText
 10
4589.536219100046
 20
8342.000944663805
 30
0.0
 40
188.9999999999998
  1
縮尺：1/35
100
AcDbText
  0
LINE
  5
7F50
330
8401
100
AcDbEntity
  8
4
100
AcDbLine
 10
6475.0
 20
9342.930639926818
 30
0.0
 11
6475.0
 21
8642.930639926817
 31
0.0
  0
LINE
  5
7F51
330
8401
100
AcDbEntity
  8
4
100
AcDbLine
 10
7350.0
 20
10325.0
 30
0.0
 11
7350.0
 21
10325.0
 31
0.0
  0
LINE
  5
7F52
330
8401
100
AcDbEntity
  8
4
100
AcDbLine
 10
5042.160978259526
 20
9384.422540938905
 30
0.0
 11
5042.160978259526
 21
9753.282915424136
 31
0.0
  0
LINE
  5
7F53
330
8401
100
AcDbEntity
  8
4
100
AcDbLine
 10
5042.160978259526
 20
9753.282915424136
 30
0.0
 11
6475.0
 21
9753.282915424136
 31
0.0
  0
LINE
  5
7F54
330
8401
100
AcDbEntity
  8
4
100
AcDbLine
 10
6475.0
 20
9753.282915424136
 30
0.0
 11
6475.0
 21
9384.422540938905
 31
0.0
  0
LINE
  5
7F55
330
8401
100
AcDbEntity
  8
4
100
AcDbLine
 10
6475.0
 20
9384.422540938905
 30
0.0
 11
5042.160978259526
 21
9384.422540938905
 31
0.0
  0
LINE
  5
7F56
330
8401
100
AcDbEntity
  8
4
100
AcDbLine
 10
0.0
 20
0.0
 30
0.0
 11
0.0
 21
10325.0
 31
0.0
  0
LINE
  5
7F57
330
8401
100
AcDbEntity
  8
4
100
AcDbLine
 10
0.0
 20
10325.0
 30
0.0
 11
7350.0
 21
10325.0
 31
0.0
  0
LINE
  5
7F58
330
8401
100
AcDbEntity
  8
4
100
AcDbLine
 10
7350.0
 20
10325.0
 30
0.0
 11
7350.0
 21
0.0
 31
0.0
  0
LINE
  5
7F59
330
8401
100
AcDbEntity
  8
4
100
AcDbLine
 10
7350.0
 20
0.0
 30
0.0
 11
0.0
 21
0.0
 31
0.0
  0
DIMENSION
  5
81DF
330
8401
100
AcDbEntity
  8
3
100
AcDbDimension
  2
*D22
 10
2548.217971633641
 20
2207.791420376423
 30
0.0
 11
2218.217971633641
 21
2295.291420376423
 31
0.0
 71
     5
 42
-1.0
  3
Standard
100
AcDbAlignedDimension
 13
1888.21797163364
 23
2459.867032643556
 33
0.0
 14
2548.217971633641
 24
2459.867032643556
 34
0.0
100
AcDbRotatedDimension
1001
ACAD
1000
DSTYLE
1002
{
1070
   172
1070
     1
1070
    40
1040
35.0
1070
   271
1070
     0
1070
   143
1040
0.039
1002
}
  0
DIMENSION
  5
81EC
330
8401
100
AcDbEntity
  8
3
100
AcDbDimension
  2
*D23
 10
4148.21797163364
 20
2207.791420376423
 30
0.0
 11
3348.217971633641
 21
2295.291420376423
 31
0.0
 71
     5
 42
-1.0
  3
Standard
100
AcDbAlignedDimension
 13
2548.217971633641
 23
2459.867032643556
 33
0.0
 14
4148.21797163364
 24
2459.867032643556
 34
0.0
100
AcDbRotatedDimension
1001
ACAD
1000
DSTYLE
1002
{
1070
   172
1070
     1
1070
    40
1040
35.0
1070
   271
1070
     0
1070
   143
1040
0.039
1002
}
  0
DIMENSION
  5
81F9
330
8401
100
AcDbEntity
  8
3
100
AcDbDimension
  2
*D24
 10
5637.400400804153
 20
2207.791420376423
 30
0.0
 11
5096.400400804152
 21
2295.291420376423
 31
0.0
 71
     5
 42
-1.0
  3
Standard
100
AcDbAlignedDimension
 13
4555.400400804151
 23
2459.867032643556
 33
0.0
 14
5637.400400804153
 24
2459.867032643556
 34
0.0
100
AcDbRotatedDimension
1001
ACAD
1000
DSTYLE
1002
{
1070
   172
1070
     1
1070
    40
1040
35.0
1070
   271
1070
     0
1070
   143
1040
0.039
1002
}
  0
DIMENSION
  5
8206
330
8401
100
AcDbEntity
  8
3
100
AcDbDimension
  2
*D25
 10
6455.40040080415
 20
2207.791420376423
 30
0.0
 11
6046.400400804152
 21
2295.291420376423
 31
0.0
 71
     5
 42
-1.0
  3
Standard
100
AcDbAlignedDimension
 13
5637.400400804153
 23
2459.867032643556
 33
0.0
 14
6455.40040080415
 24
2459.867032643556
 34
0.0
100
AcDbRotatedDimension
1001
ACAD
1000
DSTYLE
1002
{
1070
   172
1070
     1
1070
    40
1040
35.0
1070
   271
1070
     0
1070
   143
1040
0.039
1002
}
  0
DIMENSION
  5
8213
330
8401
100
AcDbEntity
  8
3
100
AcDbDimension
  2
*D26
 10
975.0826638516521
 20
4619.867032643557
 30
0.0
 11
887.5826638516521
 21
3539.867032643557
 31
0.0
 71
     5
 42
-1.0
  3
Standard
100
AcDbAlignedDimension
 13
1888.21797163364
 23
2459.867032643556
 33
0.0
 14
2612.717971633641
 24
4619.867032643557
 34
0.0
 50
90.0
100
AcDbRotatedDimension
1001
ACAD
1000
DSTYLE
1002
{
1070
   172
1070
     1
1070
    40
1040
35.0
1070
   271
1070
     0
1070
   143
1040
0.039
1002
}
  0
DIMENSION
  5
844B
330
8401
100
AcDbEntity
  8
3
100
AcDbDimension
  2
*D27
 10
6839.02264488933
 20
3254.867032643557
 30
0.0
 11
6751.522644889329
 21
3814.867032643558
 31
0.0
 70
    32
  1
\U+03C6<>
 71
     5
 42
1120.0
  3
IGA
100
AcDbAlignedDimension
 13
6387.400400804152
 23
4374.867032643556
 33
0.0
 14
6387.400400804152
 24
3254.867032643557
 34
0.0
 50
90.0
100
AcDbRotatedDimension
1001
ACAD
1000
DSTYLE
1002
{
1070
    40
1040
35.0
1070
   143
1040
0.039
1070
   172
1070
     1
1070
   271
1070
     4
1070
   272
1070
     4
1070
   279
1070
     0
1070
   284
1070
     0
1070
   285
1070
     0
1070
   286
1070
     0
1070
   341
1005
8414
1070
   343
1005
8414
1070
   344
1005
8414
1002
}
  0
DIMENSION
  5
8458
330
8401
100
AcDbEntity
  8
3
100
AcDbDimension
  2
*D28
 10
6387.400400804152
 20
4873.306671695954
 30
0.0
 11
5637.400400804152
 21
4960.806671695954
 31
0.0
 70
    32
 71
     5
 42
1500.0
  3
IGA
100
AcDbAlignedDimension
 13
4887.400400804152
 23
4619.867032643557
 33
0.0
 14
6387.400400804152
 24
4619.867032643557
 34
0.0
100
AcDbRotatedDimension
1001
ACAD
1000
DSTYLE
1002
{
1070
    40
1040
35.0
1070
   143
1040
0.039
1070
   172
1070
     1
1070
   271
1070
     4
1070
   272
1070
     4
1070
   279
1070
     0
1070
   284
1070
     0
1070
   285
1070
     0
1070
   286
1070
     0
1070
   341
1005
8414
1070
   343
1005
8414
1070
   344
1005
8414
1002
}
  0
DIMENSION
  5
8465
330
8401
100
AcDbEntity
  8
3
100
AcDbDimension
  2
*D29
 10
5637.400400804152
 20
5070.297380820517
 30
0.0
 11
5077.400400804152
 21
5185.297380820517
 31
0.0
 70
    32
  1
(<>)
 71
     5
 42
1120.0
  3
IGA
100
AcDbAlignedDimension
 13
4517.400400804151
 23
4194.867032643556
 33
0.0
 14
5637.400400804152
 24
5013.306671695954
 34
0.0
100
AcDbRotatedDimension
1001
ACAD
1000
DSTYLE
1002
{
1070
    40
1040
35.0
1070
   143
1040
0.039
1070
   172
1070
     1
1070
   271
1070
     4
1070
   272
1070
     4
1070
   279
1070
     0
1070
   284
1070
     0
1070
   285
1070
     0
1070
   286
1070
     0
1070
   341
1005
8414
1070
   343
1005
8414
1070
   344
1005
8414
1002
}
  0
DIMENSION
  5
8472
330
8401
100
AcDbEntity
  8
3
100
AcDbDimension
  2
*D30
 10
6567.40040080415
 20
5070.297380820517
 30
0.0
 11
6102.400400804151
 21
5185.297380820517
 31
0.0
 70
    32
  1
(<>)
 71
     5
 42
929.9999999999981
  3
IGA
100
AcDbAlignedDimension
 13
5637.400400804152
 23
5013.306671695954
 33
0.0
 14
6567.40040080415
 24
3741.867032643556
 34
0.0
100
AcDbRotatedDimension
1001
ACAD
1000
DSTYLE
1002
{
1070
    40
1040
35.0
1070
   143
1040
0.039
1070
   172
1070
     1
1070
   271
1070
     4
1070
   272
1070
     4
1070
   279
1070
     1
1070
   284
1070
     0
1070
   285
1070
     0
1070
   286
1070
     0
1070
   341
1005
8414
1070
   343
1005
8414
1070
   344
1005
8414
1002
}
  0
DIMENSION
  5
84F2
330
8401
100
AcDbEntity
  8
3
100
AcDbDimension
  2
*D32
 10
1489.445716662588
 20
5793.481934815962
 30
0.0
 11
1401.945716662587
 21
6743.481934815962
 31
0.0
 70
    32
 71
     5
 42
1900.0
  3
IGA
100
AcDbAlignedDimension
 13
1888.21797163364
 23
7693.481934815962
 33
0.0
 14
1888.21797163364
 24
5793.481934815962
 34
0.0
 50
90.0
100
AcDbRotatedDimension
1001
ACAD
1000
DSTYLE
1002
{
1070
    40
1040
35.0
1070
   143
1040
0.039
1070
   172
1070
     1
1070
   271
1070
     4
1070
   272
1070
     4
1070
   279
1070
     0
1070
   284
1070
     0
1070
   285
1070
     0
1070
   286
1070
     0
1070
   341
1005
8414
1070
   343
1005
8414
1070
   344
1005
8414
1002
}
  0
DIMENSION
  5
84FF
330
8401
100
AcDbEntity
  8
3
100
AcDbDimension
  2
*D33
 10
3208.217971633641
 20
7867.489295287082
 30
0.0
 11
2548.217971633641
 21
7954.989295287082
 31
0.0
 70
    32
 71
     5
 42
1320.0
  3
IGA
100
AcDbAlignedDimension
 13
1888.21797163364
 23
7693.481934815962
 33
0.0
 14
3208.217971633641
 24
7693.481934815962
 34
0.0
100
AcDbRotatedDimension
1001
ACAD
1000
DSTYLE
1002
{
1070
    40
1040
35.0
1070
   143
1040
0.039
1070
   172
1070
     1
1070
   271
1070
     4
1070
   272
1070
     4
1070
   279
1070
     0
1070
   284
1070
     0
1070
   285
1070
     0
1070
   286
1070
     0
1070
   341
1005
8414
1070
   343
1005
8414
1070
   344
1005
8414
1002
}
  0
DIMENSION
  5
850C
330
8401
100
AcDbEntity
  8
3
100
AcDbDimension
  2
*D34
 10
4148.21797163364
 20
7867.489295287082
 30
0.0
 11
3678.217971633641
 21
7954.989295287082
 31
0.0
 70
    32
 71
     5
 42
939.9999999999995
  3
IGA
100
AcDbAlignedDimension
 13
3208.217971633641
 23
7693.481934815962
 33
0.0
 14
4148.21797163364
 24
6693.481934815962
 34
0.0
100
AcDbRotatedDimension
1001
ACAD
1000
DSTYLE
1002
{
1070
    40
1040
35.0
1070
   143
1040
0.039
1070
   172
1070
     1
1070
   271
1070
     4
1070
   272
1070
     4
1070
   279
1070
     1
1070
   284
1070
     0
1070
   285
1070
     0
1070
   286
1070
     0
1070
   341
1005
8414
1070
   343
1005
8414
1070
   344
1005
8414
1002
}
  0
DIMENSION
  5
8519
330
8401
100
AcDbEntity
  8
3
100
AcDbDimension
  2
*D35
 10
4548.848380927504
 20
5793.481934815961
 30
0.0
 11
4461.348380927502
 21
6243.481934815962
 31
0.0
 70
    32
 71
     5
 42
900.0000000000008
  3
IGA
100
AcDbAlignedDimension
 13
4148.21797163364
 23
6693.481934815962
 33
0.0
 14
4148.21797163364
 24
5793.481934815961
 34
0.0
 50
90.0
100
AcDbRotatedDimension
1001
ACAD
1000
DSTYLE
1002
{
1070
    40
1040
35.0
1070
   143
1040
0.039
1070
   172
1070
     1
1070
   271
1070
     4
1070
   272
1070
     4
1070
   279
1070
     0
1070
   284
1070
     0
1070
   285
1070
     0
1070
   286
1070
     0
1070
   341
1005
8414
1070
   343
1005
8414
1070
   344
1005
8414
1002
}
  0
DIMENSION
  5
8526
330
8401
100
AcDbEntity
  8
3
100
AcDbDimension
  2
*D36
 10
4148.21797163364
 20
5502.236742722015
 30
0.0
 11
3018.217971633641
 21
5589.736742722015
 31
0.0
 70
    32
 71
     5
 42
2260.0
  3
IGA
100
AcDbAlignedDimension
 13
1888.21797163364
 23
5793.481934815962
 33
0.0
 14
4148.21797163364
 24
5793.481934815961
 34
0.0
100
AcDbRotatedDimension
1001
ACAD
1000
DSTYLE
1002
{
1070
    40
1040
35.0
1070
   143
1040
0.039
1070
   172
1070
     1
1070
   271
1070
     4
1070
   272
1070
     4
1070
   279
1070
     0
1070
   284
1070
     0
1070
   285
1070
     0
1070
   286
1070
     0
1070
   341
1005
8414
1070
   343
1005
8414
1070
   344
1005
8414
1002
}
  0
DIMENSION
  5
8533
330
8401
100
AcDbEntity
  8
3
100
AcDbDimension
  2
*D37
 10
2548.217971633641
 20
4845.294362889877
 30
0.0
 11
2168.217971633641
 21
4932.794362889876
 31
0.0
 70
    32
 71
     5
 42
760.0000000000002
  3
IGA
100
AcDbAlignedDimension
 13
1788.21797163364
 23
3819.867032643557
 33
0.0
 14
2548.217971633641
 24
4680.935226323958
 34
0.0
100
AcDbRotatedDimension
1001
ACAD
1000
DSTYLE
1002
{
1070
    40
1040
35.0
1070
   143
1040
0.039
1070
   172
1070
     1
1070
   271
1070
     4
1070
   272
1070
     4
1070
   279
1070
     0
1070
   284
1070
     0
1070
   285
1070
     0
1070
   286
1070
     0
1070
   341
1005
8414
1070
   343
1005
8414
1070
   344
1005
8414
1002
}
  0
DIMENSION
  5
8540
330
8401
100
AcDbEntity
  8
3
100
AcDbDimension
  2
*D38
 10
3517.217971633641
 20
4845.294362889877
 30
0.0
 11
3032.717971633641
 21
4932.794362889876
 31
0.0
 70
    32
 71
     5
 42
969.0
  3
IGA
100
AcDbAlignedDimension
 13
2548.217971633641
 23
4680.935226323958
 33
0.0
 14
3517.217971633641
 24
3732.867032643557
 34
0.0
100
AcDbRotatedDimension
1001
ACAD
1000
DSTYLE
1002
{
1070
    40
1040
35.0
1070
   143
1040
0.039
1070
   172
1070
     1
1070
   271
1070
     4
1070
   272
1070
     4
1070
   279
1070
     1
1070
   284
1070
     0
1070
   285
1070
     0
1070
   286
1070
     0
1070
   341
1005
8414
1070
   343
1005
8414
1070
   344
1005
8414
1002
}
  0
DIMENSION
  5
854D
330
8401
100
AcDbEntity
  8
3
100
AcDbDimension
  2
*D39
 10
1788.21797163364
 20
5072.874531832272
 30
0.0
 11
2968.217971633641
 21
5160.374531832271
 31
0.0
 70
    32
 71
     5
 42
2360.0
  3
IGA
100
AcDbAlignedDimension
 13
4148.21797163364
 23
2584.867032643556
 33
0.0
 14
1788.21797163364
 24
3819.867032643557
 34
0.0
100
AcDbRotatedDimension
1001
ACAD
1000
DSTYLE
1002
{
1070
    40
1040
35.0
1070
   143
1040
0.039
1070
   172
1070
     1
1070
   271
1070
     4
1070
   272
1070
     4
1070
   279
1070
     0
1070
   284
1070
     0
1070
   285
1070
     0
1070
   286
1070
     0
1070
   341
1005
8414
1070
   343
1005
8414
1070
   344
1005
8414
1002
}
  0
DIMENSION
  5
855A
330
8401
100
AcDbEntity
  8
3
100
AcDbDimension
  2
*D40
 10
1588.109655349375
 20
2616.867032643556
 30
0.0
 11
1500.609655349375
 21
3191.867032643556
 31
0.0
 70
    32
 71
     5
 42
1150.0
  3
IGA
100
AcDbAlignedDimension
 13
1788.21797163364
 23
3766.867032643556
 33
0.0
 14
1788.21797163364
 24
2616.867032643556
 34
0.0
 50
90.0
100
AcDbRotatedDimension
1001
ACAD
1000
DSTYLE
1002
{
1070
    40
1040
35.0
1070
   143
1040
0.039
1070
   172
1070
     1
1070
   271
1070
     4
1070
   272
1070
     4
1070
   279
1070
     0
1070
   284
1070
     0
1070
   285
1070
     0
1070
   286
1070
     0
1070
   341
1005
8414
1070
   343
1005
8414
1070
   344
1005
8414
1002
}
  0
DIMENSION
  5
8567
330
8401
100
AcDbEntity
  8
3
100
AcDbDimension
  2
*D41
 10
1387.958004487873
 20
3814.867032643557
 30
0.0
 11
1300.458004487872
 21
3215.867032643557
 31
0.0
 70
    32
 71
     5
 42
1198.000000000001
  3
IGA
100
AcDbAlignedDimension
 13
1788.21797163364
 23
2616.867032643556
 33
0.0
 14
1641.437320180664
 24
3814.867032643557
 34
0.0
 50
90.0
100
AcDbRotatedDimension
1001
ACAD
1000
DSTYLE
1002
{
1070
    40
1040
35.0
1070
   143
1040
0.039
1070
   172
1070
     1
1070
   271
1070
     4
1070
   272
1070
     4
1070
   279
1070
     0
1070
   284
1070
     0
1070
   285
1070
     0
1070
   286
1070
     0
1070
   341
1005
8414
1070
   343
1005
8414
1070
   344
1005
8414
1002
}
  0
DIMENSION
  5
8574
330
8401
100
AcDbEntity
  8
3
100
AcDbDimension
  2
*D42
 10
1184.008057762067
 20
3814.867032643557
 30
0.0
 11
1096.508057762066
 21
3137.367032643557
 31
0.0
 70
    32
 71
     5
 42
1355.000000000001
  3
IGA
100
AcDbAlignedDimension
 13
1888.21797163364
 23
2459.867032643556
 33
0.0
 14
1641.437320180664
 24
3814.867032643557
 34
0.0
 50
90.0
100
AcDbRotatedDimension
1001
ACAD
1000
DSTYLE
1002
{
1070
    40
1040
35.0
1070
   143
1040
0.039
1070
   172
1070
     1
1070
   271
1070
     4
1070
   272
1070
     4
1070
   279
1070
     0
1070
   284
1070
     0
1070
   285
1070
     0
1070
   286
1070
     0
1070
   341
1005
8414
1070
   343
1005
8414
1070
   344
1005
8414
1002
}
  0
DIMENSION
  5
8581
330
8401
100
AcDbEntity
  8
3
100
AcDbDimension
  2
*D43
 10
1184.008057762067
 20
4619.867032643557
 30
0.0
 11
1096.508057762066
 21
4217.367032643557
 31
0.0
 70
    32
 71
     5
 42
805.0
  3
IGA
100
AcDbAlignedDimension
 13
1641.437320180664
 23
3814.867032643557
 33
0.0
 14
2630.217971633641
 24
4619.867032643557
 34
0.0
 50
90.0
100
AcDbRotatedDimension
1001
ACAD
1000
DSTYLE
1002
{
1070
    40
1040
35.0
1070
   143
1040
0.039
1070
   172
1070
     1
1070
   271
1070
     4
1070
   272
1070
     4
1070
   279
1070
     1
1070
   284
1070
     0
1070
   285
1070
     0
1070
   286
1070
     0
1070
   341
1005
8414
1070
   343
1005
8414
1070
   344
1005
8414
1002
}
  0
ENDSEC
  0
SECTION
  2
OBJECTS
  0
DICTIONARY
  5
839E
330
0
100
AcDbDictionary
281
     1
  3
ACAD_CIP_PREVIOUS_PRODUCT_INFO
350
8446
  3
ACAD_COLOR
350
83F4
  3
ACAD_DETAILVIEWSTYLE
350
83FB
  3
ACAD_GROUP
350
839F
  3
ACAD_LAYOUT
350
83F3
  3
ACAD_MATERIAL
350
83A2
  3
ACAD_MLEADERSTYLE
350
83F7
  3
ACAD_MLINESTYLE
350
83F0
  3
ACAD_PLOTSETTINGS
350
83F2
  3
ACAD_PLOTSTYLENAME
350
83A0
  3
ACAD_SCALELIST
350
83D4
  3
ACAD_SECTIONVIEWSTYLE
350
83F9
  3
ACAD_TABLESTYLE
350
83F5
  3
ACAD_VISUALSTYLE
350
83BB
  3
ACDB_RECOMPOSE_DATA
350
85E6
  3
AcDbVariableDictionary
350
8598
  3
DWGPROPS
350
85E7
  0
DICTIONARY
  5
858E
330
83E6
100
AcDbDictionary
280
     1
281
     1
  3
ADSK_XREC_LAYER_RECONCILED
360
858F
  0
DICTIONARY
  5
8590
330
8405
100
AcDbDictionary
280
     1
281
     1
  3
ADSK_XREC_LAYER_RECONCILED
360
8591
  0
DICTIONARY
  5
8592
330
8408
100
AcDbDictionary
280
     1
281
     1
  3
ADSK_XREC_LAYER_RECONCILED
360
8593
  0
DICTIONARY
  5
8594
330
8409
100
AcDbDictionary
280
     1
281
     1
  3
ADSK_XREC_LAYER_RECONCILED
360
8595
  0
DICTIONARY
  5
8596
330
840A
100
AcDbDictionary
280
     1
281
     1
  3
ADSK_XREC_LAYER_RECONCILED
360
8597
  0
DICTIONARY
  5
8448
330
8401
100
AcDbDictionary
280
     1
281
     1
  3
ACAD_SORTENTS
360
8449
  0
XRECORD
  5
8446
102
{ACAD_REACTORS
330
839E
102
}
330
839E
100
AcDbXrecord
280
     1
300
ACDLT
300
2015
300
INVLTS_F_S
  0
DICTIONARY
  5
83F4
102
{ACAD_REACTORS
330
839E
102
}
330
839E
100
AcDbDictionary
281
     1
  0
DICTIONARY
  5
83FB
102
{ACAD_REACTORS
330
839E
102
}
330
839E
100
AcDbDictionary
281
     1
  3
Imperial24
350
83FC
  0
DICTIONARY
  5
839F
102
{ACAD_REACTORS
330
839E
102
}
330
839E
100
AcDbDictionary
281
     1
  0
DICTIONARY
  5
83F3
102
{ACAD_REACTORS
330
839E
102
}
330
839E
100
AcDbDictionary
281
     1
  3
Model
350
8404
  3
レイアウト1
350
8400
  0
DICTIONARY
  5
83A2
102
{ACAD_REACTORS
330
839E
102
}
330
839E
100
AcDbDictionary
281
     1
  3
ByBlock
350
83AB
  3
ByLayer
350
83A3
  3
Global
350
83B3
  0
DICTIONARY
  5
83F7
102
{ACAD_REACTORS
330
839E
102
}
330
839E
100
AcDbDictionary
281
     1
  3
Standard
350
83F8
  0
DICTIONARY
  5
83F0
102
{ACAD_REACTORS
330
839E
102
}
330
839E
100
AcDbDictionary
281
     1
  3
Standard
350
83F1
  0
DICTIONARY
  5
83F2
102
{ACAD_REACTORS
330
839E
102
}
330
839E
100
AcDbDictionary
281
     1
  0
ACDBDICTIONARYWDFLT
  5
83A0
102
{ACAD_REACTORS
330
839E
102
}
330
839E
100
AcDbDictionary
281
     1
  3
Normal
350
83A1
100
AcDbDictionaryWithDefault
340
83A1
  0
DICTIONARY
  5
83D4
102
{ACAD_REACTORS
330
839E
102
}
330
839E
100
AcDbDictionary
281
     1
  3
A0
350
83D5
  3
A1
350
83D6
  3
A2
350
83D7
  3
A3
350
83D8
  3
A4
350
83D9
  3
A5
350
83DA
  3
A6
350
83DB
  3
A7
350
83DC
  3
A8
350
83DD
  3
A9
350
83DE
  3
B0
350
83DF
  3
B1
350
83E0
  3
B2
350
83E1
  3
B3
350
83E2
  3
B4
350
83E3
  3
B5
350
83E4
  3
B6
350
83E5
  0
DICTIONARY
  5
83F9
102
{ACAD_REACTORS
330
839E
102
}
330
839E
100
AcDbDictionary
281
     1
  3
Imperial24
350
83FA
  0
DICTIONARY
  5
83F5
102
{ACAD_REACTORS
330
839E
102
}
330
839E
100
AcDbDictionary
281
     1
  3
Standard
350
83F6
  0
DICTIONARY
  5
83BB
102
{ACAD_REACTORS
330
839E
102
}
330
839E
100
AcDbDictionary
281
     1
  3
2dWireframe
350
83C1
  3
Basic
350
83C0
  3
Brighten
350
83C7
  3
ColorChange
350
83CB
  3
Conceptual
350
83C4
  3
Dim
350
83C6
  3
EdgeColorOff
350
83D3
  3
Facepattern
350
83CA
  3
Flat
350
83BC
  3
FlatWithEdges
350
83BD
  3
Gouraud
350
83BE
  3
GouraudWithEdges
350
83BF
  3
Hidden
350
83C3
  3
JitterOff
350
83D1
  3
Linepattern
350
83C9
  3
OverhangOff
350
83D2
  3
Realistic
350
83C5
  3
Shaded
350
83D0
  3
Shaded with edges
350
83CF
  3
Shades of Gray
350
83CC
  3
Sketchy
350
83CD
  3
Thicken
350
83C8
  3
Wireframe
350
83C2
  3
X-Ray
350
83CE
  0
XRECORD
  5
85E6
102
{ACAD_REACTORS
330
839E
102
}
330
839E
100
AcDbXrecord
280
     1
 90
        1
330
83F6
  0
DICTIONARY
  5
8598
102
{ACAD_REACTORS
330
839E
102
}
330
839E
100
AcDbDictionary
281
     1
  3
CANNOSCALE
350
859D
  3
CMLEADERSTYLE
350
859A
  3
CTABLESTYLE
350
8599
  3
CVIEWDETAILSTYLE
350
859B
  3
CVIEWSECTIONSTYLE
350
859C
  3
DIMASSOC
350
85A0
  3
INDEXCTL
350
859F
  3
SORTENTS
350
859E
  3
XCLIPFRAME
350
85A1
  0
XRECORD
  5
85E7
102
{ACAD_REACTORS
330
839E
102
}
330
839E
100
AcDbXrecord
280
     1
  1
DWGPROPS COOKIE
  2

  3

  4

  6

  7

  8
yasukiyo.ogawa
  9

300
=
301
=
302
=
303
=
304
=
305
=
306
=
307
=
308
=
309
=
 40
0.0196603240740741
 41
2451390.40461713
 42
2460273.541800151
  1

 90
        0
  0
XRECORD
  5
858F
102
{ACAD_REACTORS
330
858E
102
}
330
858E
100
AcDbXrecord
280
     1
290
     1
  0
XRECORD
  5
8591
102
{ACAD_REACTORS
330
8590
102
}
330
8590
100
AcDbXrecord
280
     1
290
     1
  0
XRECORD
  5
8593
102
{ACAD_REACTORS
330
8592
102
}
330
8592
100
AcDbXrecord
280
     1
290
     1
  0
XRECORD
  5
8595
102
{ACAD_REACTORS
330
8594
102
}
330
8594
100
AcDbXrecord
280
     1
290
     1
  0
XRECORD
  5
8597
102
{ACAD_REACTORS
330
8596
102
}
330
8596
100
AcDbXrecord
280
     1
290
     1
  0
SORTENTSTABLE
  5
8449
102
{ACAD_REACTORS
330
8448
102
}
330
8448
100
AcDbSortentsTable
330
8401
331
7CBF
  5
7CC1
331
7CD0
  5
7CD2
331
7C68
  5
7C6A
331
7F55
  5
7F57
331
7F3B
  5
7F3D
331
7C8A
  5
7C8C
331
7C35
  5
7C35
331
7C24
  5
7C24
331
7CC0
  5
7CC2
331
7CAF
  5
7CB1
331
7CD1
  5
7CD3
331
7C69
  5
7C6B
331
7F56
  5
7F58
331
7F3C
  5
7F40
331
7C8B
  5
7C8D
331
7C36
  5
7C36
331
7C25
  5
7C25
331
81EC
  5
8206
331
7CB0
  5
7CB2
331
7C9F
  5
7CA7
331
7CC1
  5
7CC3
331
7C59
  5
7C5B
331
8213
  5
844A
331
7CD2
  5
7CD4
331
7C6A
  5
7C6D
331
7F57
  5
7F59
331
7F3D
  5
7F41
331
7C8C
  5
7C8E
331
7C7B
  5
7C7D
331
7C37
  5
7C37
331
7C26
  5
7C26
331
7F58
  5
81DF
331
7CB1
  5
7CB3
331
7CC2
  5
7CC4
331
7C5A
  5
7C5C
331
7CD3
  5
7CD5
331
7C6B
  5
7C6E
331
7CF5
  5
7CF7
331
7C8D
  5
7C8F
331
7C7C
  5
7C7E
331
7C38
  5
7C38
331
7C27
  5
7C27
331
7F59
  5
81EC
331
7F48
  5
7F4A
331
7CB2
  5
7CB4
331
7CD4
  5
7CD6
331
7CC3
  5
7CC5
331
7C5B
  5
7C5D
331
7CF6
  5
7CF8
331
7C8E
  5
7C90
331
7C7D
  5
7C7F
331
7C39
  5
7C39
331
7C28
  5
7C28
331
7F49
  5
7F4B
331
7F40
  5
7F42
331
7CB3
  5
7CB5
331
7C3A
  5
7C3C
331
7CC4
  5
7CC6
331
7C5C
  5
7C5E
331
7CD5
  5
7CD7
331
7C6D
  5
7C6F
331
7CF7
  5
7CF9
331
7C8F
  5
7C92
331
7C7E
  5
7C80
331
7C29
  5
7C29
331
81DF
  5
81F9
331
7F4A
  5
7F4C
331
7F41
  5
7F43
331
7CF8
  5
7F3B
331
7CB4
  5
7CB6
331
7C4C
  5
7C4F
331
7C3B
  5
7C3D
331
8206
  5
8447
331
7CC5
  5
7CC7
331
7C5D
  5
7C62
331
7CD6
  5
7CD8
331
7C7F
  5
7C81
331
7C6E
  5
7C72
331
7C2A
  5
7C2A
331
7F4B
  5
7F4D
331
7F42
  5
7F44
331
7CF9
  5
7F3C
331
7C80
  5
7C82
331
7CB5
  5
7CB7
331
7CA4
  5
7CA8
331
7C3C
  5
7C3E
331
7CC6
  5
7CC8
331
7C5E
  5
7C63
331
7CD7
  5
7CD9
331
7C6F
  5
7C73
331
7C2B
  5
7C2B
331
7CD8
  5
7CDA
331
7F4C
  5
7F4E
331
7F43
  5
7F45
331
7C81
  5
7C83
331
7CC7
  5
7CC9
331
7C3D
  5
7C3F
331
7C2C
  5
7C2C
331
7CD9
  5
7CDB
331
7CC8
  5
7CCA
331
7F4D
  5
7F4F
331
7F44
  5
7F47
331
7C82
  5
7C84
331
7C3E
  5
7C40
331
7C2D
  5
7C2D
331
81F9
  5
8213
331
7CC9
  5
7CCB
331
7CDA
  5
7CDC
331
7C72
  5
7C74
331
7C83
  5
7C85
331
7F4E
  5
7F50
331
7F45
  5
7F48
331
7C94
  5
7C96
331
7CA7
  5
7CA9
331
7C3F
  5
7C41
331
7C2E
  5
7C2E
331
7CA8
  5
7CAA
331
7C40
  5
7C42
331
7C51
  5
7C53
331
7CCA
  5
7CCC
331
7C62
  5
7C64
331
7CDB
  5
7CDD
331
7C84
  5
7C86
331
7F4F
  5
7F51
331
7C95
  5
7C97
331
7C73
  5
7C75
331
7C2F
  5
7C2F
331
7CA9
  5
7CAB
331
7C41
  5
7C43
331
7C52
  5
7C54
331
7CCB
  5
7CCD
331
7C63
  5
7C65
331
7CDC
  5
7CDE
331
7CED
  5
7CEF
331
7C85
  5
7C87
331
7F50
  5
7F52
331
7F47
  5
7F49
331
7C96
  5
7C99
331
7C74
  5
7C76
331
7C30
  5
7C30
331
7C99
  5
7C9C
331
7CAA
  5
7CAC
331
7C42
  5
7C4C
331
7CCC
  5
7CCE
331
7C64
  5
7C66
331
7C53
  5
7C55
331
7CDD
  5
7CDF
331
7CEE
  5
7CF0
331
7C86
  5
7C88
331
7F51
  5
7F53
331
7C97
  5
7C9B
331
7C75
  5
7C78
331
7C31
  5
7C31
331
7CAB
  5
7CAD
331
7C43
  5
7C4E
331
7CCD
  5
7CCF
331
7C65
  5
7C67
331
7C54
  5
7C59
331
7CDE
  5
7CE6
331
7C76
  5
7C7B
331
7F52
  5
7F54
331
7CEF
  5
7CF1
331
7C87
  5
7C89
331
7C32
  5
7C32
331
7CAC
  5
7CAE
331
7C9B
  5
7C9F
331
7C55
  5
7C5A
331
7CDF
  5
7CE7
331
7CCE
  5
7CD0
331
7C66
  5
7C68
331
7F53
  5
7F55
331
7CF0
  5
7CF5
331
7C88
  5
7C8A
331
7C33
  5
7C33
331
7C22
  5
7C22
331
7CBE
  5
7CC0
331
7CAD
  5
7CAF
331
7C9C
  5
7CA4
331
7CCF
  5
7CD1
331
7C67
  5
7C69
331
7F54
  5
7F56
331
7CF1
  5
7CF6
331
7C89
  5
7C8B
331
7C78
  5
7C7C
331
7C34
  5
7C34
  0
ACDBDETAILVIEWSTYLE
  5
83FC
102
{ACAD_XDICTIONARY
360
861F
102
}
102
{ACAD_REACTORS
330
83FB
102
}
330
83FB
100
AcDbModelDocViewStyle
 70
     0
  3
Imperial24
290
     0
100
AcDbDetailViewStyle
 70
     0
 71
     0
 90
        3
 71
     1
340
83E7
 40
0.24
340
0
 40
0.24
300

 40
0.36
280
     3
 71
     2
340
83EE
 90
       25
 71
     3
340
83E7
 40
0.24
 90
        1
 40
0.75
 90
        1
300
%<\AcVar ViewType \f "%tc1">% %<\AcVar ViewDetailId>%\PSCALE %<\AcVar ViewScale \f "%sn">%
 71
     4
340
83EE
 90
       25
340
83EE
 90
       25
280
     0
  0
LAYOUT
  5
8404
102
{ACAD_XDICTIONARY
360
8623
102
}
102
{ACAD_REACTORS
330
83F3
102
}
330
83F3
100
AcDbPlotSettings
  1

  2
RICOH imagio MP W3600 RPCS
  4

  6

 40
0.0
 41
0.0
 42
0.0
 43
0.0
 44
0.0
 45
0.0
 46
0.0
 47
0.0
 48
0.0
 49
0.0
140
0.0
141
0.0
142
1.0
143
1.0
 70
  1712
 72
     0
 73
     0
 74
     0
  7

 75
     0
147
1.0
148
0.0
149
0.0
100
AcDbLayout
  1
Model
 70
     1
 71
     0
 10
0.0
 20
0.0
 11
12.0
 21
9.0
 12
0.0
 22
0.0
 32
0.0
 14
0.0
 24
0.0
 34
0.0
 15
0.0
 25
0.0
 35
0.0
146
0.0
 13
0.0
 23
0.0
 33
0.0
 16
1.0
 26
0.0
 36
0.0
 17
0.0
 27
1.0
 37
0.0
 76
     0
330
8401
331
8406
  0
LAYOUT
  5
8400
102
{ACAD_XDICTIONARY
360
8621
102
}
102
{ACAD_REACTORS
330
83F3
102
}
330
83F3
100
AcDbPlotSettings
  1

  2
RICOH imagio MP W3600 RPCS
  4

  6

 40
0.0
 41
0.0
 42
0.0
 43
0.0
 44
0.0
 45
0.0
 46
0.0
 47
0.0
 48
0.0
 49
0.0
140
0.0
141
0.0
142
1.0
143
1.0
 70
   688
 72
     0
 73
     0
 74
     5
  7

 75
    16
147
1.0
148
0.0
149
0.0
100
AcDbLayout
  1
レイアウト1
 70
     1
 71
     1
 10
0.0
 20
0.0
 11
12.0
 21
9.0
 12
0.0
 22
0.0
 32
0.0
 14
1.000000000000000E+20
 24
1.000000000000000E+20
 34
1.000000000000000E+20
 15
-1.000000000000000E+20
 25
-1.000000000000000E+20
 35
-1.000000000000000E+20
146
0.0
 13
0.0
 23
0.0
 33
0.0
 16
1.0
 26
0.0
 36
0.0
 17
0.0
 27
1.0
 37
0.0
 76
     0
330
83FD
  0
MATERIAL
  5
83AB
102
{ACAD_XDICTIONARY
360
83AC
102
}
102
{ACAD_REACTORS
330
83A2
102
}
330
83A2
100
AcDbMaterial
  1
ByBlock
 72
     0
 43
0.0208333333333333
 43
0.0
 43
0.0
 43
0.0
 43
0.0
 43
0.0208333333333333
 43
0.0
 43
0.0
 43
0.0
 43
0.0
 43
1.0
 43
0.0
 43
0.0
 43
0.0
 43
0.0
 43
1.0
 77
     0
 47
0.0208333333333333
 47
0.0
 47
0.0
 47
0.0
 47
0.0
 47
0.0208333333333333
 47
0.0
 47
0.0
 47
0.0
 47
0.0
 47
1.0
 47
0.0
 47
0.0
 47
0.0
 47
0.0
 47
1.0
171
     0
 49
0.0208333333333333
 49
0.0
 49
0.0
 49
0.0
 49
0.0
 49
0.0208333333333333
 49
0.0
 49
0.0
 49
0.0
 49
0.0
 49
1.0
 49
0.0
 49
0.0
 49
0.0
 49
0.0
 49
1.0
175
     0
142
0.0208333333333333
142
0.0
142
0.0
142
0.0
142
0.0
142
0.0208333333333333
142
0.0
142
0.0
142
0.0
142
0.0
142
1.0
142
0.0
142
0.0
142
0.0
142
0.0
142
1.0
179
     0
144
0.0208333333333333
144
0.0
144
0.0
144
0.0
144
0.0
144
0.0208333333333333
144
0.0
144
0.0
144
0.0
144
0.0
144
1.0
144
0.0
144
0.0
144
0.0
144
0.0
144
1.0
147
0.0208333333333333
147
0.0
147
0.0
147
0.0
147
0.0
147
0.0208333333333333
147
0.0
147
0.0
147
0.0
147
0.0
147
1.0
147
0.0
147
0.0
147
0.0
147
0.0
147
1.0
  0
MATERIAL
  5
83A3
102
{ACAD_XDICTIONARY
360
83A4
102
}
102
{ACAD_REACTORS
330
83A2
102
}
330
83A2
100
AcDbMaterial
  1
ByLayer
 72
     0
 43
0.0208333333333333
 43
0.0
 43
0.0
 43
0.0
 43
0.0
 43
0.0208333333333333
 43
0.0
 43
0.0
 43
0.0
 43
0.0
 43
1.0
 43
0.0
 43
0.0
 43
0.0
 43
0.0
 43
1.0
 77
     0
 47
0.0208333333333333
 47
0.0
 47
0.0
 47
0.0
 47
0.0
 47
0.0208333333333333
 47
0.0
 47
0.0
 47
0.0
 47
0.0
 47
1.0
 47
0.0
 47
0.0
 47
0.0
 47
0.0
 47
1.0
171
     0
 49
0.0208333333333333
 49
0.0
 49
0.0
 49
0.0
 49
0.0
 49
0.0208333333333333
 49
0.0
 49
0.0
 49
0.0
 49
0.0
 49
1.0
 49
0.0
 49
0.0
 49
0.0
 49
0.0
 49
1.0
175
     0
142
0.0208333333333333
142
0.0
142
0.0
142
0.0
142
0.0
142
0.0208333333333333
142
0.0
142
0.0
142
0.0
142
0.0
142
1.0
142
0.0
142
0.0
142
0.0
142
0.0
142
1.0
179
     0
144
0.0208333333333333
144
0.0
144
0.0
144
0.0
144
0.0
144
0.0208333333333333
144
0.0
144
0.0
144
0.0
144
0.0
144
1.0
144
0.0
144
0.0
144
0.0
144
0.0
144
1.0
147
0.0208333333333333
147
0.0
147
0.0
147
0.0
147
0.0
147
0.0208333333333333
147
0.0
147
0.0
147
0.0
147
0.0
147
1.0
147
0.0
147
0.0
147
0.0
147
0.0
147
1.0
  0
MATERIAL
  5
83B3
102
{ACAD_XDICTIONARY
360
83B4
102
}
102
{ACAD_REACTORS
330
83A2
102
}
330
83A2
100
AcDbMaterial
  1
Global
 72
     0
 43
0.0208333333333333
 43
0.0
 43
0.0
 43
0.0
 43
0.0
 43
0.0208333333333333
 43
0.0
 43
0.0
 43
0.0
 43
0.0
 43
1.0
 43
0.0
 43
0.0
 43
0.0
 43
0.0
 43
1.0
 77
     0
 47
0.0208333333333333
 47
0.0
 47
0.0
 47
0.0
 47
0.0
 47
0.0208333333333333
 47
0.0
 47
0.0
 47
0.0
 47
0.0
 47
1.0
 47
0.0
 47
0.0
 47
0.0
 47
0.0
 47
1.0
171
     0
 49
0.0208333333333333
 49
0.0
 49
0.0
 49
0.0
 49
0.0
 49
0.0208333333333333
 49
0.0
 49
0.0
 49
0.0
 49
0.0
 49
1.0
 49
0.0
 49
0.0
 49
0.0
 49
0.0
 49
1.0
175
     0
142
0.0208333333333333
142
0.0
142
0.0
142
0.0
142
0.0
142
0.0208333333333333
142
0.0
142
0.0
142
0.0
142
0.0
142
1.0
142
0.0
142
0.0
142
0.0
142
0.0
142
1.0
179
     0
144
0.0208333333333333
144
0.0
144
0.0
144
0.0
144
0.0
144
0.0208333333333333
144
0.0
144
0.0
144
0.0
144
0.0
144
1.0
144
0.0
144
0.0
144
0.0
144
0.0
144
1.0
147
0.0208333333333333
147
0.0
147
0.0
147
0.0
147
0.0
147
0.0208333333333333
147
0.0
147
0.0
147
0.0
147
0.0
147
1.0
147
0.0
147
0.0
147
0.0
147
0.0
147
1.0
  0
MLEADERSTYLE
  5
83F8
102
{ACAD_REACTORS
330
83F7
102
}
330
83F7
100
AcDbMLeaderStyle
170
     2
171
     1
172
     0
 90
        2
 40
0.0
 41
0.0
173
     1
 91
-1056964608
340
83EC
 92
       -2
290
     1
 42
0.09
291
     1
 43
0.36
  3
Standard
 44
0.18
300

342
83E7
174
     1
178
     6
175
     1
176
     0
 93
-1056964608
 45
0.18
292
     0
297
     0
 46
0.18
 94
-1056964608
 47
1.0
 49
1.0
140
1.0
293
     1
141
0.0
294
     1
177
     0
142
1.0
295
     0
296
     0
143
0.125
1001
ACAD_MLEADERVER
1070
     2
  0
MLINESTYLE
  5
83F1
102
{ACAD_REACTORS
330
83F0
102
}
330
83F0
100
AcDbMlineStyle
  2
STANDARD
 70
     0
  3

 62
   256
 51
90.0
 52
90.0
 71
     2
 49
0.5
 62
   256
  6
BYLAYER
 49
-0.5
 62
   256
  6
BYLAYER
  0
ACDBPLACEHOLDER
  5
83A1
102
{ACAD_REACTORS
330
83A0
102
}
330
83A0
  0
SCALE
  5
83D5
102
{ACAD_REACTORS
330
83D4
102
}
330
83D4
100
AcDbScale
 70
     0
300
1:1
140
1.0
141
1.0
290
     1
  0
SCALE
  5
83D6
102
{ACAD_REACTORS
330
83D4
102
}
330
83D4
100
AcDbScale
 70
     0
300
1/128" = 1'-0"
140
0.0078125
141
12.0
290
     0
  0
SCALE
  5
83D7
102
{ACAD_REACTORS
330
83D4
102
}
330
83D4
100
AcDbScale
 70
     0
300
1/64" = 1'-0"
140
0.015625
141
12.0
290
     0
  0
SCALE
  5
83D8
102
{ACAD_REACTORS
330
83D4
102
}
330
83D4
100
AcDbScale
 70
     0
300
1/32" = 1'-0"
140
0.03125
141
12.0
290
     0
  0
SCALE
  5
83D9
102
{ACAD_REACTORS
330
83D4
102
}
330
83D4
100
AcDbScale
 70
     0
300
1/16" = 1'-0"
140
0.0625
141
12.0
290
     0
  0
SCALE
  5
83DA
102
{ACAD_REACTORS
330
83D4
102
}
330
83D4
100
AcDbScale
 70
     0
300
3/32" = 1'-0"
140
0.09375
141
12.0
290
     0
  0
SCALE
  5
83DB
102
{ACAD_REACTORS
330
83D4
102
}
330
83D4
100
AcDbScale
 70
     0
300
1/8" = 1'-0"
140
0.125
141
12.0
290
     0
  0
SCALE
  5
83DC
102
{ACAD_REACTORS
330
83D4
102
}
330
83D4
100
AcDbScale
 70
     0
300
3/16" = 1'-0"
140
0.1875
141
12.0
290
     0
  0
SCALE
  5
83DD
102
{ACAD_REACTORS
330
83D4
102
}
330
83D4
100
AcDbScale
 70
     0
300
1/4" = 1'-0"
140
0.25
141
12.0
290
     0
  0
SCALE
  5
83DE
102
{ACAD_REACTORS
330
83D4
102
}
330
83D4
100
AcDbScale
 70
     0
300
3/8" = 1'-0"
140
0.375
141
12.0
290
     0
  0
SCALE
  5
83DF
102
{ACAD_REACTORS
330
83D4
102
}
330
83D4
100
AcDbScale
 70
     0
300
1/2" = 1'-0"
140
0.5
141
12.0
290
     0
  0
SCALE
  5
83E0
102
{ACAD_REACTORS
330
83D4
102
}
330
83D4
100
AcDbScale
 70
     0
300
3/4" = 1'-0"
140
0.75
141
12.0
290
     0
  0
SCALE
  5
83E1
102
{ACAD_REACTORS
330
83D4
102
}
330
83D4
100
AcDbScale
 70
     0
300
1" = 1'-0"
140
1.0
141
12.0
290
     0
  0
SCALE
  5
83E2
102
{ACAD_REACTORS
330
83D4
102
}
330
83D4
100
AcDbScale
 70
     0
300
1-1/2" = 1'-0"
140
1.5
141
12.0
290
     0
  0
SCALE
  5
83E3
102
{ACAD_REACTORS
330
83D4
102
}
330
83D4
100
AcDbScale
 70
     0
300
3" = 1'-0"
140
3.0
141
12.0
290
     0
  0
SCALE
  5
83E4
102
{ACAD_REACTORS
330
83D4
102
}
330
83D4
100
AcDbScale
 70
     0
300
6" = 1'-0"
140
6.0
141
12.0
290
     0
  0
SCALE
  5
83E5
102
{ACAD_REACTORS
330
83D4
102
}
330
83D4
100
AcDbScale
 70
     0
300
1'-0" = 1'-0"
140
12.0
141
12.0
290
     0
  0
ACDBSECTIONVIEWSTYLE
  5
83FA
102
{ACAD_XDICTIONARY
360
861D
102
}
102
{ACAD_REACTORS
330
83F9
102
}
330
83F9
100
AcDbModelDocViewStyle
 70
     0
  3
Imperial24
290
     0
100
AcDbSectionViewStyle
 70
     0
 71
     0
 90
       78
 71
     1
340
83E7
 40
0.24
340
0
340
0
 40
0.24
300
I, O, Q, S, X, Z
 40
0.48
 90
        3
 40
0.18
 90
        1
 71
     2
340
83EE
 90
       25
340
83EE
 90
       50
 40
0.24
 40
0.0
 40
0.24
 71
     3
340
83E7
 40
0.24
 90
        1
 40
0.75
 90
        1
300
%<\AcVar ViewType \f "%tc1">% %<\AcVar ViewSectionStartId>%-%<\AcVar ViewSectionEndId>%\PSCALE %<\AcVar ViewScale \f "%sn">%
 71
     4
300
ANSI31
 40
1.0
 90
        0
290
     0
290
     0
 90
        6
 40
0.0
 40
1.570796326794896
 40
0.2617993877991494
 40
1.308996938995747
 40
-0.2617993877991494
 40
1.832595714594046
  0
TABLESTYLE
  5
83F6
102
{ACAD_XDICTIONARY
360
85E4
102
}
102
{ACAD_REACTORS
330
83F5
102
}
330
83F5
100
AcDbTableStyle
  3
Standard
 70
     0
 71
     0
 40
0.06
 41
0.06
280
     0
281
     0
  7
STANDARD
140
0.18
170
     2
 62
     0
 63
     7
283
     0
274
    -2
284
     1
 64
     0
275
    -2
285
     1
 65
     0
276
    -2
286
     1
 66
     0
277
    -2
287
     1
 67
     0
278
    -2
288
     1
 68
     0
279
    -2
289
     1
 69
     0
  7
STANDARD
140
0.25
170
     5
 62
     0
 63
     7
283
     0
274
    -2
284
     1
 64
     0
275
    -2
285
     1
 65
     0
276
    -2
286
     1
 66
     0
277
    -2
287
     1
 67
     0
278
    -2
288
     1
 68
     0
279
    -2
289
     1
 69
     0
  7
STANDARD
140
0.18
170
     5
 62
     0
 63
     7
283
     0
274
    -2
284
     1
 64
     0
275
    -2
285
     1
 65
     0
276
    -2
286
     1
 66
     0
277
    -2
287
     1
 67
     0
278
    -2
288
     1
 68
     0
279
    -2
289
     1
 69
     0
  0
VISUALSTYLE
  5
83C1
102
{ACAD_XDICTIONARY
360
85F5
102
}
102
{ACAD_REACTORS
330
83BB
102
}
330
83BB
100
AcDbVisualStyle
  2
2dWireframe
 70
     4
 71
     0
 72
     2
 73
     0
 90
        0
 40
-0.6
 41
-30.0
 62
     5
 63
     7
 74
     1
 91
        4
 64
     7
 65
   257
 75
     1
175
     1
 42
1.0
 92
        0
 66
   257
 43
1.0
 76
     1
 77
     6
 78
     2
 67
     7
 79
     5
170
     0
171
     0
290
     0
174
     0
 93
        1
 44
0.0
173
     0
291
     0
 45
0.0
1001
ACAD
1000
AcDbSavedByObjectVersion
1070
     0
  0
VISUALSTYLE
  5
83C0
102
{ACAD_XDICTIONARY
360
85F3
102
}
102
{ACAD_REACTORS
330
83BB
102
}
330
83BB
100
AcDbVisualStyle
  2
Basic
 70
     7
 71
     1
 72
     0
 73
     1
 90
        0
 40
-0.6
 41
-30.0
 62
     5
 63
     7
 74
     0
 91
        4
 64
     7
 65
   257
 75
     1
175
     1
 42
1.0
 92
        8
 66
     7
 43
1.0
 76
     1
 77
     6
 78
     2
 67
     7
 79
     5
170
     0
171
     0
290
     0
174
     0
 93
        1
 44
0.0
173
     0
291
     1
 45
0.0
1001
ACAD
1000
AcDbSavedByObjectVersion
1070
     0
  0
VISUALSTYLE
  5
83C7
102
{ACAD_XDICTIONARY
360
8601
102
}
102
{ACAD_REACTORS
330
83BB
102
}
330
83BB
100
AcDbVisualStyle
  2
Brighten
 70
    12
 71
     2
 72
     2
 73
     0
 90
        0
 40
-0.6
 41
-30.0
 62
     5
 63
     7
 74
     1
 91
        4
 64
     7
 65
   257
 75
     1
175
     1
 42
1.0
 92
        8
 66
     7
 43
1.0
 76
     1
 77
     6
 78
     2
 67
     7
 79
     5
170
     0
171
     0
290
     0
174
     0
 93
        1
 44
50.0
173
     0
291
     1
 45
0.0
1001
ACAD
1000
AcDbSavedByObjectVersion
1070
     0
  0
VISUALSTYLE
  5
83CB
102
{ACAD_XDICTIONARY
360
8609
102
}
102
{ACAD_REACTORS
330
83BB
102
}
330
83BB
100
AcDbVisualStyle
  2
ColorChange
 70
    16
 71
     2
 72
     2
 73
     3
 90
        0
 40
-0.6
 41
-30.0
 62
     5
 63
     8
 74
     1
 91
        4
 64
     7
 65
   257
 75
     1
175
     1
 42
1.0
 92
        8
 66
     8
 43
1.0
 76
     1
 77
     6
 78
     2
 67
     7
 79
     5
170
     0
171
     0
290
     0
174
     0
 93
        1
 44
0.0
173
     0
291
     1
 45
0.0
1001
ACAD
1000
AcDbSavedByObjectVersion
1070
     0
  0
VISUALSTYLE
  5
83C4
102
{ACAD_XDICTIONARY
360
85FB
102
}
102
{ACAD_REACTORS
330
83BB
102
}
330
83BB
100
AcDbVisualStyle
  2
Conceptual
 70
     9
 71
     3
 72
     2
 73
     0
 90
        0
 40
-0.6
 41
-30.0
 62
     5
 63
     7
 74
     2
 91
        2
 64
     7
 65
   257
 75
     1
175
     1
 42
179.0
 92
        8
 66
     7
 43
1.0
 76
     1
 77
     6
 78
     2
 67
     7
 79
     3
170
     0
171
     0
290
     0
174
     0
 93
        1
 44
0.0
173
     0
291
     0
 45
0.0
1001
ACAD
1000
AcDbSavedByObjectVersion
1070
     0
  0
VISUALSTYLE
  5
83C6
102
{ACAD_XDICTIONARY
360
85FF
102
}
102
{ACAD_REACTORS
330
83BB
102
}
330
83BB
100
AcDbVisualStyle
  2
Dim
 70
    11
 71
     2
 72
     2
 73
     0
 90
        0
 40
-0.6
 41
-30.0
 62
     5
 63
     7
 74
     1
 91
        4
 64
     7
 65
   257
 75
     1
175
     1
 42
1.0
 92
        8
 66
     7
 43
1.0
 76
     1
 77
     6
 78
     2
 67
     7
 79
     5
170
     0
171
     0
290
     0
174
     0
 93
        1
 44
-50.0
173
     0
291
     1
 45
0.0
1001
ACAD
1000
AcDbSavedByObjectVersion
1070
     0
  0
VISUALSTYLE
  5
83D3
102
{ACAD_XDICTIONARY
360
8619
102
}
102
{ACAD_REACTORS
330
83BB
102
}
330
83BB
100
AcDbVisualStyle
  2
EdgeColorOff
 70
    22
 71
     2
 72
     2
 73
     0
 90
        0
 40
-0.6
 41
-30.0
 62
     5
 63
     7
 74
     1
 91
        4
 64
     7
 65
   257
 75
     1
175
     1
 42
1.0
 92
        8
 66
     7
 43
1.0
 76
     1
 77
     6
 78
     2
 67
     7
 79
     5
170
     0
171
     0
290
     0
174
     0
 93
        1
 44
0.0
173
     0
291
     1
 45
0.0
1001
ACAD
1000
AcDbSavedByObjectVersion
1070
     0
  0
VISUALSTYLE
  5
83CA
102
{ACAD_XDICTIONARY
360
8607
102
}
102
{ACAD_REACTORS
330
83BB
102
}
330
83BB
100
AcDbVisualStyle
  2
Facepattern
 70
    15
 71
     2
 72
     2
 73
     0
 90
        0
 40
-0.6
 41
-30.0
 62
     5
 63
     7
 74
     1
 91
        4
 64
     7
 65
   257
 75
     1
175
     1
 42
1.0
 92
        8
 66
     7
 43
1.0
 76
     1
 77
     6
 78
     2
 67
     7
 79
     5
170
     0
171
     0
290
     0
174
     0
 93
        1
 44
0.0
173
     0
291
     1
 45
0.0
1001
ACAD
1000
AcDbSavedByObjectVersion
1070
     0
  0
VISUALSTYLE
  5
83BC
102
{ACAD_XDICTIONARY
360
85EB
102
}
102
{ACAD_REACTORS
330
83BB
102
}
330
83BB
100
AcDbVisualStyle
  2
Flat
 70
     0
 71
     2
 72
     1
 73
     1
 90
        2
 40
-0.6
 41
30.0
 62
     5
 63
     7
 74
     0
 91
        0
 64
     7
 65
   257
 75
     1
175
     1
 42
1.0
 92
        8
 66
     7
 43
1.0
 76
     1
 77
     6
 78
     2
 67
     7
 79
     5
170
     0
171
     0
290
     0
174
     0
 93
       13
 44
0.0
173
     0
291
     1
 45
0.0
1001
ACAD
1000
AcDbSavedByObjectVersion
1070
     0
  0
VISUALSTYLE
  5
83BD
102
{ACAD_XDICTIONARY
360
85ED
102
}
102
{ACAD_REACTORS
330
83BB
102
}
330
83BB
100
AcDbVisualStyle
  2
FlatWithEdges
 70
     1
 71
     2
 72
     1
 73
     1
 90
        2
 40
-0.6
 41
30.0
 62
     5
 63
     7
 74
     1
 91
        0
 64
     7
 65
   257
 75
     1
175
     1
 42
1.0
 92
        0
 66
   257
 43
1.0
 76
     1
 77
     6
 78
     2
 67
     7
 79
     5
170
     0
171
     0
290
     0
174
     0
 93
       13
 44
0.0
173
     0
291
     1
 45
0.0
1001
ACAD
1000
AcDbSavedByObjectVersion
1070
     0
  0
VISUALSTYLE
  5
83BE
102
{ACAD_XDICTIONARY
360
85EF
102
}
102
{ACAD_REACTORS
330
83BB
102
}
330
83BB
100
AcDbVisualStyle
  2
Gouraud
 70
     2
 71
     2
 72
     2
 73
     1
 90
        2
 40
-0.6
 41
30.0
 62
     5
 63
     7
 74
     0
 91
        0
 64
     7
 65
   257
 75
     1
175
     1
 42
1.0
 92
        0
 66
     7
 43
1.0
 76
     1
 77
     6
 78
     2
 67
     7
 79
     5
170
     0
171
     0
290
     0
174
     0
 93
       13
 44
0.0
173
     0
291
     1
 45
0.0
1001
ACAD
1000
AcDbSavedByObjectVersion
1070
     0
  0
VISUALSTYLE
  5
83BF
102
{ACAD_XDICTIONARY
360
85F1
102
}
102
{ACAD_REACTORS
330
83BB
102
}
330
83BB
100
AcDbVisualStyle
  2
GouraudWithEdges
 70
     3
 71
     2
 72
     2
 73
     1
 90
        2
 40
-0.6
 41
30.0
 62
     5
 63
     7
 74
     1
 91
        0
 64
     7
 65
   257
 75
     1
175
     1
 42
1.0
 92
        0
 66
   257
 43
1.0
 76
     1
 77
     6
 78
     2
 67
     7
 79
     5
170
     0
171
     0
290
     0
174
     0
 93
       13
 44
0.0
173
     0
291
     1
 45
0.0
1001
ACAD
1000
AcDbSavedByObjectVersion
1070
     0
  0
VISUALSTYLE
  5
83C3
102
{ACAD_XDICTIONARY
360
85F9
102
}
102
{ACAD_REACTORS
330
83BB
102
}
330
83BB
100
AcDbVisualStyle
  2
Hidden
 70
     6
 71
     1
 72
     2
 73
     2
 90
        0
 40
-0.6
 41
-30.0
 62
     5
 63
     7
 74
     2
 91
        2
 64
     7
 65
   257
 75
     2
175
     1
 42
40.0
 92
        0
 66
   257
 43
1.0
 76
     1
 77
     6
 78
     2
 67
     7
 79
     3
170
     0
171
     0
290
     0
174
     0
 93
        1
 44
0.0
173
     0
291
     0
 45
0.0
1001
ACAD
1000
AcDbSavedByObjectVersion
1070
     0
  0
VISUALSTYLE
  5
83D1
102
{ACAD_XDICTIONARY
360
8615
102
}
102
{ACAD_REACTORS
330
83BB
102
}
330
83BB
100
AcDbVisualStyle
  2
JitterOff
 70
    20
 71
     2
 72
     2
 73
     0
 90
        0
 40
-0.6
 41
-30.0
 62
     5
 63
     7
 74
     1
 91
        4
 64
     7
 65
   257
 75
     1
175
     1
 42
1.0
 92
       10
 66
     7
 43
1.0
 76
     1
 77
     6
 78
     2
 67
     7
 79
     5
170
     0
171
     0
290
     0
174
     0
 93
        1
 44
0.0
173
     0
291
     1
 45
0.0
1001
ACAD
1000
AcDbSavedByObjectVersion
1070
     0
  0
VISUALSTYLE
  5
83C9
102
{ACAD_XDICTIONARY
360
8605
102
}
102
{ACAD_REACTORS
330
83BB
102
}
330
83BB
100
AcDbVisualStyle
  2
Linepattern
 70
    14
 71
     2
 72
     2
 73
     0
 90
        0
 40
-0.6
 41
-30.0
 62
     5
 63
     7
 74
     1
 91
        4
 64
     7
 65
   257
 75
     7
175
     7
 42
1.0
 92
        8
 66
     7
 43
1.0
 76
     1
 77
     6
 78
     2
 67
     7
 79
     5
170
     0
171
     0
290
     0
174
     0
 93
        1
 44
0.0
173
     0
291
     1
 45
0.0
1001
ACAD
1000
AcDbSavedByObjectVersion
1070
     0
  0
VISUALSTYLE
  5
83D2
102
{ACAD_XDICTIONARY
360
8617
102
}
102
{ACAD_REACTORS
330
83BB
102
}
330
83BB
100
AcDbVisualStyle
  2
OverhangOff
 70
    21
 71
     2
 72
     2
 73
     0
 90
        0
 40
-0.6
 41
-30.0
 62
     5
 63
     7
 74
     1
 91
        4
 64
     7
 65
   257
 75
     1
175
     1
 42
1.0
 92
        9
 66
     7
 43
1.0
 76
     1
 77
     6
 78
     2
 67
     7
 79
     5
170
     0
171
     0
290
     0
174
     0
 93
        1
 44
0.0
173
     0
291
     1
 45
0.0
1001
ACAD
1000
AcDbSavedByObjectVersion
1070
     0
  0
VISUALSTYLE
  5
83C5
102
{ACAD_XDICTIONARY
360
85FD
102
}
102
{ACAD_REACTORS
330
83BB
102
}
330
83BB
100
AcDbVisualStyle
  2
Realistic
 70
     8
 71
     2
 72
     3
 73
     0
 90
        2
 40
-0.6
 41
30.0
 62
     5
 63
     7
 74
     0
 91
        0
 64
     7
 65
   257
 75
     1
175
     1
 42
1.0
 92
        8
 66
   257
 43
1.0
 76
     1
 77
     6
 78
     2
 67
     7
 79
     3
170
     0
171
     0
290
     0
174
     0
 93
       13
 44
0.0
173
     0
291
     0
 45
0.0
1001
ACAD
1000
AcDbSavedByObjectVersion
1070
     0
  0
VISUALSTYLE
  5
83D0
102
{ACAD_XDICTIONARY
360
8613
102
}
102
{ACAD_REACTORS
330
83BB
102
}
330
83BB
100
AcDbVisualStyle
  2
Shaded
 70
    27
 71
     2
 72
     2
 73
     1
 90
        2
 40
-0.6
 41
30.0
 62
     5
 63
     7
 74
     0
 91
        4
 64
     7
 65
   257
 75
     1
175
     1
 42
1.0
 92
        8
 66
   257
 43
1.0
 76
     1
 77
     6
 78
     2
 67
     8
 79
     3
170
     0
171
     0
290
     0
174
     0
 93
        5
 44
0.0
173
     0
291
     0
 45
0.0
1001
ACAD
1000
AcDbSavedByObjectVersion
1070
     0
  0
VISUALSTYLE
  5
83CF
102
{ACAD_XDICTIONARY
360
8611
102
}
102
{ACAD_REACTORS
330
83BB
102
}
330
83BB
100
AcDbVisualStyle
  2
Shaded with edges
 70
    26
 71
     2
 72
     2
 73
     1
 90
        2
 40
-0.6
 41
30.0
 62
     5
 63
     7
 74
     1
 91
       10
 64
     7
 65
   257
 75
     2
175
     1
 42
1.0
 92
        8
 66
   257
 43
1.0
 76
     1
 77
     6
 78
     2
 67
     7
 79
     3
170
     0
171
     0
290
     0
174
     0
 93
        5
 44
0.0
173
     0
291
     0
 45
0.0
1001
ACAD
1000
AcDbSavedByObjectVersion
1070
     0
  0
VISUALSTYLE
  5
83CC
102
{ACAD_XDICTIONARY
360
860B
102
}
102
{ACAD_REACTORS
330
83BB
102
}
330
83BB
100
AcDbVisualStyle
  2
Shades of Gray
 70
    23
 71
     2
 72
     2
 73
     3
 90
        0
 40
-0.6
 41
-30.0
 62
     5
 63
     7
 74
     2
 91
        2
 64
     7
 65
     7
 75
     1
175
     1
 42
40.0
 92
        8
 66
     7
 43
1.0
 76
     1
 77
     6
 78
     2
 67
     7
 79
     3
170
     0
171
     0
290
     0
174
     0
 93
        1
 44
0.0
173
     0
291
     0
 45
0.0
1001
ACAD
1000
AcDbSavedByObjectVersion
1070
     0
  0
VISUALSTYLE
  5
83CD
102
{ACAD_XDICTIONARY
360
860D
102
}
102
{ACAD_REACTORS
330
83BB
102
}
330
83BB
100
AcDbVisualStyle
  2
Sketchy
 70
    24
 71
     1
 72
     2
 73
     2
 90
        0
 40
-0.6
 41
-30.0
 62
     5
 63
     7
 74
     2
 91
        2
 64
     7
 65
     7
 75
     1
175
     1
 42
40.0
 92
       11
 66
     7
 43
1.0
 76
     1
 77
     6
 78
     2
 67
     7
 79
     6
170
     0
171
     0
290
     0
174
     0
 93
        1
 44
0.0
173
     0
291
     0
 45
0.0
1001
ACAD
1000
AcDbSavedByObjectVersion
1070
     0
  0
VISUALSTYLE
  5
83C8
102
{ACAD_XDICTIONARY
360
8603
102
}
102
{ACAD_REACTORS
330
83BB
102
}
330
83BB
100
AcDbVisualStyle
  2
Thicken
 70
    13
 71
     2
 72
     2
 73
     0
 90
        0
 40
-0.6
 41
-30.0
 62
     5
 63
     7
 74
     1
 91
        4
 64
     7
 65
   257
 75
     1
175
     1
 42
1.0
 92
       12
 66
     7
 43
1.0
 76
     1
 77
     6
 78
     2
 67
     7
 79
     5
170
     0
171
     0
290
     0
174
     0
 93
        1
 44
0.0
173
     0
291
     1
 45
0.0
1001
ACAD
1000
AcDbSavedByObjectVersion
1070
     0
  0
VISUALSTYLE
  5
83C2
102
{ACAD_XDICTIONARY
360
85F7
102
}
102
{ACAD_REACTORS
330
83BB
102
}
330
83BB
100
AcDbVisualStyle
  2
Wireframe
 70
     5
 71
     0
 72
     2
 73
     0
 90
        0
 40
-0.6
 41
-30.0
 62
     5
 63
     7
 74
     1
 91
        4
 64
     7
 65
   257
 75
     1
175
     1
 42
1.0
 92
        0
 66
   257
 43
1.0
 76
     1
 77
     6
 78
     2
 67
     7
 79
     3
170
     0
171
     0
290
     0
174
     0
 93
        1
 44
0.0
173
     0
291
     0
 45
0.0
1001
ACAD
1000
AcDbSavedByObjectVersion
1070
     0
  0
VISUALSTYLE
  5
83CE
102
{ACAD_XDICTIONARY
360
860F
102
}
102
{ACAD_REACTORS
330
83BB
102
}
330
83BB
100
AcDbVisualStyle
  2
X-Ray
 70
    25
 71
     2
 72
     2
 73
     1
 90
        1
 40
0.5
 41
-30.0
 62
     5
 63
     7
 74
     1
 91
        0
 64
     7
 65
   257
 75
     1
175
     1
 42
1.0
 92
        8
 66
     7
 43
1.0
 76
     1
 77
     6
 78
     2
 67
     7
 79
     3
170
     0
171
     0
290
     0
174
     0
 93
       13
 44
0.0
173
     0
291
     0
 45
0.0
1001
ACAD
1000
AcDbSavedByObjectVersion
1070
     0
  0
DICTIONARYVAR
  5
859D
102
{ACAD_REACTORS
330
8598
102
}
330
8598
100
DictionaryVariables
280
     0
  1
1:1
  0
DICTIONARYVAR
  5
859A
102
{ACAD_REACTORS
330
8598
102
}
330
8598
100
DictionaryVariables
280
     0
  1
STANDARD
  0
DICTIONARYVAR
  5
8599
102
{ACAD_REACTORS
330
8598
102
}
330
8598
100
DictionaryVariables
280
     0
  1
STANDARD
  0
DICTIONARYVAR
  5
859B
102
{ACAD_REACTORS
330
8598
102
}
330
8598
100
DictionaryVariables
280
     0
  1
Imperial24
  0
DICTIONARYVAR
  5
859C
102
{ACAD_REACTORS
330
8598
102
}
330
8598
100
DictionaryVariables
280
     0
  1
Imperial24
  0
DICTIONARYVAR
  5
85A0
102
{ACAD_REACTORS
330
8598
102
}
330
8598
100
DictionaryVariables
280
     0
  1
1
  0
DICTIONARYVAR
  5
859F
102
{ACAD_REACTORS
330
8598
102
}
330
8598
100
DictionaryVariables
280
     0
  1
0
  0
DICTIONARYVAR
  5
859E
102
{ACAD_REACTORS
330
8598
102
}
330
8598
100
DictionaryVariables
280
     0
  1
127
  0
DICTIONARYVAR
  5
85A1
102
{ACAD_REACTORS
330
8598
102
}
330
8598
100
DictionaryVariables
280
     0
  1
2
  0
DICTIONARY
  5
861F
330
83FC
100
AcDbDictionary
280
     1
281
     1
  3
ACAD_XREC_ROUNDTRIP
360
8620
  0
DICTIONARY
  5
8623
330
8404
100
AcDbDictionary
280
     1
281
     1
  3
ACAD_XREC_ROUNDTRIP
360
8624
  0
DICTIONARY
  5
8621
330
8400
100
AcDbDictionary
280
     1
281
     1
  3
ACAD_XREC_ROUNDTRIP
360
8622
  0
DICTIONARY
  5
83AC
330
83AB
100
AcDbDictionary
280
     1
281
     1
  3
ACAD_XREC_ROUNDTRIP
360
85E9
  3
BUMPTILE
360
83AE
  3
DIFFUSETILE
360
83AD
  3
OPACITYTILE
360
83B1
  3
REFLECTIONTILE
360
83B0
  3
REFRACTIONTILE
360
83B2
  3
SPECULARTILE
360
83AF
  0
DICTIONARY
  5
83A4
330
83A3
100
AcDbDictionary
280
     1
281
     1
  3
ACAD_XREC_ROUNDTRIP
360
85E8
  3
BUMPTILE
360
83A6
  3
DIFFUSETILE
360
83A5
  3
OPACITYTILE
360
83A9
  3
REFLECTIONTILE
360
83A8
  3
REFRACTIONTILE
360
83AA
  3
SPECULARTILE
360
83A7
  0
DICTIONARY
  5
83B4
330
83B3
100
AcDbDictionary
280
     1
281
     1
  3
ACAD_XREC_ROUNDTRIP
360
85EA
  3
BUMPTILE
360
83B6
  3
DIFFUSETILE
360
83B5
  3
OPACITYTILE
360
83B9
  3
REFLECTIONTILE
360
83B8
  3
REFRACTIONTILE
360
83BA
  3
SPECULARTILE
360
83B7
  0
DICTIONARY
  5
861D
330
83FA
100
AcDbDictionary
280
     1
281
     1
  3
ACAD_XREC_ROUNDTRIP
360
861E
  0
DICTIONARY
  5
85E4
330
83F6
100
AcDbDictionary
280
     1
281
     1
  3
ACAD_ROUNDTRIP_2008_TABLESTYLE_CELLSTYLEMAP
360
85E5
  3
ACAD_XREC_ROUNDTRIP
360
861B
  0
DICTIONARY
  5
85F5
330
83C1
100
AcDbDictionary
280
     1
281
     1
  3
ACAD_XREC_ROUNDTRIP
360
85F6
  0
DICTIONARY
  5
85F3
330
83C0
100
AcDbDictionary
280
     1
281
     1
  3
ACAD_XREC_ROUNDTRIP
360
85F4
  0
DICTIONARY
  5
8601
330
83C7
100
AcDbDictionary
280
     1
281
     1
  3
ACAD_XREC_ROUNDTRIP
360
8602
  0
DICTIONARY
  5
8609
330
83CB
100
AcDbDictionary
280
     1
281
     1
  3
ACAD_XREC_ROUNDTRIP
360
860A
  0
DICTIONARY
  5
85FB
330
83C4
100
AcDbDictionary
280
     1
281
     1
  3
ACAD_XREC_ROUNDTRIP
360
85FC
  0
DICTIONARY
  5
85FF
330
83C6
100
AcDbDictionary
280
     1
281
     1
  3
ACAD_XREC_ROUNDTRIP
360
8600
  0
DICTIONARY
  5
8619
330
83D3
100
AcDbDictionary
280
     1
281
     1
  3
ACAD_XREC_ROUNDTRIP
360
861A
  0
DICTIONARY
  5
8607
330
83CA
100
AcDbDictionary
280
     1
281
     1
  3
ACAD_XREC_ROUNDTRIP
360
8608
  0
DICTIONARY
  5
85EB
330
83BC
100
AcDbDictionary
280
     1
281
     1
  3
ACAD_XREC_ROUNDTRIP
360
85EC
  0
DICTIONARY
  5
85ED
330
83BD
100
AcDbDictionary
280
     1
281
     1
  3
ACAD_XREC_ROUNDTRIP
360
85EE
  0
DICTIONARY
  5
85EF
330
83BE
100
AcDbDictionary
280
     1
281
     1
  3
ACAD_XREC_ROUNDTRIP
360
85F0
  0
DICTIONARY
  5
85F1
330
83BF
100
AcDbDictionary
280
     1
281
     1
  3
ACAD_XREC_ROUNDTRIP
360
85F2
  0
DICTIONARY
  5
85F9
330
83C3
100
AcDbDictionary
280
     1
281
     1
  3
ACAD_XREC_ROUNDTRIP
360
85FA
  0
DICTIONARY
  5
8615
330
83D1
100
AcDbDictionary
280
     1
281
     1
  3
ACAD_XREC_ROUNDTRIP
360
8616
  0
DICTIONARY
  5
8605
330
83C9
100
AcDbDictionary
280
     1
281
     1
  3
ACAD_XREC_ROUNDTRIP
360
8606
  0
DICTIONARY
  5
8617
330
83D2
100
AcDbDictionary
280
     1
281
     1
  3
ACAD_XREC_ROUNDTRIP
360
8618
  0
DICTIONARY
  5
85FD
330
83C5
100
AcDbDictionary
280
     1
281
     1
  3
ACAD_XREC_ROUNDTRIP
360
85FE
  0
DICTIONARY
  5
8613
330
83D0
100
AcDbDictionary
280
     1
281
     1
  3
ACAD_XREC_ROUNDTRIP
360
8614
  0
DICTIONARY
  5
8611
330
83CF
100
AcDbDictionary
280
     1
281
     1
  3
ACAD_XREC_ROUNDTRIP
360
8612
  0
DICTIONARY
  5
860B
330
83CC
100
AcDbDictionary
280
     1
281
     1
  3
ACAD_XREC_ROUNDTRIP
360
860C
  0
DICTIONARY
  5
860D
330
83CD
100
AcDbDictionary
280
     1
281
     1
  3
ACAD_XREC_ROUNDTRIP
360
860E
  0
DICTIONARY
  5
8603
330
83C8
100
AcDbDictionary
280
     1
281
     1
  3
ACAD_XREC_ROUNDTRIP
360
8604
  0
DICTIONARY
  5
85F7
330
83C2
100
AcDbDictionary
280
     1
281
     1
  3
ACAD_XREC_ROUNDTRIP
360
85F8
  0
DICTIONARY
  5
860F
330
83CE
100
AcDbDictionary
280
     1
281
     1
  3
ACAD_XREC_ROUNDTRIP
360
8610
  0
XRECORD
  5
8620
102
{ACAD_REACTORS
330
861F
102
}
330
861F
100
AcDbXrecord
280
     1
102
DISPLAYNAME
  1
Imperial24
102
FLAGS
 90
        0
  0
XRECORD
  5
8624
102
{ACAD_REACTORS
330
8623
102
}
330
8623
100
AcDbXrecord
280
     1
102
SHADEPLOT
 70
     0
102
SHADEPLOTRESLEVEL
 70
     2
102
SHADEPLOTCUSTOMDPI
 70
   300
  0
XRECORD
  5
8622
102
{ACAD_REACTORS
330
8621
102
}
330
8621
100
AcDbXrecord
280
     1
102
SHADEPLOT
 70
     0
102
SHADEPLOTRESLEVEL
 70
     2
102
SHADEPLOTCUSTOMDPI
 70
   300
  0
XRECORD
  5
85E9
102
{ACAD_REACTORS
330
83AC
102
}
330
83AC
100
AcDbXrecord
280
     1
102
MATERIAL
148
0.0
149
0.0
149
0.0
 93
        0
 94
      127
282
     0
 72
     0
 77
     0
171
     0
175
     0
179
     0
273
     0
  0
XRECORD
  5
83AE
102
{ACAD_REACTORS
330
83AC
102
}
330
83AC
100
AcDbXrecord
280
     1
270
     1
271
     1
  0
XRECORD
  5
83AD
102
{ACAD_REACTORS
330
83AC
102
}
330
83AC
100
AcDbXrecord
280
     1
270
     1
271
     1
  0
XRECORD
  5
83B1
102
{ACAD_REACTORS
330
83AC
102
}
330
83AC
100
AcDbXrecord
280
     1
270
     1
271
     1
  0
XRECORD
  5
83B0
102
{ACAD_REACTORS
330
83AC
102
}
330
83AC
100
AcDbXrecord
280
     1
270
     1
271
     1
  0
XRECORD
  5
83B2
102
{ACAD_REACTORS
330
83AC
102
}
330
83AC
100
AcDbXrecord
280
     1
270
     1
271
     1
  0
XRECORD
  5
83AF
102
{ACAD_REACTORS
330
83AC
102
}
330
83AC
100
AcDbXrecord
280
     1
270
     1
271
     1
  0
XRECORD
  5
85E8
102
{ACAD_REACTORS
330
83A4
102
}
330
83A4
100
AcDbXrecord
280
     1
102
MATERIAL
148
0.0
149
0.0
149
0.0
 93
        0
 94
      127
282
     0
 72
     0
 77
     0
171
     0
175
     0
179
     0
273
     0
  0
XRECORD
  5
83A6
102
{ACAD_REACTORS
330
83A4
102
}
330
83A4
100
AcDbXrecord
280
     1
270
     1
271
     1
  0
XRECORD
  5
83A5
102
{ACAD_REACTORS
330
83A4
102
}
330
83A4
100
AcDbXrecord
280
     1
270
     1
271
     1
  0
XRECORD
  5
83A9
102
{ACAD_REACTORS
330
83A4
102
}
330
83A4
100
AcDbXrecord
280
     1
270
     1
271
     1
  0
XRECORD
  5
83A8
102
{ACAD_REACTORS
330
83A4
102
}
330
83A4
100
AcDbXrecord
280
     1
270
     1
271
     1
  0
XRECORD
  5
83AA
102
{ACAD_REACTORS
330
83A4
102
}
330
83A4
100
AcDbXrecord
280
     1
270
     1
271
     1
  0
XRECORD
  5
83A7
102
{ACAD_REACTORS
330
83A4
102
}
330
83A4
100
AcDbXrecord
280
     1
270
     1
271
     1
  0
XRECORD
  5
85EA
102
{ACAD_REACTORS
330
83B4
102
}
330
83B4
100
AcDbXrecord
280
     1
102
MATERIAL
148
0.0
149
0.0
149
0.0
 93
        0
 94
      127
282
     0
 72
     0
 77
     0
171
     0
175
     0
179
     0
273
     0
  0
XRECORD
  5
83B6
102
{ACAD_REACTORS
330
83B4
102
}
330
83B4
100
AcDbXrecord
280
     1
270
     1
271
     1
  0
XRECORD
  5
83B5
102
{ACAD_REACTORS
330
83B4
102
}
330
83B4
100
AcDbXrecord
280
     1
270
     1
271
     1
  0
XRECORD
  5
83B9
102
{ACAD_REACTORS
330
83B4
102
}
330
83B4
100
AcDbXrecord
280
     1
270
     1
271
     1
  0
XRECORD
  5
83B8
102
{ACAD_REACTORS
330
83B4
102
}
330
83B4
100
AcDbXrecord
280
     1
270
     1
271
     1
  0
XRECORD
  5
83BA
102
{ACAD_REACTORS
330
83B4
102
}
330
83B4
100
AcDbXrecord
280
     1
270
     1
271
     1
  0
XRECORD
  5
83B7
102
{ACAD_REACTORS
330
83B4
102
}
330
83B4
100
AcDbXrecord
280
     1
270
     1
271
     1
  0
XRECORD
  5
861E
102
{ACAD_REACTORS
330
861D
102
}
330
861D
100
AcDbXrecord
280
     1
102
DISPLAYNAME
  1
Imperial24
102
FLAGS
 90
        0
  0
CELLSTYLEMAP
  5
85E5
102
{ACAD_REACTORS
330
85E4
102
}
330
85E4
100
AcDbCellStyleMap
 90
        3
300
CELLSTYLE
  1
TABLEFORMAT_BEGIN
 90
        5
170
     1
 91
        0
 92
    32768
 62
   257
 93
        1
300
CONTENTFORMAT
  1
CONTENTFORMAT_BEGIN
 90
        0
 91
        0
 92
      512
 93
        0
300

 40
0.0
140
1.0
 94
        5
 62
     0
340
83E7
144
0.25
309
CONTENTFORMAT_END
171
     0
 94
        0
309
TABLEFORMAT_END
  1
CELLSTYLE_BEGIN
 90
        1
 91
        1
300
_TITLE
309
CELLSTYLE_END
300
CELLSTYLE
  1
TABLEFORMAT_BEGIN
 90
        5
170
     1
 91
        0
 92
        0
 62
   257
 93
        1
300
CONTENTFORMAT
  1
CONTENTFORMAT_BEGIN
 90
        0
 91
        0
 92
      512
 93
        0
300

 40
0.0
140
1.0
 94
        5
 62
     0
340
83E7
144
0.18
309
CONTENTFORMAT_END
171
     0
 94
        0
309
TABLEFORMAT_END
  1
CELLSTYLE_BEGIN
 90
        2
 91
        1
300
_HEADER
309
CELLSTYLE_END
300
CELLSTYLE
  1
TABLEFORMAT_BEGIN
 90
        5
170
     1
 91
        0
 92
        0
 62
   257
 93
        1
300
CONTENTFORMAT
  1
CONTENTFORMAT_BEGIN
 90
        0
 91
        0
 92
      512
 93
        0
300

 40
0.0
140
1.0
 94
        2
 62
     0
340
83E7
144
0.18
309
CONTENTFORMAT_END
171
     0
 94
        0
309
TABLEFORMAT_END
  1
CELLSTYLE_BEGIN
 90
        3
 91
        2
300
_DATA
309
CELLSTYLE_END
  0
XRECORD
  5
861B
102
{ACAD_REACTORS
330
85E4
102
}
330
85E4
100
AcDbXrecord
280
     1
102
ACAD_ROUNDTRIP_PRE2007_TABLESTYLE
 90
      512
 91
        0
  1

 92
      512
 93
        0
  2

 94
      512
 95
        0
  3

  0
XRECORD
  5
85F6
102
{ACAD_REACTORS
330
85F5
102
}
330
85F5
100
AcDbXrecord
280
     1
102
RTVSPost2010Prop28
280
     1
102
RTVSPost2010PropOp28
 70
     1
102
RTVSPost2010Prop29
280
     1
102
RTVSPost2010PropOp29
 70
     1
102
RTVSPost2010Prop30
280
     0
102
RTVSPost2010PropOp30
 70
     1
102
RTVSPost2010Prop31
280
     0
102
RTVSPost2010PropOp31
 70
     1
102
RTVSPost2010Prop32
280
     0
102
RTVSPost2010PropOp32
 70
     1
102
RTVSPost2010Prop33
280
     0
102
RTVSPost2010PropOp33
 70
     1
102
RTVSPost2010Prop34
280
     0
102
RTVSPost2010PropOp34
 70
     1
102
RTVSPost2010Prop35
280
     0
102
RTVSPost2010PropOp35
 70
     1
102
RTVSPost2010Prop36
280
     0
102
RTVSPost2010PropOp36
 70
     1
102
RTVSPost2010Prop37
 90
       50
102
RTVSPost2010PropOp37
 70
     1
102
RTVSPost2010Prop38
140
0.0
102
RTVSPost2010PropOp38
 70
     1
102
RTVSPost2010Prop39
140
1.0
102
RTVSPost2010PropOp39
 70
     1
102
RTVSPost2010Prop40
 90
        0
102
RTVSPost2010PropOp40
 70
     1
102
RTVSPost2010Prop41ColorIndex
 90
       18
102
RTVSPost2010Prop41ColorRGB
 90
        0
102
RTVSPost2010PropOp41
 70
     1
102
RTVSPost2010Prop42
 90
       50
102
RTVSPost2010PropOp42
 70
     1
102
RTVSPost2010Prop43
 90
        3
102
RTVSPost2010PropOp43
 70
     1
102
RTVSPost2010Prop44ColorIndex
 90
        5
102
RTVSPost2010Prop44ColorRGB
 90
      255
102
RTVSPost2010PropOp44
 70
     1
102
RTVSPost2010Prop45
280
     0
102
RTVSPost2010PropOp45
 70
     1
102
RTVSPost2010Prop46
 90
       50
102
RTVSPost2010PropOp46
 70
     1
102
RTVSPost2010Prop47
 90
       50
102
RTVSPost2010PropOp47
 70
     1
102
RTVSPost2010Prop48
 90
       50
102
RTVSPost2010PropOp48
 70
     1
102
RTVSPost2010Prop49
280
     0
102
RTVSPost2010PropOp49
 70
     1
102
RTVSPost2010Prop50
 90
       50
102
RTVSPost2010PropOp50
 70
     1
102
RTVSPost2010Prop51ColorIndex
 90
      256
102
RTVSPost2010Prop51ColorRGB
 90
-16777216
102
RTVSPost2010PropOp51
 70
     0
102
RTVSPost2010Prop52
140
1.0
102
RTVSPost2010PropOp52
 70
     0
102
RTVSPost2010Prop53
 90
        2
102
RTVSPost2010PropOp53
 70
     1
102
RTVSPost2010Prop54
  1
strokes_ogs.tif
102
RTVSPost2010PropOp54
 70
     1
102
RTVSPost2010Prop55
280
     0
102
RTVSPost2010PropOp55
 70
     1
102
RTVSPost2010Prop56
140
1.0
102
RTVSPost2010PropOp56
 70
     1
102
RTVSPost2010Prop57
140
1.0
102
RTVSPost2010PropOp57
 70
     1
102
RTVSPropertyOp0
 70
     1
102
RTVSPropertyOp1
 70
     1
102
RTVSPropertyOp2
 70
     1
102
RTVSPropertyOp3
 70
     1
102
RTVSPropertyOp4
 70
     1
102
RTVSPropertyOp5
 70
     1
102
RTVSPropertyOp6
 70
     1
102
RTVSPropertyOp7
 70
     1
102
RTVSPropertyOp8
 70
     1
102
RTVSPropertyOp9
 70
     1
102
RTVSPropertyOp10
 70
     1
102
RTVSPropertyOp11
 70
     1
102
RTVSPropertyOp12
 70
     1
102
RTVSPropertyOp13
 70
     1
102
RTVSPropertyOp14
 70
     1
102
RTVSPropertyOp15
 70
     1
102
RTVSPropertyOp16
 70
     1
102
RTVSPropertyOp17
 70
     1
102
RTVSPropertyOp18
 70
     1
102
RTVSPropertyOp19
 70
     1
102
RTVSPropertyOp20
 70
     1
102
RTVSPropertyOp21
 70
     1
102
RTVSPropertyOp22
 70
     1
102
RTVSPropertyOp23
 70
     1
102
RTVSPropertyOp24
 70
     1
102
RTVSPropertyOp25
 70
     1
102
RTVSPropertyOp26
 70
     1
102
RTVSPropertyOp27
 70
     1
102
RTVSPropertyOp28
 70
     1
102
RTVSPropertyOp29
 70
     1
102
RTVSPropertyOp30
 70
     1
102
RTVSPropertyOp31
 70
     1
102
RTVSPropertyOp32
 70
     1
102
RTVSPropertyOp33
 70
     1
102
RTVSPropertyOp34
 70
     1
102
RTVSPropertyOp35
 70
     1
102
RTVSPropertyOp36
 70
     1
102
RTVSPropertyOp37
 70
     1
102
RTVSPropertyOp38
 70
     1
102
RTVSPropertyOp39
 70
     1
102
RTVSPropertyOp40
 70
     1
102
RTVSPropertyOp41
 70
     1
102
RTVSPropertyOp42
 70
     1
102
RTVSPropertyOp43
 70
     1
102
RTVSPropertyOp44
 70
     1
102
RTVSPropertyOp45
 70
     1
102
RTVSPropertyOp46
 70
     1
102
RTVSPropertyOp47
 70
     1
102
RTVSPropertyOp48
 70
     1
102
RTVSPropertyOp49
 70
     1
102
RTVSPropertyOp50
 70
     1
102
RTVSPropertyOp51
 70
     0
102
RTVSPropertyOp52
 70
     0
102
RTVSPropertyOp53
 70
     1
102
RTVSPropertyOp54
 70
     1
102
RTVSPropertyOp55
 70
     1
102
RTVSPropertyOp56
 70
     1
102
RTVSPropertyOp57
 70
     1
102
RTVSPropertyOp58
 70
     1
102
RTVSPropertyOp59
 70
     1
102
RTVSPropertyOp60
 70
     1
102
RTVSPropertyOp61
 70
     1
102
RTVSPropertyOp62
 70
     1
  0
XRECORD
  5
85F4
102
{ACAD_REACTORS
330
85F3
102
}
330
85F3
100
AcDbXrecord
280
     1
102
RTVSPost2010Prop28
280
     0
102
RTVSPost2010PropOp28
 70
     1
102
RTVSPost2010Prop29
280
     1
102
RTVSPost2010PropOp29
 70
     1
102
RTVSPost2010Prop30
280
     1
102
RTVSPost2010PropOp30
 70
     1
102
RTVSPost2010Prop31
280
     0
102
RTVSPost2010PropOp31
 70
     1
102
RTVSPost2010Prop32
280
     0
102
RTVSPost2010PropOp32
 70
     1
102
RTVSPost2010Prop33
280
     0
102
RTVSPost2010PropOp33
 70
     1
102
RTVSPost2010Prop34
280
     0
102
RTVSPost2010PropOp34
 70
     1
102
RTVSPost2010Prop35
280
     0
102
RTVSPost2010PropOp35
 70
     1
102
RTVSPost2010Prop36
280
     0
102
RTVSPost2010PropOp36
 70
     1
102
RTVSPost2010Prop37
 90
       50
102
RTVSPost2010PropOp37
 70
     1
102
RTVSPost2010Prop38
140
0.0
102
RTVSPost2010PropOp38
 70
     1
102
RTVSPost2010Prop39
140
1.0
102
RTVSPost2010PropOp39
 70
     1
102
RTVSPost2010Prop40
 90
        0
102
RTVSPost2010PropOp40
 70
     1
102
RTVSPost2010Prop41ColorIndex
 90
       18
102
RTVSPost2010Prop41ColorRGB
 90
        0
102
RTVSPost2010PropOp41
 70
     1
102
RTVSPost2010Prop42
 90
       50
102
RTVSPost2010PropOp42
 70
     1
102
RTVSPost2010Prop43
 90
        3
102
RTVSPost2010PropOp43
 70
     1
102
RTVSPost2010Prop44ColorIndex
 90
        5
102
RTVSPost2010Prop44ColorRGB
 90
      255
102
RTVSPost2010PropOp44
 70
     1
102
RTVSPost2010Prop45
280
     0
102
RTVSPost2010PropOp45
 70
     1
102
RTVSPost2010Prop46
 90
       50
102
RTVSPost2010PropOp46
 70
     1
102
RTVSPost2010Prop47
 90
       50
102
RTVSPost2010PropOp47
 70
     1
102
RTVSPost2010Prop48
 90
       50
102
RTVSPost2010PropOp48
 70
     1
102
RTVSPost2010Prop49
280
     0
102
RTVSPost2010PropOp49
 70
     1
102
RTVSPost2010Prop50
 90
       50
102
RTVSPost2010PropOp50
 70
     1
102
RTVSPost2010Prop51ColorIndex
 90
      256
102
RTVSPost2010Prop51ColorRGB
 90
-16777216
102
RTVSPost2010PropOp51
 70
     0
102
RTVSPost2010Prop52
140
1.0
102
RTVSPost2010PropOp52
 70
     0
102
RTVSPost2010Prop53
 90
        2
102
RTVSPost2010PropOp53
 70
     1
102
RTVSPost2010Prop54
  1
strokes_ogs.tif
102
RTVSPost2010PropOp54
 70
     1
102
RTVSPost2010Prop55
280
     0
102
RTVSPost2010PropOp55
 70
     1
102
RTVSPost2010Prop56
140
1.0
102
RTVSPost2010PropOp56
 70
     1
102
RTVSPost2010Prop57
140
1.0
102
RTVSPost2010PropOp57
 70
     1
102
RTVSPropertyOp0
 70
     1
102
RTVSPropertyOp1
 70
     1
102
RTVSPropertyOp2
 70
     1
102
RTVSPropertyOp3
 70
     1
102
RTVSPropertyOp4
 70
     1
102
RTVSPropertyOp5
 70
     1
102
RTVSPropertyOp6
 70
     1
102
RTVSPropertyOp7
 70
     1
102
RTVSPropertyOp8
 70
     1
102
RTVSPropertyOp9
 70
     1
102
RTVSPropertyOp10
 70
     1
102
RTVSPropertyOp11
 70
     1
102
RTVSPropertyOp12
 70
     1
102
RTVSPropertyOp13
 70
     1
102
RTVSPropertyOp14
 70
     1
102
RTVSPropertyOp15
 70
     1
102
RTVSPropertyOp16
 70
     1
102
RTVSPropertyOp17
 70
     1
102
RTVSPropertyOp18
 70
     1
102
RTVSPropertyOp19
 70
     1
102
RTVSPropertyOp20
 70
     1
102
RTVSPropertyOp21
 70
     1
102
RTVSPropertyOp22
 70
     1
102
RTVSPropertyOp23
 70
     1
102
RTVSPropertyOp24
 70
     1
102
RTVSPropertyOp25
 70
     1
102
RTVSPropertyOp26
 70
     1
102
RTVSPropertyOp27
 70
     1
102
RTVSPropertyOp28
 70
     1
102
RTVSPropertyOp29
 70
     1
102
RTVSPropertyOp30
 70
     1
102
RTVSPropertyOp31
 70
     1
102
RTVSPropertyOp32
 70
     1
102
RTVSPropertyOp33
 70
     1
102
RTVSPropertyOp34
 70
     1
102
RTVSPropertyOp35
 70
     1
102
RTVSPropertyOp36
 70
     1
102
RTVSPropertyOp37
 70
     1
102
RTVSPropertyOp38
 70
     1
102
RTVSPropertyOp39
 70
     1
102
RTVSPropertyOp40
 70
     1
102
RTVSPropertyOp41
 70
     1
102
RTVSPropertyOp42
 70
     1
102
RTVSPropertyOp43
 70
     1
102
RTVSPropertyOp44
 70
     1
102
RTVSPropertyOp45
 70
     1
102
RTVSPropertyOp46
 70
     1
102
RTVSPropertyOp47
 70
     1
102
RTVSPropertyOp48
 70
     1
102
RTVSPropertyOp49
 70
     1
102
RTVSPropertyOp50
 70
     1
102
RTVSPropertyOp51
 70
     0
102
RTVSPropertyOp52
 70
     0
102
RTVSPropertyOp53
 70
     1
102
RTVSPropertyOp54
 70
     1
102
RTVSPropertyOp55
 70
     1
102
RTVSPropertyOp56
 70
     1
102
RTVSPropertyOp57
 70
     1
102
RTVSPropertyOp58
 70
     1
102
RTVSPropertyOp59
 70
     1
102
RTVSPropertyOp60
 70
     1
102
RTVSPropertyOp61
 70
     1
102
RTVSPropertyOp62
 70
     1
  0
XRECORD
  5
8602
102
{ACAD_REACTORS
330
8601
102
}
330
8601
100
AcDbXrecord
280
     1
102
RTVSPost2010Prop28
280
     0
102
RTVSPost2010PropOp28
 70
     1
102
RTVSPost2010Prop29
280
     1
102
RTVSPost2010PropOp29
 70
     1
102
RTVSPost2010Prop30
280
     1
102
RTVSPost2010PropOp30
 70
     1
102
RTVSPost2010Prop31
280
     0
102
RTVSPost2010PropOp31
 70
     1
102
RTVSPost2010Prop32
280
     0
102
RTVSPost2010PropOp32
 70
     1
102
RTVSPost2010Prop33
280
     0
102
RTVSPost2010PropOp33
 70
     1
102
RTVSPost2010Prop34
280
     0
102
RTVSPost2010PropOp34
 70
     1
102
RTVSPost2010Prop35
280
     0
102
RTVSPost2010PropOp35
 70
     1
102
RTVSPost2010Prop36
280
     0
102
RTVSPost2010PropOp36
 70
     1
102
RTVSPost2010Prop37
 90
       50
102
RTVSPost2010PropOp37
 70
     1
102
RTVSPost2010Prop38
140
0.0
102
RTVSPost2010PropOp38
 70
     1
102
RTVSPost2010Prop39
140
1.0
102
RTVSPost2010PropOp39
 70
     1
102
RTVSPost2010Prop40
 90
        0
102
RTVSPost2010PropOp40
 70
     1
102
RTVSPost2010Prop41ColorIndex
 90
       18
102
RTVSPost2010Prop41ColorRGB
 90
        0
102
RTVSPost2010PropOp41
 70
     1
102
RTVSPost2010Prop42
 90
       50
102
RTVSPost2010PropOp42
 70
     1
102
RTVSPost2010Prop43
 90
        3
102
RTVSPost2010PropOp43
 70
     1
102
RTVSPost2010Prop44ColorIndex
 90
        5
102
RTVSPost2010Prop44ColorRGB
 90
      255
102
RTVSPost2010PropOp44
 70
     1
102
RTVSPost2010Prop45
280
     0
102
RTVSPost2010PropOp45
 70
     1
102
RTVSPost2010Prop46
 90
       50
102
RTVSPost2010PropOp46
 70
     1
102
RTVSPost2010Prop47
 90
       50
102
RTVSPost2010PropOp47
 70
     1
102
RTVSPost2010Prop48
 90
       50
102
RTVSPost2010PropOp48
 70
     1
102
RTVSPost2010Prop49
280
     0
102
RTVSPost2010PropOp49
 70
     1
102
RTVSPost2010Prop50
 90
       50
102
RTVSPost2010PropOp50
 70
     1
102
RTVSPost2010Prop51ColorIndex
 90
      256
102
RTVSPost2010Prop51ColorRGB
 90
-16777216
102
RTVSPost2010PropOp51
 70
     0
102
RTVSPost2010Prop52
140
1.0
102
RTVSPost2010PropOp52
 70
     0
102
RTVSPost2010Prop53
 90
        2
102
RTVSPost2010PropOp53
 70
     1
102
RTVSPost2010Prop54
  1
strokes_ogs.tif
102
RTVSPost2010PropOp54
 70
     1
102
RTVSPost2010Prop55
280
     0
102
RTVSPost2010PropOp55
 70
     1
102
RTVSPost2010Prop56
140
1.0
102
RTVSPost2010PropOp56
 70
     1
102
RTVSPost2010Prop57
140
1.0
102
RTVSPost2010PropOp57
 70
     1
102
RTVSPropertyOp0
 70
     1
102
RTVSPropertyOp1
 70
     1
102
RTVSPropertyOp2
 70
     1
102
RTVSPropertyOp3
 70
     1
102
RTVSPropertyOp4
 70
     1
102
RTVSPropertyOp5
 70
     1
102
RTVSPropertyOp6
 70
     1
102
RTVSPropertyOp7
 70
     1
102
RTVSPropertyOp8
 70
     1
102
RTVSPropertyOp9
 70
     1
102
RTVSPropertyOp10
 70
     1
102
RTVSPropertyOp11
 70
     1
102
RTVSPropertyOp12
 70
     1
102
RTVSPropertyOp13
 70
     1
102
RTVSPropertyOp14
 70
     1
102
RTVSPropertyOp15
 70
     1
102
RTVSPropertyOp16
 70
     1
102
RTVSPropertyOp17
 70
     1
102
RTVSPropertyOp18
 70
     1
102
RTVSPropertyOp19
 70
     1
102
RTVSPropertyOp20
 70
     1
102
RTVSPropertyOp21
 70
     1
102
RTVSPropertyOp22
 70
     1
102
RTVSPropertyOp23
 70
     1
102
RTVSPropertyOp24
 70
     1
102
RTVSPropertyOp25
 70
     1
102
RTVSPropertyOp26
 70
     1
102
RTVSPropertyOp27
 70
     1
102
RTVSPropertyOp28
 70
     1
102
RTVSPropertyOp29
 70
     1
102
RTVSPropertyOp30
 70
     1
102
RTVSPropertyOp31
 70
     1
102
RTVSPropertyOp32
 70
     1
102
RTVSPropertyOp33
 70
     1
102
RTVSPropertyOp34
 70
     1
102
RTVSPropertyOp35
 70
     1
102
RTVSPropertyOp36
 70
     1
102
RTVSPropertyOp37
 70
     1
102
RTVSPropertyOp38
 70
     1
102
RTVSPropertyOp39
 70
     1
102
RTVSPropertyOp40
 70
     1
102
RTVSPropertyOp41
 70
     1
102
RTVSPropertyOp42
 70
     1
102
RTVSPropertyOp43
 70
     1
102
RTVSPropertyOp44
 70
     1
102
RTVSPropertyOp45
 70
     1
102
RTVSPropertyOp46
 70
     1
102
RTVSPropertyOp47
 70
     1
102
RTVSPropertyOp48
 70
     1
102
RTVSPropertyOp49
 70
     1
102
RTVSPropertyOp50
 70
     1
102
RTVSPropertyOp51
 70
     0
102
RTVSPropertyOp52
 70
     0
102
RTVSPropertyOp53
 70
     1
102
RTVSPropertyOp54
 70
     1
102
RTVSPropertyOp55
 70
     1
102
RTVSPropertyOp56
 70
     1
102
RTVSPropertyOp57
 70
     1
102
RTVSPropertyOp58
 70
     1
102
RTVSPropertyOp59
 70
     1
102
RTVSPropertyOp60
 70
     1
102
RTVSPropertyOp61
 70
     1
102
RTVSPropertyOp62
 70
     1
  0
XRECORD
  5
860A
102
{ACAD_REACTORS
330
8609
102
}
330
8609
100
AcDbXrecord
280
     1
102
RTVSPost2010Prop28
280
     0
102
RTVSPost2010PropOp28
 70
     1
102
RTVSPost2010Prop29
280
     1
102
RTVSPost2010PropOp29
 70
     1
102
RTVSPost2010Prop30
280
     1
102
RTVSPost2010PropOp30
 70
     1
102
RTVSPost2010Prop31
280
     0
102
RTVSPost2010PropOp31
 70
     1
102
RTVSPost2010Prop32
280
     0
102
RTVSPost2010PropOp32
 70
     1
102
RTVSPost2010Prop33
280
     0
102
RTVSPost2010PropOp33
 70
     1
102
RTVSPost2010Prop34
280
     0
102
RTVSPost2010PropOp34
 70
     1
102
RTVSPost2010Prop35
280
     0
102
RTVSPost2010PropOp35
 70
     1
102
RTVSPost2010Prop36
280
     0
102
RTVSPost2010PropOp36
 70
     1
102
RTVSPost2010Prop37
 90
       50
102
RTVSPost2010PropOp37
 70
     1
102
RTVSPost2010Prop38
140
0.0
102
RTVSPost2010PropOp38
 70
     1
102
RTVSPost2010Prop39
140
1.0
102
RTVSPost2010PropOp39
 70
     1
102
RTVSPost2010Prop40
 90
        0
102
RTVSPost2010PropOp40
 70
     1
102
RTVSPost2010Prop41ColorIndex
 90
       18
102
RTVSPost2010Prop41ColorRGB
 90
        0
102
RTVSPost2010PropOp41
 70
     1
102
RTVSPost2010Prop42
 90
       50
102
RTVSPost2010PropOp42
 70
     1
102
RTVSPost2010Prop43
 90
        3
102
RTVSPost2010PropOp43
 70
     1
102
RTVSPost2010Prop44ColorIndex
 90
        5
102
RTVSPost2010Prop44ColorRGB
 90
      255
102
RTVSPost2010PropOp44
 70
     1
102
RTVSPost2010Prop45
280
     0
102
RTVSPost2010PropOp45
 70
     1
102
RTVSPost2010Prop46
 90
       50
102
RTVSPost2010PropOp46
 70
     1
102
RTVSPost2010Prop47
 90
       50
102
RTVSPost2010PropOp47
 70
     1
102
RTVSPost2010Prop48
 90
       50
102
RTVSPost2010PropOp48
 70
     1
102
RTVSPost2010Prop49
280
     0
102
RTVSPost2010PropOp49
 70
     1
102
RTVSPost2010Prop50
 90
       50
102
RTVSPost2010PropOp50
 70
     1
102
RTVSPost2010Prop51ColorIndex
 90
      256
102
RTVSPost2010Prop51ColorRGB
 90
-16777216
102
RTVSPost2010PropOp51
 70
     0
102
RTVSPost2010Prop52
140
1.0
102
RTVSPost2010PropOp52
 70
     0
102
RTVSPost2010Prop53
 90
        2
102
RTVSPost2010PropOp53
 70
     1
102
RTVSPost2010Prop54
  1
strokes_ogs.tif
102
RTVSPost2010PropOp54
 70
     1
102
RTVSPost2010Prop55
280
     0
102
RTVSPost2010PropOp55
 70
     1
102
RTVSPost2010Prop56
140
1.0
102
RTVSPost2010PropOp56
 70
     1
102
RTVSPost2010Prop57
140
1.0
102
RTVSPost2010PropOp57
 70
     1
102
RTVSPropertyOp0
 70
     1
102
RTVSPropertyOp1
 70
     1
102
RTVSPropertyOp2
 70
     1
102
RTVSPropertyOp3
 70
     1
102
RTVSPropertyOp4
 70
     1
102
RTVSPropertyOp5
 70
     1
102
RTVSPropertyOp6
 70
     1
102
RTVSPropertyOp7
 70
     1
102
RTVSPropertyOp8
 70
     1
102
RTVSPropertyOp9
 70
     1
102
RTVSPropertyOp10
 70
     1
102
RTVSPropertyOp11
 70
     1
102
RTVSPropertyOp12
 70
     1
102
RTVSPropertyOp13
 70
     1
102
RTVSPropertyOp14
 70
     1
102
RTVSPropertyOp15
 70
     1
102
RTVSPropertyOp16
 70
     1
102
RTVSPropertyOp17
 70
     1
102
RTVSPropertyOp18
 70
     1
102
RTVSPropertyOp19
 70
     1
102
RTVSPropertyOp20
 70
     1
102
RTVSPropertyOp21
 70
     1
102
RTVSPropertyOp22
 70
     1
102
RTVSPropertyOp23
 70
     1
102
RTVSPropertyOp24
 70
     1
102
RTVSPropertyOp25
 70
     1
102
RTVSPropertyOp26
 70
     1
102
RTVSPropertyOp27
 70
     1
102
RTVSPropertyOp28
 70
     1
102
RTVSPropertyOp29
 70
     1
102
RTVSPropertyOp30
 70
     1
102
RTVSPropertyOp31
 70
     1
102
RTVSPropertyOp32
 70
     1
102
RTVSPropertyOp33
 70
     1
102
RTVSPropertyOp34
 70
     1
102
RTVSPropertyOp35
 70
     1
102
RTVSPropertyOp36
 70
     1
102
RTVSPropertyOp37
 70
     1
102
RTVSPropertyOp38
 70
     1
102
RTVSPropertyOp39
 70
     1
102
RTVSPropertyOp40
 70
     1
102
RTVSPropertyOp41
 70
     1
102
RTVSPropertyOp42
 70
     1
102
RTVSPropertyOp43
 70
     1
102
RTVSPropertyOp44
 70
     1
102
RTVSPropertyOp45
 70
     1
102
RTVSPropertyOp46
 70
     1
102
RTVSPropertyOp47
 70
     1
102
RTVSPropertyOp48
 70
     1
102
RTVSPropertyOp49
 70
     1
102
RTVSPropertyOp50
 70
     1
102
RTVSPropertyOp51
 70
     0
102
RTVSPropertyOp52
 70
     0
102
RTVSPropertyOp53
 70
     1
102
RTVSPropertyOp54
 70
     1
102
RTVSPropertyOp55
 70
     1
102
RTVSPropertyOp56
 70
     1
102
RTVSPropertyOp57
 70
     1
102
RTVSPropertyOp58
 70
     1
102
RTVSPropertyOp59
 70
     1
102
RTVSPropertyOp60
 70
     1
102
RTVSPropertyOp61
 70
     1
102
RTVSPropertyOp62
 70
     1
  0
XRECORD
  5
85FC
102
{ACAD_REACTORS
330
85FB
102
}
330
85FB
100
AcDbXrecord
280
     1
102
RTVSPost2010Prop28
280
     0
102
RTVSPost2010PropOp28
 70
     1
102
RTVSPost2010Prop29
280
     1
102
RTVSPost2010PropOp29
 70
     1
102
RTVSPost2010Prop30
280
     1
102
RTVSPost2010PropOp30
 70
     1
102
RTVSPost2010Prop31
280
     0
102
RTVSPost2010PropOp31
 70
     1
102
RTVSPost2010Prop32
280
     0
102
RTVSPost2010PropOp32
 70
     1
102
RTVSPost2010Prop33
280
     0
102
RTVSPost2010PropOp33
 70
     1
102
RTVSPost2010Prop34
280
     0
102
RTVSPost2010PropOp34
 70
     1
102
RTVSPost2010Prop35
280
     0
102
RTVSPost2010PropOp35
 70
     1
102
RTVSPost2010Prop36
280
     0
102
RTVSPost2010PropOp36
 70
     1
102
RTVSPost2010Prop37
 90
       50
102
RTVSPost2010PropOp37
 70
     1
102
RTVSPost2010Prop38
140
0.0
102
RTVSPost2010PropOp38
 70
     1
102
RTVSPost2010Prop39
140
1.0
102
RTVSPost2010PropOp39
 70
     1
102
RTVSPost2010Prop40
 90
        0
102
RTVSPost2010PropOp40
 70
     1
102
RTVSPost2010Prop41ColorIndex
 90
       18
102
RTVSPost2010Prop41ColorRGB
 90
        0
102
RTVSPost2010PropOp41
 70
     1
102
RTVSPost2010Prop42
 90
       50
102
RTVSPost2010PropOp42
 70
     1
102
RTVSPost2010Prop43
 90
        3
102
RTVSPost2010PropOp43
 70
     1
102
RTVSPost2010Prop44ColorIndex
 90
        5
102
RTVSPost2010Prop44ColorRGB
 90
      255
102
RTVSPost2010PropOp44
 70
     1
102
RTVSPost2010Prop45
280
     0
102
RTVSPost2010PropOp45
 70
     1
102
RTVSPost2010Prop46
 90
       50
102
RTVSPost2010PropOp46
 70
     1
102
RTVSPost2010Prop47
 90
       50
102
RTVSPost2010PropOp47
 70
     1
102
RTVSPost2010Prop48
 90
       50
102
RTVSPost2010PropOp48
 70
     1
102
RTVSPost2010Prop49
280
     0
102
RTVSPost2010PropOp49
 70
     1
102
RTVSPost2010Prop50
 90
       50
102
RTVSPost2010PropOp50
 70
     1
102
RTVSPost2010Prop51ColorIndex
 90
      256
102
RTVSPost2010Prop51ColorRGB
 90
-16777216
102
RTVSPost2010PropOp51
 70
     0
102
RTVSPost2010Prop52
140
1.0
102
RTVSPost2010PropOp52
 70
     0
102
RTVSPost2010Prop53
 90
        2
102
RTVSPost2010PropOp53
 70
     1
102
RTVSPost2010Prop54
  1
strokes_ogs.tif
102
RTVSPost2010PropOp54
 70
     1
102
RTVSPost2010Prop55
280
     0
102
RTVSPost2010PropOp55
 70
     1
102
RTVSPost2010Prop56
140
1.0
102
RTVSPost2010PropOp56
 70
     1
102
RTVSPost2010Prop57
140
1.0
102
RTVSPost2010PropOp57
 70
     1
102
RTVSPropertyOp0
 70
     1
102
RTVSPropertyOp1
 70
     1
102
RTVSPropertyOp2
 70
     1
102
RTVSPropertyOp3
 70
     1
102
RTVSPropertyOp4
 70
     1
102
RTVSPropertyOp5
 70
     1
102
RTVSPropertyOp6
 70
     1
102
RTVSPropertyOp7
 70
     1
102
RTVSPropertyOp8
 70
     1
102
RTVSPropertyOp9
 70
     1
102
RTVSPropertyOp10
 70
     1
102
RTVSPropertyOp11
 70
     1
102
RTVSPropertyOp12
 70
     1
102
RTVSPropertyOp13
 70
     1
102
RTVSPropertyOp14
 70
     1
102
RTVSPropertyOp15
 70
     1
102
RTVSPropertyOp16
 70
     1
102
RTVSPropertyOp17
 70
     1
102
RTVSPropertyOp18
 70
     1
102
RTVSPropertyOp19
 70
     1
102
RTVSPropertyOp20
 70
     1
102
RTVSPropertyOp21
 70
     1
102
RTVSPropertyOp22
 70
     1
102
RTVSPropertyOp23
 70
     1
102
RTVSPropertyOp24
 70
     1
102
RTVSPropertyOp25
 70
     1
102
RTVSPropertyOp26
 70
     1
102
RTVSPropertyOp27
 70
     1
102
RTVSPropertyOp28
 70
     1
102
RTVSPropertyOp29
 70
     1
102
RTVSPropertyOp30
 70
     1
102
RTVSPropertyOp31
 70
     1
102
RTVSPropertyOp32
 70
     1
102
RTVSPropertyOp33
 70
     1
102
RTVSPropertyOp34
 70
     1
102
RTVSPropertyOp35
 70
     1
102
RTVSPropertyOp36
 70
     1
102
RTVSPropertyOp37
 70
     1
102
RTVSPropertyOp38
 70
     1
102
RTVSPropertyOp39
 70
     1
102
RTVSPropertyOp40
 70
     1
102
RTVSPropertyOp41
 70
     1
102
RTVSPropertyOp42
 70
     1
102
RTVSPropertyOp43
 70
     1
102
RTVSPropertyOp44
 70
     1
102
RTVSPropertyOp45
 70
     1
102
RTVSPropertyOp46
 70
     1
102
RTVSPropertyOp47
 70
     1
102
RTVSPropertyOp48
 70
     1
102
RTVSPropertyOp49
 70
     1
102
RTVSPropertyOp50
 70
     1
102
RTVSPropertyOp51
 70
     0
102
RTVSPropertyOp52
 70
     0
102
RTVSPropertyOp53
 70
     1
102
RTVSPropertyOp54
 70
     1
102
RTVSPropertyOp55
 70
     1
102
RTVSPropertyOp56
 70
     1
102
RTVSPropertyOp57
 70
     1
102
RTVSPropertyOp58
 70
     1
102
RTVSPropertyOp59
 70
     1
102
RTVSPropertyOp60
 70
     1
102
RTVSPropertyOp61
 70
     1
102
RTVSPropertyOp62
 70
     1
  0
XRECORD
  5
8600
102
{ACAD_REACTORS
330
85FF
102
}
330
85FF
100
AcDbXrecord
280
     1
102
RTVSPost2010Prop28
280
     0
102
RTVSPost2010PropOp28
 70
     1
102
RTVSPost2010Prop29
280
     1
102
RTVSPost2010PropOp29
 70
     1
102
RTVSPost2010Prop30
280
     1
102
RTVSPost2010PropOp30
 70
     1
102
RTVSPost2010Prop31
280
     0
102
RTVSPost2010PropOp31
 70
     1
102
RTVSPost2010Prop32
280
     0
102
RTVSPost2010PropOp32
 70
     1
102
RTVSPost2010Prop33
280
     0
102
RTVSPost2010PropOp33
 70
     1
102
RTVSPost2010Prop34
280
     0
102
RTVSPost2010PropOp34
 70
     1
102
RTVSPost2010Prop35
280
     0
102
RTVSPost2010PropOp35
 70
     1
102
RTVSPost2010Prop36
280
     0
102
RTVSPost2010PropOp36
 70
     1
102
RTVSPost2010Prop37
 90
       50
102
RTVSPost2010PropOp37
 70
     1
102
RTVSPost2010Prop38
140
0.0
102
RTVSPost2010PropOp38
 70
     1
102
RTVSPost2010Prop39
140
1.0
102
RTVSPost2010PropOp39
 70
     1
102
RTVSPost2010Prop40
 90
        0
102
RTVSPost2010PropOp40
 70
     1
102
RTVSPost2010Prop41ColorIndex
 90
       18
102
RTVSPost2010Prop41ColorRGB
 90
        0
102
RTVSPost2010PropOp41
 70
     1
102
RTVSPost2010Prop42
 90
       50
102
RTVSPost2010PropOp42
 70
     1
102
RTVSPost2010Prop43
 90
        3
102
RTVSPost2010PropOp43
 70
     1
102
RTVSPost2010Prop44ColorIndex
 90
        5
102
RTVSPost2010Prop44ColorRGB
 90
      255
102
RTVSPost2010PropOp44
 70
     1
102
RTVSPost2010Prop45
280
     0
102
RTVSPost2010PropOp45
 70
     1
102
RTVSPost2010Prop46
 90
       50
102
RTVSPost2010PropOp46
 70
     1
102
RTVSPost2010Prop47
 90
       50
102
RTVSPost2010PropOp47
 70
     1
102
RTVSPost2010Prop48
 90
       50
102
RTVSPost2010PropOp48
 70
     1
102
RTVSPost2010Prop49
280
     0
102
RTVSPost2010PropOp49
 70
     1
102
RTVSPost2010Prop50
 90
       50
102
RTVSPost2010PropOp50
 70
     1
102
RTVSPost2010Prop51ColorIndex
 90
      256
102
RTVSPost2010Prop51ColorRGB
 90
-16777216
102
RTVSPost2010PropOp51
 70
     0
102
RTVSPost2010Prop52
140
1.0
102
RTVSPost2010PropOp52
 70
     0
102
RTVSPost2010Prop53
 90
        2
102
RTVSPost2010PropOp53
 70
     1
102
RTVSPost2010Prop54
  1
strokes_ogs.tif
102
RTVSPost2010PropOp54
 70
     1
102
RTVSPost2010Prop55
280
     0
102
RTVSPost2010PropOp55
 70
     1
102
RTVSPost2010Prop56
140
1.0
102
RTVSPost2010PropOp56
 70
     1
102
RTVSPost2010Prop57
140
1.0
102
RTVSPost2010PropOp57
 70
     1
102
RTVSPropertyOp0
 70
     1
102
RTVSPropertyOp1
 70
     1
102
RTVSPropertyOp2
 70
     1
102
RTVSPropertyOp3
 70
     1
102
RTVSPropertyOp4
 70
     1
102
RTVSPropertyOp5
 70
     1
102
RTVSPropertyOp6
 70
     1
102
RTVSPropertyOp7
 70
     1
102
RTVSPropertyOp8
 70
     1
102
RTVSPropertyOp9
 70
     1
102
RTVSPropertyOp10
 70
     1
102
RTVSPropertyOp11
 70
     1
102
RTVSPropertyOp12
 70
     1
102
RTVSPropertyOp13
 70
     1
102
RTVSPropertyOp14
 70
     1
102
RTVSPropertyOp15
 70
     1
102
RTVSPropertyOp16
 70
     1
102
RTVSPropertyOp17
 70
     1
102
RTVSPropertyOp18
 70
     1
102
RTVSPropertyOp19
 70
     1
102
RTVSPropertyOp20
 70
     1
102
RTVSPropertyOp21
 70
     1
102
RTVSPropertyOp22
 70
     1
102
RTVSPropertyOp23
 70
     1
102
RTVSPropertyOp24
 70
     1
102
RTVSPropertyOp25
 70
     1
102
RTVSPropertyOp26
 70
     1
102
RTVSPropertyOp27
 70
     1
102
RTVSPropertyOp28
 70
     1
102
RTVSPropertyOp29
 70
     1
102
RTVSPropertyOp30
 70
     1
102
RTVSPropertyOp31
 70
     1
102
RTVSPropertyOp32
 70
     1
102
RTVSPropertyOp33
 70
     1
102
RTVSPropertyOp34
 70
     1
102
RTVSPropertyOp35
 70
     1
102
RTVSPropertyOp36
 70
     1
102
RTVSPropertyOp37
 70
     1
102
RTVSPropertyOp38
 70
     1
102
RTVSPropertyOp39
 70
     1
102
RTVSPropertyOp40
 70
     1
102
RTVSPropertyOp41
 70
     1
102
RTVSPropertyOp42
 70
     1
102
RTVSPropertyOp43
 70
     1
102
RTVSPropertyOp44
 70
     1
102
RTVSPropertyOp45
 70
     1
102
RTVSPropertyOp46
 70
     1
102
RTVSPropertyOp47
 70
     1
102
RTVSPropertyOp48
 70
     1
102
RTVSPropertyOp49
 70
     1
102
RTVSPropertyOp50
 70
     1
102
RTVSPropertyOp51
 70
     0
102
RTVSPropertyOp52
 70
     0
102
RTVSPropertyOp53
 70
     1
102
RTVSPropertyOp54
 70
     1
102
RTVSPropertyOp55
 70
     1
102
RTVSPropertyOp56
 70
     1
102
RTVSPropertyOp57
 70
     1
102
RTVSPropertyOp58
 70
     1
102
RTVSPropertyOp59
 70
     1
102
RTVSPropertyOp60
 70
     1
102
RTVSPropertyOp61
 70
     1
102
RTVSPropertyOp62
 70
     1
  0
XRECORD
  5
861A
102
{ACAD_REACTORS
330
8619
102
}
330
8619
100
AcDbXrecord
280
     1
102
RTVSPost2010Prop28
280
     0
102
RTVSPost2010PropOp28
 70
     1
102
RTVSPost2010Prop29
280
     1
102
RTVSPost2010PropOp29
 70
     1
102
RTVSPost2010Prop30
280
     1
102
RTVSPost2010PropOp30
 70
     1
102
RTVSPost2010Prop31
280
     0
102
RTVSPost2010PropOp31
 70
     1
102
RTVSPost2010Prop32
280
     0
102
RTVSPost2010PropOp32
 70
     1
102
RTVSPost2010Prop33
280
     0
102
RTVSPost2010PropOp33
 70
     1
102
RTVSPost2010Prop34
280
     0
102
RTVSPost2010PropOp34
 70
     1
102
RTVSPost2010Prop35
280
     0
102
RTVSPost2010PropOp35
 70
     1
102
RTVSPost2010Prop36
280
     0
102
RTVSPost2010PropOp36
 70
     1
102
RTVSPost2010Prop37
 90
       50
102
RTVSPost2010PropOp37
 70
     0
102
RTVSPost2010Prop38
140
0.0
102
RTVSPost2010PropOp38
 70
     0
102
RTVSPost2010Prop39
140
1.0
102
RTVSPost2010PropOp39
 70
     0
102
RTVSPost2010Prop40
 90
        0
102
RTVSPost2010PropOp40
 70
     0
102
RTVSPost2010Prop41ColorIndex
 90
       18
102
RTVSPost2010Prop41ColorRGB
 90
        0
102
RTVSPost2010PropOp41
 70
     0
102
RTVSPost2010Prop42
 90
       50
102
RTVSPost2010PropOp42
 70
     0
102
RTVSPost2010Prop43
 90
        3
102
RTVSPost2010PropOp43
 70
     0
102
RTVSPost2010Prop44ColorIndex
 90
        5
102
RTVSPost2010Prop44ColorRGB
 90
      255
102
RTVSPost2010PropOp44
 70
     0
102
RTVSPost2010Prop45
280
     0
102
RTVSPost2010PropOp45
 70
     1
102
RTVSPost2010Prop46
 90
       50
102
RTVSPost2010PropOp46
 70
     0
102
RTVSPost2010Prop47
 90
       50
102
RTVSPost2010PropOp47
 70
     0
102
RTVSPost2010Prop48
 90
       50
102
RTVSPost2010PropOp48
 70
     0
102
RTVSPost2010Prop49
280
     0
102
RTVSPost2010PropOp49
 70
     1
102
RTVSPost2010Prop50
 90
       50
102
RTVSPost2010PropOp50
 70
     0
102
RTVSPost2010Prop51ColorIndex
 90
      256
102
RTVSPost2010Prop51ColorRGB
 90
-16777216
102
RTVSPost2010PropOp51
 70
     0
102
RTVSPost2010Prop52
140
1.0
102
RTVSPost2010PropOp52
 70
     0
102
RTVSPost2010Prop53
 90
        2
102
RTVSPost2010PropOp53
 70
     0
102
RTVSPost2010Prop54
  1
strokes_ogs.tif
102
RTVSPost2010PropOp54
 70
     0
102
RTVSPost2010Prop55
280
     0
102
RTVSPost2010PropOp55
 70
     1
102
RTVSPost2010Prop56
140
1.0
102
RTVSPost2010PropOp56
 70
     0
102
RTVSPost2010Prop57
140
1.0
102
RTVSPost2010PropOp57
 70
     0
102
RTVSPropertyOp0
 70
     0
102
RTVSPropertyOp1
 70
     0
102
RTVSPropertyOp2
 70
     0
102
RTVSPropertyOp3
 70
     0
102
RTVSPropertyOp4
 70
     0
102
RTVSPropertyOp5
 70
     0
102
RTVSPropertyOp6
 70
     0
102
RTVSPropertyOp7
 70
     0
102
RTVSPropertyOp8
 70
     0
102
RTVSPropertyOp9
 70
     0
102
RTVSPropertyOp10
 70
     0
102
RTVSPropertyOp11
 70
     0
102
RTVSPropertyOp12
 70
     0
102
RTVSPropertyOp13
 70
     0
102
RTVSPropertyOp14
 70
     2
102
RTVSPropertyOp15
 70
     0
102
RTVSPropertyOp16
 70
     0
102
RTVSPropertyOp17
 70
     0
102
RTVSPropertyOp18
 70
     0
102
RTVSPropertyOp19
 70
     0
102
RTVSPropertyOp20
 70
     0
102
RTVSPropertyOp21
 70
     0
102
RTVSPropertyOp22
 70
     0
102
RTVSPropertyOp23
 70
     0
102
RTVSPropertyOp24
 70
     0
102
RTVSPropertyOp25
 70
     0
102
RTVSPropertyOp26
 70
     0
102
RTVSPropertyOp27
 70
     0
102
RTVSPropertyOp28
 70
     1
102
RTVSPropertyOp29
 70
     1
102
RTVSPropertyOp30
 70
     1
102
RTVSPropertyOp31
 70
     1
102
RTVSPropertyOp32
 70
     1
102
RTVSPropertyOp33
 70
     1
102
RTVSPropertyOp34
 70
     1
102
RTVSPropertyOp35
 70
     1
102
RTVSPropertyOp36
 70
     1
102
RTVSPropertyOp37
 70
     0
102
RTVSPropertyOp38
 70
     0
102
RTVSPropertyOp39
 70
     0
102
RTVSPropertyOp40
 70
     0
102
RTVSPropertyOp41
 70
     0
102
RTVSPropertyOp42
 70
     0
102
RTVSPropertyOp43
 70
     0
102
RTVSPropertyOp44
 70
     0
102
RTVSPropertyOp45
 70
     1
102
RTVSPropertyOp46
 70
     0
102
RTVSPropertyOp47
 70
     0
102
RTVSPropertyOp48
 70
     0
102
RTVSPropertyOp49
 70
     1
102
RTVSPropertyOp50
 70
     0
102
RTVSPropertyOp51
 70
     0
102
RTVSPropertyOp52
 70
     0
102
RTVSPropertyOp53
 70
     0
102
RTVSPropertyOp54
 70
     0
102
RTVSPropertyOp55
 70
     1
102
RTVSPropertyOp56
 70
     0
102
RTVSPropertyOp57
 70
     0
102
RTVSPropertyOp58
 70
     0
102
RTVSPropertyOp59
 70
     0
102
RTVSPropertyOp60
 70
     0
102
RTVSPropertyOp61
 70
     0
102
RTVSPropertyOp62
 70
     0
  0
XRECORD
  5
8608
102
{ACAD_REACTORS
330
8607
102
}
330
8607
100
AcDbXrecord
280
     1
102
RTVSPost2010Prop28
280
     0
102
RTVSPost2010PropOp28
 70
     1
102
RTVSPost2010Prop29
280
     1
102
RTVSPost2010PropOp29
 70
     1
102
RTVSPost2010Prop30
280
     1
102
RTVSPost2010PropOp30
 70
     1
102
RTVSPost2010Prop31
280
     0
102
RTVSPost2010PropOp31
 70
     1
102
RTVSPost2010Prop32
280
     0
102
RTVSPost2010PropOp32
 70
     1
102
RTVSPost2010Prop33
280
     0
102
RTVSPost2010PropOp33
 70
     1
102
RTVSPost2010Prop34
280
     0
102
RTVSPost2010PropOp34
 70
     1
102
RTVSPost2010Prop35
280
     0
102
RTVSPost2010PropOp35
 70
     1
102
RTVSPost2010Prop36
280
     0
102
RTVSPost2010PropOp36
 70
     1
102
RTVSPost2010Prop37
 90
       50
102
RTVSPost2010PropOp37
 70
     1
102
RTVSPost2010Prop38
140
0.0
102
RTVSPost2010PropOp38
 70
     1
102
RTVSPost2010Prop39
140
1.0
102
RTVSPost2010PropOp39
 70
     1
102
RTVSPost2010Prop40
 90
        0
102
RTVSPost2010PropOp40
 70
     1
102
RTVSPost2010Prop41ColorIndex
 90
       18
102
RTVSPost2010Prop41ColorRGB
 90
        0
102
RTVSPost2010PropOp41
 70
     1
102
RTVSPost2010Prop42
 90
       50
102
RTVSPost2010PropOp42
 70
     1
102
RTVSPost2010Prop43
 90
        3
102
RTVSPost2010PropOp43
 70
     1
102
RTVSPost2010Prop44ColorIndex
 90
        5
102
RTVSPost2010Prop44ColorRGB
 90
      255
102
RTVSPost2010PropOp44
 70
     1
102
RTVSPost2010Prop45
280
     0
102
RTVSPost2010PropOp45
 70
     1
102
RTVSPost2010Prop46
 90
       50
102
RTVSPost2010PropOp46
 70
     1
102
RTVSPost2010Prop47
 90
       50
102
RTVSPost2010PropOp47
 70
     1
102
RTVSPost2010Prop48
 90
       50
102
RTVSPost2010PropOp48
 70
     1
102
RTVSPost2010Prop49
280
     0
102
RTVSPost2010PropOp49
 70
     1
102
RTVSPost2010Prop50
 90
       50
102
RTVSPost2010PropOp50
 70
     1
102
RTVSPost2010Prop51ColorIndex
 90
      256
102
RTVSPost2010Prop51ColorRGB
 90
-16777216
102
RTVSPost2010PropOp51
 70
     0
102
RTVSPost2010Prop52
140
1.0
102
RTVSPost2010PropOp52
 70
     0
102
RTVSPost2010Prop53
 90
        2
102
RTVSPost2010PropOp53
 70
     1
102
RTVSPost2010Prop54
  1
strokes_ogs.tif
102
RTVSPost2010PropOp54
 70
     1
102
RTVSPost2010Prop55
280
     0
102
RTVSPost2010PropOp55
 70
     1
102
RTVSPost2010Prop56
140
1.0
102
RTVSPost2010PropOp56
 70
     1
102
RTVSPost2010Prop57
140
1.0
102
RTVSPost2010PropOp57
 70
     1
102
RTVSPropertyOp0
 70
     1
102
RTVSPropertyOp1
 70
     1
102
RTVSPropertyOp2
 70
     1
102
RTVSPropertyOp3
 70
     1
102
RTVSPropertyOp4
 70
     1
102
RTVSPropertyOp5
 70
     1
102
RTVSPropertyOp6
 70
     1
102
RTVSPropertyOp7
 70
     1
102
RTVSPropertyOp8
 70
     1
102
RTVSPropertyOp9
 70
     1
102
RTVSPropertyOp10
 70
     1
102
RTVSPropertyOp11
 70
     1
102
RTVSPropertyOp12
 70
     1
102
RTVSPropertyOp13
 70
     1
102
RTVSPropertyOp14
 70
     1
102
RTVSPropertyOp15
 70
     1
102
RTVSPropertyOp16
 70
     1
102
RTVSPropertyOp17
 70
     1
102
RTVSPropertyOp18
 70
     1
102
RTVSPropertyOp19
 70
     1
102
RTVSPropertyOp20
 70
     1
102
RTVSPropertyOp21
 70
     1
102
RTVSPropertyOp22
 70
     1
102
RTVSPropertyOp23
 70
     1
102
RTVSPropertyOp24
 70
     1
102
RTVSPropertyOp25
 70
     1
102
RTVSPropertyOp26
 70
     1
102
RTVSPropertyOp27
 70
     1
102
RTVSPropertyOp28
 70
     1
102
RTVSPropertyOp29
 70
     1
102
RTVSPropertyOp30
 70
     1
102
RTVSPropertyOp31
 70
     1
102
RTVSPropertyOp32
 70
     1
102
RTVSPropertyOp33
 70
     1
102
RTVSPropertyOp34
 70
     1
102
RTVSPropertyOp35
 70
     1
102
RTVSPropertyOp36
 70
     1
102
RTVSPropertyOp37
 70
     1
102
RTVSPropertyOp38
 70
     1
102
RTVSPropertyOp39
 70
     1
102
RTVSPropertyOp40
 70
     1
102
RTVSPropertyOp41
 70
     1
102
RTVSPropertyOp42
 70
     1
102
RTVSPropertyOp43
 70
     1
102
RTVSPropertyOp44
 70
     1
102
RTVSPropertyOp45
 70
     1
102
RTVSPropertyOp46
 70
     1
102
RTVSPropertyOp47
 70
     1
102
RTVSPropertyOp48
 70
     1
102
RTVSPropertyOp49
 70
     1
102
RTVSPropertyOp50
 70
     1
102
RTVSPropertyOp51
 70
     0
102
RTVSPropertyOp52
 70
     0
102
RTVSPropertyOp53
 70
     1
102
RTVSPropertyOp54
 70
     1
102
RTVSPropertyOp55
 70
     1
102
RTVSPropertyOp56
 70
     1
102
RTVSPropertyOp57
 70
     1
102
RTVSPropertyOp58
 70
     1
102
RTVSPropertyOp59
 70
     1
102
RTVSPropertyOp60
 70
     1
102
RTVSPropertyOp61
 70
     1
102
RTVSPropertyOp62
 70
     1
  0
XRECORD
  5
85EC
102
{ACAD_REACTORS
330
85EB
102
}
330
85EB
100
AcDbXrecord
280
     1
102
RTVSPost2010Prop28
280
     0
102
RTVSPost2010PropOp28
 70
     1
102
RTVSPost2010Prop29
280
     1
102
RTVSPost2010PropOp29
 70
     1
102
RTVSPost2010Prop30
280
     1
102
RTVSPost2010PropOp30
 70
     1
102
RTVSPost2010Prop31
280
     0
102
RTVSPost2010PropOp31
 70
     1
102
RTVSPost2010Prop32
280
     0
102
RTVSPost2010PropOp32
 70
     1
102
RTVSPost2010Prop33
280
     0
102
RTVSPost2010PropOp33
 70
     1
102
RTVSPost2010Prop34
280
     0
102
RTVSPost2010PropOp34
 70
     1
102
RTVSPost2010Prop35
280
     0
102
RTVSPost2010PropOp35
 70
     1
102
RTVSPost2010Prop36
280
     0
102
RTVSPost2010PropOp36
 70
     1
102
RTVSPost2010Prop37
 90
       50
102
RTVSPost2010PropOp37
 70
     1
102
RTVSPost2010Prop38
140
0.0
102
RTVSPost2010PropOp38
 70
     1
102
RTVSPost2010Prop39
140
1.0
102
RTVSPost2010PropOp39
 70
     1
102
RTVSPost2010Prop40
 90
        0
102
RTVSPost2010PropOp40
 70
     1
102
RTVSPost2010Prop41ColorIndex
 90
       18
102
RTVSPost2010Prop41ColorRGB
 90
        0
102
RTVSPost2010PropOp41
 70
     1
102
RTVSPost2010Prop42
 90
       50
102
RTVSPost2010PropOp42
 70
     1
102
RTVSPost2010Prop43
 90
        3
102
RTVSPost2010PropOp43
 70
     1
102
RTVSPost2010Prop44ColorIndex
 90
        5
102
RTVSPost2010Prop44ColorRGB
 90
      255
102
RTVSPost2010PropOp44
 70
     1
102
RTVSPost2010Prop45
280
     0
102
RTVSPost2010PropOp45
 70
     1
102
RTVSPost2010Prop46
 90
       50
102
RTVSPost2010PropOp46
 70
     1
102
RTVSPost2010Prop47
 90
       50
102
RTVSPost2010PropOp47
 70
     1
102
RTVSPost2010Prop48
 90
       50
102
RTVSPost2010PropOp48
 70
     1
102
RTVSPost2010Prop49
280
     0
102
RTVSPost2010PropOp49
 70
     1
102
RTVSPost2010Prop50
 90
       50
102
RTVSPost2010PropOp50
 70
     1
102
RTVSPost2010Prop51ColorIndex
 90
      256
102
RTVSPost2010Prop51ColorRGB
 90
-16777216
102
RTVSPost2010PropOp51
 70
     0
102
RTVSPost2010Prop52
140
1.0
102
RTVSPost2010PropOp52
 70
     0
102
RTVSPost2010Prop53
 90
        2
102
RTVSPost2010PropOp53
 70
     1
102
RTVSPost2010Prop54
  1
strokes_ogs.tif
102
RTVSPost2010PropOp54
 70
     1
102
RTVSPost2010Prop55
280
     0
102
RTVSPost2010PropOp55
 70
     1
102
RTVSPost2010Prop56
140
1.0
102
RTVSPost2010PropOp56
 70
     1
102
RTVSPost2010Prop57
140
1.0
102
RTVSPost2010PropOp57
 70
     1
102
RTVSPropertyOp0
 70
     1
102
RTVSPropertyOp1
 70
     1
102
RTVSPropertyOp2
 70
     1
102
RTVSPropertyOp3
 70
     1
102
RTVSPropertyOp4
 70
     1
102
RTVSPropertyOp5
 70
     1
102
RTVSPropertyOp6
 70
     1
102
RTVSPropertyOp7
 70
     1
102
RTVSPropertyOp8
 70
     1
102
RTVSPropertyOp9
 70
     1
102
RTVSPropertyOp10
 70
     1
102
RTVSPropertyOp11
 70
     1
102
RTVSPropertyOp12
 70
     1
102
RTVSPropertyOp13
 70
     1
102
RTVSPropertyOp14
 70
     1
102
RTVSPropertyOp15
 70
     1
102
RTVSPropertyOp16
 70
     1
102
RTVSPropertyOp17
 70
     1
102
RTVSPropertyOp18
 70
     1
102
RTVSPropertyOp19
 70
     1
102
RTVSPropertyOp20
 70
     1
102
RTVSPropertyOp21
 70
     1
102
RTVSPropertyOp22
 70
     1
102
RTVSPropertyOp23
 70
     1
102
RTVSPropertyOp24
 70
     1
102
RTVSPropertyOp25
 70
     1
102
RTVSPropertyOp26
 70
     1
102
RTVSPropertyOp27
 70
     1
102
RTVSPropertyOp28
 70
     1
102
RTVSPropertyOp29
 70
     1
102
RTVSPropertyOp30
 70
     1
102
RTVSPropertyOp31
 70
     1
102
RTVSPropertyOp32
 70
     1
102
RTVSPropertyOp33
 70
     1
102
RTVSPropertyOp34
 70
     1
102
RTVSPropertyOp35
 70
     1
102
RTVSPropertyOp36
 70
     1
102
RTVSPropertyOp37
 70
     1
102
RTVSPropertyOp38
 70
     1
102
RTVSPropertyOp39
 70
     1
102
RTVSPropertyOp40
 70
     1
102
RTVSPropertyOp41
 70
     1
102
RTVSPropertyOp42
 70
     1
102
RTVSPropertyOp43
 70
     1
102
RTVSPropertyOp44
 70
     1
102
RTVSPropertyOp45
 70
     1
102
RTVSPropertyOp46
 70
     1
102
RTVSPropertyOp47
 70
     1
102
RTVSPropertyOp48
 70
     1
102
RTVSPropertyOp49
 70
     1
102
RTVSPropertyOp50
 70
     1
102
RTVSPropertyOp51
 70
     0
102
RTVSPropertyOp52
 70
     0
102
RTVSPropertyOp53
 70
     1
102
RTVSPropertyOp54
 70
     1
102
RTVSPropertyOp55
 70
     1
102
RTVSPropertyOp56
 70
     1
102
RTVSPropertyOp57
 70
     1
102
RTVSPropertyOp58
 70
     1
102
RTVSPropertyOp59
 70
     1
102
RTVSPropertyOp60
 70
     1
102
RTVSPropertyOp61
 70
     1
102
RTVSPropertyOp62
 70
     1
  0
XRECORD
  5
85EE
102
{ACAD_REACTORS
330
85ED
102
}
330
85ED
100
AcDbXrecord
280
     1
102
RTVSPost2010Prop28
280
     0
102
RTVSPost2010PropOp28
 70
     1
102
RTVSPost2010Prop29
280
     1
102
RTVSPost2010PropOp29
 70
     1
102
RTVSPost2010Prop30
280
     1
102
RTVSPost2010PropOp30
 70
     1
102
RTVSPost2010Prop31
280
     0
102
RTVSPost2010PropOp31
 70
     1
102
RTVSPost2010Prop32
280
     0
102
RTVSPost2010PropOp32
 70
     1
102
RTVSPost2010Prop33
280
     0
102
RTVSPost2010PropOp33
 70
     1
102
RTVSPost2010Prop34
280
     0
102
RTVSPost2010PropOp34
 70
     1
102
RTVSPost2010Prop35
280
     0
102
RTVSPost2010PropOp35
 70
     1
102
RTVSPost2010Prop36
280
     0
102
RTVSPost2010PropOp36
 70
     1
102
RTVSPost2010Prop37
 90
       50
102
RTVSPost2010PropOp37
 70
     1
102
RTVSPost2010Prop38
140
0.0
102
RTVSPost2010PropOp38
 70
     1
102
RTVSPost2010Prop39
140
1.0
102
RTVSPost2010PropOp39
 70
     1
102
RTVSPost2010Prop40
 90
        0
102
RTVSPost2010PropOp40
 70
     1
102
RTVSPost2010Prop41ColorIndex
 90
       18
102
RTVSPost2010Prop41ColorRGB
 90
        0
102
RTVSPost2010PropOp41
 70
     1
102
RTVSPost2010Prop42
 90
       50
102
RTVSPost2010PropOp42
 70
     1
102
RTVSPost2010Prop43
 90
        3
102
RTVSPost2010PropOp43
 70
     1
102
RTVSPost2010Prop44ColorIndex
 90
        5
102
RTVSPost2010Prop44ColorRGB
 90
      255
102
RTVSPost2010PropOp44
 70
     1
102
RTVSPost2010Prop45
280
     0
102
RTVSPost2010PropOp45
 70
     1
102
RTVSPost2010Prop46
 90
       50
102
RTVSPost2010PropOp46
 70
     1
102
RTVSPost2010Prop47
 90
       50
102
RTVSPost2010PropOp47
 70
     1
102
RTVSPost2010Prop48
 90
       50
102
RTVSPost2010PropOp48
 70
     1
102
RTVSPost2010Prop49
280
     0
102
RTVSPost2010PropOp49
 70
     1
102
RTVSPost2010Prop50
 90
       50
102
RTVSPost2010PropOp50
 70
     1
102
RTVSPost2010Prop51ColorIndex
 90
      256
102
RTVSPost2010Prop51ColorRGB
 90
-16777216
102
RTVSPost2010PropOp51
 70
     0
102
RTVSPost2010Prop52
140
1.0
102
RTVSPost2010PropOp52
 70
     0
102
RTVSPost2010Prop53
 90
        2
102
RTVSPost2010PropOp53
 70
     1
102
RTVSPost2010Prop54
  1
strokes_ogs.tif
102
RTVSPost2010PropOp54
 70
     1
102
RTVSPost2010Prop55
280
     0
102
RTVSPost2010PropOp55
 70
     1
102
RTVSPost2010Prop56
140
1.0
102
RTVSPost2010PropOp56
 70
     1
102
RTVSPost2010Prop57
140
1.0
102
RTVSPost2010PropOp57
 70
     1
102
RTVSPropertyOp0
 70
     1
102
RTVSPropertyOp1
 70
     1
102
RTVSPropertyOp2
 70
     1
102
RTVSPropertyOp3
 70
     1
102
RTVSPropertyOp4
 70
     1
102
RTVSPropertyOp5
 70
     1
102
RTVSPropertyOp6
 70
     1
102
RTVSPropertyOp7
 70
     1
102
RTVSPropertyOp8
 70
     1
102
RTVSPropertyOp9
 70
     1
102
RTVSPropertyOp10
 70
     1
102
RTVSPropertyOp11
 70
     1
102
RTVSPropertyOp12
 70
     1
102
RTVSPropertyOp13
 70
     1
102
RTVSPropertyOp14
 70
     1
102
RTVSPropertyOp15
 70
     1
102
RTVSPropertyOp16
 70
     1
102
RTVSPropertyOp17
 70
     1
102
RTVSPropertyOp18
 70
     1
102
RTVSPropertyOp19
 70
     1
102
RTVSPropertyOp20
 70
     1
102
RTVSPropertyOp21
 70
     1
102
RTVSPropertyOp22
 70
     1
102
RTVSPropertyOp23
 70
     1
102
RTVSPropertyOp24
 70
     1
102
RTVSPropertyOp25
 70
     1
102
RTVSPropertyOp26
 70
     1
102
RTVSPropertyOp27
 70
     1
102
RTVSPropertyOp28
 70
     1
102
RTVSPropertyOp29
 70
     1
102
RTVSPropertyOp30
 70
     1
102
RTVSPropertyOp31
 70
     1
102
RTVSPropertyOp32
 70
     1
102
RTVSPropertyOp33
 70
     1
102
RTVSPropertyOp34
 70
     1
102
RTVSPropertyOp35
 70
     1
102
RTVSPropertyOp36
 70
     1
102
RTVSPropertyOp37
 70
     1
102
RTVSPropertyOp38
 70
     1
102
RTVSPropertyOp39
 70
     1
102
RTVSPropertyOp40
 70
     1
102
RTVSPropertyOp41
 70
     1
102
RTVSPropertyOp42
 70
     1
102
RTVSPropertyOp43
 70
     1
102
RTVSPropertyOp44
 70
     1
102
RTVSPropertyOp45
 70
     1
102
RTVSPropertyOp46
 70
     1
102
RTVSPropertyOp47
 70
     1
102
RTVSPropertyOp48
 70
     1
102
RTVSPropertyOp49
 70
     1
102
RTVSPropertyOp50
 70
     1
102
RTVSPropertyOp51
 70
     0
102
RTVSPropertyOp52
 70
     0
102
RTVSPropertyOp53
 70
     1
102
RTVSPropertyOp54
 70
     1
102
RTVSPropertyOp55
 70
     1
102
RTVSPropertyOp56
 70
     1
102
RTVSPropertyOp57
 70
     1
102
RTVSPropertyOp58
 70
     1
102
RTVSPropertyOp59
 70
     1
102
RTVSPropertyOp60
 70
     1
102
RTVSPropertyOp61
 70
     1
102
RTVSPropertyOp62
 70
     1
  0
XRECORD
  5
85F0
102
{ACAD_REACTORS
330
85EF
102
}
330
85EF
100
AcDbXrecord
280
     1
102
RTVSPost2010Prop28
280
     0
102
RTVSPost2010PropOp28
 70
     1
102
RTVSPost2010Prop29
280
     1
102
RTVSPost2010PropOp29
 70
     1
102
RTVSPost2010Prop30
280
     1
102
RTVSPost2010PropOp30
 70
     1
102
RTVSPost2010Prop31
280
     0
102
RTVSPost2010PropOp31
 70
     1
102
RTVSPost2010Prop32
280
     0
102
RTVSPost2010PropOp32
 70
     1
102
RTVSPost2010Prop33
280
     0
102
RTVSPost2010PropOp33
 70
     1
102
RTVSPost2010Prop34
280
     0
102
RTVSPost2010PropOp34
 70
     1
102
RTVSPost2010Prop35
280
     0
102
RTVSPost2010PropOp35
 70
     1
102
RTVSPost2010Prop36
280
     0
102
RTVSPost2010PropOp36
 70
     1
102
RTVSPost2010Prop37
 90
       50
102
RTVSPost2010PropOp37
 70
     1
102
RTVSPost2010Prop38
140
0.0
102
RTVSPost2010PropOp38
 70
     1
102
RTVSPost2010Prop39
140
1.0
102
RTVSPost2010PropOp39
 70
     1
102
RTVSPost2010Prop40
 90
        0
102
RTVSPost2010PropOp40
 70
     1
102
RTVSPost2010Prop41ColorIndex
 90
       18
102
RTVSPost2010Prop41ColorRGB
 90
        0
102
RTVSPost2010PropOp41
 70
     1
102
RTVSPost2010Prop42
 90
       50
102
RTVSPost2010PropOp42
 70
     1
102
RTVSPost2010Prop43
 90
        3
102
RTVSPost2010PropOp43
 70
     1
102
RTVSPost2010Prop44ColorIndex
 90
        5
102
RTVSPost2010Prop44ColorRGB
 90
      255
102
RTVSPost2010PropOp44
 70
     1
102
RTVSPost2010Prop45
280
     0
102
RTVSPost2010PropOp45
 70
     1
102
RTVSPost2010Prop46
 90
       50
102
RTVSPost2010PropOp46
 70
     1
102
RTVSPost2010Prop47
 90
       50
102
RTVSPost2010PropOp47
 70
     1
102
RTVSPost2010Prop48
 90
       50
102
RTVSPost2010PropOp48
 70
     1
102
RTVSPost2010Prop49
280
     0
102
RTVSPost2010PropOp49
 70
     1
102
RTVSPost2010Prop50
 90
       50
102
RTVSPost2010PropOp50
 70
     1
102
RTVSPost2010Prop51ColorIndex
 90
      256
102
RTVSPost2010Prop51ColorRGB
 90
-16777216
102
RTVSPost2010PropOp51
 70
     0
102
RTVSPost2010Prop52
140
1.0
102
RTVSPost2010PropOp52
 70
     0
102
RTVSPost2010Prop53
 90
        2
102
RTVSPost2010PropOp53
 70
     1
102
RTVSPost2010Prop54
  1
strokes_ogs.tif
102
RTVSPost2010PropOp54
 70
     1
102
RTVSPost2010Prop55
280
     0
102
RTVSPost2010PropOp55
 70
     1
102
RTVSPost2010Prop56
140
1.0
102
RTVSPost2010PropOp56
 70
     1
102
RTVSPost2010Prop57
140
1.0
102
RTVSPost2010PropOp57
 70
     1
102
RTVSPropertyOp0
 70
     1
102
RTVSPropertyOp1
 70
     1
102
RTVSPropertyOp2
 70
     1
102
RTVSPropertyOp3
 70
     1
102
RTVSPropertyOp4
 70
     1
102
RTVSPropertyOp5
 70
     1
102
RTVSPropertyOp6
 70
     1
102
RTVSPropertyOp7
 70
     1
102
RTVSPropertyOp8
 70
     1
102
RTVSPropertyOp9
 70
     1
102
RTVSPropertyOp10
 70
     1
102
RTVSPropertyOp11
 70
     1
102
RTVSPropertyOp12
 70
     1
102
RTVSPropertyOp13
 70
     1
102
RTVSPropertyOp14
 70
     1
102
RTVSPropertyOp15
 70
     1
102
RTVSPropertyOp16
 70
     1
102
RTVSPropertyOp17
 70
     1
102
RTVSPropertyOp18
 70
     1
102
RTVSPropertyOp19
 70
     1
102
RTVSPropertyOp20
 70
     1
102
RTVSPropertyOp21
 70
     1
102
RTVSPropertyOp22
 70
     1
102
RTVSPropertyOp23
 70
     1
102
RTVSPropertyOp24
 70
     1
102
RTVSPropertyOp25
 70
     1
102
RTVSPropertyOp26
 70
     1
102
RTVSPropertyOp27
 70
     1
102
RTVSPropertyOp28
 70
     1
102
RTVSPropertyOp29
 70
     1
102
RTVSPropertyOp30
 70
     1
102
RTVSPropertyOp31
 70
     1
102
RTVSPropertyOp32
 70
     1
102
RTVSPropertyOp33
 70
     1
102
RTVSPropertyOp34
 70
     1
102
RTVSPropertyOp35
 70
     1
102
RTVSPropertyOp36
 70
     1
102
RTVSPropertyOp37
 70
     1
102
RTVSPropertyOp38
 70
     1
102
RTVSPropertyOp39
 70
     1
102
RTVSPropertyOp40
 70
     1
102
RTVSPropertyOp41
 70
     1
102
RTVSPropertyOp42
 70
     1
102
RTVSPropertyOp43
 70
     1
102
RTVSPropertyOp44
 70
     1
102
RTVSPropertyOp45
 70
     1
102
RTVSPropertyOp46
 70
     1
102
RTVSPropertyOp47
 70
     1
102
RTVSPropertyOp48
 70
     1
102
RTVSPropertyOp49
 70
     1
102
RTVSPropertyOp50
 70
     1
102
RTVSPropertyOp51
 70
     0
102
RTVSPropertyOp52
 70
     0
102
RTVSPropertyOp53
 70
     1
102
RTVSPropertyOp54
 70
     1
102
RTVSPropertyOp55
 70
     1
102
RTVSPropertyOp56
 70
     1
102
RTVSPropertyOp57
 70
     1
102
RTVSPropertyOp58
 70
     1
102
RTVSPropertyOp59
 70
     1
102
RTVSPropertyOp60
 70
     1
102
RTVSPropertyOp61
 70
     1
102
RTVSPropertyOp62
 70
     1
  0
XRECORD
  5
85F2
102
{ACAD_REACTORS
330
85F1
102
}
330
85F1
100
AcDbXrecord
280
     1
102
RTVSPost2010Prop28
280
     0
102
RTVSPost2010PropOp28
 70
     1
102
RTVSPost2010Prop29
280
     1
102
RTVSPost2010PropOp29
 70
     1
102
RTVSPost2010Prop30
280
     1
102
RTVSPost2010PropOp30
 70
     1
102
RTVSPost2010Prop31
280
     0
102
RTVSPost2010PropOp31
 70
     1
102
RTVSPost2010Prop32
280
     0
102
RTVSPost2010PropOp32
 70
     1
102
RTVSPost2010Prop33
280
     0
102
RTVSPost2010PropOp33
 70
     1
102
RTVSPost2010Prop34
280
     0
102
RTVSPost2010PropOp34
 70
     1
102
RTVSPost2010Prop35
280
     0
102
RTVSPost2010PropOp35
 70
     1
102
RTVSPost2010Prop36
280
     0
102
RTVSPost2010PropOp36
 70
     1
102
RTVSPost2010Prop37
 90
       50
102
RTVSPost2010PropOp37
 70
     1
102
RTVSPost2010Prop38
140
0.0
102
RTVSPost2010PropOp38
 70
     1
102
RTVSPost2010Prop39
140
1.0
102
RTVSPost2010PropOp39
 70
     1
102
RTVSPost2010Prop40
 90
        0
102
RTVSPost2010PropOp40
 70
     1
102
RTVSPost2010Prop41ColorIndex
 90
       18
102
RTVSPost2010Prop41ColorRGB
 90
        0
102
RTVSPost2010PropOp41
 70
     1
102
RTVSPost2010Prop42
 90
       50
102
RTVSPost2010PropOp42
 70
     1
102
RTVSPost2010Prop43
 90
        3
102
RTVSPost2010PropOp43
 70
     1
102
RTVSPost2010Prop44ColorIndex
 90
        5
102
RTVSPost2010Prop44ColorRGB
 90
      255
102
RTVSPost2010PropOp44
 70
     1
102
RTVSPost2010Prop45
280
     0
102
RTVSPost2010PropOp45
 70
     1
102
RTVSPost2010Prop46
 90
       50
102
RTVSPost2010PropOp46
 70
     1
102
RTVSPost2010Prop47
 90
       50
102
RTVSPost2010PropOp47
 70
     1
102
RTVSPost2010Prop48
 90
       50
102
RTVSPost2010PropOp48
 70
     1
102
RTVSPost2010Prop49
280
     0
102
RTVSPost2010PropOp49
 70
     1
102
RTVSPost2010Prop50
 90
       50
102
RTVSPost2010PropOp50
 70
     1
102
RTVSPost2010Prop51ColorIndex
 90
      256
102
RTVSPost2010Prop51ColorRGB
 90
-16777216
102
RTVSPost2010PropOp51
 70
     0
102
RTVSPost2010Prop52
140
1.0
102
RTVSPost2010PropOp52
 70
     0
102
RTVSPost2010Prop53
 90
        2
102
RTVSPost2010PropOp53
 70
     1
102
RTVSPost2010Prop54
  1
strokes_ogs.tif
102
RTVSPost2010PropOp54
 70
     1
102
RTVSPost2010Prop55
280
     0
102
RTVSPost2010PropOp55
 70
     1
102
RTVSPost2010Prop56
140
1.0
102
RTVSPost2010PropOp56
 70
     1
102
RTVSPost2010Prop57
140
1.0
102
RTVSPost2010PropOp57
 70
     1
102
RTVSPropertyOp0
 70
     1
102
RTVSPropertyOp1
 70
     1
102
RTVSPropertyOp2
 70
     1
102
RTVSPropertyOp3
 70
     1
102
RTVSPropertyOp4
 70
     1
102
RTVSPropertyOp5
 70
     1
102
RTVSPropertyOp6
 70
     1
102
RTVSPropertyOp7
 70
     1
102
RTVSPropertyOp8
 70
     1
102
RTVSPropertyOp9
 70
     1
102
RTVSPropertyOp10
 70
     1
102
RTVSPropertyOp11
 70
     1
102
RTVSPropertyOp12
 70
     1
102
RTVSPropertyOp13
 70
     1
102
RTVSPropertyOp14
 70
     1
102
RTVSPropertyOp15
 70
     1
102
RTVSPropertyOp16
 70
     1
102
RTVSPropertyOp17
 70
     1
102
RTVSPropertyOp18
 70
     1
102
RTVSPropertyOp19
 70
     1
102
RTVSPropertyOp20
 70
     1
102
RTVSPropertyOp21
 70
     1
102
RTVSPropertyOp22
 70
     1
102
RTVSPropertyOp23
 70
     1
102
RTVSPropertyOp24
 70
     1
102
RTVSPropertyOp25
 70
     1
102
RTVSPropertyOp26
 70
     1
102
RTVSPropertyOp27
 70
     1
102
RTVSPropertyOp28
 70
     1
102
RTVSPropertyOp29
 70
     1
102
RTVSPropertyOp30
 70
     1
102
RTVSPropertyOp31
 70
     1
102
RTVSPropertyOp32
 70
     1
102
RTVSPropertyOp33
 70
     1
102
RTVSPropertyOp34
 70
     1
102
RTVSPropertyOp35
 70
     1
102
RTVSPropertyOp36
 70
     1
102
RTVSPropertyOp37
 70
     1
102
RTVSPropertyOp38
 70
     1
102
RTVSPropertyOp39
 70
     1
102
RTVSPropertyOp40
 70
     1
102
RTVSPropertyOp41
 70
     1
102
RTVSPropertyOp42
 70
     1
102
RTVSPropertyOp43
 70
     1
102
RTVSPropertyOp44
 70
     1
102
RTVSPropertyOp45
 70
     1
102
RTVSPropertyOp46
 70
     1
102
RTVSPropertyOp47
 70
     1
102
RTVSPropertyOp48
 70
     1
102
RTVSPropertyOp49
 70
     1
102
RTVSPropertyOp50
 70
     1
102
RTVSPropertyOp51
 70
     0
102
RTVSPropertyOp52
 70
     0
102
RTVSPropertyOp53
 70
     1
102
RTVSPropertyOp54
 70
     1
102
RTVSPropertyOp55
 70
     1
102
RTVSPropertyOp56
 70
     1
102
RTVSPropertyOp57
 70
     1
102
RTVSPropertyOp58
 70
     1
102
RTVSPropertyOp59
 70
     1
102
RTVSPropertyOp60
 70
     1
102
RTVSPropertyOp61
 70
     1
102
RTVSPropertyOp62
 70
     1
  0
XRECORD
  5
85FA
102
{ACAD_REACTORS
330
85F9
102
}
330
85F9
100
AcDbXrecord
280
     1
102
RTVSPost2010Prop28
280
     0
102
RTVSPost2010PropOp28
 70
     1
102
RTVSPost2010Prop29
280
     1
102
RTVSPost2010PropOp29
 70
     1
102
RTVSPost2010Prop30
280
     1
102
RTVSPost2010PropOp30
 70
     1
102
RTVSPost2010Prop31
280
     0
102
RTVSPost2010PropOp31
 70
     1
102
RTVSPost2010Prop32
280
     0
102
RTVSPost2010PropOp32
 70
     1
102
RTVSPost2010Prop33
280
     0
102
RTVSPost2010PropOp33
 70
     1
102
RTVSPost2010Prop34
280
     0
102
RTVSPost2010PropOp34
 70
     1
102
RTVSPost2010Prop35
280
     0
102
RTVSPost2010PropOp35
 70
     1
102
RTVSPost2010Prop36
280
     0
102
RTVSPost2010PropOp36
 70
     1
102
RTVSPost2010Prop37
 90
       50
102
RTVSPost2010PropOp37
 70
     1
102
RTVSPost2010Prop38
140
0.0
102
RTVSPost2010PropOp38
 70
     1
102
RTVSPost2010Prop39
140
1.0
102
RTVSPost2010PropOp39
 70
     1
102
RTVSPost2010Prop40
 90
        0
102
RTVSPost2010PropOp40
 70
     1
102
RTVSPost2010Prop41ColorIndex
 90
       18
102
RTVSPost2010Prop41ColorRGB
 90
        0
102
RTVSPost2010PropOp41
 70
     1
102
RTVSPost2010Prop42
 90
       50
102
RTVSPost2010PropOp42
 70
     1
102
RTVSPost2010Prop43
 90
        3
102
RTVSPost2010PropOp43
 70
     1
102
RTVSPost2010Prop44ColorIndex
 90
        5
102
RTVSPost2010Prop44ColorRGB
 90
      255
102
RTVSPost2010PropOp44
 70
     1
102
RTVSPost2010Prop45
280
     0
102
RTVSPost2010PropOp45
 70
     1
102
RTVSPost2010Prop46
 90
       50
102
RTVSPost2010PropOp46
 70
     1
102
RTVSPost2010Prop47
 90
       50
102
RTVSPost2010PropOp47
 70
     1
102
RTVSPost2010Prop48
 90
       50
102
RTVSPost2010PropOp48
 70
     1
102
RTVSPost2010Prop49
280
     0
102
RTVSPost2010PropOp49
 70
     1
102
RTVSPost2010Prop50
 90
       50
102
RTVSPost2010PropOp50
 70
     1
102
RTVSPost2010Prop51ColorIndex
 90
      256
102
RTVSPost2010Prop51ColorRGB
 90
-16777216
102
RTVSPost2010PropOp51
 70
     0
102
RTVSPost2010Prop52
140
1.0
102
RTVSPost2010PropOp52
 70
     0
102
RTVSPost2010Prop53
 90
        2
102
RTVSPost2010PropOp53
 70
     1
102
RTVSPost2010Prop54
  1
strokes_ogs.tif
102
RTVSPost2010PropOp54
 70
     1
102
RTVSPost2010Prop55
280
     0
102
RTVSPost2010PropOp55
 70
     1
102
RTVSPost2010Prop56
140
1.0
102
RTVSPost2010PropOp56
 70
     1
102
RTVSPost2010Prop57
140
1.0
102
RTVSPost2010PropOp57
 70
     1
102
RTVSPropertyOp0
 70
     1
102
RTVSPropertyOp1
 70
     1
102
RTVSPropertyOp2
 70
     1
102
RTVSPropertyOp3
 70
     1
102
RTVSPropertyOp4
 70
     1
102
RTVSPropertyOp5
 70
     1
102
RTVSPropertyOp6
 70
     1
102
RTVSPropertyOp7
 70
     1
102
RTVSPropertyOp8
 70
     1
102
RTVSPropertyOp9
 70
     1
102
RTVSPropertyOp10
 70
     1
102
RTVSPropertyOp11
 70
     1
102
RTVSPropertyOp12
 70
     1
102
RTVSPropertyOp13
 70
     1
102
RTVSPropertyOp14
 70
     1
102
RTVSPropertyOp15
 70
     1
102
RTVSPropertyOp16
 70
     1
102
RTVSPropertyOp17
 70
     1
102
RTVSPropertyOp18
 70
     1
102
RTVSPropertyOp19
 70
     1
102
RTVSPropertyOp20
 70
     1
102
RTVSPropertyOp21
 70
     1
102
RTVSPropertyOp22
 70
     1
102
RTVSPropertyOp23
 70
     1
102
RTVSPropertyOp24
 70
     1
102
RTVSPropertyOp25
 70
     1
102
RTVSPropertyOp26
 70
     1
102
RTVSPropertyOp27
 70
     1
102
RTVSPropertyOp28
 70
     1
102
RTVSPropertyOp29
 70
     1
102
RTVSPropertyOp30
 70
     1
102
RTVSPropertyOp31
 70
     1
102
RTVSPropertyOp32
 70
     1
102
RTVSPropertyOp33
 70
     1
102
RTVSPropertyOp34
 70
     1
102
RTVSPropertyOp35
 70
     1
102
RTVSPropertyOp36
 70
     1
102
RTVSPropertyOp37
 70
     1
102
RTVSPropertyOp38
 70
     1
102
RTVSPropertyOp39
 70
     1
102
RTVSPropertyOp40
 70
     1
102
RTVSPropertyOp41
 70
     1
102
RTVSPropertyOp42
 70
     1
102
RTVSPropertyOp43
 70
     1
102
RTVSPropertyOp44
 70
     1
102
RTVSPropertyOp45
 70
     1
102
RTVSPropertyOp46
 70
     1
102
RTVSPropertyOp47
 70
     1
102
RTVSPropertyOp48
 70
     1
102
RTVSPropertyOp49
 70
     1
102
RTVSPropertyOp50
 70
     1
102
RTVSPropertyOp51
 70
     0
102
RTVSPropertyOp52
 70
     0
102
RTVSPropertyOp53
 70
     1
102
RTVSPropertyOp54
 70
     1
102
RTVSPropertyOp55
 70
     1
102
RTVSPropertyOp56
 70
     1
102
RTVSPropertyOp57
 70
     1
102
RTVSPropertyOp58
 70
     1
102
RTVSPropertyOp59
 70
     1
102
RTVSPropertyOp60
 70
     1
102
RTVSPropertyOp61
 70
     1
102
RTVSPropertyOp62
 70
     1
  0
XRECORD
  5
8616
102
{ACAD_REACTORS
330
8615
102
}
330
8615
100
AcDbXrecord
280
     1
102
RTVSPost2010Prop28
280
     0
102
RTVSPost2010PropOp28
 70
     1
102
RTVSPost2010Prop29
280
     1
102
RTVSPost2010PropOp29
 70
     1
102
RTVSPost2010Prop30
280
     1
102
RTVSPost2010PropOp30
 70
     1
102
RTVSPost2010Prop31
280
     0
102
RTVSPost2010PropOp31
 70
     1
102
RTVSPost2010Prop32
280
     0
102
RTVSPost2010PropOp32
 70
     1
102
RTVSPost2010Prop33
280
     0
102
RTVSPost2010PropOp33
 70
     1
102
RTVSPost2010Prop34
280
     0
102
RTVSPost2010PropOp34
 70
     1
102
RTVSPost2010Prop35
280
     0
102
RTVSPost2010PropOp35
 70
     1
102
RTVSPost2010Prop36
280
     0
102
RTVSPost2010PropOp36
 70
     1
102
RTVSPost2010Prop37
 90
       50
102
RTVSPost2010PropOp37
 70
     0
102
RTVSPost2010Prop38
140
0.0
102
RTVSPost2010PropOp38
 70
     0
102
RTVSPost2010Prop39
140
1.0
102
RTVSPost2010PropOp39
 70
     0
102
RTVSPost2010Prop40
 90
        0
102
RTVSPost2010PropOp40
 70
     0
102
RTVSPost2010Prop41ColorIndex
 90
       18
102
RTVSPost2010Prop41ColorRGB
 90
        0
102
RTVSPost2010PropOp41
 70
     0
102
RTVSPost2010Prop42
 90
       50
102
RTVSPost2010PropOp42
 70
     0
102
RTVSPost2010Prop43
 90
        3
102
RTVSPost2010PropOp43
 70
     0
102
RTVSPost2010Prop44ColorIndex
 90
        5
102
RTVSPost2010Prop44ColorRGB
 90
      255
102
RTVSPost2010PropOp44
 70
     0
102
RTVSPost2010Prop45
280
     0
102
RTVSPost2010PropOp45
 70
     1
102
RTVSPost2010Prop46
 90
       50
102
RTVSPost2010PropOp46
 70
     0
102
RTVSPost2010Prop47
 90
       50
102
RTVSPost2010PropOp47
 70
     0
102
RTVSPost2010Prop48
 90
       50
102
RTVSPost2010PropOp48
 70
     0
102
RTVSPost2010Prop49
280
     0
102
RTVSPost2010PropOp49
 70
     1
102
RTVSPost2010Prop50
 90
       50
102
RTVSPost2010PropOp50
 70
     0
102
RTVSPost2010Prop51ColorIndex
 90
      256
102
RTVSPost2010Prop51ColorRGB
 90
-16777216
102
RTVSPost2010PropOp51
 70
     0
102
RTVSPost2010Prop52
140
1.0
102
RTVSPost2010PropOp52
 70
     0
102
RTVSPost2010Prop53
 90
        2
102
RTVSPost2010PropOp53
 70
     0
102
RTVSPost2010Prop54
  1
strokes_ogs.tif
102
RTVSPost2010PropOp54
 70
     0
102
RTVSPost2010Prop55
280
     0
102
RTVSPost2010PropOp55
 70
     1
102
RTVSPost2010Prop56
140
1.0
102
RTVSPost2010PropOp56
 70
     0
102
RTVSPost2010Prop57
140
1.0
102
RTVSPost2010PropOp57
 70
     0
102
RTVSPropertyOp0
 70
     0
102
RTVSPropertyOp1
 70
     0
102
RTVSPropertyOp2
 70
     0
102
RTVSPropertyOp3
 70
     0
102
RTVSPropertyOp4
 70
     0
102
RTVSPropertyOp5
 70
     0
102
RTVSPropertyOp6
 70
     0
102
RTVSPropertyOp7
 70
     0
102
RTVSPropertyOp8
 70
     0
102
RTVSPropertyOp9
 70
     0
102
RTVSPropertyOp10
 70
     0
102
RTVSPropertyOp11
 70
     0
102
RTVSPropertyOp12
 70
     0
102
RTVSPropertyOp13
 70
     0
102
RTVSPropertyOp14
 70
     2
102
RTVSPropertyOp15
 70
     0
102
RTVSPropertyOp16
 70
     0
102
RTVSPropertyOp17
 70
     0
102
RTVSPropertyOp18
 70
     0
102
RTVSPropertyOp19
 70
     0
102
RTVSPropertyOp20
 70
     0
102
RTVSPropertyOp21
 70
     0
102
RTVSPropertyOp22
 70
     0
102
RTVSPropertyOp23
 70
     0
102
RTVSPropertyOp24
 70
     0
102
RTVSPropertyOp25
 70
     0
102
RTVSPropertyOp26
 70
     0
102
RTVSPropertyOp27
 70
     0
102
RTVSPropertyOp28
 70
     1
102
RTVSPropertyOp29
 70
     1
102
RTVSPropertyOp30
 70
     1
102
RTVSPropertyOp31
 70
     1
102
RTVSPropertyOp32
 70
     1
102
RTVSPropertyOp33
 70
     1
102
RTVSPropertyOp34
 70
     1
102
RTVSPropertyOp35
 70
     1
102
RTVSPropertyOp36
 70
     1
102
RTVSPropertyOp37
 70
     0
102
RTVSPropertyOp38
 70
     0
102
RTVSPropertyOp39
 70
     0
102
RTVSPropertyOp40
 70
     0
102
RTVSPropertyOp41
 70
     0
102
RTVSPropertyOp42
 70
     0
102
RTVSPropertyOp43
 70
     0
102
RTVSPropertyOp44
 70
     0
102
RTVSPropertyOp45
 70
     1
102
RTVSPropertyOp46
 70
     0
102
RTVSPropertyOp47
 70
     0
102
RTVSPropertyOp48
 70
     0
102
RTVSPropertyOp49
 70
     1
102
RTVSPropertyOp50
 70
     0
102
RTVSPropertyOp51
 70
     0
102
RTVSPropertyOp52
 70
     0
102
RTVSPropertyOp53
 70
     0
102
RTVSPropertyOp54
 70
     0
102
RTVSPropertyOp55
 70
     1
102
RTVSPropertyOp56
 70
     0
102
RTVSPropertyOp57
 70
     0
102
RTVSPropertyOp58
 70
     0
102
RTVSPropertyOp59
 70
     0
102
RTVSPropertyOp60
 70
     0
102
RTVSPropertyOp61
 70
     0
102
RTVSPropertyOp62
 70
     0
  0
XRECORD
  5
8606
102
{ACAD_REACTORS
330
8605
102
}
330
8605
100
AcDbXrecord
280
     1
102
RTVSPost2010Prop28
280
     0
102
RTVSPost2010PropOp28
 70
     1
102
RTVSPost2010Prop29
280
     1
102
RTVSPost2010PropOp29
 70
     1
102
RTVSPost2010Prop30
280
     1
102
RTVSPost2010PropOp30
 70
     1
102
RTVSPost2010Prop31
280
     0
102
RTVSPost2010PropOp31
 70
     1
102
RTVSPost2010Prop32
280
     0
102
RTVSPost2010PropOp32
 70
     1
102
RTVSPost2010Prop33
280
     0
102
RTVSPost2010PropOp33
 70
     1
102
RTVSPost2010Prop34
280
     0
102
RTVSPost2010PropOp34
 70
     1
102
RTVSPost2010Prop35
280
     0
102
RTVSPost2010PropOp35
 70
     1
102
RTVSPost2010Prop36
280
     0
102
RTVSPost2010PropOp36
 70
     1
102
RTVSPost2010Prop37
 90
       50
102
RTVSPost2010PropOp37
 70
     1
102
RTVSPost2010Prop38
140
0.0
102
RTVSPost2010PropOp38
 70
     1
102
RTVSPost2010Prop39
140
1.0
102
RTVSPost2010PropOp39
 70
     1
102
RTVSPost2010Prop40
 90
        0
102
RTVSPost2010PropOp40
 70
     1
102
RTVSPost2010Prop41ColorIndex
 90
       18
102
RTVSPost2010Prop41ColorRGB
 90
        0
102
RTVSPost2010PropOp41
 70
     1
102
RTVSPost2010Prop42
 90
       50
102
RTVSPost2010PropOp42
 70
     1
102
RTVSPost2010Prop43
 90
        3
102
RTVSPost2010PropOp43
 70
     1
102
RTVSPost2010Prop44ColorIndex
 90
        5
102
RTVSPost2010Prop44ColorRGB
 90
      255
102
RTVSPost2010PropOp44
 70
     1
102
RTVSPost2010Prop45
280
     0
102
RTVSPost2010PropOp45
 70
     1
102
RTVSPost2010Prop46
 90
       50
102
RTVSPost2010PropOp46
 70
     1
102
RTVSPost2010Prop47
 90
       50
102
RTVSPost2010PropOp47
 70
     1
102
RTVSPost2010Prop48
 90
       50
102
RTVSPost2010PropOp48
 70
     1
102
RTVSPost2010Prop49
280
     0
102
RTVSPost2010PropOp49
 70
     1
102
RTVSPost2010Prop50
 90
       50
102
RTVSPost2010PropOp50
 70
     1
102
RTVSPost2010Prop51ColorIndex
 90
      256
102
RTVSPost2010Prop51ColorRGB
 90
-16777216
102
RTVSPost2010PropOp51
 70
     0
102
RTVSPost2010Prop52
140
1.0
102
RTVSPost2010PropOp52
 70
     0
102
RTVSPost2010Prop53
 90
        2
102
RTVSPost2010PropOp53
 70
     1
102
RTVSPost2010Prop54
  1
strokes_ogs.tif
102
RTVSPost2010PropOp54
 70
     1
102
RTVSPost2010Prop55
280
     0
102
RTVSPost2010PropOp55
 70
     1
102
RTVSPost2010Prop56
140
1.0
102
RTVSPost2010PropOp56
 70
     1
102
RTVSPost2010Prop57
140
1.0
102
RTVSPost2010PropOp57
 70
     1
102
RTVSPropertyOp0
 70
     1
102
RTVSPropertyOp1
 70
     1
102
RTVSPropertyOp2
 70
     1
102
RTVSPropertyOp3
 70
     1
102
RTVSPropertyOp4
 70
     1
102
RTVSPropertyOp5
 70
     1
102
RTVSPropertyOp6
 70
     1
102
RTVSPropertyOp7
 70
     1
102
RTVSPropertyOp8
 70
     1
102
RTVSPropertyOp9
 70
     1
102
RTVSPropertyOp10
 70
     1
102
RTVSPropertyOp11
 70
     1
102
RTVSPropertyOp12
 70
     1
102
RTVSPropertyOp13
 70
     1
102
RTVSPropertyOp14
 70
     1
102
RTVSPropertyOp15
 70
     1
102
RTVSPropertyOp16
 70
     1
102
RTVSPropertyOp17
 70
     1
102
RTVSPropertyOp18
 70
     1
102
RTVSPropertyOp19
 70
     1
102
RTVSPropertyOp20
 70
     1
102
RTVSPropertyOp21
 70
     1
102
RTVSPropertyOp22
 70
     1
102
RTVSPropertyOp23
 70
     1
102
RTVSPropertyOp24
 70
     1
102
RTVSPropertyOp25
 70
     1
102
RTVSPropertyOp26
 70
     1
102
RTVSPropertyOp27
 70
     1
102
RTVSPropertyOp28
 70
     1
102
RTVSPropertyOp29
 70
     1
102
RTVSPropertyOp30
 70
     1
102
RTVSPropertyOp31
 70
     1
102
RTVSPropertyOp32
 70
     1
102
RTVSPropertyOp33
 70
     1
102
RTVSPropertyOp34
 70
     1
102
RTVSPropertyOp35
 70
     1
102
RTVSPropertyOp36
 70
     1
102
RTVSPropertyOp37
 70
     1
102
RTVSPropertyOp38
 70
     1
102
RTVSPropertyOp39
 70
     1
102
RTVSPropertyOp40
 70
     1
102
RTVSPropertyOp41
 70
     1
102
RTVSPropertyOp42
 70
     1
102
RTVSPropertyOp43
 70
     1
102
RTVSPropertyOp44
 70
     1
102
RTVSPropertyOp45
 70
     1
102
RTVSPropertyOp46
 70
     1
102
RTVSPropertyOp47
 70
     1
102
RTVSPropertyOp48
 70
     1
102
RTVSPropertyOp49
 70
     1
102
RTVSPropertyOp50
 70
     1
102
RTVSPropertyOp51
 70
     0
102
RTVSPropertyOp52
 70
     0
102
RTVSPropertyOp53
 70
     1
102
RTVSPropertyOp54
 70
     1
102
RTVSPropertyOp55
 70
     1
102
RTVSPropertyOp56
 70
     1
102
RTVSPropertyOp57
 70
     1
102
RTVSPropertyOp58
 70
     1
102
RTVSPropertyOp59
 70
     1
102
RTVSPropertyOp60
 70
     1
102
RTVSPropertyOp61
 70
     1
102
RTVSPropertyOp62
 70
     1
  0
XRECORD
  5
8618
102
{ACAD_REACTORS
330
8617
102
}
330
8617
100
AcDbXrecord
280
     1
102
RTVSPost2010Prop28
280
     0
102
RTVSPost2010PropOp28
 70
     1
102
RTVSPost2010Prop29
280
     1
102
RTVSPost2010PropOp29
 70
     1
102
RTVSPost2010Prop30
280
     1
102
RTVSPost2010PropOp30
 70
     1
102
RTVSPost2010Prop31
280
     0
102
RTVSPost2010PropOp31
 70
     1
102
RTVSPost2010Prop32
280
     0
102
RTVSPost2010PropOp32
 70
     1
102
RTVSPost2010Prop33
280
     0
102
RTVSPost2010PropOp33
 70
     1
102
RTVSPost2010Prop34
280
     0
102
RTVSPost2010PropOp34
 70
     1
102
RTVSPost2010Prop35
280
     0
102
RTVSPost2010PropOp35
 70
     1
102
RTVSPost2010Prop36
280
     0
102
RTVSPost2010PropOp36
 70
     1
102
RTVSPost2010Prop37
 90
       50
102
RTVSPost2010PropOp37
 70
     0
102
RTVSPost2010Prop38
140
0.0
102
RTVSPost2010PropOp38
 70
     0
102
RTVSPost2010Prop39
140
1.0
102
RTVSPost2010PropOp39
 70
     0
102
RTVSPost2010Prop40
 90
        0
102
RTVSPost2010PropOp40
 70
     0
102
RTVSPost2010Prop41ColorIndex
 90
       18
102
RTVSPost2010Prop41ColorRGB
 90
        0
102
RTVSPost2010PropOp41
 70
     0
102
RTVSPost2010Prop42
 90
       50
102
RTVSPost2010PropOp42
 70
     0
102
RTVSPost2010Prop43
 90
        3
102
RTVSPost2010PropOp43
 70
     0
102
RTVSPost2010Prop44ColorIndex
 90
        5
102
RTVSPost2010Prop44ColorRGB
 90
      255
102
RTVSPost2010PropOp44
 70
     0
102
RTVSPost2010Prop45
280
     0
102
RTVSPost2010PropOp45
 70
     1
102
RTVSPost2010Prop46
 90
       50
102
RTVSPost2010PropOp46
 70
     0
102
RTVSPost2010Prop47
 90
       50
102
RTVSPost2010PropOp47
 70
     0
102
RTVSPost2010Prop48
 90
       50
102
RTVSPost2010PropOp48
 70
     0
102
RTVSPost2010Prop49
280
     0
102
RTVSPost2010PropOp49
 70
     1
102
RTVSPost2010Prop50
 90
       50
102
RTVSPost2010PropOp50
 70
     0
102
RTVSPost2010Prop51ColorIndex
 90
      256
102
RTVSPost2010Prop51ColorRGB
 90
-16777216
102
RTVSPost2010PropOp51
 70
     0
102
RTVSPost2010Prop52
140
1.0
102
RTVSPost2010PropOp52
 70
     0
102
RTVSPost2010Prop53
 90
        2
102
RTVSPost2010PropOp53
 70
     0
102
RTVSPost2010Prop54
  1
strokes_ogs.tif
102
RTVSPost2010PropOp54
 70
     0
102
RTVSPost2010Prop55
280
     0
102
RTVSPost2010PropOp55
 70
     1
102
RTVSPost2010Prop56
140
1.0
102
RTVSPost2010PropOp56
 70
     0
102
RTVSPost2010Prop57
140
1.0
102
RTVSPost2010PropOp57
 70
     0
102
RTVSPropertyOp0
 70
     0
102
RTVSPropertyOp1
 70
     0
102
RTVSPropertyOp2
 70
     0
102
RTVSPropertyOp3
 70
     0
102
RTVSPropertyOp4
 70
     0
102
RTVSPropertyOp5
 70
     0
102
RTVSPropertyOp6
 70
     0
102
RTVSPropertyOp7
 70
     0
102
RTVSPropertyOp8
 70
     0
102
RTVSPropertyOp9
 70
     0
102
RTVSPropertyOp10
 70
     0
102
RTVSPropertyOp11
 70
     0
102
RTVSPropertyOp12
 70
     0
102
RTVSPropertyOp13
 70
     0
102
RTVSPropertyOp14
 70
     2
102
RTVSPropertyOp15
 70
     0
102
RTVSPropertyOp16
 70
     0
102
RTVSPropertyOp17
 70
     0
102
RTVSPropertyOp18
 70
     0
102
RTVSPropertyOp19
 70
     0
102
RTVSPropertyOp20
 70
     0
102
RTVSPropertyOp21
 70
     0
102
RTVSPropertyOp22
 70
     0
102
RTVSPropertyOp23
 70
     0
102
RTVSPropertyOp24
 70
     0
102
RTVSPropertyOp25
 70
     0
102
RTVSPropertyOp26
 70
     0
102
RTVSPropertyOp27
 70
     0
102
RTVSPropertyOp28
 70
     1
102
RTVSPropertyOp29
 70
     1
102
RTVSPropertyOp30
 70
     1
102
RTVSPropertyOp31
 70
     1
102
RTVSPropertyOp32
 70
     1
102
RTVSPropertyOp33
 70
     1
102
RTVSPropertyOp34
 70
     1
102
RTVSPropertyOp35
 70
     1
102
RTVSPropertyOp36
 70
     1
102
RTVSPropertyOp37
 70
     0
102
RTVSPropertyOp38
 70
     0
102
RTVSPropertyOp39
 70
     0
102
RTVSPropertyOp40
 70
     0
102
RTVSPropertyOp41
 70
     0
102
RTVSPropertyOp42
 70
     0
102
RTVSPropertyOp43
 70
     0
102
RTVSPropertyOp44
 70
     0
102
RTVSPropertyOp45
 70
     1
102
RTVSPropertyOp46
 70
     0
102
RTVSPropertyOp47
 70
     0
102
RTVSPropertyOp48
 70
     0
102
RTVSPropertyOp49
 70
     1
102
RTVSPropertyOp50
 70
     0
102
RTVSPropertyOp51
 70
     0
102
RTVSPropertyOp52
 70
     0
102
RTVSPropertyOp53
 70
     0
102
RTVSPropertyOp54
 70
     0
102
RTVSPropertyOp55
 70
     1
102
RTVSPropertyOp56
 70
     0
102
RTVSPropertyOp57
 70
     0
102
RTVSPropertyOp58
 70
     0
102
RTVSPropertyOp59
 70
     0
102
RTVSPropertyOp60
 70
     0
102
RTVSPropertyOp61
 70
     0
102
RTVSPropertyOp62
 70
     0
  0
XRECORD
  5
85FE
102
{ACAD_REACTORS
330
85FD
102
}
330
85FD
100
AcDbXrecord
280
     1
102
RTVSPost2010Prop28
280
     0
102
RTVSPost2010PropOp28
 70
     1
102
RTVSPost2010Prop29
280
     1
102
RTVSPost2010PropOp29
 70
     1
102
RTVSPost2010Prop30
280
     1
102
RTVSPost2010PropOp30
 70
     1
102
RTVSPost2010Prop31
280
     0
102
RTVSPost2010PropOp31
 70
     1
102
RTVSPost2010Prop32
280
     0
102
RTVSPost2010PropOp32
 70
     1
102
RTVSPost2010Prop33
280
     0
102
RTVSPost2010PropOp33
 70
     1
102
RTVSPost2010Prop34
280
     0
102
RTVSPost2010PropOp34
 70
     1
102
RTVSPost2010Prop35
280
     0
102
RTVSPost2010PropOp35
 70
     1
102
RTVSPost2010Prop36
280
     0
102
RTVSPost2010PropOp36
 70
     1
102
RTVSPost2010Prop37
 90
       50
102
RTVSPost2010PropOp37
 70
     1
102
RTVSPost2010Prop38
140
0.0
102
RTVSPost2010PropOp38
 70
     1
102
RTVSPost2010Prop39
140
1.0
102
RTVSPost2010PropOp39
 70
     1
102
RTVSPost2010Prop40
 90
        0
102
RTVSPost2010PropOp40
 70
     1
102
RTVSPost2010Prop41ColorIndex
 90
       18
102
RTVSPost2010Prop41ColorRGB
 90
        0
102
RTVSPost2010PropOp41
 70
     1
102
RTVSPost2010Prop42
 90
       50
102
RTVSPost2010PropOp42
 70
     1
102
RTVSPost2010Prop43
 90
        3
102
RTVSPost2010PropOp43
 70
     1
102
RTVSPost2010Prop44ColorIndex
 90
        5
102
RTVSPost2010Prop44ColorRGB
 90
      255
102
RTVSPost2010PropOp44
 70
     1
102
RTVSPost2010Prop45
280
     0
102
RTVSPost2010PropOp45
 70
     1
102
RTVSPost2010Prop46
 90
       50
102
RTVSPost2010PropOp46
 70
     1
102
RTVSPost2010Prop47
 90
       50
102
RTVSPost2010PropOp47
 70
     1
102
RTVSPost2010Prop48
 90
       50
102
RTVSPost2010PropOp48
 70
     1
102
RTVSPost2010Prop49
280
     0
102
RTVSPost2010PropOp49
 70
     1
102
RTVSPost2010Prop50
 90
       50
102
RTVSPost2010PropOp50
 70
     1
102
RTVSPost2010Prop51ColorIndex
 90
      256
102
RTVSPost2010Prop51ColorRGB
 90
-16777216
102
RTVSPost2010PropOp51
 70
     0
102
RTVSPost2010Prop52
140
1.0
102
RTVSPost2010PropOp52
 70
     0
102
RTVSPost2010Prop53
 90
        2
102
RTVSPost2010PropOp53
 70
     1
102
RTVSPost2010Prop54
  1
strokes_ogs.tif
102
RTVSPost2010PropOp54
 70
     1
102
RTVSPost2010Prop55
280
     0
102
RTVSPost2010PropOp55
 70
     1
102
RTVSPost2010Prop56
140
1.0
102
RTVSPost2010PropOp56
 70
     1
102
RTVSPost2010Prop57
140
1.0
102
RTVSPost2010PropOp57
 70
     1
102
RTVSPropertyOp0
 70
     1
102
RTVSPropertyOp1
 70
     1
102
RTVSPropertyOp2
 70
     1
102
RTVSPropertyOp3
 70
     1
102
RTVSPropertyOp4
 70
     1
102
RTVSPropertyOp5
 70
     1
102
RTVSPropertyOp6
 70
     1
102
RTVSPropertyOp7
 70
     1
102
RTVSPropertyOp8
 70
     1
102
RTVSPropertyOp9
 70
     1
102
RTVSPropertyOp10
 70
     1
102
RTVSPropertyOp11
 70
     1
102
RTVSPropertyOp12
 70
     1
102
RTVSPropertyOp13
 70
     1
102
RTVSPropertyOp14
 70
     1
102
RTVSPropertyOp15
 70
     1
102
RTVSPropertyOp16
 70
     1
102
RTVSPropertyOp17
 70
     1
102
RTVSPropertyOp18
 70
     1
102
RTVSPropertyOp19
 70
     1
102
RTVSPropertyOp20
 70
     1
102
RTVSPropertyOp21
 70
     1
102
RTVSPropertyOp22
 70
     1
102
RTVSPropertyOp23
 70
     1
102
RTVSPropertyOp24
 70
     1
102
RTVSPropertyOp25
 70
     1
102
RTVSPropertyOp26
 70
     1
102
RTVSPropertyOp27
 70
     1
102
RTVSPropertyOp28
 70
     1
102
RTVSPropertyOp29
 70
     1
102
RTVSPropertyOp30
 70
     1
102
RTVSPropertyOp31
 70
     1
102
RTVSPropertyOp32
 70
     1
102
RTVSPropertyOp33
 70
     1
102
RTVSPropertyOp34
 70
     1
102
RTVSPropertyOp35
 70
     1
102
RTVSPropertyOp36
 70
     1
102
RTVSPropertyOp37
 70
     1
102
RTVSPropertyOp38
 70
     1
102
RTVSPropertyOp39
 70
     1
102
RTVSPropertyOp40
 70
     1
102
RTVSPropertyOp41
 70
     1
102
RTVSPropertyOp42
 70
     1
102
RTVSPropertyOp43
 70
     1
102
RTVSPropertyOp44
 70
     1
102
RTVSPropertyOp45
 70
     1
102
RTVSPropertyOp46
 70
     1
102
RTVSPropertyOp47
 70
     1
102
RTVSPropertyOp48
 70
     1
102
RTVSPropertyOp49
 70
     1
102
RTVSPropertyOp50
 70
     1
102
RTVSPropertyOp51
 70
     0
102
RTVSPropertyOp52
 70
     0
102
RTVSPropertyOp53
 70
     1
102
RTVSPropertyOp54
 70
     1
102
RTVSPropertyOp55
 70
     1
102
RTVSPropertyOp56
 70
     1
102
RTVSPropertyOp57
 70
     1
102
RTVSPropertyOp58
 70
     1
102
RTVSPropertyOp59
 70
     1
102
RTVSPropertyOp60
 70
     1
102
RTVSPropertyOp61
 70
     1
102
RTVSPropertyOp62
 70
     1
  0
XRECORD
  5
8614
102
{ACAD_REACTORS
330
8613
102
}
330
8613
100
AcDbXrecord
280
     1
102
RTVSPost2010Prop28
280
     0
102
RTVSPost2010PropOp28
 70
     1
102
RTVSPost2010Prop29
280
     1
102
RTVSPost2010PropOp29
 70
     1
102
RTVSPost2010Prop30
280
     1
102
RTVSPost2010PropOp30
 70
     1
102
RTVSPost2010Prop31
280
     0
102
RTVSPost2010PropOp31
 70
     1
102
RTVSPost2010Prop32
280
     0
102
RTVSPost2010PropOp32
 70
     1
102
RTVSPost2010Prop33
280
     0
102
RTVSPost2010PropOp33
 70
     1
102
RTVSPost2010Prop34
280
     0
102
RTVSPost2010PropOp34
 70
     1
102
RTVSPost2010Prop35
280
     0
102
RTVSPost2010PropOp35
 70
     1
102
RTVSPost2010Prop36
280
     0
102
RTVSPost2010PropOp36
 70
     1
102
RTVSPost2010Prop37
 90
       50
102
RTVSPost2010PropOp37
 70
     1
102
RTVSPost2010Prop38
140
0.0
102
RTVSPost2010PropOp38
 70
     1
102
RTVSPost2010Prop39
140
1.0
102
RTVSPost2010PropOp39
 70
     1
102
RTVSPost2010Prop40
 90
        0
102
RTVSPost2010PropOp40
 70
     1
102
RTVSPost2010Prop41ColorIndex
 90
       18
102
RTVSPost2010Prop41ColorRGB
 90
        0
102
RTVSPost2010PropOp41
 70
     1
102
RTVSPost2010Prop42
 90
       50
102
RTVSPost2010PropOp42
 70
     1
102
RTVSPost2010Prop43
 90
        3
102
RTVSPost2010PropOp43
 70
     1
102
RTVSPost2010Prop44ColorIndex
 90
        5
102
RTVSPost2010Prop44ColorRGB
 90
      255
102
RTVSPost2010PropOp44
 70
     1
102
RTVSPost2010Prop45
280
     0
102
RTVSPost2010PropOp45
 70
     1
102
RTVSPost2010Prop46
 90
       50
102
RTVSPost2010PropOp46
 70
     1
102
RTVSPost2010Prop47
 90
       50
102
RTVSPost2010PropOp47
 70
     1
102
RTVSPost2010Prop48
 90
       50
102
RTVSPost2010PropOp48
 70
     1
102
RTVSPost2010Prop49
280
     0
102
RTVSPost2010PropOp49
 70
     1
102
RTVSPost2010Prop50
 90
       50
102
RTVSPost2010PropOp50
 70
     1
102
RTVSPost2010Prop51ColorIndex
 90
      256
102
RTVSPost2010Prop51ColorRGB
 90
-16777216
102
RTVSPost2010PropOp51
 70
     0
102
RTVSPost2010Prop52
140
1.0
102
RTVSPost2010PropOp52
 70
     0
102
RTVSPost2010Prop53
 90
        2
102
RTVSPost2010PropOp53
 70
     1
102
RTVSPost2010Prop54
  1
strokes_ogs.tif
102
RTVSPost2010PropOp54
 70
     1
102
RTVSPost2010Prop55
280
     0
102
RTVSPost2010PropOp55
 70
     1
102
RTVSPost2010Prop56
140
1.0
102
RTVSPost2010PropOp56
 70
     1
102
RTVSPost2010Prop57
140
1.0
102
RTVSPost2010PropOp57
 70
     1
102
RTVSPropertyOp0
 70
     1
102
RTVSPropertyOp1
 70
     1
102
RTVSPropertyOp2
 70
     1
102
RTVSPropertyOp3
 70
     1
102
RTVSPropertyOp4
 70
     1
102
RTVSPropertyOp5
 70
     1
102
RTVSPropertyOp6
 70
     1
102
RTVSPropertyOp7
 70
     1
102
RTVSPropertyOp8
 70
     1
102
RTVSPropertyOp9
 70
     1
102
RTVSPropertyOp10
 70
     1
102
RTVSPropertyOp11
 70
     1
102
RTVSPropertyOp12
 70
     1
102
RTVSPropertyOp13
 70
     1
102
RTVSPropertyOp14
 70
     1
102
RTVSPropertyOp15
 70
     1
102
RTVSPropertyOp16
 70
     1
102
RTVSPropertyOp17
 70
     1
102
RTVSPropertyOp18
 70
     1
102
RTVSPropertyOp19
 70
     1
102
RTVSPropertyOp20
 70
     1
102
RTVSPropertyOp21
 70
     1
102
RTVSPropertyOp22
 70
     1
102
RTVSPropertyOp23
 70
     1
102
RTVSPropertyOp24
 70
     1
102
RTVSPropertyOp25
 70
     1
102
RTVSPropertyOp26
 70
     1
102
RTVSPropertyOp27
 70
     1
102
RTVSPropertyOp28
 70
     1
102
RTVSPropertyOp29
 70
     1
102
RTVSPropertyOp30
 70
     1
102
RTVSPropertyOp31
 70
     1
102
RTVSPropertyOp32
 70
     1
102
RTVSPropertyOp33
 70
     1
102
RTVSPropertyOp34
 70
     1
102
RTVSPropertyOp35
 70
     1
102
RTVSPropertyOp36
 70
     1
102
RTVSPropertyOp37
 70
     1
102
RTVSPropertyOp38
 70
     1
102
RTVSPropertyOp39
 70
     1
102
RTVSPropertyOp40
 70
     1
102
RTVSPropertyOp41
 70
     1
102
RTVSPropertyOp42
 70
     1
102
RTVSPropertyOp43
 70
     1
102
RTVSPropertyOp44
 70
     1
102
RTVSPropertyOp45
 70
     1
102
RTVSPropertyOp46
 70
     1
102
RTVSPropertyOp47
 70
     1
102
RTVSPropertyOp48
 70
     1
102
RTVSPropertyOp49
 70
     1
102
RTVSPropertyOp50
 70
     1
102
RTVSPropertyOp51
 70
     0
102
RTVSPropertyOp52
 70
     0
102
RTVSPropertyOp53
 70
     1
102
RTVSPropertyOp54
 70
     1
102
RTVSPropertyOp55
 70
     1
102
RTVSPropertyOp56
 70
     1
102
RTVSPropertyOp57
 70
     1
102
RTVSPropertyOp58
 70
     1
102
RTVSPropertyOp59
 70
     1
102
RTVSPropertyOp60
 70
     1
102
RTVSPropertyOp61
 70
     1
102
RTVSPropertyOp62
 70
     1
  0
XRECORD
  5
8612
102
{ACAD_REACTORS
330
8611
102
}
330
8611
100
AcDbXrecord
280
     1
102
RTVSPost2010Prop28
280
     0
102
RTVSPost2010PropOp28
 70
     1
102
RTVSPost2010Prop29
280
     1
102
RTVSPost2010PropOp29
 70
     1
102
RTVSPost2010Prop30
280
     1
102
RTVSPost2010PropOp30
 70
     1
102
RTVSPost2010Prop31
280
     0
102
RTVSPost2010PropOp31
 70
     1
102
RTVSPost2010Prop32
280
     0
102
RTVSPost2010PropOp32
 70
     1
102
RTVSPost2010Prop33
280
     0
102
RTVSPost2010PropOp33
 70
     1
102
RTVSPost2010Prop34
280
     0
102
RTVSPost2010PropOp34
 70
     1
102
RTVSPost2010Prop35
280
     0
102
RTVSPost2010PropOp35
 70
     1
102
RTVSPost2010Prop36
280
     0
102
RTVSPost2010PropOp36
 70
     1
102
RTVSPost2010Prop37
 90
       50
102
RTVSPost2010PropOp37
 70
     1
102
RTVSPost2010Prop38
140
0.0
102
RTVSPost2010PropOp38
 70
     1
102
RTVSPost2010Prop39
140
1.0
102
RTVSPost2010PropOp39
 70
     1
102
RTVSPost2010Prop40
 90
        0
102
RTVSPost2010PropOp40
 70
     1
102
RTVSPost2010Prop41ColorIndex
 90
       18
102
RTVSPost2010Prop41ColorRGB
 90
        0
102
RTVSPost2010PropOp41
 70
     1
102
RTVSPost2010Prop42
 90
       50
102
RTVSPost2010PropOp42
 70
     1
102
RTVSPost2010Prop43
 90
        3
102
RTVSPost2010PropOp43
 70
     1
102
RTVSPost2010Prop44ColorIndex
 90
        5
102
RTVSPost2010Prop44ColorRGB
 90
      255
102
RTVSPost2010PropOp44
 70
     1
102
RTVSPost2010Prop45
280
     0
102
RTVSPost2010PropOp45
 70
     1
102
RTVSPost2010Prop46
 90
       50
102
RTVSPost2010PropOp46
 70
     1
102
RTVSPost2010Prop47
 90
       50
102
RTVSPost2010PropOp47
 70
     1
102
RTVSPost2010Prop48
 90
       50
102
RTVSPost2010PropOp48
 70
     1
102
RTVSPost2010Prop49
280
     0
102
RTVSPost2010PropOp49
 70
     1
102
RTVSPost2010Prop50
 90
       50
102
RTVSPost2010PropOp50
 70
     1
102
RTVSPost2010Prop51ColorIndex
 90
      256
102
RTVSPost2010Prop51ColorRGB
 90
-16777216
102
RTVSPost2010PropOp51
 70
     0
102
RTVSPost2010Prop52
140
1.0
102
RTVSPost2010PropOp52
 70
     0
102
RTVSPost2010Prop53
 90
        2
102
RTVSPost2010PropOp53
 70
     1
102
RTVSPost2010Prop54
  1
strokes_ogs.tif
102
RTVSPost2010PropOp54
 70
     1
102
RTVSPost2010Prop55
280
     0
102
RTVSPost2010PropOp55
 70
     1
102
RTVSPost2010Prop56
140
1.0
102
RTVSPost2010PropOp56
 70
     1
102
RTVSPost2010Prop57
140
1.0
102
RTVSPost2010PropOp57
 70
     1
102
RTVSPropertyOp0
 70
     1
102
RTVSPropertyOp1
 70
     1
102
RTVSPropertyOp2
 70
     1
102
RTVSPropertyOp3
 70
     1
102
RTVSPropertyOp4
 70
     1
102
RTVSPropertyOp5
 70
     1
102
RTVSPropertyOp6
 70
     1
102
RTVSPropertyOp7
 70
     1
102
RTVSPropertyOp8
 70
     1
102
RTVSPropertyOp9
 70
     1
102
RTVSPropertyOp10
 70
     1
102
RTVSPropertyOp11
 70
     1
102
RTVSPropertyOp12
 70
     1
102
RTVSPropertyOp13
 70
     1
102
RTVSPropertyOp14
 70
     1
102
RTVSPropertyOp15
 70
     1
102
RTVSPropertyOp16
 70
     1
102
RTVSPropertyOp17
 70
     1
102
RTVSPropertyOp18
 70
     1
102
RTVSPropertyOp19
 70
     1
102
RTVSPropertyOp20
 70
     1
102
RTVSPropertyOp21
 70
     1
102
RTVSPropertyOp22
 70
     1
102
RTVSPropertyOp23
 70
     1
102
RTVSPropertyOp24
 70
     1
102
RTVSPropertyOp25
 70
     1
102
RTVSPropertyOp26
 70
     1
102
RTVSPropertyOp27
 70
     1
102
RTVSPropertyOp28
 70
     1
102
RTVSPropertyOp29
 70
     1
102
RTVSPropertyOp30
 70
     1
102
RTVSPropertyOp31
 70
     1
102
RTVSPropertyOp32
 70
     1
102
RTVSPropertyOp33
 70
     1
102
RTVSPropertyOp34
 70
     1
102
RTVSPropertyOp35
 70
     1
102
RTVSPropertyOp36
 70
     1
102
RTVSPropertyOp37
 70
     1
102
RTVSPropertyOp38
 70
     1
102
RTVSPropertyOp39
 70
     1
102
RTVSPropertyOp40
 70
     1
102
RTVSPropertyOp41
 70
     1
102
RTVSPropertyOp42
 70
     1
102
RTVSPropertyOp43
 70
     1
102
RTVSPropertyOp44
 70
     1
102
RTVSPropertyOp45
 70
     1
102
RTVSPropertyOp46
 70
     1
102
RTVSPropertyOp47
 70
     1
102
RTVSPropertyOp48
 70
     1
102
RTVSPropertyOp49
 70
     1
102
RTVSPropertyOp50
 70
     1
102
RTVSPropertyOp51
 70
     0
102
RTVSPropertyOp52
 70
     0
102
RTVSPropertyOp53
 70
     1
102
RTVSPropertyOp54
 70
     1
102
RTVSPropertyOp55
 70
     1
102
RTVSPropertyOp56
 70
     1
102
RTVSPropertyOp57
 70
     1
102
RTVSPropertyOp58
 70
     1
102
RTVSPropertyOp59
 70
     1
102
RTVSPropertyOp60
 70
     1
102
RTVSPropertyOp61
 70
     1
102
RTVSPropertyOp62
 70
     1
  0
XRECORD
  5
860C
102
{ACAD_REACTORS
330
860B
102
}
330
860B
100
AcDbXrecord
280
     1
102
RTVSPost2010Prop28
280
     0
102
RTVSPost2010PropOp28
 70
     1
102
RTVSPost2010Prop29
280
     1
102
RTVSPost2010PropOp29
 70
     1
102
RTVSPost2010Prop30
280
     1
102
RTVSPost2010PropOp30
 70
     1
102
RTVSPost2010Prop31
280
     0
102
RTVSPost2010PropOp31
 70
     1
102
RTVSPost2010Prop32
280
     0
102
RTVSPost2010PropOp32
 70
     1
102
RTVSPost2010Prop33
280
     0
102
RTVSPost2010PropOp33
 70
     1
102
RTVSPost2010Prop34
280
     0
102
RTVSPost2010PropOp34
 70
     1
102
RTVSPost2010Prop35
280
     0
102
RTVSPost2010PropOp35
 70
     1
102
RTVSPost2010Prop36
280
     0
102
RTVSPost2010PropOp36
 70
     1
102
RTVSPost2010Prop37
 90
       50
102
RTVSPost2010PropOp37
 70
     1
102
RTVSPost2010Prop38
140
0.0
102
RTVSPost2010PropOp38
 70
     1
102
RTVSPost2010Prop39
140
1.0
102
RTVSPost2010PropOp39
 70
     1
102
RTVSPost2010Prop40
 90
        0
102
RTVSPost2010PropOp40
 70
     1
102
RTVSPost2010Prop41ColorIndex
 90
       18
102
RTVSPost2010Prop41ColorRGB
 90
        0
102
RTVSPost2010PropOp41
 70
     1
102
RTVSPost2010Prop42
 90
       50
102
RTVSPost2010PropOp42
 70
     1
102
RTVSPost2010Prop43
 90
        3
102
RTVSPost2010PropOp43
 70
     1
102
RTVSPost2010Prop44ColorIndex
 90
        5
102
RTVSPost2010Prop44ColorRGB
 90
      255
102
RTVSPost2010PropOp44
 70
     1
102
RTVSPost2010Prop45
280
     0
102
RTVSPost2010PropOp45
 70
     1
102
RTVSPost2010Prop46
 90
       50
102
RTVSPost2010PropOp46
 70
     1
102
RTVSPost2010Prop47
 90
       50
102
RTVSPost2010PropOp47
 70
     1
102
RTVSPost2010Prop48
 90
       50
102
RTVSPost2010PropOp48
 70
     1
102
RTVSPost2010Prop49
280
     0
102
RTVSPost2010PropOp49
 70
     1
102
RTVSPost2010Prop50
 90
       50
102
RTVSPost2010PropOp50
 70
     1
102
RTVSPost2010Prop51ColorIndex
 90
      256
102
RTVSPost2010Prop51ColorRGB
 90
-16777216
102
RTVSPost2010PropOp51
 70
     0
102
RTVSPost2010Prop52
140
1.0
102
RTVSPost2010PropOp52
 70
     0
102
RTVSPost2010Prop53
 90
        2
102
RTVSPost2010PropOp53
 70
     1
102
RTVSPost2010Prop54
  1
strokes_ogs.tif
102
RTVSPost2010PropOp54
 70
     1
102
RTVSPost2010Prop55
280
     0
102
RTVSPost2010PropOp55
 70
     1
102
RTVSPost2010Prop56
140
1.0
102
RTVSPost2010PropOp56
 70
     1
102
RTVSPost2010Prop57
140
1.0
102
RTVSPost2010PropOp57
 70
     1
102
RTVSPropertyOp0
 70
     1
102
RTVSPropertyOp1
 70
     1
102
RTVSPropertyOp2
 70
     1
102
RTVSPropertyOp3
 70
     1
102
RTVSPropertyOp4
 70
     1
102
RTVSPropertyOp5
 70
     1
102
RTVSPropertyOp6
 70
     1
102
RTVSPropertyOp7
 70
     1
102
RTVSPropertyOp8
 70
     1
102
RTVSPropertyOp9
 70
     1
102
RTVSPropertyOp10
 70
     1
102
RTVSPropertyOp11
 70
     1
102
RTVSPropertyOp12
 70
     1
102
RTVSPropertyOp13
 70
     1
102
RTVSPropertyOp14
 70
     1
102
RTVSPropertyOp15
 70
     1
102
RTVSPropertyOp16
 70
     1
102
RTVSPropertyOp17
 70
     1
102
RTVSPropertyOp18
 70
     1
102
RTVSPropertyOp19
 70
     1
102
RTVSPropertyOp20
 70
     1
102
RTVSPropertyOp21
 70
     1
102
RTVSPropertyOp22
 70
     1
102
RTVSPropertyOp23
 70
     1
102
RTVSPropertyOp24
 70
     1
102
RTVSPropertyOp25
 70
     1
102
RTVSPropertyOp26
 70
     1
102
RTVSPropertyOp27
 70
     1
102
RTVSPropertyOp28
 70
     1
102
RTVSPropertyOp29
 70
     1
102
RTVSPropertyOp30
 70
     1
102
RTVSPropertyOp31
 70
     1
102
RTVSPropertyOp32
 70
     1
102
RTVSPropertyOp33
 70
     1
102
RTVSPropertyOp34
 70
     1
102
RTVSPropertyOp35
 70
     1
102
RTVSPropertyOp36
 70
     1
102
RTVSPropertyOp37
 70
     1
102
RTVSPropertyOp38
 70
     1
102
RTVSPropertyOp39
 70
     1
102
RTVSPropertyOp40
 70
     1
102
RTVSPropertyOp41
 70
     1
102
RTVSPropertyOp42
 70
     1
102
RTVSPropertyOp43
 70
     1
102
RTVSPropertyOp44
 70
     1
102
RTVSPropertyOp45
 70
     1
102
RTVSPropertyOp46
 70
     1
102
RTVSPropertyOp47
 70
     1
102
RTVSPropertyOp48
 70
     1
102
RTVSPropertyOp49
 70
     1
102
RTVSPropertyOp50
 70
     1
102
RTVSPropertyOp51
 70
     0
102
RTVSPropertyOp52
 70
     0
102
RTVSPropertyOp53
 70
     1
102
RTVSPropertyOp54
 70
     1
102
RTVSPropertyOp55
 70
     1
102
RTVSPropertyOp56
 70
     1
102
RTVSPropertyOp57
 70
     1
102
RTVSPropertyOp58
 70
     1
102
RTVSPropertyOp59
 70
     1
102
RTVSPropertyOp60
 70
     1
102
RTVSPropertyOp61
 70
     1
102
RTVSPropertyOp62
 70
     1
  0
XRECORD
  5
860E
102
{ACAD_REACTORS
330
860D
102
}
330
860D
100
AcDbXrecord
280
     1
102
RTVSPost2010Prop28
280
     0
102
RTVSPost2010PropOp28
 70
     1
102
RTVSPost2010Prop29
280
     1
102
RTVSPost2010PropOp29
 70
     1
102
RTVSPost2010Prop30
280
     1
102
RTVSPost2010PropOp30
 70
     1
102
RTVSPost2010Prop31
280
     0
102
RTVSPost2010PropOp31
 70
     1
102
RTVSPost2010Prop32
280
     0
102
RTVSPost2010PropOp32
 70
     1
102
RTVSPost2010Prop33
280
     0
102
RTVSPost2010PropOp33
 70
     1
102
RTVSPost2010Prop34
280
     0
102
RTVSPost2010PropOp34
 70
     1
102
RTVSPost2010Prop35
280
     0
102
RTVSPost2010PropOp35
 70
     1
102
RTVSPost2010Prop36
280
     0
102
RTVSPost2010PropOp36
 70
     1
102
RTVSPost2010Prop37
 90
       50
102
RTVSPost2010PropOp37
 70
     1
102
RTVSPost2010Prop38
140
0.0
102
RTVSPost2010PropOp38
 70
     1
102
RTVSPost2010Prop39
140
1.0
102
RTVSPost2010PropOp39
 70
     1
102
RTVSPost2010Prop40
 90
        0
102
RTVSPost2010PropOp40
 70
     1
102
RTVSPost2010Prop41ColorIndex
 90
       18
102
RTVSPost2010Prop41ColorRGB
 90
        0
102
RTVSPost2010PropOp41
 70
     1
102
RTVSPost2010Prop42
 90
       50
102
RTVSPost2010PropOp42
 70
     1
102
RTVSPost2010Prop43
 90
        3
102
RTVSPost2010PropOp43
 70
     1
102
RTVSPost2010Prop44ColorIndex
 90
        5
102
RTVSPost2010Prop44ColorRGB
 90
      255
102
RTVSPost2010PropOp44
 70
     1
102
RTVSPost2010Prop45
280
     0
102
RTVSPost2010PropOp45
 70
     1
102
RTVSPost2010Prop46
 90
       50
102
RTVSPost2010PropOp46
 70
     1
102
RTVSPost2010Prop47
 90
       50
102
RTVSPost2010PropOp47
 70
     1
102
RTVSPost2010Prop48
 90
       50
102
RTVSPost2010PropOp48
 70
     1
102
RTVSPost2010Prop49
280
     0
102
RTVSPost2010PropOp49
 70
     1
102
RTVSPost2010Prop50
 90
       50
102
RTVSPost2010PropOp50
 70
     1
102
RTVSPost2010Prop51ColorIndex
 90
      256
102
RTVSPost2010Prop51ColorRGB
 90
-16777216
102
RTVSPost2010PropOp51
 70
     0
102
RTVSPost2010Prop52
140
1.0
102
RTVSPost2010PropOp52
 70
     0
102
RTVSPost2010Prop53
 90
        2
102
RTVSPost2010PropOp53
 70
     1
102
RTVSPost2010Prop54
  1
strokes_ogs.tif
102
RTVSPost2010PropOp54
 70
     1
102
RTVSPost2010Prop55
280
     0
102
RTVSPost2010PropOp55
 70
     1
102
RTVSPost2010Prop56
140
1.0
102
RTVSPost2010PropOp56
 70
     1
102
RTVSPost2010Prop57
140
1.0
102
RTVSPost2010PropOp57
 70
     1
102
RTVSPropertyOp0
 70
     1
102
RTVSPropertyOp1
 70
     1
102
RTVSPropertyOp2
 70
     1
102
RTVSPropertyOp3
 70
     1
102
RTVSPropertyOp4
 70
     1
102
RTVSPropertyOp5
 70
     1
102
RTVSPropertyOp6
 70
     1
102
RTVSPropertyOp7
 70
     1
102
RTVSPropertyOp8
 70
     1
102
RTVSPropertyOp9
 70
     1
102
RTVSPropertyOp10
 70
     1
102
RTVSPropertyOp11
 70
     1
102
RTVSPropertyOp12
 70
     1
102
RTVSPropertyOp13
 70
     1
102
RTVSPropertyOp14
 70
     1
102
RTVSPropertyOp15
 70
     1
102
RTVSPropertyOp16
 70
     1
102
RTVSPropertyOp17
 70
     1
102
RTVSPropertyOp18
 70
     1
102
RTVSPropertyOp19
 70
     1
102
RTVSPropertyOp20
 70
     1
102
RTVSPropertyOp21
 70
     1
102
RTVSPropertyOp22
 70
     1
102
RTVSPropertyOp23
 70
     1
102
RTVSPropertyOp24
 70
     1
102
RTVSPropertyOp25
 70
     1
102
RTVSPropertyOp26
 70
     1
102
RTVSPropertyOp27
 70
     1
102
RTVSPropertyOp28
 70
     1
102
RTVSPropertyOp29
 70
     1
102
RTVSPropertyOp30
 70
     1
102
RTVSPropertyOp31
 70
     1
102
RTVSPropertyOp32
 70
     1
102
RTVSPropertyOp33
 70
     1
102
RTVSPropertyOp34
 70
     1
102
RTVSPropertyOp35
 70
     1
102
RTVSPropertyOp36
 70
     1
102
RTVSPropertyOp37
 70
     1
102
RTVSPropertyOp38
 70
     1
102
RTVSPropertyOp39
 70
     1
102
RTVSPropertyOp40
 70
     1
102
RTVSPropertyOp41
 70
     1
102
RTVSPropertyOp42
 70
     1
102
RTVSPropertyOp43
 70
     1
102
RTVSPropertyOp44
 70
     1
102
RTVSPropertyOp45
 70
     1
102
RTVSPropertyOp46
 70
     1
102
RTVSPropertyOp47
 70
     1
102
RTVSPropertyOp48
 70
     1
102
RTVSPropertyOp49
 70
     1
102
RTVSPropertyOp50
 70
     1
102
RTVSPropertyOp51
 70
     0
102
RTVSPropertyOp52
 70
     0
102
RTVSPropertyOp53
 70
     1
102
RTVSPropertyOp54
 70
     1
102
RTVSPropertyOp55
 70
     1
102
RTVSPropertyOp56
 70
     1
102
RTVSPropertyOp57
 70
     1
102
RTVSPropertyOp58
 70
     1
102
RTVSPropertyOp59
 70
     1
102
RTVSPropertyOp60
 70
     1
102
RTVSPropertyOp61
 70
     1
102
RTVSPropertyOp62
 70
     1
  0
XRECORD
  5
8604
102
{ACAD_REACTORS
330
8603
102
}
330
8603
100
AcDbXrecord
280
     1
102
RTVSPost2010Prop28
280
     0
102
RTVSPost2010PropOp28
 70
     1
102
RTVSPost2010Prop29
280
     1
102
RTVSPost2010PropOp29
 70
     1
102
RTVSPost2010Prop30
280
     1
102
RTVSPost2010PropOp30
 70
     1
102
RTVSPost2010Prop31
280
     0
102
RTVSPost2010PropOp31
 70
     1
102
RTVSPost2010Prop32
280
     0
102
RTVSPost2010PropOp32
 70
     1
102
RTVSPost2010Prop33
280
     0
102
RTVSPost2010PropOp33
 70
     1
102
RTVSPost2010Prop34
280
     0
102
RTVSPost2010PropOp34
 70
     1
102
RTVSPost2010Prop35
280
     0
102
RTVSPost2010PropOp35
 70
     1
102
RTVSPost2010Prop36
280
     0
102
RTVSPost2010PropOp36
 70
     1
102
RTVSPost2010Prop37
 90
       50
102
RTVSPost2010PropOp37
 70
     1
102
RTVSPost2010Prop38
140
0.0
102
RTVSPost2010PropOp38
 70
     1
102
RTVSPost2010Prop39
140
1.0
102
RTVSPost2010PropOp39
 70
     1
102
RTVSPost2010Prop40
 90
        0
102
RTVSPost2010PropOp40
 70
     1
102
RTVSPost2010Prop41ColorIndex
 90
       18
102
RTVSPost2010Prop41ColorRGB
 90
        0
102
RTVSPost2010PropOp41
 70
     1
102
RTVSPost2010Prop42
 90
       50
102
RTVSPost2010PropOp42
 70
     1
102
RTVSPost2010Prop43
 90
        3
102
RTVSPost2010PropOp43
 70
     1
102
RTVSPost2010Prop44ColorIndex
 90
        5
102
RTVSPost2010Prop44ColorRGB
 90
      255
102
RTVSPost2010PropOp44
 70
     1
102
RTVSPost2010Prop45
280
     0
102
RTVSPost2010PropOp45
 70
     1
102
RTVSPost2010Prop46
 90
       50
102
RTVSPost2010PropOp46
 70
     1
102
RTVSPost2010Prop47
 90
       50
102
RTVSPost2010PropOp47
 70
     1
102
RTVSPost2010Prop48
 90
       50
102
RTVSPost2010PropOp48
 70
     1
102
RTVSPost2010Prop49
280
     0
102
RTVSPost2010PropOp49
 70
     1
102
RTVSPost2010Prop50
 90
       50
102
RTVSPost2010PropOp50
 70
     1
102
RTVSPost2010Prop51ColorIndex
 90
      256
102
RTVSPost2010Prop51ColorRGB
 90
-16777216
102
RTVSPost2010PropOp51
 70
     0
102
RTVSPost2010Prop52
140
1.0
102
RTVSPost2010PropOp52
 70
     0
102
RTVSPost2010Prop53
 90
        2
102
RTVSPost2010PropOp53
 70
     1
102
RTVSPost2010Prop54
  1
strokes_ogs.tif
102
RTVSPost2010PropOp54
 70
     1
102
RTVSPost2010Prop55
280
     0
102
RTVSPost2010PropOp55
 70
     1
102
RTVSPost2010Prop56
140
1.0
102
RTVSPost2010PropOp56
 70
     1
102
RTVSPost2010Prop57
140
1.0
102
RTVSPost2010PropOp57
 70
     1
102
RTVSPropertyOp0
 70
     1
102
RTVSPropertyOp1
 70
     1
102
RTVSPropertyOp2
 70
     1
102
RTVSPropertyOp3
 70
     1
102
RTVSPropertyOp4
 70
     1
102
RTVSPropertyOp5
 70
     1
102
RTVSPropertyOp6
 70
     1
102
RTVSPropertyOp7
 70
     1
102
RTVSPropertyOp8
 70
     1
102
RTVSPropertyOp9
 70
     1
102
RTVSPropertyOp10
 70
     1
102
RTVSPropertyOp11
 70
     1
102
RTVSPropertyOp12
 70
     1
102
RTVSPropertyOp13
 70
     1
102
RTVSPropertyOp14
 70
     1
102
RTVSPropertyOp15
 70
     1
102
RTVSPropertyOp16
 70
     1
102
RTVSPropertyOp17
 70
     1
102
RTVSPropertyOp18
 70
     1
102
RTVSPropertyOp19
 70
     1
102
RTVSPropertyOp20
 70
     1
102
RTVSPropertyOp21
 70
     1
102
RTVSPropertyOp22
 70
     1
102
RTVSPropertyOp23
 70
     1
102
RTVSPropertyOp24
 70
     1
102
RTVSPropertyOp25
 70
     1
102
RTVSPropertyOp26
 70
     1
102
RTVSPropertyOp27
 70
     1
102
RTVSPropertyOp28
 70
     1
102
RTVSPropertyOp29
 70
     1
102
RTVSPropertyOp30
 70
     1
102
RTVSPropertyOp31
 70
     1
102
RTVSPropertyOp32
 70
     1
102
RTVSPropertyOp33
 70
     1
102
RTVSPropertyOp34
 70
     1
102
RTVSPropertyOp35
 70
     1
102
RTVSPropertyOp36
 70
     1
102
RTVSPropertyOp37
 70
     1
102
RTVSPropertyOp38
 70
     1
102
RTVSPropertyOp39
 70
     1
102
RTVSPropertyOp40
 70
     1
102
RTVSPropertyOp41
 70
     1
102
RTVSPropertyOp42
 70
     1
102
RTVSPropertyOp43
 70
     1
102
RTVSPropertyOp44
 70
     1
102
RTVSPropertyOp45
 70
     1
102
RTVSPropertyOp46
 70
     1
102
RTVSPropertyOp47
 70
     1
102
RTVSPropertyOp48
 70
     1
102
RTVSPropertyOp49
 70
     1
102
RTVSPropertyOp50
 70
     1
102
RTVSPropertyOp51
 70
     0
102
RTVSPropertyOp52
 70
     0
102
RTVSPropertyOp53
 70
     1
102
RTVSPropertyOp54
 70
     1
102
RTVSPropertyOp55
 70
     1
102
RTVSPropertyOp56
 70
     1
102
RTVSPropertyOp57
 70
     1
102
RTVSPropertyOp58
 70
     1
102
RTVSPropertyOp59
 70
     1
102
RTVSPropertyOp60
 70
     1
102
RTVSPropertyOp61
 70
     1
102
RTVSPropertyOp62
 70
     1
  0
XRECORD
  5
85F8
102
{ACAD_REACTORS
330
85F7
102
}
330
85F7
100
AcDbXrecord
280
     1
102
RTVSPost2010Prop28
280
     0
102
RTVSPost2010PropOp28
 70
     1
102
RTVSPost2010Prop29
280
     1
102
RTVSPost2010PropOp29
 70
     1
102
RTVSPost2010Prop30
280
     1
102
RTVSPost2010PropOp30
 70
     1
102
RTVSPost2010Prop31
280
     0
102
RTVSPost2010PropOp31
 70
     1
102
RTVSPost2010Prop32
280
     0
102
RTVSPost2010PropOp32
 70
     1
102
RTVSPost2010Prop33
280
     0
102
RTVSPost2010PropOp33
 70
     1
102
RTVSPost2010Prop34
280
     0
102
RTVSPost2010PropOp34
 70
     1
102
RTVSPost2010Prop35
280
     0
102
RTVSPost2010PropOp35
 70
     1
102
RTVSPost2010Prop36
280
     0
102
RTVSPost2010PropOp36
 70
     1
102
RTVSPost2010Prop37
 90
       50
102
RTVSPost2010PropOp37
 70
     1
102
RTVSPost2010Prop38
140
0.0
102
RTVSPost2010PropOp38
 70
     1
102
RTVSPost2010Prop39
140
1.0
102
RTVSPost2010PropOp39
 70
     1
102
RTVSPost2010Prop40
 90
        0
102
RTVSPost2010PropOp40
 70
     1
102
RTVSPost2010Prop41ColorIndex
 90
       18
102
RTVSPost2010Prop41ColorRGB
 90
        0
102
RTVSPost2010PropOp41
 70
     1
102
RTVSPost2010Prop42
 90
       50
102
RTVSPost2010PropOp42
 70
     1
102
RTVSPost2010Prop43
 90
        3
102
RTVSPost2010PropOp43
 70
     1
102
RTVSPost2010Prop44ColorIndex
 90
        5
102
RTVSPost2010Prop44ColorRGB
 90
      255
102
RTVSPost2010PropOp44
 70
     1
102
RTVSPost2010Prop45
280
     0
102
RTVSPost2010PropOp45
 70
     1
102
RTVSPost2010Prop46
 90
       50
102
RTVSPost2010PropOp46
 70
     1
102
RTVSPost2010Prop47
 90
       50
102
RTVSPost2010PropOp47
 70
     1
102
RTVSPost2010Prop48
 90
       50
102
RTVSPost2010PropOp48
 70
     1
102
RTVSPost2010Prop49
280
     0
102
RTVSPost2010PropOp49
 70
     1
102
RTVSPost2010Prop50
 90
       50
102
RTVSPost2010PropOp50
 70
     1
102
RTVSPost2010Prop51ColorIndex
 90
      256
102
RTVSPost2010Prop51ColorRGB
 90
-16777216
102
RTVSPost2010PropOp51
 70
     0
102
RTVSPost2010Prop52
140
1.0
102
RTVSPost2010PropOp52
 70
     0
102
RTVSPost2010Prop53
 90
        2
102
RTVSPost2010PropOp53
 70
     1
102
RTVSPost2010Prop54
  1
strokes_ogs.tif
102
RTVSPost2010PropOp54
 70
     1
102
RTVSPost2010Prop55
280
     0
102
RTVSPost2010PropOp55
 70
     1
102
RTVSPost2010Prop56
140
1.0
102
RTVSPost2010PropOp56
 70
     1
102
RTVSPost2010Prop57
140
1.0
102
RTVSPost2010PropOp57
 70
     1
102
RTVSPropertyOp0
 70
     1
102
RTVSPropertyOp1
 70
     1
102
RTVSPropertyOp2
 70
     1
102
RTVSPropertyOp3
 70
     1
102
RTVSPropertyOp4
 70
     1
102
RTVSPropertyOp5
 70
     1
102
RTVSPropertyOp6
 70
     1
102
RTVSPropertyOp7
 70
     1
102
RTVSPropertyOp8
 70
     1
102
RTVSPropertyOp9
 70
     1
102
RTVSPropertyOp10
 70
     1
102
RTVSPropertyOp11
 70
     1
102
RTVSPropertyOp12
 70
     1
102
RTVSPropertyOp13
 70
     1
102
RTVSPropertyOp14
 70
     1
102
RTVSPropertyOp15
 70
     1
102
RTVSPropertyOp16
 70
     1
102
RTVSPropertyOp17
 70
     1
102
RTVSPropertyOp18
 70
     1
102
RTVSPropertyOp19
 70
     1
102
RTVSPropertyOp20
 70
     1
102
RTVSPropertyOp21
 70
     1
102
RTVSPropertyOp22
 70
     1
102
RTVSPropertyOp23
 70
     1
102
RTVSPropertyOp24
 70
     1
102
RTVSPropertyOp25
 70
     1
102
RTVSPropertyOp26
 70
     1
102
RTVSPropertyOp27
 70
     1
102
RTVSPropertyOp28
 70
     1
102
RTVSPropertyOp29
 70
     1
102
RTVSPropertyOp30
 70
     1
102
RTVSPropertyOp31
 70
     1
102
RTVSPropertyOp32
 70
     1
102
RTVSPropertyOp33
 70
     1
102
RTVSPropertyOp34
 70
     1
102
RTVSPropertyOp35
 70
     1
102
RTVSPropertyOp36
 70
     1
102
RTVSPropertyOp37
 70
     1
102
RTVSPropertyOp38
 70
     1
102
RTVSPropertyOp39
 70
     1
102
RTVSPropertyOp40
 70
     1
102
RTVSPropertyOp41
 70
     1
102
RTVSPropertyOp42
 70
     1
102
RTVSPropertyOp43
 70
     1
102
RTVSPropertyOp44
 70
     1
102
RTVSPropertyOp45
 70
     1
102
RTVSPropertyOp46
 70
     1
102
RTVSPropertyOp47
 70
     1
102
RTVSPropertyOp48
 70
     1
102
RTVSPropertyOp49
 70
     1
102
RTVSPropertyOp50
 70
     1
102
RTVSPropertyOp51
 70
     0
102
RTVSPropertyOp52
 70
     0
102
RTVSPropertyOp53
 70
     1
102
RTVSPropertyOp54
 70
     1
102
RTVSPropertyOp55
 70
     1
102
RTVSPropertyOp56
 70
     1
102
RTVSPropertyOp57
 70
     1
102
RTVSPropertyOp58
 70
     1
102
RTVSPropertyOp59
 70
     1
102
RTVSPropertyOp60
 70
     1
102
RTVSPropertyOp61
 70
     1
102
RTVSPropertyOp62
 70
     1
  0
XRECORD
  5
8610
102
{ACAD_REACTORS
330
860F
102
}
330
860F
100
AcDbXrecord
280
     1
102
RTVSPost2010Prop28
280
     0
102
RTVSPost2010PropOp28
 70
     1
102
RTVSPost2010Prop29
280
     1
102
RTVSPost2010PropOp29
 70
     1
102
RTVSPost2010Prop30
280
     1
102
RTVSPost2010PropOp30
 70
     1
102
RTVSPost2010Prop31
280
     0
102
RTVSPost2010PropOp31
 70
     1
102
RTVSPost2010Prop32
280
     0
102
RTVSPost2010PropOp32
 70
     1
102
RTVSPost2010Prop33
280
     0
102
RTVSPost2010PropOp33
 70
     1
102
RTVSPost2010Prop34
280
     0
102
RTVSPost2010PropOp34
 70
     1
102
RTVSPost2010Prop35
280
     0
102
RTVSPost2010PropOp35
 70
     1
102
RTVSPost2010Prop36
280
     0
102
RTVSPost2010PropOp36
 70
     1
102
RTVSPost2010Prop37
 90
       50
102
RTVSPost2010PropOp37
 70
     1
102
RTVSPost2010Prop38
140
0.0
102
RTVSPost2010PropOp38
 70
     1
102
RTVSPost2010Prop39
140
1.0
102
RTVSPost2010PropOp39
 70
     1
102
RTVSPost2010Prop40
 90
        0
102
RTVSPost2010PropOp40
 70
     1
102
RTVSPost2010Prop41ColorIndex
 90
       18
102
RTVSPost2010Prop41ColorRGB
 90
        0
102
RTVSPost2010PropOp41
 70
     1
102
RTVSPost2010Prop42
 90
       50
102
RTVSPost2010PropOp42
 70
     1
102
RTVSPost2010Prop43
 90
        3
102
RTVSPost2010PropOp43
 70
     1
102
RTVSPost2010Prop44ColorIndex
 90
        5
102
RTVSPost2010Prop44ColorRGB
 90
      255
102
RTVSPost2010PropOp44
 70
     1
102
RTVSPost2010Prop45
280
     0
102
RTVSPost2010PropOp45
 70
     1
102
RTVSPost2010Prop46
 90
       50
102
RTVSPost2010PropOp46
 70
     1
102
RTVSPost2010Prop47
 90
       50
102
RTVSPost2010PropOp47
 70
     1
102
RTVSPost2010Prop48
 90
       50
102
RTVSPost2010PropOp48
 70
     1
102
RTVSPost2010Prop49
280
     0
102
RTVSPost2010PropOp49
 70
     1
102
RTVSPost2010Prop50
 90
       50
102
RTVSPost2010PropOp50
 70
     1
102
RTVSPost2010Prop51ColorIndex
 90
      256
102
RTVSPost2010Prop51ColorRGB
 90
-16777216
102
RTVSPost2010PropOp51
 70
     0
102
RTVSPost2010Prop52
140
1.0
102
RTVSPost2010PropOp52
 70
     0
102
RTVSPost2010Prop53
 90
        2
102
RTVSPost2010PropOp53
 70
     1
102
RTVSPost2010Prop54
  1
strokes_ogs.tif
102
RTVSPost2010PropOp54
 70
     1
102
RTVSPost2010Prop55
280
     0
102
RTVSPost2010PropOp55
 70
     1
102
RTVSPost2010Prop56
140
1.0
102
RTVSPost2010PropOp56
 70
     1
102
RTVSPost2010Prop57
140
1.0
102
RTVSPost2010PropOp57
 70
     1
102
RTVSPropertyOp0
 70
     1
102
RTVSPropertyOp1
 70
     1
102
RTVSPropertyOp2
 70
     1
102
RTVSPropertyOp3
 70
     1
102
RTVSPropertyOp4
 70
     1
102
RTVSPropertyOp5
 70
     1
102
RTVSPropertyOp6
 70
     1
102
RTVSPropertyOp7
 70
     1
102
RTVSPropertyOp8
 70
     1
102
RTVSPropertyOp9
 70
     1
102
RTVSPropertyOp10
 70
     1
102
RTVSPropertyOp11
 70
     1
102
RTVSPropertyOp12
 70
     1
102
RTVSPropertyOp13
 70
     1
102
RTVSPropertyOp14
 70
     1
102
RTVSPropertyOp15
 70
     1
102
RTVSPropertyOp16
 70
     1
102
RTVSPropertyOp17
 70
     1
102
RTVSPropertyOp18
 70
     1
102
RTVSPropertyOp19
 70
     1
102
RTVSPropertyOp20
 70
     1
102
RTVSPropertyOp21
 70
     1
102
RTVSPropertyOp22
 70
     1
102
RTVSPropertyOp23
 70
     1
102
RTVSPropertyOp24
 70
     1
102
RTVSPropertyOp25
 70
     1
102
RTVSPropertyOp26
 70
     1
102
RTVSPropertyOp27
 70
     1
102
RTVSPropertyOp28
 70
     1
102
RTVSPropertyOp29
 70
     1
102
RTVSPropertyOp30
 70
     1
102
RTVSPropertyOp31
 70
     1
102
RTVSPropertyOp32
 70
     1
102
RTVSPropertyOp33
 70
     1
102
RTVSPropertyOp34
 70
     1
102
RTVSPropertyOp35
 70
     1
102
RTVSPropertyOp36
 70
     1
102
RTVSPropertyOp37
 70
     1
102
RTVSPropertyOp38
 70
     1
102
RTVSPropertyOp39
 70
     1
102
RTVSPropertyOp40
 70
     1
102
RTVSPropertyOp41
 70
     1
102
RTVSPropertyOp42
 70
     1
102
RTVSPropertyOp43
 70
     1
102
RTVSPropertyOp44
 70
     1
102
RTVSPropertyOp45
 70
     1
102
RTVSPropertyOp46
 70
     1
102
RTVSPropertyOp47
 70
     1
102
RTVSPropertyOp48
 70
     1
102
RTVSPropertyOp49
 70
     1
102
RTVSPropertyOp50
 70
     1
102
RTVSPropertyOp51
 70
     0
102
RTVSPropertyOp52
 70
     0
102
RTVSPropertyOp53
 70
     1
102
RTVSPropertyOp54
 70
     1
102
RTVSPropertyOp55
 70
     1
102
RTVSPropertyOp56
 70
     1
102
RTVSPropertyOp57
 70
     1
102
RTVSPropertyOp58
 70
     1
102
RTVSPropertyOp59
 70
     1
102
RTVSPropertyOp60
 70
     1
102
RTVSPropertyOp61
 70
     1
102
RTVSPropertyOp62
 70
     1
  0
ENDSEC
  0
EOF
