  0
SECTION
  2
HEADER
  9
$ACADVER
  1
AC1015
  9
$ACADMAINTVER
 70
    20
  9
$DWGCODEPAGE
  3
ANSI_932
  9
$INSBASE
 10
0.0
 20
0.0
 30
0.0
  9
$EXTMIN
 10
-0.2242870864283759
 20
-0.3150699547441036
 30
-0.0015258207003583
  9
$EXTMAX
 10
7350.224321312532
 20
10325.31511803427
 30
0.0000000349246037
  9
$LIMMIN
 10
0.0
 20
0.0
  9
$LIMMAX
 10
297.0
 20
210.0
  9
$ORTHOMODE
 70
     1
  9
$REGENMODE
 70
     1
  9
$FILLMODE
 70
     0
  9
$QTEXTMODE
 70
     0
  9
$MIRRTEXT
 70
     1
  9
$LTSCALE
 40
100.0
  9
$ATTMODE
 70
     1
  9
$TEXTSIZE
 40
180.0
  9
$TRACEWID
 40
0.05
  9
$TEXTSTYLE
  7
STANDARD
  9
$CLAYER
  8
3
  9
$CELTYPE
  6
ByLayer
  9
$CECOLOR
 62
   256
  9
$CELTSCALE
 40
1.0
  9
$DISPSILH
 70
     0
  9
$DIMSCALE
 40
35.0
  9
$DIMASZ
 40
2.0
  9
$DIMEXO
 40
0.5
  9
$DIMDLI
 40
10.0
  9
$DIMRND
 40
0.0
  9
$DIMDLE
 40
0.0
  9
$DIMEXE
 40
1.0
  9
$DIMTP
 40
1.0
  9
$DIMTM
 40
1.0
  9
$DIMTXT
 40
3.0
  9
$DIMCEN
 40
0.0
  9
$DIMTSZ
 40
0.0
  9
$DIMTOL
 70
     0
  9
$DIMLIM
 70
     0
  9
$DIMTIH
 70
     0
  9
$DIMTOH
 70
     0
  9
$DIMSE1
 70
     0
  9
$DIMSE2
 70
     0
  9
$DIMTAD
 70
     1
  9
$DIMZIN
 70
     8
  9
$DIMBLK
  1

  9
$DIMASO
 70
     1
  9
$DIMSHO
 70
     1
  9
$DIMPOST
  1

  9
$DIMAPOST
  1

  9
$DIMALT
 70
     0
  9
$DIMALTD
 70
     2
  9
$DIMALTF
 40
0.039
  9
$DIMLFAC
 40
1.0
  9
$DIMTOFL
 70
     1
  9
$DIMTVP
 40
0.0
  9
$DIMTIX
 70
     0
  9
$DIMSOXD
 70
     0
  9
$DIMSAH
 70
     1
  9
$DIMBLK1
  1
OPEN
  9
$DIMBLK2
  1
OPEN
  9
$DIMSTYLE
  2
IGA
  9
$DIMCLRD
 70
     0
  9
$DIMCLRE
 70
     0
  9
$DIMCLRT
 70
     0
  9
$DIMTFAC
 40
10.0
  9
$DIMGAP
 40
1.0
  9
$DIMJUST
 70
     0
  9
$DIMSD1
 70
     0
  9
$DIMSD2
 70
     0
  9
$DIMTOLJ
 70
     1
  9
$DIMTZIN
 70
     0
  9
$DIMALTZ
 70
     0
  9
$DIMALTTZ
 70
     0
  9
$DIMUPT
 70
     0
  9
$DIMDEC
 70
     4
  9
$DIMTDEC
 70
     4
  9
$DIMALTU
 70
     2
  9
$DIMALTTD
 70
     2
  9
$DIMTXSTY
  7
STANDARD
  9
$DIMAUNIT
 70
     0
  9
$DIMADEC
 70
     0
  9
$DIMALTRND
 40
0.0
  9
$DIMAZIN
 70
     0
  9
$DIMDSEP
 70
    46
  9
$DIMATFIT
 70
     3
  9
$DIMFRAC
 70
     0
  9
$DIMLDRBLK
  1
OPEN
  9
$DIMLUNIT
 70
     2
  9
$DIMLWD
 70
    -2
  9
$DIMLWE
 70
    -2
  9
$DIMTMOVE
 70
     0
  9
$LUNITS
 70
     2
  9
$LUPREC
 70
     3
  9
$SKETCHINC
 40
0.1
  9
$FILLETRAD
 40
50.0
  9
$AUNITS
 70
     0
  9
$AUPREC
 70
     0
  9
$MENU
  1
acad
  9
$ELEVATION
 40
0.0
  9
$PELEVATION
 40
0.0
  9
$THICKNESS
 40
0.0
  9
$LIMCHECK
 70
     0
  9
$CHAMFERA
 40
0.5
  9
$CHAMFERB
 40
0.5
  9
$CHAMFERC
 40
0.0
  9
$CHAMFERD
 40
0.0
  9
$SKPOLY
 70
     0
  9
$TDCREATE
 40
2451390.397703704
  9
$TDUCREATE
 40
2451390.022703704
  9
$TDUPDATE
 40
2460273.538303982
  9
$TDUUPDATE
 40
2460273.163303982
  9
$TDINDWG
 40
0.0434149190
  9
$TDUSRTIMER
 40
0.0434146644
  9
$USRTIMER
 70
     1
  9
$ANGBASE
 50
0.0
  9
$ANGDIR
 70
     0
  9
$PDMODE
 70
     0
  9
$PDSIZE
 40
0.0
  9
$PLINEWID
 40
0.0
  9
$SPLFRAME
 70
     0
  9
$SPLINETYPE
 70
     6
  9
$SPLINESEGS
 70
     8
  9
$HANDSEED
  5
8592
  9
$SURFTAB1
 70
     6
  9
$SURFTAB2
 70
     6
  9
$SURFTYPE
 70
     6
  9
$SURFU
 70
     6
  9
$SURFV
 70
     6
  9
$UCSBASE
  2

  9
$UCSNAME
  2

  9
$UCSORG
 10
0.0
 20
0.0
 30
0.0
  9
$UCSXDIR
 10
1.0
 20
0.0
 30
0.0
  9
$UCSYDIR
 10
0.0
 20
1.0
 30
0.0
  9
$UCSORTHOREF
  2

  9
$UCSORTHOVIEW
 70
     0
  9
$UCSORGTOP
 10
0.0
 20
0.0
 30
0.0
  9
$UCSORGBOTTOM
 10
0.0
 20
0.0
 30
0.0
  9
$UCSORGLEFT
 10
0.0
 20
0.0
 30
0.0
  9
$UCSORGRIGHT
 10
0.0
 20
0.0
 30
0.0
  9
$UCSORGFRONT
 10
0.0
 20
0.0
 30
0.0
  9
$UCSORGBACK
 10
0.0
 20
0.0
 30
0.0
  9
$PUCSBASE
  2

  9
$PUCSNAME
  2

  9
$PUCSORG
 10
0.0
 20
0.0
 30
0.0
  9
$PUCSXDIR
 10
1.0
 20
0.0
 30
0.0
  9
$PUCSYDIR
 10
0.0
 20
1.0
 30
0.0
  9
$PUCSORTHOREF
  2

  9
$PUCSORTHOVIEW
 70
     0
  9
$PUCSORGTOP
 10
0.0
 20
0.0
 30
0.0
  9
$PUCSORGBOTTOM
 10
0.0
 20
0.0
 30
0.0
  9
$PUCSORGLEFT
 10
0.0
 20
0.0
 30
0.0
  9
$PUCSORGRIGHT
 10
0.0
 20
0.0
 30
0.0
  9
$PUCSORGFRONT
 10
0.0
 20
0.0
 30
0.0
  9
$PUCSORGBACK
 10
0.0
 20
0.0
 30
0.0
  9
$USERI1
 70
     0
  9
$USERI2
 70
     0
  9
$USERI3
 70
     0
  9
$USERI4
 70
     0
  9
$USERI5
 70
     0
  9
$USERR1
 40
0.0
  9
$USERR2
 40
0.0
  9
$USERR3
 40
0.0
  9
$USERR4
 40
0.0
  9
$USERR5
 40
0.0
  9
$WORLDVIEW
 70
     1
  9
$SHADEDGE
 70
     3
  9
$SHADEDIF
 70
    70
  9
$TILEMODE
 70
     1
  9
$MAXACTVP
 70
    16
  9
$PINSBASE
 10
0.0
 20
0.0
 30
0.0
  9
$PLIMCHECK
 70
     0
  9
$PEXTMIN
 10
1.000000000000000E+20
 20
1.000000000000000E+20
 30
1.000000000000000E+20
  9
$PEXTMAX
 10
-1.000000000000000E+20
 20
-1.000000000000000E+20
 30
-1.000000000000000E+20
  9
$PLIMMIN
 10
0.0
 20
0.0
  9
$PLIMMAX
 10
12.0
 20
9.0
  9
$UNITMODE
 70
     0
  9
$VISRETAIN
 70
     0
  9
$PLINEGEN
 70
     0
  9
$PSLTSCALE
 70
     1
  9
$TREEDEPTH
 70
  3020
  9
$CMLSTYLE
  2
Standard
  9
$CMLJUST
 70
     0
  9
$CMLSCALE
 40
1.0
  9
$PROXYGRAPHICS
 70
     1
  9
$MEASUREMENT
 70
     0
  9
$CELWEIGHT
370
    -1
  9
$ENDCAPS
280
     0
  9
$JOINSTYLE
280
     0
  9
$LWDISPLAY
290
     0
  9
$INSUNITS
 70
     0
  9
$HYPERLINKBASE
  1

  9
$STYLESHEET
  1

  9
$XEDIT
290
     1
  9
$CEPSNTYPE
380
     0
  9
$PSTYLEMODE
290
     1
  9
$FINGERPRINTGUID
  2
{57CF89E6-DBEB-440B-B9F9-B8FDC727B338}
  9
$VERSIONGUID
  2
{D6127E74-4A16-4C46-9257-3D98278B98E5}
  9
$EXTNAMES
290
     1
  9
$PSVPSCALE
 40
0.0
  9
$OLESTARTUP
290
     0
  0
ENDSEC
  0
SECTION
  2
CLASSES
  0
CLASS
  1
ACDBDICTIONARYWDFLT
  2
AcDbDictionaryWithDefault
  3
ObjectDBX Classes
 90
        0
280
     0
281
     0
  0
CLASS
  1
MATERIAL
  2
AcDbMaterial
  3
ObjectDBX Classes
 90
     1153
280
     0
281
     0
  0
CLASS
  1
VISUALSTYLE
  2
AcDbVisualStyle
  3
ObjectDBX Classes
 90
     4095
280
     0
281
     0
  0
CLASS
  1
SCALE
  2
AcDbScale
  3
ObjectDBX Classes
 90
     1153
280
     0
281
     0
  0
CLASS
  1
TABLESTYLE
  2
AcDbTableStyle
  3
ObjectDBX Classes
 90
     4095
280
     0
281
     0
  0
CLASS
  1
MLEADERSTYLE
  2
AcDbMLeaderStyle
  3
ACDB_MLEADERSTYLE_CLASS
 90
     4095
280
     0
281
     0
  0
CLASS
  1
ACDBSECTIONVIEWSTYLE
  2
AcDbSectionViewStyle
  3
ObjectDBX Classes
 90
     1025
280
     0
281
     0
  0
CLASS
  1
ACDBDETAILVIEWSTYLE
  2
AcDbDetailViewStyle
  3
ObjectDBX Classes
 90
     1025
280
     0
281
     0
  0
CLASS
  1
SORTENTSTABLE
  2
AcDbSortentsTable
  3
ObjectDBX Classes
 90
        0
280
     0
281
     0
  0
CLASS
  1
DICTIONARYVAR
  2
AcDbDictionaryVar
  3
ObjectDBX Classes
 90
        0
280
     0
281
     0
  0
CLASS
  1
CELLSTYLEMAP
  2
AcDbCellStyleMap
  3
ObjectDBX Classes
 90
     1152
280
     0
281
     0
  0
CLASS
  1
ACDBPLACEHOLDER
  2
AcDbPlaceHolder
  3
ObjectDBX Classes
 90
        0
280
     0
281
     0
  0
CLASS
  1
LAYOUT
  2
AcDbLayout
  3
ObjectDBX Classes
 90
        0
280
     0
281
     0
  0
ENDSEC
  0
SECTION
  2
TABLES
  0
TABLE
  2
VPORT
  5
8357
330
0
100
AcDbSymbolTable
 70
     1
  0
VPORT
  5
83C3
330
8357
100
AcDbSymbolTableRecord
100
AcDbViewportTableRecord
  2
*ACTIVE
 70
     0
 10
0.0
 20
0.0
 11
1.0
 21
1.0
 12
3652.795451104049
 22
5073.68165086514
 13
0.0
 23
0.0
 14
10.0
 24
10.0
 15
10.0
 25
10.0
 16
0.0
 26
0.0
 36
1.0
 17
0.0
 27
0.0
 37
0.0
 40
10391.74947961864
 41
2.050213675213675
 42
50.0
 43
0.0
 44
0.0
 50
0.0
 51
0.0
 71
     0
 72
   100
 73
     1
 74
     0
 75
     0
 76
     0
 77
     0
 78
     0
281
     0
 65
     1
110
0.0
120
0.0
130
0.0
111
1.0
121
0.0
131
0.0
112
0.0
122
1.0
132
0.0
 79
     0
146
0.0
1001
ACAD_NAV_VCDISPLAY
1070
     3
  0
ENDTAB
  0
TABLE
  2
LTYPE
  5
8354
330
0
100
AcDbSymbolTable
 70
     3
  0
LTYPE
  5
83A9
330
8354
100
AcDbSymbolTableRecord
100
AcDbLinetypeTableRecord
  2
ByBlock
 70
     0
  3

 72
    65
 73
     0
 40
0.0
  0
LTYPE
  5
83AA
330
8354
100
AcDbSymbolTableRecord
100
AcDbLinetypeTableRecord
  2
ByLayer
 70
     0
  3

 72
    65
 73
     0
 40
0.0
  0
LTYPE
  5
83AB
330
8354
100
AcDbSymbolTableRecord
100
AcDbLinetypeTableRecord
  2
CONTINUOUS
 70
     0
  3
Solid line
 72
    65
 73
     0
 40
0.0
  0
LTYPE
  5
83C4
330
8354
100
AcDbSymbolTableRecord
100
AcDbLinetypeTableRecord
  2
CENTER
 70
     0
  3
____ _ ____ _ ____ _ ____ _ ____ _ ____ _ ____ 
 72
    65
 73
     4
 40
2.0
 49
1.25
 74
     0
 49
-0.25
 74
     0
 49
0.25
 74
     0
 49
-0.25
 74
     0
  0
ENDTAB
  0
TABLE
  2
LAYER
  5
8351
330
0
100
AcDbSymbolTable
 70
     6
  0
LAYER
  5
83A3
102
{ACAD_XDICTIONARY
360
853C
102
}
330
8351
100
AcDbSymbolTableRecord
100
AcDbLayerTableRecord
  2
0
 70
     0
 62
     7
  6
CONTINUOUS
370
    -3
390
835E
  0
LAYER
  5
83C2
102
{ACAD_XDICTIONARY
360
853E
102
}
330
8351
100
AcDbSymbolTableRecord
100
AcDbLayerTableRecord
  2
3
 70
     0
 62
     2
  6
CONTINUOUS
370
    -3
390
835E
  0
LAYER
  5
83C5
102
{ACAD_XDICTIONARY
360
8540
102
}
330
8351
100
AcDbSymbolTableRecord
100
AcDbLayerTableRecord
  2
2
 70
     0
 62
     3
  6
CENTER
370
    -3
390
835E
  0
LAYER
  5
83C6
102
{ACAD_XDICTIONARY
360
8542
102
}
330
8351
100
AcDbSymbolTableRecord
100
AcDbLayerTableRecord
  2
1
 70
     0
 62
     4
  6
CONTINUOUS
370
    -3
390
835E
  0
LAYER
  5
83C7
102
{ACAD_XDICTIONARY
360
8544
102
}
330
8351
100
AcDbSymbolTableRecord
100
AcDbLayerTableRecord
  2
4
 70
     0
 62
     7
  6
CONTINUOUS
370
    -3
390
835E
  0
LAYER
  5
83C8
330
8351
100
AcDbSymbolTableRecord
100
AcDbLayerTableRecord
  2
DEFPOINTS
 70
     0
 62
     7
  6
CONTINUOUS
290
     0
370
    -3
390
835E
  0
ENDTAB
  0
TABLE
  2
STYLE
  5
8352
330
0
100
AcDbSymbolTable
 70
     2
  0
STYLE
  5
83A4
330
8352
100
AcDbSymbolTableRecord
100
AcDbTextStyleTableRecord
  2
STANDARD
 70
     0
 40
0.0
 41
1.0
 50
0.0
 71
     0
 42
180.0
  3
simplex.shx
  4
extfont.shx
  0
STYLE
  5
83A8
330
8352
100
AcDbSymbolTableRecord
100
AcDbTextStyleTableRecord
  2
Annotative
 70
     0
 40
0.0
 41
1.0
 50
0.0
 71
     0
 42
0.2
  3
txt
  4

1001
AcadAnnotative
1000
AnnotativeData
1002
{
1070
     1
1070
     1
1002
}
  0
ENDTAB
  0
TABLE
  2
VIEW
  5
8355
330
0
100
AcDbSymbolTable
 70
     0
  0
ENDTAB
  0
TABLE
  2
UCS
  5
8356
330
0
100
AcDbSymbolTable
 70
     0
  0
ENDTAB
  0
TABLE
  2
APPID
  5
8358
330
0
100
AcDbSymbolTable
 70
     6
  0
APPID
  5
83A5
330
8358
100
AcDbSymbolTableRecord
100
AcDbRegAppTableRecord
  2
ACAD
 70
     0
  0
APPID
  5
83AC
330
8358
100
AcDbSymbolTableRecord
100
AcDbRegAppTableRecord
  2
AcadAnnotative
 70
     0
  0
APPID
  5
843A
330
8358
100
AcDbSymbolTableRecord
100
AcDbRegAppTableRecord
  2
AcadAnnoMonitorAlertIconDisabled
 70
     0
  0
APPID
  5
843B
330
8358
100
AcDbSymbolTableRecord
100
AcDbRegAppTableRecord
  2
ACAD_EXEMPT_FROM_CAD_STANDARDS
 70
     0
  0
APPID
  5
8550
330
8358
100
AcDbSymbolTableRecord
100
AcDbRegAppTableRecord
  2
ACAD_NAV_VCDISPLAY
 70
     0
  0
APPID
  5
8589
330
8358
100
AcDbSymbolTableRecord
100
AcDbRegAppTableRecord
  2
ACAD_MLEADERVER
 70
     0
  0
ENDTAB
  0
TABLE
  2
DIMSTYLE
  5
8359
330
0
100
AcDbSymbolTable
 70
     3
100
AcDbDimStyleTable
 71
     1
340
83C9
  0
DIMSTYLE
105
83A6
102
{ACAD_REACTORS
330
81AF
330
81BC
330
81C9
330
81D6
330
81E3
102
}
330
8359
100
AcDbSymbolTableRecord
100
AcDbDimStyleTableRecord
  2
Standard
 70
     0
340
83A4
  0
DIMSTYLE
105
83A7
330
8359
100
AcDbSymbolTableRecord
100
AcDbDimStyleTableRecord
  2
Annotative
 70
     0
340
83A4
1001
AcadAnnotative
1000
AnnotativeData
1002
{
1070
     1
1070
     1
1002
}
  0
DIMSTYLE
105
83C9
102
{ACAD_REACTORS
330
8406
330
8413
330
8420
330
842D
330
84AD
330
84BA
330
84C7
330
84D4
330
84E1
330
84EE
330
84FB
330
8508
330
8515
330
8522
330
852F
102
}
330
8359
100
AcDbSymbolTableRecord
100
AcDbDimStyleTableRecord
  2
IGA
 70
     0
 40
2.0
 41
2.0
 42
0.5
 43
10.0
 44
1.0
 47
1.0
 48
1.0
 73
     0
 74
     0
 77
     1
 78
     8
140
3.0
141
0.0
143
0.03937
146
10.0
147
1.0
173
     1
271
     3
272
     3
279
     2
284
     8
285
     8
286
     8
340
83A4
  0
ENDTAB
  0
TABLE
  2
BLOCK_RECORD
  5
8350
330
0
100
AcDbSymbolTable
 70
    42
  0
BLOCK_RECORD
  5
83BE
102
{ACAD_XDICTIONARY
360
8403
102
}
330
8350
100
AcDbSymbolTableRecord
100
AcDbBlockTableRecord
  2
*Model_Space
340
83C1
  0
BLOCK_RECORD
  5
83BA
330
8350
100
AcDbSymbolTableRecord
100
AcDbBlockTableRecord
  2
*Paper_Space
340
83BD
  0
BLOCK_RECORD
  5
83CD
330
8350
100
AcDbSymbolTableRecord
100
AcDbBlockTableRecord
  2
$MODEL_SPACE
340
0
  0
BLOCK_RECORD
  5
83CF
330
8350
100
AcDbSymbolTableRecord
100
AcDbBlockTableRecord
  2
$PAPER_SPACE
340
0
  0
BLOCK_RECORD
  5
83D1
330
8350
100
AcDbSymbolTableRecord
100
AcDbBlockTableRecord
  2
_OPEN
340
0
102
{BLKREFS
331
8502
331
8503
331
850F
331
8510
331
851C
331
851D
331
8529
331
852A
331
8536
331
8537
331
82B9
331
82BA
331
82C2
331
82C3
331
82CB
331
82CC
331
82D4
331
82D5
331
82DD
331
82DE
331
8488
331
8489
331
8491
331
8492
331
84A7
331
84A8
331
84B4
331
84B5
331
84C1
331
84C2
331
84CE
331
84CF
331
84DB
331
84DC
331
84E8
331
84E9
331
84F5
331
84F6
331
82E6
331
82E7
331
8449
331
844A
331
82EF
331
82F0
331
81C2
331
81C3
331
81CF
331
81D0
331
81DC
331
81DD
331
841A
331
841B
331
82F8
331
82F9
331
8301
331
8302
331
830A
331
830B
331
8313
331
8314
331
831C
331
831D
331
81A8
331
81A9
331
81B5
331
81B6
331
8325
331
8326
331
832E
331
832F
331
8337
331
8338
102
}
  0
BLOCK_RECORD
  5
83D3
330
8350
100
AcDbSymbolTableRecord
100
AcDbBlockTableRecord
  2
YA_N
340
0
102
{BLKREFS
331
7C11
331
7C32
331
7C3B
331
7C67
331
7C8E
102
}
  0
BLOCK_RECORD
  5
83D5
330
8350
100
AcDbSymbolTableRecord
100
AcDbBlockTableRecord
  2
*D4
340
0
  0
BLOCK_RECORD
  5
83D7
330
8350
100
AcDbSymbolTableRecord
100
AcDbBlockTableRecord
  2
*D5
340
0
  0
BLOCK_RECORD
  5
83D9
330
8350
100
AcDbSymbolTableRecord
100
AcDbBlockTableRecord
  2
*D6
340
0
  0
BLOCK_RECORD
  5
83DB
330
8350
100
AcDbSymbolTableRecord
100
AcDbBlockTableRecord
  2
*D7
340
0
  0
BLOCK_RECORD
  5
83DD
330
8350
100
AcDbSymbolTableRecord
100
AcDbBlockTableRecord
  2
*D8
340
0
  0
BLOCK_RECORD
  5
83DF
330
8350
100
AcDbSymbolTableRecord
100
AcDbBlockTableRecord
  2
*D9
340
0
  0
BLOCK_RECORD
  5
83E1
330
8350
100
AcDbSymbolTableRecord
100
AcDbBlockTableRecord
  2
*D10
340
0
  0
BLOCK_RECORD
  5
83E3
330
8350
100
AcDbSymbolTableRecord
100
AcDbBlockTableRecord
  2
*D11
340
0
  0
BLOCK_RECORD
  5
83E5
330
8350
100
AcDbSymbolTableRecord
100
AcDbBlockTableRecord
  2
*D12
340
0
  0
BLOCK_RECORD
  5
83E7
330
8350
100
AcDbSymbolTableRecord
100
AcDbBlockTableRecord
  2
*D13
340
0
  0
BLOCK_RECORD
  5
83E9
330
8350
100
AcDbSymbolTableRecord
100
AcDbBlockTableRecord
  2
*D14
340
0
  0
BLOCK_RECORD
  5
83EB
330
8350
100
AcDbSymbolTableRecord
100
AcDbBlockTableRecord
  2
*D15
340
0
  0
BLOCK_RECORD
  5
83ED
330
8350
100
AcDbSymbolTableRecord
100
AcDbBlockTableRecord
  2
*D16
340
0
  0
BLOCK_RECORD
  5
83EF
330
8350
100
AcDbSymbolTableRecord
100
AcDbBlockTableRecord
  2
*D17
340
0
  0
BLOCK_RECORD
  5
83F1
330
8350
100
AcDbSymbolTableRecord
100
AcDbBlockTableRecord
  2
*D18
340
0
  0
BLOCK_RECORD
  5
83F3
330
8350
100
AcDbSymbolTableRecord
100
AcDbBlockTableRecord
  2
_DOT
340
0
  0
BLOCK_RECORD
  5
83F5
330
8350
100
AcDbSymbolTableRecord
100
AcDbBlockTableRecord
  2
_NONE
340
0
  0
BLOCK_RECORD
  5
83F7
330
8350
100
AcDbSymbolTableRecord
100
AcDbBlockTableRecord
  2
*D21
340
0
  0
BLOCK_RECORD
  5
83F9
330
8350
100
AcDbSymbolTableRecord
100
AcDbBlockTableRecord
  2
*D22
340
0
  0
BLOCK_RECORD
  5
83FB
330
8350
100
AcDbSymbolTableRecord
100
AcDbBlockTableRecord
  2
*D23
340
0
  0
BLOCK_RECORD
  5
83FD
330
8350
100
AcDbSymbolTableRecord
100
AcDbBlockTableRecord
  2
*D24
340
0
  0
BLOCK_RECORD
  5
83FF
330
8350
100
AcDbSymbolTableRecord
100
AcDbBlockTableRecord
  2
*D25
340
0
  0
BLOCK_RECORD
  5
8407
330
8350
100
AcDbSymbolTableRecord
100
AcDbBlockTableRecord
  2
*D26
340
0
  0
BLOCK_RECORD
  5
8414
330
8350
100
AcDbSymbolTableRecord
100
AcDbBlockTableRecord
  2
*D27
340
0
  0
BLOCK_RECORD
  5
8421
330
8350
100
AcDbSymbolTableRecord
100
AcDbBlockTableRecord
  2
*D28
340
0
  0
BLOCK_RECORD
  5
842E
330
8350
100
AcDbSymbolTableRecord
100
AcDbBlockTableRecord
  2
*D29
340
0
  0
BLOCK_RECORD
  5
8498
330
8350
100
AcDbSymbolTableRecord
100
AcDbBlockTableRecord
  2
*D30
340
0
  0
BLOCK_RECORD
  5
84AE
330
8350
100
AcDbSymbolTableRecord
100
AcDbBlockTableRecord
  2
*D31
340
0
  0
BLOCK_RECORD
  5
84BB
330
8350
100
AcDbSymbolTableRecord
100
AcDbBlockTableRecord
  2
*D32
340
0
  0
BLOCK_RECORD
  5
84C8
330
8350
100
AcDbSymbolTableRecord
100
AcDbBlockTableRecord
  2
*D33
340
0
  0
BLOCK_RECORD
  5
84D5
330
8350
100
AcDbSymbolTableRecord
100
AcDbBlockTableRecord
  2
*D34
340
0
  0
BLOCK_RECORD
  5
84E2
330
8350
100
AcDbSymbolTableRecord
100
AcDbBlockTableRecord
  2
*D35
340
0
  0
BLOCK_RECORD
  5
84EF
330
8350
100
AcDbSymbolTableRecord
100
AcDbBlockTableRecord
  2
*D36
340
0
  0
BLOCK_RECORD
  5
84FC
330
8350
100
AcDbSymbolTableRecord
100
AcDbBlockTableRecord
  2
*D37
340
0
  0
BLOCK_RECORD
  5
8509
330
8350
100
AcDbSymbolTableRecord
100
AcDbBlockTableRecord
  2
*D38
340
0
  0
BLOCK_RECORD
  5
8516
330
8350
100
AcDbSymbolTableRecord
100
AcDbBlockTableRecord
  2
*D39
340
0
  0
BLOCK_RECORD
  5
8523
330
8350
100
AcDbSymbolTableRecord
100
AcDbBlockTableRecord
  2
*D40
340
0
  0
BLOCK_RECORD
  5
8530
330
8350
100
AcDbSymbolTableRecord
100
AcDbBlockTableRecord
  2
*D41
340
0
  0
ENDTAB
  0
ENDSEC
  0
SECTION
  2
BLOCKS
  0
BLOCK
  5
83BF
330
83BE
100
AcDbEntity
  8
0
100
AcDbBlockBegin
  2
*Model_Space
 70
     0
 10
0.0
 20
0.0
 30
0.0
  3
*Model_Space
  1

  0
ENDBLK
  5
83C0
330
83BE
100
AcDbEntity
  8
0
100
AcDbBlockEnd
  0
BLOCK
  5
83BB
330
83BA
100
AcDbEntity
 67
     1
  8
0
100
AcDbBlockBegin
  2
*Paper_Space
 70
     0
 10
0.0
 20
0.0
 30
0.0
  3
*Paper_Space
  1

  0
ENDBLK
  5
83BC
330
83BA
100
AcDbEntity
 67
     1
  8
0
100
AcDbBlockEnd
  0
BLOCK
  5
83CE
330
83CD
100
AcDbEntity
  8
0
100
AcDbBlockBegin
  2
$MODEL_SPACE
 70
     0
 10
0.0
 20
0.0
 30
0.0
  3
$MODEL_SPACE
  1

  0
ENDBLK
  5
1B
330
83CD
100
AcDbEntity
  8
0
100
AcDbBlockEnd
  0
BLOCK
  5
83D0
330
83CF
100
AcDbEntity
  8
0
100
AcDbBlockBegin
  2
$PAPER_SPACE
 70
     0
 10
0.0
 20
0.0
 30
0.0
  3
$PAPER_SPACE
  1

  0
ENDBLK
  5
18
330
83CF
100
AcDbEntity
  8
0
100
AcDbBlockEnd
  0
BLOCK
  5
83D2
330
83D1
100
AcDbEntity
  8
0
100
AcDbBlockBegin
  2
_OPEN
 70
     0
 10
0.0
 20
0.0
 30
0.0
  3
_OPEN
  1

  0
LINE
  5
79FD
330
83D1
100
AcDbEntity
  8
0
  6
ByBlock
 62
     0
100
AcDbLine
 10
-1.0
 20
0.1666666666666666
 30
0.0
 11
0.0
 21
0.0
 31
0.0
  0
LINE
  5
79FE
330
83D1
100
AcDbEntity
  8
0
  6
ByBlock
 62
     0
100
AcDbLine
 10
0.0
 20
0.0
 30
0.0
 11
-1.0
 21
-0.1666666666666666
 31
0.0
  0
LINE
  5
79FF
330
83D1
100
AcDbEntity
  8
0
  6
ByBlock
 62
     0
100
AcDbLine
 10
0.0
 20
0.0
 30
0.0
 11
-1.0
 21
0.0
 31
0.0
  0
ENDBLK
  5
7A01
330
83D1
100
AcDbEntity
  8
0
100
AcDbBlockEnd
  0
BLOCK
  5
83D4
330
83D3
100
AcDbEntity
  8
0
100
AcDbBlockBegin
  2
YA_N
 70
     0
 10
0.0
 20
0.0
 30
0.0
  3
YA_N
  1

  0
ENDBLK
  5
7A0C
330
83D3
100
AcDbEntity
  8
0
100
AcDbBlockEnd
  0
BLOCK
  5
83D6
330
83D5
100
AcDbEntity
  8
0
100
AcDbBlockBegin
  2
*D4
 70
     1
 10
0.0
 20
0.0
 30
0.0
  3
*D4
  1

  0
LINE
  5
82B6
330
83D5
100
AcDbEntity
  8
3
 62
     0
100
AcDbLine
 10
1238.826826817035
 20
4205.824713053003
 30
0.0
 11
1238.826826817035
 21
4423.433029337269
 31
0.0
  0
LINE
  5
82B7
330
83D5
100
AcDbEntity
  8
3
 62
     0
100
AcDbLine
 10
2388.826826817036
 20
4205.824713053003
 30
0.0
 11
2388.826826817036
 21
4423.433029337269
 31
0.0
  0
LINE
  5
82B8
330
83D5
100
AcDbEntity
  8
3
 62
     0
100
AcDbLine
 10
1308.826826817035
 20
4388.433029337271
 30
0.0
 11
2318.826826817035
 21
4388.433029337271
 31
0.0
  0
INSERT
  5
82B9
330
83D5
100
AcDbEntity
  8
3
 62
     0
100
AcDbBlockReference
  2
_OPEN
 10
1238.826826817035
 20
4388.433029337271
 30
0.0
 41
70.0
 42
70.0
 43
70.0
 50
180.0
  0
INSERT
  5
82BA
330
83D5
100
AcDbEntity
  8
3
 62
     0
100
AcDbBlockReference
  2
_OPEN
 10
2388.826826817036
 20
4388.433029337271
 30
0.0
 41
70.0
 42
70.0
 43
70.0
  0
TEXT
  5
8340
330
83D5
100
AcDbEntity
  8
3
 62
     0
100
AcDbText
 10
1603.83
 20
4290.079999999999
 30
0.0
 40
105.0
  1
1150
100
AcDbText
  0
POINT
  5
82BC
330
83D5
100
AcDbEntity
  8
DEFPOINTS
 62
     0
100
AcDbPoint
 10
1238.826826817035
 20
4188.324713053003
 30
0.0
  0
POINT
  5
82BD
330
83D5
100
AcDbEntity
  8
DEFPOINTS
 62
     0
100
AcDbPoint
 10
2388.826826817036
 20
4188.324713053003
 30
0.0
  0
POINT
  5
82BE
330
83D5
100
AcDbEntity
  8
DEFPOINTS
 62
     0
100
AcDbPoint
 10
2388.826826817036
 20
4388.433029337271
 30
0.0
  0
ENDBLK
  5
7F65
330
83D5
100
AcDbEntity
  8
0
100
AcDbBlockEnd
  0
BLOCK
  5
83D8
330
83D7
100
AcDbEntity
  8
0
100
AcDbBlockBegin
  2
*D5
 70
     1
 10
0.0
 20
0.0
 30
0.0
  3
*D5
  1

  0
LINE
  5
82BF
330
83D7
100
AcDbEntity
  8
3
 62
     0
100
AcDbLine
 10
1238.826826817035
 20
4205.824713053003
 30
0.0
 11
1238.826826817035
 21
4623.584680198772
 31
0.0
  0
LINE
  5
82C0
330
83D7
100
AcDbEntity
  8
3
 62
     0
100
AcDbLine
 10
2436.826826817036
 20
4291.663713951737
 30
0.0
 11
2436.826826817036
 21
4623.584680198772
 31
0.0
  0
LINE
  5
82C1
330
83D7
100
AcDbEntity
  8
3
 62
     0
100
AcDbLine
 10
1308.826826817035
 20
4588.58468019877
 30
0.0
 11
2366.826826817035
 21
4588.58468019877
 31
0.0
  0
INSERT
  5
82C2
330
83D7
100
AcDbEntity
  8
3
 62
     0
100
AcDbBlockReference
  2
_OPEN
 10
1238.826826817035
 20
4588.58468019877
 30
0.0
 41
70.0
 42
70.0
 43
70.0
 50
180.0
  0
INSERT
  5
82C3
330
83D7
100
AcDbEntity
  8
3
 62
     0
100
AcDbBlockReference
  2
_OPEN
 10
2436.826826817036
 20
4588.58468019877
 30
0.0
 41
70.0
 42
70.0
 43
70.0
  0
TEXT
  5
8341
330
83D7
100
AcDbEntity
  8
3
 62
     0
100
AcDbText
 10
1627.83
 20
4490.229999999999
 30
0.0
 40
105.0
  1
1198
100
AcDbText
  0
POINT
  5
82C5
330
83D7
100
AcDbEntity
  8
DEFPOINTS
 62
     0
100
AcDbPoint
 10
1238.826826817035
 20
4188.324713053003
 30
0.0
  0
POINT
  5
82C6
330
83D7
100
AcDbEntity
  8
DEFPOINTS
 62
     0
100
AcDbPoint
 10
2436.826826817036
 20
4274.163713951737
 30
0.0
  0
POINT
  5
82C7
330
83D7
100
AcDbEntity
  8
DEFPOINTS
 62
     0
100
AcDbPoint
 10
2436.826826817036
 20
4588.58468019877
 30
0.0
  0
ENDBLK
  5
7F5A
330
83D7
100
AcDbEntity
  8
0
100
AcDbBlockEnd
  0
BLOCK
  5
83DA
330
83D9
100
AcDbEntity
  8
0
100
AcDbBlockBegin
  2
*D6
 70
     1
 10
0.0
 20
0.0
 30
0.0
  3
*D6
  1

  0
LINE
  5
82C8
330
83D9
100
AcDbEntity
  8
3
 62
     0
100
AcDbLine
 10
4706.51705109929
 20
4201.164986255099
 30
0.0
 11
4706.51705109929
 21
4483.443004574665
 31
0.0
  0
LINE
  5
82C9
330
83D9
100
AcDbEntity
  8
3
 62
     0
100
AcDbLine
 10
6206.517051099289
 20
4195.316049593485
 30
0.0
 11
6206.517051099289
 21
4483.443004574665
 31
0.0
  0
LINE
  5
82CA
330
83D9
100
AcDbEntity
  8
3
 62
     0
100
AcDbLine
 10
4776.51705109929
 20
4448.443004574665
 30
0.0
 11
6136.517051099289
 21
4448.443004574665
 31
0.0
  0
INSERT
  5
82CB
330
83D9
100
AcDbEntity
  8
3
 62
     0
100
AcDbBlockReference
  2
_OPEN
 10
4706.51705109929
 20
4448.443004574665
 30
0.0
 41
70.0
 42
70.0
 43
70.0
 50
180.0
  0
INSERT
  5
82CC
330
83D9
100
AcDbEntity
  8
3
 62
     0
100
AcDbBlockReference
  2
_OPEN
 10
6206.517051099289
 20
4448.443004574665
 30
0.0
 41
70.0
 42
70.0
 43
70.0
  0
TEXT
  5
8342
330
83D9
100
AcDbEntity
  8
3
 62
     0
100
AcDbText
 10
5246.52
 20
4350.09
 30
0.0
 40
105.0
  1
1500
100
AcDbText
  0
POINT
  5
82CE
330
83D9
100
AcDbEntity
  8
DEFPOINTS
 62
     0
100
AcDbPoint
 10
4706.51705109929
 20
4183.664986255098
 30
0.0
  0
POINT
  5
82CF
330
83D9
100
AcDbEntity
  8
DEFPOINTS
 62
     0
100
AcDbPoint
 10
6206.517051099289
 20
4177.816049593485
 30
0.0
  0
POINT
  5
82D0
330
83D9
100
AcDbEntity
  8
DEFPOINTS
 62
     0
100
AcDbPoint
 10
6206.517051099289
 20
4448.443004574665
 30
0.0
  0
ENDBLK
  5
8019
330
83D9
100
AcDbEntity
  8
0
100
AcDbBlockEnd
  0
BLOCK
  5
83DC
330
83DB
100
AcDbEntity
  8
0
100
AcDbBlockBegin
  2
*D7
 70
     1
 10
0.0
 20
0.0
 30
0.0
  3
*D7
  1

  0
LINE
  5
82D1
330
83DB
100
AcDbEntity
  8
3
 62
     0
100
AcDbLine
 10
5456.517051099289
 20
4632.420770395445
 30
0.0
 11
5456.517051099289
 21
4714.226996529467
 31
0.0
  0
LINE
  5
82D2
330
83DB
100
AcDbEntity
  8
3
 62
     0
100
AcDbLine
 10
6371.517051099289
 20
3358.864190158198
 30
0.0
 11
6371.517051099289
 21
4714.226996529467
 31
0.0
  0
LINE
  5
82D3
330
83DB
100
AcDbEntity
  8
3
 62
     0
100
AcDbLine
 10
5526.51705109929
 20
4679.226996529467
 30
0.0
 11
6301.517051099287
 21
4679.226996529467
 31
0.0
  0
INSERT
  5
82D4
330
83DB
100
AcDbEntity
  8
3
 62
     0
100
AcDbBlockReference
  2
_OPEN
 10
5456.517051099289
 20
4679.226996529467
 30
0.0
 41
70.0
 42
70.0
 43
70.0
 50
180.0
  0
INSERT
  5
82D5
330
83DB
100
AcDbEntity
  8
3
 62
     0
100
AcDbBlockReference
  2
_OPEN
 10
6371.517051099289
 20
4679.226996529467
 30
0.0
 41
70.0
 42
70.0
 43
70.0
  0
TEXT
  5
8343
330
83DB
100
AcDbEntity
  8
3
 62
     0
100
AcDbText
 10
5704.02
 20
4608.38
 30
0.0
 40
105.0
  1
(930)
100
AcDbText
  0
POINT
  5
82D7
330
83DB
100
AcDbEntity
  8
DEFPOINTS
 62
     0
100
AcDbPoint
 10
5456.517051099289
 20
4614.920770395445
 30
0.0
  0
POINT
  5
82D8
330
83DB
100
AcDbEntity
  8
DEFPOINTS
 62
     0
100
AcDbPoint
 10
6371.517051099289
 20
3341.364190158197
 30
0.0
  0
POINT
  5
82D9
330
83DB
100
AcDbEntity
  8
DEFPOINTS
 62
     0
100
AcDbPoint
 10
6371.517051099289
 20
4679.226996529467
 30
0.0
  0
ENDBLK
  5
811B
330
83DB
100
AcDbEntity
  8
0
100
AcDbBlockEnd
  0
BLOCK
  5
83DE
330
83DD
100
AcDbEntity
  8
0
100
AcDbBlockBegin
  2
*D8
 70
     1
 10
0.0
 20
0.0
 30
0.0
  3
*D8
  1

  0
LINE
  5
82DA
330
83DD
100
AcDbEntity
  8
3
 62
     0
100
AcDbLine
 10
6229.517051099293
 20
2868.324713053003
 30
0.0
 11
6609.299817454804
 21
2868.324713053003
 31
0.0
  0
LINE
  5
82DB
330
83DD
100
AcDbEntity
  8
3
 62
     0
100
AcDbLine
 10
6229.517051099293
 20
3988.324713053003
 30
0.0
 11
6609.299817454804
 21
3988.324713053003
 31
0.0
  0
LINE
  5
82DC
330
83DD
100
AcDbEntity
  8
3
 62
     0
100
AcDbLine
 10
6574.299817454805
 20
2938.324713053003
 30
0.0
 11
6574.299817454805
 21
3918.324713053003
 31
0.0
  0
INSERT
  5
82DD
330
83DD
100
AcDbEntity
  8
3
 62
     0
100
AcDbBlockReference
  2
_OPEN
 10
6574.299817454805
 20
2868.324713053003
 30
0.0
 41
70.0
 42
70.0
 43
70.0
 50
270.0
  0
INSERT
  5
82DE
330
83DD
100
AcDbEntity
  8
3
 62
     0
100
AcDbBlockReference
  2
_OPEN
 10
6574.299817454805
 20
3988.324713053003
 30
0.0
 41
70.0
 42
70.0
 43
70.0
 50
90.0
  0
TEXT
  5
8344
330
83DD
100
AcDbEntity
  8
3
 62
     0
100
AcDbText
 10
6276.8
 20
3242.47
 30
0.0
 40
105.0
  1
\U+03C61120
100
AcDbText
  0
POINT
  5
82E0
330
83DD
100
AcDbEntity
  8
DEFPOINTS
 62
     0
100
AcDbPoint
 10
6212.017051099293
 20
2868.324713053003
 30
0.0
  0
POINT
  5
82E1
330
83DD
100
AcDbEntity
  8
DEFPOINTS
 62
     0
100
AcDbPoint
 10
6212.017051099293
 20
3988.324713053003
 30
0.0
  0
POINT
  5
82E2
330
83DD
100
AcDbEntity
  8
DEFPOINTS
 62
     0
100
AcDbPoint
 10
6574.299817454805
 20
3988.324713053003
 30
0.0
  0
ENDBLK
  5
7FF8
330
83DD
100
AcDbEntity
  8
0
100
AcDbBlockEnd
  0
BLOCK
  5
83E0
330
83DF
100
AcDbEntity
  8
0
100
AcDbBlockBegin
  2
*D9
 70
     1
 10
0.0
 20
0.0
 30
0.0
  3
*D9
  1

  0
LINE
  5
82E3
330
83DF
100
AcDbEntity
  8
3
 62
     0
100
AcDbLine
 10
4333.817051099289
 20
3825.824713053004
 30
0.0
 11
4333.817051099289
 21
4713.210345261056
 31
0.0
  0
LINE
  5
82E4
330
83DF
100
AcDbEntity
  8
3
 62
     0
100
AcDbLine
 10
5456.517051099289
 20
4632.420770395445
 30
0.0
 11
5456.517051099289
 21
4713.210345261056
 31
0.0
  0
LINE
  5
82E5
330
83DF
100
AcDbEntity
  8
3
 62
     0
100
AcDbLine
 10
4403.817051099291
 20
4678.210345261056
 30
0.0
 11
5386.517051099289
 21
4678.210345261056
 31
0.0
  0
INSERT
  5
82E6
330
83DF
100
AcDbEntity
  8
3
 62
     0
100
AcDbBlockReference
  2
_OPEN
 10
4333.817051099289
 20
4678.210345261056
 30
0.0
 41
70.0
 42
70.0
 43
70.0
 50
180.0
  0
INSERT
  5
82E7
330
83DF
100
AcDbEntity
  8
3
 62
     0
100
AcDbBlockReference
  2
_OPEN
 10
5456.517051099289
 20
4678.210345261056
 30
0.0
 41
70.0
 42
70.0
 43
70.0
  0
TEXT
  5
8345
330
83DF
100
AcDbEntity
  8
3
 62
     0
100
AcDbText
 10
4685.17
 20
4667.36
 30
0.0
 40
105.0
  1
MAX
100
AcDbText
  0
TEXT
  5
8346
330
83DF
100
AcDbEntity
  8
3
 62
     0
100
AcDbText
 10
4685.17
 20
4530.859999999999
 30
0.0
 40
105.0
  1
1120
100
AcDbText
  0
POINT
  5
82E9
330
83DF
100
AcDbEntity
  8
DEFPOINTS
 62
     0
100
AcDbPoint
 10
4333.817051099289
 20
3808.324713053004
 30
0.0
  0
POINT
  5
82EA
330
83DF
100
AcDbEntity
  8
DEFPOINTS
 62
     0
100
AcDbPoint
 10
5456.517051099289
 20
4614.920770395445
 30
0.0
  0
POINT
  5
82EB
330
83DF
100
AcDbEntity
  8
DEFPOINTS
 62
     0
100
AcDbPoint
 10
5456.517051099289
 20
4678.210345261056
 30
0.0
  0
ENDBLK
  5
8126
330
83DF
100
AcDbEntity
  8
0
100
AcDbBlockEnd
  0
BLOCK
  5
83E2
330
83E1
100
AcDbEntity
  8
0
100
AcDbBlockBegin
  2
*D10
 70
     1
 10
0.0
 20
0.0
 30
0.0
  3
*D10
  1

  0
LINE
  5
82EC
330
83E1
100
AcDbEntity
  8
3
 62
     0
100
AcDbLine
 10
1776.826826817035
 20
7668.223803734342
 30
0.0
 11
1776.826826817035
 21
7859.731164205459
 31
0.0
  0
LINE
  5
82ED
330
83E1
100
AcDbEntity
  8
3
 62
     0
100
AcDbLine
 10
3096.826826817036
 20
7668.223803734344
 30
0.0
 11
3096.826826817036
 21
7859.731164205459
 31
0.0
  0
LINE
  5
82EE
330
83E1
100
AcDbEntity
  8
3
 62
     0
100
AcDbLine
 10
1846.826826817036
 20
7824.731164205461
 30
0.0
 11
3026.826826817035
 21
7824.731164205461
 31
0.0
  0
INSERT
  5
82EF
330
83E1
100
AcDbEntity
  8
3
 62
     0
100
AcDbBlockReference
  2
_OPEN
 10
1776.826826817035
 20
7824.731164205461
 30
0.0
 41
70.0
 42
70.0
 43
70.0
 50
180.0
  0
INSERT
  5
82F0
330
83E1
100
AcDbEntity
  8
3
 62
     0
100
AcDbBlockReference
  2
_OPEN
 10
3096.826826817036
 20
7824.731164205461
 30
0.0
 41
70.0
 42
70.0
 43
70.0
  0
TEXT
  5
8347
330
83E1
100
AcDbEntity
  8
3
 62
     0
100
AcDbText
 10
2226.83
 20
7726.38
 30
0.0
 40
105.0
  1
1320
100
AcDbText
  0
POINT
  5
82F2
330
83E1
100
AcDbEntity
  8
DEFPOINTS
 62
     0
100
AcDbPoint
 10
1776.826826817035
 20
7650.723803734343
 30
0.0
  0
POINT
  5
82F3
330
83E1
100
AcDbEntity
  8
DEFPOINTS
 62
     0
100
AcDbPoint
 10
3096.826826817036
 20
7650.723803734343
 30
0.0
  0
POINT
  5
82F4
330
83E1
100
AcDbEntity
  8
DEFPOINTS
 62
     0
100
AcDbPoint
 10
3096.826826817036
 20
7824.731164205461
 30
0.0
  0
ENDBLK
  5
7F2E
330
83E1
100
AcDbEntity
  8
0
100
AcDbBlockEnd
  0
BLOCK
  5
83E4
330
83E3
100
AcDbEntity
  8
0
100
AcDbBlockBegin
  2
*D11
 70
     1
 10
0.0
 20
0.0
 30
0.0
  3
*D11
  1

  0
LINE
  5
82F5
330
83E3
100
AcDbEntity
  8
3
 62
     0
100
AcDbLine
 10
819.3268268170358
 20
6650.72380373434
 30
0.0
 11
586.0116974813247
 21
6650.72380373434
 31
0.0
  0
LINE
  5
82F6
330
83E3
100
AcDbEntity
  8
3
 62
     0
100
AcDbLine
 10
819.3268268170358
 20
5750.723803734341
 30
0.0
 11
586.0116974813244
 21
5750.723803734341
 31
0.0
  0
LINE
  5
82F7
330
83E3
100
AcDbEntity
  8
3
 62
     0
100
AcDbLine
 10
621.0116974813247
 20
6580.723803734341
 30
0.0
 11
621.0116974813245
 21
5820.723803734341
 31
0.0
  0
INSERT
  5
82F8
330
83E3
100
AcDbEntity
  8
3
 62
     0
100
AcDbBlockReference
  2
_OPEN
 10
621.0116974813247
 20
6650.72380373434
 30
0.0
 41
70.0
 42
70.0
 43
70.0
 50
90.0
  0
INSERT
  5
82F9
330
83E3
100
AcDbEntity
  8
3
 62
     0
100
AcDbBlockReference
  2
_OPEN
 10
621.0116974813245
 20
5750.723803734341
 30
0.0
 41
70.0
 42
70.0
 43
70.0
 50
270.0
  0
TEXT
  5
8348
330
83E3
100
AcDbEntity
  8
3
 62
     0
100
AcDbText
 10
323.512
 20
6014.87
 30
0.0
 40
105.0
  1
900
100
AcDbText
  0
POINT
  5
82FB
330
83E3
100
AcDbEntity
  8
DEFPOINTS
 62
     0
100
AcDbPoint
 10
836.8268268170357
 20
6650.72380373434
 30
0.0
  0
POINT
  5
82FC
330
83E3
100
AcDbEntity
  8
DEFPOINTS
 62
     0
100
AcDbPoint
 10
836.8268268170357
 20
5750.723803734341
 30
0.0
  0
POINT
  5
82FD
330
83E3
100
AcDbEntity
  8
DEFPOINTS
 62
     0
100
AcDbPoint
 10
621.0116974813245
 20
5750.723803734341
 30
0.0
  0
ENDBLK
  5
80B4
330
83E3
100
AcDbEntity
  8
0
100
AcDbBlockEnd
  0
BLOCK
  5
83E6
330
83E5
100
AcDbEntity
  8
0
100
AcDbBlockBegin
  2
*D12
 70
     1
 10
0.0
 20
0.0
 30
0.0
  3
*D12
  1

  0
LINE
  5
82FE
330
83E5
100
AcDbEntity
  8
3
 62
     0
100
AcDbLine
 10
836.8268268170357
 20
5733.223803734341
 30
0.0
 11
836.8268268170357
 21
5424.478611640394
 31
0.0
  0
LINE
  5
82FF
330
83E5
100
AcDbEntity
  8
3
 62
     0
100
AcDbLine
 10
3096.826826817036
 20
5733.223803734341
 30
0.0
 11
3096.826826817036
 21
5424.478611640394
 31
0.0
  0
LINE
  5
8300
330
83E5
100
AcDbEntity
  8
3
 62
     0
100
AcDbLine
 10
906.8268268170356
 20
5459.478611640394
 30
0.0
 11
3026.826826817035
 21
5459.478611640394
 31
0.0
  0
INSERT
  5
8301
330
83E5
100
AcDbEntity
  8
3
 62
     0
100
AcDbBlockReference
  2
_OPEN
 10
836.8268268170357
 20
5459.478611640394
 30
0.0
 41
70.0
 42
70.0
 43
70.0
 50
180.0
  0
INSERT
  5
8302
330
83E5
100
AcDbEntity
  8
3
 62
     0
100
AcDbBlockReference
  2
_OPEN
 10
3096.826826817036
 20
5459.478611640394
 30
0.0
 41
70.0
 42
70.0
 43
70.0
  0
TEXT
  5
8349
330
83E5
100
AcDbEntity
  8
3
 62
     0
100
AcDbText
 10
1756.83
 20
5361.13
 30
0.0
 40
105.0
  1
2260
100
AcDbText
  0
POINT
  5
8304
330
83E5
100
AcDbEntity
  8
DEFPOINTS
 62
     0
100
AcDbPoint
 10
836.8268268170357
 20
5750.723803734341
 30
0.0
  0
POINT
  5
8305
330
83E5
100
AcDbEntity
  8
DEFPOINTS
 62
     0
100
AcDbPoint
 10
3096.826826817036
 20
5750.723803734341
 30
0.0
  0
POINT
  5
8306
330
83E5
100
AcDbEntity
  8
DEFPOINTS
 62
     0
100
AcDbPoint
 10
3096.826826817036
 20
5459.478611640394
 30
0.0
  0
ENDBLK
  5
7F44
330
83E5
100
AcDbEntity
  8
0
100
AcDbBlockEnd
  0
BLOCK
  5
83E8
330
83E7
100
AcDbEntity
  8
0
100
AcDbBlockBegin
  2
*D13
 70
     1
 10
0.0
 20
0.0
 30
0.0
  3
*D13
  1

  0
LINE
  5
8307
330
83E7
100
AcDbEntity
  8
3
 62
     0
100
AcDbLine
 10
3114.326826817036
 20
7650.723803734343
 30
0.0
 11
3612.125907775743
 21
7650.723803734343
 31
0.0
  0
LINE
  5
8308
330
83E7
100
AcDbEntity
  8
3
 62
     0
100
AcDbLine
 10
3114.326826817036
 20
5750.723803734341
 30
0.0
 11
3612.125907775742
 21
5750.723803734341
 31
0.0
  0
LINE
  5
8309
330
83E7
100
AcDbEntity
  8
3
 62
     0
100
AcDbLine
 10
3577.125907775743
 20
7580.723803734342
 30
0.0
 11
3577.125907775742
 21
5820.723803734342
 31
0.0
  0
INSERT
  5
830A
330
83E7
100
AcDbEntity
  8
3
 62
     0
100
AcDbBlockReference
  2
_OPEN
 10
3577.125907775743
 20
7650.723803734343
 30
0.0
 41
70.0
 42
70.0
 43
70.0
 50
90.0
  0
INSERT
  5
830B
330
83E7
100
AcDbEntity
  8
3
 62
     0
100
AcDbBlockReference
  2
_OPEN
 10
3577.125907775742
 20
5750.723803734341
 30
0.0
 41
70.0
 42
70.0
 43
70.0
 50
270.0
  0
TEXT
  5
834A
330
83E7
100
AcDbEntity
  8
3
 62
     0
100
AcDbText
 10
3279.63
 20
6514.870000000001
 30
0.0
 40
105.0
  1
1900
100
AcDbText
  0
POINT
  5
830D
330
83E7
100
AcDbEntity
  8
DEFPOINTS
 62
     0
100
AcDbPoint
 10
3096.826826817036
 20
7650.723803734343
 30
0.0
  0
POINT
  5
830E
330
83E7
100
AcDbEntity
  8
DEFPOINTS
 62
     0
100
AcDbPoint
 10
3096.826826817036
 20
5750.723803734341
 30
0.0
  0
POINT
  5
830F
330
83E7
100
AcDbEntity
  8
DEFPOINTS
 62
     0
100
AcDbPoint
 10
3577.125907775742
 20
5750.723803734341
 30
0.0
  0
ENDBLK
  5
8131
330
83E7
100
AcDbEntity
  8
0
100
AcDbBlockEnd
  0
BLOCK
  5
83EA
330
83E9
100
AcDbEntity
  8
0
100
AcDbBlockBegin
  2
*D14
 70
     1
 10
0.0
 20
0.0
 30
0.0
  3
*D14
  1

  0
LINE
  5
8310
330
83E9
100
AcDbEntity
  8
3
 62
     0
100
AcDbLine
 10
836.8268268170357
 20
6668.223803734341
 30
0.0
 11
836.8268268170361
 21
7859.731164205459
 31
0.0
  0
LINE
  5
8311
330
83E9
100
AcDbEntity
  8
3
 62
     0
100
AcDbLine
 10
1776.826826817035
 20
7668.223803734341
 30
0.0
 11
1776.826826817035
 21
7859.731164205459
 31
0.0
  0
LINE
  5
8312
330
83E9
100
AcDbEntity
  8
3
 62
     0
100
AcDbLine
 10
906.826826817036
 20
7824.731164205461
 30
0.0
 11
1706.826826817036
 21
7824.731164205461
 31
0.0
  0
INSERT
  5
8313
330
83E9
100
AcDbEntity
  8
3
 62
     0
100
AcDbBlockReference
  2
_OPEN
 10
836.8268268170361
 20
7824.731164205461
 30
0.0
 41
70.0
 42
70.0
 43
70.0
 50
180.0
  0
INSERT
  5
8314
330
83E9
100
AcDbEntity
  8
3
 62
     0
100
AcDbBlockReference
  2
_OPEN
 10
1776.826826817035
 20
7824.731164205461
 30
0.0
 41
70.0
 42
70.0
 43
70.0
  0
TEXT
  5
834B
330
83E9
100
AcDbEntity
  8
3
 62
     0
100
AcDbText
 10
1096.83
 20
7726.38
 30
0.0
 40
105.0
  1
940
100
AcDbText
  0
POINT
  5
8316
330
83E9
100
AcDbEntity
  8
DEFPOINTS
 62
     0
100
AcDbPoint
 10
836.8268268170357
 20
6650.72380373434
 30
0.0
  0
POINT
  5
8317
330
83E9
100
AcDbEntity
  8
DEFPOINTS
 62
     0
100
AcDbPoint
 10
1776.826826817035
 20
7650.723803734341
 30
0.0
  0
POINT
  5
8318
330
83E9
100
AcDbEntity
  8
DEFPOINTS
 62
     0
100
AcDbPoint
 10
1776.826826817035
 20
7824.731164205461
 30
0.0
  0
ENDBLK
  5
7F23
330
83E9
100
AcDbEntity
  8
0
100
AcDbBlockEnd
  0
BLOCK
  5
83EC
330
83EB
100
AcDbEntity
  8
0
100
AcDbBlockBegin
  2
*D15
 70
     1
 10
0.0
 20
0.0
 30
0.0
  3
*D15
  1

  0
LINE
  5
8319
330
83EB
100
AcDbEntity
  8
3
 62
     0
100
AcDbLine
 10
2436.826826817036
 20
4291.663713951737
 30
0.0
 11
2436.826826817036
 21
4623.584680198772
 31
0.0
  0
LINE
  5
831A
330
83EB
100
AcDbEntity
  8
3
 62
     0
100
AcDbLine
 10
3241.826826817035
 20
3363.824713053003
 30
0.0
 11
3241.826826817035
 21
4623.584680198772
 31
0.0
  0
LINE
  5
831B
330
83EB
100
AcDbEntity
  8
3
 62
     0
100
AcDbLine
 10
2506.826826817036
 20
4588.58468019877
 30
0.0
 11
3171.826826817035
 21
4588.58468019877
 31
0.0
  0
INSERT
  5
831C
330
83EB
100
AcDbEntity
  8
3
 62
     0
100
AcDbBlockReference
  2
_OPEN
 10
2436.826826817036
 20
4588.58468019877
 30
0.0
 41
70.0
 42
70.0
 43
70.0
 50
180.0
  0
INSERT
  5
831D
330
83EB
100
AcDbEntity
  8
3
 62
     0
100
AcDbBlockReference
  2
_OPEN
 10
3241.826826817035
 20
4588.58468019877
 30
0.0
 41
70.0
 42
70.0
 43
70.0
  0
TEXT
  5
834C
330
83EB
100
AcDbEntity
  8
3
 62
     0
100
AcDbText
 10
2629.33
 20
4490.229999999999
 30
0.0
 40
105.0
  1
805
100
AcDbText
  0
POINT
  5
831F
330
83EB
100
AcDbEntity
  8
DEFPOINTS
 62
     0
100
AcDbPoint
 10
2436.826826817036
 20
4274.163713951737
 30
0.0
  0
POINT
  5
8320
330
83EB
100
AcDbEntity
  8
DEFPOINTS
 62
     0
100
AcDbPoint
 10
3241.826826817035
 20
3346.324713053003
 30
0.0
  0
POINT
  5
8321
330
83EB
100
AcDbEntity
  8
DEFPOINTS
 62
     0
100
AcDbPoint
 10
3241.826826817035
 20
4588.58468019877
 30
0.0
  0
ENDBLK
  5
7F70
330
83EB
100
AcDbEntity
  8
0
100
AcDbBlockEnd
  0
BLOCK
  5
83EE
330
83ED
100
AcDbEntity
  8
0
100
AcDbBlockBegin
  2
*D16
 70
     1
 10
0.0
 20
0.0
 30
0.0
  3
*D16
  1

  0
LINE
  5
8322
330
83ED
100
AcDbEntity
  8
3
 62
     0
100
AcDbLine
 10
3241.826826817035
 20
3363.824713053003
 30
0.0
 11
3241.826826817035
 21
4855.526081803353
 31
0.0
  0
LINE
  5
8323
330
83ED
100
AcDbEntity
  8
3
 62
     0
100
AcDbLine
 10
836.8268268170357
 20
2560.824713053003
 30
0.0
 11
836.8268268170361
 21
4855.526081803353
 31
0.0
  0
LINE
  5
8324
330
83ED
100
AcDbEntity
  8
3
 62
     0
100
AcDbLine
 10
3171.826826817035
 20
4820.526081803353
 30
0.0
 11
906.826826817036
 21
4820.526081803353
 31
0.0
  0
INSERT
  5
8325
330
83ED
100
AcDbEntity
  8
3
 62
     0
100
AcDbBlockReference
  2
_OPEN
 10
3241.826826817035
 20
4820.526081803353
 30
0.0
 41
70.0
 42
70.0
 43
70.0
  0
INSERT
  5
8326
330
83ED
100
AcDbEntity
  8
3
 62
     0
100
AcDbBlockReference
  2
_OPEN
 10
836.8268268170361
 20
4820.526081803353
 30
0.0
 41
70.0
 42
70.0
 43
70.0
 50
180.0
  0
TEXT
  5
834D
330
83ED
100
AcDbEntity
  8
3
 62
     0
100
AcDbText
 10
1829.33
 20
4722.18
 30
0.0
 40
105.0
  1
2405
100
AcDbText
  0
POINT
  5
8328
330
83ED
100
AcDbEntity
  8
DEFPOINTS
 62
     0
100
AcDbPoint
 10
3241.826826817035
 20
3346.324713053003
 30
0.0
  0
POINT
  5
8329
330
83ED
100
AcDbEntity
  8
DEFPOINTS
 62
     0
100
AcDbPoint
 10
836.8268268170357
 20
2543.324713053003
 30
0.0
  0
POINT
  5
832A
330
83ED
100
AcDbEntity
  8
DEFPOINTS
 62
     0
100
AcDbPoint
 10
836.8268268170361
 20
4820.526081803353
 30
0.0
  0
ENDBLK
  5
7F4F
330
83ED
100
AcDbEntity
  8
0
100
AcDbBlockEnd
  0
BLOCK
  5
83F0
330
83EF
100
AcDbEntity
  8
0
100
AcDbBlockBegin
  2
*D17
 70
     1
 10
0.0
 20
0.0
 30
0.0
  3
*D17
  1

  0
LINE
  5
832B
330
83EF
100
AcDbEntity
  8
3
 62
     0
100
AcDbLine
 10
2459.326826817036
 20
4188.324713053003
 30
0.0
 11
3542.813709636106
 21
4188.324713053003
 31
0.0
  0
LINE
  5
832C
330
83EF
100
AcDbEntity
  8
3
 62
     0
100
AcDbLine
 10
3361.107478270012
 20
3428.324713053003
 30
0.0
 11
3542.813709636106
 21
3428.324713053003
 31
0.0
  0
LINE
  5
832D
330
83EF
100
AcDbEntity
  8
3
 62
     0
100
AcDbLine
 10
3507.813709636106
 20
4118.324713053002
 30
0.0
 11
3507.813709636106
 21
3498.324713053003
 31
0.0
  0
INSERT
  5
832E
330
83EF
100
AcDbEntity
  8
3
 62
     0
100
AcDbBlockReference
  2
_OPEN
 10
3507.813709636106
 20
4188.324713053003
 30
0.0
 41
70.0
 42
70.0
 43
70.0
 50
90.0
  0
INSERT
  5
832F
330
83EF
100
AcDbEntity
  8
3
 62
     0
100
AcDbBlockReference
  2
_OPEN
 10
3507.813709636106
 20
3428.324713053003
 30
0.0
 41
70.0
 42
70.0
 43
70.0
 50
270.0
  0
TEXT
  5
834E
330
83EF
100
AcDbEntity
  8
3
 62
     0
100
AcDbText
 10
3210.31
 20
3622.47
 30
0.0
 40
105.0
  1
760
100
AcDbText
  0
POINT
  5
8331
330
83EF
100
AcDbEntity
  8
DEFPOINTS
 62
     0
100
AcDbPoint
 10
2441.826826817036
 20
4188.324713053003
 30
0.0
  0
POINT
  5
8332
330
83EF
100
AcDbEntity
  8
DEFPOINTS
 62
     0
100
AcDbPoint
 10
3343.607478270012
 20
3428.324713053003
 30
0.0
  0
POINT
  5
8333
330
83EF
100
AcDbEntity
  8
DEFPOINTS
 62
     0
100
AcDbPoint
 10
3507.813709636106
 20
3428.324713053003
 30
0.0
  0
ENDBLK
  5
7F7B
330
83EF
100
AcDbEntity
  8
0
100
AcDbBlockEnd
  0
BLOCK
  5
83F2
330
83F1
100
AcDbEntity
  8
0
100
AcDbBlockBegin
  2
*D18
 70
     1
 10
0.0
 20
0.0
 30
0.0
  3
*D18
  1

  0
LINE
  5
8334
330
83F1
100
AcDbEntity
  8
3
 62
     0
100
AcDbLine
 10
3361.107478270012
 20
3428.324713053003
 30
0.0
 11
3542.813709636106
 21
3428.324713053003
 31
0.0
  0
LINE
  5
8335
330
83F1
100
AcDbEntity
  8
3
 62
     0
100
AcDbLine
 10
3114.326826817036
 20
2418.324713053003
 30
0.0
 11
3542.813709636106
 21
2418.324713053003
 31
0.0
  0
LINE
  5
8336
330
83F1
100
AcDbEntity
  8
3
 62
     0
100
AcDbLine
 10
3507.813709636106
 20
3358.324713053003
 30
0.0
 11
3507.813709636106
 21
2488.324713053003
 31
0.0
  0
INSERT
  5
8337
330
83F1
100
AcDbEntity
  8
3
 62
     0
100
AcDbBlockReference
  2
_OPEN
 10
3507.813709636106
 20
3428.324713053003
 30
0.0
 41
70.0
 42
70.0
 43
70.0
 50
90.0
  0
INSERT
  5
8338
330
83F1
100
AcDbEntity
  8
3
 62
     0
100
AcDbBlockReference
  2
_OPEN
 10
3507.813709636106
 20
2418.324713053003
 30
0.0
 41
70.0
 42
70.0
 43
70.0
 50
270.0
  0
TEXT
  5
834F
330
83F1
100
AcDbEntity
  8
3
 62
     0
100
AcDbText
 10
3210.31
 20
2737.47
 30
0.0
 40
105.0
  1
1010
100
AcDbText
  0
POINT
  5
833A
330
83F1
100
AcDbEntity
  8
DEFPOINTS
 62
     0
100
AcDbPoint
 10
3343.607478270012
 20
3428.324713053003
 30
0.0
  0
POINT
  5
833B
330
83F1
100
AcDbEntity
  8
DEFPOINTS
 62
     0
100
AcDbPoint
 10
3096.826826817036
 20
2418.324713053003
 30
0.0
  0
POINT
  5
833C
330
83F1
100
AcDbEntity
  8
DEFPOINTS
 62
     0
100
AcDbPoint
 10
3507.813709636106
 20
2418.324713053003
 30
0.0
  0
ENDBLK
  5
7F86
330
83F1
100
AcDbEntity
  8
0
100
AcDbBlockEnd
  0
BLOCK
  5
83F4
330
83F3
100
AcDbEntity
  8
0
100
AcDbBlockBegin
  2
_DOT
 70
     0
 10
0.0
 20
0.0
 30
0.0
  3
_DOT
  1

  0
LWPOLYLINE
  5
809D
330
83F3
100
AcDbEntity
  8
0
  6
ByBlock
 62
     0
100
AcDbPolyline
 90
        2
 70
     1
 43
0.25
 10
-0.125
 20
0.0
 42
1.0
 10
0.125
 20
0.0
 42
1.0
  0
LINE
  5
80A1
330
83F3
100
AcDbEntity
  8
0
  6
ByBlock
 62
     0
100
AcDbLine
 10
-0.25
 20
0.0
 30
0.0
 11
-1.0
 21
0.0
 31
0.0
  0
ENDBLK
  5
807F
330
83F3
100
AcDbEntity
  8
0
100
AcDbBlockEnd
  0
BLOCK
  5
83F6
330
83F5
100
AcDbEntity
  8
0
100
AcDbBlockBegin
  2
_NONE
 70
     0
 10
0.0
 20
0.0
 30
0.0
  3
_NONE
  1

  0
CIRCLE
  5
8140
330
83F5
100
AcDbEntity
  8
0
  6
ByBlock
 62
     0
100
AcDbCircle
 10
0.0
 20
0.0
 30
0.0
 40
0.25
  0
ENDBLK
  5
8141
330
83F5
100
AcDbEntity
  8
0
100
AcDbBlockEnd
  0
BLOCK
  5
83F8
330
83F7
100
AcDbEntity
  8
0
100
AcDbBlockBegin
  2
*D21
 70
     1
 10
0.0
 20
0.0
 30
0.0
  3
*D21
  1

  0
LINE
  5
81A5
330
83F7
100
AcDbEntity
  8
0
  6
ByBlock
 62
     0
100
AcDbLine
 10
836.8268268170357
 20
2400.824713053003
 30
0.0
 11
836.8268268170357
 21
2147.261142950505
 31
0.0
  0
LINE
  5
81A6
330
83F7
100
AcDbEntity
  8
0
  6
ByBlock
 62
     0
100
AcDbLine
 10
2436.826826817035
 20
2400.824713053003
 30
0.0
 11
2436.826826817035
 21
2147.261142950505
 31
0.0
  0
LINE
  5
81A7
330
83F7
100
AcDbEntity
  8
0
  6
ByBlock
 62
     0
100
AcDbLine
 10
906.8268268170356
 20
2182.261142950505
 30
0.0
 11
2366.826826817035
 21
2182.261142950505
 31
0.0
  0
INSERT
  5
81A8
330
83F7
100
AcDbEntity
  8
0
  6
ByBlock
 62
     0
100
AcDbBlockReference
  2
_OPEN
 10
836.8268268170357
 20
2182.261142950505
 30
0.0
 41
70.0
 42
70.0
 43
70.0
 50
180.0
  0
INSERT
  5
81A9
330
83F7
100
AcDbEntity
  8
0
  6
ByBlock
 62
     0
100
AcDbBlockReference
  2
_OPEN
 10
2436.826826817035
 20
2182.261142950505
 30
0.0
 41
70.0
 42
70.0
 43
70.0
  0
TEXT
  5
81AA
330
83F7
100
AcDbEntity
  8
3
 62
     0
100
AcDbText
 10
1461.826826817035
 20
2217.261142950504
 30
0.0
 40
105.0
  1
1600
100
AcDbText
  0
POINT
  5
81AB
330
83F7
100
AcDbEntity
  8
DEFPOINTS
  6
ByBlock
 62
     0
100
AcDbPoint
 10
836.8268268170357
 20
2418.324713053003
 30
0.0
  0
POINT
  5
81AC
330
83F7
100
AcDbEntity
  8
DEFPOINTS
  6
ByBlock
 62
     0
100
AcDbPoint
 10
2436.826826817035
 20
2418.324713053003
 30
0.0
  0
POINT
  5
81AD
330
83F7
100
AcDbEntity
  8
DEFPOINTS
  6
ByBlock
 62
     0
100
AcDbPoint
 10
2436.826826817035
 20
2182.261142950505
 30
0.0
  0
ENDBLK
  5
81AE
330
83F7
100
AcDbEntity
  8
0
100
AcDbBlockEnd
  0
BLOCK
  5
83FA
330
83F9
100
AcDbEntity
  8
0
100
AcDbBlockBegin
  2
*D22
 70
     1
 10
0.0
 20
0.0
 30
0.0
  3
*D22
  1

  0
LINE
  5
81B2
330
83F9
100
AcDbEntity
  8
0
  6
ByBlock
 62
     0
100
AcDbLine
 10
2436.826826817035
 20
2400.824713053003
 30
0.0
 11
2436.826826817035
 21
2147.261142950505
 31
0.0
  0
LINE
  5
81B3
330
83F9
100
AcDbEntity
  8
0
  6
ByBlock
 62
     0
100
AcDbLine
 10
3096.826826817036
 20
2400.824713053003
 30
0.0
 11
3096.826826817036
 21
2147.261142950505
 31
0.0
  0
LINE
  5
81B4
330
83F9
100
AcDbEntity
  8
0
  6
ByBlock
 62
     0
100
AcDbLine
 10
2506.826826817035
 20
2182.261142950505
 30
0.0
 11
3026.826826817035
 21
2182.261142950505
 31
0.0
  0
INSERT
  5
81B5
330
83F9
100
AcDbEntity
  8
0
  6
ByBlock
 62
     0
100
AcDbBlockReference
  2
_OPEN
 10
2436.826826817035
 20
2182.261142950505
 30
0.0
 41
70.0
 42
70.0
 43
70.0
 50
180.0
  0
INSERT
  5
81B6
330
83F9
100
AcDbEntity
  8
0
  6
ByBlock
 62
     0
100
AcDbBlockReference
  2
_OPEN
 10
3096.826826817036
 20
2182.261142950505
 30
0.0
 41
70.0
 42
70.0
 43
70.0
  0
TEXT
  5
81B7
330
83F9
100
AcDbEntity
  8
3
 62
     0
100
AcDbText
 10
2631.826826817035
 20
2217.261142950504
 30
0.0
 40
105.0
  1
660
100
AcDbText
  0
POINT
  5
81B8
330
83F9
100
AcDbEntity
  8
DEFPOINTS
  6
ByBlock
 62
     0
100
AcDbPoint
 10
2436.826826817035
 20
2418.324713053003
 30
0.0
  0
POINT
  5
81B9
330
83F9
100
AcDbEntity
  8
DEFPOINTS
  6
ByBlock
 62
     0
100
AcDbPoint
 10
3096.826826817036
 20
2418.324713053003
 30
0.0
  0
POINT
  5
81BA
330
83F9
100
AcDbEntity
  8
DEFPOINTS
  6
ByBlock
 62
     0
100
AcDbPoint
 10
3096.826826817036
 20
2182.261142950505
 30
0.0
  0
ENDBLK
  5
81BB
330
83F9
100
AcDbEntity
  8
0
100
AcDbBlockEnd
  0
BLOCK
  5
83FC
330
83FB
100
AcDbEntity
  8
0
100
AcDbBlockBegin
  2
*D23
 70
     1
 10
0.0
 20
0.0
 30
0.0
  3
*D23
  1

  0
LINE
  5
81BF
330
83FB
100
AcDbEntity
  8
0
  6
ByBlock
 62
     0
100
AcDbLine
 10
3114.326826817036
 20
2418.324713053003
 30
0.0
 11
3772.972945573136
 21
2418.324713053003
 31
0.0
  0
LINE
  5
81C0
330
83FB
100
AcDbEntity
  8
0
  6
ByBlock
 62
     0
100
AcDbLine
 10
2459.326826817036
 20
4188.324713053003
 30
0.0
 11
3772.972945573136
 21
4188.324713053003
 31
0.0
  0
LINE
  5
81C1
330
83FB
100
AcDbEntity
  8
0
  6
ByBlock
 62
     0
100
AcDbLine
 10
3737.972945573135
 20
2488.324713053003
 30
0.0
 11
3737.972945573135
 21
4118.324713053002
 31
0.0
  0
INSERT
  5
81C2
330
83FB
100
AcDbEntity
  8
0
  6
ByBlock
 62
     0
100
AcDbBlockReference
  2
_OPEN
 10
3737.972945573135
 20
2418.324713053003
 30
0.0
 41
70.0
 42
70.0
 43
70.0
 50
270.0
  0
INSERT
  5
81C3
330
83FB
100
AcDbEntity
  8
0
  6
ByBlock
 62
     0
100
AcDbBlockReference
  2
_OPEN
 10
3737.972945573135
 20
4188.324713053003
 30
0.0
 41
70.0
 42
70.0
 43
70.0
 50
90.0
  0
TEXT
  5
81C4
330
83FB
100
AcDbEntity
  8
3
 62
     0
100
AcDbText
 10
3702.972945573135
 20
3128.324713053003
 30
0.0
 40
105.0
  1
1770
 50
90.0
100
AcDbText
  0
POINT
  5
81C5
330
83FB
100
AcDbEntity
  8
DEFPOINTS
  6
ByBlock
 62
     0
100
AcDbPoint
 10
3096.826826817036
 20
2418.324713053003
 30
0.0
  0
POINT
  5
81C6
330
83FB
100
AcDbEntity
  8
DEFPOINTS
  6
ByBlock
 62
     0
100
AcDbPoint
 10
2441.826826817036
 20
4188.324713053003
 30
0.0
  0
POINT
  5
81C7
330
83FB
100
AcDbEntity
  8
DEFPOINTS
  6
ByBlock
 62
     0
100
AcDbPoint
 10
3737.972945573135
 20
4188.324713053003
 30
0.0
  0
ENDBLK
  5
81C8
330
83FB
100
AcDbEntity
  8
0
100
AcDbBlockEnd
  0
BLOCK
  5
83FE
330
83FD
100
AcDbEntity
  8
0
100
AcDbBlockBegin
  2
*D24
 70
     1
 10
0.0
 20
0.0
 30
0.0
  3
*D24
  1

  0
LINE
  5
81CC
330
83FD
100
AcDbEntity
  8
0
  6
ByBlock
 62
     0
100
AcDbLine
 10
4374.517051099291
 20
2400.824713053003
 30
0.0
 11
4374.517051099291
 21
2147.261142950505
 31
0.0
  0
LINE
  5
81CD
330
83FD
100
AcDbEntity
  8
0
  6
ByBlock
 62
     0
100
AcDbLine
 10
5456.517051099291
 20
2400.824713053003
 30
0.0
 11
5456.517051099291
 21
2147.261142950505
 31
0.0
  0
LINE
  5
81CE
330
83FD
100
AcDbEntity
  8
0
  6
ByBlock
 62
     0
100
AcDbLine
 10
4444.517051099289
 20
2182.261142950505
 30
0.0
 11
5386.517051099291
 21
2182.261142950505
 31
0.0
  0
INSERT
  5
81CF
330
83FD
100
AcDbEntity
  8
0
  6
ByBlock
 62
     0
100
AcDbBlockReference
  2
_OPEN
 10
4374.517051099291
 20
2182.261142950505
 30
0.0
 41
70.0
 42
70.0
 43
70.0
 50
180.0
  0
INSERT
  5
81D0
330
83FD
100
AcDbEntity
  8
0
  6
ByBlock
 62
     0
100
AcDbBlockReference
  2
_OPEN
 10
5456.517051099291
 20
2182.261142950505
 30
0.0
 41
70.0
 42
70.0
 43
70.0
  0
TEXT
  5
81D1
330
83FD
100
AcDbEntity
  8
3
 62
     0
100
AcDbText
 10
4740.51705109929
 20
2217.261142950504
 30
0.0
 40
105.0
  1
1082
100
AcDbText
  0
POINT
  5
81D2
330
83FD
100
AcDbEntity
  8
DEFPOINTS
  6
ByBlock
 62
     0
100
AcDbPoint
 10
4374.517051099291
 20
2418.324713053003
 30
0.0
  0
POINT
  5
81D3
330
83FD
100
AcDbEntity
  8
DEFPOINTS
  6
ByBlock
 62
     0
100
AcDbPoint
 10
5456.517051099291
 20
2418.324713053003
 30
0.0
  0
POINT
  5
81D4
330
83FD
100
AcDbEntity
  8
DEFPOINTS
  6
ByBlock
 62
     0
100
AcDbPoint
 10
5456.517051099291
 20
2182.261142950505
 30
0.0
  0
ENDBLK
  5
81D5
330
83FD
100
AcDbEntity
  8
0
100
AcDbBlockEnd
  0
BLOCK
  5
8400
330
83FF
100
AcDbEntity
  8
0
100
AcDbBlockBegin
  2
*D25
 70
     1
 10
0.0
 20
0.0
 30
0.0
  3
*D25
  1

  0
LINE
  5
81D9
330
83FF
100
AcDbEntity
  8
0
  6
ByBlock
 62
     0
100
AcDbLine
 10
5456.517051099291
 20
2400.824713053003
 30
0.0
 11
5456.517051099291
 21
2147.261142950505
 31
0.0
  0
LINE
  5
81DA
330
83FF
100
AcDbEntity
  8
0
  6
ByBlock
 62
     0
100
AcDbLine
 10
6274.517051099291
 20
2400.824713053003
 30
0.0
 11
6274.517051099291
 21
2147.261142950505
 31
0.0
  0
LINE
  5
81DB
330
83FF
100
AcDbEntity
  8
0
  6
ByBlock
 62
     0
100
AcDbLine
 10
5526.517051099291
 20
2182.261142950505
 30
0.0
 11
6204.517051099291
 21
2182.261142950505
 31
0.0
  0
INSERT
  5
81DC
330
83FF
100
AcDbEntity
  8
0
  6
ByBlock
 62
     0
100
AcDbBlockReference
  2
_OPEN
 10
5456.517051099291
 20
2182.261142950505
 30
0.0
 41
70.0
 42
70.0
 43
70.0
 50
180.0
  0
INSERT
  5
81DD
330
83FF
100
AcDbEntity
  8
0
  6
ByBlock
 62
     0
100
AcDbBlockReference
  2
_OPEN
 10
6274.517051099291
 20
2182.261142950505
 30
0.0
 41
70.0
 42
70.0
 43
70.0
  0
TEXT
  5
81DE
330
83FF
100
AcDbEntity
  8
3
 62
     0
100
AcDbText
 10
5740.517051099289
 20
2217.261142950504
 30
0.0
 40
105.0
  1
818
100
AcDbText
  0
POINT
  5
81DF
330
83FF
100
AcDbEntity
  8
DEFPOINTS
  6
ByBlock
 62
     0
100
AcDbPoint
 10
5456.517051099291
 20
2418.324713053003
 30
0.0
  0
POINT
  5
81E0
330
83FF
100
AcDbEntity
  8
DEFPOINTS
  6
ByBlock
 62
     0
100
AcDbPoint
 10
6274.517051099291
 20
2418.324713053003
 30
0.0
  0
POINT
  5
81E1
330
83FF
100
AcDbEntity
  8
DEFPOINTS
  6
ByBlock
 62
     0
100
AcDbPoint
 10
6274.517051099291
 20
2182.261142950505
 30
0.0
  0
ENDBLK
  5
81E2
330
83FF
100
AcDbEntity
  8
0
100
AcDbBlockEnd
  0
BLOCK
  5
8408
330
8407
100
AcDbEntity
  8
0
100
AcDbBlockBegin
  2
*D26
 70
     1
 10
0.0
 20
0.0
 30
0.0
  3
*D26
  1

  0
LINE
  5
8446
330
8407
100
AcDbEntity
  8
3
 62
     0
370
    -2
100
AcDbLine
 10
6224.01705109929
 20
3988.324713053003
 30
0.0
 11
6609.299817454804
 21
3988.324713053003
 31
0.0
  0
LINE
  5
8447
330
8407
100
AcDbEntity
  8
3
 62
     0
370
    -2
100
AcDbLine
 10
6224.01705109929
 20
2868.324713053003
 30
0.0
 11
6609.299817454804
 21
2868.324713053003
 31
0.0
  0
LINE
  5
8448
330
8407
100
AcDbEntity
  8
3
 62
     0
370
    -2
100
AcDbLine
 10
6574.299817454805
 20
3918.324713053003
 30
0.0
 11
6574.299817454805
 21
2938.324713053003
 31
0.0
  0
INSERT
  5
8449
330
8407
100
AcDbEntity
  8
3
 62
     0
370
    -2
100
AcDbBlockReference
  2
_OPEN
 10
6574.299817454805
 20
3988.324713053003
 30
0.0
 41
70.0
 42
70.0
 43
70.0
 50
90.0
  0
INSERT
  5
844A
330
8407
100
AcDbEntity
  8
3
 62
     0
370
    -2
100
AcDbBlockReference
  2
_OPEN
 10
6574.299817454805
 20
2868.324713053003
 30
0.0
 41
70.0
 42
70.0
 43
70.0
 50
270.0
  0
MTEXT
  5
844B
330
8407
100
AcDbEntity
  8
3
 62
     0
100
AcDbMText
 10
6486.799817454803
 20
3428.324713053005
 30
0.0
 40
105.0
 41
0.0
 71
     5
 72
     1
  1
\A1;\U+03C61120
 11
0.0000000000000001
 21
1.0
 31
0.0
 73
     1
 44
1.0
1001
ACAD
1000
MTEXTBEGIN
1070
    73
1070
     1
1070
    44
1040
1.0
1070
    74
1070
     0
1000
MTEXTEND
  0
POINT
  5
844C
330
8407
100
AcDbEntity
  8
DEFPOINTS
 62
     0
100
AcDbPoint
 10
6206.517051099289
 20
3988.324713053003
 30
0.0
  0
POINT
  5
844D
330
8407
100
AcDbEntity
  8
DEFPOINTS
 62
     0
100
AcDbPoint
 10
6206.51705109929
 20
2868.324713053003
 30
0.0
  0
POINT
  5
844E
330
8407
100
AcDbEntity
  8
DEFPOINTS
 62
     0
100
AcDbPoint
 10
6574.299817454805
 20
2868.324713053003
 30
0.0
  0
ENDBLK
  5
8409
330
8407
100
AcDbEntity
  8
0
100
AcDbBlockEnd
  0
BLOCK
  5
8415
330
8414
100
AcDbEntity
  8
0
100
AcDbBlockBegin
  2
*D27
 70
     1
 10
0.0
 20
0.0
 30
0.0
  3
*D27
  1

  0
LINE
  5
8417
330
8414
100
AcDbEntity
  8
3
 62
     0
370
    -2
100
AcDbLine
 10
4706.517051099289
 20
4205.824713053003
 30
0.0
 11
4706.517051099289
 21
4483.443004574665
 31
0.0
  0
LINE
  5
8418
330
8414
100
AcDbEntity
  8
3
 62
     0
370
    -2
100
AcDbLine
 10
6206.517051099289
 20
4205.824713053003
 30
0.0
 11
6206.517051099289
 21
4483.443004574665
 31
0.0
  0
LINE
  5
8419
330
8414
100
AcDbEntity
  8
3
 62
     0
370
    -2
100
AcDbLine
 10
4776.517051099289
 20
4448.443004574665
 30
0.0
 11
6136.517051099289
 21
4448.443004574665
 31
0.0
  0
INSERT
  5
841A
330
8414
100
AcDbEntity
  8
3
 62
     0
370
    -2
100
AcDbBlockReference
  2
_OPEN
 10
4706.517051099289
 20
4448.443004574665
 30
0.0
 41
70.0
 42
70.0
 43
70.0
 50
180.0
  0
INSERT
  5
841B
330
8414
100
AcDbEntity
  8
3
 62
     0
370
    -2
100
AcDbBlockReference
  2
_OPEN
 10
6206.517051099289
 20
4448.443004574665
 30
0.0
 41
70.0
 42
70.0
 43
70.0
  0
MTEXT
  5
841C
330
8414
100
AcDbEntity
  8
3
 62
     0
100
AcDbMText
 10
5456.517051099289
 20
4535.943004574664
 30
0.0
 40
105.0
 41
0.0
 71
     5
 72
     1
  1
\A1;1500
 73
     1
 44
1.0
1001
ACAD
1000
MTEXTBEGIN
1070
    73
1070
     1
1070
    44
1040
1.0
1070
    74
1070
     0
1000
MTEXTEND
  0
POINT
  5
841D
330
8414
100
AcDbEntity
  8
DEFPOINTS
 62
     0
100
AcDbPoint
 10
4706.517051099289
 20
4188.324713053003
 30
0.0
  0
POINT
  5
841E
330
8414
100
AcDbEntity
  8
DEFPOINTS
 62
     0
100
AcDbPoint
 10
6206.517051099289
 20
4188.324713053003
 30
0.0
  0
POINT
  5
841F
330
8414
100
AcDbEntity
  8
DEFPOINTS
 62
     0
100
AcDbPoint
 10
6206.517051099289
 20
4448.443004574665
 30
0.0
  0
ENDBLK
  5
8416
330
8414
100
AcDbEntity
  8
0
100
AcDbBlockEnd
  0
BLOCK
  5
8422
330
8421
100
AcDbEntity
  8
0
100
AcDbBlockBegin
  2
*D28
 70
     1
 10
0.0
 20
0.0
 30
0.0
  3
*D28
  1

  0
LINE
  5
8485
330
8421
100
AcDbEntity
  8
3
 62
     0
370
    -2
100
AcDbLine
 10
4336.517051099289
 20
3825.824713053003
 30
0.0
 11
4336.517051099289
 21
4713.210345261056
 31
0.0
  0
LINE
  5
8486
330
8421
100
AcDbEntity
  8
3
 62
     0
370
    -2
100
AcDbLine
 10
5456.51705109929
 20
4605.943004574664
 30
0.0
 11
5456.51705109929
 21
4713.210345261056
 31
0.0
  0
LINE
  5
8487
330
8421
100
AcDbEntity
  8
3
 62
     0
370
    -2
100
AcDbLine
 10
4406.517051099289
 20
4678.210345261056
 30
0.0
 11
5386.51705109929
 21
4678.210345261056
 31
0.0
  0
INSERT
  5
8488
330
8421
100
AcDbEntity
  8
3
 62
     0
370
    -2
100
AcDbBlockReference
  2
_OPEN
 10
4336.517051099289
 20
4678.210345261056
 30
0.0
 41
70.0
 42
70.0
 43
70.0
 50
180.0
  0
INSERT
  5
8489
330
8421
100
AcDbEntity
  8
3
 62
     0
370
    -2
100
AcDbBlockReference
  2
_OPEN
 10
5456.51705109929
 20
4678.210345261056
 30
0.0
 41
70.0
 42
70.0
 43
70.0
  0
MTEXT
  5
848A
330
8421
100
AcDbEntity
  8
3
 62
     0
100
AcDbMText
 10
4896.517051099291
 20
4793.210345261056
 30
0.0
 40
105.0
 41
0.0
 71
     5
 72
     1
  1
\A1;(1120)
 73
     1
 44
1.0
1001
ACAD
1000
MTEXTBEGIN
1070
    73
1070
     1
1070
    44
1040
1.0
1070
    74
1070
     0
1000
MTEXTEND
  0
POINT
  5
848B
330
8421
100
AcDbEntity
  8
DEFPOINTS
 62
     0
100
AcDbPoint
 10
4336.517051099289
 20
3808.324713053004
 30
0.0
  0
POINT
  5
848C
330
8421
100
AcDbEntity
  8
DEFPOINTS
 62
     0
100
AcDbPoint
 10
5456.51705109929
 20
4588.443004574664
 30
0.0
  0
POINT
  5
848D
330
8421
100
AcDbEntity
  8
DEFPOINTS
 62
     0
100
AcDbPoint
 10
5456.51705109929
 20
4678.210345261056
 30
0.0
  0
ENDBLK
  5
8423
330
8421
100
AcDbEntity
  8
0
100
AcDbBlockEnd
  0
BLOCK
  5
842F
330
842E
100
AcDbEntity
  8
0
100
AcDbBlockBegin
  2
*D29
 70
     1
 10
0.0
 20
0.0
 30
0.0
  3
*D29
  1

  0
LINE
  5
848E
330
842E
100
AcDbEntity
  8
3
 62
     0
370
    -2
100
AcDbLine
 10
5456.51705109929
 20
4605.943004574664
 30
0.0
 11
5456.51705109929
 21
4713.210345261056
 31
0.0
  0
LINE
  5
848F
330
842E
100
AcDbEntity
  8
3
 62
     0
370
    -2
100
AcDbLine
 10
6386.517051099289
 20
3372.824713053005
 30
0.0
 11
6386.517051099289
 21
4713.210345261056
 31
0.0
  0
LINE
  5
8490
330
842E
100
AcDbEntity
  8
3
 62
     0
370
    -2
100
AcDbLine
 10
5526.51705109929
 20
4678.210345261056
 30
0.0
 11
6316.517051099289
 21
4678.210345261056
 31
0.0
  0
INSERT
  5
8491
330
842E
100
AcDbEntity
  8
3
 62
     0
370
    -2
100
AcDbBlockReference
  2
_OPEN
 10
5456.51705109929
 20
4678.210345261056
 30
0.0
 41
70.0
 42
70.0
 43
70.0
 50
180.0
  0
INSERT
  5
8492
330
842E
100
AcDbEntity
  8
3
 62
     0
370
    -2
100
AcDbBlockReference
  2
_OPEN
 10
6386.517051099289
 20
4678.210345261056
 30
0.0
 41
70.0
 42
70.0
 43
70.0
  0
MTEXT
  5
8493
330
842E
100
AcDbEntity
  8
3
 62
     0
100
AcDbMText
 10
5921.51705109929
 20
4793.210345261056
 30
0.0
 40
105.0
 41
0.0
 71
     5
 72
     1
  1
\A1;(930)
 73
     1
 44
1.0
1001
ACAD
1000
MTEXTBEGIN
1070
    73
1070
     1
1070
    44
1040
1.0
1070
    74
1070
     0
1000
MTEXTEND
  0
POINT
  5
8494
330
842E
100
AcDbEntity
  8
DEFPOINTS
 62
     0
100
AcDbPoint
 10
5456.51705109929
 20
4588.443004574664
 30
0.0
  0
POINT
  5
8495
330
842E
100
AcDbEntity
  8
DEFPOINTS
 62
     0
100
AcDbPoint
 10
6386.517051099289
 20
3355.324713053004
 30
0.0
  0
POINT
  5
8496
330
842E
100
AcDbEntity
  8
DEFPOINTS
 62
     0
100
AcDbPoint
 10
6386.517051099289
 20
4678.210345261056
 30
0.0
  0
ENDBLK
  5
8430
330
842E
100
AcDbEntity
  8
0
100
AcDbBlockEnd
  0
BLOCK
  5
8499
330
8498
100
AcDbEntity
  8
0
100
AcDbBlockBegin
  2
*D30
 70
     1
 10
0.0
 20
0.0
 30
0.0
  3
*D30
  1

  0
LINE
  5
84A4
330
8498
100
AcDbEntity
  8
3
 62
     0
370
    -2
100
AcDbLine
 10
1072.921539384013
 20
6832.723803734342
 30
0.0
 11
-247.0042232268532
 21
6832.723803734342
 31
0.0
  0
LINE
  5
84A5
330
8498
100
AcDbEntity
  8
3
 62
     0
370
    -2
100
AcDbLine
 10
889.3268268170357
 20
5712.72380373434
 30
0.0
 11
-247.0042232268533
 21
5712.72380373434
 31
0.0
  0
LINE
  5
84A6
330
8498
100
AcDbEntity
  8
3
 62
     0
370
    -2
100
AcDbLine
 10
-212.0042232268532
 20
6762.723803734342
 30
0.0
 11
-212.0042232268534
 21
5782.723803734341
 31
0.0
  0
INSERT
  5
84A7
330
8498
100
AcDbEntity
  8
3
 62
     0
370
    -2
100
AcDbBlockReference
  2
_OPEN
 10
-212.0042232268532
 20
6832.723803734342
 30
0.0
 41
70.0
 42
70.0
 43
70.0
 50
90.0
  0
INSERT
  5
84A8
330
8498
100
AcDbEntity
  8
3
 62
     0
370
    -2
100
AcDbBlockReference
  2
_OPEN
 10
-212.0042232268534
 20
5712.72380373434
 30
0.0
 41
70.0
 42
70.0
 43
70.0
 50
270.0
  0
MTEXT
  5
84A9
330
8498
100
AcDbEntity
  8
3
 62
     0
100
AcDbMText
 10
-299.5042232268543
 20
6272.723803734341
 30
0.0
 40
105.0
 41
0.0
 71
     5
 72
     1
  1
\A1;1120
 11
0.0000000000000001
 21
1.0
 31
0.0
 73
     1
 44
1.0
1001
ACAD
1000
MTEXTBEGIN
1070
    73
1070
     1
1070
    44
1040
1.0
1070
    74
1070
     0
1000
MTEXTEND
  0
POINT
  5
84AA
330
8498
100
AcDbEntity
  8
DEFPOINTS
 62
     0
100
AcDbPoint
 10
1090.421539384013
 20
6832.723803734342
 30
0.0
  0
POINT
  5
84AB
330
8498
100
AcDbEntity
  8
DEFPOINTS
 62
     0
100
AcDbPoint
 10
906.8268268170356
 20
5712.72380373434
 30
0.0
  0
POINT
  5
84AC
330
8498
100
AcDbEntity
  8
DEFPOINTS
 62
     0
100
AcDbPoint
 10
-212.0042232268534
 20
5712.72380373434
 30
0.0
  0
ENDBLK
  5
849A
330
8498
100
AcDbEntity
  8
0
100
AcDbBlockEnd
  0
BLOCK
  5
84AF
330
84AE
100
AcDbEntity
  8
0
100
AcDbBlockBegin
  2
*D31
 70
     1
 10
0.0
 20
0.0
 30
0.0
  3
*D31
  1

  0
LINE
  5
84B1
330
84AE
100
AcDbEntity
  8
3
 62
     0
370
    -2
100
AcDbLine
 10
819.3268268170358
 20
5750.723803734341
 30
0.0
 11
586.0116974813244
 21
5750.723803734341
 31
0.0
  0
LINE
  5
84B2
330
84AE
100
AcDbEntity
  8
3
 62
     0
370
    -2
100
AcDbLine
 10
819.3268268170358
 20
6650.72380373434
 30
0.0
 11
586.0116974813247
 21
6650.72380373434
 31
0.0
  0
LINE
  5
84B3
330
84AE
100
AcDbEntity
  8
3
 62
     0
370
    -2
100
AcDbLine
 10
621.0116974813245
 20
5820.723803734341
 30
0.0
 11
621.0116974813247
 21
6580.723803734341
 31
0.0
  0
INSERT
  5
84B4
330
84AE
100
AcDbEntity
  8
3
 62
     0
370
    -2
100
AcDbBlockReference
  2
_OPEN
 10
621.0116974813245
 20
5750.723803734341
 30
0.0
 41
70.0
 42
70.0
 43
70.0
 50
270.0
  0
INSERT
  5
84B5
330
84AE
100
AcDbEntity
  8
3
 62
     0
370
    -2
100
AcDbBlockReference
  2
_OPEN
 10
621.0116974813247
 20
6650.72380373434
 30
0.0
 41
70.0
 42
70.0
 43
70.0
 50
90.0
  0
MTEXT
  5
84B6
330
84AE
100
AcDbEntity
  8
3
 62
     0
100
AcDbMText
 10
533.5116974813236
 20
6200.723803734341
 30
0.0
 40
105.0
 41
0.0
 71
     5
 72
     1
  1
\A1;900
 11
0.0000000000000001
 21
1.0
 31
0.0
 73
     1
 44
1.0
1001
ACAD
1000
MTEXTBEGIN
1070
    73
1070
     1
1070
    44
1040
1.0
1070
    74
1070
     0
1000
MTEXTEND
  0
POINT
  5
84B7
330
84AE
100
AcDbEntity
  8
DEFPOINTS
 62
     0
100
AcDbPoint
 10
836.8268268170357
 20
5750.723803734341
 30
0.0
  0
POINT
  5
84B8
330
84AE
100
AcDbEntity
  8
DEFPOINTS
 62
     0
100
AcDbPoint
 10
836.8268268170357
 20
6650.72380373434
 30
0.0
  0
POINT
  5
84B9
330
84AE
100
AcDbEntity
  8
DEFPOINTS
 62
     0
100
AcDbPoint
 10
621.0116974813247
 20
6650.72380373434
 30
0.0
  0
ENDBLK
  5
84B0
330
84AE
100
AcDbEntity
  8
0
100
AcDbBlockEnd
  0
BLOCK
  5
84BC
330
84BB
100
AcDbEntity
  8
0
100
AcDbBlockBegin
  2
*D32
 70
     1
 10
0.0
 20
0.0
 30
0.0
  3
*D32
  1

  0
LINE
  5
84BE
330
84BB
100
AcDbEntity
  8
3
 62
     0
370
    -2
100
AcDbLine
 10
836.8268268170357
 20
6668.223803734341
 30
0.0
 11
836.8268268170359
 21
7859.73116420546
 31
0.0
  0
LINE
  5
84BF
330
84BB
100
AcDbEntity
  8
3
 62
     0
370
    -2
100
AcDbLine
 10
1776.826826817035
 20
7668.223803734342
 30
0.0
 11
1776.826826817035
 21
7859.73116420546
 31
0.0
  0
LINE
  5
84C0
330
84BB
100
AcDbEntity
  8
3
 62
     0
370
    -2
100
AcDbLine
 10
906.8268268170358
 20
7824.731164205461
 30
0.0
 11
1706.826826817035
 21
7824.731164205461
 31
0.0
  0
INSERT
  5
84C1
330
84BB
100
AcDbEntity
  8
3
 62
     0
370
    -2
100
AcDbBlockReference
  2
_OPEN
 10
836.8268268170359
 20
7824.731164205461
 30
0.0
 41
70.0
 42
70.0
 43
70.0
 50
180.0
  0
INSERT
  5
84C2
330
84BB
100
AcDbEntity
  8
3
 62
     0
370
    -2
100
AcDbBlockReference
  2
_OPEN
 10
1776.826826817035
 20
7824.731164205461
 30
0.0
 41
70.0
 42
70.0
 43
70.0
  0
MTEXT
  5
84C3
330
84BB
100
AcDbEntity
  8
3
 62
     0
100
AcDbMText
 10
1306.826826817035
 20
7912.231164205461
 30
0.0
 40
105.0
 41
0.0
 71
     5
 72
     1
  1
\A1;940
 73
     1
 44
1.0
1001
ACAD
1000
MTEXTBEGIN
1070
    73
1070
     1
1070
    44
1040
1.0
1070
    74
1070
     0
1000
MTEXTEND
  0
POINT
  5
84C4
330
84BB
100
AcDbEntity
  8
DEFPOINTS
 62
     0
100
AcDbPoint
 10
836.8268268170357
 20
6650.72380373434
 30
0.0
  0
POINT
  5
84C5
330
84BB
100
AcDbEntity
  8
DEFPOINTS
 62
     0
100
AcDbPoint
 10
1776.826826817035
 20
7650.723803734343
 30
0.0
  0
POINT
  5
84C6
330
84BB
100
AcDbEntity
  8
DEFPOINTS
 62
     0
100
AcDbPoint
 10
1776.826826817035
 20
7824.731164205461
 30
0.0
  0
ENDBLK
  5
84BD
330
84BB
100
AcDbEntity
  8
0
100
AcDbBlockEnd
  0
BLOCK
  5
84C9
330
84C8
100
AcDbEntity
  8
0
100
AcDbBlockBegin
  2
*D33
 70
     1
 10
0.0
 20
0.0
 30
0.0
  3
*D33
  1

  0
LINE
  5
84CB
330
84C8
100
AcDbEntity
  8
3
 62
     0
370
    -2
100
AcDbLine
 10
1776.826826817035
 20
7668.223803734342
 30
0.0
 11
1776.826826817035
 21
7859.73116420546
 31
0.0
  0
LINE
  5
84CC
330
84C8
100
AcDbEntity
  8
3
 62
     0
370
    -2
100
AcDbLine
 10
3096.826826817036
 20
7668.223803734342
 30
0.0
 11
3096.826826817036
 21
7859.73116420546
 31
0.0
  0
LINE
  5
84CD
330
84C8
100
AcDbEntity
  8
3
 62
     0
370
    -2
100
AcDbLine
 10
1846.826826817035
 20
7824.731164205461
 30
0.0
 11
3026.826826817036
 21
7824.731164205461
 31
0.0
  0
INSERT
  5
84CE
330
84C8
100
AcDbEntity
  8
3
 62
     0
370
    -2
100
AcDbBlockReference
  2
_OPEN
 10
1776.826826817035
 20
7824.731164205461
 30
0.0
 41
70.0
 42
70.0
 43
70.0
 50
180.0
  0
INSERT
  5
84CF
330
84C8
100
AcDbEntity
  8
3
 62
     0
370
    -2
100
AcDbBlockReference
  2
_OPEN
 10
3096.826826817036
 20
7824.731164205461
 30
0.0
 41
70.0
 42
70.0
 43
70.0
  0
MTEXT
  5
84D0
330
84C8
100
AcDbEntity
  8
3
 62
     0
100
AcDbMText
 10
2436.826826817036
 20
7912.231164205461
 30
0.0
 40
105.0
 41
0.0
 71
     5
 72
     1
  1
\A1;1320
 73
     1
 44
1.0
1001
ACAD
1000
MTEXTBEGIN
1070
    73
1070
     1
1070
    44
1040
1.0
1070
    74
1070
     0
1000
MTEXTEND
  0
POINT
  5
84D1
330
84C8
100
AcDbEntity
  8
DEFPOINTS
 62
     0
100
AcDbPoint
 10
1776.826826817035
 20
7650.723803734343
 30
0.0
  0
POINT
  5
84D2
330
84C8
100
AcDbEntity
  8
DEFPOINTS
 62
     0
100
AcDbPoint
 10
3096.826826817036
 20
7650.723803734343
 30
0.0
  0
POINT
  5
84D3
330
84C8
100
AcDbEntity
  8
DEFPOINTS
 62
     0
100
AcDbPoint
 10
3096.826826817036
 20
7824.731164205461
 30
0.0
  0
ENDBLK
  5
84CA
330
84C8
100
AcDbEntity
  8
0
100
AcDbBlockEnd
  0
BLOCK
  5
84D6
330
84D5
100
AcDbEntity
  8
0
100
AcDbBlockBegin
  2
*D34
 70
     1
 10
0.0
 20
0.0
 30
0.0
  3
*D34
  1

  0
LINE
  5
84D8
330
84D5
100
AcDbEntity
  8
3
 62
     0
370
    -2
100
AcDbLine
 10
3114.326826817036
 20
7650.723803734343
 30
0.0
 11
3612.125907775742
 21
7650.723803734343
 31
0.0
  0
LINE
  5
84D9
330
84D5
100
AcDbEntity
  8
3
 62
     0
370
    -2
100
AcDbLine
 10
3114.326826817036
 20
5750.723803734341
 30
0.0
 11
3612.125907775742
 21
5750.723803734341
 31
0.0
  0
LINE
  5
84DA
330
84D5
100
AcDbEntity
  8
3
 62
     0
370
    -2
100
AcDbLine
 10
3577.125907775742
 20
7580.723803734342
 30
0.0
 11
3577.125907775742
 21
5820.723803734341
 31
0.0
  0
INSERT
  5
84DB
330
84D5
100
AcDbEntity
  8
3
 62
     0
370
    -2
100
AcDbBlockReference
  2
_OPEN
 10
3577.125907775742
 20
7650.723803734343
 30
0.0
 41
70.0
 42
70.0
 43
70.0
 50
90.0
  0
INSERT
  5
84DC
330
84D5
100
AcDbEntity
  8
3
 62
     0
370
    -2
100
AcDbBlockReference
  2
_OPEN
 10
3577.125907775742
 20
5750.723803734341
 30
0.0
 41
70.0
 42
70.0
 43
70.0
 50
270.0
  0
MTEXT
  5
84DD
330
84D5
100
AcDbEntity
  8
3
 62
     0
100
AcDbMText
 10
3489.625907775741
 20
6700.723803734343
 30
0.0
 40
105.0
 41
0.0
 71
     5
 72
     1
  1
\A1;1900
 11
0.0000000000000001
 21
1.0
 31
0.0
 73
     1
 44
1.0
1001
ACAD
1000
MTEXTBEGIN
1070
    73
1070
     1
1070
    44
1040
1.0
1070
    74
1070
     0
1000
MTEXTEND
  0
POINT
  5
84DE
330
84D5
100
AcDbEntity
  8
DEFPOINTS
 62
     0
100
AcDbPoint
 10
3096.826826817036
 20
7650.723803734343
 30
0.0
  0
POINT
  5
84DF
330
84D5
100
AcDbEntity
  8
DEFPOINTS
 62
     0
100
AcDbPoint
 10
3096.826826817036
 20
5750.723803734341
 30
0.0
  0
POINT
  5
84E0
330
84D5
100
AcDbEntity
  8
DEFPOINTS
 62
     0
100
AcDbPoint
 10
3577.125907775742
 20
5750.723803734341
 30
0.0
  0
ENDBLK
  5
84D7
330
84D5
100
AcDbEntity
  8
0
100
AcDbBlockEnd
  0
BLOCK
  5
84E3
330
84E2
100
AcDbEntity
  8
0
100
AcDbBlockBegin
  2
*D35
 70
     1
 10
0.0
 20
0.0
 30
0.0
  3
*D35
  1

  0
LINE
  5
84E5
330
84E2
100
AcDbEntity
  8
3
 62
     0
370
    -2
100
AcDbLine
 10
836.8268268170357
 20
5733.223803734341
 30
0.0
 11
836.8268268170357
 21
5424.478611640394
 31
0.0
  0
LINE
  5
84E6
330
84E2
100
AcDbEntity
  8
3
 62
     0
370
    -2
100
AcDbLine
 10
3096.826826817036
 20
5733.223803734341
 30
0.0
 11
3096.826826817036
 21
5424.478611640394
 31
0.0
  0
LINE
  5
84E7
330
84E2
100
AcDbEntity
  8
3
 62
     0
370
    -2
100
AcDbLine
 10
906.8268268170358
 20
5459.478611640394
 30
0.0
 11
3026.826826817036
 21
5459.478611640394
 31
0.0
  0
INSERT
  5
84E8
330
84E2
100
AcDbEntity
  8
3
 62
     0
370
    -2
100
AcDbBlockReference
  2
_OPEN
 10
836.8268268170357
 20
5459.478611640394
 30
0.0
 41
70.0
 42
70.0
 43
70.0
 50
180.0
  0
INSERT
  5
84E9
330
84E2
100
AcDbEntity
  8
3
 62
     0
370
    -2
100
AcDbBlockReference
  2
_OPEN
 10
3096.826826817036
 20
5459.478611640394
 30
0.0
 41
70.0
 42
70.0
 43
70.0
  0
MTEXT
  5
84EA
330
84E2
100
AcDbEntity
  8
3
 62
     0
100
AcDbMText
 10
1966.826826817036
 20
5546.978611640394
 30
0.0
 40
105.0
 41
0.0
 71
     5
 72
     1
  1
\A1;2260
 73
     1
 44
1.0
1001
ACAD
1000
MTEXTBEGIN
1070
    73
1070
     1
1070
    44
1040
1.0
1070
    74
1070
     0
1000
MTEXTEND
  0
POINT
  5
84EB
330
84E2
100
AcDbEntity
  8
DEFPOINTS
 62
     0
100
AcDbPoint
 10
836.8268268170357
 20
5750.723803734341
 30
0.0
  0
POINT
  5
84EC
330
84E2
100
AcDbEntity
  8
DEFPOINTS
 62
     0
100
AcDbPoint
 10
3096.826826817036
 20
5750.723803734341
 30
0.0
  0
POINT
  5
84ED
330
84E2
100
AcDbEntity
  8
DEFPOINTS
 62
     0
100
AcDbPoint
 10
3096.826826817036
 20
5459.478611640394
 30
0.0
  0
ENDBLK
  5
84E4
330
84E2
100
AcDbEntity
  8
0
100
AcDbBlockEnd
  0
BLOCK
  5
84F0
330
84EF
100
AcDbEntity
  8
0
100
AcDbBlockBegin
  2
*D36
 70
     1
 10
0.0
 20
0.0
 30
0.0
  3
*D36
  1

  0
LINE
  5
84F2
330
84EF
100
AcDbEntity
  8
3
 62
     0
370
    -2
100
AcDbLine
 10
1238.826826817035
 20
4205.824713053003
 30
0.0
 11
1238.826826817035
 21
4423.433029337271
 31
0.0
  0
LINE
  5
84F3
330
84EF
100
AcDbEntity
  8
3
 62
     0
370
    -2
100
AcDbLine
 10
2388.826826817036
 20
4205.824713053003
 30
0.0
 11
2388.826826817036
 21
4423.433029337271
 31
0.0
  0
LINE
  5
84F4
330
84EF
100
AcDbEntity
  8
3
 62
     0
370
    -2
100
AcDbLine
 10
1308.826826817035
 20
4388.433029337271
 30
0.0
 11
2318.826826817036
 21
4388.433029337271
 31
0.0
  0
INSERT
  5
84F5
330
84EF
100
AcDbEntity
  8
3
 62
     0
370
    -2
100
AcDbBlockReference
  2
_OPEN
 10
1238.826826817035
 20
4388.433029337271
 30
0.0
 41
70.0
 42
70.0
 43
70.0
 50
180.0
  0
INSERT
  5
84F6
330
84EF
100
AcDbEntity
  8
3
 62
     0
370
    -2
100
AcDbBlockReference
  2
_OPEN
 10
2388.826826817036
 20
4388.433029337271
 30
0.0
 41
70.0
 42
70.0
 43
70.0
  0
MTEXT
  5
84F7
330
84EF
100
AcDbEntity
  8
3
 62
     0
100
AcDbMText
 10
1813.826826817035
 20
4475.933029337271
 30
0.0
 40
105.0
 41
0.0
 71
     5
 72
     1
  1
\A1;1150
 73
     1
 44
1.0
1001
ACAD
1000
MTEXTBEGIN
1070
    73
1070
     1
1070
    44
1040
1.0
1070
    74
1070
     0
1000
MTEXTEND
  0
POINT
  5
84F8
330
84EF
100
AcDbEntity
  8
DEFPOINTS
 62
     0
100
AcDbPoint
 10
1238.826826817035
 20
4188.324713053003
 30
0.0
  0
POINT
  5
84F9
330
84EF
100
AcDbEntity
  8
DEFPOINTS
 62
     0
100
AcDbPoint
 10
2388.826826817036
 20
4188.324713053003
 30
0.0
  0
POINT
  5
84FA
330
84EF
100
AcDbEntity
  8
DEFPOINTS
 62
     0
100
AcDbPoint
 10
2388.826826817036
 20
4388.433029337271
 30
0.0
  0
ENDBLK
  5
84F1
330
84EF
100
AcDbEntity
  8
0
100
AcDbBlockEnd
  0
BLOCK
  5
84FD
330
84FC
100
AcDbEntity
  8
0
100
AcDbBlockBegin
  2
*D37
 70
     1
 10
0.0
 20
0.0
 30
0.0
  3
*D37
  1

  0
LINE
  5
84FF
330
84FC
100
AcDbEntity
  8
3
 62
     0
370
    -2
100
AcDbLine
 10
1238.826826817035
 20
4205.824713053003
 30
0.0
 11
1238.826826817035
 21
4623.58468019877
 31
0.0
  0
LINE
  5
8500
330
84FC
100
AcDbEntity
  8
3
 62
     0
370
    -2
100
AcDbLine
 10
2436.826826817036
 20
4273.716972783115
 30
0.0
 11
2436.826826817036
 21
4623.58468019877
 31
0.0
  0
LINE
  5
8501
330
84FC
100
AcDbEntity
  8
3
 62
     0
370
    -2
100
AcDbLine
 10
1308.826826817035
 20
4588.58468019877
 30
0.0
 11
2366.826826817036
 21
4588.58468019877
 31
0.0
  0
INSERT
  5
8502
330
84FC
100
AcDbEntity
  8
3
 62
     0
370
    -2
100
AcDbBlockReference
  2
_OPEN
 10
1238.826826817035
 20
4588.58468019877
 30
0.0
 41
70.0
 42
70.0
 43
70.0
 50
180.0
  0
INSERT
  5
8503
330
84FC
100
AcDbEntity
  8
3
 62
     0
370
    -2
100
AcDbBlockReference
  2
_OPEN
 10
2436.826826817036
 20
4588.58468019877
 30
0.0
 41
70.0
 42
70.0
 43
70.0
  0
MTEXT
  5
8504
330
84FC
100
AcDbEntity
  8
3
 62
     0
100
AcDbMText
 10
1837.826826817035
 20
4676.08468019877
 30
0.0
 40
105.0
 41
0.0
 71
     5
 72
     1
  1
\A1;1198
 73
     1
 44
1.0
1001
ACAD
1000
MTEXTBEGIN
1070
    73
1070
     1
1070
    44
1040
1.0
1070
    74
1070
     0
1000
MTEXTEND
  0
POINT
  5
8505
330
84FC
100
AcDbEntity
  8
DEFPOINTS
 62
     0
100
AcDbPoint
 10
1238.826826817035
 20
4188.324713053003
 30
0.0
  0
POINT
  5
8506
330
84FC
100
AcDbEntity
  8
DEFPOINTS
 62
     0
100
AcDbPoint
 10
2436.826826817036
 20
4256.216972783115
 30
0.0
  0
POINT
  5
8507
330
84FC
100
AcDbEntity
  8
DEFPOINTS
 62
     0
100
AcDbPoint
 10
2436.826826817036
 20
4588.58468019877
 30
0.0
  0
ENDBLK
  5
84FE
330
84FC
100
AcDbEntity
  8
0
100
AcDbBlockEnd
  0
BLOCK
  5
850A
330
8509
100
AcDbEntity
  8
0
100
AcDbBlockBegin
  2
*D38
 70
     1
 10
0.0
 20
0.0
 30
0.0
  3
*D38
  1

  0
LINE
  5
850C
330
8509
100
AcDbEntity
  8
3
 62
     0
370
    -2
100
AcDbLine
 10
2436.826826817036
 20
4273.716972783115
 30
0.0
 11
2436.826826817036
 21
4623.58468019877
 31
0.0
  0
LINE
  5
850D
330
8509
100
AcDbEntity
  8
3
 62
     0
370
    -2
100
AcDbLine
 10
3241.826826817036
 20
3363.824713053003
 30
0.0
 11
3241.826826817036
 21
4623.58468019877
 31
0.0
  0
LINE
  5
850E
330
8509
100
AcDbEntity
  8
3
 62
     0
370
    -2
100
AcDbLine
 10
2506.826826817036
 20
4588.58468019877
 30
0.0
 11
3171.826826817036
 21
4588.58468019877
 31
0.0
  0
INSERT
  5
850F
330
8509
100
AcDbEntity
  8
3
 62
     0
370
    -2
100
AcDbBlockReference
  2
_OPEN
 10
2436.826826817036
 20
4588.58468019877
 30
0.0
 41
70.0
 42
70.0
 43
70.0
 50
180.0
  0
INSERT
  5
8510
330
8509
100
AcDbEntity
  8
3
 62
     0
370
    -2
100
AcDbBlockReference
  2
_OPEN
 10
3241.826826817036
 20
4588.58468019877
 30
0.0
 41
70.0
 42
70.0
 43
70.0
  0
MTEXT
  5
8511
330
8509
100
AcDbEntity
  8
3
 62
     0
100
AcDbMText
 10
2839.326826817036
 20
4676.08468019877
 30
0.0
 40
105.0
 41
0.0
 71
     5
 72
     1
  1
\A1;805
 73
     1
 44
1.0
1001
ACAD
1000
MTEXTBEGIN
1070
    73
1070
     1
1070
    44
1040
1.0
1070
    74
1070
     0
1000
MTEXTEND
  0
POINT
  5
8512
330
8509
100
AcDbEntity
  8
DEFPOINTS
 62
     0
100
AcDbPoint
 10
2436.826826817036
 20
4256.216972783115
 30
0.0
  0
POINT
  5
8513
330
8509
100
AcDbEntity
  8
DEFPOINTS
 62
     0
100
AcDbPoint
 10
3241.826826817036
 20
3346.324713053003
 30
0.0
  0
POINT
  5
8514
330
8509
100
AcDbEntity
  8
DEFPOINTS
 62
     0
100
AcDbPoint
 10
3241.826826817036
 20
4588.58468019877
 30
0.0
  0
ENDBLK
  5
850B
330
8509
100
AcDbEntity
  8
0
100
AcDbBlockEnd
  0
BLOCK
  5
8517
330
8516
100
AcDbEntity
  8
0
100
AcDbBlockBegin
  2
*D39
 70
     1
 10
0.0
 20
0.0
 30
0.0
  3
*D39
  1

  0
LINE
  5
8519
330
8516
100
AcDbEntity
  8
3
 62
     0
370
    -2
100
AcDbLine
 10
836.8268268170357
 20
2560.824713053003
 30
0.0
 11
836.8268268170359
 21
4855.526081803353
 31
0.0
  0
LINE
  5
851A
330
8516
100
AcDbEntity
  8
3
 62
     0
370
    -2
100
AcDbLine
 10
3241.826826817036
 20
3363.824713053003
 30
0.0
 11
3241.826826817036
 21
4855.526081803353
 31
0.0
  0
LINE
  5
851B
330
8516
100
AcDbEntity
  8
3
 62
     0
370
    -2
100
AcDbLine
 10
906.8268268170358
 20
4820.526081803353
 30
0.0
 11
3171.826826817036
 21
4820.526081803353
 31
0.0
  0
INSERT
  5
851C
330
8516
100
AcDbEntity
  8
3
 62
     0
370
    -2
100
AcDbBlockReference
  2
_OPEN
 10
836.8268268170359
 20
4820.526081803353
 30
0.0
 41
70.0
 42
70.0
 43
70.0
 50
180.0
  0
INSERT
  5
851D
330
8516
100
AcDbEntity
  8
3
 62
     0
370
    -2
100
AcDbBlockReference
  2
_OPEN
 10
3241.826826817036
 20
4820.526081803353
 30
0.0
 41
70.0
 42
70.0
 43
70.0
  0
MTEXT
  5
851E
330
8516
100
AcDbEntity
  8
3
 62
     0
100
AcDbMText
 10
2039.326826817036
 20
4908.026081803352
 30
0.0
 40
105.0
 41
0.0
 71
     5
 72
     1
  1
\A1;2405
 73
     1
 44
1.0
1001
ACAD
1000
MTEXTBEGIN
1070
    73
1070
     1
1070
    44
1040
1.0
1070
    74
1070
     0
1000
MTEXTEND
  0
POINT
  5
851F
330
8516
100
AcDbEntity
  8
DEFPOINTS
 62
     0
100
AcDbPoint
 10
836.8268268170357
 20
2543.324713053003
 30
0.0
  0
POINT
  5
8520
330
8516
100
AcDbEntity
  8
DEFPOINTS
 62
     0
100
AcDbPoint
 10
3241.826826817036
 20
3346.324713053003
 30
0.0
  0
POINT
  5
8521
330
8516
100
AcDbEntity
  8
DEFPOINTS
 62
     0
100
AcDbPoint
 10
3241.826826817036
 20
4820.526081803353
 30
0.0
  0
ENDBLK
  5
8518
330
8516
100
AcDbEntity
  8
0
100
AcDbBlockEnd
  0
BLOCK
  5
8524
330
8523
100
AcDbEntity
  8
0
100
AcDbBlockBegin
  2
*D40
 70
     1
 10
0.0
 20
0.0
 30
0.0
  3
*D40
  1

  0
LINE
  5
8526
330
8523
100
AcDbEntity
  8
3
 62
     0
370
    -2
100
AcDbLine
 10
2459.326826817036
 20
4188.324713053003
 30
0.0
 11
3542.813709636106
 21
4188.324713053003
 31
0.0
  0
LINE
  5
8527
330
8523
100
AcDbEntity
  8
3
 62
     0
370
    -2
100
AcDbLine
 10
3361.107478270012
 20
3428.324713053003
 30
0.0
 11
3542.813709636106
 21
3428.324713053003
 31
0.0
  0
LINE
  5
8528
330
8523
100
AcDbEntity
  8
3
 62
     0
370
    -2
100
AcDbLine
 10
3507.813709636106
 20
4118.324713053002
 30
0.0
 11
3507.813709636106
 21
3498.324713053003
 31
0.0
  0
INSERT
  5
8529
330
8523
100
AcDbEntity
  8
3
 62
     0
370
    -2
100
AcDbBlockReference
  2
_OPEN
 10
3507.813709636106
 20
4188.324713053003
 30
0.0
 41
70.0
 42
70.0
 43
70.0
 50
90.0
  0
INSERT
  5
852A
330
8523
100
AcDbEntity
  8
3
 62
     0
370
    -2
100
AcDbBlockReference
  2
_OPEN
 10
3507.813709636106
 20
3428.324713053003
 30
0.0
 41
70.0
 42
70.0
 43
70.0
 50
270.0
  0
MTEXT
  5
852B
330
8523
100
AcDbEntity
  8
3
 62
     0
100
AcDbMText
 10
3420.313709636106
 20
3808.324713053004
 30
0.0
 40
105.0
 41
0.0
 71
     5
 72
     1
  1
\A1;760
 11
0.0000000000000001
 21
1.0
 31
0.0
 73
     1
 44
1.0
1001
ACAD
1000
MTEXTBEGIN
1070
    73
1070
     1
1070
    44
1040
1.0
1070
    74
1070
     0
1000
MTEXTEND
  0
POINT
  5
852C
330
8523
100
AcDbEntity
  8
DEFPOINTS
 62
     0
100
AcDbPoint
 10
2441.826826817036
 20
4188.324713053003
 30
0.0
  0
POINT
  5
852D
330
8523
100
AcDbEntity
  8
DEFPOINTS
 62
     0
100
AcDbPoint
 10
3343.607478270012
 20
3428.324713053003
 30
0.0
  0
POINT
  5
852E
330
8523
100
AcDbEntity
  8
DEFPOINTS
 62
     0
100
AcDbPoint
 10
3507.813709636106
 20
3428.324713053003
 30
0.0
  0
ENDBLK
  5
8525
330
8523
100
AcDbEntity
  8
0
100
AcDbBlockEnd
  0
BLOCK
  5
8531
330
8530
100
AcDbEntity
  8
0
100
AcDbBlockBegin
  2
*D41
 70
     1
 10
0.0
 20
0.0
 30
0.0
  3
*D41
  1

  0
LINE
  5
8533
330
8530
100
AcDbEntity
  8
3
 62
     0
370
    -2
100
AcDbLine
 10
3361.107478270012
 20
3428.324713053003
 30
0.0
 11
3542.813709636106
 21
3428.324713053003
 31
0.0
  0
LINE
  5
8534
330
8530
100
AcDbEntity
  8
3
 62
     0
370
    -2
100
AcDbLine
 10
3114.326826817036
 20
2418.324713053003
 30
0.0
 11
3542.813709636106
 21
2418.324713053003
 31
0.0
  0
LINE
  5
8535
330
8530
100
AcDbEntity
  8
3
 62
     0
370
    -2
100
AcDbLine
 10
3507.813709636106
 20
3358.324713053003
 30
0.0
 11
3507.813709636105
 21
2488.324713053003
 31
0.0
  0
INSERT
  5
8536
330
8530
100
AcDbEntity
  8
3
 62
     0
370
    -2
100
AcDbBlockReference
  2
_OPEN
 10
3507.813709636106
 20
3428.324713053003
 30
0.0
 41
70.0
 42
70.0
 43
70.0
 50
90.0
  0
INSERT
  5
8537
330
8530
100
AcDbEntity
  8
3
 62
     0
370
    -2
100
AcDbBlockReference
  2
_OPEN
 10
3507.813709636105
 20
2418.324713053003
 30
0.0
 41
70.0
 42
70.0
 43
70.0
 50
270.0
  0
MTEXT
  5
8538
330
8530
100
AcDbEntity
  8
3
 62
     0
100
AcDbMText
 10
3420.313709636106
 20
2923.324713053004
 30
0.0
 40
105.0
 41
0.0
 71
     5
 72
     1
  1
\A1;1010
 11
0.0000000000000001
 21
1.0
 31
0.0
 73
     1
 44
1.0
1001
ACAD
1000
MTEXTBEGIN
1070
    73
1070
     1
1070
    44
1040
1.0
1070
    74
1070
     0
1000
MTEXTEND
  0
POINT
  5
8539
330
8530
100
AcDbEntity
  8
DEFPOINTS
 62
     0
100
AcDbPoint
 10
3343.607478270012
 20
3428.324713053003
 30
0.0
  0
POINT
  5
853A
330
8530
100
AcDbEntity
  8
DEFPOINTS
 62
     0
100
AcDbPoint
 10
3096.826826817036
 20
2418.324713053003
 30
0.0
  0
POINT
  5
853B
330
8530
100
AcDbEntity
  8
DEFPOINTS
 62
     0
100
AcDbPoint
 10
3507.813709636105
 20
2418.324713053003
 30
0.0
  0
ENDBLK
  5
8532
330
8530
100
AcDbEntity
  8
0
100
AcDbBlockEnd
  0
ENDSEC
  0
SECTION
  2
ENTITIES
  0
INSERT
  5
7C11
330
83BE
100
AcDbEntity
  8
0
100
AcDbBlockReference
  2
YA_N
 10
6.0
 20
5.0
 30
0.0
  0
LINE
  5
7C13
330
83BE
100
AcDbEntity
  8
2
100
AcDbLine
 10
3343.607478270012
 20
3428.324713053003
 30
0.0
 11
1192.330092535178
 21
3428.324713053003
 31
0.0
  0
LINE
  5
7C14
330
83BE
100
AcDbEntity
  8
2
100
AcDbLine
 10
2436.826826817035
 20
2418.324713053003
 30
0.0
 11
2436.826826817036
 21
4256.216972783115
 31
0.0
  0
LINE
  5
7C15
330
83BE
100
AcDbEntity
  8
1
100
AcDbLine
 10
2441.826826817036
 20
4188.324713053003
 30
0.0
 11
1185.826826817035
 21
4188.324713053003
 31
0.0
  0
LINE
  5
7C16
330
83BE
100
AcDbEntity
  8
1
100
AcDbLine
 10
1185.826826817035
 20
4188.324713053003
 30
0.0
 11
1185.826826817035
 21
4184.324713053004
 31
0.0
  0
LINE
  5
7C17
330
83BE
100
AcDbEntity
  8
1
100
AcDbLine
 10
2441.826826817036
 20
4188.324713053003
 30
0.0
 11
2441.826826817036
 21
4184.324713053004
 31
0.0
  0
LINE
  5
7C18
330
83BE
100
AcDbEntity
  8
1
100
AcDbLine
 10
2388.826826817036
 20
4138.324713053004
 30
0.0
 11
1243.313915052475
 21
4138.324713053003
 31
0.0
  0
LINE
  5
7C19
330
83BE
100
AcDbEntity
  8
1
100
AcDbLine
 10
2441.826826817036
 20
4184.324713053004
 30
0.0
 11
1185.826826817035
 21
4184.324713053004
 31
0.0
  0
LINE
  5
7C1A
330
83BE
100
AcDbEntity
  8
1
100
AcDbLine
 10
3096.826826817036
 20
2418.324713053003
 30
0.0
 11
836.8268268170357
 21
2418.324713053003
 31
0.0
1001
ACAD
1000
ASC_BOUNDS
1002
{
1070
    19
1005
0
1002
}
  0
LINE
  5
7C1B
330
83BE
100
AcDbEntity
  8
1
100
AcDbLine
 10
3096.826826817036
 20
2543.324713053003
 30
0.0
 11
3096.826826817036
 21
2418.324713053003
 31
0.0
  0
LINE
  5
7C1C
330
83BE
100
AcDbEntity
  8
1
100
AcDbLine
 10
836.8268268170357
 20
2543.324713053003
 30
0.0
 11
836.8268268170357
 21
2418.324713053003
 31
0.0
  0
LINE
  5
7C1D
330
83BE
100
AcDbEntity
  8
1
100
AcDbLine
 10
3096.826826817036
 20
2543.324713053003
 30
0.0
 11
836.8268268170357
 21
2543.324713053003
 31
0.0
  0
ARC
  5
7C1E
330
83BE
100
AcDbEntity
  8
1
100
AcDbCircle
 10
2354.826826817036
 20
3510.324713053003
 30
0.0
 40
1051.0
100
AcDbArc
 50
184.4748178985337
 51
246.9372123999963
  0
ARC
  5
7C1F
330
83BE
100
AcDbEntity
  8
1
100
AcDbCircle
 10
2354.826826817036
 20
3346.324713053003
 30
0.0
 40
887.0
100
AcDbArc
 50
295.136448907875
 51
5.3043652077959
  0
ARC
  5
7C20
330
83BE
100
AcDbEntity
  8
1
100
AcDbCircle
 10
2505.326826817036
 20
3359.824713053003
 30
0.0
 40
736.5
100
AcDbArc
 50
5.336648321383482
 51
95.33664832138349
  0
LINE
  5
7C21
330
83BE
100
AcDbEntity
  8
1
100
AcDbLine
 10
1238.826826817035
 20
4188.324713053003
 30
0.0
 11
1307.030567995694
 21
3428.324713053003
 31
0.0
  0
LINE
  5
7C22
330
83BE
100
AcDbEntity
  8
1
100
AcDbLine
 10
2388.826826817036
 20
4188.324713053003
 30
0.0
 11
2388.826826817036
 21
4094.597930284492
 31
0.0
  0
LINE
  5
7C23
330
83BE
100
AcDbEntity
  8
2
100
AcDbLine
 10
1126.826826817036
 20
3117.182989208948
 30
0.0
 11
1126.826826817038
 21
2418.324713053003
 31
0.0
  0
LINE
  5
7C24
330
83BE
100
AcDbEntity
  8
2
100
AcDbLine
 10
1362.153121676016
 20
2803.324713053003
 30
0.0
 11
862.6622008347768
 21
2803.324713053003
 31
0.0
  0
LINE
  5
7C25
330
83BE
100
AcDbEntity
  8
1
100
AcDbLine
 10
4374.517051099289
 20
2418.324713053003
 30
0.0
 11
4439.517051099289
 21
2418.324713053003
 31
0.0
1001
ACAD
1000
ASC_BOUNDS
1002
{
1070
    19
1002
}
  0
LINE
  5
7C26
330
83BE
100
AcDbEntity
  8
1
100
AcDbLine
 10
4374.517051099291
 20
2543.324713053003
 30
0.0
 11
6274.517051099289
 21
2543.324713053003
 31
0.0
  0
LINE
  5
7C27
330
83BE
100
AcDbEntity
  8
1
100
AcDbLine
 10
4439.517051099291
 20
2418.324713053003
 30
0.0
 11
6274.517051099291
 21
2418.324713053003
 31
0.0
1001
ACAD
1000
ASC_BOUNDS
1002
{
1070
    19
1002
}
  0
LINE
  5
7C28
330
83BE
100
AcDbEntity
  8
2
100
AcDbLine
 10
4352.040301032191
 20
3428.324713053003
 30
0.0
 11
6381.50503817603
 21
3428.324713053003
 31
0.0
  0
LINE
  5
7C29
330
83BE
100
AcDbEntity
  8
1
100
AcDbLine
 10
4371.517051099291
 20
3682.324713053003
 30
0.0
 11
4371.517051099291
 21
2685.324713053003
 31
0.0
  0
LINE
  5
7C2A
330
83BE
100
AcDbEntity
  8
1
100
AcDbLine
 10
4482.01705109929
 20
3682.324713053003
 30
0.0
 11
4482.01705109929
 21
2685.324713053003
 31
0.0
  0
LINE
  5
7C2B
330
83BE
100
AcDbEntity
  8
2
100
AcDbLine
 10
4353.298111880161
 20
2803.324713053003
 30
0.0
 11
4813.462741034167
 21
2803.324713053003
 31
0.0
  0
LINE
  5
7C2C
330
83BE
100
AcDbEntity
  8
1
100
AcDbLine
 10
4336.517051099289
 20
3808.324713053004
 30
0.0
 11
4336.517051099288
 21
2583.324713053003
 31
0.0
  0
LINE
  5
7C2D
330
83BE
100
AcDbEntity
  8
1
100
AcDbLine
 10
4533.81705109929
 20
3808.324713053004
 30
0.0
 11
4533.81705109929
 21
3788.324713053004
 31
0.0
  0
LINE
  5
7C2E
330
83BE
100
AcDbEntity
  8
2
100
AcDbLine
 10
2436.826826817036
 20
7516.356230369336
 30
0.0
 11
2436.826826817036
 21
5673.777819829195
 31
0.0
  0
LINE
  5
7C2F
330
83BE
100
AcDbEntity
  8
2
100
AcDbLine
 10
3312.028022879291
 20
6832.723803734342
 30
0.0
 11
1090.421539384013
 21
6832.723803734342
 31
0.0
  0
LINE
  5
7C30
330
83BE
100
AcDbEntity
  8
2
100
AcDbLine
 10
5456.51705109929
 20
4404.185691688095
 30
0.0
 11
5456.517051099291
 21
2418.324713053003
 31
0.0
  0
POINT
  5
7C31
330
83BE
100
AcDbEntity
  8
1
100
AcDbPoint
 10
2436.826826817036
 20
4229.526275551623
 30
0.0
  0
INSERT
  5
7C32
330
83BE
100
AcDbEntity
  8
0
100
AcDbBlockReference
  2
YA_N
 10
-1074.779326041182
 20
-1311.669320613289
 30
0.0
 41
25.0
 42
25.0
 43
25.0
  0
INSERT
  5
7C3B
330
83BE
100
AcDbEntity
  8
0
100
AcDbBlockReference
  2
YA_N
 10
-346.9416476423939
 20
-375.8074592043958
 30
0.0
 41
25.0
 42
25.0
 43
25.0
  0
ARC
  5
7C40
330
83BE
100
AcDbEntity
  8
1
100
AcDbCircle
 10
1126.826826817036
 20
2803.324713053003
 30
0.0
 40
203.5
100
AcDbArc
 50
285.603699
 51
254.39624
  0
LINE
  5
7C41
330
83BE
100
AcDbEntity
  8
1
100
AcDbLine
 10
1072.088789817036
 20
2607.324713053003
 30
0.0
 11
1181.564863817037
 21
2607.324713053003
 31
0.0
  0
ARC
  5
7C42
330
83BE
100
AcDbEntity
  8
1
100
AcDbCircle
 10
1312.826826817035
 20
2620.324713053003
 30
0.0
 40
3.0
100
AcDbArc
 50
0.0
 51
90.0
  0
ARC
  5
7C43
330
83BE
100
AcDbEntity
  8
1
100
AcDbCircle
 10
1310.826826817035
 20
2677.651374053003
 30
0.0
 40
5.000066999999999
100
AcDbArc
 50
0.0
 51
55.056335
  0
LINE
  5
7C44
330
83BE
100
AcDbEntity
  8
1
100
AcDbLine
 10
1315.826826817036
 20
2677.651374053003
 30
0.0
 11
1315.826826817036
 21
2603.324713053003
 31
0.0
  0
LINE
  5
7C48
330
83BE
100
AcDbEntity
  8
1
100
AcDbLine
 10
1230.929396817036
 20
2628.467902053003
 30
0.0
 11
1236.326826817035
 21
2608.324713053003
 31
0.0
  0
LINE
  5
7C49
330
83BE
100
AcDbEntity
  8
1
100
AcDbLine
 10
1236.326826817035
 20
2620.324713053003
 30
0.0
 11
1236.326826817035
 21
2603.324713053003
 31
0.0
  0
LINE
  5
7C4A
330
83BE
100
AcDbEntity
  8
1
100
AcDbLine
 10
1239.326826817036
 20
2623.324713053003
 30
0.0
 11
1312.826826817035
 21
2623.324713053003
 31
0.0
  0
ARC
  5
7C4B
330
83BE
100
AcDbEntity
  8
1
100
AcDbCircle
 10
1239.326826817036
 20
2620.324713053003
 30
0.0
 40
3.0
100
AcDbArc
 50
90.0
 51
180.0
  0
LINE
  5
7C4C
330
83BE
100
AcDbEntity
  8
1
100
AcDbLine
 10
1313.690596817036
 20
2681.750006053003
 30
0.0
 11
1297.752730817035
 21
2692.886481053003
 31
0.0
  0
LINE
  5
7C4D
330
83BE
100
AcDbEntity
  8
1
100
AcDbLine
 10
937.826826817036
 20
2677.651374053003
 30
0.0
 11
937.826826817036
 21
2603.324713053003
 31
0.0
  0
LINE
  5
7C51
330
83BE
100
AcDbEntity
  8
1
100
AcDbLine
 10
1022.724043817037
 20
2628.468024053003
 30
0.0
 11
1017.326826817035
 21
2608.324713053003
 31
0.0
  0
LINE
  5
7C52
330
83BE
100
AcDbEntity
  8
1
100
AcDbLine
 10
1017.326826817035
 20
2620.324713053003
 30
0.0
 11
1017.326826817035
 21
2603.324713053003
 31
0.0
  0
LINE
  5
7C53
330
83BE
100
AcDbEntity
  8
1
100
AcDbLine
 10
1014.326826817036
 20
2623.324713053003
 30
0.0
 11
940.8268268170356
 21
2623.324713053003
 31
0.0
  0
ARC
  5
7C54
330
83BE
100
AcDbEntity
  8
1
100
AcDbCircle
 10
1014.326826817036
 20
2620.324713053003
 30
0.0
 40
3.0
100
AcDbArc
 50
0.0
 51
90.0
  0
ARC
  5
7C55
330
83BE
100
AcDbEntity
  8
1
100
AcDbCircle
 10
940.8268268170356
 20
2620.324713053003
 30
0.0
 40
3.0
100
AcDbArc
 50
90.0
 51
180.0
  0
LINE
  5
7C56
330
83BE
100
AcDbEntity
  8
1
100
AcDbLine
 10
939.9629358170367
 20
2681.750006053003
 30
0.0
 11
955.9008018170366
 21
2692.886481053003
 31
0.0
  0
ARC
  5
7C57
330
83BE
100
AcDbEntity
  8
1
100
AcDbCircle
 10
942.8268268170359
 20
2677.651374053003
 30
0.0
 40
5.0
100
AcDbArc
 50
124.943661
 51
180.0
  0
LINE
  5
7C58
330
83BE
100
AcDbEntity
  8
1
100
AcDbLine
 10
1370.889082865125
 20
2603.324713053003
 30
0.0
 11
1196.826826817035
 21
2603.324713053003
 31
0.0
  0
LINE
  5
7C59
330
83BE
100
AcDbEntity
  8
1
100
AcDbLine
 10
1386.826826817037
 20
2543.324713053003
 30
0.0
 11
1370.889082865127
 21
2603.324713053003
 31
0.0
  0
LINE
  5
7C5A
330
83BE
100
AcDbEntity
  8
1
100
AcDbLine
 10
866.8268268170377
 20
2543.324713053003
 30
0.0
 11
882.8118367234019
 21
2603.324713053003
 31
0.0
  0
LINE
  5
7C5C
330
83BE
100
AcDbEntity
  8
1
100
AcDbLine
 10
1196.826826817035
 20
2593.324713053003
 30
0.0
 11
1056.826826817035
 21
2593.324713053003
 31
0.0
  0
LINE
  5
7C5D
330
83BE
100
AcDbEntity
  8
1
100
AcDbLine
 10
1056.826826817035
 20
2603.324713053003
 30
0.0
 11
1056.826826817037
 21
2593.324713053003
 31
0.0
  0
LINE
  5
7C5E
330
83BE
100
AcDbEntity
  8
1
100
AcDbLine
 10
1196.826826817035
 20
2603.324713053003
 30
0.0
 11
1196.826826817035
 21
2593.324713053003
 31
0.0
  0
LINE
  5
7C61
330
83BE
100
AcDbEntity
  8
1
100
AcDbLine
 10
1056.826826817035
 20
2603.324713053003
 30
0.0
 11
882.8118367234019
 21
2603.324713053003
 31
0.0
  0
CIRCLE
  5
7C62
330
83BE
100
AcDbEntity
  8
1
100
AcDbCircle
 10
1126.826826817036
 20
2803.324713053003
 30
0.0
 40
118.0
  0
LINE
  5
7C63
330
83BE
100
AcDbEntity
  8
1
100
AcDbLine
 10
4371.517051099289
 20
2921.324713053003
 30
0.0
 11
4482.01705109929
 21
2921.324713053003
 31
0.0
  0
LINE
  5
7C64
330
83BE
100
AcDbEntity
  8
1
100
AcDbLine
 10
4371.517051099291
 20
2685.324713053003
 30
0.0
 11
4482.01705109929
 21
2685.324713053003
 31
0.0
  0
LINE
  5
7C65
330
83BE
100
AcDbEntity
  8
1
100
AcDbLine
 10
4336.517051099289
 20
2583.324713053003
 30
0.0
 11
4533.81705109929
 21
2583.324713053003
 31
0.0
  0
INSERT
  5
7C67
330
83BE
100
AcDbEntity
  8
0
100
AcDbBlockReference
  2
YA_N
 10
-394.4722692372305
 20
-430.898429998433
 30
0.0
 41
25.0
 42
25.0
 43
25.0
  0
LINE
  5
7C6A
330
83BE
100
AcDbEntity
  8
1
100
AcDbLine
 10
4706.517051099291
 20
2543.324713053003
 30
0.0
 11
4706.517051099292
 21
3428.324713053003
 31
0.0
  0
LINE
  5
7C6B
330
83BE
100
AcDbEntity
  8
1
100
AcDbLine
 10
6206.517051099289
 20
2543.324713053003
 30
0.0
 11
6206.517051099291
 21
3428.324713053003
 31
0.0
  0
LINE
  5
7C6C
330
83BE
100
AcDbEntity
  8
1
100
AcDbLine
 10
4706.51705109929
 20
3428.324713053003
 30
0.0
 11
4706.517051099289
 21
4188.324713053003
 31
0.0
  0
LINE
  5
7C6D
330
83BE
100
AcDbEntity
  8
1
100
AcDbLine
 10
6206.517051099289
 20
3428.324713053003
 30
0.0
 11
6206.517051099289
 21
4188.324713053003
 31
0.0
  0
LINE
  5
7C6E
330
83BE
100
AcDbEntity
  8
1
100
AcDbLine
 10
4549.01705109929
 20
3365.324713053003
 30
0.0
 11
4639.21705109929
 21
3365.324713053002
 31
0.0
  0
LINE
  5
7C6F
330
83BE
100
AcDbEntity
  8
1
100
AcDbLine
 10
4539.017051099289
 20
3355.324713053004
 30
0.0
 11
4539.017051099289
 21
3225.324713053003
 31
0.0
  0
LINE
  5
7C70
330
83BE
100
AcDbEntity
  8
1
100
AcDbLine
 10
4679.017051099289
 20
3365.324713053002
 30
0.0
 11
4679.017051099289
 21
3215.324713053002
 31
0.0
  0
LINE
  5
7C71
330
83BE
100
AcDbEntity
  8
1
100
AcDbLine
 10
4549.01705109929
 20
3215.324713053004
 30
0.0
 11
4639.21705109929
 21
3215.324713053002
 31
0.0
  0
ARC
  5
7C72
330
83BE
100
AcDbEntity
  8
1
100
AcDbCircle
 10
4549.01705109929
 20
3355.324713053004
 30
0.0
 40
10.0
100
AcDbArc
 50
90.0
 51
180.0
  0
ARC
  5
7C73
330
83BE
100
AcDbEntity
  8
1
100
AcDbCircle
 10
4549.01705109929
 20
3225.324713053003
 30
0.0
 40
10.0
100
AcDbArc
 50
180.0
 51
270.0
  0
LINE
  5
7C74
330
83BE
100
AcDbEntity
  8
1
100
AcDbLine
 10
6234.017051099289
 20
3365.324713053002
 30
0.0
 11
6234.017051099289
 21
3215.324713053002
 31
0.0
  0
LINE
  5
7C75
330
83BE
100
AcDbEntity
  8
1
100
AcDbLine
 10
6386.517051099289
 20
3355.324713053004
 30
0.0
 11
6386.517051099289
 21
3225.324713053003
 31
0.0
  0
LINE
  5
7C76
330
83BE
100
AcDbEntity
  8
1
100
AcDbLine
 10
6376.517051099289
 20
3215.324713053004
 30
0.0
 11
6273.817051099292
 21
3215.324713053002
 31
0.0
  0
ARC
  5
7C77
330
83BE
100
AcDbEntity
  8
1
100
AcDbCircle
 10
6376.517051099289
 20
3225.324713053003
 30
0.0
 40
10.0
100
AcDbArc
 50
270.0
 51
0.0
  0
LINE
  5
7C78
330
83BE
100
AcDbEntity
  8
1
100
AcDbLine
 10
6376.517051099289
 20
3365.324713053003
 30
0.0
 11
6273.817051099292
 21
3365.324713053002
 31
0.0
  0
ARC
  5
7C79
330
83BE
100
AcDbEntity
  8
1
100
AcDbCircle
 10
6376.517051099289
 20
3355.324713053004
 30
0.0
 40
10.0
100
AcDbArc
 50
0.0
 51
90.0
  0
LINE
  5
7C7A
330
83BE
100
AcDbEntity
  8
1
100
AcDbLine
 10
4511.517051099289
 20
3468.324713053004
 30
0.0
 11
4706.517051099289
 21
3468.324713053004
 31
0.0
  0
LINE
  5
7C7B
330
83BE
100
AcDbEntity
  8
1
100
AcDbLine
 10
4511.51705109929
 20
3388.324713053004
 30
0.0
 11
4706.517051099292
 21
3388.324713053004
 31
0.0
  0
LINE
  5
7C7C
330
83BE
100
AcDbEntity
  8
1
100
AcDbLine
 10
4511.51705109929
 20
3468.324713053004
 30
0.0
 11
4511.51705109929
 21
3388.324713053004
 31
0.0
  0
LINE
  5
7C7D
330
83BE
100
AcDbEntity
  8
1
100
AcDbLine
 10
4482.01705109929
 20
3460.824713053003
 30
0.0
 11
4511.51705109929
 21
3460.824713053003
 31
0.0
  0
LINE
  5
7C7E
330
83BE
100
AcDbEntity
  8
1
100
AcDbLine
 10
4482.01705109929
 20
3395.824713053003
 30
0.0
 11
4511.51705109929
 21
3395.824713053003
 31
0.0
  0
LINE
  5
7C83
330
83BE
100
AcDbEntity
  8
1
100
AcDbLine
 10
6273.817051099292
 20
3365.324713053002
 30
0.0
 11
6234.017051099289
 21
3365.324713053002
 31
0.0
  0
LINE
  5
7C84
330
83BE
100
AcDbEntity
  8
1
100
AcDbLine
 10
6273.817051099292
 20
3215.324713053002
 30
0.0
 11
6234.017051099289
 21
3215.324713053002
 31
0.0
  0
LINE
  5
7C85
330
83BE
100
AcDbEntity
  8
1
100
AcDbLine
 10
4639.21705109929
 20
3365.324713053002
 30
0.0
 11
4679.017051099289
 21
3365.324713053002
 31
0.0
  0
LINE
  5
7C86
330
83BE
100
AcDbEntity
  8
1
100
AcDbLine
 10
4639.21705109929
 20
3215.324713053002
 30
0.0
 11
4679.017051099289
 21
3215.324713053002
 31
0.0
  0
ARC
  5
7C88
330
83BE
100
AcDbEntity
  8
1
100
AcDbCircle
 10
2436.826826817036
 20
3428.324713053003
 30
0.0
 40
668.0
100
AcDbArc
 50
90.0
 51
94.12061321395006
  0
LINE
  5
7C8A
330
83BE
100
AcDbEntity
  8
1
100
AcDbLine
 10
6274.517051099291
 20
2543.324713053003
 30
0.0
 11
6274.517051099291
 21
2418.324713053003
 31
0.0
  0
LINE
  5
7C8B
330
83BE
100
AcDbEntity
  8
1
100
AcDbLine
 10
4374.517051099291
 20
2543.324713053003
 30
0.0
 11
4374.517051099291
 21
2418.324713053003
 31
0.0
  0
INSERT
  5
7C8E
330
83BE
100
AcDbEntity
  8
0
100
AcDbBlockReference
  2
YA_N
 10
4305.350442567148
 20
-1988.400780944633
 30
0.0
  0
POINT
  5
7C93
330
83BE
100
AcDbEntity
  8
1
100
AcDbPoint
 10
3096.826826817036
 20
2418.324713053003
 30
0.0
  0
ARC
  5
7C96
330
83BE
100
AcDbEntity
  8
1
100
AcDbCircle
 10
2436.826826817036
 20
3428.324713053003
 30
0.0
 40
380.0
100
AcDbArc
 50
282.5282342404732
 51
115.778882395325
  0
CIRCLE
  5
7C97
330
83BE
100
AcDbEntity
  8
1
100
AcDbCircle
 10
2436.826826817036
 20
3428.324713053003
 30
0.0
 40
254.0
  0
ARC
  5
7C98
330
83BE
100
AcDbEntity
  8
1
100
AcDbCircle
 10
1126.826826817036
 20
2803.324713053003
 30
0.0
 40
220.0
100
AcDbArc
 50
115.778882395325
 51
282.5282342404732
  0
LINE
  5
7C99
330
83BE
100
AcDbEntity
  8
1
100
AcDbLine
 10
2271.565116464755
 20
3770.50678022111
 30
0.0
 11
1031.148994507821
 21
3001.430120360854
 31
0.0
  0
LINE
  5
7C9A
330
83BE
100
AcDbEntity
  8
1
100
AcDbLine
 10
2330.36009757588
 20
3658.934417022048
 30
0.0
 11
1077.365905358547
 21
2910.45835505437
 31
0.0
  0
LINE
  5
7C9B
330
83BE
100
AcDbEntity
  8
1
100
AcDbLine
 10
2496.23198699742
 20
3181.369196929263
 30
0.0
 11
1154.424499656741
 21
2688.597347294729
 31
0.0
  0
LINE
  5
7C9C
330
83BE
100
AcDbEntity
  8
1
100
AcDbLine
 10
2519.256687965548
 20
3057.372805130915
 30
0.0
 11
1174.549378008279
 21
2588.563082150741
 31
0.0
  0
LINE
  5
7C9D
330
83BE
100
AcDbEntity
  8
1
100
AcDbLine
 10
4371.517051099291
 20
3682.324713053003
 30
0.0
 11
4482.01705109929
 21
3682.324713053003
 31
0.0
  0
LINE
  5
7C9E
330
83BE
100
AcDbEntity
  8
1
100
AcDbLine
 10
4371.517051099291
 20
3174.324713053003
 30
0.0
 11
4482.01705109929
 21
3174.324713053003
 31
0.0
  0
LINE
  5
7C9F
330
83BE
100
AcDbEntity
  8
1
100
AcDbLine
 10
4336.517051099289
 20
3808.324713053004
 30
0.0
 11
4533.81705109929
 21
3808.324713053004
 31
0.0
  0
LINE
  5
7CA0
330
83BE
100
AcDbEntity
  8
1
100
AcDbLine
 10
4533.81705109929
 20
2603.324713053003
 30
0.0
 11
4533.81705109929
 21
2583.324713053003
 31
0.0
  0
LINE
  5
7CA2
330
83BE
100
AcDbEntity
  8
1
100
AcDbLine
 10
3096.826826817036
 20
7650.723803734343
 30
0.0
 11
1776.826826817035
 21
7650.723803734341
 31
0.0
  0
LINE
  5
7CA3
330
83BE
100
AcDbEntity
  8
1
100
AcDbLine
 10
3096.826826817036
 20
5750.723803734341
 30
0.0
 11
836.8268268170357
 21
5750.723803734341
 31
0.0
  0
LINE
  5
7CA4
330
83BE
100
AcDbEntity
  8
1
100
AcDbLine
 10
3096.826826817036
 20
7650.723803734343
 30
0.0
 11
3096.826826817036
 21
7582.723803734342
 31
0.0
  0
LINE
  5
7CA5
330
83BE
100
AcDbEntity
  8
1
100
AcDbLine
 10
836.8268268170357
 20
6650.72380373434
 30
0.0
 11
836.8268268170357
 21
5750.723803734341
 31
0.0
  0
LINE
  5
7CA6
330
83BE
100
AcDbEntity
  8
1
100
AcDbLine
 10
1776.826826817035
 20
7650.723803734343
 30
0.0
 11
1776.826826817035
 21
7582.723803734339
 31
0.0
  0
LINE
  5
7CA7
330
83BE
100
AcDbEntity
  8
1
100
AcDbLine
 10
1238.826826817035
 20
6650.72380373434
 30
0.0
 11
836.8268268170357
 21
6650.72380373434
 31
0.0
  0
LINE
  5
7CA8
330
83BE
100
AcDbEntity
  8
2
100
AcDbLine
 10
1126.826826817036
 20
6518.446380892666
 30
0.0
 11
1126.826826817039
 21
5673.777819829195
 31
0.0
  0
CIRCLE
  5
7CB0
330
83BE
100
AcDbEntity
  8
1
100
AcDbCircle
 10
2436.826826817036
 20
3428.324713053003
 30
0.0
 40
560.0
  0
CIRCLE
  5
7CB1
330
83BE
100
AcDbEntity
  8
1
100
AcDbCircle
 10
2436.826826817036
 20
3428.324713053003
 30
0.0
 40
610.0
  0
LINE
  5
7CB2
330
83BE
100
AcDbEntity
  8
1
100
AcDbLine
 10
2816.826826817036
 20
5712.72380373434
 30
0.0
 11
906.8268268170356
 21
5712.72380373434
 31
0.0
  0
LINE
  5
7CB3
330
83BE
100
AcDbEntity
  8
1
100
AcDbLine
 10
2816.826826817036
 20
5882.72380373434
 30
0.0
 11
906.8268268170356
 21
5882.72380373434
 31
0.0
  0
LINE
  5
7CB4
330
83BE
100
AcDbEntity
  8
1
100
AcDbLine
 10
2816.826826817036
 20
5712.72380373434
 30
0.0
 11
2816.826826817036
 21
5882.72380373434
 31
0.0
  0
LINE
  5
7CB5
330
83BE
100
AcDbEntity
  8
1
100
AcDbLine
 10
906.8268268170356
 20
5712.72380373434
 30
0.0
 11
906.8268268170356
 21
5882.72380373434
 31
0.0
  0
LINE
  5
7CB6
330
83BE
100
AcDbEntity
  8
1
100
AcDbLine
 10
2690.826826817036
 20
5750.423803734339
 30
0.0
 11
2690.826826817036
 21
5860.92380373434
 31
0.0
  0
LINE
  5
7CB7
330
83BE
100
AcDbEntity
  8
1
100
AcDbLine
 10
2182.826826817036
 20
5750.423803734339
 30
0.0
 11
2182.826826817036
 21
5860.92380373434
 31
0.0
  0
LINE
  5
7CB8
330
83BE
100
AcDbEntity
  8
1
100
AcDbLine
 10
1244.826826817035
 20
5750.423803734341
 30
0.0
 11
1244.826826817035
 21
5860.92380373434
 31
0.0
  0
LINE
  5
7CB9
330
83BE
100
AcDbEntity
  8
1
100
AcDbLine
 10
1008.826826817035
 20
5750.423803734339
 30
0.0
 11
1008.826826817035
 21
5860.92380373434
 31
0.0
  0
LINE
  5
7CBA
330
83BE
100
AcDbEntity
  8
1
100
AcDbLine
 10
2690.826826817036
 20
5750.423803734341
 30
0.0
 11
2182.826826817036
 21
5750.423803734341
 31
0.0
  0
LINE
  5
7CBB
330
83BE
100
AcDbEntity
  8
1
100
AcDbLine
 10
2690.826826817036
 20
5860.92380373434
 30
0.0
 11
2182.826826817036
 21
5860.92380373434
 31
0.0
  0
LINE
  5
7CBC
330
83BE
100
AcDbEntity
  8
1
100
AcDbLine
 10
1244.826826817035
 20
5860.92380373434
 30
0.0
 11
1008.826826817035
 21
5860.92380373434
 31
0.0
  0
LINE
  5
7CBD
330
83BE
100
AcDbEntity
  8
1
100
AcDbLine
 10
1244.826826817035
 20
5750.423803734341
 30
0.0
 11
1008.826826817035
 21
5750.423803734339
 31
0.0
  0
LINE
  5
7CBE
330
83BE
100
AcDbEntity
  8
1
100
AcDbLine
 10
3241.826826817035
 20
7582.723803734339
 30
0.0
 11
1238.826826817035
 21
7582.723803734342
 31
0.0
  0
LINE
  5
7CBF
330
83BE
100
AcDbEntity
  8
1
100
AcDbLine
 10
3241.826826817035
 20
6082.72380373434
 30
0.0
 11
1238.826826817035
 21
6082.72380373434
 31
0.0
  0
LINE
  5
7CC0
330
83BE
100
AcDbEntity
  8
1
100
AcDbLine
 10
2471.826826817036
 20
6082.72380373434
 30
0.0
 11
2471.826826817036
 21
5860.92380373434
 31
0.0
  0
LINE
  5
7CC1
330
83BE
100
AcDbEntity
  8
1
100
AcDbLine
 10
2401.826826817035
 20
6082.72380373434
 30
0.0
 11
2401.826826817035
 21
5860.92380373434
 31
0.0
  0
LINE
  5
7CC2
330
83BE
100
AcDbEntity
  8
1
100
AcDbLine
 10
1325.826826817037
 20
6082.72380373434
 30
0.0
 11
1325.826826817037
 21
5895.423803734342
 31
0.0
  0
LINE
  5
7CC3
330
83BE
100
AcDbEntity
  8
1
100
AcDbLine
 10
927.8268268170361
 20
6552.923803734339
 30
0.0
 11
927.8268268170377
 21
5895.423803734338
 31
0.0
  0
LINE
  5
7CC4
330
83BE
100
AcDbEntity
  8
1
100
AcDbLine
 10
1238.826826817035
 20
6552.923803734339
 30
0.0
 11
927.8268268170361
 21
6552.923803734339
 31
0.0
  0
LINE
  5
7CC5
330
83BE
100
AcDbEntity
  8
1
100
AcDbLine
 10
1325.826826817039
 20
5895.423803734342
 30
0.0
 11
927.8268268170393
 21
5895.423803734339
 31
0.0
  0
LINE
  5
7CC6
330
83BE
100
AcDbEntity
  8
1
100
AcDbLine
 10
1154.326826817037
 20
5895.423803734342
 30
0.0
 11
1154.326826817037
 21
5860.92380373434
 31
0.0
  0
LINE
  5
7CC7
330
83BE
100
AcDbEntity
  8
1
100
AcDbLine
 10
1099.326826817037
 20
5895.423803734342
 30
0.0
 11
1099.326826817037
 21
5860.92380373434
 31
0.0
  0
LINE
  5
7CC8
330
83BE
100
AcDbEntity
  8
1
100
AcDbLine
 10
4706.517051099292
 20
3002.324713053005
 30
0.0
 11
4516.517051099287
 21
3002.324713053005
 31
0.0
  0
LINE
  5
7CC9
330
83BE
100
AcDbEntity
  8
1
100
AcDbLine
 10
4706.517051099292
 20
2604.324713053005
 30
0.0
 11
4516.517051099291
 21
2604.324713053005
 31
0.0
  0
LINE
  5
7CCA
330
83BE
100
AcDbEntity
  8
1
100
AcDbLine
 10
4516.517051099291
 20
2604.324713053003
 30
0.0
 11
4516.517051099289
 21
3002.324713053003
 31
0.0
  0
LINE
  5
7CCB
330
83BE
100
AcDbEntity
  8
1
100
AcDbLine
 10
4516.51705109929
 20
2775.824713053005
 30
0.0
 11
4482.01705109929
 21
2775.824713053005
 31
0.0
  0
LINE
  5
7CCC
330
83BE
100
AcDbEntity
  8
1
100
AcDbLine
 10
4516.51705109929
 20
2830.824713053005
 30
0.0
 11
4482.01705109929
 21
2830.824713053005
 31
0.0
  0
LINE
  5
7CD3
330
83BE
100
AcDbEntity
  8
1
100
AcDbLine
 10
3096.826826817036
 20
6082.72380373434
 30
0.0
 11
3096.826826817036
 21
5750.723803734341
 31
0.0
  0
LINE
  5
7CDB
330
83BE
100
AcDbEntity
  8
1
100
AcDbLine
 10
4656.517051099288
 20
4188.324713053003
 30
0.0
 11
6256.517051099291
 21
4188.324713053003
 31
0.0
  0
LINE
  5
7CDC
330
83BE
100
AcDbEntity
  8
1
100
AcDbLine
 10
4656.517051099288
 20
4184.324713053004
 30
0.0
 11
6256.517051099291
 21
4184.324713053004
 31
0.0
  0
LINE
  5
7CDD
330
83BE
100
AcDbEntity
  8
1
100
AcDbLine
 10
4656.517051099289
 20
4184.324713053004
 30
0.0
 11
4656.517051099289
 21
4188.324713053003
 31
0.0
  0
LINE
  5
7CDE
330
83BE
100
AcDbEntity
  8
1
100
AcDbLine
 10
6256.517051099291
 20
4184.324713053004
 30
0.0
 11
6256.517051099289
 21
4188.324713053003
 31
0.0
  0
LINE
  5
7CDF
330
83BE
100
AcDbEntity
  8
1
100
AcDbLine
 10
1238.826826817035
 20
7582.723803734342
 30
0.0
 11
1238.826826817035
 21
6082.72380373434
 31
0.0
  0
LINE
  5
7CE0
330
83BE
100
AcDbEntity
  8
1
100
AcDbLine
 10
3241.826826817035
 20
7582.723803734339
 30
0.0
 11
3241.826826817035
 21
6082.72380373434
 31
0.0
  0
LINE
  5
7CE1
330
83BE
100
AcDbEntity
  8
1
100
AcDbLine
 10
2388.826826817036
 20
7582.723803734342
 30
0.0
 11
2388.826826817036
 21
6082.72380373434
 31
0.0
  0
LINE
  5
7CE2
330
83BE
100
AcDbEntity
  8
1
100
AcDbLine
 10
2388.826826817036
 20
7582.723803734339
 30
0.0
 11
1238.826826817035
 21
6082.72380373434
 31
0.0
  0
LINE
  5
7CE3
330
83BE
100
AcDbEntity
  8
1
100
AcDbLine
 10
1238.826826817035
 20
7582.723803734342
 30
0.0
 11
2388.826826817036
 21
6082.72380373434
 31
0.0
  0
LINE
  5
801A
330
83BE
100
AcDbEntity
  8
4
100
AcDbLine
 10
6475.0
 20
1411.801532643661
 30
0.0
 11
6475.0
 21
711.8015326436618
 31
0.0
  0
LINE
  5
801B
330
83BE
100
AcDbEntity
  8
4
100
AcDbLine
 10
4025.0
 20
1411.801532643661
 30
0.0
 11
4025.0
 21
711.8015326436618
 31
0.0
  0
LINE
  5
801C
330
83BE
100
AcDbEntity
  8
4
100
AcDbLine
 10
2275.0
 20
1411.801532643661
 30
0.0
 11
2275.0
 21
711.8015326436618
 31
0.0
  0
LINE
  5
801F
330
83BE
100
AcDbEntity
  8
4
100
AcDbLine
 10
2275.0
 20
711.8015326436616
 30
0.0
 11
6475.0
 21
711.8015326436616
 31
0.0
  0
LINE
  5
8020
330
83BE
100
AcDbEntity
  8
4
100
AcDbLine
 10
2275.0
 20
1061.80153264366
 30
0.0
 11
6475.0
 21
1061.80153264366
 31
0.0
  0
TEXT
  5
8021
330
83BE
100
AcDbEntity
  8
4
100
AcDbText
 10
2409.757282964156
 20
1172.202123176806
 30
0.0
 40
175.0
  1
機器名称
100
AcDbText
  0
TEXT
  5
8022
330
83BE
100
AcDbEntity
  8
4
100
AcDbText
 10
2401.903371086791
 20
787.5595812056999
 30
0.0
 40
175.0
  1
機器型番
100
AcDbText
  0
TEXT
  5
8023
330
83BE
100
AcDbEntity
  8
4
100
AcDbText
 10
4121.875609206827
 20
1140.80272399515
 30
0.0
 40
175.0
  1
ミツヤ多翼送風機
100
AcDbText
  0
TEXT
  5
8024
330
83BE
100
AcDbEntity
  8
4
100
AcDbText
 10
4153.290734549183
 20
771.8600776234634
 30
0.0
 40
175.0
  1
MF#7-5
100
AcDbText
  0
TEXT
  5
8026
330
83BE
100
AcDbEntity
  8
4
100
AcDbText
 10
2834.082641067674
 20
8342.000944663805
 30
0.0
 40
188.9999999999998
  1
床置ベット
100
AcDbText
  0
TEXT
  5
8027
330
83BE
100
AcDbEntity
  8
4
100
AcDbText
 10
1106.586576653062
 20
8868.583416697545
 30
0.0
 40
252.0
  1
遠心式両吸込両持多翼ファン
100
AcDbText
  0
LINE
  5
8028
330
83BE
100
AcDbEntity
  8
4
100
AcDbLine
 10
875.0
 20
8642.930639926817
 30
0.0
 11
6475.0
 21
8642.930639926817
 31
0.0
  0
LINE
  5
8029
330
83BE
100
AcDbEntity
  8
4
100
AcDbLine
 10
875.0
 20
9342.930639926818
 30
0.0
 11
6475.0
 21
9342.930639926818
 31
0.0
  0
LINE
  5
802A
330
83BE
100
AcDbEntity
  8
4
100
AcDbLine
 10
2275.0
 20
1411.801532643661
 30
0.0
 11
6475.0
 21
1411.801532643661
 31
0.0
  0
LINE
  5
802B
330
83BE
100
AcDbEntity
  8
4
100
AcDbLine
 10
875.0
 20
9342.930639926818
 30
0.0
 11
875.0
 21
8642.930639926817
 31
0.0
  0
TEXT
  5
802C
330
83BE
100
AcDbEntity
  8
4
100
AcDbText
 10
1308.576728218217
 20
8338.118171412203
 30
0.0
 40
188.9999999999998
  1
右回転上向
100
AcDbText
  0
TEXT
  5
802D
330
83BE
100
AcDbEntity
  8
4
100
AcDbText
 10
5141.393457372513
 20
9471.21378523358
 30
0.0
 40
196.0
  1
No.
100
AcDbText
  0
TEXT
  5
802E
330
83BE
100
AcDbEntity
  8
4
100
AcDbText
 10
4589.536219100046
 20
8342.000944663805
 30
0.0
 40
188.9999999999998
  1
縮尺：1/35
100
AcDbText
  0
LINE
  5
802F
330
83BE
100
AcDbEntity
  8
4
100
AcDbLine
 10
6475.0
 20
9342.930639926818
 30
0.0
 11
6475.0
 21
8642.930639926817
 31
0.0
  0
LINE
  5
8030
330
83BE
100
AcDbEntity
  8
4
100
AcDbLine
 10
7350.0
 20
10325.0
 30
0.0
 11
7350.0
 21
10325.0
 31
0.0
  0
LINE
  5
8031
330
83BE
100
AcDbEntity
  8
4
100
AcDbLine
 10
5042.160978259526
 20
9384.422540938905
 30
0.0
 11
5042.160978259526
 21
9753.282915424136
 31
0.0
  0
LINE
  5
8032
330
83BE
100
AcDbEntity
  8
4
100
AcDbLine
 10
5042.160978259526
 20
9753.282915424136
 30
0.0
 11
6475.0
 21
9753.282915424136
 31
0.0
  0
LINE
  5
8033
330
83BE
100
AcDbEntity
  8
4
100
AcDbLine
 10
6475.0
 20
9753.282915424136
 30
0.0
 11
6475.0
 21
9384.422540938905
 31
0.0
  0
LINE
  5
8034
330
83BE
100
AcDbEntity
  8
4
100
AcDbLine
 10
6475.0
 20
9384.422540938905
 30
0.0
 11
5042.160978259526
 21
9384.422540938905
 31
0.0
  0
LINE
  5
8035
330
83BE
100
AcDbEntity
  8
4
100
AcDbLine
 10
0.0
 20
0.0
 30
0.0
 11
0.0
 21
10325.0
 31
0.0
  0
LINE
  5
8036
330
83BE
100
AcDbEntity
  8
4
100
AcDbLine
 10
0.0
 20
10325.0
 30
0.0
 11
7350.0
 21
10325.0
 31
0.0
  0
LINE
  5
8037
330
83BE
100
AcDbEntity
  8
4
100
AcDbLine
 10
7350.0
 20
10325.0
 30
0.0
 11
7350.0
 21
0.0
 31
0.0
  0
LINE
  5
8038
330
83BE
100
AcDbEntity
  8
4
100
AcDbLine
 10
7350.0
 20
0.0
 30
0.0
 11
0.0
 21
0.0
 31
0.0
  0
DIMENSION
  5
81AF
330
83BE
100
AcDbEntity
  8
3
100
AcDbDimension
  2
*D21
 10
2436.826826817035
 20
2182.261142950505
 30
0.0
 11
1636.826826817035
 21
2269.761142950505
 31
0.0
 71
     5
 42
-1.0
  3
Standard
100
AcDbAlignedDimension
 13
836.8268268170357
 23
2418.324713053003
 33
0.0
 14
2436.826826817035
 24
2418.324713053003
 34
0.0
100
AcDbRotatedDimension
1001
ACAD
1000
DSTYLE
1002
{
1070
   172
1070
     1
1070
    40
1040
35.0
1070
   271
1070
     0
1070
   143
1040
0.039
1002
}
  0
DIMENSION
  5
81BC
330
83BE
100
AcDbEntity
  8
3
100
AcDbDimension
  2
*D22
 10
3096.826826817036
 20
2182.261142950505
 30
0.0
 11
2766.826826817035
 21
2269.761142950505
 31
0.0
 71
     5
 42
-1.0
  3
Standard
100
AcDbAlignedDimension
 13
2436.826826817035
 23
2418.324713053003
 33
0.0
 14
3096.826826817036
 24
2418.324713053003
 34
0.0
100
AcDbRotatedDimension
1001
ACAD
1000
DSTYLE
1002
{
1070
   172
1070
     1
1070
    40
1040
35.0
1070
   271
1070
     0
1070
   143
1040
0.039
1002
}
  0
DIMENSION
  5
81C9
330
83BE
100
AcDbEntity
  8
3
100
AcDbDimension
  2
*D23
 10
3737.972945573135
 20
4188.324713053003
 30
0.0
 11
3650.472945573135
 21
3303.324713053003
 31
0.0
 71
     5
 42
-1.0
  3
Standard
100
AcDbAlignedDimension
 13
3096.826826817036
 23
2418.324713053003
 33
0.0
 14
2441.826826817036
 24
4188.324713053003
 34
0.0
 50
90.0
100
AcDbRotatedDimension
1001
ACAD
1000
DSTYLE
1002
{
1070
   172
1070
     1
1070
    40
1040
35.0
1070
   271
1070
     0
1070
   143
1040
0.039
1002
}
  0
DIMENSION
  5
81D6
330
83BE
100
AcDbEntity
  8
3
100
AcDbDimension
  2
*D24
 10
5456.517051099291
 20
2182.261142950505
 30
0.0
 11
4915.51705109929
 21
2269.761142950505
 31
0.0
 71
     5
 42
-1.0
  3
Standard
100
AcDbAlignedDimension
 13
4374.517051099291
 23
2418.324713053003
 33
0.0
 14
5456.517051099291
 24
2418.324713053003
 34
0.0
100
AcDbRotatedDimension
1001
ACAD
1000
DSTYLE
1002
{
1070
   172
1070
     1
1070
    40
1040
35.0
1070
   271
1070
     0
1070
   143
1040
0.039
1002
}
  0
DIMENSION
  5
81E3
330
83BE
100
AcDbEntity
  8
3
100
AcDbDimension
  2
*D25
 10
6274.517051099291
 20
2182.261142950505
 30
0.0
 11
5865.517051099289
 21
2269.761142950505
 31
0.0
 71
     5
 42
-1.0
  3
Standard
100
AcDbAlignedDimension
 13
5456.517051099291
 23
2418.324713053003
 33
0.0
 14
6274.517051099291
 24
2418.324713053003
 34
0.0
100
AcDbRotatedDimension
1001
ACAD
1000
DSTYLE
1002
{
1070
   172
1070
     1
1070
    40
1040
35.0
1070
   271
1070
     0
1070
   143
1040
0.039
1002
}
  0
DIMENSION
  5
8406
330
83BE
100
AcDbEntity
  8
3
100
AcDbDimension
  2
*D26
 10
6574.299817454805
 20
2868.324713053003
 30
0.0
 11
6486.799817454803
 21
3428.324713053005
 31
0.0
 70
    32
  1
\U+03C6<>
 71
     5
 42
1120.0
  3
IGA
100
AcDbAlignedDimension
 13
6206.517051099289
 23
3988.324713053003
 33
0.0
 14
6206.51705109929
 24
2868.324713053003
 34
0.0
 50
90.0
100
AcDbRotatedDimension
1001
ACAD
1000
DSTYLE
1002
{
1070
    40
1040
35.0
1070
   143
1040
0.039
1070
   172
1070
     1
1070
   271
1070
     4
1070
   272
1070
     4
1070
   279
1070
     0
1070
   284
1070
     0
1070
   285
1070
     0
1070
   286
1070
     0
1070
   341
1005
83D1
1070
   343
1005
83D1
1070
   344
1005
83D1
1002
}
  0
DIMENSION
  5
8413
330
83BE
100
AcDbEntity
  8
3
100
AcDbDimension
  2
*D27
 10
6206.517051099289
 20
4448.443004574665
 30
0.0
 11
5456.517051099289
 21
4535.943004574664
 31
0.0
 70
    32
 71
     5
 42
1500.0
  3
IGA
100
AcDbAlignedDimension
 13
4706.517051099289
 23
4188.324713053003
 33
0.0
 14
6206.517051099289
 24
4188.324713053003
 34
0.0
100
AcDbRotatedDimension
1001
ACAD
1000
DSTYLE
1002
{
1070
    40
1040
35.0
1070
   143
1040
0.039
1070
   172
1070
     1
1070
   271
1070
     4
1070
   272
1070
     4
1070
   279
1070
     0
1070
   284
1070
     0
1070
   285
1070
     0
1070
   286
1070
     0
1070
   341
1005
83D1
1070
   343
1005
83D1
1070
   344
1005
83D1
1002
}
  0
DIMENSION
  5
8420
330
83BE
100
AcDbEntity
  8
3
100
AcDbDimension
  2
*D28
 10
5456.51705109929
 20
4678.210345261056
 30
0.0
 11
4896.517051099291
 21
4793.210345261056
 31
0.0
 70
    32
  1
(<>)
 71
     5
 42
1120.000000000001
  3
IGA
100
AcDbAlignedDimension
 13
4336.517051099289
 23
3808.324713053004
 33
0.0
 14
5456.51705109929
 24
4588.443004574664
 34
0.0
100
AcDbRotatedDimension
1001
ACAD
1000
DSTYLE
1002
{
1070
    40
1040
35.0
1070
   143
1040
0.039
1070
   172
1070
     1
1070
   271
1070
     4
1070
   272
1070
     4
1070
   279
1070
     0
1070
   284
1070
     0
1070
   285
1070
     0
1070
   286
1070
     0
1070
   341
1005
83D1
1070
   343
1005
83D1
1070
   344
1005
83D1
1002
}
  0
DIMENSION
  5
842D
330
83BE
100
AcDbEntity
  8
3
100
AcDbDimension
  2
*D29
 10
6386.517051099289
 20
4678.210345261056
 30
0.0
 11
5921.51705109929
 21
4793.210345261056
 31
0.0
 70
    32
  1
(<>)
 71
     5
 42
929.9999999999991
  3
IGA
100
AcDbAlignedDimension
 13
5456.51705109929
 23
4588.443004574664
 33
0.0
 14
6386.517051099289
 24
3355.324713053004
 34
0.0
100
AcDbRotatedDimension
1001
ACAD
1000
DSTYLE
1002
{
1070
    40
1040
35.0
1070
   143
1040
0.039
1070
   172
1070
     1
1070
   271
1070
     4
1070
   272
1070
     4
1070
   279
1070
     1
1070
   284
1070
     0
1070
   285
1070
     0
1070
   286
1070
     0
1070
   341
1005
83D1
1070
   343
1005
83D1
1070
   344
1005
83D1
1002
}
  0
DIMENSION
  5
84AD
330
83BE
100
AcDbEntity
  8
3
100
AcDbDimension
  2
*D31
 10
621.0116974813247
 20
6650.72380373434
 30
0.0
 11
533.5116974813236
 21
6200.723803734341
 31
0.0
 70
    32
 71
     5
 42
900.0
  3
IGA
100
AcDbAlignedDimension
 13
836.8268268170357
 23
5750.723803734341
 33
0.0
 14
836.8268268170357
 24
6650.72380373434
 34
0.0
 50
90.0
100
AcDbRotatedDimension
1001
ACAD
1000
DSTYLE
1002
{
1070
    40
1040
35.0
1070
   143
1040
0.039
1070
   172
1070
     1
1070
   271
1070
     4
1070
   272
1070
     4
1070
   279
1070
     0
1070
   284
1070
     0
1070
   285
1070
     0
1070
   286
1070
     0
1070
   341
1005
83D1
1070
   343
1005
83D1
1070
   344
1005
83D1
1002
}
  0
DIMENSION
  5
84BA
330
83BE
100
AcDbEntity
  8
3
100
AcDbDimension
  2
*D32
 10
1776.826826817035
 20
7824.731164205461
 30
0.0
 11
1306.826826817035
 21
7912.231164205461
 31
0.0
 70
    32
 71
     5
 42
939.9999999999991
  3
IGA
100
AcDbAlignedDimension
 13
836.8268268170357
 23
6650.72380373434
 33
0.0
 14
1776.826826817035
 24
7650.723803734343
 34
0.0
100
AcDbRotatedDimension
1001
ACAD
1000
DSTYLE
1002
{
1070
    40
1040
35.0
1070
   143
1040
0.039
1070
   172
1070
     1
1070
   271
1070
     4
1070
   272
1070
     4
1070
   279
1070
     0
1070
   284
1070
     0
1070
   285
1070
     0
1070
   286
1070
     0
1070
   341
1005
83D1
1070
   343
1005
83D1
1070
   344
1005
83D1
1002
}
  0
DIMENSION
  5
84C7
330
83BE
100
AcDbEntity
  8
3
100
AcDbDimension
  2
*D33
 10
3096.826826817036
 20
7824.731164205461
 30
0.0
 11
2436.826826817036
 21
7912.231164205461
 31
0.0
 70
    32
 71
     5
 42
1320.000000000001
  3
IGA
100
AcDbAlignedDimension
 13
1776.826826817035
 23
7650.723803734343
 33
0.0
 14
3096.826826817036
 24
7650.723803734343
 34
0.0
100
AcDbRotatedDimension
1001
ACAD
1000
DSTYLE
1002
{
1070
    40
1040
35.0
1070
   143
1040
0.039
1070
   172
1070
     1
1070
   271
1070
     4
1070
   272
1070
     4
1070
   279
1070
     1
1070
   284
1070
     0
1070
   285
1070
     0
1070
   286
1070
     0
1070
   341
1005
83D1
1070
   343
1005
83D1
1070
   344
1005
83D1
1002
}
  0
DIMENSION
  5
84D4
330
83BE
100
AcDbEntity
  8
3
100
AcDbDimension
  2
*D34
 10
3577.125907775742
 20
5750.723803734341
 30
0.0
 11
3489.625907775741
 21
6700.723803734343
 31
0.0
 70
    32
 71
     5
 42
1900.000000000002
  3
IGA
100
AcDbAlignedDimension
 13
3096.826826817036
 23
7650.723803734343
 33
0.0
 14
3096.826826817036
 24
5750.723803734341
 34
0.0
 50
90.0
100
AcDbRotatedDimension
1001
ACAD
1000
DSTYLE
1002
{
1070
    40
1040
35.0
1070
   143
1040
0.039
1070
   172
1070
     1
1070
   271
1070
     4
1070
   272
1070
     4
1070
   279
1070
     0
1070
   284
1070
     0
1070
   285
1070
     0
1070
   286
1070
     0
1070
   341
1005
83D1
1070
   343
1005
83D1
1070
   344
1005
83D1
1002
}
  0
DIMENSION
  5
84E1
330
83BE
100
AcDbEntity
  8
3
100
AcDbDimension
  2
*D35
 10
3096.826826817036
 20
5459.478611640394
 30
0.0
 11
1966.826826817036
 21
5546.978611640394
 31
0.0
 70
    32
 71
     5
 42
2260.0
  3
IGA
100
AcDbAlignedDimension
 13
836.8268268170357
 23
5750.723803734341
 33
0.0
 14
3096.826826817036
 24
5750.723803734341
 34
0.0
100
AcDbRotatedDimension
1001
ACAD
1000
DSTYLE
1002
{
1070
    40
1040
35.0
1070
   143
1040
0.039
1070
   172
1070
     1
1070
   271
1070
     4
1070
   272
1070
     4
1070
   279
1070
     0
1070
   284
1070
     0
1070
   285
1070
     0
1070
   286
1070
     0
1070
   341
1005
83D1
1070
   343
1005
83D1
1070
   344
1005
83D1
1002
}
  0
DIMENSION
  5
84EE
330
83BE
100
AcDbEntity
  8
3
100
AcDbDimension
  2
*D36
 10
2388.826826817036
 20
4388.433029337271
 30
0.0
 11
1813.826826817035
 21
4475.933029337271
 31
0.0
 70
    32
 71
     5
 42
1150.000000000001
  3
IGA
100
AcDbAlignedDimension
 13
1238.826826817035
 23
4188.324713053003
 33
0.0
 14
2388.826826817036
 24
4188.324713053003
 34
0.0
100
AcDbRotatedDimension
1001
ACAD
1000
DSTYLE
1002
{
1070
    40
1040
35.0
1070
   143
1040
0.039
1070
   172
1070
     1
1070
   271
1070
     4
1070
   272
1070
     4
1070
   279
1070
     0
1070
   284
1070
     0
1070
   285
1070
     0
1070
   286
1070
     0
1070
   341
1005
83D1
1070
   343
1005
83D1
1070
   344
1005
83D1
1002
}
  0
DIMENSION
  5
84FB
330
83BE
100
AcDbEntity
  8
3
100
AcDbDimension
  2
*D37
 10
2436.826826817036
 20
4588.58468019877
 30
0.0
 11
1837.826826817035
 21
4676.08468019877
 31
0.0
 70
    32
 71
     5
 42
1198.000000000001
  3
IGA
100
AcDbAlignedDimension
 13
1238.826826817035
 23
4188.324713053003
 33
0.0
 14
2436.826826817036
 24
4256.216972783115
 34
0.0
100
AcDbRotatedDimension
1001
ACAD
1000
DSTYLE
1002
{
1070
    40
1040
35.0
1070
   143
1040
0.039
1070
   172
1070
     1
1070
   271
1070
     4
1070
   272
1070
     4
1070
   279
1070
     0
1070
   284
1070
     0
1070
   285
1070
     0
1070
   286
1070
     0
1070
   341
1005
83D1
1070
   343
1005
83D1
1070
   344
1005
83D1
1002
}
  0
DIMENSION
  5
8508
330
83BE
100
AcDbEntity
  8
3
100
AcDbDimension
  2
*D38
 10
3241.826826817036
 20
4588.58468019877
 30
0.0
 11
2839.326826817036
 21
4676.08468019877
 31
0.0
 70
    32
 71
     5
 42
805.0
  3
IGA
100
AcDbAlignedDimension
 13
2436.826826817036
 23
4256.216972783115
 33
0.0
 14
3241.826826817036
 24
3346.324713053003
 34
0.0
100
AcDbRotatedDimension
1001
ACAD
1000
DSTYLE
1002
{
1070
    40
1040
35.0
1070
   143
1040
0.039
1070
   172
1070
     1
1070
   271
1070
     4
1070
   272
1070
     4
1070
   279
1070
     1
1070
   284
1070
     0
1070
   285
1070
     0
1070
   286
1070
     0
1070
   341
1005
83D1
1070
   343
1005
83D1
1070
   344
1005
83D1
1002
}
  0
DIMENSION
  5
8515
330
83BE
100
AcDbEntity
  8
3
100
AcDbDimension
  2
*D39
 10
3241.826826817036
 20
4820.526081803353
 30
0.0
 11
2039.326826817036
 21
4908.026081803352
 31
0.0
 70
    32
 71
     5
 42
2405.0
  3
IGA
100
AcDbAlignedDimension
 13
836.8268268170357
 23
2543.324713053003
 33
0.0
 14
3241.826826817036
 24
3346.324713053003
 34
0.0
100
AcDbRotatedDimension
1001
ACAD
1000
DSTYLE
1002
{
1070
    40
1040
35.0
1070
   143
1040
0.039
1070
   172
1070
     1
1070
   271
1070
     4
1070
   272
1070
     4
1070
   279
1070
     0
1070
   284
1070
     0
1070
   285
1070
     0
1070
   286
1070
     0
1070
   341
1005
83D1
1070
   343
1005
83D1
1070
   344
1005
83D1
1002
}
  0
DIMENSION
  5
8522
330
83BE
100
AcDbEntity
  8
3
100
AcDbDimension
  2
*D40
 10
3507.813709636106
 20
3428.324713053003
 30
0.0
 11
3420.313709636106
 21
3808.324713053004
 31
0.0
 70
    32
 71
     5
 42
759.9999999999995
  3
IGA
100
AcDbAlignedDimension
 13
2441.826826817036
 23
4188.324713053003
 33
0.0
 14
3343.607478270012
 24
3428.324713053003
 34
0.0
 50
90.0
100
AcDbRotatedDimension
1001
ACAD
1000
DSTYLE
1002
{
1070
    40
1040
35.0
1070
   143
1040
0.039
1070
   172
1070
     1
1070
   271
1070
     4
1070
   272
1070
     4
1070
   279
1070
     0
1070
   284
1070
     0
1070
   285
1070
     0
1070
   286
1070
     0
1070
   341
1005
83D1
1070
   343
1005
83D1
1070
   344
1005
83D1
1002
}
  0
DIMENSION
  5
852F
330
83BE
100
AcDbEntity
  8
3
100
AcDbDimension
  2
*D41
 10
3507.813709636105
 20
2418.324713053003
 30
0.0
 11
3420.313709636106
 21
2923.324713053004
 31
0.0
 70
    32
 71
     5
 42
1010.0
  3
IGA
100
AcDbAlignedDimension
 13
3343.607478270012
 23
3428.324713053003
 33
0.0
 14
3096.826826817036
 24
2418.324713053003
 34
0.0
 50
90.0
100
AcDbRotatedDimension
1001
ACAD
1000
DSTYLE
1002
{
1070
    40
1040
35.0
1070
   143
1040
0.039
1070
   172
1070
     1
1070
   271
1070
     4
1070
   272
1070
     4
1070
   279
1070
     1
1070
   284
1070
     0
1070
   285
1070
     0
1070
   286
1070
     0
1070
   341
1005
83D1
1070
   343
1005
83D1
1070
   344
1005
83D1
1002
}
  0
ENDSEC
  0
SECTION
  2
OBJECTS
  0
DICTIONARY
  5
835B
330
0
100
AcDbDictionary
281
     1
  3
ACAD_CIP_PREVIOUS_PRODUCT_INFO
350
8401
  3
ACAD_COLOR
350
83B1
  3
ACAD_DETAILVIEWSTYLE
350
83B8
  3
ACAD_GROUP
350
835C
  3
ACAD_LAYOUT
350
83B0
  3
ACAD_MATERIAL
350
835F
  3
ACAD_MLEADERSTYLE
350
83B4
  3
ACAD_MLINESTYLE
350
83AD
  3
ACAD_PLOTSETTINGS
350
83AF
  3
ACAD_PLOTSTYLENAME
350
835D
  3
ACAD_SCALELIST
350
8391
  3
ACAD_SECTIONVIEWSTYLE
350
83B6
  3
ACAD_TABLESTYLE
350
83B2
  3
ACAD_VISUALSTYLE
350
8378
  3
ACDB_RECOMPOSE_DATA
350
8553
  3
AcDbVariableDictionary
350
8546
  3
DWGPROPS
350
8554
  0
DICTIONARY
  5
853C
330
83A3
100
AcDbDictionary
280
     1
281
     1
  3
ADSK_XREC_LAYER_RECONCILED
360
853D
  0
DICTIONARY
  5
853E
330
83C2
100
AcDbDictionary
280
     1
281
     1
  3
ADSK_XREC_LAYER_RECONCILED
360
853F
  0
DICTIONARY
  5
8540
330
83C5
100
AcDbDictionary
280
     1
281
     1
  3
ADSK_XREC_LAYER_RECONCILED
360
8541
  0
DICTIONARY
  5
8542
330
83C6
100
AcDbDictionary
280
     1
281
     1
  3
ADSK_XREC_LAYER_RECONCILED
360
8543
  0
DICTIONARY
  5
8544
330
83C7
100
AcDbDictionary
280
     1
281
     1
  3
ADSK_XREC_LAYER_RECONCILED
360
8545
  0
DICTIONARY
  5
8403
330
83BE
100
AcDbDictionary
280
     1
281
     1
  3
ACAD_SORTENTS
360
8404
  0
XRECORD
  5
8401
102
{ACAD_REACTORS
330
835B
102
}
330
835B
100
AcDbXrecord
280
     1
300
ACDLT
300
2015
300
INVLTS_F_S
  0
DICTIONARY
  5
83B1
102
{ACAD_REACTORS
330
835B
102
}
330
835B
100
AcDbDictionary
281
     1
  0
DICTIONARY
  5
83B8
102
{ACAD_REACTORS
330
835B
102
}
330
835B
100
AcDbDictionary
281
     1
  3
Imperial24
350
83B9
  0
DICTIONARY
  5
835C
102
{ACAD_REACTORS
330
835B
102
}
330
835B
100
AcDbDictionary
281
     1
  0
DICTIONARY
  5
83B0
102
{ACAD_REACTORS
330
835B
102
}
330
835B
100
AcDbDictionary
281
     1
  3
Model
350
83C1
  3
レイアウト1
350
83BD
  0
DICTIONARY
  5
835F
102
{ACAD_REACTORS
330
835B
102
}
330
835B
100
AcDbDictionary
281
     1
  3
ByBlock
350
8368
  3
ByLayer
350
8360
  3
Global
350
8370
  0
DICTIONARY
  5
83B4
102
{ACAD_REACTORS
330
835B
102
}
330
835B
100
AcDbDictionary
281
     1
  3
Standard
350
83B5
  0
DICTIONARY
  5
83AD
102
{ACAD_REACTORS
330
835B
102
}
330
835B
100
AcDbDictionary
281
     1
  3
Standard
350
83AE
  0
DICTIONARY
  5
83AF
102
{ACAD_REACTORS
330
835B
102
}
330
835B
100
AcDbDictionary
281
     1
  0
ACDBDICTIONARYWDFLT
  5
835D
102
{ACAD_REACTORS
330
835B
102
}
330
835B
100
AcDbDictionary
281
     1
  3
Normal
350
835E
100
AcDbDictionaryWithDefault
340
835E
  0
DICTIONARY
  5
8391
102
{ACAD_REACTORS
330
835B
102
}
330
835B
100
AcDbDictionary
281
     1
  3
A0
350
8392
  3
A1
350
8393
  3
A2
350
8394
  3
A3
350
8395
  3
A4
350
8396
  3
A5
350
8397
  3
A6
350
8398
  3
A7
350
8399
  3
A8
350
839A
  3
A9
350
839B
  3
B0
350
839C
  3
B1
350
839D
  3
B2
350
839E
  3
B3
350
839F
  3
B4
350
83A0
  3
B5
350
83A1
  3
B6
350
83A2
  0
DICTIONARY
  5
83B6
102
{ACAD_REACTORS
330
835B
102
}
330
835B
100
AcDbDictionary
281
     1
  3
Imperial24
350
83B7
  0
DICTIONARY
  5
83B2
102
{ACAD_REACTORS
330
835B
102
}
330
835B
100
AcDbDictionary
281
     1
  3
Standard
350
83B3
  0
DICTIONARY
  5
8378
102
{ACAD_REACTORS
330
835B
102
}
330
835B
100
AcDbDictionary
281
     1
  3
2dWireframe
350
837E
  3
Basic
350
837D
  3
Brighten
350
8384
  3
ColorChange
350
8388
  3
Conceptual
350
8381
  3
Dim
350
8383
  3
EdgeColorOff
350
8390
  3
Facepattern
350
8387
  3
Flat
350
8379
  3
FlatWithEdges
350
837A
  3
Gouraud
350
837B
  3
GouraudWithEdges
350
837C
  3
Hidden
350
8380
  3
JitterOff
350
838E
  3
Linepattern
350
8386
  3
OverhangOff
350
838F
  3
Realistic
350
8382
  3
Shaded
350
838D
  3
Shaded with edges
350
838C
  3
Shades of Gray
350
8389
  3
Sketchy
350
838A
  3
Thicken
350
8385
  3
Wireframe
350
837F
  3
X-Ray
350
838B
  0
XRECORD
  5
8553
102
{ACAD_REACTORS
330
835B
102
}
330
835B
100
AcDbXrecord
280
     1
 90
        1
330
83B3
  0
DICTIONARY
  5
8546
102
{ACAD_REACTORS
330
835B
102
}
330
835B
100
AcDbDictionary
281
     1
  3
CANNOSCALE
350
854B
  3
CMLEADERSTYLE
350
8548
  3
CTABLESTYLE
350
8547
  3
CVIEWDETAILSTYLE
350
8549
  3
CVIEWSECTIONSTYLE
350
854A
  3
DIMASSOC
350
854E
  3
INDEXCTL
350
854D
  3
SORTENTS
350
854C
  3
XCLIPFRAME
350
854F
  0
XRECORD
  5
8554
102
{ACAD_REACTORS
330
835B
102
}
330
835B
100
AcDbXrecord
280
     1
  1
DWGPROPS COOKIE
  2

  3

  4

  6

  7

  8
yasukiyo.ogawa
  9

300
=
301
=
302
=
303
=
304
=
305
=
306
=
307
=
308
=
309
=
 40
0.0434140509259259
 41
2451390.397703704
 42
2460273.538303982
  1

 90
        0
  0
XRECORD
  5
853D
102
{ACAD_REACTORS
330
853C
102
}
330
853C
100
AcDbXrecord
280
     1
290
     1
  0
XRECORD
  5
853F
102
{ACAD_REACTORS
330
853E
102
}
330
853E
100
AcDbXrecord
280
     1
290
     1
  0
XRECORD
  5
8541
102
{ACAD_REACTORS
330
8540
102
}
330
8540
100
AcDbXrecord
280
     1
290
     1
  0
XRECORD
  5
8543
102
{ACAD_REACTORS
330
8542
102
}
330
8542
100
AcDbXrecord
280
     1
290
     1
  0
XRECORD
  5
8545
102
{ACAD_REACTORS
330
8544
102
}
330
8544
100
AcDbXrecord
280
     1
290
     1
  0
SORTENTSTABLE
  5
8404
102
{ACAD_REACTORS
330
8403
102
}
330
8403
100
AcDbSortentsTable
330
83BE
331
801C
  5
8020
331
7CBF
  5
7CC1
331
7C9D
  5
7C9F
331
7CE1
  5
7CE3
331
7C58
  5
7C5A
331
802A
  5
802C
331
7C7A
  5
7C7C
331
7C25
  5
7C25
331
7C14
  5
7C14
331
7C9E
  5
7CA0
331
7CC0
  5
7CC2
331
7C48
  5
7C4A
331
7CE2
  5
801A
331
7C6A
  5
7C6C
331
7C59
  5
7C5C
331
802B
  5
802D
331
7C7B
  5
7C7D
331
7C26
  5
7C26
331
7C15
  5
7C15
331
7C8E
  5
7C96
331
7CB0
  5
7CB2
331
7C9F
  5
7CA1
331
7CC1
  5
7CC3
331
7C49
  5
7C4B
331
7CE3
  5
801B
331
7C6B
  5
7C6D
331
7C5A
  5
7C5D
331
802C
  5
802E
331
7C7C
  5
7C7E
331
7C27
  5
7C27
331
7C16
  5
7C16
331
8038
  5
81BC
331
801F
  5
8021
331
7CB1
  5
7CB3
331
7CA0
  5
7CA2
331
7CD3
  5
7CD5
331
7CC2
  5
7CC4
331
7C4A
  5
7C4C
331
802D
  5
802F
331
7C7D
  5
7C7F
331
7C6C
  5
7C6E
331
7C28
  5
7C28
331
7C17
  5
7C17
331
7CB2
  5
7CB4
331
7C29
  5
7C2B
331
7CC3
  5
7CC5
331
7C4B
  5
7C4D
331
7C5C
  5
7C5E
331
802E
  5
8030
331
7C7E
  5
7C81
331
7C6D
  5
7C6F
331
7C18
  5
7C18
331
7CA2
  5
7CA4
331
7C2A
  5
7C2C
331
7CB3
  5
7CB5
331
7C3B
  5
7C3E
331
7CC4
  5
7CC6
331
7C4C
  5
7C51
331
802F
  5
8031
331
7C6E
  5
7C70
331
7C5D
  5
7C61
331
7C19
  5
7C19
331
81BC
  5
81D6
331
8030
  5
8032
331
7CB4
  5
7CB6
331
7CA3
  5
7CA5
331
7C2B
  5
7C2D
331
7CC5
  5
7CC7
331
7C4D
  5
7C52
331
7C5E
  5
7C62
331
7C6F
  5
7C71
331
7C1A
  5
7C1A
331
8020
  5
8022
331
7C70
  5
7C72
331
8031
  5
8033
331
7C93
  5
7C97
331
7CA4
  5
7CA6
331
7C2C
  5
7C2E
331
7CC6
  5
7CC8
331
7CB5
  5
7CB7
331
7C1B
  5
7C1B
331
8021
  5
8023
331
7C71
  5
7C73
331
8032
  5
8034
331
7CA5
  5
7CA7
331
7C2D
  5
7C2F
331
7CC7
  5
7CC9
331
7CB6
  5
7CB8
331
7C1C
  5
7C1C
331
7CC8
  5
7CCA
331
8022
  5
8024
331
7C72
  5
7C74
331
7C61
  5
7C63
331
8033
  5
8035
331
7C83
  5
7C85
331
7CB7
  5
7CB9
331
7CA6
  5
7CA8
331
7C2E
  5
7C30
331
7C1D
  5
7C1D
331
7CB8
  5
7CBA
331
7C40
  5
7C42
331
7CC9
  5
7CCB
331
7C51
  5
7C53
331
8023
  5
8026
331
7C73
  5
7C75
331
7C62
  5
7C64
331
81AF
  5
81C9
331
8034
  5
8036
331
7C84
  5
7C86
331
7C96
  5
7C98
331
7CA7
  5
7CA9
331
7C2F
  5
7C31
331
7C1E
  5
7C1E
331
7CA8
  5
7CAA
331
7C30
  5
7C32
331
7CB9
  5
7CBB
331
7C41
  5
7C43
331
7CCA
  5
7CCC
331
7C52
  5
7C54
331
7CDB
  5
7CDD
331
8024
  5
8027
331
7C74
  5
7C76
331
81D6
  5
8402
331
8035
  5
8037
331
7C85
  5
7C88
331
7C63
  5
7C65
331
7C97
  5
7C99
331
7C1F
  5
7C1F
331
7C98
  5
7C9A
331
7C31
  5
7C3B
331
7CBA
  5
7CBC
331
7C42
  5
7C44
331
7CCB
  5
7CD3
331
7CDC
  5
7CDE
331
7C64
  5
7C67
331
8036
  5
8038
331
7C86
  5
7C8A
331
7C75
  5
7C77
331
7C53
  5
7C55
331
7C20
  5
7C20
331
7C88
  5
7C8B
331
7C99
  5
7C9B
331
7C32
  5
7C3D
331
7CBB
  5
7CBD
331
7C43
  5
7C48
331
7CCC
  5
7CD4
331
7CDD
  5
7CDF
331
7C65
  5
7C6A
331
8037
  5
81AF
331
8026
  5
8028
331
7C76
  5
7C78
331
7C54
  5
7C56
331
7C21
  5
7C21
331
7C9A
  5
7C9C
331
7CBC
  5
7CBE
331
7C44
  5
7C49
331
7CDE
  5
7CE0
331
7C55
  5
7C57
331
8027
  5
8029
331
7C77
  5
7C79
331
7C22
  5
7C22
331
7C11
  5
7C11
331
81C9
  5
81E3
331
801A
  5
801C
331
81E3
  5
8405
331
7C8A
  5
7C8E
331
7CBD
  5
7CBF
331
7C9B
  5
7C9D
331
7CDF
  5
7CE1
331
7C67
  5
7C6B
331
7C56
  5
7C58
331
8028
  5
802A
331
7C78
  5
7C7A
331
7C23
  5
7C23
331
801B
  5
801F
331
7C8B
  5
7C93
331
7CBE
  5
7CC0
331
7C9C
  5
7C9E
331
7CE0
  5
7CE2
331
7C57
  5
7C59
331
8029
  5
802B
331
7C79
  5
7C7B
331
7C24
  5
7C24
331
7C13
  5
7C13
  0
ACDBDETAILVIEWSTYLE
  5
83B9
102
{ACAD_XDICTIONARY
360
858C
102
}
102
{ACAD_REACTORS
330
83B8
102
}
330
83B8
100
AcDbModelDocViewStyle
 70
     0
  3
Imperial24
290
     0
100
AcDbDetailViewStyle
 70
     0
 71
     0
 90
        3
 71
     1
340
83A4
 40
0.24
340
0
 40
0.24
300

 40
0.36
280
     3
 71
     2
340
83AB
 90
       25
 71
     3
340
83A4
 40
0.24
 90
        1
 40
0.75
 90
        1
300
%<\AcVar ViewType \f "%tc1">% %<\AcVar ViewDetailId>%\PSCALE %<\AcVar ViewScale \f "%sn">%
 71
     4
340
83AB
 90
       25
340
83AB
 90
       25
280
     0
  0
LAYOUT
  5
83C1
102
{ACAD_XDICTIONARY
360
8590
102
}
102
{ACAD_REACTORS
330
83B0
102
}
330
83B0
100
AcDbPlotSettings
  1

  2
RICOH imagio MP W3600 RPCS
  4

  6

 40
0.0
 41
0.0
 42
0.0
 43
0.0
 44
0.0
 45
0.0
 46
0.0
 47
0.0
 48
0.0
 49
0.0
140
0.0
141
0.0
142
1.0
143
1.0
 70
  1712
 72
     0
 73
     0
 74
     0
  7

 75
     0
147
1.0
148
0.0
149
0.0
100
AcDbLayout
  1
Model
 70
     1
 71
     0
 10
0.0
 20
0.0
 11
12.0
 21
9.0
 12
0.0
 22
0.0
 32
0.0
 14
0.0
 24
0.0
 34
0.0
 15
0.0
 25
0.0
 35
0.0
146
0.0
 13
0.0
 23
0.0
 33
0.0
 16
1.0
 26
0.0
 36
0.0
 17
0.0
 27
1.0
 37
0.0
 76
     0
330
83BE
331
83C3
  0
LAYOUT
  5
83BD
102
{ACAD_XDICTIONARY
360
858E
102
}
102
{ACAD_REACTORS
330
83B0
102
}
330
83B0
100
AcDbPlotSettings
  1

  2
RICOH imagio MP W3600 RPCS
  4

  6

 40
0.0
 41
0.0
 42
0.0
 43
0.0
 44
0.0
 45
0.0
 46
0.0
 47
0.0
 48
0.0
 49
0.0
140
0.0
141
0.0
142
1.0
143
1.0
 70
   688
 72
     0
 73
     0
 74
     5
  7

 75
    16
147
1.0
148
0.0
149
0.0
100
AcDbLayout
  1
レイアウト1
 70
     1
 71
     1
 10
0.0
 20
0.0
 11
12.0
 21
9.0
 12
0.0
 22
0.0
 32
0.0
 14
1.000000000000000E+20
 24
1.000000000000000E+20
 34
1.000000000000000E+20
 15
-1.000000000000000E+20
 25
-1.000000000000000E+20
 35
-1.000000000000000E+20
146
0.0
 13
0.0
 23
0.0
 33
0.0
 16
1.0
 26
0.0
 36
0.0
 17
0.0
 27
1.0
 37
0.0
 76
     0
330
83BA
  0
MATERIAL
  5
8368
102
{ACAD_XDICTIONARY
360
8369
102
}
102
{ACAD_REACTORS
330
835F
102
}
330
835F
100
AcDbMaterial
  1
ByBlock
 72
     0
 43
0.0208333333333333
 43
0.0
 43
0.0
 43
0.0
 43
0.0
 43
0.0208333333333333
 43
0.0
 43
0.0
 43
0.0
 43
0.0
 43
1.0
 43
0.0
 43
0.0
 43
0.0
 43
0.0
 43
1.0
 77
     0
 47
0.0208333333333333
 47
0.0
 47
0.0
 47
0.0
 47
0.0
 47
0.0208333333333333
 47
0.0
 47
0.0
 47
0.0
 47
0.0
 47
1.0
 47
0.0
 47
0.0
 47
0.0
 47
0.0
 47
1.0
171
     0
 49
0.0208333333333333
 49
0.0
 49
0.0
 49
0.0
 49
0.0
 49
0.0208333333333333
 49
0.0
 49
0.0
 49
0.0
 49
0.0
 49
1.0
 49
0.0
 49
0.0
 49
0.0
 49
0.0
 49
1.0
175
     0
142
0.0208333333333333
142
0.0
142
0.0
142
0.0
142
0.0
142
0.0208333333333333
142
0.0
142
0.0
142
0.0
142
0.0
142
1.0
142
0.0
142
0.0
142
0.0
142
0.0
142
1.0
179
     0
144
0.0208333333333333
144
0.0
144
0.0
144
0.0
144
0.0
144
0.0208333333333333
144
0.0
144
0.0
144
0.0
144
0.0
144
1.0
144
0.0
144
0.0
144
0.0
144
0.0
144
1.0
147
0.0208333333333333
147
0.0
147
0.0
147
0.0
147
0.0
147
0.0208333333333333
147
0.0
147
0.0
147
0.0
147
0.0
147
1.0
147
0.0
147
0.0
147
0.0
147
0.0
147
1.0
  0
MATERIAL
  5
8360
102
{ACAD_XDICTIONARY
360
8361
102
}
102
{ACAD_REACTORS
330
835F
102
}
330
835F
100
AcDbMaterial
  1
ByLayer
 72
     0
 43
0.0208333333333333
 43
0.0
 43
0.0
 43
0.0
 43
0.0
 43
0.0208333333333333
 43
0.0
 43
0.0
 43
0.0
 43
0.0
 43
1.0
 43
0.0
 43
0.0
 43
0.0
 43
0.0
 43
1.0
 77
     0
 47
0.0208333333333333
 47
0.0
 47
0.0
 47
0.0
 47
0.0
 47
0.0208333333333333
 47
0.0
 47
0.0
 47
0.0
 47
0.0
 47
1.0
 47
0.0
 47
0.0
 47
0.0
 47
0.0
 47
1.0
171
     0
 49
0.0208333333333333
 49
0.0
 49
0.0
 49
0.0
 49
0.0
 49
0.0208333333333333
 49
0.0
 49
0.0
 49
0.0
 49
0.0
 49
1.0
 49
0.0
 49
0.0
 49
0.0
 49
0.0
 49
1.0
175
     0
142
0.0208333333333333
142
0.0
142
0.0
142
0.0
142
0.0
142
0.0208333333333333
142
0.0
142
0.0
142
0.0
142
0.0
142
1.0
142
0.0
142
0.0
142
0.0
142
0.0
142
1.0
179
     0
144
0.0208333333333333
144
0.0
144
0.0
144
0.0
144
0.0
144
0.0208333333333333
144
0.0
144
0.0
144
0.0
144
0.0
144
1.0
144
0.0
144
0.0
144
0.0
144
0.0
144
1.0
147
0.0208333333333333
147
0.0
147
0.0
147
0.0
147
0.0
147
0.0208333333333333
147
0.0
147
0.0
147
0.0
147
0.0
147
1.0
147
0.0
147
0.0
147
0.0
147
0.0
147
1.0
  0
MATERIAL
  5
8370
102
{ACAD_XDICTIONARY
360
8371
102
}
102
{ACAD_REACTORS
330
835F
102
}
330
835F
100
AcDbMaterial
  1
Global
 72
     0
 43
0.0208333333333333
 43
0.0
 43
0.0
 43
0.0
 43
0.0
 43
0.0208333333333333
 43
0.0
 43
0.0
 43
0.0
 43
0.0
 43
1.0
 43
0.0
 43
0.0
 43
0.0
 43
0.0
 43
1.0
 77
     0
 47
0.0208333333333333
 47
0.0
 47
0.0
 47
0.0
 47
0.0
 47
0.0208333333333333
 47
0.0
 47
0.0
 47
0.0
 47
0.0
 47
1.0
 47
0.0
 47
0.0
 47
0.0
 47
0.0
 47
1.0
171
     0
 49
0.0208333333333333
 49
0.0
 49
0.0
 49
0.0
 49
0.0
 49
0.0208333333333333
 49
0.0
 49
0.0
 49
0.0
 49
0.0
 49
1.0
 49
0.0
 49
0.0
 49
0.0
 49
0.0
 49
1.0
175
     0
142
0.0208333333333333
142
0.0
142
0.0
142
0.0
142
0.0
142
0.0208333333333333
142
0.0
142
0.0
142
0.0
142
0.0
142
1.0
142
0.0
142
0.0
142
0.0
142
0.0
142
1.0
179
     0
144
0.0208333333333333
144
0.0
144
0.0
144
0.0
144
0.0
144
0.0208333333333333
144
0.0
144
0.0
144
0.0
144
0.0
144
1.0
144
0.0
144
0.0
144
0.0
144
0.0
144
1.0
147
0.0208333333333333
147
0.0
147
0.0
147
0.0
147
0.0
147
0.0208333333333333
147
0.0
147
0.0
147
0.0
147
0.0
147
1.0
147
0.0
147
0.0
147
0.0
147
0.0
147
1.0
  0
MLEADERSTYLE
  5
83B5
102
{ACAD_REACTORS
330
83B4
102
}
330
83B4
100
AcDbMLeaderStyle
170
     2
171
     1
172
     0
 90
        2
 40
0.0
 41
0.0
173
     1
 91
-1056964608
340
83A9
 92
       -2
290
     1
 42
0.09
291
     1
 43
0.36
  3
Standard
 44
0.18
300

342
83A4
174
     1
178
     6
175
     1
176
     0
 93
-1056964608
 45
0.18
292
     0
297
     0
 46
0.18
 94
-1056964608
 47
1.0
 49
1.0
140
1.0
293
     1
141
0.0
294
     1
177
     0
142
1.0
295
     0
296
     0
143
0.125
1001
ACAD_MLEADERVER
1070
     2
  0
MLINESTYLE
  5
83AE
102
{ACAD_REACTORS
330
83AD
102
}
330
83AD
100
AcDbMlineStyle
  2
STANDARD
 70
     0
  3

 62
   256
 51
90.0
 52
90.0
 71
     2
 49
0.5
 62
   256
  6
BYLAYER
 49
-0.5
 62
   256
  6
BYLAYER
  0
ACDBPLACEHOLDER
  5
835E
102
{ACAD_REACTORS
330
835D
102
}
330
835D
  0
SCALE
  5
8392
102
{ACAD_REACTORS
330
8391
102
}
330
8391
100
AcDbScale
 70
     0
300
1:1
140
1.0
141
1.0
290
     1
  0
SCALE
  5
8393
102
{ACAD_REACTORS
330
8391
102
}
330
8391
100
AcDbScale
 70
     0
300
1/128" = 1'-0"
140
0.0078125
141
12.0
290
     0
  0
SCALE
  5
8394
102
{ACAD_REACTORS
330
8391
102
}
330
8391
100
AcDbScale
 70
     0
300
1/64" = 1'-0"
140
0.015625
141
12.0
290
     0
  0
SCALE
  5
8395
102
{ACAD_REACTORS
330
8391
102
}
330
8391
100
AcDbScale
 70
     0
300
1/32" = 1'-0"
140
0.03125
141
12.0
290
     0
  0
SCALE
  5
8396
102
{ACAD_REACTORS
330
8391
102
}
330
8391
100
AcDbScale
 70
     0
300
1/16" = 1'-0"
140
0.0625
141
12.0
290
     0
  0
SCALE
  5
8397
102
{ACAD_REACTORS
330
8391
102
}
330
8391
100
AcDbScale
 70
     0
300
3/32" = 1'-0"
140
0.09375
141
12.0
290
     0
  0
SCALE
  5
8398
102
{ACAD_REACTORS
330
8391
102
}
330
8391
100
AcDbScale
 70
     0
300
1/8" = 1'-0"
140
0.125
141
12.0
290
     0
  0
SCALE
  5
8399
102
{ACAD_REACTORS
330
8391
102
}
330
8391
100
AcDbScale
 70
     0
300
3/16" = 1'-0"
140
0.1875
141
12.0
290
     0
  0
SCALE
  5
839A
102
{ACAD_REACTORS
330
8391
102
}
330
8391
100
AcDbScale
 70
     0
300
1/4" = 1'-0"
140
0.25
141
12.0
290
     0
  0
SCALE
  5
839B
102
{ACAD_REACTORS
330
8391
102
}
330
8391
100
AcDbScale
 70
     0
300
3/8" = 1'-0"
140
0.375
141
12.0
290
     0
  0
SCALE
  5
839C
102
{ACAD_REACTORS
330
8391
102
}
330
8391
100
AcDbScale
 70
     0
300
1/2" = 1'-0"
140
0.5
141
12.0
290
     0
  0
SCALE
  5
839D
102
{ACAD_REACTORS
330
8391
102
}
330
8391
100
AcDbScale
 70
     0
300
3/4" = 1'-0"
140
0.75
141
12.0
290
     0
  0
SCALE
  5
839E
102
{ACAD_REACTORS
330
8391
102
}
330
8391
100
AcDbScale
 70
     0
300
1" = 1'-0"
140
1.0
141
12.0
290
     0
  0
SCALE
  5
839F
102
{ACAD_REACTORS
330
8391
102
}
330
8391
100
AcDbScale
 70
     0
300
1-1/2" = 1'-0"
140
1.5
141
12.0
290
     0
  0
SCALE
  5
83A0
102
{ACAD_REACTORS
330
8391
102
}
330
8391
100
AcDbScale
 70
     0
300
3" = 1'-0"
140
3.0
141
12.0
290
     0
  0
SCALE
  5
83A1
102
{ACAD_REACTORS
330
8391
102
}
330
8391
100
AcDbScale
 70
     0
300
6" = 1'-0"
140
6.0
141
12.0
290
     0
  0
SCALE
  5
83A2
102
{ACAD_REACTORS
330
8391
102
}
330
8391
100
AcDbScale
 70
     0
300
1'-0" = 1'-0"
140
12.0
141
12.0
290
     0
  0
ACDBSECTIONVIEWSTYLE
  5
83B7
102
{ACAD_XDICTIONARY
360
858A
102
}
102
{ACAD_REACTORS
330
83B6
102
}
330
83B6
100
AcDbModelDocViewStyle
 70
     0
  3
Imperial24
290
     0
100
AcDbSectionViewStyle
 70
     0
 71
     0
 90
       78
 71
     1
340
83A4
 40
0.24
340
0
340
0
 40
0.24
300
I, O, Q, S, X, Z
 40
0.48
 90
        3
 40
0.18
 90
        1
 71
     2
340
83AB
 90
       25
340
83AB
 90
       50
 40
0.24
 40
0.0
 40
0.24
 71
     3
340
83A4
 40
0.24
 90
        1
 40
0.75
 90
        1
300
%<\AcVar ViewType \f "%tc1">% %<\AcVar ViewSectionStartId>%-%<\AcVar ViewSectionEndId>%\PSCALE %<\AcVar ViewScale \f "%sn">%
 71
     4
300
ANSI31
 40
1.0
 90
        0
290
     0
290
     0
 90
        6
 40
0.0
 40
1.570796326794896
 40
0.2617993877991494
 40
1.308996938995747
 40
-0.2617993877991494
 40
1.832595714594046
  0
TABLESTYLE
  5
83B3
102
{ACAD_XDICTIONARY
360
8551
102
}
102
{ACAD_REACTORS
330
83B2
102
}
330
83B2
100
AcDbTableStyle
  3
Standard
 70
     0
 71
     0
 40
0.06
 41
0.06
280
     0
281
     0
  7
STANDARD
140
0.18
170
     2
 62
     0
 63
     7
283
     0
274
    -2
284
     1
 64
     0
275
    -2
285
     1
 65
     0
276
    -2
286
     1
 66
     0
277
    -2
287
     1
 67
     0
278
    -2
288
     1
 68
     0
279
    -2
289
     1
 69
     0
  7
STANDARD
140
0.25
170
     5
 62
     0
 63
     7
283
     0
274
    -2
284
     1
 64
     0
275
    -2
285
     1
 65
     0
276
    -2
286
     1
 66
     0
277
    -2
287
     1
 67
     0
278
    -2
288
     1
 68
     0
279
    -2
289
     1
 69
     0
  7
STANDARD
140
0.18
170
     5
 62
     0
 63
     7
283
     0
274
    -2
284
     1
 64
     0
275
    -2
285
     1
 65
     0
276
    -2
286
     1
 66
     0
277
    -2
287
     1
 67
     0
278
    -2
288
     1
 68
     0
279
    -2
289
     1
 69
     0
  0
VISUALSTYLE
  5
837E
102
{ACAD_XDICTIONARY
360
8562
102
}
102
{ACAD_REACTORS
330
8378
102
}
330
8378
100
AcDbVisualStyle
  2
2dWireframe
 70
     4
 71
     0
 72
     2
 73
     0
 90
        0
 40
-0.6
 41
-30.0
 62
     5
 63
     7
 74
     1
 91
        4
 64
     7
 65
   257
 75
     1
175
     1
 42
1.0
 92
        0
 66
   257
 43
1.0
 76
     1
 77
     6
 78
     2
 67
     7
 79
     5
170
     0
171
     0
290
     0
174
     0
 93
        1
 44
0.0
173
     0
291
     0
 45
0.0
1001
ACAD
1000
AcDbSavedByObjectVersion
1070
     0
  0
VISUALSTYLE
  5
837D
102
{ACAD_XDICTIONARY
360
8560
102
}
102
{ACAD_REACTORS
330
8378
102
}
330
8378
100
AcDbVisualStyle
  2
Basic
 70
     7
 71
     1
 72
     0
 73
     1
 90
        0
 40
-0.6
 41
-30.0
 62
     5
 63
     7
 74
     0
 91
        4
 64
     7
 65
   257
 75
     1
175
     1
 42
1.0
 92
        8
 66
     7
 43
1.0
 76
     1
 77
     6
 78
     2
 67
     7
 79
     5
170
     0
171
     0
290
     0
174
     0
 93
        1
 44
0.0
173
     0
291
     1
 45
0.0
1001
ACAD
1000
AcDbSavedByObjectVersion
1070
     0
  0
VISUALSTYLE
  5
8384
102
{ACAD_XDICTIONARY
360
856E
102
}
102
{ACAD_REACTORS
330
8378
102
}
330
8378
100
AcDbVisualStyle
  2
Brighten
 70
    12
 71
     2
 72
     2
 73
     0
 90
        0
 40
-0.6
 41
-30.0
 62
     5
 63
     7
 74
     1
 91
        4
 64
     7
 65
   257
 75
     1
175
     1
 42
1.0
 92
        8
 66
     7
 43
1.0
 76
     1
 77
     6
 78
     2
 67
     7
 79
     5
170
     0
171
     0
290
     0
174
     0
 93
        1
 44
50.0
173
     0
291
     1
 45
0.0
1001
ACAD
1000
AcDbSavedByObjectVersion
1070
     0
  0
VISUALSTYLE
  5
8388
102
{ACAD_XDICTIONARY
360
8576
102
}
102
{ACAD_REACTORS
330
8378
102
}
330
8378
100
AcDbVisualStyle
  2
ColorChange
 70
    16
 71
     2
 72
     2
 73
     3
 90
        0
 40
-0.6
 41
-30.0
 62
     5
 63
     8
 74
     1
 91
        4
 64
     7
 65
   257
 75
     1
175
     1
 42
1.0
 92
        8
 66
     8
 43
1.0
 76
     1
 77
     6
 78
     2
 67
     7
 79
     5
170
     0
171
     0
290
     0
174
     0
 93
        1
 44
0.0
173
     0
291
     1
 45
0.0
1001
ACAD
1000
AcDbSavedByObjectVersion
1070
     0
  0
VISUALSTYLE
  5
8381
102
{ACAD_XDICTIONARY
360
8568
102
}
102
{ACAD_REACTORS
330
8378
102
}
330
8378
100
AcDbVisualStyle
  2
Conceptual
 70
     9
 71
     3
 72
     2
 73
     0
 90
        0
 40
-0.6
 41
-30.0
 62
     5
 63
     7
 74
     2
 91
        2
 64
     7
 65
   257
 75
     1
175
     1
 42
179.0
 92
        8
 66
     7
 43
1.0
 76
     1
 77
     6
 78
     2
 67
     7
 79
     3
170
     0
171
     0
290
     0
174
     0
 93
        1
 44
0.0
173
     0
291
     0
 45
0.0
1001
ACAD
1000
AcDbSavedByObjectVersion
1070
     0
  0
VISUALSTYLE
  5
8383
102
{ACAD_XDICTIONARY
360
856C
102
}
102
{ACAD_REACTORS
330
8378
102
}
330
8378
100
AcDbVisualStyle
  2
Dim
 70
    11
 71
     2
 72
     2
 73
     0
 90
        0
 40
-0.6
 41
-30.0
 62
     5
 63
     7
 74
     1
 91
        4
 64
     7
 65
   257
 75
     1
175
     1
 42
1.0
 92
        8
 66
     7
 43
1.0
 76
     1
 77
     6
 78
     2
 67
     7
 79
     5
170
     0
171
     0
290
     0
174
     0
 93
        1
 44
-50.0
173
     0
291
     1
 45
0.0
1001
ACAD
1000
AcDbSavedByObjectVersion
1070
     0
  0
VISUALSTYLE
  5
8390
102
{ACAD_XDICTIONARY
360
8586
102
}
102
{ACAD_REACTORS
330
8378
102
}
330
8378
100
AcDbVisualStyle
  2
EdgeColorOff
 70
    22
 71
     2
 72
     2
 73
     0
 90
        0
 40
-0.6
 41
-30.0
 62
     5
 63
     7
 74
     1
 91
        4
 64
     7
 65
   257
 75
     1
175
     1
 42
1.0
 92
        8
 66
     7
 43
1.0
 76
     1
 77
     6
 78
     2
 67
     7
 79
     5
170
     0
171
     0
290
     0
174
     0
 93
        1
 44
0.0
173
     0
291
     1
 45
0.0
1001
ACAD
1000
AcDbSavedByObjectVersion
1070
     0
  0
VISUALSTYLE
  5
8387
102
{ACAD_XDICTIONARY
360
8574
102
}
102
{ACAD_REACTORS
330
8378
102
}
330
8378
100
AcDbVisualStyle
  2
Facepattern
 70
    15
 71
     2
 72
     2
 73
     0
 90
        0
 40
-0.6
 41
-30.0
 62
     5
 63
     7
 74
     1
 91
        4
 64
     7
 65
   257
 75
     1
175
     1
 42
1.0
 92
        8
 66
     7
 43
1.0
 76
     1
 77
     6
 78
     2
 67
     7
 79
     5
170
     0
171
     0
290
     0
174
     0
 93
        1
 44
0.0
173
     0
291
     1
 45
0.0
1001
ACAD
1000
AcDbSavedByObjectVersion
1070
     0
  0
VISUALSTYLE
  5
8379
102
{ACAD_XDICTIONARY
360
8558
102
}
102
{ACAD_REACTORS
330
8378
102
}
330
8378
100
AcDbVisualStyle
  2
Flat
 70
     0
 71
     2
 72
     1
 73
     1
 90
        2
 40
-0.6
 41
30.0
 62
     5
 63
     7
 74
     0
 91
        0
 64
     7
 65
   257
 75
     1
175
     1
 42
1.0
 92
        8
 66
     7
 43
1.0
 76
     1
 77
     6
 78
     2
 67
     7
 79
     5
170
     0
171
     0
290
     0
174
     0
 93
       13
 44
0.0
173
     0
291
     1
 45
0.0
1001
ACAD
1000
AcDbSavedByObjectVersion
1070
     0
  0
VISUALSTYLE
  5
837A
102
{ACAD_XDICTIONARY
360
855A
102
}
102
{ACAD_REACTORS
330
8378
102
}
330
8378
100
AcDbVisualStyle
  2
FlatWithEdges
 70
     1
 71
     2
 72
     1
 73
     1
 90
        2
 40
-0.6
 41
30.0
 62
     5
 63
     7
 74
     1
 91
        0
 64
     7
 65
   257
 75
     1
175
     1
 42
1.0
 92
        0
 66
   257
 43
1.0
 76
     1
 77
     6
 78
     2
 67
     7
 79
     5
170
     0
171
     0
290
     0
174
     0
 93
       13
 44
0.0
173
     0
291
     1
 45
0.0
1001
ACAD
1000
AcDbSavedByObjectVersion
1070
     0
  0
VISUALSTYLE
  5
837B
102
{ACAD_XDICTIONARY
360
855C
102
}
102
{ACAD_REACTORS
330
8378
102
}
330
8378
100
AcDbVisualStyle
  2
Gouraud
 70
     2
 71
     2
 72
     2
 73
     1
 90
        2
 40
-0.6
 41
30.0
 62
     5
 63
     7
 74
     0
 91
        0
 64
     7
 65
   257
 75
     1
175
     1
 42
1.0
 92
        0
 66
     7
 43
1.0
 76
     1
 77
     6
 78
     2
 67
     7
 79
     5
170
     0
171
     0
290
     0
174
     0
 93
       13
 44
0.0
173
     0
291
     1
 45
0.0
1001
ACAD
1000
AcDbSavedByObjectVersion
1070
     0
  0
VISUALSTYLE
  5
837C
102
{ACAD_XDICTIONARY
360
855E
102
}
102
{ACAD_REACTORS
330
8378
102
}
330
8378
100
AcDbVisualStyle
  2
GouraudWithEdges
 70
     3
 71
     2
 72
     2
 73
     1
 90
        2
 40
-0.6
 41
30.0
 62
     5
 63
     7
 74
     1
 91
        0
 64
     7
 65
   257
 75
     1
175
     1
 42
1.0
 92
        0
 66
   257
 43
1.0
 76
     1
 77
     6
 78
     2
 67
     7
 79
     5
170
     0
171
     0
290
     0
174
     0
 93
       13
 44
0.0
173
     0
291
     1
 45
0.0
1001
ACAD
1000
AcDbSavedByObjectVersion
1070
     0
  0
VISUALSTYLE
  5
8380
102
{ACAD_XDICTIONARY
360
8566
102
}
102
{ACAD_REACTORS
330
8378
102
}
330
8378
100
AcDbVisualStyle
  2
Hidden
 70
     6
 71
     1
 72
     2
 73
     2
 90
        0
 40
-0.6
 41
-30.0
 62
     5
 63
     7
 74
     2
 91
        2
 64
     7
 65
   257
 75
     2
175
     1
 42
40.0
 92
        0
 66
   257
 43
1.0
 76
     1
 77
     6
 78
     2
 67
     7
 79
     3
170
     0
171
     0
290
     0
174
     0
 93
        1
 44
0.0
173
     0
291
     0
 45
0.0
1001
ACAD
1000
AcDbSavedByObjectVersion
1070
     0
  0
VISUALSTYLE
  5
838E
102
{ACAD_XDICTIONARY
360
8582
102
}
102
{ACAD_REACTORS
330
8378
102
}
330
8378
100
AcDbVisualStyle
  2
JitterOff
 70
    20
 71
     2
 72
     2
 73
     0
 90
        0
 40
-0.6
 41
-30.0
 62
     5
 63
     7
 74
     1
 91
        4
 64
     7
 65
   257
 75
     1
175
     1
 42
1.0
 92
       10
 66
     7
 43
1.0
 76
     1
 77
     6
 78
     2
 67
     7
 79
     5
170
     0
171
     0
290
     0
174
     0
 93
        1
 44
0.0
173
     0
291
     1
 45
0.0
1001
ACAD
1000
AcDbSavedByObjectVersion
1070
     0
  0
VISUALSTYLE
  5
8386
102
{ACAD_XDICTIONARY
360
8572
102
}
102
{ACAD_REACTORS
330
8378
102
}
330
8378
100
AcDbVisualStyle
  2
Linepattern
 70
    14
 71
     2
 72
     2
 73
     0
 90
        0
 40
-0.6
 41
-30.0
 62
     5
 63
     7
 74
     1
 91
        4
 64
     7
 65
   257
 75
     7
175
     7
 42
1.0
 92
        8
 66
     7
 43
1.0
 76
     1
 77
     6
 78
     2
 67
     7
 79
     5
170
     0
171
     0
290
     0
174
     0
 93
        1
 44
0.0
173
     0
291
     1
 45
0.0
1001
ACAD
1000
AcDbSavedByObjectVersion
1070
     0
  0
VISUALSTYLE
  5
838F
102
{ACAD_XDICTIONARY
360
8584
102
}
102
{ACAD_REACTORS
330
8378
102
}
330
8378
100
AcDbVisualStyle
  2
OverhangOff
 70
    21
 71
     2
 72
     2
 73
     0
 90
        0
 40
-0.6
 41
-30.0
 62
     5
 63
     7
 74
     1
 91
        4
 64
     7
 65
   257
 75
     1
175
     1
 42
1.0
 92
        9
 66
     7
 43
1.0
 76
     1
 77
     6
 78
     2
 67
     7
 79
     5
170
     0
171
     0
290
     0
174
     0
 93
        1
 44
0.0
173
     0
291
     1
 45
0.0
1001
ACAD
1000
AcDbSavedByObjectVersion
1070
     0
  0
VISUALSTYLE
  5
8382
102
{ACAD_XDICTIONARY
360
856A
102
}
102
{ACAD_REACTORS
330
8378
102
}
330
8378
100
AcDbVisualStyle
  2
Realistic
 70
     8
 71
     2
 72
     3
 73
     0
 90
        2
 40
-0.6
 41
30.0
 62
     5
 63
     7
 74
     0
 91
        0
 64
     7
 65
   257
 75
     1
175
     1
 42
1.0
 92
        8
 66
   257
 43
1.0
 76
     1
 77
     6
 78
     2
 67
     7
 79
     3
170
     0
171
     0
290
     0
174
     0
 93
       13
 44
0.0
173
     0
291
     0
 45
0.0
1001
ACAD
1000
AcDbSavedByObjectVersion
1070
     0
  0
VISUALSTYLE
  5
838D
102
{ACAD_XDICTIONARY
360
8580
102
}
102
{ACAD_REACTORS
330
8378
102
}
330
8378
100
AcDbVisualStyle
  2
Shaded
 70
    27
 71
     2
 72
     2
 73
     1
 90
        2
 40
-0.6
 41
30.0
 62
     5
 63
     7
 74
     0
 91
        4
 64
     7
 65
   257
 75
     1
175
     1
 42
1.0
 92
        8
 66
   257
 43
1.0
 76
     1
 77
     6
 78
     2
 67
     8
 79
     3
170
     0
171
     0
290
     0
174
     0
 93
        5
 44
0.0
173
     0
291
     0
 45
0.0
1001
ACAD
1000
AcDbSavedByObjectVersion
1070
     0
  0
VISUALSTYLE
  5
838C
102
{ACAD_XDICTIONARY
360
857E
102
}
102
{ACAD_REACTORS
330
8378
102
}
330
8378
100
AcDbVisualStyle
  2
Shaded with edges
 70
    26
 71
     2
 72
     2
 73
     1
 90
        2
 40
-0.6
 41
30.0
 62
     5
 63
     7
 74
     1
 91
       10
 64
     7
 65
   257
 75
     2
175
     1
 42
1.0
 92
        8
 66
   257
 43
1.0
 76
     1
 77
     6
 78
     2
 67
     7
 79
     3
170
     0
171
     0
290
     0
174
     0
 93
        5
 44
0.0
173
     0
291
     0
 45
0.0
1001
ACAD
1000
AcDbSavedByObjectVersion
1070
     0
  0
VISUALSTYLE
  5
8389
102
{ACAD_XDICTIONARY
360
8578
102
}
102
{ACAD_REACTORS
330
8378
102
}
330
8378
100
AcDbVisualStyle
  2
Shades of Gray
 70
    23
 71
     2
 72
     2
 73
     3
 90
        0
 40
-0.6
 41
-30.0
 62
     5
 63
     7
 74
     2
 91
        2
 64
     7
 65
     7
 75
     1
175
     1
 42
40.0
 92
        8
 66
     7
 43
1.0
 76
     1
 77
     6
 78
     2
 67
     7
 79
     3
170
     0
171
     0
290
     0
174
     0
 93
        1
 44
0.0
173
     0
291
     0
 45
0.0
1001
ACAD
1000
AcDbSavedByObjectVersion
1070
     0
  0
VISUALSTYLE
  5
838A
102
{ACAD_XDICTIONARY
360
857A
102
}
102
{ACAD_REACTORS
330
8378
102
}
330
8378
100
AcDbVisualStyle
  2
Sketchy
 70
    24
 71
     1
 72
     2
 73
     2
 90
        0
 40
-0.6
 41
-30.0
 62
     5
 63
     7
 74
     2
 91
        2
 64
     7
 65
     7
 75
     1
175
     1
 42
40.0
 92
       11
 66
     7
 43
1.0
 76
     1
 77
     6
 78
     2
 67
     7
 79
     6
170
     0
171
     0
290
     0
174
     0
 93
        1
 44
0.0
173
     0
291
     0
 45
0.0
1001
ACAD
1000
AcDbSavedByObjectVersion
1070
     0
  0
VISUALSTYLE
  5
8385
102
{ACAD_XDICTIONARY
360
8570
102
}
102
{ACAD_REACTORS
330
8378
102
}
330
8378
100
AcDbVisualStyle
  2
Thicken
 70
    13
 71
     2
 72
     2
 73
     0
 90
        0
 40
-0.6
 41
-30.0
 62
     5
 63
     7
 74
     1
 91
        4
 64
     7
 65
   257
 75
     1
175
     1
 42
1.0
 92
       12
 66
     7
 43
1.0
 76
     1
 77
     6
 78
     2
 67
     7
 79
     5
170
     0
171
     0
290
     0
174
     0
 93
        1
 44
0.0
173
     0
291
     1
 45
0.0
1001
ACAD
1000
AcDbSavedByObjectVersion
1070
     0
  0
VISUALSTYLE
  5
837F
102
{ACAD_XDICTIONARY
360
8564
102
}
102
{ACAD_REACTORS
330
8378
102
}
330
8378
100
AcDbVisualStyle
  2
Wireframe
 70
     5
 71
     0
 72
     2
 73
     0
 90
        0
 40
-0.6
 41
-30.0
 62
     5
 63
     7
 74
     1
 91
        4
 64
     7
 65
   257
 75
     1
175
     1
 42
1.0
 92
        0
 66
   257
 43
1.0
 76
     1
 77
     6
 78
     2
 67
     7
 79
     3
170
     0
171
     0
290
     0
174
     0
 93
        1
 44
0.0
173
     0
291
     0
 45
0.0
1001
ACAD
1000
AcDbSavedByObjectVersion
1070
     0
  0
VISUALSTYLE
  5
838B
102
{ACAD_XDICTIONARY
360
857C
102
}
102
{ACAD_REACTORS
330
8378
102
}
330
8378
100
AcDbVisualStyle
  2
X-Ray
 70
    25
 71
     2
 72
     2
 73
     1
 90
        1
 40
0.5
 41
-30.0
 62
     5
 63
     7
 74
     1
 91
        0
 64
     7
 65
   257
 75
     1
175
     1
 42
1.0
 92
        8
 66
     7
 43
1.0
 76
     1
 77
     6
 78
     2
 67
     7
 79
     3
170
     0
171
     0
290
     0
174
     0
 93
       13
 44
0.0
173
     0
291
     0
 45
0.0
1001
ACAD
1000
AcDbSavedByObjectVersion
1070
     0
  0
DICTIONARYVAR
  5
854B
102
{ACAD_REACTORS
330
8546
102
}
330
8546
100
DictionaryVariables
280
     0
  1
1:1
  0
DICTIONARYVAR
  5
8548
102
{ACAD_REACTORS
330
8546
102
}
330
8546
100
DictionaryVariables
280
     0
  1
STANDARD
  0
DICTIONARYVAR
  5
8547
102
{ACAD_REACTORS
330
8546
102
}
330
8546
100
DictionaryVariables
280
     0
  1
STANDARD
  0
DICTIONARYVAR
  5
8549
102
{ACAD_REACTORS
330
8546
102
}
330
8546
100
DictionaryVariables
280
     0
  1
Imperial24
  0
DICTIONARYVAR
  5
854A
102
{ACAD_REACTORS
330
8546
102
}
330
8546
100
DictionaryVariables
280
     0
  1
Imperial24
  0
DICTIONARYVAR
  5
854E
102
{ACAD_REACTORS
330
8546
102
}
330
8546
100
DictionaryVariables
280
     0
  1
1
  0
DICTIONARYVAR
  5
854D
102
{ACAD_REACTORS
330
8546
102
}
330
8546
100
DictionaryVariables
280
     0
  1
0
  0
DICTIONARYVAR
  5
854C
102
{ACAD_REACTORS
330
8546
102
}
330
8546
100
DictionaryVariables
280
     0
  1
127
  0
DICTIONARYVAR
  5
854F
102
{ACAD_REACTORS
330
8546
102
}
330
8546
100
DictionaryVariables
280
     0
  1
2
  0
DICTIONARY
  5
858C
330
83B9
100
AcDbDictionary
280
     1
281
     1
  3
ACAD_XREC_ROUNDTRIP
360
858D
  0
DICTIONARY
  5
8590
330
83C1
100
AcDbDictionary
280
     1
281
     1
  3
ACAD_XREC_ROUNDTRIP
360
8591
  0
DICTIONARY
  5
858E
330
83BD
100
AcDbDictionary
280
     1
281
     1
  3
ACAD_XREC_ROUNDTRIP
360
858F
  0
DICTIONARY
  5
8369
330
8368
100
AcDbDictionary
280
     1
281
     1
  3
ACAD_XREC_ROUNDTRIP
360
8556
  3
BUMPTILE
360
836B
  3
DIFFUSETILE
360
836A
  3
OPACITYTILE
360
836E
  3
REFLECTIONTILE
360
836D
  3
REFRACTIONTILE
360
836F
  3
SPECULARTILE
360
836C
  0
DICTIONARY
  5
8361
330
8360
100
AcDbDictionary
280
     1
281
     1
  3
ACAD_XREC_ROUNDTRIP
360
8555
  3
BUMPTILE
360
8363
  3
DIFFUSETILE
360
8362
  3
OPACITYTILE
360
8366
  3
REFLECTIONTILE
360
8365
  3
REFRACTIONTILE
360
8367
  3
SPECULARTILE
360
8364
  0
DICTIONARY
  5
8371
330
8370
100
AcDbDictionary
280
     1
281
     1
  3
ACAD_XREC_ROUNDTRIP
360
8557
  3
BUMPTILE
360
8373
  3
DIFFUSETILE
360
8372
  3
OPACITYTILE
360
8376
  3
REFLECTIONTILE
360
8375
  3
REFRACTIONTILE
360
8377
  3
SPECULARTILE
360
8374
  0
DICTIONARY
  5
858A
330
83B7
100
AcDbDictionary
280
     1
281
     1
  3
ACAD_XREC_ROUNDTRIP
360
858B
  0
DICTIONARY
  5
8551
330
83B3
100
AcDbDictionary
280
     1
281
     1
  3
ACAD_ROUNDTRIP_2008_TABLESTYLE_CELLSTYLEMAP
360
8552
  3
ACAD_XREC_ROUNDTRIP
360
8588
  0
DICTIONARY
  5
8562
330
837E
100
AcDbDictionary
280
     1
281
     1
  3
ACAD_XREC_ROUNDTRIP
360
8563
  0
DICTIONARY
  5
8560
330
837D
100
AcDbDictionary
280
     1
281
     1
  3
ACAD_XREC_ROUNDTRIP
360
8561
  0
DICTIONARY
  5
856E
330
8384
100
AcDbDictionary
280
     1
281
     1
  3
ACAD_XREC_ROUNDTRIP
360
856F
  0
DICTIONARY
  5
8576
330
8388
100
AcDbDictionary
280
     1
281
     1
  3
ACAD_XREC_ROUNDTRIP
360
8577
  0
DICTIONARY
  5
8568
330
8381
100
AcDbDictionary
280
     1
281
     1
  3
ACAD_XREC_ROUNDTRIP
360
8569
  0
DICTIONARY
  5
856C
330
8383
100
AcDbDictionary
280
     1
281
     1
  3
ACAD_XREC_ROUNDTRIP
360
856D
  0
DICTIONARY
  5
8586
330
8390
100
AcDbDictionary
280
     1
281
     1
  3
ACAD_XREC_ROUNDTRIP
360
8587
  0
DICTIONARY
  5
8574
330
8387
100
AcDbDictionary
280
     1
281
     1
  3
ACAD_XREC_ROUNDTRIP
360
8575
  0
DICTIONARY
  5
8558
330
8379
100
AcDbDictionary
280
     1
281
     1
  3
ACAD_XREC_ROUNDTRIP
360
8559
  0
DICTIONARY
  5
855A
330
837A
100
AcDbDictionary
280
     1
281
     1
  3
ACAD_XREC_ROUNDTRIP
360
855B
  0
DICTIONARY
  5
855C
330
837B
100
AcDbDictionary
280
     1
281
     1
  3
ACAD_XREC_ROUNDTRIP
360
855D
  0
DICTIONARY
  5
855E
330
837C
100
AcDbDictionary
280
     1
281
     1
  3
ACAD_XREC_ROUNDTRIP
360
855F
  0
DICTIONARY
  5
8566
330
8380
100
AcDbDictionary
280
     1
281
     1
  3
ACAD_XREC_ROUNDTRIP
360
8567
  0
DICTIONARY
  5
8582
330
838E
100
AcDbDictionary
280
     1
281
     1
  3
ACAD_XREC_ROUNDTRIP
360
8583
  0
DICTIONARY
  5
8572
330
8386
100
AcDbDictionary
280
     1
281
     1
  3
ACAD_XREC_ROUNDTRIP
360
8573
  0
DICTIONARY
  5
8584
330
838F
100
AcDbDictionary
280
     1
281
     1
  3
ACAD_XREC_ROUNDTRIP
360
8585
  0
DICTIONARY
  5
856A
330
8382
100
AcDbDictionary
280
     1
281
     1
  3
ACAD_XREC_ROUNDTRIP
360
856B
  0
DICTIONARY
  5
8580
330
838D
100
AcDbDictionary
280
     1
281
     1
  3
ACAD_XREC_ROUNDTRIP
360
8581
  0
DICTIONARY
  5
857E
330
838C
100
AcDbDictionary
280
     1
281
     1
  3
ACAD_XREC_ROUNDTRIP
360
857F
  0
DICTIONARY
  5
8578
330
8389
100
AcDbDictionary
280
     1
281
     1
  3
ACAD_XREC_ROUNDTRIP
360
8579
  0
DICTIONARY
  5
857A
330
838A
100
AcDbDictionary
280
     1
281
     1
  3
ACAD_XREC_ROUNDTRIP
360
857B
  0
DICTIONARY
  5
8570
330
8385
100
AcDbDictionary
280
     1
281
     1
  3
ACAD_XREC_ROUNDTRIP
360
8571
  0
DICTIONARY
  5
8564
330
837F
100
AcDbDictionary
280
     1
281
     1
  3
ACAD_XREC_ROUNDTRIP
360
8565
  0
DICTIONARY
  5
857C
330
838B
100
AcDbDictionary
280
     1
281
     1
  3
ACAD_XREC_ROUNDTRIP
360
857D
  0
XRECORD
  5
858D
102
{ACAD_REACTORS
330
858C
102
}
330
858C
100
AcDbXrecord
280
     1
102
DISPLAYNAME
  1
Imperial24
102
FLAGS
 90
        0
  0
XRECORD
  5
8591
102
{ACAD_REACTORS
330
8590
102
}
330
8590
100
AcDbXrecord
280
     1
102
SHADEPLOT
 70
     0
102
SHADEPLOTRESLEVEL
 70
     2
102
SHADEPLOTCUSTOMDPI
 70
   300
  0
XRECORD
  5
858F
102
{ACAD_REACTORS
330
858E
102
}
330
858E
100
AcDbXrecord
280
     1
102
SHADEPLOT
 70
     0
102
SHADEPLOTRESLEVEL
 70
     2
102
SHADEPLOTCUSTOMDPI
 70
   300
  0
XRECORD
  5
8556
102
{ACAD_REACTORS
330
8369
102
}
330
8369
100
AcDbXrecord
280
     1
102
MATERIAL
148
0.0
149
0.0
149
0.0
 93
        0
 94
      127
282
     0
 72
     0
 77
     0
171
     0
175
     0
179
     0
273
     0
  0
XRECORD
  5
836B
102
{ACAD_REACTORS
330
8369
102
}
330
8369
100
AcDbXrecord
280
     1
270
     1
271
     1
  0
XRECORD
  5
836A
102
{ACAD_REACTORS
330
8369
102
}
330
8369
100
AcDbXrecord
280
     1
270
     1
271
     1
  0
XRECORD
  5
836E
102
{ACAD_REACTORS
330
8369
102
}
330
8369
100
AcDbXrecord
280
     1
270
     1
271
     1
  0
XRECORD
  5
836D
102
{ACAD_REACTORS
330
8369
102
}
330
8369
100
AcDbXrecord
280
     1
270
     1
271
     1
  0
XRECORD
  5
836F
102
{ACAD_REACTORS
330
8369
102
}
330
8369
100
AcDbXrecord
280
     1
270
     1
271
     1
  0
XRECORD
  5
836C
102
{ACAD_REACTORS
330
8369
102
}
330
8369
100
AcDbXrecord
280
     1
270
     1
271
     1
  0
XRECORD
  5
8555
102
{ACAD_REACTORS
330
8361
102
}
330
8361
100
AcDbXrecord
280
     1
102
MATERIAL
148
0.0
149
0.0
149
0.0
 93
        0
 94
      127
282
     0
 72
     0
 77
     0
171
     0
175
     0
179
     0
273
     0
  0
XRECORD
  5
8363
102
{ACAD_REACTORS
330
8361
102
}
330
8361
100
AcDbXrecord
280
     1
270
     1
271
     1
  0
XRECORD
  5
8362
102
{ACAD_REACTORS
330
8361
102
}
330
8361
100
AcDbXrecord
280
     1
270
     1
271
     1
  0
XRECORD
  5
8366
102
{ACAD_REACTORS
330
8361
102
}
330
8361
100
AcDbXrecord
280
     1
270
     1
271
     1
  0
XRECORD
  5
8365
102
{ACAD_REACTORS
330
8361
102
}
330
8361
100
AcDbXrecord
280
     1
270
     1
271
     1
  0
XRECORD
  5
8367
102
{ACAD_REACTORS
330
8361
102
}
330
8361
100
AcDbXrecord
280
     1
270
     1
271
     1
  0
XRECORD
  5
8364
102
{ACAD_REACTORS
330
8361
102
}
330
8361
100
AcDbXrecord
280
     1
270
     1
271
     1
  0
XRECORD
  5
8557
102
{ACAD_REACTORS
330
8371
102
}
330
8371
100
AcDbXrecord
280
     1
102
MATERIAL
148
0.0
149
0.0
149
0.0
 93
        0
 94
      127
282
     0
 72
     0
 77
     0
171
     0
175
     0
179
     0
273
     0
  0
XRECORD
  5
8373
102
{ACAD_REACTORS
330
8371
102
}
330
8371
100
AcDbXrecord
280
     1
270
     1
271
     1
  0
XRECORD
  5
8372
102
{ACAD_REACTORS
330
8371
102
}
330
8371
100
AcDbXrecord
280
     1
270
     1
271
     1
  0
XRECORD
  5
8376
102
{ACAD_REACTORS
330
8371
102
}
330
8371
100
AcDbXrecord
280
     1
270
     1
271
     1
  0
XRECORD
  5
8375
102
{ACAD_REACTORS
330
8371
102
}
330
8371
100
AcDbXrecord
280
     1
270
     1
271
     1
  0
XRECORD
  5
8377
102
{ACAD_REACTORS
330
8371
102
}
330
8371
100
AcDbXrecord
280
     1
270
     1
271
     1
  0
XRECORD
  5
8374
102
{ACAD_REACTORS
330
8371
102
}
330
8371
100
AcDbXrecord
280
     1
270
     1
271
     1
  0
XRECORD
  5
858B
102
{ACAD_REACTORS
330
858A
102
}
330
858A
100
AcDbXrecord
280
     1
102
DISPLAYNAME
  1
Imperial24
102
FLAGS
 90
        0
  0
CELLSTYLEMAP
  5
8552
102
{ACAD_REACTORS
330
8551
102
}
330
8551
100
AcDbCellStyleMap
 90
        3
300
CELLSTYLE
  1
TABLEFORMAT_BEGIN
 90
        5
170
     1
 91
        0
 92
    32768
 62
   257
 93
        1
300
CONTENTFORMAT
  1
CONTENTFORMAT_BEGIN
 90
        0
 91
        0
 92
      512
 93
        0
300

 40
0.0
140
1.0
 94
        5
 62
     0
340
83A4
144
0.25
309
CONTENTFORMAT_END
171
     0
 94
        0
309
TABLEFORMAT_END
  1
CELLSTYLE_BEGIN
 90
        1
 91
        1
300
_TITLE
309
CELLSTYLE_END
300
CELLSTYLE
  1
TABLEFORMAT_BEGIN
 90
        5
170
     1
 91
        0
 92
        0
 62
   257
 93
        1
300
CONTENTFORMAT
  1
CONTENTFORMAT_BEGIN
 90
        0
 91
        0
 92
      512
 93
        0
300

 40
0.0
140
1.0
 94
        5
 62
     0
340
83A4
144
0.18
309
CONTENTFORMAT_END
171
     0
 94
        0
309
TABLEFORMAT_END
  1
CELLSTYLE_BEGIN
 90
        2
 91
        1
300
_HEADER
309
CELLSTYLE_END
300
CELLSTYLE
  1
TABLEFORMAT_BEGIN
 90
        5
170
     1
 91
        0
 92
        0
 62
   257
 93
        1
300
CONTENTFORMAT
  1
CONTENTFORMAT_BEGIN
 90
        0
 91
        0
 92
      512
 93
        0
300

 40
0.0
140
1.0
 94
        2
 62
     0
340
83A4
144
0.18
309
CONTENTFORMAT_END
171
     0
 94
        0
309
TABLEFORMAT_END
  1
CELLSTYLE_BEGIN
 90
        3
 91
        2
300
_DATA
309
CELLSTYLE_END
  0
XRECORD
  5
8588
102
{ACAD_REACTORS
330
8551
102
}
330
8551
100
AcDbXrecord
280
     1
102
ACAD_ROUNDTRIP_PRE2007_TABLESTYLE
 90
      512
 91
        0
  1

 92
      512
 93
        0
  2

 94
      512
 95
        0
  3

  0
XRECORD
  5
8563
102
{ACAD_REACTORS
330
8562
102
}
330
8562
100
AcDbXrecord
280
     1
102
RTVSPost2010Prop28
280
     1
102
RTVSPost2010PropOp28
 70
     1
102
RTVSPost2010Prop29
280
     1
102
RTVSPost2010PropOp29
 70
     1
102
RTVSPost2010Prop30
280
     0
102
RTVSPost2010PropOp30
 70
     1
102
RTVSPost2010Prop31
280
     0
102
RTVSPost2010PropOp31
 70
     1
102
RTVSPost2010Prop32
280
     0
102
RTVSPost2010PropOp32
 70
     1
102
RTVSPost2010Prop33
280
     0
102
RTVSPost2010PropOp33
 70
     1
102
RTVSPost2010Prop34
280
     0
102
RTVSPost2010PropOp34
 70
     1
102
RTVSPost2010Prop35
280
     0
102
RTVSPost2010PropOp35
 70
     1
102
RTVSPost2010Prop36
280
     0
102
RTVSPost2010PropOp36
 70
     1
102
RTVSPost2010Prop37
 90
       50
102
RTVSPost2010PropOp37
 70
     1
102
RTVSPost2010Prop38
140
0.0
102
RTVSPost2010PropOp38
 70
     1
102
RTVSPost2010Prop39
140
1.0
102
RTVSPost2010PropOp39
 70
     1
102
RTVSPost2010Prop40
 90
        0
102
RTVSPost2010PropOp40
 70
     1
102
RTVSPost2010Prop41ColorIndex
 90
       18
102
RTVSPost2010Prop41ColorRGB
 90
        0
102
RTVSPost2010PropOp41
 70
     1
102
RTVSPost2010Prop42
 90
       50
102
RTVSPost2010PropOp42
 70
     1
102
RTVSPost2010Prop43
 90
        3
102
RTVSPost2010PropOp43
 70
     1
102
RTVSPost2010Prop44ColorIndex
 90
        5
102
RTVSPost2010Prop44ColorRGB
 90
      255
102
RTVSPost2010PropOp44
 70
     1
102
RTVSPost2010Prop45
280
     0
102
RTVSPost2010PropOp45
 70
     1
102
RTVSPost2010Prop46
 90
       50
102
RTVSPost2010PropOp46
 70
     1
102
RTVSPost2010Prop47
 90
       50
102
RTVSPost2010PropOp47
 70
     1
102
RTVSPost2010Prop48
 90
       50
102
RTVSPost2010PropOp48
 70
     1
102
RTVSPost2010Prop49
280
     0
102
RTVSPost2010PropOp49
 70
     1
102
RTVSPost2010Prop50
 90
       50
102
RTVSPost2010PropOp50
 70
     1
102
RTVSPost2010Prop51ColorIndex
 90
      256
102
RTVSPost2010Prop51ColorRGB
 90
-16777216
102
RTVSPost2010PropOp51
 70
     0
102
RTVSPost2010Prop52
140
1.0
102
RTVSPost2010PropOp52
 70
     0
102
RTVSPost2010Prop53
 90
        2
102
RTVSPost2010PropOp53
 70
     1
102
RTVSPost2010Prop54
  1
strokes_ogs.tif
102
RTVSPost2010PropOp54
 70
     1
102
RTVSPost2010Prop55
280
     0
102
RTVSPost2010PropOp55
 70
     1
102
RTVSPost2010Prop56
140
1.0
102
RTVSPost2010PropOp56
 70
     1
102
RTVSPost2010Prop57
140
1.0
102
RTVSPost2010PropOp57
 70
     1
102
RTVSPropertyOp0
 70
     1
102
RTVSPropertyOp1
 70
     1
102
RTVSPropertyOp2
 70
     1
102
RTVSPropertyOp3
 70
     1
102
RTVSPropertyOp4
 70
     1
102
RTVSPropertyOp5
 70
     1
102
RTVSPropertyOp6
 70
     1
102
RTVSPropertyOp7
 70
     1
102
RTVSPropertyOp8
 70
     1
102
RTVSPropertyOp9
 70
     1
102
RTVSPropertyOp10
 70
     1
102
RTVSPropertyOp11
 70
     1
102
RTVSPropertyOp12
 70
     1
102
RTVSPropertyOp13
 70
     1
102
RTVSPropertyOp14
 70
     1
102
RTVSPropertyOp15
 70
     1
102
RTVSPropertyOp16
 70
     1
102
RTVSPropertyOp17
 70
     1
102
RTVSPropertyOp18
 70
     1
102
RTVSPropertyOp19
 70
     1
102
RTVSPropertyOp20
 70
     1
102
RTVSPropertyOp21
 70
     1
102
RTVSPropertyOp22
 70
     1
102
RTVSPropertyOp23
 70
     1
102
RTVSPropertyOp24
 70
     1
102
RTVSPropertyOp25
 70
     1
102
RTVSPropertyOp26
 70
     1
102
RTVSPropertyOp27
 70
     1
102
RTVSPropertyOp28
 70
     1
102
RTVSPropertyOp29
 70
     1
102
RTVSPropertyOp30
 70
     1
102
RTVSPropertyOp31
 70
     1
102
RTVSPropertyOp32
 70
     1
102
RTVSPropertyOp33
 70
     1
102
RTVSPropertyOp34
 70
     1
102
RTVSPropertyOp35
 70
     1
102
RTVSPropertyOp36
 70
     1
102
RTVSPropertyOp37
 70
     1
102
RTVSPropertyOp38
 70
     1
102
RTVSPropertyOp39
 70
     1
102
RTVSPropertyOp40
 70
     1
102
RTVSPropertyOp41
 70
     1
102
RTVSPropertyOp42
 70
     1
102
RTVSPropertyOp43
 70
     1
102
RTVSPropertyOp44
 70
     1
102
RTVSPropertyOp45
 70
     1
102
RTVSPropertyOp46
 70
     1
102
RTVSPropertyOp47
 70
     1
102
RTVSPropertyOp48
 70
     1
102
RTVSPropertyOp49
 70
     1
102
RTVSPropertyOp50
 70
     1
102
RTVSPropertyOp51
 70
     0
102
RTVSPropertyOp52
 70
     0
102
RTVSPropertyOp53
 70
     1
102
RTVSPropertyOp54
 70
     1
102
RTVSPropertyOp55
 70
     1
102
RTVSPropertyOp56
 70
     1
102
RTVSPropertyOp57
 70
     1
102
RTVSPropertyOp58
 70
     1
102
RTVSPropertyOp59
 70
     1
102
RTVSPropertyOp60
 70
     1
102
RTVSPropertyOp61
 70
     1
102
RTVSPropertyOp62
 70
     1
  0
XRECORD
  5
8561
102
{ACAD_REACTORS
330
8560
102
}
330
8560
100
AcDbXrecord
280
     1
102
RTVSPost2010Prop28
280
     0
102
RTVSPost2010PropOp28
 70
     1
102
RTVSPost2010Prop29
280
     1
102
RTVSPost2010PropOp29
 70
     1
102
RTVSPost2010Prop30
280
     1
102
RTVSPost2010PropOp30
 70
     1
102
RTVSPost2010Prop31
280
     0
102
RTVSPost2010PropOp31
 70
     1
102
RTVSPost2010Prop32
280
     0
102
RTVSPost2010PropOp32
 70
     1
102
RTVSPost2010Prop33
280
     0
102
RTVSPost2010PropOp33
 70
     1
102
RTVSPost2010Prop34
280
     0
102
RTVSPost2010PropOp34
 70
     1
102
RTVSPost2010Prop35
280
     0
102
RTVSPost2010PropOp35
 70
     1
102
RTVSPost2010Prop36
280
     0
102
RTVSPost2010PropOp36
 70
     1
102
RTVSPost2010Prop37
 90
       50
102
RTVSPost2010PropOp37
 70
     1
102
RTVSPost2010Prop38
140
0.0
102
RTVSPost2010PropOp38
 70
     1
102
RTVSPost2010Prop39
140
1.0
102
RTVSPost2010PropOp39
 70
     1
102
RTVSPost2010Prop40
 90
        0
102
RTVSPost2010PropOp40
 70
     1
102
RTVSPost2010Prop41ColorIndex
 90
       18
102
RTVSPost2010Prop41ColorRGB
 90
        0
102
RTVSPost2010PropOp41
 70
     1
102
RTVSPost2010Prop42
 90
       50
102
RTVSPost2010PropOp42
 70
     1
102
RTVSPost2010Prop43
 90
        3
102
RTVSPost2010PropOp43
 70
     1
102
RTVSPost2010Prop44ColorIndex
 90
        5
102
RTVSPost2010Prop44ColorRGB
 90
      255
102
RTVSPost2010PropOp44
 70
     1
102
RTVSPost2010Prop45
280
     0
102
RTVSPost2010PropOp45
 70
     1
102
RTVSPost2010Prop46
 90
       50
102
RTVSPost2010PropOp46
 70
     1
102
RTVSPost2010Prop47
 90
       50
102
RTVSPost2010PropOp47
 70
     1
102
RTVSPost2010Prop48
 90
       50
102
RTVSPost2010PropOp48
 70
     1
102
RTVSPost2010Prop49
280
     0
102
RTVSPost2010PropOp49
 70
     1
102
RTVSPost2010Prop50
 90
       50
102
RTVSPost2010PropOp50
 70
     1
102
RTVSPost2010Prop51ColorIndex
 90
      256
102
RTVSPost2010Prop51ColorRGB
 90
-16777216
102
RTVSPost2010PropOp51
 70
     0
102
RTVSPost2010Prop52
140
1.0
102
RTVSPost2010PropOp52
 70
     0
102
RTVSPost2010Prop53
 90
        2
102
RTVSPost2010PropOp53
 70
     1
102
RTVSPost2010Prop54
  1
strokes_ogs.tif
102
RTVSPost2010PropOp54
 70
     1
102
RTVSPost2010Prop55
280
     0
102
RTVSPost2010PropOp55
 70
     1
102
RTVSPost2010Prop56
140
1.0
102
RTVSPost2010PropOp56
 70
     1
102
RTVSPost2010Prop57
140
1.0
102
RTVSPost2010PropOp57
 70
     1
102
RTVSPropertyOp0
 70
     1
102
RTVSPropertyOp1
 70
     1
102
RTVSPropertyOp2
 70
     1
102
RTVSPropertyOp3
 70
     1
102
RTVSPropertyOp4
 70
     1
102
RTVSPropertyOp5
 70
     1
102
RTVSPropertyOp6
 70
     1
102
RTVSPropertyOp7
 70
     1
102
RTVSPropertyOp8
 70
     1
102
RTVSPropertyOp9
 70
     1
102
RTVSPropertyOp10
 70
     1
102
RTVSPropertyOp11
 70
     1
102
RTVSPropertyOp12
 70
     1
102
RTVSPropertyOp13
 70
     1
102
RTVSPropertyOp14
 70
     1
102
RTVSPropertyOp15
 70
     1
102
RTVSPropertyOp16
 70
     1
102
RTVSPropertyOp17
 70
     1
102
RTVSPropertyOp18
 70
     1
102
RTVSPropertyOp19
 70
     1
102
RTVSPropertyOp20
 70
     1
102
RTVSPropertyOp21
 70
     1
102
RTVSPropertyOp22
 70
     1
102
RTVSPropertyOp23
 70
     1
102
RTVSPropertyOp24
 70
     1
102
RTVSPropertyOp25
 70
     1
102
RTVSPropertyOp26
 70
     1
102
RTVSPropertyOp27
 70
     1
102
RTVSPropertyOp28
 70
     1
102
RTVSPropertyOp29
 70
     1
102
RTVSPropertyOp30
 70
     1
102
RTVSPropertyOp31
 70
     1
102
RTVSPropertyOp32
 70
     1
102
RTVSPropertyOp33
 70
     1
102
RTVSPropertyOp34
 70
     1
102
RTVSPropertyOp35
 70
     1
102
RTVSPropertyOp36
 70
     1
102
RTVSPropertyOp37
 70
     1
102
RTVSPropertyOp38
 70
     1
102
RTVSPropertyOp39
 70
     1
102
RTVSPropertyOp40
 70
     1
102
RTVSPropertyOp41
 70
     1
102
RTVSPropertyOp42
 70
     1
102
RTVSPropertyOp43
 70
     1
102
RTVSPropertyOp44
 70
     1
102
RTVSPropertyOp45
 70
     1
102
RTVSPropertyOp46
 70
     1
102
RTVSPropertyOp47
 70
     1
102
RTVSPropertyOp48
 70
     1
102
RTVSPropertyOp49
 70
     1
102
RTVSPropertyOp50
 70
     1
102
RTVSPropertyOp51
 70
     0
102
RTVSPropertyOp52
 70
     0
102
RTVSPropertyOp53
 70
     1
102
RTVSPropertyOp54
 70
     1
102
RTVSPropertyOp55
 70
     1
102
RTVSPropertyOp56
 70
     1
102
RTVSPropertyOp57
 70
     1
102
RTVSPropertyOp58
 70
     1
102
RTVSPropertyOp59
 70
     1
102
RTVSPropertyOp60
 70
     1
102
RTVSPropertyOp61
 70
     1
102
RTVSPropertyOp62
 70
     1
  0
XRECORD
  5
856F
102
{ACAD_REACTORS
330
856E
102
}
330
856E
100
AcDbXrecord
280
     1
102
RTVSPost2010Prop28
280
     0
102
RTVSPost2010PropOp28
 70
     1
102
RTVSPost2010Prop29
280
     1
102
RTVSPost2010PropOp29
 70
     1
102
RTVSPost2010Prop30
280
     1
102
RTVSPost2010PropOp30
 70
     1
102
RTVSPost2010Prop31
280
     0
102
RTVSPost2010PropOp31
 70
     1
102
RTVSPost2010Prop32
280
     0
102
RTVSPost2010PropOp32
 70
     1
102
RTVSPost2010Prop33
280
     0
102
RTVSPost2010PropOp33
 70
     1
102
RTVSPost2010Prop34
280
     0
102
RTVSPost2010PropOp34
 70
     1
102
RTVSPost2010Prop35
280
     0
102
RTVSPost2010PropOp35
 70
     1
102
RTVSPost2010Prop36
280
     0
102
RTVSPost2010PropOp36
 70
     1
102
RTVSPost2010Prop37
 90
       50
102
RTVSPost2010PropOp37
 70
     1
102
RTVSPost2010Prop38
140
0.0
102
RTVSPost2010PropOp38
 70
     1
102
RTVSPost2010Prop39
140
1.0
102
RTVSPost2010PropOp39
 70
     1
102
RTVSPost2010Prop40
 90
        0
102
RTVSPost2010PropOp40
 70
     1
102
RTVSPost2010Prop41ColorIndex
 90
       18
102
RTVSPost2010Prop41ColorRGB
 90
        0
102
RTVSPost2010PropOp41
 70
     1
102
RTVSPost2010Prop42
 90
       50
102
RTVSPost2010PropOp42
 70
     1
102
RTVSPost2010Prop43
 90
        3
102
RTVSPost2010PropOp43
 70
     1
102
RTVSPost2010Prop44ColorIndex
 90
        5
102
RTVSPost2010Prop44ColorRGB
 90
      255
102
RTVSPost2010PropOp44
 70
     1
102
RTVSPost2010Prop45
280
     0
102
RTVSPost2010PropOp45
 70
     1
102
RTVSPost2010Prop46
 90
       50
102
RTVSPost2010PropOp46
 70
     1
102
RTVSPost2010Prop47
 90
       50
102
RTVSPost2010PropOp47
 70
     1
102
RTVSPost2010Prop48
 90
       50
102
RTVSPost2010PropOp48
 70
     1
102
RTVSPost2010Prop49
280
     0
102
RTVSPost2010PropOp49
 70
     1
102
RTVSPost2010Prop50
 90
       50
102
RTVSPost2010PropOp50
 70
     1
102
RTVSPost2010Prop51ColorIndex
 90
      256
102
RTVSPost2010Prop51ColorRGB
 90
-16777216
102
RTVSPost2010PropOp51
 70
     0
102
RTVSPost2010Prop52
140
1.0
102
RTVSPost2010PropOp52
 70
     0
102
RTVSPost2010Prop53
 90
        2
102
RTVSPost2010PropOp53
 70
     1
102
RTVSPost2010Prop54
  1
strokes_ogs.tif
102
RTVSPost2010PropOp54
 70
     1
102
RTVSPost2010Prop55
280
     0
102
RTVSPost2010PropOp55
 70
     1
102
RTVSPost2010Prop56
140
1.0
102
RTVSPost2010PropOp56
 70
     1
102
RTVSPost2010Prop57
140
1.0
102
RTVSPost2010PropOp57
 70
     1
102
RTVSPropertyOp0
 70
     1
102
RTVSPropertyOp1
 70
     1
102
RTVSPropertyOp2
 70
     1
102
RTVSPropertyOp3
 70
     1
102
RTVSPropertyOp4
 70
     1
102
RTVSPropertyOp5
 70
     1
102
RTVSPropertyOp6
 70
     1
102
RTVSPropertyOp7
 70
     1
102
RTVSPropertyOp8
 70
     1
102
RTVSPropertyOp9
 70
     1
102
RTVSPropertyOp10
 70
     1
102
RTVSPropertyOp11
 70
     1
102
RTVSPropertyOp12
 70
     1
102
RTVSPropertyOp13
 70
     1
102
RTVSPropertyOp14
 70
     1
102
RTVSPropertyOp15
 70
     1
102
RTVSPropertyOp16
 70
     1
102
RTVSPropertyOp17
 70
     1
102
RTVSPropertyOp18
 70
     1
102
RTVSPropertyOp19
 70
     1
102
RTVSPropertyOp20
 70
     1
102
RTVSPropertyOp21
 70
     1
102
RTVSPropertyOp22
 70
     1
102
RTVSPropertyOp23
 70
     1
102
RTVSPropertyOp24
 70
     1
102
RTVSPropertyOp25
 70
     1
102
RTVSPropertyOp26
 70
     1
102
RTVSPropertyOp27
 70
     1
102
RTVSPropertyOp28
 70
     1
102
RTVSPropertyOp29
 70
     1
102
RTVSPropertyOp30
 70
     1
102
RTVSPropertyOp31
 70
     1
102
RTVSPropertyOp32
 70
     1
102
RTVSPropertyOp33
 70
     1
102
RTVSPropertyOp34
 70
     1
102
RTVSPropertyOp35
 70
     1
102
RTVSPropertyOp36
 70
     1
102
RTVSPropertyOp37
 70
     1
102
RTVSPropertyOp38
 70
     1
102
RTVSPropertyOp39
 70
     1
102
RTVSPropertyOp40
 70
     1
102
RTVSPropertyOp41
 70
     1
102
RTVSPropertyOp42
 70
     1
102
RTVSPropertyOp43
 70
     1
102
RTVSPropertyOp44
 70
     1
102
RTVSPropertyOp45
 70
     1
102
RTVSPropertyOp46
 70
     1
102
RTVSPropertyOp47
 70
     1
102
RTVSPropertyOp48
 70
     1
102
RTVSPropertyOp49
 70
     1
102
RTVSPropertyOp50
 70
     1
102
RTVSPropertyOp51
 70
     0
102
RTVSPropertyOp52
 70
     0
102
RTVSPropertyOp53
 70
     1
102
RTVSPropertyOp54
 70
     1
102
RTVSPropertyOp55
 70
     1
102
RTVSPropertyOp56
 70
     1
102
RTVSPropertyOp57
 70
     1
102
RTVSPropertyOp58
 70
     1
102
RTVSPropertyOp59
 70
     1
102
RTVSPropertyOp60
 70
     1
102
RTVSPropertyOp61
 70
     1
102
RTVSPropertyOp62
 70
     1
  0
XRECORD
  5
8577
102
{ACAD_REACTORS
330
8576
102
}
330
8576
100
AcDbXrecord
280
     1
102
RTVSPost2010Prop28
280
     0
102
RTVSPost2010PropOp28
 70
     1
102
RTVSPost2010Prop29
280
     1
102
RTVSPost2010PropOp29
 70
     1
102
RTVSPost2010Prop30
280
     1
102
RTVSPost2010PropOp30
 70
     1
102
RTVSPost2010Prop31
280
     0
102
RTVSPost2010PropOp31
 70
     1
102
RTVSPost2010Prop32
280
     0
102
RTVSPost2010PropOp32
 70
     1
102
RTVSPost2010Prop33
280
     0
102
RTVSPost2010PropOp33
 70
     1
102
RTVSPost2010Prop34
280
     0
102
RTVSPost2010PropOp34
 70
     1
102
RTVSPost2010Prop35
280
     0
102
RTVSPost2010PropOp35
 70
     1
102
RTVSPost2010Prop36
280
     0
102
RTVSPost2010PropOp36
 70
     1
102
RTVSPost2010Prop37
 90
       50
102
RTVSPost2010PropOp37
 70
     1
102
RTVSPost2010Prop38
140
0.0
102
RTVSPost2010PropOp38
 70
     1
102
RTVSPost2010Prop39
140
1.0
102
RTVSPost2010PropOp39
 70
     1
102
RTVSPost2010Prop40
 90
        0
102
RTVSPost2010PropOp40
 70
     1
102
RTVSPost2010Prop41ColorIndex
 90
       18
102
RTVSPost2010Prop41ColorRGB
 90
        0
102
RTVSPost2010PropOp41
 70
     1
102
RTVSPost2010Prop42
 90
       50
102
RTVSPost2010PropOp42
 70
     1
102
RTVSPost2010Prop43
 90
        3
102
RTVSPost2010PropOp43
 70
     1
102
RTVSPost2010Prop44ColorIndex
 90
        5
102
RTVSPost2010Prop44ColorRGB
 90
      255
102
RTVSPost2010PropOp44
 70
     1
102
RTVSPost2010Prop45
280
     0
102
RTVSPost2010PropOp45
 70
     1
102
RTVSPost2010Prop46
 90
       50
102
RTVSPost2010PropOp46
 70
     1
102
RTVSPost2010Prop47
 90
       50
102
RTVSPost2010PropOp47
 70
     1
102
RTVSPost2010Prop48
 90
       50
102
RTVSPost2010PropOp48
 70
     1
102
RTVSPost2010Prop49
280
     0
102
RTVSPost2010PropOp49
 70
     1
102
RTVSPost2010Prop50
 90
       50
102
RTVSPost2010PropOp50
 70
     1
102
RTVSPost2010Prop51ColorIndex
 90
      256
102
RTVSPost2010Prop51ColorRGB
 90
-16777216
102
RTVSPost2010PropOp51
 70
     0
102
RTVSPost2010Prop52
140
1.0
102
RTVSPost2010PropOp52
 70
     0
102
RTVSPost2010Prop53
 90
        2
102
RTVSPost2010PropOp53
 70
     1
102
RTVSPost2010Prop54
  1
strokes_ogs.tif
102
RTVSPost2010PropOp54
 70
     1
102
RTVSPost2010Prop55
280
     0
102
RTVSPost2010PropOp55
 70
     1
102
RTVSPost2010Prop56
140
1.0
102
RTVSPost2010PropOp56
 70
     1
102
RTVSPost2010Prop57
140
1.0
102
RTVSPost2010PropOp57
 70
     1
102
RTVSPropertyOp0
 70
     1
102
RTVSPropertyOp1
 70
     1
102
RTVSPropertyOp2
 70
     1
102
RTVSPropertyOp3
 70
     1
102
RTVSPropertyOp4
 70
     1
102
RTVSPropertyOp5
 70
     1
102
RTVSPropertyOp6
 70
     1
102
RTVSPropertyOp7
 70
     1
102
RTVSPropertyOp8
 70
     1
102
RTVSPropertyOp9
 70
     1
102
RTVSPropertyOp10
 70
     1
102
RTVSPropertyOp11
 70
     1
102
RTVSPropertyOp12
 70
     1
102
RTVSPropertyOp13
 70
     1
102
RTVSPropertyOp14
 70
     1
102
RTVSPropertyOp15
 70
     1
102
RTVSPropertyOp16
 70
     1
102
RTVSPropertyOp17
 70
     1
102
RTVSPropertyOp18
 70
     1
102
RTVSPropertyOp19
 70
     1
102
RTVSPropertyOp20
 70
     1
102
RTVSPropertyOp21
 70
     1
102
RTVSPropertyOp22
 70
     1
102
RTVSPropertyOp23
 70
     1
102
RTVSPropertyOp24
 70
     1
102
RTVSPropertyOp25
 70
     1
102
RTVSPropertyOp26
 70
     1
102
RTVSPropertyOp27
 70
     1
102
RTVSPropertyOp28
 70
     1
102
RTVSPropertyOp29
 70
     1
102
RTVSPropertyOp30
 70
     1
102
RTVSPropertyOp31
 70
     1
102
RTVSPropertyOp32
 70
     1
102
RTVSPropertyOp33
 70
     1
102
RTVSPropertyOp34
 70
     1
102
RTVSPropertyOp35
 70
     1
102
RTVSPropertyOp36
 70
     1
102
RTVSPropertyOp37
 70
     1
102
RTVSPropertyOp38
 70
     1
102
RTVSPropertyOp39
 70
     1
102
RTVSPropertyOp40
 70
     1
102
RTVSPropertyOp41
 70
     1
102
RTVSPropertyOp42
 70
     1
102
RTVSPropertyOp43
 70
     1
102
RTVSPropertyOp44
 70
     1
102
RTVSPropertyOp45
 70
     1
102
RTVSPropertyOp46
 70
     1
102
RTVSPropertyOp47
 70
     1
102
RTVSPropertyOp48
 70
     1
102
RTVSPropertyOp49
 70
     1
102
RTVSPropertyOp50
 70
     1
102
RTVSPropertyOp51
 70
     0
102
RTVSPropertyOp52
 70
     0
102
RTVSPropertyOp53
 70
     1
102
RTVSPropertyOp54
 70
     1
102
RTVSPropertyOp55
 70
     1
102
RTVSPropertyOp56
 70
     1
102
RTVSPropertyOp57
 70
     1
102
RTVSPropertyOp58
 70
     1
102
RTVSPropertyOp59
 70
     1
102
RTVSPropertyOp60
 70
     1
102
RTVSPropertyOp61
 70
     1
102
RTVSPropertyOp62
 70
     1
  0
XRECORD
  5
8569
102
{ACAD_REACTORS
330
8568
102
}
330
8568
100
AcDbXrecord
280
     1
102
RTVSPost2010Prop28
280
     0
102
RTVSPost2010PropOp28
 70
     1
102
RTVSPost2010Prop29
280
     1
102
RTVSPost2010PropOp29
 70
     1
102
RTVSPost2010Prop30
280
     1
102
RTVSPost2010PropOp30
 70
     1
102
RTVSPost2010Prop31
280
     0
102
RTVSPost2010PropOp31
 70
     1
102
RTVSPost2010Prop32
280
     0
102
RTVSPost2010PropOp32
 70
     1
102
RTVSPost2010Prop33
280
     0
102
RTVSPost2010PropOp33
 70
     1
102
RTVSPost2010Prop34
280
     0
102
RTVSPost2010PropOp34
 70
     1
102
RTVSPost2010Prop35
280
     0
102
RTVSPost2010PropOp35
 70
     1
102
RTVSPost2010Prop36
280
     0
102
RTVSPost2010PropOp36
 70
     1
102
RTVSPost2010Prop37
 90
       50
102
RTVSPost2010PropOp37
 70
     1
102
RTVSPost2010Prop38
140
0.0
102
RTVSPost2010PropOp38
 70
     1
102
RTVSPost2010Prop39
140
1.0
102
RTVSPost2010PropOp39
 70
     1
102
RTVSPost2010Prop40
 90
        0
102
RTVSPost2010PropOp40
 70
     1
102
RTVSPost2010Prop41ColorIndex
 90
       18
102
RTVSPost2010Prop41ColorRGB
 90
        0
102
RTVSPost2010PropOp41
 70
     1
102
RTVSPost2010Prop42
 90
       50
102
RTVSPost2010PropOp42
 70
     1
102
RTVSPost2010Prop43
 90
        3
102
RTVSPost2010PropOp43
 70
     1
102
RTVSPost2010Prop44ColorIndex
 90
        5
102
RTVSPost2010Prop44ColorRGB
 90
      255
102
RTVSPost2010PropOp44
 70
     1
102
RTVSPost2010Prop45
280
     0
102
RTVSPost2010PropOp45
 70
     1
102
RTVSPost2010Prop46
 90
       50
102
RTVSPost2010PropOp46
 70
     1
102
RTVSPost2010Prop47
 90
       50
102
RTVSPost2010PropOp47
 70
     1
102
RTVSPost2010Prop48
 90
       50
102
RTVSPost2010PropOp48
 70
     1
102
RTVSPost2010Prop49
280
     0
102
RTVSPost2010PropOp49
 70
     1
102
RTVSPost2010Prop50
 90
       50
102
RTVSPost2010PropOp50
 70
     1
102
RTVSPost2010Prop51ColorIndex
 90
      256
102
RTVSPost2010Prop51ColorRGB
 90
-16777216
102
RTVSPost2010PropOp51
 70
     0
102
RTVSPost2010Prop52
140
1.0
102
RTVSPost2010PropOp52
 70
     0
102
RTVSPost2010Prop53
 90
        2
102
RTVSPost2010PropOp53
 70
     1
102
RTVSPost2010Prop54
  1
strokes_ogs.tif
102
RTVSPost2010PropOp54
 70
     1
102
RTVSPost2010Prop55
280
     0
102
RTVSPost2010PropOp55
 70
     1
102
RTVSPost2010Prop56
140
1.0
102
RTVSPost2010PropOp56
 70
     1
102
RTVSPost2010Prop57
140
1.0
102
RTVSPost2010PropOp57
 70
     1
102
RTVSPropertyOp0
 70
     1
102
RTVSPropertyOp1
 70
     1
102
RTVSPropertyOp2
 70
     1
102
RTVSPropertyOp3
 70
     1
102
RTVSPropertyOp4
 70
     1
102
RTVSPropertyOp5
 70
     1
102
RTVSPropertyOp6
 70
     1
102
RTVSPropertyOp7
 70
     1
102
RTVSPropertyOp8
 70
     1
102
RTVSPropertyOp9
 70
     1
102
RTVSPropertyOp10
 70
     1
102
RTVSPropertyOp11
 70
     1
102
RTVSPropertyOp12
 70
     1
102
RTVSPropertyOp13
 70
     1
102
RTVSPropertyOp14
 70
     1
102
RTVSPropertyOp15
 70
     1
102
RTVSPropertyOp16
 70
     1
102
RTVSPropertyOp17
 70
     1
102
RTVSPropertyOp18
 70
     1
102
RTVSPropertyOp19
 70
     1
102
RTVSPropertyOp20
 70
     1
102
RTVSPropertyOp21
 70
     1
102
RTVSPropertyOp22
 70
     1
102
RTVSPropertyOp23
 70
     1
102
RTVSPropertyOp24
 70
     1
102
RTVSPropertyOp25
 70
     1
102
RTVSPropertyOp26
 70
     1
102
RTVSPropertyOp27
 70
     1
102
RTVSPropertyOp28
 70
     1
102
RTVSPropertyOp29
 70
     1
102
RTVSPropertyOp30
 70
     1
102
RTVSPropertyOp31
 70
     1
102
RTVSPropertyOp32
 70
     1
102
RTVSPropertyOp33
 70
     1
102
RTVSPropertyOp34
 70
     1
102
RTVSPropertyOp35
 70
     1
102
RTVSPropertyOp36
 70
     1
102
RTVSPropertyOp37
 70
     1
102
RTVSPropertyOp38
 70
     1
102
RTVSPropertyOp39
 70
     1
102
RTVSPropertyOp40
 70
     1
102
RTVSPropertyOp41
 70
     1
102
RTVSPropertyOp42
 70
     1
102
RTVSPropertyOp43
 70
     1
102
RTVSPropertyOp44
 70
     1
102
RTVSPropertyOp45
 70
     1
102
RTVSPropertyOp46
 70
     1
102
RTVSPropertyOp47
 70
     1
102
RTVSPropertyOp48
 70
     1
102
RTVSPropertyOp49
 70
     1
102
RTVSPropertyOp50
 70
     1
102
RTVSPropertyOp51
 70
     0
102
RTVSPropertyOp52
 70
     0
102
RTVSPropertyOp53
 70
     1
102
RTVSPropertyOp54
 70
     1
102
RTVSPropertyOp55
 70
     1
102
RTVSPropertyOp56
 70
     1
102
RTVSPropertyOp57
 70
     1
102
RTVSPropertyOp58
 70
     1
102
RTVSPropertyOp59
 70
     1
102
RTVSPropertyOp60
 70
     1
102
RTVSPropertyOp61
 70
     1
102
RTVSPropertyOp62
 70
     1
  0
XRECORD
  5
856D
102
{ACAD_REACTORS
330
856C
102
}
330
856C
100
AcDbXrecord
280
     1
102
RTVSPost2010Prop28
280
     0
102
RTVSPost2010PropOp28
 70
     1
102
RTVSPost2010Prop29
280
     1
102
RTVSPost2010PropOp29
 70
     1
102
RTVSPost2010Prop30
280
     1
102
RTVSPost2010PropOp30
 70
     1
102
RTVSPost2010Prop31
280
     0
102
RTVSPost2010PropOp31
 70
     1
102
RTVSPost2010Prop32
280
     0
102
RTVSPost2010PropOp32
 70
     1
102
RTVSPost2010Prop33
280
     0
102
RTVSPost2010PropOp33
 70
     1
102
RTVSPost2010Prop34
280
     0
102
RTVSPost2010PropOp34
 70
     1
102
RTVSPost2010Prop35
280
     0
102
RTVSPost2010PropOp35
 70
     1
102
RTVSPost2010Prop36
280
     0
102
RTVSPost2010PropOp36
 70
     1
102
RTVSPost2010Prop37
 90
       50
102
RTVSPost2010PropOp37
 70
     1
102
RTVSPost2010Prop38
140
0.0
102
RTVSPost2010PropOp38
 70
     1
102
RTVSPost2010Prop39
140
1.0
102
RTVSPost2010PropOp39
 70
     1
102
RTVSPost2010Prop40
 90
        0
102
RTVSPost2010PropOp40
 70
     1
102
RTVSPost2010Prop41ColorIndex
 90
       18
102
RTVSPost2010Prop41ColorRGB
 90
        0
102
RTVSPost2010PropOp41
 70
     1
102
RTVSPost2010Prop42
 90
       50
102
RTVSPost2010PropOp42
 70
     1
102
RTVSPost2010Prop43
 90
        3
102
RTVSPost2010PropOp43
 70
     1
102
RTVSPost2010Prop44ColorIndex
 90
        5
102
RTVSPost2010Prop44ColorRGB
 90
      255
102
RTVSPost2010PropOp44
 70
     1
102
RTVSPost2010Prop45
280
     0
102
RTVSPost2010PropOp45
 70
     1
102
RTVSPost2010Prop46
 90
       50
102
RTVSPost2010PropOp46
 70
     1
102
RTVSPost2010Prop47
 90
       50
102
RTVSPost2010PropOp47
 70
     1
102
RTVSPost2010Prop48
 90
       50
102
RTVSPost2010PropOp48
 70
     1
102
RTVSPost2010Prop49
280
     0
102
RTVSPost2010PropOp49
 70
     1
102
RTVSPost2010Prop50
 90
       50
102
RTVSPost2010PropOp50
 70
     1
102
RTVSPost2010Prop51ColorIndex
 90
      256
102
RTVSPost2010Prop51ColorRGB
 90
-16777216
102
RTVSPost2010PropOp51
 70
     0
102
RTVSPost2010Prop52
140
1.0
102
RTVSPost2010PropOp52
 70
     0
102
RTVSPost2010Prop53
 90
        2
102
RTVSPost2010PropOp53
 70
     1
102
RTVSPost2010Prop54
  1
strokes_ogs.tif
102
RTVSPost2010PropOp54
 70
     1
102
RTVSPost2010Prop55
280
     0
102
RTVSPost2010PropOp55
 70
     1
102
RTVSPost2010Prop56
140
1.0
102
RTVSPost2010PropOp56
 70
     1
102
RTVSPost2010Prop57
140
1.0
102
RTVSPost2010PropOp57
 70
     1
102
RTVSPropertyOp0
 70
     1
102
RTVSPropertyOp1
 70
     1
102
RTVSPropertyOp2
 70
     1
102
RTVSPropertyOp3
 70
     1
102
RTVSPropertyOp4
 70
     1
102
RTVSPropertyOp5
 70
     1
102
RTVSPropertyOp6
 70
     1
102
RTVSPropertyOp7
 70
     1
102
RTVSPropertyOp8
 70
     1
102
RTVSPropertyOp9
 70
     1
102
RTVSPropertyOp10
 70
     1
102
RTVSPropertyOp11
 70
     1
102
RTVSPropertyOp12
 70
     1
102
RTVSPropertyOp13
 70
     1
102
RTVSPropertyOp14
 70
     1
102
RTVSPropertyOp15
 70
     1
102
RTVSPropertyOp16
 70
     1
102
RTVSPropertyOp17
 70
     1
102
RTVSPropertyOp18
 70
     1
102
RTVSPropertyOp19
 70
     1
102
RTVSPropertyOp20
 70
     1
102
RTVSPropertyOp21
 70
     1
102
RTVSPropertyOp22
 70
     1
102
RTVSPropertyOp23
 70
     1
102
RTVSPropertyOp24
 70
     1
102
RTVSPropertyOp25
 70
     1
102
RTVSPropertyOp26
 70
     1
102
RTVSPropertyOp27
 70
     1
102
RTVSPropertyOp28
 70
     1
102
RTVSPropertyOp29
 70
     1
102
RTVSPropertyOp30
 70
     1
102
RTVSPropertyOp31
 70
     1
102
RTVSPropertyOp32
 70
     1
102
RTVSPropertyOp33
 70
     1
102
RTVSPropertyOp34
 70
     1
102
RTVSPropertyOp35
 70
     1
102
RTVSPropertyOp36
 70
     1
102
RTVSPropertyOp37
 70
     1
102
RTVSPropertyOp38
 70
     1
102
RTVSPropertyOp39
 70
     1
102
RTVSPropertyOp40
 70
     1
102
RTVSPropertyOp41
 70
     1
102
RTVSPropertyOp42
 70
     1
102
RTVSPropertyOp43
 70
     1
102
RTVSPropertyOp44
 70
     1
102
RTVSPropertyOp45
 70
     1
102
RTVSPropertyOp46
 70
     1
102
RTVSPropertyOp47
 70
     1
102
RTVSPropertyOp48
 70
     1
102
RTVSPropertyOp49
 70
     1
102
RTVSPropertyOp50
 70
     1
102
RTVSPropertyOp51
 70
     0
102
RTVSPropertyOp52
 70
     0
102
RTVSPropertyOp53
 70
     1
102
RTVSPropertyOp54
 70
     1
102
RTVSPropertyOp55
 70
     1
102
RTVSPropertyOp56
 70
     1
102
RTVSPropertyOp57
 70
     1
102
RTVSPropertyOp58
 70
     1
102
RTVSPropertyOp59
 70
     1
102
RTVSPropertyOp60
 70
     1
102
RTVSPropertyOp61
 70
     1
102
RTVSPropertyOp62
 70
     1
  0
XRECORD
  5
8587
102
{ACAD_REACTORS
330
8586
102
}
330
8586
100
AcDbXrecord
280
     1
102
RTVSPost2010Prop28
280
     0
102
RTVSPost2010PropOp28
 70
     1
102
RTVSPost2010Prop29
280
     1
102
RTVSPost2010PropOp29
 70
     1
102
RTVSPost2010Prop30
280
     1
102
RTVSPost2010PropOp30
 70
     1
102
RTVSPost2010Prop31
280
     0
102
RTVSPost2010PropOp31
 70
     1
102
RTVSPost2010Prop32
280
     0
102
RTVSPost2010PropOp32
 70
     1
102
RTVSPost2010Prop33
280
     0
102
RTVSPost2010PropOp33
 70
     1
102
RTVSPost2010Prop34
280
     0
102
RTVSPost2010PropOp34
 70
     1
102
RTVSPost2010Prop35
280
     0
102
RTVSPost2010PropOp35
 70
     1
102
RTVSPost2010Prop36
280
     0
102
RTVSPost2010PropOp36
 70
     1
102
RTVSPost2010Prop37
 90
       50
102
RTVSPost2010PropOp37
 70
     0
102
RTVSPost2010Prop38
140
0.0
102
RTVSPost2010PropOp38
 70
     0
102
RTVSPost2010Prop39
140
1.0
102
RTVSPost2010PropOp39
 70
     0
102
RTVSPost2010Prop40
 90
        0
102
RTVSPost2010PropOp40
 70
     0
102
RTVSPost2010Prop41ColorIndex
 90
       18
102
RTVSPost2010Prop41ColorRGB
 90
        0
102
RTVSPost2010PropOp41
 70
     0
102
RTVSPost2010Prop42
 90
       50
102
RTVSPost2010PropOp42
 70
     0
102
RTVSPost2010Prop43
 90
        3
102
RTVSPost2010PropOp43
 70
     0
102
RTVSPost2010Prop44ColorIndex
 90
        5
102
RTVSPost2010Prop44ColorRGB
 90
      255
102
RTVSPost2010PropOp44
 70
     0
102
RTVSPost2010Prop45
280
     0
102
RTVSPost2010PropOp45
 70
     1
102
RTVSPost2010Prop46
 90
       50
102
RTVSPost2010PropOp46
 70
     0
102
RTVSPost2010Prop47
 90
       50
102
RTVSPost2010PropOp47
 70
     0
102
RTVSPost2010Prop48
 90
       50
102
RTVSPost2010PropOp48
 70
     0
102
RTVSPost2010Prop49
280
     0
102
RTVSPost2010PropOp49
 70
     1
102
RTVSPost2010Prop50
 90
       50
102
RTVSPost2010PropOp50
 70
     0
102
RTVSPost2010Prop51ColorIndex
 90
      256
102
RTVSPost2010Prop51ColorRGB
 90
-16777216
102
RTVSPost2010PropOp51
 70
     0
102
RTVSPost2010Prop52
140
1.0
102
RTVSPost2010PropOp52
 70
     0
102
RTVSPost2010Prop53
 90
        2
102
RTVSPost2010PropOp53
 70
     0
102
RTVSPost2010Prop54
  1
strokes_ogs.tif
102
RTVSPost2010PropOp54
 70
     0
102
RTVSPost2010Prop55
280
     0
102
RTVSPost2010PropOp55
 70
     1
102
RTVSPost2010Prop56
140
1.0
102
RTVSPost2010PropOp56
 70
     0
102
RTVSPost2010Prop57
140
1.0
102
RTVSPost2010PropOp57
 70
     0
102
RTVSPropertyOp0
 70
     0
102
RTVSPropertyOp1
 70
     0
102
RTVSPropertyOp2
 70
     0
102
RTVSPropertyOp3
 70
     0
102
RTVSPropertyOp4
 70
     0
102
RTVSPropertyOp5
 70
     0
102
RTVSPropertyOp6
 70
     0
102
RTVSPropertyOp7
 70
     0
102
RTVSPropertyOp8
 70
     0
102
RTVSPropertyOp9
 70
     0
102
RTVSPropertyOp10
 70
     0
102
RTVSPropertyOp11
 70
     0
102
RTVSPropertyOp12
 70
     0
102
RTVSPropertyOp13
 70
     0
102
RTVSPropertyOp14
 70
     2
102
RTVSPropertyOp15
 70
     0
102
RTVSPropertyOp16
 70
     0
102
RTVSPropertyOp17
 70
     0
102
RTVSPropertyOp18
 70
     0
102
RTVSPropertyOp19
 70
     0
102
RTVSPropertyOp20
 70
     0
102
RTVSPropertyOp21
 70
     0
102
RTVSPropertyOp22
 70
     0
102
RTVSPropertyOp23
 70
     0
102
RTVSPropertyOp24
 70
     0
102
RTVSPropertyOp25
 70
     0
102
RTVSPropertyOp26
 70
     0
102
RTVSPropertyOp27
 70
     0
102
RTVSPropertyOp28
 70
     1
102
RTVSPropertyOp29
 70
     1
102
RTVSPropertyOp30
 70
     1
102
RTVSPropertyOp31
 70
     1
102
RTVSPropertyOp32
 70
     1
102
RTVSPropertyOp33
 70
     1
102
RTVSPropertyOp34
 70
     1
102
RTVSPropertyOp35
 70
     1
102
RTVSPropertyOp36
 70
     1
102
RTVSPropertyOp37
 70
     0
102
RTVSPropertyOp38
 70
     0
102
RTVSPropertyOp39
 70
     0
102
RTVSPropertyOp40
 70
     0
102
RTVSPropertyOp41
 70
     0
102
RTVSPropertyOp42
 70
     0
102
RTVSPropertyOp43
 70
     0
102
RTVSPropertyOp44
 70
     0
102
RTVSPropertyOp45
 70
     1
102
RTVSPropertyOp46
 70
     0
102
RTVSPropertyOp47
 70
     0
102
RTVSPropertyOp48
 70
     0
102
RTVSPropertyOp49
 70
     1
102
RTVSPropertyOp50
 70
     0
102
RTVSPropertyOp51
 70
     0
102
RTVSPropertyOp52
 70
     0
102
RTVSPropertyOp53
 70
     0
102
RTVSPropertyOp54
 70
     0
102
RTVSPropertyOp55
 70
     1
102
RTVSPropertyOp56
 70
     0
102
RTVSPropertyOp57
 70
     0
102
RTVSPropertyOp58
 70
     0
102
RTVSPropertyOp59
 70
     0
102
RTVSPropertyOp60
 70
     0
102
RTVSPropertyOp61
 70
     0
102
RTVSPropertyOp62
 70
     0
  0
XRECORD
  5
8575
102
{ACAD_REACTORS
330
8574
102
}
330
8574
100
AcDbXrecord
280
     1
102
RTVSPost2010Prop28
280
     0
102
RTVSPost2010PropOp28
 70
     1
102
RTVSPost2010Prop29
280
     1
102
RTVSPost2010PropOp29
 70
     1
102
RTVSPost2010Prop30
280
     1
102
RTVSPost2010PropOp30
 70
     1
102
RTVSPost2010Prop31
280
     0
102
RTVSPost2010PropOp31
 70
     1
102
RTVSPost2010Prop32
280
     0
102
RTVSPost2010PropOp32
 70
     1
102
RTVSPost2010Prop33
280
     0
102
RTVSPost2010PropOp33
 70
     1
102
RTVSPost2010Prop34
280
     0
102
RTVSPost2010PropOp34
 70
     1
102
RTVSPost2010Prop35
280
     0
102
RTVSPost2010PropOp35
 70
     1
102
RTVSPost2010Prop36
280
     0
102
RTVSPost2010PropOp36
 70
     1
102
RTVSPost2010Prop37
 90
       50
102
RTVSPost2010PropOp37
 70
     1
102
RTVSPost2010Prop38
140
0.0
102
RTVSPost2010PropOp38
 70
     1
102
RTVSPost2010Prop39
140
1.0
102
RTVSPost2010PropOp39
 70
     1
102
RTVSPost2010Prop40
 90
        0
102
RTVSPost2010PropOp40
 70
     1
102
RTVSPost2010Prop41ColorIndex
 90
       18
102
RTVSPost2010Prop41ColorRGB
 90
        0
102
RTVSPost2010PropOp41
 70
     1
102
RTVSPost2010Prop42
 90
       50
102
RTVSPost2010PropOp42
 70
     1
102
RTVSPost2010Prop43
 90
        3
102
RTVSPost2010PropOp43
 70
     1
102
RTVSPost2010Prop44ColorIndex
 90
        5
102
RTVSPost2010Prop44ColorRGB
 90
      255
102
RTVSPost2010PropOp44
 70
     1
102
RTVSPost2010Prop45
280
     0
102
RTVSPost2010PropOp45
 70
     1
102
RTVSPost2010Prop46
 90
       50
102
RTVSPost2010PropOp46
 70
     1
102
RTVSPost2010Prop47
 90
       50
102
RTVSPost2010PropOp47
 70
     1
102
RTVSPost2010Prop48
 90
       50
102
RTVSPost2010PropOp48
 70
     1
102
RTVSPost2010Prop49
280
     0
102
RTVSPost2010PropOp49
 70
     1
102
RTVSPost2010Prop50
 90
       50
102
RTVSPost2010PropOp50
 70
     1
102
RTVSPost2010Prop51ColorIndex
 90
      256
102
RTVSPost2010Prop51ColorRGB
 90
-16777216
102
RTVSPost2010PropOp51
 70
     0
102
RTVSPost2010Prop52
140
1.0
102
RTVSPost2010PropOp52
 70
     0
102
RTVSPost2010Prop53
 90
        2
102
RTVSPost2010PropOp53
 70
     1
102
RTVSPost2010Prop54
  1
strokes_ogs.tif
102
RTVSPost2010PropOp54
 70
     1
102
RTVSPost2010Prop55
280
     0
102
RTVSPost2010PropOp55
 70
     1
102
RTVSPost2010Prop56
140
1.0
102
RTVSPost2010PropOp56
 70
     1
102
RTVSPost2010Prop57
140
1.0
102
RTVSPost2010PropOp57
 70
     1
102
RTVSPropertyOp0
 70
     1
102
RTVSPropertyOp1
 70
     1
102
RTVSPropertyOp2
 70
     1
102
RTVSPropertyOp3
 70
     1
102
RTVSPropertyOp4
 70
     1
102
RTVSPropertyOp5
 70
     1
102
RTVSPropertyOp6
 70
     1
102
RTVSPropertyOp7
 70
     1
102
RTVSPropertyOp8
 70
     1
102
RTVSPropertyOp9
 70
     1
102
RTVSPropertyOp10
 70
     1
102
RTVSPropertyOp11
 70
     1
102
RTVSPropertyOp12
 70
     1
102
RTVSPropertyOp13
 70
     1
102
RTVSPropertyOp14
 70
     1
102
RTVSPropertyOp15
 70
     1
102
RTVSPropertyOp16
 70
     1
102
RTVSPropertyOp17
 70
     1
102
RTVSPropertyOp18
 70
     1
102
RTVSPropertyOp19
 70
     1
102
RTVSPropertyOp20
 70
     1
102
RTVSPropertyOp21
 70
     1
102
RTVSPropertyOp22
 70
     1
102
RTVSPropertyOp23
 70
     1
102
RTVSPropertyOp24
 70
     1
102
RTVSPropertyOp25
 70
     1
102
RTVSPropertyOp26
 70
     1
102
RTVSPropertyOp27
 70
     1
102
RTVSPropertyOp28
 70
     1
102
RTVSPropertyOp29
 70
     1
102
RTVSPropertyOp30
 70
     1
102
RTVSPropertyOp31
 70
     1
102
RTVSPropertyOp32
 70
     1
102
RTVSPropertyOp33
 70
     1
102
RTVSPropertyOp34
 70
     1
102
RTVSPropertyOp35
 70
     1
102
RTVSPropertyOp36
 70
     1
102
RTVSPropertyOp37
 70
     1
102
RTVSPropertyOp38
 70
     1
102
RTVSPropertyOp39
 70
     1
102
RTVSPropertyOp40
 70
     1
102
RTVSPropertyOp41
 70
     1
102
RTVSPropertyOp42
 70
     1
102
RTVSPropertyOp43
 70
     1
102
RTVSPropertyOp44
 70
     1
102
RTVSPropertyOp45
 70
     1
102
RTVSPropertyOp46
 70
     1
102
RTVSPropertyOp47
 70
     1
102
RTVSPropertyOp48
 70
     1
102
RTVSPropertyOp49
 70
     1
102
RTVSPropertyOp50
 70
     1
102
RTVSPropertyOp51
 70
     0
102
RTVSPropertyOp52
 70
     0
102
RTVSPropertyOp53
 70
     1
102
RTVSPropertyOp54
 70
     1
102
RTVSPropertyOp55
 70
     1
102
RTVSPropertyOp56
 70
     1
102
RTVSPropertyOp57
 70
     1
102
RTVSPropertyOp58
 70
     1
102
RTVSPropertyOp59
 70
     1
102
RTVSPropertyOp60
 70
     1
102
RTVSPropertyOp61
 70
     1
102
RTVSPropertyOp62
 70
     1
  0
XRECORD
  5
8559
102
{ACAD_REACTORS
330
8558
102
}
330
8558
100
AcDbXrecord
280
     1
102
RTVSPost2010Prop28
280
     0
102
RTVSPost2010PropOp28
 70
     1
102
RTVSPost2010Prop29
280
     1
102
RTVSPost2010PropOp29
 70
     1
102
RTVSPost2010Prop30
280
     1
102
RTVSPost2010PropOp30
 70
     1
102
RTVSPost2010Prop31
280
     0
102
RTVSPost2010PropOp31
 70
     1
102
RTVSPost2010Prop32
280
     0
102
RTVSPost2010PropOp32
 70
     1
102
RTVSPost2010Prop33
280
     0
102
RTVSPost2010PropOp33
 70
     1
102
RTVSPost2010Prop34
280
     0
102
RTVSPost2010PropOp34
 70
     1
102
RTVSPost2010Prop35
280
     0
102
RTVSPost2010PropOp35
 70
     1
102
RTVSPost2010Prop36
280
     0
102
RTVSPost2010PropOp36
 70
     1
102
RTVSPost2010Prop37
 90
       50
102
RTVSPost2010PropOp37
 70
     1
102
RTVSPost2010Prop38
140
0.0
102
RTVSPost2010PropOp38
 70
     1
102
RTVSPost2010Prop39
140
1.0
102
RTVSPost2010PropOp39
 70
     1
102
RTVSPost2010Prop40
 90
        0
102
RTVSPost2010PropOp40
 70
     1
102
RTVSPost2010Prop41ColorIndex
 90
       18
102
RTVSPost2010Prop41ColorRGB
 90
        0
102
RTVSPost2010PropOp41
 70
     1
102
RTVSPost2010Prop42
 90
       50
102
RTVSPost2010PropOp42
 70
     1
102
RTVSPost2010Prop43
 90
        3
102
RTVSPost2010PropOp43
 70
     1
102
RTVSPost2010Prop44ColorIndex
 90
        5
102
RTVSPost2010Prop44ColorRGB
 90
      255
102
RTVSPost2010PropOp44
 70
     1
102
RTVSPost2010Prop45
280
     0
102
RTVSPost2010PropOp45
 70
     1
102
RTVSPost2010Prop46
 90
       50
102
RTVSPost2010PropOp46
 70
     1
102
RTVSPost2010Prop47
 90
       50
102
RTVSPost2010PropOp47
 70
     1
102
RTVSPost2010Prop48
 90
       50
102
RTVSPost2010PropOp48
 70
     1
102
RTVSPost2010Prop49
280
     0
102
RTVSPost2010PropOp49
 70
     1
102
RTVSPost2010Prop50
 90
       50
102
RTVSPost2010PropOp50
 70
     1
102
RTVSPost2010Prop51ColorIndex
 90
      256
102
RTVSPost2010Prop51ColorRGB
 90
-16777216
102
RTVSPost2010PropOp51
 70
     0
102
RTVSPost2010Prop52
140
1.0
102
RTVSPost2010PropOp52
 70
     0
102
RTVSPost2010Prop53
 90
        2
102
RTVSPost2010PropOp53
 70
     1
102
RTVSPost2010Prop54
  1
strokes_ogs.tif
102
RTVSPost2010PropOp54
 70
     1
102
RTVSPost2010Prop55
280
     0
102
RTVSPost2010PropOp55
 70
     1
102
RTVSPost2010Prop56
140
1.0
102
RTVSPost2010PropOp56
 70
     1
102
RTVSPost2010Prop57
140
1.0
102
RTVSPost2010PropOp57
 70
     1
102
RTVSPropertyOp0
 70
     1
102
RTVSPropertyOp1
 70
     1
102
RTVSPropertyOp2
 70
     1
102
RTVSPropertyOp3
 70
     1
102
RTVSPropertyOp4
 70
     1
102
RTVSPropertyOp5
 70
     1
102
RTVSPropertyOp6
 70
     1
102
RTVSPropertyOp7
 70
     1
102
RTVSPropertyOp8
 70
     1
102
RTVSPropertyOp9
 70
     1
102
RTVSPropertyOp10
 70
     1
102
RTVSPropertyOp11
 70
     1
102
RTVSPropertyOp12
 70
     1
102
RTVSPropertyOp13
 70
     1
102
RTVSPropertyOp14
 70
     1
102
RTVSPropertyOp15
 70
     1
102
RTVSPropertyOp16
 70
     1
102
RTVSPropertyOp17
 70
     1
102
RTVSPropertyOp18
 70
     1
102
RTVSPropertyOp19
 70
     1
102
RTVSPropertyOp20
 70
     1
102
RTVSPropertyOp21
 70
     1
102
RTVSPropertyOp22
 70
     1
102
RTVSPropertyOp23
 70
     1
102
RTVSPropertyOp24
 70
     1
102
RTVSPropertyOp25
 70
     1
102
RTVSPropertyOp26
 70
     1
102
RTVSPropertyOp27
 70
     1
102
RTVSPropertyOp28
 70
     1
102
RTVSPropertyOp29
 70
     1
102
RTVSPropertyOp30
 70
     1
102
RTVSPropertyOp31
 70
     1
102
RTVSPropertyOp32
 70
     1
102
RTVSPropertyOp33
 70
     1
102
RTVSPropertyOp34
 70
     1
102
RTVSPropertyOp35
 70
     1
102
RTVSPropertyOp36
 70
     1
102
RTVSPropertyOp37
 70
     1
102
RTVSPropertyOp38
 70
     1
102
RTVSPropertyOp39
 70
     1
102
RTVSPropertyOp40
 70
     1
102
RTVSPropertyOp41
 70
     1
102
RTVSPropertyOp42
 70
     1
102
RTVSPropertyOp43
 70
     1
102
RTVSPropertyOp44
 70
     1
102
RTVSPropertyOp45
 70
     1
102
RTVSPropertyOp46
 70
     1
102
RTVSPropertyOp47
 70
     1
102
RTVSPropertyOp48
 70
     1
102
RTVSPropertyOp49
 70
     1
102
RTVSPropertyOp50
 70
     1
102
RTVSPropertyOp51
 70
     0
102
RTVSPropertyOp52
 70
     0
102
RTVSPropertyOp53
 70
     1
102
RTVSPropertyOp54
 70
     1
102
RTVSPropertyOp55
 70
     1
102
RTVSPropertyOp56
 70
     1
102
RTVSPropertyOp57
 70
     1
102
RTVSPropertyOp58
 70
     1
102
RTVSPropertyOp59
 70
     1
102
RTVSPropertyOp60
 70
     1
102
RTVSPropertyOp61
 70
     1
102
RTVSPropertyOp62
 70
     1
  0
XRECORD
  5
855B
102
{ACAD_REACTORS
330
855A
102
}
330
855A
100
AcDbXrecord
280
     1
102
RTVSPost2010Prop28
280
     0
102
RTVSPost2010PropOp28
 70
     1
102
RTVSPost2010Prop29
280
     1
102
RTVSPost2010PropOp29
 70
     1
102
RTVSPost2010Prop30
280
     1
102
RTVSPost2010PropOp30
 70
     1
102
RTVSPost2010Prop31
280
     0
102
RTVSPost2010PropOp31
 70
     1
102
RTVSPost2010Prop32
280
     0
102
RTVSPost2010PropOp32
 70
     1
102
RTVSPost2010Prop33
280
     0
102
RTVSPost2010PropOp33
 70
     1
102
RTVSPost2010Prop34
280
     0
102
RTVSPost2010PropOp34
 70
     1
102
RTVSPost2010Prop35
280
     0
102
RTVSPost2010PropOp35
 70
     1
102
RTVSPost2010Prop36
280
     0
102
RTVSPost2010PropOp36
 70
     1
102
RTVSPost2010Prop37
 90
       50
102
RTVSPost2010PropOp37
 70
     1
102
RTVSPost2010Prop38
140
0.0
102
RTVSPost2010PropOp38
 70
     1
102
RTVSPost2010Prop39
140
1.0
102
RTVSPost2010PropOp39
 70
     1
102
RTVSPost2010Prop40
 90
        0
102
RTVSPost2010PropOp40
 70
     1
102
RTVSPost2010Prop41ColorIndex
 90
       18
102
RTVSPost2010Prop41ColorRGB
 90
        0
102
RTVSPost2010PropOp41
 70
     1
102
RTVSPost2010Prop42
 90
       50
102
RTVSPost2010PropOp42
 70
     1
102
RTVSPost2010Prop43
 90
        3
102
RTVSPost2010PropOp43
 70
     1
102
RTVSPost2010Prop44ColorIndex
 90
        5
102
RTVSPost2010Prop44ColorRGB
 90
      255
102
RTVSPost2010PropOp44
 70
     1
102
RTVSPost2010Prop45
280
     0
102
RTVSPost2010PropOp45
 70
     1
102
RTVSPost2010Prop46
 90
       50
102
RTVSPost2010PropOp46
 70
     1
102
RTVSPost2010Prop47
 90
       50
102
RTVSPost2010PropOp47
 70
     1
102
RTVSPost2010Prop48
 90
       50
102
RTVSPost2010PropOp48
 70
     1
102
RTVSPost2010Prop49
280
     0
102
RTVSPost2010PropOp49
 70
     1
102
RTVSPost2010Prop50
 90
       50
102
RTVSPost2010PropOp50
 70
     1
102
RTVSPost2010Prop51ColorIndex
 90
      256
102
RTVSPost2010Prop51ColorRGB
 90
-16777216
102
RTVSPost2010PropOp51
 70
     0
102
RTVSPost2010Prop52
140
1.0
102
RTVSPost2010PropOp52
 70
     0
102
RTVSPost2010Prop53
 90
        2
102
RTVSPost2010PropOp53
 70
     1
102
RTVSPost2010Prop54
  1
strokes_ogs.tif
102
RTVSPost2010PropOp54
 70
     1
102
RTVSPost2010Prop55
280
     0
102
RTVSPost2010PropOp55
 70
     1
102
RTVSPost2010Prop56
140
1.0
102
RTVSPost2010PropOp56
 70
     1
102
RTVSPost2010Prop57
140
1.0
102
RTVSPost2010PropOp57
 70
     1
102
RTVSPropertyOp0
 70
     1
102
RTVSPropertyOp1
 70
     1
102
RTVSPropertyOp2
 70
     1
102
RTVSPropertyOp3
 70
     1
102
RTVSPropertyOp4
 70
     1
102
RTVSPropertyOp5
 70
     1
102
RTVSPropertyOp6
 70
     1
102
RTVSPropertyOp7
 70
     1
102
RTVSPropertyOp8
 70
     1
102
RTVSPropertyOp9
 70
     1
102
RTVSPropertyOp10
 70
     1
102
RTVSPropertyOp11
 70
     1
102
RTVSPropertyOp12
 70
     1
102
RTVSPropertyOp13
 70
     1
102
RTVSPropertyOp14
 70
     1
102
RTVSPropertyOp15
 70
     1
102
RTVSPropertyOp16
 70
     1
102
RTVSPropertyOp17
 70
     1
102
RTVSPropertyOp18
 70
     1
102
RTVSPropertyOp19
 70
     1
102
RTVSPropertyOp20
 70
     1
102
RTVSPropertyOp21
 70
     1
102
RTVSPropertyOp22
 70
     1
102
RTVSPropertyOp23
 70
     1
102
RTVSPropertyOp24
 70
     1
102
RTVSPropertyOp25
 70
     1
102
RTVSPropertyOp26
 70
     1
102
RTVSPropertyOp27
 70
     1
102
RTVSPropertyOp28
 70
     1
102
RTVSPropertyOp29
 70
     1
102
RTVSPropertyOp30
 70
     1
102
RTVSPropertyOp31
 70
     1
102
RTVSPropertyOp32
 70
     1
102
RTVSPropertyOp33
 70
     1
102
RTVSPropertyOp34
 70
     1
102
RTVSPropertyOp35
 70
     1
102
RTVSPropertyOp36
 70
     1
102
RTVSPropertyOp37
 70
     1
102
RTVSPropertyOp38
 70
     1
102
RTVSPropertyOp39
 70
     1
102
RTVSPropertyOp40
 70
     1
102
RTVSPropertyOp41
 70
     1
102
RTVSPropertyOp42
 70
     1
102
RTVSPropertyOp43
 70
     1
102
RTVSPropertyOp44
 70
     1
102
RTVSPropertyOp45
 70
     1
102
RTVSPropertyOp46
 70
     1
102
RTVSPropertyOp47
 70
     1
102
RTVSPropertyOp48
 70
     1
102
RTVSPropertyOp49
 70
     1
102
RTVSPropertyOp50
 70
     1
102
RTVSPropertyOp51
 70
     0
102
RTVSPropertyOp52
 70
     0
102
RTVSPropertyOp53
 70
     1
102
RTVSPropertyOp54
 70
     1
102
RTVSPropertyOp55
 70
     1
102
RTVSPropertyOp56
 70
     1
102
RTVSPropertyOp57
 70
     1
102
RTVSPropertyOp58
 70
     1
102
RTVSPropertyOp59
 70
     1
102
RTVSPropertyOp60
 70
     1
102
RTVSPropertyOp61
 70
     1
102
RTVSPropertyOp62
 70
     1
  0
XRECORD
  5
855D
102
{ACAD_REACTORS
330
855C
102
}
330
855C
100
AcDbXrecord
280
     1
102
RTVSPost2010Prop28
280
     0
102
RTVSPost2010PropOp28
 70
     1
102
RTVSPost2010Prop29
280
     1
102
RTVSPost2010PropOp29
 70
     1
102
RTVSPost2010Prop30
280
     1
102
RTVSPost2010PropOp30
 70
     1
102
RTVSPost2010Prop31
280
     0
102
RTVSPost2010PropOp31
 70
     1
102
RTVSPost2010Prop32
280
     0
102
RTVSPost2010PropOp32
 70
     1
102
RTVSPost2010Prop33
280
     0
102
RTVSPost2010PropOp33
 70
     1
102
RTVSPost2010Prop34
280
     0
102
RTVSPost2010PropOp34
 70
     1
102
RTVSPost2010Prop35
280
     0
102
RTVSPost2010PropOp35
 70
     1
102
RTVSPost2010Prop36
280
     0
102
RTVSPost2010PropOp36
 70
     1
102
RTVSPost2010Prop37
 90
       50
102
RTVSPost2010PropOp37
 70
     1
102
RTVSPost2010Prop38
140
0.0
102
RTVSPost2010PropOp38
 70
     1
102
RTVSPost2010Prop39
140
1.0
102
RTVSPost2010PropOp39
 70
     1
102
RTVSPost2010Prop40
 90
        0
102
RTVSPost2010PropOp40
 70
     1
102
RTVSPost2010Prop41ColorIndex
 90
       18
102
RTVSPost2010Prop41ColorRGB
 90
        0
102
RTVSPost2010PropOp41
 70
     1
102
RTVSPost2010Prop42
 90
       50
102
RTVSPost2010PropOp42
 70
     1
102
RTVSPost2010Prop43
 90
        3
102
RTVSPost2010PropOp43
 70
     1
102
RTVSPost2010Prop44ColorIndex
 90
        5
102
RTVSPost2010Prop44ColorRGB
 90
      255
102
RTVSPost2010PropOp44
 70
     1
102
RTVSPost2010Prop45
280
     0
102
RTVSPost2010PropOp45
 70
     1
102
RTVSPost2010Prop46
 90
       50
102
RTVSPost2010PropOp46
 70
     1
102
RTVSPost2010Prop47
 90
       50
102
RTVSPost2010PropOp47
 70
     1
102
RTVSPost2010Prop48
 90
       50
102
RTVSPost2010PropOp48
 70
     1
102
RTVSPost2010Prop49
280
     0
102
RTVSPost2010PropOp49
 70
     1
102
RTVSPost2010Prop50
 90
       50
102
RTVSPost2010PropOp50
 70
     1
102
RTVSPost2010Prop51ColorIndex
 90
      256
102
RTVSPost2010Prop51ColorRGB
 90
-16777216
102
RTVSPost2010PropOp51
 70
     0
102
RTVSPost2010Prop52
140
1.0
102
RTVSPost2010PropOp52
 70
     0
102
RTVSPost2010Prop53
 90
        2
102
RTVSPost2010PropOp53
 70
     1
102
RTVSPost2010Prop54
  1
strokes_ogs.tif
102
RTVSPost2010PropOp54
 70
     1
102
RTVSPost2010Prop55
280
     0
102
RTVSPost2010PropOp55
 70
     1
102
RTVSPost2010Prop56
140
1.0
102
RTVSPost2010PropOp56
 70
     1
102
RTVSPost2010Prop57
140
1.0
102
RTVSPost2010PropOp57
 70
     1
102
RTVSPropertyOp0
 70
     1
102
RTVSPropertyOp1
 70
     1
102
RTVSPropertyOp2
 70
     1
102
RTVSPropertyOp3
 70
     1
102
RTVSPropertyOp4
 70
     1
102
RTVSPropertyOp5
 70
     1
102
RTVSPropertyOp6
 70
     1
102
RTVSPropertyOp7
 70
     1
102
RTVSPropertyOp8
 70
     1
102
RTVSPropertyOp9
 70
     1
102
RTVSPropertyOp10
 70
     1
102
RTVSPropertyOp11
 70
     1
102
RTVSPropertyOp12
 70
     1
102
RTVSPropertyOp13
 70
     1
102
RTVSPropertyOp14
 70
     1
102
RTVSPropertyOp15
 70
     1
102
RTVSPropertyOp16
 70
     1
102
RTVSPropertyOp17
 70
     1
102
RTVSPropertyOp18
 70
     1
102
RTVSPropertyOp19
 70
     1
102
RTVSPropertyOp20
 70
     1
102
RTVSPropertyOp21
 70
     1
102
RTVSPropertyOp22
 70
     1
102
RTVSPropertyOp23
 70
     1
102
RTVSPropertyOp24
 70
     1
102
RTVSPropertyOp25
 70
     1
102
RTVSPropertyOp26
 70
     1
102
RTVSPropertyOp27
 70
     1
102
RTVSPropertyOp28
 70
     1
102
RTVSPropertyOp29
 70
     1
102
RTVSPropertyOp30
 70
     1
102
RTVSPropertyOp31
 70
     1
102
RTVSPropertyOp32
 70
     1
102
RTVSPropertyOp33
 70
     1
102
RTVSPropertyOp34
 70
     1
102
RTVSPropertyOp35
 70
     1
102
RTVSPropertyOp36
 70
     1
102
RTVSPropertyOp37
 70
     1
102
RTVSPropertyOp38
 70
     1
102
RTVSPropertyOp39
 70
     1
102
RTVSPropertyOp40
 70
     1
102
RTVSPropertyOp41
 70
     1
102
RTVSPropertyOp42
 70
     1
102
RTVSPropertyOp43
 70
     1
102
RTVSPropertyOp44
 70
     1
102
RTVSPropertyOp45
 70
     1
102
RTVSPropertyOp46
 70
     1
102
RTVSPropertyOp47
 70
     1
102
RTVSPropertyOp48
 70
     1
102
RTVSPropertyOp49
 70
     1
102
RTVSPropertyOp50
 70
     1
102
RTVSPropertyOp51
 70
     0
102
RTVSPropertyOp52
 70
     0
102
RTVSPropertyOp53
 70
     1
102
RTVSPropertyOp54
 70
     1
102
RTVSPropertyOp55
 70
     1
102
RTVSPropertyOp56
 70
     1
102
RTVSPropertyOp57
 70
     1
102
RTVSPropertyOp58
 70
     1
102
RTVSPropertyOp59
 70
     1
102
RTVSPropertyOp60
 70
     1
102
RTVSPropertyOp61
 70
     1
102
RTVSPropertyOp62
 70
     1
  0
XRECORD
  5
855F
102
{ACAD_REACTORS
330
855E
102
}
330
855E
100
AcDbXrecord
280
     1
102
RTVSPost2010Prop28
280
     0
102
RTVSPost2010PropOp28
 70
     1
102
RTVSPost2010Prop29
280
     1
102
RTVSPost2010PropOp29
 70
     1
102
RTVSPost2010Prop30
280
     1
102
RTVSPost2010PropOp30
 70
     1
102
RTVSPost2010Prop31
280
     0
102
RTVSPost2010PropOp31
 70
     1
102
RTVSPost2010Prop32
280
     0
102
RTVSPost2010PropOp32
 70
     1
102
RTVSPost2010Prop33
280
     0
102
RTVSPost2010PropOp33
 70
     1
102
RTVSPost2010Prop34
280
     0
102
RTVSPost2010PropOp34
 70
     1
102
RTVSPost2010Prop35
280
     0
102
RTVSPost2010PropOp35
 70
     1
102
RTVSPost2010Prop36
280
     0
102
RTVSPost2010PropOp36
 70
     1
102
RTVSPost2010Prop37
 90
       50
102
RTVSPost2010PropOp37
 70
     1
102
RTVSPost2010Prop38
140
0.0
102
RTVSPost2010PropOp38
 70
     1
102
RTVSPost2010Prop39
140
1.0
102
RTVSPost2010PropOp39
 70
     1
102
RTVSPost2010Prop40
 90
        0
102
RTVSPost2010PropOp40
 70
     1
102
RTVSPost2010Prop41ColorIndex
 90
       18
102
RTVSPost2010Prop41ColorRGB
 90
        0
102
RTVSPost2010PropOp41
 70
     1
102
RTVSPost2010Prop42
 90
       50
102
RTVSPost2010PropOp42
 70
     1
102
RTVSPost2010Prop43
 90
        3
102
RTVSPost2010PropOp43
 70
     1
102
RTVSPost2010Prop44ColorIndex
 90
        5
102
RTVSPost2010Prop44ColorRGB
 90
      255
102
RTVSPost2010PropOp44
 70
     1
102
RTVSPost2010Prop45
280
     0
102
RTVSPost2010PropOp45
 70
     1
102
RTVSPost2010Prop46
 90
       50
102
RTVSPost2010PropOp46
 70
     1
102
RTVSPost2010Prop47
 90
       50
102
RTVSPost2010PropOp47
 70
     1
102
RTVSPost2010Prop48
 90
       50
102
RTVSPost2010PropOp48
 70
     1
102
RTVSPost2010Prop49
280
     0
102
RTVSPost2010PropOp49
 70
     1
102
RTVSPost2010Prop50
 90
       50
102
RTVSPost2010PropOp50
 70
     1
102
RTVSPost2010Prop51ColorIndex
 90
      256
102
RTVSPost2010Prop51ColorRGB
 90
-16777216
102
RTVSPost2010PropOp51
 70
     0
102
RTVSPost2010Prop52
140
1.0
102
RTVSPost2010PropOp52
 70
     0
102
RTVSPost2010Prop53
 90
        2
102
RTVSPost2010PropOp53
 70
     1
102
RTVSPost2010Prop54
  1
strokes_ogs.tif
102
RTVSPost2010PropOp54
 70
     1
102
RTVSPost2010Prop55
280
     0
102
RTVSPost2010PropOp55
 70
     1
102
RTVSPost2010Prop56
140
1.0
102
RTVSPost2010PropOp56
 70
     1
102
RTVSPost2010Prop57
140
1.0
102
RTVSPost2010PropOp57
 70
     1
102
RTVSPropertyOp0
 70
     1
102
RTVSPropertyOp1
 70
     1
102
RTVSPropertyOp2
 70
     1
102
RTVSPropertyOp3
 70
     1
102
RTVSPropertyOp4
 70
     1
102
RTVSPropertyOp5
 70
     1
102
RTVSPropertyOp6
 70
     1
102
RTVSPropertyOp7
 70
     1
102
RTVSPropertyOp8
 70
     1
102
RTVSPropertyOp9
 70
     1
102
RTVSPropertyOp10
 70
     1
102
RTVSPropertyOp11
 70
     1
102
RTVSPropertyOp12
 70
     1
102
RTVSPropertyOp13
 70
     1
102
RTVSPropertyOp14
 70
     1
102
RTVSPropertyOp15
 70
     1
102
RTVSPropertyOp16
 70
     1
102
RTVSPropertyOp17
 70
     1
102
RTVSPropertyOp18
 70
     1
102
RTVSPropertyOp19
 70
     1
102
RTVSPropertyOp20
 70
     1
102
RTVSPropertyOp21
 70
     1
102
RTVSPropertyOp22
 70
     1
102
RTVSPropertyOp23
 70
     1
102
RTVSPropertyOp24
 70
     1
102
RTVSPropertyOp25
 70
     1
102
RTVSPropertyOp26
 70
     1
102
RTVSPropertyOp27
 70
     1
102
RTVSPropertyOp28
 70
     1
102
RTVSPropertyOp29
 70
     1
102
RTVSPropertyOp30
 70
     1
102
RTVSPropertyOp31
 70
     1
102
RTVSPropertyOp32
 70
     1
102
RTVSPropertyOp33
 70
     1
102
RTVSPropertyOp34
 70
     1
102
RTVSPropertyOp35
 70
     1
102
RTVSPropertyOp36
 70
     1
102
RTVSPropertyOp37
 70
     1
102
RTVSPropertyOp38
 70
     1
102
RTVSPropertyOp39
 70
     1
102
RTVSPropertyOp40
 70
     1
102
RTVSPropertyOp41
 70
     1
102
RTVSPropertyOp42
 70
     1
102
RTVSPropertyOp43
 70
     1
102
RTVSPropertyOp44
 70
     1
102
RTVSPropertyOp45
 70
     1
102
RTVSPropertyOp46
 70
     1
102
RTVSPropertyOp47
 70
     1
102
RTVSPropertyOp48
 70
     1
102
RTVSPropertyOp49
 70
     1
102
RTVSPropertyOp50
 70
     1
102
RTVSPropertyOp51
 70
     0
102
RTVSPropertyOp52
 70
     0
102
RTVSPropertyOp53
 70
     1
102
RTVSPropertyOp54
 70
     1
102
RTVSPropertyOp55
 70
     1
102
RTVSPropertyOp56
 70
     1
102
RTVSPropertyOp57
 70
     1
102
RTVSPropertyOp58
 70
     1
102
RTVSPropertyOp59
 70
     1
102
RTVSPropertyOp60
 70
     1
102
RTVSPropertyOp61
 70
     1
102
RTVSPropertyOp62
 70
     1
  0
XRECORD
  5
8567
102
{ACAD_REACTORS
330
8566
102
}
330
8566
100
AcDbXrecord
280
     1
102
RTVSPost2010Prop28
280
     0
102
RTVSPost2010PropOp28
 70
     1
102
RTVSPost2010Prop29
280
     1
102
RTVSPost2010PropOp29
 70
     1
102
RTVSPost2010Prop30
280
     1
102
RTVSPost2010PropOp30
 70
     1
102
RTVSPost2010Prop31
280
     0
102
RTVSPost2010PropOp31
 70
     1
102
RTVSPost2010Prop32
280
     0
102
RTVSPost2010PropOp32
 70
     1
102
RTVSPost2010Prop33
280
     0
102
RTVSPost2010PropOp33
 70
     1
102
RTVSPost2010Prop34
280
     0
102
RTVSPost2010PropOp34
 70
     1
102
RTVSPost2010Prop35
280
     0
102
RTVSPost2010PropOp35
 70
     1
102
RTVSPost2010Prop36
280
     0
102
RTVSPost2010PropOp36
 70
     1
102
RTVSPost2010Prop37
 90
       50
102
RTVSPost2010PropOp37
 70
     1
102
RTVSPost2010Prop38
140
0.0
102
RTVSPost2010PropOp38
 70
     1
102
RTVSPost2010Prop39
140
1.0
102
RTVSPost2010PropOp39
 70
     1
102
RTVSPost2010Prop40
 90
        0
102
RTVSPost2010PropOp40
 70
     1
102
RTVSPost2010Prop41ColorIndex
 90
       18
102
RTVSPost2010Prop41ColorRGB
 90
        0
102
RTVSPost2010PropOp41
 70
     1
102
RTVSPost2010Prop42
 90
       50
102
RTVSPost2010PropOp42
 70
     1
102
RTVSPost2010Prop43
 90
        3
102
RTVSPost2010PropOp43
 70
     1
102
RTVSPost2010Prop44ColorIndex
 90
        5
102
RTVSPost2010Prop44ColorRGB
 90
      255
102
RTVSPost2010PropOp44
 70
     1
102
RTVSPost2010Prop45
280
     0
102
RTVSPost2010PropOp45
 70
     1
102
RTVSPost2010Prop46
 90
       50
102
RTVSPost2010PropOp46
 70
     1
102
RTVSPost2010Prop47
 90
       50
102
RTVSPost2010PropOp47
 70
     1
102
RTVSPost2010Prop48
 90
       50
102
RTVSPost2010PropOp48
 70
     1
102
RTVSPost2010Prop49
280
     0
102
RTVSPost2010PropOp49
 70
     1
102
RTVSPost2010Prop50
 90
       50
102
RTVSPost2010PropOp50
 70
     1
102
RTVSPost2010Prop51ColorIndex
 90
      256
102
RTVSPost2010Prop51ColorRGB
 90
-16777216
102
RTVSPost2010PropOp51
 70
     0
102
RTVSPost2010Prop52
140
1.0
102
RTVSPost2010PropOp52
 70
     0
102
RTVSPost2010Prop53
 90
        2
102
RTVSPost2010PropOp53
 70
     1
102
RTVSPost2010Prop54
  1
strokes_ogs.tif
102
RTVSPost2010PropOp54
 70
     1
102
RTVSPost2010Prop55
280
     0
102
RTVSPost2010PropOp55
 70
     1
102
RTVSPost2010Prop56
140
1.0
102
RTVSPost2010PropOp56
 70
     1
102
RTVSPost2010Prop57
140
1.0
102
RTVSPost2010PropOp57
 70
     1
102
RTVSPropertyOp0
 70
     1
102
RTVSPropertyOp1
 70
     1
102
RTVSPropertyOp2
 70
     1
102
RTVSPropertyOp3
 70
     1
102
RTVSPropertyOp4
 70
     1
102
RTVSPropertyOp5
 70
     1
102
RTVSPropertyOp6
 70
     1
102
RTVSPropertyOp7
 70
     1
102
RTVSPropertyOp8
 70
     1
102
RTVSPropertyOp9
 70
     1
102
RTVSPropertyOp10
 70
     1
102
RTVSPropertyOp11
 70
     1
102
RTVSPropertyOp12
 70
     1
102
RTVSPropertyOp13
 70
     1
102
RTVSPropertyOp14
 70
     1
102
RTVSPropertyOp15
 70
     1
102
RTVSPropertyOp16
 70
     1
102
RTVSPropertyOp17
 70
     1
102
RTVSPropertyOp18
 70
     1
102
RTVSPropertyOp19
 70
     1
102
RTVSPropertyOp20
 70
     1
102
RTVSPropertyOp21
 70
     1
102
RTVSPropertyOp22
 70
     1
102
RTVSPropertyOp23
 70
     1
102
RTVSPropertyOp24
 70
     1
102
RTVSPropertyOp25
 70
     1
102
RTVSPropertyOp26
 70
     1
102
RTVSPropertyOp27
 70
     1
102
RTVSPropertyOp28
 70
     1
102
RTVSPropertyOp29
 70
     1
102
RTVSPropertyOp30
 70
     1
102
RTVSPropertyOp31
 70
     1
102
RTVSPropertyOp32
 70
     1
102
RTVSPropertyOp33
 70
     1
102
RTVSPropertyOp34
 70
     1
102
RTVSPropertyOp35
 70
     1
102
RTVSPropertyOp36
 70
     1
102
RTVSPropertyOp37
 70
     1
102
RTVSPropertyOp38
 70
     1
102
RTVSPropertyOp39
 70
     1
102
RTVSPropertyOp40
 70
     1
102
RTVSPropertyOp41
 70
     1
102
RTVSPropertyOp42
 70
     1
102
RTVSPropertyOp43
 70
     1
102
RTVSPropertyOp44
 70
     1
102
RTVSPropertyOp45
 70
     1
102
RTVSPropertyOp46
 70
     1
102
RTVSPropertyOp47
 70
     1
102
RTVSPropertyOp48
 70
     1
102
RTVSPropertyOp49
 70
     1
102
RTVSPropertyOp50
 70
     1
102
RTVSPropertyOp51
 70
     0
102
RTVSPropertyOp52
 70
     0
102
RTVSPropertyOp53
 70
     1
102
RTVSPropertyOp54
 70
     1
102
RTVSPropertyOp55
 70
     1
102
RTVSPropertyOp56
 70
     1
102
RTVSPropertyOp57
 70
     1
102
RTVSPropertyOp58
 70
     1
102
RTVSPropertyOp59
 70
     1
102
RTVSPropertyOp60
 70
     1
102
RTVSPropertyOp61
 70
     1
102
RTVSPropertyOp62
 70
     1
  0
XRECORD
  5
8583
102
{ACAD_REACTORS
330
8582
102
}
330
8582
100
AcDbXrecord
280
     1
102
RTVSPost2010Prop28
280
     0
102
RTVSPost2010PropOp28
 70
     1
102
RTVSPost2010Prop29
280
     1
102
RTVSPost2010PropOp29
 70
     1
102
RTVSPost2010Prop30
280
     1
102
RTVSPost2010PropOp30
 70
     1
102
RTVSPost2010Prop31
280
     0
102
RTVSPost2010PropOp31
 70
     1
102
RTVSPost2010Prop32
280
     0
102
RTVSPost2010PropOp32
 70
     1
102
RTVSPost2010Prop33
280
     0
102
RTVSPost2010PropOp33
 70
     1
102
RTVSPost2010Prop34
280
     0
102
RTVSPost2010PropOp34
 70
     1
102
RTVSPost2010Prop35
280
     0
102
RTVSPost2010PropOp35
 70
     1
102
RTVSPost2010Prop36
280
     0
102
RTVSPost2010PropOp36
 70
     1
102
RTVSPost2010Prop37
 90
       50
102
RTVSPost2010PropOp37
 70
     0
102
RTVSPost2010Prop38
140
0.0
102
RTVSPost2010PropOp38
 70
     0
102
RTVSPost2010Prop39
140
1.0
102
RTVSPost2010PropOp39
 70
     0
102
RTVSPost2010Prop40
 90
        0
102
RTVSPost2010PropOp40
 70
     0
102
RTVSPost2010Prop41ColorIndex
 90
       18
102
RTVSPost2010Prop41ColorRGB
 90
        0
102
RTVSPost2010PropOp41
 70
     0
102
RTVSPost2010Prop42
 90
       50
102
RTVSPost2010PropOp42
 70
     0
102
RTVSPost2010Prop43
 90
        3
102
RTVSPost2010PropOp43
 70
     0
102
RTVSPost2010Prop44ColorIndex
 90
        5
102
RTVSPost2010Prop44ColorRGB
 90
      255
102
RTVSPost2010PropOp44
 70
     0
102
RTVSPost2010Prop45
280
     0
102
RTVSPost2010PropOp45
 70
     1
102
RTVSPost2010Prop46
 90
       50
102
RTVSPost2010PropOp46
 70
     0
102
RTVSPost2010Prop47
 90
       50
102
RTVSPost2010PropOp47
 70
     0
102
RTVSPost2010Prop48
 90
       50
102
RTVSPost2010PropOp48
 70
     0
102
RTVSPost2010Prop49
280
     0
102
RTVSPost2010PropOp49
 70
     1
102
RTVSPost2010Prop50
 90
       50
102
RTVSPost2010PropOp50
 70
     0
102
RTVSPost2010Prop51ColorIndex
 90
      256
102
RTVSPost2010Prop51ColorRGB
 90
-16777216
102
RTVSPost2010PropOp51
 70
     0
102
RTVSPost2010Prop52
140
1.0
102
RTVSPost2010PropOp52
 70
     0
102
RTVSPost2010Prop53
 90
        2
102
RTVSPost2010PropOp53
 70
     0
102
RTVSPost2010Prop54
  1
strokes_ogs.tif
102
RTVSPost2010PropOp54
 70
     0
102
RTVSPost2010Prop55
280
     0
102
RTVSPost2010PropOp55
 70
     1
102
RTVSPost2010Prop56
140
1.0
102
RTVSPost2010PropOp56
 70
     0
102
RTVSPost2010Prop57
140
1.0
102
RTVSPost2010PropOp57
 70
     0
102
RTVSPropertyOp0
 70
     0
102
RTVSPropertyOp1
 70
     0
102
RTVSPropertyOp2
 70
     0
102
RTVSPropertyOp3
 70
     0
102
RTVSPropertyOp4
 70
     0
102
RTVSPropertyOp5
 70
     0
102
RTVSPropertyOp6
 70
     0
102
RTVSPropertyOp7
 70
     0
102
RTVSPropertyOp8
 70
     0
102
RTVSPropertyOp9
 70
     0
102
RTVSPropertyOp10
 70
     0
102
RTVSPropertyOp11
 70
     0
102
RTVSPropertyOp12
 70
     0
102
RTVSPropertyOp13
 70
     0
102
RTVSPropertyOp14
 70
     2
102
RTVSPropertyOp15
 70
     0
102
RTVSPropertyOp16
 70
     0
102
RTVSPropertyOp17
 70
     0
102
RTVSPropertyOp18
 70
     0
102
RTVSPropertyOp19
 70
     0
102
RTVSPropertyOp20
 70
     0
102
RTVSPropertyOp21
 70
     0
102
RTVSPropertyOp22
 70
     0
102
RTVSPropertyOp23
 70
     0
102
RTVSPropertyOp24
 70
     0
102
RTVSPropertyOp25
 70
     0
102
RTVSPropertyOp26
 70
     0
102
RTVSPropertyOp27
 70
     0
102
RTVSPropertyOp28
 70
     1
102
RTVSPropertyOp29
 70
     1
102
RTVSPropertyOp30
 70
     1
102
RTVSPropertyOp31
 70
     1
102
RTVSPropertyOp32
 70
     1
102
RTVSPropertyOp33
 70
     1
102
RTVSPropertyOp34
 70
     1
102
RTVSPropertyOp35
 70
     1
102
RTVSPropertyOp36
 70
     1
102
RTVSPropertyOp37
 70
     0
102
RTVSPropertyOp38
 70
     0
102
RTVSPropertyOp39
 70
     0
102
RTVSPropertyOp40
 70
     0
102
RTVSPropertyOp41
 70
     0
102
RTVSPropertyOp42
 70
     0
102
RTVSPropertyOp43
 70
     0
102
RTVSPropertyOp44
 70
     0
102
RTVSPropertyOp45
 70
     1
102
RTVSPropertyOp46
 70
     0
102
RTVSPropertyOp47
 70
     0
102
RTVSPropertyOp48
 70
     0
102
RTVSPropertyOp49
 70
     1
102
RTVSPropertyOp50
 70
     0
102
RTVSPropertyOp51
 70
     0
102
RTVSPropertyOp52
 70
     0
102
RTVSPropertyOp53
 70
     0
102
RTVSPropertyOp54
 70
     0
102
RTVSPropertyOp55
 70
     1
102
RTVSPropertyOp56
 70
     0
102
RTVSPropertyOp57
 70
     0
102
RTVSPropertyOp58
 70
     0
102
RTVSPropertyOp59
 70
     0
102
RTVSPropertyOp60
 70
     0
102
RTVSPropertyOp61
 70
     0
102
RTVSPropertyOp62
 70
     0
  0
XRECORD
  5
8573
102
{ACAD_REACTORS
330
8572
102
}
330
8572
100
AcDbXrecord
280
     1
102
RTVSPost2010Prop28
280
     0
102
RTVSPost2010PropOp28
 70
     1
102
RTVSPost2010Prop29
280
     1
102
RTVSPost2010PropOp29
 70
     1
102
RTVSPost2010Prop30
280
     1
102
RTVSPost2010PropOp30
 70
     1
102
RTVSPost2010Prop31
280
     0
102
RTVSPost2010PropOp31
 70
     1
102
RTVSPost2010Prop32
280
     0
102
RTVSPost2010PropOp32
 70
     1
102
RTVSPost2010Prop33
280
     0
102
RTVSPost2010PropOp33
 70
     1
102
RTVSPost2010Prop34
280
     0
102
RTVSPost2010PropOp34
 70
     1
102
RTVSPost2010Prop35
280
     0
102
RTVSPost2010PropOp35
 70
     1
102
RTVSPost2010Prop36
280
     0
102
RTVSPost2010PropOp36
 70
     1
102
RTVSPost2010Prop37
 90
       50
102
RTVSPost2010PropOp37
 70
     1
102
RTVSPost2010Prop38
140
0.0
102
RTVSPost2010PropOp38
 70
     1
102
RTVSPost2010Prop39
140
1.0
102
RTVSPost2010PropOp39
 70
     1
102
RTVSPost2010Prop40
 90
        0
102
RTVSPost2010PropOp40
 70
     1
102
RTVSPost2010Prop41ColorIndex
 90
       18
102
RTVSPost2010Prop41ColorRGB
 90
        0
102
RTVSPost2010PropOp41
 70
     1
102
RTVSPost2010Prop42
 90
       50
102
RTVSPost2010PropOp42
 70
     1
102
RTVSPost2010Prop43
 90
        3
102
RTVSPost2010PropOp43
 70
     1
102
RTVSPost2010Prop44ColorIndex
 90
        5
102
RTVSPost2010Prop44ColorRGB
 90
      255
102
RTVSPost2010PropOp44
 70
     1
102
RTVSPost2010Prop45
280
     0
102
RTVSPost2010PropOp45
 70
     1
102
RTVSPost2010Prop46
 90
       50
102
RTVSPost2010PropOp46
 70
     1
102
RTVSPost2010Prop47
 90
       50
102
RTVSPost2010PropOp47
 70
     1
102
RTVSPost2010Prop48
 90
       50
102
RTVSPost2010PropOp48
 70
     1
102
RTVSPost2010Prop49
280
     0
102
RTVSPost2010PropOp49
 70
     1
102
RTVSPost2010Prop50
 90
       50
102
RTVSPost2010PropOp50
 70
     1
102
RTVSPost2010Prop51ColorIndex
 90
      256
102
RTVSPost2010Prop51ColorRGB
 90
-16777216
102
RTVSPost2010PropOp51
 70
     0
102
RTVSPost2010Prop52
140
1.0
102
RTVSPost2010PropOp52
 70
     0
102
RTVSPost2010Prop53
 90
        2
102
RTVSPost2010PropOp53
 70
     1
102
RTVSPost2010Prop54
  1
strokes_ogs.tif
102
RTVSPost2010PropOp54
 70
     1
102
RTVSPost2010Prop55
280
     0
102
RTVSPost2010PropOp55
 70
     1
102
RTVSPost2010Prop56
140
1.0
102
RTVSPost2010PropOp56
 70
     1
102
RTVSPost2010Prop57
140
1.0
102
RTVSPost2010PropOp57
 70
     1
102
RTVSPropertyOp0
 70
     1
102
RTVSPropertyOp1
 70
     1
102
RTVSPropertyOp2
 70
     1
102
RTVSPropertyOp3
 70
     1
102
RTVSPropertyOp4
 70
     1
102
RTVSPropertyOp5
 70
     1
102
RTVSPropertyOp6
 70
     1
102
RTVSPropertyOp7
 70
     1
102
RTVSPropertyOp8
 70
     1
102
RTVSPropertyOp9
 70
     1
102
RTVSPropertyOp10
 70
     1
102
RTVSPropertyOp11
 70
     1
102
RTVSPropertyOp12
 70
     1
102
RTVSPropertyOp13
 70
     1
102
RTVSPropertyOp14
 70
     1
102
RTVSPropertyOp15
 70
     1
102
RTVSPropertyOp16
 70
     1
102
RTVSPropertyOp17
 70
     1
102
RTVSPropertyOp18
 70
     1
102
RTVSPropertyOp19
 70
     1
102
RTVSPropertyOp20
 70
     1
102
RTVSPropertyOp21
 70
     1
102
RTVSPropertyOp22
 70
     1
102
RTVSPropertyOp23
 70
     1
102
RTVSPropertyOp24
 70
     1
102
RTVSPropertyOp25
 70
     1
102
RTVSPropertyOp26
 70
     1
102
RTVSPropertyOp27
 70
     1
102
RTVSPropertyOp28
 70
     1
102
RTVSPropertyOp29
 70
     1
102
RTVSPropertyOp30
 70
     1
102
RTVSPropertyOp31
 70
     1
102
RTVSPropertyOp32
 70
     1
102
RTVSPropertyOp33
 70
     1
102
RTVSPropertyOp34
 70
     1
102
RTVSPropertyOp35
 70
     1
102
RTVSPropertyOp36
 70
     1
102
RTVSPropertyOp37
 70
     1
102
RTVSPropertyOp38
 70
     1
102
RTVSPropertyOp39
 70
     1
102
RTVSPropertyOp40
 70
     1
102
RTVSPropertyOp41
 70
     1
102
RTVSPropertyOp42
 70
     1
102
RTVSPropertyOp43
 70
     1
102
RTVSPropertyOp44
 70
     1
102
RTVSPropertyOp45
 70
     1
102
RTVSPropertyOp46
 70
     1
102
RTVSPropertyOp47
 70
     1
102
RTVSPropertyOp48
 70
     1
102
RTVSPropertyOp49
 70
     1
102
RTVSPropertyOp50
 70
     1
102
RTVSPropertyOp51
 70
     0
102
RTVSPropertyOp52
 70
     0
102
RTVSPropertyOp53
 70
     1
102
RTVSPropertyOp54
 70
     1
102
RTVSPropertyOp55
 70
     1
102
RTVSPropertyOp56
 70
     1
102
RTVSPropertyOp57
 70
     1
102
RTVSPropertyOp58
 70
     1
102
RTVSPropertyOp59
 70
     1
102
RTVSPropertyOp60
 70
     1
102
RTVSPropertyOp61
 70
     1
102
RTVSPropertyOp62
 70
     1
  0
XRECORD
  5
8585
102
{ACAD_REACTORS
330
8584
102
}
330
8584
100
AcDbXrecord
280
     1
102
RTVSPost2010Prop28
280
     0
102
RTVSPost2010PropOp28
 70
     1
102
RTVSPost2010Prop29
280
     1
102
RTVSPost2010PropOp29
 70
     1
102
RTVSPost2010Prop30
280
     1
102
RTVSPost2010PropOp30
 70
     1
102
RTVSPost2010Prop31
280
     0
102
RTVSPost2010PropOp31
 70
     1
102
RTVSPost2010Prop32
280
     0
102
RTVSPost2010PropOp32
 70
     1
102
RTVSPost2010Prop33
280
     0
102
RTVSPost2010PropOp33
 70
     1
102
RTVSPost2010Prop34
280
     0
102
RTVSPost2010PropOp34
 70
     1
102
RTVSPost2010Prop35
280
     0
102
RTVSPost2010PropOp35
 70
     1
102
RTVSPost2010Prop36
280
     0
102
RTVSPost2010PropOp36
 70
     1
102
RTVSPost2010Prop37
 90
       50
102
RTVSPost2010PropOp37
 70
     0
102
RTVSPost2010Prop38
140
0.0
102
RTVSPost2010PropOp38
 70
     0
102
RTVSPost2010Prop39
140
1.0
102
RTVSPost2010PropOp39
 70
     0
102
RTVSPost2010Prop40
 90
        0
102
RTVSPost2010PropOp40
 70
     0
102
RTVSPost2010Prop41ColorIndex
 90
       18
102
RTVSPost2010Prop41ColorRGB
 90
        0
102
RTVSPost2010PropOp41
 70
     0
102
RTVSPost2010Prop42
 90
       50
102
RTVSPost2010PropOp42
 70
     0
102
RTVSPost2010Prop43
 90
        3
102
RTVSPost2010PropOp43
 70
     0
102
RTVSPost2010Prop44ColorIndex
 90
        5
102
RTVSPost2010Prop44ColorRGB
 90
      255
102
RTVSPost2010PropOp44
 70
     0
102
RTVSPost2010Prop45
280
     0
102
RTVSPost2010PropOp45
 70
     1
102
RTVSPost2010Prop46
 90
       50
102
RTVSPost2010PropOp46
 70
     0
102
RTVSPost2010Prop47
 90
       50
102
RTVSPost2010PropOp47
 70
     0
102
RTVSPost2010Prop48
 90
       50
102
RTVSPost2010PropOp48
 70
     0
102
RTVSPost2010Prop49
280
     0
102
RTVSPost2010PropOp49
 70
     1
102
RTVSPost2010Prop50
 90
       50
102
RTVSPost2010PropOp50
 70
     0
102
RTVSPost2010Prop51ColorIndex
 90
      256
102
RTVSPost2010Prop51ColorRGB
 90
-16777216
102
RTVSPost2010PropOp51
 70
     0
102
RTVSPost2010Prop52
140
1.0
102
RTVSPost2010PropOp52
 70
     0
102
RTVSPost2010Prop53
 90
        2
102
RTVSPost2010PropOp53
 70
     0
102
RTVSPost2010Prop54
  1
strokes_ogs.tif
102
RTVSPost2010PropOp54
 70
     0
102
RTVSPost2010Prop55
280
     0
102
RTVSPost2010PropOp55
 70
     1
102
RTVSPost2010Prop56
140
1.0
102
RTVSPost2010PropOp56
 70
     0
102
RTVSPost2010Prop57
140
1.0
102
RTVSPost2010PropOp57
 70
     0
102
RTVSPropertyOp0
 70
     0
102
RTVSPropertyOp1
 70
     0
102
RTVSPropertyOp2
 70
     0
102
RTVSPropertyOp3
 70
     0
102
RTVSPropertyOp4
 70
     0
102
RTVSPropertyOp5
 70
     0
102
RTVSPropertyOp6
 70
     0
102
RTVSPropertyOp7
 70
     0
102
RTVSPropertyOp8
 70
     0
102
RTVSPropertyOp9
 70
     0
102
RTVSPropertyOp10
 70
     0
102
RTVSPropertyOp11
 70
     0
102
RTVSPropertyOp12
 70
     0
102
RTVSPropertyOp13
 70
     0
102
RTVSPropertyOp14
 70
     2
102
RTVSPropertyOp15
 70
     0
102
RTVSPropertyOp16
 70
     0
102
RTVSPropertyOp17
 70
     0
102
RTVSPropertyOp18
 70
     0
102
RTVSPropertyOp19
 70
     0
102
RTVSPropertyOp20
 70
     0
102
RTVSPropertyOp21
 70
     0
102
RTVSPropertyOp22
 70
     0
102
RTVSPropertyOp23
 70
     0
102
RTVSPropertyOp24
 70
     0
102
RTVSPropertyOp25
 70
     0
102
RTVSPropertyOp26
 70
     0
102
RTVSPropertyOp27
 70
     0
102
RTVSPropertyOp28
 70
     1
102
RTVSPropertyOp29
 70
     1
102
RTVSPropertyOp30
 70
     1
102
RTVSPropertyOp31
 70
     1
102
RTVSPropertyOp32
 70
     1
102
RTVSPropertyOp33
 70
     1
102
RTVSPropertyOp34
 70
     1
102
RTVSPropertyOp35
 70
     1
102
RTVSPropertyOp36
 70
     1
102
RTVSPropertyOp37
 70
     0
102
RTVSPropertyOp38
 70
     0
102
RTVSPropertyOp39
 70
     0
102
RTVSPropertyOp40
 70
     0
102
RTVSPropertyOp41
 70
     0
102
RTVSPropertyOp42
 70
     0
102
RTVSPropertyOp43
 70
     0
102
RTVSPropertyOp44
 70
     0
102
RTVSPropertyOp45
 70
     1
102
RTVSPropertyOp46
 70
     0
102
RTVSPropertyOp47
 70
     0
102
RTVSPropertyOp48
 70
     0
102
RTVSPropertyOp49
 70
     1
102
RTVSPropertyOp50
 70
     0
102
RTVSPropertyOp51
 70
     0
102
RTVSPropertyOp52
 70
     0
102
RTVSPropertyOp53
 70
     0
102
RTVSPropertyOp54
 70
     0
102
RTVSPropertyOp55
 70
     1
102
RTVSPropertyOp56
 70
     0
102
RTVSPropertyOp57
 70
     0
102
RTVSPropertyOp58
 70
     0
102
RTVSPropertyOp59
 70
     0
102
RTVSPropertyOp60
 70
     0
102
RTVSPropertyOp61
 70
     0
102
RTVSPropertyOp62
 70
     0
  0
XRECORD
  5
856B
102
{ACAD_REACTORS
330
856A
102
}
330
856A
100
AcDbXrecord
280
     1
102
RTVSPost2010Prop28
280
     0
102
RTVSPost2010PropOp28
 70
     1
102
RTVSPost2010Prop29
280
     1
102
RTVSPost2010PropOp29
 70
     1
102
RTVSPost2010Prop30
280
     1
102
RTVSPost2010PropOp30
 70
     1
102
RTVSPost2010Prop31
280
     0
102
RTVSPost2010PropOp31
 70
     1
102
RTVSPost2010Prop32
280
     0
102
RTVSPost2010PropOp32
 70
     1
102
RTVSPost2010Prop33
280
     0
102
RTVSPost2010PropOp33
 70
     1
102
RTVSPost2010Prop34
280
     0
102
RTVSPost2010PropOp34
 70
     1
102
RTVSPost2010Prop35
280
     0
102
RTVSPost2010PropOp35
 70
     1
102
RTVSPost2010Prop36
280
     0
102
RTVSPost2010PropOp36
 70
     1
102
RTVSPost2010Prop37
 90
       50
102
RTVSPost2010PropOp37
 70
     1
102
RTVSPost2010Prop38
140
0.0
102
RTVSPost2010PropOp38
 70
     1
102
RTVSPost2010Prop39
140
1.0
102
RTVSPost2010PropOp39
 70
     1
102
RTVSPost2010Prop40
 90
        0
102
RTVSPost2010PropOp40
 70
     1
102
RTVSPost2010Prop41ColorIndex
 90
       18
102
RTVSPost2010Prop41ColorRGB
 90
        0
102
RTVSPost2010PropOp41
 70
     1
102
RTVSPost2010Prop42
 90
       50
102
RTVSPost2010PropOp42
 70
     1
102
RTVSPost2010Prop43
 90
        3
102
RTVSPost2010PropOp43
 70
     1
102
RTVSPost2010Prop44ColorIndex
 90
        5
102
RTVSPost2010Prop44ColorRGB
 90
      255
102
RTVSPost2010PropOp44
 70
     1
102
RTVSPost2010Prop45
280
     0
102
RTVSPost2010PropOp45
 70
     1
102
RTVSPost2010Prop46
 90
       50
102
RTVSPost2010PropOp46
 70
     1
102
RTVSPost2010Prop47
 90
       50
102
RTVSPost2010PropOp47
 70
     1
102
RTVSPost2010Prop48
 90
       50
102
RTVSPost2010PropOp48
 70
     1
102
RTVSPost2010Prop49
280
     0
102
RTVSPost2010PropOp49
 70
     1
102
RTVSPost2010Prop50
 90
       50
102
RTVSPost2010PropOp50
 70
     1
102
RTVSPost2010Prop51ColorIndex
 90
      256
102
RTVSPost2010Prop51ColorRGB
 90
-16777216
102
RTVSPost2010PropOp51
 70
     0
102
RTVSPost2010Prop52
140
1.0
102
RTVSPost2010PropOp52
 70
     0
102
RTVSPost2010Prop53
 90
        2
102
RTVSPost2010PropOp53
 70
     1
102
RTVSPost2010Prop54
  1
strokes_ogs.tif
102
RTVSPost2010PropOp54
 70
     1
102
RTVSPost2010Prop55
280
     0
102
RTVSPost2010PropOp55
 70
     1
102
RTVSPost2010Prop56
140
1.0
102
RTVSPost2010PropOp56
 70
     1
102
RTVSPost2010Prop57
140
1.0
102
RTVSPost2010PropOp57
 70
     1
102
RTVSPropertyOp0
 70
     1
102
RTVSPropertyOp1
 70
     1
102
RTVSPropertyOp2
 70
     1
102
RTVSPropertyOp3
 70
     1
102
RTVSPropertyOp4
 70
     1
102
RTVSPropertyOp5
 70
     1
102
RTVSPropertyOp6
 70
     1
102
RTVSPropertyOp7
 70
     1
102
RTVSPropertyOp8
 70
     1
102
RTVSPropertyOp9
 70
     1
102
RTVSPropertyOp10
 70
     1
102
RTVSPropertyOp11
 70
     1
102
RTVSPropertyOp12
 70
     1
102
RTVSPropertyOp13
 70
     1
102
RTVSPropertyOp14
 70
     1
102
RTVSPropertyOp15
 70
     1
102
RTVSPropertyOp16
 70
     1
102
RTVSPropertyOp17
 70
     1
102
RTVSPropertyOp18
 70
     1
102
RTVSPropertyOp19
 70
     1
102
RTVSPropertyOp20
 70
     1
102
RTVSPropertyOp21
 70
     1
102
RTVSPropertyOp22
 70
     1
102
RTVSPropertyOp23
 70
     1
102
RTVSPropertyOp24
 70
     1
102
RTVSPropertyOp25
 70
     1
102
RTVSPropertyOp26
 70
     1
102
RTVSPropertyOp27
 70
     1
102
RTVSPropertyOp28
 70
     1
102
RTVSPropertyOp29
 70
     1
102
RTVSPropertyOp30
 70
     1
102
RTVSPropertyOp31
 70
     1
102
RTVSPropertyOp32
 70
     1
102
RTVSPropertyOp33
 70
     1
102
RTVSPropertyOp34
 70
     1
102
RTVSPropertyOp35
 70
     1
102
RTVSPropertyOp36
 70
     1
102
RTVSPropertyOp37
 70
     1
102
RTVSPropertyOp38
 70
     1
102
RTVSPropertyOp39
 70
     1
102
RTVSPropertyOp40
 70
     1
102
RTVSPropertyOp41
 70
     1
102
RTVSPropertyOp42
 70
     1
102
RTVSPropertyOp43
 70
     1
102
RTVSPropertyOp44
 70
     1
102
RTVSPropertyOp45
 70
     1
102
RTVSPropertyOp46
 70
     1
102
RTVSPropertyOp47
 70
     1
102
RTVSPropertyOp48
 70
     1
102
RTVSPropertyOp49
 70
     1
102
RTVSPropertyOp50
 70
     1
102
RTVSPropertyOp51
 70
     0
102
RTVSPropertyOp52
 70
     0
102
RTVSPropertyOp53
 70
     1
102
RTVSPropertyOp54
 70
     1
102
RTVSPropertyOp55
 70
     1
102
RTVSPropertyOp56
 70
     1
102
RTVSPropertyOp57
 70
     1
102
RTVSPropertyOp58
 70
     1
102
RTVSPropertyOp59
 70
     1
102
RTVSPropertyOp60
 70
     1
102
RTVSPropertyOp61
 70
     1
102
RTVSPropertyOp62
 70
     1
  0
XRECORD
  5
8581
102
{ACAD_REACTORS
330
8580
102
}
330
8580
100
AcDbXrecord
280
     1
102
RTVSPost2010Prop28
280
     0
102
RTVSPost2010PropOp28
 70
     1
102
RTVSPost2010Prop29
280
     1
102
RTVSPost2010PropOp29
 70
     1
102
RTVSPost2010Prop30
280
     1
102
RTVSPost2010PropOp30
 70
     1
102
RTVSPost2010Prop31
280
     0
102
RTVSPost2010PropOp31
 70
     1
102
RTVSPost2010Prop32
280
     0
102
RTVSPost2010PropOp32
 70
     1
102
RTVSPost2010Prop33
280
     0
102
RTVSPost2010PropOp33
 70
     1
102
RTVSPost2010Prop34
280
     0
102
RTVSPost2010PropOp34
 70
     1
102
RTVSPost2010Prop35
280
     0
102
RTVSPost2010PropOp35
 70
     1
102
RTVSPost2010Prop36
280
     0
102
RTVSPost2010PropOp36
 70
     1
102
RTVSPost2010Prop37
 90
       50
102
RTVSPost2010PropOp37
 70
     1
102
RTVSPost2010Prop38
140
0.0
102
RTVSPost2010PropOp38
 70
     1
102
RTVSPost2010Prop39
140
1.0
102
RTVSPost2010PropOp39
 70
     1
102
RTVSPost2010Prop40
 90
        0
102
RTVSPost2010PropOp40
 70
     1
102
RTVSPost2010Prop41ColorIndex
 90
       18
102
RTVSPost2010Prop41ColorRGB
 90
        0
102
RTVSPost2010PropOp41
 70
     1
102
RTVSPost2010Prop42
 90
       50
102
RTVSPost2010PropOp42
 70
     1
102
RTVSPost2010Prop43
 90
        3
102
RTVSPost2010PropOp43
 70
     1
102
RTVSPost2010Prop44ColorIndex
 90
        5
102
RTVSPost2010Prop44ColorRGB
 90
      255
102
RTVSPost2010PropOp44
 70
     1
102
RTVSPost2010Prop45
280
     0
102
RTVSPost2010PropOp45
 70
     1
102
RTVSPost2010Prop46
 90
       50
102
RTVSPost2010PropOp46
 70
     1
102
RTVSPost2010Prop47
 90
       50
102
RTVSPost2010PropOp47
 70
     1
102
RTVSPost2010Prop48
 90
       50
102
RTVSPost2010PropOp48
 70
     1
102
RTVSPost2010Prop49
280
     0
102
RTVSPost2010PropOp49
 70
     1
102
RTVSPost2010Prop50
 90
       50
102
RTVSPost2010PropOp50
 70
     1
102
RTVSPost2010Prop51ColorIndex
 90
      256
102
RTVSPost2010Prop51ColorRGB
 90
-16777216
102
RTVSPost2010PropOp51
 70
     0
102
RTVSPost2010Prop52
140
1.0
102
RTVSPost2010PropOp52
 70
     0
102
RTVSPost2010Prop53
 90
        2
102
RTVSPost2010PropOp53
 70
     1
102
RTVSPost2010Prop54
  1
strokes_ogs.tif
102
RTVSPost2010PropOp54
 70
     1
102
RTVSPost2010Prop55
280
     0
102
RTVSPost2010PropOp55
 70
     1
102
RTVSPost2010Prop56
140
1.0
102
RTVSPost2010PropOp56
 70
     1
102
RTVSPost2010Prop57
140
1.0
102
RTVSPost2010PropOp57
 70
     1
102
RTVSPropertyOp0
 70
     1
102
RTVSPropertyOp1
 70
     1
102
RTVSPropertyOp2
 70
     1
102
RTVSPropertyOp3
 70
     1
102
RTVSPropertyOp4
 70
     1
102
RTVSPropertyOp5
 70
     1
102
RTVSPropertyOp6
 70
     1
102
RTVSPropertyOp7
 70
     1
102
RTVSPropertyOp8
 70
     1
102
RTVSPropertyOp9
 70
     1
102
RTVSPropertyOp10
 70
     1
102
RTVSPropertyOp11
 70
     1
102
RTVSPropertyOp12
 70
     1
102
RTVSPropertyOp13
 70
     1
102
RTVSPropertyOp14
 70
     1
102
RTVSPropertyOp15
 70
     1
102
RTVSPropertyOp16
 70
     1
102
RTVSPropertyOp17
 70
     1
102
RTVSPropertyOp18
 70
     1
102
RTVSPropertyOp19
 70
     1
102
RTVSPropertyOp20
 70
     1
102
RTVSPropertyOp21
 70
     1
102
RTVSPropertyOp22
 70
     1
102
RTVSPropertyOp23
 70
     1
102
RTVSPropertyOp24
 70
     1
102
RTVSPropertyOp25
 70
     1
102
RTVSPropertyOp26
 70
     1
102
RTVSPropertyOp27
 70
     1
102
RTVSPropertyOp28
 70
     1
102
RTVSPropertyOp29
 70
     1
102
RTVSPropertyOp30
 70
     1
102
RTVSPropertyOp31
 70
     1
102
RTVSPropertyOp32
 70
     1
102
RTVSPropertyOp33
 70
     1
102
RTVSPropertyOp34
 70
     1
102
RTVSPropertyOp35
 70
     1
102
RTVSPropertyOp36
 70
     1
102
RTVSPropertyOp37
 70
     1
102
RTVSPropertyOp38
 70
     1
102
RTVSPropertyOp39
 70
     1
102
RTVSPropertyOp40
 70
     1
102
RTVSPropertyOp41
 70
     1
102
RTVSPropertyOp42
 70
     1
102
RTVSPropertyOp43
 70
     1
102
RTVSPropertyOp44
 70
     1
102
RTVSPropertyOp45
 70
     1
102
RTVSPropertyOp46
 70
     1
102
RTVSPropertyOp47
 70
     1
102
RTVSPropertyOp48
 70
     1
102
RTVSPropertyOp49
 70
     1
102
RTVSPropertyOp50
 70
     1
102
RTVSPropertyOp51
 70
     0
102
RTVSPropertyOp52
 70
     0
102
RTVSPropertyOp53
 70
     1
102
RTVSPropertyOp54
 70
     1
102
RTVSPropertyOp55
 70
     1
102
RTVSPropertyOp56
 70
     1
102
RTVSPropertyOp57
 70
     1
102
RTVSPropertyOp58
 70
     1
102
RTVSPropertyOp59
 70
     1
102
RTVSPropertyOp60
 70
     1
102
RTVSPropertyOp61
 70
     1
102
RTVSPropertyOp62
 70
     1
  0
XRECORD
  5
857F
102
{ACAD_REACTORS
330
857E
102
}
330
857E
100
AcDbXrecord
280
     1
102
RTVSPost2010Prop28
280
     0
102
RTVSPost2010PropOp28
 70
     1
102
RTVSPost2010Prop29
280
     1
102
RTVSPost2010PropOp29
 70
     1
102
RTVSPost2010Prop30
280
     1
102
RTVSPost2010PropOp30
 70
     1
102
RTVSPost2010Prop31
280
     0
102
RTVSPost2010PropOp31
 70
     1
102
RTVSPost2010Prop32
280
     0
102
RTVSPost2010PropOp32
 70
     1
102
RTVSPost2010Prop33
280
     0
102
RTVSPost2010PropOp33
 70
     1
102
RTVSPost2010Prop34
280
     0
102
RTVSPost2010PropOp34
 70
     1
102
RTVSPost2010Prop35
280
     0
102
RTVSPost2010PropOp35
 70
     1
102
RTVSPost2010Prop36
280
     0
102
RTVSPost2010PropOp36
 70
     1
102
RTVSPost2010Prop37
 90
       50
102
RTVSPost2010PropOp37
 70
     1
102
RTVSPost2010Prop38
140
0.0
102
RTVSPost2010PropOp38
 70
     1
102
RTVSPost2010Prop39
140
1.0
102
RTVSPost2010PropOp39
 70
     1
102
RTVSPost2010Prop40
 90
        0
102
RTVSPost2010PropOp40
 70
     1
102
RTVSPost2010Prop41ColorIndex
 90
       18
102
RTVSPost2010Prop41ColorRGB
 90
        0
102
RTVSPost2010PropOp41
 70
     1
102
RTVSPost2010Prop42
 90
       50
102
RTVSPost2010PropOp42
 70
     1
102
RTVSPost2010Prop43
 90
        3
102
RTVSPost2010PropOp43
 70
     1
102
RTVSPost2010Prop44ColorIndex
 90
        5
102
RTVSPost2010Prop44ColorRGB
 90
      255
102
RTVSPost2010PropOp44
 70
     1
102
RTVSPost2010Prop45
280
     0
102
RTVSPost2010PropOp45
 70
     1
102
RTVSPost2010Prop46
 90
       50
102
RTVSPost2010PropOp46
 70
     1
102
RTVSPost2010Prop47
 90
       50
102
RTVSPost2010PropOp47
 70
     1
102
RTVSPost2010Prop48
 90
       50
102
RTVSPost2010PropOp48
 70
     1
102
RTVSPost2010Prop49
280
     0
102
RTVSPost2010PropOp49
 70
     1
102
RTVSPost2010Prop50
 90
       50
102
RTVSPost2010PropOp50
 70
     1
102
RTVSPost2010Prop51ColorIndex
 90
      256
102
RTVSPost2010Prop51ColorRGB
 90
-16777216
102
RTVSPost2010PropOp51
 70
     0
102
RTVSPost2010Prop52
140
1.0
102
RTVSPost2010PropOp52
 70
     0
102
RTVSPost2010Prop53
 90
        2
102
RTVSPost2010PropOp53
 70
     1
102
RTVSPost2010Prop54
  1
strokes_ogs.tif
102
RTVSPost2010PropOp54
 70
     1
102
RTVSPost2010Prop55
280
     0
102
RTVSPost2010PropOp55
 70
     1
102
RTVSPost2010Prop56
140
1.0
102
RTVSPost2010PropOp56
 70
     1
102
RTVSPost2010Prop57
140
1.0
102
RTVSPost2010PropOp57
 70
     1
102
RTVSPropertyOp0
 70
     1
102
RTVSPropertyOp1
 70
     1
102
RTVSPropertyOp2
 70
     1
102
RTVSPropertyOp3
 70
     1
102
RTVSPropertyOp4
 70
     1
102
RTVSPropertyOp5
 70
     1
102
RTVSPropertyOp6
 70
     1
102
RTVSPropertyOp7
 70
     1
102
RTVSPropertyOp8
 70
     1
102
RTVSPropertyOp9
 70
     1
102
RTVSPropertyOp10
 70
     1
102
RTVSPropertyOp11
 70
     1
102
RTVSPropertyOp12
 70
     1
102
RTVSPropertyOp13
 70
     1
102
RTVSPropertyOp14
 70
     1
102
RTVSPropertyOp15
 70
     1
102
RTVSPropertyOp16
 70
     1
102
RTVSPropertyOp17
 70
     1
102
RTVSPropertyOp18
 70
     1
102
RTVSPropertyOp19
 70
     1
102
RTVSPropertyOp20
 70
     1
102
RTVSPropertyOp21
 70
     1
102
RTVSPropertyOp22
 70
     1
102
RTVSPropertyOp23
 70
     1
102
RTVSPropertyOp24
 70
     1
102
RTVSPropertyOp25
 70
     1
102
RTVSPropertyOp26
 70
     1
102
RTVSPropertyOp27
 70
     1
102
RTVSPropertyOp28
 70
     1
102
RTVSPropertyOp29
 70
     1
102
RTVSPropertyOp30
 70
     1
102
RTVSPropertyOp31
 70
     1
102
RTVSPropertyOp32
 70
     1
102
RTVSPropertyOp33
 70
     1
102
RTVSPropertyOp34
 70
     1
102
RTVSPropertyOp35
 70
     1
102
RTVSPropertyOp36
 70
     1
102
RTVSPropertyOp37
 70
     1
102
RTVSPropertyOp38
 70
     1
102
RTVSPropertyOp39
 70
     1
102
RTVSPropertyOp40
 70
     1
102
RTVSPropertyOp41
 70
     1
102
RTVSPropertyOp42
 70
     1
102
RTVSPropertyOp43
 70
     1
102
RTVSPropertyOp44
 70
     1
102
RTVSPropertyOp45
 70
     1
102
RTVSPropertyOp46
 70
     1
102
RTVSPropertyOp47
 70
     1
102
RTVSPropertyOp48
 70
     1
102
RTVSPropertyOp49
 70
     1
102
RTVSPropertyOp50
 70
     1
102
RTVSPropertyOp51
 70
     0
102
RTVSPropertyOp52
 70
     0
102
RTVSPropertyOp53
 70
     1
102
RTVSPropertyOp54
 70
     1
102
RTVSPropertyOp55
 70
     1
102
RTVSPropertyOp56
 70
     1
102
RTVSPropertyOp57
 70
     1
102
RTVSPropertyOp58
 70
     1
102
RTVSPropertyOp59
 70
     1
102
RTVSPropertyOp60
 70
     1
102
RTVSPropertyOp61
 70
     1
102
RTVSPropertyOp62
 70
     1
  0
XRECORD
  5
8579
102
{ACAD_REACTORS
330
8578
102
}
330
8578
100
AcDbXrecord
280
     1
102
RTVSPost2010Prop28
280
     0
102
RTVSPost2010PropOp28
 70
     1
102
RTVSPost2010Prop29
280
     1
102
RTVSPost2010PropOp29
 70
     1
102
RTVSPost2010Prop30
280
     1
102
RTVSPost2010PropOp30
 70
     1
102
RTVSPost2010Prop31
280
     0
102
RTVSPost2010PropOp31
 70
     1
102
RTVSPost2010Prop32
280
     0
102
RTVSPost2010PropOp32
 70
     1
102
RTVSPost2010Prop33
280
     0
102
RTVSPost2010PropOp33
 70
     1
102
RTVSPost2010Prop34
280
     0
102
RTVSPost2010PropOp34
 70
     1
102
RTVSPost2010Prop35
280
     0
102
RTVSPost2010PropOp35
 70
     1
102
RTVSPost2010Prop36
280
     0
102
RTVSPost2010PropOp36
 70
     1
102
RTVSPost2010Prop37
 90
       50
102
RTVSPost2010PropOp37
 70
     1
102
RTVSPost2010Prop38
140
0.0
102
RTVSPost2010PropOp38
 70
     1
102
RTVSPost2010Prop39
140
1.0
102
RTVSPost2010PropOp39
 70
     1
102
RTVSPost2010Prop40
 90
        0
102
RTVSPost2010PropOp40
 70
     1
102
RTVSPost2010Prop41ColorIndex
 90
       18
102
RTVSPost2010Prop41ColorRGB
 90
        0
102
RTVSPost2010PropOp41
 70
     1
102
RTVSPost2010Prop42
 90
       50
102
RTVSPost2010PropOp42
 70
     1
102
RTVSPost2010Prop43
 90
        3
102
RTVSPost2010PropOp43
 70
     1
102
RTVSPost2010Prop44ColorIndex
 90
        5
102
RTVSPost2010Prop44ColorRGB
 90
      255
102
RTVSPost2010PropOp44
 70
     1
102
RTVSPost2010Prop45
280
     0
102
RTVSPost2010PropOp45
 70
     1
102
RTVSPost2010Prop46
 90
       50
102
RTVSPost2010PropOp46
 70
     1
102
RTVSPost2010Prop47
 90
       50
102
RTVSPost2010PropOp47
 70
     1
102
RTVSPost2010Prop48
 90
       50
102
RTVSPost2010PropOp48
 70
     1
102
RTVSPost2010Prop49
280
     0
102
RTVSPost2010PropOp49
 70
     1
102
RTVSPost2010Prop50
 90
       50
102
RTVSPost2010PropOp50
 70
     1
102
RTVSPost2010Prop51ColorIndex
 90
      256
102
RTVSPost2010Prop51ColorRGB
 90
-16777216
102
RTVSPost2010PropOp51
 70
     0
102
RTVSPost2010Prop52
140
1.0
102
RTVSPost2010PropOp52
 70
     0
102
RTVSPost2010Prop53
 90
        2
102
RTVSPost2010PropOp53
 70
     1
102
RTVSPost2010Prop54
  1
strokes_ogs.tif
102
RTVSPost2010PropOp54
 70
     1
102
RTVSPost2010Prop55
280
     0
102
RTVSPost2010PropOp55
 70
     1
102
RTVSPost2010Prop56
140
1.0
102
RTVSPost2010PropOp56
 70
     1
102
RTVSPost2010Prop57
140
1.0
102
RTVSPost2010PropOp57
 70
     1
102
RTVSPropertyOp0
 70
     1
102
RTVSPropertyOp1
 70
     1
102
RTVSPropertyOp2
 70
     1
102
RTVSPropertyOp3
 70
     1
102
RTVSPropertyOp4
 70
     1
102
RTVSPropertyOp5
 70
     1
102
RTVSPropertyOp6
 70
     1
102
RTVSPropertyOp7
 70
     1
102
RTVSPropertyOp8
 70
     1
102
RTVSPropertyOp9
 70
     1
102
RTVSPropertyOp10
 70
     1
102
RTVSPropertyOp11
 70
     1
102
RTVSPropertyOp12
 70
     1
102
RTVSPropertyOp13
 70
     1
102
RTVSPropertyOp14
 70
     1
102
RTVSPropertyOp15
 70
     1
102
RTVSPropertyOp16
 70
     1
102
RTVSPropertyOp17
 70
     1
102
RTVSPropertyOp18
 70
     1
102
RTVSPropertyOp19
 70
     1
102
RTVSPropertyOp20
 70
     1
102
RTVSPropertyOp21
 70
     1
102
RTVSPropertyOp22
 70
     1
102
RTVSPropertyOp23
 70
     1
102
RTVSPropertyOp24
 70
     1
102
RTVSPropertyOp25
 70
     1
102
RTVSPropertyOp26
 70
     1
102
RTVSPropertyOp27
 70
     1
102
RTVSPropertyOp28
 70
     1
102
RTVSPropertyOp29
 70
     1
102
RTVSPropertyOp30
 70
     1
102
RTVSPropertyOp31
 70
     1
102
RTVSPropertyOp32
 70
     1
102
RTVSPropertyOp33
 70
     1
102
RTVSPropertyOp34
 70
     1
102
RTVSPropertyOp35
 70
     1
102
RTVSPropertyOp36
 70
     1
102
RTVSPropertyOp37
 70
     1
102
RTVSPropertyOp38
 70
     1
102
RTVSPropertyOp39
 70
     1
102
RTVSPropertyOp40
 70
     1
102
RTVSPropertyOp41
 70
     1
102
RTVSPropertyOp42
 70
     1
102
RTVSPropertyOp43
 70
     1
102
RTVSPropertyOp44
 70
     1
102
RTVSPropertyOp45
 70
     1
102
RTVSPropertyOp46
 70
     1
102
RTVSPropertyOp47
 70
     1
102
RTVSPropertyOp48
 70
     1
102
RTVSPropertyOp49
 70
     1
102
RTVSPropertyOp50
 70
     1
102
RTVSPropertyOp51
 70
     0
102
RTVSPropertyOp52
 70
     0
102
RTVSPropertyOp53
 70
     1
102
RTVSPropertyOp54
 70
     1
102
RTVSPropertyOp55
 70
     1
102
RTVSPropertyOp56
 70
     1
102
RTVSPropertyOp57
 70
     1
102
RTVSPropertyOp58
 70
     1
102
RTVSPropertyOp59
 70
     1
102
RTVSPropertyOp60
 70
     1
102
RTVSPropertyOp61
 70
     1
102
RTVSPropertyOp62
 70
     1
  0
XRECORD
  5
857B
102
{ACAD_REACTORS
330
857A
102
}
330
857A
100
AcDbXrecord
280
     1
102
RTVSPost2010Prop28
280
     0
102
RTVSPost2010PropOp28
 70
     1
102
RTVSPost2010Prop29
280
     1
102
RTVSPost2010PropOp29
 70
     1
102
RTVSPost2010Prop30
280
     1
102
RTVSPost2010PropOp30
 70
     1
102
RTVSPost2010Prop31
280
     0
102
RTVSPost2010PropOp31
 70
     1
102
RTVSPost2010Prop32
280
     0
102
RTVSPost2010PropOp32
 70
     1
102
RTVSPost2010Prop33
280
     0
102
RTVSPost2010PropOp33
 70
     1
102
RTVSPost2010Prop34
280
     0
102
RTVSPost2010PropOp34
 70
     1
102
RTVSPost2010Prop35
280
     0
102
RTVSPost2010PropOp35
 70
     1
102
RTVSPost2010Prop36
280
     0
102
RTVSPost2010PropOp36
 70
     1
102
RTVSPost2010Prop37
 90
       50
102
RTVSPost2010PropOp37
 70
     1
102
RTVSPost2010Prop38
140
0.0
102
RTVSPost2010PropOp38
 70
     1
102
RTVSPost2010Prop39
140
1.0
102
RTVSPost2010PropOp39
 70
     1
102
RTVSPost2010Prop40
 90
        0
102
RTVSPost2010PropOp40
 70
     1
102
RTVSPost2010Prop41ColorIndex
 90
       18
102
RTVSPost2010Prop41ColorRGB
 90
        0
102
RTVSPost2010PropOp41
 70
     1
102
RTVSPost2010Prop42
 90
       50
102
RTVSPost2010PropOp42
 70
     1
102
RTVSPost2010Prop43
 90
        3
102
RTVSPost2010PropOp43
 70
     1
102
RTVSPost2010Prop44ColorIndex
 90
        5
102
RTVSPost2010Prop44ColorRGB
 90
      255
102
RTVSPost2010PropOp44
 70
     1
102
RTVSPost2010Prop45
280
     0
102
RTVSPost2010PropOp45
 70
     1
102
RTVSPost2010Prop46
 90
       50
102
RTVSPost2010PropOp46
 70
     1
102
RTVSPost2010Prop47
 90
       50
102
RTVSPost2010PropOp47
 70
     1
102
RTVSPost2010Prop48
 90
       50
102
RTVSPost2010PropOp48
 70
     1
102
RTVSPost2010Prop49
280
     0
102
RTVSPost2010PropOp49
 70
     1
102
RTVSPost2010Prop50
 90
       50
102
RTVSPost2010PropOp50
 70
     1
102
RTVSPost2010Prop51ColorIndex
 90
      256
102
RTVSPost2010Prop51ColorRGB
 90
-16777216
102
RTVSPost2010PropOp51
 70
     0
102
RTVSPost2010Prop52
140
1.0
102
RTVSPost2010PropOp52
 70
     0
102
RTVSPost2010Prop53
 90
        2
102
RTVSPost2010PropOp53
 70
     1
102
RTVSPost2010Prop54
  1
strokes_ogs.tif
102
RTVSPost2010PropOp54
 70
     1
102
RTVSPost2010Prop55
280
     0
102
RTVSPost2010PropOp55
 70
     1
102
RTVSPost2010Prop56
140
1.0
102
RTVSPost2010PropOp56
 70
     1
102
RTVSPost2010Prop57
140
1.0
102
RTVSPost2010PropOp57
 70
     1
102
RTVSPropertyOp0
 70
     1
102
RTVSPropertyOp1
 70
     1
102
RTVSPropertyOp2
 70
     1
102
RTVSPropertyOp3
 70
     1
102
RTVSPropertyOp4
 70
     1
102
RTVSPropertyOp5
 70
     1
102
RTVSPropertyOp6
 70
     1
102
RTVSPropertyOp7
 70
     1
102
RTVSPropertyOp8
 70
     1
102
RTVSPropertyOp9
 70
     1
102
RTVSPropertyOp10
 70
     1
102
RTVSPropertyOp11
 70
     1
102
RTVSPropertyOp12
 70
     1
102
RTVSPropertyOp13
 70
     1
102
RTVSPropertyOp14
 70
     1
102
RTVSPropertyOp15
 70
     1
102
RTVSPropertyOp16
 70
     1
102
RTVSPropertyOp17
 70
     1
102
RTVSPropertyOp18
 70
     1
102
RTVSPropertyOp19
 70
     1
102
RTVSPropertyOp20
 70
     1
102
RTVSPropertyOp21
 70
     1
102
RTVSPropertyOp22
 70
     1
102
RTVSPropertyOp23
 70
     1
102
RTVSPropertyOp24
 70
     1
102
RTVSPropertyOp25
 70
     1
102
RTVSPropertyOp26
 70
     1
102
RTVSPropertyOp27
 70
     1
102
RTVSPropertyOp28
 70
     1
102
RTVSPropertyOp29
 70
     1
102
RTVSPropertyOp30
 70
     1
102
RTVSPropertyOp31
 70
     1
102
RTVSPropertyOp32
 70
     1
102
RTVSPropertyOp33
 70
     1
102
RTVSPropertyOp34
 70
     1
102
RTVSPropertyOp35
 70
     1
102
RTVSPropertyOp36
 70
     1
102
RTVSPropertyOp37
 70
     1
102
RTVSPropertyOp38
 70
     1
102
RTVSPropertyOp39
 70
     1
102
RTVSPropertyOp40
 70
     1
102
RTVSPropertyOp41
 70
     1
102
RTVSPropertyOp42
 70
     1
102
RTVSPropertyOp43
 70
     1
102
RTVSPropertyOp44
 70
     1
102
RTVSPropertyOp45
 70
     1
102
RTVSPropertyOp46
 70
     1
102
RTVSPropertyOp47
 70
     1
102
RTVSPropertyOp48
 70
     1
102
RTVSPropertyOp49
 70
     1
102
RTVSPropertyOp50
 70
     1
102
RTVSPropertyOp51
 70
     0
102
RTVSPropertyOp52
 70
     0
102
RTVSPropertyOp53
 70
     1
102
RTVSPropertyOp54
 70
     1
102
RTVSPropertyOp55
 70
     1
102
RTVSPropertyOp56
 70
     1
102
RTVSPropertyOp57
 70
     1
102
RTVSPropertyOp58
 70
     1
102
RTVSPropertyOp59
 70
     1
102
RTVSPropertyOp60
 70
     1
102
RTVSPropertyOp61
 70
     1
102
RTVSPropertyOp62
 70
     1
  0
XRECORD
  5
8571
102
{ACAD_REACTORS
330
8570
102
}
330
8570
100
AcDbXrecord
280
     1
102
RTVSPost2010Prop28
280
     0
102
RTVSPost2010PropOp28
 70
     1
102
RTVSPost2010Prop29
280
     1
102
RTVSPost2010PropOp29
 70
     1
102
RTVSPost2010Prop30
280
     1
102
RTVSPost2010PropOp30
 70
     1
102
RTVSPost2010Prop31
280
     0
102
RTVSPost2010PropOp31
 70
     1
102
RTVSPost2010Prop32
280
     0
102
RTVSPost2010PropOp32
 70
     1
102
RTVSPost2010Prop33
280
     0
102
RTVSPost2010PropOp33
 70
     1
102
RTVSPost2010Prop34
280
     0
102
RTVSPost2010PropOp34
 70
     1
102
RTVSPost2010Prop35
280
     0
102
RTVSPost2010PropOp35
 70
     1
102
RTVSPost2010Prop36
280
     0
102
RTVSPost2010PropOp36
 70
     1
102
RTVSPost2010Prop37
 90
       50
102
RTVSPost2010PropOp37
 70
     1
102
RTVSPost2010Prop38
140
0.0
102
RTVSPost2010PropOp38
 70
     1
102
RTVSPost2010Prop39
140
1.0
102
RTVSPost2010PropOp39
 70
     1
102
RTVSPost2010Prop40
 90
        0
102
RTVSPost2010PropOp40
 70
     1
102
RTVSPost2010Prop41ColorIndex
 90
       18
102
RTVSPost2010Prop41ColorRGB
 90
        0
102
RTVSPost2010PropOp41
 70
     1
102
RTVSPost2010Prop42
 90
       50
102
RTVSPost2010PropOp42
 70
     1
102
RTVSPost2010Prop43
 90
        3
102
RTVSPost2010PropOp43
 70
     1
102
RTVSPost2010Prop44ColorIndex
 90
        5
102
RTVSPost2010Prop44ColorRGB
 90
      255
102
RTVSPost2010PropOp44
 70
     1
102
RTVSPost2010Prop45
280
     0
102
RTVSPost2010PropOp45
 70
     1
102
RTVSPost2010Prop46
 90
       50
102
RTVSPost2010PropOp46
 70
     1
102
RTVSPost2010Prop47
 90
       50
102
RTVSPost2010PropOp47
 70
     1
102
RTVSPost2010Prop48
 90
       50
102
RTVSPost2010PropOp48
 70
     1
102
RTVSPost2010Prop49
280
     0
102
RTVSPost2010PropOp49
 70
     1
102
RTVSPost2010Prop50
 90
       50
102
RTVSPost2010PropOp50
 70
     1
102
RTVSPost2010Prop51ColorIndex
 90
      256
102
RTVSPost2010Prop51ColorRGB
 90
-16777216
102
RTVSPost2010PropOp51
 70
     0
102
RTVSPost2010Prop52
140
1.0
102
RTVSPost2010PropOp52
 70
     0
102
RTVSPost2010Prop53
 90
        2
102
RTVSPost2010PropOp53
 70
     1
102
RTVSPost2010Prop54
  1
strokes_ogs.tif
102
RTVSPost2010PropOp54
 70
     1
102
RTVSPost2010Prop55
280
     0
102
RTVSPost2010PropOp55
 70
     1
102
RTVSPost2010Prop56
140
1.0
102
RTVSPost2010PropOp56
 70
     1
102
RTVSPost2010Prop57
140
1.0
102
RTVSPost2010PropOp57
 70
     1
102
RTVSPropertyOp0
 70
     1
102
RTVSPropertyOp1
 70
     1
102
RTVSPropertyOp2
 70
     1
102
RTVSPropertyOp3
 70
     1
102
RTVSPropertyOp4
 70
     1
102
RTVSPropertyOp5
 70
     1
102
RTVSPropertyOp6
 70
     1
102
RTVSPropertyOp7
 70
     1
102
RTVSPropertyOp8
 70
     1
102
RTVSPropertyOp9
 70
     1
102
RTVSPropertyOp10
 70
     1
102
RTVSPropertyOp11
 70
     1
102
RTVSPropertyOp12
 70
     1
102
RTVSPropertyOp13
 70
     1
102
RTVSPropertyOp14
 70
     1
102
RTVSPropertyOp15
 70
     1
102
RTVSPropertyOp16
 70
     1
102
RTVSPropertyOp17
 70
     1
102
RTVSPropertyOp18
 70
     1
102
RTVSPropertyOp19
 70
     1
102
RTVSPropertyOp20
 70
     1
102
RTVSPropertyOp21
 70
     1
102
RTVSPropertyOp22
 70
     1
102
RTVSPropertyOp23
 70
     1
102
RTVSPropertyOp24
 70
     1
102
RTVSPropertyOp25
 70
     1
102
RTVSPropertyOp26
 70
     1
102
RTVSPropertyOp27
 70
     1
102
RTVSPropertyOp28
 70
     1
102
RTVSPropertyOp29
 70
     1
102
RTVSPropertyOp30
 70
     1
102
RTVSPropertyOp31
 70
     1
102
RTVSPropertyOp32
 70
     1
102
RTVSPropertyOp33
 70
     1
102
RTVSPropertyOp34
 70
     1
102
RTVSPropertyOp35
 70
     1
102
RTVSPropertyOp36
 70
     1
102
RTVSPropertyOp37
 70
     1
102
RTVSPropertyOp38
 70
     1
102
RTVSPropertyOp39
 70
     1
102
RTVSPropertyOp40
 70
     1
102
RTVSPropertyOp41
 70
     1
102
RTVSPropertyOp42
 70
     1
102
RTVSPropertyOp43
 70
     1
102
RTVSPropertyOp44
 70
     1
102
RTVSPropertyOp45
 70
     1
102
RTVSPropertyOp46
 70
     1
102
RTVSPropertyOp47
 70
     1
102
RTVSPropertyOp48
 70
     1
102
RTVSPropertyOp49
 70
     1
102
RTVSPropertyOp50
 70
     1
102
RTVSPropertyOp51
 70
     0
102
RTVSPropertyOp52
 70
     0
102
RTVSPropertyOp53
 70
     1
102
RTVSPropertyOp54
 70
     1
102
RTVSPropertyOp55
 70
     1
102
RTVSPropertyOp56
 70
     1
102
RTVSPropertyOp57
 70
     1
102
RTVSPropertyOp58
 70
     1
102
RTVSPropertyOp59
 70
     1
102
RTVSPropertyOp60
 70
     1
102
RTVSPropertyOp61
 70
     1
102
RTVSPropertyOp62
 70
     1
  0
XRECORD
  5
8565
102
{ACAD_REACTORS
330
8564
102
}
330
8564
100
AcDbXrecord
280
     1
102
RTVSPost2010Prop28
280
     0
102
RTVSPost2010PropOp28
 70
     1
102
RTVSPost2010Prop29
280
     1
102
RTVSPost2010PropOp29
 70
     1
102
RTVSPost2010Prop30
280
     1
102
RTVSPost2010PropOp30
 70
     1
102
RTVSPost2010Prop31
280
     0
102
RTVSPost2010PropOp31
 70
     1
102
RTVSPost2010Prop32
280
     0
102
RTVSPost2010PropOp32
 70
     1
102
RTVSPost2010Prop33
280
     0
102
RTVSPost2010PropOp33
 70
     1
102
RTVSPost2010Prop34
280
     0
102
RTVSPost2010PropOp34
 70
     1
102
RTVSPost2010Prop35
280
     0
102
RTVSPost2010PropOp35
 70
     1
102
RTVSPost2010Prop36
280
     0
102
RTVSPost2010PropOp36
 70
     1
102
RTVSPost2010Prop37
 90
       50
102
RTVSPost2010PropOp37
 70
     1
102
RTVSPost2010Prop38
140
0.0
102
RTVSPost2010PropOp38
 70
     1
102
RTVSPost2010Prop39
140
1.0
102
RTVSPost2010PropOp39
 70
     1
102
RTVSPost2010Prop40
 90
        0
102
RTVSPost2010PropOp40
 70
     1
102
RTVSPost2010Prop41ColorIndex
 90
       18
102
RTVSPost2010Prop41ColorRGB
 90
        0
102
RTVSPost2010PropOp41
 70
     1
102
RTVSPost2010Prop42
 90
       50
102
RTVSPost2010PropOp42
 70
     1
102
RTVSPost2010Prop43
 90
        3
102
RTVSPost2010PropOp43
 70
     1
102
RTVSPost2010Prop44ColorIndex
 90
        5
102
RTVSPost2010Prop44ColorRGB
 90
      255
102
RTVSPost2010PropOp44
 70
     1
102
RTVSPost2010Prop45
280
     0
102
RTVSPost2010PropOp45
 70
     1
102
RTVSPost2010Prop46
 90
       50
102
RTVSPost2010PropOp46
 70
     1
102
RTVSPost2010Prop47
 90
       50
102
RTVSPost2010PropOp47
 70
     1
102
RTVSPost2010Prop48
 90
       50
102
RTVSPost2010PropOp48
 70
     1
102
RTVSPost2010Prop49
280
     0
102
RTVSPost2010PropOp49
 70
     1
102
RTVSPost2010Prop50
 90
       50
102
RTVSPost2010PropOp50
 70
     1
102
RTVSPost2010Prop51ColorIndex
 90
      256
102
RTVSPost2010Prop51ColorRGB
 90
-16777216
102
RTVSPost2010PropOp51
 70
     0
102
RTVSPost2010Prop52
140
1.0
102
RTVSPost2010PropOp52
 70
     0
102
RTVSPost2010Prop53
 90
        2
102
RTVSPost2010PropOp53
 70
     1
102
RTVSPost2010Prop54
  1
strokes_ogs.tif
102
RTVSPost2010PropOp54
 70
     1
102
RTVSPost2010Prop55
280
     0
102
RTVSPost2010PropOp55
 70
     1
102
RTVSPost2010Prop56
140
1.0
102
RTVSPost2010PropOp56
 70
     1
102
RTVSPost2010Prop57
140
1.0
102
RTVSPost2010PropOp57
 70
     1
102
RTVSPropertyOp0
 70
     1
102
RTVSPropertyOp1
 70
     1
102
RTVSPropertyOp2
 70
     1
102
RTVSPropertyOp3
 70
     1
102
RTVSPropertyOp4
 70
     1
102
RTVSPropertyOp5
 70
     1
102
RTVSPropertyOp6
 70
     1
102
RTVSPropertyOp7
 70
     1
102
RTVSPropertyOp8
 70
     1
102
RTVSPropertyOp9
 70
     1
102
RTVSPropertyOp10
 70
     1
102
RTVSPropertyOp11
 70
     1
102
RTVSPropertyOp12
 70
     1
102
RTVSPropertyOp13
 70
     1
102
RTVSPropertyOp14
 70
     1
102
RTVSPropertyOp15
 70
     1
102
RTVSPropertyOp16
 70
     1
102
RTVSPropertyOp17
 70
     1
102
RTVSPropertyOp18
 70
     1
102
RTVSPropertyOp19
 70
     1
102
RTVSPropertyOp20
 70
     1
102
RTVSPropertyOp21
 70
     1
102
RTVSPropertyOp22
 70
     1
102
RTVSPropertyOp23
 70
     1
102
RTVSPropertyOp24
 70
     1
102
RTVSPropertyOp25
 70
     1
102
RTVSPropertyOp26
 70
     1
102
RTVSPropertyOp27
 70
     1
102
RTVSPropertyOp28
 70
     1
102
RTVSPropertyOp29
 70
     1
102
RTVSPropertyOp30
 70
     1
102
RTVSPropertyOp31
 70
     1
102
RTVSPropertyOp32
 70
     1
102
RTVSPropertyOp33
 70
     1
102
RTVSPropertyOp34
 70
     1
102
RTVSPropertyOp35
 70
     1
102
RTVSPropertyOp36
 70
     1
102
RTVSPropertyOp37
 70
     1
102
RTVSPropertyOp38
 70
     1
102
RTVSPropertyOp39
 70
     1
102
RTVSPropertyOp40
 70
     1
102
RTVSPropertyOp41
 70
     1
102
RTVSPropertyOp42
 70
     1
102
RTVSPropertyOp43
 70
     1
102
RTVSPropertyOp44
 70
     1
102
RTVSPropertyOp45
 70
     1
102
RTVSPropertyOp46
 70
     1
102
RTVSPropertyOp47
 70
     1
102
RTVSPropertyOp48
 70
     1
102
RTVSPropertyOp49
 70
     1
102
RTVSPropertyOp50
 70
     1
102
RTVSPropertyOp51
 70
     0
102
RTVSPropertyOp52
 70
     0
102
RTVSPropertyOp53
 70
     1
102
RTVSPropertyOp54
 70
     1
102
RTVSPropertyOp55
 70
     1
102
RTVSPropertyOp56
 70
     1
102
RTVSPropertyOp57
 70
     1
102
RTVSPropertyOp58
 70
     1
102
RTVSPropertyOp59
 70
     1
102
RTVSPropertyOp60
 70
     1
102
RTVSPropertyOp61
 70
     1
102
RTVSPropertyOp62
 70
     1
  0
XRECORD
  5
857D
102
{ACAD_REACTORS
330
857C
102
}
330
857C
100
AcDbXrecord
280
     1
102
RTVSPost2010Prop28
280
     0
102
RTVSPost2010PropOp28
 70
     1
102
RTVSPost2010Prop29
280
     1
102
RTVSPost2010PropOp29
 70
     1
102
RTVSPost2010Prop30
280
     1
102
RTVSPost2010PropOp30
 70
     1
102
RTVSPost2010Prop31
280
     0
102
RTVSPost2010PropOp31
 70
     1
102
RTVSPost2010Prop32
280
     0
102
RTVSPost2010PropOp32
 70
     1
102
RTVSPost2010Prop33
280
     0
102
RTVSPost2010PropOp33
 70
     1
102
RTVSPost2010Prop34
280
     0
102
RTVSPost2010PropOp34
 70
     1
102
RTVSPost2010Prop35
280
     0
102
RTVSPost2010PropOp35
 70
     1
102
RTVSPost2010Prop36
280
     0
102
RTVSPost2010PropOp36
 70
     1
102
RTVSPost2010Prop37
 90
       50
102
RTVSPost2010PropOp37
 70
     1
102
RTVSPost2010Prop38
140
0.0
102
RTVSPost2010PropOp38
 70
     1
102
RTVSPost2010Prop39
140
1.0
102
RTVSPost2010PropOp39
 70
     1
102
RTVSPost2010Prop40
 90
        0
102
RTVSPost2010PropOp40
 70
     1
102
RTVSPost2010Prop41ColorIndex
 90
       18
102
RTVSPost2010Prop41ColorRGB
 90
        0
102
RTVSPost2010PropOp41
 70
     1
102
RTVSPost2010Prop42
 90
       50
102
RTVSPost2010PropOp42
 70
     1
102
RTVSPost2010Prop43
 90
        3
102
RTVSPost2010PropOp43
 70
     1
102
RTVSPost2010Prop44ColorIndex
 90
        5
102
RTVSPost2010Prop44ColorRGB
 90
      255
102
RTVSPost2010PropOp44
 70
     1
102
RTVSPost2010Prop45
280
     0
102
RTVSPost2010PropOp45
 70
     1
102
RTVSPost2010Prop46
 90
       50
102
RTVSPost2010PropOp46
 70
     1
102
RTVSPost2010Prop47
 90
       50
102
RTVSPost2010PropOp47
 70
     1
102
RTVSPost2010Prop48
 90
       50
102
RTVSPost2010PropOp48
 70
     1
102
RTVSPost2010Prop49
280
     0
102
RTVSPost2010PropOp49
 70
     1
102
RTVSPost2010Prop50
 90
       50
102
RTVSPost2010PropOp50
 70
     1
102
RTVSPost2010Prop51ColorIndex
 90
      256
102
RTVSPost2010Prop51ColorRGB
 90
-16777216
102
RTVSPost2010PropOp51
 70
     0
102
RTVSPost2010Prop52
140
1.0
102
RTVSPost2010PropOp52
 70
     0
102
RTVSPost2010Prop53
 90
        2
102
RTVSPost2010PropOp53
 70
     1
102
RTVSPost2010Prop54
  1
strokes_ogs.tif
102
RTVSPost2010PropOp54
 70
     1
102
RTVSPost2010Prop55
280
     0
102
RTVSPost2010PropOp55
 70
     1
102
RTVSPost2010Prop56
140
1.0
102
RTVSPost2010PropOp56
 70
     1
102
RTVSPost2010Prop57
140
1.0
102
RTVSPost2010PropOp57
 70
     1
102
RTVSPropertyOp0
 70
     1
102
RTVSPropertyOp1
 70
     1
102
RTVSPropertyOp2
 70
     1
102
RTVSPropertyOp3
 70
     1
102
RTVSPropertyOp4
 70
     1
102
RTVSPropertyOp5
 70
     1
102
RTVSPropertyOp6
 70
     1
102
RTVSPropertyOp7
 70
     1
102
RTVSPropertyOp8
 70
     1
102
RTVSPropertyOp9
 70
     1
102
RTVSPropertyOp10
 70
     1
102
RTVSPropertyOp11
 70
     1
102
RTVSPropertyOp12
 70
     1
102
RTVSPropertyOp13
 70
     1
102
RTVSPropertyOp14
 70
     1
102
RTVSPropertyOp15
 70
     1
102
RTVSPropertyOp16
 70
     1
102
RTVSPropertyOp17
 70
     1
102
RTVSPropertyOp18
 70
     1
102
RTVSPropertyOp19
 70
     1
102
RTVSPropertyOp20
 70
     1
102
RTVSPropertyOp21
 70
     1
102
RTVSPropertyOp22
 70
     1
102
RTVSPropertyOp23
 70
     1
102
RTVSPropertyOp24
 70
     1
102
RTVSPropertyOp25
 70
     1
102
RTVSPropertyOp26
 70
     1
102
RTVSPropertyOp27
 70
     1
102
RTVSPropertyOp28
 70
     1
102
RTVSPropertyOp29
 70
     1
102
RTVSPropertyOp30
 70
     1
102
RTVSPropertyOp31
 70
     1
102
RTVSPropertyOp32
 70
     1
102
RTVSPropertyOp33
 70
     1
102
RTVSPropertyOp34
 70
     1
102
RTVSPropertyOp35
 70
     1
102
RTVSPropertyOp36
 70
     1
102
RTVSPropertyOp37
 70
     1
102
RTVSPropertyOp38
 70
     1
102
RTVSPropertyOp39
 70
     1
102
RTVSPropertyOp40
 70
     1
102
RTVSPropertyOp41
 70
     1
102
RTVSPropertyOp42
 70
     1
102
RTVSPropertyOp43
 70
     1
102
RTVSPropertyOp44
 70
     1
102
RTVSPropertyOp45
 70
     1
102
RTVSPropertyOp46
 70
     1
102
RTVSPropertyOp47
 70
     1
102
RTVSPropertyOp48
 70
     1
102
RTVSPropertyOp49
 70
     1
102
RTVSPropertyOp50
 70
     1
102
RTVSPropertyOp51
 70
     0
102
RTVSPropertyOp52
 70
     0
102
RTVSPropertyOp53
 70
     1
102
RTVSPropertyOp54
 70
     1
102
RTVSPropertyOp55
 70
     1
102
RTVSPropertyOp56
 70
     1
102
RTVSPropertyOp57
 70
     1
102
RTVSPropertyOp58
 70
     1
102
RTVSPropertyOp59
 70
     1
102
RTVSPropertyOp60
 70
     1
102
RTVSPropertyOp61
 70
     1
102
RTVSPropertyOp62
 70
     1
  0
ENDSEC
  0
EOF
