  0
SECTION
  2
HEADER
  9
$ACADVER
  1
AC1015
  9
$ACADMAINTVER
 70
    20
  9
$DWGCODEPAGE
  3
ANSI_932
  9
$INSBASE
 10
0.0
 20
0.0
 30
0.0
  9
$EXTMIN
 10
-0.2242870864283759
 20
-0.3150699547441036
 30
-0.0015258207003583
  9
$EXTMAX
 10
7350.224321312532
 20
10325.31511803427
 30
0.0000000349246037
  9
$LIMMIN
 10
0.0
 20
0.0
  9
$LIMMAX
 10
297.0
 20
210.0
  9
$ORTHOMODE
 70
     1
  9
$REGENMODE
 70
     1
  9
$FILLMODE
 70
     0
  9
$QTEXTMODE
 70
     0
  9
$MIRRTEXT
 70
     1
  9
$LTSCALE
 40
100.0
  9
$ATTMODE
 70
     1
  9
$TEXTSIZE
 40
180.0
  9
$TRACEWID
 40
0.05
  9
$TEXTSTYLE
  7
STANDARD
  9
$CLAYER
  8
3
  9
$CELTYPE
  6
ByLayer
  9
$CECOLOR
 62
   256
  9
$CELTSCALE
 40
1.0
  9
$DISPSILH
 70
     0
  9
$DIMSCALE
 40
35.0
  9
$DIMASZ
 40
2.0
  9
$DIMEXO
 40
0.5
  9
$DIMDLI
 40
10.0
  9
$DIMRND
 40
0.0
  9
$DIMDLE
 40
0.0
  9
$DIMEXE
 40
1.0
  9
$DIMTP
 40
1.0
  9
$DIMTM
 40
1.0
  9
$DIMTXT
 40
3.0
  9
$DIMCEN
 40
0.0
  9
$DIMTSZ
 40
0.0
  9
$DIMTOL
 70
     0
  9
$DIMLIM
 70
     0
  9
$DIMTIH
 70
     0
  9
$DIMTOH
 70
     0
  9
$DIMSE1
 70
     0
  9
$DIMSE2
 70
     0
  9
$DIMTAD
 70
     1
  9
$DIMZIN
 70
     8
  9
$DIMBLK
  1

  9
$DIMASO
 70
     1
  9
$DIMSHO
 70
     1
  9
$DIMPOST
  1
 <> 
  9
$DIMAPOST
  1

  9
$DIMALT
 70
     0
  9
$DIMALTD
 70
     2
  9
$DIMALTF
 40
0.039
  9
$DIMLFAC
 40
1.0
  9
$DIMTOFL
 70
     1
  9
$DIMTVP
 40
0.0
  9
$DIMTIX
 70
     0
  9
$DIMSOXD
 70
     0
  9
$DIMSAH
 70
     1
  9
$DIMBLK1
  1
OPEN
  9
$DIMBLK2
  1
OPEN
  9
$DIMSTYLE
  2
IGA
  9
$DIMCLRD
 70
     0
  9
$DIMCLRE
 70
     0
  9
$DIMCLRT
 70
     0
  9
$DIMTFAC
 40
10.0
  9
$DIMGAP
 40
1.0
  9
$DIMJUST
 70
     0
  9
$DIMSD1
 70
     0
  9
$DIMSD2
 70
     0
  9
$DIMTOLJ
 70
     1
  9
$DIMTZIN
 70
     0
  9
$DIMALTZ
 70
     0
  9
$DIMALTTZ
 70
     0
  9
$DIMUPT
 70
     0
  9
$DIMDEC
 70
     4
  9
$DIMTDEC
 70
     4
  9
$DIMALTU
 70
     2
  9
$DIMALTTD
 70
     2
  9
$DIMTXSTY
  7
STANDARD
  9
$DIMAUNIT
 70
     0
  9
$DIMADEC
 70
     0
  9
$DIMALTRND
 40
0.0
  9
$DIMAZIN
 70
     0
  9
$DIMDSEP
 70
    46
  9
$DIMATFIT
 70
     3
  9
$DIMFRAC
 70
     0
  9
$DIMLDRBLK
  1
OPEN
  9
$DIMLUNIT
 70
     2
  9
$DIMLWD
 70
    -2
  9
$DIMLWE
 70
    -2
  9
$DIMTMOVE
 70
     0
  9
$LUNITS
 70
     2
  9
$LUPREC
 70
     3
  9
$SKETCHINC
 40
0.1
  9
$FILLETRAD
 40
50.0
  9
$AUNITS
 70
     0
  9
$AUPREC
 70
     0
  9
$MENU
  1
acad
  9
$ELEVATION
 40
0.0
  9
$PELEVATION
 40
0.0
  9
$THICKNESS
 40
0.0
  9
$LIMCHECK
 70
     0
  9
$CHAMFERA
 40
0.5
  9
$CHAMFERB
 40
0.5
  9
$CHAMFERC
 40
0.0
  9
$CHAMFERD
 40
0.0
  9
$SKPOLY
 70
     0
  9
$TDCREATE
 40
2451390.386212616
  9
$TDUCREATE
 40
2451390.011212616
  9
$TDUPDATE
 40
2460273.535099294
  9
$TDUUPDATE
 40
2460273.160099294
  9
$TDINDWG
 40
0.0222239699
  9
$TDUSRTIMER
 40
0.0222236921
  9
$USRTIMER
 70
     1
  9
$ANGBASE
 50
0.0
  9
$ANGDIR
 70
     0
  9
$PDMODE
 70
     0
  9
$PDSIZE
 40
0.0
  9
$PLINEWID
 40
0.0
  9
$SPLFRAME
 70
     0
  9
$SPLINETYPE
 70
     6
  9
$SPLINESEGS
 70
     8
  9
$HANDSEED
  5
8650
  9
$SURFTAB1
 70
     6
  9
$SURFTAB2
 70
     6
  9
$SURFTYPE
 70
     6
  9
$SURFU
 70
     6
  9
$SURFV
 70
     6
  9
$UCSBASE
  2

  9
$UCSNAME
  2

  9
$UCSORG
 10
0.0
 20
0.0
 30
0.0
  9
$UCSXDIR
 10
1.0
 20
0.0
 30
0.0
  9
$UCSYDIR
 10
0.0
 20
1.0
 30
0.0
  9
$UCSORTHOREF
  2

  9
$UCSORTHOVIEW
 70
     0
  9
$UCSORGTOP
 10
0.0
 20
0.0
 30
0.0
  9
$UCSORGBOTTOM
 10
0.0
 20
0.0
 30
0.0
  9
$UCSORGLEFT
 10
0.0
 20
0.0
 30
0.0
  9
$UCSORGRIGHT
 10
0.0
 20
0.0
 30
0.0
  9
$UCSORGFRONT
 10
0.0
 20
0.0
 30
0.0
  9
$UCSORGBACK
 10
0.0
 20
0.0
 30
0.0
  9
$PUCSBASE
  2

  9
$PUCSNAME
  2

  9
$PUCSORG
 10
0.0
 20
0.0
 30
0.0
  9
$PUCSXDIR
 10
1.0
 20
0.0
 30
0.0
  9
$PUCSYDIR
 10
0.0
 20
1.0
 30
0.0
  9
$PUCSORTHOREF
  2

  9
$PUCSORTHOVIEW
 70
     0
  9
$PUCSORGTOP
 10
0.0
 20
0.0
 30
0.0
  9
$PUCSORGBOTTOM
 10
0.0
 20
0.0
 30
0.0
  9
$PUCSORGLEFT
 10
0.0
 20
0.0
 30
0.0
  9
$PUCSORGRIGHT
 10
0.0
 20
0.0
 30
0.0
  9
$PUCSORGFRONT
 10
0.0
 20
0.0
 30
0.0
  9
$PUCSORGBACK
 10
0.0
 20
0.0
 30
0.0
  9
$USERI1
 70
     0
  9
$USERI2
 70
     0
  9
$USERI3
 70
     0
  9
$USERI4
 70
     0
  9
$USERI5
 70
     0
  9
$USERR1
 40
0.0
  9
$USERR2
 40
0.0
  9
$USERR3
 40
0.0
  9
$USERR4
 40
0.0
  9
$USERR5
 40
0.0
  9
$WORLDVIEW
 70
     1
  9
$SHADEDGE
 70
     3
  9
$SHADEDIF
 70
    70
  9
$TILEMODE
 70
     1
  9
$MAXACTVP
 70
    16
  9
$PINSBASE
 10
0.0
 20
0.0
 30
0.0
  9
$PLIMCHECK
 70
     0
  9
$PEXTMIN
 10
1.000000000000000E+20
 20
1.000000000000000E+20
 30
1.000000000000000E+20
  9
$PEXTMAX
 10
-1.000000000000000E+20
 20
-1.000000000000000E+20
 30
-1.000000000000000E+20
  9
$PLIMMIN
 10
0.0
 20
0.0
  9
$PLIMMAX
 10
12.0
 20
9.0
  9
$UNITMODE
 70
     0
  9
$VISRETAIN
 70
     0
  9
$PLINEGEN
 70
     0
  9
$PSLTSCALE
 70
     1
  9
$TREEDEPTH
 70
  3020
  9
$CMLSTYLE
  2
Standard
  9
$CMLJUST
 70
     0
  9
$CMLSCALE
 40
1.0
  9
$PROXYGRAPHICS
 70
     1
  9
$MEASUREMENT
 70
     0
  9
$CELWEIGHT
370
    -1
  9
$ENDCAPS
280
     0
  9
$JOINSTYLE
280
     0
  9
$LWDISPLAY
290
     0
  9
$INSUNITS
 70
     0
  9
$HYPERLINKBASE
  1

  9
$STYLESHEET
  1

  9
$XEDIT
290
     1
  9
$CEPSNTYPE
380
     0
  9
$PSTYLEMODE
290
     1
  9
$FINGERPRINTGUID
  2
{4BBE51C2-E117-4E6C-8E26-C391ADC7C088}
  9
$VERSIONGUID
  2
{2590ACD0-343D-41BB-8EEB-4A50EFA88765}
  9
$EXTNAMES
290
     1
  9
$PSVPSCALE
 40
0.0
  9
$OLESTARTUP
290
     0
  0
ENDSEC
  0
SECTION
  2
CLASSES
  0
CLASS
  1
ACDBDICTIONARYWDFLT
  2
AcDbDictionaryWithDefault
  3
ObjectDBX Classes
 90
        0
280
     0
281
     0
  0
CLASS
  1
MATERIAL
  2
AcDbMaterial
  3
ObjectDBX Classes
 90
     1153
280
     0
281
     0
  0
CLASS
  1
VISUALSTYLE
  2
AcDbVisualStyle
  3
ObjectDBX Classes
 90
     4095
280
     0
281
     0
  0
CLASS
  1
SCALE
  2
AcDbScale
  3
ObjectDBX Classes
 90
     1153
280
     0
281
     0
  0
CLASS
  1
TABLESTYLE
  2
AcDbTableStyle
  3
ObjectDBX Classes
 90
     4095
280
     0
281
     0
  0
CLASS
  1
MLEADERSTYLE
  2
AcDbMLeaderStyle
  3
ACDB_MLEADERSTYLE_CLASS
 90
     4095
280
     0
281
     0
  0
CLASS
  1
ACDBSECTIONVIEWSTYLE
  2
AcDbSectionViewStyle
  3
ObjectDBX Classes
 90
     1025
280
     0
281
     0
  0
CLASS
  1
ACDBDETAILVIEWSTYLE
  2
AcDbDetailViewStyle
  3
ObjectDBX Classes
 90
     1025
280
     0
281
     0
  0
CLASS
  1
SORTENTSTABLE
  2
AcDbSortentsTable
  3
ObjectDBX Classes
 90
        0
280
     0
281
     0
  0
CLASS
  1
DICTIONARYVAR
  2
AcDbDictionaryVar
  3
ObjectDBX Classes
 90
        0
280
     0
281
     0
  0
CLASS
  1
CELLSTYLEMAP
  2
AcDbCellStyleMap
  3
ObjectDBX Classes
 90
     1152
280
     0
281
     0
  0
CLASS
  1
ACDBPLACEHOLDER
  2
AcDbPlaceHolder
  3
ObjectDBX Classes
 90
        0
280
     0
281
     0
  0
CLASS
  1
LAYOUT
  2
AcDbLayout
  3
ObjectDBX Classes
 90
        0
280
     0
281
     0
  0
ENDSEC
  0
SECTION
  2
TABLES
  0
TABLE
  2
VPORT
  5
8417
330
0
100
AcDbSymbolTable
 70
     1
  0
VPORT
  5
8483
330
8417
100
AcDbSymbolTableRecord
100
AcDbViewportTableRecord
  2
*ACTIVE
 70
     0
 10
0.0
 20
0.0
 11
1.0
 21
1.0
 12
3675.000017113053
 22
5162.500024039763
 13
0.0
 23
0.0
 14
10.0
 24
10.0
 15
10.0
 25
10.0
 16
0.0
 26
0.0
 36
1.0
 17
0.0
 27
0.0
 37
0.0
 40
10391.74948481712
 41
2.050213675213675
 42
50.0
 43
0.0
 44
0.0
 50
0.0
 51
0.0
 71
     0
 72
   100
 73
     1
 74
     0
 75
     0
 76
     0
 77
     0
 78
     0
281
     0
 65
     1
110
0.0
120
0.0
130
0.0
111
1.0
121
0.0
131
0.0
112
0.0
122
1.0
132
0.0
 79
     0
146
0.0
1001
ACAD_NAV_VCDISPLAY
1070
     3
  0
ENDTAB
  0
TABLE
  2
LTYPE
  5
8414
330
0
100
AcDbSymbolTable
 70
     3
  0
LTYPE
  5
8469
330
8414
100
AcDbSymbolTableRecord
100
AcDbLinetypeTableRecord
  2
ByBlock
 70
     0
  3

 72
    65
 73
     0
 40
0.0
  0
LTYPE
  5
846A
330
8414
100
AcDbSymbolTableRecord
100
AcDbLinetypeTableRecord
  2
ByLayer
 70
     0
  3

 72
    65
 73
     0
 40
0.0
  0
LTYPE
  5
846B
330
8414
100
AcDbSymbolTableRecord
100
AcDbLinetypeTableRecord
  2
CONTINUOUS
 70
     0
  3
Solid line
 72
    65
 73
     0
 40
0.0
  0
LTYPE
  5
8484
330
8414
100
AcDbSymbolTableRecord
100
AcDbLinetypeTableRecord
  2
CENTER
 70
     0
  3
____ _ ____ _ ____ _ ____ _ ____ _ ____ _ ____ 
 72
    65
 73
     4
 40
2.0
 49
1.25
 74
     0
 49
-0.25
 74
     0
 49
0.25
 74
     0
 49
-0.25
 74
     0
  0
ENDTAB
  0
TABLE
  2
LAYER
  5
8411
330
0
100
AcDbSymbolTable
 70
     6
  0
LAYER
  5
8463
102
{ACAD_XDICTIONARY
360
85FA
102
}
330
8411
100
AcDbSymbolTableRecord
100
AcDbLayerTableRecord
  2
0
 70
     0
 62
     7
  6
CONTINUOUS
370
    -3
390
841E
  0
LAYER
  5
8482
102
{ACAD_XDICTIONARY
360
85FC
102
}
330
8411
100
AcDbSymbolTableRecord
100
AcDbLayerTableRecord
  2
3
 70
     0
 62
     2
  6
CONTINUOUS
370
    -3
390
841E
  0
LAYER
  5
8485
102
{ACAD_XDICTIONARY
360
85FE
102
}
330
8411
100
AcDbSymbolTableRecord
100
AcDbLayerTableRecord
  2
2
 70
     0
 62
     3
  6
CENTER
370
    -3
390
841E
  0
LAYER
  5
8486
102
{ACAD_XDICTIONARY
360
8600
102
}
330
8411
100
AcDbSymbolTableRecord
100
AcDbLayerTableRecord
  2
1
 70
     0
 62
     4
  6
CONTINUOUS
370
    -3
390
841E
  0
LAYER
  5
8487
102
{ACAD_XDICTIONARY
360
8602
102
}
330
8411
100
AcDbSymbolTableRecord
100
AcDbLayerTableRecord
  2
4
 70
     0
 62
     7
  6
CONTINUOUS
370
    -3
390
841E
  0
LAYER
  5
8488
330
8411
100
AcDbSymbolTableRecord
100
AcDbLayerTableRecord
  2
DEFPOINTS
 70
     0
 62
     7
  6
CONTINUOUS
290
     0
370
    -3
390
841E
  0
ENDTAB
  0
TABLE
  2
STYLE
  5
8412
330
0
100
AcDbSymbolTable
 70
     2
  0
STYLE
  5
8464
330
8412
100
AcDbSymbolTableRecord
100
AcDbTextStyleTableRecord
  2
STANDARD
 70
     0
 40
0.0
 41
1.0
 50
0.0
 71
     0
 42
180.0
  3
simplex.shx
  4
extfont.shx
  0
STYLE
  5
8468
330
8412
100
AcDbSymbolTableRecord
100
AcDbTextStyleTableRecord
  2
Annotative
 70
     0
 40
0.0
 41
1.0
 50
0.0
 71
     0
 42
0.2
  3
txt
  4

1001
AcadAnnotative
1000
AnnotativeData
1002
{
1070
     1
1070
     1
1002
}
  0
ENDTAB
  0
TABLE
  2
VIEW
  5
8415
330
0
100
AcDbSymbolTable
 70
     0
  0
ENDTAB
  0
TABLE
  2
UCS
  5
8416
330
0
100
AcDbSymbolTable
 70
     0
  0
ENDTAB
  0
TABLE
  2
APPID
  5
8418
330
0
100
AcDbSymbolTable
 70
     6
  0
APPID
  5
8465
330
8418
100
AcDbSymbolTableRecord
100
AcDbRegAppTableRecord
  2
ACAD
 70
     0
  0
APPID
  5
846C
330
8418
100
AcDbSymbolTableRecord
100
AcDbRegAppTableRecord
  2
AcadAnnotative
 70
     0
  0
APPID
  5
84F8
330
8418
100
AcDbSymbolTableRecord
100
AcDbRegAppTableRecord
  2
AcadAnnoMonitorAlertIconDisabled
 70
     0
  0
APPID
  5
84F9
330
8418
100
AcDbSymbolTableRecord
100
AcDbRegAppTableRecord
  2
ACAD_EXEMPT_FROM_CAD_STANDARDS
 70
     0
  0
APPID
  5
860E
330
8418
100
AcDbSymbolTableRecord
100
AcDbRegAppTableRecord
  2
ACAD_NAV_VCDISPLAY
 70
     0
  0
APPID
  5
8647
330
8418
100
AcDbSymbolTableRecord
100
AcDbRegAppTableRecord
  2
ACAD_MLEADERVER
 70
     0
  0
ENDTAB
  0
TABLE
  2
DIMSTYLE
  5
8419
330
0
100
AcDbSymbolTable
 70
     3
100
AcDbDimStyleTable
 71
     1
340
8489
  0
DIMSTYLE
105
8466
102
{ACAD_REACTORS
330
827D
330
828A
330
8297
330
82A4
102
}
330
8419
100
AcDbSymbolTableRecord
100
AcDbDimStyleTableRecord
  2
Standard
 70
     0
340
8464
  0
DIMSTYLE
105
8467
330
8419
100
AcDbSymbolTableRecord
100
AcDbDimStyleTableRecord
  2
Annotative
 70
     0
340
8464
1001
AcadAnnotative
1000
AnnotativeData
1002
{
1070
     1
1070
     1
1002
}
  0
DIMSTYLE
105
8489
102
{ACAD_REACTORS
330
84C4
330
84D1
330
84DE
330
84EB
330
856B
330
8578
330
8585
330
8592
330
859F
330
85AC
330
85B9
330
85C6
330
85D3
330
85E0
330
85ED
102
}
330
8419
100
AcDbSymbolTableRecord
100
AcDbDimStyleTableRecord
  2
IGA
 70
     0
 40
2.0
 41
2.0
 42
0.5
 43
10.0
 44
1.0
 47
1.0
 48
1.0
 73
     0
 74
     0
 77
     1
 78
     8
140
3.0
141
0.0
143
0.03937
146
10.0
147
1.0
173
     1
271
     3
272
     3
279
     2
284
     8
285
     8
286
     8
340
8464
  0
ENDTAB
  0
TABLE
  2
BLOCK_RECORD
  5
8410
330
0
100
AcDbSymbolTable
 70
    41
  0
BLOCK_RECORD
  5
847E
102
{ACAD_XDICTIONARY
360
84C1
102
}
330
8410
100
AcDbSymbolTableRecord
100
AcDbBlockTableRecord
  2
*Model_Space
340
8481
  0
BLOCK_RECORD
  5
847A
330
8410
100
AcDbSymbolTableRecord
100
AcDbBlockTableRecord
  2
*Paper_Space
340
847D
  0
BLOCK_RECORD
  5
848D
330
8410
100
AcDbSymbolTableRecord
100
AcDbBlockTableRecord
  2
$MODEL_SPACE
340
0
  0
BLOCK_RECORD
  5
848F
330
8410
100
AcDbSymbolTableRecord
100
AcDbBlockTableRecord
  2
$PAPER_SPACE
340
0
  0
BLOCK_RECORD
  5
8491
330
8410
100
AcDbSymbolTableRecord
100
AcDbBlockTableRecord
  2
_OPEN
340
0
102
{BLKREFS
331
8276
331
8277
331
8283
331
8284
331
8290
331
8291
331
829D
331
829E
331
8379
331
837A
331
8382
331
8383
331
838B
331
838C
331
8394
331
8395
331
839D
331
839E
331
85DA
331
85DB
331
85E7
331
85E8
331
85F4
331
85F5
331
83A6
331
83A7
331
8572
331
8573
331
857F
331
8580
331
858C
331
858D
331
8599
331
859A
331
85A6
331
85A7
331
85B3
331
85B4
331
85C0
331
85C1
331
85CD
331
85CE
331
83AF
331
83B0
331
83B8
331
83B9
331
83F7
331
83F8
331
8546
331
8547
331
854F
331
8550
331
8565
331
8566
331
83C1
331
83C2
331
83CA
331
83CB
331
83D3
331
83D4
331
83DC
331
83DD
331
83E5
331
83E6
331
83EE
331
83EF
331
84D8
331
84D9
331
8507
331
8508
102
}
  0
BLOCK_RECORD
  5
8493
330
8410
100
AcDbSymbolTableRecord
100
AcDbBlockTableRecord
  2
YA_N
340
0
102
{BLKREFS
331
7C13
331
7C34
331
7C3D
331
7C69
331
7C93
102
}
  0
BLOCK_RECORD
  5
8495
330
8410
100
AcDbSymbolTableRecord
100
AcDbBlockTableRecord
  2
*D4
340
0
  0
BLOCK_RECORD
  5
8497
330
8410
100
AcDbSymbolTableRecord
100
AcDbBlockTableRecord
  2
*D5
340
0
  0
BLOCK_RECORD
  5
8499
330
8410
100
AcDbSymbolTableRecord
100
AcDbBlockTableRecord
  2
*D6
340
0
  0
BLOCK_RECORD
  5
849B
330
8410
100
AcDbSymbolTableRecord
100
AcDbBlockTableRecord
  2
*D7
340
0
  0
BLOCK_RECORD
  5
849D
330
8410
100
AcDbSymbolTableRecord
100
AcDbBlockTableRecord
  2
*D8
340
0
  0
BLOCK_RECORD
  5
849F
330
8410
100
AcDbSymbolTableRecord
100
AcDbBlockTableRecord
  2
*D9
340
0
  0
BLOCK_RECORD
  5
84A1
330
8410
100
AcDbSymbolTableRecord
100
AcDbBlockTableRecord
  2
*D10
340
0
  0
BLOCK_RECORD
  5
84A3
330
8410
100
AcDbSymbolTableRecord
100
AcDbBlockTableRecord
  2
*D11
340
0
  0
BLOCK_RECORD
  5
84A5
330
8410
100
AcDbSymbolTableRecord
100
AcDbBlockTableRecord
  2
*D12
340
0
  0
BLOCK_RECORD
  5
84A7
330
8410
100
AcDbSymbolTableRecord
100
AcDbBlockTableRecord
  2
*D13
340
0
  0
BLOCK_RECORD
  5
84A9
330
8410
100
AcDbSymbolTableRecord
100
AcDbBlockTableRecord
  2
*D14
340
0
  0
BLOCK_RECORD
  5
84AB
330
8410
100
AcDbSymbolTableRecord
100
AcDbBlockTableRecord
  2
*D15
340
0
  0
BLOCK_RECORD
  5
84AD
330
8410
100
AcDbSymbolTableRecord
100
AcDbBlockTableRecord
  2
*D16
340
0
  0
BLOCK_RECORD
  5
84AF
330
8410
100
AcDbSymbolTableRecord
100
AcDbBlockTableRecord
  2
*D17
340
0
  0
BLOCK_RECORD
  5
84B1
330
8410
100
AcDbSymbolTableRecord
100
AcDbBlockTableRecord
  2
*D18
340
0
  0
BLOCK_RECORD
  5
84B3
330
8410
100
AcDbSymbolTableRecord
100
AcDbBlockTableRecord
  2
_DOT
340
0
  0
BLOCK_RECORD
  5
84B5
330
8410
100
AcDbSymbolTableRecord
100
AcDbBlockTableRecord
  2
_NONE
340
0
  0
BLOCK_RECORD
  5
84B7
330
8410
100
AcDbSymbolTableRecord
100
AcDbBlockTableRecord
  2
*D21
340
0
  0
BLOCK_RECORD
  5
84B9
330
8410
100
AcDbSymbolTableRecord
100
AcDbBlockTableRecord
  2
*D22
340
0
  0
BLOCK_RECORD
  5
84BB
330
8410
100
AcDbSymbolTableRecord
100
AcDbBlockTableRecord
  2
*D23
340
0
  0
BLOCK_RECORD
  5
84BD
330
8410
100
AcDbSymbolTableRecord
100
AcDbBlockTableRecord
  2
*D24
340
0
  0
BLOCK_RECORD
  5
84C5
330
8410
100
AcDbSymbolTableRecord
100
AcDbBlockTableRecord
  2
*D25
340
0
  0
BLOCK_RECORD
  5
84D2
330
8410
100
AcDbSymbolTableRecord
100
AcDbBlockTableRecord
  2
*D26
340
0
  0
BLOCK_RECORD
  5
84DF
330
8410
100
AcDbSymbolTableRecord
100
AcDbBlockTableRecord
  2
*D27
340
0
  0
BLOCK_RECORD
  5
84EC
330
8410
100
AcDbSymbolTableRecord
100
AcDbBlockTableRecord
  2
*D28
340
0
  0
BLOCK_RECORD
  5
8556
330
8410
100
AcDbSymbolTableRecord
100
AcDbBlockTableRecord
  2
*D29
340
0
  0
BLOCK_RECORD
  5
856C
330
8410
100
AcDbSymbolTableRecord
100
AcDbBlockTableRecord
  2
*D30
340
0
  0
BLOCK_RECORD
  5
8579
330
8410
100
AcDbSymbolTableRecord
100
AcDbBlockTableRecord
  2
*D31
340
0
  0
BLOCK_RECORD
  5
8586
330
8410
100
AcDbSymbolTableRecord
100
AcDbBlockTableRecord
  2
*D32
340
0
  0
BLOCK_RECORD
  5
8593
330
8410
100
AcDbSymbolTableRecord
100
AcDbBlockTableRecord
  2
*D33
340
0
  0
BLOCK_RECORD
  5
85A0
330
8410
100
AcDbSymbolTableRecord
100
AcDbBlockTableRecord
  2
*D34
340
0
  0
BLOCK_RECORD
  5
85AD
330
8410
100
AcDbSymbolTableRecord
100
AcDbBlockTableRecord
  2
*D35
340
0
  0
BLOCK_RECORD
  5
85BA
330
8410
100
AcDbSymbolTableRecord
100
AcDbBlockTableRecord
  2
*D36
340
0
  0
BLOCK_RECORD
  5
85C7
330
8410
100
AcDbSymbolTableRecord
100
AcDbBlockTableRecord
  2
*D37
340
0
  0
BLOCK_RECORD
  5
85D4
330
8410
100
AcDbSymbolTableRecord
100
AcDbBlockTableRecord
  2
*D38
340
0
  0
BLOCK_RECORD
  5
85E1
330
8410
100
AcDbSymbolTableRecord
100
AcDbBlockTableRecord
  2
*D39
340
0
  0
BLOCK_RECORD
  5
85EE
330
8410
100
AcDbSymbolTableRecord
100
AcDbBlockTableRecord
  2
*D40
340
0
  0
ENDTAB
  0
ENDSEC
  0
SECTION
  2
BLOCKS
  0
BLOCK
  5
847F
330
847E
100
AcDbEntity
  8
0
100
AcDbBlockBegin
  2
*Model_Space
 70
     0
 10
0.0
 20
0.0
 30
0.0
  3
*Model_Space
  1

  0
ENDBLK
  5
8480
330
847E
100
AcDbEntity
  8
0
100
AcDbBlockEnd
  0
BLOCK
  5
847B
330
847A
100
AcDbEntity
 67
     1
  8
0
100
AcDbBlockBegin
  2
*Paper_Space
 70
     0
 10
0.0
 20
0.0
 30
0.0
  3
*Paper_Space
  1

  0
ENDBLK
  5
847C
330
847A
100
AcDbEntity
 67
     1
  8
0
100
AcDbBlockEnd
  0
BLOCK
  5
848E
330
848D
100
AcDbEntity
  8
0
100
AcDbBlockBegin
  2
$MODEL_SPACE
 70
     0
 10
0.0
 20
0.0
 30
0.0
  3
$MODEL_SPACE
  1

  0
ENDBLK
  5
1B
330
848D
100
AcDbEntity
  8
0
100
AcDbBlockEnd
  0
BLOCK
  5
8490
330
848F
100
AcDbEntity
  8
0
100
AcDbBlockBegin
  2
$PAPER_SPACE
 70
     0
 10
0.0
 20
0.0
 30
0.0
  3
$PAPER_SPACE
  1

  0
ENDBLK
  5
18
330
848F
100
AcDbEntity
  8
0
100
AcDbBlockEnd
  0
BLOCK
  5
8492
330
8491
100
AcDbEntity
  8
0
100
AcDbBlockBegin
  2
_OPEN
 70
     0
 10
0.0
 20
0.0
 30
0.0
  3
_OPEN
  1

  0
LINE
  5
79FD
330
8491
100
AcDbEntity
  8
0
  6
ByBlock
 62
     0
100
AcDbLine
 10
-1.0
 20
0.1666666666666666
 30
0.0
 11
0.0
 21
0.0
 31
0.0
  0
LINE
  5
79FE
330
8491
100
AcDbEntity
  8
0
  6
ByBlock
 62
     0
100
AcDbLine
 10
0.0
 20
0.0
 30
0.0
 11
-1.0
 21
-0.1666666666666666
 31
0.0
  0
LINE
  5
79FF
330
8491
100
AcDbEntity
  8
0
  6
ByBlock
 62
     0
100
AcDbLine
 10
0.0
 20
0.0
 30
0.0
 11
-1.0
 21
0.0
 31
0.0
  0
ENDBLK
  5
7A01
330
8491
100
AcDbEntity
  8
0
100
AcDbBlockEnd
  0
BLOCK
  5
8494
330
8493
100
AcDbEntity
  8
0
100
AcDbBlockBegin
  2
YA_N
 70
     0
 10
0.0
 20
0.0
 30
0.0
  3
YA_N
  1

  0
ENDBLK
  5
7A0C
330
8493
100
AcDbEntity
  8
0
100
AcDbBlockEnd
  0
BLOCK
  5
8496
330
8495
100
AcDbEntity
  8
0
100
AcDbBlockBegin
  2
*D4
 70
     1
 10
0.0
 20
0.0
 30
0.0
  3
*D4
  1

  0
LINE
  5
8376
330
8495
100
AcDbEntity
  8
3
 62
     0
100
AcDbLine
 10
3401.562617025251
 20
4554.192209343379
 30
0.0
 11
3619.170933309518
 21
4554.192209343379
 31
0.0
  0
LINE
  5
8377
330
8495
100
AcDbEntity
  8
3
 62
     0
100
AcDbLine
 10
3401.562617025251
 20
3404.192209343379
 30
0.0
 11
3619.170933309518
 21
3404.192209343379
 31
0.0
  0
LINE
  5
8378
330
8495
100
AcDbEntity
  8
3
 62
     0
100
AcDbLine
 10
3584.170933309517
 20
4484.192209343379
 30
0.0
 11
3584.170933309517
 21
3474.192209343379
 31
0.0
  0
INSERT
  5
8379
330
8495
100
AcDbEntity
  8
3
 62
     0
100
AcDbBlockReference
  2
_OPEN
 10
3584.170933309517
 20
4554.192209343379
 30
0.0
 41
70.0
 42
70.0
 43
70.0
 50
90.0
  0
INSERT
  5
837A
330
8495
100
AcDbEntity
  8
3
 62
     0
100
AcDbBlockReference
  2
_OPEN
 10
3584.170933309517
 20
3404.192209343379
 30
0.0
 41
70.0
 42
70.0
 43
70.0
 50
270.0
  0
TEXT
  5
8400
330
8495
100
AcDbEntity
  8
3
 62
     0
100
AcDbText
 10
3286.67
 20
3793.34
 30
0.0
 40
105.0
  1
1150
100
AcDbText
  0
POINT
  5
837C
330
8495
100
AcDbEntity
  8
DEFPOINTS
 62
     0
100
AcDbPoint
 10
3384.062617025249
 20
4554.192209343379
 30
0.0
  0
POINT
  5
837D
330
8495
100
AcDbEntity
  8
DEFPOINTS
 62
     0
100
AcDbPoint
 10
3384.062617025249
 20
3404.192209343379
 30
0.0
  0
POINT
  5
837E
330
8495
100
AcDbEntity
  8
DEFPOINTS
 62
     0
100
AcDbPoint
 10
3584.170933309517
 20
3404.192209343379
 30
0.0
  0
ENDBLK
  5
7F74
330
8495
100
AcDbEntity
  8
0
100
AcDbBlockEnd
  0
BLOCK
  5
8498
330
8497
100
AcDbEntity
  8
0
100
AcDbBlockBegin
  2
*D5
 70
     1
 10
0.0
 20
0.0
 30
0.0
  3
*D5
  1

  0
LINE
  5
837F
330
8497
100
AcDbEntity
  8
3
 62
     0
100
AcDbLine
 10
3401.562617025251
 20
4554.192209343379
 30
0.0
 11
3819.32258417102
 21
4554.192209343379
 31
0.0
  0
LINE
  5
8380
330
8497
100
AcDbEntity
  8
3
 62
     0
100
AcDbLine
 10
3487.401617923984
 20
3356.192209343378
 30
0.0
 11
3819.32258417102
 21
3356.192209343378
 31
0.0
  0
LINE
  5
8381
330
8497
100
AcDbEntity
  8
3
 62
     0
100
AcDbLine
 10
3784.322584171019
 20
4484.192209343379
 30
0.0
 11
3784.322584171019
 21
3426.192209343378
 31
0.0
  0
INSERT
  5
8382
330
8497
100
AcDbEntity
  8
3
 62
     0
100
AcDbBlockReference
  2
_OPEN
 10
3784.322584171019
 20
4554.192209343379
 30
0.0
 41
70.0
 42
70.0
 43
70.0
 50
90.0
  0
INSERT
  5
8383
330
8497
100
AcDbEntity
  8
3
 62
     0
100
AcDbBlockReference
  2
_OPEN
 10
3784.322584171019
 20
3356.192209343378
 30
0.0
 41
70.0
 42
70.0
 43
70.0
 50
270.0
  0
TEXT
  5
8401
330
8497
100
AcDbEntity
  8
3
 62
     0
100
AcDbText
 10
3486.82
 20
3769.340000000001
 30
0.0
 40
105.0
  1
1198
100
AcDbText
  0
POINT
  5
8385
330
8497
100
AcDbEntity
  8
DEFPOINTS
 62
     0
100
AcDbPoint
 10
3384.062617025249
 20
4554.192209343379
 30
0.0
  0
POINT
  5
8386
330
8497
100
AcDbEntity
  8
DEFPOINTS
 62
     0
100
AcDbPoint
 10
3469.901617923984
 20
3356.192209343378
 30
0.0
  0
POINT
  5
8387
330
8497
100
AcDbEntity
  8
DEFPOINTS
 62
     0
100
AcDbPoint
 10
3784.322584171019
 20
3356.192209343378
 30
0.0
  0
ENDBLK
  5
7F7F
330
8497
100
AcDbEntity
  8
0
100
AcDbBlockEnd
  0
BLOCK
  5
849A
330
8499
100
AcDbEntity
  8
0
100
AcDbBlockBegin
  2
*D6
 70
     1
 10
0.0
 20
0.0
 30
0.0
  3
*D6
  1

  0
LINE
  5
8388
330
8499
100
AcDbEntity
  8
3
 62
     0
100
AcDbLine
 10
3384.062617025249
 20
4624.692209343378
 30
0.0
 11
3384.062617025249
 21
4845.525596269836
 31
0.0
  0
LINE
  5
8389
330
8499
100
AcDbEntity
  8
3
 62
     0
100
AcDbLine
 10
2624.062617025249
 20
4687.605732334349
 30
0.0
 11
2624.062617025249
 21
4845.525596269836
 31
0.0
  0
LINE
  5
838A
330
8499
100
AcDbEntity
  8
3
 62
     0
100
AcDbLine
 10
3314.062617025251
 20
4810.525596269836
 30
0.0
 11
2694.062617025251
 21
4810.525596269836
 31
0.0
  0
INSERT
  5
838B
330
8499
100
AcDbEntity
  8
3
 62
     0
100
AcDbBlockReference
  2
_OPEN
 10
3384.062617025249
 20
4810.525596269836
 30
0.0
 41
70.0
 42
70.0
 43
70.0
  0
INSERT
  5
838C
330
8499
100
AcDbEntity
  8
3
 62
     0
100
AcDbBlockReference
  2
_OPEN
 10
2624.062617025249
 20
4810.525596269836
 30
0.0
 41
70.0
 42
70.0
 43
70.0
 50
180.0
  0
TEXT
  5
8402
330
8499
100
AcDbEntity
  8
3
 62
     0
100
AcDbText
 10
2794.06
 20
4712.18
 30
0.0
 40
105.0
  1
760
100
AcDbText
  0
POINT
  5
838E
330
8499
100
AcDbEntity
  8
DEFPOINTS
 62
     0
100
AcDbPoint
 10
3384.062617025249
 20
4607.192209343378
 30
0.0
  0
POINT
  5
838F
330
8499
100
AcDbEntity
  8
DEFPOINTS
 62
     0
100
AcDbPoint
 10
2624.062617025249
 20
4670.105732334348
 30
0.0
  0
POINT
  5
8390
330
8499
100
AcDbEntity
  8
DEFPOINTS
 62
     0
100
AcDbPoint
 10
2624.062617025249
 20
4810.525596269836
 30
0.0
  0
ENDBLK
  5
819E
330
8499
100
AcDbEntity
  8
0
100
AcDbBlockEnd
  0
BLOCK
  5
849C
330
849B
100
AcDbEntity
  8
0
100
AcDbBlockBegin
  2
*D7
 70
     1
 10
0.0
 20
0.0
 30
0.0
  3
*D7
  1

  0
LINE
  5
8391
330
849B
100
AcDbEntity
  8
3
 62
     0
100
AcDbLine
 10
2624.062617025249
 20
4687.605732334349
 30
0.0
 11
2624.062617025249
 21
4845.525596269836
 31
0.0
  0
LINE
  5
8392
330
849B
100
AcDbEntity
  8
3
 62
     0
100
AcDbLine
 10
1658.861054526632
 20
3373.692209343379
 30
0.0
 11
1658.861054526632
 21
4845.525596269836
 31
0.0
  0
LINE
  5
8393
330
849B
100
AcDbEntity
  8
3
 62
     0
100
AcDbLine
 10
2554.06261702525
 20
4810.525596269836
 30
0.0
 11
1728.861054526633
 21
4810.525596269836
 31
0.0
  0
INSERT
  5
8394
330
849B
100
AcDbEntity
  8
3
 62
     0
100
AcDbBlockReference
  2
_OPEN
 10
2624.062617025249
 20
4810.525596269836
 30
0.0
 41
70.0
 42
70.0
 43
70.0
  0
INSERT
  5
8395
330
849B
100
AcDbEntity
  8
3
 62
     0
100
AcDbBlockReference
  2
_OPEN
 10
1658.861054526632
 20
4810.525596269836
 30
0.0
 41
70.0
 42
70.0
 43
70.0
 50
180.0
  0
TEXT
  5
8403
330
849B
100
AcDbEntity
  8
3
 62
     0
100
AcDbText
 10
1931.46
 20
4712.18
 30
0.0
 40
105.0
  1
969
100
AcDbText
  0
POINT
  5
8397
330
849B
100
AcDbEntity
  8
DEFPOINTS
 62
     0
100
AcDbPoint
 10
2624.062617025249
 20
4670.105732334348
 30
0.0
  0
POINT
  5
8398
330
849B
100
AcDbEntity
  8
DEFPOINTS
 62
     0
100
AcDbPoint
 10
1658.861054526632
 20
3356.19220934338
 30
0.0
  0
POINT
  5
8399
330
849B
100
AcDbEntity
  8
DEFPOINTS
 62
     0
100
AcDbPoint
 10
1658.861054526632
 20
4810.525596269836
 30
0.0
  0
ENDBLK
  5
81A9
330
849B
100
AcDbEntity
  8
0
100
AcDbBlockEnd
  0
BLOCK
  5
849E
330
849D
100
AcDbEntity
  8
0
100
AcDbBlockBegin
  2
*D8
 70
     1
 10
0.0
 20
0.0
 30
0.0
  3
*D8
  1

  0
LINE
  5
839A
330
849D
100
AcDbEntity
  8
3
 62
     0
100
AcDbLine
 10
4893.752841307505
 20
4560.353830076209
 30
0.0
 11
4893.752841307505
 21
4842.631848395775
 31
0.0
  0
LINE
  5
839B
330
849D
100
AcDbEntity
  8
3
 62
     0
100
AcDbLine
 10
6393.752841307505
 20
4554.504893414596
 30
0.0
 11
6393.752841307505
 21
4842.631848395775
 31
0.0
  0
LINE
  5
839C
330
849D
100
AcDbEntity
  8
3
 62
     0
100
AcDbLine
 10
4963.752841307505
 20
4807.631848395777
 30
0.0
 11
6323.752841307506
 21
4807.631848395777
 31
0.0
  0
INSERT
  5
839D
330
849D
100
AcDbEntity
  8
3
 62
     0
100
AcDbBlockReference
  2
_OPEN
 10
4893.752841307505
 20
4807.631848395777
 30
0.0
 41
70.0
 42
70.0
 43
70.0
 50
180.0
  0
INSERT
  5
839E
330
849D
100
AcDbEntity
  8
3
 62
     0
100
AcDbBlockReference
  2
_OPEN
 10
6393.752841307505
 20
4807.631848395777
 30
0.0
 41
70.0
 42
70.0
 43
70.0
  0
TEXT
  5
8404
330
849D
100
AcDbEntity
  8
3
 62
     0
100
AcDbText
 10
5433.749999999999
 20
4709.279999999999
 30
0.0
 40
105.0
  1
1500
100
AcDbText
  0
POINT
  5
83A0
330
849D
100
AcDbEntity
  8
DEFPOINTS
 62
     0
100
AcDbPoint
 10
4893.752841307505
 20
4542.853830076209
 30
0.0
  0
POINT
  5
83A1
330
849D
100
AcDbEntity
  8
DEFPOINTS
 62
     0
100
AcDbPoint
 10
6393.752841307505
 20
4537.004893414596
 30
0.0
  0
POINT
  5
83A2
330
849D
100
AcDbEntity
  8
DEFPOINTS
 62
     0
100
AcDbPoint
 10
6393.752841307505
 20
4807.631848395777
 30
0.0
  0
ENDBLK
  5
8005
330
849D
100
AcDbEntity
  8
0
100
AcDbBlockEnd
  0
BLOCK
  5
84A0
330
849F
100
AcDbEntity
  8
0
100
AcDbBlockBegin
  2
*D9
 70
     1
 10
0.0
 20
0.0
 30
0.0
  3
*D9
  1

  0
LINE
  5
83A3
330
849F
100
AcDbEntity
  8
3
 62
     0
100
AcDbLine
 10
5643.752841307503
 20
4969.368152189137
 30
0.0
 11
5643.752841307503
 21
5082.767764100376
 31
0.0
  0
LINE
  5
83A4
330
849F
100
AcDbEntity
  8
3
 62
     0
100
AcDbLine
 10
6558.752841307502
 20
3286.731686448574
 30
0.0
 11
6558.752841307502
 21
5082.767764100376
 31
0.0
  0
LINE
  5
83A5
330
849F
100
AcDbEntity
  8
3
 62
     0
100
AcDbLine
 10
5713.752841307503
 20
5047.767764100376
 30
0.0
 11
6488.752841307503
 21
5047.767764100376
 31
0.0
  0
INSERT
  5
83A6
330
849F
100
AcDbEntity
  8
3
 62
     0
100
AcDbBlockReference
  2
_OPEN
 10
5643.752841307503
 20
5047.767764100376
 30
0.0
 41
70.0
 42
70.0
 43
70.0
 50
180.0
  0
INSERT
  5
83A7
330
849F
100
AcDbEntity
  8
3
 62
     0
100
AcDbBlockReference
  2
_OPEN
 10
6558.752841307502
 20
5047.767764100376
 30
0.0
 41
70.0
 42
70.0
 43
70.0
  0
TEXT
  5
8405
330
849F
100
AcDbEntity
  8
3
 62
     0
100
AcDbText
 10
5891.25
 20
4976.92
 30
0.0
 40
105.0
  1
(930)
100
AcDbText
  0
POINT
  5
83A9
330
849F
100
AcDbEntity
  8
DEFPOINTS
 62
     0
100
AcDbPoint
 10
5643.752841307503
 20
4951.868152189138
 30
0.0
  0
POINT
  5
83AA
330
849F
100
AcDbEntity
  8
DEFPOINTS
 62
     0
100
AcDbPoint
 10
6558.752841307502
 20
3269.231686448573
 30
0.0
  0
POINT
  5
83AB
330
849F
100
AcDbEntity
  8
DEFPOINTS
 62
     0
100
AcDbPoint
 10
6558.752841307502
 20
5047.767764100376
 30
0.0
  0
ENDBLK
  5
8192
330
849F
100
AcDbEntity
  8
0
100
AcDbBlockEnd
  0
BLOCK
  5
84A2
330
84A1
100
AcDbEntity
  8
0
100
AcDbBlockBegin
  2
*D10
 70
     1
 10
0.0
 20
0.0
 30
0.0
  3
*D10
  1

  0
LINE
  5
83AC
330
84A1
100
AcDbEntity
  8
3
 62
     0
100
AcDbLine
 10
6416.752841307507
 20
2796.192209343379
 30
0.0
 11
6871.612169487121
 21
2796.192209343379
 31
0.0
  0
LINE
  5
83AD
330
84A1
100
AcDbEntity
  8
3
 62
     0
100
AcDbLine
 10
6416.752841307507
 20
3916.192209343378
 30
0.0
 11
6871.612169487121
 21
3916.192209343378
 31
0.0
  0
LINE
  5
83AE
330
84A1
100
AcDbEntity
  8
3
 62
     0
100
AcDbLine
 10
6836.612169487122
 20
2866.192209343378
 30
0.0
 11
6836.612169487122
 21
3846.192209343378
 31
0.0
  0
INSERT
  5
83AF
330
84A1
100
AcDbEntity
  8
3
 62
     0
100
AcDbBlockReference
  2
_OPEN
 10
6836.612169487122
 20
2796.192209343379
 30
0.0
 41
70.0
 42
70.0
 43
70.0
 50
270.0
  0
INSERT
  5
83B0
330
84A1
100
AcDbEntity
  8
3
 62
     0
100
AcDbBlockReference
  2
_OPEN
 10
6836.612169487122
 20
3916.192209343378
 30
0.0
 41
70.0
 42
70.0
 43
70.0
 50
90.0
  0
TEXT
  5
8406
330
84A1
100
AcDbEntity
  8
3
 62
     0
100
AcDbText
 10
6539.109999999999
 20
3170.34
 30
0.0
 40
105.0
  1
\U+03C61120
100
AcDbText
  0
POINT
  5
83B2
330
84A1
100
AcDbEntity
  8
DEFPOINTS
 62
     0
100
AcDbPoint
 10
6399.252841307507
 20
2796.192209343379
 30
0.0
  0
POINT
  5
83B3
330
84A1
100
AcDbEntity
  8
DEFPOINTS
 62
     0
100
AcDbPoint
 10
6399.252841307507
 20
3916.192209343378
 30
0.0
  0
POINT
  5
83B4
330
84A1
100
AcDbEntity
  8
DEFPOINTS
 62
     0
100
AcDbPoint
 10
6836.612169487122
 20
3916.192209343378
 30
0.0
  0
ENDBLK
  5
813D
330
84A1
100
AcDbEntity
  8
0
100
AcDbBlockEnd
  0
BLOCK
  5
84A4
330
84A3
100
AcDbEntity
  8
0
100
AcDbBlockBegin
  2
*D11
 70
     1
 10
0.0
 20
0.0
 30
0.0
  3
*D11
  1

  0
LINE
  5
83B5
330
84A3
100
AcDbEntity
  8
3
 62
     0
100
AcDbLine
 10
3487.401617923984
 20
3356.192209343378
 30
0.0
 11
3817.735283578247
 21
3356.192209343378
 31
0.0
  0
LINE
  5
83B6
330
84A3
100
AcDbEntity
  8
3
 62
     0
100
AcDbLine
 10
3301.562617025251
 20
2516.192209343379
 30
0.0
 11
3817.735283578247
 21
2516.192209343379
 31
0.0
  0
LINE
  5
83B7
330
84A3
100
AcDbEntity
  8
3
 62
     0
100
AcDbLine
 10
3782.735283578249
 20
3286.192209343379
 30
0.0
 11
3782.735283578247
 21
2586.192209343379
 31
0.0
  0
INSERT
  5
83B8
330
84A3
100
AcDbEntity
  8
3
 62
     0
100
AcDbBlockReference
  2
_OPEN
 10
3782.735283578249
 20
3356.192209343378
 30
0.0
 41
70.0
 42
70.0
 43
70.0
 50
90.0
  0
INSERT
  5
83B9
330
84A3
100
AcDbEntity
  8
3
 62
     0
100
AcDbBlockReference
  2
_OPEN
 10
3782.735283578247
 20
2516.192209343379
 30
0.0
 41
70.0
 42
70.0
 43
70.0
 50
270.0
  0
TEXT
  5
8407
330
84A3
100
AcDbEntity
  8
3
 62
     0
100
AcDbText
 10
3485.24
 20
2750.34
 30
0.0
 40
105.0
  1
840
100
AcDbText
  0
POINT
  5
83BB
330
84A3
100
AcDbEntity
  8
DEFPOINTS
 62
     0
100
AcDbPoint
 10
3469.901617923984
 20
3356.192209343378
 30
0.0
  0
POINT
  5
83BC
330
84A3
100
AcDbEntity
  8
DEFPOINTS
 62
     0
100
AcDbPoint
 10
3284.062617025249
 20
2516.192209343379
 30
0.0
  0
POINT
  5
83BD
330
84A3
100
AcDbEntity
  8
DEFPOINTS
 62
     0
100
AcDbPoint
 10
3782.735283578247
 20
2516.192209343379
 30
0.0
  0
ENDBLK
  5
7F95
330
84A3
100
AcDbEntity
  8
0
100
AcDbBlockEnd
  0
BLOCK
  5
84A6
330
84A5
100
AcDbEntity
  8
0
100
AcDbBlockBegin
  2
*D12
 70
     1
 10
0.0
 20
0.0
 30
0.0
  3
*D12
  1

  0
LINE
  5
83BE
330
84A5
100
AcDbEntity
  8
3
 62
     0
100
AcDbLine
 10
4521.052841307505
 20
3753.692209343379
 30
0.0
 11
4521.052841307505
 21
5081.751112831963
 31
0.0
  0
LINE
  5
83BF
330
84A5
100
AcDbEntity
  8
3
 62
     0
100
AcDbLine
 10
5643.752841307503
 20
4969.368152189137
 30
0.0
 11
5643.752841307503
 21
5081.751112831963
 31
0.0
  0
LINE
  5
83C0
330
84A5
100
AcDbEntity
  8
3
 62
     0
100
AcDbLine
 10
4591.052841307505
 20
5046.751112831964
 30
0.0
 11
5573.752841307503
 21
5046.751112831964
 31
0.0
  0
INSERT
  5
83C1
330
84A5
100
AcDbEntity
  8
3
 62
     0
100
AcDbBlockReference
  2
_OPEN
 10
4521.052841307505
 20
5046.751112831964
 30
0.0
 41
70.0
 42
70.0
 43
70.0
 50
180.0
  0
INSERT
  5
83C2
330
84A5
100
AcDbEntity
  8
3
 62
     0
100
AcDbBlockReference
  2
_OPEN
 10
5643.752841307503
 20
5046.751112831964
 30
0.0
 41
70.0
 42
70.0
 43
70.0
  0
TEXT
  5
8408
330
84A5
100
AcDbEntity
  8
3
 62
     0
100
AcDbText
 10
4872.399999999999
 20
5035.899999999999
 30
0.0
 40
105.0
  1
MAX
100
AcDbText
  0
TEXT
  5
8409
330
84A5
100
AcDbEntity
  8
3
 62
     0
100
AcDbText
 10
4872.399999999999
 20
4899.399999999999
 30
0.0
 40
105.0
  1
1120
100
AcDbText
  0
POINT
  5
83C4
330
84A5
100
AcDbEntity
  8
DEFPOINTS
 62
     0
100
AcDbPoint
 10
4521.052841307505
 20
3736.192209343379
 30
0.0
  0
POINT
  5
83C5
330
84A5
100
AcDbEntity
  8
DEFPOINTS
 62
     0
100
AcDbPoint
 10
5643.752841307503
 20
4951.868152189138
 30
0.0
  0
POINT
  5
83C6
330
84A5
100
AcDbEntity
  8
DEFPOINTS
 62
     0
100
AcDbPoint
 10
5643.752841307503
 20
5046.751112831964
 30
0.0
  0
ENDBLK
  5
8187
330
84A5
100
AcDbEntity
  8
0
100
AcDbBlockEnd
  0
BLOCK
  5
84A8
330
84A7
100
AcDbEntity
  8
0
100
AcDbBlockBegin
  2
*D13
 70
     1
 10
0.0
 20
0.0
 30
0.0
  3
*D13
  1

  0
LINE
  5
83C7
330
84A7
100
AcDbEntity
  8
3
 62
     0
100
AcDbLine
 10
1964.062617025251
 20
7596.091300024716
 30
0.0
 11
1964.062617025251
 21
7843.010105037642
 31
0.0
  0
LINE
  5
83C8
330
84A7
100
AcDbEntity
  8
3
 62
     0
100
AcDbLine
 10
3284.062617025249
 20
7596.091300024719
 30
0.0
 11
3284.062617025249
 21
7843.010105037642
 31
0.0
  0
LINE
  5
83C9
330
84A7
100
AcDbEntity
  8
3
 62
     0
100
AcDbLine
 10
2034.06261702525
 20
7808.010105037642
 30
0.0
 11
3214.062617025251
 21
7808.010105037642
 31
0.0
  0
INSERT
  5
83CA
330
84A7
100
AcDbEntity
  8
3
 62
     0
100
AcDbBlockReference
  2
_OPEN
 10
1964.062617025251
 20
7808.010105037642
 30
0.0
 41
70.0
 42
70.0
 43
70.0
 50
180.0
  0
INSERT
  5
83CB
330
84A7
100
AcDbEntity
  8
3
 62
     0
100
AcDbBlockReference
  2
_OPEN
 10
3284.062617025249
 20
7808.010105037642
 30
0.0
 41
70.0
 42
70.0
 43
70.0
  0
TEXT
  5
840A
330
84A7
100
AcDbEntity
  8
3
 62
     0
100
AcDbText
 10
2414.06
 20
7709.659999999999
 30
0.0
 40
105.0
  1
1320
100
AcDbText
  0
POINT
  5
83CD
330
84A7
100
AcDbEntity
  8
DEFPOINTS
 62
     0
100
AcDbPoint
 10
1964.062617025251
 20
7578.591300024716
 30
0.0
  0
POINT
  5
83CE
330
84A7
100
AcDbEntity
  8
DEFPOINTS
 62
     0
100
AcDbPoint
 10
3284.062617025249
 20
7578.591300024719
 30
0.0
  0
POINT
  5
83CF
330
84A7
100
AcDbEntity
  8
DEFPOINTS
 62
     0
100
AcDbPoint
 10
3284.062617025249
 20
7808.010105037642
 30
0.0
  0
ENDBLK
  5
808B
330
84A7
100
AcDbEntity
  8
0
100
AcDbBlockEnd
  0
BLOCK
  5
84AA
330
84A9
100
AcDbEntity
  8
0
100
AcDbBlockBegin
  2
*D14
 70
     1
 10
0.0
 20
0.0
 30
0.0
  3
*D14
  1

  0
LINE
  5
83D0
330
84A9
100
AcDbEntity
  8
3
 62
     0
100
AcDbLine
 10
1006.56261702525
 20
6578.591300024716
 30
0.0
 11
773.2474876895395
 21
6578.591300024716
 31
0.0
  0
LINE
  5
83D1
330
84A9
100
AcDbEntity
  8
3
 62
     0
100
AcDbLine
 10
1006.56261702525
 20
5678.591300024716
 30
0.0
 11
773.2474876895393
 21
5678.591300024716
 31
0.0
  0
LINE
  5
83D2
330
84A9
100
AcDbEntity
  8
3
 62
     0
100
AcDbLine
 10
808.2474876895394
 20
6508.591300024716
 30
0.0
 11
808.2474876895393
 21
5748.591300024716
 31
0.0
  0
INSERT
  5
83D3
330
84A9
100
AcDbEntity
  8
3
 62
     0
100
AcDbBlockReference
  2
_OPEN
 10
808.2474876895394
 20
6578.591300024716
 30
0.0
 41
70.0
 42
70.0
 43
70.0
 50
90.0
  0
INSERT
  5
83D4
330
84A9
100
AcDbEntity
  8
3
 62
     0
100
AcDbBlockReference
  2
_OPEN
 10
808.2474876895393
 20
5678.591300024716
 30
0.0
 41
70.0
 42
70.0
 43
70.0
 50
270.0
  0
TEXT
  5
840B
330
84A9
100
AcDbEntity
  8
3
 62
     0
100
AcDbText
 10
510.7469999999999
 20
5942.74
 30
0.0
 40
105.0
  1
900
100
AcDbText
  0
POINT
  5
83D6
330
84A9
100
AcDbEntity
  8
DEFPOINTS
 62
     0
100
AcDbPoint
 10
1024.06261702525
 20
6578.591300024716
 30
0.0
  0
POINT
  5
83D7
330
84A9
100
AcDbEntity
  8
DEFPOINTS
 62
     0
100
AcDbPoint
 10
1024.06261702525
 20
5678.591300024716
 30
0.0
  0
POINT
  5
83D8
330
84A9
100
AcDbEntity
  8
DEFPOINTS
 62
     0
100
AcDbPoint
 10
808.2474876895393
 20
5678.591300024716
 30
0.0
  0
ENDBLK
  5
814C
330
84A9
100
AcDbEntity
  8
0
100
AcDbBlockEnd
  0
BLOCK
  5
84AC
330
84AB
100
AcDbEntity
  8
0
100
AcDbBlockBegin
  2
*D15
 70
     1
 10
0.0
 20
0.0
 30
0.0
  3
*D15
  1

  0
LINE
  5
83D9
330
84AB
100
AcDbEntity
  8
3
 62
     0
100
AcDbLine
 10
1024.06261702525
 20
5661.091300024716
 30
0.0
 11
1024.06261702525
 21
5296.934663388967
 31
0.0
  0
LINE
  5
83DA
330
84AB
100
AcDbEntity
  8
3
 62
     0
100
AcDbLine
 10
3284.062617025251
 20
5661.091300024716
 30
0.0
 11
3284.062617025251
 21
5296.934663388967
 31
0.0
  0
LINE
  5
83DB
330
84AB
100
AcDbEntity
  8
3
 62
     0
100
AcDbLine
 10
1094.06261702525
 20
5331.934663388967
 30
0.0
 11
3214.062617025251
 21
5331.934663388967
 31
0.0
  0
INSERT
  5
83DC
330
84AB
100
AcDbEntity
  8
3
 62
     0
100
AcDbBlockReference
  2
_OPEN
 10
1024.06261702525
 20
5331.934663388967
 30
0.0
 41
70.0
 42
70.0
 43
70.0
 50
180.0
  0
INSERT
  5
83DD
330
84AB
100
AcDbEntity
  8
3
 62
     0
100
AcDbBlockReference
  2
_OPEN
 10
3284.062617025251
 20
5331.934663388967
 30
0.0
 41
70.0
 42
70.0
 43
70.0
  0
TEXT
  5
840C
330
84AB
100
AcDbEntity
  8
3
 62
     0
100
AcDbText
 10
1944.06
 20
5233.579999999999
 30
0.0
 40
105.0
  1
2260
100
AcDbText
  0
POINT
  5
83DF
330
84AB
100
AcDbEntity
  8
DEFPOINTS
 62
     0
100
AcDbPoint
 10
1024.06261702525
 20
5678.591300024717
 30
0.0
  0
POINT
  5
83E0
330
84AB
100
AcDbEntity
  8
DEFPOINTS
 62
     0
100
AcDbPoint
 10
3284.062617025251
 20
5678.591300024717
 30
0.0
  0
POINT
  5
83E1
330
84AB
100
AcDbEntity
  8
DEFPOINTS
 62
     0
100
AcDbPoint
 10
3284.062617025251
 20
5331.934663388967
 30
0.0
  0
ENDBLK
  5
8096
330
84AB
100
AcDbEntity
  8
0
100
AcDbBlockEnd
  0
BLOCK
  5
84AE
330
84AD
100
AcDbEntity
  8
0
100
AcDbBlockBegin
  2
*D16
 70
     1
 10
0.0
 20
0.0
 30
0.0
  3
*D16
  1

  0
LINE
  5
83E2
330
84AD
100
AcDbEntity
  8
3
 62
     0
100
AcDbLine
 10
3301.562617025251
 20
7578.591300024719
 30
0.0
 11
3754.797915355994
 21
7578.591300024719
 31
0.0
  0
LINE
  5
83E3
330
84AD
100
AcDbEntity
  8
3
 62
     0
100
AcDbLine
 10
3301.562617025251
 20
5678.591300024717
 30
0.0
 11
3754.797915355993
 21
5678.591300024717
 31
0.0
  0
LINE
  5
83E4
330
84AD
100
AcDbEntity
  8
3
 62
     0
100
AcDbLine
 10
3719.797915355993
 20
7508.591300024718
 30
0.0
 11
3719.797915355993
 21
5748.591300024717
 31
0.0
  0
INSERT
  5
83E5
330
84AD
100
AcDbEntity
  8
3
 62
     0
100
AcDbBlockReference
  2
_OPEN
 10
3719.797915355993
 20
7578.591300024719
 30
0.0
 41
70.0
 42
70.0
 43
70.0
 50
90.0
  0
INSERT
  5
83E6
330
84AD
100
AcDbEntity
  8
3
 62
     0
100
AcDbBlockReference
  2
_OPEN
 10
3719.797915355993
 20
5678.591300024717
 30
0.0
 41
70.0
 42
70.0
 43
70.0
 50
270.0
  0
TEXT
  5
840D
330
84AD
100
AcDbEntity
  8
3
 62
     0
100
AcDbText
 10
3422.300000000001
 20
6442.74
 30
0.0
 40
105.0
  1
1900
100
AcDbText
  0
POINT
  5
83E8
330
84AD
100
AcDbEntity
  8
DEFPOINTS
 62
     0
100
AcDbPoint
 10
3284.062617025249
 20
7578.591300024719
 30
0.0
  0
POINT
  5
83E9
330
84AD
100
AcDbEntity
  8
DEFPOINTS
 62
     0
100
AcDbPoint
 10
3284.062617025251
 20
5678.591300024717
 30
0.0
  0
POINT
  5
83EA
330
84AD
100
AcDbEntity
  8
DEFPOINTS
 62
     0
100
AcDbPoint
 10
3719.797915355993
 20
5678.591300024717
 30
0.0
  0
ENDBLK
  5
80A1
330
84AD
100
AcDbEntity
  8
0
100
AcDbBlockEnd
  0
BLOCK
  5
84B0
330
84AF
100
AcDbEntity
  8
0
100
AcDbBlockBegin
  2
*D17
 70
     1
 10
0.0
 20
0.0
 30
0.0
  3
*D17
  1

  0
LINE
  5
83EB
330
84AF
100
AcDbEntity
  8
3
 62
     0
100
AcDbLine
 10
1024.06261702525
 20
6596.091300024716
 30
0.0
 11
1024.06261702525
 21
7843.010105037642
 31
0.0
  0
LINE
  5
83EC
330
84AF
100
AcDbEntity
  8
3
 62
     0
100
AcDbLine
 10
1964.062617025251
 20
7596.091300024716
 30
0.0
 11
1964.062617025251
 21
7843.010105037642
 31
0.0
  0
LINE
  5
83ED
330
84AF
100
AcDbEntity
  8
3
 62
     0
100
AcDbLine
 10
1094.06261702525
 20
7808.010105037642
 30
0.0
 11
1894.06261702525
 21
7808.010105037642
 31
0.0
  0
INSERT
  5
83EE
330
84AF
100
AcDbEntity
  8
3
 62
     0
100
AcDbBlockReference
  2
_OPEN
 10
1024.06261702525
 20
7808.010105037642
 30
0.0
 41
70.0
 42
70.0
 43
70.0
 50
180.0
  0
INSERT
  5
83EF
330
84AF
100
AcDbEntity
  8
3
 62
     0
100
AcDbBlockReference
  2
_OPEN
 10
1964.062617025251
 20
7808.010105037642
 30
0.0
 41
70.0
 42
70.0
 43
70.0
  0
TEXT
  5
840E
330
84AF
100
AcDbEntity
  8
3
 62
     0
100
AcDbText
 10
1284.06
 20
7709.659999999999
 30
0.0
 40
105.0
  1
940
100
AcDbText
  0
POINT
  5
83F1
330
84AF
100
AcDbEntity
  8
DEFPOINTS
 62
     0
100
AcDbPoint
 10
1024.06261702525
 20
6578.591300024716
 30
0.0
  0
POINT
  5
83F2
330
84AF
100
AcDbEntity
  8
DEFPOINTS
 62
     0
100
AcDbPoint
 10
1964.062617025251
 20
7578.591300024716
 30
0.0
  0
POINT
  5
83F3
330
84AF
100
AcDbEntity
  8
DEFPOINTS
 62
     0
100
AcDbPoint
 10
1964.062617025251
 20
7808.010105037642
 30
0.0
  0
ENDBLK
  5
8080
330
84AF
100
AcDbEntity
  8
0
100
AcDbBlockEnd
  0
BLOCK
  5
84B2
330
84B1
100
AcDbEntity
  8
0
100
AcDbBlockBegin
  2
*D18
 70
     1
 10
0.0
 20
0.0
 30
0.0
  3
*D18
  1

  0
LINE
  5
83F4
330
84B1
100
AcDbEntity
  8
3
 62
     0
100
AcDbLine
 10
3384.062617025249
 20
4624.692209343378
 30
0.0
 11
3384.062617025249
 21
5037.684932965962
 31
0.0
  0
LINE
  5
83F5
330
84B1
100
AcDbEntity
  8
3
 62
     0
100
AcDbLine
 10
1024.062617025251
 20
2658.692209343379
 30
0.0
 11
1024.062617025252
 21
5037.684932965962
 31
0.0
  0
LINE
  5
83F6
330
84B1
100
AcDbEntity
  8
3
 62
     0
100
AcDbLine
 10
3314.062617025251
 20
5002.684932965962
 30
0.0
 11
1094.062617025252
 21
5002.684932965962
 31
0.0
  0
INSERT
  5
83F7
330
84B1
100
AcDbEntity
  8
3
 62
     0
100
AcDbBlockReference
  2
_OPEN
 10
3384.062617025249
 20
5002.684932965962
 30
0.0
 41
70.0
 42
70.0
 43
70.0
  0
INSERT
  5
83F8
330
84B1
100
AcDbEntity
  8
3
 62
     0
100
AcDbBlockReference
  2
_OPEN
 10
1024.062617025252
 20
5002.684932965962
 30
0.0
 41
70.0
 42
70.0
 43
70.0
 50
180.0
  0
TEXT
  5
840F
330
84B1
100
AcDbEntity
  8
3
 62
     0
100
AcDbText
 10
1994.06
 20
4904.33
 30
0.0
 40
105.0
  1
2360
100
AcDbText
  0
POINT
  5
83FA
330
84B1
100
AcDbEntity
  8
DEFPOINTS
 62
     0
100
AcDbPoint
 10
3384.062617025249
 20
4607.192209343378
 30
0.0
  0
POINT
  5
83FB
330
84B1
100
AcDbEntity
  8
DEFPOINTS
 62
     0
100
AcDbPoint
 10
1024.062617025251
 20
2641.192209343379
 30
0.0
  0
POINT
  5
83FC
330
84B1
100
AcDbEntity
  8
DEFPOINTS
 62
     0
100
AcDbPoint
 10
1024.062617025252
 20
5002.684932965962
 30
0.0
  0
ENDBLK
  5
7FD9
330
84B1
100
AcDbEntity
  8
0
100
AcDbBlockEnd
  0
BLOCK
  5
84B4
330
84B3
100
AcDbEntity
  8
0
100
AcDbBlockBegin
  2
_DOT
 70
     0
 10
0.0
 20
0.0
 30
0.0
  3
_DOT
  1

  0
LWPOLYLINE
  5
812A
330
84B3
100
AcDbEntity
  8
0
  6
ByBlock
 62
     0
100
AcDbPolyline
 90
        2
 70
     1
 43
0.25
 10
-0.125
 20
0.0
 42
1.0
 10
0.125
 20
0.0
 42
1.0
  0
LINE
  5
812E
330
84B3
100
AcDbEntity
  8
0
  6
ByBlock
 62
     0
100
AcDbLine
 10
-0.25
 20
0.0
 30
0.0
 11
-1.0
 21
0.0
 31
0.0
  0
ENDBLK
  5
80F2
330
84B3
100
AcDbEntity
  8
0
100
AcDbBlockEnd
  0
BLOCK
  5
84B6
330
84B5
100
AcDbEntity
  8
0
100
AcDbBlockBegin
  2
_NONE
 70
     0
 10
0.0
 20
0.0
 30
0.0
  3
_NONE
  1

  0
CIRCLE
  5
81F1
330
84B5
100
AcDbEntity
  8
0
  6
ByBlock
 62
     0
100
AcDbCircle
 10
0.0
 20
0.0
 30
0.0
 40
0.25
  0
ENDBLK
  5
81F2
330
84B5
100
AcDbEntity
  8
0
100
AcDbBlockEnd
  0
BLOCK
  5
84B8
330
84B7
100
AcDbEntity
  8
0
100
AcDbBlockBegin
  2
*D21
 70
     1
 10
0.0
 20
0.0
 30
0.0
  3
*D21
  1

  0
LINE
  5
8273
330
84B7
100
AcDbEntity
  8
0
  6
ByBlock
 62
     0
100
AcDbLine
 10
1024.062617025251
 20
2498.692209343379
 30
0.0
 11
1024.062617025251
 21
2224.926937314369
 31
0.0
  0
LINE
  5
8274
330
84B7
100
AcDbEntity
  8
0
  6
ByBlock
 62
     0
100
AcDbLine
 10
2624.062617025251
 20
2498.692209343379
 30
0.0
 11
2624.062617025251
 21
2224.926937314369
 31
0.0
  0
LINE
  5
8275
330
84B7
100
AcDbEntity
  8
0
  6
ByBlock
 62
     0
100
AcDbLine
 10
1094.062617025251
 20
2259.926937314368
 30
0.0
 11
2554.062617025251
 21
2259.926937314368
 31
0.0
  0
INSERT
  5
8276
330
84B7
100
AcDbEntity
  8
0
  6
ByBlock
 62
     0
100
AcDbBlockReference
  2
_OPEN
 10
1024.062617025251
 20
2259.926937314368
 30
0.0
 41
70.0
 42
70.0
 43
70.0
 50
180.0
  0
INSERT
  5
8277
330
84B7
100
AcDbEntity
  8
0
  6
ByBlock
 62
     0
100
AcDbBlockReference
  2
_OPEN
 10
2624.062617025251
 20
2259.926937314368
 30
0.0
 41
70.0
 42
70.0
 43
70.0
  0
TEXT
  5
8278
330
84B7
100
AcDbEntity
  8
3
 62
     0
100
AcDbText
 10
1617.562617025251
 20
2294.926937314369
 30
0.0
 40
105.0
  1
 1600 
100
AcDbText
  0
POINT
  5
8279
330
84B7
100
AcDbEntity
  8
DEFPOINTS
  6
ByBlock
 62
     0
100
AcDbPoint
 10
1024.062617025251
 20
2516.192209343379
 30
0.0
  0
POINT
  5
827A
330
84B7
100
AcDbEntity
  8
DEFPOINTS
  6
ByBlock
 62
     0
100
AcDbPoint
 10
2624.062617025251
 20
2516.192209343379
 30
0.0
  0
POINT
  5
827B
330
84B7
100
AcDbEntity
  8
DEFPOINTS
  6
ByBlock
 62
     0
100
AcDbPoint
 10
2624.062617025251
 20
2259.926937314368
 30
0.0
  0
ENDBLK
  5
827C
330
84B7
100
AcDbEntity
  8
0
100
AcDbBlockEnd
  0
BLOCK
  5
84BA
330
84B9
100
AcDbEntity
  8
0
100
AcDbBlockBegin
  2
*D22
 70
     1
 10
0.0
 20
0.0
 30
0.0
  3
*D22
  1

  0
LINE
  5
8280
330
84B9
100
AcDbEntity
  8
0
  6
ByBlock
 62
     0
100
AcDbLine
 10
2624.062617025251
 20
2498.692209343379
 30
0.0
 11
2624.062617025251
 21
2224.926937314369
 31
0.0
  0
LINE
  5
8281
330
84B9
100
AcDbEntity
  8
0
  6
ByBlock
 62
     0
100
AcDbLine
 10
3284.062617025249
 20
2498.692209343379
 30
0.0
 11
3284.062617025249
 21
2224.926937314369
 31
0.0
  0
LINE
  5
8282
330
84B9
100
AcDbEntity
  8
0
  6
ByBlock
 62
     0
100
AcDbLine
 10
2694.062617025251
 20
2259.926937314368
 30
0.0
 11
3214.062617025251
 21
2259.926937314368
 31
0.0
  0
INSERT
  5
8283
330
84B9
100
AcDbEntity
  8
0
  6
ByBlock
 62
     0
100
AcDbBlockReference
  2
_OPEN
 10
2624.062617025251
 20
2259.926937314368
 30
0.0
 41
70.0
 42
70.0
 43
70.0
 50
180.0
  0
INSERT
  5
8284
330
84B9
100
AcDbEntity
  8
0
  6
ByBlock
 62
     0
100
AcDbBlockReference
  2
_OPEN
 10
3284.062617025249
 20
2259.926937314368
 30
0.0
 41
70.0
 42
70.0
 43
70.0
  0
TEXT
  5
8285
330
84B9
100
AcDbEntity
  8
3
 62
     0
100
AcDbText
 10
2787.562617025251
 20
2294.926937314369
 30
0.0
 40
105.0
  1
 660 
100
AcDbText
  0
POINT
  5
8286
330
84B9
100
AcDbEntity
  8
DEFPOINTS
  6
ByBlock
 62
     0
100
AcDbPoint
 10
2624.062617025251
 20
2516.192209343379
 30
0.0
  0
POINT
  5
8287
330
84B9
100
AcDbEntity
  8
DEFPOINTS
  6
ByBlock
 62
     0
100
AcDbPoint
 10
3284.062617025249
 20
2516.192209343379
 30
0.0
  0
POINT
  5
8288
330
84B9
100
AcDbEntity
  8
DEFPOINTS
  6
ByBlock
 62
     0
100
AcDbPoint
 10
3284.062617025249
 20
2259.926937314368
 30
0.0
  0
ENDBLK
  5
8289
330
84B9
100
AcDbEntity
  8
0
100
AcDbBlockEnd
  0
BLOCK
  5
84BC
330
84BB
100
AcDbEntity
  8
0
100
AcDbBlockBegin
  2
*D23
 70
     1
 10
0.0
 20
0.0
 30
0.0
  3
*D23
  1

  0
LINE
  5
828D
330
84BB
100
AcDbEntity
  8
0
  6
ByBlock
 62
     0
100
AcDbLine
 10
4561.752841307504
 20
2498.692209343379
 30
0.0
 11
4561.752841307504
 21
2224.926937314369
 31
0.0
  0
LINE
  5
828E
330
84BB
100
AcDbEntity
  8
0
  6
ByBlock
 62
     0
100
AcDbLine
 10
5643.752841307505
 20
2498.692209343379
 30
0.0
 11
5643.752841307505
 21
2224.926937314369
 31
0.0
  0
LINE
  5
828F
330
84BB
100
AcDbEntity
  8
0
  6
ByBlock
 62
     0
100
AcDbLine
 10
4631.752841307505
 20
2259.926937314368
 30
0.0
 11
5573.752841307506
 21
2259.926937314368
 31
0.0
  0
INSERT
  5
8290
330
84BB
100
AcDbEntity
  8
0
  6
ByBlock
 62
     0
100
AcDbBlockReference
  2
_OPEN
 10
4561.752841307504
 20
2259.926937314368
 30
0.0
 41
70.0
 42
70.0
 43
70.0
 50
180.0
  0
INSERT
  5
8291
330
84BB
100
AcDbEntity
  8
0
  6
ByBlock
 62
     0
100
AcDbBlockReference
  2
_OPEN
 10
5643.752841307505
 20
2259.926937314368
 30
0.0
 41
70.0
 42
70.0
 43
70.0
  0
TEXT
  5
8292
330
84BB
100
AcDbEntity
  8
3
 62
     0
100
AcDbText
 10
4896.252841307505
 20
2294.926937314369
 30
0.0
 40
105.0
  1
 1082 
100
AcDbText
  0
POINT
  5
8293
330
84BB
100
AcDbEntity
  8
DEFPOINTS
  6
ByBlock
 62
     0
100
AcDbPoint
 10
4561.752841307504
 20
2516.192209343379
 30
0.0
  0
POINT
  5
8294
330
84BB
100
AcDbEntity
  8
DEFPOINTS
  6
ByBlock
 62
     0
100
AcDbPoint
 10
5643.752841307505
 20
2516.192209343379
 30
0.0
  0
POINT
  5
8295
330
84BB
100
AcDbEntity
  8
DEFPOINTS
  6
ByBlock
 62
     0
100
AcDbPoint
 10
5643.752841307505
 20
2259.926937314368
 30
0.0
  0
ENDBLK
  5
8296
330
84BB
100
AcDbEntity
  8
0
100
AcDbBlockEnd
  0
BLOCK
  5
84BE
330
84BD
100
AcDbEntity
  8
0
100
AcDbBlockBegin
  2
*D24
 70
     1
 10
0.0
 20
0.0
 30
0.0
  3
*D24
  1

  0
LINE
  5
829A
330
84BD
100
AcDbEntity
  8
0
  6
ByBlock
 62
     0
100
AcDbLine
 10
5643.752841307505
 20
2498.692209343379
 30
0.0
 11
5643.752841307505
 21
2224.926937314369
 31
0.0
  0
LINE
  5
829B
330
84BD
100
AcDbEntity
  8
0
  6
ByBlock
 62
     0
100
AcDbLine
 10
6461.752841307505
 20
2498.692209343379
 30
0.0
 11
6461.752841307505
 21
2224.926937314369
 31
0.0
  0
LINE
  5
829C
330
84BD
100
AcDbEntity
  8
0
  6
ByBlock
 62
     0
100
AcDbLine
 10
5713.752841307505
 20
2259.926937314368
 30
0.0
 11
6391.752841307505
 21
2259.926937314368
 31
0.0
  0
INSERT
  5
829D
330
84BD
100
AcDbEntity
  8
0
  6
ByBlock
 62
     0
100
AcDbBlockReference
  2
_OPEN
 10
5643.752841307505
 20
2259.926937314368
 30
0.0
 41
70.0
 42
70.0
 43
70.0
 50
180.0
  0
INSERT
  5
829E
330
84BD
100
AcDbEntity
  8
0
  6
ByBlock
 62
     0
100
AcDbBlockReference
  2
_OPEN
 10
6461.752841307505
 20
2259.926937314368
 30
0.0
 41
70.0
 42
70.0
 43
70.0
  0
TEXT
  5
829F
330
84BD
100
AcDbEntity
  8
3
 62
     0
100
AcDbText
 10
5896.252841307505
 20
2294.926937314369
 30
0.0
 40
105.0
  1
 818 
100
AcDbText
  0
POINT
  5
82A0
330
84BD
100
AcDbEntity
  8
DEFPOINTS
  6
ByBlock
 62
     0
100
AcDbPoint
 10
5643.752841307505
 20
2516.192209343379
 30
0.0
  0
POINT
  5
82A1
330
84BD
100
AcDbEntity
  8
DEFPOINTS
  6
ByBlock
 62
     0
100
AcDbPoint
 10
6461.752841307505
 20
2516.192209343379
 30
0.0
  0
POINT
  5
82A2
330
84BD
100
AcDbEntity
  8
DEFPOINTS
  6
ByBlock
 62
     0
100
AcDbPoint
 10
6461.752841307505
 20
2259.926937314368
 30
0.0
  0
ENDBLK
  5
82A3
330
84BD
100
AcDbEntity
  8
0
100
AcDbBlockEnd
  0
BLOCK
  5
84C6
330
84C5
100
AcDbEntity
  8
0
100
AcDbBlockBegin
  2
*D25
 70
     1
 10
0.0
 20
0.0
 30
0.0
  3
*D25
  1

  0
LINE
  5
8504
330
84C5
100
AcDbEntity
  8
3
 62
     0
370
    -2
100
AcDbLine
 10
6411.252841307505
 20
3916.192209343378
 30
0.0
 11
6871.612169487121
 21
3916.192209343378
 31
0.0
  0
LINE
  5
8505
330
84C5
100
AcDbEntity
  8
3
 62
     0
370
    -2
100
AcDbLine
 10
6411.252841307504
 20
2796.192209343378
 30
0.0
 11
6871.612169487121
 21
2796.192209343378
 31
0.0
  0
LINE
  5
8506
330
84C5
100
AcDbEntity
  8
3
 62
     0
370
    -2
100
AcDbLine
 10
6836.612169487122
 20
3846.192209343378
 30
0.0
 11
6836.612169487122
 21
2866.192209343378
 31
0.0
  0
INSERT
  5
8507
330
84C5
100
AcDbEntity
  8
3
 62
     0
370
    -2
100
AcDbBlockReference
  2
_OPEN
 10
6836.612169487122
 20
3916.192209343378
 30
0.0
 41
70.0
 42
70.0
 43
70.0
 50
90.0
  0
INSERT
  5
8508
330
84C5
100
AcDbEntity
  8
3
 62
     0
370
    -2
100
AcDbBlockReference
  2
_OPEN
 10
6836.612169487122
 20
2796.192209343378
 30
0.0
 41
70.0
 42
70.0
 43
70.0
 50
270.0
  0
MTEXT
  5
8509
330
84C5
100
AcDbEntity
  8
3
 62
     0
100
AcDbMText
 10
6749.112169487121
 20
3356.19220934338
 30
0.0
 40
105.0
 41
0.0
 71
     5
 72
     1
  1
\A1;\U+03C6 1120 
 11
0.0000000000000001
 21
1.0
 31
0.0
 73
     1
 44
1.0
1001
ACAD
1000
MTEXTBEGIN
1070
    73
1070
     1
1070
    44
1040
1.0
1070
    74
1070
     0
1000
MTEXTEND
  0
POINT
  5
850A
330
84C5
100
AcDbEntity
  8
DEFPOINTS
 62
     0
100
AcDbPoint
 10
6393.752841307505
 20
3916.192209343378
 30
0.0
  0
POINT
  5
850B
330
84C5
100
AcDbEntity
  8
DEFPOINTS
 62
     0
100
AcDbPoint
 10
6393.752841307504
 20
2796.192209343378
 30
0.0
  0
POINT
  5
850C
330
84C5
100
AcDbEntity
  8
DEFPOINTS
 62
     0
100
AcDbPoint
 10
6836.612169487122
 20
2796.192209343378
 30
0.0
  0
ENDBLK
  5
84C7
330
84C5
100
AcDbEntity
  8
0
100
AcDbBlockEnd
  0
BLOCK
  5
84D3
330
84D2
100
AcDbEntity
  8
0
100
AcDbBlockBegin
  2
*D26
 70
     1
 10
0.0
 20
0.0
 30
0.0
  3
*D26
  1

  0
LINE
  5
84D5
330
84D2
100
AcDbEntity
  8
3
 62
     0
370
    -2
100
AcDbLine
 10
4893.752841307505
 20
4571.692209343378
 30
0.0
 11
4893.752841307505
 21
4842.631848395776
 31
0.0
  0
LINE
  5
84D6
330
84D2
100
AcDbEntity
  8
3
 62
     0
370
    -2
100
AcDbLine
 10
6393.752841307505
 20
4571.692209343378
 30
0.0
 11
6393.752841307505
 21
4842.631848395776
 31
0.0
  0
LINE
  5
84D7
330
84D2
100
AcDbEntity
  8
3
 62
     0
370
    -2
100
AcDbLine
 10
4963.752841307505
 20
4807.631848395777
 30
0.0
 11
6323.752841307506
 21
4807.631848395777
 31
0.0
  0
INSERT
  5
84D8
330
84D2
100
AcDbEntity
  8
3
 62
     0
370
    -2
100
AcDbBlockReference
  2
_OPEN
 10
4893.752841307505
 20
4807.631848395777
 30
0.0
 41
70.0
 42
70.0
 43
70.0
 50
180.0
  0
INSERT
  5
84D9
330
84D2
100
AcDbEntity
  8
3
 62
     0
370
    -2
100
AcDbBlockReference
  2
_OPEN
 10
6393.752841307505
 20
4807.631848395777
 30
0.0
 41
70.0
 42
70.0
 43
70.0
  0
MTEXT
  5
84DA
330
84D2
100
AcDbEntity
  8
3
 62
     0
100
AcDbMText
 10
5643.752841307505
 20
4895.131848395777
 30
0.0
 40
105.0
 41
0.0
 71
     5
 72
     1
  1
\A1; 1500 
 73
     1
 44
1.0
1001
ACAD
1000
MTEXTBEGIN
1070
    73
1070
     1
1070
    44
1040
1.0
1070
    74
1070
     0
1000
MTEXTEND
  0
POINT
  5
84DB
330
84D2
100
AcDbEntity
  8
DEFPOINTS
 62
     0
100
AcDbPoint
 10
4893.752841307505
 20
4554.192209343379
 30
0.0
  0
POINT
  5
84DC
330
84D2
100
AcDbEntity
  8
DEFPOINTS
 62
     0
100
AcDbPoint
 10
6393.752841307505
 20
4554.192209343379
 30
0.0
  0
POINT
  5
84DD
330
84D2
100
AcDbEntity
  8
DEFPOINTS
 62
     0
100
AcDbPoint
 10
6393.752841307505
 20
4807.631848395777
 30
0.0
  0
ENDBLK
  5
84D4
330
84D2
100
AcDbEntity
  8
0
100
AcDbBlockEnd
  0
BLOCK
  5
84E0
330
84DF
100
AcDbEntity
  8
0
100
AcDbBlockBegin
  2
*D27
 70
     1
 10
0.0
 20
0.0
 30
0.0
  3
*D27
  1

  0
LINE
  5
8543
330
84DF
100
AcDbEntity
  8
3
 62
     0
370
    -2
100
AcDbLine
 10
4523.752841307505
 20
3753.692209343379
 30
0.0
 11
4523.752841307505
 21
5081.751112831963
 31
0.0
  0
LINE
  5
8544
330
84DF
100
AcDbEntity
  8
3
 62
     0
370
    -2
100
AcDbLine
 10
5643.752841307505
 20
4965.131848395777
 30
0.0
 11
5643.752841307505
 21
5081.751112831963
 31
0.0
  0
LINE
  5
8545
330
84DF
100
AcDbEntity
  8
3
 62
     0
370
    -2
100
AcDbLine
 10
4593.752841307504
 20
5046.751112831964
 30
0.0
 11
5573.752841307506
 21
5046.751112831964
 31
0.0
  0
INSERT
  5
8546
330
84DF
100
AcDbEntity
  8
3
 62
     0
370
    -2
100
AcDbBlockReference
  2
_OPEN
 10
4523.752841307505
 20
5046.751112831964
 30
0.0
 41
70.0
 42
70.0
 43
70.0
 50
180.0
  0
INSERT
  5
8547
330
84DF
100
AcDbEntity
  8
3
 62
     0
370
    -2
100
AcDbBlockReference
  2
_OPEN
 10
5643.752841307505
 20
5046.751112831964
 30
0.0
 41
70.0
 42
70.0
 43
70.0
  0
MTEXT
  5
8548
330
84DF
100
AcDbEntity
  8
3
 62
     0
100
AcDbMText
 10
5083.752841307505
 20
5161.751112831964
 30
0.0
 40
105.0
 41
0.0
 71
     5
 72
     1
  1
\A1;( 1120 )
 73
     1
 44
1.0
1001
ACAD
1000
MTEXTBEGIN
1070
    73
1070
     1
1070
    44
1040
1.0
1070
    74
1070
     0
1000
MTEXTEND
  0
POINT
  5
8549
330
84DF
100
AcDbEntity
  8
DEFPOINTS
 62
     0
100
AcDbPoint
 10
4523.752841307505
 20
3736.192209343379
 30
0.0
  0
POINT
  5
854A
330
84DF
100
AcDbEntity
  8
DEFPOINTS
 62
     0
100
AcDbPoint
 10
5643.752841307505
 20
4947.631848395777
 30
0.0
  0
POINT
  5
854B
330
84DF
100
AcDbEntity
  8
DEFPOINTS
 62
     0
100
AcDbPoint
 10
5643.752841307505
 20
5046.751112831964
 30
0.0
  0
ENDBLK
  5
84E1
330
84DF
100
AcDbEntity
  8
0
100
AcDbBlockEnd
  0
BLOCK
  5
84ED
330
84EC
100
AcDbEntity
  8
0
100
AcDbBlockBegin
  2
*D28
 70
     1
 10
0.0
 20
0.0
 30
0.0
  3
*D28
  1

  0
LINE
  5
854C
330
84EC
100
AcDbEntity
  8
3
 62
     0
370
    -2
100
AcDbLine
 10
5643.752841307505
 20
4965.131848395777
 30
0.0
 11
5643.752841307505
 21
5081.751112831963
 31
0.0
  0
LINE
  5
854D
330
84EC
100
AcDbEntity
  8
3
 62
     0
370
    -2
100
AcDbLine
 10
6573.752841307506
 20
3300.69220934338
 30
0.0
 11
6573.752841307506
 21
5081.751112831963
 31
0.0
  0
LINE
  5
854E
330
84EC
100
AcDbEntity
  8
3
 62
     0
370
    -2
100
AcDbLine
 10
5713.752841307505
 20
5046.751112831964
 30
0.0
 11
6503.752841307505
 21
5046.751112831964
 31
0.0
  0
INSERT
  5
854F
330
84EC
100
AcDbEntity
  8
3
 62
     0
370
    -2
100
AcDbBlockReference
  2
_OPEN
 10
5643.752841307505
 20
5046.751112831964
 30
0.0
 41
70.0
 42
70.0
 43
70.0
 50
180.0
  0
INSERT
  5
8550
330
84EC
100
AcDbEntity
  8
3
 62
     0
370
    -2
100
AcDbBlockReference
  2
_OPEN
 10
6573.752841307506
 20
5046.751112831964
 30
0.0
 41
70.0
 42
70.0
 43
70.0
  0
MTEXT
  5
8551
330
84EC
100
AcDbEntity
  8
3
 62
     0
100
AcDbMText
 10
6108.752841307506
 20
5161.751112831964
 30
0.0
 40
105.0
 41
0.0
 71
     5
 72
     1
  1
\A1;( 930 )
 73
     1
 44
1.0
1001
ACAD
1000
MTEXTBEGIN
1070
    73
1070
     1
1070
    44
1040
1.0
1070
    74
1070
     0
1000
MTEXTEND
  0
POINT
  5
8552
330
84EC
100
AcDbEntity
  8
DEFPOINTS
 62
     0
100
AcDbPoint
 10
5643.752841307505
 20
4947.631848395777
 30
0.0
  0
POINT
  5
8553
330
84EC
100
AcDbEntity
  8
DEFPOINTS
 62
     0
100
AcDbPoint
 10
6573.752841307506
 20
3283.192209343379
 30
0.0
  0
POINT
  5
8554
330
84EC
100
AcDbEntity
  8
DEFPOINTS
 62
     0
100
AcDbPoint
 10
6573.752841307506
 20
5046.751112831964
 30
0.0
  0
ENDBLK
  5
84EE
330
84EC
100
AcDbEntity
  8
0
100
AcDbBlockEnd
  0
BLOCK
  5
8557
330
8556
100
AcDbEntity
  8
0
100
AcDbBlockBegin
  2
*D29
 70
     1
 10
0.0
 20
0.0
 30
0.0
  3
*D29
  1

  0
LINE
  5
8562
330
8556
100
AcDbEntity
  8
3
 62
     0
370
    -2
100
AcDbLine
 10
1541.700892146
 20
6760.591300024717
 30
0.0
 11
-270.9556814717506
 21
6760.591300024717
 31
0.0
  0
LINE
  5
8563
330
8556
100
AcDbEntity
  8
3
 62
     0
370
    -2
100
AcDbLine
 10
1076.562617025251
 20
5640.591300024715
 30
0.0
 11
-270.9556814717508
 21
5640.591300024715
 31
0.0
  0
LINE
  5
8564
330
8556
100
AcDbEntity
  8
3
 62
     0
370
    -2
100
AcDbLine
 10
-235.9556814717505
 20
6690.591300024717
 30
0.0
 11
-235.9556814717508
 21
5710.591300024716
 31
0.0
  0
INSERT
  5
8565
330
8556
100
AcDbEntity
  8
3
 62
     0
370
    -2
100
AcDbBlockReference
  2
_OPEN
 10
-235.9556814717505
 20
6760.591300024717
 30
0.0
 41
70.0
 42
70.0
 43
70.0
 50
90.0
  0
INSERT
  5
8566
330
8556
100
AcDbEntity
  8
3
 62
     0
370
    -2
100
AcDbBlockReference
  2
_OPEN
 10
-235.9556814717508
 20
5640.591300024715
 30
0.0
 41
70.0
 42
70.0
 43
70.0
 50
270.0
  0
MTEXT
  5
8567
330
8556
100
AcDbEntity
  8
3
 62
     0
100
AcDbMText
 10
-323.4556814717516
 20
6200.591300024717
 30
0.0
 40
105.0
 41
0.0
 71
     5
 72
     1
  1
\A1; 1120 
 11
0.0000000000000001
 21
1.0
 31
0.0
 73
     1
 44
1.0
1001
ACAD
1000
MTEXTBEGIN
1070
    73
1070
     1
1070
    44
1040
1.0
1070
    74
1070
     0
1000
MTEXTEND
  0
POINT
  5
8568
330
8556
100
AcDbEntity
  8
DEFPOINTS
 62
     0
100
AcDbPoint
 10
1559.200892146
 20
6760.591300024717
 30
0.0
  0
POINT
  5
8569
330
8556
100
AcDbEntity
  8
DEFPOINTS
 62
     0
100
AcDbPoint
 10
1094.062617025251
 20
5640.591300024715
 30
0.0
  0
POINT
  5
856A
330
8556
100
AcDbEntity
  8
DEFPOINTS
 62
     0
100
AcDbPoint
 10
-235.9556814717508
 20
5640.591300024715
 30
0.0
  0
ENDBLK
  5
8558
330
8556
100
AcDbEntity
  8
0
100
AcDbBlockEnd
  0
BLOCK
  5
856D
330
856C
100
AcDbEntity
  8
0
100
AcDbBlockBegin
  2
*D30
 70
     1
 10
0.0
 20
0.0
 30
0.0
  3
*D30
  1

  0
LINE
  5
856F
330
856C
100
AcDbEntity
  8
3
 62
     0
370
    -2
100
AcDbLine
 10
1006.56261702525
 20
6578.591300024716
 30
0.0
 11
773.2474876895395
 21
6578.591300024716
 31
0.0
  0
LINE
  5
8570
330
856C
100
AcDbEntity
  8
3
 62
     0
370
    -2
100
AcDbLine
 10
1006.56261702525
 20
5678.591300024717
 30
0.0
 11
773.2474876895393
 21
5678.591300024717
 31
0.0
  0
LINE
  5
8571
330
856C
100
AcDbEntity
  8
3
 62
     0
370
    -2
100
AcDbLine
 10
808.2474876895394
 20
6508.591300024716
 30
0.0
 11
808.2474876895393
 21
5748.591300024717
 31
0.0
  0
INSERT
  5
8572
330
856C
100
AcDbEntity
  8
3
 62
     0
370
    -2
100
AcDbBlockReference
  2
_OPEN
 10
808.2474876895394
 20
6578.591300024716
 30
0.0
 41
70.0
 42
70.0
 43
70.0
 50
90.0
  0
INSERT
  5
8573
330
856C
100
AcDbEntity
  8
3
 62
     0
370
    -2
100
AcDbBlockReference
  2
_OPEN
 10
808.2474876895393
 20
5678.591300024717
 30
0.0
 41
70.0
 42
70.0
 43
70.0
 50
270.0
  0
MTEXT
  5
8574
330
856C
100
AcDbEntity
  8
3
 62
     0
100
AcDbMText
 10
720.7474876895384
 20
6128.591300024716
 30
0.0
 40
105.0
 41
0.0
 71
     5
 72
     1
  1
\A1; 900 
 11
0.0000000000000001
 21
1.0
 31
0.0
 73
     1
 44
1.0
1001
ACAD
1000
MTEXTBEGIN
1070
    73
1070
     1
1070
    44
1040
1.0
1070
    74
1070
     0
1000
MTEXTEND
  0
POINT
  5
8575
330
856C
100
AcDbEntity
  8
DEFPOINTS
 62
     0
100
AcDbPoint
 10
1024.06261702525
 20
6578.591300024716
 30
0.0
  0
POINT
  5
8576
330
856C
100
AcDbEntity
  8
DEFPOINTS
 62
     0
100
AcDbPoint
 10
1024.06261702525
 20
5678.591300024717
 30
0.0
  0
POINT
  5
8577
330
856C
100
AcDbEntity
  8
DEFPOINTS
 62
     0
100
AcDbPoint
 10
808.2474876895393
 20
5678.591300024717
 30
0.0
  0
ENDBLK
  5
856E
330
856C
100
AcDbEntity
  8
0
100
AcDbBlockEnd
  0
BLOCK
  5
857A
330
8579
100
AcDbEntity
  8
0
100
AcDbBlockBegin
  2
*D31
 70
     1
 10
0.0
 20
0.0
 30
0.0
  3
*D31
  1

  0
LINE
  5
857C
330
8579
100
AcDbEntity
  8
3
 62
     0
370
    -2
100
AcDbLine
 10
1024.06261702525
 20
6596.091300024716
 30
0.0
 11
1024.06261702525
 21
7843.010105037642
 31
0.0
  0
LINE
  5
857D
330
8579
100
AcDbEntity
  8
3
 62
     0
370
    -2
100
AcDbLine
 10
1964.062617025251
 20
7596.091300024716
 30
0.0
 11
1964.062617025251
 21
7843.010105037642
 31
0.0
  0
LINE
  5
857E
330
8579
100
AcDbEntity
  8
3
 62
     0
370
    -2
100
AcDbLine
 10
1094.06261702525
 20
7808.010105037642
 30
0.0
 11
1894.062617025251
 21
7808.010105037642
 31
0.0
  0
INSERT
  5
857F
330
8579
100
AcDbEntity
  8
3
 62
     0
370
    -2
100
AcDbBlockReference
  2
_OPEN
 10
1024.06261702525
 20
7808.010105037642
 30
0.0
 41
70.0
 42
70.0
 43
70.0
 50
180.0
  0
INSERT
  5
8580
330
8579
100
AcDbEntity
  8
3
 62
     0
370
    -2
100
AcDbBlockReference
  2
_OPEN
 10
1964.062617025251
 20
7808.010105037642
 30
0.0
 41
70.0
 42
70.0
 43
70.0
  0
MTEXT
  5
8581
330
8579
100
AcDbEntity
  8
3
 62
     0
100
AcDbMText
 10
1494.06261702525
 20
7895.510105037641
 30
0.0
 40
105.0
 41
0.0
 71
     5
 72
     1
  1
\A1; 940 
 73
     1
 44
1.0
1001
ACAD
1000
MTEXTBEGIN
1070
    73
1070
     1
1070
    44
1040
1.0
1070
    74
1070
     0
1000
MTEXTEND
  0
POINT
  5
8582
330
8579
100
AcDbEntity
  8
DEFPOINTS
 62
     0
100
AcDbPoint
 10
1024.06261702525
 20
6578.591300024716
 30
0.0
  0
POINT
  5
8583
330
8579
100
AcDbEntity
  8
DEFPOINTS
 62
     0
100
AcDbPoint
 10
1964.062617025251
 20
7578.591300024716
 30
0.0
  0
POINT
  5
8584
330
8579
100
AcDbEntity
  8
DEFPOINTS
 62
     0
100
AcDbPoint
 10
1964.062617025251
 20
7808.010105037642
 30
0.0
  0
ENDBLK
  5
857B
330
8579
100
AcDbEntity
  8
0
100
AcDbBlockEnd
  0
BLOCK
  5
8587
330
8586
100
AcDbEntity
  8
0
100
AcDbBlockBegin
  2
*D32
 70
     1
 10
0.0
 20
0.0
 30
0.0
  3
*D32
  1

  0
LINE
  5
8589
330
8586
100
AcDbEntity
  8
3
 62
     0
370
    -2
100
AcDbLine
 10
1964.062617025251
 20
7596.091300024716
 30
0.0
 11
1964.062617025251
 21
7843.010105037642
 31
0.0
  0
LINE
  5
858A
330
8586
100
AcDbEntity
  8
3
 62
     0
370
    -2
100
AcDbLine
 10
3284.062617025249
 20
7596.091300024716
 30
0.0
 11
3284.062617025249
 21
7843.010105037642
 31
0.0
  0
LINE
  5
858B
330
8586
100
AcDbEntity
  8
3
 62
     0
370
    -2
100
AcDbLine
 10
2034.062617025251
 20
7808.010105037642
 30
0.0
 11
3214.06261702525
 21
7808.010105037642
 31
0.0
  0
INSERT
  5
858C
330
8586
100
AcDbEntity
  8
3
 62
     0
370
    -2
100
AcDbBlockReference
  2
_OPEN
 10
1964.062617025251
 20
7808.010105037642
 30
0.0
 41
70.0
 42
70.0
 43
70.0
 50
180.0
  0
INSERT
  5
858D
330
8586
100
AcDbEntity
  8
3
 62
     0
370
    -2
100
AcDbBlockReference
  2
_OPEN
 10
3284.062617025249
 20
7808.010105037642
 30
0.0
 41
70.0
 42
70.0
 43
70.0
  0
MTEXT
  5
858E
330
8586
100
AcDbEntity
  8
3
 62
     0
100
AcDbMText
 10
2624.06261702525
 20
7895.510105037641
 30
0.0
 40
105.0
 41
0.0
 71
     5
 72
     1
  1
\A1; 1320 
 73
     1
 44
1.0
1001
ACAD
1000
MTEXTBEGIN
1070
    73
1070
     1
1070
    44
1040
1.0
1070
    74
1070
     0
1000
MTEXTEND
  0
POINT
  5
858F
330
8586
100
AcDbEntity
  8
DEFPOINTS
 62
     0
100
AcDbPoint
 10
1964.062617025251
 20
7578.591300024716
 30
0.0
  0
POINT
  5
8590
330
8586
100
AcDbEntity
  8
DEFPOINTS
 62
     0
100
AcDbPoint
 10
3284.062617025249
 20
7578.591300024716
 30
0.0
  0
POINT
  5
8591
330
8586
100
AcDbEntity
  8
DEFPOINTS
 62
     0
100
AcDbPoint
 10
3284.062617025249
 20
7808.010105037642
 30
0.0
  0
ENDBLK
  5
8588
330
8586
100
AcDbEntity
  8
0
100
AcDbBlockEnd
  0
BLOCK
  5
8594
330
8593
100
AcDbEntity
  8
0
100
AcDbBlockBegin
  2
*D33
 70
     1
 10
0.0
 20
0.0
 30
0.0
  3
*D33
  1

  0
LINE
  5
8596
330
8593
100
AcDbEntity
  8
3
 62
     0
370
    -2
100
AcDbLine
 10
3301.56261702525
 20
7578.591300024716
 30
0.0
 11
3754.797915355994
 21
7578.591300024716
 31
0.0
  0
LINE
  5
8597
330
8593
100
AcDbEntity
  8
3
 62
     0
370
    -2
100
AcDbLine
 10
3301.56261702525
 20
5678.591300024717
 30
0.0
 11
3754.797915355993
 21
5678.591300024717
 31
0.0
  0
LINE
  5
8598
330
8593
100
AcDbEntity
  8
3
 62
     0
370
    -2
100
AcDbLine
 10
3719.797915355993
 20
7508.591300024716
 30
0.0
 11
3719.797915355993
 21
5748.591300024717
 31
0.0
  0
INSERT
  5
8599
330
8593
100
AcDbEntity
  8
3
 62
     0
370
    -2
100
AcDbBlockReference
  2
_OPEN
 10
3719.797915355993
 20
7578.591300024716
 30
0.0
 41
70.0
 42
70.0
 43
70.0
 50
90.0
  0
INSERT
  5
859A
330
8593
100
AcDbEntity
  8
3
 62
     0
370
    -2
100
AcDbBlockReference
  2
_OPEN
 10
3719.797915355993
 20
5678.591300024717
 30
0.0
 41
70.0
 42
70.0
 43
70.0
 50
270.0
  0
MTEXT
  5
859B
330
8593
100
AcDbEntity
  8
3
 62
     0
100
AcDbMText
 10
3632.297915355992
 20
6628.591300024716
 30
0.0
 40
105.0
 41
0.0
 71
     5
 72
     1
  1
\A1; 1900 
 11
0.0000000000000001
 21
1.0
 31
0.0
 73
     1
 44
1.0
1001
ACAD
1000
MTEXTBEGIN
1070
    73
1070
     1
1070
    44
1040
1.0
1070
    74
1070
     0
1000
MTEXTEND
  0
POINT
  5
859C
330
8593
100
AcDbEntity
  8
DEFPOINTS
 62
     0
100
AcDbPoint
 10
3284.062617025249
 20
7578.591300024716
 30
0.0
  0
POINT
  5
859D
330
8593
100
AcDbEntity
  8
DEFPOINTS
 62
     0
100
AcDbPoint
 10
3284.062617025249
 20
5678.591300024717
 30
0.0
  0
POINT
  5
859E
330
8593
100
AcDbEntity
  8
DEFPOINTS
 62
     0
100
AcDbPoint
 10
3719.797915355993
 20
5678.591300024717
 30
0.0
  0
ENDBLK
  5
8595
330
8593
100
AcDbEntity
  8
0
100
AcDbBlockEnd
  0
BLOCK
  5
85A1
330
85A0
100
AcDbEntity
  8
0
100
AcDbBlockBegin
  2
*D34
 70
     1
 10
0.0
 20
0.0
 30
0.0
  3
*D34
  1

  0
LINE
  5
85A3
330
85A0
100
AcDbEntity
  8
3
 62
     0
370
    -2
100
AcDbLine
 10
1024.06261702525
 20
5661.091300024716
 30
0.0
 11
1024.06261702525
 21
5296.934663388967
 31
0.0
  0
LINE
  5
85A4
330
85A0
100
AcDbEntity
  8
3
 62
     0
370
    -2
100
AcDbLine
 10
3284.062617025251
 20
5661.091300024716
 30
0.0
 11
3284.062617025251
 21
5296.934663388967
 31
0.0
  0
LINE
  5
85A5
330
85A0
100
AcDbEntity
  8
3
 62
     0
370
    -2
100
AcDbLine
 10
1094.06261702525
 20
5331.934663388967
 30
0.0
 11
3214.062617025251
 21
5331.934663388967
 31
0.0
  0
INSERT
  5
85A6
330
85A0
100
AcDbEntity
  8
3
 62
     0
370
    -2
100
AcDbBlockReference
  2
_OPEN
 10
1024.06261702525
 20
5331.934663388967
 30
0.0
 41
70.0
 42
70.0
 43
70.0
 50
180.0
  0
INSERT
  5
85A7
330
85A0
100
AcDbEntity
  8
3
 62
     0
370
    -2
100
AcDbBlockReference
  2
_OPEN
 10
3284.062617025251
 20
5331.934663388967
 30
0.0
 41
70.0
 42
70.0
 43
70.0
  0
MTEXT
  5
85A8
330
85A0
100
AcDbEntity
  8
3
 62
     0
100
AcDbMText
 10
2154.062617025251
 20
5419.434663388967
 30
0.0
 40
105.0
 41
0.0
 71
     5
 72
     1
  1
\A1; 2260 
 73
     1
 44
1.0
1001
ACAD
1000
MTEXTBEGIN
1070
    73
1070
     1
1070
    44
1040
1.0
1070
    74
1070
     0
1000
MTEXTEND
  0
POINT
  5
85A9
330
85A0
100
AcDbEntity
  8
DEFPOINTS
 62
     0
100
AcDbPoint
 10
1024.06261702525
 20
5678.591300024717
 30
0.0
  0
POINT
  5
85AA
330
85A0
100
AcDbEntity
  8
DEFPOINTS
 62
     0
100
AcDbPoint
 10
3284.062617025251
 20
5678.591300024717
 30
0.0
  0
POINT
  5
85AB
330
85A0
100
AcDbEntity
  8
DEFPOINTS
 62
     0
100
AcDbPoint
 10
3284.062617025251
 20
5331.934663388967
 30
0.0
  0
ENDBLK
  5
85A2
330
85A0
100
AcDbEntity
  8
0
100
AcDbBlockEnd
  0
BLOCK
  5
85AE
330
85AD
100
AcDbEntity
  8
0
100
AcDbBlockBegin
  2
*D35
 70
     1
 10
0.0
 20
0.0
 30
0.0
  3
*D35
  1

  0
LINE
  5
85B0
330
85AD
100
AcDbEntity
  8
3
 62
     0
370
    -2
100
AcDbLine
 10
3401.56261702525
 20
4554.192209343379
 30
0.0
 11
3619.170933309518
 21
4554.192209343379
 31
0.0
  0
LINE
  5
85B1
330
85AD
100
AcDbEntity
  8
3
 62
     0
370
    -2
100
AcDbLine
 10
3401.56261702525
 20
3404.192209343379
 30
0.0
 11
3619.170933309518
 21
3404.192209343379
 31
0.0
  0
LINE
  5
85B2
330
85AD
100
AcDbEntity
  8
3
 62
     0
370
    -2
100
AcDbLine
 10
3584.170933309517
 20
4484.192209343379
 30
0.0
 11
3584.170933309517
 21
3474.192209343379
 31
0.0
  0
INSERT
  5
85B3
330
85AD
100
AcDbEntity
  8
3
 62
     0
370
    -2
100
AcDbBlockReference
  2
_OPEN
 10
3584.170933309517
 20
4554.192209343379
 30
0.0
 41
70.0
 42
70.0
 43
70.0
 50
90.0
  0
INSERT
  5
85B4
330
85AD
100
AcDbEntity
  8
3
 62
     0
370
    -2
100
AcDbBlockReference
  2
_OPEN
 10
3584.170933309517
 20
3404.192209343379
 30
0.0
 41
70.0
 42
70.0
 43
70.0
 50
270.0
  0
MTEXT
  5
85B5
330
85AD
100
AcDbEntity
  8
3
 62
     0
100
AcDbMText
 10
3496.670933309517
 20
3979.19220934338
 30
0.0
 40
105.0
 41
0.0
 71
     5
 72
     1
  1
\A1; 1150 
 11
0.0000000000000001
 21
1.0
 31
0.0
 73
     1
 44
1.0
1001
ACAD
1000
MTEXTBEGIN
1070
    73
1070
     1
1070
    44
1040
1.0
1070
    74
1070
     0
1000
MTEXTEND
  0
POINT
  5
85B6
330
85AD
100
AcDbEntity
  8
DEFPOINTS
 62
     0
100
AcDbPoint
 10
3384.062617025249
 20
4554.192209343379
 30
0.0
  0
POINT
  5
85B7
330
85AD
100
AcDbEntity
  8
DEFPOINTS
 62
     0
100
AcDbPoint
 10
3384.062617025249
 20
3404.192209343379
 30
0.0
  0
POINT
  5
85B8
330
85AD
100
AcDbEntity
  8
DEFPOINTS
 62
     0
100
AcDbPoint
 10
3584.170933309517
 20
3404.192209343379
 30
0.0
  0
ENDBLK
  5
85AF
330
85AD
100
AcDbEntity
  8
0
100
AcDbBlockEnd
  0
BLOCK
  5
85BB
330
85BA
100
AcDbEntity
  8
0
100
AcDbBlockBegin
  2
*D36
 70
     1
 10
0.0
 20
0.0
 30
0.0
  3
*D36
  1

  0
LINE
  5
85BD
330
85BA
100
AcDbEntity
  8
3
 62
     0
370
    -2
100
AcDbLine
 10
3401.56261702525
 20
4554.192209343379
 30
0.0
 11
3817.735283578248
 21
4554.192209343379
 31
0.0
  0
LINE
  5
85BE
330
85BA
100
AcDbEntity
  8
3
 62
     0
370
    -2
100
AcDbLine
 10
3548.343268478227
 20
3356.192209343378
 30
0.0
 11
3817.735283578248
 21
3356.192209343378
 31
0.0
  0
LINE
  5
85BF
330
85BA
100
AcDbEntity
  8
3
 62
     0
370
    -2
100
AcDbLine
 10
3782.735283578249
 20
4484.192209343379
 30
0.0
 11
3782.735283578249
 21
3426.192209343378
 31
0.0
  0
INSERT
  5
85C0
330
85BA
100
AcDbEntity
  8
3
 62
     0
370
    -2
100
AcDbBlockReference
  2
_OPEN
 10
3782.735283578249
 20
4554.192209343379
 30
0.0
 41
70.0
 42
70.0
 43
70.0
 50
90.0
  0
INSERT
  5
85C1
330
85BA
100
AcDbEntity
  8
3
 62
     0
370
    -2
100
AcDbBlockReference
  2
_OPEN
 10
3782.735283578249
 20
3356.192209343378
 30
0.0
 41
70.0
 42
70.0
 43
70.0
 50
270.0
  0
MTEXT
  5
85C2
330
85BA
100
AcDbEntity
  8
3
 62
     0
100
AcDbMText
 10
3695.235283578248
 20
3955.19220934338
 30
0.0
 40
105.0
 41
0.0
 71
     5
 72
     1
  1
\A1; 1198 
 11
0.0000000000000001
 21
1.0
 31
0.0
 73
     1
 44
1.0
1001
ACAD
1000
MTEXTBEGIN
1070
    73
1070
     1
1070
    44
1040
1.0
1070
    74
1070
     0
1000
MTEXTEND
  0
POINT
  5
85C3
330
85BA
100
AcDbEntity
  8
DEFPOINTS
 62
     0
100
AcDbPoint
 10
3384.062617025249
 20
4554.192209343379
 30
0.0
  0
POINT
  5
85C4
330
85BA
100
AcDbEntity
  8
DEFPOINTS
 62
     0
100
AcDbPoint
 10
3530.843268478227
 20
3356.192209343378
 30
0.0
  0
POINT
  5
85C5
330
85BA
100
AcDbEntity
  8
DEFPOINTS
 62
     0
100
AcDbPoint
 10
3782.735283578249
 20
3356.192209343378
 30
0.0
  0
ENDBLK
  5
85BC
330
85BA
100
AcDbEntity
  8
0
100
AcDbBlockEnd
  0
BLOCK
  5
85C8
330
85C7
100
AcDbEntity
  8
0
100
AcDbBlockBegin
  2
*D37
 70
     1
 10
0.0
 20
0.0
 30
0.0
  3
*D37
  1

  0
LINE
  5
85CA
330
85C7
100
AcDbEntity
  8
3
 62
     0
370
    -2
100
AcDbLine
 10
3548.343268478227
 20
3356.192209343378
 30
0.0
 11
3817.735283578248
 21
3356.192209343378
 31
0.0
  0
LINE
  5
85CB
330
85C7
100
AcDbEntity
  8
3
 62
     0
370
    -2
100
AcDbLine
 10
3301.56261702525
 20
2516.192209343379
 30
0.0
 11
3817.735283578248
 21
2516.192209343379
 31
0.0
  0
LINE
  5
85CC
330
85C7
100
AcDbEntity
  8
3
 62
     0
370
    -2
100
AcDbLine
 10
3782.735283578249
 20
3286.192209343378
 30
0.0
 11
3782.735283578248
 21
2586.192209343379
 31
0.0
  0
INSERT
  5
85CD
330
85C7
100
AcDbEntity
  8
3
 62
     0
370
    -2
100
AcDbBlockReference
  2
_OPEN
 10
3782.735283578249
 20
3356.192209343378
 30
0.0
 41
70.0
 42
70.0
 43
70.0
 50
90.0
  0
INSERT
  5
85CE
330
85C7
100
AcDbEntity
  8
3
 62
     0
370
    -2
100
AcDbBlockReference
  2
_OPEN
 10
3782.735283578248
 20
2516.192209343379
 30
0.0
 41
70.0
 42
70.0
 43
70.0
 50
270.0
  0
MTEXT
  5
85CF
330
85C7
100
AcDbEntity
  8
3
 62
     0
100
AcDbMText
 10
3695.235283578247
 20
2936.19220934338
 30
0.0
 40
105.0
 41
0.0
 71
     5
 72
     1
  1
\A1; 840 
 11
0.0000000000000001
 21
1.0
 31
0.0
 73
     1
 44
1.0
1001
ACAD
1000
MTEXTBEGIN
1070
    73
1070
     1
1070
    44
1040
1.0
1070
    74
1070
     0
1000
MTEXTEND
  0
POINT
  5
85D0
330
85C7
100
AcDbEntity
  8
DEFPOINTS
 62
     0
100
AcDbPoint
 10
3530.843268478227
 20
3356.192209343378
 30
0.0
  0
POINT
  5
85D1
330
85C7
100
AcDbEntity
  8
DEFPOINTS
 62
     0
100
AcDbPoint
 10
3284.062617025249
 20
2516.192209343379
 30
0.0
  0
POINT
  5
85D2
330
85C7
100
AcDbEntity
  8
DEFPOINTS
 62
     0
100
AcDbPoint
 10
3782.735283578248
 20
2516.192209343379
 30
0.0
  0
ENDBLK
  5
85C9
330
85C7
100
AcDbEntity
  8
0
100
AcDbBlockEnd
  0
BLOCK
  5
85D5
330
85D4
100
AcDbEntity
  8
0
100
AcDbBlockBegin
  2
*D38
 70
     1
 10
0.0
 20
0.0
 30
0.0
  3
*D38
  1

  0
LINE
  5
85D7
330
85D4
100
AcDbEntity
  8
3
 62
     0
370
    -2
100
AcDbLine
 10
3384.062617025249
 20
4624.692209343378
 30
0.0
 11
3384.062617025249
 21
4845.525596269836
 31
0.0
  0
LINE
  5
85D8
330
85D4
100
AcDbEntity
  8
3
 62
     0
370
    -2
100
AcDbLine
 10
2624.062617025249
 20
4687.605732334349
 30
0.0
 11
2624.062617025249
 21
4845.525596269836
 31
0.0
  0
LINE
  5
85D9
330
85D4
100
AcDbEntity
  8
3
 62
     0
370
    -2
100
AcDbLine
 10
3314.06261702525
 20
4810.525596269836
 30
0.0
 11
2694.06261702525
 21
4810.525596269836
 31
0.0
  0
INSERT
  5
85DA
330
85D4
100
AcDbEntity
  8
3
 62
     0
370
    -2
100
AcDbBlockReference
  2
_OPEN
 10
3384.062617025249
 20
4810.525596269836
 30
0.0
 41
70.0
 42
70.0
 43
70.0
  0
INSERT
  5
85DB
330
85D4
100
AcDbEntity
  8
3
 62
     0
370
    -2
100
AcDbBlockReference
  2
_OPEN
 10
2624.062617025249
 20
4810.525596269836
 30
0.0
 41
70.0
 42
70.0
 43
70.0
 50
180.0
  0
MTEXT
  5
85DC
330
85D4
100
AcDbEntity
  8
3
 62
     0
100
AcDbMText
 10
3004.06261702525
 20
4898.025596269835
 30
0.0
 40
105.0
 41
0.0
 71
     5
 72
     1
  1
\A1; 760 
 73
     1
 44
1.0
1001
ACAD
1000
MTEXTBEGIN
1070
    73
1070
     1
1070
    44
1040
1.0
1070
    74
1070
     0
1000
MTEXTEND
  0
POINT
  5
85DD
330
85D4
100
AcDbEntity
  8
DEFPOINTS
 62
     0
100
AcDbPoint
 10
3384.062617025249
 20
4607.192209343378
 30
0.0
  0
POINT
  5
85DE
330
85D4
100
AcDbEntity
  8
DEFPOINTS
 62
     0
100
AcDbPoint
 10
2624.062617025249
 20
4670.105732334348
 30
0.0
  0
POINT
  5
85DF
330
85D4
100
AcDbEntity
  8
DEFPOINTS
 62
     0
100
AcDbPoint
 10
2624.062617025249
 20
4810.525596269836
 30
0.0
  0
ENDBLK
  5
85D6
330
85D4
100
AcDbEntity
  8
0
100
AcDbBlockEnd
  0
BLOCK
  5
85E2
330
85E1
100
AcDbEntity
  8
0
100
AcDbBlockBegin
  2
*D39
 70
     1
 10
0.0
 20
0.0
 30
0.0
  3
*D39
  1

  0
LINE
  5
85E4
330
85E1
100
AcDbEntity
  8
3
 62
     0
370
    -2
100
AcDbLine
 10
2624.062617025249
 20
4687.605732334349
 30
0.0
 11
2624.062617025249
 21
4845.525596269836
 31
0.0
  0
LINE
  5
85E5
330
85E1
100
AcDbEntity
  8
3
 62
     0
370
    -2
100
AcDbLine
 10
1655.06261702525
 20
3455.692209343379
 30
0.0
 11
1655.06261702525
 21
4845.525596269836
 31
0.0
  0
LINE
  5
85E6
330
85E1
100
AcDbEntity
  8
3
 62
     0
370
    -2
100
AcDbLine
 10
2554.06261702525
 20
4810.525596269836
 30
0.0
 11
1725.062617025251
 21
4810.525596269836
 31
0.0
  0
INSERT
  5
85E7
330
85E1
100
AcDbEntity
  8
3
 62
     0
370
    -2
100
AcDbBlockReference
  2
_OPEN
 10
2624.062617025249
 20
4810.525596269836
 30
0.0
 41
70.0
 42
70.0
 43
70.0
  0
INSERT
  5
85E8
330
85E1
100
AcDbEntity
  8
3
 62
     0
370
    -2
100
AcDbBlockReference
  2
_OPEN
 10
1655.06261702525
 20
4810.525596269836
 30
0.0
 41
70.0
 42
70.0
 43
70.0
 50
180.0
  0
MTEXT
  5
85E9
330
85E1
100
AcDbEntity
  8
3
 62
     0
100
AcDbMText
 10
2139.56261702525
 20
4898.025596269835
 30
0.0
 40
105.0
 41
0.0
 71
     5
 72
     1
  1
\A1; 969 
 73
     1
 44
1.0
1001
ACAD
1000
MTEXTBEGIN
1070
    73
1070
     1
1070
    44
1040
1.0
1070
    74
1070
     0
1000
MTEXTEND
  0
POINT
  5
85EA
330
85E1
100
AcDbEntity
  8
DEFPOINTS
 62
     0
100
AcDbPoint
 10
2624.062617025249
 20
4670.105732334348
 30
0.0
  0
POINT
  5
85EB
330
85E1
100
AcDbEntity
  8
DEFPOINTS
 62
     0
100
AcDbPoint
 10
1655.06261702525
 20
3438.192209343378
 30
0.0
  0
POINT
  5
85EC
330
85E1
100
AcDbEntity
  8
DEFPOINTS
 62
     0
100
AcDbPoint
 10
1655.06261702525
 20
4810.525596269836
 30
0.0
  0
ENDBLK
  5
85E3
330
85E1
100
AcDbEntity
  8
0
100
AcDbBlockEnd
  0
BLOCK
  5
85EF
330
85EE
100
AcDbEntity
  8
0
100
AcDbBlockBegin
  2
*D40
 70
     1
 10
0.0
 20
0.0
 30
0.0
  3
*D40
  1

  0
LINE
  5
85F1
330
85EE
100
AcDbEntity
  8
3
 62
     0
370
    -2
100
AcDbLine
 10
3384.062617025249
 20
4624.692209343378
 30
0.0
 11
3384.062617025249
 21
5037.684932965962
 31
0.0
  0
LINE
  5
85F2
330
85EE
100
AcDbEntity
  8
3
 62
     0
370
    -2
100
AcDbLine
 10
1024.062617025251
 20
2658.692209343379
 30
0.0
 11
1024.062617025251
 21
5037.684932965962
 31
0.0
  0
LINE
  5
85F3
330
85EE
100
AcDbEntity
  8
3
 62
     0
370
    -2
100
AcDbLine
 10
3314.06261702525
 20
5002.684932965962
 30
0.0
 11
1094.062617025251
 21
5002.684932965962
 31
0.0
  0
INSERT
  5
85F4
330
85EE
100
AcDbEntity
  8
3
 62
     0
370
    -2
100
AcDbBlockReference
  2
_OPEN
 10
3384.062617025249
 20
5002.684932965962
 30
0.0
 41
70.0
 42
70.0
 43
70.0
  0
INSERT
  5
85F5
330
85EE
100
AcDbEntity
  8
3
 62
     0
370
    -2
100
AcDbBlockReference
  2
_OPEN
 10
1024.062617025251
 20
5002.684932965962
 30
0.0
 41
70.0
 42
70.0
 43
70.0
 50
180.0
  0
MTEXT
  5
85F6
330
85EE
100
AcDbEntity
  8
3
 62
     0
100
AcDbMText
 10
2204.06261702525
 20
5090.184932965962
 30
0.0
 40
105.0
 41
0.0
 71
     5
 72
     1
  1
\A1; 2360 
 73
     1
 44
1.0
1001
ACAD
1000
MTEXTBEGIN
1070
    73
1070
     1
1070
    44
1040
1.0
1070
    74
1070
     0
1000
MTEXTEND
  0
POINT
  5
85F7
330
85EE
100
AcDbEntity
  8
DEFPOINTS
 62
     0
100
AcDbPoint
 10
3384.062617025249
 20
4607.192209343378
 30
0.0
  0
POINT
  5
85F8
330
85EE
100
AcDbEntity
  8
DEFPOINTS
 62
     0
100
AcDbPoint
 10
1024.062617025251
 20
2641.192209343379
 30
0.0
  0
POINT
  5
85F9
330
85EE
100
AcDbEntity
  8
DEFPOINTS
 62
     0
100
AcDbPoint
 10
1024.062617025251
 20
5002.684932965962
 30
0.0
  0
ENDBLK
  5
85F0
330
85EE
100
AcDbEntity
  8
0
100
AcDbBlockEnd
  0
ENDSEC
  0
SECTION
  2
ENTITIES
  0
INSERT
  5
7C13
330
847E
100
AcDbEntity
  8
0
100
AcDbBlockReference
  2
YA_N
 10
6.0
 20
5.0
 30
0.0
  0
LINE
  5
7C15
330
847E
100
AcDbEntity
  8
2
100
AcDbLine
 10
3530.843268478227
 20
3356.192209343378
 30
0.0
 11
1557.688275911579
 21
3356.192209343378
 31
0.0
  0
LINE
  5
7C16
330
847E
100
AcDbEntity
  8
2
100
AcDbLine
 10
2624.062617025251
 20
2516.192209343379
 30
0.0
 11
2624.062617025249
 21
4670.105732334348
 31
0.0
  0
LINE
  5
7C17
330
847E
100
AcDbEntity
  8
1
100
AcDbLine
 10
3384.062617025249
 20
3351.192209343379
 30
0.0
 11
3384.062617025249
 21
4607.192209343378
 31
0.0
  0
LINE
  5
7C18
330
847E
100
AcDbEntity
  8
1
100
AcDbLine
 10
3384.062617025249
 20
4607.192209343378
 30
0.0
 11
3380.062617025251
 21
4607.192209343378
 31
0.0
  0
LINE
  5
7C19
330
847E
100
AcDbEntity
  8
1
100
AcDbLine
 10
3384.062617025249
 20
3351.192209343379
 30
0.0
 11
3380.062617025251
 21
3351.192209343379
 31
0.0
  0
LINE
  5
7C1A
330
847E
100
AcDbEntity
  8
1
100
AcDbLine
 10
3334.062617025249
 20
3404.192209343379
 30
0.0
 11
3334.062617025249
 21
4549.70512110794
 31
0.0
  0
LINE
  5
7C1B
330
847E
100
AcDbEntity
  8
1
100
AcDbLine
 10
3380.062617025251
 20
3351.192209343379
 30
0.0
 11
3380.062617025251
 21
4607.192209343378
 31
0.0
  0
LINE
  5
7C1C
330
847E
100
AcDbEntity
  8
1
100
AcDbLine
 10
3284.062617025249
 20
2516.192209343379
 30
0.0
 11
1024.062617025251
 21
2516.192209343379
 31
0.0
1001
ACAD
1000
ASC_BOUNDS
1002
{
1070
    19
1005
0
1002
}
  0
LINE
  5
7C1D
330
847E
100
AcDbEntity
  8
1
100
AcDbLine
 10
3284.062617025251
 20
2641.192209343379
 30
0.0
 11
3284.062617025249
 21
2516.192209343379
 31
0.0
  0
LINE
  5
7C1E
330
847E
100
AcDbEntity
  8
1
100
AcDbLine
 10
1024.062617025251
 20
2641.192209343379
 30
0.0
 11
1024.062617025251
 21
2516.192209343379
 31
0.0
  0
LINE
  5
7C1F
330
847E
100
AcDbEntity
  8
1
100
AcDbLine
 10
3284.062617025249
 20
2641.192209343379
 30
0.0
 11
1024.062617025251
 21
2641.192209343379
 31
0.0
  0
ARC
  5
7C20
330
847E
100
AcDbEntity
  8
1
100
AcDbCircle
 10
2706.062617025251
 20
3438.192209343378
 30
0.0
 40
1051.0
100
AcDbArc
 50
94.47481789853384
 51
184.4748178985337
  0
ARC
  5
7C21
330
847E
100
AcDbEntity
  8
1
100
AcDbCircle
 10
2542.06261702525
 20
3438.192209343378
 30
0.0
 40
887.0
100
AcDbArc
 50
185.3043652077958
 51
243.9660825265812
  0
ARC
  5
7C22
330
847E
100
AcDbEntity
  8
1
100
AcDbCircle
 10
2555.562617025251
 20
3287.692209343378
 30
0.0
 40
736.5
100
AcDbArc
 50
298.6218443773359
 51
5.336648321383473
  0
LINE
  5
7C23
330
847E
100
AcDbEntity
  8
1
100
AcDbLine
 10
3384.062617025249
 20
4554.192209343379
 30
0.0
 11
2624.062617025249
 21
4485.988468164721
 31
0.0
  0
LINE
  5
7C24
330
847E
100
AcDbEntity
  8
1
100
AcDbLine
 10
3384.062617025249
 20
3404.192209343379
 30
0.0
 11
3290.33583425674
 21
3404.192209343379
 31
0.0
  0
LINE
  5
7C25
330
847E
100
AcDbEntity
  8
2
100
AcDbLine
 10
1314.06261702525
 20
3215.050485499323
 30
0.0
 11
1314.062617025252
 21
2516.192209343379
 31
0.0
  0
LINE
  5
7C26
330
847E
100
AcDbEntity
  8
2
100
AcDbLine
 10
1549.388911884229
 20
2901.192209343378
 30
0.0
 11
1049.897991042991
 21
2901.192209343378
 31
0.0
  0
LINE
  5
7C27
330
847E
100
AcDbEntity
  8
1
100
AcDbLine
 10
4561.752841307504
 20
2516.192209343379
 30
0.0
 11
4626.752841307506
 21
2516.192209343379
 31
0.0
1001
ACAD
1000
ASC_BOUNDS
1002
{
1070
    19
1002
}
  0
LINE
  5
7C28
330
847E
100
AcDbEntity
  8
1
100
AcDbLine
 10
4561.752841307504
 20
2641.192209343379
 30
0.0
 11
6461.752841307505
 21
2641.192209343379
 31
0.0
  0
LINE
  5
7C29
330
847E
100
AcDbEntity
  8
1
100
AcDbLine
 10
4626.752841307506
 20
2516.192209343379
 30
0.0
 11
6461.752841307505
 21
2516.192209343379
 31
0.0
1001
ACAD
1000
ASC_BOUNDS
1002
{
1070
    19
1002
}
  0
LINE
  5
7C2A
330
847E
100
AcDbEntity
  8
2
100
AcDbLine
 10
4536.576091240408
 20
3356.192209343378
 30
0.0
 11
6568.740828384246
 21
3356.192209343378
 31
0.0
  0
LINE
  5
7C2B
330
847E
100
AcDbEntity
  8
1
100
AcDbLine
 10
4558.752841307506
 20
3610.192209343378
 30
0.0
 11
4558.752841307506
 21
2808.192209343378
 31
0.0
  0
LINE
  5
7C2C
330
847E
100
AcDbEntity
  8
1
100
AcDbLine
 10
4669.252841307506
 20
3610.192209343378
 30
0.0
 11
4669.252841307505
 21
2808.192209343378
 31
0.0
  0
LINE
  5
7C2D
330
847E
100
AcDbEntity
  8
2
100
AcDbLine
 10
4537.833902088377
 20
2926.192209343378
 30
0.0
 11
5000.698531242382
 21
2926.192209343378
 31
0.0
  0
LINE
  5
7C2E
330
847E
100
AcDbEntity
  8
1
100
AcDbLine
 10
4523.752841307505
 20
3736.192209343379
 30
0.0
 11
4523.752841307505
 21
2706.192209343379
 31
0.0
  0
LINE
  5
7C2F
330
847E
100
AcDbEntity
  8
1
100
AcDbLine
 10
4721.052841307505
 20
3736.192209343379
 30
0.0
 11
4721.052841307504
 21
3716.192209343379
 31
0.0
  0
LINE
  5
7C30
330
847E
100
AcDbEntity
  8
2
100
AcDbLine
 10
2624.062617025249
 20
7444.223726659709
 30
0.0
 11
2624.062617025249
 21
5601.64531611957
 31
0.0
  0
LINE
  5
7C31
330
847E
100
AcDbEntity
  8
2
100
AcDbLine
 10
3454.700030357467
 20
6760.591300024717
 30
0.0
 11
1559.200892146
 21
6760.591300024717
 31
0.0
  0
LINE
  5
7C32
330
847E
100
AcDbEntity
  8
2
100
AcDbLine
 10
5643.752841307505
 20
4763.374535509206
 30
0.0
 11
5643.752841307505
 21
2516.192209343379
 31
0.0
  0
POINT
  5
7C33
330
847E
100
AcDbEntity
  8
1
100
AcDbPoint
 10
3425.264179523871
 20
3356.192209343378
 30
0.0
  0
INSERT
  5
7C34
330
847E
100
AcDbEntity
  8
0
100
AcDbBlockReference
  2
YA_N
 10
-1074.779326041182
 20
-1311.669320613289
 30
0.0
 41
25.0
 42
25.0
 43
25.0
  0
INSERT
  5
7C3D
330
847E
100
AcDbEntity
  8
0
100
AcDbBlockReference
  2
YA_N
 10
-346.9416476423939
 20
-375.8074592043958
 30
0.0
 41
25.0
 42
25.0
 43
25.0
  0
ARC
  5
7C42
330
847E
100
AcDbEntity
  8
1
100
AcDbCircle
 10
1314.06261702525
 20
2901.192209343378
 30
0.0
 40
203.5
100
AcDbArc
 50
285.603699
 51
254.39624
  0
LINE
  5
7C43
330
847E
100
AcDbEntity
  8
1
100
AcDbLine
 10
1259.324580025251
 20
2705.192209343379
 30
0.0
 11
1368.800654025251
 21
2705.192209343379
 31
0.0
  0
ARC
  5
7C44
330
847E
100
AcDbEntity
  8
1
100
AcDbCircle
 10
1500.06261702525
 20
2718.192209343379
 30
0.0
 40
3.0
100
AcDbArc
 50
0.0
 51
90.0
  0
ARC
  5
7C45
330
847E
100
AcDbEntity
  8
1
100
AcDbCircle
 10
1498.06261702525
 20
2775.518870343379
 30
0.0
 40
5.000066999999999
100
AcDbArc
 50
0.0
 51
55.056335
  0
LINE
  5
7C46
330
847E
100
AcDbEntity
  8
1
100
AcDbLine
 10
1503.062617025251
 20
2775.518870343379
 30
0.0
 11
1503.062617025251
 21
2701.192209343379
 31
0.0
  0
LINE
  5
7C4A
330
847E
100
AcDbEntity
  8
1
100
AcDbLine
 10
1418.165187025251
 20
2726.335398343379
 30
0.0
 11
1423.56261702525
 21
2706.192209343379
 31
0.0
  0
LINE
  5
7C4B
330
847E
100
AcDbEntity
  8
1
100
AcDbLine
 10
1423.56261702525
 20
2718.192209343379
 30
0.0
 11
1423.56261702525
 21
2701.192209343379
 31
0.0
  0
LINE
  5
7C4C
330
847E
100
AcDbEntity
  8
1
100
AcDbLine
 10
1426.562617025251
 20
2721.192209343379
 30
0.0
 11
1500.06261702525
 21
2721.192209343379
 31
0.0
  0
ARC
  5
7C4D
330
847E
100
AcDbEntity
  8
1
100
AcDbCircle
 10
1426.562617025251
 20
2718.192209343379
 30
0.0
 40
3.0
100
AcDbArc
 50
90.0
 51
180.0
  0
LINE
  5
7C4E
330
847E
100
AcDbEntity
  8
1
100
AcDbLine
 10
1500.92638702525
 20
2779.617502343379
 30
0.0
 11
1484.988521025251
 21
2790.753977343378
 31
0.0
  0
LINE
  5
7C4F
330
847E
100
AcDbEntity
  8
1
100
AcDbLine
 10
1125.06261702525
 20
2775.518870343379
 30
0.0
 11
1125.06261702525
 21
2701.192209343379
 31
0.0
  0
LINE
  5
7C53
330
847E
100
AcDbEntity
  8
1
100
AcDbLine
 10
1209.959834025251
 20
2726.335520343378
 30
0.0
 11
1204.56261702525
 21
2706.192209343379
 31
0.0
  0
LINE
  5
7C54
330
847E
100
AcDbEntity
  8
1
100
AcDbLine
 10
1204.56261702525
 20
2718.192209343379
 30
0.0
 11
1204.56261702525
 21
2701.192209343379
 31
0.0
  0
LINE
  5
7C55
330
847E
100
AcDbEntity
  8
1
100
AcDbLine
 10
1201.56261702525
 20
2721.192209343379
 30
0.0
 11
1128.062617025251
 21
2721.192209343379
 31
0.0
  0
ARC
  5
7C56
330
847E
100
AcDbEntity
  8
1
100
AcDbCircle
 10
1201.56261702525
 20
2718.192209343379
 30
0.0
 40
3.0
100
AcDbArc
 50
0.0
 51
90.0
  0
ARC
  5
7C57
330
847E
100
AcDbEntity
  8
1
100
AcDbCircle
 10
1128.062617025251
 20
2718.192209343379
 30
0.0
 40
3.0
100
AcDbArc
 50
90.0
 51
180.0
  0
LINE
  5
7C58
330
847E
100
AcDbEntity
  8
1
100
AcDbLine
 10
1127.198726025251
 20
2779.617502343379
 30
0.0
 11
1143.136592025251
 21
2790.753977343378
 31
0.0
  0
ARC
  5
7C59
330
847E
100
AcDbEntity
  8
1
100
AcDbCircle
 10
1130.06261702525
 20
2775.518870343379
 30
0.0
 40
5.0
100
AcDbArc
 50
124.943661
 51
180.0
  0
LINE
  5
7C5A
330
847E
100
AcDbEntity
  8
1
100
AcDbLine
 10
1558.12487307334
 20
2701.192209343379
 30
0.0
 11
1384.06261702525
 21
2701.192209343379
 31
0.0
  0
LINE
  5
7C5B
330
847E
100
AcDbEntity
  8
1
100
AcDbLine
 10
1574.062617025252
 20
2641.192209343379
 30
0.0
 11
1558.124873073341
 21
2701.192209343379
 31
0.0
  0
LINE
  5
7C5C
330
847E
100
AcDbEntity
  8
1
100
AcDbLine
 10
1054.062617025252
 20
2641.192209343379
 30
0.0
 11
1070.047626931615
 21
2701.192209343379
 31
0.0
  0
LINE
  5
7C5E
330
847E
100
AcDbEntity
  8
1
100
AcDbLine
 10
1384.06261702525
 20
2691.192209343379
 30
0.0
 11
1244.062617025251
 21
2691.192209343379
 31
0.0
  0
LINE
  5
7C5F
330
847E
100
AcDbEntity
  8
1
100
AcDbLine
 10
1244.062617025251
 20
2701.192209343379
 30
0.0
 11
1244.062617025252
 21
2691.192209343379
 31
0.0
  0
LINE
  5
7C60
330
847E
100
AcDbEntity
  8
1
100
AcDbLine
 10
1384.062617025251
 20
2701.192209343379
 30
0.0
 11
1384.062617025251
 21
2691.192209343379
 31
0.0
  0
LINE
  5
7C63
330
847E
100
AcDbEntity
  8
1
100
AcDbLine
 10
1244.062617025251
 20
2701.192209343379
 30
0.0
 11
1070.047626931615
 21
2701.192209343379
 31
0.0
  0
CIRCLE
  5
7C64
330
847E
100
AcDbEntity
  8
1
100
AcDbCircle
 10
1314.06261702525
 20
2901.192209343378
 30
0.0
 40
118.0
  0
LINE
  5
7C65
330
847E
100
AcDbEntity
  8
1
100
AcDbLine
 10
4558.752841307505
 20
3044.192209343378
 30
0.0
 11
4669.252841307505
 21
3044.192209343378
 31
0.0
  0
LINE
  5
7C66
330
847E
100
AcDbEntity
  8
1
100
AcDbLine
 10
4558.752841307506
 20
2808.192209343378
 30
0.0
 11
4669.252841307505
 21
2808.192209343378
 31
0.0
  0
LINE
  5
7C67
330
847E
100
AcDbEntity
  8
1
100
AcDbLine
 10
4523.752841307505
 20
2706.192209343379
 30
0.0
 11
4721.052841307505
 21
2706.192209343379
 31
0.0
  0
INSERT
  5
7C69
330
847E
100
AcDbEntity
  8
0
100
AcDbBlockReference
  2
YA_N
 10
-394.4722692372305
 20
-430.898429998433
 30
0.0
 41
25.0
 42
25.0
 43
25.0
  0
LINE
  5
7C6C
330
847E
100
AcDbEntity
  8
1
100
AcDbLine
 10
4893.752841307506
 20
2641.192209343379
 30
0.0
 11
4893.752841307507
 21
3356.192209343378
 31
0.0
  0
LINE
  5
7C6D
330
847E
100
AcDbEntity
  8
1
100
AcDbLine
 10
6393.752841307503
 20
2641.192209343379
 30
0.0
 11
6393.752841307506
 21
3356.192209343378
 31
0.0
  0
LINE
  5
7C6E
330
847E
100
AcDbEntity
  8
1
100
AcDbLine
 10
4893.752841307505
 20
4554.192209343379
 30
0.0
 11
6393.752841307505
 21
4554.192209343379
 31
0.0
  0
LINE
  5
7C71
330
847E
100
AcDbEntity
  8
1
100
AcDbLine
 10
4893.752841307505
 20
3356.192209343378
 30
0.0
 11
4893.752841307505
 21
4554.192209343379
 31
0.0
  0
LINE
  5
7C72
330
847E
100
AcDbEntity
  8
1
100
AcDbLine
 10
6393.752841307505
 20
3356.192209343378
 30
0.0
 11
6393.752841307505
 21
4554.192209343379
 31
0.0
  0
LINE
  5
7C73
330
847E
100
AcDbEntity
  8
1
100
AcDbLine
 10
4736.252841307504
 20
3293.192209343378
 30
0.0
 11
4826.452841307505
 21
3293.192209343378
 31
0.0
  0
LINE
  5
7C74
330
847E
100
AcDbEntity
  8
1
100
AcDbLine
 10
4726.252841307505
 20
3283.192209343379
 30
0.0
 11
4726.252841307505
 21
3153.192209343378
 31
0.0
  0
LINE
  5
7C75
330
847E
100
AcDbEntity
  8
1
100
AcDbLine
 10
4866.252841307504
 20
3293.192209343378
 30
0.0
 11
4866.252841307503
 21
3143.192209343377
 31
0.0
  0
LINE
  5
7C76
330
847E
100
AcDbEntity
  8
1
100
AcDbLine
 10
4736.252841307504
 20
3143.192209343379
 30
0.0
 11
4826.452841307505
 21
3143.192209343377
 31
0.0
  0
ARC
  5
7C77
330
847E
100
AcDbEntity
  8
1
100
AcDbCircle
 10
4736.252841307504
 20
3283.192209343379
 30
0.0
 40
10.0
100
AcDbArc
 50
90.0
 51
180.0
  0
ARC
  5
7C78
330
847E
100
AcDbEntity
  8
1
100
AcDbCircle
 10
4736.252841307504
 20
3153.192209343378
 30
0.0
 40
10.0
100
AcDbArc
 50
180.0
 51
270.0
  0
LINE
  5
7C79
330
847E
100
AcDbEntity
  8
1
100
AcDbLine
 10
6421.252841307505
 20
3293.192209343378
 30
0.0
 11
6421.252841307505
 21
3143.192209343377
 31
0.0
  0
LINE
  5
7C7A
330
847E
100
AcDbEntity
  8
1
100
AcDbLine
 10
6573.752841307504
 20
3283.192209343379
 30
0.0
 11
6573.752841307504
 21
3153.192209343378
 31
0.0
  0
LINE
  5
7C7B
330
847E
100
AcDbEntity
  8
1
100
AcDbLine
 10
6563.752841307504
 20
3143.192209343379
 30
0.0
 11
6461.052841307509
 21
3143.192209343377
 31
0.0
  0
ARC
  5
7C7C
330
847E
100
AcDbEntity
  8
1
100
AcDbCircle
 10
6563.752841307504
 20
3153.192209343378
 30
0.0
 40
10.0
100
AcDbArc
 50
270.0
 51
0.0
  0
LINE
  5
7C7D
330
847E
100
AcDbEntity
  8
1
100
AcDbLine
 10
6563.752841307504
 20
3293.192209343378
 30
0.0
 11
6461.052841307509
 21
3293.192209343378
 31
0.0
  0
ARC
  5
7C7E
330
847E
100
AcDbEntity
  8
1
100
AcDbCircle
 10
6563.752841307504
 20
3283.192209343379
 30
0.0
 40
10.0
100
AcDbArc
 50
0.0
 51
90.0
  0
LINE
  5
7C7F
330
847E
100
AcDbEntity
  8
1
100
AcDbLine
 10
4698.752841307504
 20
3396.192209343379
 30
0.0
 11
4893.752841307504
 21
3396.192209343379
 31
0.0
  0
LINE
  5
7C80
330
847E
100
AcDbEntity
  8
1
100
AcDbLine
 10
4698.752841307505
 20
3316.192209343379
 30
0.0
 11
4893.752841307507
 21
3316.192209343379
 31
0.0
  0
LINE
  5
7C81
330
847E
100
AcDbEntity
  8
1
100
AcDbLine
 10
4698.752841307505
 20
3396.192209343379
 30
0.0
 11
4698.752841307505
 21
3316.192209343379
 31
0.0
  0
LINE
  5
7C82
330
847E
100
AcDbEntity
  8
1
100
AcDbLine
 10
4669.252841307506
 20
3388.692209343378
 30
0.0
 11
4698.752841307505
 21
3388.692209343378
 31
0.0
  0
LINE
  5
7C83
330
847E
100
AcDbEntity
  8
1
100
AcDbLine
 10
4669.252841307505
 20
3323.692209343379
 30
0.0
 11
4698.752841307505
 21
3323.692209343379
 31
0.0
  0
LINE
  5
7C88
330
847E
100
AcDbEntity
  8
1
100
AcDbLine
 10
6461.052841307505
 20
3293.192209343378
 30
0.0
 11
6421.252841307505
 21
3293.192209343378
 31
0.0
  0
LINE
  5
7C89
330
847E
100
AcDbEntity
  8
1
100
AcDbLine
 10
6461.052841307507
 20
3143.192209343377
 30
0.0
 11
6421.252841307505
 21
3143.192209343377
 31
0.0
  0
LINE
  5
7C8A
330
847E
100
AcDbEntity
  8
1
100
AcDbLine
 10
4826.452841307505
 20
3293.192209343378
 30
0.0
 11
4866.252841307504
 21
3293.192209343378
 31
0.0
  0
LINE
  5
7C8B
330
847E
100
AcDbEntity
  8
1
100
AcDbLine
 10
4826.452841307505
 20
3143.192209343377
 30
0.0
 11
4866.252841307504
 21
3143.192209343377
 31
0.0
  0
ARC
  5
7C8D
330
847E
100
AcDbEntity
  8
1
100
AcDbCircle
 10
2624.062617025249
 20
3356.192209343378
 30
0.0
 40
668.0
100
AcDbArc
 50
0.0
 51
4.120613213950072
  0
LINE
  5
7C8F
330
847E
100
AcDbEntity
  8
1
100
AcDbLine
 10
6461.752841307505
 20
2641.192209343379
 30
0.0
 11
6461.752841307505
 21
2516.192209343379
 31
0.0
  0
LINE
  5
7C90
330
847E
100
AcDbEntity
  8
1
100
AcDbLine
 10
4561.752841307504
 20
2641.192209343379
 30
0.0
 11
4561.752841307504
 21
2516.192209343379
 31
0.0
  0
INSERT
  5
7C93
330
847E
100
AcDbEntity
  8
0
100
AcDbBlockReference
  2
YA_N
 10
4305.350442567148
 20
-1988.400780944633
 30
0.0
  0
POINT
  5
7C99
330
847E
100
AcDbEntity
  8
1
100
AcDbPoint
 10
3284.062617025249
 20
2516.192209343379
 30
0.0
  0
ARC
  5
7C9C
330
847E
100
AcDbEntity
  8
1
100
AcDbCircle
 10
2624.062617025251
 20
3356.192209343378
 30
0.0
 40
380.0
100
AcDbArc
 50
282.5282342404732
 51
115.778882395325
  0
CIRCLE
  5
7C9D
330
847E
100
AcDbEntity
  8
1
100
AcDbCircle
 10
2624.062617025251
 20
3356.192209343378
 30
0.0
 40
254.0
  0
ARC
  5
7C9E
330
847E
100
AcDbEntity
  8
1
100
AcDbCircle
 10
1314.062617025251
 20
2901.192209343378
 30
0.0
 40
220.0
100
AcDbArc
 50
115.778882395325
 51
282.5282342404732
  0
LINE
  5
7C9F
330
847E
100
AcDbEntity
  8
1
100
AcDbLine
 10
2458.80090667297
 20
3698.374276511486
 30
0.0
 11
1218.384784716036
 21
3099.29761665123
 31
0.0
  0
LINE
  5
7CA0
330
847E
100
AcDbEntity
  8
1
100
AcDbLine
 10
2517.595887784095
 20
3586.801913312423
 30
0.0
 11
1264.601695566761
 21
3008.325851344745
 31
0.0
  0
LINE
  5
7CA1
330
847E
100
AcDbEntity
  8
1
100
AcDbLine
 10
2683.467777205633
 20
3109.236693219637
 30
0.0
 11
1341.660289864956
 21
2786.464843585105
 31
0.0
  0
LINE
  5
7CA2
330
847E
100
AcDbEntity
  8
1
100
AcDbLine
 10
2706.492478173762
 20
2985.24030142129
 30
0.0
 11
1361.785168216494
 21
2686.430578441117
 31
0.0
  0
LINE
  5
7CA3
330
847E
100
AcDbEntity
  8
1
100
AcDbLine
 10
4558.752841307506
 20
3610.192209343378
 30
0.0
 11
4669.252841307506
 21
3610.192209343378
 31
0.0
  0
LINE
  5
7CA4
330
847E
100
AcDbEntity
  8
1
100
AcDbLine
 10
4558.752841307506
 20
3102.192209343379
 30
0.0
 11
4669.252841307505
 21
3102.192209343379
 31
0.0
  0
LINE
  5
7CA5
330
847E
100
AcDbEntity
  8
1
100
AcDbLine
 10
4523.752841307505
 20
3736.192209343379
 30
0.0
 11
4721.052841307505
 21
3736.192209343379
 31
0.0
  0
LINE
  5
7CA6
330
847E
100
AcDbEntity
  8
1
100
AcDbLine
 10
4721.052841307504
 20
2726.192209343379
 30
0.0
 11
4721.052841307505
 21
2706.192209343379
 31
0.0
  0
LINE
  5
7CA8
330
847E
100
AcDbEntity
  8
1
100
AcDbLine
 10
3284.062617025249
 20
7578.591300024716
 30
0.0
 11
1964.062617025251
 21
7578.591300024716
 31
0.0
  0
LINE
  5
7CA9
330
847E
100
AcDbEntity
  8
1
100
AcDbLine
 10
3284.062617025249
 20
5678.591300024717
 30
0.0
 11
1024.06261702525
 21
5678.591300024717
 31
0.0
  0
LINE
  5
7CAA
330
847E
100
AcDbEntity
  8
1
100
AcDbLine
 10
3284.062617025249
 20
7578.591300024719
 30
0.0
 11
3284.062617025251
 21
7510.591300024717
 31
0.0
  0
LINE
  5
7CAB
330
847E
100
AcDbEntity
  8
1
100
AcDbLine
 10
1024.06261702525
 20
6578.591300024716
 30
0.0
 11
1024.06261702525
 21
5678.591300024716
 31
0.0
  0
LINE
  5
7CAC
330
847E
100
AcDbEntity
  8
1
100
AcDbLine
 10
1964.062617025251
 20
7578.591300024716
 30
0.0
 11
1964.062617025251
 21
7510.591300024717
 31
0.0
  0
LINE
  5
7CAD
330
847E
100
AcDbEntity
  8
1
100
AcDbLine
 10
1655.06261702525
 20
6578.591300024716
 30
0.0
 11
1024.06261702525
 21
6578.591300024716
 31
0.0
  0
LINE
  5
7CAE
330
847E
100
AcDbEntity
  8
2
100
AcDbLine
 10
1314.062617025251
 20
6446.313877183041
 30
0.0
 11
1314.062617025253
 21
5601.64531611957
 31
0.0
  0
CIRCLE
  5
7CB8
330
847E
100
AcDbEntity
  8
1
100
AcDbCircle
 10
2624.062617025251
 20
3356.192209343378
 30
0.0
 40
560.0
  0
CIRCLE
  5
7CB9
330
847E
100
AcDbEntity
  8
1
100
AcDbCircle
 10
2624.062617025251
 20
3356.192209343378
 30
0.0
 40
610.0
  0
LINE
  5
7CBA
330
847E
100
AcDbEntity
  8
1
100
AcDbLine
 10
3004.062617025252
 20
5640.591300024715
 30
0.0
 11
1094.062617025251
 21
5640.591300024715
 31
0.0
  0
LINE
  5
7CBB
330
847E
100
AcDbEntity
  8
1
100
AcDbLine
 10
3004.062617025252
 20
5810.591300024715
 30
0.0
 11
1094.062617025251
 21
5810.591300024715
 31
0.0
  0
LINE
  5
7CBC
330
847E
100
AcDbEntity
  8
1
100
AcDbLine
 10
3004.062617025251
 20
5640.591300024715
 30
0.0
 11
3004.062617025252
 21
5810.591300024715
 31
0.0
  0
LINE
  5
7CBD
330
847E
100
AcDbEntity
  8
1
100
AcDbLine
 10
1094.062617025251
 20
5640.591300024715
 30
0.0
 11
1094.062617025251
 21
5810.591300024715
 31
0.0
  0
LINE
  5
7CBE
330
847E
100
AcDbEntity
  8
1
100
AcDbLine
 10
2878.06261702525
 20
5678.291300024715
 30
0.0
 11
2878.06261702525
 21
5788.791300024715
 31
0.0
  0
LINE
  5
7CBF
330
847E
100
AcDbEntity
  8
1
100
AcDbLine
 10
2370.062617025251
 20
5678.291300024715
 30
0.0
 11
2370.062617025251
 21
5788.791300024715
 31
0.0
  0
LINE
  5
7CC0
330
847E
100
AcDbEntity
  8
1
100
AcDbLine
 10
1432.062617025251
 20
5678.291300024715
 30
0.0
 11
1432.06261702525
 21
5788.791300024715
 31
0.0
  0
LINE
  5
7CC1
330
847E
100
AcDbEntity
  8
1
100
AcDbLine
 10
1196.06261702525
 20
5678.291300024715
 30
0.0
 11
1196.06261702525
 21
5788.791300024715
 31
0.0
  0
LINE
  5
7CC2
330
847E
100
AcDbEntity
  8
1
100
AcDbLine
 10
2878.06261702525
 20
5678.291300024715
 30
0.0
 11
2370.062617025251
 21
5678.291300024715
 31
0.0
  0
LINE
  5
7CC3
330
847E
100
AcDbEntity
  8
1
100
AcDbLine
 10
2878.062617025251
 20
5788.791300024715
 30
0.0
 11
2370.062617025251
 21
5788.791300024715
 31
0.0
  0
LINE
  5
7CC4
330
847E
100
AcDbEntity
  8
1
100
AcDbLine
 10
1432.06261702525
 20
5788.791300024715
 30
0.0
 11
1196.06261702525
 21
5788.791300024715
 31
0.0
  0
LINE
  5
7CC5
330
847E
100
AcDbEntity
  8
1
100
AcDbLine
 10
1432.062617025251
 20
5678.291300024715
 30
0.0
 11
1196.06261702525
 21
5678.291300024715
 31
0.0
  0
LINE
  5
7CC6
330
847E
100
AcDbEntity
  8
1
100
AcDbLine
 10
3384.062617025249
 20
7560.591300024717
 30
0.0
 11
3384.062617025249
 21
5960.591300024716
 31
0.0
  0
LINE
  5
7CC7
330
847E
100
AcDbEntity
  8
1
100
AcDbLine
 10
1655.06261702525
 20
7510.591300024717
 30
0.0
 11
1655.06261702525
 21
6010.591300024715
 31
0.0
  0
LINE
  5
7CC8
330
847E
100
AcDbEntity
  8
1
100
AcDbLine
 10
3384.062617025249
 20
7510.591300024717
 30
0.0
 11
1655.06261702525
 21
7510.591300024717
 31
0.0
  0
LINE
  5
7CC9
330
847E
100
AcDbEntity
  8
1
100
AcDbLine
 10
3384.062617025251
 20
6010.591300024715
 30
0.0
 11
1655.06261702525
 21
6010.591300024715
 31
0.0
  0
LINE
  5
7CCA
330
847E
100
AcDbEntity
  8
1
100
AcDbLine
 10
3384.062617025249
 20
7560.591300024717
 30
0.0
 11
3380.062617025251
 21
7560.591300024717
 31
0.0
  0
LINE
  5
7CCB
330
847E
100
AcDbEntity
  8
1
100
AcDbLine
 10
3384.062617025251
 20
5960.591300024716
 30
0.0
 11
3380.062617025251
 21
5960.591300024716
 31
0.0
  0
LINE
  5
7CCC
330
847E
100
AcDbEntity
  8
1
100
AcDbLine
 10
3380.062617025251
 20
7560.591300024717
 30
0.0
 11
3380.062617025251
 21
5960.591300024716
 31
0.0
  0
LINE
  5
7CCD
330
847E
100
AcDbEntity
  8
1
100
AcDbLine
 10
2659.062617025251
 20
6010.591300024715
 30
0.0
 11
2659.062617025251
 21
5788.791300024715
 31
0.0
  0
LINE
  5
7CCE
330
847E
100
AcDbEntity
  8
1
100
AcDbLine
 10
2589.062617025251
 20
6010.591300024715
 30
0.0
 11
2589.062617025251
 21
5788.791300024715
 31
0.0
  0
LINE
  5
7CCF
330
847E
100
AcDbEntity
  8
1
100
AcDbLine
 10
1513.062617025251
 20
6480.791300024716
 30
0.0
 11
1513.062617025252
 21
5823.291300024715
 31
0.0
  0
LINE
  5
7CD0
330
847E
100
AcDbEntity
  8
1
100
AcDbLine
 10
1115.062617025251
 20
6480.791300024716
 30
0.0
 11
1115.062617025253
 21
5823.291300024714
 31
0.0
  0
LINE
  5
7CD1
330
847E
100
AcDbEntity
  8
1
100
AcDbLine
 10
1513.062617025251
 20
6480.791300024716
 30
0.0
 11
1115.062617025251
 21
6480.791300024716
 31
0.0
  0
LINE
  5
7CD2
330
847E
100
AcDbEntity
  8
1
100
AcDbLine
 10
1513.062617025254
 20
5823.291300024715
 30
0.0
 11
1115.062617025254
 21
5823.291300024715
 31
0.0
  0
LINE
  5
7CD3
330
847E
100
AcDbEntity
  8
1
100
AcDbLine
 10
1341.562617025252
 20
5823.291300024715
 30
0.0
 11
1341.562617025252
 21
5788.791300024715
 31
0.0
  0
LINE
  5
7CD4
330
847E
100
AcDbEntity
  8
1
100
AcDbLine
 10
1286.562617025252
 20
5823.291300024715
 30
0.0
 11
1286.562617025252
 21
5788.791300024715
 31
0.0
  0
LINE
  5
7CD5
330
847E
100
AcDbEntity
  8
1
100
AcDbLine
 10
4893.752841307507
 20
3125.19220934338
 30
0.0
 11
4703.752841307504
 21
3125.19220934338
 31
0.0
  0
LINE
  5
7CD6
330
847E
100
AcDbEntity
  8
1
100
AcDbLine
 10
4893.752841307507
 20
2727.19220934338
 30
0.0
 11
4703.752841307506
 21
2727.19220934338
 31
0.0
  0
LINE
  5
7CD7
330
847E
100
AcDbEntity
  8
1
100
AcDbLine
 10
4703.752841307506
 20
2727.192209343379
 30
0.0
 11
4703.752841307504
 21
3125.192209343378
 31
0.0
  0
LINE
  5
7CD8
330
847E
100
AcDbEntity
  8
1
100
AcDbLine
 10
4703.752841307505
 20
2898.69220934338
 30
0.0
 11
4669.252841307505
 21
2898.69220934338
 31
0.0
  0
LINE
  5
7CD9
330
847E
100
AcDbEntity
  8
1
100
AcDbLine
 10
4703.752841307505
 20
2953.69220934338
 30
0.0
 11
4669.252841307505
 21
2953.69220934338
 31
0.0
  0
LINE
  5
7CE2
330
847E
100
AcDbEntity
  8
1
100
AcDbLine
 10
3284.062617025251
 20
6010.591300024715
 30
0.0
 11
3284.062617025251
 21
5678.591300024717
 31
0.0
  0
LINE
  5
7CE3
330
847E
100
AcDbEntity
  8
1
100
AcDbLine
 10
4893.752841307505
 20
3404.192209343379
 30
0.0
 11
6393.752841307505
 21
3404.192209343379
 31
0.0
  0
LINE
  5
7CE4
330
847E
100
AcDbEntity
  8
1
100
AcDbLine
 10
6393.752841307505
 20
4554.192209343379
 30
0.0
 11
4893.752841307505
 21
3404.192209343379
 31
0.0
  0
LINE
  5
7CE5
330
847E
100
AcDbEntity
  8
1
100
AcDbLine
 10
4893.752841307505
 20
4554.192209343379
 30
0.0
 11
6393.752841307505
 21
3404.192209343379
 31
0.0
  0
LINE
  5
7F14
330
847E
100
AcDbEntity
  8
4
100
AcDbLine
 10
6475.0
 20
1411.801532643661
 30
0.0
 11
6475.0
 21
711.8015326436618
 31
0.0
  0
LINE
  5
7F15
330
847E
100
AcDbEntity
  8
4
100
AcDbLine
 10
4025.0
 20
1411.801532643661
 30
0.0
 11
4025.0
 21
711.8015326436618
 31
0.0
  0
LINE
  5
7F16
330
847E
100
AcDbEntity
  8
4
100
AcDbLine
 10
2275.0
 20
1411.801532643661
 30
0.0
 11
2275.0
 21
711.8015326436618
 31
0.0
  0
LINE
  5
7F19
330
847E
100
AcDbEntity
  8
4
100
AcDbLine
 10
2275.0
 20
711.8015326436616
 30
0.0
 11
6475.0
 21
711.8015326436616
 31
0.0
  0
LINE
  5
7F1A
330
847E
100
AcDbEntity
  8
4
100
AcDbLine
 10
2275.0
 20
1061.80153264366
 30
0.0
 11
6475.0
 21
1061.80153264366
 31
0.0
  0
TEXT
  5
7F1B
330
847E
100
AcDbEntity
  8
4
100
AcDbText
 10
2409.757282964156
 20
1172.202123176806
 30
0.0
 40
175.0
  1
機器名称
100
AcDbText
  0
TEXT
  5
7F1C
330
847E
100
AcDbEntity
  8
4
100
AcDbText
 10
2401.903371086791
 20
787.5595812056999
 30
0.0
 40
175.0
  1
機器型番
100
AcDbText
  0
TEXT
  5
7F1D
330
847E
100
AcDbEntity
  8
4
100
AcDbText
 10
4121.875609206827
 20
1140.80272399515
 30
0.0
 40
175.0
  1
ミツヤ多翼送風機
100
AcDbText
  0
TEXT
  5
7F1E
330
847E
100
AcDbEntity
  8
4
100
AcDbText
 10
4153.290734549183
 20
771.8600776234634
 30
0.0
 40
175.0
  1
MF#7-5
100
AcDbText
  0
TEXT
  5
7F20
330
847E
100
AcDbEntity
  8
4
100
AcDbText
 10
2760.156519165358
 20
8342.000944663805
 30
0.0
 40
188.9999999999998
  1
床置ベット
100
AcDbText
  0
TEXT
  5
7F21
330
847E
100
AcDbEntity
  8
4
100
AcDbText
 10
1106.586576653062
 20
8868.583416697545
 30
0.0
 40
252.0
  1
遠心式両吸込両持多翼ファン
100
AcDbText
  0
LINE
  5
7F22
330
847E
100
AcDbEntity
  8
4
100
AcDbLine
 10
875.0
 20
8642.930639926817
 30
0.0
 11
6475.0
 21
8642.930639926817
 31
0.0
  0
LINE
  5
7F23
330
847E
100
AcDbEntity
  8
4
100
AcDbLine
 10
875.0
 20
9342.930639926818
 30
0.0
 11
6475.0
 21
9342.930639926818
 31
0.0
  0
LINE
  5
7F24
330
847E
100
AcDbEntity
  8
4
100
AcDbLine
 10
2275.0
 20
1411.801532643661
 30
0.0
 11
6475.0
 21
1411.801532643661
 31
0.0
  0
LINE
  5
7F25
330
847E
100
AcDbEntity
  8
4
100
AcDbLine
 10
875.0
 20
9342.930639926818
 30
0.0
 11
875.0
 21
8642.930639926817
 31
0.0
  0
TEXT
  5
7F26
330
847E
100
AcDbEntity
  8
4
100
AcDbText
 10
1234.650606315899
 20
8338.118171412203
 30
0.0
 40
188.9999999999998
  1
右回転右横向
100
AcDbText
  0
TEXT
  5
7F27
330
847E
100
AcDbEntity
  8
4
100
AcDbText
 10
5141.393457372513
 20
9471.21378523358
 30
0.0
 40
196.0
  1
No.
100
AcDbText
  0
TEXT
  5
7F28
330
847E
100
AcDbEntity
  8
4
100
AcDbText
 10
4589.536219100046
 20
8342.000944663805
 30
0.0
 40
188.9999999999998
  1
縮尺：1/35
100
AcDbText
  0
LINE
  5
7F29
330
847E
100
AcDbEntity
  8
4
100
AcDbLine
 10
6475.0
 20
9342.930639926818
 30
0.0
 11
6475.0
 21
8642.930639926817
 31
0.0
  0
LINE
  5
7F2A
330
847E
100
AcDbEntity
  8
4
100
AcDbLine
 10
7350.0
 20
10325.0
 30
0.0
 11
7350.0
 21
10325.0
 31
0.0
  0
LINE
  5
7F2B
330
847E
100
AcDbEntity
  8
4
100
AcDbLine
 10
5042.160978259526
 20
9384.422540938905
 30
0.0
 11
5042.160978259526
 21
9753.282915424136
 31
0.0
  0
LINE
  5
7F2C
330
847E
100
AcDbEntity
  8
4
100
AcDbLine
 10
5042.160978259526
 20
9753.282915424136
 30
0.0
 11
6475.0
 21
9753.282915424136
 31
0.0
  0
LINE
  5
7F2D
330
847E
100
AcDbEntity
  8
4
100
AcDbLine
 10
6475.0
 20
9753.282915424136
 30
0.0
 11
6475.0
 21
9384.422540938905
 31
0.0
  0
LINE
  5
7F2E
330
847E
100
AcDbEntity
  8
4
100
AcDbLine
 10
6475.0
 20
9384.422540938905
 30
0.0
 11
5042.160978259526
 21
9384.422540938905
 31
0.0
  0
LINE
  5
7F2F
330
847E
100
AcDbEntity
  8
4
100
AcDbLine
 10
0.0
 20
0.0
 30
0.0
 11
0.0
 21
10325.0
 31
0.0
  0
LINE
  5
7F30
330
847E
100
AcDbEntity
  8
4
100
AcDbLine
 10
0.0
 20
10325.0
 30
0.0
 11
7350.0
 21
10325.0
 31
0.0
  0
LINE
  5
7F31
330
847E
100
AcDbEntity
  8
4
100
AcDbLine
 10
7350.0
 20
10325.0
 30
0.0
 11
7350.0
 21
0.0
 31
0.0
  0
LINE
  5
7F32
330
847E
100
AcDbEntity
  8
4
100
AcDbLine
 10
7350.0
 20
0.0
 30
0.0
 11
0.0
 21
0.0
 31
0.0
  0
DIMENSION
  5
827D
330
847E
100
AcDbEntity
  8
3
100
AcDbDimension
  2
*D21
 10
2624.062617025251
 20
2259.926937314368
 30
0.0
 11
1824.062617025251
 21
2347.426937314368
 31
0.0
 71
     5
 42
-1.0
  3
Standard
100
AcDbAlignedDimension
 13
1024.062617025251
 23
2516.192209343379
 33
0.0
 14
2624.062617025251
 24
2516.192209343379
 34
0.0
100
AcDbRotatedDimension
1001
ACAD
1000
DSTYLE
1002
{
1070
   172
1070
     1
1070
    40
1040
35.0
1070
     3
1000
 <> 
1070
   271
1070
     0
1070
   143
1040
0.039
1002
}
  0
DIMENSION
  5
828A
330
847E
100
AcDbEntity
  8
3
100
AcDbDimension
  2
*D22
 10
3284.062617025249
 20
2259.926937314368
 30
0.0
 11
2954.062617025249
 21
2347.426937314368
 31
0.0
 71
     5
 42
-1.0
  3
Standard
100
AcDbAlignedDimension
 13
2624.062617025251
 23
2516.192209343379
 33
0.0
 14
3284.062617025249
 24
2516.192209343379
 34
0.0
100
AcDbRotatedDimension
1001
ACAD
1000
DSTYLE
1002
{
1070
   172
1070
     1
1070
    40
1040
35.0
1070
     3
1000
 <> 
1070
   271
1070
     0
1070
   143
1040
0.039
1002
}
  0
DIMENSION
  5
8297
330
847E
100
AcDbEntity
  8
3
100
AcDbDimension
  2
*D23
 10
5643.752841307505
 20
2259.926937314368
 30
0.0
 11
5102.752841307506
 21
2347.426937314368
 31
0.0
 71
     5
 42
-1.0
  3
Standard
100
AcDbAlignedDimension
 13
4561.752841307504
 23
2516.192209343379
 33
0.0
 14
5643.752841307505
 24
2516.192209343379
 34
0.0
100
AcDbRotatedDimension
1001
ACAD
1000
DSTYLE
1002
{
1070
   172
1070
     1
1070
    40
1040
35.0
1070
     3
1000
 <> 
1070
   271
1070
     0
1070
   143
1040
0.039
1002
}
  0
DIMENSION
  5
82A4
330
847E
100
AcDbEntity
  8
3
100
AcDbDimension
  2
*D24
 10
6461.752841307505
 20
2259.926937314368
 30
0.0
 11
6052.752841307505
 21
2347.426937314368
 31
0.0
 71
     5
 42
-1.0
  3
Standard
100
AcDbAlignedDimension
 13
5643.752841307505
 23
2516.192209343379
 33
0.0
 14
6461.752841307505
 24
2516.192209343379
 34
0.0
100
AcDbRotatedDimension
1001
ACAD
1000
DSTYLE
1002
{
1070
   172
1070
     1
1070
    40
1040
35.0
1070
     3
1000
 <> 
1070
   271
1070
     0
1070
   143
1040
0.039
1002
}
  0
DIMENSION
  5
84C4
330
847E
100
AcDbEntity
  8
3
100
AcDbDimension
  2
*D25
 10
6836.612169487122
 20
2796.192209343378
 30
0.0
 11
6749.112169487121
 21
3356.19220934338
 31
0.0
 70
    32
  1
\U+03C6<>
 71
     5
 42
1120.0
  3
IGA
100
AcDbAlignedDimension
 13
6393.752841307505
 23
3916.192209343378
 33
0.0
 14
6393.752841307504
 24
2796.192209343378
 34
0.0
 50
90.0
100
AcDbRotatedDimension
1001
ACAD
1000
DSTYLE
1002
{
1070
     3
1000
 <> 
1070
    40
1040
35.0
1070
   143
1040
0.039
1070
   172
1070
     1
1070
   271
1070
     4
1070
   272
1070
     4
1070
   279
1070
     0
1070
   284
1070
     0
1070
   285
1070
     0
1070
   286
1070
     0
1070
   341
1005
8491
1070
   343
1005
8491
1070
   344
1005
8491
1002
}
  0
DIMENSION
  5
84D1
330
847E
100
AcDbEntity
  8
3
100
AcDbDimension
  2
*D26
 10
6393.752841307505
 20
4807.631848395777
 30
0.0
 11
5643.752841307505
 21
4895.131848395777
 31
0.0
 70
    32
 71
     5
 42
1500.0
  3
IGA
100
AcDbAlignedDimension
 13
4893.752841307505
 23
4554.192209343379
 33
0.0
 14
6393.752841307505
 24
4554.192209343379
 34
0.0
100
AcDbRotatedDimension
1001
ACAD
1000
DSTYLE
1002
{
1070
     3
1000
 <> 
1070
    40
1040
35.0
1070
   143
1040
0.039
1070
   172
1070
     1
1070
   271
1070
     4
1070
   272
1070
     4
1070
   279
1070
     0
1070
   284
1070
     0
1070
   285
1070
     0
1070
   286
1070
     0
1070
   341
1005
8491
1070
   343
1005
8491
1070
   344
1005
8491
1002
}
  0
DIMENSION
  5
84DE
330
847E
100
AcDbEntity
  8
3
100
AcDbDimension
  2
*D27
 10
5643.752841307505
 20
5046.751112831964
 30
0.0
 11
5083.752841307505
 21
5161.751112831964
 31
0.0
 70
    32
  1
(<>)
 71
     5
 42
1120.0
  3
IGA
100
AcDbAlignedDimension
 13
4523.752841307505
 23
3736.192209343379
 33
0.0
 14
5643.752841307505
 24
4947.631848395777
 34
0.0
100
AcDbRotatedDimension
1001
ACAD
1000
DSTYLE
1002
{
1070
     3
1000
 <> 
1070
    40
1040
35.0
1070
   143
1040
0.039
1070
   172
1070
     1
1070
   271
1070
     4
1070
   272
1070
     4
1070
   279
1070
     0
1070
   284
1070
     0
1070
   285
1070
     0
1070
   286
1070
     0
1070
   341
1005
8491
1070
   343
1005
8491
1070
   344
1005
8491
1002
}
  0
DIMENSION
  5
84EB
330
847E
100
AcDbEntity
  8
3
100
AcDbDimension
  2
*D28
 10
6573.752841307506
 20
5046.751112831964
 30
0.0
 11
6108.752841307506
 21
5161.751112831964
 31
0.0
 70
    32
  1
(<>)
 71
     5
 42
930.0
  3
IGA
100
AcDbAlignedDimension
 13
5643.752841307505
 23
4947.631848395777
 33
0.0
 14
6573.752841307506
 24
3283.192209343379
 34
0.0
100
AcDbRotatedDimension
1001
ACAD
1000
DSTYLE
1002
{
1070
     3
1000
 <> 
1070
    40
1040
35.0
1070
   143
1040
0.039
1070
   172
1070
     1
1070
   271
1070
     4
1070
   272
1070
     4
1070
   279
1070
     1
1070
   284
1070
     0
1070
   285
1070
     0
1070
   286
1070
     0
1070
   341
1005
8491
1070
   343
1005
8491
1070
   344
1005
8491
1002
}
  0
DIMENSION
  5
856B
330
847E
100
AcDbEntity
  8
3
100
AcDbDimension
  2
*D30
 10
808.2474876895393
 20
5678.591300024717
 30
0.0
 11
720.7474876895384
 21
6128.591300024716
 31
0.0
 70
    32
 71
     5
 42
899.9999999999991
  3
IGA
100
AcDbAlignedDimension
 13
1024.06261702525
 23
6578.591300024716
 33
0.0
 14
1024.06261702525
 24
5678.591300024717
 34
0.0
 50
90.0
100
AcDbRotatedDimension
1001
ACAD
1000
DSTYLE
1002
{
1070
     3
1000
 <> 
1070
    40
1040
35.0
1070
   143
1040
0.039
1070
   172
1070
     1
1070
   271
1070
     4
1070
   272
1070
     4
1070
   279
1070
     0
1070
   284
1070
     0
1070
   285
1070
     0
1070
   286
1070
     0
1070
   341
1005
8491
1070
   343
1005
8491
1070
   344
1005
8491
1002
}
  0
DIMENSION
  5
8578
330
847E
100
AcDbEntity
  8
3
100
AcDbDimension
  2
*D31
 10
1964.062617025251
 20
7808.010105037642
 30
0.0
 11
1494.06261702525
 21
7895.510105037641
 31
0.0
 70
    32
 71
     5
 42
940.0000000000009
  3
IGA
100
AcDbAlignedDimension
 13
1024.06261702525
 23
6578.591300024716
 33
0.0
 14
1964.062617025251
 24
7578.591300024716
 34
0.0
100
AcDbRotatedDimension
1001
ACAD
1000
DSTYLE
1002
{
1070
     3
1000
 <> 
1070
    40
1040
35.0
1070
   143
1040
0.039
1070
   172
1070
     1
1070
   271
1070
     4
1070
   272
1070
     4
1070
   279
1070
     0
1070
   284
1070
     0
1070
   285
1070
     0
1070
   286
1070
     0
1070
   341
1005
8491
1070
   343
1005
8491
1070
   344
1005
8491
1002
}
  0
DIMENSION
  5
8585
330
847E
100
AcDbEntity
  8
3
100
AcDbDimension
  2
*D32
 10
3284.062617025249
 20
7808.010105037642
 30
0.0
 11
2624.06261702525
 21
7895.510105037641
 31
0.0
 70
    32
 71
     5
 42
1319.999999999998
  3
IGA
100
AcDbAlignedDimension
 13
1964.062617025251
 23
7578.591300024716
 33
0.0
 14
3284.062617025249
 24
7578.591300024716
 34
0.0
100
AcDbRotatedDimension
1001
ACAD
1000
DSTYLE
1002
{
1070
     3
1000
 <> 
1070
    40
1040
35.0
1070
   143
1040
0.039
1070
   172
1070
     1
1070
   271
1070
     4
1070
   272
1070
     4
1070
   279
1070
     1
1070
   284
1070
     0
1070
   285
1070
     0
1070
   286
1070
     0
1070
   341
1005
8491
1070
   343
1005
8491
1070
   344
1005
8491
1002
}
  0
DIMENSION
  5
8592
330
847E
100
AcDbEntity
  8
3
100
AcDbDimension
  2
*D33
 10
3719.797915355993
 20
5678.591300024717
 30
0.0
 11
3632.297915355992
 21
6628.591300024716
 31
0.0
 70
    32
 71
     5
 42
1899.999999999999
  3
IGA
100
AcDbAlignedDimension
 13
3284.062617025249
 23
7578.591300024716
 33
0.0
 14
3284.062617025249
 24
5678.591300024717
 34
0.0
 50
90.0
100
AcDbRotatedDimension
1001
ACAD
1000
DSTYLE
1002
{
1070
     3
1000
 <> 
1070
    40
1040
35.0
1070
   143
1040
0.039
1070
   172
1070
     1
1070
   271
1070
     4
1070
   272
1070
     4
1070
   279
1070
     0
1070
   284
1070
     0
1070
   285
1070
     0
1070
   286
1070
     0
1070
   341
1005
8491
1070
   343
1005
8491
1070
   344
1005
8491
1002
}
  0
DIMENSION
  5
859F
330
847E
100
AcDbEntity
  8
3
100
AcDbDimension
  2
*D34
 10
3284.062617025251
 20
5331.934663388967
 30
0.0
 11
2154.062617025251
 21
5419.434663388967
 31
0.0
 70
    32
 71
     5
 42
2260.000000000001
  3
IGA
100
AcDbAlignedDimension
 13
1024.06261702525
 23
5678.591300024717
 33
0.0
 14
3284.062617025251
 24
5678.591300024717
 34
0.0
100
AcDbRotatedDimension
1001
ACAD
1000
DSTYLE
1002
{
1070
     3
1000
 <> 
1070
    40
1040
35.0
1070
   143
1040
0.039
1070
   172
1070
     1
1070
   271
1070
     4
1070
   272
1070
     4
1070
   279
1070
     0
1070
   284
1070
     0
1070
   285
1070
     0
1070
   286
1070
     0
1070
   341
1005
8491
1070
   343
1005
8491
1070
   344
1005
8491
1002
}
  0
DIMENSION
  5
85AC
330
847E
100
AcDbEntity
  8
3
100
AcDbDimension
  2
*D35
 10
3584.170933309517
 20
3404.192209343379
 30
0.0
 11
3496.670933309517
 21
3979.19220934338
 31
0.0
 70
    32
 71
     5
 42
1149.999999999999
  3
IGA
100
AcDbAlignedDimension
 13
3384.062617025249
 23
4554.192209343379
 33
0.0
 14
3384.062617025249
 24
3404.192209343379
 34
0.0
 50
90.0
100
AcDbRotatedDimension
1001
ACAD
1000
DSTYLE
1002
{
1070
     3
1000
 <> 
1070
    40
1040
35.0
1070
   143
1040
0.039
1070
   172
1070
     1
1070
   271
1070
     4
1070
   272
1070
     4
1070
   279
1070
     0
1070
   284
1070
     0
1070
   285
1070
     0
1070
   286
1070
     0
1070
   341
1005
8491
1070
   343
1005
8491
1070
   344
1005
8491
1002
}
  0
DIMENSION
  5
85B9
330
847E
100
AcDbEntity
  8
3
100
AcDbDimension
  2
*D36
 10
3782.735283578249
 20
3356.192209343378
 30
0.0
 11
3695.235283578248
 21
3955.19220934338
 31
0.0
 70
    32
 71
     5
 42
1198.0
  3
IGA
100
AcDbAlignedDimension
 13
3384.062617025249
 23
4554.192209343379
 33
0.0
 14
3530.843268478227
 24
3356.192209343378
 34
0.0
 50
90.0
100
AcDbRotatedDimension
1001
ACAD
1000
DSTYLE
1002
{
1070
     3
1000
 <> 
1070
    40
1040
35.0
1070
   143
1040
0.039
1070
   172
1070
     1
1070
   271
1070
     4
1070
   272
1070
     4
1070
   279
1070
     0
1070
   284
1070
     0
1070
   285
1070
     0
1070
   286
1070
     0
1070
   341
1005
8491
1070
   343
1005
8491
1070
   344
1005
8491
1002
}
  0
DIMENSION
  5
85C6
330
847E
100
AcDbEntity
  8
3
100
AcDbDimension
  2
*D37
 10
3782.735283578248
 20
2516.192209343379
 30
0.0
 11
3695.235283578247
 21
2936.19220934338
 31
0.0
 70
    32
 71
     5
 42
839.9999999999995
  3
IGA
100
AcDbAlignedDimension
 13
3530.843268478227
 23
3356.192209343378
 33
0.0
 14
3284.062617025249
 24
2516.192209343379
 34
0.0
 50
90.0
100
AcDbRotatedDimension
1001
ACAD
1000
DSTYLE
1002
{
1070
     3
1000
 <> 
1070
    40
1040
35.0
1070
   143
1040
0.039
1070
   172
1070
     1
1070
   271
1070
     4
1070
   272
1070
     4
1070
   279
1070
     1
1070
   284
1070
     0
1070
   285
1070
     0
1070
   286
1070
     0
1070
   341
1005
8491
1070
   343
1005
8491
1070
   344
1005
8491
1002
}
  0
DIMENSION
  5
85D3
330
847E
100
AcDbEntity
  8
3
100
AcDbDimension
  2
*D38
 10
2624.062617025249
 20
4810.525596269836
 30
0.0
 11
3004.06261702525
 21
4898.025596269835
 31
0.0
 70
    32
 71
     5
 42
760.0
  3
IGA
100
AcDbAlignedDimension
 13
3384.062617025249
 23
4607.192209343378
 33
0.0
 14
2624.062617025249
 24
4670.105732334348
 34
0.0
100
AcDbRotatedDimension
1001
ACAD
1000
DSTYLE
1002
{
1070
     3
1000
 <> 
1070
    40
1040
35.0
1070
   143
1040
0.039
1070
   172
1070
     1
1070
   271
1070
     4
1070
   272
1070
     4
1070
   279
1070
     0
1070
   284
1070
     0
1070
   285
1070
     0
1070
   286
1070
     0
1070
   341
1005
8491
1070
   343
1005
8491
1070
   344
1005
8491
1002
}
  0
DIMENSION
  5
85E0
330
847E
100
AcDbEntity
  8
3
100
AcDbDimension
  2
*D39
 10
1655.06261702525
 20
4810.525596269836
 30
0.0
 11
2139.56261702525
 21
4898.025596269835
 31
0.0
 70
    32
 71
     5
 42
968.9999999999987
  3
IGA
100
AcDbAlignedDimension
 13
2624.062617025249
 23
4670.105732334348
 33
0.0
 14
1655.06261702525
 24
3438.192209343378
 34
0.0
100
AcDbRotatedDimension
1001
ACAD
1000
DSTYLE
1002
{
1070
     3
1000
 <> 
1070
    40
1040
35.0
1070
   143
1040
0.039
1070
   172
1070
     1
1070
   271
1070
     4
1070
   272
1070
     4
1070
   279
1070
     1
1070
   284
1070
     0
1070
   285
1070
     0
1070
   286
1070
     0
1070
   341
1005
8491
1070
   343
1005
8491
1070
   344
1005
8491
1002
}
  0
DIMENSION
  5
85ED
330
847E
100
AcDbEntity
  8
3
100
AcDbDimension
  2
*D40
 10
1024.062617025251
 20
5002.684932965962
 30
0.0
 11
2204.06261702525
 21
5090.184932965962
 31
0.0
 70
    32
 71
     5
 42
2359.999999999998
  3
IGA
100
AcDbAlignedDimension
 13
3384.062617025249
 23
4607.192209343378
 33
0.0
 14
1024.062617025251
 24
2641.192209343379
 34
0.0
100
AcDbRotatedDimension
1001
ACAD
1000
DSTYLE
1002
{
1070
     3
1000
 <> 
1070
    40
1040
35.0
1070
   143
1040
0.039
1070
   172
1070
     1
1070
   271
1070
     4
1070
   272
1070
     4
1070
   279
1070
     0
1070
   284
1070
     0
1070
   285
1070
     0
1070
   286
1070
     0
1070
   341
1005
8491
1070
   343
1005
8491
1070
   344
1005
8491
1002
}
  0
ENDSEC
  0
SECTION
  2
OBJECTS
  0
DICTIONARY
  5
841B
330
0
100
AcDbDictionary
281
     1
  3
ACAD_CIP_PREVIOUS_PRODUCT_INFO
350
84BF
  3
ACAD_COLOR
350
8471
  3
ACAD_DETAILVIEWSTYLE
350
8478
  3
ACAD_GROUP
350
841C
  3
ACAD_LAYOUT
350
8470
  3
ACAD_MATERIAL
350
841F
  3
ACAD_MLEADERSTYLE
350
8474
  3
ACAD_MLINESTYLE
350
846D
  3
ACAD_PLOTSETTINGS
350
846F
  3
ACAD_PLOTSTYLENAME
350
841D
  3
ACAD_SCALELIST
350
8451
  3
ACAD_SECTIONVIEWSTYLE
350
8476
  3
ACAD_TABLESTYLE
350
8472
  3
ACAD_VISUALSTYLE
350
8438
  3
ACDB_RECOMPOSE_DATA
350
8611
  3
AcDbVariableDictionary
350
8604
  3
DWGPROPS
350
8612
  0
DICTIONARY
  5
85FA
330
8463
100
AcDbDictionary
280
     1
281
     1
  3
ADSK_XREC_LAYER_RECONCILED
360
85FB
  0
DICTIONARY
  5
85FC
330
8482
100
AcDbDictionary
280
     1
281
     1
  3
ADSK_XREC_LAYER_RECONCILED
360
85FD
  0
DICTIONARY
  5
85FE
330
8485
100
AcDbDictionary
280
     1
281
     1
  3
ADSK_XREC_LAYER_RECONCILED
360
85FF
  0
DICTIONARY
  5
8600
330
8486
100
AcDbDictionary
280
     1
281
     1
  3
ADSK_XREC_LAYER_RECONCILED
360
8601
  0
DICTIONARY
  5
8602
330
8487
100
AcDbDictionary
280
     1
281
     1
  3
ADSK_XREC_LAYER_RECONCILED
360
8603
  0
DICTIONARY
  5
84C1
330
847E
100
AcDbDictionary
280
     1
281
     1
  3
ACAD_SORTENTS
360
84C2
  0
XRECORD
  5
84BF
102
{ACAD_REACTORS
330
841B
102
}
330
841B
100
AcDbXrecord
280
     1
300
ACDLT
300
2015
300
INVLTS_F_S
  0
DICTIONARY
  5
8471
102
{ACAD_REACTORS
330
841B
102
}
330
841B
100
AcDbDictionary
281
     1
  0
DICTIONARY
  5
8478
102
{ACAD_REACTORS
330
841B
102
}
330
841B
100
AcDbDictionary
281
     1
  3
Imperial24
350
8479
  0
DICTIONARY
  5
841C
102
{ACAD_REACTORS
330
841B
102
}
330
841B
100
AcDbDictionary
281
     1
  0
DICTIONARY
  5
8470
102
{ACAD_REACTORS
330
841B
102
}
330
841B
100
AcDbDictionary
281
     1
  3
Model
350
8481
  3
レイアウト1
350
847D
  0
DICTIONARY
  5
841F
102
{ACAD_REACTORS
330
841B
102
}
330
841B
100
AcDbDictionary
281
     1
  3
ByBlock
350
8428
  3
ByLayer
350
8420
  3
Global
350
8430
  0
DICTIONARY
  5
8474
102
{ACAD_REACTORS
330
841B
102
}
330
841B
100
AcDbDictionary
281
     1
  3
Standard
350
8475
  0
DICTIONARY
  5
846D
102
{ACAD_REACTORS
330
841B
102
}
330
841B
100
AcDbDictionary
281
     1
  3
Standard
350
846E
  0
DICTIONARY
  5
846F
102
{ACAD_REACTORS
330
841B
102
}
330
841B
100
AcDbDictionary
281
     1
  0
ACDBDICTIONARYWDFLT
  5
841D
102
{ACAD_REACTORS
330
841B
102
}
330
841B
100
AcDbDictionary
281
     1
  3
Normal
350
841E
100
AcDbDictionaryWithDefault
340
841E
  0
DICTIONARY
  5
8451
102
{ACAD_REACTORS
330
841B
102
}
330
841B
100
AcDbDictionary
281
     1
  3
A0
350
8452
  3
A1
350
8453
  3
A2
350
8454
  3
A3
350
8455
  3
A4
350
8456
  3
A5
350
8457
  3
A6
350
8458
  3
A7
350
8459
  3
A8
350
845A
  3
A9
350
845B
  3
B0
350
845C
  3
B1
350
845D
  3
B2
350
845E
  3
B3
350
845F
  3
B4
350
8460
  3
B5
350
8461
  3
B6
350
8462
  0
DICTIONARY
  5
8476
102
{ACAD_REACTORS
330
841B
102
}
330
841B
100
AcDbDictionary
281
     1
  3
Imperial24
350
8477
  0
DICTIONARY
  5
8472
102
{ACAD_REACTORS
330
841B
102
}
330
841B
100
AcDbDictionary
281
     1
  3
Standard
350
8473
  0
DICTIONARY
  5
8438
102
{ACAD_REACTORS
330
841B
102
}
330
841B
100
AcDbDictionary
281
     1
  3
2dWireframe
350
843E
  3
Basic
350
843D
  3
Brighten
350
8444
  3
ColorChange
350
8448
  3
Conceptual
350
8441
  3
Dim
350
8443
  3
EdgeColorOff
350
8450
  3
Facepattern
350
8447
  3
Flat
350
8439
  3
FlatWithEdges
350
843A
  3
Gouraud
350
843B
  3
GouraudWithEdges
350
843C
  3
Hidden
350
8440
  3
JitterOff
350
844E
  3
Linepattern
350
8446
  3
OverhangOff
350
844F
  3
Realistic
350
8442
  3
Shaded
350
844D
  3
Shaded with edges
350
844C
  3
Shades of Gray
350
8449
  3
Sketchy
350
844A
  3
Thicken
350
8445
  3
Wireframe
350
843F
  3
X-Ray
350
844B
  0
XRECORD
  5
8611
102
{ACAD_REACTORS
330
841B
102
}
330
841B
100
AcDbXrecord
280
     1
 90
        1
330
8473
  0
DICTIONARY
  5
8604
102
{ACAD_REACTORS
330
841B
102
}
330
841B
100
AcDbDictionary
281
     1
  3
CANNOSCALE
350
8609
  3
CMLEADERSTYLE
350
8606
  3
CTABLESTYLE
350
8605
  3
CVIEWDETAILSTYLE
350
8607
  3
CVIEWSECTIONSTYLE
350
8608
  3
DIMASSOC
350
860C
  3
INDEXCTL
350
860B
  3
SORTENTS
350
860A
  3
XCLIPFRAME
350
860D
  0
XRECORD
  5
8612
102
{ACAD_REACTORS
330
841B
102
}
330
841B
100
AcDbXrecord
280
     1
  1
DWGPROPS COOKIE
  2

  3

  4

  6

  7

  8
yasukiyo.ogawa
  9

300
=
301
=
302
=
303
=
304
=
305
=
306
=
307
=
308
=
309
=
 40
0.022223125
 41
2451390.386212616
 42
2460273.535099294
  1

 90
        0
  0
XRECORD
  5
85FB
102
{ACAD_REACTORS
330
85FA
102
}
330
85FA
100
AcDbXrecord
280
     1
290
     1
  0
XRECORD
  5
85FD
102
{ACAD_REACTORS
330
85FC
102
}
330
85FC
100
AcDbXrecord
280
     1
290
     1
  0
XRECORD
  5
85FF
102
{ACAD_REACTORS
330
85FE
102
}
330
85FE
100
AcDbXrecord
280
     1
290
     1
  0
XRECORD
  5
8601
102
{ACAD_REACTORS
330
8600
102
}
330
8600
100
AcDbXrecord
280
     1
290
     1
  0
XRECORD
  5
8603
102
{ACAD_REACTORS
330
8602
102
}
330
8602
100
AcDbXrecord
280
     1
290
     1
  0
SORTENTSTABLE
  5
84C2
102
{ACAD_REACTORS
330
84C1
102
}
330
84C1
100
AcDbSortentsTable
330
847E
331
7C89
  5
7C8B
331
7CAB
  5
7CAD
331
7C42
  5
7C44
331
7C31
  5
7C33
331
7CBC
  5
7CBE
331
7C53
  5
7C55
331
7CCD
  5
7CCF
331
7F31
  5
827D
331
7C75
  5
7C77
331
7C64
  5
7C66
331
7C20
  5
7C20
331
7C8A
  5
7C8D
331
7CAC
  5
7CAE
331
7C43
  5
7C45
331
7C32
  5
7C34
331
7CBD
  5
7CBF
331
7C54
  5
7C56
331
7CCE
  5
7CD0
331
7F32
  5
828A
331
7C76
  5
7C78
331
7C65
  5
7C67
331
7C21
  5
7C21
331
7C8B
  5
7C8F
331
7C9C
  5
7C9E
331
7C33
  5
7C3D
331
7CAD
  5
7CAF
331
7C44
  5
7C46
331
7CBE
  5
7CC0
331
7CCF
  5
7CD1
331
7C66
  5
7C69
331
7F19
  5
7F1B
331
7C77
  5
7C79
331
7C55
  5
7C57
331
7C22
  5
7C22
331
7C9D
  5
7C9F
331
7C34
  5
7C3F
331
7CAE
  5
7CB0
331
7C45
  5
7C4A
331
7CBF
  5
7CC1
331
7C56
  5
7C58
331
7CD0
  5
7CD2
331
8297
  5
84C0
331
7F1A
  5
7F1C
331
7C78
  5
7C7A
331
7C67
  5
7C6C
331
7C23
  5
7C23
331
7C9E
  5
7CA0
331
7C8D
  5
7C90
331
7C46
  5
7C4B
331
7CD1
  5
7CD3
331
7CC0
  5
7CC2
331
7C57
  5
7C59
331
7F1B
  5
7F1D
331
7CE2
  5
7CE4
331
7C79
  5
7C7B
331
7C24
  5
7C24
331
7C13
  5
7C13
331
7C9F
  5
7CA1
331
7CC1
  5
7CC3
331
7C58
  5
7C5A
331
7CD2
  5
7CD4
331
7C69
  5
7C6D
331
7F1C
  5
7F1E
331
7CE3
  5
7CE5
331
7C7A
  5
7C7C
331
7C25
  5
7C25
331
7CA0
  5
7CA2
331
7C8F
  5
7C93
331
7CD3
  5
7CD5
331
7CC2
  5
7CC4
331
7C59
  5
7C5B
331
7F1D
  5
7F20
331
7CE4
  5
7F14
331
7C7B
  5
7C7D
331
7C26
  5
7C26
331
7C15
  5
7C15
331
828A
  5
82A4
331
7CA1
  5
7CA3
331
7C90
  5
7C95
331
7CD4
  5
7CD6
331
7CC3
  5
7CC5
331
7C5A
  5
7C5C
331
7F1E
  5
7F21
331
7CE5
  5
7F15
331
7C7C
  5
7C7E
331
7C27
  5
7C27
331
7C16
  5
7C16
331
7F28
  5
7F2A
331
7CA2
  5
7CA4
331
7C4A
  5
7C4C
331
7CC4
  5
7CC6
331
7C5B
  5
7C5E
331
7CD5
  5
7CD7
331
7C7D
  5
7C7F
331
7C6C
  5
7C6E
331
7C28
  5
7C28
331
7C17
  5
7C17
331
7F29
  5
7F2B
331
7F20
  5
7F22
331
7CA3
  5
7CA5
331
7CC5
  5
7CC7
331
7C5C
  5
7C5F
331
7C4B
  5
7C4D
331
7CD6
  5
7CD8
331
7C6D
  5
7C6F
331
7C7E
  5
7C80
331
7C29
  5
7C29
331
7C18
  5
7C18
331
7F2A
  5
7F2C
331
7F21
  5
7F23
331
7CA4
  5
7CA6
331
7C93
  5
7C99
331
7CC6
  5
7CC8
331
7C4C
  5
7C4E
331
7CD7
  5
7CD9
331
7C6E
  5
7C70
331
7C7F
  5
7C81
331
7C2A
  5
7C2A
331
7C19
  5
7C19
331
7CD8
  5
7CE2
331
827D
  5
8297
331
7F2B
  5
7F2D
331
7F22
  5
7F24
331
7C80
  5
7C82
331
7CA5
  5
7CA7
331
7C2B
  5
7C2D
331
7CC7
  5
7CC9
331
7C5E
  5
7C60
331
7C4D
  5
7C4F
331
7C1A
  5
7C1A
331
7CC8
  5
7CCA
331
7CD9
  5
7CE3
331
7F2C
  5
7F2E
331
7F23
  5
7F25
331
7C81
  5
7C83
331
7C2C
  5
7C2E
331
7CA6
  5
7CA8
331
7C3D
  5
7C40
331
7C4E
  5
7C53
331
7C5F
  5
7C63
331
7C1B
  5
7C1B
331
7CB8
  5
7CBA
331
7CC9
  5
7CCB
331
7C60
  5
7C64
331
7F2D
  5
7F2F
331
7F24
  5
7F26
331
7C82
  5
7C84
331
7C71
  5
7C73
331
7C2D
  5
7C2F
331
7C4F
  5
7C54
331
7C1C
  5
7C1C
331
7CCA
  5
7CCC
331
7CB9
  5
7CBB
331
7CA8
  5
7CAA
331
7F2E
  5
7F30
331
7F25
  5
7F27
331
7F14
  5
7F16
331
7C83
  5
7C86
331
7C72
  5
7C74
331
7C2E
  5
7C30
331
7C1D
  5
7C1D
331
7CCB
  5
7CCD
331
7CBA
  5
7CBC
331
7CA9
  5
7CAB
331
7F2F
  5
7F31
331
7F26
  5
7F28
331
7F15
  5
7F19
331
7C73
  5
7C75
331
7C2F
  5
7C31
331
7C1E
  5
7C1E
331
7C88
  5
7C8A
331
7CBB
  5
7CBD
331
7CAA
  5
7CAC
331
7C99
  5
7C9D
331
7C30
  5
7C32
331
7CCC
  5
7CCE
331
7C63
  5
7C65
331
82A4
  5
84C3
331
7F30
  5
7F32
331
7F27
  5
7F29
331
7F16
  5
7F1A
331
7C74
  5
7C76
331
7C1F
  5
7C1F
  0
ACDBDETAILVIEWSTYLE
  5
8479
102
{ACAD_XDICTIONARY
360
864A
102
}
102
{ACAD_REACTORS
330
8478
102
}
330
8478
100
AcDbModelDocViewStyle
 70
     0
  3
Imperial24
290
     0
100
AcDbDetailViewStyle
 70
     0
 71
     0
 90
        3
 71
     1
340
8464
 40
0.24
340
0
 40
0.24
300

 40
0.36
280
     3
 71
     2
340
846B
 90
       25
 71
     3
340
8464
 40
0.24
 90
        1
 40
0.75
 90
        1
300
%<\AcVar ViewType \f "%tc1">% %<\AcVar ViewDetailId>%\PSCALE %<\AcVar ViewScale \f "%sn">%
 71
     4
340
846B
 90
       25
340
846B
 90
       25
280
     0
  0
LAYOUT
  5
8481
102
{ACAD_XDICTIONARY
360
864E
102
}
102
{ACAD_REACTORS
330
8470
102
}
330
8470
100
AcDbPlotSettings
  1

  2
RICOH imagio MP W3600 RPCS
  4

  6

 40
0.0
 41
0.0
 42
0.0
 43
0.0
 44
0.0
 45
0.0
 46
0.0
 47
0.0
 48
0.0
 49
0.0
140
0.0
141
0.0
142
1.0
143
1.0
 70
  1712
 72
     0
 73
     0
 74
     0
  7

 75
     0
147
1.0
148
0.0
149
0.0
100
AcDbLayout
  1
Model
 70
     1
 71
     0
 10
0.0
 20
0.0
 11
12.0
 21
9.0
 12
0.0
 22
0.0
 32
0.0
 14
0.0
 24
0.0
 34
0.0
 15
0.0
 25
0.0
 35
0.0
146
0.0
 13
0.0
 23
0.0
 33
0.0
 16
1.0
 26
0.0
 36
0.0
 17
0.0
 27
1.0
 37
0.0
 76
     0
330
847E
331
8483
  0
LAYOUT
  5
847D
102
{ACAD_XDICTIONARY
360
864C
102
}
102
{ACAD_REACTORS
330
8470
102
}
330
8470
100
AcDbPlotSettings
  1

  2
RICOH imagio MP W3600 RPCS
  4

  6

 40
0.0
 41
0.0
 42
0.0
 43
0.0
 44
0.0
 45
0.0
 46
0.0
 47
0.0
 48
0.0
 49
0.0
140
0.0
141
0.0
142
1.0
143
1.0
 70
   688
 72
     0
 73
     0
 74
     5
  7

 75
    16
147
1.0
148
0.0
149
0.0
100
AcDbLayout
  1
レイアウト1
 70
     1
 71
     1
 10
0.0
 20
0.0
 11
12.0
 21
9.0
 12
0.0
 22
0.0
 32
0.0
 14
1.000000000000000E+20
 24
1.000000000000000E+20
 34
1.000000000000000E+20
 15
-1.000000000000000E+20
 25
-1.000000000000000E+20
 35
-1.000000000000000E+20
146
0.0
 13
0.0
 23
0.0
 33
0.0
 16
1.0
 26
0.0
 36
0.0
 17
0.0
 27
1.0
 37
0.0
 76
     0
330
847A
  0
MATERIAL
  5
8428
102
{ACAD_XDICTIONARY
360
8429
102
}
102
{ACAD_REACTORS
330
841F
102
}
330
841F
100
AcDbMaterial
  1
ByBlock
 72
     0
 43
0.0208333333333333
 43
0.0
 43
0.0
 43
0.0
 43
0.0
 43
0.0208333333333333
 43
0.0
 43
0.0
 43
0.0
 43
0.0
 43
1.0
 43
0.0
 43
0.0
 43
0.0
 43
0.0
 43
1.0
 77
     0
 47
0.0208333333333333
 47
0.0
 47
0.0
 47
0.0
 47
0.0
 47
0.0208333333333333
 47
0.0
 47
0.0
 47
0.0
 47
0.0
 47
1.0
 47
0.0
 47
0.0
 47
0.0
 47
0.0
 47
1.0
171
     0
 49
0.0208333333333333
 49
0.0
 49
0.0
 49
0.0
 49
0.0
 49
0.0208333333333333
 49
0.0
 49
0.0
 49
0.0
 49
0.0
 49
1.0
 49
0.0
 49
0.0
 49
0.0
 49
0.0
 49
1.0
175
     0
142
0.0208333333333333
142
0.0
142
0.0
142
0.0
142
0.0
142
0.0208333333333333
142
0.0
142
0.0
142
0.0
142
0.0
142
1.0
142
0.0
142
0.0
142
0.0
142
0.0
142
1.0
179
     0
144
0.0208333333333333
144
0.0
144
0.0
144
0.0
144
0.0
144
0.0208333333333333
144
0.0
144
0.0
144
0.0
144
0.0
144
1.0
144
0.0
144
0.0
144
0.0
144
0.0
144
1.0
147
0.0208333333333333
147
0.0
147
0.0
147
0.0
147
0.0
147
0.0208333333333333
147
0.0
147
0.0
147
0.0
147
0.0
147
1.0
147
0.0
147
0.0
147
0.0
147
0.0
147
1.0
  0
MATERIAL
  5
8420
102
{ACAD_XDICTIONARY
360
8421
102
}
102
{ACAD_REACTORS
330
841F
102
}
330
841F
100
AcDbMaterial
  1
ByLayer
 72
     0
 43
0.0208333333333333
 43
0.0
 43
0.0
 43
0.0
 43
0.0
 43
0.0208333333333333
 43
0.0
 43
0.0
 43
0.0
 43
0.0
 43
1.0
 43
0.0
 43
0.0
 43
0.0
 43
0.0
 43
1.0
 77
     0
 47
0.0208333333333333
 47
0.0
 47
0.0
 47
0.0
 47
0.0
 47
0.0208333333333333
 47
0.0
 47
0.0
 47
0.0
 47
0.0
 47
1.0
 47
0.0
 47
0.0
 47
0.0
 47
0.0
 47
1.0
171
     0
 49
0.0208333333333333
 49
0.0
 49
0.0
 49
0.0
 49
0.0
 49
0.0208333333333333
 49
0.0
 49
0.0
 49
0.0
 49
0.0
 49
1.0
 49
0.0
 49
0.0
 49
0.0
 49
0.0
 49
1.0
175
     0
142
0.0208333333333333
142
0.0
142
0.0
142
0.0
142
0.0
142
0.0208333333333333
142
0.0
142
0.0
142
0.0
142
0.0
142
1.0
142
0.0
142
0.0
142
0.0
142
0.0
142
1.0
179
     0
144
0.0208333333333333
144
0.0
144
0.0
144
0.0
144
0.0
144
0.0208333333333333
144
0.0
144
0.0
144
0.0
144
0.0
144
1.0
144
0.0
144
0.0
144
0.0
144
0.0
144
1.0
147
0.0208333333333333
147
0.0
147
0.0
147
0.0
147
0.0
147
0.0208333333333333
147
0.0
147
0.0
147
0.0
147
0.0
147
1.0
147
0.0
147
0.0
147
0.0
147
0.0
147
1.0
  0
MATERIAL
  5
8430
102
{ACAD_XDICTIONARY
360
8431
102
}
102
{ACAD_REACTORS
330
841F
102
}
330
841F
100
AcDbMaterial
  1
Global
 72
     0
 43
0.0208333333333333
 43
0.0
 43
0.0
 43
0.0
 43
0.0
 43
0.0208333333333333
 43
0.0
 43
0.0
 43
0.0
 43
0.0
 43
1.0
 43
0.0
 43
0.0
 43
0.0
 43
0.0
 43
1.0
 77
     0
 47
0.0208333333333333
 47
0.0
 47
0.0
 47
0.0
 47
0.0
 47
0.0208333333333333
 47
0.0
 47
0.0
 47
0.0
 47
0.0
 47
1.0
 47
0.0
 47
0.0
 47
0.0
 47
0.0
 47
1.0
171
     0
 49
0.0208333333333333
 49
0.0
 49
0.0
 49
0.0
 49
0.0
 49
0.0208333333333333
 49
0.0
 49
0.0
 49
0.0
 49
0.0
 49
1.0
 49
0.0
 49
0.0
 49
0.0
 49
0.0
 49
1.0
175
     0
142
0.0208333333333333
142
0.0
142
0.0
142
0.0
142
0.0
142
0.0208333333333333
142
0.0
142
0.0
142
0.0
142
0.0
142
1.0
142
0.0
142
0.0
142
0.0
142
0.0
142
1.0
179
     0
144
0.0208333333333333
144
0.0
144
0.0
144
0.0
144
0.0
144
0.0208333333333333
144
0.0
144
0.0
144
0.0
144
0.0
144
1.0
144
0.0
144
0.0
144
0.0
144
0.0
144
1.0
147
0.0208333333333333
147
0.0
147
0.0
147
0.0
147
0.0
147
0.0208333333333333
147
0.0
147
0.0
147
0.0
147
0.0
147
1.0
147
0.0
147
0.0
147
0.0
147
0.0
147
1.0
  0
MLEADERSTYLE
  5
8475
102
{ACAD_REACTORS
330
8474
102
}
330
8474
100
AcDbMLeaderStyle
170
     2
171
     1
172
     0
 90
        2
 40
0.0
 41
0.0
173
     1
 91
-1056964608
340
8469
 92
       -2
290
     1
 42
0.09
291
     1
 43
0.36
  3
Standard
 44
0.18
300

342
8464
174
     1
178
     6
175
     1
176
     0
 93
-1056964608
 45
0.18
292
     0
297
     0
 46
0.18
 94
-1056964608
 47
1.0
 49
1.0
140
1.0
293
     1
141
0.0
294
     1
177
     0
142
1.0
295
     0
296
     0
143
0.125
1001
ACAD_MLEADERVER
1070
     2
  0
MLINESTYLE
  5
846E
102
{ACAD_REACTORS
330
846D
102
}
330
846D
100
AcDbMlineStyle
  2
STANDARD
 70
     0
  3

 62
   256
 51
90.0
 52
90.0
 71
     2
 49
0.5
 62
   256
  6
BYLAYER
 49
-0.5
 62
   256
  6
BYLAYER
  0
ACDBPLACEHOLDER
  5
841E
102
{ACAD_REACTORS
330
841D
102
}
330
841D
  0
SCALE
  5
8452
102
{ACAD_REACTORS
330
8451
102
}
330
8451
100
AcDbScale
 70
     0
300
1:1
140
1.0
141
1.0
290
     1
  0
SCALE
  5
8453
102
{ACAD_REACTORS
330
8451
102
}
330
8451
100
AcDbScale
 70
     0
300
1/128" = 1'-0"
140
0.0078125
141
12.0
290
     0
  0
SCALE
  5
8454
102
{ACAD_REACTORS
330
8451
102
}
330
8451
100
AcDbScale
 70
     0
300
1/64" = 1'-0"
140
0.015625
141
12.0
290
     0
  0
SCALE
  5
8455
102
{ACAD_REACTORS
330
8451
102
}
330
8451
100
AcDbScale
 70
     0
300
1/32" = 1'-0"
140
0.03125
141
12.0
290
     0
  0
SCALE
  5
8456
102
{ACAD_REACTORS
330
8451
102
}
330
8451
100
AcDbScale
 70
     0
300
1/16" = 1'-0"
140
0.0625
141
12.0
290
     0
  0
SCALE
  5
8457
102
{ACAD_REACTORS
330
8451
102
}
330
8451
100
AcDbScale
 70
     0
300
3/32" = 1'-0"
140
0.09375
141
12.0
290
     0
  0
SCALE
  5
8458
102
{ACAD_REACTORS
330
8451
102
}
330
8451
100
AcDbScale
 70
     0
300
1/8" = 1'-0"
140
0.125
141
12.0
290
     0
  0
SCALE
  5
8459
102
{ACAD_REACTORS
330
8451
102
}
330
8451
100
AcDbScale
 70
     0
300
3/16" = 1'-0"
140
0.1875
141
12.0
290
     0
  0
SCALE
  5
845A
102
{ACAD_REACTORS
330
8451
102
}
330
8451
100
AcDbScale
 70
     0
300
1/4" = 1'-0"
140
0.25
141
12.0
290
     0
  0
SCALE
  5
845B
102
{ACAD_REACTORS
330
8451
102
}
330
8451
100
AcDbScale
 70
     0
300
3/8" = 1'-0"
140
0.375
141
12.0
290
     0
  0
SCALE
  5
845C
102
{ACAD_REACTORS
330
8451
102
}
330
8451
100
AcDbScale
 70
     0
300
1/2" = 1'-0"
140
0.5
141
12.0
290
     0
  0
SCALE
  5
845D
102
{ACAD_REACTORS
330
8451
102
}
330
8451
100
AcDbScale
 70
     0
300
3/4" = 1'-0"
140
0.75
141
12.0
290
     0
  0
SCALE
  5
845E
102
{ACAD_REACTORS
330
8451
102
}
330
8451
100
AcDbScale
 70
     0
300
1" = 1'-0"
140
1.0
141
12.0
290
     0
  0
SCALE
  5
845F
102
{ACAD_REACTORS
330
8451
102
}
330
8451
100
AcDbScale
 70
     0
300
1-1/2" = 1'-0"
140
1.5
141
12.0
290
     0
  0
SCALE
  5
8460
102
{ACAD_REACTORS
330
8451
102
}
330
8451
100
AcDbScale
 70
     0
300
3" = 1'-0"
140
3.0
141
12.0
290
     0
  0
SCALE
  5
8461
102
{ACAD_REACTORS
330
8451
102
}
330
8451
100
AcDbScale
 70
     0
300
6" = 1'-0"
140
6.0
141
12.0
290
     0
  0
SCALE
  5
8462
102
{ACAD_REACTORS
330
8451
102
}
330
8451
100
AcDbScale
 70
     0
300
1'-0" = 1'-0"
140
12.0
141
12.0
290
     0
  0
ACDBSECTIONVIEWSTYLE
  5
8477
102
{ACAD_XDICTIONARY
360
8648
102
}
102
{ACAD_REACTORS
330
8476
102
}
330
8476
100
AcDbModelDocViewStyle
 70
     0
  3
Imperial24
290
     0
100
AcDbSectionViewStyle
 70
     0
 71
     0
 90
       78
 71
     1
340
8464
 40
0.24
340
0
340
0
 40
0.24
300
I, O, Q, S, X, Z
 40
0.48
 90
        3
 40
0.18
 90
        1
 71
     2
340
846B
 90
       25
340
846B
 90
       50
 40
0.24
 40
0.0
 40
0.24
 71
     3
340
8464
 40
0.24
 90
        1
 40
0.75
 90
        1
300
%<\AcVar ViewType \f "%tc1">% %<\AcVar ViewSectionStartId>%-%<\AcVar ViewSectionEndId>%\PSCALE %<\AcVar ViewScale \f "%sn">%
 71
     4
300
ANSI31
 40
1.0
 90
        0
290
     0
290
     0
 90
        6
 40
0.0
 40
1.570796326794896
 40
0.2617993877991494
 40
1.308996938995747
 40
-0.2617993877991494
 40
1.832595714594046
  0
TABLESTYLE
  5
8473
102
{ACAD_XDICTIONARY
360
860F
102
}
102
{ACAD_REACTORS
330
8472
102
}
330
8472
100
AcDbTableStyle
  3
Standard
 70
     0
 71
     0
 40
0.06
 41
0.06
280
     0
281
     0
  7
STANDARD
140
0.18
170
     2
 62
     0
 63
     7
283
     0
274
    -2
284
     1
 64
     0
275
    -2
285
     1
 65
     0
276
    -2
286
     1
 66
     0
277
    -2
287
     1
 67
     0
278
    -2
288
     1
 68
     0
279
    -2
289
     1
 69
     0
  7
STANDARD
140
0.25
170
     5
 62
     0
 63
     7
283
     0
274
    -2
284
     1
 64
     0
275
    -2
285
     1
 65
     0
276
    -2
286
     1
 66
     0
277
    -2
287
     1
 67
     0
278
    -2
288
     1
 68
     0
279
    -2
289
     1
 69
     0
  7
STANDARD
140
0.18
170
     5
 62
     0
 63
     7
283
     0
274
    -2
284
     1
 64
     0
275
    -2
285
     1
 65
     0
276
    -2
286
     1
 66
     0
277
    -2
287
     1
 67
     0
278
    -2
288
     1
 68
     0
279
    -2
289
     1
 69
     0
  0
VISUALSTYLE
  5
843E
102
{ACAD_XDICTIONARY
360
8620
102
}
102
{ACAD_REACTORS
330
8438
102
}
330
8438
100
AcDbVisualStyle
  2
2dWireframe
 70
     4
 71
     0
 72
     2
 73
     0
 90
        0
 40
-0.6
 41
-30.0
 62
     5
 63
     7
 74
     1
 91
        4
 64
     7
 65
   257
 75
     1
175
     1
 42
1.0
 92
        0
 66
   257
 43
1.0
 76
     1
 77
     6
 78
     2
 67
     7
 79
     5
170
     0
171
     0
290
     0
174
     0
 93
        1
 44
0.0
173
     0
291
     0
 45
0.0
1001
ACAD
1000
AcDbSavedByObjectVersion
1070
     0
  0
VISUALSTYLE
  5
843D
102
{ACAD_XDICTIONARY
360
861E
102
}
102
{ACAD_REACTORS
330
8438
102
}
330
8438
100
AcDbVisualStyle
  2
Basic
 70
     7
 71
     1
 72
     0
 73
     1
 90
        0
 40
-0.6
 41
-30.0
 62
     5
 63
     7
 74
     0
 91
        4
 64
     7
 65
   257
 75
     1
175
     1
 42
1.0
 92
        8
 66
     7
 43
1.0
 76
     1
 77
     6
 78
     2
 67
     7
 79
     5
170
     0
171
     0
290
     0
174
     0
 93
        1
 44
0.0
173
     0
291
     1
 45
0.0
1001
ACAD
1000
AcDbSavedByObjectVersion
1070
     0
  0
VISUALSTYLE
  5
8444
102
{ACAD_XDICTIONARY
360
862C
102
}
102
{ACAD_REACTORS
330
8438
102
}
330
8438
100
AcDbVisualStyle
  2
Brighten
 70
    12
 71
     2
 72
     2
 73
     0
 90
        0
 40
-0.6
 41
-30.0
 62
     5
 63
     7
 74
     1
 91
        4
 64
     7
 65
   257
 75
     1
175
     1
 42
1.0
 92
        8
 66
     7
 43
1.0
 76
     1
 77
     6
 78
     2
 67
     7
 79
     5
170
     0
171
     0
290
     0
174
     0
 93
        1
 44
50.0
173
     0
291
     1
 45
0.0
1001
ACAD
1000
AcDbSavedByObjectVersion
1070
     0
  0
VISUALSTYLE
  5
8448
102
{ACAD_XDICTIONARY
360
8634
102
}
102
{ACAD_REACTORS
330
8438
102
}
330
8438
100
AcDbVisualStyle
  2
ColorChange
 70
    16
 71
     2
 72
     2
 73
     3
 90
        0
 40
-0.6
 41
-30.0
 62
     5
 63
     8
 74
     1
 91
        4
 64
     7
 65
   257
 75
     1
175
     1
 42
1.0
 92
        8
 66
     8
 43
1.0
 76
     1
 77
     6
 78
     2
 67
     7
 79
     5
170
     0
171
     0
290
     0
174
     0
 93
        1
 44
0.0
173
     0
291
     1
 45
0.0
1001
ACAD
1000
AcDbSavedByObjectVersion
1070
     0
  0
VISUALSTYLE
  5
8441
102
{ACAD_XDICTIONARY
360
8626
102
}
102
{ACAD_REACTORS
330
8438
102
}
330
8438
100
AcDbVisualStyle
  2
Conceptual
 70
     9
 71
     3
 72
     2
 73
     0
 90
        0
 40
-0.6
 41
-30.0
 62
     5
 63
     7
 74
     2
 91
        2
 64
     7
 65
   257
 75
     1
175
     1
 42
179.0
 92
        8
 66
     7
 43
1.0
 76
     1
 77
     6
 78
     2
 67
     7
 79
     3
170
     0
171
     0
290
     0
174
     0
 93
        1
 44
0.0
173
     0
291
     0
 45
0.0
1001
ACAD
1000
AcDbSavedByObjectVersion
1070
     0
  0
VISUALSTYLE
  5
8443
102
{ACAD_XDICTIONARY
360
862A
102
}
102
{ACAD_REACTORS
330
8438
102
}
330
8438
100
AcDbVisualStyle
  2
Dim
 70
    11
 71
     2
 72
     2
 73
     0
 90
        0
 40
-0.6
 41
-30.0
 62
     5
 63
     7
 74
     1
 91
        4
 64
     7
 65
   257
 75
     1
175
     1
 42
1.0
 92
        8
 66
     7
 43
1.0
 76
     1
 77
     6
 78
     2
 67
     7
 79
     5
170
     0
171
     0
290
     0
174
     0
 93
        1
 44
-50.0
173
     0
291
     1
 45
0.0
1001
ACAD
1000
AcDbSavedByObjectVersion
1070
     0
  0
VISUALSTYLE
  5
8450
102
{ACAD_XDICTIONARY
360
8644
102
}
102
{ACAD_REACTORS
330
8438
102
}
330
8438
100
AcDbVisualStyle
  2
EdgeColorOff
 70
    22
 71
     2
 72
     2
 73
     0
 90
        0
 40
-0.6
 41
-30.0
 62
     5
 63
     7
 74
     1
 91
        4
 64
     7
 65
   257
 75
     1
175
     1
 42
1.0
 92
        8
 66
     7
 43
1.0
 76
     1
 77
     6
 78
     2
 67
     7
 79
     5
170
     0
171
     0
290
     0
174
     0
 93
        1
 44
0.0
173
     0
291
     1
 45
0.0
1001
ACAD
1000
AcDbSavedByObjectVersion
1070
     0
  0
VISUALSTYLE
  5
8447
102
{ACAD_XDICTIONARY
360
8632
102
}
102
{ACAD_REACTORS
330
8438
102
}
330
8438
100
AcDbVisualStyle
  2
Facepattern
 70
    15
 71
     2
 72
     2
 73
     0
 90
        0
 40
-0.6
 41
-30.0
 62
     5
 63
     7
 74
     1
 91
        4
 64
     7
 65
   257
 75
     1
175
     1
 42
1.0
 92
        8
 66
     7
 43
1.0
 76
     1
 77
     6
 78
     2
 67
     7
 79
     5
170
     0
171
     0
290
     0
174
     0
 93
        1
 44
0.0
173
     0
291
     1
 45
0.0
1001
ACAD
1000
AcDbSavedByObjectVersion
1070
     0
  0
VISUALSTYLE
  5
8439
102
{ACAD_XDICTIONARY
360
8616
102
}
102
{ACAD_REACTORS
330
8438
102
}
330
8438
100
AcDbVisualStyle
  2
Flat
 70
     0
 71
     2
 72
     1
 73
     1
 90
        2
 40
-0.6
 41
30.0
 62
     5
 63
     7
 74
     0
 91
        0
 64
     7
 65
   257
 75
     1
175
     1
 42
1.0
 92
        8
 66
     7
 43
1.0
 76
     1
 77
     6
 78
     2
 67
     7
 79
     5
170
     0
171
     0
290
     0
174
     0
 93
       13
 44
0.0
173
     0
291
     1
 45
0.0
1001
ACAD
1000
AcDbSavedByObjectVersion
1070
     0
  0
VISUALSTYLE
  5
843A
102
{ACAD_XDICTIONARY
360
8618
102
}
102
{ACAD_REACTORS
330
8438
102
}
330
8438
100
AcDbVisualStyle
  2
FlatWithEdges
 70
     1
 71
     2
 72
     1
 73
     1
 90
        2
 40
-0.6
 41
30.0
 62
     5
 63
     7
 74
     1
 91
        0
 64
     7
 65
   257
 75
     1
175
     1
 42
1.0
 92
        0
 66
   257
 43
1.0
 76
     1
 77
     6
 78
     2
 67
     7
 79
     5
170
     0
171
     0
290
     0
174
     0
 93
       13
 44
0.0
173
     0
291
     1
 45
0.0
1001
ACAD
1000
AcDbSavedByObjectVersion
1070
     0
  0
VISUALSTYLE
  5
843B
102
{ACAD_XDICTIONARY
360
861A
102
}
102
{ACAD_REACTORS
330
8438
102
}
330
8438
100
AcDbVisualStyle
  2
Gouraud
 70
     2
 71
     2
 72
     2
 73
     1
 90
        2
 40
-0.6
 41
30.0
 62
     5
 63
     7
 74
     0
 91
        0
 64
     7
 65
   257
 75
     1
175
     1
 42
1.0
 92
        0
 66
     7
 43
1.0
 76
     1
 77
     6
 78
     2
 67
     7
 79
     5
170
     0
171
     0
290
     0
174
     0
 93
       13
 44
0.0
173
     0
291
     1
 45
0.0
1001
ACAD
1000
AcDbSavedByObjectVersion
1070
     0
  0
VISUALSTYLE
  5
843C
102
{ACAD_XDICTIONARY
360
861C
102
}
102
{ACAD_REACTORS
330
8438
102
}
330
8438
100
AcDbVisualStyle
  2
GouraudWithEdges
 70
     3
 71
     2
 72
     2
 73
     1
 90
        2
 40
-0.6
 41
30.0
 62
     5
 63
     7
 74
     1
 91
        0
 64
     7
 65
   257
 75
     1
175
     1
 42
1.0
 92
        0
 66
   257
 43
1.0
 76
     1
 77
     6
 78
     2
 67
     7
 79
     5
170
     0
171
     0
290
     0
174
     0
 93
       13
 44
0.0
173
     0
291
     1
 45
0.0
1001
ACAD
1000
AcDbSavedByObjectVersion
1070
     0
  0
VISUALSTYLE
  5
8440
102
{ACAD_XDICTIONARY
360
8624
102
}
102
{ACAD_REACTORS
330
8438
102
}
330
8438
100
AcDbVisualStyle
  2
Hidden
 70
     6
 71
     1
 72
     2
 73
     2
 90
        0
 40
-0.6
 41
-30.0
 62
     5
 63
     7
 74
     2
 91
        2
 64
     7
 65
   257
 75
     2
175
     1
 42
40.0
 92
        0
 66
   257
 43
1.0
 76
     1
 77
     6
 78
     2
 67
     7
 79
     3
170
     0
171
     0
290
     0
174
     0
 93
        1
 44
0.0
173
     0
291
     0
 45
0.0
1001
ACAD
1000
AcDbSavedByObjectVersion
1070
     0
  0
VISUALSTYLE
  5
844E
102
{ACAD_XDICTIONARY
360
8640
102
}
102
{ACAD_REACTORS
330
8438
102
}
330
8438
100
AcDbVisualStyle
  2
JitterOff
 70
    20
 71
     2
 72
     2
 73
     0
 90
        0
 40
-0.6
 41
-30.0
 62
     5
 63
     7
 74
     1
 91
        4
 64
     7
 65
   257
 75
     1
175
     1
 42
1.0
 92
       10
 66
     7
 43
1.0
 76
     1
 77
     6
 78
     2
 67
     7
 79
     5
170
     0
171
     0
290
     0
174
     0
 93
        1
 44
0.0
173
     0
291
     1
 45
0.0
1001
ACAD
1000
AcDbSavedByObjectVersion
1070
     0
  0
VISUALSTYLE
  5
8446
102
{ACAD_XDICTIONARY
360
8630
102
}
102
{ACAD_REACTORS
330
8438
102
}
330
8438
100
AcDbVisualStyle
  2
Linepattern
 70
    14
 71
     2
 72
     2
 73
     0
 90
        0
 40
-0.6
 41
-30.0
 62
     5
 63
     7
 74
     1
 91
        4
 64
     7
 65
   257
 75
     7
175
     7
 42
1.0
 92
        8
 66
     7
 43
1.0
 76
     1
 77
     6
 78
     2
 67
     7
 79
     5
170
     0
171
     0
290
     0
174
     0
 93
        1
 44
0.0
173
     0
291
     1
 45
0.0
1001
ACAD
1000
AcDbSavedByObjectVersion
1070
     0
  0
VISUALSTYLE
  5
844F
102
{ACAD_XDICTIONARY
360
8642
102
}
102
{ACAD_REACTORS
330
8438
102
}
330
8438
100
AcDbVisualStyle
  2
OverhangOff
 70
    21
 71
     2
 72
     2
 73
     0
 90
        0
 40
-0.6
 41
-30.0
 62
     5
 63
     7
 74
     1
 91
        4
 64
     7
 65
   257
 75
     1
175
     1
 42
1.0
 92
        9
 66
     7
 43
1.0
 76
     1
 77
     6
 78
     2
 67
     7
 79
     5
170
     0
171
     0
290
     0
174
     0
 93
        1
 44
0.0
173
     0
291
     1
 45
0.0
1001
ACAD
1000
AcDbSavedByObjectVersion
1070
     0
  0
VISUALSTYLE
  5
8442
102
{ACAD_XDICTIONARY
360
8628
102
}
102
{ACAD_REACTORS
330
8438
102
}
330
8438
100
AcDbVisualStyle
  2
Realistic
 70
     8
 71
     2
 72
     3
 73
     0
 90
        2
 40
-0.6
 41
30.0
 62
     5
 63
     7
 74
     0
 91
        0
 64
     7
 65
   257
 75
     1
175
     1
 42
1.0
 92
        8
 66
   257
 43
1.0
 76
     1
 77
     6
 78
     2
 67
     7
 79
     3
170
     0
171
     0
290
     0
174
     0
 93
       13
 44
0.0
173
     0
291
     0
 45
0.0
1001
ACAD
1000
AcDbSavedByObjectVersion
1070
     0
  0
VISUALSTYLE
  5
844D
102
{ACAD_XDICTIONARY
360
863E
102
}
102
{ACAD_REACTORS
330
8438
102
}
330
8438
100
AcDbVisualStyle
  2
Shaded
 70
    27
 71
     2
 72
     2
 73
     1
 90
        2
 40
-0.6
 41
30.0
 62
     5
 63
     7
 74
     0
 91
        4
 64
     7
 65
   257
 75
     1
175
     1
 42
1.0
 92
        8
 66
   257
 43
1.0
 76
     1
 77
     6
 78
     2
 67
     8
 79
     3
170
     0
171
     0
290
     0
174
     0
 93
        5
 44
0.0
173
     0
291
     0
 45
0.0
1001
ACAD
1000
AcDbSavedByObjectVersion
1070
     0
  0
VISUALSTYLE
  5
844C
102
{ACAD_XDICTIONARY
360
863C
102
}
102
{ACAD_REACTORS
330
8438
102
}
330
8438
100
AcDbVisualStyle
  2
Shaded with edges
 70
    26
 71
     2
 72
     2
 73
     1
 90
        2
 40
-0.6
 41
30.0
 62
     5
 63
     7
 74
     1
 91
       10
 64
     7
 65
   257
 75
     2
175
     1
 42
1.0
 92
        8
 66
   257
 43
1.0
 76
     1
 77
     6
 78
     2
 67
     7
 79
     3
170
     0
171
     0
290
     0
174
     0
 93
        5
 44
0.0
173
     0
291
     0
 45
0.0
1001
ACAD
1000
AcDbSavedByObjectVersion
1070
     0
  0
VISUALSTYLE
  5
8449
102
{ACAD_XDICTIONARY
360
8636
102
}
102
{ACAD_REACTORS
330
8438
102
}
330
8438
100
AcDbVisualStyle
  2
Shades of Gray
 70
    23
 71
     2
 72
     2
 73
     3
 90
        0
 40
-0.6
 41
-30.0
 62
     5
 63
     7
 74
     2
 91
        2
 64
     7
 65
     7
 75
     1
175
     1
 42
40.0
 92
        8
 66
     7
 43
1.0
 76
     1
 77
     6
 78
     2
 67
     7
 79
     3
170
     0
171
     0
290
     0
174
     0
 93
        1
 44
0.0
173
     0
291
     0
 45
0.0
1001
ACAD
1000
AcDbSavedByObjectVersion
1070
     0
  0
VISUALSTYLE
  5
844A
102
{ACAD_XDICTIONARY
360
8638
102
}
102
{ACAD_REACTORS
330
8438
102
}
330
8438
100
AcDbVisualStyle
  2
Sketchy
 70
    24
 71
     1
 72
     2
 73
     2
 90
        0
 40
-0.6
 41
-30.0
 62
     5
 63
     7
 74
     2
 91
        2
 64
     7
 65
     7
 75
     1
175
     1
 42
40.0
 92
       11
 66
     7
 43
1.0
 76
     1
 77
     6
 78
     2
 67
     7
 79
     6
170
     0
171
     0
290
     0
174
     0
 93
        1
 44
0.0
173
     0
291
     0
 45
0.0
1001
ACAD
1000
AcDbSavedByObjectVersion
1070
     0
  0
VISUALSTYLE
  5
8445
102
{ACAD_XDICTIONARY
360
862E
102
}
102
{ACAD_REACTORS
330
8438
102
}
330
8438
100
AcDbVisualStyle
  2
Thicken
 70
    13
 71
     2
 72
     2
 73
     0
 90
        0
 40
-0.6
 41
-30.0
 62
     5
 63
     7
 74
     1
 91
        4
 64
     7
 65
   257
 75
     1
175
     1
 42
1.0
 92
       12
 66
     7
 43
1.0
 76
     1
 77
     6
 78
     2
 67
     7
 79
     5
170
     0
171
     0
290
     0
174
     0
 93
        1
 44
0.0
173
     0
291
     1
 45
0.0
1001
ACAD
1000
AcDbSavedByObjectVersion
1070
     0
  0
VISUALSTYLE
  5
843F
102
{ACAD_XDICTIONARY
360
8622
102
}
102
{ACAD_REACTORS
330
8438
102
}
330
8438
100
AcDbVisualStyle
  2
Wireframe
 70
     5
 71
     0
 72
     2
 73
     0
 90
        0
 40
-0.6
 41
-30.0
 62
     5
 63
     7
 74
     1
 91
        4
 64
     7
 65
   257
 75
     1
175
     1
 42
1.0
 92
        0
 66
   257
 43
1.0
 76
     1
 77
     6
 78
     2
 67
     7
 79
     3
170
     0
171
     0
290
     0
174
     0
 93
        1
 44
0.0
173
     0
291
     0
 45
0.0
1001
ACAD
1000
AcDbSavedByObjectVersion
1070
     0
  0
VISUALSTYLE
  5
844B
102
{ACAD_XDICTIONARY
360
863A
102
}
102
{ACAD_REACTORS
330
8438
102
}
330
8438
100
AcDbVisualStyle
  2
X-Ray
 70
    25
 71
     2
 72
     2
 73
     1
 90
        1
 40
0.5
 41
-30.0
 62
     5
 63
     7
 74
     1
 91
        0
 64
     7
 65
   257
 75
     1
175
     1
 42
1.0
 92
        8
 66
     7
 43
1.0
 76
     1
 77
     6
 78
     2
 67
     7
 79
     3
170
     0
171
     0
290
     0
174
     0
 93
       13
 44
0.0
173
     0
291
     0
 45
0.0
1001
ACAD
1000
AcDbSavedByObjectVersion
1070
     0
  0
DICTIONARYVAR
  5
8609
102
{ACAD_REACTORS
330
8604
102
}
330
8604
100
DictionaryVariables
280
     0
  1
1:1
  0
DICTIONARYVAR
  5
8606
102
{ACAD_REACTORS
330
8604
102
}
330
8604
100
DictionaryVariables
280
     0
  1
STANDARD
  0
DICTIONARYVAR
  5
8605
102
{ACAD_REACTORS
330
8604
102
}
330
8604
100
DictionaryVariables
280
     0
  1
STANDARD
  0
DICTIONARYVAR
  5
8607
102
{ACAD_REACTORS
330
8604
102
}
330
8604
100
DictionaryVariables
280
     0
  1
Imperial24
  0
DICTIONARYVAR
  5
8608
102
{ACAD_REACTORS
330
8604
102
}
330
8604
100
DictionaryVariables
280
     0
  1
Imperial24
  0
DICTIONARYVAR
  5
860C
102
{ACAD_REACTORS
330
8604
102
}
330
8604
100
DictionaryVariables
280
     0
  1
1
  0
DICTIONARYVAR
  5
860B
102
{ACAD_REACTORS
330
8604
102
}
330
8604
100
DictionaryVariables
280
     0
  1
0
  0
DICTIONARYVAR
  5
860A
102
{ACAD_REACTORS
330
8604
102
}
330
8604
100
DictionaryVariables
280
     0
  1
127
  0
DICTIONARYVAR
  5
860D
102
{ACAD_REACTORS
330
8604
102
}
330
8604
100
DictionaryVariables
280
     0
  1
2
  0
DICTIONARY
  5
864A
330
8479
100
AcDbDictionary
280
     1
281
     1
  3
ACAD_XREC_ROUNDTRIP
360
864B
  0
DICTIONARY
  5
864E
330
8481
100
AcDbDictionary
280
     1
281
     1
  3
ACAD_XREC_ROUNDTRIP
360
864F
  0
DICTIONARY
  5
864C
330
847D
100
AcDbDictionary
280
     1
281
     1
  3
ACAD_XREC_ROUNDTRIP
360
864D
  0
DICTIONARY
  5
8429
330
8428
100
AcDbDictionary
280
     1
281
     1
  3
ACAD_XREC_ROUNDTRIP
360
8614
  3
BUMPTILE
360
842B
  3
DIFFUSETILE
360
842A
  3
OPACITYTILE
360
842E
  3
REFLECTIONTILE
360
842D
  3
REFRACTIONTILE
360
842F
  3
SPECULARTILE
360
842C
  0
DICTIONARY
  5
8421
330
8420
100
AcDbDictionary
280
     1
281
     1
  3
ACAD_XREC_ROUNDTRIP
360
8613
  3
BUMPTILE
360
8423
  3
DIFFUSETILE
360
8422
  3
OPACITYTILE
360
8426
  3
REFLECTIONTILE
360
8425
  3
REFRACTIONTILE
360
8427
  3
SPECULARTILE
360
8424
  0
DICTIONARY
  5
8431
330
8430
100
AcDbDictionary
280
     1
281
     1
  3
ACAD_XREC_ROUNDTRIP
360
8615
  3
BUMPTILE
360
8433
  3
DIFFUSETILE
360
8432
  3
OPACITYTILE
360
8436
  3
REFLECTIONTILE
360
8435
  3
REFRACTIONTILE
360
8437
  3
SPECULARTILE
360
8434
  0
DICTIONARY
  5
8648
330
8477
100
AcDbDictionary
280
     1
281
     1
  3
ACAD_XREC_ROUNDTRIP
360
8649
  0
DICTIONARY
  5
860F
330
8473
100
AcDbDictionary
280
     1
281
     1
  3
ACAD_ROUNDTRIP_2008_TABLESTYLE_CELLSTYLEMAP
360
8610
  3
ACAD_XREC_ROUNDTRIP
360
8646
  0
DICTIONARY
  5
8620
330
843E
100
AcDbDictionary
280
     1
281
     1
  3
ACAD_XREC_ROUNDTRIP
360
8621
  0
DICTIONARY
  5
861E
330
843D
100
AcDbDictionary
280
     1
281
     1
  3
ACAD_XREC_ROUNDTRIP
360
861F
  0
DICTIONARY
  5
862C
330
8444
100
AcDbDictionary
280
     1
281
     1
  3
ACAD_XREC_ROUNDTRIP
360
862D
  0
DICTIONARY
  5
8634
330
8448
100
AcDbDictionary
280
     1
281
     1
  3
ACAD_XREC_ROUNDTRIP
360
8635
  0
DICTIONARY
  5
8626
330
8441
100
AcDbDictionary
280
     1
281
     1
  3
ACAD_XREC_ROUNDTRIP
360
8627
  0
DICTIONARY
  5
862A
330
8443
100
AcDbDictionary
280
     1
281
     1
  3
ACAD_XREC_ROUNDTRIP
360
862B
  0
DICTIONARY
  5
8644
330
8450
100
AcDbDictionary
280
     1
281
     1
  3
ACAD_XREC_ROUNDTRIP
360
8645
  0
DICTIONARY
  5
8632
330
8447
100
AcDbDictionary
280
     1
281
     1
  3
ACAD_XREC_ROUNDTRIP
360
8633
  0
DICTIONARY
  5
8616
330
8439
100
AcDbDictionary
280
     1
281
     1
  3
ACAD_XREC_ROUNDTRIP
360
8617
  0
DICTIONARY
  5
8618
330
843A
100
AcDbDictionary
280
     1
281
     1
  3
ACAD_XREC_ROUNDTRIP
360
8619
  0
DICTIONARY
  5
861A
330
843B
100
AcDbDictionary
280
     1
281
     1
  3
ACAD_XREC_ROUNDTRIP
360
861B
  0
DICTIONARY
  5
861C
330
843C
100
AcDbDictionary
280
     1
281
     1
  3
ACAD_XREC_ROUNDTRIP
360
861D
  0
DICTIONARY
  5
8624
330
8440
100
AcDbDictionary
280
     1
281
     1
  3
ACAD_XREC_ROUNDTRIP
360
8625
  0
DICTIONARY
  5
8640
330
844E
100
AcDbDictionary
280
     1
281
     1
  3
ACAD_XREC_ROUNDTRIP
360
8641
  0
DICTIONARY
  5
8630
330
8446
100
AcDbDictionary
280
     1
281
     1
  3
ACAD_XREC_ROUNDTRIP
360
8631
  0
DICTIONARY
  5
8642
330
844F
100
AcDbDictionary
280
     1
281
     1
  3
ACAD_XREC_ROUNDTRIP
360
8643
  0
DICTIONARY
  5
8628
330
8442
100
AcDbDictionary
280
     1
281
     1
  3
ACAD_XREC_ROUNDTRIP
360
8629
  0
DICTIONARY
  5
863E
330
844D
100
AcDbDictionary
280
     1
281
     1
  3
ACAD_XREC_ROUNDTRIP
360
863F
  0
DICTIONARY
  5
863C
330
844C
100
AcDbDictionary
280
     1
281
     1
  3
ACAD_XREC_ROUNDTRIP
360
863D
  0
DICTIONARY
  5
8636
330
8449
100
AcDbDictionary
280
     1
281
     1
  3
ACAD_XREC_ROUNDTRIP
360
8637
  0
DICTIONARY
  5
8638
330
844A
100
AcDbDictionary
280
     1
281
     1
  3
ACAD_XREC_ROUNDTRIP
360
8639
  0
DICTIONARY
  5
862E
330
8445
100
AcDbDictionary
280
     1
281
     1
  3
ACAD_XREC_ROUNDTRIP
360
862F
  0
DICTIONARY
  5
8622
330
843F
100
AcDbDictionary
280
     1
281
     1
  3
ACAD_XREC_ROUNDTRIP
360
8623
  0
DICTIONARY
  5
863A
330
844B
100
AcDbDictionary
280
     1
281
     1
  3
ACAD_XREC_ROUNDTRIP
360
863B
  0
XRECORD
  5
864B
102
{ACAD_REACTORS
330
864A
102
}
330
864A
100
AcDbXrecord
280
     1
102
DISPLAYNAME
  1
Imperial24
102
FLAGS
 90
        0
  0
XRECORD
  5
864F
102
{ACAD_REACTORS
330
864E
102
}
330
864E
100
AcDbXrecord
280
     1
102
SHADEPLOT
 70
     0
102
SHADEPLOTRESLEVEL
 70
     2
102
SHADEPLOTCUSTOMDPI
 70
   300
  0
XRECORD
  5
864D
102
{ACAD_REACTORS
330
864C
102
}
330
864C
100
AcDbXrecord
280
     1
102
SHADEPLOT
 70
     0
102
SHADEPLOTRESLEVEL
 70
     2
102
SHADEPLOTCUSTOMDPI
 70
   300
  0
XRECORD
  5
8614
102
{ACAD_REACTORS
330
8429
102
}
330
8429
100
AcDbXrecord
280
     1
102
MATERIAL
148
0.0
149
0.0
149
0.0
 93
        0
 94
      127
282
     0
 72
     0
 77
     0
171
     0
175
     0
179
     0
273
     0
  0
XRECORD
  5
842B
102
{ACAD_REACTORS
330
8429
102
}
330
8429
100
AcDbXrecord
280
     1
270
     1
271
     1
  0
XRECORD
  5
842A
102
{ACAD_REACTORS
330
8429
102
}
330
8429
100
AcDbXrecord
280
     1
270
     1
271
     1
  0
XRECORD
  5
842E
102
{ACAD_REACTORS
330
8429
102
}
330
8429
100
AcDbXrecord
280
     1
270
     1
271
     1
  0
XRECORD
  5
842D
102
{ACAD_REACTORS
330
8429
102
}
330
8429
100
AcDbXrecord
280
     1
270
     1
271
     1
  0
XRECORD
  5
842F
102
{ACAD_REACTORS
330
8429
102
}
330
8429
100
AcDbXrecord
280
     1
270
     1
271
     1
  0
XRECORD
  5
842C
102
{ACAD_REACTORS
330
8429
102
}
330
8429
100
AcDbXrecord
280
     1
270
     1
271
     1
  0
XRECORD
  5
8613
102
{ACAD_REACTORS
330
8421
102
}
330
8421
100
AcDbXrecord
280
     1
102
MATERIAL
148
0.0
149
0.0
149
0.0
 93
        0
 94
      127
282
     0
 72
     0
 77
     0
171
     0
175
     0
179
     0
273
     0
  0
XRECORD
  5
8423
102
{ACAD_REACTORS
330
8421
102
}
330
8421
100
AcDbXrecord
280
     1
270
     1
271
     1
  0
XRECORD
  5
8422
102
{ACAD_REACTORS
330
8421
102
}
330
8421
100
AcDbXrecord
280
     1
270
     1
271
     1
  0
XRECORD
  5
8426
102
{ACAD_REACTORS
330
8421
102
}
330
8421
100
AcDbXrecord
280
     1
270
     1
271
     1
  0
XRECORD
  5
8425
102
{ACAD_REACTORS
330
8421
102
}
330
8421
100
AcDbXrecord
280
     1
270
     1
271
     1
  0
XRECORD
  5
8427
102
{ACAD_REACTORS
330
8421
102
}
330
8421
100
AcDbXrecord
280
     1
270
     1
271
     1
  0
XRECORD
  5
8424
102
{ACAD_REACTORS
330
8421
102
}
330
8421
100
AcDbXrecord
280
     1
270
     1
271
     1
  0
XRECORD
  5
8615
102
{ACAD_REACTORS
330
8431
102
}
330
8431
100
AcDbXrecord
280
     1
102
MATERIAL
148
0.0
149
0.0
149
0.0
 93
        0
 94
      127
282
     0
 72
     0
 77
     0
171
     0
175
     0
179
     0
273
     0
  0
XRECORD
  5
8433
102
{ACAD_REACTORS
330
8431
102
}
330
8431
100
AcDbXrecord
280
     1
270
     1
271
     1
  0
XRECORD
  5
8432
102
{ACAD_REACTORS
330
8431
102
}
330
8431
100
AcDbXrecord
280
     1
270
     1
271
     1
  0
XRECORD
  5
8436
102
{ACAD_REACTORS
330
8431
102
}
330
8431
100
AcDbXrecord
280
     1
270
     1
271
     1
  0
XRECORD
  5
8435
102
{ACAD_REACTORS
330
8431
102
}
330
8431
100
AcDbXrecord
280
     1
270
     1
271
     1
  0
XRECORD
  5
8437
102
{ACAD_REACTORS
330
8431
102
}
330
8431
100
AcDbXrecord
280
     1
270
     1
271
     1
  0
XRECORD
  5
8434
102
{ACAD_REACTORS
330
8431
102
}
330
8431
100
AcDbXrecord
280
     1
270
     1
271
     1
  0
XRECORD
  5
8649
102
{ACAD_REACTORS
330
8648
102
}
330
8648
100
AcDbXrecord
280
     1
102
DISPLAYNAME
  1
Imperial24
102
FLAGS
 90
        0
  0
CELLSTYLEMAP
  5
8610
102
{ACAD_REACTORS
330
860F
102
}
330
860F
100
AcDbCellStyleMap
 90
        3
300
CELLSTYLE
  1
TABLEFORMAT_BEGIN
 90
        5
170
     1
 91
        0
 92
    32768
 62
   257
 93
        1
300
CONTENTFORMAT
  1
CONTENTFORMAT_BEGIN
 90
        0
 91
        0
 92
      512
 93
        0
300

 40
0.0
140
1.0
 94
        5
 62
     0
340
8464
144
0.25
309
CONTENTFORMAT_END
171
     0
 94
        0
309
TABLEFORMAT_END
  1
CELLSTYLE_BEGIN
 90
        1
 91
        1
300
_TITLE
309
CELLSTYLE_END
300
CELLSTYLE
  1
TABLEFORMAT_BEGIN
 90
        5
170
     1
 91
        0
 92
        0
 62
   257
 93
        1
300
CONTENTFORMAT
  1
CONTENTFORMAT_BEGIN
 90
        0
 91
        0
 92
      512
 93
        0
300

 40
0.0
140
1.0
 94
        5
 62
     0
340
8464
144
0.18
309
CONTENTFORMAT_END
171
     0
 94
        0
309
TABLEFORMAT_END
  1
CELLSTYLE_BEGIN
 90
        2
 91
        1
300
_HEADER
309
CELLSTYLE_END
300
CELLSTYLE
  1
TABLEFORMAT_BEGIN
 90
        5
170
     1
 91
        0
 92
        0
 62
   257
 93
        1
300
CONTENTFORMAT
  1
CONTENTFORMAT_BEGIN
 90
        0
 91
        0
 92
      512
 93
        0
300

 40
0.0
140
1.0
 94
        2
 62
     0
340
8464
144
0.18
309
CONTENTFORMAT_END
171
     0
 94
        0
309
TABLEFORMAT_END
  1
CELLSTYLE_BEGIN
 90
        3
 91
        2
300
_DATA
309
CELLSTYLE_END
  0
XRECORD
  5
8646
102
{ACAD_REACTORS
330
860F
102
}
330
860F
100
AcDbXrecord
280
     1
102
ACAD_ROUNDTRIP_PRE2007_TABLESTYLE
 90
      512
 91
        0
  1

 92
      512
 93
        0
  2

 94
      512
 95
        0
  3

  0
XRECORD
  5
8621
102
{ACAD_REACTORS
330
8620
102
}
330
8620
100
AcDbXrecord
280
     1
102
RTVSPost2010Prop28
280
     1
102
RTVSPost2010PropOp28
 70
     1
102
RTVSPost2010Prop29
280
     1
102
RTVSPost2010PropOp29
 70
     1
102
RTVSPost2010Prop30
280
     0
102
RTVSPost2010PropOp30
 70
     1
102
RTVSPost2010Prop31
280
     0
102
RTVSPost2010PropOp31
 70
     1
102
RTVSPost2010Prop32
280
     0
102
RTVSPost2010PropOp32
 70
     1
102
RTVSPost2010Prop33
280
     0
102
RTVSPost2010PropOp33
 70
     1
102
RTVSPost2010Prop34
280
     0
102
RTVSPost2010PropOp34
 70
     1
102
RTVSPost2010Prop35
280
     0
102
RTVSPost2010PropOp35
 70
     1
102
RTVSPost2010Prop36
280
     0
102
RTVSPost2010PropOp36
 70
     1
102
RTVSPost2010Prop37
 90
       50
102
RTVSPost2010PropOp37
 70
     1
102
RTVSPost2010Prop38
140
0.0
102
RTVSPost2010PropOp38
 70
     1
102
RTVSPost2010Prop39
140
1.0
102
RTVSPost2010PropOp39
 70
     1
102
RTVSPost2010Prop40
 90
        0
102
RTVSPost2010PropOp40
 70
     1
102
RTVSPost2010Prop41ColorIndex
 90
       18
102
RTVSPost2010Prop41ColorRGB
 90
        0
102
RTVSPost2010PropOp41
 70
     1
102
RTVSPost2010Prop42
 90
       50
102
RTVSPost2010PropOp42
 70
     1
102
RTVSPost2010Prop43
 90
        3
102
RTVSPost2010PropOp43
 70
     1
102
RTVSPost2010Prop44ColorIndex
 90
        5
102
RTVSPost2010Prop44ColorRGB
 90
      255
102
RTVSPost2010PropOp44
 70
     1
102
RTVSPost2010Prop45
280
     0
102
RTVSPost2010PropOp45
 70
     1
102
RTVSPost2010Prop46
 90
       50
102
RTVSPost2010PropOp46
 70
     1
102
RTVSPost2010Prop47
 90
       50
102
RTVSPost2010PropOp47
 70
     1
102
RTVSPost2010Prop48
 90
       50
102
RTVSPost2010PropOp48
 70
     1
102
RTVSPost2010Prop49
280
     0
102
RTVSPost2010PropOp49
 70
     1
102
RTVSPost2010Prop50
 90
       50
102
RTVSPost2010PropOp50
 70
     1
102
RTVSPost2010Prop51ColorIndex
 90
      256
102
RTVSPost2010Prop51ColorRGB
 90
-16777216
102
RTVSPost2010PropOp51
 70
     0
102
RTVSPost2010Prop52
140
1.0
102
RTVSPost2010PropOp52
 70
     0
102
RTVSPost2010Prop53
 90
        2
102
RTVSPost2010PropOp53
 70
     1
102
RTVSPost2010Prop54
  1
strokes_ogs.tif
102
RTVSPost2010PropOp54
 70
     1
102
RTVSPost2010Prop55
280
     0
102
RTVSPost2010PropOp55
 70
     1
102
RTVSPost2010Prop56
140
1.0
102
RTVSPost2010PropOp56
 70
     1
102
RTVSPost2010Prop57
140
1.0
102
RTVSPost2010PropOp57
 70
     1
102
RTVSPropertyOp0
 70
     1
102
RTVSPropertyOp1
 70
     1
102
RTVSPropertyOp2
 70
     1
102
RTVSPropertyOp3
 70
     1
102
RTVSPropertyOp4
 70
     1
102
RTVSPropertyOp5
 70
     1
102
RTVSPropertyOp6
 70
     1
102
RTVSPropertyOp7
 70
     1
102
RTVSPropertyOp8
 70
     1
102
RTVSPropertyOp9
 70
     1
102
RTVSPropertyOp10
 70
     1
102
RTVSPropertyOp11
 70
     1
102
RTVSPropertyOp12
 70
     1
102
RTVSPropertyOp13
 70
     1
102
RTVSPropertyOp14
 70
     1
102
RTVSPropertyOp15
 70
     1
102
RTVSPropertyOp16
 70
     1
102
RTVSPropertyOp17
 70
     1
102
RTVSPropertyOp18
 70
     1
102
RTVSPropertyOp19
 70
     1
102
RTVSPropertyOp20
 70
     1
102
RTVSPropertyOp21
 70
     1
102
RTVSPropertyOp22
 70
     1
102
RTVSPropertyOp23
 70
     1
102
RTVSPropertyOp24
 70
     1
102
RTVSPropertyOp25
 70
     1
102
RTVSPropertyOp26
 70
     1
102
RTVSPropertyOp27
 70
     1
102
RTVSPropertyOp28
 70
     1
102
RTVSPropertyOp29
 70
     1
102
RTVSPropertyOp30
 70
     1
102
RTVSPropertyOp31
 70
     1
102
RTVSPropertyOp32
 70
     1
102
RTVSPropertyOp33
 70
     1
102
RTVSPropertyOp34
 70
     1
102
RTVSPropertyOp35
 70
     1
102
RTVSPropertyOp36
 70
     1
102
RTVSPropertyOp37
 70
     1
102
RTVSPropertyOp38
 70
     1
102
RTVSPropertyOp39
 70
     1
102
RTVSPropertyOp40
 70
     1
102
RTVSPropertyOp41
 70
     1
102
RTVSPropertyOp42
 70
     1
102
RTVSPropertyOp43
 70
     1
102
RTVSPropertyOp44
 70
     1
102
RTVSPropertyOp45
 70
     1
102
RTVSPropertyOp46
 70
     1
102
RTVSPropertyOp47
 70
     1
102
RTVSPropertyOp48
 70
     1
102
RTVSPropertyOp49
 70
     1
102
RTVSPropertyOp50
 70
     1
102
RTVSPropertyOp51
 70
     0
102
RTVSPropertyOp52
 70
     0
102
RTVSPropertyOp53
 70
     1
102
RTVSPropertyOp54
 70
     1
102
RTVSPropertyOp55
 70
     1
102
RTVSPropertyOp56
 70
     1
102
RTVSPropertyOp57
 70
     1
102
RTVSPropertyOp58
 70
     1
102
RTVSPropertyOp59
 70
     1
102
RTVSPropertyOp60
 70
     1
102
RTVSPropertyOp61
 70
     1
102
RTVSPropertyOp62
 70
     1
  0
XRECORD
  5
861F
102
{ACAD_REACTORS
330
861E
102
}
330
861E
100
AcDbXrecord
280
     1
102
RTVSPost2010Prop28
280
     0
102
RTVSPost2010PropOp28
 70
     1
102
RTVSPost2010Prop29
280
     1
102
RTVSPost2010PropOp29
 70
     1
102
RTVSPost2010Prop30
280
     1
102
RTVSPost2010PropOp30
 70
     1
102
RTVSPost2010Prop31
280
     0
102
RTVSPost2010PropOp31
 70
     1
102
RTVSPost2010Prop32
280
     0
102
RTVSPost2010PropOp32
 70
     1
102
RTVSPost2010Prop33
280
     0
102
RTVSPost2010PropOp33
 70
     1
102
RTVSPost2010Prop34
280
     0
102
RTVSPost2010PropOp34
 70
     1
102
RTVSPost2010Prop35
280
     0
102
RTVSPost2010PropOp35
 70
     1
102
RTVSPost2010Prop36
280
     0
102
RTVSPost2010PropOp36
 70
     1
102
RTVSPost2010Prop37
 90
       50
102
RTVSPost2010PropOp37
 70
     1
102
RTVSPost2010Prop38
140
0.0
102
RTVSPost2010PropOp38
 70
     1
102
RTVSPost2010Prop39
140
1.0
102
RTVSPost2010PropOp39
 70
     1
102
RTVSPost2010Prop40
 90
        0
102
RTVSPost2010PropOp40
 70
     1
102
RTVSPost2010Prop41ColorIndex
 90
       18
102
RTVSPost2010Prop41ColorRGB
 90
        0
102
RTVSPost2010PropOp41
 70
     1
102
RTVSPost2010Prop42
 90
       50
102
RTVSPost2010PropOp42
 70
     1
102
RTVSPost2010Prop43
 90
        3
102
RTVSPost2010PropOp43
 70
     1
102
RTVSPost2010Prop44ColorIndex
 90
        5
102
RTVSPost2010Prop44ColorRGB
 90
      255
102
RTVSPost2010PropOp44
 70
     1
102
RTVSPost2010Prop45
280
     0
102
RTVSPost2010PropOp45
 70
     1
102
RTVSPost2010Prop46
 90
       50
102
RTVSPost2010PropOp46
 70
     1
102
RTVSPost2010Prop47
 90
       50
102
RTVSPost2010PropOp47
 70
     1
102
RTVSPost2010Prop48
 90
       50
102
RTVSPost2010PropOp48
 70
     1
102
RTVSPost2010Prop49
280
     0
102
RTVSPost2010PropOp49
 70
     1
102
RTVSPost2010Prop50
 90
       50
102
RTVSPost2010PropOp50
 70
     1
102
RTVSPost2010Prop51ColorIndex
 90
      256
102
RTVSPost2010Prop51ColorRGB
 90
-16777216
102
RTVSPost2010PropOp51
 70
     0
102
RTVSPost2010Prop52
140
1.0
102
RTVSPost2010PropOp52
 70
     0
102
RTVSPost2010Prop53
 90
        2
102
RTVSPost2010PropOp53
 70
     1
102
RTVSPost2010Prop54
  1
strokes_ogs.tif
102
RTVSPost2010PropOp54
 70
     1
102
RTVSPost2010Prop55
280
     0
102
RTVSPost2010PropOp55
 70
     1
102
RTVSPost2010Prop56
140
1.0
102
RTVSPost2010PropOp56
 70
     1
102
RTVSPost2010Prop57
140
1.0
102
RTVSPost2010PropOp57
 70
     1
102
RTVSPropertyOp0
 70
     1
102
RTVSPropertyOp1
 70
     1
102
RTVSPropertyOp2
 70
     1
102
RTVSPropertyOp3
 70
     1
102
RTVSPropertyOp4
 70
     1
102
RTVSPropertyOp5
 70
     1
102
RTVSPropertyOp6
 70
     1
102
RTVSPropertyOp7
 70
     1
102
RTVSPropertyOp8
 70
     1
102
RTVSPropertyOp9
 70
     1
102
RTVSPropertyOp10
 70
     1
102
RTVSPropertyOp11
 70
     1
102
RTVSPropertyOp12
 70
     1
102
RTVSPropertyOp13
 70
     1
102
RTVSPropertyOp14
 70
     1
102
RTVSPropertyOp15
 70
     1
102
RTVSPropertyOp16
 70
     1
102
RTVSPropertyOp17
 70
     1
102
RTVSPropertyOp18
 70
     1
102
RTVSPropertyOp19
 70
     1
102
RTVSPropertyOp20
 70
     1
102
RTVSPropertyOp21
 70
     1
102
RTVSPropertyOp22
 70
     1
102
RTVSPropertyOp23
 70
     1
102
RTVSPropertyOp24
 70
     1
102
RTVSPropertyOp25
 70
     1
102
RTVSPropertyOp26
 70
     1
102
RTVSPropertyOp27
 70
     1
102
RTVSPropertyOp28
 70
     1
102
RTVSPropertyOp29
 70
     1
102
RTVSPropertyOp30
 70
     1
102
RTVSPropertyOp31
 70
     1
102
RTVSPropertyOp32
 70
     1
102
RTVSPropertyOp33
 70
     1
102
RTVSPropertyOp34
 70
     1
102
RTVSPropertyOp35
 70
     1
102
RTVSPropertyOp36
 70
     1
102
RTVSPropertyOp37
 70
     1
102
RTVSPropertyOp38
 70
     1
102
RTVSPropertyOp39
 70
     1
102
RTVSPropertyOp40
 70
     1
102
RTVSPropertyOp41
 70
     1
102
RTVSPropertyOp42
 70
     1
102
RTVSPropertyOp43
 70
     1
102
RTVSPropertyOp44
 70
     1
102
RTVSPropertyOp45
 70
     1
102
RTVSPropertyOp46
 70
     1
102
RTVSPropertyOp47
 70
     1
102
RTVSPropertyOp48
 70
     1
102
RTVSPropertyOp49
 70
     1
102
RTVSPropertyOp50
 70
     1
102
RTVSPropertyOp51
 70
     0
102
RTVSPropertyOp52
 70
     0
102
RTVSPropertyOp53
 70
     1
102
RTVSPropertyOp54
 70
     1
102
RTVSPropertyOp55
 70
     1
102
RTVSPropertyOp56
 70
     1
102
RTVSPropertyOp57
 70
     1
102
RTVSPropertyOp58
 70
     1
102
RTVSPropertyOp59
 70
     1
102
RTVSPropertyOp60
 70
     1
102
RTVSPropertyOp61
 70
     1
102
RTVSPropertyOp62
 70
     1
  0
XRECORD
  5
862D
102
{ACAD_REACTORS
330
862C
102
}
330
862C
100
AcDbXrecord
280
     1
102
RTVSPost2010Prop28
280
     0
102
RTVSPost2010PropOp28
 70
     1
102
RTVSPost2010Prop29
280
     1
102
RTVSPost2010PropOp29
 70
     1
102
RTVSPost2010Prop30
280
     1
102
RTVSPost2010PropOp30
 70
     1
102
RTVSPost2010Prop31
280
     0
102
RTVSPost2010PropOp31
 70
     1
102
RTVSPost2010Prop32
280
     0
102
RTVSPost2010PropOp32
 70
     1
102
RTVSPost2010Prop33
280
     0
102
RTVSPost2010PropOp33
 70
     1
102
RTVSPost2010Prop34
280
     0
102
RTVSPost2010PropOp34
 70
     1
102
RTVSPost2010Prop35
280
     0
102
RTVSPost2010PropOp35
 70
     1
102
RTVSPost2010Prop36
280
     0
102
RTVSPost2010PropOp36
 70
     1
102
RTVSPost2010Prop37
 90
       50
102
RTVSPost2010PropOp37
 70
     1
102
RTVSPost2010Prop38
140
0.0
102
RTVSPost2010PropOp38
 70
     1
102
RTVSPost2010Prop39
140
1.0
102
RTVSPost2010PropOp39
 70
     1
102
RTVSPost2010Prop40
 90
        0
102
RTVSPost2010PropOp40
 70
     1
102
RTVSPost2010Prop41ColorIndex
 90
       18
102
RTVSPost2010Prop41ColorRGB
 90
        0
102
RTVSPost2010PropOp41
 70
     1
102
RTVSPost2010Prop42
 90
       50
102
RTVSPost2010PropOp42
 70
     1
102
RTVSPost2010Prop43
 90
        3
102
RTVSPost2010PropOp43
 70
     1
102
RTVSPost2010Prop44ColorIndex
 90
        5
102
RTVSPost2010Prop44ColorRGB
 90
      255
102
RTVSPost2010PropOp44
 70
     1
102
RTVSPost2010Prop45
280
     0
102
RTVSPost2010PropOp45
 70
     1
102
RTVSPost2010Prop46
 90
       50
102
RTVSPost2010PropOp46
 70
     1
102
RTVSPost2010Prop47
 90
       50
102
RTVSPost2010PropOp47
 70
     1
102
RTVSPost2010Prop48
 90
       50
102
RTVSPost2010PropOp48
 70
     1
102
RTVSPost2010Prop49
280
     0
102
RTVSPost2010PropOp49
 70
     1
102
RTVSPost2010Prop50
 90
       50
102
RTVSPost2010PropOp50
 70
     1
102
RTVSPost2010Prop51ColorIndex
 90
      256
102
RTVSPost2010Prop51ColorRGB
 90
-16777216
102
RTVSPost2010PropOp51
 70
     0
102
RTVSPost2010Prop52
140
1.0
102
RTVSPost2010PropOp52
 70
     0
102
RTVSPost2010Prop53
 90
        2
102
RTVSPost2010PropOp53
 70
     1
102
RTVSPost2010Prop54
  1
strokes_ogs.tif
102
RTVSPost2010PropOp54
 70
     1
102
RTVSPost2010Prop55
280
     0
102
RTVSPost2010PropOp55
 70
     1
102
RTVSPost2010Prop56
140
1.0
102
RTVSPost2010PropOp56
 70
     1
102
RTVSPost2010Prop57
140
1.0
102
RTVSPost2010PropOp57
 70
     1
102
RTVSPropertyOp0
 70
     1
102
RTVSPropertyOp1
 70
     1
102
RTVSPropertyOp2
 70
     1
102
RTVSPropertyOp3
 70
     1
102
RTVSPropertyOp4
 70
     1
102
RTVSPropertyOp5
 70
     1
102
RTVSPropertyOp6
 70
     1
102
RTVSPropertyOp7
 70
     1
102
RTVSPropertyOp8
 70
     1
102
RTVSPropertyOp9
 70
     1
102
RTVSPropertyOp10
 70
     1
102
RTVSPropertyOp11
 70
     1
102
RTVSPropertyOp12
 70
     1
102
RTVSPropertyOp13
 70
     1
102
RTVSPropertyOp14
 70
     1
102
RTVSPropertyOp15
 70
     1
102
RTVSPropertyOp16
 70
     1
102
RTVSPropertyOp17
 70
     1
102
RTVSPropertyOp18
 70
     1
102
RTVSPropertyOp19
 70
     1
102
RTVSPropertyOp20
 70
     1
102
RTVSPropertyOp21
 70
     1
102
RTVSPropertyOp22
 70
     1
102
RTVSPropertyOp23
 70
     1
102
RTVSPropertyOp24
 70
     1
102
RTVSPropertyOp25
 70
     1
102
RTVSPropertyOp26
 70
     1
102
RTVSPropertyOp27
 70
     1
102
RTVSPropertyOp28
 70
     1
102
RTVSPropertyOp29
 70
     1
102
RTVSPropertyOp30
 70
     1
102
RTVSPropertyOp31
 70
     1
102
RTVSPropertyOp32
 70
     1
102
RTVSPropertyOp33
 70
     1
102
RTVSPropertyOp34
 70
     1
102
RTVSPropertyOp35
 70
     1
102
RTVSPropertyOp36
 70
     1
102
RTVSPropertyOp37
 70
     1
102
RTVSPropertyOp38
 70
     1
102
RTVSPropertyOp39
 70
     1
102
RTVSPropertyOp40
 70
     1
102
RTVSPropertyOp41
 70
     1
102
RTVSPropertyOp42
 70
     1
102
RTVSPropertyOp43
 70
     1
102
RTVSPropertyOp44
 70
     1
102
RTVSPropertyOp45
 70
     1
102
RTVSPropertyOp46
 70
     1
102
RTVSPropertyOp47
 70
     1
102
RTVSPropertyOp48
 70
     1
102
RTVSPropertyOp49
 70
     1
102
RTVSPropertyOp50
 70
     1
102
RTVSPropertyOp51
 70
     0
102
RTVSPropertyOp52
 70
     0
102
RTVSPropertyOp53
 70
     1
102
RTVSPropertyOp54
 70
     1
102
RTVSPropertyOp55
 70
     1
102
RTVSPropertyOp56
 70
     1
102
RTVSPropertyOp57
 70
     1
102
RTVSPropertyOp58
 70
     1
102
RTVSPropertyOp59
 70
     1
102
RTVSPropertyOp60
 70
     1
102
RTVSPropertyOp61
 70
     1
102
RTVSPropertyOp62
 70
     1
  0
XRECORD
  5
8635
102
{ACAD_REACTORS
330
8634
102
}
330
8634
100
AcDbXrecord
280
     1
102
RTVSPost2010Prop28
280
     0
102
RTVSPost2010PropOp28
 70
     1
102
RTVSPost2010Prop29
280
     1
102
RTVSPost2010PropOp29
 70
     1
102
RTVSPost2010Prop30
280
     1
102
RTVSPost2010PropOp30
 70
     1
102
RTVSPost2010Prop31
280
     0
102
RTVSPost2010PropOp31
 70
     1
102
RTVSPost2010Prop32
280
     0
102
RTVSPost2010PropOp32
 70
     1
102
RTVSPost2010Prop33
280
     0
102
RTVSPost2010PropOp33
 70
     1
102
RTVSPost2010Prop34
280
     0
102
RTVSPost2010PropOp34
 70
     1
102
RTVSPost2010Prop35
280
     0
102
RTVSPost2010PropOp35
 70
     1
102
RTVSPost2010Prop36
280
     0
102
RTVSPost2010PropOp36
 70
     1
102
RTVSPost2010Prop37
 90
       50
102
RTVSPost2010PropOp37
 70
     1
102
RTVSPost2010Prop38
140
0.0
102
RTVSPost2010PropOp38
 70
     1
102
RTVSPost2010Prop39
140
1.0
102
RTVSPost2010PropOp39
 70
     1
102
RTVSPost2010Prop40
 90
        0
102
RTVSPost2010PropOp40
 70
     1
102
RTVSPost2010Prop41ColorIndex
 90
       18
102
RTVSPost2010Prop41ColorRGB
 90
        0
102
RTVSPost2010PropOp41
 70
     1
102
RTVSPost2010Prop42
 90
       50
102
RTVSPost2010PropOp42
 70
     1
102
RTVSPost2010Prop43
 90
        3
102
RTVSPost2010PropOp43
 70
     1
102
RTVSPost2010Prop44ColorIndex
 90
        5
102
RTVSPost2010Prop44ColorRGB
 90
      255
102
RTVSPost2010PropOp44
 70
     1
102
RTVSPost2010Prop45
280
     0
102
RTVSPost2010PropOp45
 70
     1
102
RTVSPost2010Prop46
 90
       50
102
RTVSPost2010PropOp46
 70
     1
102
RTVSPost2010Prop47
 90
       50
102
RTVSPost2010PropOp47
 70
     1
102
RTVSPost2010Prop48
 90
       50
102
RTVSPost2010PropOp48
 70
     1
102
RTVSPost2010Prop49
280
     0
102
RTVSPost2010PropOp49
 70
     1
102
RTVSPost2010Prop50
 90
       50
102
RTVSPost2010PropOp50
 70
     1
102
RTVSPost2010Prop51ColorIndex
 90
      256
102
RTVSPost2010Prop51ColorRGB
 90
-16777216
102
RTVSPost2010PropOp51
 70
     0
102
RTVSPost2010Prop52
140
1.0
102
RTVSPost2010PropOp52
 70
     0
102
RTVSPost2010Prop53
 90
        2
102
RTVSPost2010PropOp53
 70
     1
102
RTVSPost2010Prop54
  1
strokes_ogs.tif
102
RTVSPost2010PropOp54
 70
     1
102
RTVSPost2010Prop55
280
     0
102
RTVSPost2010PropOp55
 70
     1
102
RTVSPost2010Prop56
140
1.0
102
RTVSPost2010PropOp56
 70
     1
102
RTVSPost2010Prop57
140
1.0
102
RTVSPost2010PropOp57
 70
     1
102
RTVSPropertyOp0
 70
     1
102
RTVSPropertyOp1
 70
     1
102
RTVSPropertyOp2
 70
     1
102
RTVSPropertyOp3
 70
     1
102
RTVSPropertyOp4
 70
     1
102
RTVSPropertyOp5
 70
     1
102
RTVSPropertyOp6
 70
     1
102
RTVSPropertyOp7
 70
     1
102
RTVSPropertyOp8
 70
     1
102
RTVSPropertyOp9
 70
     1
102
RTVSPropertyOp10
 70
     1
102
RTVSPropertyOp11
 70
     1
102
RTVSPropertyOp12
 70
     1
102
RTVSPropertyOp13
 70
     1
102
RTVSPropertyOp14
 70
     1
102
RTVSPropertyOp15
 70
     1
102
RTVSPropertyOp16
 70
     1
102
RTVSPropertyOp17
 70
     1
102
RTVSPropertyOp18
 70
     1
102
RTVSPropertyOp19
 70
     1
102
RTVSPropertyOp20
 70
     1
102
RTVSPropertyOp21
 70
     1
102
RTVSPropertyOp22
 70
     1
102
RTVSPropertyOp23
 70
     1
102
RTVSPropertyOp24
 70
     1
102
RTVSPropertyOp25
 70
     1
102
RTVSPropertyOp26
 70
     1
102
RTVSPropertyOp27
 70
     1
102
RTVSPropertyOp28
 70
     1
102
RTVSPropertyOp29
 70
     1
102
RTVSPropertyOp30
 70
     1
102
RTVSPropertyOp31
 70
     1
102
RTVSPropertyOp32
 70
     1
102
RTVSPropertyOp33
 70
     1
102
RTVSPropertyOp34
 70
     1
102
RTVSPropertyOp35
 70
     1
102
RTVSPropertyOp36
 70
     1
102
RTVSPropertyOp37
 70
     1
102
RTVSPropertyOp38
 70
     1
102
RTVSPropertyOp39
 70
     1
102
RTVSPropertyOp40
 70
     1
102
RTVSPropertyOp41
 70
     1
102
RTVSPropertyOp42
 70
     1
102
RTVSPropertyOp43
 70
     1
102
RTVSPropertyOp44
 70
     1
102
RTVSPropertyOp45
 70
     1
102
RTVSPropertyOp46
 70
     1
102
RTVSPropertyOp47
 70
     1
102
RTVSPropertyOp48
 70
     1
102
RTVSPropertyOp49
 70
     1
102
RTVSPropertyOp50
 70
     1
102
RTVSPropertyOp51
 70
     0
102
RTVSPropertyOp52
 70
     0
102
RTVSPropertyOp53
 70
     1
102
RTVSPropertyOp54
 70
     1
102
RTVSPropertyOp55
 70
     1
102
RTVSPropertyOp56
 70
     1
102
RTVSPropertyOp57
 70
     1
102
RTVSPropertyOp58
 70
     1
102
RTVSPropertyOp59
 70
     1
102
RTVSPropertyOp60
 70
     1
102
RTVSPropertyOp61
 70
     1
102
RTVSPropertyOp62
 70
     1
  0
XRECORD
  5
8627
102
{ACAD_REACTORS
330
8626
102
}
330
8626
100
AcDbXrecord
280
     1
102
RTVSPost2010Prop28
280
     0
102
RTVSPost2010PropOp28
 70
     1
102
RTVSPost2010Prop29
280
     1
102
RTVSPost2010PropOp29
 70
     1
102
RTVSPost2010Prop30
280
     1
102
RTVSPost2010PropOp30
 70
     1
102
RTVSPost2010Prop31
280
     0
102
RTVSPost2010PropOp31
 70
     1
102
RTVSPost2010Prop32
280
     0
102
RTVSPost2010PropOp32
 70
     1
102
RTVSPost2010Prop33
280
     0
102
RTVSPost2010PropOp33
 70
     1
102
RTVSPost2010Prop34
280
     0
102
RTVSPost2010PropOp34
 70
     1
102
RTVSPost2010Prop35
280
     0
102
RTVSPost2010PropOp35
 70
     1
102
RTVSPost2010Prop36
280
     0
102
RTVSPost2010PropOp36
 70
     1
102
RTVSPost2010Prop37
 90
       50
102
RTVSPost2010PropOp37
 70
     1
102
RTVSPost2010Prop38
140
0.0
102
RTVSPost2010PropOp38
 70
     1
102
RTVSPost2010Prop39
140
1.0
102
RTVSPost2010PropOp39
 70
     1
102
RTVSPost2010Prop40
 90
        0
102
RTVSPost2010PropOp40
 70
     1
102
RTVSPost2010Prop41ColorIndex
 90
       18
102
RTVSPost2010Prop41ColorRGB
 90
        0
102
RTVSPost2010PropOp41
 70
     1
102
RTVSPost2010Prop42
 90
       50
102
RTVSPost2010PropOp42
 70
     1
102
RTVSPost2010Prop43
 90
        3
102
RTVSPost2010PropOp43
 70
     1
102
RTVSPost2010Prop44ColorIndex
 90
        5
102
RTVSPost2010Prop44ColorRGB
 90
      255
102
RTVSPost2010PropOp44
 70
     1
102
RTVSPost2010Prop45
280
     0
102
RTVSPost2010PropOp45
 70
     1
102
RTVSPost2010Prop46
 90
       50
102
RTVSPost2010PropOp46
 70
     1
102
RTVSPost2010Prop47
 90
       50
102
RTVSPost2010PropOp47
 70
     1
102
RTVSPost2010Prop48
 90
       50
102
RTVSPost2010PropOp48
 70
     1
102
RTVSPost2010Prop49
280
     0
102
RTVSPost2010PropOp49
 70
     1
102
RTVSPost2010Prop50
 90
       50
102
RTVSPost2010PropOp50
 70
     1
102
RTVSPost2010Prop51ColorIndex
 90
      256
102
RTVSPost2010Prop51ColorRGB
 90
-16777216
102
RTVSPost2010PropOp51
 70
     0
102
RTVSPost2010Prop52
140
1.0
102
RTVSPost2010PropOp52
 70
     0
102
RTVSPost2010Prop53
 90
        2
102
RTVSPost2010PropOp53
 70
     1
102
RTVSPost2010Prop54
  1
strokes_ogs.tif
102
RTVSPost2010PropOp54
 70
     1
102
RTVSPost2010Prop55
280
     0
102
RTVSPost2010PropOp55
 70
     1
102
RTVSPost2010Prop56
140
1.0
102
RTVSPost2010PropOp56
 70
     1
102
RTVSPost2010Prop57
140
1.0
102
RTVSPost2010PropOp57
 70
     1
102
RTVSPropertyOp0
 70
     1
102
RTVSPropertyOp1
 70
     1
102
RTVSPropertyOp2
 70
     1
102
RTVSPropertyOp3
 70
     1
102
RTVSPropertyOp4
 70
     1
102
RTVSPropertyOp5
 70
     1
102
RTVSPropertyOp6
 70
     1
102
RTVSPropertyOp7
 70
     1
102
RTVSPropertyOp8
 70
     1
102
RTVSPropertyOp9
 70
     1
102
RTVSPropertyOp10
 70
     1
102
RTVSPropertyOp11
 70
     1
102
RTVSPropertyOp12
 70
     1
102
RTVSPropertyOp13
 70
     1
102
RTVSPropertyOp14
 70
     1
102
RTVSPropertyOp15
 70
     1
102
RTVSPropertyOp16
 70
     1
102
RTVSPropertyOp17
 70
     1
102
RTVSPropertyOp18
 70
     1
102
RTVSPropertyOp19
 70
     1
102
RTVSPropertyOp20
 70
     1
102
RTVSPropertyOp21
 70
     1
102
RTVSPropertyOp22
 70
     1
102
RTVSPropertyOp23
 70
     1
102
RTVSPropertyOp24
 70
     1
102
RTVSPropertyOp25
 70
     1
102
RTVSPropertyOp26
 70
     1
102
RTVSPropertyOp27
 70
     1
102
RTVSPropertyOp28
 70
     1
102
RTVSPropertyOp29
 70
     1
102
RTVSPropertyOp30
 70
     1
102
RTVSPropertyOp31
 70
     1
102
RTVSPropertyOp32
 70
     1
102
RTVSPropertyOp33
 70
     1
102
RTVSPropertyOp34
 70
     1
102
RTVSPropertyOp35
 70
     1
102
RTVSPropertyOp36
 70
     1
102
RTVSPropertyOp37
 70
     1
102
RTVSPropertyOp38
 70
     1
102
RTVSPropertyOp39
 70
     1
102
RTVSPropertyOp40
 70
     1
102
RTVSPropertyOp41
 70
     1
102
RTVSPropertyOp42
 70
     1
102
RTVSPropertyOp43
 70
     1
102
RTVSPropertyOp44
 70
     1
102
RTVSPropertyOp45
 70
     1
102
RTVSPropertyOp46
 70
     1
102
RTVSPropertyOp47
 70
     1
102
RTVSPropertyOp48
 70
     1
102
RTVSPropertyOp49
 70
     1
102
RTVSPropertyOp50
 70
     1
102
RTVSPropertyOp51
 70
     0
102
RTVSPropertyOp52
 70
     0
102
RTVSPropertyOp53
 70
     1
102
RTVSPropertyOp54
 70
     1
102
RTVSPropertyOp55
 70
     1
102
RTVSPropertyOp56
 70
     1
102
RTVSPropertyOp57
 70
     1
102
RTVSPropertyOp58
 70
     1
102
RTVSPropertyOp59
 70
     1
102
RTVSPropertyOp60
 70
     1
102
RTVSPropertyOp61
 70
     1
102
RTVSPropertyOp62
 70
     1
  0
XRECORD
  5
862B
102
{ACAD_REACTORS
330
862A
102
}
330
862A
100
AcDbXrecord
280
     1
102
RTVSPost2010Prop28
280
     0
102
RTVSPost2010PropOp28
 70
     1
102
RTVSPost2010Prop29
280
     1
102
RTVSPost2010PropOp29
 70
     1
102
RTVSPost2010Prop30
280
     1
102
RTVSPost2010PropOp30
 70
     1
102
RTVSPost2010Prop31
280
     0
102
RTVSPost2010PropOp31
 70
     1
102
RTVSPost2010Prop32
280
     0
102
RTVSPost2010PropOp32
 70
     1
102
RTVSPost2010Prop33
280
     0
102
RTVSPost2010PropOp33
 70
     1
102
RTVSPost2010Prop34
280
     0
102
RTVSPost2010PropOp34
 70
     1
102
RTVSPost2010Prop35
280
     0
102
RTVSPost2010PropOp35
 70
     1
102
RTVSPost2010Prop36
280
     0
102
RTVSPost2010PropOp36
 70
     1
102
RTVSPost2010Prop37
 90
       50
102
RTVSPost2010PropOp37
 70
     1
102
RTVSPost2010Prop38
140
0.0
102
RTVSPost2010PropOp38
 70
     1
102
RTVSPost2010Prop39
140
1.0
102
RTVSPost2010PropOp39
 70
     1
102
RTVSPost2010Prop40
 90
        0
102
RTVSPost2010PropOp40
 70
     1
102
RTVSPost2010Prop41ColorIndex
 90
       18
102
RTVSPost2010Prop41ColorRGB
 90
        0
102
RTVSPost2010PropOp41
 70
     1
102
RTVSPost2010Prop42
 90
       50
102
RTVSPost2010PropOp42
 70
     1
102
RTVSPost2010Prop43
 90
        3
102
RTVSPost2010PropOp43
 70
     1
102
RTVSPost2010Prop44ColorIndex
 90
        5
102
RTVSPost2010Prop44ColorRGB
 90
      255
102
RTVSPost2010PropOp44
 70
     1
102
RTVSPost2010Prop45
280
     0
102
RTVSPost2010PropOp45
 70
     1
102
RTVSPost2010Prop46
 90
       50
102
RTVSPost2010PropOp46
 70
     1
102
RTVSPost2010Prop47
 90
       50
102
RTVSPost2010PropOp47
 70
     1
102
RTVSPost2010Prop48
 90
       50
102
RTVSPost2010PropOp48
 70
     1
102
RTVSPost2010Prop49
280
     0
102
RTVSPost2010PropOp49
 70
     1
102
RTVSPost2010Prop50
 90
       50
102
RTVSPost2010PropOp50
 70
     1
102
RTVSPost2010Prop51ColorIndex
 90
      256
102
RTVSPost2010Prop51ColorRGB
 90
-16777216
102
RTVSPost2010PropOp51
 70
     0
102
RTVSPost2010Prop52
140
1.0
102
RTVSPost2010PropOp52
 70
     0
102
RTVSPost2010Prop53
 90
        2
102
RTVSPost2010PropOp53
 70
     1
102
RTVSPost2010Prop54
  1
strokes_ogs.tif
102
RTVSPost2010PropOp54
 70
     1
102
RTVSPost2010Prop55
280
     0
102
RTVSPost2010PropOp55
 70
     1
102
RTVSPost2010Prop56
140
1.0
102
RTVSPost2010PropOp56
 70
     1
102
RTVSPost2010Prop57
140
1.0
102
RTVSPost2010PropOp57
 70
     1
102
RTVSPropertyOp0
 70
     1
102
RTVSPropertyOp1
 70
     1
102
RTVSPropertyOp2
 70
     1
102
RTVSPropertyOp3
 70
     1
102
RTVSPropertyOp4
 70
     1
102
RTVSPropertyOp5
 70
     1
102
RTVSPropertyOp6
 70
     1
102
RTVSPropertyOp7
 70
     1
102
RTVSPropertyOp8
 70
     1
102
RTVSPropertyOp9
 70
     1
102
RTVSPropertyOp10
 70
     1
102
RTVSPropertyOp11
 70
     1
102
RTVSPropertyOp12
 70
     1
102
RTVSPropertyOp13
 70
     1
102
RTVSPropertyOp14
 70
     1
102
RTVSPropertyOp15
 70
     1
102
RTVSPropertyOp16
 70
     1
102
RTVSPropertyOp17
 70
     1
102
RTVSPropertyOp18
 70
     1
102
RTVSPropertyOp19
 70
     1
102
RTVSPropertyOp20
 70
     1
102
RTVSPropertyOp21
 70
     1
102
RTVSPropertyOp22
 70
     1
102
RTVSPropertyOp23
 70
     1
102
RTVSPropertyOp24
 70
     1
102
RTVSPropertyOp25
 70
     1
102
RTVSPropertyOp26
 70
     1
102
RTVSPropertyOp27
 70
     1
102
RTVSPropertyOp28
 70
     1
102
RTVSPropertyOp29
 70
     1
102
RTVSPropertyOp30
 70
     1
102
RTVSPropertyOp31
 70
     1
102
RTVSPropertyOp32
 70
     1
102
RTVSPropertyOp33
 70
     1
102
RTVSPropertyOp34
 70
     1
102
RTVSPropertyOp35
 70
     1
102
RTVSPropertyOp36
 70
     1
102
RTVSPropertyOp37
 70
     1
102
RTVSPropertyOp38
 70
     1
102
RTVSPropertyOp39
 70
     1
102
RTVSPropertyOp40
 70
     1
102
RTVSPropertyOp41
 70
     1
102
RTVSPropertyOp42
 70
     1
102
RTVSPropertyOp43
 70
     1
102
RTVSPropertyOp44
 70
     1
102
RTVSPropertyOp45
 70
     1
102
RTVSPropertyOp46
 70
     1
102
RTVSPropertyOp47
 70
     1
102
RTVSPropertyOp48
 70
     1
102
RTVSPropertyOp49
 70
     1
102
RTVSPropertyOp50
 70
     1
102
RTVSPropertyOp51
 70
     0
102
RTVSPropertyOp52
 70
     0
102
RTVSPropertyOp53
 70
     1
102
RTVSPropertyOp54
 70
     1
102
RTVSPropertyOp55
 70
     1
102
RTVSPropertyOp56
 70
     1
102
RTVSPropertyOp57
 70
     1
102
RTVSPropertyOp58
 70
     1
102
RTVSPropertyOp59
 70
     1
102
RTVSPropertyOp60
 70
     1
102
RTVSPropertyOp61
 70
     1
102
RTVSPropertyOp62
 70
     1
  0
XRECORD
  5
8645
102
{ACAD_REACTORS
330
8644
102
}
330
8644
100
AcDbXrecord
280
     1
102
RTVSPost2010Prop28
280
     0
102
RTVSPost2010PropOp28
 70
     1
102
RTVSPost2010Prop29
280
     1
102
RTVSPost2010PropOp29
 70
     1
102
RTVSPost2010Prop30
280
     1
102
RTVSPost2010PropOp30
 70
     1
102
RTVSPost2010Prop31
280
     0
102
RTVSPost2010PropOp31
 70
     1
102
RTVSPost2010Prop32
280
     0
102
RTVSPost2010PropOp32
 70
     1
102
RTVSPost2010Prop33
280
     0
102
RTVSPost2010PropOp33
 70
     1
102
RTVSPost2010Prop34
280
     0
102
RTVSPost2010PropOp34
 70
     1
102
RTVSPost2010Prop35
280
     0
102
RTVSPost2010PropOp35
 70
     1
102
RTVSPost2010Prop36
280
     0
102
RTVSPost2010PropOp36
 70
     1
102
RTVSPost2010Prop37
 90
       50
102
RTVSPost2010PropOp37
 70
     0
102
RTVSPost2010Prop38
140
0.0
102
RTVSPost2010PropOp38
 70
     0
102
RTVSPost2010Prop39
140
1.0
102
RTVSPost2010PropOp39
 70
     0
102
RTVSPost2010Prop40
 90
        0
102
RTVSPost2010PropOp40
 70
     0
102
RTVSPost2010Prop41ColorIndex
 90
       18
102
RTVSPost2010Prop41ColorRGB
 90
        0
102
RTVSPost2010PropOp41
 70
     0
102
RTVSPost2010Prop42
 90
       50
102
RTVSPost2010PropOp42
 70
     0
102
RTVSPost2010Prop43
 90
        3
102
RTVSPost2010PropOp43
 70
     0
102
RTVSPost2010Prop44ColorIndex
 90
        5
102
RTVSPost2010Prop44ColorRGB
 90
      255
102
RTVSPost2010PropOp44
 70
     0
102
RTVSPost2010Prop45
280
     0
102
RTVSPost2010PropOp45
 70
     1
102
RTVSPost2010Prop46
 90
       50
102
RTVSPost2010PropOp46
 70
     0
102
RTVSPost2010Prop47
 90
       50
102
RTVSPost2010PropOp47
 70
     0
102
RTVSPost2010Prop48
 90
       50
102
RTVSPost2010PropOp48
 70
     0
102
RTVSPost2010Prop49
280
     0
102
RTVSPost2010PropOp49
 70
     1
102
RTVSPost2010Prop50
 90
       50
102
RTVSPost2010PropOp50
 70
     0
102
RTVSPost2010Prop51ColorIndex
 90
      256
102
RTVSPost2010Prop51ColorRGB
 90
-16777216
102
RTVSPost2010PropOp51
 70
     0
102
RTVSPost2010Prop52
140
1.0
102
RTVSPost2010PropOp52
 70
     0
102
RTVSPost2010Prop53
 90
        2
102
RTVSPost2010PropOp53
 70
     0
102
RTVSPost2010Prop54
  1
strokes_ogs.tif
102
RTVSPost2010PropOp54
 70
     0
102
RTVSPost2010Prop55
280
     0
102
RTVSPost2010PropOp55
 70
     1
102
RTVSPost2010Prop56
140
1.0
102
RTVSPost2010PropOp56
 70
     0
102
RTVSPost2010Prop57
140
1.0
102
RTVSPost2010PropOp57
 70
     0
102
RTVSPropertyOp0
 70
     0
102
RTVSPropertyOp1
 70
     0
102
RTVSPropertyOp2
 70
     0
102
RTVSPropertyOp3
 70
     0
102
RTVSPropertyOp4
 70
     0
102
RTVSPropertyOp5
 70
     0
102
RTVSPropertyOp6
 70
     0
102
RTVSPropertyOp7
 70
     0
102
RTVSPropertyOp8
 70
     0
102
RTVSPropertyOp9
 70
     0
102
RTVSPropertyOp10
 70
     0
102
RTVSPropertyOp11
 70
     0
102
RTVSPropertyOp12
 70
     0
102
RTVSPropertyOp13
 70
     0
102
RTVSPropertyOp14
 70
     2
102
RTVSPropertyOp15
 70
     0
102
RTVSPropertyOp16
 70
     0
102
RTVSPropertyOp17
 70
     0
102
RTVSPropertyOp18
 70
     0
102
RTVSPropertyOp19
 70
     0
102
RTVSPropertyOp20
 70
     0
102
RTVSPropertyOp21
 70
     0
102
RTVSPropertyOp22
 70
     0
102
RTVSPropertyOp23
 70
     0
102
RTVSPropertyOp24
 70
     0
102
RTVSPropertyOp25
 70
     0
102
RTVSPropertyOp26
 70
     0
102
RTVSPropertyOp27
 70
     0
102
RTVSPropertyOp28
 70
     1
102
RTVSPropertyOp29
 70
     1
102
RTVSPropertyOp30
 70
     1
102
RTVSPropertyOp31
 70
     1
102
RTVSPropertyOp32
 70
     1
102
RTVSPropertyOp33
 70
     1
102
RTVSPropertyOp34
 70
     1
102
RTVSPropertyOp35
 70
     1
102
RTVSPropertyOp36
 70
     1
102
RTVSPropertyOp37
 70
     0
102
RTVSPropertyOp38
 70
     0
102
RTVSPropertyOp39
 70
     0
102
RTVSPropertyOp40
 70
     0
102
RTVSPropertyOp41
 70
     0
102
RTVSPropertyOp42
 70
     0
102
RTVSPropertyOp43
 70
     0
102
RTVSPropertyOp44
 70
     0
102
RTVSPropertyOp45
 70
     1
102
RTVSPropertyOp46
 70
     0
102
RTVSPropertyOp47
 70
     0
102
RTVSPropertyOp48
 70
     0
102
RTVSPropertyOp49
 70
     1
102
RTVSPropertyOp50
 70
     0
102
RTVSPropertyOp51
 70
     0
102
RTVSPropertyOp52
 70
     0
102
RTVSPropertyOp53
 70
     0
102
RTVSPropertyOp54
 70
     0
102
RTVSPropertyOp55
 70
     1
102
RTVSPropertyOp56
 70
     0
102
RTVSPropertyOp57
 70
     0
102
RTVSPropertyOp58
 70
     0
102
RTVSPropertyOp59
 70
     0
102
RTVSPropertyOp60
 70
     0
102
RTVSPropertyOp61
 70
     0
102
RTVSPropertyOp62
 70
     0
  0
XRECORD
  5
8633
102
{ACAD_REACTORS
330
8632
102
}
330
8632
100
AcDbXrecord
280
     1
102
RTVSPost2010Prop28
280
     0
102
RTVSPost2010PropOp28
 70
     1
102
RTVSPost2010Prop29
280
     1
102
RTVSPost2010PropOp29
 70
     1
102
RTVSPost2010Prop30
280
     1
102
RTVSPost2010PropOp30
 70
     1
102
RTVSPost2010Prop31
280
     0
102
RTVSPost2010PropOp31
 70
     1
102
RTVSPost2010Prop32
280
     0
102
RTVSPost2010PropOp32
 70
     1
102
RTVSPost2010Prop33
280
     0
102
RTVSPost2010PropOp33
 70
     1
102
RTVSPost2010Prop34
280
     0
102
RTVSPost2010PropOp34
 70
     1
102
RTVSPost2010Prop35
280
     0
102
RTVSPost2010PropOp35
 70
     1
102
RTVSPost2010Prop36
280
     0
102
RTVSPost2010PropOp36
 70
     1
102
RTVSPost2010Prop37
 90
       50
102
RTVSPost2010PropOp37
 70
     1
102
RTVSPost2010Prop38
140
0.0
102
RTVSPost2010PropOp38
 70
     1
102
RTVSPost2010Prop39
140
1.0
102
RTVSPost2010PropOp39
 70
     1
102
RTVSPost2010Prop40
 90
        0
102
RTVSPost2010PropOp40
 70
     1
102
RTVSPost2010Prop41ColorIndex
 90
       18
102
RTVSPost2010Prop41ColorRGB
 90
        0
102
RTVSPost2010PropOp41
 70
     1
102
RTVSPost2010Prop42
 90
       50
102
RTVSPost2010PropOp42
 70
     1
102
RTVSPost2010Prop43
 90
        3
102
RTVSPost2010PropOp43
 70
     1
102
RTVSPost2010Prop44ColorIndex
 90
        5
102
RTVSPost2010Prop44ColorRGB
 90
      255
102
RTVSPost2010PropOp44
 70
     1
102
RTVSPost2010Prop45
280
     0
102
RTVSPost2010PropOp45
 70
     1
102
RTVSPost2010Prop46
 90
       50
102
RTVSPost2010PropOp46
 70
     1
102
RTVSPost2010Prop47
 90
       50
102
RTVSPost2010PropOp47
 70
     1
102
RTVSPost2010Prop48
 90
       50
102
RTVSPost2010PropOp48
 70
     1
102
RTVSPost2010Prop49
280
     0
102
RTVSPost2010PropOp49
 70
     1
102
RTVSPost2010Prop50
 90
       50
102
RTVSPost2010PropOp50
 70
     1
102
RTVSPost2010Prop51ColorIndex
 90
      256
102
RTVSPost2010Prop51ColorRGB
 90
-16777216
102
RTVSPost2010PropOp51
 70
     0
102
RTVSPost2010Prop52
140
1.0
102
RTVSPost2010PropOp52
 70
     0
102
RTVSPost2010Prop53
 90
        2
102
RTVSPost2010PropOp53
 70
     1
102
RTVSPost2010Prop54
  1
strokes_ogs.tif
102
RTVSPost2010PropOp54
 70
     1
102
RTVSPost2010Prop55
280
     0
102
RTVSPost2010PropOp55
 70
     1
102
RTVSPost2010Prop56
140
1.0
102
RTVSPost2010PropOp56
 70
     1
102
RTVSPost2010Prop57
140
1.0
102
RTVSPost2010PropOp57
 70
     1
102
RTVSPropertyOp0
 70
     1
102
RTVSPropertyOp1
 70
     1
102
RTVSPropertyOp2
 70
     1
102
RTVSPropertyOp3
 70
     1
102
RTVSPropertyOp4
 70
     1
102
RTVSPropertyOp5
 70
     1
102
RTVSPropertyOp6
 70
     1
102
RTVSPropertyOp7
 70
     1
102
RTVSPropertyOp8
 70
     1
102
RTVSPropertyOp9
 70
     1
102
RTVSPropertyOp10
 70
     1
102
RTVSPropertyOp11
 70
     1
102
RTVSPropertyOp12
 70
     1
102
RTVSPropertyOp13
 70
     1
102
RTVSPropertyOp14
 70
     1
102
RTVSPropertyOp15
 70
     1
102
RTVSPropertyOp16
 70
     1
102
RTVSPropertyOp17
 70
     1
102
RTVSPropertyOp18
 70
     1
102
RTVSPropertyOp19
 70
     1
102
RTVSPropertyOp20
 70
     1
102
RTVSPropertyOp21
 70
     1
102
RTVSPropertyOp22
 70
     1
102
RTVSPropertyOp23
 70
     1
102
RTVSPropertyOp24
 70
     1
102
RTVSPropertyOp25
 70
     1
102
RTVSPropertyOp26
 70
     1
102
RTVSPropertyOp27
 70
     1
102
RTVSPropertyOp28
 70
     1
102
RTVSPropertyOp29
 70
     1
102
RTVSPropertyOp30
 70
     1
102
RTVSPropertyOp31
 70
     1
102
RTVSPropertyOp32
 70
     1
102
RTVSPropertyOp33
 70
     1
102
RTVSPropertyOp34
 70
     1
102
RTVSPropertyOp35
 70
     1
102
RTVSPropertyOp36
 70
     1
102
RTVSPropertyOp37
 70
     1
102
RTVSPropertyOp38
 70
     1
102
RTVSPropertyOp39
 70
     1
102
RTVSPropertyOp40
 70
     1
102
RTVSPropertyOp41
 70
     1
102
RTVSPropertyOp42
 70
     1
102
RTVSPropertyOp43
 70
     1
102
RTVSPropertyOp44
 70
     1
102
RTVSPropertyOp45
 70
     1
102
RTVSPropertyOp46
 70
     1
102
RTVSPropertyOp47
 70
     1
102
RTVSPropertyOp48
 70
     1
102
RTVSPropertyOp49
 70
     1
102
RTVSPropertyOp50
 70
     1
102
RTVSPropertyOp51
 70
     0
102
RTVSPropertyOp52
 70
     0
102
RTVSPropertyOp53
 70
     1
102
RTVSPropertyOp54
 70
     1
102
RTVSPropertyOp55
 70
     1
102
RTVSPropertyOp56
 70
     1
102
RTVSPropertyOp57
 70
     1
102
RTVSPropertyOp58
 70
     1
102
RTVSPropertyOp59
 70
     1
102
RTVSPropertyOp60
 70
     1
102
RTVSPropertyOp61
 70
     1
102
RTVSPropertyOp62
 70
     1
  0
XRECORD
  5
8617
102
{ACAD_REACTORS
330
8616
102
}
330
8616
100
AcDbXrecord
280
     1
102
RTVSPost2010Prop28
280
     0
102
RTVSPost2010PropOp28
 70
     1
102
RTVSPost2010Prop29
280
     1
102
RTVSPost2010PropOp29
 70
     1
102
RTVSPost2010Prop30
280
     1
102
RTVSPost2010PropOp30
 70
     1
102
RTVSPost2010Prop31
280
     0
102
RTVSPost2010PropOp31
 70
     1
102
RTVSPost2010Prop32
280
     0
102
RTVSPost2010PropOp32
 70
     1
102
RTVSPost2010Prop33
280
     0
102
RTVSPost2010PropOp33
 70
     1
102
RTVSPost2010Prop34
280
     0
102
RTVSPost2010PropOp34
 70
     1
102
RTVSPost2010Prop35
280
     0
102
RTVSPost2010PropOp35
 70
     1
102
RTVSPost2010Prop36
280
     0
102
RTVSPost2010PropOp36
 70
     1
102
RTVSPost2010Prop37
 90
       50
102
RTVSPost2010PropOp37
 70
     1
102
RTVSPost2010Prop38
140
0.0
102
RTVSPost2010PropOp38
 70
     1
102
RTVSPost2010Prop39
140
1.0
102
RTVSPost2010PropOp39
 70
     1
102
RTVSPost2010Prop40
 90
        0
102
RTVSPost2010PropOp40
 70
     1
102
RTVSPost2010Prop41ColorIndex
 90
       18
102
RTVSPost2010Prop41ColorRGB
 90
        0
102
RTVSPost2010PropOp41
 70
     1
102
RTVSPost2010Prop42
 90
       50
102
RTVSPost2010PropOp42
 70
     1
102
RTVSPost2010Prop43
 90
        3
102
RTVSPost2010PropOp43
 70
     1
102
RTVSPost2010Prop44ColorIndex
 90
        5
102
RTVSPost2010Prop44ColorRGB
 90
      255
102
RTVSPost2010PropOp44
 70
     1
102
RTVSPost2010Prop45
280
     0
102
RTVSPost2010PropOp45
 70
     1
102
RTVSPost2010Prop46
 90
       50
102
RTVSPost2010PropOp46
 70
     1
102
RTVSPost2010Prop47
 90
       50
102
RTVSPost2010PropOp47
 70
     1
102
RTVSPost2010Prop48
 90
       50
102
RTVSPost2010PropOp48
 70
     1
102
RTVSPost2010Prop49
280
     0
102
RTVSPost2010PropOp49
 70
     1
102
RTVSPost2010Prop50
 90
       50
102
RTVSPost2010PropOp50
 70
     1
102
RTVSPost2010Prop51ColorIndex
 90
      256
102
RTVSPost2010Prop51ColorRGB
 90
-16777216
102
RTVSPost2010PropOp51
 70
     0
102
RTVSPost2010Prop52
140
1.0
102
RTVSPost2010PropOp52
 70
     0
102
RTVSPost2010Prop53
 90
        2
102
RTVSPost2010PropOp53
 70
     1
102
RTVSPost2010Prop54
  1
strokes_ogs.tif
102
RTVSPost2010PropOp54
 70
     1
102
RTVSPost2010Prop55
280
     0
102
RTVSPost2010PropOp55
 70
     1
102
RTVSPost2010Prop56
140
1.0
102
RTVSPost2010PropOp56
 70
     1
102
RTVSPost2010Prop57
140
1.0
102
RTVSPost2010PropOp57
 70
     1
102
RTVSPropertyOp0
 70
     1
102
RTVSPropertyOp1
 70
     1
102
RTVSPropertyOp2
 70
     1
102
RTVSPropertyOp3
 70
     1
102
RTVSPropertyOp4
 70
     1
102
RTVSPropertyOp5
 70
     1
102
RTVSPropertyOp6
 70
     1
102
RTVSPropertyOp7
 70
     1
102
RTVSPropertyOp8
 70
     1
102
RTVSPropertyOp9
 70
     1
102
RTVSPropertyOp10
 70
     1
102
RTVSPropertyOp11
 70
     1
102
RTVSPropertyOp12
 70
     1
102
RTVSPropertyOp13
 70
     1
102
RTVSPropertyOp14
 70
     1
102
RTVSPropertyOp15
 70
     1
102
RTVSPropertyOp16
 70
     1
102
RTVSPropertyOp17
 70
     1
102
RTVSPropertyOp18
 70
     1
102
RTVSPropertyOp19
 70
     1
102
RTVSPropertyOp20
 70
     1
102
RTVSPropertyOp21
 70
     1
102
RTVSPropertyOp22
 70
     1
102
RTVSPropertyOp23
 70
     1
102
RTVSPropertyOp24
 70
     1
102
RTVSPropertyOp25
 70
     1
102
RTVSPropertyOp26
 70
     1
102
RTVSPropertyOp27
 70
     1
102
RTVSPropertyOp28
 70
     1
102
RTVSPropertyOp29
 70
     1
102
RTVSPropertyOp30
 70
     1
102
RTVSPropertyOp31
 70
     1
102
RTVSPropertyOp32
 70
     1
102
RTVSPropertyOp33
 70
     1
102
RTVSPropertyOp34
 70
     1
102
RTVSPropertyOp35
 70
     1
102
RTVSPropertyOp36
 70
     1
102
RTVSPropertyOp37
 70
     1
102
RTVSPropertyOp38
 70
     1
102
RTVSPropertyOp39
 70
     1
102
RTVSPropertyOp40
 70
     1
102
RTVSPropertyOp41
 70
     1
102
RTVSPropertyOp42
 70
     1
102
RTVSPropertyOp43
 70
     1
102
RTVSPropertyOp44
 70
     1
102
RTVSPropertyOp45
 70
     1
102
RTVSPropertyOp46
 70
     1
102
RTVSPropertyOp47
 70
     1
102
RTVSPropertyOp48
 70
     1
102
RTVSPropertyOp49
 70
     1
102
RTVSPropertyOp50
 70
     1
102
RTVSPropertyOp51
 70
     0
102
RTVSPropertyOp52
 70
     0
102
RTVSPropertyOp53
 70
     1
102
RTVSPropertyOp54
 70
     1
102
RTVSPropertyOp55
 70
     1
102
RTVSPropertyOp56
 70
     1
102
RTVSPropertyOp57
 70
     1
102
RTVSPropertyOp58
 70
     1
102
RTVSPropertyOp59
 70
     1
102
RTVSPropertyOp60
 70
     1
102
RTVSPropertyOp61
 70
     1
102
RTVSPropertyOp62
 70
     1
  0
XRECORD
  5
8619
102
{ACAD_REACTORS
330
8618
102
}
330
8618
100
AcDbXrecord
280
     1
102
RTVSPost2010Prop28
280
     0
102
RTVSPost2010PropOp28
 70
     1
102
RTVSPost2010Prop29
280
     1
102
RTVSPost2010PropOp29
 70
     1
102
RTVSPost2010Prop30
280
     1
102
RTVSPost2010PropOp30
 70
     1
102
RTVSPost2010Prop31
280
     0
102
RTVSPost2010PropOp31
 70
     1
102
RTVSPost2010Prop32
280
     0
102
RTVSPost2010PropOp32
 70
     1
102
RTVSPost2010Prop33
280
     0
102
RTVSPost2010PropOp33
 70
     1
102
RTVSPost2010Prop34
280
     0
102
RTVSPost2010PropOp34
 70
     1
102
RTVSPost2010Prop35
280
     0
102
RTVSPost2010PropOp35
 70
     1
102
RTVSPost2010Prop36
280
     0
102
RTVSPost2010PropOp36
 70
     1
102
RTVSPost2010Prop37
 90
       50
102
RTVSPost2010PropOp37
 70
     1
102
RTVSPost2010Prop38
140
0.0
102
RTVSPost2010PropOp38
 70
     1
102
RTVSPost2010Prop39
140
1.0
102
RTVSPost2010PropOp39
 70
     1
102
RTVSPost2010Prop40
 90
        0
102
RTVSPost2010PropOp40
 70
     1
102
RTVSPost2010Prop41ColorIndex
 90
       18
102
RTVSPost2010Prop41ColorRGB
 90
        0
102
RTVSPost2010PropOp41
 70
     1
102
RTVSPost2010Prop42
 90
       50
102
RTVSPost2010PropOp42
 70
     1
102
RTVSPost2010Prop43
 90
        3
102
RTVSPost2010PropOp43
 70
     1
102
RTVSPost2010Prop44ColorIndex
 90
        5
102
RTVSPost2010Prop44ColorRGB
 90
      255
102
RTVSPost2010PropOp44
 70
     1
102
RTVSPost2010Prop45
280
     0
102
RTVSPost2010PropOp45
 70
     1
102
RTVSPost2010Prop46
 90
       50
102
RTVSPost2010PropOp46
 70
     1
102
RTVSPost2010Prop47
 90
       50
102
RTVSPost2010PropOp47
 70
     1
102
RTVSPost2010Prop48
 90
       50
102
RTVSPost2010PropOp48
 70
     1
102
RTVSPost2010Prop49
280
     0
102
RTVSPost2010PropOp49
 70
     1
102
RTVSPost2010Prop50
 90
       50
102
RTVSPost2010PropOp50
 70
     1
102
RTVSPost2010Prop51ColorIndex
 90
      256
102
RTVSPost2010Prop51ColorRGB
 90
-16777216
102
RTVSPost2010PropOp51
 70
     0
102
RTVSPost2010Prop52
140
1.0
102
RTVSPost2010PropOp52
 70
     0
102
RTVSPost2010Prop53
 90
        2
102
RTVSPost2010PropOp53
 70
     1
102
RTVSPost2010Prop54
  1
strokes_ogs.tif
102
RTVSPost2010PropOp54
 70
     1
102
RTVSPost2010Prop55
280
     0
102
RTVSPost2010PropOp55
 70
     1
102
RTVSPost2010Prop56
140
1.0
102
RTVSPost2010PropOp56
 70
     1
102
RTVSPost2010Prop57
140
1.0
102
RTVSPost2010PropOp57
 70
     1
102
RTVSPropertyOp0
 70
     1
102
RTVSPropertyOp1
 70
     1
102
RTVSPropertyOp2
 70
     1
102
RTVSPropertyOp3
 70
     1
102
RTVSPropertyOp4
 70
     1
102
RTVSPropertyOp5
 70
     1
102
RTVSPropertyOp6
 70
     1
102
RTVSPropertyOp7
 70
     1
102
RTVSPropertyOp8
 70
     1
102
RTVSPropertyOp9
 70
     1
102
RTVSPropertyOp10
 70
     1
102
RTVSPropertyOp11
 70
     1
102
RTVSPropertyOp12
 70
     1
102
RTVSPropertyOp13
 70
     1
102
RTVSPropertyOp14
 70
     1
102
RTVSPropertyOp15
 70
     1
102
RTVSPropertyOp16
 70
     1
102
RTVSPropertyOp17
 70
     1
102
RTVSPropertyOp18
 70
     1
102
RTVSPropertyOp19
 70
     1
102
RTVSPropertyOp20
 70
     1
102
RTVSPropertyOp21
 70
     1
102
RTVSPropertyOp22
 70
     1
102
RTVSPropertyOp23
 70
     1
102
RTVSPropertyOp24
 70
     1
102
RTVSPropertyOp25
 70
     1
102
RTVSPropertyOp26
 70
     1
102
RTVSPropertyOp27
 70
     1
102
RTVSPropertyOp28
 70
     1
102
RTVSPropertyOp29
 70
     1
102
RTVSPropertyOp30
 70
     1
102
RTVSPropertyOp31
 70
     1
102
RTVSPropertyOp32
 70
     1
102
RTVSPropertyOp33
 70
     1
102
RTVSPropertyOp34
 70
     1
102
RTVSPropertyOp35
 70
     1
102
RTVSPropertyOp36
 70
     1
102
RTVSPropertyOp37
 70
     1
102
RTVSPropertyOp38
 70
     1
102
RTVSPropertyOp39
 70
     1
102
RTVSPropertyOp40
 70
     1
102
RTVSPropertyOp41
 70
     1
102
RTVSPropertyOp42
 70
     1
102
RTVSPropertyOp43
 70
     1
102
RTVSPropertyOp44
 70
     1
102
RTVSPropertyOp45
 70
     1
102
RTVSPropertyOp46
 70
     1
102
RTVSPropertyOp47
 70
     1
102
RTVSPropertyOp48
 70
     1
102
RTVSPropertyOp49
 70
     1
102
RTVSPropertyOp50
 70
     1
102
RTVSPropertyOp51
 70
     0
102
RTVSPropertyOp52
 70
     0
102
RTVSPropertyOp53
 70
     1
102
RTVSPropertyOp54
 70
     1
102
RTVSPropertyOp55
 70
     1
102
RTVSPropertyOp56
 70
     1
102
RTVSPropertyOp57
 70
     1
102
RTVSPropertyOp58
 70
     1
102
RTVSPropertyOp59
 70
     1
102
RTVSPropertyOp60
 70
     1
102
RTVSPropertyOp61
 70
     1
102
RTVSPropertyOp62
 70
     1
  0
XRECORD
  5
861B
102
{ACAD_REACTORS
330
861A
102
}
330
861A
100
AcDbXrecord
280
     1
102
RTVSPost2010Prop28
280
     0
102
RTVSPost2010PropOp28
 70
     1
102
RTVSPost2010Prop29
280
     1
102
RTVSPost2010PropOp29
 70
     1
102
RTVSPost2010Prop30
280
     1
102
RTVSPost2010PropOp30
 70
     1
102
RTVSPost2010Prop31
280
     0
102
RTVSPost2010PropOp31
 70
     1
102
RTVSPost2010Prop32
280
     0
102
RTVSPost2010PropOp32
 70
     1
102
RTVSPost2010Prop33
280
     0
102
RTVSPost2010PropOp33
 70
     1
102
RTVSPost2010Prop34
280
     0
102
RTVSPost2010PropOp34
 70
     1
102
RTVSPost2010Prop35
280
     0
102
RTVSPost2010PropOp35
 70
     1
102
RTVSPost2010Prop36
280
     0
102
RTVSPost2010PropOp36
 70
     1
102
RTVSPost2010Prop37
 90
       50
102
RTVSPost2010PropOp37
 70
     1
102
RTVSPost2010Prop38
140
0.0
102
RTVSPost2010PropOp38
 70
     1
102
RTVSPost2010Prop39
140
1.0
102
RTVSPost2010PropOp39
 70
     1
102
RTVSPost2010Prop40
 90
        0
102
RTVSPost2010PropOp40
 70
     1
102
RTVSPost2010Prop41ColorIndex
 90
       18
102
RTVSPost2010Prop41ColorRGB
 90
        0
102
RTVSPost2010PropOp41
 70
     1
102
RTVSPost2010Prop42
 90
       50
102
RTVSPost2010PropOp42
 70
     1
102
RTVSPost2010Prop43
 90
        3
102
RTVSPost2010PropOp43
 70
     1
102
RTVSPost2010Prop44ColorIndex
 90
        5
102
RTVSPost2010Prop44ColorRGB
 90
      255
102
RTVSPost2010PropOp44
 70
     1
102
RTVSPost2010Prop45
280
     0
102
RTVSPost2010PropOp45
 70
     1
102
RTVSPost2010Prop46
 90
       50
102
RTVSPost2010PropOp46
 70
     1
102
RTVSPost2010Prop47
 90
       50
102
RTVSPost2010PropOp47
 70
     1
102
RTVSPost2010Prop48
 90
       50
102
RTVSPost2010PropOp48
 70
     1
102
RTVSPost2010Prop49
280
     0
102
RTVSPost2010PropOp49
 70
     1
102
RTVSPost2010Prop50
 90
       50
102
RTVSPost2010PropOp50
 70
     1
102
RTVSPost2010Prop51ColorIndex
 90
      256
102
RTVSPost2010Prop51ColorRGB
 90
-16777216
102
RTVSPost2010PropOp51
 70
     0
102
RTVSPost2010Prop52
140
1.0
102
RTVSPost2010PropOp52
 70
     0
102
RTVSPost2010Prop53
 90
        2
102
RTVSPost2010PropOp53
 70
     1
102
RTVSPost2010Prop54
  1
strokes_ogs.tif
102
RTVSPost2010PropOp54
 70
     1
102
RTVSPost2010Prop55
280
     0
102
RTVSPost2010PropOp55
 70
     1
102
RTVSPost2010Prop56
140
1.0
102
RTVSPost2010PropOp56
 70
     1
102
RTVSPost2010Prop57
140
1.0
102
RTVSPost2010PropOp57
 70
     1
102
RTVSPropertyOp0
 70
     1
102
RTVSPropertyOp1
 70
     1
102
RTVSPropertyOp2
 70
     1
102
RTVSPropertyOp3
 70
     1
102
RTVSPropertyOp4
 70
     1
102
RTVSPropertyOp5
 70
     1
102
RTVSPropertyOp6
 70
     1
102
RTVSPropertyOp7
 70
     1
102
RTVSPropertyOp8
 70
     1
102
RTVSPropertyOp9
 70
     1
102
RTVSPropertyOp10
 70
     1
102
RTVSPropertyOp11
 70
     1
102
RTVSPropertyOp12
 70
     1
102
RTVSPropertyOp13
 70
     1
102
RTVSPropertyOp14
 70
     1
102
RTVSPropertyOp15
 70
     1
102
RTVSPropertyOp16
 70
     1
102
RTVSPropertyOp17
 70
     1
102
RTVSPropertyOp18
 70
     1
102
RTVSPropertyOp19
 70
     1
102
RTVSPropertyOp20
 70
     1
102
RTVSPropertyOp21
 70
     1
102
RTVSPropertyOp22
 70
     1
102
RTVSPropertyOp23
 70
     1
102
RTVSPropertyOp24
 70
     1
102
RTVSPropertyOp25
 70
     1
102
RTVSPropertyOp26
 70
     1
102
RTVSPropertyOp27
 70
     1
102
RTVSPropertyOp28
 70
     1
102
RTVSPropertyOp29
 70
     1
102
RTVSPropertyOp30
 70
     1
102
RTVSPropertyOp31
 70
     1
102
RTVSPropertyOp32
 70
     1
102
RTVSPropertyOp33
 70
     1
102
RTVSPropertyOp34
 70
     1
102
RTVSPropertyOp35
 70
     1
102
RTVSPropertyOp36
 70
     1
102
RTVSPropertyOp37
 70
     1
102
RTVSPropertyOp38
 70
     1
102
RTVSPropertyOp39
 70
     1
102
RTVSPropertyOp40
 70
     1
102
RTVSPropertyOp41
 70
     1
102
RTVSPropertyOp42
 70
     1
102
RTVSPropertyOp43
 70
     1
102
RTVSPropertyOp44
 70
     1
102
RTVSPropertyOp45
 70
     1
102
RTVSPropertyOp46
 70
     1
102
RTVSPropertyOp47
 70
     1
102
RTVSPropertyOp48
 70
     1
102
RTVSPropertyOp49
 70
     1
102
RTVSPropertyOp50
 70
     1
102
RTVSPropertyOp51
 70
     0
102
RTVSPropertyOp52
 70
     0
102
RTVSPropertyOp53
 70
     1
102
RTVSPropertyOp54
 70
     1
102
RTVSPropertyOp55
 70
     1
102
RTVSPropertyOp56
 70
     1
102
RTVSPropertyOp57
 70
     1
102
RTVSPropertyOp58
 70
     1
102
RTVSPropertyOp59
 70
     1
102
RTVSPropertyOp60
 70
     1
102
RTVSPropertyOp61
 70
     1
102
RTVSPropertyOp62
 70
     1
  0
XRECORD
  5
861D
102
{ACAD_REACTORS
330
861C
102
}
330
861C
100
AcDbXrecord
280
     1
102
RTVSPost2010Prop28
280
     0
102
RTVSPost2010PropOp28
 70
     1
102
RTVSPost2010Prop29
280
     1
102
RTVSPost2010PropOp29
 70
     1
102
RTVSPost2010Prop30
280
     1
102
RTVSPost2010PropOp30
 70
     1
102
RTVSPost2010Prop31
280
     0
102
RTVSPost2010PropOp31
 70
     1
102
RTVSPost2010Prop32
280
     0
102
RTVSPost2010PropOp32
 70
     1
102
RTVSPost2010Prop33
280
     0
102
RTVSPost2010PropOp33
 70
     1
102
RTVSPost2010Prop34
280
     0
102
RTVSPost2010PropOp34
 70
     1
102
RTVSPost2010Prop35
280
     0
102
RTVSPost2010PropOp35
 70
     1
102
RTVSPost2010Prop36
280
     0
102
RTVSPost2010PropOp36
 70
     1
102
RTVSPost2010Prop37
 90
       50
102
RTVSPost2010PropOp37
 70
     1
102
RTVSPost2010Prop38
140
0.0
102
RTVSPost2010PropOp38
 70
     1
102
RTVSPost2010Prop39
140
1.0
102
RTVSPost2010PropOp39
 70
     1
102
RTVSPost2010Prop40
 90
        0
102
RTVSPost2010PropOp40
 70
     1
102
RTVSPost2010Prop41ColorIndex
 90
       18
102
RTVSPost2010Prop41ColorRGB
 90
        0
102
RTVSPost2010PropOp41
 70
     1
102
RTVSPost2010Prop42
 90
       50
102
RTVSPost2010PropOp42
 70
     1
102
RTVSPost2010Prop43
 90
        3
102
RTVSPost2010PropOp43
 70
     1
102
RTVSPost2010Prop44ColorIndex
 90
        5
102
RTVSPost2010Prop44ColorRGB
 90
      255
102
RTVSPost2010PropOp44
 70
     1
102
RTVSPost2010Prop45
280
     0
102
RTVSPost2010PropOp45
 70
     1
102
RTVSPost2010Prop46
 90
       50
102
RTVSPost2010PropOp46
 70
     1
102
RTVSPost2010Prop47
 90
       50
102
RTVSPost2010PropOp47
 70
     1
102
RTVSPost2010Prop48
 90
       50
102
RTVSPost2010PropOp48
 70
     1
102
RTVSPost2010Prop49
280
     0
102
RTVSPost2010PropOp49
 70
     1
102
RTVSPost2010Prop50
 90
       50
102
RTVSPost2010PropOp50
 70
     1
102
RTVSPost2010Prop51ColorIndex
 90
      256
102
RTVSPost2010Prop51ColorRGB
 90
-16777216
102
RTVSPost2010PropOp51
 70
     0
102
RTVSPost2010Prop52
140
1.0
102
RTVSPost2010PropOp52
 70
     0
102
RTVSPost2010Prop53
 90
        2
102
RTVSPost2010PropOp53
 70
     1
102
RTVSPost2010Prop54
  1
strokes_ogs.tif
102
RTVSPost2010PropOp54
 70
     1
102
RTVSPost2010Prop55
280
     0
102
RTVSPost2010PropOp55
 70
     1
102
RTVSPost2010Prop56
140
1.0
102
RTVSPost2010PropOp56
 70
     1
102
RTVSPost2010Prop57
140
1.0
102
RTVSPost2010PropOp57
 70
     1
102
RTVSPropertyOp0
 70
     1
102
RTVSPropertyOp1
 70
     1
102
RTVSPropertyOp2
 70
     1
102
RTVSPropertyOp3
 70
     1
102
RTVSPropertyOp4
 70
     1
102
RTVSPropertyOp5
 70
     1
102
RTVSPropertyOp6
 70
     1
102
RTVSPropertyOp7
 70
     1
102
RTVSPropertyOp8
 70
     1
102
RTVSPropertyOp9
 70
     1
102
RTVSPropertyOp10
 70
     1
102
RTVSPropertyOp11
 70
     1
102
RTVSPropertyOp12
 70
     1
102
RTVSPropertyOp13
 70
     1
102
RTVSPropertyOp14
 70
     1
102
RTVSPropertyOp15
 70
     1
102
RTVSPropertyOp16
 70
     1
102
RTVSPropertyOp17
 70
     1
102
RTVSPropertyOp18
 70
     1
102
RTVSPropertyOp19
 70
     1
102
RTVSPropertyOp20
 70
     1
102
RTVSPropertyOp21
 70
     1
102
RTVSPropertyOp22
 70
     1
102
RTVSPropertyOp23
 70
     1
102
RTVSPropertyOp24
 70
     1
102
RTVSPropertyOp25
 70
     1
102
RTVSPropertyOp26
 70
     1
102
RTVSPropertyOp27
 70
     1
102
RTVSPropertyOp28
 70
     1
102
RTVSPropertyOp29
 70
     1
102
RTVSPropertyOp30
 70
     1
102
RTVSPropertyOp31
 70
     1
102
RTVSPropertyOp32
 70
     1
102
RTVSPropertyOp33
 70
     1
102
RTVSPropertyOp34
 70
     1
102
RTVSPropertyOp35
 70
     1
102
RTVSPropertyOp36
 70
     1
102
RTVSPropertyOp37
 70
     1
102
RTVSPropertyOp38
 70
     1
102
RTVSPropertyOp39
 70
     1
102
RTVSPropertyOp40
 70
     1
102
RTVSPropertyOp41
 70
     1
102
RTVSPropertyOp42
 70
     1
102
RTVSPropertyOp43
 70
     1
102
RTVSPropertyOp44
 70
     1
102
RTVSPropertyOp45
 70
     1
102
RTVSPropertyOp46
 70
     1
102
RTVSPropertyOp47
 70
     1
102
RTVSPropertyOp48
 70
     1
102
RTVSPropertyOp49
 70
     1
102
RTVSPropertyOp50
 70
     1
102
RTVSPropertyOp51
 70
     0
102
RTVSPropertyOp52
 70
     0
102
RTVSPropertyOp53
 70
     1
102
RTVSPropertyOp54
 70
     1
102
RTVSPropertyOp55
 70
     1
102
RTVSPropertyOp56
 70
     1
102
RTVSPropertyOp57
 70
     1
102
RTVSPropertyOp58
 70
     1
102
RTVSPropertyOp59
 70
     1
102
RTVSPropertyOp60
 70
     1
102
RTVSPropertyOp61
 70
     1
102
RTVSPropertyOp62
 70
     1
  0
XRECORD
  5
8625
102
{ACAD_REACTORS
330
8624
102
}
330
8624
100
AcDbXrecord
280
     1
102
RTVSPost2010Prop28
280
     0
102
RTVSPost2010PropOp28
 70
     1
102
RTVSPost2010Prop29
280
     1
102
RTVSPost2010PropOp29
 70
     1
102
RTVSPost2010Prop30
280
     1
102
RTVSPost2010PropOp30
 70
     1
102
RTVSPost2010Prop31
280
     0
102
RTVSPost2010PropOp31
 70
     1
102
RTVSPost2010Prop32
280
     0
102
RTVSPost2010PropOp32
 70
     1
102
RTVSPost2010Prop33
280
     0
102
RTVSPost2010PropOp33
 70
     1
102
RTVSPost2010Prop34
280
     0
102
RTVSPost2010PropOp34
 70
     1
102
RTVSPost2010Prop35
280
     0
102
RTVSPost2010PropOp35
 70
     1
102
RTVSPost2010Prop36
280
     0
102
RTVSPost2010PropOp36
 70
     1
102
RTVSPost2010Prop37
 90
       50
102
RTVSPost2010PropOp37
 70
     1
102
RTVSPost2010Prop38
140
0.0
102
RTVSPost2010PropOp38
 70
     1
102
RTVSPost2010Prop39
140
1.0
102
RTVSPost2010PropOp39
 70
     1
102
RTVSPost2010Prop40
 90
        0
102
RTVSPost2010PropOp40
 70
     1
102
RTVSPost2010Prop41ColorIndex
 90
       18
102
RTVSPost2010Prop41ColorRGB
 90
        0
102
RTVSPost2010PropOp41
 70
     1
102
RTVSPost2010Prop42
 90
       50
102
RTVSPost2010PropOp42
 70
     1
102
RTVSPost2010Prop43
 90
        3
102
RTVSPost2010PropOp43
 70
     1
102
RTVSPost2010Prop44ColorIndex
 90
        5
102
RTVSPost2010Prop44ColorRGB
 90
      255
102
RTVSPost2010PropOp44
 70
     1
102
RTVSPost2010Prop45
280
     0
102
RTVSPost2010PropOp45
 70
     1
102
RTVSPost2010Prop46
 90
       50
102
RTVSPost2010PropOp46
 70
     1
102
RTVSPost2010Prop47
 90
       50
102
RTVSPost2010PropOp47
 70
     1
102
RTVSPost2010Prop48
 90
       50
102
RTVSPost2010PropOp48
 70
     1
102
RTVSPost2010Prop49
280
     0
102
RTVSPost2010PropOp49
 70
     1
102
RTVSPost2010Prop50
 90
       50
102
RTVSPost2010PropOp50
 70
     1
102
RTVSPost2010Prop51ColorIndex
 90
      256
102
RTVSPost2010Prop51ColorRGB
 90
-16777216
102
RTVSPost2010PropOp51
 70
     0
102
RTVSPost2010Prop52
140
1.0
102
RTVSPost2010PropOp52
 70
     0
102
RTVSPost2010Prop53
 90
        2
102
RTVSPost2010PropOp53
 70
     1
102
RTVSPost2010Prop54
  1
strokes_ogs.tif
102
RTVSPost2010PropOp54
 70
     1
102
RTVSPost2010Prop55
280
     0
102
RTVSPost2010PropOp55
 70
     1
102
RTVSPost2010Prop56
140
1.0
102
RTVSPost2010PropOp56
 70
     1
102
RTVSPost2010Prop57
140
1.0
102
RTVSPost2010PropOp57
 70
     1
102
RTVSPropertyOp0
 70
     1
102
RTVSPropertyOp1
 70
     1
102
RTVSPropertyOp2
 70
     1
102
RTVSPropertyOp3
 70
     1
102
RTVSPropertyOp4
 70
     1
102
RTVSPropertyOp5
 70
     1
102
RTVSPropertyOp6
 70
     1
102
RTVSPropertyOp7
 70
     1
102
RTVSPropertyOp8
 70
     1
102
RTVSPropertyOp9
 70
     1
102
RTVSPropertyOp10
 70
     1
102
RTVSPropertyOp11
 70
     1
102
RTVSPropertyOp12
 70
     1
102
RTVSPropertyOp13
 70
     1
102
RTVSPropertyOp14
 70
     1
102
RTVSPropertyOp15
 70
     1
102
RTVSPropertyOp16
 70
     1
102
RTVSPropertyOp17
 70
     1
102
RTVSPropertyOp18
 70
     1
102
RTVSPropertyOp19
 70
     1
102
RTVSPropertyOp20
 70
     1
102
RTVSPropertyOp21
 70
     1
102
RTVSPropertyOp22
 70
     1
102
RTVSPropertyOp23
 70
     1
102
RTVSPropertyOp24
 70
     1
102
RTVSPropertyOp25
 70
     1
102
RTVSPropertyOp26
 70
     1
102
RTVSPropertyOp27
 70
     1
102
RTVSPropertyOp28
 70
     1
102
RTVSPropertyOp29
 70
     1
102
RTVSPropertyOp30
 70
     1
102
RTVSPropertyOp31
 70
     1
102
RTVSPropertyOp32
 70
     1
102
RTVSPropertyOp33
 70
     1
102
RTVSPropertyOp34
 70
     1
102
RTVSPropertyOp35
 70
     1
102
RTVSPropertyOp36
 70
     1
102
RTVSPropertyOp37
 70
     1
102
RTVSPropertyOp38
 70
     1
102
RTVSPropertyOp39
 70
     1
102
RTVSPropertyOp40
 70
     1
102
RTVSPropertyOp41
 70
     1
102
RTVSPropertyOp42
 70
     1
102
RTVSPropertyOp43
 70
     1
102
RTVSPropertyOp44
 70
     1
102
RTVSPropertyOp45
 70
     1
102
RTVSPropertyOp46
 70
     1
102
RTVSPropertyOp47
 70
     1
102
RTVSPropertyOp48
 70
     1
102
RTVSPropertyOp49
 70
     1
102
RTVSPropertyOp50
 70
     1
102
RTVSPropertyOp51
 70
     0
102
RTVSPropertyOp52
 70
     0
102
RTVSPropertyOp53
 70
     1
102
RTVSPropertyOp54
 70
     1
102
RTVSPropertyOp55
 70
     1
102
RTVSPropertyOp56
 70
     1
102
RTVSPropertyOp57
 70
     1
102
RTVSPropertyOp58
 70
     1
102
RTVSPropertyOp59
 70
     1
102
RTVSPropertyOp60
 70
     1
102
RTVSPropertyOp61
 70
     1
102
RTVSPropertyOp62
 70
     1
  0
XRECORD
  5
8641
102
{ACAD_REACTORS
330
8640
102
}
330
8640
100
AcDbXrecord
280
     1
102
RTVSPost2010Prop28
280
     0
102
RTVSPost2010PropOp28
 70
     1
102
RTVSPost2010Prop29
280
     1
102
RTVSPost2010PropOp29
 70
     1
102
RTVSPost2010Prop30
280
     1
102
RTVSPost2010PropOp30
 70
     1
102
RTVSPost2010Prop31
280
     0
102
RTVSPost2010PropOp31
 70
     1
102
RTVSPost2010Prop32
280
     0
102
RTVSPost2010PropOp32
 70
     1
102
RTVSPost2010Prop33
280
     0
102
RTVSPost2010PropOp33
 70
     1
102
RTVSPost2010Prop34
280
     0
102
RTVSPost2010PropOp34
 70
     1
102
RTVSPost2010Prop35
280
     0
102
RTVSPost2010PropOp35
 70
     1
102
RTVSPost2010Prop36
280
     0
102
RTVSPost2010PropOp36
 70
     1
102
RTVSPost2010Prop37
 90
       50
102
RTVSPost2010PropOp37
 70
     0
102
RTVSPost2010Prop38
140
0.0
102
RTVSPost2010PropOp38
 70
     0
102
RTVSPost2010Prop39
140
1.0
102
RTVSPost2010PropOp39
 70
     0
102
RTVSPost2010Prop40
 90
        0
102
RTVSPost2010PropOp40
 70
     0
102
RTVSPost2010Prop41ColorIndex
 90
       18
102
RTVSPost2010Prop41ColorRGB
 90
        0
102
RTVSPost2010PropOp41
 70
     0
102
RTVSPost2010Prop42
 90
       50
102
RTVSPost2010PropOp42
 70
     0
102
RTVSPost2010Prop43
 90
        3
102
RTVSPost2010PropOp43
 70
     0
102
RTVSPost2010Prop44ColorIndex
 90
        5
102
RTVSPost2010Prop44ColorRGB
 90
      255
102
RTVSPost2010PropOp44
 70
     0
102
RTVSPost2010Prop45
280
     0
102
RTVSPost2010PropOp45
 70
     1
102
RTVSPost2010Prop46
 90
       50
102
RTVSPost2010PropOp46
 70
     0
102
RTVSPost2010Prop47
 90
       50
102
RTVSPost2010PropOp47
 70
     0
102
RTVSPost2010Prop48
 90
       50
102
RTVSPost2010PropOp48
 70
     0
102
RTVSPost2010Prop49
280
     0
102
RTVSPost2010PropOp49
 70
     1
102
RTVSPost2010Prop50
 90
       50
102
RTVSPost2010PropOp50
 70
     0
102
RTVSPost2010Prop51ColorIndex
 90
      256
102
RTVSPost2010Prop51ColorRGB
 90
-16777216
102
RTVSPost2010PropOp51
 70
     0
102
RTVSPost2010Prop52
140
1.0
102
RTVSPost2010PropOp52
 70
     0
102
RTVSPost2010Prop53
 90
        2
102
RTVSPost2010PropOp53
 70
     0
102
RTVSPost2010Prop54
  1
strokes_ogs.tif
102
RTVSPost2010PropOp54
 70
     0
102
RTVSPost2010Prop55
280
     0
102
RTVSPost2010PropOp55
 70
     1
102
RTVSPost2010Prop56
140
1.0
102
RTVSPost2010PropOp56
 70
     0
102
RTVSPost2010Prop57
140
1.0
102
RTVSPost2010PropOp57
 70
     0
102
RTVSPropertyOp0
 70
     0
102
RTVSPropertyOp1
 70
     0
102
RTVSPropertyOp2
 70
     0
102
RTVSPropertyOp3
 70
     0
102
RTVSPropertyOp4
 70
     0
102
RTVSPropertyOp5
 70
     0
102
RTVSPropertyOp6
 70
     0
102
RTVSPropertyOp7
 70
     0
102
RTVSPropertyOp8
 70
     0
102
RTVSPropertyOp9
 70
     0
102
RTVSPropertyOp10
 70
     0
102
RTVSPropertyOp11
 70
     0
102
RTVSPropertyOp12
 70
     0
102
RTVSPropertyOp13
 70
     0
102
RTVSPropertyOp14
 70
     2
102
RTVSPropertyOp15
 70
     0
102
RTVSPropertyOp16
 70
     0
102
RTVSPropertyOp17
 70
     0
102
RTVSPropertyOp18
 70
     0
102
RTVSPropertyOp19
 70
     0
102
RTVSPropertyOp20
 70
     0
102
RTVSPropertyOp21
 70
     0
102
RTVSPropertyOp22
 70
     0
102
RTVSPropertyOp23
 70
     0
102
RTVSPropertyOp24
 70
     0
102
RTVSPropertyOp25
 70
     0
102
RTVSPropertyOp26
 70
     0
102
RTVSPropertyOp27
 70
     0
102
RTVSPropertyOp28
 70
     1
102
RTVSPropertyOp29
 70
     1
102
RTVSPropertyOp30
 70
     1
102
RTVSPropertyOp31
 70
     1
102
RTVSPropertyOp32
 70
     1
102
RTVSPropertyOp33
 70
     1
102
RTVSPropertyOp34
 70
     1
102
RTVSPropertyOp35
 70
     1
102
RTVSPropertyOp36
 70
     1
102
RTVSPropertyOp37
 70
     0
102
RTVSPropertyOp38
 70
     0
102
RTVSPropertyOp39
 70
     0
102
RTVSPropertyOp40
 70
     0
102
RTVSPropertyOp41
 70
     0
102
RTVSPropertyOp42
 70
     0
102
RTVSPropertyOp43
 70
     0
102
RTVSPropertyOp44
 70
     0
102
RTVSPropertyOp45
 70
     1
102
RTVSPropertyOp46
 70
     0
102
RTVSPropertyOp47
 70
     0
102
RTVSPropertyOp48
 70
     0
102
RTVSPropertyOp49
 70
     1
102
RTVSPropertyOp50
 70
     0
102
RTVSPropertyOp51
 70
     0
102
RTVSPropertyOp52
 70
     0
102
RTVSPropertyOp53
 70
     0
102
RTVSPropertyOp54
 70
     0
102
RTVSPropertyOp55
 70
     1
102
RTVSPropertyOp56
 70
     0
102
RTVSPropertyOp57
 70
     0
102
RTVSPropertyOp58
 70
     0
102
RTVSPropertyOp59
 70
     0
102
RTVSPropertyOp60
 70
     0
102
RTVSPropertyOp61
 70
     0
102
RTVSPropertyOp62
 70
     0
  0
XRECORD
  5
8631
102
{ACAD_REACTORS
330
8630
102
}
330
8630
100
AcDbXrecord
280
     1
102
RTVSPost2010Prop28
280
     0
102
RTVSPost2010PropOp28
 70
     1
102
RTVSPost2010Prop29
280
     1
102
RTVSPost2010PropOp29
 70
     1
102
RTVSPost2010Prop30
280
     1
102
RTVSPost2010PropOp30
 70
     1
102
RTVSPost2010Prop31
280
     0
102
RTVSPost2010PropOp31
 70
     1
102
RTVSPost2010Prop32
280
     0
102
RTVSPost2010PropOp32
 70
     1
102
RTVSPost2010Prop33
280
     0
102
RTVSPost2010PropOp33
 70
     1
102
RTVSPost2010Prop34
280
     0
102
RTVSPost2010PropOp34
 70
     1
102
RTVSPost2010Prop35
280
     0
102
RTVSPost2010PropOp35
 70
     1
102
RTVSPost2010Prop36
280
     0
102
RTVSPost2010PropOp36
 70
     1
102
RTVSPost2010Prop37
 90
       50
102
RTVSPost2010PropOp37
 70
     1
102
RTVSPost2010Prop38
140
0.0
102
RTVSPost2010PropOp38
 70
     1
102
RTVSPost2010Prop39
140
1.0
102
RTVSPost2010PropOp39
 70
     1
102
RTVSPost2010Prop40
 90
        0
102
RTVSPost2010PropOp40
 70
     1
102
RTVSPost2010Prop41ColorIndex
 90
       18
102
RTVSPost2010Prop41ColorRGB
 90
        0
102
RTVSPost2010PropOp41
 70
     1
102
RTVSPost2010Prop42
 90
       50
102
RTVSPost2010PropOp42
 70
     1
102
RTVSPost2010Prop43
 90
        3
102
RTVSPost2010PropOp43
 70
     1
102
RTVSPost2010Prop44ColorIndex
 90
        5
102
RTVSPost2010Prop44ColorRGB
 90
      255
102
RTVSPost2010PropOp44
 70
     1
102
RTVSPost2010Prop45
280
     0
102
RTVSPost2010PropOp45
 70
     1
102
RTVSPost2010Prop46
 90
       50
102
RTVSPost2010PropOp46
 70
     1
102
RTVSPost2010Prop47
 90
       50
102
RTVSPost2010PropOp47
 70
     1
102
RTVSPost2010Prop48
 90
       50
102
RTVSPost2010PropOp48
 70
     1
102
RTVSPost2010Prop49
280
     0
102
RTVSPost2010PropOp49
 70
     1
102
RTVSPost2010Prop50
 90
       50
102
RTVSPost2010PropOp50
 70
     1
102
RTVSPost2010Prop51ColorIndex
 90
      256
102
RTVSPost2010Prop51ColorRGB
 90
-16777216
102
RTVSPost2010PropOp51
 70
     0
102
RTVSPost2010Prop52
140
1.0
102
RTVSPost2010PropOp52
 70
     0
102
RTVSPost2010Prop53
 90
        2
102
RTVSPost2010PropOp53
 70
     1
102
RTVSPost2010Prop54
  1
strokes_ogs.tif
102
RTVSPost2010PropOp54
 70
     1
102
RTVSPost2010Prop55
280
     0
102
RTVSPost2010PropOp55
 70
     1
102
RTVSPost2010Prop56
140
1.0
102
RTVSPost2010PropOp56
 70
     1
102
RTVSPost2010Prop57
140
1.0
102
RTVSPost2010PropOp57
 70
     1
102
RTVSPropertyOp0
 70
     1
102
RTVSPropertyOp1
 70
     1
102
RTVSPropertyOp2
 70
     1
102
RTVSPropertyOp3
 70
     1
102
RTVSPropertyOp4
 70
     1
102
RTVSPropertyOp5
 70
     1
102
RTVSPropertyOp6
 70
     1
102
RTVSPropertyOp7
 70
     1
102
RTVSPropertyOp8
 70
     1
102
RTVSPropertyOp9
 70
     1
102
RTVSPropertyOp10
 70
     1
102
RTVSPropertyOp11
 70
     1
102
RTVSPropertyOp12
 70
     1
102
RTVSPropertyOp13
 70
     1
102
RTVSPropertyOp14
 70
     1
102
RTVSPropertyOp15
 70
     1
102
RTVSPropertyOp16
 70
     1
102
RTVSPropertyOp17
 70
     1
102
RTVSPropertyOp18
 70
     1
102
RTVSPropertyOp19
 70
     1
102
RTVSPropertyOp20
 70
     1
102
RTVSPropertyOp21
 70
     1
102
RTVSPropertyOp22
 70
     1
102
RTVSPropertyOp23
 70
     1
102
RTVSPropertyOp24
 70
     1
102
RTVSPropertyOp25
 70
     1
102
RTVSPropertyOp26
 70
     1
102
RTVSPropertyOp27
 70
     1
102
RTVSPropertyOp28
 70
     1
102
RTVSPropertyOp29
 70
     1
102
RTVSPropertyOp30
 70
     1
102
RTVSPropertyOp31
 70
     1
102
RTVSPropertyOp32
 70
     1
102
RTVSPropertyOp33
 70
     1
102
RTVSPropertyOp34
 70
     1
102
RTVSPropertyOp35
 70
     1
102
RTVSPropertyOp36
 70
     1
102
RTVSPropertyOp37
 70
     1
102
RTVSPropertyOp38
 70
     1
102
RTVSPropertyOp39
 70
     1
102
RTVSPropertyOp40
 70
     1
102
RTVSPropertyOp41
 70
     1
102
RTVSPropertyOp42
 70
     1
102
RTVSPropertyOp43
 70
     1
102
RTVSPropertyOp44
 70
     1
102
RTVSPropertyOp45
 70
     1
102
RTVSPropertyOp46
 70
     1
102
RTVSPropertyOp47
 70
     1
102
RTVSPropertyOp48
 70
     1
102
RTVSPropertyOp49
 70
     1
102
RTVSPropertyOp50
 70
     1
102
RTVSPropertyOp51
 70
     0
102
RTVSPropertyOp52
 70
     0
102
RTVSPropertyOp53
 70
     1
102
RTVSPropertyOp54
 70
     1
102
RTVSPropertyOp55
 70
     1
102
RTVSPropertyOp56
 70
     1
102
RTVSPropertyOp57
 70
     1
102
RTVSPropertyOp58
 70
     1
102
RTVSPropertyOp59
 70
     1
102
RTVSPropertyOp60
 70
     1
102
RTVSPropertyOp61
 70
     1
102
RTVSPropertyOp62
 70
     1
  0
XRECORD
  5
8643
102
{ACAD_REACTORS
330
8642
102
}
330
8642
100
AcDbXrecord
280
     1
102
RTVSPost2010Prop28
280
     0
102
RTVSPost2010PropOp28
 70
     1
102
RTVSPost2010Prop29
280
     1
102
RTVSPost2010PropOp29
 70
     1
102
RTVSPost2010Prop30
280
     1
102
RTVSPost2010PropOp30
 70
     1
102
RTVSPost2010Prop31
280
     0
102
RTVSPost2010PropOp31
 70
     1
102
RTVSPost2010Prop32
280
     0
102
RTVSPost2010PropOp32
 70
     1
102
RTVSPost2010Prop33
280
     0
102
RTVSPost2010PropOp33
 70
     1
102
RTVSPost2010Prop34
280
     0
102
RTVSPost2010PropOp34
 70
     1
102
RTVSPost2010Prop35
280
     0
102
RTVSPost2010PropOp35
 70
     1
102
RTVSPost2010Prop36
280
     0
102
RTVSPost2010PropOp36
 70
     1
102
RTVSPost2010Prop37
 90
       50
102
RTVSPost2010PropOp37
 70
     0
102
RTVSPost2010Prop38
140
0.0
102
RTVSPost2010PropOp38
 70
     0
102
RTVSPost2010Prop39
140
1.0
102
RTVSPost2010PropOp39
 70
     0
102
RTVSPost2010Prop40
 90
        0
102
RTVSPost2010PropOp40
 70
     0
102
RTVSPost2010Prop41ColorIndex
 90
       18
102
RTVSPost2010Prop41ColorRGB
 90
        0
102
RTVSPost2010PropOp41
 70
     0
102
RTVSPost2010Prop42
 90
       50
102
RTVSPost2010PropOp42
 70
     0
102
RTVSPost2010Prop43
 90
        3
102
RTVSPost2010PropOp43
 70
     0
102
RTVSPost2010Prop44ColorIndex
 90
        5
102
RTVSPost2010Prop44ColorRGB
 90
      255
102
RTVSPost2010PropOp44
 70
     0
102
RTVSPost2010Prop45
280
     0
102
RTVSPost2010PropOp45
 70
     1
102
RTVSPost2010Prop46
 90
       50
102
RTVSPost2010PropOp46
 70
     0
102
RTVSPost2010Prop47
 90
       50
102
RTVSPost2010PropOp47
 70
     0
102
RTVSPost2010Prop48
 90
       50
102
RTVSPost2010PropOp48
 70
     0
102
RTVSPost2010Prop49
280
     0
102
RTVSPost2010PropOp49
 70
     1
102
RTVSPost2010Prop50
 90
       50
102
RTVSPost2010PropOp50
 70
     0
102
RTVSPost2010Prop51ColorIndex
 90
      256
102
RTVSPost2010Prop51ColorRGB
 90
-16777216
102
RTVSPost2010PropOp51
 70
     0
102
RTVSPost2010Prop52
140
1.0
102
RTVSPost2010PropOp52
 70
     0
102
RTVSPost2010Prop53
 90
        2
102
RTVSPost2010PropOp53
 70
     0
102
RTVSPost2010Prop54
  1
strokes_ogs.tif
102
RTVSPost2010PropOp54
 70
     0
102
RTVSPost2010Prop55
280
     0
102
RTVSPost2010PropOp55
 70
     1
102
RTVSPost2010Prop56
140
1.0
102
RTVSPost2010PropOp56
 70
     0
102
RTVSPost2010Prop57
140
1.0
102
RTVSPost2010PropOp57
 70
     0
102
RTVSPropertyOp0
 70
     0
102
RTVSPropertyOp1
 70
     0
102
RTVSPropertyOp2
 70
     0
102
RTVSPropertyOp3
 70
     0
102
RTVSPropertyOp4
 70
     0
102
RTVSPropertyOp5
 70
     0
102
RTVSPropertyOp6
 70
     0
102
RTVSPropertyOp7
 70
     0
102
RTVSPropertyOp8
 70
     0
102
RTVSPropertyOp9
 70
     0
102
RTVSPropertyOp10
 70
     0
102
RTVSPropertyOp11
 70
     0
102
RTVSPropertyOp12
 70
     0
102
RTVSPropertyOp13
 70
     0
102
RTVSPropertyOp14
 70
     2
102
RTVSPropertyOp15
 70
     0
102
RTVSPropertyOp16
 70
     0
102
RTVSPropertyOp17
 70
     0
102
RTVSPropertyOp18
 70
     0
102
RTVSPropertyOp19
 70
     0
102
RTVSPropertyOp20
 70
     0
102
RTVSPropertyOp21
 70
     0
102
RTVSPropertyOp22
 70
     0
102
RTVSPropertyOp23
 70
     0
102
RTVSPropertyOp24
 70
     0
102
RTVSPropertyOp25
 70
     0
102
RTVSPropertyOp26
 70
     0
102
RTVSPropertyOp27
 70
     0
102
RTVSPropertyOp28
 70
     1
102
RTVSPropertyOp29
 70
     1
102
RTVSPropertyOp30
 70
     1
102
RTVSPropertyOp31
 70
     1
102
RTVSPropertyOp32
 70
     1
102
RTVSPropertyOp33
 70
     1
102
RTVSPropertyOp34
 70
     1
102
RTVSPropertyOp35
 70
     1
102
RTVSPropertyOp36
 70
     1
102
RTVSPropertyOp37
 70
     0
102
RTVSPropertyOp38
 70
     0
102
RTVSPropertyOp39
 70
     0
102
RTVSPropertyOp40
 70
     0
102
RTVSPropertyOp41
 70
     0
102
RTVSPropertyOp42
 70
     0
102
RTVSPropertyOp43
 70
     0
102
RTVSPropertyOp44
 70
     0
102
RTVSPropertyOp45
 70
     1
102
RTVSPropertyOp46
 70
     0
102
RTVSPropertyOp47
 70
     0
102
RTVSPropertyOp48
 70
     0
102
RTVSPropertyOp49
 70
     1
102
RTVSPropertyOp50
 70
     0
102
RTVSPropertyOp51
 70
     0
102
RTVSPropertyOp52
 70
     0
102
RTVSPropertyOp53
 70
     0
102
RTVSPropertyOp54
 70
     0
102
RTVSPropertyOp55
 70
     1
102
RTVSPropertyOp56
 70
     0
102
RTVSPropertyOp57
 70
     0
102
RTVSPropertyOp58
 70
     0
102
RTVSPropertyOp59
 70
     0
102
RTVSPropertyOp60
 70
     0
102
RTVSPropertyOp61
 70
     0
102
RTVSPropertyOp62
 70
     0
  0
XRECORD
  5
8629
102
{ACAD_REACTORS
330
8628
102
}
330
8628
100
AcDbXrecord
280
     1
102
RTVSPost2010Prop28
280
     0
102
RTVSPost2010PropOp28
 70
     1
102
RTVSPost2010Prop29
280
     1
102
RTVSPost2010PropOp29
 70
     1
102
RTVSPost2010Prop30
280
     1
102
RTVSPost2010PropOp30
 70
     1
102
RTVSPost2010Prop31
280
     0
102
RTVSPost2010PropOp31
 70
     1
102
RTVSPost2010Prop32
280
     0
102
RTVSPost2010PropOp32
 70
     1
102
RTVSPost2010Prop33
280
     0
102
RTVSPost2010PropOp33
 70
     1
102
RTVSPost2010Prop34
280
     0
102
RTVSPost2010PropOp34
 70
     1
102
RTVSPost2010Prop35
280
     0
102
RTVSPost2010PropOp35
 70
     1
102
RTVSPost2010Prop36
280
     0
102
RTVSPost2010PropOp36
 70
     1
102
RTVSPost2010Prop37
 90
       50
102
RTVSPost2010PropOp37
 70
     1
102
RTVSPost2010Prop38
140
0.0
102
RTVSPost2010PropOp38
 70
     1
102
RTVSPost2010Prop39
140
1.0
102
RTVSPost2010PropOp39
 70
     1
102
RTVSPost2010Prop40
 90
        0
102
RTVSPost2010PropOp40
 70
     1
102
RTVSPost2010Prop41ColorIndex
 90
       18
102
RTVSPost2010Prop41ColorRGB
 90
        0
102
RTVSPost2010PropOp41
 70
     1
102
RTVSPost2010Prop42
 90
       50
102
RTVSPost2010PropOp42
 70
     1
102
RTVSPost2010Prop43
 90
        3
102
RTVSPost2010PropOp43
 70
     1
102
RTVSPost2010Prop44ColorIndex
 90
        5
102
RTVSPost2010Prop44ColorRGB
 90
      255
102
RTVSPost2010PropOp44
 70
     1
102
RTVSPost2010Prop45
280
     0
102
RTVSPost2010PropOp45
 70
     1
102
RTVSPost2010Prop46
 90
       50
102
RTVSPost2010PropOp46
 70
     1
102
RTVSPost2010Prop47
 90
       50
102
RTVSPost2010PropOp47
 70
     1
102
RTVSPost2010Prop48
 90
       50
102
RTVSPost2010PropOp48
 70
     1
102
RTVSPost2010Prop49
280
     0
102
RTVSPost2010PropOp49
 70
     1
102
RTVSPost2010Prop50
 90
       50
102
RTVSPost2010PropOp50
 70
     1
102
RTVSPost2010Prop51ColorIndex
 90
      256
102
RTVSPost2010Prop51ColorRGB
 90
-16777216
102
RTVSPost2010PropOp51
 70
     0
102
RTVSPost2010Prop52
140
1.0
102
RTVSPost2010PropOp52
 70
     0
102
RTVSPost2010Prop53
 90
        2
102
RTVSPost2010PropOp53
 70
     1
102
RTVSPost2010Prop54
  1
strokes_ogs.tif
102
RTVSPost2010PropOp54
 70
     1
102
RTVSPost2010Prop55
280
     0
102
RTVSPost2010PropOp55
 70
     1
102
RTVSPost2010Prop56
140
1.0
102
RTVSPost2010PropOp56
 70
     1
102
RTVSPost2010Prop57
140
1.0
102
RTVSPost2010PropOp57
 70
     1
102
RTVSPropertyOp0
 70
     1
102
RTVSPropertyOp1
 70
     1
102
RTVSPropertyOp2
 70
     1
102
RTVSPropertyOp3
 70
     1
102
RTVSPropertyOp4
 70
     1
102
RTVSPropertyOp5
 70
     1
102
RTVSPropertyOp6
 70
     1
102
RTVSPropertyOp7
 70
     1
102
RTVSPropertyOp8
 70
     1
102
RTVSPropertyOp9
 70
     1
102
RTVSPropertyOp10
 70
     1
102
RTVSPropertyOp11
 70
     1
102
RTVSPropertyOp12
 70
     1
102
RTVSPropertyOp13
 70
     1
102
RTVSPropertyOp14
 70
     1
102
RTVSPropertyOp15
 70
     1
102
RTVSPropertyOp16
 70
     1
102
RTVSPropertyOp17
 70
     1
102
RTVSPropertyOp18
 70
     1
102
RTVSPropertyOp19
 70
     1
102
RTVSPropertyOp20
 70
     1
102
RTVSPropertyOp21
 70
     1
102
RTVSPropertyOp22
 70
     1
102
RTVSPropertyOp23
 70
     1
102
RTVSPropertyOp24
 70
     1
102
RTVSPropertyOp25
 70
     1
102
RTVSPropertyOp26
 70
     1
102
RTVSPropertyOp27
 70
     1
102
RTVSPropertyOp28
 70
     1
102
RTVSPropertyOp29
 70
     1
102
RTVSPropertyOp30
 70
     1
102
RTVSPropertyOp31
 70
     1
102
RTVSPropertyOp32
 70
     1
102
RTVSPropertyOp33
 70
     1
102
RTVSPropertyOp34
 70
     1
102
RTVSPropertyOp35
 70
     1
102
RTVSPropertyOp36
 70
     1
102
RTVSPropertyOp37
 70
     1
102
RTVSPropertyOp38
 70
     1
102
RTVSPropertyOp39
 70
     1
102
RTVSPropertyOp40
 70
     1
102
RTVSPropertyOp41
 70
     1
102
RTVSPropertyOp42
 70
     1
102
RTVSPropertyOp43
 70
     1
102
RTVSPropertyOp44
 70
     1
102
RTVSPropertyOp45
 70
     1
102
RTVSPropertyOp46
 70
     1
102
RTVSPropertyOp47
 70
     1
102
RTVSPropertyOp48
 70
     1
102
RTVSPropertyOp49
 70
     1
102
RTVSPropertyOp50
 70
     1
102
RTVSPropertyOp51
 70
     0
102
RTVSPropertyOp52
 70
     0
102
RTVSPropertyOp53
 70
     1
102
RTVSPropertyOp54
 70
     1
102
RTVSPropertyOp55
 70
     1
102
RTVSPropertyOp56
 70
     1
102
RTVSPropertyOp57
 70
     1
102
RTVSPropertyOp58
 70
     1
102
RTVSPropertyOp59
 70
     1
102
RTVSPropertyOp60
 70
     1
102
RTVSPropertyOp61
 70
     1
102
RTVSPropertyOp62
 70
     1
  0
XRECORD
  5
863F
102
{ACAD_REACTORS
330
863E
102
}
330
863E
100
AcDbXrecord
280
     1
102
RTVSPost2010Prop28
280
     0
102
RTVSPost2010PropOp28
 70
     1
102
RTVSPost2010Prop29
280
     1
102
RTVSPost2010PropOp29
 70
     1
102
RTVSPost2010Prop30
280
     1
102
RTVSPost2010PropOp30
 70
     1
102
RTVSPost2010Prop31
280
     0
102
RTVSPost2010PropOp31
 70
     1
102
RTVSPost2010Prop32
280
     0
102
RTVSPost2010PropOp32
 70
     1
102
RTVSPost2010Prop33
280
     0
102
RTVSPost2010PropOp33
 70
     1
102
RTVSPost2010Prop34
280
     0
102
RTVSPost2010PropOp34
 70
     1
102
RTVSPost2010Prop35
280
     0
102
RTVSPost2010PropOp35
 70
     1
102
RTVSPost2010Prop36
280
     0
102
RTVSPost2010PropOp36
 70
     1
102
RTVSPost2010Prop37
 90
       50
102
RTVSPost2010PropOp37
 70
     1
102
RTVSPost2010Prop38
140
0.0
102
RTVSPost2010PropOp38
 70
     1
102
RTVSPost2010Prop39
140
1.0
102
RTVSPost2010PropOp39
 70
     1
102
RTVSPost2010Prop40
 90
        0
102
RTVSPost2010PropOp40
 70
     1
102
RTVSPost2010Prop41ColorIndex
 90
       18
102
RTVSPost2010Prop41ColorRGB
 90
        0
102
RTVSPost2010PropOp41
 70
     1
102
RTVSPost2010Prop42
 90
       50
102
RTVSPost2010PropOp42
 70
     1
102
RTVSPost2010Prop43
 90
        3
102
RTVSPost2010PropOp43
 70
     1
102
RTVSPost2010Prop44ColorIndex
 90
        5
102
RTVSPost2010Prop44ColorRGB
 90
      255
102
RTVSPost2010PropOp44
 70
     1
102
RTVSPost2010Prop45
280
     0
102
RTVSPost2010PropOp45
 70
     1
102
RTVSPost2010Prop46
 90
       50
102
RTVSPost2010PropOp46
 70
     1
102
RTVSPost2010Prop47
 90
       50
102
RTVSPost2010PropOp47
 70
     1
102
RTVSPost2010Prop48
 90
       50
102
RTVSPost2010PropOp48
 70
     1
102
RTVSPost2010Prop49
280
     0
102
RTVSPost2010PropOp49
 70
     1
102
RTVSPost2010Prop50
 90
       50
102
RTVSPost2010PropOp50
 70
     1
102
RTVSPost2010Prop51ColorIndex
 90
      256
102
RTVSPost2010Prop51ColorRGB
 90
-16777216
102
RTVSPost2010PropOp51
 70
     0
102
RTVSPost2010Prop52
140
1.0
102
RTVSPost2010PropOp52
 70
     0
102
RTVSPost2010Prop53
 90
        2
102
RTVSPost2010PropOp53
 70
     1
102
RTVSPost2010Prop54
  1
strokes_ogs.tif
102
RTVSPost2010PropOp54
 70
     1
102
RTVSPost2010Prop55
280
     0
102
RTVSPost2010PropOp55
 70
     1
102
RTVSPost2010Prop56
140
1.0
102
RTVSPost2010PropOp56
 70
     1
102
RTVSPost2010Prop57
140
1.0
102
RTVSPost2010PropOp57
 70
     1
102
RTVSPropertyOp0
 70
     1
102
RTVSPropertyOp1
 70
     1
102
RTVSPropertyOp2
 70
     1
102
RTVSPropertyOp3
 70
     1
102
RTVSPropertyOp4
 70
     1
102
RTVSPropertyOp5
 70
     1
102
RTVSPropertyOp6
 70
     1
102
RTVSPropertyOp7
 70
     1
102
RTVSPropertyOp8
 70
     1
102
RTVSPropertyOp9
 70
     1
102
RTVSPropertyOp10
 70
     1
102
RTVSPropertyOp11
 70
     1
102
RTVSPropertyOp12
 70
     1
102
RTVSPropertyOp13
 70
     1
102
RTVSPropertyOp14
 70
     1
102
RTVSPropertyOp15
 70
     1
102
RTVSPropertyOp16
 70
     1
102
RTVSPropertyOp17
 70
     1
102
RTVSPropertyOp18
 70
     1
102
RTVSPropertyOp19
 70
     1
102
RTVSPropertyOp20
 70
     1
102
RTVSPropertyOp21
 70
     1
102
RTVSPropertyOp22
 70
     1
102
RTVSPropertyOp23
 70
     1
102
RTVSPropertyOp24
 70
     1
102
RTVSPropertyOp25
 70
     1
102
RTVSPropertyOp26
 70
     1
102
RTVSPropertyOp27
 70
     1
102
RTVSPropertyOp28
 70
     1
102
RTVSPropertyOp29
 70
     1
102
RTVSPropertyOp30
 70
     1
102
RTVSPropertyOp31
 70
     1
102
RTVSPropertyOp32
 70
     1
102
RTVSPropertyOp33
 70
     1
102
RTVSPropertyOp34
 70
     1
102
RTVSPropertyOp35
 70
     1
102
RTVSPropertyOp36
 70
     1
102
RTVSPropertyOp37
 70
     1
102
RTVSPropertyOp38
 70
     1
102
RTVSPropertyOp39
 70
     1
102
RTVSPropertyOp40
 70
     1
102
RTVSPropertyOp41
 70
     1
102
RTVSPropertyOp42
 70
     1
102
RTVSPropertyOp43
 70
     1
102
RTVSPropertyOp44
 70
     1
102
RTVSPropertyOp45
 70
     1
102
RTVSPropertyOp46
 70
     1
102
RTVSPropertyOp47
 70
     1
102
RTVSPropertyOp48
 70
     1
102
RTVSPropertyOp49
 70
     1
102
RTVSPropertyOp50
 70
     1
102
RTVSPropertyOp51
 70
     0
102
RTVSPropertyOp52
 70
     0
102
RTVSPropertyOp53
 70
     1
102
RTVSPropertyOp54
 70
     1
102
RTVSPropertyOp55
 70
     1
102
RTVSPropertyOp56
 70
     1
102
RTVSPropertyOp57
 70
     1
102
RTVSPropertyOp58
 70
     1
102
RTVSPropertyOp59
 70
     1
102
RTVSPropertyOp60
 70
     1
102
RTVSPropertyOp61
 70
     1
102
RTVSPropertyOp62
 70
     1
  0
XRECORD
  5
863D
102
{ACAD_REACTORS
330
863C
102
}
330
863C
100
AcDbXrecord
280
     1
102
RTVSPost2010Prop28
280
     0
102
RTVSPost2010PropOp28
 70
     1
102
RTVSPost2010Prop29
280
     1
102
RTVSPost2010PropOp29
 70
     1
102
RTVSPost2010Prop30
280
     1
102
RTVSPost2010PropOp30
 70
     1
102
RTVSPost2010Prop31
280
     0
102
RTVSPost2010PropOp31
 70
     1
102
RTVSPost2010Prop32
280
     0
102
RTVSPost2010PropOp32
 70
     1
102
RTVSPost2010Prop33
280
     0
102
RTVSPost2010PropOp33
 70
     1
102
RTVSPost2010Prop34
280
     0
102
RTVSPost2010PropOp34
 70
     1
102
RTVSPost2010Prop35
280
     0
102
RTVSPost2010PropOp35
 70
     1
102
RTVSPost2010Prop36
280
     0
102
RTVSPost2010PropOp36
 70
     1
102
RTVSPost2010Prop37
 90
       50
102
RTVSPost2010PropOp37
 70
     1
102
RTVSPost2010Prop38
140
0.0
102
RTVSPost2010PropOp38
 70
     1
102
RTVSPost2010Prop39
140
1.0
102
RTVSPost2010PropOp39
 70
     1
102
RTVSPost2010Prop40
 90
        0
102
RTVSPost2010PropOp40
 70
     1
102
RTVSPost2010Prop41ColorIndex
 90
       18
102
RTVSPost2010Prop41ColorRGB
 90
        0
102
RTVSPost2010PropOp41
 70
     1
102
RTVSPost2010Prop42
 90
       50
102
RTVSPost2010PropOp42
 70
     1
102
RTVSPost2010Prop43
 90
        3
102
RTVSPost2010PropOp43
 70
     1
102
RTVSPost2010Prop44ColorIndex
 90
        5
102
RTVSPost2010Prop44ColorRGB
 90
      255
102
RTVSPost2010PropOp44
 70
     1
102
RTVSPost2010Prop45
280
     0
102
RTVSPost2010PropOp45
 70
     1
102
RTVSPost2010Prop46
 90
       50
102
RTVSPost2010PropOp46
 70
     1
102
RTVSPost2010Prop47
 90
       50
102
RTVSPost2010PropOp47
 70
     1
102
RTVSPost2010Prop48
 90
       50
102
RTVSPost2010PropOp48
 70
     1
102
RTVSPost2010Prop49
280
     0
102
RTVSPost2010PropOp49
 70
     1
102
RTVSPost2010Prop50
 90
       50
102
RTVSPost2010PropOp50
 70
     1
102
RTVSPost2010Prop51ColorIndex
 90
      256
102
RTVSPost2010Prop51ColorRGB
 90
-16777216
102
RTVSPost2010PropOp51
 70
     0
102
RTVSPost2010Prop52
140
1.0
102
RTVSPost2010PropOp52
 70
     0
102
RTVSPost2010Prop53
 90
        2
102
RTVSPost2010PropOp53
 70
     1
102
RTVSPost2010Prop54
  1
strokes_ogs.tif
102
RTVSPost2010PropOp54
 70
     1
102
RTVSPost2010Prop55
280
     0
102
RTVSPost2010PropOp55
 70
     1
102
RTVSPost2010Prop56
140
1.0
102
RTVSPost2010PropOp56
 70
     1
102
RTVSPost2010Prop57
140
1.0
102
RTVSPost2010PropOp57
 70
     1
102
RTVSPropertyOp0
 70
     1
102
RTVSPropertyOp1
 70
     1
102
RTVSPropertyOp2
 70
     1
102
RTVSPropertyOp3
 70
     1
102
RTVSPropertyOp4
 70
     1
102
RTVSPropertyOp5
 70
     1
102
RTVSPropertyOp6
 70
     1
102
RTVSPropertyOp7
 70
     1
102
RTVSPropertyOp8
 70
     1
102
RTVSPropertyOp9
 70
     1
102
RTVSPropertyOp10
 70
     1
102
RTVSPropertyOp11
 70
     1
102
RTVSPropertyOp12
 70
     1
102
RTVSPropertyOp13
 70
     1
102
RTVSPropertyOp14
 70
     1
102
RTVSPropertyOp15
 70
     1
102
RTVSPropertyOp16
 70
     1
102
RTVSPropertyOp17
 70
     1
102
RTVSPropertyOp18
 70
     1
102
RTVSPropertyOp19
 70
     1
102
RTVSPropertyOp20
 70
     1
102
RTVSPropertyOp21
 70
     1
102
RTVSPropertyOp22
 70
     1
102
RTVSPropertyOp23
 70
     1
102
RTVSPropertyOp24
 70
     1
102
RTVSPropertyOp25
 70
     1
102
RTVSPropertyOp26
 70
     1
102
RTVSPropertyOp27
 70
     1
102
RTVSPropertyOp28
 70
     1
102
RTVSPropertyOp29
 70
     1
102
RTVSPropertyOp30
 70
     1
102
RTVSPropertyOp31
 70
     1
102
RTVSPropertyOp32
 70
     1
102
RTVSPropertyOp33
 70
     1
102
RTVSPropertyOp34
 70
     1
102
RTVSPropertyOp35
 70
     1
102
RTVSPropertyOp36
 70
     1
102
RTVSPropertyOp37
 70
     1
102
RTVSPropertyOp38
 70
     1
102
RTVSPropertyOp39
 70
     1
102
RTVSPropertyOp40
 70
     1
102
RTVSPropertyOp41
 70
     1
102
RTVSPropertyOp42
 70
     1
102
RTVSPropertyOp43
 70
     1
102
RTVSPropertyOp44
 70
     1
102
RTVSPropertyOp45
 70
     1
102
RTVSPropertyOp46
 70
     1
102
RTVSPropertyOp47
 70
     1
102
RTVSPropertyOp48
 70
     1
102
RTVSPropertyOp49
 70
     1
102
RTVSPropertyOp50
 70
     1
102
RTVSPropertyOp51
 70
     0
102
RTVSPropertyOp52
 70
     0
102
RTVSPropertyOp53
 70
     1
102
RTVSPropertyOp54
 70
     1
102
RTVSPropertyOp55
 70
     1
102
RTVSPropertyOp56
 70
     1
102
RTVSPropertyOp57
 70
     1
102
RTVSPropertyOp58
 70
     1
102
RTVSPropertyOp59
 70
     1
102
RTVSPropertyOp60
 70
     1
102
RTVSPropertyOp61
 70
     1
102
RTVSPropertyOp62
 70
     1
  0
XRECORD
  5
8637
102
{ACAD_REACTORS
330
8636
102
}
330
8636
100
AcDbXrecord
280
     1
102
RTVSPost2010Prop28
280
     0
102
RTVSPost2010PropOp28
 70
     1
102
RTVSPost2010Prop29
280
     1
102
RTVSPost2010PropOp29
 70
     1
102
RTVSPost2010Prop30
280
     1
102
RTVSPost2010PropOp30
 70
     1
102
RTVSPost2010Prop31
280
     0
102
RTVSPost2010PropOp31
 70
     1
102
RTVSPost2010Prop32
280
     0
102
RTVSPost2010PropOp32
 70
     1
102
RTVSPost2010Prop33
280
     0
102
RTVSPost2010PropOp33
 70
     1
102
RTVSPost2010Prop34
280
     0
102
RTVSPost2010PropOp34
 70
     1
102
RTVSPost2010Prop35
280
     0
102
RTVSPost2010PropOp35
 70
     1
102
RTVSPost2010Prop36
280
     0
102
RTVSPost2010PropOp36
 70
     1
102
RTVSPost2010Prop37
 90
       50
102
RTVSPost2010PropOp37
 70
     1
102
RTVSPost2010Prop38
140
0.0
102
RTVSPost2010PropOp38
 70
     1
102
RTVSPost2010Prop39
140
1.0
102
RTVSPost2010PropOp39
 70
     1
102
RTVSPost2010Prop40
 90
        0
102
RTVSPost2010PropOp40
 70
     1
102
RTVSPost2010Prop41ColorIndex
 90
       18
102
RTVSPost2010Prop41ColorRGB
 90
        0
102
RTVSPost2010PropOp41
 70
     1
102
RTVSPost2010Prop42
 90
       50
102
RTVSPost2010PropOp42
 70
     1
102
RTVSPost2010Prop43
 90
        3
102
RTVSPost2010PropOp43
 70
     1
102
RTVSPost2010Prop44ColorIndex
 90
        5
102
RTVSPost2010Prop44ColorRGB
 90
      255
102
RTVSPost2010PropOp44
 70
     1
102
RTVSPost2010Prop45
280
     0
102
RTVSPost2010PropOp45
 70
     1
102
RTVSPost2010Prop46
 90
       50
102
RTVSPost2010PropOp46
 70
     1
102
RTVSPost2010Prop47
 90
       50
102
RTVSPost2010PropOp47
 70
     1
102
RTVSPost2010Prop48
 90
       50
102
RTVSPost2010PropOp48
 70
     1
102
RTVSPost2010Prop49
280
     0
102
RTVSPost2010PropOp49
 70
     1
102
RTVSPost2010Prop50
 90
       50
102
RTVSPost2010PropOp50
 70
     1
102
RTVSPost2010Prop51ColorIndex
 90
      256
102
RTVSPost2010Prop51ColorRGB
 90
-16777216
102
RTVSPost2010PropOp51
 70
     0
102
RTVSPost2010Prop52
140
1.0
102
RTVSPost2010PropOp52
 70
     0
102
RTVSPost2010Prop53
 90
        2
102
RTVSPost2010PropOp53
 70
     1
102
RTVSPost2010Prop54
  1
strokes_ogs.tif
102
RTVSPost2010PropOp54
 70
     1
102
RTVSPost2010Prop55
280
     0
102
RTVSPost2010PropOp55
 70
     1
102
RTVSPost2010Prop56
140
1.0
102
RTVSPost2010PropOp56
 70
     1
102
RTVSPost2010Prop57
140
1.0
102
RTVSPost2010PropOp57
 70
     1
102
RTVSPropertyOp0
 70
     1
102
RTVSPropertyOp1
 70
     1
102
RTVSPropertyOp2
 70
     1
102
RTVSPropertyOp3
 70
     1
102
RTVSPropertyOp4
 70
     1
102
RTVSPropertyOp5
 70
     1
102
RTVSPropertyOp6
 70
     1
102
RTVSPropertyOp7
 70
     1
102
RTVSPropertyOp8
 70
     1
102
RTVSPropertyOp9
 70
     1
102
RTVSPropertyOp10
 70
     1
102
RTVSPropertyOp11
 70
     1
102
RTVSPropertyOp12
 70
     1
102
RTVSPropertyOp13
 70
     1
102
RTVSPropertyOp14
 70
     1
102
RTVSPropertyOp15
 70
     1
102
RTVSPropertyOp16
 70
     1
102
RTVSPropertyOp17
 70
     1
102
RTVSPropertyOp18
 70
     1
102
RTVSPropertyOp19
 70
     1
102
RTVSPropertyOp20
 70
     1
102
RTVSPropertyOp21
 70
     1
102
RTVSPropertyOp22
 70
     1
102
RTVSPropertyOp23
 70
     1
102
RTVSPropertyOp24
 70
     1
102
RTVSPropertyOp25
 70
     1
102
RTVSPropertyOp26
 70
     1
102
RTVSPropertyOp27
 70
     1
102
RTVSPropertyOp28
 70
     1
102
RTVSPropertyOp29
 70
     1
102
RTVSPropertyOp30
 70
     1
102
RTVSPropertyOp31
 70
     1
102
RTVSPropertyOp32
 70
     1
102
RTVSPropertyOp33
 70
     1
102
RTVSPropertyOp34
 70
     1
102
RTVSPropertyOp35
 70
     1
102
RTVSPropertyOp36
 70
     1
102
RTVSPropertyOp37
 70
     1
102
RTVSPropertyOp38
 70
     1
102
RTVSPropertyOp39
 70
     1
102
RTVSPropertyOp40
 70
     1
102
RTVSPropertyOp41
 70
     1
102
RTVSPropertyOp42
 70
     1
102
RTVSPropertyOp43
 70
     1
102
RTVSPropertyOp44
 70
     1
102
RTVSPropertyOp45
 70
     1
102
RTVSPropertyOp46
 70
     1
102
RTVSPropertyOp47
 70
     1
102
RTVSPropertyOp48
 70
     1
102
RTVSPropertyOp49
 70
     1
102
RTVSPropertyOp50
 70
     1
102
RTVSPropertyOp51
 70
     0
102
RTVSPropertyOp52
 70
     0
102
RTVSPropertyOp53
 70
     1
102
RTVSPropertyOp54
 70
     1
102
RTVSPropertyOp55
 70
     1
102
RTVSPropertyOp56
 70
     1
102
RTVSPropertyOp57
 70
     1
102
RTVSPropertyOp58
 70
     1
102
RTVSPropertyOp59
 70
     1
102
RTVSPropertyOp60
 70
     1
102
RTVSPropertyOp61
 70
     1
102
RTVSPropertyOp62
 70
     1
  0
XRECORD
  5
8639
102
{ACAD_REACTORS
330
8638
102
}
330
8638
100
AcDbXrecord
280
     1
102
RTVSPost2010Prop28
280
     0
102
RTVSPost2010PropOp28
 70
     1
102
RTVSPost2010Prop29
280
     1
102
RTVSPost2010PropOp29
 70
     1
102
RTVSPost2010Prop30
280
     1
102
RTVSPost2010PropOp30
 70
     1
102
RTVSPost2010Prop31
280
     0
102
RTVSPost2010PropOp31
 70
     1
102
RTVSPost2010Prop32
280
     0
102
RTVSPost2010PropOp32
 70
     1
102
RTVSPost2010Prop33
280
     0
102
RTVSPost2010PropOp33
 70
     1
102
RTVSPost2010Prop34
280
     0
102
RTVSPost2010PropOp34
 70
     1
102
RTVSPost2010Prop35
280
     0
102
RTVSPost2010PropOp35
 70
     1
102
RTVSPost2010Prop36
280
     0
102
RTVSPost2010PropOp36
 70
     1
102
RTVSPost2010Prop37
 90
       50
102
RTVSPost2010PropOp37
 70
     1
102
RTVSPost2010Prop38
140
0.0
102
RTVSPost2010PropOp38
 70
     1
102
RTVSPost2010Prop39
140
1.0
102
RTVSPost2010PropOp39
 70
     1
102
RTVSPost2010Prop40
 90
        0
102
RTVSPost2010PropOp40
 70
     1
102
RTVSPost2010Prop41ColorIndex
 90
       18
102
RTVSPost2010Prop41ColorRGB
 90
        0
102
RTVSPost2010PropOp41
 70
     1
102
RTVSPost2010Prop42
 90
       50
102
RTVSPost2010PropOp42
 70
     1
102
RTVSPost2010Prop43
 90
        3
102
RTVSPost2010PropOp43
 70
     1
102
RTVSPost2010Prop44ColorIndex
 90
        5
102
RTVSPost2010Prop44ColorRGB
 90
      255
102
RTVSPost2010PropOp44
 70
     1
102
RTVSPost2010Prop45
280
     0
102
RTVSPost2010PropOp45
 70
     1
102
RTVSPost2010Prop46
 90
       50
102
RTVSPost2010PropOp46
 70
     1
102
RTVSPost2010Prop47
 90
       50
102
RTVSPost2010PropOp47
 70
     1
102
RTVSPost2010Prop48
 90
       50
102
RTVSPost2010PropOp48
 70
     1
102
RTVSPost2010Prop49
280
     0
102
RTVSPost2010PropOp49
 70
     1
102
RTVSPost2010Prop50
 90
       50
102
RTVSPost2010PropOp50
 70
     1
102
RTVSPost2010Prop51ColorIndex
 90
      256
102
RTVSPost2010Prop51ColorRGB
 90
-16777216
102
RTVSPost2010PropOp51
 70
     0
102
RTVSPost2010Prop52
140
1.0
102
RTVSPost2010PropOp52
 70
     0
102
RTVSPost2010Prop53
 90
        2
102
RTVSPost2010PropOp53
 70
     1
102
RTVSPost2010Prop54
  1
strokes_ogs.tif
102
RTVSPost2010PropOp54
 70
     1
102
RTVSPost2010Prop55
280
     0
102
RTVSPost2010PropOp55
 70
     1
102
RTVSPost2010Prop56
140
1.0
102
RTVSPost2010PropOp56
 70
     1
102
RTVSPost2010Prop57
140
1.0
102
RTVSPost2010PropOp57
 70
     1
102
RTVSPropertyOp0
 70
     1
102
RTVSPropertyOp1
 70
     1
102
RTVSPropertyOp2
 70
     1
102
RTVSPropertyOp3
 70
     1
102
RTVSPropertyOp4
 70
     1
102
RTVSPropertyOp5
 70
     1
102
RTVSPropertyOp6
 70
     1
102
RTVSPropertyOp7
 70
     1
102
RTVSPropertyOp8
 70
     1
102
RTVSPropertyOp9
 70
     1
102
RTVSPropertyOp10
 70
     1
102
RTVSPropertyOp11
 70
     1
102
RTVSPropertyOp12
 70
     1
102
RTVSPropertyOp13
 70
     1
102
RTVSPropertyOp14
 70
     1
102
RTVSPropertyOp15
 70
     1
102
RTVSPropertyOp16
 70
     1
102
RTVSPropertyOp17
 70
     1
102
RTVSPropertyOp18
 70
     1
102
RTVSPropertyOp19
 70
     1
102
RTVSPropertyOp20
 70
     1
102
RTVSPropertyOp21
 70
     1
102
RTVSPropertyOp22
 70
     1
102
RTVSPropertyOp23
 70
     1
102
RTVSPropertyOp24
 70
     1
102
RTVSPropertyOp25
 70
     1
102
RTVSPropertyOp26
 70
     1
102
RTVSPropertyOp27
 70
     1
102
RTVSPropertyOp28
 70
     1
102
RTVSPropertyOp29
 70
     1
102
RTVSPropertyOp30
 70
     1
102
RTVSPropertyOp31
 70
     1
102
RTVSPropertyOp32
 70
     1
102
RTVSPropertyOp33
 70
     1
102
RTVSPropertyOp34
 70
     1
102
RTVSPropertyOp35
 70
     1
102
RTVSPropertyOp36
 70
     1
102
RTVSPropertyOp37
 70
     1
102
RTVSPropertyOp38
 70
     1
102
RTVSPropertyOp39
 70
     1
102
RTVSPropertyOp40
 70
     1
102
RTVSPropertyOp41
 70
     1
102
RTVSPropertyOp42
 70
     1
102
RTVSPropertyOp43
 70
     1
102
RTVSPropertyOp44
 70
     1
102
RTVSPropertyOp45
 70
     1
102
RTVSPropertyOp46
 70
     1
102
RTVSPropertyOp47
 70
     1
102
RTVSPropertyOp48
 70
     1
102
RTVSPropertyOp49
 70
     1
102
RTVSPropertyOp50
 70
     1
102
RTVSPropertyOp51
 70
     0
102
RTVSPropertyOp52
 70
     0
102
RTVSPropertyOp53
 70
     1
102
RTVSPropertyOp54
 70
     1
102
RTVSPropertyOp55
 70
     1
102
RTVSPropertyOp56
 70
     1
102
RTVSPropertyOp57
 70
     1
102
RTVSPropertyOp58
 70
     1
102
RTVSPropertyOp59
 70
     1
102
RTVSPropertyOp60
 70
     1
102
RTVSPropertyOp61
 70
     1
102
RTVSPropertyOp62
 70
     1
  0
XRECORD
  5
862F
102
{ACAD_REACTORS
330
862E
102
}
330
862E
100
AcDbXrecord
280
     1
102
RTVSPost2010Prop28
280
     0
102
RTVSPost2010PropOp28
 70
     1
102
RTVSPost2010Prop29
280
     1
102
RTVSPost2010PropOp29
 70
     1
102
RTVSPost2010Prop30
280
     1
102
RTVSPost2010PropOp30
 70
     1
102
RTVSPost2010Prop31
280
     0
102
RTVSPost2010PropOp31
 70
     1
102
RTVSPost2010Prop32
280
     0
102
RTVSPost2010PropOp32
 70
     1
102
RTVSPost2010Prop33
280
     0
102
RTVSPost2010PropOp33
 70
     1
102
RTVSPost2010Prop34
280
     0
102
RTVSPost2010PropOp34
 70
     1
102
RTVSPost2010Prop35
280
     0
102
RTVSPost2010PropOp35
 70
     1
102
RTVSPost2010Prop36
280
     0
102
RTVSPost2010PropOp36
 70
     1
102
RTVSPost2010Prop37
 90
       50
102
RTVSPost2010PropOp37
 70
     1
102
RTVSPost2010Prop38
140
0.0
102
RTVSPost2010PropOp38
 70
     1
102
RTVSPost2010Prop39
140
1.0
102
RTVSPost2010PropOp39
 70
     1
102
RTVSPost2010Prop40
 90
        0
102
RTVSPost2010PropOp40
 70
     1
102
RTVSPost2010Prop41ColorIndex
 90
       18
102
RTVSPost2010Prop41ColorRGB
 90
        0
102
RTVSPost2010PropOp41
 70
     1
102
RTVSPost2010Prop42
 90
       50
102
RTVSPost2010PropOp42
 70
     1
102
RTVSPost2010Prop43
 90
        3
102
RTVSPost2010PropOp43
 70
     1
102
RTVSPost2010Prop44ColorIndex
 90
        5
102
RTVSPost2010Prop44ColorRGB
 90
      255
102
RTVSPost2010PropOp44
 70
     1
102
RTVSPost2010Prop45
280
     0
102
RTVSPost2010PropOp45
 70
     1
102
RTVSPost2010Prop46
 90
       50
102
RTVSPost2010PropOp46
 70
     1
102
RTVSPost2010Prop47
 90
       50
102
RTVSPost2010PropOp47
 70
     1
102
RTVSPost2010Prop48
 90
       50
102
RTVSPost2010PropOp48
 70
     1
102
RTVSPost2010Prop49
280
     0
102
RTVSPost2010PropOp49
 70
     1
102
RTVSPost2010Prop50
 90
       50
102
RTVSPost2010PropOp50
 70
     1
102
RTVSPost2010Prop51ColorIndex
 90
      256
102
RTVSPost2010Prop51ColorRGB
 90
-16777216
102
RTVSPost2010PropOp51
 70
     0
102
RTVSPost2010Prop52
140
1.0
102
RTVSPost2010PropOp52
 70
     0
102
RTVSPost2010Prop53
 90
        2
102
RTVSPost2010PropOp53
 70
     1
102
RTVSPost2010Prop54
  1
strokes_ogs.tif
102
RTVSPost2010PropOp54
 70
     1
102
RTVSPost2010Prop55
280
     0
102
RTVSPost2010PropOp55
 70
     1
102
RTVSPost2010Prop56
140
1.0
102
RTVSPost2010PropOp56
 70
     1
102
RTVSPost2010Prop57
140
1.0
102
RTVSPost2010PropOp57
 70
     1
102
RTVSPropertyOp0
 70
     1
102
RTVSPropertyOp1
 70
     1
102
RTVSPropertyOp2
 70
     1
102
RTVSPropertyOp3
 70
     1
102
RTVSPropertyOp4
 70
     1
102
RTVSPropertyOp5
 70
     1
102
RTVSPropertyOp6
 70
     1
102
RTVSPropertyOp7
 70
     1
102
RTVSPropertyOp8
 70
     1
102
RTVSPropertyOp9
 70
     1
102
RTVSPropertyOp10
 70
     1
102
RTVSPropertyOp11
 70
     1
102
RTVSPropertyOp12
 70
     1
102
RTVSPropertyOp13
 70
     1
102
RTVSPropertyOp14
 70
     1
102
RTVSPropertyOp15
 70
     1
102
RTVSPropertyOp16
 70
     1
102
RTVSPropertyOp17
 70
     1
102
RTVSPropertyOp18
 70
     1
102
RTVSPropertyOp19
 70
     1
102
RTVSPropertyOp20
 70
     1
102
RTVSPropertyOp21
 70
     1
102
RTVSPropertyOp22
 70
     1
102
RTVSPropertyOp23
 70
     1
102
RTVSPropertyOp24
 70
     1
102
RTVSPropertyOp25
 70
     1
102
RTVSPropertyOp26
 70
     1
102
RTVSPropertyOp27
 70
     1
102
RTVSPropertyOp28
 70
     1
102
RTVSPropertyOp29
 70
     1
102
RTVSPropertyOp30
 70
     1
102
RTVSPropertyOp31
 70
     1
102
RTVSPropertyOp32
 70
     1
102
RTVSPropertyOp33
 70
     1
102
RTVSPropertyOp34
 70
     1
102
RTVSPropertyOp35
 70
     1
102
RTVSPropertyOp36
 70
     1
102
RTVSPropertyOp37
 70
     1
102
RTVSPropertyOp38
 70
     1
102
RTVSPropertyOp39
 70
     1
102
RTVSPropertyOp40
 70
     1
102
RTVSPropertyOp41
 70
     1
102
RTVSPropertyOp42
 70
     1
102
RTVSPropertyOp43
 70
     1
102
RTVSPropertyOp44
 70
     1
102
RTVSPropertyOp45
 70
     1
102
RTVSPropertyOp46
 70
     1
102
RTVSPropertyOp47
 70
     1
102
RTVSPropertyOp48
 70
     1
102
RTVSPropertyOp49
 70
     1
102
RTVSPropertyOp50
 70
     1
102
RTVSPropertyOp51
 70
     0
102
RTVSPropertyOp52
 70
     0
102
RTVSPropertyOp53
 70
     1
102
RTVSPropertyOp54
 70
     1
102
RTVSPropertyOp55
 70
     1
102
RTVSPropertyOp56
 70
     1
102
RTVSPropertyOp57
 70
     1
102
RTVSPropertyOp58
 70
     1
102
RTVSPropertyOp59
 70
     1
102
RTVSPropertyOp60
 70
     1
102
RTVSPropertyOp61
 70
     1
102
RTVSPropertyOp62
 70
     1
  0
XRECORD
  5
8623
102
{ACAD_REACTORS
330
8622
102
}
330
8622
100
AcDbXrecord
280
     1
102
RTVSPost2010Prop28
280
     0
102
RTVSPost2010PropOp28
 70
     1
102
RTVSPost2010Prop29
280
     1
102
RTVSPost2010PropOp29
 70
     1
102
RTVSPost2010Prop30
280
     1
102
RTVSPost2010PropOp30
 70
     1
102
RTVSPost2010Prop31
280
     0
102
RTVSPost2010PropOp31
 70
     1
102
RTVSPost2010Prop32
280
     0
102
RTVSPost2010PropOp32
 70
     1
102
RTVSPost2010Prop33
280
     0
102
RTVSPost2010PropOp33
 70
     1
102
RTVSPost2010Prop34
280
     0
102
RTVSPost2010PropOp34
 70
     1
102
RTVSPost2010Prop35
280
     0
102
RTVSPost2010PropOp35
 70
     1
102
RTVSPost2010Prop36
280
     0
102
RTVSPost2010PropOp36
 70
     1
102
RTVSPost2010Prop37
 90
       50
102
RTVSPost2010PropOp37
 70
     1
102
RTVSPost2010Prop38
140
0.0
102
RTVSPost2010PropOp38
 70
     1
102
RTVSPost2010Prop39
140
1.0
102
RTVSPost2010PropOp39
 70
     1
102
RTVSPost2010Prop40
 90
        0
102
RTVSPost2010PropOp40
 70
     1
102
RTVSPost2010Prop41ColorIndex
 90
       18
102
RTVSPost2010Prop41ColorRGB
 90
        0
102
RTVSPost2010PropOp41
 70
     1
102
RTVSPost2010Prop42
 90
       50
102
RTVSPost2010PropOp42
 70
     1
102
RTVSPost2010Prop43
 90
        3
102
RTVSPost2010PropOp43
 70
     1
102
RTVSPost2010Prop44ColorIndex
 90
        5
102
RTVSPost2010Prop44ColorRGB
 90
      255
102
RTVSPost2010PropOp44
 70
     1
102
RTVSPost2010Prop45
280
     0
102
RTVSPost2010PropOp45
 70
     1
102
RTVSPost2010Prop46
 90
       50
102
RTVSPost2010PropOp46
 70
     1
102
RTVSPost2010Prop47
 90
       50
102
RTVSPost2010PropOp47
 70
     1
102
RTVSPost2010Prop48
 90
       50
102
RTVSPost2010PropOp48
 70
     1
102
RTVSPost2010Prop49
280
     0
102
RTVSPost2010PropOp49
 70
     1
102
RTVSPost2010Prop50
 90
       50
102
RTVSPost2010PropOp50
 70
     1
102
RTVSPost2010Prop51ColorIndex
 90
      256
102
RTVSPost2010Prop51ColorRGB
 90
-16777216
102
RTVSPost2010PropOp51
 70
     0
102
RTVSPost2010Prop52
140
1.0
102
RTVSPost2010PropOp52
 70
     0
102
RTVSPost2010Prop53
 90
        2
102
RTVSPost2010PropOp53
 70
     1
102
RTVSPost2010Prop54
  1
strokes_ogs.tif
102
RTVSPost2010PropOp54
 70
     1
102
RTVSPost2010Prop55
280
     0
102
RTVSPost2010PropOp55
 70
     1
102
RTVSPost2010Prop56
140
1.0
102
RTVSPost2010PropOp56
 70
     1
102
RTVSPost2010Prop57
140
1.0
102
RTVSPost2010PropOp57
 70
     1
102
RTVSPropertyOp0
 70
     1
102
RTVSPropertyOp1
 70
     1
102
RTVSPropertyOp2
 70
     1
102
RTVSPropertyOp3
 70
     1
102
RTVSPropertyOp4
 70
     1
102
RTVSPropertyOp5
 70
     1
102
RTVSPropertyOp6
 70
     1
102
RTVSPropertyOp7
 70
     1
102
RTVSPropertyOp8
 70
     1
102
RTVSPropertyOp9
 70
     1
102
RTVSPropertyOp10
 70
     1
102
RTVSPropertyOp11
 70
     1
102
RTVSPropertyOp12
 70
     1
102
RTVSPropertyOp13
 70
     1
102
RTVSPropertyOp14
 70
     1
102
RTVSPropertyOp15
 70
     1
102
RTVSPropertyOp16
 70
     1
102
RTVSPropertyOp17
 70
     1
102
RTVSPropertyOp18
 70
     1
102
RTVSPropertyOp19
 70
     1
102
RTVSPropertyOp20
 70
     1
102
RTVSPropertyOp21
 70
     1
102
RTVSPropertyOp22
 70
     1
102
RTVSPropertyOp23
 70
     1
102
RTVSPropertyOp24
 70
     1
102
RTVSPropertyOp25
 70
     1
102
RTVSPropertyOp26
 70
     1
102
RTVSPropertyOp27
 70
     1
102
RTVSPropertyOp28
 70
     1
102
RTVSPropertyOp29
 70
     1
102
RTVSPropertyOp30
 70
     1
102
RTVSPropertyOp31
 70
     1
102
RTVSPropertyOp32
 70
     1
102
RTVSPropertyOp33
 70
     1
102
RTVSPropertyOp34
 70
     1
102
RTVSPropertyOp35
 70
     1
102
RTVSPropertyOp36
 70
     1
102
RTVSPropertyOp37
 70
     1
102
RTVSPropertyOp38
 70
     1
102
RTVSPropertyOp39
 70
     1
102
RTVSPropertyOp40
 70
     1
102
RTVSPropertyOp41
 70
     1
102
RTVSPropertyOp42
 70
     1
102
RTVSPropertyOp43
 70
     1
102
RTVSPropertyOp44
 70
     1
102
RTVSPropertyOp45
 70
     1
102
RTVSPropertyOp46
 70
     1
102
RTVSPropertyOp47
 70
     1
102
RTVSPropertyOp48
 70
     1
102
RTVSPropertyOp49
 70
     1
102
RTVSPropertyOp50
 70
     1
102
RTVSPropertyOp51
 70
     0
102
RTVSPropertyOp52
 70
     0
102
RTVSPropertyOp53
 70
     1
102
RTVSPropertyOp54
 70
     1
102
RTVSPropertyOp55
 70
     1
102
RTVSPropertyOp56
 70
     1
102
RTVSPropertyOp57
 70
     1
102
RTVSPropertyOp58
 70
     1
102
RTVSPropertyOp59
 70
     1
102
RTVSPropertyOp60
 70
     1
102
RTVSPropertyOp61
 70
     1
102
RTVSPropertyOp62
 70
     1
  0
XRECORD
  5
863B
102
{ACAD_REACTORS
330
863A
102
}
330
863A
100
AcDbXrecord
280
     1
102
RTVSPost2010Prop28
280
     0
102
RTVSPost2010PropOp28
 70
     1
102
RTVSPost2010Prop29
280
     1
102
RTVSPost2010PropOp29
 70
     1
102
RTVSPost2010Prop30
280
     1
102
RTVSPost2010PropOp30
 70
     1
102
RTVSPost2010Prop31
280
     0
102
RTVSPost2010PropOp31
 70
     1
102
RTVSPost2010Prop32
280
     0
102
RTVSPost2010PropOp32
 70
     1
102
RTVSPost2010Prop33
280
     0
102
RTVSPost2010PropOp33
 70
     1
102
RTVSPost2010Prop34
280
     0
102
RTVSPost2010PropOp34
 70
     1
102
RTVSPost2010Prop35
280
     0
102
RTVSPost2010PropOp35
 70
     1
102
RTVSPost2010Prop36
280
     0
102
RTVSPost2010PropOp36
 70
     1
102
RTVSPost2010Prop37
 90
       50
102
RTVSPost2010PropOp37
 70
     1
102
RTVSPost2010Prop38
140
0.0
102
RTVSPost2010PropOp38
 70
     1
102
RTVSPost2010Prop39
140
1.0
102
RTVSPost2010PropOp39
 70
     1
102
RTVSPost2010Prop40
 90
        0
102
RTVSPost2010PropOp40
 70
     1
102
RTVSPost2010Prop41ColorIndex
 90
       18
102
RTVSPost2010Prop41ColorRGB
 90
        0
102
RTVSPost2010PropOp41
 70
     1
102
RTVSPost2010Prop42
 90
       50
102
RTVSPost2010PropOp42
 70
     1
102
RTVSPost2010Prop43
 90
        3
102
RTVSPost2010PropOp43
 70
     1
102
RTVSPost2010Prop44ColorIndex
 90
        5
102
RTVSPost2010Prop44ColorRGB
 90
      255
102
RTVSPost2010PropOp44
 70
     1
102
RTVSPost2010Prop45
280
     0
102
RTVSPost2010PropOp45
 70
     1
102
RTVSPost2010Prop46
 90
       50
102
RTVSPost2010PropOp46
 70
     1
102
RTVSPost2010Prop47
 90
       50
102
RTVSPost2010PropOp47
 70
     1
102
RTVSPost2010Prop48
 90
       50
102
RTVSPost2010PropOp48
 70
     1
102
RTVSPost2010Prop49
280
     0
102
RTVSPost2010PropOp49
 70
     1
102
RTVSPost2010Prop50
 90
       50
102
RTVSPost2010PropOp50
 70
     1
102
RTVSPost2010Prop51ColorIndex
 90
      256
102
RTVSPost2010Prop51ColorRGB
 90
-16777216
102
RTVSPost2010PropOp51
 70
     0
102
RTVSPost2010Prop52
140
1.0
102
RTVSPost2010PropOp52
 70
     0
102
RTVSPost2010Prop53
 90
        2
102
RTVSPost2010PropOp53
 70
     1
102
RTVSPost2010Prop54
  1
strokes_ogs.tif
102
RTVSPost2010PropOp54
 70
     1
102
RTVSPost2010Prop55
280
     0
102
RTVSPost2010PropOp55
 70
     1
102
RTVSPost2010Prop56
140
1.0
102
RTVSPost2010PropOp56
 70
     1
102
RTVSPost2010Prop57
140
1.0
102
RTVSPost2010PropOp57
 70
     1
102
RTVSPropertyOp0
 70
     1
102
RTVSPropertyOp1
 70
     1
102
RTVSPropertyOp2
 70
     1
102
RTVSPropertyOp3
 70
     1
102
RTVSPropertyOp4
 70
     1
102
RTVSPropertyOp5
 70
     1
102
RTVSPropertyOp6
 70
     1
102
RTVSPropertyOp7
 70
     1
102
RTVSPropertyOp8
 70
     1
102
RTVSPropertyOp9
 70
     1
102
RTVSPropertyOp10
 70
     1
102
RTVSPropertyOp11
 70
     1
102
RTVSPropertyOp12
 70
     1
102
RTVSPropertyOp13
 70
     1
102
RTVSPropertyOp14
 70
     1
102
RTVSPropertyOp15
 70
     1
102
RTVSPropertyOp16
 70
     1
102
RTVSPropertyOp17
 70
     1
102
RTVSPropertyOp18
 70
     1
102
RTVSPropertyOp19
 70
     1
102
RTVSPropertyOp20
 70
     1
102
RTVSPropertyOp21
 70
     1
102
RTVSPropertyOp22
 70
     1
102
RTVSPropertyOp23
 70
     1
102
RTVSPropertyOp24
 70
     1
102
RTVSPropertyOp25
 70
     1
102
RTVSPropertyOp26
 70
     1
102
RTVSPropertyOp27
 70
     1
102
RTVSPropertyOp28
 70
     1
102
RTVSPropertyOp29
 70
     1
102
RTVSPropertyOp30
 70
     1
102
RTVSPropertyOp31
 70
     1
102
RTVSPropertyOp32
 70
     1
102
RTVSPropertyOp33
 70
     1
102
RTVSPropertyOp34
 70
     1
102
RTVSPropertyOp35
 70
     1
102
RTVSPropertyOp36
 70
     1
102
RTVSPropertyOp37
 70
     1
102
RTVSPropertyOp38
 70
     1
102
RTVSPropertyOp39
 70
     1
102
RTVSPropertyOp40
 70
     1
102
RTVSPropertyOp41
 70
     1
102
RTVSPropertyOp42
 70
     1
102
RTVSPropertyOp43
 70
     1
102
RTVSPropertyOp44
 70
     1
102
RTVSPropertyOp45
 70
     1
102
RTVSPropertyOp46
 70
     1
102
RTVSPropertyOp47
 70
     1
102
RTVSPropertyOp48
 70
     1
102
RTVSPropertyOp49
 70
     1
102
RTVSPropertyOp50
 70
     1
102
RTVSPropertyOp51
 70
     0
102
RTVSPropertyOp52
 70
     0
102
RTVSPropertyOp53
 70
     1
102
RTVSPropertyOp54
 70
     1
102
RTVSPropertyOp55
 70
     1
102
RTVSPropertyOp56
 70
     1
102
RTVSPropertyOp57
 70
     1
102
RTVSPropertyOp58
 70
     1
102
RTVSPropertyOp59
 70
     1
102
RTVSPropertyOp60
 70
     1
102
RTVSPropertyOp61
 70
     1
102
RTVSPropertyOp62
 70
     1
  0
ENDSEC
  0
EOF
