  0
SECTION
  2
HEADER
  9
$ACADVER
  1
AC1015
  9
$ACADMAINTVER
 70
    20
  9
$DWGCODEPAGE
  3
ANSI_932
  9
$INSBASE
 10
0.0
 20
0.0
 30
0.0
  9
$EXTMIN
 10
-0.2242870864283759
 20
-0.3150699547441036
 30
-0.0015258207003583
  9
$EXTMAX
 10
7350.224321312532
 20
10325.31511803427
 30
0.0000000349246037
  9
$LIMMIN
 10
0.0
 20
0.0
  9
$LIMMAX
 10
297.0
 20
210.0
  9
$ORTHOMODE
 70
     1
  9
$REGENMODE
 70
     1
  9
$FILLMODE
 70
     0
  9
$QTEXTMODE
 70
     0
  9
$MIRRTEXT
 70
     1
  9
$LTSCALE
 40
100.0
  9
$ATTMODE
 70
     1
  9
$TEXTSIZE
 40
180.0
  9
$TRACEWID
 40
0.05
  9
$TEXTSTYLE
  7
STANDARD
  9
$CLAYER
  8
3
  9
$CELTYPE
  6
ByLayer
  9
$CECOLOR
 62
   256
  9
$CELTSCALE
 40
1.0
  9
$DISPSILH
 70
     0
  9
$DIMSCALE
 40
35.0
  9
$DIMASZ
 40
2.0
  9
$DIMEXO
 40
0.5
  9
$DIMDLI
 40
10.0
  9
$DIMRND
 40
0.0
  9
$DIMDLE
 40
0.0
  9
$DIMEXE
 40
1.0
  9
$DIMTP
 40
1.0
  9
$DIMTM
 40
1.0
  9
$DIMTXT
 40
3.0
  9
$DIMCEN
 40
0.0
  9
$DIMTSZ
 40
0.0
  9
$DIMTOL
 70
     0
  9
$DIMLIM
 70
     0
  9
$DIMTIH
 70
     0
  9
$DIMTOH
 70
     0
  9
$DIMSE1
 70
     0
  9
$DIMSE2
 70
     0
  9
$DIMTAD
 70
     1
  9
$DIMZIN
 70
     8
  9
$DIMBLK
  1

  9
$DIMASO
 70
     1
  9
$DIMSHO
 70
     1
  9
$DIMPOST
  1

  9
$DIMAPOST
  1

  9
$DIMALT
 70
     0
  9
$DIMALTD
 70
     2
  9
$DIMALTF
 40
0.039
  9
$DIMLFAC
 40
1.0
  9
$DIMTOFL
 70
     1
  9
$DIMTVP
 40
0.0
  9
$DIMTIX
 70
     0
  9
$DIMSOXD
 70
     0
  9
$DIMSAH
 70
     1
  9
$DIMBLK1
  1
OPEN
  9
$DIMBLK2
  1
OPEN
  9
$DIMSTYLE
  2
IGA
  9
$DIMCLRD
 70
     0
  9
$DIMCLRE
 70
     0
  9
$DIMCLRT
 70
     0
  9
$DIMTFAC
 40
10.0
  9
$DIMGAP
 40
1.0
  9
$DIMJUST
 70
     0
  9
$DIMSD1
 70
     0
  9
$DIMSD2
 70
     0
  9
$DIMTOLJ
 70
     1
  9
$DIMTZIN
 70
     0
  9
$DIMALTZ
 70
     0
  9
$DIMALTTZ
 70
     0
  9
$DIMUPT
 70
     0
  9
$DIMDEC
 70
     4
  9
$DIMTDEC
 70
     4
  9
$DIMALTU
 70
     2
  9
$DIMALTTD
 70
     2
  9
$DIMTXSTY
  7
STANDARD
  9
$DIMAUNIT
 70
     0
  9
$DIMADEC
 70
     0
  9
$DIMALTRND
 40
0.0
  9
$DIMAZIN
 70
     0
  9
$DIMDSEP
 70
    46
  9
$DIMATFIT
 70
     3
  9
$DIMFRAC
 70
     0
  9
$DIMLDRBLK
  1
OPEN
  9
$DIMLUNIT
 70
     2
  9
$DIMLWD
 70
    -2
  9
$DIMLWE
 70
    -2
  9
$DIMTMOVE
 70
     0
  9
$LUNITS
 70
     2
  9
$LUPREC
 70
     3
  9
$SKETCHINC
 40
0.1
  9
$FILLETRAD
 40
50.0
  9
$AUNITS
 70
     0
  9
$AUPREC
 70
     0
  9
$MENU
  1
acad
  9
$ELEVATION
 40
0.0
  9
$PELEVATION
 40
0.0
  9
$THICKNESS
 40
0.0
  9
$LIMCHECK
 70
     0
  9
$CHAMFERA
 40
0.5
  9
$CHAMFERB
 40
0.5
  9
$CHAMFERC
 40
0.0
  9
$CHAMFERD
 40
0.0
  9
$SKPOLY
 70
     0
  9
$TDCREATE
 40
2451390.429135880
  9
$TDUCREATE
 40
2451390.054135880
  9
$TDUPDATE
 40
2460273.628272628
  9
$TDUUPDATE
 40
2460273.253272628
  9
$TDINDWG
 40
0.1471932639
  9
$TDUSRTIMER
 40
0.1471930208
  9
$USRTIMER
 70
     1
  9
$ANGBASE
 50
0.0
  9
$ANGDIR
 70
     0
  9
$PDMODE
 70
     0
  9
$PDSIZE
 40
0.0
  9
$PLINEWID
 40
0.0
  9
$SPLFRAME
 70
     0
  9
$SPLINETYPE
 70
     6
  9
$SPLINESEGS
 70
     8
  9
$HANDSEED
  5
862A
  9
$SURFTAB1
 70
     6
  9
$SURFTAB2
 70
     6
  9
$SURFTYPE
 70
     6
  9
$SURFU
 70
     6
  9
$SURFV
 70
     6
  9
$UCSBASE
  2

  9
$UCSNAME
  2

  9
$UCSORG
 10
0.0
 20
0.0
 30
0.0
  9
$UCSXDIR
 10
1.0
 20
0.0
 30
0.0
  9
$UCSYDIR
 10
0.0
 20
1.0
 30
0.0
  9
$UCSORTHOREF
  2

  9
$UCSORTHOVIEW
 70
     0
  9
$UCSORGTOP
 10
0.0
 20
0.0
 30
0.0
  9
$UCSORGBOTTOM
 10
0.0
 20
0.0
 30
0.0
  9
$UCSORGLEFT
 10
0.0
 20
0.0
 30
0.0
  9
$UCSORGRIGHT
 10
0.0
 20
0.0
 30
0.0
  9
$UCSORGFRONT
 10
0.0
 20
0.0
 30
0.0
  9
$UCSORGBACK
 10
0.0
 20
0.0
 30
0.0
  9
$PUCSBASE
  2

  9
$PUCSNAME
  2

  9
$PUCSORG
 10
0.0
 20
0.0
 30
0.0
  9
$PUCSXDIR
 10
1.0
 20
0.0
 30
0.0
  9
$PUCSYDIR
 10
0.0
 20
1.0
 30
0.0
  9
$PUCSORTHOREF
  2

  9
$PUCSORTHOVIEW
 70
     0
  9
$PUCSORGTOP
 10
0.0
 20
0.0
 30
0.0
  9
$PUCSORGBOTTOM
 10
0.0
 20
0.0
 30
0.0
  9
$PUCSORGLEFT
 10
0.0
 20
0.0
 30
0.0
  9
$PUCSORGRIGHT
 10
0.0
 20
0.0
 30
0.0
  9
$PUCSORGFRONT
 10
0.0
 20
0.0
 30
0.0
  9
$PUCSORGBACK
 10
0.0
 20
0.0
 30
0.0
  9
$USERI1
 70
     0
  9
$USERI2
 70
     0
  9
$USERI3
 70
     0
  9
$USERI4
 70
     0
  9
$USERI5
 70
     0
  9
$USERR1
 40
0.0
  9
$USERR2
 40
0.0
  9
$USERR3
 40
0.0
  9
$USERR4
 40
0.0
  9
$USERR5
 40
0.0
  9
$WORLDVIEW
 70
     1
  9
$SHADEDGE
 70
     3
  9
$SHADEDIF
 70
    70
  9
$TILEMODE
 70
     1
  9
$MAXACTVP
 70
    16
  9
$PINSBASE
 10
0.0
 20
0.0
 30
0.0
  9
$PLIMCHECK
 70
     0
  9
$PEXTMIN
 10
1.000000000000000E+20
 20
1.000000000000000E+20
 30
1.000000000000000E+20
  9
$PEXTMAX
 10
-1.000000000000000E+20
 20
-1.000000000000000E+20
 30
-1.000000000000000E+20
  9
$PLIMMIN
 10
0.0
 20
0.0
  9
$PLIMMAX
 10
12.0
 20
9.0
  9
$UNITMODE
 70
     0
  9
$VISRETAIN
 70
     0
  9
$PLINEGEN
 70
     0
  9
$PSLTSCALE
 70
     1
  9
$TREEDEPTH
 70
  3020
  9
$CMLSTYLE
  2
Standard
  9
$CMLJUST
 70
     0
  9
$CMLSCALE
 40
1.0
  9
$PROXYGRAPHICS
 70
     1
  9
$MEASUREMENT
 70
     0
  9
$CELWEIGHT
370
    -1
  9
$ENDCAPS
280
     0
  9
$JOINSTYLE
280
     0
  9
$LWDISPLAY
290
     0
  9
$INSUNITS
 70
     0
  9
$HYPERLINKBASE
  1

  9
$STYLESHEET
  1

  9
$XEDIT
290
     1
  9
$CEPSNTYPE
380
     0
  9
$PSTYLEMODE
290
     1
  9
$FINGERPRINTGUID
  2
{959876B0-428D-4BB4-A5C2-C97820333320}
  9
$VERSIONGUID
  2
{5D0CAC7D-249C-4174-A032-072218B8AACC}
  9
$EXTNAMES
290
     1
  9
$PSVPSCALE
 40
0.0
  9
$OLESTARTUP
290
     0
  0
ENDSEC
  0
SECTION
  2
CLASSES
  0
CLASS
  1
ACDBDICTIONARYWDFLT
  2
AcDbDictionaryWithDefault
  3
ObjectDBX Classes
 90
        0
280
     0
281
     0
  0
CLASS
  1
MATERIAL
  2
AcDbMaterial
  3
ObjectDBX Classes
 90
     1153
280
     0
281
     0
  0
CLASS
  1
VISUALSTYLE
  2
AcDbVisualStyle
  3
ObjectDBX Classes
 90
     4095
280
     0
281
     0
  0
CLASS
  1
SCALE
  2
AcDbScale
  3
ObjectDBX Classes
 90
     1153
280
     0
281
     0
  0
CLASS
  1
TABLESTYLE
  2
AcDbTableStyle
  3
ObjectDBX Classes
 90
     4095
280
     0
281
     0
  0
CLASS
  1
MLEADERSTYLE
  2
AcDbMLeaderStyle
  3
ACDB_MLEADERSTYLE_CLASS
 90
     4095
280
     0
281
     0
  0
CLASS
  1
ACDBSECTIONVIEWSTYLE
  2
AcDbSectionViewStyle
  3
ObjectDBX Classes
 90
     1025
280
     0
281
     0
  0
CLASS
  1
ACDBDETAILVIEWSTYLE
  2
AcDbDetailViewStyle
  3
ObjectDBX Classes
 90
     1025
280
     0
281
     0
  0
CLASS
  1
SORTENTSTABLE
  2
AcDbSortentsTable
  3
ObjectDBX Classes
 90
        0
280
     0
281
     0
  0
CLASS
  1
DICTIONARYVAR
  2
AcDbDictionaryVar
  3
ObjectDBX Classes
 90
        0
280
     0
281
     0
  0
CLASS
  1
CELLSTYLEMAP
  2
AcDbCellStyleMap
  3
ObjectDBX Classes
 90
     1152
280
     0
281
     0
  0
CLASS
  1
ACDBPLACEHOLDER
  2
AcDbPlaceHolder
  3
ObjectDBX Classes
 90
        0
280
     0
281
     0
  0
CLASS
  1
LAYOUT
  2
AcDbLayout
  3
ObjectDBX Classes
 90
        0
280
     0
281
     0
  0
ENDSEC
  0
SECTION
  2
TABLES
  0
TABLE
  2
VPORT
  5
8382
330
0
100
AcDbSymbolTable
 70
     1
  0
VPORT
  5
83EE
330
8382
100
AcDbSymbolTableRecord
100
AcDbViewportTableRecord
  2
*ACTIVE
 70
     0
 10
0.0
 20
0.0
 11
1.0
 21
1.0
 12
3675.000017113053
 22
5162.500024039763
 13
0.0
 23
0.0
 14
10.0
 24
10.0
 15
10.0
 25
10.0
 16
0.0
 26
0.0
 36
1.0
 17
0.0
 27
0.0
 37
0.0
 40
10391.74948481712
 41
2.050213675213675
 42
50.0
 43
0.0
 44
0.0
 50
0.0
 51
0.0
 71
     0
 72
   100
 73
     1
 74
     0
 75
     0
 76
     0
 77
     0
 78
     0
281
     0
 65
     1
110
0.0
120
0.0
130
0.0
111
1.0
121
0.0
131
0.0
112
0.0
122
1.0
132
0.0
 79
     0
146
0.0
1001
ACAD_NAV_VCDISPLAY
1070
     3
  0
ENDTAB
  0
TABLE
  2
LTYPE
  5
837F
330
0
100
AcDbSymbolTable
 70
     3
  0
LTYPE
  5
83D4
330
837F
100
AcDbSymbolTableRecord
100
AcDbLinetypeTableRecord
  2
ByBlock
 70
     0
  3

 72
    65
 73
     0
 40
0.0
  0
LTYPE
  5
83D5
330
837F
100
AcDbSymbolTableRecord
100
AcDbLinetypeTableRecord
  2
ByLayer
 70
     0
  3

 72
    65
 73
     0
 40
0.0
  0
LTYPE
  5
83D6
330
837F
100
AcDbSymbolTableRecord
100
AcDbLinetypeTableRecord
  2
CONTINUOUS
 70
     0
  3
Solid line
 72
    65
 73
     0
 40
0.0
  0
LTYPE
  5
83EF
330
837F
100
AcDbSymbolTableRecord
100
AcDbLinetypeTableRecord
  2
CENTER
 70
     0
  3
____ _ ____ _ ____ _ ____ _ ____ _ ____ _ ____ 
 72
    65
 73
     4
 40
2.0
 49
1.25
 74
     0
 49
-0.25
 74
     0
 49
0.25
 74
     0
 49
-0.25
 74
     0
  0
ENDTAB
  0
TABLE
  2
LAYER
  5
837C
330
0
100
AcDbSymbolTable
 70
     6
  0
LAYER
  5
83CE
102
{ACAD_XDICTIONARY
360
858A
102
}
330
837C
100
AcDbSymbolTableRecord
100
AcDbLayerTableRecord
  2
0
 70
     0
 62
     7
  6
CONTINUOUS
370
    -3
390
8389
  0
LAYER
  5
83ED
102
{ACAD_XDICTIONARY
360
858C
102
}
330
837C
100
AcDbSymbolTableRecord
100
AcDbLayerTableRecord
  2
3
 70
     0
 62
     2
  6
CONTINUOUS
370
    -3
390
8389
  0
LAYER
  5
83F0
102
{ACAD_XDICTIONARY
360
858E
102
}
330
837C
100
AcDbSymbolTableRecord
100
AcDbLayerTableRecord
  2
2
 70
     0
 62
     3
  6
CENTER
370
    -3
390
8389
  0
LAYER
  5
83F1
102
{ACAD_XDICTIONARY
360
8590
102
}
330
837C
100
AcDbSymbolTableRecord
100
AcDbLayerTableRecord
  2
1
 70
     0
 62
     4
  6
CONTINUOUS
370
    -3
390
8389
  0
LAYER
  5
83F2
102
{ACAD_XDICTIONARY
360
8592
102
}
330
837C
100
AcDbSymbolTableRecord
100
AcDbLayerTableRecord
  2
4
 70
     0
 62
     7
  6
CONTINUOUS
370
    -3
390
8389
  0
LAYER
  5
83F3
330
837C
100
AcDbSymbolTableRecord
100
AcDbLayerTableRecord
  2
DEFPOINTS
 70
     0
 62
     7
  6
CONTINUOUS
290
     0
370
    -3
390
8389
  0
ENDTAB
  0
TABLE
  2
STYLE
  5
837D
330
0
100
AcDbSymbolTable
 70
     2
  0
STYLE
  5
83CF
330
837D
100
AcDbSymbolTableRecord
100
AcDbTextStyleTableRecord
  2
STANDARD
 70
     0
 40
0.0
 41
1.0
 50
0.0
 71
     0
 42
180.0
  3
simplex.shx
  4
extfont.shx
  0
STYLE
  5
83D3
330
837D
100
AcDbSymbolTableRecord
100
AcDbTextStyleTableRecord
  2
Annotative
 70
     0
 40
0.0
 41
1.0
 50
0.0
 71
     0
 42
0.2
  3
txt
  4

1001
AcadAnnotative
1000
AnnotativeData
1002
{
1070
     1
1070
     1
1002
}
  0
ENDTAB
  0
TABLE
  2
VIEW
  5
8380
330
0
100
AcDbSymbolTable
 70
     0
  0
ENDTAB
  0
TABLE
  2
UCS
  5
8381
330
0
100
AcDbSymbolTable
 70
     0
  0
ENDTAB
  0
TABLE
  2
APPID
  5
8383
330
0
100
AcDbSymbolTable
 70
     6
  0
APPID
  5
83D0
330
8383
100
AcDbSymbolTableRecord
100
AcDbRegAppTableRecord
  2
ACAD
 70
     0
  0
APPID
  5
83D7
330
8383
100
AcDbSymbolTableRecord
100
AcDbRegAppTableRecord
  2
AcadAnnotative
 70
     0
  0
APPID
  5
8477
330
8383
100
AcDbSymbolTableRecord
100
AcDbRegAppTableRecord
  2
AcadAnnoMonitorAlertIconDisabled
 70
     0
  0
APPID
  5
8478
330
8383
100
AcDbSymbolTableRecord
100
AcDbRegAppTableRecord
  2
ACAD_EXEMPT_FROM_CAD_STANDARDS
 70
     0
  0
APPID
  5
859E
330
8383
100
AcDbSymbolTableRecord
100
AcDbRegAppTableRecord
  2
ACAD_NAV_VCDISPLAY
 70
     0
  0
APPID
  5
8621
330
8383
100
AcDbSymbolTableRecord
100
AcDbRegAppTableRecord
  2
ACAD_MLEADERVER
 70
     0
  0
ENDTAB
  0
TABLE
  2
DIMSTYLE
  5
8384
330
0
100
AcDbSymbolTable
 70
     3
100
AcDbDimStyleTable
 71
     1
340
83F4
  0
DIMSTYLE
105
83D1
102
{ACAD_REACTORS
330
81DB
330
81E8
330
81F5
330
8202
330
820F
102
}
330
8384
100
AcDbSymbolTableRecord
100
AcDbDimStyleTableRecord
  2
Standard
 70
     0
340
83CF
  0
DIMSTYLE
105
83D2
330
8384
100
AcDbSymbolTableRecord
100
AcDbDimStyleTableRecord
  2
Annotative
 70
     0
340
83CF
1001
AcadAnnotative
1000
AnnotativeData
1002
{
1070
     1
1070
     1
1002
}
  0
DIMSTYLE
105
83F4
102
{ACAD_REACTORS
330
842D
330
843A
330
8447
330
8458
330
84D8
330
84E5
330
84F2
330
84FF
330
850C
330
8526
330
8540
330
854D
330
855A
330
8567
330
8574
102
}
330
8384
100
AcDbSymbolTableRecord
100
AcDbDimStyleTableRecord
  2
IGA
 70
     0
 40
2.0
 41
2.0
 42
0.5
 43
10.0
 44
1.0
 47
1.0
 48
1.0
 73
     0
 74
     0
 77
     1
 78
     8
140
3.0
141
0.0
143
0.03937
146
10.0
147
1.0
173
     1
271
     3
272
     3
279
     2
284
     8
285
     8
286
     8
340
83CF
  0
ENDTAB
  0
TABLE
  2
BLOCK_RECORD
  5
837B
330
0
100
AcDbSymbolTable
 70
    44
  0
BLOCK_RECORD
  5
83E9
102
{ACAD_XDICTIONARY
360
8455
102
}
330
837B
100
AcDbSymbolTableRecord
100
AcDbBlockTableRecord
  2
*Model_Space
340
83EC
  0
BLOCK_RECORD
  5
83E5
330
837B
100
AcDbSymbolTableRecord
100
AcDbBlockTableRecord
  2
*Paper_Space
340
83E8
  0
BLOCK_RECORD
  5
83F8
330
837B
100
AcDbSymbolTableRecord
100
AcDbBlockTableRecord
  2
$MODEL_SPACE
340
0
  0
BLOCK_RECORD
  5
83FA
330
837B
100
AcDbSymbolTableRecord
100
AcDbBlockTableRecord
  2
$PAPER_SPACE
340
0
  0
BLOCK_RECORD
  5
83FC
330
837B
100
AcDbSymbolTableRecord
100
AcDbBlockTableRecord
  2
_OPEN
340
0
102
{BLKREFS
331
853A
331
853B
331
8547
331
8548
331
8554
331
8555
331
8561
331
8562
331
856E
331
856F
331
8584
331
8585
331
82E4
331
82E5
331
82ED
331
82EE
331
82F6
331
82F7
331
82FF
331
8300
331
8308
331
8309
331
84D2
331
84D3
331
84DF
331
84E0
331
84EC
331
84ED
331
84F9
331
84FA
331
8506
331
8507
331
8513
331
8514
331
8520
331
8521
331
852D
331
852E
331
8311
331
8312
331
831A
331
831B
331
81FB
331
81FC
331
8208
331
8209
331
84AA
331
84AB
331
84B3
331
84B4
331
84BC
331
84BD
331
8323
331
8324
331
832C
331
832D
331
8335
331
8336
331
833E
331
833F
331
81D4
331
81D5
331
81E1
331
81E2
331
81EE
331
81EF
331
8347
331
8348
331
8350
331
8351
331
8359
331
835A
331
8362
331
8363
331
8434
331
8435
102
}
  0
BLOCK_RECORD
  5
83FE
330
837B
100
AcDbSymbolTableRecord
100
AcDbBlockTableRecord
  2
YA_N
340
0
102
{BLKREFS
331
7C14
331
7C35
331
7C3E
331
7C6A
331
7C90
102
}
  0
BLOCK_RECORD
  5
8400
330
837B
100
AcDbSymbolTableRecord
100
AcDbBlockTableRecord
  2
*D4
340
0
  0
BLOCK_RECORD
  5
8402
330
837B
100
AcDbSymbolTableRecord
100
AcDbBlockTableRecord
  2
*D5
340
0
  0
BLOCK_RECORD
  5
8404
330
837B
100
AcDbSymbolTableRecord
100
AcDbBlockTableRecord
  2
*D6
340
0
  0
BLOCK_RECORD
  5
8406
330
837B
100
AcDbSymbolTableRecord
100
AcDbBlockTableRecord
  2
*D7
340
0
  0
BLOCK_RECORD
  5
8408
330
837B
100
AcDbSymbolTableRecord
100
AcDbBlockTableRecord
  2
*D8
340
0
  0
BLOCK_RECORD
  5
840A
330
837B
100
AcDbSymbolTableRecord
100
AcDbBlockTableRecord
  2
*D9
340
0
  0
BLOCK_RECORD
  5
840C
330
837B
100
AcDbSymbolTableRecord
100
AcDbBlockTableRecord
  2
*D10
340
0
  0
BLOCK_RECORD
  5
840E
330
837B
100
AcDbSymbolTableRecord
100
AcDbBlockTableRecord
  2
*D11
340
0
  0
BLOCK_RECORD
  5
8410
330
837B
100
AcDbSymbolTableRecord
100
AcDbBlockTableRecord
  2
*D12
340
0
  0
BLOCK_RECORD
  5
8412
330
837B
100
AcDbSymbolTableRecord
100
AcDbBlockTableRecord
  2
*D13
340
0
  0
BLOCK_RECORD
  5
8414
330
837B
100
AcDbSymbolTableRecord
100
AcDbBlockTableRecord
  2
*D14
340
0
  0
BLOCK_RECORD
  5
8416
330
837B
100
AcDbSymbolTableRecord
100
AcDbBlockTableRecord
  2
*D15
340
0
  0
BLOCK_RECORD
  5
8418
330
837B
100
AcDbSymbolTableRecord
100
AcDbBlockTableRecord
  2
*D16
340
0
  0
BLOCK_RECORD
  5
841A
330
837B
100
AcDbSymbolTableRecord
100
AcDbBlockTableRecord
  2
*D17
340
0
  0
BLOCK_RECORD
  5
841C
330
837B
100
AcDbSymbolTableRecord
100
AcDbBlockTableRecord
  2
*D18
340
0
  0
BLOCK_RECORD
  5
841E
330
837B
100
AcDbSymbolTableRecord
100
AcDbBlockTableRecord
  2
_DOT
340
0
  0
BLOCK_RECORD
  5
8420
330
837B
100
AcDbSymbolTableRecord
100
AcDbBlockTableRecord
  2
_NONE
340
0
  0
BLOCK_RECORD
  5
8422
330
837B
100
AcDbSymbolTableRecord
100
AcDbBlockTableRecord
  2
*D21
340
0
  0
BLOCK_RECORD
  5
8424
330
837B
100
AcDbSymbolTableRecord
100
AcDbBlockTableRecord
  2
*D22
340
0
  0
BLOCK_RECORD
  5
8426
330
837B
100
AcDbSymbolTableRecord
100
AcDbBlockTableRecord
  2
*D23
340
0
  0
BLOCK_RECORD
  5
8428
330
837B
100
AcDbSymbolTableRecord
100
AcDbBlockTableRecord
  2
*D24
340
0
  0
BLOCK_RECORD
  5
842A
330
837B
100
AcDbSymbolTableRecord
100
AcDbBlockTableRecord
  2
*D25
340
0
  0
BLOCK_RECORD
  5
842E
330
837B
100
AcDbSymbolTableRecord
100
AcDbBlockTableRecord
  2
*D26
340
0
  0
BLOCK_RECORD
  5
843B
330
837B
100
AcDbSymbolTableRecord
100
AcDbBlockTableRecord
  2
*D27
340
0
  0
BLOCK_RECORD
  5
8448
330
837B
100
AcDbSymbolTableRecord
100
AcDbBlockTableRecord
  2
*D28
340
0
  0
BLOCK_RECORD
  5
8459
330
837B
100
AcDbSymbolTableRecord
100
AcDbBlockTableRecord
  2
*D29
340
0
  0
BLOCK_RECORD
  5
84C3
330
837B
100
AcDbSymbolTableRecord
100
AcDbBlockTableRecord
  2
*D30
340
0
  0
BLOCK_RECORD
  5
84D9
330
837B
100
AcDbSymbolTableRecord
100
AcDbBlockTableRecord
  2
*D31
340
0
  0
BLOCK_RECORD
  5
84E6
330
837B
100
AcDbSymbolTableRecord
100
AcDbBlockTableRecord
  2
*D32
340
0
  0
BLOCK_RECORD
  5
84F3
330
837B
100
AcDbSymbolTableRecord
100
AcDbBlockTableRecord
  2
*D33
340
0
  0
BLOCK_RECORD
  5
8500
330
837B
100
AcDbSymbolTableRecord
100
AcDbBlockTableRecord
  2
*D34
340
0
  0
BLOCK_RECORD
  5
850D
330
837B
100
AcDbSymbolTableRecord
100
AcDbBlockTableRecord
  2
*D35
340
0
  0
BLOCK_RECORD
  5
851A
330
837B
100
AcDbSymbolTableRecord
100
AcDbBlockTableRecord
  2
*D36
340
0
  0
BLOCK_RECORD
  5
8527
330
837B
100
AcDbSymbolTableRecord
100
AcDbBlockTableRecord
  2
*D37
340
0
  0
BLOCK_RECORD
  5
8534
330
837B
100
AcDbSymbolTableRecord
100
AcDbBlockTableRecord
  2
*D38
340
0
  0
BLOCK_RECORD
  5
8541
330
837B
100
AcDbSymbolTableRecord
100
AcDbBlockTableRecord
  2
*D39
340
0
  0
BLOCK_RECORD
  5
854E
330
837B
100
AcDbSymbolTableRecord
100
AcDbBlockTableRecord
  2
*D40
340
0
  0
BLOCK_RECORD
  5
855B
330
837B
100
AcDbSymbolTableRecord
100
AcDbBlockTableRecord
  2
*D41
340
0
  0
BLOCK_RECORD
  5
8568
330
837B
100
AcDbSymbolTableRecord
100
AcDbBlockTableRecord
  2
*D42
340
0
  0
BLOCK_RECORD
  5
8575
330
837B
100
AcDbSymbolTableRecord
100
AcDbBlockTableRecord
  2
*D43
340
0
  0
ENDTAB
  0
ENDSEC
  0
SECTION
  2
BLOCKS
  0
BLOCK
  5
83EA
330
83E9
100
AcDbEntity
  8
0
100
AcDbBlockBegin
  2
*Model_Space
 70
     0
 10
0.0
 20
0.0
 30
0.0
  3
*Model_Space
  1

  0
ENDBLK
  5
83EB
330
83E9
100
AcDbEntity
  8
0
100
AcDbBlockEnd
  0
BLOCK
  5
83E6
330
83E5
100
AcDbEntity
 67
     1
  8
0
100
AcDbBlockBegin
  2
*Paper_Space
 70
     0
 10
0.0
 20
0.0
 30
0.0
  3
*Paper_Space
  1

  0
ENDBLK
  5
83E7
330
83E5
100
AcDbEntity
 67
     1
  8
0
100
AcDbBlockEnd
  0
BLOCK
  5
83F9
330
83F8
100
AcDbEntity
  8
0
100
AcDbBlockBegin
  2
$MODEL_SPACE
 70
     0
 10
0.0
 20
0.0
 30
0.0
  3
$MODEL_SPACE
  1

  0
ENDBLK
  5
1B
330
83F8
100
AcDbEntity
  8
0
100
AcDbBlockEnd
  0
BLOCK
  5
83FB
330
83FA
100
AcDbEntity
  8
0
100
AcDbBlockBegin
  2
$PAPER_SPACE
 70
     0
 10
0.0
 20
0.0
 30
0.0
  3
$PAPER_SPACE
  1

  0
ENDBLK
  5
18
330
83FA
100
AcDbEntity
  8
0
100
AcDbBlockEnd
  0
BLOCK
  5
83FD
330
83FC
100
AcDbEntity
  8
0
100
AcDbBlockBegin
  2
_OPEN
 70
     0
 10
0.0
 20
0.0
 30
0.0
  3
_OPEN
  1

  0
LINE
  5
79FD
330
83FC
100
AcDbEntity
  8
0
  6
ByBlock
 62
     0
100
AcDbLine
 10
-1.0
 20
0.1666666666666666
 30
0.0
 11
0.0
 21
0.0
 31
0.0
  0
LINE
  5
79FE
330
83FC
100
AcDbEntity
  8
0
  6
ByBlock
 62
     0
100
AcDbLine
 10
0.0
 20
0.0
 30
0.0
 11
-1.0
 21
-0.1666666666666666
 31
0.0
  0
LINE
  5
79FF
330
83FC
100
AcDbEntity
  8
0
  6
ByBlock
 62
     0
100
AcDbLine
 10
0.0
 20
0.0
 30
0.0
 11
-1.0
 21
0.0
 31
0.0
  0
ENDBLK
  5
7A01
330
83FC
100
AcDbEntity
  8
0
100
AcDbBlockEnd
  0
BLOCK
  5
83FF
330
83FE
100
AcDbEntity
  8
0
100
AcDbBlockBegin
  2
YA_N
 70
     0
 10
0.0
 20
0.0
 30
0.0
  3
YA_N
  1

  0
ENDBLK
  5
7A0C
330
83FE
100
AcDbEntity
  8
0
100
AcDbBlockEnd
  0
BLOCK
  5
8401
330
8400
100
AcDbEntity
  8
0
100
AcDbBlockBegin
  2
*D4
 70
     1
 10
0.0
 20
0.0
 30
0.0
  3
*D4
  1

  0
LINE
  5
82E1
330
8400
100
AcDbEntity
  8
3
 62
     0
100
AcDbLine
 10
3461.56856939381
 20
4204.787145966451
 30
0.0
 11
3461.56856939381
 21
4422.395462250719
 31
0.0
  0
LINE
  5
82E2
330
8400
100
AcDbEntity
  8
3
 62
     0
100
AcDbLine
 10
2311.568569393809
 20
4204.787145966451
 30
0.0
 11
2311.568569393809
 21
4422.395462250719
 31
0.0
  0
LINE
  5
82E3
330
8400
100
AcDbEntity
  8
3
 62
     0
100
AcDbLine
 10
3391.56856939381
 20
4387.395462250719
 30
0.0
 11
2381.56856939381
 21
4387.395462250719
 31
0.0
  0
INSERT
  5
82E4
330
8400
100
AcDbEntity
  8
3
 62
     0
100
AcDbBlockReference
  2
_OPEN
 10
3461.56856939381
 20
4387.395462250719
 30
0.0
 41
70.0
 42
70.0
 43
70.0
  0
INSERT
  5
82E5
330
8400
100
AcDbEntity
  8
3
 62
     0
100
AcDbBlockReference
  2
_OPEN
 10
2311.568569393809
 20
4387.395462250719
 30
0.0
 41
70.0
 42
70.0
 43
70.0
 50
180.0
  0
TEXT
  5
836B
330
8400
100
AcDbEntity
  8
3
 62
     0
100
AcDbText
 10
2676.57
 20
4289.05
 30
0.0
 40
105.0
  1
1150
100
AcDbText
  0
POINT
  5
82E7
330
8400
100
AcDbEntity
  8
DEFPOINTS
 62
     0
100
AcDbPoint
 10
3461.56856939381
 20
4187.287145966453
 30
0.0
  0
POINT
  5
82E8
330
8400
100
AcDbEntity
  8
DEFPOINTS
 62
     0
100
AcDbPoint
 10
2311.568569393809
 20
4187.287145966453
 30
0.0
  0
POINT
  5
82E9
330
8400
100
AcDbEntity
  8
DEFPOINTS
 62
     0
100
AcDbPoint
 10
2311.568569393809
 20
4387.395462250719
 30
0.0
  0
ENDBLK
  5
7F7F
330
8400
100
AcDbEntity
  8
0
100
AcDbBlockEnd
  0
BLOCK
  5
8403
330
8402
100
AcDbEntity
  8
0
100
AcDbBlockBegin
  2
*D5
 70
     1
 10
0.0
 20
0.0
 30
0.0
  3
*D5
  1

  0
LINE
  5
82EA
330
8402
100
AcDbEntity
  8
3
 62
     0
100
AcDbLine
 10
3461.56856939381
 20
4204.787145966451
 30
0.0
 11
3461.56856939381
 21
4622.547113112221
 31
0.0
  0
LINE
  5
82EB
330
8402
100
AcDbEntity
  8
3
 62
     0
100
AcDbLine
 10
2263.568569393809
 20
4290.626146865185
 30
0.0
 11
2263.568569393809
 21
4622.547113112221
 31
0.0
  0
LINE
  5
82EC
330
8402
100
AcDbEntity
  8
3
 62
     0
100
AcDbLine
 10
3391.56856939381
 20
4587.547113112221
 30
0.0
 11
2333.568569393809
 21
4587.547113112221
 31
0.0
  0
INSERT
  5
82ED
330
8402
100
AcDbEntity
  8
3
 62
     0
100
AcDbBlockReference
  2
_OPEN
 10
3461.56856939381
 20
4587.547113112221
 30
0.0
 41
70.0
 42
70.0
 43
70.0
  0
INSERT
  5
82EE
330
8402
100
AcDbEntity
  8
3
 62
     0
100
AcDbBlockReference
  2
_OPEN
 10
2263.568569393809
 20
4587.547113112221
 30
0.0
 41
70.0
 42
70.0
 43
70.0
 50
180.0
  0
TEXT
  5
836C
330
8402
100
AcDbEntity
  8
3
 62
     0
100
AcDbText
 10
2652.57
 20
4489.199999999999
 30
0.0
 40
105.0
  1
1198
100
AcDbText
  0
POINT
  5
82F0
330
8402
100
AcDbEntity
  8
DEFPOINTS
 62
     0
100
AcDbPoint
 10
3461.56856939381
 20
4187.287145966453
 30
0.0
  0
POINT
  5
82F1
330
8402
100
AcDbEntity
  8
DEFPOINTS
 62
     0
100
AcDbPoint
 10
2263.568569393809
 20
4273.126146865187
 30
0.0
  0
POINT
  5
82F2
330
8402
100
AcDbEntity
  8
DEFPOINTS
 62
     0
100
AcDbPoint
 10
2263.568569393809
 20
4587.547113112221
 30
0.0
  0
ENDBLK
  5
7F8A
330
8402
100
AcDbEntity
  8
0
100
AcDbBlockEnd
  0
BLOCK
  5
8405
330
8404
100
AcDbEntity
  8
0
100
AcDbBlockBegin
  2
*D6
 70
     1
 10
0.0
 20
0.0
 30
0.0
  3
*D6
  1

  0
LINE
  5
82F3
330
8404
100
AcDbEntity
  8
3
 62
     0
100
AcDbLine
 10
4727.419090021525
 20
4200.127419168548
 30
0.0
 11
4727.419090021525
 21
4482.405437488114
 31
0.0
  0
LINE
  5
82F4
330
8404
100
AcDbEntity
  8
3
 62
     0
100
AcDbLine
 10
6227.419090021524
 20
4194.278482506933
 30
0.0
 11
6227.419090021524
 21
4482.405437488114
 31
0.0
  0
LINE
  5
82F5
330
8404
100
AcDbEntity
  8
3
 62
     0
100
AcDbLine
 10
4797.419090021525
 20
4447.405437488114
 30
0.0
 11
6157.419090021527
 21
4447.405437488114
 31
0.0
  0
INSERT
  5
82F6
330
8404
100
AcDbEntity
  8
3
 62
     0
100
AcDbBlockReference
  2
_OPEN
 10
4727.419090021525
 20
4447.405437488114
 30
0.0
 41
70.0
 42
70.0
 43
70.0
 50
180.0
  0
INSERT
  5
82F7
330
8404
100
AcDbEntity
  8
3
 62
     0
100
AcDbBlockReference
  2
_OPEN
 10
6227.419090021524
 20
4447.405437488114
 30
0.0
 41
70.0
 42
70.0
 43
70.0
  0
TEXT
  5
836D
330
8404
100
AcDbEntity
  8
3
 62
     0
100
AcDbText
 10
5267.42
 20
4349.06
 30
0.0
 40
105.0
  1
1500
100
AcDbText
  0
POINT
  5
82F9
330
8404
100
AcDbEntity
  8
DEFPOINTS
 62
     0
100
AcDbPoint
 10
4727.419090021525
 20
4182.627419168547
 30
0.0
  0
POINT
  5
82FA
330
8404
100
AcDbEntity
  8
DEFPOINTS
 62
     0
100
AcDbPoint
 10
6227.419090021524
 20
4176.778482506934
 30
0.0
  0
POINT
  5
82FB
330
8404
100
AcDbEntity
  8
DEFPOINTS
 62
     0
100
AcDbPoint
 10
6227.419090021524
 20
4447.405437488114
 30
0.0
  0
ENDBLK
  5
8028
330
8404
100
AcDbEntity
  8
0
100
AcDbBlockEnd
  0
BLOCK
  5
8407
330
8406
100
AcDbEntity
  8
0
100
AcDbBlockBegin
  2
*D7
 70
     1
 10
0.0
 20
0.0
 30
0.0
  3
*D7
  1

  0
LINE
  5
82FC
330
8406
100
AcDbEntity
  8
3
 62
     0
100
AcDbLine
 10
5477.419090021525
 20
4631.383203308891
 30
0.0
 11
5477.419090021525
 21
4719.158983634345
 31
0.0
  0
LINE
  5
82FD
330
8406
100
AcDbEntity
  8
3
 62
     0
100
AcDbLine
 10
6392.419090021522
 20
3357.826623071648
 30
0.0
 11
6392.419090021522
 21
4719.158983634345
 31
0.0
  0
LINE
  5
82FE
330
8406
100
AcDbEntity
  8
3
 62
     0
100
AcDbLine
 10
5547.419090021525
 20
4684.158983634346
 30
0.0
 11
6322.419090021522
 21
4684.158983634346
 31
0.0
  0
INSERT
  5
82FF
330
8406
100
AcDbEntity
  8
3
 62
     0
100
AcDbBlockReference
  2
_OPEN
 10
5477.419090021525
 20
4684.158983634346
 30
0.0
 41
70.0
 42
70.0
 43
70.0
 50
180.0
  0
INSERT
  5
8300
330
8406
100
AcDbEntity
  8
3
 62
     0
100
AcDbBlockReference
  2
_OPEN
 10
6392.419090021522
 20
4684.158983634346
 30
0.0
 41
70.0
 42
70.0
 43
70.0
  0
TEXT
  5
836E
330
8406
100
AcDbEntity
  8
3
 62
     0
100
AcDbText
 10
5724.92
 20
4613.310000000001
 30
0.0
 40
105.0
  1
(930)
100
AcDbText
  0
POINT
  5
8302
330
8406
100
AcDbEntity
  8
DEFPOINTS
 62
     0
100
AcDbPoint
 10
5477.419090021525
 20
4613.883203308893
 30
0.0
  0
POINT
  5
8303
330
8406
100
AcDbEntity
  8
DEFPOINTS
 62
     0
100
AcDbPoint
 10
6392.419090021522
 20
3340.326623071647
 30
0.0
  0
POINT
  5
8304
330
8406
100
AcDbEntity
  8
DEFPOINTS
 62
     0
100
AcDbPoint
 10
6392.419090021522
 20
4684.158983634346
 30
0.0
  0
ENDBLK
  5
812C
330
8406
100
AcDbEntity
  8
0
100
AcDbBlockEnd
  0
BLOCK
  5
8409
330
8408
100
AcDbEntity
  8
0
100
AcDbBlockBegin
  2
*D8
 70
     1
 10
0.0
 20
0.0
 30
0.0
  3
*D8
  1

  0
LINE
  5
8305
330
8408
100
AcDbEntity
  8
3
 62
     0
100
AcDbLine
 10
6250.419090021528
 20
2867.287145966454
 30
0.0
 11
6630.20185637704
 21
2867.287145966454
 31
0.0
  0
LINE
  5
8306
330
8408
100
AcDbEntity
  8
3
 62
     0
100
AcDbLine
 10
6250.419090021528
 20
3987.287145966454
 30
0.0
 11
6630.20185637704
 21
3987.287145966454
 31
0.0
  0
LINE
  5
8307
330
8408
100
AcDbEntity
  8
3
 62
     0
100
AcDbLine
 10
6595.201856377039
 20
2937.287145966454
 30
0.0
 11
6595.201856377039
 21
3917.287145966453
 31
0.0
  0
INSERT
  5
8308
330
8408
100
AcDbEntity
  8
3
 62
     0
100
AcDbBlockReference
  2
_OPEN
 10
6595.201856377039
 20
2867.287145966454
 30
0.0
 41
70.0
 42
70.0
 43
70.0
 50
270.0
  0
INSERT
  5
8309
330
8408
100
AcDbEntity
  8
3
 62
     0
100
AcDbBlockReference
  2
_OPEN
 10
6595.201856377039
 20
3987.287145966454
 30
0.0
 41
70.0
 42
70.0
 43
70.0
 50
90.0
  0
TEXT
  5
836F
330
8408
100
AcDbEntity
  8
3
 62
     0
100
AcDbText
 10
6297.699999999999
 20
3241.44
 30
0.0
 40
105.0
  1
\U+03C61120
100
AcDbText
  0
POINT
  5
830B
330
8408
100
AcDbEntity
  8
DEFPOINTS
 62
     0
100
AcDbPoint
 10
6232.919090021528
 20
2867.287145966454
 30
0.0
  0
POINT
  5
830C
330
8408
100
AcDbEntity
  8
DEFPOINTS
 62
     0
100
AcDbPoint
 10
6232.919090021528
 20
3987.287145966454
 30
0.0
  0
POINT
  5
830D
330
8408
100
AcDbEntity
  8
DEFPOINTS
 62
     0
100
AcDbPoint
 10
6595.201856377039
 20
3987.287145966454
 30
0.0
  0
ENDBLK
  5
801D
330
8408
100
AcDbEntity
  8
0
100
AcDbBlockEnd
  0
BLOCK
  5
840B
330
840A
100
AcDbEntity
  8
0
100
AcDbBlockBegin
  2
*D9
 70
     1
 10
0.0
 20
0.0
 30
0.0
  3
*D9
  1

  0
LINE
  5
830E
330
840A
100
AcDbEntity
  8
3
 62
     0
100
AcDbLine
 10
4354.719090021525
 20
3824.787145966454
 30
0.0
 11
4354.719090021525
 21
4718.142332365935
 31
0.0
  0
LINE
  5
830F
330
840A
100
AcDbEntity
  8
3
 62
     0
100
AcDbLine
 10
5477.419090021525
 20
4631.383203308891
 30
0.0
 11
5477.419090021525
 21
4718.142332365935
 31
0.0
  0
LINE
  5
8310
330
840A
100
AcDbEntity
  8
3
 62
     0
100
AcDbLine
 10
4424.719090021525
 20
4683.142332365934
 30
0.0
 11
5407.419090021526
 21
4683.142332365934
 31
0.0
  0
INSERT
  5
8311
330
840A
100
AcDbEntity
  8
3
 62
     0
100
AcDbBlockReference
  2
_OPEN
 10
4354.719090021525
 20
4683.142332365934
 30
0.0
 41
70.0
 42
70.0
 43
70.0
 50
180.0
  0
INSERT
  5
8312
330
840A
100
AcDbEntity
  8
3
 62
     0
100
AcDbBlockReference
  2
_OPEN
 10
5477.419090021525
 20
4683.142332365934
 30
0.0
 41
70.0
 42
70.0
 43
70.0
  0
TEXT
  5
8370
330
840A
100
AcDbEntity
  8
3
 62
     0
100
AcDbText
 10
4706.069999999999
 20
4672.29
 30
0.0
 40
105.0
  1
MAX
100
AcDbText
  0
TEXT
  5
8371
330
840A
100
AcDbEntity
  8
3
 62
     0
100
AcDbText
 10
4706.069999999999
 20
4535.79
 30
0.0
 40
105.0
  1
1120
100
AcDbText
  0
POINT
  5
8314
330
840A
100
AcDbEntity
  8
DEFPOINTS
 62
     0
100
AcDbPoint
 10
4354.719090021525
 20
3807.287145966454
 30
0.0
  0
POINT
  5
8315
330
840A
100
AcDbEntity
  8
DEFPOINTS
 62
     0
100
AcDbPoint
 10
5477.419090021525
 20
4613.883203308893
 30
0.0
  0
POINT
  5
8316
330
840A
100
AcDbEntity
  8
DEFPOINTS
 62
     0
100
AcDbPoint
 10
5477.419090021525
 20
4683.142332365934
 30
0.0
  0
ENDBLK
  5
8121
330
840A
100
AcDbEntity
  8
0
100
AcDbBlockEnd
  0
BLOCK
  5
840D
330
840C
100
AcDbEntity
  8
0
100
AcDbBlockBegin
  2
*D10
 70
     1
 10
0.0
 20
0.0
 30
0.0
  3
*D10
  1

  0
LINE
  5
8317
330
840C
100
AcDbEntity
  8
3
 62
     0
100
AcDbLine
 10
2923.56856939381
 20
7667.186236647791
 30
0.0
 11
2923.56856939381
 21
7858.693597118909
 31
0.0
  0
LINE
  5
8318
330
840C
100
AcDbEntity
  8
3
 62
     0
100
AcDbLine
 10
1603.56856939381
 20
7667.186236647791
 30
0.0
 11
1603.56856939381
 21
7858.693597118909
 31
0.0
  0
LINE
  5
8319
330
840C
100
AcDbEntity
  8
3
 62
     0
100
AcDbLine
 10
2853.568569393809
 20
7823.69359711891
 30
0.0
 11
1673.56856939381
 21
7823.69359711891
 31
0.0
  0
INSERT
  5
831A
330
840C
100
AcDbEntity
  8
3
 62
     0
100
AcDbBlockReference
  2
_OPEN
 10
2923.56856939381
 20
7823.69359711891
 30
0.0
 41
70.0
 42
70.0
 43
70.0
  0
INSERT
  5
831B
330
840C
100
AcDbEntity
  8
3
 62
     0
100
AcDbBlockReference
  2
_OPEN
 10
1603.56856939381
 20
7823.69359711891
 30
0.0
 41
70.0
 42
70.0
 43
70.0
 50
180.0
  0
TEXT
  5
8372
330
840C
100
AcDbEntity
  8
3
 62
     0
100
AcDbText
 10
2053.57
 20
7725.34
 30
0.0
 40
105.0
  1
1320
100
AcDbText
  0
POINT
  5
831D
330
840C
100
AcDbEntity
  8
DEFPOINTS
 62
     0
100
AcDbPoint
 10
2923.56856939381
 20
7649.686236647792
 30
0.0
  0
POINT
  5
831E
330
840C
100
AcDbEntity
  8
DEFPOINTS
 62
     0
100
AcDbPoint
 10
1603.56856939381
 20
7649.686236647792
 30
0.0
  0
POINT
  5
831F
330
840C
100
AcDbEntity
  8
DEFPOINTS
 62
     0
100
AcDbPoint
 10
1603.56856939381
 20
7823.69359711891
 30
0.0
  0
ENDBLK
  5
7F48
330
840C
100
AcDbEntity
  8
0
100
AcDbBlockEnd
  0
BLOCK
  5
840F
330
840E
100
AcDbEntity
  8
0
100
AcDbBlockBegin
  2
*D11
 70
     1
 10
0.0
 20
0.0
 30
0.0
  3
*D11
  1

  0
LINE
  5
8320
330
840E
100
AcDbEntity
  8
3
 62
     0
100
AcDbLine
 10
3881.06856939381
 20
6649.686236647792
 30
0.0
 11
4299.198978687672
 21
6649.686236647792
 31
0.0
  0
LINE
  5
8321
330
840E
100
AcDbEntity
  8
3
 62
     0
100
AcDbLine
 10
3881.06856939381
 20
5749.686236647789
 30
0.0
 11
4299.198978687672
 21
5749.686236647789
 31
0.0
  0
LINE
  5
8322
330
840E
100
AcDbEntity
  8
3
 62
     0
100
AcDbLine
 10
4264.198978687672
 20
6579.686236647791
 30
0.0
 11
4264.198978687672
 21
5819.686236647791
 31
0.0
  0
INSERT
  5
8323
330
840E
100
AcDbEntity
  8
3
 62
     0
100
AcDbBlockReference
  2
_OPEN
 10
4264.198978687672
 20
6649.686236647792
 30
0.0
 41
70.0
 42
70.0
 43
70.0
 50
90.0
  0
INSERT
  5
8324
330
840E
100
AcDbEntity
  8
3
 62
     0
100
AcDbBlockReference
  2
_OPEN
 10
4264.198978687672
 20
5749.686236647789
 30
0.0
 41
70.0
 42
70.0
 43
70.0
 50
270.0
  0
TEXT
  5
8373
330
840E
100
AcDbEntity
  8
3
 62
     0
100
AcDbText
 10
3966.7
 20
6013.84
 30
0.0
 40
105.0
  1
900
100
AcDbText
  0
POINT
  5
8326
330
840E
100
AcDbEntity
  8
DEFPOINTS
 62
     0
100
AcDbPoint
 10
3863.568569393811
 20
6649.686236647792
 30
0.0
  0
POINT
  5
8327
330
840E
100
AcDbEntity
  8
DEFPOINTS
 62
     0
100
AcDbPoint
 10
3863.568569393811
 20
5749.686236647789
 30
0.0
  0
POINT
  5
8328
330
840E
100
AcDbEntity
  8
DEFPOINTS
 62
     0
100
AcDbPoint
 10
4264.198978687672
 20
5749.686236647789
 30
0.0
  0
ENDBLK
  5
7F5E
330
840E
100
AcDbEntity
  8
0
100
AcDbBlockEnd
  0
BLOCK
  5
8411
330
8410
100
AcDbEntity
  8
0
100
AcDbBlockBegin
  2
*D12
 70
     1
 10
0.0
 20
0.0
 30
0.0
  3
*D12
  1

  0
LINE
  5
8329
330
8410
100
AcDbEntity
  8
3
 62
     0
100
AcDbLine
 10
3863.568569393811
 20
5732.186236647791
 30
0.0
 11
3863.568569393811
 21
5423.441044553842
 31
0.0
  0
LINE
  5
832A
330
8410
100
AcDbEntity
  8
3
 62
     0
100
AcDbLine
 10
1603.56856939381
 20
5732.186236647791
 30
0.0
 11
1603.56856939381
 21
5423.441044553842
 31
0.0
  0
LINE
  5
832B
330
8410
100
AcDbEntity
  8
3
 62
     0
100
AcDbLine
 10
3793.56856939381
 20
5458.441044553842
 30
0.0
 11
1673.56856939381
 21
5458.441044553842
 31
0.0
  0
INSERT
  5
832C
330
8410
100
AcDbEntity
  8
3
 62
     0
100
AcDbBlockReference
  2
_OPEN
 10
3863.568569393811
 20
5458.441044553842
 30
0.0
 41
70.0
 42
70.0
 43
70.0
  0
INSERT
  5
832D
330
8410
100
AcDbEntity
  8
3
 62
     0
100
AcDbBlockReference
  2
_OPEN
 10
1603.56856939381
 20
5458.441044553842
 30
0.0
 41
70.0
 42
70.0
 43
70.0
 50
180.0
  0
TEXT
  5
8374
330
8410
100
AcDbEntity
  8
3
 62
     0
100
AcDbText
 10
2523.57
 20
5360.09
 30
0.0
 40
105.0
  1
2260
100
AcDbText
  0
POINT
  5
832F
330
8410
100
AcDbEntity
  8
DEFPOINTS
 62
     0
100
AcDbPoint
 10
3863.568569393811
 20
5749.68623664779
 30
0.0
  0
POINT
  5
8330
330
8410
100
AcDbEntity
  8
DEFPOINTS
 62
     0
100
AcDbPoint
 10
1603.56856939381
 20
5749.68623664779
 30
0.0
  0
POINT
  5
8331
330
8410
100
AcDbEntity
  8
DEFPOINTS
 62
     0
100
AcDbPoint
 10
1603.56856939381
 20
5458.441044553842
 30
0.0
  0
ENDBLK
  5
7F69
330
8410
100
AcDbEntity
  8
0
100
AcDbBlockEnd
  0
BLOCK
  5
8413
330
8412
100
AcDbEntity
  8
0
100
AcDbBlockBegin
  2
*D13
 70
     1
 10
0.0
 20
0.0
 30
0.0
  3
*D13
  1

  0
LINE
  5
8332
330
8412
100
AcDbEntity
  8
3
 62
     0
100
AcDbLine
 10
1586.06856939381
 20
7649.686236647792
 30
0.0
 11
1169.796314422758
 21
7649.686236647792
 31
0.0
  0
LINE
  5
8333
330
8412
100
AcDbEntity
  8
3
 62
     0
100
AcDbLine
 10
1586.06856939381
 20
5749.68623664779
 30
0.0
 11
1169.796314422757
 21
5749.68623664779
 31
0.0
  0
LINE
  5
8334
330
8412
100
AcDbEntity
  8
3
 62
     0
100
AcDbLine
 10
1204.796314422758
 20
7579.686236647791
 30
0.0
 11
1204.796314422758
 21
5819.686236647791
 31
0.0
  0
INSERT
  5
8335
330
8412
100
AcDbEntity
  8
3
 62
     0
100
AcDbBlockReference
  2
_OPEN
 10
1204.796314422758
 20
7649.686236647792
 30
0.0
 41
70.0
 42
70.0
 43
70.0
 50
90.0
  0
INSERT
  5
8336
330
8412
100
AcDbEntity
  8
3
 62
     0
100
AcDbBlockReference
  2
_OPEN
 10
1204.796314422758
 20
5749.68623664779
 30
0.0
 41
70.0
 42
70.0
 43
70.0
 50
270.0
  0
TEXT
  5
8375
330
8412
100
AcDbEntity
  8
3
 62
     0
100
AcDbText
 10
907.296
 20
6513.84
 30
0.0
 40
105.0
  1
1900
100
AcDbText
  0
POINT
  5
8338
330
8412
100
AcDbEntity
  8
DEFPOINTS
 62
     0
100
AcDbPoint
 10
1603.56856939381
 20
7649.686236647792
 30
0.0
  0
POINT
  5
8339
330
8412
100
AcDbEntity
  8
DEFPOINTS
 62
     0
100
AcDbPoint
 10
1603.56856939381
 20
5749.68623664779
 30
0.0
  0
POINT
  5
833A
330
8412
100
AcDbEntity
  8
DEFPOINTS
 62
     0
100
AcDbPoint
 10
1204.796314422758
 20
5749.68623664779
 30
0.0
  0
ENDBLK
  5
7F3D
330
8412
100
AcDbEntity
  8
0
100
AcDbBlockEnd
  0
BLOCK
  5
8415
330
8414
100
AcDbEntity
  8
0
100
AcDbBlockBegin
  2
*D14
 70
     1
 10
0.0
 20
0.0
 30
0.0
  3
*D14
  1

  0
LINE
  5
833B
330
8414
100
AcDbEntity
  8
3
 62
     0
100
AcDbLine
 10
3863.568569393811
 20
6667.186236647791
 30
0.0
 11
3863.568569393811
 21
7858.693597118909
 31
0.0
  0
LINE
  5
833C
330
8414
100
AcDbEntity
  8
3
 62
     0
100
AcDbLine
 10
2923.56856939381
 20
7667.186236647792
 30
0.0
 11
2923.56856939381
 21
7858.693597118909
 31
0.0
  0
LINE
  5
833D
330
8414
100
AcDbEntity
  8
3
 62
     0
100
AcDbLine
 10
3793.56856939381
 20
7823.69359711891
 30
0.0
 11
2993.56856939381
 21
7823.69359711891
 31
0.0
  0
INSERT
  5
833E
330
8414
100
AcDbEntity
  8
3
 62
     0
100
AcDbBlockReference
  2
_OPEN
 10
3863.568569393811
 20
7823.69359711891
 30
0.0
 41
70.0
 42
70.0
 43
70.0
  0
INSERT
  5
833F
330
8414
100
AcDbEntity
  8
3
 62
     0
100
AcDbBlockReference
  2
_OPEN
 10
2923.56856939381
 20
7823.69359711891
 30
0.0
 41
70.0
 42
70.0
 43
70.0
 50
180.0
  0
TEXT
  5
8376
330
8414
100
AcDbEntity
  8
3
 62
     0
100
AcDbText
 10
3183.57
 20
7725.34
 30
0.0
 40
105.0
  1
940
100
AcDbText
  0
POINT
  5
8341
330
8414
100
AcDbEntity
  8
DEFPOINTS
 62
     0
100
AcDbPoint
 10
3863.568569393811
 20
6649.686236647792
 30
0.0
  0
POINT
  5
8342
330
8414
100
AcDbEntity
  8
DEFPOINTS
 62
     0
100
AcDbPoint
 10
2923.56856939381
 20
7649.686236647792
 30
0.0
  0
POINT
  5
8343
330
8414
100
AcDbEntity
  8
DEFPOINTS
 62
     0
100
AcDbPoint
 10
2923.56856939381
 20
7823.69359711891
 30
0.0
  0
ENDBLK
  5
7F53
330
8414
100
AcDbEntity
  8
0
100
AcDbBlockEnd
  0
BLOCK
  5
8417
330
8416
100
AcDbEntity
  8
0
100
AcDbBlockBegin
  2
*D15
 70
     1
 10
0.0
 20
0.0
 30
0.0
  3
*D15
  1

  0
LINE
  5
8344
330
8416
100
AcDbEntity
  8
3
 62
     0
100
AcDbLine
 10
2263.568569393809
 20
4290.626146865185
 30
0.0
 11
2263.568569393809
 21
4622.547113112221
 31
0.0
  0
LINE
  5
8345
330
8416
100
AcDbEntity
  8
3
 62
     0
100
AcDbLine
 10
1458.56856939381
 20
3362.787145966454
 30
0.0
 11
1458.56856939381
 21
4622.547113112221
 31
0.0
  0
LINE
  5
8346
330
8416
100
AcDbEntity
  8
3
 62
     0
100
AcDbLine
 10
2193.568569393809
 20
4587.547113112221
 30
0.0
 11
1528.56856939381
 21
4587.547113112221
 31
0.0
  0
INSERT
  5
8347
330
8416
100
AcDbEntity
  8
3
 62
     0
100
AcDbBlockReference
  2
_OPEN
 10
2263.568569393809
 20
4587.547113112221
 30
0.0
 41
70.0
 42
70.0
 43
70.0
  0
INSERT
  5
8348
330
8416
100
AcDbEntity
  8
3
 62
     0
100
AcDbBlockReference
  2
_OPEN
 10
1458.56856939381
 20
4587.547113112221
 30
0.0
 41
70.0
 42
70.0
 43
70.0
 50
180.0
  0
TEXT
  5
8377
330
8416
100
AcDbEntity
  8
3
 62
     0
100
AcDbText
 10
1651.07
 20
4489.199999999999
 30
0.0
 40
105.0
  1
805
100
AcDbText
  0
POINT
  5
834A
330
8416
100
AcDbEntity
  8
DEFPOINTS
 62
     0
100
AcDbPoint
 10
2263.568569393809
 20
4273.126146865187
 30
0.0
  0
POINT
  5
834B
330
8416
100
AcDbEntity
  8
DEFPOINTS
 62
     0
100
AcDbPoint
 10
1458.56856939381
 20
3345.287145966454
 30
0.0
  0
POINT
  5
834C
330
8416
100
AcDbEntity
  8
DEFPOINTS
 62
     0
100
AcDbPoint
 10
1458.56856939381
 20
4587.547113112221
 30
0.0
  0
ENDBLK
  5
7F95
330
8416
100
AcDbEntity
  8
0
100
AcDbBlockEnd
  0
BLOCK
  5
8419
330
8418
100
AcDbEntity
  8
0
100
AcDbBlockBegin
  2
*D16
 70
     1
 10
0.0
 20
0.0
 30
0.0
  3
*D16
  1

  0
LINE
  5
834D
330
8418
100
AcDbEntity
  8
3
 62
     0
100
AcDbLine
 10
1458.56856939381
 20
3362.787145966454
 30
0.0
 11
1458.56856939381
 21
4854.488514716802
 31
0.0
  0
LINE
  5
834E
330
8418
100
AcDbEntity
  8
3
 62
     0
100
AcDbLine
 10
3863.568569393809
 20
2559.787145966453
 30
0.0
 11
3863.568569393809
 21
4854.488514716802
 31
0.0
  0
LINE
  5
834F
330
8418
100
AcDbEntity
  8
3
 62
     0
100
AcDbLine
 10
1528.56856939381
 20
4819.488514716802
 30
0.0
 11
3793.56856939381
 21
4819.488514716802
 31
0.0
  0
INSERT
  5
8350
330
8418
100
AcDbEntity
  8
3
 62
     0
100
AcDbBlockReference
  2
_OPEN
 10
1458.56856939381
 20
4819.488514716802
 30
0.0
 41
70.0
 42
70.0
 43
70.0
 50
180.0
  0
INSERT
  5
8351
330
8418
100
AcDbEntity
  8
3
 62
     0
100
AcDbBlockReference
  2
_OPEN
 10
3863.568569393809
 20
4819.488514716802
 30
0.0
 41
70.0
 42
70.0
 43
70.0
  0
TEXT
  5
8378
330
8418
100
AcDbEntity
  8
3
 62
     0
100
AcDbText
 10
2451.07
 20
4721.140000000001
 30
0.0
 40
105.0
  1
2405
100
AcDbText
  0
POINT
  5
8353
330
8418
100
AcDbEntity
  8
DEFPOINTS
 62
     0
100
AcDbPoint
 10
1458.56856939381
 20
3345.287145966454
 30
0.0
  0
POINT
  5
8354
330
8418
100
AcDbEntity
  8
DEFPOINTS
 62
     0
100
AcDbPoint
 10
3863.568569393809
 20
2542.287145966453
 30
0.0
  0
POINT
  5
8355
330
8418
100
AcDbEntity
  8
DEFPOINTS
 62
     0
100
AcDbPoint
 10
3863.568569393809
 20
4819.488514716802
 30
0.0
  0
ENDBLK
  5
7F74
330
8418
100
AcDbEntity
  8
0
100
AcDbBlockEnd
  0
BLOCK
  5
841B
330
841A
100
AcDbEntity
  8
0
100
AcDbBlockBegin
  2
*D17
 70
     1
 10
0.0
 20
0.0
 30
0.0
  3
*D17
  1

  0
LINE
  5
8356
330
841A
100
AcDbEntity
  8
3
 62
     0
100
AcDbLine
 10
2241.06856939381
 20
4187.287145966453
 30
0.0
 11
1157.58168657474
 21
4187.287145966453
 31
0.0
  0
LINE
  5
8357
330
841A
100
AcDbEntity
  8
3
 62
     0
100
AcDbLine
 10
1339.287917940833
 20
3427.287145966452
 30
0.0
 11
1157.58168657474
 21
3427.287145966452
 31
0.0
  0
LINE
  5
8358
330
841A
100
AcDbEntity
  8
3
 62
     0
100
AcDbLine
 10
1192.58168657474
 20
4117.287145966453
 30
0.0
 11
1192.58168657474
 21
3497.287145966453
 31
0.0
  0
INSERT
  5
8359
330
841A
100
AcDbEntity
  8
3
 62
     0
100
AcDbBlockReference
  2
_OPEN
 10
1192.58168657474
 20
4187.287145966453
 30
0.0
 41
70.0
 42
70.0
 43
70.0
 50
90.0
  0
INSERT
  5
835A
330
841A
100
AcDbEntity
  8
3
 62
     0
100
AcDbBlockReference
  2
_OPEN
 10
1192.58168657474
 20
3427.287145966452
 30
0.0
 41
70.0
 42
70.0
 43
70.0
 50
270.0
  0
TEXT
  5
8379
330
841A
100
AcDbEntity
  8
3
 62
     0
100
AcDbText
 10
895.082
 20
3621.440000000001
 30
0.0
 40
105.0
  1
760
100
AcDbText
  0
POINT
  5
835C
330
841A
100
AcDbEntity
  8
DEFPOINTS
 62
     0
100
AcDbPoint
 10
2258.56856939381
 20
4187.287145966453
 30
0.0
  0
POINT
  5
835D
330
841A
100
AcDbEntity
  8
DEFPOINTS
 62
     0
100
AcDbPoint
 10
1356.787917940833
 20
3427.287145966452
 30
0.0
  0
POINT
  5
835E
330
841A
100
AcDbEntity
  8
DEFPOINTS
 62
     0
100
AcDbPoint
 10
1192.58168657474
 20
3427.287145966452
 30
0.0
  0
ENDBLK
  5
7FAB
330
841A
100
AcDbEntity
  8
0
100
AcDbBlockEnd
  0
BLOCK
  5
841D
330
841C
100
AcDbEntity
  8
0
100
AcDbBlockBegin
  2
*D18
 70
     1
 10
0.0
 20
0.0
 30
0.0
  3
*D18
  1

  0
LINE
  5
835F
330
841C
100
AcDbEntity
  8
3
 62
     0
100
AcDbLine
 10
1339.287917940833
 20
3427.287145966452
 30
0.0
 11
1157.58168657474
 21
3427.287145966452
 31
0.0
  0
LINE
  5
8360
330
841C
100
AcDbEntity
  8
3
 62
     0
100
AcDbLine
 10
1586.06856939381
 20
2417.287145966453
 30
0.0
 11
1157.58168657474
 21
2417.287145966453
 31
0.0
  0
LINE
  5
8361
330
841C
100
AcDbEntity
  8
3
 62
     0
100
AcDbLine
 10
1192.58168657474
 20
3357.287145966453
 30
0.0
 11
1192.58168657474
 21
2487.287145966453
 31
0.0
  0
INSERT
  5
8362
330
841C
100
AcDbEntity
  8
3
 62
     0
100
AcDbBlockReference
  2
_OPEN
 10
1192.58168657474
 20
3427.287145966452
 30
0.0
 41
70.0
 42
70.0
 43
70.0
 50
90.0
  0
INSERT
  5
8363
330
841C
100
AcDbEntity
  8
3
 62
     0
100
AcDbBlockReference
  2
_OPEN
 10
1192.58168657474
 20
2417.287145966453
 30
0.0
 41
70.0
 42
70.0
 43
70.0
 50
270.0
  0
TEXT
  5
837A
330
841C
100
AcDbEntity
  8
3
 62
     0
100
AcDbText
 10
895.082
 20
2736.44
 30
0.0
 40
105.0
  1
1010
100
AcDbText
  0
POINT
  5
8365
330
841C
100
AcDbEntity
  8
DEFPOINTS
 62
     0
100
AcDbPoint
 10
1356.787917940833
 20
3427.287145966452
 30
0.0
  0
POINT
  5
8366
330
841C
100
AcDbEntity
  8
DEFPOINTS
 62
     0
100
AcDbPoint
 10
1603.56856939381
 20
2417.287145966453
 30
0.0
  0
POINT
  5
8367
330
841C
100
AcDbEntity
  8
DEFPOINTS
 62
     0
100
AcDbPoint
 10
1192.58168657474
 20
2417.287145966453
 30
0.0
  0
ENDBLK
  5
7FA0
330
841C
100
AcDbEntity
  8
0
100
AcDbBlockEnd
  0
BLOCK
  5
841F
330
841E
100
AcDbEntity
  8
0
100
AcDbBlockBegin
  2
_DOT
 70
     0
 10
0.0
 20
0.0
 30
0.0
  3
_DOT
  1

  0
LWPOLYLINE
  5
80DA
330
841E
100
AcDbEntity
  8
0
  6
ByBlock
 62
     0
100
AcDbPolyline
 90
        2
 70
     1
 43
0.25
 10
-0.125
 20
0.0
 42
1.0
 10
0.125
 20
0.0
 42
1.0
  0
LINE
  5
80DE
330
841E
100
AcDbEntity
  8
0
  6
ByBlock
 62
     0
100
AcDbLine
 10
-0.25
 20
0.0
 30
0.0
 11
-1.0
 21
0.0
 31
0.0
  0
ENDBLK
  5
80BC
330
841E
100
AcDbEntity
  8
0
100
AcDbBlockEnd
  0
BLOCK
  5
8421
330
8420
100
AcDbEntity
  8
0
100
AcDbBlockBegin
  2
_NONE
 70
     0
 10
0.0
 20
0.0
 30
0.0
  3
_NONE
  1

  0
CIRCLE
  5
816B
330
8420
100
AcDbEntity
  8
0
  6
ByBlock
 62
     0
100
AcDbCircle
 10
0.0
 20
0.0
 30
0.0
 40
0.25
  0
ENDBLK
  5
816C
330
8420
100
AcDbEntity
  8
0
100
AcDbBlockEnd
  0
BLOCK
  5
8423
330
8422
100
AcDbEntity
  8
0
100
AcDbBlockBegin
  2
*D21
 70
     1
 10
0.0
 20
0.0
 30
0.0
  3
*D21
  1

  0
LINE
  5
81D1
330
8422
100
AcDbEntity
  8
0
  6
ByBlock
 62
     0
100
AcDbLine
 10
1603.56856939381
 20
2399.787145966453
 30
0.0
 11
1603.56856939381
 21
2171.031493295235
 31
0.0
  0
LINE
  5
81D2
330
8422
100
AcDbEntity
  8
0
  6
ByBlock
 62
     0
100
AcDbLine
 10
2263.568569393809
 20
2399.787145966453
 30
0.0
 11
2263.568569393809
 21
2171.031493295235
 31
0.0
  0
LINE
  5
81D3
330
8422
100
AcDbEntity
  8
0
  6
ByBlock
 62
     0
100
AcDbLine
 10
1673.56856939381
 20
2206.031493295235
 30
0.0
 11
2193.568569393809
 21
2206.031493295235
 31
0.0
  0
INSERT
  5
81D4
330
8422
100
AcDbEntity
  8
0
  6
ByBlock
 62
     0
100
AcDbBlockReference
  2
_OPEN
 10
1603.56856939381
 20
2206.031493295235
 30
0.0
 41
70.0
 42
70.0
 43
70.0
 50
180.0
  0
INSERT
  5
81D5
330
8422
100
AcDbEntity
  8
0
  6
ByBlock
 62
     0
100
AcDbBlockReference
  2
_OPEN
 10
2263.568569393809
 20
2206.031493295235
 30
0.0
 41
70.0
 42
70.0
 43
70.0
  0
TEXT
  5
81D6
330
8422
100
AcDbEntity
  8
3
 62
     0
100
AcDbText
 10
1798.568569393809
 20
2241.031493295235
 30
0.0
 40
105.0
  1
660
100
AcDbText
  0
POINT
  5
81D7
330
8422
100
AcDbEntity
  8
DEFPOINTS
  6
ByBlock
 62
     0
100
AcDbPoint
 10
1603.56856939381
 20
2417.287145966453
 30
0.0
  0
POINT
  5
81D8
330
8422
100
AcDbEntity
  8
DEFPOINTS
  6
ByBlock
 62
     0
100
AcDbPoint
 10
2263.568569393809
 20
2417.287145966453
 30
0.0
  0
POINT
  5
81D9
330
8422
100
AcDbEntity
  8
DEFPOINTS
  6
ByBlock
 62
     0
100
AcDbPoint
 10
2263.568569393809
 20
2206.031493295235
 30
0.0
  0
ENDBLK
  5
81DA
330
8422
100
AcDbEntity
  8
0
100
AcDbBlockEnd
  0
BLOCK
  5
8425
330
8424
100
AcDbEntity
  8
0
100
AcDbBlockBegin
  2
*D22
 70
     1
 10
0.0
 20
0.0
 30
0.0
  3
*D22
  1

  0
LINE
  5
81DE
330
8424
100
AcDbEntity
  8
0
  6
ByBlock
 62
     0
100
AcDbLine
 10
2263.568569393809
 20
2399.787145966453
 30
0.0
 11
2263.568569393809
 21
2171.031493295235
 31
0.0
  0
LINE
  5
81DF
330
8424
100
AcDbEntity
  8
0
  6
ByBlock
 62
     0
100
AcDbLine
 10
3863.568569393809
 20
2399.787145966453
 30
0.0
 11
3863.568569393809
 21
2171.031493295235
 31
0.0
  0
LINE
  5
81E0
330
8424
100
AcDbEntity
  8
0
  6
ByBlock
 62
     0
100
AcDbLine
 10
2333.568569393809
 20
2206.031493295235
 30
0.0
 11
3793.56856939381
 21
2206.031493295235
 31
0.0
  0
INSERT
  5
81E1
330
8424
100
AcDbEntity
  8
0
  6
ByBlock
 62
     0
100
AcDbBlockReference
  2
_OPEN
 10
2263.568569393809
 20
2206.031493295235
 30
0.0
 41
70.0
 42
70.0
 43
70.0
 50
180.0
  0
INSERT
  5
81E2
330
8424
100
AcDbEntity
  8
0
  6
ByBlock
 62
     0
100
AcDbBlockReference
  2
_OPEN
 10
3863.568569393809
 20
2206.031493295235
 30
0.0
 41
70.0
 42
70.0
 43
70.0
  0
TEXT
  5
81E3
330
8424
100
AcDbEntity
  8
3
 62
     0
100
AcDbText
 10
2888.56856939381
 20
2241.031493295235
 30
0.0
 40
105.0
  1
1600
100
AcDbText
  0
POINT
  5
81E4
330
8424
100
AcDbEntity
  8
DEFPOINTS
  6
ByBlock
 62
     0
100
AcDbPoint
 10
2263.568569393809
 20
2417.287145966453
 30
0.0
  0
POINT
  5
81E5
330
8424
100
AcDbEntity
  8
DEFPOINTS
  6
ByBlock
 62
     0
100
AcDbPoint
 10
3863.568569393809
 20
2417.287145966453
 30
0.0
  0
POINT
  5
81E6
330
8424
100
AcDbEntity
  8
DEFPOINTS
  6
ByBlock
 62
     0
100
AcDbPoint
 10
3863.568569393809
 20
2206.031493295235
 30
0.0
  0
ENDBLK
  5
81E7
330
8424
100
AcDbEntity
  8
0
100
AcDbBlockEnd
  0
BLOCK
  5
8427
330
8426
100
AcDbEntity
  8
0
100
AcDbBlockBegin
  2
*D23
 70
     1
 10
0.0
 20
0.0
 30
0.0
  3
*D23
  1

  0
LINE
  5
81EB
330
8426
100
AcDbEntity
  8
0
  6
ByBlock
 62
     0
100
AcDbLine
 10
4395.419090021525
 20
2399.787145966453
 30
0.0
 11
4395.419090021525
 21
2171.031493295235
 31
0.0
  0
LINE
  5
81EC
330
8426
100
AcDbEntity
  8
0
  6
ByBlock
 62
     0
100
AcDbLine
 10
5477.419090021525
 20
2399.787145966453
 30
0.0
 11
5477.419090021525
 21
2171.031493295235
 31
0.0
  0
LINE
  5
81ED
330
8426
100
AcDbEntity
  8
0
  6
ByBlock
 62
     0
100
AcDbLine
 10
4465.419090021526
 20
2206.031493295235
 30
0.0
 11
5407.419090021526
 21
2206.031493295235
 31
0.0
  0
INSERT
  5
81EE
330
8426
100
AcDbEntity
  8
0
  6
ByBlock
 62
     0
100
AcDbBlockReference
  2
_OPEN
 10
4395.419090021525
 20
2206.031493295235
 30
0.0
 41
70.0
 42
70.0
 43
70.0
 50
180.0
  0
INSERT
  5
81EF
330
8426
100
AcDbEntity
  8
0
  6
ByBlock
 62
     0
100
AcDbBlockReference
  2
_OPEN
 10
5477.419090021525
 20
2206.031493295235
 30
0.0
 41
70.0
 42
70.0
 43
70.0
  0
TEXT
  5
81F0
330
8426
100
AcDbEntity
  8
3
 62
     0
100
AcDbText
 10
4761.419090021525
 20
2241.031493295235
 30
0.0
 40
105.0
  1
1082
100
AcDbText
  0
POINT
  5
81F1
330
8426
100
AcDbEntity
  8
DEFPOINTS
  6
ByBlock
 62
     0
100
AcDbPoint
 10
4395.419090021525
 20
2417.287145966453
 30
0.0
  0
POINT
  5
81F2
330
8426
100
AcDbEntity
  8
DEFPOINTS
  6
ByBlock
 62
     0
100
AcDbPoint
 10
5477.419090021525
 20
2417.287145966453
 30
0.0
  0
POINT
  5
81F3
330
8426
100
AcDbEntity
  8
DEFPOINTS
  6
ByBlock
 62
     0
100
AcDbPoint
 10
5477.419090021525
 20
2206.031493295235
 30
0.0
  0
ENDBLK
  5
81F4
330
8426
100
AcDbEntity
  8
0
100
AcDbBlockEnd
  0
BLOCK
  5
8429
330
8428
100
AcDbEntity
  8
0
100
AcDbBlockBegin
  2
*D24
 70
     1
 10
0.0
 20
0.0
 30
0.0
  3
*D24
  1

  0
LINE
  5
81F8
330
8428
100
AcDbEntity
  8
0
  6
ByBlock
 62
     0
100
AcDbLine
 10
5477.419090021525
 20
2399.787145966453
 30
0.0
 11
5477.419090021525
 21
2171.031493295235
 31
0.0
  0
LINE
  5
81F9
330
8428
100
AcDbEntity
  8
0
  6
ByBlock
 62
     0
100
AcDbLine
 10
6295.419090021525
 20
2399.787145966453
 30
0.0
 11
6295.419090021525
 21
2171.031493295235
 31
0.0
  0
LINE
  5
81FA
330
8428
100
AcDbEntity
  8
0
  6
ByBlock
 62
     0
100
AcDbLine
 10
5547.419090021525
 20
2206.031493295235
 30
0.0
 11
6225.419090021524
 21
2206.031493295235
 31
0.0
  0
INSERT
  5
81FB
330
8428
100
AcDbEntity
  8
0
  6
ByBlock
 62
     0
100
AcDbBlockReference
  2
_OPEN
 10
5477.419090021525
 20
2206.031493295235
 30
0.0
 41
70.0
 42
70.0
 43
70.0
 50
180.0
  0
INSERT
  5
81FC
330
8428
100
AcDbEntity
  8
0
  6
ByBlock
 62
     0
100
AcDbBlockReference
  2
_OPEN
 10
6295.419090021525
 20
2206.031493295235
 30
0.0
 41
70.0
 42
70.0
 43
70.0
  0
TEXT
  5
81FD
330
8428
100
AcDbEntity
  8
3
 62
     0
100
AcDbText
 10
5761.419090021526
 20
2241.031493295235
 30
0.0
 40
105.0
  1
818
100
AcDbText
  0
POINT
  5
81FE
330
8428
100
AcDbEntity
  8
DEFPOINTS
  6
ByBlock
 62
     0
100
AcDbPoint
 10
5477.419090021525
 20
2417.287145966453
 30
0.0
  0
POINT
  5
81FF
330
8428
100
AcDbEntity
  8
DEFPOINTS
  6
ByBlock
 62
     0
100
AcDbPoint
 10
6295.419090021525
 20
2417.287145966453
 30
0.0
  0
POINT
  5
8200
330
8428
100
AcDbEntity
  8
DEFPOINTS
  6
ByBlock
 62
     0
100
AcDbPoint
 10
6295.419090021525
 20
2206.031493295235
 30
0.0
  0
ENDBLK
  5
8201
330
8428
100
AcDbEntity
  8
0
100
AcDbBlockEnd
  0
BLOCK
  5
842B
330
842A
100
AcDbEntity
  8
0
100
AcDbBlockBegin
  2
*D25
 70
     1
 10
0.0
 20
0.0
 30
0.0
  3
*D25
  1

  0
LINE
  5
8205
330
842A
100
AcDbEntity
  8
0
  6
ByBlock
 62
     0
100
AcDbLine
 10
1586.06856939381
 20
2417.287145966453
 30
0.0
 11
952.5682688387824
 21
2417.287145966453
 31
0.0
  0
LINE
  5
8206
330
842A
100
AcDbEntity
  8
0
  6
ByBlock
 62
     0
100
AcDbLine
 10
2223.56856939381
 20
4187.287145966453
 30
0.0
 11
952.5682688387824
 21
4187.287145966453
 31
0.0
  0
LINE
  5
8207
330
842A
100
AcDbEntity
  8
0
  6
ByBlock
 62
     0
100
AcDbLine
 10
987.5682688387824
 20
2487.287145966453
 30
0.0
 11
987.5682688387824
 21
4117.287145966453
 31
0.0
  0
INSERT
  5
8208
330
842A
100
AcDbEntity
  8
0
  6
ByBlock
 62
     0
100
AcDbBlockReference
  2
_OPEN
 10
987.5682688387824
 20
2417.287145966453
 30
0.0
 41
70.0
 42
70.0
 43
70.0
 50
270.0
  0
INSERT
  5
8209
330
842A
100
AcDbEntity
  8
0
  6
ByBlock
 62
     0
100
AcDbBlockReference
  2
_OPEN
 10
987.5682688387824
 20
4187.287145966453
 30
0.0
 41
70.0
 42
70.0
 43
70.0
 50
90.0
  0
TEXT
  5
820A
330
842A
100
AcDbEntity
  8
3
 62
     0
100
AcDbText
 10
952.5682688387824
 20
3127.287145966454
 30
0.0
 40
105.0
  1
1770
 50
90.0
100
AcDbText
  0
POINT
  5
820B
330
842A
100
AcDbEntity
  8
DEFPOINTS
  6
ByBlock
 62
     0
100
AcDbPoint
 10
1603.56856939381
 20
2417.287145966453
 30
0.0
  0
POINT
  5
820C
330
842A
100
AcDbEntity
  8
DEFPOINTS
  6
ByBlock
 62
     0
100
AcDbPoint
 10
2241.06856939381
 20
4187.287145966453
 30
0.0
  0
POINT
  5
820D
330
842A
100
AcDbEntity
  8
DEFPOINTS
  6
ByBlock
 62
     0
100
AcDbPoint
 10
987.5682688387824
 20
4187.287145966453
 30
0.0
  0
ENDBLK
  5
820E
330
842A
100
AcDbEntity
  8
0
100
AcDbBlockEnd
  0
BLOCK
  5
842F
330
842E
100
AcDbEntity
  8
0
100
AcDbBlockBegin
  2
*D26
 70
     1
 10
0.0
 20
0.0
 30
0.0
  3
*D26
  1

  0
LINE
  5
8431
330
842E
100
AcDbEntity
  8
3
 62
     0
370
    -2
100
AcDbLine
 10
4727.419090021525
 20
4204.787145966452
 30
0.0
 11
4727.419090021525
 21
4482.405437488114
 31
0.0
  0
LINE
  5
8432
330
842E
100
AcDbEntity
  8
3
 62
     0
370
    -2
100
AcDbLine
 10
6227.419090021524
 20
4204.787145966452
 30
0.0
 11
6227.419090021524
 21
4482.405437488114
 31
0.0
  0
LINE
  5
8433
330
842E
100
AcDbEntity
  8
3
 62
     0
370
    -2
100
AcDbLine
 10
4797.419090021525
 20
4447.405437488114
 30
0.0
 11
6157.419090021524
 21
4447.405437488114
 31
0.0
  0
INSERT
  5
8434
330
842E
100
AcDbEntity
  8
3
 62
     0
370
    -2
100
AcDbBlockReference
  2
_OPEN
 10
4727.419090021525
 20
4447.405437488114
 30
0.0
 41
70.0
 42
70.0
 43
70.0
 50
180.0
  0
INSERT
  5
8435
330
842E
100
AcDbEntity
  8
3
 62
     0
370
    -2
100
AcDbBlockReference
  2
_OPEN
 10
6227.419090021524
 20
4447.405437488114
 30
0.0
 41
70.0
 42
70.0
 43
70.0
  0
MTEXT
  5
8436
330
842E
100
AcDbEntity
  8
3
 62
     0
100
AcDbMText
 10
5477.419090021525
 20
4534.905437488113
 30
0.0
 40
105.0
 41
0.0
 71
     5
 72
     1
  1
\A1;1500
 73
     1
 44
1.0
1001
ACAD
1000
MTEXTBEGIN
1070
    73
1070
     1
1070
    44
1040
1.0
1070
    74
1070
     0
1000
MTEXTEND
  0
POINT
  5
8437
330
842E
100
AcDbEntity
  8
DEFPOINTS
 62
     0
100
AcDbPoint
 10
4727.419090021525
 20
4187.287145966453
 30
0.0
  0
POINT
  5
8438
330
842E
100
AcDbEntity
  8
DEFPOINTS
 62
     0
100
AcDbPoint
 10
6227.419090021524
 20
4187.287145966453
 30
0.0
  0
POINT
  5
8439
330
842E
100
AcDbEntity
  8
DEFPOINTS
 62
     0
100
AcDbPoint
 10
6227.419090021524
 20
4447.405437488114
 30
0.0
  0
ENDBLK
  5
8430
330
842E
100
AcDbEntity
  8
0
100
AcDbBlockEnd
  0
BLOCK
  5
843C
330
843B
100
AcDbEntity
  8
0
100
AcDbBlockBegin
  2
*D27
 70
     1
 10
0.0
 20
0.0
 30
0.0
  3
*D27
  1

  0
LINE
  5
84B0
330
843B
100
AcDbEntity
  8
3
 62
     0
370
    -2
100
AcDbLine
 10
4357.419090021525
 20
3824.787145966454
 30
0.0
 11
4357.419090021525
 21
4718.142332365934
 31
0.0
  0
LINE
  5
84B1
330
843B
100
AcDbEntity
  8
3
 62
     0
370
    -2
100
AcDbLine
 10
5477.419090021525
 20
4604.905437488113
 30
0.0
 11
5477.419090021525
 21
4718.142332365934
 31
0.0
  0
LINE
  5
84B2
330
843B
100
AcDbEntity
  8
3
 62
     0
370
    -2
100
AcDbLine
 10
4427.419090021525
 20
4683.142332365934
 30
0.0
 11
5407.419090021526
 21
4683.142332365934
 31
0.0
  0
INSERT
  5
84B3
330
843B
100
AcDbEntity
  8
3
 62
     0
370
    -2
100
AcDbBlockReference
  2
_OPEN
 10
4357.419090021525
 20
4683.142332365934
 30
0.0
 41
70.0
 42
70.0
 43
70.0
 50
180.0
  0
INSERT
  5
84B4
330
843B
100
AcDbEntity
  8
3
 62
     0
370
    -2
100
AcDbBlockReference
  2
_OPEN
 10
5477.419090021525
 20
4683.142332365934
 30
0.0
 41
70.0
 42
70.0
 43
70.0
  0
MTEXT
  5
84B5
330
843B
100
AcDbEntity
  8
3
 62
     0
100
AcDbMText
 10
4917.419090021525
 20
4798.142332365933
 30
0.0
 40
105.0
 41
0.0
 71
     5
 72
     1
  1
\A1;(1120)
 73
     1
 44
1.0
1001
ACAD
1000
MTEXTBEGIN
1070
    73
1070
     1
1070
    44
1040
1.0
1070
    74
1070
     0
1000
MTEXTEND
  0
POINT
  5
84B6
330
843B
100
AcDbEntity
  8
DEFPOINTS
 62
     0
100
AcDbPoint
 10
4357.419090021525
 20
3807.287145966454
 30
0.0
  0
POINT
  5
84B7
330
843B
100
AcDbEntity
  8
DEFPOINTS
 62
     0
100
AcDbPoint
 10
5477.419090021525
 20
4587.405437488113
 30
0.0
  0
POINT
  5
84B8
330
843B
100
AcDbEntity
  8
DEFPOINTS
 62
     0
100
AcDbPoint
 10
5477.419090021525
 20
4683.142332365934
 30
0.0
  0
ENDBLK
  5
843D
330
843B
100
AcDbEntity
  8
0
100
AcDbBlockEnd
  0
BLOCK
  5
8449
330
8448
100
AcDbEntity
  8
0
100
AcDbBlockBegin
  2
*D28
 70
     1
 10
0.0
 20
0.0
 30
0.0
  3
*D28
  1

  0
LINE
  5
84B9
330
8448
100
AcDbEntity
  8
3
 62
     0
370
    -2
100
AcDbLine
 10
5477.419090021525
 20
4604.905437488113
 30
0.0
 11
5477.419090021525
 21
4718.142332365934
 31
0.0
  0
LINE
  5
84BA
330
8448
100
AcDbEntity
  8
3
 62
     0
370
    -2
100
AcDbLine
 10
6407.419090021524
 20
3371.787145966454
 30
0.0
 11
6407.419090021524
 21
4718.142332365934
 31
0.0
  0
LINE
  5
84BB
330
8448
100
AcDbEntity
  8
3
 62
     0
370
    -2
100
AcDbLine
 10
5547.419090021525
 20
4683.142332365934
 30
0.0
 11
6337.419090021525
 21
4683.142332365934
 31
0.0
  0
INSERT
  5
84BC
330
8448
100
AcDbEntity
  8
3
 62
     0
370
    -2
100
AcDbBlockReference
  2
_OPEN
 10
5477.419090021525
 20
4683.142332365934
 30
0.0
 41
70.0
 42
70.0
 43
70.0
 50
180.0
  0
INSERT
  5
84BD
330
8448
100
AcDbEntity
  8
3
 62
     0
370
    -2
100
AcDbBlockReference
  2
_OPEN
 10
6407.419090021524
 20
4683.142332365934
 30
0.0
 41
70.0
 42
70.0
 43
70.0
  0
MTEXT
  5
84BE
330
8448
100
AcDbEntity
  8
3
 62
     0
100
AcDbMText
 10
5942.419090021525
 20
4798.142332365933
 30
0.0
 40
105.0
 41
0.0
 71
     5
 72
     1
  1
\A1;(930)
 73
     1
 44
1.0
1001
ACAD
1000
MTEXTBEGIN
1070
    73
1070
     1
1070
    44
1040
1.0
1070
    74
1070
     0
1000
MTEXTEND
  0
POINT
  5
84BF
330
8448
100
AcDbEntity
  8
DEFPOINTS
 62
     0
100
AcDbPoint
 10
5477.419090021525
 20
4587.405437488113
 30
0.0
  0
POINT
  5
84C0
330
8448
100
AcDbEntity
  8
DEFPOINTS
 62
     0
100
AcDbPoint
 10
6407.419090021524
 20
3354.287145966453
 30
0.0
  0
POINT
  5
84C1
330
8448
100
AcDbEntity
  8
DEFPOINTS
 62
     0
100
AcDbPoint
 10
6407.419090021524
 20
4683.142332365934
 30
0.0
  0
ENDBLK
  5
844A
330
8448
100
AcDbEntity
  8
0
100
AcDbBlockEnd
  0
BLOCK
  5
845A
330
8459
100
AcDbEntity
  8
0
100
AcDbBlockBegin
  2
*D29
 70
     1
 10
0.0
 20
0.0
 30
0.0
  3
*D29
  1

  0
LINE
  5
84A7
330
8459
100
AcDbEntity
  8
3
 62
     0
370
    -2
100
AcDbLine
 10
6244.919090021524
 20
3987.287145966453
 30
0.0
 11
6630.201856377039
 21
3987.287145966453
 31
0.0
  0
LINE
  5
84A8
330
8459
100
AcDbEntity
  8
3
 62
     0
370
    -2
100
AcDbLine
 10
6244.919090021524
 20
2867.287145966452
 30
0.0
 11
6630.201856377039
 21
2867.287145966452
 31
0.0
  0
LINE
  5
84A9
330
8459
100
AcDbEntity
  8
3
 62
     0
370
    -2
100
AcDbLine
 10
6595.201856377039
 20
3917.287145966452
 30
0.0
 11
6595.201856377039
 21
2937.287145966452
 31
0.0
  0
INSERT
  5
84AA
330
8459
100
AcDbEntity
  8
3
 62
     0
370
    -2
100
AcDbBlockReference
  2
_OPEN
 10
6595.201856377039
 20
3987.287145966453
 30
0.0
 41
70.0
 42
70.0
 43
70.0
 50
90.0
  0
INSERT
  5
84AB
330
8459
100
AcDbEntity
  8
3
 62
     0
370
    -2
100
AcDbBlockReference
  2
_OPEN
 10
6595.201856377039
 20
2867.287145966452
 30
0.0
 41
70.0
 42
70.0
 43
70.0
 50
270.0
  0
MTEXT
  5
84AC
330
8459
100
AcDbEntity
  8
3
 62
     0
100
AcDbMText
 10
6507.701856377038
 20
3427.287145966453
 30
0.0
 40
105.0
 41
0.0
 71
     5
 72
     1
  1
\A1;\U+03C61120
 11
0.0000000000000001
 21
1.0
 31
0.0
 73
     1
 44
1.0
1001
ACAD
1000
MTEXTBEGIN
1070
    73
1070
     1
1070
    44
1040
1.0
1070
    74
1070
     0
1000
MTEXTEND
  0
POINT
  5
84AD
330
8459
100
AcDbEntity
  8
DEFPOINTS
 62
     0
100
AcDbPoint
 10
6227.419090021524
 20
3987.287145966453
 30
0.0
  0
POINT
  5
84AE
330
8459
100
AcDbEntity
  8
DEFPOINTS
 62
     0
100
AcDbPoint
 10
6227.419090021524
 20
2867.287145966452
 30
0.0
  0
POINT
  5
84AF
330
8459
100
AcDbEntity
  8
DEFPOINTS
 62
     0
100
AcDbPoint
 10
6595.201856377039
 20
2867.287145966452
 30
0.0
  0
ENDBLK
  5
845B
330
8459
100
AcDbEntity
  8
0
100
AcDbBlockEnd
  0
BLOCK
  5
84C4
330
84C3
100
AcDbEntity
  8
0
100
AcDbBlockBegin
  2
*D30
 70
     1
 10
0.0
 20
0.0
 30
0.0
  3
*D30
  1

  0
LINE
  5
84CF
330
84C3
100
AcDbEntity
  8
3
 62
     0
370
    -2
100
AcDbLine
 10
1358.265471673999
 20
6831.68623664779
 30
0.0
 11
698.3650863588337
 21
6831.68623664779
 31
0.0
  0
LINE
  5
84D0
330
84C3
100
AcDbEntity
  8
3
 62
     0
370
    -2
100
AcDbLine
 10
1866.06856939381
 20
5711.686236647791
 30
0.0
 11
698.3650863588335
 21
5711.686236647791
 31
0.0
  0
LINE
  5
84D1
330
84C3
100
AcDbEntity
  8
3
 62
     0
370
    -2
100
AcDbLine
 10
733.3650863588338
 20
6761.68623664779
 30
0.0
 11
733.3650863588335
 21
5781.68623664779
 31
0.0
  0
INSERT
  5
84D2
330
84C3
100
AcDbEntity
  8
3
 62
     0
370
    -2
100
AcDbBlockReference
  2
_OPEN
 10
733.3650863588338
 20
6831.68623664779
 30
0.0
 41
70.0
 42
70.0
 43
70.0
 50
90.0
  0
INSERT
  5
84D3
330
84C3
100
AcDbEntity
  8
3
 62
     0
370
    -2
100
AcDbBlockReference
  2
_OPEN
 10
733.3650863588335
 20
5711.686236647791
 30
0.0
 41
70.0
 42
70.0
 43
70.0
 50
270.0
  0
MTEXT
  5
84D4
330
84C3
100
AcDbEntity
  8
3
 62
     0
100
AcDbMText
 10
645.8650863588326
 20
6271.686236647791
 30
0.0
 40
105.0
 41
0.0
 71
     5
 72
     1
  1
\A1;1120
 11
0.0000000000000001
 21
1.0
 31
0.0
 73
     1
 44
1.0
1001
ACAD
1000
MTEXTBEGIN
1070
    73
1070
     1
1070
    44
1040
1.0
1070
    74
1070
     0
1000
MTEXTEND
  0
POINT
  5
84D5
330
84C3
100
AcDbEntity
  8
DEFPOINTS
 62
     0
100
AcDbPoint
 10
1375.765471673999
 20
6831.68623664779
 30
0.0
  0
POINT
  5
84D6
330
84C3
100
AcDbEntity
  8
DEFPOINTS
 62
     0
100
AcDbPoint
 10
1883.56856939381
 20
5711.686236647791
 30
0.0
  0
POINT
  5
84D7
330
84C3
100
AcDbEntity
  8
DEFPOINTS
 62
     0
100
AcDbPoint
 10
733.3650863588335
 20
5711.686236647791
 30
0.0
  0
ENDBLK
  5
84C5
330
84C3
100
AcDbEntity
  8
0
100
AcDbBlockEnd
  0
BLOCK
  5
84DA
330
84D9
100
AcDbEntity
  8
0
100
AcDbBlockBegin
  2
*D31
 70
     1
 10
0.0
 20
0.0
 30
0.0
  3
*D31
  1

  0
LINE
  5
84DC
330
84D9
100
AcDbEntity
  8
3
 62
     0
370
    -2
100
AcDbLine
 10
1603.56856939381
 20
7667.186236647791
 30
0.0
 11
1603.56856939381
 21
7858.693597118909
 31
0.0
  0
LINE
  5
84DD
330
84D9
100
AcDbEntity
  8
3
 62
     0
370
    -2
100
AcDbLine
 10
2923.56856939381
 20
7667.186236647791
 30
0.0
 11
2923.56856939381
 21
7858.693597118909
 31
0.0
  0
LINE
  5
84DE
330
84D9
100
AcDbEntity
  8
3
 62
     0
370
    -2
100
AcDbLine
 10
1673.56856939381
 20
7823.69359711891
 30
0.0
 11
2853.568569393809
 21
7823.69359711891
 31
0.0
  0
INSERT
  5
84DF
330
84D9
100
AcDbEntity
  8
3
 62
     0
370
    -2
100
AcDbBlockReference
  2
_OPEN
 10
1603.56856939381
 20
7823.69359711891
 30
0.0
 41
70.0
 42
70.0
 43
70.0
 50
180.0
  0
INSERT
  5
84E0
330
84D9
100
AcDbEntity
  8
3
 62
     0
370
    -2
100
AcDbBlockReference
  2
_OPEN
 10
2923.56856939381
 20
7823.69359711891
 30
0.0
 41
70.0
 42
70.0
 43
70.0
  0
MTEXT
  5
84E1
330
84D9
100
AcDbEntity
  8
3
 62
     0
100
AcDbMText
 10
2263.56856939381
 20
7911.193597118909
 30
0.0
 40
105.0
 41
0.0
 71
     5
 72
     1
  1
\A1;1320
 73
     1
 44
1.0
1001
ACAD
1000
MTEXTBEGIN
1070
    73
1070
     1
1070
    44
1040
1.0
1070
    74
1070
     0
1000
MTEXTEND
  0
POINT
  5
84E2
330
84D9
100
AcDbEntity
  8
DEFPOINTS
 62
     0
100
AcDbPoint
 10
1603.56856939381
 20
7649.686236647792
 30
0.0
  0
POINT
  5
84E3
330
84D9
100
AcDbEntity
  8
DEFPOINTS
 62
     0
100
AcDbPoint
 10
2923.56856939381
 20
7649.686236647792
 30
0.0
  0
POINT
  5
84E4
330
84D9
100
AcDbEntity
  8
DEFPOINTS
 62
     0
100
AcDbPoint
 10
2923.56856939381
 20
7823.69359711891
 30
0.0
  0
ENDBLK
  5
84DB
330
84D9
100
AcDbEntity
  8
0
100
AcDbBlockEnd
  0
BLOCK
  5
84E7
330
84E6
100
AcDbEntity
  8
0
100
AcDbBlockBegin
  2
*D32
 70
     1
 10
0.0
 20
0.0
 30
0.0
  3
*D32
  1

  0
LINE
  5
84E9
330
84E6
100
AcDbEntity
  8
3
 62
     0
370
    -2
100
AcDbLine
 10
2923.56856939381
 20
7667.186236647791
 30
0.0
 11
2923.56856939381
 21
7858.693597118909
 31
0.0
  0
LINE
  5
84EA
330
84E6
100
AcDbEntity
  8
3
 62
     0
370
    -2
100
AcDbLine
 10
3863.568569393811
 20
6667.186236647792
 30
0.0
 11
3863.568569393811
 21
7858.693597118909
 31
0.0
  0
LINE
  5
84EB
330
84E6
100
AcDbEntity
  8
3
 62
     0
370
    -2
100
AcDbLine
 10
2993.56856939381
 20
7823.69359711891
 30
0.0
 11
3793.568569393811
 21
7823.69359711891
 31
0.0
  0
INSERT
  5
84EC
330
84E6
100
AcDbEntity
  8
3
 62
     0
370
    -2
100
AcDbBlockReference
  2
_OPEN
 10
2923.56856939381
 20
7823.69359711891
 30
0.0
 41
70.0
 42
70.0
 43
70.0
 50
180.0
  0
INSERT
  5
84ED
330
84E6
100
AcDbEntity
  8
3
 62
     0
370
    -2
100
AcDbBlockReference
  2
_OPEN
 10
3863.568569393811
 20
7823.69359711891
 30
0.0
 41
70.0
 42
70.0
 43
70.0
  0
MTEXT
  5
84EE
330
84E6
100
AcDbEntity
  8
3
 62
     0
100
AcDbMText
 10
3393.56856939381
 20
7911.193597118909
 30
0.0
 40
105.0
 41
0.0
 71
     5
 72
     1
  1
\A1;940
 73
     1
 44
1.0
1001
ACAD
1000
MTEXTBEGIN
1070
    73
1070
     1
1070
    44
1040
1.0
1070
    74
1070
     0
1000
MTEXTEND
  0
POINT
  5
84EF
330
84E6
100
AcDbEntity
  8
DEFPOINTS
 62
     0
100
AcDbPoint
 10
2923.56856939381
 20
7649.686236647792
 30
0.0
  0
POINT
  5
84F0
330
84E6
100
AcDbEntity
  8
DEFPOINTS
 62
     0
100
AcDbPoint
 10
3863.568569393811
 20
6649.686236647792
 30
0.0
  0
POINT
  5
84F1
330
84E6
100
AcDbEntity
  8
DEFPOINTS
 62
     0
100
AcDbPoint
 10
3863.568569393811
 20
7823.69359711891
 30
0.0
  0
ENDBLK
  5
84E8
330
84E6
100
AcDbEntity
  8
0
100
AcDbBlockEnd
  0
BLOCK
  5
84F4
330
84F3
100
AcDbEntity
  8
0
100
AcDbBlockBegin
  2
*D33
 70
     1
 10
0.0
 20
0.0
 30
0.0
  3
*D33
  1

  0
LINE
  5
84F6
330
84F3
100
AcDbEntity
  8
3
 62
     0
370
    -2
100
AcDbLine
 10
3881.068569393811
 20
6649.686236647792
 30
0.0
 11
4299.198978687672
 21
6649.686236647792
 31
0.0
  0
LINE
  5
84F7
330
84F3
100
AcDbEntity
  8
3
 62
     0
370
    -2
100
AcDbLine
 10
3881.068569393811
 20
5749.686236647789
 30
0.0
 11
4299.198978687671
 21
5749.686236647789
 31
0.0
  0
LINE
  5
84F8
330
84F3
100
AcDbEntity
  8
3
 62
     0
370
    -2
100
AcDbLine
 10
4264.198978687672
 20
6579.686236647792
 30
0.0
 11
4264.198978687671
 21
5819.686236647789
 31
0.0
  0
INSERT
  5
84F9
330
84F3
100
AcDbEntity
  8
3
 62
     0
370
    -2
100
AcDbBlockReference
  2
_OPEN
 10
4264.198978687672
 20
6649.686236647792
 30
0.0
 41
70.0
 42
70.0
 43
70.0
 50
90.0
  0
INSERT
  5
84FA
330
84F3
100
AcDbEntity
  8
3
 62
     0
370
    -2
100
AcDbBlockReference
  2
_OPEN
 10
4264.198978687671
 20
5749.686236647789
 30
0.0
 41
70.0
 42
70.0
 43
70.0
 50
270.0
  0
MTEXT
  5
84FB
330
84F3
100
AcDbEntity
  8
3
 62
     0
100
AcDbMText
 10
4176.69897868767
 20
6199.68623664779
 30
0.0
 40
105.0
 41
0.0
 71
     5
 72
     1
  1
\A1;900
 11
0.0000000000000001
 21
1.0
 31
0.0
 73
     1
 44
1.0
1001
ACAD
1000
MTEXTBEGIN
1070
    73
1070
     1
1070
    44
1040
1.0
1070
    74
1070
     0
1000
MTEXTEND
  0
POINT
  5
84FC
330
84F3
100
AcDbEntity
  8
DEFPOINTS
 62
     0
100
AcDbPoint
 10
3863.568569393811
 20
6649.686236647792
 30
0.0
  0
POINT
  5
84FD
330
84F3
100
AcDbEntity
  8
DEFPOINTS
 62
     0
100
AcDbPoint
 10
3863.568569393811
 20
5749.686236647789
 30
0.0
  0
POINT
  5
84FE
330
84F3
100
AcDbEntity
  8
DEFPOINTS
 62
     0
100
AcDbPoint
 10
4264.198978687671
 20
5749.686236647789
 30
0.0
  0
ENDBLK
  5
84F5
330
84F3
100
AcDbEntity
  8
0
100
AcDbBlockEnd
  0
BLOCK
  5
8501
330
8500
100
AcDbEntity
  8
0
100
AcDbBlockBegin
  2
*D34
 70
     1
 10
0.0
 20
0.0
 30
0.0
  3
*D34
  1

  0
LINE
  5
8503
330
8500
100
AcDbEntity
  8
3
 62
     0
370
    -2
100
AcDbLine
 10
1603.56856939381
 20
5732.186236647791
 30
0.0
 11
1603.56856939381
 21
5423.441044553842
 31
0.0
  0
LINE
  5
8504
330
8500
100
AcDbEntity
  8
3
 62
     0
370
    -2
100
AcDbLine
 10
3863.568569393811
 20
5732.186236647791
 30
0.0
 11
3863.568569393811
 21
5423.441044553842
 31
0.0
  0
LINE
  5
8505
330
8500
100
AcDbEntity
  8
3
 62
     0
370
    -2
100
AcDbLine
 10
1673.56856939381
 20
5458.441044553842
 30
0.0
 11
3793.568569393811
 21
5458.441044553842
 31
0.0
  0
INSERT
  5
8506
330
8500
100
AcDbEntity
  8
3
 62
     0
370
    -2
100
AcDbBlockReference
  2
_OPEN
 10
1603.56856939381
 20
5458.441044553842
 30
0.0
 41
70.0
 42
70.0
 43
70.0
 50
180.0
  0
INSERT
  5
8507
330
8500
100
AcDbEntity
  8
3
 62
     0
370
    -2
100
AcDbBlockReference
  2
_OPEN
 10
3863.568569393811
 20
5458.441044553842
 30
0.0
 41
70.0
 42
70.0
 43
70.0
  0
MTEXT
  5
8508
330
8500
100
AcDbEntity
  8
3
 62
     0
100
AcDbMText
 10
2733.56856939381
 20
5545.941044553842
 30
0.0
 40
105.0
 41
0.0
 71
     5
 72
     1
  1
\A1;2260
 73
     1
 44
1.0
1001
ACAD
1000
MTEXTBEGIN
1070
    73
1070
     1
1070
    44
1040
1.0
1070
    74
1070
     0
1000
MTEXTEND
  0
POINT
  5
8509
330
8500
100
AcDbEntity
  8
DEFPOINTS
 62
     0
100
AcDbPoint
 10
1603.56856939381
 20
5749.68623664779
 30
0.0
  0
POINT
  5
850A
330
8500
100
AcDbEntity
  8
DEFPOINTS
 62
     0
100
AcDbPoint
 10
3863.568569393811
 20
5749.68623664779
 30
0.0
  0
POINT
  5
850B
330
8500
100
AcDbEntity
  8
DEFPOINTS
 62
     0
100
AcDbPoint
 10
3863.568569393811
 20
5458.441044553842
 30
0.0
  0
ENDBLK
  5
8502
330
8500
100
AcDbEntity
  8
0
100
AcDbBlockEnd
  0
BLOCK
  5
850E
330
850D
100
AcDbEntity
  8
0
100
AcDbBlockBegin
  2
*D35
 70
     1
 10
0.0
 20
0.0
 30
0.0
  3
*D35
  1

  0
LINE
  5
8510
330
850D
100
AcDbEntity
  8
3
 62
     0
370
    -2
100
AcDbLine
 10
1586.06856939381
 20
7649.686236647792
 30
0.0
 11
1169.796314422758
 21
7649.686236647792
 31
0.0
  0
LINE
  5
8511
330
850D
100
AcDbEntity
  8
3
 62
     0
370
    -2
100
AcDbLine
 10
1586.06856939381
 20
5749.68623664779
 30
0.0
 11
1169.796314422758
 21
5749.68623664779
 31
0.0
  0
LINE
  5
8512
330
850D
100
AcDbEntity
  8
3
 62
     0
370
    -2
100
AcDbLine
 10
1204.796314422758
 20
7579.686236647791
 30
0.0
 11
1204.796314422758
 21
5819.686236647791
 31
0.0
  0
INSERT
  5
8513
330
850D
100
AcDbEntity
  8
3
 62
     0
370
    -2
100
AcDbBlockReference
  2
_OPEN
 10
1204.796314422758
 20
7649.686236647792
 30
0.0
 41
70.0
 42
70.0
 43
70.0
 50
90.0
  0
INSERT
  5
8514
330
850D
100
AcDbEntity
  8
3
 62
     0
370
    -2
100
AcDbBlockReference
  2
_OPEN
 10
1204.796314422758
 20
5749.68623664779
 30
0.0
 41
70.0
 42
70.0
 43
70.0
 50
270.0
  0
MTEXT
  5
8515
330
850D
100
AcDbEntity
  8
3
 62
     0
100
AcDbMText
 10
1117.296314422757
 20
6699.686236647791
 30
0.0
 40
105.0
 41
0.0
 71
     5
 72
     1
  1
\A1;1900
 11
0.0000000000000001
 21
1.0
 31
0.0
 73
     1
 44
1.0
1001
ACAD
1000
MTEXTBEGIN
1070
    73
1070
     1
1070
    44
1040
1.0
1070
    74
1070
     0
1000
MTEXTEND
  0
POINT
  5
8516
330
850D
100
AcDbEntity
  8
DEFPOINTS
 62
     0
100
AcDbPoint
 10
1603.56856939381
 20
7649.686236647792
 30
0.0
  0
POINT
  5
8517
330
850D
100
AcDbEntity
  8
DEFPOINTS
 62
     0
100
AcDbPoint
 10
1603.56856939381
 20
5749.68623664779
 30
0.0
  0
POINT
  5
8518
330
850D
100
AcDbEntity
  8
DEFPOINTS
 62
     0
100
AcDbPoint
 10
1204.796314422758
 20
5749.68623664779
 30
0.0
  0
ENDBLK
  5
850F
330
850D
100
AcDbEntity
  8
0
100
AcDbBlockEnd
  0
BLOCK
  5
851B
330
851A
100
AcDbEntity
  8
0
100
AcDbBlockBegin
  2
*D36
 70
     1
 10
0.0
 20
0.0
 30
0.0
  3
*D36
  1

  0
LINE
  5
851D
330
851A
100
AcDbEntity
  8
3
 62
     0
370
    -2
100
AcDbLine
 10
2311.568569393809
 20
4204.787145966452
 30
0.0
 11
2311.568569393809
 21
4422.395462250719
 31
0.0
  0
LINE
  5
851E
330
851A
100
AcDbEntity
  8
3
 62
     0
370
    -2
100
AcDbLine
 10
3461.209602334974
 20
4200.787145966453
 30
0.0
 11
3461.209602334974
 21
4422.395462250719
 31
0.0
  0
LINE
  5
851F
330
851A
100
AcDbEntity
  8
3
 62
     0
370
    -2
100
AcDbLine
 10
2381.56856939381
 20
4387.395462250719
 30
0.0
 11
3391.209602334975
 21
4387.395462250719
 31
0.0
  0
INSERT
  5
8520
330
851A
100
AcDbEntity
  8
3
 62
     0
370
    -2
100
AcDbBlockReference
  2
_OPEN
 10
2311.568569393809
 20
4387.395462250719
 30
0.0
 41
70.0
 42
70.0
 43
70.0
 50
180.0
  0
INSERT
  5
8521
330
851A
100
AcDbEntity
  8
3
 62
     0
370
    -2
100
AcDbBlockReference
  2
_OPEN
 10
3461.209602334974
 20
4387.395462250719
 30
0.0
 41
70.0
 42
70.0
 43
70.0
  0
MTEXT
  5
8522
330
851A
100
AcDbEntity
  8
3
 62
     0
100
AcDbMText
 10
2886.389085864392
 20
4474.895462250719
 30
0.0
 40
105.0
 41
0.0
 71
     5
 72
     1
  1
\A1;1149.641
 73
     1
 44
1.0
1001
ACAD
1000
MTEXTBEGIN
1070
    73
1070
     1
1070
    44
1040
1.0
1070
    74
1070
     0
1000
MTEXTEND
  0
POINT
  5
8523
330
851A
100
AcDbEntity
  8
DEFPOINTS
 62
     0
100
AcDbPoint
 10
2311.568569393809
 20
4187.287145966453
 30
0.0
  0
POINT
  5
8524
330
851A
100
AcDbEntity
  8
DEFPOINTS
 62
     0
100
AcDbPoint
 10
3461.209602334974
 20
4183.287145966453
 30
0.0
  0
POINT
  5
8525
330
851A
100
AcDbEntity
  8
DEFPOINTS
 62
     0
100
AcDbPoint
 10
3461.209602334974
 20
4387.395462250719
 30
0.0
  0
ENDBLK
  5
851C
330
851A
100
AcDbEntity
  8
0
100
AcDbBlockEnd
  0
BLOCK
  5
8528
330
8527
100
AcDbEntity
  8
0
100
AcDbBlockBegin
  2
*D37
 70
     1
 10
0.0
 20
0.0
 30
0.0
  3
*D37
  1

  0
LINE
  5
852A
330
8527
100
AcDbEntity
  8
3
 62
     0
370
    -2
100
AcDbLine
 10
2311.568569393809
 20
4204.787145966452
 30
0.0
 11
2311.568569393809
 21
4422.395462250719
 31
0.0
  0
LINE
  5
852B
330
8527
100
AcDbEntity
  8
3
 62
     0
370
    -2
100
AcDbLine
 10
3461.56856939381
 20
4204.787145966452
 30
0.0
 11
3461.56856939381
 21
4422.395462250719
 31
0.0
  0
LINE
  5
852C
330
8527
100
AcDbEntity
  8
3
 62
     0
370
    -2
100
AcDbLine
 10
2381.56856939381
 20
4387.395462250719
 30
0.0
 11
3391.56856939381
 21
4387.395462250719
 31
0.0
  0
INSERT
  5
852D
330
8527
100
AcDbEntity
  8
3
 62
     0
370
    -2
100
AcDbBlockReference
  2
_OPEN
 10
2311.568569393809
 20
4387.395462250719
 30
0.0
 41
70.0
 42
70.0
 43
70.0
 50
180.0
  0
INSERT
  5
852E
330
8527
100
AcDbEntity
  8
3
 62
     0
370
    -2
100
AcDbBlockReference
  2
_OPEN
 10
3461.56856939381
 20
4387.395462250719
 30
0.0
 41
70.0
 42
70.0
 43
70.0
  0
MTEXT
  5
852F
330
8527
100
AcDbEntity
  8
3
 62
     0
100
AcDbMText
 10
2886.568569393809
 20
4474.895462250719
 30
0.0
 40
105.0
 41
0.0
 71
     5
 72
     1
  1
\A1;1150
 73
     1
 44
1.0
1001
ACAD
1000
MTEXTBEGIN
1070
    73
1070
     1
1070
    44
1040
1.0
1070
    74
1070
     0
1000
MTEXTEND
  0
POINT
  5
8530
330
8527
100
AcDbEntity
  8
DEFPOINTS
 62
     0
100
AcDbPoint
 10
2311.568569393809
 20
4187.287145966453
 30
0.0
  0
POINT
  5
8531
330
8527
100
AcDbEntity
  8
DEFPOINTS
 62
     0
100
AcDbPoint
 10
3461.56856939381
 20
4187.287145966453
 30
0.0
  0
POINT
  5
8532
330
8527
100
AcDbEntity
  8
DEFPOINTS
 62
     0
100
AcDbPoint
 10
3461.56856939381
 20
4387.395462250719
 30
0.0
  0
ENDBLK
  5
8529
330
8527
100
AcDbEntity
  8
0
100
AcDbBlockEnd
  0
BLOCK
  5
8535
330
8534
100
AcDbEntity
  8
0
100
AcDbBlockBegin
  2
*D38
 70
     1
 10
0.0
 20
0.0
 30
0.0
  3
*D38
  1

  0
LINE
  5
8537
330
8534
100
AcDbEntity
  8
3
 62
     0
370
    -2
100
AcDbLine
 10
3461.56856939381
 20
4204.787145966452
 30
0.0
 11
3461.56856939381
 21
4622.547113112221
 31
0.0
  0
LINE
  5
8538
330
8534
100
AcDbEntity
  8
3
 62
     0
370
    -2
100
AcDbLine
 10
2263.568569393809
 20
4605.047113112221
 30
0.0
 11
2263.568569393809
 21
4622.547113112221
 31
0.0
  0
LINE
  5
8539
330
8534
100
AcDbEntity
  8
3
 62
     0
370
    -2
100
AcDbLine
 10
3391.56856939381
 20
4587.547113112221
 30
0.0
 11
2333.568569393809
 21
4587.547113112221
 31
0.0
  0
INSERT
  5
853A
330
8534
100
AcDbEntity
  8
3
 62
     0
370
    -2
100
AcDbBlockReference
  2
_OPEN
 10
3461.56856939381
 20
4587.547113112221
 30
0.0
 41
70.0
 42
70.0
 43
70.0
  0
INSERT
  5
853B
330
8534
100
AcDbEntity
  8
3
 62
     0
370
    -2
100
AcDbBlockReference
  2
_OPEN
 10
2263.568569393809
 20
4587.547113112221
 30
0.0
 41
70.0
 42
70.0
 43
70.0
 50
180.0
  0
MTEXT
  5
853C
330
8534
100
AcDbEntity
  8
3
 62
     0
100
AcDbMText
 10
2862.56856939381
 20
4675.047113112221
 30
0.0
 40
105.0
 41
0.0
 71
     5
 72
     1
  1
\A1;1198
 73
     1
 44
1.0
1001
ACAD
1000
MTEXTBEGIN
1070
    73
1070
     1
1070
    44
1040
1.0
1070
    74
1070
     0
1000
MTEXTEND
  0
POINT
  5
853D
330
8534
100
AcDbEntity
  8
DEFPOINTS
 62
     0
100
AcDbPoint
 10
3461.56856939381
 20
4187.287145966453
 30
0.0
  0
POINT
  5
853E
330
8534
100
AcDbEntity
  8
DEFPOINTS
 62
     0
100
AcDbPoint
 10
2263.568569393809
 20
4587.547113112221
 30
0.0
  0
POINT
  5
853F
330
8534
100
AcDbEntity
  8
DEFPOINTS
 62
     0
100
AcDbPoint
 10
2263.568569393809
 20
4587.547113112221
 30
0.0
  0
ENDBLK
  5
8536
330
8534
100
AcDbEntity
  8
0
100
AcDbBlockEnd
  0
BLOCK
  5
8542
330
8541
100
AcDbEntity
  8
0
100
AcDbBlockBegin
  2
*D39
 70
     1
 10
0.0
 20
0.0
 30
0.0
  3
*D39
  1

  0
LINE
  5
8544
330
8541
100
AcDbEntity
  8
3
 62
     0
370
    -2
100
AcDbLine
 10
2263.568569393809
 20
4605.047113112221
 30
0.0
 11
2263.568569393809
 21
4622.547113112221
 31
0.0
  0
LINE
  5
8545
330
8541
100
AcDbEntity
  8
3
 62
     0
370
    -2
100
AcDbLine
 10
1458.568569393809
 20
3362.787145966454
 30
0.0
 11
1458.568569393809
 21
4622.547113112221
 31
0.0
  0
LINE
  5
8546
330
8541
100
AcDbEntity
  8
3
 62
     0
370
    -2
100
AcDbLine
 10
2193.568569393809
 20
4587.547113112221
 30
0.0
 11
1528.568569393809
 21
4587.547113112221
 31
0.0
  0
INSERT
  5
8547
330
8541
100
AcDbEntity
  8
3
 62
     0
370
    -2
100
AcDbBlockReference
  2
_OPEN
 10
2263.568569393809
 20
4587.547113112221
 30
0.0
 41
70.0
 42
70.0
 43
70.0
  0
INSERT
  5
8548
330
8541
100
AcDbEntity
  8
3
 62
     0
370
    -2
100
AcDbBlockReference
  2
_OPEN
 10
1458.568569393809
 20
4587.547113112221
 30
0.0
 41
70.0
 42
70.0
 43
70.0
 50
180.0
  0
MTEXT
  5
8549
330
8541
100
AcDbEntity
  8
3
 62
     0
100
AcDbMText
 10
1861.068569393809
 20
4675.047113112221
 30
0.0
 40
105.0
 41
0.0
 71
     5
 72
     1
  1
\A1;805
 73
     1
 44
1.0
1001
ACAD
1000
MTEXTBEGIN
1070
    73
1070
     1
1070
    44
1040
1.0
1070
    74
1070
     0
1000
MTEXTEND
  0
POINT
  5
854A
330
8541
100
AcDbEntity
  8
DEFPOINTS
 62
     0
100
AcDbPoint
 10
2263.568569393809
 20
4587.547113112221
 30
0.0
  0
POINT
  5
854B
330
8541
100
AcDbEntity
  8
DEFPOINTS
 62
     0
100
AcDbPoint
 10
1458.568569393809
 20
3345.287145966454
 30
0.0
  0
POINT
  5
854C
330
8541
100
AcDbEntity
  8
DEFPOINTS
 62
     0
100
AcDbPoint
 10
1458.568569393809
 20
4587.547113112221
 30
0.0
  0
ENDBLK
  5
8543
330
8541
100
AcDbEntity
  8
0
100
AcDbBlockEnd
  0
BLOCK
  5
854F
330
854E
100
AcDbEntity
  8
0
100
AcDbBlockBegin
  2
*D40
 70
     1
 10
0.0
 20
0.0
 30
0.0
  3
*D40
  1

  0
LINE
  5
8551
330
854E
100
AcDbEntity
  8
3
 62
     0
370
    -2
100
AcDbLine
 10
3863.568569393809
 20
2559.787145966453
 30
0.0
 11
3863.568569393809
 21
4854.488514716802
 31
0.0
  0
LINE
  5
8552
330
854E
100
AcDbEntity
  8
3
 62
     0
370
    -2
100
AcDbLine
 10
1458.568569393809
 20
3362.787145966454
 30
0.0
 11
1458.568569393809
 21
4854.488514716802
 31
0.0
  0
LINE
  5
8553
330
854E
100
AcDbEntity
  8
3
 62
     0
370
    -2
100
AcDbLine
 10
3793.56856939381
 20
4819.488514716802
 30
0.0
 11
1528.568569393809
 21
4819.488514716802
 31
0.0
  0
INSERT
  5
8554
330
854E
100
AcDbEntity
  8
3
 62
     0
370
    -2
100
AcDbBlockReference
  2
_OPEN
 10
3863.568569393809
 20
4819.488514716802
 30
0.0
 41
70.0
 42
70.0
 43
70.0
  0
INSERT
  5
8555
330
854E
100
AcDbEntity
  8
3
 62
     0
370
    -2
100
AcDbBlockReference
  2
_OPEN
 10
1458.568569393809
 20
4819.488514716802
 30
0.0
 41
70.0
 42
70.0
 43
70.0
 50
180.0
  0
MTEXT
  5
8556
330
854E
100
AcDbEntity
  8
3
 62
     0
100
AcDbMText
 10
2661.06856939381
 20
4906.988514716801
 30
0.0
 40
105.0
 41
0.0
 71
     5
 72
     1
  1
\A1;2405
 73
     1
 44
1.0
1001
ACAD
1000
MTEXTBEGIN
1070
    73
1070
     1
1070
    44
1040
1.0
1070
    74
1070
     0
1000
MTEXTEND
  0
POINT
  5
8557
330
854E
100
AcDbEntity
  8
DEFPOINTS
 62
     0
100
AcDbPoint
 10
3863.568569393809
 20
2542.287145966453
 30
0.0
  0
POINT
  5
8558
330
854E
100
AcDbEntity
  8
DEFPOINTS
 62
     0
100
AcDbPoint
 10
1458.568569393809
 20
3345.287145966454
 30
0.0
  0
POINT
  5
8559
330
854E
100
AcDbEntity
  8
DEFPOINTS
 62
     0
100
AcDbPoint
 10
1458.568569393809
 20
4819.488514716802
 30
0.0
  0
ENDBLK
  5
8550
330
854E
100
AcDbEntity
  8
0
100
AcDbBlockEnd
  0
BLOCK
  5
855C
330
855B
100
AcDbEntity
  8
0
100
AcDbBlockBegin
  2
*D41
 70
     1
 10
0.0
 20
0.0
 30
0.0
  3
*D41
  1

  0
LINE
  5
855E
330
855B
100
AcDbEntity
  8
3
 62
     0
370
    -2
100
AcDbLine
 10
2241.06856939381
 20
4187.287145966453
 30
0.0
 11
1163.633805154546
 21
4187.287145966453
 31
0.0
  0
LINE
  5
855F
330
855B
100
AcDbEntity
  8
3
 62
     0
370
    -2
100
AcDbLine
 10
1339.287917940833
 20
3427.287145966452
 30
0.0
 11
1163.633805154546
 21
3427.287145966452
 31
0.0
  0
LINE
  5
8560
330
855B
100
AcDbEntity
  8
3
 62
     0
370
    -2
100
AcDbLine
 10
1198.633805154546
 20
4117.287145966454
 30
0.0
 11
1198.633805154546
 21
3497.287145966453
 31
0.0
  0
INSERT
  5
8561
330
855B
100
AcDbEntity
  8
3
 62
     0
370
    -2
100
AcDbBlockReference
  2
_OPEN
 10
1198.633805154546
 20
4187.287145966453
 30
0.0
 41
70.0
 42
70.0
 43
70.0
 50
90.0
  0
INSERT
  5
8562
330
855B
100
AcDbEntity
  8
3
 62
     0
370
    -2
100
AcDbBlockReference
  2
_OPEN
 10
1198.633805154546
 20
3427.287145966452
 30
0.0
 41
70.0
 42
70.0
 43
70.0
 50
270.0
  0
MTEXT
  5
8563
330
855B
100
AcDbEntity
  8
3
 62
     0
100
AcDbMText
 10
1111.133805154545
 20
3807.287145966454
 30
0.0
 40
105.0
 41
0.0
 71
     5
 72
     1
  1
\A1;760
 11
0.0000000000000001
 21
1.0
 31
0.0
 73
     1
 44
1.0
1001
ACAD
1000
MTEXTBEGIN
1070
    73
1070
     1
1070
    44
1040
1.0
1070
    74
1070
     0
1000
MTEXTEND
  0
POINT
  5
8564
330
855B
100
AcDbEntity
  8
DEFPOINTS
 62
     0
100
AcDbPoint
 10
2258.56856939381
 20
4187.287145966453
 30
0.0
  0
POINT
  5
8565
330
855B
100
AcDbEntity
  8
DEFPOINTS
 62
     0
100
AcDbPoint
 10
1356.787917940833
 20
3427.287145966452
 30
0.0
  0
POINT
  5
8566
330
855B
100
AcDbEntity
  8
DEFPOINTS
 62
     0
100
AcDbPoint
 10
1198.633805154546
 20
3427.287145966452
 30
0.0
  0
ENDBLK
  5
855D
330
855B
100
AcDbEntity
  8
0
100
AcDbBlockEnd
  0
BLOCK
  5
8569
330
8568
100
AcDbEntity
  8
0
100
AcDbBlockBegin
  2
*D42
 70
     1
 10
0.0
 20
0.0
 30
0.0
  3
*D42
  1

  0
LINE
  5
856B
330
8568
100
AcDbEntity
  8
3
 62
     0
370
    -2
100
AcDbLine
 10
1339.287917940833
 20
3427.287145966452
 30
0.0
 11
1163.633805154546
 21
3427.287145966452
 31
0.0
  0
LINE
  5
856C
330
8568
100
AcDbEntity
  8
3
 62
     0
370
    -2
100
AcDbLine
 10
1586.06856939381
 20
2417.287145966453
 30
0.0
 11
1163.633805154546
 21
2417.287145966453
 31
0.0
  0
LINE
  5
856D
330
8568
100
AcDbEntity
  8
3
 62
     0
370
    -2
100
AcDbLine
 10
1198.633805154546
 20
3357.287145966452
 30
0.0
 11
1198.633805154546
 21
2487.287145966453
 31
0.0
  0
INSERT
  5
856E
330
8568
100
AcDbEntity
  8
3
 62
     0
370
    -2
100
AcDbBlockReference
  2
_OPEN
 10
1198.633805154546
 20
3427.287145966452
 30
0.0
 41
70.0
 42
70.0
 43
70.0
 50
90.0
  0
INSERT
  5
856F
330
8568
100
AcDbEntity
  8
3
 62
     0
370
    -2
100
AcDbBlockReference
  2
_OPEN
 10
1198.633805154546
 20
2417.287145966453
 30
0.0
 41
70.0
 42
70.0
 43
70.0
 50
270.0
  0
MTEXT
  5
8570
330
8568
100
AcDbEntity
  8
3
 62
     0
100
AcDbMText
 10
1111.133805154545
 20
2922.287145966453
 30
0.0
 40
105.0
 41
0.0
 71
     5
 72
     1
  1
\A1;1010
 11
0.0000000000000001
 21
1.0
 31
0.0
 73
     1
 44
1.0
1001
ACAD
1000
MTEXTBEGIN
1070
    73
1070
     1
1070
    44
1040
1.0
1070
    74
1070
     0
1000
MTEXTEND
  0
POINT
  5
8571
330
8568
100
AcDbEntity
  8
DEFPOINTS
 62
     0
100
AcDbPoint
 10
1356.787917940833
 20
3427.287145966452
 30
0.0
  0
POINT
  5
8572
330
8568
100
AcDbEntity
  8
DEFPOINTS
 62
     0
100
AcDbPoint
 10
1603.56856939381
 20
2417.287145966453
 30
0.0
  0
POINT
  5
8573
330
8568
100
AcDbEntity
  8
DEFPOINTS
 62
     0
100
AcDbPoint
 10
1198.633805154546
 20
2417.287145966453
 30
0.0
  0
ENDBLK
  5
856A
330
8568
100
AcDbEntity
  8
0
100
AcDbBlockEnd
  0
BLOCK
  5
8576
330
8575
100
AcDbEntity
  8
0
100
AcDbBlockBegin
  2
*D43
 70
     1
 10
0.0
 20
0.0
 30
0.0
  3
*D43
  1

  0
LINE
  5
8581
330
8575
100
AcDbEntity
  8
3
 62
     0
370
    -2
100
AcDbLine
 10
3461.56856939381
 20
4204.787145966452
 30
0.0
 11
3461.56856939381
 21
4622.547113112221
 31
0.0
  0
LINE
  5
8582
330
8575
100
AcDbEntity
  8
3
 62
     0
370
    -2
100
AcDbLine
 10
2263.568569393809
 20
4272.679405696564
 30
0.0
 11
2263.568569393809
 21
4622.547113112221
 31
0.0
  0
LINE
  5
8583
330
8575
100
AcDbEntity
  8
3
 62
     0
370
    -2
100
AcDbLine
 10
3391.56856939381
 20
4587.547113112221
 30
0.0
 11
2333.568569393809
 21
4587.547113112221
 31
0.0
  0
INSERT
  5
8584
330
8575
100
AcDbEntity
  8
3
 62
     0
370
    -2
100
AcDbBlockReference
  2
_OPEN
 10
3461.56856939381
 20
4587.547113112221
 30
0.0
 41
70.0
 42
70.0
 43
70.0
  0
INSERT
  5
8585
330
8575
100
AcDbEntity
  8
3
 62
     0
370
    -2
100
AcDbBlockReference
  2
_OPEN
 10
2263.568569393809
 20
4587.547113112221
 30
0.0
 41
70.0
 42
70.0
 43
70.0
 50
180.0
  0
MTEXT
  5
8586
330
8575
100
AcDbEntity
  8
3
 62
     0
100
AcDbMText
 10
2862.56856939381
 20
4675.047113112221
 30
0.0
 40
105.0
 41
0.0
 71
     5
 72
     1
  1
\A1;1198
 73
     1
 44
1.0
1001
ACAD
1000
MTEXTBEGIN
1070
    73
1070
     1
1070
    44
1040
1.0
1070
    74
1070
     0
1000
MTEXTEND
  0
POINT
  5
8587
330
8575
100
AcDbEntity
  8
DEFPOINTS
 62
     0
100
AcDbPoint
 10
3461.56856939381
 20
4187.287145966453
 30
0.0
  0
POINT
  5
8588
330
8575
100
AcDbEntity
  8
DEFPOINTS
 62
     0
100
AcDbPoint
 10
2263.568569393809
 20
4255.179405696565
 30
0.0
  0
POINT
  5
8589
330
8575
100
AcDbEntity
  8
DEFPOINTS
 62
     0
100
AcDbPoint
 10
2263.568569393809
 20
4587.547113112221
 30
0.0
  0
ENDBLK
  5
8577
330
8575
100
AcDbEntity
  8
0
100
AcDbBlockEnd
  0
ENDSEC
  0
SECTION
  2
ENTITIES
  0
INSERT
  5
7C14
330
83E9
100
AcDbEntity
  8
0
100
AcDbBlockReference
  2
YA_N
 10
6.0
 20
5.0
 30
0.0
  0
LINE
  5
7C16
330
83E9
100
AcDbEntity
  8
2
100
AcDbLine
 10
1356.787917940833
 20
3427.287145966452
 30
0.0
 11
3329.942910507481
 21
3427.287145966452
 31
0.0
  0
LINE
  5
7C17
330
83E9
100
AcDbEntity
  8
2
100
AcDbLine
 10
2263.568569393809
 20
2417.287145966453
 30
0.0
 11
2263.568569393809
 21
4255.179405696565
 31
0.0
  0
LINE
  5
7C18
330
83E9
100
AcDbEntity
  8
1
100
AcDbLine
 10
2258.56856939381
 20
4187.287145966453
 30
0.0
 11
3514.56856939381
 21
4187.287145966453
 31
0.0
  0
LINE
  5
7C19
330
83E9
100
AcDbEntity
  8
1
100
AcDbLine
 10
3514.56856939381
 20
4187.287145966453
 30
0.0
 11
3514.56856939381
 21
4183.287145966453
 31
0.0
  0
LINE
  5
7C1A
330
83E9
100
AcDbEntity
  8
1
100
AcDbLine
 10
2258.56856939381
 20
4187.287145966453
 30
0.0
 11
2258.56856939381
 21
4183.287145966453
 31
0.0
  0
LINE
  5
7C1B
330
83E9
100
AcDbEntity
  8
1
100
AcDbLine
 10
2311.568569393809
 20
4137.287145966452
 30
0.0
 11
3457.081481158371
 21
4137.287145966452
 31
0.0
  0
LINE
  5
7C1C
330
83E9
100
AcDbEntity
  8
1
100
AcDbLine
 10
2258.56856939381
 20
4183.287145966453
 30
0.0
 11
3514.56856939381
 21
4183.287145966453
 31
0.0
  0
LINE
  5
7C1D
330
83E9
100
AcDbEntity
  8
1
100
AcDbLine
 10
1603.56856939381
 20
2417.287145966453
 30
0.0
 11
3863.568569393809
 21
2417.287145966453
 31
0.0
1001
ACAD
1000
ASC_BOUNDS
1002
{
1070
    19
1005
0
1002
}
  0
LINE
  5
7C1E
330
83E9
100
AcDbEntity
  8
1
100
AcDbLine
 10
1603.56856939381
 20
2542.287145966453
 30
0.0
 11
1603.56856939381
 21
2417.287145966453
 31
0.0
  0
LINE
  5
7C1F
330
83E9
100
AcDbEntity
  8
1
100
AcDbLine
 10
3863.568569393809
 20
2542.287145966453
 30
0.0
 11
3863.568569393809
 21
2417.287145966453
 31
0.0
  0
LINE
  5
7C20
330
83E9
100
AcDbEntity
  8
1
100
AcDbLine
 10
1603.56856939381
 20
2542.287145966453
 30
0.0
 11
3863.568569393809
 21
2542.287145966453
 31
0.0
  0
ARC
  5
7C21
330
83E9
100
AcDbEntity
  8
1
100
AcDbCircle
 10
2345.568569393809
 20
3509.287145966454
 30
0.0
 40
1051.0
100
AcDbArc
 50
293.0627876000036
 51
355.5251821014662
  0
ARC
  5
7C22
330
83E9
100
AcDbEntity
  8
1
100
AcDbCircle
 10
2345.568569393809
 20
3345.287145966454
 30
0.0
 40
887.0
100
AcDbArc
 50
174.695634792204
 51
244.8635510921249
  0
ARC
  5
7C23
330
83E9
100
AcDbEntity
  8
1
100
AcDbCircle
 10
2195.068569393809
 20
3358.787145966452
 30
0.0
 40
736.5
100
AcDbArc
 50
84.66335167861648
 51
174.6633516786165
  0
LINE
  5
7C24
330
83E9
100
AcDbEntity
  8
1
100
AcDbLine
 10
3461.56856939381
 20
4187.287145966453
 30
0.0
 11
3393.364828215151
 21
3427.287145966452
 31
0.0
  0
LINE
  5
7C25
330
83E9
100
AcDbEntity
  8
1
100
AcDbLine
 10
2311.568569393809
 20
4187.287145966453
 30
0.0
 11
2311.568569393809
 21
4093.560363197943
 31
0.0
  0
LINE
  5
7C26
330
83E9
100
AcDbEntity
  8
2
100
AcDbLine
 10
3573.56856939381
 20
3116.145422122397
 30
0.0
 11
3573.568569393808
 21
2417.287145966453
 31
0.0
  0
LINE
  5
7C27
330
83E9
100
AcDbEntity
  8
2
100
AcDbLine
 10
3338.242274534831
 20
2802.287145966452
 30
0.0
 11
3837.733195376069
 21
2802.287145966452
 31
0.0
  0
LINE
  5
7C28
330
83E9
100
AcDbEntity
  8
1
100
AcDbLine
 10
4395.419090021525
 20
2417.287145966453
 30
0.0
 11
4460.419090021525
 21
2417.287145966453
 31
0.0
1001
ACAD
1000
ASC_BOUNDS
1002
{
1070
    19
1002
}
  0
LINE
  5
7C29
330
83E9
100
AcDbEntity
  8
1
100
AcDbLine
 10
4395.419090021525
 20
2542.287145966453
 30
0.0
 11
6295.419090021525
 21
2542.287145966453
 31
0.0
  0
LINE
  5
7C2A
330
83E9
100
AcDbEntity
  8
1
100
AcDbLine
 10
4460.419090021527
 20
2417.287145966453
 30
0.0
 11
6295.419090021525
 21
2417.287145966453
 31
0.0
1001
ACAD
1000
ASC_BOUNDS
1002
{
1070
    19
1002
}
  0
LINE
  5
7C2B
330
83E9
100
AcDbEntity
  8
2
100
AcDbLine
 10
4372.942339954427
 20
3427.287145966452
 30
0.0
 11
6402.407077098266
 21
3427.287145966452
 31
0.0
  0
LINE
  5
7C2C
330
83E9
100
AcDbEntity
  8
1
100
AcDbLine
 10
4392.419090021526
 20
3681.287145966452
 30
0.0
 11
4392.419090021526
 21
2684.287145966453
 31
0.0
  0
LINE
  5
7C2D
330
83E9
100
AcDbEntity
  8
1
100
AcDbLine
 10
4502.919090021526
 20
3681.287145966452
 30
0.0
 11
4502.919090021525
 21
2684.287145966453
 31
0.0
  0
LINE
  5
7C2E
330
83E9
100
AcDbEntity
  8
2
100
AcDbLine
 10
4374.200150802397
 20
2802.287145966452
 30
0.0
 11
5269.164116557966
 21
2802.287145966452
 31
0.0
  0
LINE
  5
7C2F
330
83E9
100
AcDbEntity
  8
1
100
AcDbLine
 10
4357.419090021525
 20
3807.287145966454
 30
0.0
 11
4357.419090021523
 21
2582.287145966453
 31
0.0
  0
LINE
  5
7C30
330
83E9
100
AcDbEntity
  8
1
100
AcDbLine
 10
4554.719090021525
 20
3807.287145966454
 30
0.0
 11
4554.719090021523
 21
3787.287145966454
 31
0.0
  0
LINE
  5
7C31
330
83E9
100
AcDbEntity
  8
2
100
AcDbLine
 10
2263.568569393809
 20
7671.633580304304
 30
0.0
 11
2263.568569393809
 21
5672.740252742644
 31
0.0
  0
LINE
  5
7C32
330
83E9
100
AcDbEntity
  8
2
100
AcDbLine
 10
1375.765471673999
 20
6831.68623664779
 30
0.0
 11
3556.608583508635
 21
6831.68623664779
 31
0.0
  0
LINE
  5
7C33
330
83E9
100
AcDbEntity
  8
2
100
AcDbLine
 10
5477.419090021525
 20
4403.148124601544
 30
0.0
 11
5477.419090021525
 21
2417.287145966453
 31
0.0
  0
POINT
  5
7C34
330
83E9
100
AcDbEntity
  8
1
100
AcDbPoint
 10
2263.568569393809
 20
4228.488708465071
 30
0.0
  0
INSERT
  5
7C35
330
83E9
100
AcDbEntity
  8
0
100
AcDbBlockReference
  2
YA_N
 10
-1074.779326041182
 20
-1311.669320613289
 30
0.0
 41
25.0
 42
25.0
 43
25.0
  0
INSERT
  5
7C3E
330
83E9
100
AcDbEntity
  8
0
100
AcDbBlockReference
  2
YA_N
 10
-346.9416476423939
 20
-375.8074592043958
 30
0.0
 41
25.0
 42
25.0
 43
25.0
  0
ARC
  5
7C43
330
83E9
100
AcDbEntity
  8
1
100
AcDbCircle
 10
3573.56856939381
 20
2802.287145966452
 30
0.0
 40
203.5
100
AcDbArc
 50
285.60376
 51
254.396301
  0
LINE
  5
7C44
330
83E9
100
AcDbEntity
  8
1
100
AcDbLine
 10
3628.30660639381
 20
2606.287145966453
 30
0.0
 11
3518.83053239381
 21
2606.287145966453
 31
0.0
  0
ARC
  5
7C45
330
83E9
100
AcDbEntity
  8
1
100
AcDbCircle
 10
3387.56856939381
 20
2619.287145966453
 30
0.0
 40
3.0
100
AcDbArc
 50
90.0
 51
180.0
  0
ARC
  5
7C46
330
83E9
100
AcDbEntity
  8
1
100
AcDbCircle
 10
3389.568569393809
 20
2676.613806966453
 30
0.0
 40
5.000066999999999
100
AcDbArc
 50
124.943665
 51
180.0
  0
LINE
  5
7C47
330
83E9
100
AcDbEntity
  8
1
100
AcDbLine
 10
3384.56856939381
 20
2676.613806966453
 30
0.0
 11
3384.56856939381
 21
2602.287145966453
 31
0.0
  0
LINE
  5
7C4B
330
83E9
100
AcDbEntity
  8
1
100
AcDbLine
 10
3469.46599939381
 20
2627.430334966453
 30
0.0
 11
3464.06856939381
 21
2607.287145966453
 31
0.0
  0
LINE
  5
7C4C
330
83E9
100
AcDbEntity
  8
1
100
AcDbLine
 10
3464.06856939381
 20
2619.287145966453
 30
0.0
 11
3464.06856939381
 21
2602.287145966453
 31
0.0
  0
LINE
  5
7C4D
330
83E9
100
AcDbEntity
  8
1
100
AcDbLine
 10
3461.068569393809
 20
2622.287145966453
 30
0.0
 11
3387.56856939381
 21
2622.287145966453
 31
0.0
  0
ARC
  5
7C4E
330
83E9
100
AcDbEntity
  8
1
100
AcDbCircle
 10
3461.068569393809
 20
2619.287145966453
 30
0.0
 40
3.0
100
AcDbArc
 50
0.0
 51
90.0
  0
LINE
  5
7C4F
330
83E9
100
AcDbEntity
  8
1
100
AcDbLine
 10
3386.70479939381
 20
2680.712438966453
 30
0.0
 11
3402.642665393809
 21
2691.848913966453
 31
0.0
  0
LINE
  5
7C50
330
83E9
100
AcDbEntity
  8
1
100
AcDbLine
 10
3762.56856939381
 20
2676.613806966453
 30
0.0
 11
3762.56856939381
 21
2602.287145966453
 31
0.0
  0
LINE
  5
7C54
330
83E9
100
AcDbEntity
  8
1
100
AcDbLine
 10
3677.671352393809
 20
2627.430456966453
 30
0.0
 11
3683.068569393809
 21
2607.287145966453
 31
0.0
  0
LINE
  5
7C55
330
83E9
100
AcDbEntity
  8
1
100
AcDbLine
 10
3683.068569393809
 20
2619.287145966453
 30
0.0
 11
3683.068569393809
 21
2602.287145966453
 31
0.0
  0
LINE
  5
7C56
330
83E9
100
AcDbEntity
  8
1
100
AcDbLine
 10
3686.06856939381
 20
2622.287145966453
 30
0.0
 11
3759.56856939381
 21
2622.287145966453
 31
0.0
  0
ARC
  5
7C57
330
83E9
100
AcDbEntity
  8
1
100
AcDbCircle
 10
3686.06856939381
 20
2619.287145966453
 30
0.0
 40
3.0
100
AcDbArc
 50
90.0
 51
180.0
  0
ARC
  5
7C58
330
83E9
100
AcDbEntity
  8
1
100
AcDbCircle
 10
3759.56856939381
 20
2619.287145966453
 30
0.0
 40
3.0
100
AcDbArc
 50
0.0
 51
90.0
  0
LINE
  5
7C59
330
83E9
100
AcDbEntity
  8
1
100
AcDbLine
 10
3760.43246039381
 20
2680.712438966453
 30
0.0
 11
3744.49459439381
 21
2691.848913966453
 31
0.0
  0
ARC
  5
7C5A
330
83E9
100
AcDbEntity
  8
1
100
AcDbCircle
 10
3757.56856939381
 20
2676.613806966453
 30
0.0
 40
5.0
100
AcDbArc
 50
0.0
 51
55.05633899999998
  0
LINE
  5
7C5B
330
83E9
100
AcDbEntity
  8
1
100
AcDbLine
 10
3329.506313345721
 20
2602.287145966453
 30
0.0
 11
3503.568569393809
 21
2602.287145966453
 31
0.0
  0
LINE
  5
7C5C
330
83E9
100
AcDbEntity
  8
1
100
AcDbLine
 10
3313.568569393808
 20
2542.287145966453
 30
0.0
 11
3329.506313345719
 21
2602.287145966453
 31
0.0
  0
LINE
  5
7C5D
330
83E9
100
AcDbEntity
  8
1
100
AcDbLine
 10
3833.56856939381
 20
2542.287145966453
 30
0.0
 11
3817.583559487445
 21
2602.287145966453
 31
0.0
  0
LINE
  5
7C5F
330
83E9
100
AcDbEntity
  8
1
100
AcDbLine
 10
3503.568569393809
 20
2592.287145966453
 30
0.0
 11
3643.56856939381
 21
2592.287145966453
 31
0.0
  0
LINE
  5
7C60
330
83E9
100
AcDbEntity
  8
1
100
AcDbLine
 10
3643.56856939381
 20
2602.287145966453
 30
0.0
 11
3643.568569393809
 21
2592.287145966453
 31
0.0
  0
LINE
  5
7C61
330
83E9
100
AcDbEntity
  8
1
100
AcDbLine
 10
3503.568569393809
 20
2602.287145966453
 30
0.0
 11
3503.568569393809
 21
2592.287145966453
 31
0.0
  0
LINE
  5
7C64
330
83E9
100
AcDbEntity
  8
1
100
AcDbLine
 10
3643.56856939381
 20
2602.287145966453
 30
0.0
 11
3817.583559487445
 21
2602.287145966453
 31
0.0
  0
CIRCLE
  5
7C65
330
83E9
100
AcDbEntity
  8
1
100
AcDbCircle
 10
3573.56856939381
 20
2802.287145966452
 30
0.0
 40
118.0
  0
LINE
  5
7C66
330
83E9
100
AcDbEntity
  8
1
100
AcDbLine
 10
4392.419090021525
 20
2920.287145966454
 30
0.0
 11
4502.919090021525
 21
2920.287145966454
 31
0.0
  0
LINE
  5
7C67
330
83E9
100
AcDbEntity
  8
1
100
AcDbLine
 10
4392.419090021526
 20
2684.287145966453
 30
0.0
 11
4502.919090021525
 21
2684.287145966453
 31
0.0
  0
LINE
  5
7C68
330
83E9
100
AcDbEntity
  8
1
100
AcDbLine
 10
4357.419090021525
 20
2582.287145966453
 30
0.0
 11
4554.719090021525
 21
2582.287145966453
 31
0.0
  0
INSERT
  5
7C6A
330
83E9
100
AcDbEntity
  8
0
100
AcDbBlockReference
  2
YA_N
 10
-394.4722692372305
 20
-430.898429998433
 30
0.0
 41
25.0
 42
25.0
 43
25.0
  0
LINE
  5
7C6D
330
83E9
100
AcDbEntity
  8
1
100
AcDbLine
 10
6227.419090021524
 20
2542.287145966453
 30
0.0
 11
6227.419090021527
 21
3427.287145966452
 31
0.0
  0
LINE
  5
7C6E
330
83E9
100
AcDbEntity
  8
1
100
AcDbLine
 10
4727.419090021525
 20
3427.287145966452
 30
0.0
 11
4727.419090021525
 21
4187.287145966453
 31
0.0
  0
LINE
  5
7C6F
330
83E9
100
AcDbEntity
  8
1
100
AcDbLine
 10
6227.419090021524
 20
3427.287145966452
 30
0.0
 11
6227.419090021524
 21
4187.287145966453
 31
0.0
  0
LINE
  5
7C70
330
83E9
100
AcDbEntity
  8
1
100
AcDbLine
 10
4569.919090021525
 20
3364.287145966452
 30
0.0
 11
4660.119090021525
 21
3364.287145966452
 31
0.0
  0
LINE
  5
7C71
330
83E9
100
AcDbEntity
  8
1
100
AcDbLine
 10
4559.919090021526
 20
3354.287145966453
 30
0.0
 11
4559.919090021526
 21
3224.287145966453
 31
0.0
  0
LINE
  5
7C72
330
83E9
100
AcDbEntity
  8
1
100
AcDbLine
 10
4699.919090021525
 20
3364.287145966452
 30
0.0
 11
4699.919090021523
 21
3214.287145966451
 31
0.0
  0
LINE
  5
7C73
330
83E9
100
AcDbEntity
  8
1
100
AcDbLine
 10
4569.919090021525
 20
3214.287145966452
 30
0.0
 11
4660.119090021525
 21
3214.287145966451
 31
0.0
  0
ARC
  5
7C74
330
83E9
100
AcDbEntity
  8
1
100
AcDbCircle
 10
4569.919090021525
 20
3354.287145966453
 30
0.0
 40
10.0
100
AcDbArc
 50
90.0
 51
180.0
  0
ARC
  5
7C75
330
83E9
100
AcDbEntity
  8
1
100
AcDbCircle
 10
4569.919090021525
 20
3224.287145966453
 30
0.0
 40
10.0
100
AcDbArc
 50
180.0
 51
270.0
  0
LINE
  5
7C76
330
83E9
100
AcDbEntity
  8
1
100
AcDbLine
 10
6254.919090021524
 20
3364.287145966452
 30
0.0
 11
6254.919090021527
 21
3214.287145966451
 31
0.0
  0
LINE
  5
7C77
330
83E9
100
AcDbEntity
  8
1
100
AcDbLine
 10
6407.419090021524
 20
3354.287145966453
 30
0.0
 11
6407.419090021524
 21
3224.287145966453
 31
0.0
  0
LINE
  5
7C78
330
83E9
100
AcDbEntity
  8
1
100
AcDbLine
 10
6397.419090021525
 20
3214.287145966452
 30
0.0
 11
6294.719090021528
 21
3214.287145966451
 31
0.0
  0
ARC
  5
7C79
330
83E9
100
AcDbEntity
  8
1
100
AcDbCircle
 10
6397.419090021525
 20
3224.287145966453
 30
0.0
 40
10.0
100
AcDbArc
 50
270.0
 51
0.0
  0
LINE
  5
7C7A
330
83E9
100
AcDbEntity
  8
1
100
AcDbLine
 10
6397.419090021525
 20
3364.287145966452
 30
0.0
 11
6294.719090021528
 21
3364.287145966452
 31
0.0
  0
ARC
  5
7C7B
330
83E9
100
AcDbEntity
  8
1
100
AcDbCircle
 10
6397.419090021525
 20
3354.287145966453
 30
0.0
 40
10.0
100
AcDbArc
 50
0.0
 51
90.0
  0
LINE
  5
7C7C
330
83E9
100
AcDbEntity
  8
1
100
AcDbLine
 10
4532.419090021526
 20
3467.287145966452
 30
0.0
 11
4727.419090021525
 21
3467.287145966452
 31
0.0
  0
LINE
  5
7C7D
330
83E9
100
AcDbEntity
  8
1
100
AcDbLine
 10
4532.419090021526
 20
3387.287145966454
 30
0.0
 11
4727.419090021527
 21
3387.287145966454
 31
0.0
  0
LINE
  5
7C7E
330
83E9
100
AcDbEntity
  8
1
100
AcDbLine
 10
4532.419090021526
 20
3467.287145966452
 30
0.0
 11
4532.419090021526
 21
3387.287145966454
 31
0.0
  0
LINE
  5
7C7F
330
83E9
100
AcDbEntity
  8
1
100
AcDbLine
 10
4502.919090021526
 20
3459.787145966453
 30
0.0
 11
4532.419090021526
 21
3459.787145966453
 31
0.0
  0
LINE
  5
7C80
330
83E9
100
AcDbEntity
  8
1
100
AcDbLine
 10
4502.919090021525
 20
3394.787145966454
 30
0.0
 11
4532.419090021526
 21
3394.787145966454
 31
0.0
  0
LINE
  5
7C85
330
83E9
100
AcDbEntity
  8
1
100
AcDbLine
 10
6294.719090021525
 20
3364.287145966452
 30
0.0
 11
6254.919090021524
 21
3364.287145966452
 31
0.0
  0
LINE
  5
7C86
330
83E9
100
AcDbEntity
  8
1
100
AcDbLine
 10
6294.719090021527
 20
3214.287145966451
 30
0.0
 11
6254.919090021524
 21
3214.287145966451
 31
0.0
  0
LINE
  5
7C87
330
83E9
100
AcDbEntity
  8
1
100
AcDbLine
 10
4660.119090021525
 20
3364.287145966452
 30
0.0
 11
4699.919090021525
 21
3364.287145966452
 31
0.0
  0
LINE
  5
7C88
330
83E9
100
AcDbEntity
  8
1
100
AcDbLine
 10
4660.119090021525
 20
3214.287145966451
 30
0.0
 11
4699.919090021525
 21
3214.287145966451
 31
0.0
  0
ARC
  5
7C8A
330
83E9
100
AcDbEntity
  8
1
100
AcDbCircle
 10
2263.568569393809
 20
3427.287145966452
 30
0.0
 40
668.0
100
AcDbArc
 50
85.87938678604993
 51
90.0
  0
LINE
  5
7C8C
330
83E9
100
AcDbEntity
  8
1
100
AcDbLine
 10
6295.419090021525
 20
2542.287145966453
 30
0.0
 11
6295.419090021525
 21
2417.287145966453
 31
0.0
  0
LINE
  5
7C8D
330
83E9
100
AcDbEntity
  8
1
100
AcDbLine
 10
4395.419090021525
 20
2542.287145966453
 30
0.0
 11
4395.419090021525
 21
2417.287145966453
 31
0.0
  0
INSERT
  5
7C90
330
83E9
100
AcDbEntity
  8
0
100
AcDbBlockReference
  2
YA_N
 10
4305.350442567148
 20
-1988.400780944633
 30
0.0
  0
POINT
  5
7C95
330
83E9
100
AcDbEntity
  8
1
100
AcDbPoint
 10
1603.56856939381
 20
2417.287145966453
 30
0.0
  0
ARC
  5
7C98
330
83E9
100
AcDbEntity
  8
1
100
AcDbCircle
 10
2263.568569393809
 20
3427.287145966452
 30
0.0
 40
380.0
100
AcDbArc
 50
64.22111760467493
 51
257.4717657595268
  0
CIRCLE
  5
7C99
330
83E9
100
AcDbEntity
  8
1
100
AcDbCircle
 10
2263.568569393809
 20
3427.287145966452
 30
0.0
 40
254.0
  0
ARC
  5
7C9A
330
83E9
100
AcDbEntity
  8
1
100
AcDbCircle
 10
3573.56856939381
 20
2802.287145966452
 30
0.0
 40
220.0
100
AcDbArc
 50
257.4717657595268
 51
64.22111760467493
  0
LINE
  5
7C9B
330
83E9
100
AcDbEntity
  8
1
100
AcDbLine
 10
2428.830279746091
 20
3769.469213134561
 30
0.0
 11
3669.246401703025
 21
3000.392553274304
 31
0.0
  0
LINE
  5
7C9C
330
83E9
100
AcDbEntity
  8
1
100
AcDbLine
 10
2370.035298634965
 20
3657.896849935497
 30
0.0
 11
3623.029490852299
 21
2909.42078796782
 31
0.0
  0
LINE
  5
7C9D
330
83E9
100
AcDbEntity
  8
1
100
AcDbLine
 10
2204.163409213426
 20
3180.331629842712
 30
0.0
 11
3545.970896554104
 21
2687.55978020818
 31
0.0
  0
LINE
  5
7C9E
330
83E9
100
AcDbEntity
  8
1
100
AcDbLine
 10
2181.138708245297
 20
3056.335238044365
 30
0.0
 11
3525.846018202566
 21
2587.525515064192
 31
0.0
  0
LINE
  5
7C9F
330
83E9
100
AcDbEntity
  8
1
100
AcDbLine
 10
4392.419090021526
 20
3681.287145966452
 30
0.0
 11
4502.919090021526
 21
3681.287145966452
 31
0.0
  0
LINE
  5
7CA0
330
83E9
100
AcDbEntity
  8
1
100
AcDbLine
 10
4392.419090021526
 20
3173.287145966453
 30
0.0
 11
4502.919090021525
 21
3173.287145966453
 31
0.0
  0
LINE
  5
7CA1
330
83E9
100
AcDbEntity
  8
1
100
AcDbLine
 10
4357.419090021525
 20
3807.287145966454
 30
0.0
 11
4554.719090021525
 21
3807.287145966454
 31
0.0
  0
LINE
  5
7CA2
330
83E9
100
AcDbEntity
  8
1
100
AcDbLine
 10
4554.719090021523
 20
2602.287145966453
 30
0.0
 11
4554.719090021525
 21
2582.287145966453
 31
0.0
  0
LINE
  5
7CA4
330
83E9
100
AcDbEntity
  8
1
100
AcDbLine
 10
1603.56856939381
 20
7649.686236647792
 30
0.0
 11
2923.56856939381
 21
7649.686236647792
 31
0.0
  0
LINE
  5
7CA5
330
83E9
100
AcDbEntity
  8
1
100
AcDbLine
 10
1603.56856939381
 20
5749.68623664779
 30
0.0
 11
3863.568569393811
 21
5749.68623664779
 31
0.0
  0
LINE
  5
7CA6
330
83E9
100
AcDbEntity
  8
1
100
AcDbLine
 10
1603.56856939381
 20
7649.686236647792
 30
0.0
 11
1603.56856939381
 21
7581.68623664779
 31
0.0
  0
LINE
  5
7CA7
330
83E9
100
AcDbEntity
  8
1
100
AcDbLine
 10
3863.568569393811
 20
6649.686236647792
 30
0.0
 11
3863.568569393811
 21
5749.686236647789
 31
0.0
  0
LINE
  5
7CA8
330
83E9
100
AcDbEntity
  8
1
100
AcDbLine
 10
2923.56856939381
 20
7649.686236647792
 30
0.0
 11
2923.56856939381
 21
7581.68623664779
 31
0.0
  0
LINE
  5
7CA9
330
83E9
100
AcDbEntity
  8
1
100
AcDbLine
 10
3461.56856939381
 20
6649.686236647792
 30
0.0
 11
3863.568569393811
 21
6649.686236647792
 31
0.0
  0
LINE
  5
7CAA
330
83E9
100
AcDbEntity
  8
2
100
AcDbLine
 10
3573.56856939381
 20
6517.408813806117
 30
0.0
 11
3573.568569393807
 21
5672.740252742644
 31
0.0
  0
CIRCLE
  5
7CB2
330
83E9
100
AcDbEntity
  8
1
100
AcDbCircle
 10
2263.568569393809
 20
3427.287145966452
 30
0.0
 40
560.0
  0
CIRCLE
  5
7CB3
330
83E9
100
AcDbEntity
  8
1
100
AcDbCircle
 10
2263.568569393809
 20
3427.287145966452
 30
0.0
 40
610.0
  0
LINE
  5
7CB4
330
83E9
100
AcDbEntity
  8
1
100
AcDbLine
 10
1883.56856939381
 20
5711.686236647791
 30
0.0
 11
3793.56856939381
 21
5711.686236647791
 31
0.0
  0
LINE
  5
7CB5
330
83E9
100
AcDbEntity
  8
1
100
AcDbLine
 10
1883.56856939381
 20
5881.686236647791
 30
0.0
 11
3793.56856939381
 21
5881.686236647791
 31
0.0
  0
LINE
  5
7CB6
330
83E9
100
AcDbEntity
  8
1
100
AcDbLine
 10
1883.56856939381
 20
5711.686236647791
 30
0.0
 11
1883.56856939381
 21
5881.686236647791
 31
0.0
  0
LINE
  5
7CB7
330
83E9
100
AcDbEntity
  8
1
100
AcDbLine
 10
3793.56856939381
 20
5711.686236647791
 30
0.0
 11
3793.56856939381
 21
5881.686236647791
 31
0.0
  0
LINE
  5
7CB8
330
83E9
100
AcDbEntity
  8
1
100
AcDbLine
 10
2009.56856939381
 20
5749.38623664779
 30
0.0
 11
2009.56856939381
 21
5859.886236647791
 31
0.0
  0
LINE
  5
7CB9
330
83E9
100
AcDbEntity
  8
1
100
AcDbLine
 10
2517.56856939381
 20
5749.38623664779
 30
0.0
 11
2517.56856939381
 21
5859.886236647791
 31
0.0
  0
LINE
  5
7CBA
330
83E9
100
AcDbEntity
  8
1
100
AcDbLine
 10
3455.56856939381
 20
5749.38623664779
 30
0.0
 11
3455.56856939381
 21
5859.886236647791
 31
0.0
  0
LINE
  5
7CBB
330
83E9
100
AcDbEntity
  8
1
100
AcDbLine
 10
3691.56856939381
 20
5749.38623664779
 30
0.0
 11
3691.56856939381
 21
5859.886236647791
 31
0.0
  0
LINE
  5
7CBC
330
83E9
100
AcDbEntity
  8
1
100
AcDbLine
 10
2009.56856939381
 20
5749.38623664779
 30
0.0
 11
2517.56856939381
 21
5749.38623664779
 31
0.0
  0
LINE
  5
7CBD
330
83E9
100
AcDbEntity
  8
1
100
AcDbLine
 10
2009.56856939381
 20
5859.886236647791
 30
0.0
 11
2517.56856939381
 21
5859.886236647791
 31
0.0
  0
LINE
  5
7CBE
330
83E9
100
AcDbEntity
  8
1
100
AcDbLine
 10
3455.56856939381
 20
5859.886236647791
 30
0.0
 11
3691.56856939381
 21
5859.886236647791
 31
0.0
  0
LINE
  5
7CBF
330
83E9
100
AcDbEntity
  8
1
100
AcDbLine
 10
3455.56856939381
 20
5749.38623664779
 30
0.0
 11
3691.56856939381
 21
5749.38623664779
 31
0.0
  0
LINE
  5
7CC0
330
83E9
100
AcDbEntity
  8
1
100
AcDbLine
 10
1458.56856939381
 20
7581.68623664779
 30
0.0
 11
3461.56856939381
 21
7581.68623664779
 31
0.0
  0
LINE
  5
7CC1
330
83E9
100
AcDbEntity
  8
1
100
AcDbLine
 10
1458.56856939381
 20
6081.686236647789
 30
0.0
 11
3461.56856939381
 21
6081.68623664779
 31
0.0
  0
LINE
  5
7CC2
330
83E9
100
AcDbEntity
  8
1
100
AcDbLine
 10
2228.568569393809
 20
6081.68623664779
 30
0.0
 11
2228.568569393809
 21
5859.886236647791
 31
0.0
  0
LINE
  5
7CC3
330
83E9
100
AcDbEntity
  8
1
100
AcDbLine
 10
2298.568569393809
 20
6081.68623664779
 30
0.0
 11
2298.568569393809
 21
5859.886236647791
 31
0.0
  0
LINE
  5
7CC4
330
83E9
100
AcDbEntity
  8
1
100
AcDbLine
 10
3374.568569393809
 20
6081.686236647792
 30
0.0
 11
3374.568569393808
 21
5894.386236647791
 31
0.0
  0
LINE
  5
7CC5
330
83E9
100
AcDbEntity
  8
1
100
AcDbLine
 10
3772.56856939381
 20
6551.88623664779
 30
0.0
 11
3772.568569393808
 21
5894.38623664779
 31
0.0
  0
LINE
  5
7CC6
330
83E9
100
AcDbEntity
  8
1
100
AcDbLine
 10
3461.56856939381
 20
6551.88623664779
 30
0.0
 11
3772.56856939381
 21
6551.88623664779
 31
0.0
  0
LINE
  5
7CC7
330
83E9
100
AcDbEntity
  8
1
100
AcDbLine
 10
3374.568569393806
 20
5894.386236647791
 30
0.0
 11
3772.568569393806
 21
5894.38623664779
 31
0.0
  0
LINE
  5
7CC8
330
83E9
100
AcDbEntity
  8
1
100
AcDbLine
 10
3546.068569393808
 20
5894.38623664779
 30
0.0
 11
3546.068569393808
 21
5859.886236647791
 31
0.0
  0
LINE
  5
7CC9
330
83E9
100
AcDbEntity
  8
1
100
AcDbLine
 10
3601.068569393808
 20
5894.38623664779
 30
0.0
 11
3601.068569393808
 21
5859.886236647791
 31
0.0
  0
LINE
  5
7CCA
330
83E9
100
AcDbEntity
  8
1
100
AcDbLine
 10
5194.919090021525
 20
3001.287145966454
 30
0.0
 11
4537.419090021522
 21
3001.287145966454
 31
0.0
  0
LINE
  5
7CCB
330
83E9
100
AcDbEntity
  8
1
100
AcDbLine
 10
5194.919090021528
 20
2603.287145966453
 30
0.0
 11
4537.419090021526
 21
2603.287145966453
 31
0.0
  0
LINE
  5
7CCC
330
83E9
100
AcDbEntity
  8
1
100
AcDbLine
 10
4537.419090021526
 20
2603.287145966453
 30
0.0
 11
4537.419090021525
 21
3001.287145966452
 31
0.0
  0
LINE
  5
7CCD
330
83E9
100
AcDbEntity
  8
1
100
AcDbLine
 10
4537.419090021525
 20
2774.787145966453
 30
0.0
 11
4502.919090021525
 21
2774.787145966453
 31
0.0
  0
LINE
  5
7CCE
330
83E9
100
AcDbEntity
  8
1
100
AcDbLine
 10
4537.419090021525
 20
2829.787145966454
 30
0.0
 11
4502.919090021525
 21
2829.787145966454
 31
0.0
  0
LINE
  5
7CD5
330
83E9
100
AcDbEntity
  8
1
100
AcDbLine
 10
1603.56856939381
 20
6081.68623664779
 30
0.0
 11
1603.56856939381
 21
5749.68623664779
 31
0.0
  0
LINE
  5
7CDD
330
83E9
100
AcDbEntity
  8
1
100
AcDbLine
 10
4677.419090021525
 20
4187.287145966453
 30
0.0
 11
6277.419090021528
 21
4187.287145966453
 31
0.0
  0
LINE
  5
7CDE
330
83E9
100
AcDbEntity
  8
1
100
AcDbLine
 10
4677.419090021525
 20
4183.287145966453
 30
0.0
 11
6277.419090021528
 21
4183.287145966453
 31
0.0
  0
LINE
  5
7CDF
330
83E9
100
AcDbEntity
  8
1
100
AcDbLine
 10
4677.419090021525
 20
4183.287145966453
 30
0.0
 11
4677.419090021525
 21
4187.287145966453
 31
0.0
  0
LINE
  5
7CE0
330
83E9
100
AcDbEntity
  8
1
100
AcDbLine
 10
6277.419090021528
 20
4183.287145966453
 30
0.0
 11
6277.419090021524
 21
4187.287145966453
 31
0.0
  0
LINE
  5
7CE1
330
83E9
100
AcDbEntity
  8
1
100
AcDbLine
 10
3461.56856939381
 20
7581.68623664779
 30
0.0
 11
3461.56856939381
 21
6081.68623664779
 31
0.0
  0
LINE
  5
7CE2
330
83E9
100
AcDbEntity
  8
1
100
AcDbLine
 10
1458.56856939381
 20
7581.68623664779
 30
0.0
 11
1458.56856939381
 21
6081.686236647789
 31
0.0
  0
LINE
  5
7CE3
330
83E9
100
AcDbEntity
  8
1
100
AcDbLine
 10
2311.568569393809
 20
7581.68623664779
 30
0.0
 11
2311.568569393809
 21
6081.68623664779
 31
0.0
  0
LINE
  5
7CE4
330
83E9
100
AcDbEntity
  8
1
100
AcDbLine
 10
2311.568569393809
 20
7581.68623664779
 30
0.0
 11
3461.56856939381
 21
6081.68623664779
 31
0.0
  0
LINE
  5
7CE5
330
83E9
100
AcDbEntity
  8
1
100
AcDbLine
 10
3461.56856939381
 20
7581.68623664779
 30
0.0
 11
2311.568569393809
 21
6081.68623664779
 31
0.0
  0
LINE
  5
7CE6
330
83E9
100
AcDbEntity
  8
1
100
AcDbLine
 10
5194.919090021526
 20
2603.287145966453
 30
0.0
 11
5194.919090021525
 21
3001.287145966455
 31
0.0
  0
LINE
  5
7CE7
330
83E9
100
AcDbEntity
  8
1
100
AcDbLine
 10
4727.419090021527
 20
3001.287145966454
 30
0.0
 11
4727.419090021527
 21
3427.287145966452
 31
0.0
  0
LINE
  5
7CE8
330
83E9
100
AcDbEntity
  8
1
100
AcDbLine
 10
5080.947678353766
 20
2603.287145966453
 30
0.0
 11
5080.947678353766
 21
2542.287145966453
 31
0.0
  0
LINE
  5
7CE9
330
83E9
100
AcDbEntity
  8
1
100
AcDbLine
 10
4605.783620309096
 20
2603.287145966453
 30
0.0
 11
4605.783620309096
 21
2542.287145966453
 31
0.0
  0
LINE
  5
7F14
330
83E9
100
AcDbEntity
  8
4
100
AcDbLine
 10
6475.0
 20
1750.0
 30
0.0
 11
6475.0
 21
1050.0
 31
0.0
  0
LINE
  5
7F15
330
83E9
100
AcDbEntity
  8
4
100
AcDbLine
 10
4025.0
 20
1750.0
 30
0.0
 11
4025.0
 21
1050.0
 31
0.0
  0
LINE
  5
7F16
330
83E9
100
AcDbEntity
  8
4
100
AcDbLine
 10
2275.0
 20
1750.0
 30
0.0
 11
2275.0
 21
1050.0
 31
0.0
  0
LINE
  5
7F19
330
83E9
100
AcDbEntity
  8
4
100
AcDbLine
 10
2275.0
 20
1050.0
 30
0.0
 11
6475.0
 21
1050.0
 31
0.0
  0
LINE
  5
7F1A
330
83E9
100
AcDbEntity
  8
4
100
AcDbLine
 10
2275.0
 20
1400.0
 30
0.0
 11
6475.0
 21
1400.0
 31
0.0
  0
TEXT
  5
7F1B
330
83E9
100
AcDbEntity
  8
4
100
AcDbText
 10
2409.757282964156
 20
1510.400590533145
 30
0.0
 40
175.0
  1
機器名称
100
AcDbText
  0
TEXT
  5
7F1C
330
83E9
100
AcDbEntity
  8
4
100
AcDbText
 10
2401.903371086791
 20
1125.758048562038
 30
0.0
 40
175.0
  1
機器型番
100
AcDbText
  0
TEXT
  5
7F1D
330
83E9
100
AcDbEntity
  8
4
100
AcDbText
 10
4121.875609206827
 20
1479.00119135149
 30
0.0
 40
175.0
  1
ミツヤ多翼送風機
100
AcDbText
  0
TEXT
  5
7F1E
330
83E9
100
AcDbEntity
  8
4
100
AcDbText
 10
4153.290734549183
 20
1110.058544979801
 30
0.0
 40
175.0
  1
MF#7-5
100
AcDbText
  0
TEXT
  5
7F20
330
83E9
100
AcDbEntity
  8
4
100
AcDbText
 10
2704.711910906815
 20
8342.000944663805
 30
0.0
 40
188.9999999999998
  1
床置ベット
100
AcDbText
  0
TEXT
  5
7F21
330
83E9
100
AcDbEntity
  8
4
100
AcDbText
 10
1106.586576653062
 20
8868.583416697545
 30
0.0
 40
252.0
  1
遠心式両吸込両持多翼ファン
100
AcDbText
  0
LINE
  5
7F22
330
83E9
100
AcDbEntity
  8
4
100
AcDbLine
 10
875.0
 20
8642.930639926817
 30
0.0
 11
6475.0
 21
8642.930639926817
 31
0.0
  0
LINE
  5
7F23
330
83E9
100
AcDbEntity
  8
4
100
AcDbLine
 10
875.0
 20
9342.930639926818
 30
0.0
 11
6475.0
 21
9342.930639926818
 31
0.0
  0
LINE
  5
7F24
330
83E9
100
AcDbEntity
  8
4
100
AcDbLine
 10
2275.0
 20
1750.0
 30
0.0
 11
6475.0
 21
1750.0
 31
0.0
  0
LINE
  5
7F25
330
83E9
100
AcDbEntity
  8
4
100
AcDbLine
 10
875.0
 20
9342.930639926818
 30
0.0
 11
875.0
 21
8642.930639926817
 31
0.0
  0
TEXT
  5
7F26
330
83E9
100
AcDbEntity
  8
4
100
AcDbText
 10
1179.205998057357
 20
8338.118171412203
 30
0.0
 40
188.9999999999998
  1
左回転上向
100
AcDbText
  0
TEXT
  5
7F27
330
83E9
100
AcDbEntity
  8
4
100
AcDbText
 10
5141.393457372513
 20
9471.21378523358
 30
0.0
 40
196.0
  1
No.
100
AcDbText
  0
TEXT
  5
7F28
330
83E9
100
AcDbEntity
  8
4
100
AcDbText
 10
4589.536219100046
 20
8342.000944663805
 30
0.0
 40
188.9999999999998
  1
縮尺：1/35
100
AcDbText
  0
LINE
  5
7F29
330
83E9
100
AcDbEntity
  8
4
100
AcDbLine
 10
6475.0
 20
9342.930639926818
 30
0.0
 11
6475.0
 21
8642.930639926817
 31
0.0
  0
LINE
  5
7F2A
330
83E9
100
AcDbEntity
  8
4
100
AcDbLine
 10
7350.0
 20
10325.0
 30
0.0
 11
7350.0
 21
10325.0
 31
0.0
  0
LINE
  5
7F2B
330
83E9
100
AcDbEntity
  8
4
100
AcDbLine
 10
5042.160978259526
 20
9384.422540938905
 30
0.0
 11
5042.160978259526
 21
9753.282915424136
 31
0.0
  0
LINE
  5
7F2C
330
83E9
100
AcDbEntity
  8
4
100
AcDbLine
 10
5042.160978259526
 20
9753.282915424136
 30
0.0
 11
6475.0
 21
9753.282915424136
 31
0.0
  0
LINE
  5
7F2D
330
83E9
100
AcDbEntity
  8
4
100
AcDbLine
 10
6475.0
 20
9753.282915424136
 30
0.0
 11
6475.0
 21
9384.422540938905
 31
0.0
  0
LINE
  5
7F2E
330
83E9
100
AcDbEntity
  8
4
100
AcDbLine
 10
6475.0
 20
9384.422540938905
 30
0.0
 11
5042.160978259526
 21
9384.422540938905
 31
0.0
  0
LINE
  5
7F2F
330
83E9
100
AcDbEntity
  8
4
100
AcDbLine
 10
0.0
 20
0.0
 30
0.0
 11
0.0
 21
10325.0
 31
0.0
  0
LINE
  5
7F30
330
83E9
100
AcDbEntity
  8
4
100
AcDbLine
 10
0.0
 20
10325.0
 30
0.0
 11
7350.0
 21
10325.0
 31
0.0
  0
LINE
  5
7F31
330
83E9
100
AcDbEntity
  8
4
100
AcDbLine
 10
7350.0
 20
10325.0
 30
0.0
 11
7350.0
 21
0.0
 31
0.0
  0
LINE
  5
7F32
330
83E9
100
AcDbEntity
  8
4
100
AcDbLine
 10
7350.0
 20
0.0
 30
0.0
 11
0.0
 21
0.0
 31
0.0
  0
DIMENSION
  5
81DB
330
83E9
100
AcDbEntity
  8
3
100
AcDbDimension
  2
*D21
 10
2263.568569393809
 20
2206.031493295235
 30
0.0
 11
1933.568569393809
 21
2293.531493295235
 31
0.0
 71
     5
 42
-1.0
  3
Standard
100
AcDbAlignedDimension
 13
1603.56856939381
 23
2417.287145966453
 33
0.0
 14
2263.568569393809
 24
2417.287145966453
 34
0.0
100
AcDbRotatedDimension
1001
ACAD
1000
DSTYLE
1002
{
1070
   172
1070
     1
1070
    40
1040
35.0
1070
   271
1070
     0
1070
   143
1040
0.039
1002
}
  0
DIMENSION
  5
81E8
330
83E9
100
AcDbEntity
  8
3
100
AcDbDimension
  2
*D22
 10
3863.568569393809
 20
2206.031493295235
 30
0.0
 11
3063.568569393809
 21
2293.531493295235
 31
0.0
 71
     5
 42
-1.0
  3
Standard
100
AcDbAlignedDimension
 13
2263.568569393809
 23
2417.287145966453
 33
0.0
 14
3863.568569393809
 24
2417.287145966453
 34
0.0
100
AcDbRotatedDimension
1001
ACAD
1000
DSTYLE
1002
{
1070
   172
1070
     1
1070
    40
1040
35.0
1070
   271
1070
     0
1070
   143
1040
0.039
1002
}
  0
DIMENSION
  5
81F5
330
83E9
100
AcDbEntity
  8
3
100
AcDbDimension
  2
*D23
 10
5477.419090021525
 20
2206.031493295235
 30
0.0
 11
4936.419090021527
 21
2293.531493295235
 31
0.0
 71
     5
 42
-1.0
  3
Standard
100
AcDbAlignedDimension
 13
4395.419090021525
 23
2417.287145966453
 33
0.0
 14
5477.419090021525
 24
2417.287145966453
 34
0.0
100
AcDbRotatedDimension
1001
ACAD
1000
DSTYLE
1002
{
1070
   172
1070
     1
1070
    40
1040
35.0
1070
   271
1070
     0
1070
   143
1040
0.039
1002
}
  0
DIMENSION
  5
8202
330
83E9
100
AcDbEntity
  8
3
100
AcDbDimension
  2
*D24
 10
6295.419090021525
 20
2206.031493295235
 30
0.0
 11
5886.419090021526
 21
2293.531493295235
 31
0.0
 71
     5
 42
-1.0
  3
Standard
100
AcDbAlignedDimension
 13
5477.419090021525
 23
2417.287145966453
 33
0.0
 14
6295.419090021525
 24
2417.287145966453
 34
0.0
100
AcDbRotatedDimension
1001
ACAD
1000
DSTYLE
1002
{
1070
   172
1070
     1
1070
    40
1040
35.0
1070
   271
1070
     0
1070
   143
1040
0.039
1002
}
  0
DIMENSION
  5
820F
330
83E9
100
AcDbEntity
  8
3
100
AcDbDimension
  2
*D25
 10
987.5682688387824
 20
4187.287145966453
 30
0.0
 11
900.0682688387824
 21
3302.287145966452
 31
0.0
 71
     5
 42
-1.0
  3
Standard
100
AcDbAlignedDimension
 13
1603.56856939381
 23
2417.287145966453
 33
0.0
 14
2241.06856939381
 24
4187.287145966453
 34
0.0
 50
90.0
100
AcDbRotatedDimension
1001
ACAD
1000
DSTYLE
1002
{
1070
   172
1070
     1
1070
    40
1040
35.0
1070
   271
1070
     0
1070
   143
1040
0.039
1002
}
  0
DIMENSION
  5
842D
330
83E9
100
AcDbEntity
  8
3
100
AcDbDimension
  2
*D26
 10
6227.419090021524
 20
4447.405437488114
 30
0.0
 11
5477.419090021525
 21
4534.905437488113
 31
0.0
 70
    32
 71
     5
 42
1499.999999999999
  3
IGA
100
AcDbAlignedDimension
 13
4727.419090021525
 23
4187.287145966453
 33
0.0
 14
6227.419090021524
 24
4187.287145966453
 34
0.0
100
AcDbRotatedDimension
1001
ACAD
1000
DSTYLE
1002
{
1070
    40
1040
35.0
1070
   143
1040
0.039
1070
   172
1070
     1
1070
   271
1070
     4
1070
   272
1070
     4
1070
   279
1070
     0
1070
   284
1070
     0
1070
   285
1070
     0
1070
   286
1070
     0
1070
   341
1005
83FC
1070
   343
1005
83FC
1070
   344
1005
83FC
1002
}
  0
DIMENSION
  5
843A
330
83E9
100
AcDbEntity
  8
3
100
AcDbDimension
  2
*D27
 10
5477.419090021525
 20
4683.142332365934
 30
0.0
 11
4917.419090021525
 21
4798.142332365933
 31
0.0
 70
    32
  1
(<>)
 71
     5
 42
1120.0
  3
IGA
100
AcDbAlignedDimension
 13
4357.419090021525
 23
3807.287145966454
 33
0.0
 14
5477.419090021525
 24
4587.405437488113
 34
0.0
100
AcDbRotatedDimension
1001
ACAD
1000
DSTYLE
1002
{
1070
    40
1040
35.0
1070
   143
1040
0.039
1070
   172
1070
     1
1070
   271
1070
     4
1070
   272
1070
     4
1070
   279
1070
     0
1070
   284
1070
     0
1070
   285
1070
     0
1070
   286
1070
     0
1070
   341
1005
83FC
1070
   343
1005
83FC
1070
   344
1005
83FC
1002
}
  0
DIMENSION
  5
8447
330
83E9
100
AcDbEntity
  8
3
100
AcDbDimension
  2
*D28
 10
6407.419090021524
 20
4683.142332365934
 30
0.0
 11
5942.419090021525
 21
4798.142332365933
 31
0.0
 70
    32
  1
(<>)
 71
     5
 42
929.9999999999991
  3
IGA
100
AcDbAlignedDimension
 13
5477.419090021525
 23
4587.405437488113
 33
0.0
 14
6407.419090021524
 24
3354.287145966453
 34
0.0
100
AcDbRotatedDimension
1001
ACAD
1000
DSTYLE
1002
{
1070
    40
1040
35.0
1070
   143
1040
0.039
1070
   172
1070
     1
1070
   271
1070
     4
1070
   272
1070
     4
1070
   279
1070
     1
1070
   284
1070
     0
1070
   285
1070
     0
1070
   286
1070
     0
1070
   341
1005
83FC
1070
   343
1005
83FC
1070
   344
1005
83FC
1002
}
  0
DIMENSION
  5
8458
330
83E9
100
AcDbEntity
  8
3
100
AcDbDimension
  2
*D29
 10
6595.201856377039
 20
2867.287145966452
 30
0.0
 11
6507.701856377038
 21
3427.287145966453
 31
0.0
 70
    32
  1
\U+03C6<>
 71
     5
 42
1120.0
  3
IGA
100
AcDbAlignedDimension
 13
6227.419090021524
 23
3987.287145966453
 33
0.0
 14
6227.419090021524
 24
2867.287145966452
 34
0.0
 50
90.0
100
AcDbRotatedDimension
1001
ACAD
1000
DSTYLE
1002
{
1070
    40
1040
35.0
1070
   143
1040
0.039
1070
   172
1070
     1
1070
   271
1070
     4
1070
   272
1070
     4
1070
   279
1070
     0
1070
   284
1070
     0
1070
   285
1070
     0
1070
   286
1070
     0
1070
   341
1005
83FC
1070
   343
1005
83FC
1070
   344
1005
83FC
1002
}
  0
DIMENSION
  5
84D8
330
83E9
100
AcDbEntity
  8
3
100
AcDbDimension
  2
*D31
 10
2923.56856939381
 20
7823.69359711891
 30
0.0
 11
2263.56856939381
 21
7911.193597118909
 31
0.0
 70
    32
 71
     5
 42
1319.999999999999
  3
IGA
100
AcDbAlignedDimension
 13
1603.56856939381
 23
7649.686236647792
 33
0.0
 14
2923.56856939381
 24
7649.686236647792
 34
0.0
100
AcDbRotatedDimension
1001
ACAD
1000
DSTYLE
1002
{
1070
    40
1040
35.0
1070
   143
1040
0.039
1070
   172
1070
     1
1070
   271
1070
     4
1070
   272
1070
     4
1070
   279
1070
     0
1070
   284
1070
     0
1070
   285
1070
     0
1070
   286
1070
     0
1070
   341
1005
83FC
1070
   343
1005
83FC
1070
   344
1005
83FC
1002
}
  0
DIMENSION
  5
84E5
330
83E9
100
AcDbEntity
  8
3
100
AcDbDimension
  2
*D32
 10
3863.568569393811
 20
7823.69359711891
 30
0.0
 11
3393.56856939381
 21
7911.193597118909
 31
0.0
 70
    32
 71
     5
 42
940.0000000000009
  3
IGA
100
AcDbAlignedDimension
 13
2923.56856939381
 23
7649.686236647792
 33
0.0
 14
3863.568569393811
 24
6649.686236647792
 34
0.0
100
AcDbRotatedDimension
1001
ACAD
1000
DSTYLE
1002
{
1070
    40
1040
35.0
1070
   143
1040
0.039
1070
   172
1070
     1
1070
   271
1070
     4
1070
   272
1070
     4
1070
   279
1070
     1
1070
   284
1070
     0
1070
   285
1070
     0
1070
   286
1070
     0
1070
   341
1005
83FC
1070
   343
1005
83FC
1070
   344
1005
83FC
1002
}
  0
DIMENSION
  5
84F2
330
83E9
100
AcDbEntity
  8
3
100
AcDbDimension
  2
*D33
 10
4264.198978687671
 20
5749.686236647789
 30
0.0
 11
4176.69897868767
 21
6199.68623664779
 31
0.0
 70
    32
 71
     5
 42
900.0000000000026
  3
IGA
100
AcDbAlignedDimension
 13
3863.568569393811
 23
6649.686236647792
 33
0.0
 14
3863.568569393811
 24
5749.686236647789
 34
0.0
 50
90.0
100
AcDbRotatedDimension
1001
ACAD
1000
DSTYLE
1002
{
1070
    40
1040
35.0
1070
   143
1040
0.039
1070
   172
1070
     1
1070
   271
1070
     4
1070
   272
1070
     4
1070
   279
1070
     0
1070
   284
1070
     0
1070
   285
1070
     0
1070
   286
1070
     0
1070
   341
1005
83FC
1070
   343
1005
83FC
1070
   344
1005
83FC
1002
}
  0
DIMENSION
  5
84FF
330
83E9
100
AcDbEntity
  8
3
100
AcDbDimension
  2
*D34
 10
3863.568569393811
 20
5458.441044553842
 30
0.0
 11
2733.56856939381
 21
5545.941044553842
 31
0.0
 70
    32
 71
     5
 42
2260.0
  3
IGA
100
AcDbAlignedDimension
 13
1603.56856939381
 23
5749.68623664779
 33
0.0
 14
3863.568569393811
 24
5749.68623664779
 34
0.0
100
AcDbRotatedDimension
1001
ACAD
1000
DSTYLE
1002
{
1070
    40
1040
35.0
1070
   143
1040
0.039
1070
   172
1070
     1
1070
   271
1070
     4
1070
   272
1070
     4
1070
   279
1070
     0
1070
   284
1070
     0
1070
   285
1070
     0
1070
   286
1070
     0
1070
   341
1005
83FC
1070
   343
1005
83FC
1070
   344
1005
83FC
1002
}
  0
DIMENSION
  5
850C
330
83E9
100
AcDbEntity
  8
3
100
AcDbDimension
  2
*D35
 10
1204.796314422758
 20
5749.68623664779
 30
0.0
 11
1117.296314422757
 21
6699.686236647791
 31
0.0
 70
    32
 71
     5
 42
1900.0
  3
IGA
100
AcDbAlignedDimension
 13
1603.56856939381
 23
7649.686236647792
 33
0.0
 14
1603.56856939381
 24
5749.68623664779
 34
0.0
 50
90.0
100
AcDbRotatedDimension
1001
ACAD
1000
DSTYLE
1002
{
1070
    40
1040
35.0
1070
   143
1040
0.039
1070
   172
1070
     1
1070
   271
1070
     4
1070
   272
1070
     4
1070
   279
1070
     0
1070
   284
1070
     0
1070
   285
1070
     0
1070
   286
1070
     0
1070
   341
1005
83FC
1070
   343
1005
83FC
1070
   344
1005
83FC
1002
}
  0
DIMENSION
  5
8526
330
83E9
100
AcDbEntity
  8
3
100
AcDbDimension
  2
*D37
 10
3461.56856939381
 20
4387.395462250719
 30
0.0
 11
2886.568569393809
 21
4474.895462250719
 31
0.0
 70
    32
 71
     5
 42
1150.0
  3
IGA
100
AcDbAlignedDimension
 13
2311.568569393809
 23
4187.287145966453
 33
0.0
 14
3461.56856939381
 24
4187.287145966453
 34
0.0
100
AcDbRotatedDimension
1001
ACAD
1000
DSTYLE
1002
{
1070
    40
1040
35.0
1070
   143
1040
0.039
1070
   172
1070
     1
1070
   271
1070
     4
1070
   272
1070
     4
1070
   279
1070
     0
1070
   284
1070
     0
1070
   285
1070
     0
1070
   286
1070
     0
1070
   341
1005
83FC
1070
   343
1005
83FC
1070
   344
1005
83FC
1002
}
  0
DIMENSION
  5
8540
330
83E9
100
AcDbEntity
  8
3
100
AcDbDimension
  2
*D39
 10
1458.568569393809
 20
4587.547113112221
 30
0.0
 11
1861.068569393809
 21
4675.047113112221
 31
0.0
 70
    32
 71
     5
 42
805.0
  3
IGA
100
AcDbAlignedDimension
 13
2263.568569393809
 23
4587.547113112221
 33
0.0
 14
1458.568569393809
 24
3345.287145966454
 34
0.0
100
AcDbRotatedDimension
1001
ACAD
1000
DSTYLE
1002
{
1070
    40
1040
35.0
1070
   143
1040
0.039
1070
   172
1070
     1
1070
   271
1070
     4
1070
   272
1070
     4
1070
   279
1070
     1
1070
   284
1070
     0
1070
   285
1070
     0
1070
   286
1070
     0
1070
   341
1005
83FC
1070
   343
1005
83FC
1070
   344
1005
83FC
1002
}
  0
DIMENSION
  5
854D
330
83E9
100
AcDbEntity
  8
3
100
AcDbDimension
  2
*D40
 10
1458.568569393809
 20
4819.488514716802
 30
0.0
 11
2661.06856939381
 21
4906.988514716801
 31
0.0
 70
    32
 71
     5
 42
2405.0
  3
IGA
100
AcDbAlignedDimension
 13
3863.568569393809
 23
2542.287145966453
 33
0.0
 14
1458.568569393809
 24
3345.287145966454
 34
0.0
100
AcDbRotatedDimension
1001
ACAD
1000
DSTYLE
1002
{
1070
    40
1040
35.0
1070
   143
1040
0.039
1070
   172
1070
     1
1070
   271
1070
     4
1070
   272
1070
     4
1070
   279
1070
     0
1070
   284
1070
     0
1070
   285
1070
     0
1070
   286
1070
     0
1070
   341
1005
83FC
1070
   343
1005
83FC
1070
   344
1005
83FC
1002
}
  0
DIMENSION
  5
855A
330
83E9
100
AcDbEntity
  8
3
100
AcDbDimension
  2
*D41
 10
1198.633805154546
 20
3427.287145966452
 30
0.0
 11
1111.133805154545
 21
3807.287145966454
 31
0.0
 70
    32
 71
     5
 42
760.0000000000013
  3
IGA
100
AcDbAlignedDimension
 13
2258.56856939381
 23
4187.287145966453
 33
0.0
 14
1356.787917940833
 24
3427.287145966452
 34
0.0
 50
90.0
100
AcDbRotatedDimension
1001
ACAD
1000
DSTYLE
1002
{
1070
    40
1040
35.0
1070
   143
1040
0.039
1070
   172
1070
     1
1070
   271
1070
     4
1070
   272
1070
     4
1070
   279
1070
     0
1070
   284
1070
     0
1070
   285
1070
     0
1070
   286
1070
     0
1070
   341
1005
83FC
1070
   343
1005
83FC
1070
   344
1005
83FC
1002
}
  0
DIMENSION
  5
8567
330
83E9
100
AcDbEntity
  8
3
100
AcDbDimension
  2
*D42
 10
1198.633805154546
 20
2417.287145966453
 30
0.0
 11
1111.133805154545
 21
2922.287145966453
 31
0.0
 70
    32
 71
     5
 42
1009.999999999999
  3
IGA
100
AcDbAlignedDimension
 13
1356.787917940833
 23
3427.287145966452
 33
0.0
 14
1603.56856939381
 24
2417.287145966453
 34
0.0
 50
90.0
100
AcDbRotatedDimension
1001
ACAD
1000
DSTYLE
1002
{
1070
    40
1040
35.0
1070
   143
1040
0.039
1070
   172
1070
     1
1070
   271
1070
     4
1070
   272
1070
     4
1070
   279
1070
     1
1070
   284
1070
     0
1070
   285
1070
     0
1070
   286
1070
     0
1070
   341
1005
83FC
1070
   343
1005
83FC
1070
   344
1005
83FC
1002
}
  0
DIMENSION
  5
8574
330
83E9
100
AcDbEntity
  8
3
100
AcDbDimension
  2
*D43
 10
2263.568569393809
 20
4587.547113112221
 30
0.0
 11
2862.56856939381
 21
4675.047113112221
 31
0.0
 70
    32
 71
     5
 42
1198.0
  3
IGA
100
AcDbAlignedDimension
 13
3461.56856939381
 23
4187.287145966453
 33
0.0
 14
2263.568569393809
 24
4255.179405696565
 34
0.0
100
AcDbRotatedDimension
1001
ACAD
1000
DSTYLE
1002
{
1070
    40
1040
35.0
1070
   143
1040
0.039
1070
   172
1070
     1
1070
   271
1070
     4
1070
   272
1070
     4
1070
   279
1070
     0
1070
   284
1070
     0
1070
   285
1070
     0
1070
   286
1070
     0
1070
   341
1005
83FC
1070
   343
1005
83FC
1070
   344
1005
83FC
1002
}
  0
ENDSEC
  0
SECTION
  2
OBJECTS
  0
DICTIONARY
  5
8386
330
0
100
AcDbDictionary
281
     1
  3
ACAD_CIP_PREVIOUS_PRODUCT_INFO
350
842C
  3
ACAD_COLOR
350
83DC
  3
ACAD_DETAILVIEWSTYLE
350
83E3
  3
ACAD_GROUP
350
8387
  3
ACAD_LAYOUT
350
83DB
  3
ACAD_MATERIAL
350
838A
  3
ACAD_MLEADERSTYLE
350
83DF
  3
ACAD_MLINESTYLE
350
83D8
  3
ACAD_PLOTSETTINGS
350
83DA
  3
ACAD_PLOTSTYLENAME
350
8388
  3
ACAD_SCALELIST
350
83BC
  3
ACAD_SECTIONVIEWSTYLE
350
83E1
  3
ACAD_TABLESTYLE
350
83DD
  3
ACAD_VISUALSTYLE
350
83A3
  3
ACDB_RECOMPOSE_DATA
350
85EB
  3
AcDbVariableDictionary
350
8594
  3
DWGPROPS
350
85EC
  0
DICTIONARY
  5
858A
330
83CE
100
AcDbDictionary
280
     1
281
     1
  3
ADSK_XREC_LAYER_RECONCILED
360
858B
  0
DICTIONARY
  5
858C
330
83ED
100
AcDbDictionary
280
     1
281
     1
  3
ADSK_XREC_LAYER_RECONCILED
360
858D
  0
DICTIONARY
  5
858E
330
83F0
100
AcDbDictionary
280
     1
281
     1
  3
ADSK_XREC_LAYER_RECONCILED
360
858F
  0
DICTIONARY
  5
8590
330
83F1
100
AcDbDictionary
280
     1
281
     1
  3
ADSK_XREC_LAYER_RECONCILED
360
8591
  0
DICTIONARY
  5
8592
330
83F2
100
AcDbDictionary
280
     1
281
     1
  3
ADSK_XREC_LAYER_RECONCILED
360
8593
  0
DICTIONARY
  5
8455
330
83E9
100
AcDbDictionary
280
     1
281
     1
  3
ACAD_SORTENTS
360
8456
  0
XRECORD
  5
842C
102
{ACAD_REACTORS
330
8386
102
}
330
8386
100
AcDbXrecord
280
     1
300
ACDLT
300
2015
300
INVLTS_F_S
  0
DICTIONARY
  5
83DC
102
{ACAD_REACTORS
330
8386
102
}
330
8386
100
AcDbDictionary
281
     1
  0
DICTIONARY
  5
83E3
102
{ACAD_REACTORS
330
8386
102
}
330
8386
100
AcDbDictionary
281
     1
  3
Imperial24
350
83E4
  0
DICTIONARY
  5
8387
102
{ACAD_REACTORS
330
8386
102
}
330
8386
100
AcDbDictionary
281
     1
  0
DICTIONARY
  5
83DB
102
{ACAD_REACTORS
330
8386
102
}
330
8386
100
AcDbDictionary
281
     1
  3
Model
350
83EC
  3
レイアウト1
350
83E8
  0
DICTIONARY
  5
838A
102
{ACAD_REACTORS
330
8386
102
}
330
8386
100
AcDbDictionary
281
     1
  3
ByBlock
350
8393
  3
ByLayer
350
838B
  3
Global
350
839B
  0
DICTIONARY
  5
83DF
102
{ACAD_REACTORS
330
8386
102
}
330
8386
100
AcDbDictionary
281
     1
  3
Standard
350
83E0
  0
DICTIONARY
  5
83D8
102
{ACAD_REACTORS
330
8386
102
}
330
8386
100
AcDbDictionary
281
     1
  3
Standard
350
83D9
  0
DICTIONARY
  5
83DA
102
{ACAD_REACTORS
330
8386
102
}
330
8386
100
AcDbDictionary
281
     1
  0
ACDBDICTIONARYWDFLT
  5
8388
102
{ACAD_REACTORS
330
8386
102
}
330
8386
100
AcDbDictionary
281
     1
  3
Normal
350
8389
100
AcDbDictionaryWithDefault
340
8389
  0
DICTIONARY
  5
83BC
102
{ACAD_REACTORS
330
8386
102
}
330
8386
100
AcDbDictionary
281
     1
  3
A0
350
83BD
  3
A1
350
83BE
  3
A2
350
83BF
  3
A3
350
83C0
  3
A4
350
83C1
  3
A5
350
83C2
  3
A6
350
83C3
  3
A7
350
83C4
  3
A8
350
83C5
  3
A9
350
83C6
  3
B0
350
83C7
  3
B1
350
83C8
  3
B2
350
83C9
  3
B3
350
83CA
  3
B4
350
83CB
  3
B5
350
83CC
  3
B6
350
83CD
  0
DICTIONARY
  5
83E1
102
{ACAD_REACTORS
330
8386
102
}
330
8386
100
AcDbDictionary
281
     1
  3
Imperial24
350
83E2
  0
DICTIONARY
  5
83DD
102
{ACAD_REACTORS
330
8386
102
}
330
8386
100
AcDbDictionary
281
     1
  3
Standard
350
83DE
  0
DICTIONARY
  5
83A3
102
{ACAD_REACTORS
330
8386
102
}
330
8386
100
AcDbDictionary
281
     1
  3
2dWireframe
350
83A9
  3
Basic
350
83A8
  3
Brighten
350
83AF
  3
ColorChange
350
83B3
  3
Conceptual
350
83AC
  3
Dim
350
83AE
  3
EdgeColorOff
350
83BB
  3
Facepattern
350
83B2
  3
Flat
350
83A4
  3
FlatWithEdges
350
83A5
  3
Gouraud
350
83A6
  3
GouraudWithEdges
350
83A7
  3
Hidden
350
83AB
  3
JitterOff
350
83B9
  3
Linepattern
350
83B1
  3
OverhangOff
350
83BA
  3
Realistic
350
83AD
  3
Shaded
350
83B8
  3
Shaded with edges
350
83B7
  3
Shades of Gray
350
83B4
  3
Sketchy
350
83B5
  3
Thicken
350
83B0
  3
Wireframe
350
83AA
  3
X-Ray
350
83B6
  0
XRECORD
  5
85EB
102
{ACAD_REACTORS
330
8386
102
}
330
8386
100
AcDbXrecord
280
     1
 90
        1
330
83DE
  0
DICTIONARY
  5
8594
102
{ACAD_REACTORS
330
8386
102
}
330
8386
100
AcDbDictionary
281
     1
  3
CANNOSCALE
350
8599
  3
CMLEADERSTYLE
350
8596
  3
CTABLESTYLE
350
8595
  3
CVIEWDETAILSTYLE
350
8597
  3
CVIEWSECTIONSTYLE
350
8598
  3
DIMASSOC
350
859C
  3
INDEXCTL
350
859B
  3
SORTENTS
350
859A
  3
XCLIPFRAME
350
859D
  0
XRECORD
  5
85EC
102
{ACAD_REACTORS
330
8386
102
}
330
8386
100
AcDbXrecord
280
     1
  1
DWGPROPS COOKIE
  2

  3

  4

  6

  7

  8
yasukiyo.ogawa
  9

300
=
301
=
302
=
303
=
304
=
305
=
306
=
307
=
308
=
309
=
 40
0.1471925462962963
 41
2451390.42913588
 42
2460273.628272628
  1

 90
        0
  0
XRECORD
  5
858B
102
{ACAD_REACTORS
330
858A
102
}
330
858A
100
AcDbXrecord
280
     1
290
     1
  0
XRECORD
  5
858D
102
{ACAD_REACTORS
330
858C
102
}
330
858C
100
AcDbXrecord
280
     1
290
     1
  0
XRECORD
  5
858F
102
{ACAD_REACTORS
330
858E
102
}
330
858E
100
AcDbXrecord
280
     1
290
     1
  0
XRECORD
  5
8591
102
{ACAD_REACTORS
330
8590
102
}
330
8590
100
AcDbXrecord
280
     1
290
     1
  0
XRECORD
  5
8593
102
{ACAD_REACTORS
330
8592
102
}
330
8592
100
AcDbXrecord
280
     1
290
     1
  0
SORTENTSTABLE
  5
8456
102
{ACAD_REACTORS
330
8455
102
}
330
8455
100
AcDbSortentsTable
330
83E9
331
7F31
  5
81DB
331
7F20
  5
7F22
331
843A
  5
8454
331
7CE6
  5
7CE8
331
7CD5
  5
7CD7
331
7CC4
  5
7CC6
331
7CB3
  5
7CB5
331
7CA2
  5
7CA4
331
7C77
  5
7C79
331
7C66
  5
7C68
331
7C55
  5
7C57
331
7C44
  5
7C46
331
7C33
  5
7C35
331
7C22
  5
7C22
331
7F32
  5
81E8
331
7F21
  5
7F23
331
7CE7
  5
7CE9
331
7CC5
  5
7CC7
331
7CB4
  5
7CB6
331
7C78
  5
7C7A
331
7C67
  5
7C6A
331
7C56
  5
7C58
331
7C45
  5
7C47
331
7C34
  5
7C3E
331
7C23
  5
7C23
331
7F22
  5
7F24
331
7F19
  5
7F1B
331
7CE8
  5
7F14
331
7CC6
  5
7CC8
331
7CB5
  5
7CB7
331
7CA4
  5
7CA6
331
7C79
  5
7C7B
331
7C68
  5
7C6D
331
7C57
  5
7C59
331
7C46
  5
7C4B
331
7C35
  5
7C40
331
7C24
  5
7C24
331
81E8
  5
8202
331
7F23
  5
7F25
331
7F1A
  5
7F1C
331
7CE9
  5
7F15
331
7CC7
  5
7CC9
331
7CB6
  5
7CB8
331
7CA5
  5
7CA7
331
7C7A
  5
7C7C
331
7C58
  5
7C5A
331
7C47
  5
7C4C
331
7C25
  5
7C25
331
7C14
  5
7C14
331
7F24
  5
7F26
331
7F1B
  5
7F1D
331
7CC8
  5
7CCA
331
7CB7
  5
7CB9
331
7CA6
  5
7CA8
331
7C95
  5
7C99
331
7C7B
  5
7C7D
331
7C6A
  5
7C6E
331
7C59
  5
7C5B
331
7C26
  5
7C26
331
7F25
  5
7F27
331
7F1C
  5
7F1E
331
7CC9
  5
7CCB
331
7CB8
  5
7CBA
331
7CA7
  5
7CA9
331
7C7C
  5
7C7E
331
7C5A
  5
7C5C
331
7C27
  5
7C27
331
7C16
  5
7C16
331
7F26
  5
7F28
331
7F1D
  5
7F20
331
7CCA
  5
7CCC
331
7CB9
  5
7CBB
331
7CA8
  5
7CAA
331
7C7D
  5
7C7F
331
7C5B
  5
7C5D
331
7C28
  5
7C28
331
7C17
  5
7C17
331
842D
  5
8447
331
81DB
  5
81F5
331
7CCB
  5
7CCD
331
7CBA
  5
7CBC
331
7CA9
  5
7CAB
331
7C98
  5
7C9A
331
7F27
  5
7F29
331
7F1E
  5
7F21
331
7C7E
  5
7C80
331
7C6D
  5
7C6F
331
7C5C
  5
7C5F
331
7C4B
  5
7C4D
331
7C29
  5
7C29
331
7C18
  5
7C18
331
7F28
  5
7F2A
331
7CDD
  5
7CDF
331
7CCC
  5
7CCE
331
7CBB
  5
7CBD
331
7CAA
  5
7CAC
331
7C99
  5
7C9B
331
7C88
  5
7C8C
331
7C7F
  5
7C81
331
7C6E
  5
7C70
331
7C5D
  5
7C60
331
7C4C
  5
7C4E
331
7C2A
  5
7C2A
331
7C19
  5
7C19
331
7F29
  5
7F2B
331
7CDE
  5
7CE0
331
7CCD
  5
7CD5
331
7CBC
  5
7CBE
331
7C9A
  5
7C9C
331
7C80
  5
7C83
331
7C6F
  5
7C71
331
7C4D
  5
7C4F
331
7C2B
  5
7C2B
331
7C1A
  5
7C1A
331
7F2A
  5
7F2C
331
7CDF
  5
7CE1
331
7CCE
  5
7CD6
331
7CBD
  5
7CBF
331
7C9B
  5
7C9D
331
7C8A
  5
7C8D
331
7C70
  5
7C72
331
7C5F
  5
7C61
331
7C4E
  5
7C50
331
7C2C
  5
7C2E
331
7C1B
  5
7C1B
331
7F2B
  5
7F2D
331
7CE0
  5
7CE2
331
7CBE
  5
7CC0
331
7C9C
  5
7C9E
331
7C71
  5
7C73
331
7C60
  5
7C64
331
820F
  5
843A
331
7C4F
  5
7C54
331
7C3E
  5
7C41
331
7C2D
  5
7C2F
331
7C1C
  5
7C1C
331
7F2C
  5
7F2E
331
7CE1
  5
7CE3
331
7CBF
  5
7CC1
331
7C9D
  5
7C9F
331
7C8C
  5
7C90
331
7C72
  5
7C74
331
7C61
  5
7C65
331
7C50
  5
7C55
331
7C2E
  5
7C30
331
7C1D
  5
7C1D
331
7F2D
  5
7F2F
331
7CE2
  5
7CE4
331
7CC0
  5
7CC2
331
7C9E
  5
7CA0
331
7C8D
  5
7C95
331
7C73
  5
7C75
331
8447
  5
8457
331
7C2F
  5
7C31
331
7C1E
  5
7C1E
331
7F2E
  5
7F30
331
7F14
  5
7F16
331
7CE3
  5
7CE5
331
7CC1
  5
7CC3
331
7C9F
  5
7CA1
331
7C85
  5
7C87
331
7C74
  5
7C76
331
7C30
  5
7C32
331
7C1F
  5
7C1F
331
8202
  5
842D
331
7C31
  5
7C33
331
7F2F
  5
7F31
331
7F15
  5
7F19
331
7CE4
  5
7CE6
331
7CC2
  5
7CC4
331
7CA0
  5
7CA2
331
7C86
  5
7C88
331
7C75
  5
7C77
331
7C64
  5
7C66
331
7C20
  5
7C20
331
7F30
  5
7F32
331
81F5
  5
820F
331
7CE5
  5
7CE7
331
7CC3
  5
7CC5
331
7CB2
  5
7CB4
331
7CA1
  5
7CA3
331
7C90
  5
7C98
331
7C87
  5
7C8A
331
7C76
  5
7C78
331
7C65
  5
7C67
331
7C54
  5
7C56
331
7C43
  5
7C45
331
7C32
  5
7C34
331
7F16
  5
7F1A
331
7C21
  5
7C21
  0
ACDBDETAILVIEWSTYLE
  5
83E4
102
{ACAD_XDICTIONARY
360
8624
102
}
102
{ACAD_REACTORS
330
83E3
102
}
330
83E3
100
AcDbModelDocViewStyle
 70
     0
  3
Imperial24
290
     0
100
AcDbDetailViewStyle
 70
     0
 71
     0
 90
        3
 71
     1
340
83CF
 40
0.24
340
0
 40
0.24
300

 40
0.36
280
     3
 71
     2
340
83D6
 90
       25
 71
     3
340
83CF
 40
0.24
 90
        1
 40
0.75
 90
        1
300
%<\AcVar ViewType \f "%tc1">% %<\AcVar ViewDetailId>%\PSCALE %<\AcVar ViewScale \f "%sn">%
 71
     4
340
83D6
 90
       25
340
83D6
 90
       25
280
     0
  0
LAYOUT
  5
83EC
102
{ACAD_XDICTIONARY
360
8628
102
}
102
{ACAD_REACTORS
330
83DB
102
}
330
83DB
100
AcDbPlotSettings
  1

  2
RICOH imagio MP W3600 RPCS
  4

  6

 40
0.0
 41
0.0
 42
0.0
 43
0.0
 44
0.0
 45
0.0
 46
0.0
 47
0.0
 48
0.0
 49
0.0
140
0.0
141
0.0
142
1.0
143
1.0
 70
  1712
 72
     0
 73
     0
 74
     0
  7

 75
     0
147
1.0
148
0.0
149
0.0
100
AcDbLayout
  1
Model
 70
     1
 71
     0
 10
0.0
 20
0.0
 11
12.0
 21
9.0
 12
0.0
 22
0.0
 32
0.0
 14
0.0
 24
0.0
 34
0.0
 15
0.0
 25
0.0
 35
0.0
146
0.0
 13
0.0
 23
0.0
 33
0.0
 16
1.0
 26
0.0
 36
0.0
 17
0.0
 27
1.0
 37
0.0
 76
     0
330
83E9
331
83EE
  0
LAYOUT
  5
83E8
102
{ACAD_XDICTIONARY
360
8626
102
}
102
{ACAD_REACTORS
330
83DB
102
}
330
83DB
100
AcDbPlotSettings
  1

  2
RICOH imagio MP W3600 RPCS
  4

  6

 40
0.0
 41
0.0
 42
0.0
 43
0.0
 44
0.0
 45
0.0
 46
0.0
 47
0.0
 48
0.0
 49
0.0
140
0.0
141
0.0
142
1.0
143
1.0
 70
   688
 72
     0
 73
     0
 74
     5
  7

 75
    16
147
1.0
148
0.0
149
0.0
100
AcDbLayout
  1
レイアウト1
 70
     1
 71
     1
 10
0.0
 20
0.0
 11
12.0
 21
9.0
 12
0.0
 22
0.0
 32
0.0
 14
1.000000000000000E+20
 24
1.000000000000000E+20
 34
1.000000000000000E+20
 15
-1.000000000000000E+20
 25
-1.000000000000000E+20
 35
-1.000000000000000E+20
146
0.0
 13
0.0
 23
0.0
 33
0.0
 16
1.0
 26
0.0
 36
0.0
 17
0.0
 27
1.0
 37
0.0
 76
     0
330
83E5
  0
MATERIAL
  5
8393
102
{ACAD_XDICTIONARY
360
8394
102
}
102
{ACAD_REACTORS
330
838A
102
}
330
838A
100
AcDbMaterial
  1
ByBlock
 72
     0
 43
0.0208333333333333
 43
0.0
 43
0.0
 43
0.0
 43
0.0
 43
0.0208333333333333
 43
0.0
 43
0.0
 43
0.0
 43
0.0
 43
1.0
 43
0.0
 43
0.0
 43
0.0
 43
0.0
 43
1.0
 77
     0
 47
0.0208333333333333
 47
0.0
 47
0.0
 47
0.0
 47
0.0
 47
0.0208333333333333
 47
0.0
 47
0.0
 47
0.0
 47
0.0
 47
1.0
 47
0.0
 47
0.0
 47
0.0
 47
0.0
 47
1.0
171
     0
 49
0.0208333333333333
 49
0.0
 49
0.0
 49
0.0
 49
0.0
 49
0.0208333333333333
 49
0.0
 49
0.0
 49
0.0
 49
0.0
 49
1.0
 49
0.0
 49
0.0
 49
0.0
 49
0.0
 49
1.0
175
     0
142
0.0208333333333333
142
0.0
142
0.0
142
0.0
142
0.0
142
0.0208333333333333
142
0.0
142
0.0
142
0.0
142
0.0
142
1.0
142
0.0
142
0.0
142
0.0
142
0.0
142
1.0
179
     0
144
0.0208333333333333
144
0.0
144
0.0
144
0.0
144
0.0
144
0.0208333333333333
144
0.0
144
0.0
144
0.0
144
0.0
144
1.0
144
0.0
144
0.0
144
0.0
144
0.0
144
1.0
147
0.0208333333333333
147
0.0
147
0.0
147
0.0
147
0.0
147
0.0208333333333333
147
0.0
147
0.0
147
0.0
147
0.0
147
1.0
147
0.0
147
0.0
147
0.0
147
0.0
147
1.0
  0
MATERIAL
  5
838B
102
{ACAD_XDICTIONARY
360
838C
102
}
102
{ACAD_REACTORS
330
838A
102
}
330
838A
100
AcDbMaterial
  1
ByLayer
 72
     0
 43
0.0208333333333333
 43
0.0
 43
0.0
 43
0.0
 43
0.0
 43
0.0208333333333333
 43
0.0
 43
0.0
 43
0.0
 43
0.0
 43
1.0
 43
0.0
 43
0.0
 43
0.0
 43
0.0
 43
1.0
 77
     0
 47
0.0208333333333333
 47
0.0
 47
0.0
 47
0.0
 47
0.0
 47
0.0208333333333333
 47
0.0
 47
0.0
 47
0.0
 47
0.0
 47
1.0
 47
0.0
 47
0.0
 47
0.0
 47
0.0
 47
1.0
171
     0
 49
0.0208333333333333
 49
0.0
 49
0.0
 49
0.0
 49
0.0
 49
0.0208333333333333
 49
0.0
 49
0.0
 49
0.0
 49
0.0
 49
1.0
 49
0.0
 49
0.0
 49
0.0
 49
0.0
 49
1.0
175
     0
142
0.0208333333333333
142
0.0
142
0.0
142
0.0
142
0.0
142
0.0208333333333333
142
0.0
142
0.0
142
0.0
142
0.0
142
1.0
142
0.0
142
0.0
142
0.0
142
0.0
142
1.0
179
     0
144
0.0208333333333333
144
0.0
144
0.0
144
0.0
144
0.0
144
0.0208333333333333
144
0.0
144
0.0
144
0.0
144
0.0
144
1.0
144
0.0
144
0.0
144
0.0
144
0.0
144
1.0
147
0.0208333333333333
147
0.0
147
0.0
147
0.0
147
0.0
147
0.0208333333333333
147
0.0
147
0.0
147
0.0
147
0.0
147
1.0
147
0.0
147
0.0
147
0.0
147
0.0
147
1.0
  0
MATERIAL
  5
839B
102
{ACAD_XDICTIONARY
360
839C
102
}
102
{ACAD_REACTORS
330
838A
102
}
330
838A
100
AcDbMaterial
  1
Global
 72
     0
 43
0.0208333333333333
 43
0.0
 43
0.0
 43
0.0
 43
0.0
 43
0.0208333333333333
 43
0.0
 43
0.0
 43
0.0
 43
0.0
 43
1.0
 43
0.0
 43
0.0
 43
0.0
 43
0.0
 43
1.0
 77
     0
 47
0.0208333333333333
 47
0.0
 47
0.0
 47
0.0
 47
0.0
 47
0.0208333333333333
 47
0.0
 47
0.0
 47
0.0
 47
0.0
 47
1.0
 47
0.0
 47
0.0
 47
0.0
 47
0.0
 47
1.0
171
     0
 49
0.0208333333333333
 49
0.0
 49
0.0
 49
0.0
 49
0.0
 49
0.0208333333333333
 49
0.0
 49
0.0
 49
0.0
 49
0.0
 49
1.0
 49
0.0
 49
0.0
 49
0.0
 49
0.0
 49
1.0
175
     0
142
0.0208333333333333
142
0.0
142
0.0
142
0.0
142
0.0
142
0.0208333333333333
142
0.0
142
0.0
142
0.0
142
0.0
142
1.0
142
0.0
142
0.0
142
0.0
142
0.0
142
1.0
179
     0
144
0.0208333333333333
144
0.0
144
0.0
144
0.0
144
0.0
144
0.0208333333333333
144
0.0
144
0.0
144
0.0
144
0.0
144
1.0
144
0.0
144
0.0
144
0.0
144
0.0
144
1.0
147
0.0208333333333333
147
0.0
147
0.0
147
0.0
147
0.0
147
0.0208333333333333
147
0.0
147
0.0
147
0.0
147
0.0
147
1.0
147
0.0
147
0.0
147
0.0
147
0.0
147
1.0
  0
MLEADERSTYLE
  5
83E0
102
{ACAD_REACTORS
330
83DF
102
}
330
83DF
100
AcDbMLeaderStyle
170
     2
171
     1
172
     0
 90
        2
 40
0.0
 41
0.0
173
     1
 91
-1056964608
340
83D4
 92
       -2
290
     1
 42
0.09
291
     1
 43
0.36
  3
Standard
 44
0.18
300

342
83CF
174
     1
178
     6
175
     1
176
     0
 93
-1056964608
 45
0.18
292
     0
297
     0
 46
0.18
 94
-1056964608
 47
1.0
 49
1.0
140
1.0
293
     1
141
0.0
294
     1
177
     0
142
1.0
295
     0
296
     0
143
0.125
1001
ACAD_MLEADERVER
1070
     2
  0
MLINESTYLE
  5
83D9
102
{ACAD_REACTORS
330
83D8
102
}
330
83D8
100
AcDbMlineStyle
  2
STANDARD
 70
     0
  3

 62
   256
 51
90.0
 52
90.0
 71
     2
 49
0.5
 62
   256
  6
BYLAYER
 49
-0.5
 62
   256
  6
BYLAYER
  0
ACDBPLACEHOLDER
  5
8389
102
{ACAD_REACTORS
330
8388
102
}
330
8388
  0
SCALE
  5
83BD
102
{ACAD_REACTORS
330
83BC
102
}
330
83BC
100
AcDbScale
 70
     0
300
1:1
140
1.0
141
1.0
290
     1
  0
SCALE
  5
83BE
102
{ACAD_REACTORS
330
83BC
102
}
330
83BC
100
AcDbScale
 70
     0
300
1/128" = 1'-0"
140
0.0078125
141
12.0
290
     0
  0
SCALE
  5
83BF
102
{ACAD_REACTORS
330
83BC
102
}
330
83BC
100
AcDbScale
 70
     0
300
1/64" = 1'-0"
140
0.015625
141
12.0
290
     0
  0
SCALE
  5
83C0
102
{ACAD_REACTORS
330
83BC
102
}
330
83BC
100
AcDbScale
 70
     0
300
1/32" = 1'-0"
140
0.03125
141
12.0
290
     0
  0
SCALE
  5
83C1
102
{ACAD_REACTORS
330
83BC
102
}
330
83BC
100
AcDbScale
 70
     0
300
1/16" = 1'-0"
140
0.0625
141
12.0
290
     0
  0
SCALE
  5
83C2
102
{ACAD_REACTORS
330
83BC
102
}
330
83BC
100
AcDbScale
 70
     0
300
3/32" = 1'-0"
140
0.09375
141
12.0
290
     0
  0
SCALE
  5
83C3
102
{ACAD_REACTORS
330
83BC
102
}
330
83BC
100
AcDbScale
 70
     0
300
1/8" = 1'-0"
140
0.125
141
12.0
290
     0
  0
SCALE
  5
83C4
102
{ACAD_REACTORS
330
83BC
102
}
330
83BC
100
AcDbScale
 70
     0
300
3/16" = 1'-0"
140
0.1875
141
12.0
290
     0
  0
SCALE
  5
83C5
102
{ACAD_REACTORS
330
83BC
102
}
330
83BC
100
AcDbScale
 70
     0
300
1/4" = 1'-0"
140
0.25
141
12.0
290
     0
  0
SCALE
  5
83C6
102
{ACAD_REACTORS
330
83BC
102
}
330
83BC
100
AcDbScale
 70
     0
300
3/8" = 1'-0"
140
0.375
141
12.0
290
     0
  0
SCALE
  5
83C7
102
{ACAD_REACTORS
330
83BC
102
}
330
83BC
100
AcDbScale
 70
     0
300
1/2" = 1'-0"
140
0.5
141
12.0
290
     0
  0
SCALE
  5
83C8
102
{ACAD_REACTORS
330
83BC
102
}
330
83BC
100
AcDbScale
 70
     0
300
3/4" = 1'-0"
140
0.75
141
12.0
290
     0
  0
SCALE
  5
83C9
102
{ACAD_REACTORS
330
83BC
102
}
330
83BC
100
AcDbScale
 70
     0
300
1" = 1'-0"
140
1.0
141
12.0
290
     0
  0
SCALE
  5
83CA
102
{ACAD_REACTORS
330
83BC
102
}
330
83BC
100
AcDbScale
 70
     0
300
1-1/2" = 1'-0"
140
1.5
141
12.0
290
     0
  0
SCALE
  5
83CB
102
{ACAD_REACTORS
330
83BC
102
}
330
83BC
100
AcDbScale
 70
     0
300
3" = 1'-0"
140
3.0
141
12.0
290
     0
  0
SCALE
  5
83CC
102
{ACAD_REACTORS
330
83BC
102
}
330
83BC
100
AcDbScale
 70
     0
300
6" = 1'-0"
140
6.0
141
12.0
290
     0
  0
SCALE
  5
83CD
102
{ACAD_REACTORS
330
83BC
102
}
330
83BC
100
AcDbScale
 70
     0
300
1'-0" = 1'-0"
140
12.0
141
12.0
290
     0
  0
ACDBSECTIONVIEWSTYLE
  5
83E2
102
{ACAD_XDICTIONARY
360
8622
102
}
102
{ACAD_REACTORS
330
83E1
102
}
330
83E1
100
AcDbModelDocViewStyle
 70
     0
  3
Imperial24
290
     0
100
AcDbSectionViewStyle
 70
     0
 71
     0
 90
       78
 71
     1
340
83CF
 40
0.24
340
0
340
0
 40
0.24
300
I, O, Q, S, X, Z
 40
0.48
 90
        3
 40
0.18
 90
        1
 71
     2
340
83D6
 90
       25
340
83D6
 90
       50
 40
0.24
 40
0.0
 40
0.24
 71
     3
340
83CF
 40
0.24
 90
        1
 40
0.75
 90
        1
300
%<\AcVar ViewType \f "%tc1">% %<\AcVar ViewSectionStartId>%-%<\AcVar ViewSectionEndId>%\PSCALE %<\AcVar ViewScale \f "%sn">%
 71
     4
300
ANSI31
 40
1.0
 90
        0
290
     0
290
     0
 90
        6
 40
0.0
 40
1.570796326794896
 40
0.2617993877991494
 40
1.308996938995747
 40
-0.2617993877991494
 40
1.832595714594046
  0
TABLESTYLE
  5
83DE
102
{ACAD_XDICTIONARY
360
85E9
102
}
102
{ACAD_REACTORS
330
83DD
102
}
330
83DD
100
AcDbTableStyle
  3
Standard
 70
     0
 71
     0
 40
0.06
 41
0.06
280
     0
281
     0
  7
STANDARD
140
0.18
170
     2
 62
     0
 63
     7
283
     0
274
    -2
284
     1
 64
     0
275
    -2
285
     1
 65
     0
276
    -2
286
     1
 66
     0
277
    -2
287
     1
 67
     0
278
    -2
288
     1
 68
     0
279
    -2
289
     1
 69
     0
  7
STANDARD
140
0.25
170
     5
 62
     0
 63
     7
283
     0
274
    -2
284
     1
 64
     0
275
    -2
285
     1
 65
     0
276
    -2
286
     1
 66
     0
277
    -2
287
     1
 67
     0
278
    -2
288
     1
 68
     0
279
    -2
289
     1
 69
     0
  7
STANDARD
140
0.18
170
     5
 62
     0
 63
     7
283
     0
274
    -2
284
     1
 64
     0
275
    -2
285
     1
 65
     0
276
    -2
286
     1
 66
     0
277
    -2
287
     1
 67
     0
278
    -2
288
     1
 68
     0
279
    -2
289
     1
 69
     0
  0
VISUALSTYLE
  5
83A9
102
{ACAD_XDICTIONARY
360
85FA
102
}
102
{ACAD_REACTORS
330
83A3
102
}
330
83A3
100
AcDbVisualStyle
  2
2dWireframe
 70
     4
 71
     0
 72
     2
 73
     0
 90
        0
 40
-0.6
 41
-30.0
 62
     5
 63
     7
 74
     1
 91
        4
 64
     7
 65
   257
 75
     1
175
     1
 42
1.0
 92
        0
 66
   257
 43
1.0
 76
     1
 77
     6
 78
     2
 67
     7
 79
     5
170
     0
171
     0
290
     0
174
     0
 93
        1
 44
0.0
173
     0
291
     0
 45
0.0
1001
ACAD
1000
AcDbSavedByObjectVersion
1070
     0
  0
VISUALSTYLE
  5
83A8
102
{ACAD_XDICTIONARY
360
85F8
102
}
102
{ACAD_REACTORS
330
83A3
102
}
330
83A3
100
AcDbVisualStyle
  2
Basic
 70
     7
 71
     1
 72
     0
 73
     1
 90
        0
 40
-0.6
 41
-30.0
 62
     5
 63
     7
 74
     0
 91
        4
 64
     7
 65
   257
 75
     1
175
     1
 42
1.0
 92
        8
 66
     7
 43
1.0
 76
     1
 77
     6
 78
     2
 67
     7
 79
     5
170
     0
171
     0
290
     0
174
     0
 93
        1
 44
0.0
173
     0
291
     1
 45
0.0
1001
ACAD
1000
AcDbSavedByObjectVersion
1070
     0
  0
VISUALSTYLE
  5
83AF
102
{ACAD_XDICTIONARY
360
8606
102
}
102
{ACAD_REACTORS
330
83A3
102
}
330
83A3
100
AcDbVisualStyle
  2
Brighten
 70
    12
 71
     2
 72
     2
 73
     0
 90
        0
 40
-0.6
 41
-30.0
 62
     5
 63
     7
 74
     1
 91
        4
 64
     7
 65
   257
 75
     1
175
     1
 42
1.0
 92
        8
 66
     7
 43
1.0
 76
     1
 77
     6
 78
     2
 67
     7
 79
     5
170
     0
171
     0
290
     0
174
     0
 93
        1
 44
50.0
173
     0
291
     1
 45
0.0
1001
ACAD
1000
AcDbSavedByObjectVersion
1070
     0
  0
VISUALSTYLE
  5
83B3
102
{ACAD_XDICTIONARY
360
860E
102
}
102
{ACAD_REACTORS
330
83A3
102
}
330
83A3
100
AcDbVisualStyle
  2
ColorChange
 70
    16
 71
     2
 72
     2
 73
     3
 90
        0
 40
-0.6
 41
-30.0
 62
     5
 63
     8
 74
     1
 91
        4
 64
     7
 65
   257
 75
     1
175
     1
 42
1.0
 92
        8
 66
     8
 43
1.0
 76
     1
 77
     6
 78
     2
 67
     7
 79
     5
170
     0
171
     0
290
     0
174
     0
 93
        1
 44
0.0
173
     0
291
     1
 45
0.0
1001
ACAD
1000
AcDbSavedByObjectVersion
1070
     0
  0
VISUALSTYLE
  5
83AC
102
{ACAD_XDICTIONARY
360
8600
102
}
102
{ACAD_REACTORS
330
83A3
102
}
330
83A3
100
AcDbVisualStyle
  2
Conceptual
 70
     9
 71
     3
 72
     2
 73
     0
 90
        0
 40
-0.6
 41
-30.0
 62
     5
 63
     7
 74
     2
 91
        2
 64
     7
 65
   257
 75
     1
175
     1
 42
179.0
 92
        8
 66
     7
 43
1.0
 76
     1
 77
     6
 78
     2
 67
     7
 79
     3
170
     0
171
     0
290
     0
174
     0
 93
        1
 44
0.0
173
     0
291
     0
 45
0.0
1001
ACAD
1000
AcDbSavedByObjectVersion
1070
     0
  0
VISUALSTYLE
  5
83AE
102
{ACAD_XDICTIONARY
360
8604
102
}
102
{ACAD_REACTORS
330
83A3
102
}
330
83A3
100
AcDbVisualStyle
  2
Dim
 70
    11
 71
     2
 72
     2
 73
     0
 90
        0
 40
-0.6
 41
-30.0
 62
     5
 63
     7
 74
     1
 91
        4
 64
     7
 65
   257
 75
     1
175
     1
 42
1.0
 92
        8
 66
     7
 43
1.0
 76
     1
 77
     6
 78
     2
 67
     7
 79
     5
170
     0
171
     0
290
     0
174
     0
 93
        1
 44
-50.0
173
     0
291
     1
 45
0.0
1001
ACAD
1000
AcDbSavedByObjectVersion
1070
     0
  0
VISUALSTYLE
  5
83BB
102
{ACAD_XDICTIONARY
360
861E
102
}
102
{ACAD_REACTORS
330
83A3
102
}
330
83A3
100
AcDbVisualStyle
  2
EdgeColorOff
 70
    22
 71
     2
 72
     2
 73
     0
 90
        0
 40
-0.6
 41
-30.0
 62
     5
 63
     7
 74
     1
 91
        4
 64
     7
 65
   257
 75
     1
175
     1
 42
1.0
 92
        8
 66
     7
 43
1.0
 76
     1
 77
     6
 78
     2
 67
     7
 79
     5
170
     0
171
     0
290
     0
174
     0
 93
        1
 44
0.0
173
     0
291
     1
 45
0.0
1001
ACAD
1000
AcDbSavedByObjectVersion
1070
     0
  0
VISUALSTYLE
  5
83B2
102
{ACAD_XDICTIONARY
360
860C
102
}
102
{ACAD_REACTORS
330
83A3
102
}
330
83A3
100
AcDbVisualStyle
  2
Facepattern
 70
    15
 71
     2
 72
     2
 73
     0
 90
        0
 40
-0.6
 41
-30.0
 62
     5
 63
     7
 74
     1
 91
        4
 64
     7
 65
   257
 75
     1
175
     1
 42
1.0
 92
        8
 66
     7
 43
1.0
 76
     1
 77
     6
 78
     2
 67
     7
 79
     5
170
     0
171
     0
290
     0
174
     0
 93
        1
 44
0.0
173
     0
291
     1
 45
0.0
1001
ACAD
1000
AcDbSavedByObjectVersion
1070
     0
  0
VISUALSTYLE
  5
83A4
102
{ACAD_XDICTIONARY
360
85F0
102
}
102
{ACAD_REACTORS
330
83A3
102
}
330
83A3
100
AcDbVisualStyle
  2
Flat
 70
     0
 71
     2
 72
     1
 73
     1
 90
        2
 40
-0.6
 41
30.0
 62
     5
 63
     7
 74
     0
 91
        0
 64
     7
 65
   257
 75
     1
175
     1
 42
1.0
 92
        8
 66
     7
 43
1.0
 76
     1
 77
     6
 78
     2
 67
     7
 79
     5
170
     0
171
     0
290
     0
174
     0
 93
       13
 44
0.0
173
     0
291
     1
 45
0.0
1001
ACAD
1000
AcDbSavedByObjectVersion
1070
     0
  0
VISUALSTYLE
  5
83A5
102
{ACAD_XDICTIONARY
360
85F2
102
}
102
{ACAD_REACTORS
330
83A3
102
}
330
83A3
100
AcDbVisualStyle
  2
FlatWithEdges
 70
     1
 71
     2
 72
     1
 73
     1
 90
        2
 40
-0.6
 41
30.0
 62
     5
 63
     7
 74
     1
 91
        0
 64
     7
 65
   257
 75
     1
175
     1
 42
1.0
 92
        0
 66
   257
 43
1.0
 76
     1
 77
     6
 78
     2
 67
     7
 79
     5
170
     0
171
     0
290
     0
174
     0
 93
       13
 44
0.0
173
     0
291
     1
 45
0.0
1001
ACAD
1000
AcDbSavedByObjectVersion
1070
     0
  0
VISUALSTYLE
  5
83A6
102
{ACAD_XDICTIONARY
360
85F4
102
}
102
{ACAD_REACTORS
330
83A3
102
}
330
83A3
100
AcDbVisualStyle
  2
Gouraud
 70
     2
 71
     2
 72
     2
 73
     1
 90
        2
 40
-0.6
 41
30.0
 62
     5
 63
     7
 74
     0
 91
        0
 64
     7
 65
   257
 75
     1
175
     1
 42
1.0
 92
        0
 66
     7
 43
1.0
 76
     1
 77
     6
 78
     2
 67
     7
 79
     5
170
     0
171
     0
290
     0
174
     0
 93
       13
 44
0.0
173
     0
291
     1
 45
0.0
1001
ACAD
1000
AcDbSavedByObjectVersion
1070
     0
  0
VISUALSTYLE
  5
83A7
102
{ACAD_XDICTIONARY
360
85F6
102
}
102
{ACAD_REACTORS
330
83A3
102
}
330
83A3
100
AcDbVisualStyle
  2
GouraudWithEdges
 70
     3
 71
     2
 72
     2
 73
     1
 90
        2
 40
-0.6
 41
30.0
 62
     5
 63
     7
 74
     1
 91
        0
 64
     7
 65
   257
 75
     1
175
     1
 42
1.0
 92
        0
 66
   257
 43
1.0
 76
     1
 77
     6
 78
     2
 67
     7
 79
     5
170
     0
171
     0
290
     0
174
     0
 93
       13
 44
0.0
173
     0
291
     1
 45
0.0
1001
ACAD
1000
AcDbSavedByObjectVersion
1070
     0
  0
VISUALSTYLE
  5
83AB
102
{ACAD_XDICTIONARY
360
85FE
102
}
102
{ACAD_REACTORS
330
83A3
102
}
330
83A3
100
AcDbVisualStyle
  2
Hidden
 70
     6
 71
     1
 72
     2
 73
     2
 90
        0
 40
-0.6
 41
-30.0
 62
     5
 63
     7
 74
     2
 91
        2
 64
     7
 65
   257
 75
     2
175
     1
 42
40.0
 92
        0
 66
   257
 43
1.0
 76
     1
 77
     6
 78
     2
 67
     7
 79
     3
170
     0
171
     0
290
     0
174
     0
 93
        1
 44
0.0
173
     0
291
     0
 45
0.0
1001
ACAD
1000
AcDbSavedByObjectVersion
1070
     0
  0
VISUALSTYLE
  5
83B9
102
{ACAD_XDICTIONARY
360
861A
102
}
102
{ACAD_REACTORS
330
83A3
102
}
330
83A3
100
AcDbVisualStyle
  2
JitterOff
 70
    20
 71
     2
 72
     2
 73
     0
 90
        0
 40
-0.6
 41
-30.0
 62
     5
 63
     7
 74
     1
 91
        4
 64
     7
 65
   257
 75
     1
175
     1
 42
1.0
 92
       10
 66
     7
 43
1.0
 76
     1
 77
     6
 78
     2
 67
     7
 79
     5
170
     0
171
     0
290
     0
174
     0
 93
        1
 44
0.0
173
     0
291
     1
 45
0.0
1001
ACAD
1000
AcDbSavedByObjectVersion
1070
     0
  0
VISUALSTYLE
  5
83B1
102
{ACAD_XDICTIONARY
360
860A
102
}
102
{ACAD_REACTORS
330
83A3
102
}
330
83A3
100
AcDbVisualStyle
  2
Linepattern
 70
    14
 71
     2
 72
     2
 73
     0
 90
        0
 40
-0.6
 41
-30.0
 62
     5
 63
     7
 74
     1
 91
        4
 64
     7
 65
   257
 75
     7
175
     7
 42
1.0
 92
        8
 66
     7
 43
1.0
 76
     1
 77
     6
 78
     2
 67
     7
 79
     5
170
     0
171
     0
290
     0
174
     0
 93
        1
 44
0.0
173
     0
291
     1
 45
0.0
1001
ACAD
1000
AcDbSavedByObjectVersion
1070
     0
  0
VISUALSTYLE
  5
83BA
102
{ACAD_XDICTIONARY
360
861C
102
}
102
{ACAD_REACTORS
330
83A3
102
}
330
83A3
100
AcDbVisualStyle
  2
OverhangOff
 70
    21
 71
     2
 72
     2
 73
     0
 90
        0
 40
-0.6
 41
-30.0
 62
     5
 63
     7
 74
     1
 91
        4
 64
     7
 65
   257
 75
     1
175
     1
 42
1.0
 92
        9
 66
     7
 43
1.0
 76
     1
 77
     6
 78
     2
 67
     7
 79
     5
170
     0
171
     0
290
     0
174
     0
 93
        1
 44
0.0
173
     0
291
     1
 45
0.0
1001
ACAD
1000
AcDbSavedByObjectVersion
1070
     0
  0
VISUALSTYLE
  5
83AD
102
{ACAD_XDICTIONARY
360
8602
102
}
102
{ACAD_REACTORS
330
83A3
102
}
330
83A3
100
AcDbVisualStyle
  2
Realistic
 70
     8
 71
     2
 72
     3
 73
     0
 90
        2
 40
-0.6
 41
30.0
 62
     5
 63
     7
 74
     0
 91
        0
 64
     7
 65
   257
 75
     1
175
     1
 42
1.0
 92
        8
 66
   257
 43
1.0
 76
     1
 77
     6
 78
     2
 67
     7
 79
     3
170
     0
171
     0
290
     0
174
     0
 93
       13
 44
0.0
173
     0
291
     0
 45
0.0
1001
ACAD
1000
AcDbSavedByObjectVersion
1070
     0
  0
VISUALSTYLE
  5
83B8
102
{ACAD_XDICTIONARY
360
8618
102
}
102
{ACAD_REACTORS
330
83A3
102
}
330
83A3
100
AcDbVisualStyle
  2
Shaded
 70
    27
 71
     2
 72
     2
 73
     1
 90
        2
 40
-0.6
 41
30.0
 62
     5
 63
     7
 74
     0
 91
        4
 64
     7
 65
   257
 75
     1
175
     1
 42
1.0
 92
        8
 66
   257
 43
1.0
 76
     1
 77
     6
 78
     2
 67
     8
 79
     3
170
     0
171
     0
290
     0
174
     0
 93
        5
 44
0.0
173
     0
291
     0
 45
0.0
1001
ACAD
1000
AcDbSavedByObjectVersion
1070
     0
  0
VISUALSTYLE
  5
83B7
102
{ACAD_XDICTIONARY
360
8616
102
}
102
{ACAD_REACTORS
330
83A3
102
}
330
83A3
100
AcDbVisualStyle
  2
Shaded with edges
 70
    26
 71
     2
 72
     2
 73
     1
 90
        2
 40
-0.6
 41
30.0
 62
     5
 63
     7
 74
     1
 91
       10
 64
     7
 65
   257
 75
     2
175
     1
 42
1.0
 92
        8
 66
   257
 43
1.0
 76
     1
 77
     6
 78
     2
 67
     7
 79
     3
170
     0
171
     0
290
     0
174
     0
 93
        5
 44
0.0
173
     0
291
     0
 45
0.0
1001
ACAD
1000
AcDbSavedByObjectVersion
1070
     0
  0
VISUALSTYLE
  5
83B4
102
{ACAD_XDICTIONARY
360
8610
102
}
102
{ACAD_REACTORS
330
83A3
102
}
330
83A3
100
AcDbVisualStyle
  2
Shades of Gray
 70
    23
 71
     2
 72
     2
 73
     3
 90
        0
 40
-0.6
 41
-30.0
 62
     5
 63
     7
 74
     2
 91
        2
 64
     7
 65
     7
 75
     1
175
     1
 42
40.0
 92
        8
 66
     7
 43
1.0
 76
     1
 77
     6
 78
     2
 67
     7
 79
     3
170
     0
171
     0
290
     0
174
     0
 93
        1
 44
0.0
173
     0
291
     0
 45
0.0
1001
ACAD
1000
AcDbSavedByObjectVersion
1070
     0
  0
VISUALSTYLE
  5
83B5
102
{ACAD_XDICTIONARY
360
8612
102
}
102
{ACAD_REACTORS
330
83A3
102
}
330
83A3
100
AcDbVisualStyle
  2
Sketchy
 70
    24
 71
     1
 72
     2
 73
     2
 90
        0
 40
-0.6
 41
-30.0
 62
     5
 63
     7
 74
     2
 91
        2
 64
     7
 65
     7
 75
     1
175
     1
 42
40.0
 92
       11
 66
     7
 43
1.0
 76
     1
 77
     6
 78
     2
 67
     7
 79
     6
170
     0
171
     0
290
     0
174
     0
 93
        1
 44
0.0
173
     0
291
     0
 45
0.0
1001
ACAD
1000
AcDbSavedByObjectVersion
1070
     0
  0
VISUALSTYLE
  5
83B0
102
{ACAD_XDICTIONARY
360
8608
102
}
102
{ACAD_REACTORS
330
83A3
102
}
330
83A3
100
AcDbVisualStyle
  2
Thicken
 70
    13
 71
     2
 72
     2
 73
     0
 90
        0
 40
-0.6
 41
-30.0
 62
     5
 63
     7
 74
     1
 91
        4
 64
     7
 65
   257
 75
     1
175
     1
 42
1.0
 92
       12
 66
     7
 43
1.0
 76
     1
 77
     6
 78
     2
 67
     7
 79
     5
170
     0
171
     0
290
     0
174
     0
 93
        1
 44
0.0
173
     0
291
     1
 45
0.0
1001
ACAD
1000
AcDbSavedByObjectVersion
1070
     0
  0
VISUALSTYLE
  5
83AA
102
{ACAD_XDICTIONARY
360
85FC
102
}
102
{ACAD_REACTORS
330
83A3
102
}
330
83A3
100
AcDbVisualStyle
  2
Wireframe
 70
     5
 71
     0
 72
     2
 73
     0
 90
        0
 40
-0.6
 41
-30.0
 62
     5
 63
     7
 74
     1
 91
        4
 64
     7
 65
   257
 75
     1
175
     1
 42
1.0
 92
        0
 66
   257
 43
1.0
 76
     1
 77
     6
 78
     2
 67
     7
 79
     3
170
     0
171
     0
290
     0
174
     0
 93
        1
 44
0.0
173
     0
291
     0
 45
0.0
1001
ACAD
1000
AcDbSavedByObjectVersion
1070
     0
  0
VISUALSTYLE
  5
83B6
102
{ACAD_XDICTIONARY
360
8614
102
}
102
{ACAD_REACTORS
330
83A3
102
}
330
83A3
100
AcDbVisualStyle
  2
X-Ray
 70
    25
 71
     2
 72
     2
 73
     1
 90
        1
 40
0.5
 41
-30.0
 62
     5
 63
     7
 74
     1
 91
        0
 64
     7
 65
   257
 75
     1
175
     1
 42
1.0
 92
        8
 66
     7
 43
1.0
 76
     1
 77
     6
 78
     2
 67
     7
 79
     3
170
     0
171
     0
290
     0
174
     0
 93
       13
 44
0.0
173
     0
291
     0
 45
0.0
1001
ACAD
1000
AcDbSavedByObjectVersion
1070
     0
  0
DICTIONARYVAR
  5
8599
102
{ACAD_REACTORS
330
8594
102
}
330
8594
100
DictionaryVariables
280
     0
  1
1:1
  0
DICTIONARYVAR
  5
8596
102
{ACAD_REACTORS
330
8594
102
}
330
8594
100
DictionaryVariables
280
     0
  1
STANDARD
  0
DICTIONARYVAR
  5
8595
102
{ACAD_REACTORS
330
8594
102
}
330
8594
100
DictionaryVariables
280
     0
  1
STANDARD
  0
DICTIONARYVAR
  5
8597
102
{ACAD_REACTORS
330
8594
102
}
330
8594
100
DictionaryVariables
280
     0
  1
Imperial24
  0
DICTIONARYVAR
  5
8598
102
{ACAD_REACTORS
330
8594
102
}
330
8594
100
DictionaryVariables
280
     0
  1
Imperial24
  0
DICTIONARYVAR
  5
859C
102
{ACAD_REACTORS
330
8594
102
}
330
8594
100
DictionaryVariables
280
     0
  1
1
  0
DICTIONARYVAR
  5
859B
102
{ACAD_REACTORS
330
8594
102
}
330
8594
100
DictionaryVariables
280
     0
  1
0
  0
DICTIONARYVAR
  5
859A
102
{ACAD_REACTORS
330
8594
102
}
330
8594
100
DictionaryVariables
280
     0
  1
127
  0
DICTIONARYVAR
  5
859D
102
{ACAD_REACTORS
330
8594
102
}
330
8594
100
DictionaryVariables
280
     0
  1
2
  0
DICTIONARY
  5
8624
330
83E4
100
AcDbDictionary
280
     1
281
     1
  3
ACAD_XREC_ROUNDTRIP
360
8625
  0
DICTIONARY
  5
8628
330
83EC
100
AcDbDictionary
280
     1
281
     1
  3
ACAD_XREC_ROUNDTRIP
360
8629
  0
DICTIONARY
  5
8626
330
83E8
100
AcDbDictionary
280
     1
281
     1
  3
ACAD_XREC_ROUNDTRIP
360
8627
  0
DICTIONARY
  5
8394
330
8393
100
AcDbDictionary
280
     1
281
     1
  3
ACAD_XREC_ROUNDTRIP
360
85EE
  3
BUMPTILE
360
8396
  3
DIFFUSETILE
360
8395
  3
OPACITYTILE
360
8399
  3
REFLECTIONTILE
360
8398
  3
REFRACTIONTILE
360
839A
  3
SPECULARTILE
360
8397
  0
DICTIONARY
  5
838C
330
838B
100
AcDbDictionary
280
     1
281
     1
  3
ACAD_XREC_ROUNDTRIP
360
85ED
  3
BUMPTILE
360
838E
  3
DIFFUSETILE
360
838D
  3
OPACITYTILE
360
8391
  3
REFLECTIONTILE
360
8390
  3
REFRACTIONTILE
360
8392
  3
SPECULARTILE
360
838F
  0
DICTIONARY
  5
839C
330
839B
100
AcDbDictionary
280
     1
281
     1
  3
ACAD_XREC_ROUNDTRIP
360
85EF
  3
BUMPTILE
360
839E
  3
DIFFUSETILE
360
839D
  3
OPACITYTILE
360
83A1
  3
REFLECTIONTILE
360
83A0
  3
REFRACTIONTILE
360
83A2
  3
SPECULARTILE
360
839F
  0
DICTIONARY
  5
8622
330
83E2
100
AcDbDictionary
280
     1
281
     1
  3
ACAD_XREC_ROUNDTRIP
360
8623
  0
DICTIONARY
  5
85E9
330
83DE
100
AcDbDictionary
280
     1
281
     1
  3
ACAD_ROUNDTRIP_2008_TABLESTYLE_CELLSTYLEMAP
360
85EA
  3
ACAD_XREC_ROUNDTRIP
360
8620
  0
DICTIONARY
  5
85FA
330
83A9
100
AcDbDictionary
280
     1
281
     1
  3
ACAD_XREC_ROUNDTRIP
360
85FB
  0
DICTIONARY
  5
85F8
330
83A8
100
AcDbDictionary
280
     1
281
     1
  3
ACAD_XREC_ROUNDTRIP
360
85F9
  0
DICTIONARY
  5
8606
330
83AF
100
AcDbDictionary
280
     1
281
     1
  3
ACAD_XREC_ROUNDTRIP
360
8607
  0
DICTIONARY
  5
860E
330
83B3
100
AcDbDictionary
280
     1
281
     1
  3
ACAD_XREC_ROUNDTRIP
360
860F
  0
DICTIONARY
  5
8600
330
83AC
100
AcDbDictionary
280
     1
281
     1
  3
ACAD_XREC_ROUNDTRIP
360
8601
  0
DICTIONARY
  5
8604
330
83AE
100
AcDbDictionary
280
     1
281
     1
  3
ACAD_XREC_ROUNDTRIP
360
8605
  0
DICTIONARY
  5
861E
330
83BB
100
AcDbDictionary
280
     1
281
     1
  3
ACAD_XREC_ROUNDTRIP
360
861F
  0
DICTIONARY
  5
860C
330
83B2
100
AcDbDictionary
280
     1
281
     1
  3
ACAD_XREC_ROUNDTRIP
360
860D
  0
DICTIONARY
  5
85F0
330
83A4
100
AcDbDictionary
280
     1
281
     1
  3
ACAD_XREC_ROUNDTRIP
360
85F1
  0
DICTIONARY
  5
85F2
330
83A5
100
AcDbDictionary
280
     1
281
     1
  3
ACAD_XREC_ROUNDTRIP
360
85F3
  0
DICTIONARY
  5
85F4
330
83A6
100
AcDbDictionary
280
     1
281
     1
  3
ACAD_XREC_ROUNDTRIP
360
85F5
  0
DICTIONARY
  5
85F6
330
83A7
100
AcDbDictionary
280
     1
281
     1
  3
ACAD_XREC_ROUNDTRIP
360
85F7
  0
DICTIONARY
  5
85FE
330
83AB
100
AcDbDictionary
280
     1
281
     1
  3
ACAD_XREC_ROUNDTRIP
360
85FF
  0
DICTIONARY
  5
861A
330
83B9
100
AcDbDictionary
280
     1
281
     1
  3
ACAD_XREC_ROUNDTRIP
360
861B
  0
DICTIONARY
  5
860A
330
83B1
100
AcDbDictionary
280
     1
281
     1
  3
ACAD_XREC_ROUNDTRIP
360
860B
  0
DICTIONARY
  5
861C
330
83BA
100
AcDbDictionary
280
     1
281
     1
  3
ACAD_XREC_ROUNDTRIP
360
861D
  0
DICTIONARY
  5
8602
330
83AD
100
AcDbDictionary
280
     1
281
     1
  3
ACAD_XREC_ROUNDTRIP
360
8603
  0
DICTIONARY
  5
8618
330
83B8
100
AcDbDictionary
280
     1
281
     1
  3
ACAD_XREC_ROUNDTRIP
360
8619
  0
DICTIONARY
  5
8616
330
83B7
100
AcDbDictionary
280
     1
281
     1
  3
ACAD_XREC_ROUNDTRIP
360
8617
  0
DICTIONARY
  5
8610
330
83B4
100
AcDbDictionary
280
     1
281
     1
  3
ACAD_XREC_ROUNDTRIP
360
8611
  0
DICTIONARY
  5
8612
330
83B5
100
AcDbDictionary
280
     1
281
     1
  3
ACAD_XREC_ROUNDTRIP
360
8613
  0
DICTIONARY
  5
8608
330
83B0
100
AcDbDictionary
280
     1
281
     1
  3
ACAD_XREC_ROUNDTRIP
360
8609
  0
DICTIONARY
  5
85FC
330
83AA
100
AcDbDictionary
280
     1
281
     1
  3
ACAD_XREC_ROUNDTRIP
360
85FD
  0
DICTIONARY
  5
8614
330
83B6
100
AcDbDictionary
280
     1
281
     1
  3
ACAD_XREC_ROUNDTRIP
360
8615
  0
XRECORD
  5
8625
102
{ACAD_REACTORS
330
8624
102
}
330
8624
100
AcDbXrecord
280
     1
102
DISPLAYNAME
  1
Imperial24
102
FLAGS
 90
        0
  0
XRECORD
  5
8629
102
{ACAD_REACTORS
330
8628
102
}
330
8628
100
AcDbXrecord
280
     1
102
SHADEPLOT
 70
     0
102
SHADEPLOTRESLEVEL
 70
     2
102
SHADEPLOTCUSTOMDPI
 70
   300
  0
XRECORD
  5
8627
102
{ACAD_REACTORS
330
8626
102
}
330
8626
100
AcDbXrecord
280
     1
102
SHADEPLOT
 70
     0
102
SHADEPLOTRESLEVEL
 70
     2
102
SHADEPLOTCUSTOMDPI
 70
   300
  0
XRECORD
  5
85EE
102
{ACAD_REACTORS
330
8394
102
}
330
8394
100
AcDbXrecord
280
     1
102
MATERIAL
148
0.0
149
0.0
149
0.0
 93
        0
 94
      127
282
     0
 72
     0
 77
     0
171
     0
175
     0
179
     0
273
     0
  0
XRECORD
  5
8396
102
{ACAD_REACTORS
330
8394
102
}
330
8394
100
AcDbXrecord
280
     1
270
     1
271
     1
  0
XRECORD
  5
8395
102
{ACAD_REACTORS
330
8394
102
}
330
8394
100
AcDbXrecord
280
     1
270
     1
271
     1
  0
XRECORD
  5
8399
102
{ACAD_REACTORS
330
8394
102
}
330
8394
100
AcDbXrecord
280
     1
270
     1
271
     1
  0
XRECORD
  5
8398
102
{ACAD_REACTORS
330
8394
102
}
330
8394
100
AcDbXrecord
280
     1
270
     1
271
     1
  0
XRECORD
  5
839A
102
{ACAD_REACTORS
330
8394
102
}
330
8394
100
AcDbXrecord
280
     1
270
     1
271
     1
  0
XRECORD
  5
8397
102
{ACAD_REACTORS
330
8394
102
}
330
8394
100
AcDbXrecord
280
     1
270
     1
271
     1
  0
XRECORD
  5
85ED
102
{ACAD_REACTORS
330
838C
102
}
330
838C
100
AcDbXrecord
280
     1
102
MATERIAL
148
0.0
149
0.0
149
0.0
 93
        0
 94
      127
282
     0
 72
     0
 77
     0
171
     0
175
     0
179
     0
273
     0
  0
XRECORD
  5
838E
102
{ACAD_REACTORS
330
838C
102
}
330
838C
100
AcDbXrecord
280
     1
270
     1
271
     1
  0
XRECORD
  5
838D
102
{ACAD_REACTORS
330
838C
102
}
330
838C
100
AcDbXrecord
280
     1
270
     1
271
     1
  0
XRECORD
  5
8391
102
{ACAD_REACTORS
330
838C
102
}
330
838C
100
AcDbXrecord
280
     1
270
     1
271
     1
  0
XRECORD
  5
8390
102
{ACAD_REACTORS
330
838C
102
}
330
838C
100
AcDbXrecord
280
     1
270
     1
271
     1
  0
XRECORD
  5
8392
102
{ACAD_REACTORS
330
838C
102
}
330
838C
100
AcDbXrecord
280
     1
270
     1
271
     1
  0
XRECORD
  5
838F
102
{ACAD_REACTORS
330
838C
102
}
330
838C
100
AcDbXrecord
280
     1
270
     1
271
     1
  0
XRECORD
  5
85EF
102
{ACAD_REACTORS
330
839C
102
}
330
839C
100
AcDbXrecord
280
     1
102
MATERIAL
148
0.0
149
0.0
149
0.0
 93
        0
 94
      127
282
     0
 72
     0
 77
     0
171
     0
175
     0
179
     0
273
     0
  0
XRECORD
  5
839E
102
{ACAD_REACTORS
330
839C
102
}
330
839C
100
AcDbXrecord
280
     1
270
     1
271
     1
  0
XRECORD
  5
839D
102
{ACAD_REACTORS
330
839C
102
}
330
839C
100
AcDbXrecord
280
     1
270
     1
271
     1
  0
XRECORD
  5
83A1
102
{ACAD_REACTORS
330
839C
102
}
330
839C
100
AcDbXrecord
280
     1
270
     1
271
     1
  0
XRECORD
  5
83A0
102
{ACAD_REACTORS
330
839C
102
}
330
839C
100
AcDbXrecord
280
     1
270
     1
271
     1
  0
XRECORD
  5
83A2
102
{ACAD_REACTORS
330
839C
102
}
330
839C
100
AcDbXrecord
280
     1
270
     1
271
     1
  0
XRECORD
  5
839F
102
{ACAD_REACTORS
330
839C
102
}
330
839C
100
AcDbXrecord
280
     1
270
     1
271
     1
  0
XRECORD
  5
8623
102
{ACAD_REACTORS
330
8622
102
}
330
8622
100
AcDbXrecord
280
     1
102
DISPLAYNAME
  1
Imperial24
102
FLAGS
 90
        0
  0
CELLSTYLEMAP
  5
85EA
102
{ACAD_REACTORS
330
85E9
102
}
330
85E9
100
AcDbCellStyleMap
 90
        3
300
CELLSTYLE
  1
TABLEFORMAT_BEGIN
 90
        5
170
     1
 91
        0
 92
    32768
 62
   257
 93
        1
300
CONTENTFORMAT
  1
CONTENTFORMAT_BEGIN
 90
        0
 91
        0
 92
      512
 93
        0
300

 40
0.0
140
1.0
 94
        5
 62
     0
340
83CF
144
0.25
309
CONTENTFORMAT_END
171
     0
 94
        0
309
TABLEFORMAT_END
  1
CELLSTYLE_BEGIN
 90
        1
 91
        1
300
_TITLE
309
CELLSTYLE_END
300
CELLSTYLE
  1
TABLEFORMAT_BEGIN
 90
        5
170
     1
 91
        0
 92
        0
 62
   257
 93
        1
300
CONTENTFORMAT
  1
CONTENTFORMAT_BEGIN
 90
        0
 91
        0
 92
      512
 93
        0
300

 40
0.0
140
1.0
 94
        5
 62
     0
340
83CF
144
0.18
309
CONTENTFORMAT_END
171
     0
 94
        0
309
TABLEFORMAT_END
  1
CELLSTYLE_BEGIN
 90
        2
 91
        1
300
_HEADER
309
CELLSTYLE_END
300
CELLSTYLE
  1
TABLEFORMAT_BEGIN
 90
        5
170
     1
 91
        0
 92
        0
 62
   257
 93
        1
300
CONTENTFORMAT
  1
CONTENTFORMAT_BEGIN
 90
        0
 91
        0
 92
      512
 93
        0
300

 40
0.0
140
1.0
 94
        2
 62
     0
340
83CF
144
0.18
309
CONTENTFORMAT_END
171
     0
 94
        0
309
TABLEFORMAT_END
  1
CELLSTYLE_BEGIN
 90
        3
 91
        2
300
_DATA
309
CELLSTYLE_END
  0
XRECORD
  5
8620
102
{ACAD_REACTORS
330
85E9
102
}
330
85E9
100
AcDbXrecord
280
     1
102
ACAD_ROUNDTRIP_PRE2007_TABLESTYLE
 90
      512
 91
        0
  1

 92
      512
 93
        0
  2

 94
      512
 95
        0
  3

  0
XRECORD
  5
85FB
102
{ACAD_REACTORS
330
85FA
102
}
330
85FA
100
AcDbXrecord
280
     1
102
RTVSPost2010Prop28
280
     1
102
RTVSPost2010PropOp28
 70
     1
102
RTVSPost2010Prop29
280
     1
102
RTVSPost2010PropOp29
 70
     1
102
RTVSPost2010Prop30
280
     0
102
RTVSPost2010PropOp30
 70
     1
102
RTVSPost2010Prop31
280
     0
102
RTVSPost2010PropOp31
 70
     1
102
RTVSPost2010Prop32
280
     0
102
RTVSPost2010PropOp32
 70
     1
102
RTVSPost2010Prop33
280
     0
102
RTVSPost2010PropOp33
 70
     1
102
RTVSPost2010Prop34
280
     0
102
RTVSPost2010PropOp34
 70
     1
102
RTVSPost2010Prop35
280
     0
102
RTVSPost2010PropOp35
 70
     1
102
RTVSPost2010Prop36
280
     0
102
RTVSPost2010PropOp36
 70
     1
102
RTVSPost2010Prop37
 90
       50
102
RTVSPost2010PropOp37
 70
     1
102
RTVSPost2010Prop38
140
0.0
102
RTVSPost2010PropOp38
 70
     1
102
RTVSPost2010Prop39
140
1.0
102
RTVSPost2010PropOp39
 70
     1
102
RTVSPost2010Prop40
 90
        0
102
RTVSPost2010PropOp40
 70
     1
102
RTVSPost2010Prop41ColorIndex
 90
       18
102
RTVSPost2010Prop41ColorRGB
 90
        0
102
RTVSPost2010PropOp41
 70
     1
102
RTVSPost2010Prop42
 90
       50
102
RTVSPost2010PropOp42
 70
     1
102
RTVSPost2010Prop43
 90
        3
102
RTVSPost2010PropOp43
 70
     1
102
RTVSPost2010Prop44ColorIndex
 90
        5
102
RTVSPost2010Prop44ColorRGB
 90
      255
102
RTVSPost2010PropOp44
 70
     1
102
RTVSPost2010Prop45
280
     0
102
RTVSPost2010PropOp45
 70
     1
102
RTVSPost2010Prop46
 90
       50
102
RTVSPost2010PropOp46
 70
     1
102
RTVSPost2010Prop47
 90
       50
102
RTVSPost2010PropOp47
 70
     1
102
RTVSPost2010Prop48
 90
       50
102
RTVSPost2010PropOp48
 70
     1
102
RTVSPost2010Prop49
280
     0
102
RTVSPost2010PropOp49
 70
     1
102
RTVSPost2010Prop50
 90
       50
102
RTVSPost2010PropOp50
 70
     1
102
RTVSPost2010Prop51ColorIndex
 90
      256
102
RTVSPost2010Prop51ColorRGB
 90
-16777216
102
RTVSPost2010PropOp51
 70
     0
102
RTVSPost2010Prop52
140
1.0
102
RTVSPost2010PropOp52
 70
     0
102
RTVSPost2010Prop53
 90
        2
102
RTVSPost2010PropOp53
 70
     1
102
RTVSPost2010Prop54
  1
strokes_ogs.tif
102
RTVSPost2010PropOp54
 70
     1
102
RTVSPost2010Prop55
280
     0
102
RTVSPost2010PropOp55
 70
     1
102
RTVSPost2010Prop56
140
1.0
102
RTVSPost2010PropOp56
 70
     1
102
RTVSPost2010Prop57
140
1.0
102
RTVSPost2010PropOp57
 70
     1
102
RTVSPropertyOp0
 70
     1
102
RTVSPropertyOp1
 70
     1
102
RTVSPropertyOp2
 70
     1
102
RTVSPropertyOp3
 70
     1
102
RTVSPropertyOp4
 70
     1
102
RTVSPropertyOp5
 70
     1
102
RTVSPropertyOp6
 70
     1
102
RTVSPropertyOp7
 70
     1
102
RTVSPropertyOp8
 70
     1
102
RTVSPropertyOp9
 70
     1
102
RTVSPropertyOp10
 70
     1
102
RTVSPropertyOp11
 70
     1
102
RTVSPropertyOp12
 70
     1
102
RTVSPropertyOp13
 70
     1
102
RTVSPropertyOp14
 70
     1
102
RTVSPropertyOp15
 70
     1
102
RTVSPropertyOp16
 70
     1
102
RTVSPropertyOp17
 70
     1
102
RTVSPropertyOp18
 70
     1
102
RTVSPropertyOp19
 70
     1
102
RTVSPropertyOp20
 70
     1
102
RTVSPropertyOp21
 70
     1
102
RTVSPropertyOp22
 70
     1
102
RTVSPropertyOp23
 70
     1
102
RTVSPropertyOp24
 70
     1
102
RTVSPropertyOp25
 70
     1
102
RTVSPropertyOp26
 70
     1
102
RTVSPropertyOp27
 70
     1
102
RTVSPropertyOp28
 70
     1
102
RTVSPropertyOp29
 70
     1
102
RTVSPropertyOp30
 70
     1
102
RTVSPropertyOp31
 70
     1
102
RTVSPropertyOp32
 70
     1
102
RTVSPropertyOp33
 70
     1
102
RTVSPropertyOp34
 70
     1
102
RTVSPropertyOp35
 70
     1
102
RTVSPropertyOp36
 70
     1
102
RTVSPropertyOp37
 70
     1
102
RTVSPropertyOp38
 70
     1
102
RTVSPropertyOp39
 70
     1
102
RTVSPropertyOp40
 70
     1
102
RTVSPropertyOp41
 70
     1
102
RTVSPropertyOp42
 70
     1
102
RTVSPropertyOp43
 70
     1
102
RTVSPropertyOp44
 70
     1
102
RTVSPropertyOp45
 70
     1
102
RTVSPropertyOp46
 70
     1
102
RTVSPropertyOp47
 70
     1
102
RTVSPropertyOp48
 70
     1
102
RTVSPropertyOp49
 70
     1
102
RTVSPropertyOp50
 70
     1
102
RTVSPropertyOp51
 70
     0
102
RTVSPropertyOp52
 70
     0
102
RTVSPropertyOp53
 70
     1
102
RTVSPropertyOp54
 70
     1
102
RTVSPropertyOp55
 70
     1
102
RTVSPropertyOp56
 70
     1
102
RTVSPropertyOp57
 70
     1
102
RTVSPropertyOp58
 70
     1
102
RTVSPropertyOp59
 70
     1
102
RTVSPropertyOp60
 70
     1
102
RTVSPropertyOp61
 70
     1
102
RTVSPropertyOp62
 70
     1
  0
XRECORD
  5
85F9
102
{ACAD_REACTORS
330
85F8
102
}
330
85F8
100
AcDbXrecord
280
     1
102
RTVSPost2010Prop28
280
     0
102
RTVSPost2010PropOp28
 70
     1
102
RTVSPost2010Prop29
280
     1
102
RTVSPost2010PropOp29
 70
     1
102
RTVSPost2010Prop30
280
     1
102
RTVSPost2010PropOp30
 70
     1
102
RTVSPost2010Prop31
280
     0
102
RTVSPost2010PropOp31
 70
     1
102
RTVSPost2010Prop32
280
     0
102
RTVSPost2010PropOp32
 70
     1
102
RTVSPost2010Prop33
280
     0
102
RTVSPost2010PropOp33
 70
     1
102
RTVSPost2010Prop34
280
     0
102
RTVSPost2010PropOp34
 70
     1
102
RTVSPost2010Prop35
280
     0
102
RTVSPost2010PropOp35
 70
     1
102
RTVSPost2010Prop36
280
     0
102
RTVSPost2010PropOp36
 70
     1
102
RTVSPost2010Prop37
 90
       50
102
RTVSPost2010PropOp37
 70
     1
102
RTVSPost2010Prop38
140
0.0
102
RTVSPost2010PropOp38
 70
     1
102
RTVSPost2010Prop39
140
1.0
102
RTVSPost2010PropOp39
 70
     1
102
RTVSPost2010Prop40
 90
        0
102
RTVSPost2010PropOp40
 70
     1
102
RTVSPost2010Prop41ColorIndex
 90
       18
102
RTVSPost2010Prop41ColorRGB
 90
        0
102
RTVSPost2010PropOp41
 70
     1
102
RTVSPost2010Prop42
 90
       50
102
RTVSPost2010PropOp42
 70
     1
102
RTVSPost2010Prop43
 90
        3
102
RTVSPost2010PropOp43
 70
     1
102
RTVSPost2010Prop44ColorIndex
 90
        5
102
RTVSPost2010Prop44ColorRGB
 90
      255
102
RTVSPost2010PropOp44
 70
     1
102
RTVSPost2010Prop45
280
     0
102
RTVSPost2010PropOp45
 70
     1
102
RTVSPost2010Prop46
 90
       50
102
RTVSPost2010PropOp46
 70
     1
102
RTVSPost2010Prop47
 90
       50
102
RTVSPost2010PropOp47
 70
     1
102
RTVSPost2010Prop48
 90
       50
102
RTVSPost2010PropOp48
 70
     1
102
RTVSPost2010Prop49
280
     0
102
RTVSPost2010PropOp49
 70
     1
102
RTVSPost2010Prop50
 90
       50
102
RTVSPost2010PropOp50
 70
     1
102
RTVSPost2010Prop51ColorIndex
 90
      256
102
RTVSPost2010Prop51ColorRGB
 90
-16777216
102
RTVSPost2010PropOp51
 70
     0
102
RTVSPost2010Prop52
140
1.0
102
RTVSPost2010PropOp52
 70
     0
102
RTVSPost2010Prop53
 90
        2
102
RTVSPost2010PropOp53
 70
     1
102
RTVSPost2010Prop54
  1
strokes_ogs.tif
102
RTVSPost2010PropOp54
 70
     1
102
RTVSPost2010Prop55
280
     0
102
RTVSPost2010PropOp55
 70
     1
102
RTVSPost2010Prop56
140
1.0
102
RTVSPost2010PropOp56
 70
     1
102
RTVSPost2010Prop57
140
1.0
102
RTVSPost2010PropOp57
 70
     1
102
RTVSPropertyOp0
 70
     1
102
RTVSPropertyOp1
 70
     1
102
RTVSPropertyOp2
 70
     1
102
RTVSPropertyOp3
 70
     1
102
RTVSPropertyOp4
 70
     1
102
RTVSPropertyOp5
 70
     1
102
RTVSPropertyOp6
 70
     1
102
RTVSPropertyOp7
 70
     1
102
RTVSPropertyOp8
 70
     1
102
RTVSPropertyOp9
 70
     1
102
RTVSPropertyOp10
 70
     1
102
RTVSPropertyOp11
 70
     1
102
RTVSPropertyOp12
 70
     1
102
RTVSPropertyOp13
 70
     1
102
RTVSPropertyOp14
 70
     1
102
RTVSPropertyOp15
 70
     1
102
RTVSPropertyOp16
 70
     1
102
RTVSPropertyOp17
 70
     1
102
RTVSPropertyOp18
 70
     1
102
RTVSPropertyOp19
 70
     1
102
RTVSPropertyOp20
 70
     1
102
RTVSPropertyOp21
 70
     1
102
RTVSPropertyOp22
 70
     1
102
RTVSPropertyOp23
 70
     1
102
RTVSPropertyOp24
 70
     1
102
RTVSPropertyOp25
 70
     1
102
RTVSPropertyOp26
 70
     1
102
RTVSPropertyOp27
 70
     1
102
RTVSPropertyOp28
 70
     1
102
RTVSPropertyOp29
 70
     1
102
RTVSPropertyOp30
 70
     1
102
RTVSPropertyOp31
 70
     1
102
RTVSPropertyOp32
 70
     1
102
RTVSPropertyOp33
 70
     1
102
RTVSPropertyOp34
 70
     1
102
RTVSPropertyOp35
 70
     1
102
RTVSPropertyOp36
 70
     1
102
RTVSPropertyOp37
 70
     1
102
RTVSPropertyOp38
 70
     1
102
RTVSPropertyOp39
 70
     1
102
RTVSPropertyOp40
 70
     1
102
RTVSPropertyOp41
 70
     1
102
RTVSPropertyOp42
 70
     1
102
RTVSPropertyOp43
 70
     1
102
RTVSPropertyOp44
 70
     1
102
RTVSPropertyOp45
 70
     1
102
RTVSPropertyOp46
 70
     1
102
RTVSPropertyOp47
 70
     1
102
RTVSPropertyOp48
 70
     1
102
RTVSPropertyOp49
 70
     1
102
RTVSPropertyOp50
 70
     1
102
RTVSPropertyOp51
 70
     0
102
RTVSPropertyOp52
 70
     0
102
RTVSPropertyOp53
 70
     1
102
RTVSPropertyOp54
 70
     1
102
RTVSPropertyOp55
 70
     1
102
RTVSPropertyOp56
 70
     1
102
RTVSPropertyOp57
 70
     1
102
RTVSPropertyOp58
 70
     1
102
RTVSPropertyOp59
 70
     1
102
RTVSPropertyOp60
 70
     1
102
RTVSPropertyOp61
 70
     1
102
RTVSPropertyOp62
 70
     1
  0
XRECORD
  5
8607
102
{ACAD_REACTORS
330
8606
102
}
330
8606
100
AcDbXrecord
280
     1
102
RTVSPost2010Prop28
280
     0
102
RTVSPost2010PropOp28
 70
     1
102
RTVSPost2010Prop29
280
     1
102
RTVSPost2010PropOp29
 70
     1
102
RTVSPost2010Prop30
280
     1
102
RTVSPost2010PropOp30
 70
     1
102
RTVSPost2010Prop31
280
     0
102
RTVSPost2010PropOp31
 70
     1
102
RTVSPost2010Prop32
280
     0
102
RTVSPost2010PropOp32
 70
     1
102
RTVSPost2010Prop33
280
     0
102
RTVSPost2010PropOp33
 70
     1
102
RTVSPost2010Prop34
280
     0
102
RTVSPost2010PropOp34
 70
     1
102
RTVSPost2010Prop35
280
     0
102
RTVSPost2010PropOp35
 70
     1
102
RTVSPost2010Prop36
280
     0
102
RTVSPost2010PropOp36
 70
     1
102
RTVSPost2010Prop37
 90
       50
102
RTVSPost2010PropOp37
 70
     1
102
RTVSPost2010Prop38
140
0.0
102
RTVSPost2010PropOp38
 70
     1
102
RTVSPost2010Prop39
140
1.0
102
RTVSPost2010PropOp39
 70
     1
102
RTVSPost2010Prop40
 90
        0
102
RTVSPost2010PropOp40
 70
     1
102
RTVSPost2010Prop41ColorIndex
 90
       18
102
RTVSPost2010Prop41ColorRGB
 90
        0
102
RTVSPost2010PropOp41
 70
     1
102
RTVSPost2010Prop42
 90
       50
102
RTVSPost2010PropOp42
 70
     1
102
RTVSPost2010Prop43
 90
        3
102
RTVSPost2010PropOp43
 70
     1
102
RTVSPost2010Prop44ColorIndex
 90
        5
102
RTVSPost2010Prop44ColorRGB
 90
      255
102
RTVSPost2010PropOp44
 70
     1
102
RTVSPost2010Prop45
280
     0
102
RTVSPost2010PropOp45
 70
     1
102
RTVSPost2010Prop46
 90
       50
102
RTVSPost2010PropOp46
 70
     1
102
RTVSPost2010Prop47
 90
       50
102
RTVSPost2010PropOp47
 70
     1
102
RTVSPost2010Prop48
 90
       50
102
RTVSPost2010PropOp48
 70
     1
102
RTVSPost2010Prop49
280
     0
102
RTVSPost2010PropOp49
 70
     1
102
RTVSPost2010Prop50
 90
       50
102
RTVSPost2010PropOp50
 70
     1
102
RTVSPost2010Prop51ColorIndex
 90
      256
102
RTVSPost2010Prop51ColorRGB
 90
-16777216
102
RTVSPost2010PropOp51
 70
     0
102
RTVSPost2010Prop52
140
1.0
102
RTVSPost2010PropOp52
 70
     0
102
RTVSPost2010Prop53
 90
        2
102
RTVSPost2010PropOp53
 70
     1
102
RTVSPost2010Prop54
  1
strokes_ogs.tif
102
RTVSPost2010PropOp54
 70
     1
102
RTVSPost2010Prop55
280
     0
102
RTVSPost2010PropOp55
 70
     1
102
RTVSPost2010Prop56
140
1.0
102
RTVSPost2010PropOp56
 70
     1
102
RTVSPost2010Prop57
140
1.0
102
RTVSPost2010PropOp57
 70
     1
102
RTVSPropertyOp0
 70
     1
102
RTVSPropertyOp1
 70
     1
102
RTVSPropertyOp2
 70
     1
102
RTVSPropertyOp3
 70
     1
102
RTVSPropertyOp4
 70
     1
102
RTVSPropertyOp5
 70
     1
102
RTVSPropertyOp6
 70
     1
102
RTVSPropertyOp7
 70
     1
102
RTVSPropertyOp8
 70
     1
102
RTVSPropertyOp9
 70
     1
102
RTVSPropertyOp10
 70
     1
102
RTVSPropertyOp11
 70
     1
102
RTVSPropertyOp12
 70
     1
102
RTVSPropertyOp13
 70
     1
102
RTVSPropertyOp14
 70
     1
102
RTVSPropertyOp15
 70
     1
102
RTVSPropertyOp16
 70
     1
102
RTVSPropertyOp17
 70
     1
102
RTVSPropertyOp18
 70
     1
102
RTVSPropertyOp19
 70
     1
102
RTVSPropertyOp20
 70
     1
102
RTVSPropertyOp21
 70
     1
102
RTVSPropertyOp22
 70
     1
102
RTVSPropertyOp23
 70
     1
102
RTVSPropertyOp24
 70
     1
102
RTVSPropertyOp25
 70
     1
102
RTVSPropertyOp26
 70
     1
102
RTVSPropertyOp27
 70
     1
102
RTVSPropertyOp28
 70
     1
102
RTVSPropertyOp29
 70
     1
102
RTVSPropertyOp30
 70
     1
102
RTVSPropertyOp31
 70
     1
102
RTVSPropertyOp32
 70
     1
102
RTVSPropertyOp33
 70
     1
102
RTVSPropertyOp34
 70
     1
102
RTVSPropertyOp35
 70
     1
102
RTVSPropertyOp36
 70
     1
102
RTVSPropertyOp37
 70
     1
102
RTVSPropertyOp38
 70
     1
102
RTVSPropertyOp39
 70
     1
102
RTVSPropertyOp40
 70
     1
102
RTVSPropertyOp41
 70
     1
102
RTVSPropertyOp42
 70
     1
102
RTVSPropertyOp43
 70
     1
102
RTVSPropertyOp44
 70
     1
102
RTVSPropertyOp45
 70
     1
102
RTVSPropertyOp46
 70
     1
102
RTVSPropertyOp47
 70
     1
102
RTVSPropertyOp48
 70
     1
102
RTVSPropertyOp49
 70
     1
102
RTVSPropertyOp50
 70
     1
102
RTVSPropertyOp51
 70
     0
102
RTVSPropertyOp52
 70
     0
102
RTVSPropertyOp53
 70
     1
102
RTVSPropertyOp54
 70
     1
102
RTVSPropertyOp55
 70
     1
102
RTVSPropertyOp56
 70
     1
102
RTVSPropertyOp57
 70
     1
102
RTVSPropertyOp58
 70
     1
102
RTVSPropertyOp59
 70
     1
102
RTVSPropertyOp60
 70
     1
102
RTVSPropertyOp61
 70
     1
102
RTVSPropertyOp62
 70
     1
  0
XRECORD
  5
860F
102
{ACAD_REACTORS
330
860E
102
}
330
860E
100
AcDbXrecord
280
     1
102
RTVSPost2010Prop28
280
     0
102
RTVSPost2010PropOp28
 70
     1
102
RTVSPost2010Prop29
280
     1
102
RTVSPost2010PropOp29
 70
     1
102
RTVSPost2010Prop30
280
     1
102
RTVSPost2010PropOp30
 70
     1
102
RTVSPost2010Prop31
280
     0
102
RTVSPost2010PropOp31
 70
     1
102
RTVSPost2010Prop32
280
     0
102
RTVSPost2010PropOp32
 70
     1
102
RTVSPost2010Prop33
280
     0
102
RTVSPost2010PropOp33
 70
     1
102
RTVSPost2010Prop34
280
     0
102
RTVSPost2010PropOp34
 70
     1
102
RTVSPost2010Prop35
280
     0
102
RTVSPost2010PropOp35
 70
     1
102
RTVSPost2010Prop36
280
     0
102
RTVSPost2010PropOp36
 70
     1
102
RTVSPost2010Prop37
 90
       50
102
RTVSPost2010PropOp37
 70
     1
102
RTVSPost2010Prop38
140
0.0
102
RTVSPost2010PropOp38
 70
     1
102
RTVSPost2010Prop39
140
1.0
102
RTVSPost2010PropOp39
 70
     1
102
RTVSPost2010Prop40
 90
        0
102
RTVSPost2010PropOp40
 70
     1
102
RTVSPost2010Prop41ColorIndex
 90
       18
102
RTVSPost2010Prop41ColorRGB
 90
        0
102
RTVSPost2010PropOp41
 70
     1
102
RTVSPost2010Prop42
 90
       50
102
RTVSPost2010PropOp42
 70
     1
102
RTVSPost2010Prop43
 90
        3
102
RTVSPost2010PropOp43
 70
     1
102
RTVSPost2010Prop44ColorIndex
 90
        5
102
RTVSPost2010Prop44ColorRGB
 90
      255
102
RTVSPost2010PropOp44
 70
     1
102
RTVSPost2010Prop45
280
     0
102
RTVSPost2010PropOp45
 70
     1
102
RTVSPost2010Prop46
 90
       50
102
RTVSPost2010PropOp46
 70
     1
102
RTVSPost2010Prop47
 90
       50
102
RTVSPost2010PropOp47
 70
     1
102
RTVSPost2010Prop48
 90
       50
102
RTVSPost2010PropOp48
 70
     1
102
RTVSPost2010Prop49
280
     0
102
RTVSPost2010PropOp49
 70
     1
102
RTVSPost2010Prop50
 90
       50
102
RTVSPost2010PropOp50
 70
     1
102
RTVSPost2010Prop51ColorIndex
 90
      256
102
RTVSPost2010Prop51ColorRGB
 90
-16777216
102
RTVSPost2010PropOp51
 70
     0
102
RTVSPost2010Prop52
140
1.0
102
RTVSPost2010PropOp52
 70
     0
102
RTVSPost2010Prop53
 90
        2
102
RTVSPost2010PropOp53
 70
     1
102
RTVSPost2010Prop54
  1
strokes_ogs.tif
102
RTVSPost2010PropOp54
 70
     1
102
RTVSPost2010Prop55
280
     0
102
RTVSPost2010PropOp55
 70
     1
102
RTVSPost2010Prop56
140
1.0
102
RTVSPost2010PropOp56
 70
     1
102
RTVSPost2010Prop57
140
1.0
102
RTVSPost2010PropOp57
 70
     1
102
RTVSPropertyOp0
 70
     1
102
RTVSPropertyOp1
 70
     1
102
RTVSPropertyOp2
 70
     1
102
RTVSPropertyOp3
 70
     1
102
RTVSPropertyOp4
 70
     1
102
RTVSPropertyOp5
 70
     1
102
RTVSPropertyOp6
 70
     1
102
RTVSPropertyOp7
 70
     1
102
RTVSPropertyOp8
 70
     1
102
RTVSPropertyOp9
 70
     1
102
RTVSPropertyOp10
 70
     1
102
RTVSPropertyOp11
 70
     1
102
RTVSPropertyOp12
 70
     1
102
RTVSPropertyOp13
 70
     1
102
RTVSPropertyOp14
 70
     1
102
RTVSPropertyOp15
 70
     1
102
RTVSPropertyOp16
 70
     1
102
RTVSPropertyOp17
 70
     1
102
RTVSPropertyOp18
 70
     1
102
RTVSPropertyOp19
 70
     1
102
RTVSPropertyOp20
 70
     1
102
RTVSPropertyOp21
 70
     1
102
RTVSPropertyOp22
 70
     1
102
RTVSPropertyOp23
 70
     1
102
RTVSPropertyOp24
 70
     1
102
RTVSPropertyOp25
 70
     1
102
RTVSPropertyOp26
 70
     1
102
RTVSPropertyOp27
 70
     1
102
RTVSPropertyOp28
 70
     1
102
RTVSPropertyOp29
 70
     1
102
RTVSPropertyOp30
 70
     1
102
RTVSPropertyOp31
 70
     1
102
RTVSPropertyOp32
 70
     1
102
RTVSPropertyOp33
 70
     1
102
RTVSPropertyOp34
 70
     1
102
RTVSPropertyOp35
 70
     1
102
RTVSPropertyOp36
 70
     1
102
RTVSPropertyOp37
 70
     1
102
RTVSPropertyOp38
 70
     1
102
RTVSPropertyOp39
 70
     1
102
RTVSPropertyOp40
 70
     1
102
RTVSPropertyOp41
 70
     1
102
RTVSPropertyOp42
 70
     1
102
RTVSPropertyOp43
 70
     1
102
RTVSPropertyOp44
 70
     1
102
RTVSPropertyOp45
 70
     1
102
RTVSPropertyOp46
 70
     1
102
RTVSPropertyOp47
 70
     1
102
RTVSPropertyOp48
 70
     1
102
RTVSPropertyOp49
 70
     1
102
RTVSPropertyOp50
 70
     1
102
RTVSPropertyOp51
 70
     0
102
RTVSPropertyOp52
 70
     0
102
RTVSPropertyOp53
 70
     1
102
RTVSPropertyOp54
 70
     1
102
RTVSPropertyOp55
 70
     1
102
RTVSPropertyOp56
 70
     1
102
RTVSPropertyOp57
 70
     1
102
RTVSPropertyOp58
 70
     1
102
RTVSPropertyOp59
 70
     1
102
RTVSPropertyOp60
 70
     1
102
RTVSPropertyOp61
 70
     1
102
RTVSPropertyOp62
 70
     1
  0
XRECORD
  5
8601
102
{ACAD_REACTORS
330
8600
102
}
330
8600
100
AcDbXrecord
280
     1
102
RTVSPost2010Prop28
280
     0
102
RTVSPost2010PropOp28
 70
     1
102
RTVSPost2010Prop29
280
     1
102
RTVSPost2010PropOp29
 70
     1
102
RTVSPost2010Prop30
280
     1
102
RTVSPost2010PropOp30
 70
     1
102
RTVSPost2010Prop31
280
     0
102
RTVSPost2010PropOp31
 70
     1
102
RTVSPost2010Prop32
280
     0
102
RTVSPost2010PropOp32
 70
     1
102
RTVSPost2010Prop33
280
     0
102
RTVSPost2010PropOp33
 70
     1
102
RTVSPost2010Prop34
280
     0
102
RTVSPost2010PropOp34
 70
     1
102
RTVSPost2010Prop35
280
     0
102
RTVSPost2010PropOp35
 70
     1
102
RTVSPost2010Prop36
280
     0
102
RTVSPost2010PropOp36
 70
     1
102
RTVSPost2010Prop37
 90
       50
102
RTVSPost2010PropOp37
 70
     1
102
RTVSPost2010Prop38
140
0.0
102
RTVSPost2010PropOp38
 70
     1
102
RTVSPost2010Prop39
140
1.0
102
RTVSPost2010PropOp39
 70
     1
102
RTVSPost2010Prop40
 90
        0
102
RTVSPost2010PropOp40
 70
     1
102
RTVSPost2010Prop41ColorIndex
 90
       18
102
RTVSPost2010Prop41ColorRGB
 90
        0
102
RTVSPost2010PropOp41
 70
     1
102
RTVSPost2010Prop42
 90
       50
102
RTVSPost2010PropOp42
 70
     1
102
RTVSPost2010Prop43
 90
        3
102
RTVSPost2010PropOp43
 70
     1
102
RTVSPost2010Prop44ColorIndex
 90
        5
102
RTVSPost2010Prop44ColorRGB
 90
      255
102
RTVSPost2010PropOp44
 70
     1
102
RTVSPost2010Prop45
280
     0
102
RTVSPost2010PropOp45
 70
     1
102
RTVSPost2010Prop46
 90
       50
102
RTVSPost2010PropOp46
 70
     1
102
RTVSPost2010Prop47
 90
       50
102
RTVSPost2010PropOp47
 70
     1
102
RTVSPost2010Prop48
 90
       50
102
RTVSPost2010PropOp48
 70
     1
102
RTVSPost2010Prop49
280
     0
102
RTVSPost2010PropOp49
 70
     1
102
RTVSPost2010Prop50
 90
       50
102
RTVSPost2010PropOp50
 70
     1
102
RTVSPost2010Prop51ColorIndex
 90
      256
102
RTVSPost2010Prop51ColorRGB
 90
-16777216
102
RTVSPost2010PropOp51
 70
     0
102
RTVSPost2010Prop52
140
1.0
102
RTVSPost2010PropOp52
 70
     0
102
RTVSPost2010Prop53
 90
        2
102
RTVSPost2010PropOp53
 70
     1
102
RTVSPost2010Prop54
  1
strokes_ogs.tif
102
RTVSPost2010PropOp54
 70
     1
102
RTVSPost2010Prop55
280
     0
102
RTVSPost2010PropOp55
 70
     1
102
RTVSPost2010Prop56
140
1.0
102
RTVSPost2010PropOp56
 70
     1
102
RTVSPost2010Prop57
140
1.0
102
RTVSPost2010PropOp57
 70
     1
102
RTVSPropertyOp0
 70
     1
102
RTVSPropertyOp1
 70
     1
102
RTVSPropertyOp2
 70
     1
102
RTVSPropertyOp3
 70
     1
102
RTVSPropertyOp4
 70
     1
102
RTVSPropertyOp5
 70
     1
102
RTVSPropertyOp6
 70
     1
102
RTVSPropertyOp7
 70
     1
102
RTVSPropertyOp8
 70
     1
102
RTVSPropertyOp9
 70
     1
102
RTVSPropertyOp10
 70
     1
102
RTVSPropertyOp11
 70
     1
102
RTVSPropertyOp12
 70
     1
102
RTVSPropertyOp13
 70
     1
102
RTVSPropertyOp14
 70
     1
102
RTVSPropertyOp15
 70
     1
102
RTVSPropertyOp16
 70
     1
102
RTVSPropertyOp17
 70
     1
102
RTVSPropertyOp18
 70
     1
102
RTVSPropertyOp19
 70
     1
102
RTVSPropertyOp20
 70
     1
102
RTVSPropertyOp21
 70
     1
102
RTVSPropertyOp22
 70
     1
102
RTVSPropertyOp23
 70
     1
102
RTVSPropertyOp24
 70
     1
102
RTVSPropertyOp25
 70
     1
102
RTVSPropertyOp26
 70
     1
102
RTVSPropertyOp27
 70
     1
102
RTVSPropertyOp28
 70
     1
102
RTVSPropertyOp29
 70
     1
102
RTVSPropertyOp30
 70
     1
102
RTVSPropertyOp31
 70
     1
102
RTVSPropertyOp32
 70
     1
102
RTVSPropertyOp33
 70
     1
102
RTVSPropertyOp34
 70
     1
102
RTVSPropertyOp35
 70
     1
102
RTVSPropertyOp36
 70
     1
102
RTVSPropertyOp37
 70
     1
102
RTVSPropertyOp38
 70
     1
102
RTVSPropertyOp39
 70
     1
102
RTVSPropertyOp40
 70
     1
102
RTVSPropertyOp41
 70
     1
102
RTVSPropertyOp42
 70
     1
102
RTVSPropertyOp43
 70
     1
102
RTVSPropertyOp44
 70
     1
102
RTVSPropertyOp45
 70
     1
102
RTVSPropertyOp46
 70
     1
102
RTVSPropertyOp47
 70
     1
102
RTVSPropertyOp48
 70
     1
102
RTVSPropertyOp49
 70
     1
102
RTVSPropertyOp50
 70
     1
102
RTVSPropertyOp51
 70
     0
102
RTVSPropertyOp52
 70
     0
102
RTVSPropertyOp53
 70
     1
102
RTVSPropertyOp54
 70
     1
102
RTVSPropertyOp55
 70
     1
102
RTVSPropertyOp56
 70
     1
102
RTVSPropertyOp57
 70
     1
102
RTVSPropertyOp58
 70
     1
102
RTVSPropertyOp59
 70
     1
102
RTVSPropertyOp60
 70
     1
102
RTVSPropertyOp61
 70
     1
102
RTVSPropertyOp62
 70
     1
  0
XRECORD
  5
8605
102
{ACAD_REACTORS
330
8604
102
}
330
8604
100
AcDbXrecord
280
     1
102
RTVSPost2010Prop28
280
     0
102
RTVSPost2010PropOp28
 70
     1
102
RTVSPost2010Prop29
280
     1
102
RTVSPost2010PropOp29
 70
     1
102
RTVSPost2010Prop30
280
     1
102
RTVSPost2010PropOp30
 70
     1
102
RTVSPost2010Prop31
280
     0
102
RTVSPost2010PropOp31
 70
     1
102
RTVSPost2010Prop32
280
     0
102
RTVSPost2010PropOp32
 70
     1
102
RTVSPost2010Prop33
280
     0
102
RTVSPost2010PropOp33
 70
     1
102
RTVSPost2010Prop34
280
     0
102
RTVSPost2010PropOp34
 70
     1
102
RTVSPost2010Prop35
280
     0
102
RTVSPost2010PropOp35
 70
     1
102
RTVSPost2010Prop36
280
     0
102
RTVSPost2010PropOp36
 70
     1
102
RTVSPost2010Prop37
 90
       50
102
RTVSPost2010PropOp37
 70
     1
102
RTVSPost2010Prop38
140
0.0
102
RTVSPost2010PropOp38
 70
     1
102
RTVSPost2010Prop39
140
1.0
102
RTVSPost2010PropOp39
 70
     1
102
RTVSPost2010Prop40
 90
        0
102
RTVSPost2010PropOp40
 70
     1
102
RTVSPost2010Prop41ColorIndex
 90
       18
102
RTVSPost2010Prop41ColorRGB
 90
        0
102
RTVSPost2010PropOp41
 70
     1
102
RTVSPost2010Prop42
 90
       50
102
RTVSPost2010PropOp42
 70
     1
102
RTVSPost2010Prop43
 90
        3
102
RTVSPost2010PropOp43
 70
     1
102
RTVSPost2010Prop44ColorIndex
 90
        5
102
RTVSPost2010Prop44ColorRGB
 90
      255
102
RTVSPost2010PropOp44
 70
     1
102
RTVSPost2010Prop45
280
     0
102
RTVSPost2010PropOp45
 70
     1
102
RTVSPost2010Prop46
 90
       50
102
RTVSPost2010PropOp46
 70
     1
102
RTVSPost2010Prop47
 90
       50
102
RTVSPost2010PropOp47
 70
     1
102
RTVSPost2010Prop48
 90
       50
102
RTVSPost2010PropOp48
 70
     1
102
RTVSPost2010Prop49
280
     0
102
RTVSPost2010PropOp49
 70
     1
102
RTVSPost2010Prop50
 90
       50
102
RTVSPost2010PropOp50
 70
     1
102
RTVSPost2010Prop51ColorIndex
 90
      256
102
RTVSPost2010Prop51ColorRGB
 90
-16777216
102
RTVSPost2010PropOp51
 70
     0
102
RTVSPost2010Prop52
140
1.0
102
RTVSPost2010PropOp52
 70
     0
102
RTVSPost2010Prop53
 90
        2
102
RTVSPost2010PropOp53
 70
     1
102
RTVSPost2010Prop54
  1
strokes_ogs.tif
102
RTVSPost2010PropOp54
 70
     1
102
RTVSPost2010Prop55
280
     0
102
RTVSPost2010PropOp55
 70
     1
102
RTVSPost2010Prop56
140
1.0
102
RTVSPost2010PropOp56
 70
     1
102
RTVSPost2010Prop57
140
1.0
102
RTVSPost2010PropOp57
 70
     1
102
RTVSPropertyOp0
 70
     1
102
RTVSPropertyOp1
 70
     1
102
RTVSPropertyOp2
 70
     1
102
RTVSPropertyOp3
 70
     1
102
RTVSPropertyOp4
 70
     1
102
RTVSPropertyOp5
 70
     1
102
RTVSPropertyOp6
 70
     1
102
RTVSPropertyOp7
 70
     1
102
RTVSPropertyOp8
 70
     1
102
RTVSPropertyOp9
 70
     1
102
RTVSPropertyOp10
 70
     1
102
RTVSPropertyOp11
 70
     1
102
RTVSPropertyOp12
 70
     1
102
RTVSPropertyOp13
 70
     1
102
RTVSPropertyOp14
 70
     1
102
RTVSPropertyOp15
 70
     1
102
RTVSPropertyOp16
 70
     1
102
RTVSPropertyOp17
 70
     1
102
RTVSPropertyOp18
 70
     1
102
RTVSPropertyOp19
 70
     1
102
RTVSPropertyOp20
 70
     1
102
RTVSPropertyOp21
 70
     1
102
RTVSPropertyOp22
 70
     1
102
RTVSPropertyOp23
 70
     1
102
RTVSPropertyOp24
 70
     1
102
RTVSPropertyOp25
 70
     1
102
RTVSPropertyOp26
 70
     1
102
RTVSPropertyOp27
 70
     1
102
RTVSPropertyOp28
 70
     1
102
RTVSPropertyOp29
 70
     1
102
RTVSPropertyOp30
 70
     1
102
RTVSPropertyOp31
 70
     1
102
RTVSPropertyOp32
 70
     1
102
RTVSPropertyOp33
 70
     1
102
RTVSPropertyOp34
 70
     1
102
RTVSPropertyOp35
 70
     1
102
RTVSPropertyOp36
 70
     1
102
RTVSPropertyOp37
 70
     1
102
RTVSPropertyOp38
 70
     1
102
RTVSPropertyOp39
 70
     1
102
RTVSPropertyOp40
 70
     1
102
RTVSPropertyOp41
 70
     1
102
RTVSPropertyOp42
 70
     1
102
RTVSPropertyOp43
 70
     1
102
RTVSPropertyOp44
 70
     1
102
RTVSPropertyOp45
 70
     1
102
RTVSPropertyOp46
 70
     1
102
RTVSPropertyOp47
 70
     1
102
RTVSPropertyOp48
 70
     1
102
RTVSPropertyOp49
 70
     1
102
RTVSPropertyOp50
 70
     1
102
RTVSPropertyOp51
 70
     0
102
RTVSPropertyOp52
 70
     0
102
RTVSPropertyOp53
 70
     1
102
RTVSPropertyOp54
 70
     1
102
RTVSPropertyOp55
 70
     1
102
RTVSPropertyOp56
 70
     1
102
RTVSPropertyOp57
 70
     1
102
RTVSPropertyOp58
 70
     1
102
RTVSPropertyOp59
 70
     1
102
RTVSPropertyOp60
 70
     1
102
RTVSPropertyOp61
 70
     1
102
RTVSPropertyOp62
 70
     1
  0
XRECORD
  5
861F
102
{ACAD_REACTORS
330
861E
102
}
330
861E
100
AcDbXrecord
280
     1
102
RTVSPost2010Prop28
280
     0
102
RTVSPost2010PropOp28
 70
     1
102
RTVSPost2010Prop29
280
     1
102
RTVSPost2010PropOp29
 70
     1
102
RTVSPost2010Prop30
280
     1
102
RTVSPost2010PropOp30
 70
     1
102
RTVSPost2010Prop31
280
     0
102
RTVSPost2010PropOp31
 70
     1
102
RTVSPost2010Prop32
280
     0
102
RTVSPost2010PropOp32
 70
     1
102
RTVSPost2010Prop33
280
     0
102
RTVSPost2010PropOp33
 70
     1
102
RTVSPost2010Prop34
280
     0
102
RTVSPost2010PropOp34
 70
     1
102
RTVSPost2010Prop35
280
     0
102
RTVSPost2010PropOp35
 70
     1
102
RTVSPost2010Prop36
280
     0
102
RTVSPost2010PropOp36
 70
     1
102
RTVSPost2010Prop37
 90
       50
102
RTVSPost2010PropOp37
 70
     0
102
RTVSPost2010Prop38
140
0.0
102
RTVSPost2010PropOp38
 70
     0
102
RTVSPost2010Prop39
140
1.0
102
RTVSPost2010PropOp39
 70
     0
102
RTVSPost2010Prop40
 90
        0
102
RTVSPost2010PropOp40
 70
     0
102
RTVSPost2010Prop41ColorIndex
 90
       18
102
RTVSPost2010Prop41ColorRGB
 90
        0
102
RTVSPost2010PropOp41
 70
     0
102
RTVSPost2010Prop42
 90
       50
102
RTVSPost2010PropOp42
 70
     0
102
RTVSPost2010Prop43
 90
        3
102
RTVSPost2010PropOp43
 70
     0
102
RTVSPost2010Prop44ColorIndex
 90
        5
102
RTVSPost2010Prop44ColorRGB
 90
      255
102
RTVSPost2010PropOp44
 70
     0
102
RTVSPost2010Prop45
280
     0
102
RTVSPost2010PropOp45
 70
     1
102
RTVSPost2010Prop46
 90
       50
102
RTVSPost2010PropOp46
 70
     0
102
RTVSPost2010Prop47
 90
       50
102
RTVSPost2010PropOp47
 70
     0
102
RTVSPost2010Prop48
 90
       50
102
RTVSPost2010PropOp48
 70
     0
102
RTVSPost2010Prop49
280
     0
102
RTVSPost2010PropOp49
 70
     1
102
RTVSPost2010Prop50
 90
       50
102
RTVSPost2010PropOp50
 70
     0
102
RTVSPost2010Prop51ColorIndex
 90
      256
102
RTVSPost2010Prop51ColorRGB
 90
-16777216
102
RTVSPost2010PropOp51
 70
     0
102
RTVSPost2010Prop52
140
1.0
102
RTVSPost2010PropOp52
 70
     0
102
RTVSPost2010Prop53
 90
        2
102
RTVSPost2010PropOp53
 70
     0
102
RTVSPost2010Prop54
  1
strokes_ogs.tif
102
RTVSPost2010PropOp54
 70
     0
102
RTVSPost2010Prop55
280
     0
102
RTVSPost2010PropOp55
 70
     1
102
RTVSPost2010Prop56
140
1.0
102
RTVSPost2010PropOp56
 70
     0
102
RTVSPost2010Prop57
140
1.0
102
RTVSPost2010PropOp57
 70
     0
102
RTVSPropertyOp0
 70
     0
102
RTVSPropertyOp1
 70
     0
102
RTVSPropertyOp2
 70
     0
102
RTVSPropertyOp3
 70
     0
102
RTVSPropertyOp4
 70
     0
102
RTVSPropertyOp5
 70
     0
102
RTVSPropertyOp6
 70
     0
102
RTVSPropertyOp7
 70
     0
102
RTVSPropertyOp8
 70
     0
102
RTVSPropertyOp9
 70
     0
102
RTVSPropertyOp10
 70
     0
102
RTVSPropertyOp11
 70
     0
102
RTVSPropertyOp12
 70
     0
102
RTVSPropertyOp13
 70
     0
102
RTVSPropertyOp14
 70
     2
102
RTVSPropertyOp15
 70
     0
102
RTVSPropertyOp16
 70
     0
102
RTVSPropertyOp17
 70
     0
102
RTVSPropertyOp18
 70
     0
102
RTVSPropertyOp19
 70
     0
102
RTVSPropertyOp20
 70
     0
102
RTVSPropertyOp21
 70
     0
102
RTVSPropertyOp22
 70
     0
102
RTVSPropertyOp23
 70
     0
102
RTVSPropertyOp24
 70
     0
102
RTVSPropertyOp25
 70
     0
102
RTVSPropertyOp26
 70
     0
102
RTVSPropertyOp27
 70
     0
102
RTVSPropertyOp28
 70
     1
102
RTVSPropertyOp29
 70
     1
102
RTVSPropertyOp30
 70
     1
102
RTVSPropertyOp31
 70
     1
102
RTVSPropertyOp32
 70
     1
102
RTVSPropertyOp33
 70
     1
102
RTVSPropertyOp34
 70
     1
102
RTVSPropertyOp35
 70
     1
102
RTVSPropertyOp36
 70
     1
102
RTVSPropertyOp37
 70
     0
102
RTVSPropertyOp38
 70
     0
102
RTVSPropertyOp39
 70
     0
102
RTVSPropertyOp40
 70
     0
102
RTVSPropertyOp41
 70
     0
102
RTVSPropertyOp42
 70
     0
102
RTVSPropertyOp43
 70
     0
102
RTVSPropertyOp44
 70
     0
102
RTVSPropertyOp45
 70
     1
102
RTVSPropertyOp46
 70
     0
102
RTVSPropertyOp47
 70
     0
102
RTVSPropertyOp48
 70
     0
102
RTVSPropertyOp49
 70
     1
102
RTVSPropertyOp50
 70
     0
102
RTVSPropertyOp51
 70
     0
102
RTVSPropertyOp52
 70
     0
102
RTVSPropertyOp53
 70
     0
102
RTVSPropertyOp54
 70
     0
102
RTVSPropertyOp55
 70
     1
102
RTVSPropertyOp56
 70
     0
102
RTVSPropertyOp57
 70
     0
102
RTVSPropertyOp58
 70
     0
102
RTVSPropertyOp59
 70
     0
102
RTVSPropertyOp60
 70
     0
102
RTVSPropertyOp61
 70
     0
102
RTVSPropertyOp62
 70
     0
  0
XRECORD
  5
860D
102
{ACAD_REACTORS
330
860C
102
}
330
860C
100
AcDbXrecord
280
     1
102
RTVSPost2010Prop28
280
     0
102
RTVSPost2010PropOp28
 70
     1
102
RTVSPost2010Prop29
280
     1
102
RTVSPost2010PropOp29
 70
     1
102
RTVSPost2010Prop30
280
     1
102
RTVSPost2010PropOp30
 70
     1
102
RTVSPost2010Prop31
280
     0
102
RTVSPost2010PropOp31
 70
     1
102
RTVSPost2010Prop32
280
     0
102
RTVSPost2010PropOp32
 70
     1
102
RTVSPost2010Prop33
280
     0
102
RTVSPost2010PropOp33
 70
     1
102
RTVSPost2010Prop34
280
     0
102
RTVSPost2010PropOp34
 70
     1
102
RTVSPost2010Prop35
280
     0
102
RTVSPost2010PropOp35
 70
     1
102
RTVSPost2010Prop36
280
     0
102
RTVSPost2010PropOp36
 70
     1
102
RTVSPost2010Prop37
 90
       50
102
RTVSPost2010PropOp37
 70
     1
102
RTVSPost2010Prop38
140
0.0
102
RTVSPost2010PropOp38
 70
     1
102
RTVSPost2010Prop39
140
1.0
102
RTVSPost2010PropOp39
 70
     1
102
RTVSPost2010Prop40
 90
        0
102
RTVSPost2010PropOp40
 70
     1
102
RTVSPost2010Prop41ColorIndex
 90
       18
102
RTVSPost2010Prop41ColorRGB
 90
        0
102
RTVSPost2010PropOp41
 70
     1
102
RTVSPost2010Prop42
 90
       50
102
RTVSPost2010PropOp42
 70
     1
102
RTVSPost2010Prop43
 90
        3
102
RTVSPost2010PropOp43
 70
     1
102
RTVSPost2010Prop44ColorIndex
 90
        5
102
RTVSPost2010Prop44ColorRGB
 90
      255
102
RTVSPost2010PropOp44
 70
     1
102
RTVSPost2010Prop45
280
     0
102
RTVSPost2010PropOp45
 70
     1
102
RTVSPost2010Prop46
 90
       50
102
RTVSPost2010PropOp46
 70
     1
102
RTVSPost2010Prop47
 90
       50
102
RTVSPost2010PropOp47
 70
     1
102
RTVSPost2010Prop48
 90
       50
102
RTVSPost2010PropOp48
 70
     1
102
RTVSPost2010Prop49
280
     0
102
RTVSPost2010PropOp49
 70
     1
102
RTVSPost2010Prop50
 90
       50
102
RTVSPost2010PropOp50
 70
     1
102
RTVSPost2010Prop51ColorIndex
 90
      256
102
RTVSPost2010Prop51ColorRGB
 90
-16777216
102
RTVSPost2010PropOp51
 70
     0
102
RTVSPost2010Prop52
140
1.0
102
RTVSPost2010PropOp52
 70
     0
102
RTVSPost2010Prop53
 90
        2
102
RTVSPost2010PropOp53
 70
     1
102
RTVSPost2010Prop54
  1
strokes_ogs.tif
102
RTVSPost2010PropOp54
 70
     1
102
RTVSPost2010Prop55
280
     0
102
RTVSPost2010PropOp55
 70
     1
102
RTVSPost2010Prop56
140
1.0
102
RTVSPost2010PropOp56
 70
     1
102
RTVSPost2010Prop57
140
1.0
102
RTVSPost2010PropOp57
 70
     1
102
RTVSPropertyOp0
 70
     1
102
RTVSPropertyOp1
 70
     1
102
RTVSPropertyOp2
 70
     1
102
RTVSPropertyOp3
 70
     1
102
RTVSPropertyOp4
 70
     1
102
RTVSPropertyOp5
 70
     1
102
RTVSPropertyOp6
 70
     1
102
RTVSPropertyOp7
 70
     1
102
RTVSPropertyOp8
 70
     1
102
RTVSPropertyOp9
 70
     1
102
RTVSPropertyOp10
 70
     1
102
RTVSPropertyOp11
 70
     1
102
RTVSPropertyOp12
 70
     1
102
RTVSPropertyOp13
 70
     1
102
RTVSPropertyOp14
 70
     1
102
RTVSPropertyOp15
 70
     1
102
RTVSPropertyOp16
 70
     1
102
RTVSPropertyOp17
 70
     1
102
RTVSPropertyOp18
 70
     1
102
RTVSPropertyOp19
 70
     1
102
RTVSPropertyOp20
 70
     1
102
RTVSPropertyOp21
 70
     1
102
RTVSPropertyOp22
 70
     1
102
RTVSPropertyOp23
 70
     1
102
RTVSPropertyOp24
 70
     1
102
RTVSPropertyOp25
 70
     1
102
RTVSPropertyOp26
 70
     1
102
RTVSPropertyOp27
 70
     1
102
RTVSPropertyOp28
 70
     1
102
RTVSPropertyOp29
 70
     1
102
RTVSPropertyOp30
 70
     1
102
RTVSPropertyOp31
 70
     1
102
RTVSPropertyOp32
 70
     1
102
RTVSPropertyOp33
 70
     1
102
RTVSPropertyOp34
 70
     1
102
RTVSPropertyOp35
 70
     1
102
RTVSPropertyOp36
 70
     1
102
RTVSPropertyOp37
 70
     1
102
RTVSPropertyOp38
 70
     1
102
RTVSPropertyOp39
 70
     1
102
RTVSPropertyOp40
 70
     1
102
RTVSPropertyOp41
 70
     1
102
RTVSPropertyOp42
 70
     1
102
RTVSPropertyOp43
 70
     1
102
RTVSPropertyOp44
 70
     1
102
RTVSPropertyOp45
 70
     1
102
RTVSPropertyOp46
 70
     1
102
RTVSPropertyOp47
 70
     1
102
RTVSPropertyOp48
 70
     1
102
RTVSPropertyOp49
 70
     1
102
RTVSPropertyOp50
 70
     1
102
RTVSPropertyOp51
 70
     0
102
RTVSPropertyOp52
 70
     0
102
RTVSPropertyOp53
 70
     1
102
RTVSPropertyOp54
 70
     1
102
RTVSPropertyOp55
 70
     1
102
RTVSPropertyOp56
 70
     1
102
RTVSPropertyOp57
 70
     1
102
RTVSPropertyOp58
 70
     1
102
RTVSPropertyOp59
 70
     1
102
RTVSPropertyOp60
 70
     1
102
RTVSPropertyOp61
 70
     1
102
RTVSPropertyOp62
 70
     1
  0
XRECORD
  5
85F1
102
{ACAD_REACTORS
330
85F0
102
}
330
85F0
100
AcDbXrecord
280
     1
102
RTVSPost2010Prop28
280
     0
102
RTVSPost2010PropOp28
 70
     1
102
RTVSPost2010Prop29
280
     1
102
RTVSPost2010PropOp29
 70
     1
102
RTVSPost2010Prop30
280
     1
102
RTVSPost2010PropOp30
 70
     1
102
RTVSPost2010Prop31
280
     0
102
RTVSPost2010PropOp31
 70
     1
102
RTVSPost2010Prop32
280
     0
102
RTVSPost2010PropOp32
 70
     1
102
RTVSPost2010Prop33
280
     0
102
RTVSPost2010PropOp33
 70
     1
102
RTVSPost2010Prop34
280
     0
102
RTVSPost2010PropOp34
 70
     1
102
RTVSPost2010Prop35
280
     0
102
RTVSPost2010PropOp35
 70
     1
102
RTVSPost2010Prop36
280
     0
102
RTVSPost2010PropOp36
 70
     1
102
RTVSPost2010Prop37
 90
       50
102
RTVSPost2010PropOp37
 70
     1
102
RTVSPost2010Prop38
140
0.0
102
RTVSPost2010PropOp38
 70
     1
102
RTVSPost2010Prop39
140
1.0
102
RTVSPost2010PropOp39
 70
     1
102
RTVSPost2010Prop40
 90
        0
102
RTVSPost2010PropOp40
 70
     1
102
RTVSPost2010Prop41ColorIndex
 90
       18
102
RTVSPost2010Prop41ColorRGB
 90
        0
102
RTVSPost2010PropOp41
 70
     1
102
RTVSPost2010Prop42
 90
       50
102
RTVSPost2010PropOp42
 70
     1
102
RTVSPost2010Prop43
 90
        3
102
RTVSPost2010PropOp43
 70
     1
102
RTVSPost2010Prop44ColorIndex
 90
        5
102
RTVSPost2010Prop44ColorRGB
 90
      255
102
RTVSPost2010PropOp44
 70
     1
102
RTVSPost2010Prop45
280
     0
102
RTVSPost2010PropOp45
 70
     1
102
RTVSPost2010Prop46
 90
       50
102
RTVSPost2010PropOp46
 70
     1
102
RTVSPost2010Prop47
 90
       50
102
RTVSPost2010PropOp47
 70
     1
102
RTVSPost2010Prop48
 90
       50
102
RTVSPost2010PropOp48
 70
     1
102
RTVSPost2010Prop49
280
     0
102
RTVSPost2010PropOp49
 70
     1
102
RTVSPost2010Prop50
 90
       50
102
RTVSPost2010PropOp50
 70
     1
102
RTVSPost2010Prop51ColorIndex
 90
      256
102
RTVSPost2010Prop51ColorRGB
 90
-16777216
102
RTVSPost2010PropOp51
 70
     0
102
RTVSPost2010Prop52
140
1.0
102
RTVSPost2010PropOp52
 70
     0
102
RTVSPost2010Prop53
 90
        2
102
RTVSPost2010PropOp53
 70
     1
102
RTVSPost2010Prop54
  1
strokes_ogs.tif
102
RTVSPost2010PropOp54
 70
     1
102
RTVSPost2010Prop55
280
     0
102
RTVSPost2010PropOp55
 70
     1
102
RTVSPost2010Prop56
140
1.0
102
RTVSPost2010PropOp56
 70
     1
102
RTVSPost2010Prop57
140
1.0
102
RTVSPost2010PropOp57
 70
     1
102
RTVSPropertyOp0
 70
     1
102
RTVSPropertyOp1
 70
     1
102
RTVSPropertyOp2
 70
     1
102
RTVSPropertyOp3
 70
     1
102
RTVSPropertyOp4
 70
     1
102
RTVSPropertyOp5
 70
     1
102
RTVSPropertyOp6
 70
     1
102
RTVSPropertyOp7
 70
     1
102
RTVSPropertyOp8
 70
     1
102
RTVSPropertyOp9
 70
     1
102
RTVSPropertyOp10
 70
     1
102
RTVSPropertyOp11
 70
     1
102
RTVSPropertyOp12
 70
     1
102
RTVSPropertyOp13
 70
     1
102
RTVSPropertyOp14
 70
     1
102
RTVSPropertyOp15
 70
     1
102
RTVSPropertyOp16
 70
     1
102
RTVSPropertyOp17
 70
     1
102
RTVSPropertyOp18
 70
     1
102
RTVSPropertyOp19
 70
     1
102
RTVSPropertyOp20
 70
     1
102
RTVSPropertyOp21
 70
     1
102
RTVSPropertyOp22
 70
     1
102
RTVSPropertyOp23
 70
     1
102
RTVSPropertyOp24
 70
     1
102
RTVSPropertyOp25
 70
     1
102
RTVSPropertyOp26
 70
     1
102
RTVSPropertyOp27
 70
     1
102
RTVSPropertyOp28
 70
     1
102
RTVSPropertyOp29
 70
     1
102
RTVSPropertyOp30
 70
     1
102
RTVSPropertyOp31
 70
     1
102
RTVSPropertyOp32
 70
     1
102
RTVSPropertyOp33
 70
     1
102
RTVSPropertyOp34
 70
     1
102
RTVSPropertyOp35
 70
     1
102
RTVSPropertyOp36
 70
     1
102
RTVSPropertyOp37
 70
     1
102
RTVSPropertyOp38
 70
     1
102
RTVSPropertyOp39
 70
     1
102
RTVSPropertyOp40
 70
     1
102
RTVSPropertyOp41
 70
     1
102
RTVSPropertyOp42
 70
     1
102
RTVSPropertyOp43
 70
     1
102
RTVSPropertyOp44
 70
     1
102
RTVSPropertyOp45
 70
     1
102
RTVSPropertyOp46
 70
     1
102
RTVSPropertyOp47
 70
     1
102
RTVSPropertyOp48
 70
     1
102
RTVSPropertyOp49
 70
     1
102
RTVSPropertyOp50
 70
     1
102
RTVSPropertyOp51
 70
     0
102
RTVSPropertyOp52
 70
     0
102
RTVSPropertyOp53
 70
     1
102
RTVSPropertyOp54
 70
     1
102
RTVSPropertyOp55
 70
     1
102
RTVSPropertyOp56
 70
     1
102
RTVSPropertyOp57
 70
     1
102
RTVSPropertyOp58
 70
     1
102
RTVSPropertyOp59
 70
     1
102
RTVSPropertyOp60
 70
     1
102
RTVSPropertyOp61
 70
     1
102
RTVSPropertyOp62
 70
     1
  0
XRECORD
  5
85F3
102
{ACAD_REACTORS
330
85F2
102
}
330
85F2
100
AcDbXrecord
280
     1
102
RTVSPost2010Prop28
280
     0
102
RTVSPost2010PropOp28
 70
     1
102
RTVSPost2010Prop29
280
     1
102
RTVSPost2010PropOp29
 70
     1
102
RTVSPost2010Prop30
280
     1
102
RTVSPost2010PropOp30
 70
     1
102
RTVSPost2010Prop31
280
     0
102
RTVSPost2010PropOp31
 70
     1
102
RTVSPost2010Prop32
280
     0
102
RTVSPost2010PropOp32
 70
     1
102
RTVSPost2010Prop33
280
     0
102
RTVSPost2010PropOp33
 70
     1
102
RTVSPost2010Prop34
280
     0
102
RTVSPost2010PropOp34
 70
     1
102
RTVSPost2010Prop35
280
     0
102
RTVSPost2010PropOp35
 70
     1
102
RTVSPost2010Prop36
280
     0
102
RTVSPost2010PropOp36
 70
     1
102
RTVSPost2010Prop37
 90
       50
102
RTVSPost2010PropOp37
 70
     1
102
RTVSPost2010Prop38
140
0.0
102
RTVSPost2010PropOp38
 70
     1
102
RTVSPost2010Prop39
140
1.0
102
RTVSPost2010PropOp39
 70
     1
102
RTVSPost2010Prop40
 90
        0
102
RTVSPost2010PropOp40
 70
     1
102
RTVSPost2010Prop41ColorIndex
 90
       18
102
RTVSPost2010Prop41ColorRGB
 90
        0
102
RTVSPost2010PropOp41
 70
     1
102
RTVSPost2010Prop42
 90
       50
102
RTVSPost2010PropOp42
 70
     1
102
RTVSPost2010Prop43
 90
        3
102
RTVSPost2010PropOp43
 70
     1
102
RTVSPost2010Prop44ColorIndex
 90
        5
102
RTVSPost2010Prop44ColorRGB
 90
      255
102
RTVSPost2010PropOp44
 70
     1
102
RTVSPost2010Prop45
280
     0
102
RTVSPost2010PropOp45
 70
     1
102
RTVSPost2010Prop46
 90
       50
102
RTVSPost2010PropOp46
 70
     1
102
RTVSPost2010Prop47
 90
       50
102
RTVSPost2010PropOp47
 70
     1
102
RTVSPost2010Prop48
 90
       50
102
RTVSPost2010PropOp48
 70
     1
102
RTVSPost2010Prop49
280
     0
102
RTVSPost2010PropOp49
 70
     1
102
RTVSPost2010Prop50
 90
       50
102
RTVSPost2010PropOp50
 70
     1
102
RTVSPost2010Prop51ColorIndex
 90
      256
102
RTVSPost2010Prop51ColorRGB
 90
-16777216
102
RTVSPost2010PropOp51
 70
     0
102
RTVSPost2010Prop52
140
1.0
102
RTVSPost2010PropOp52
 70
     0
102
RTVSPost2010Prop53
 90
        2
102
RTVSPost2010PropOp53
 70
     1
102
RTVSPost2010Prop54
  1
strokes_ogs.tif
102
RTVSPost2010PropOp54
 70
     1
102
RTVSPost2010Prop55
280
     0
102
RTVSPost2010PropOp55
 70
     1
102
RTVSPost2010Prop56
140
1.0
102
RTVSPost2010PropOp56
 70
     1
102
RTVSPost2010Prop57
140
1.0
102
RTVSPost2010PropOp57
 70
     1
102
RTVSPropertyOp0
 70
     1
102
RTVSPropertyOp1
 70
     1
102
RTVSPropertyOp2
 70
     1
102
RTVSPropertyOp3
 70
     1
102
RTVSPropertyOp4
 70
     1
102
RTVSPropertyOp5
 70
     1
102
RTVSPropertyOp6
 70
     1
102
RTVSPropertyOp7
 70
     1
102
RTVSPropertyOp8
 70
     1
102
RTVSPropertyOp9
 70
     1
102
RTVSPropertyOp10
 70
     1
102
RTVSPropertyOp11
 70
     1
102
RTVSPropertyOp12
 70
     1
102
RTVSPropertyOp13
 70
     1
102
RTVSPropertyOp14
 70
     1
102
RTVSPropertyOp15
 70
     1
102
RTVSPropertyOp16
 70
     1
102
RTVSPropertyOp17
 70
     1
102
RTVSPropertyOp18
 70
     1
102
RTVSPropertyOp19
 70
     1
102
RTVSPropertyOp20
 70
     1
102
RTVSPropertyOp21
 70
     1
102
RTVSPropertyOp22
 70
     1
102
RTVSPropertyOp23
 70
     1
102
RTVSPropertyOp24
 70
     1
102
RTVSPropertyOp25
 70
     1
102
RTVSPropertyOp26
 70
     1
102
RTVSPropertyOp27
 70
     1
102
RTVSPropertyOp28
 70
     1
102
RTVSPropertyOp29
 70
     1
102
RTVSPropertyOp30
 70
     1
102
RTVSPropertyOp31
 70
     1
102
RTVSPropertyOp32
 70
     1
102
RTVSPropertyOp33
 70
     1
102
RTVSPropertyOp34
 70
     1
102
RTVSPropertyOp35
 70
     1
102
RTVSPropertyOp36
 70
     1
102
RTVSPropertyOp37
 70
     1
102
RTVSPropertyOp38
 70
     1
102
RTVSPropertyOp39
 70
     1
102
RTVSPropertyOp40
 70
     1
102
RTVSPropertyOp41
 70
     1
102
RTVSPropertyOp42
 70
     1
102
RTVSPropertyOp43
 70
     1
102
RTVSPropertyOp44
 70
     1
102
RTVSPropertyOp45
 70
     1
102
RTVSPropertyOp46
 70
     1
102
RTVSPropertyOp47
 70
     1
102
RTVSPropertyOp48
 70
     1
102
RTVSPropertyOp49
 70
     1
102
RTVSPropertyOp50
 70
     1
102
RTVSPropertyOp51
 70
     0
102
RTVSPropertyOp52
 70
     0
102
RTVSPropertyOp53
 70
     1
102
RTVSPropertyOp54
 70
     1
102
RTVSPropertyOp55
 70
     1
102
RTVSPropertyOp56
 70
     1
102
RTVSPropertyOp57
 70
     1
102
RTVSPropertyOp58
 70
     1
102
RTVSPropertyOp59
 70
     1
102
RTVSPropertyOp60
 70
     1
102
RTVSPropertyOp61
 70
     1
102
RTVSPropertyOp62
 70
     1
  0
XRECORD
  5
85F5
102
{ACAD_REACTORS
330
85F4
102
}
330
85F4
100
AcDbXrecord
280
     1
102
RTVSPost2010Prop28
280
     0
102
RTVSPost2010PropOp28
 70
     1
102
RTVSPost2010Prop29
280
     1
102
RTVSPost2010PropOp29
 70
     1
102
RTVSPost2010Prop30
280
     1
102
RTVSPost2010PropOp30
 70
     1
102
RTVSPost2010Prop31
280
     0
102
RTVSPost2010PropOp31
 70
     1
102
RTVSPost2010Prop32
280
     0
102
RTVSPost2010PropOp32
 70
     1
102
RTVSPost2010Prop33
280
     0
102
RTVSPost2010PropOp33
 70
     1
102
RTVSPost2010Prop34
280
     0
102
RTVSPost2010PropOp34
 70
     1
102
RTVSPost2010Prop35
280
     0
102
RTVSPost2010PropOp35
 70
     1
102
RTVSPost2010Prop36
280
     0
102
RTVSPost2010PropOp36
 70
     1
102
RTVSPost2010Prop37
 90
       50
102
RTVSPost2010PropOp37
 70
     1
102
RTVSPost2010Prop38
140
0.0
102
RTVSPost2010PropOp38
 70
     1
102
RTVSPost2010Prop39
140
1.0
102
RTVSPost2010PropOp39
 70
     1
102
RTVSPost2010Prop40
 90
        0
102
RTVSPost2010PropOp40
 70
     1
102
RTVSPost2010Prop41ColorIndex
 90
       18
102
RTVSPost2010Prop41ColorRGB
 90
        0
102
RTVSPost2010PropOp41
 70
     1
102
RTVSPost2010Prop42
 90
       50
102
RTVSPost2010PropOp42
 70
     1
102
RTVSPost2010Prop43
 90
        3
102
RTVSPost2010PropOp43
 70
     1
102
RTVSPost2010Prop44ColorIndex
 90
        5
102
RTVSPost2010Prop44ColorRGB
 90
      255
102
RTVSPost2010PropOp44
 70
     1
102
RTVSPost2010Prop45
280
     0
102
RTVSPost2010PropOp45
 70
     1
102
RTVSPost2010Prop46
 90
       50
102
RTVSPost2010PropOp46
 70
     1
102
RTVSPost2010Prop47
 90
       50
102
RTVSPost2010PropOp47
 70
     1
102
RTVSPost2010Prop48
 90
       50
102
RTVSPost2010PropOp48
 70
     1
102
RTVSPost2010Prop49
280
     0
102
RTVSPost2010PropOp49
 70
     1
102
RTVSPost2010Prop50
 90
       50
102
RTVSPost2010PropOp50
 70
     1
102
RTVSPost2010Prop51ColorIndex
 90
      256
102
RTVSPost2010Prop51ColorRGB
 90
-16777216
102
RTVSPost2010PropOp51
 70
     0
102
RTVSPost2010Prop52
140
1.0
102
RTVSPost2010PropOp52
 70
     0
102
RTVSPost2010Prop53
 90
        2
102
RTVSPost2010PropOp53
 70
     1
102
RTVSPost2010Prop54
  1
strokes_ogs.tif
102
RTVSPost2010PropOp54
 70
     1
102
RTVSPost2010Prop55
280
     0
102
RTVSPost2010PropOp55
 70
     1
102
RTVSPost2010Prop56
140
1.0
102
RTVSPost2010PropOp56
 70
     1
102
RTVSPost2010Prop57
140
1.0
102
RTVSPost2010PropOp57
 70
     1
102
RTVSPropertyOp0
 70
     1
102
RTVSPropertyOp1
 70
     1
102
RTVSPropertyOp2
 70
     1
102
RTVSPropertyOp3
 70
     1
102
RTVSPropertyOp4
 70
     1
102
RTVSPropertyOp5
 70
     1
102
RTVSPropertyOp6
 70
     1
102
RTVSPropertyOp7
 70
     1
102
RTVSPropertyOp8
 70
     1
102
RTVSPropertyOp9
 70
     1
102
RTVSPropertyOp10
 70
     1
102
RTVSPropertyOp11
 70
     1
102
RTVSPropertyOp12
 70
     1
102
RTVSPropertyOp13
 70
     1
102
RTVSPropertyOp14
 70
     1
102
RTVSPropertyOp15
 70
     1
102
RTVSPropertyOp16
 70
     1
102
RTVSPropertyOp17
 70
     1
102
RTVSPropertyOp18
 70
     1
102
RTVSPropertyOp19
 70
     1
102
RTVSPropertyOp20
 70
     1
102
RTVSPropertyOp21
 70
     1
102
RTVSPropertyOp22
 70
     1
102
RTVSPropertyOp23
 70
     1
102
RTVSPropertyOp24
 70
     1
102
RTVSPropertyOp25
 70
     1
102
RTVSPropertyOp26
 70
     1
102
RTVSPropertyOp27
 70
     1
102
RTVSPropertyOp28
 70
     1
102
RTVSPropertyOp29
 70
     1
102
RTVSPropertyOp30
 70
     1
102
RTVSPropertyOp31
 70
     1
102
RTVSPropertyOp32
 70
     1
102
RTVSPropertyOp33
 70
     1
102
RTVSPropertyOp34
 70
     1
102
RTVSPropertyOp35
 70
     1
102
RTVSPropertyOp36
 70
     1
102
RTVSPropertyOp37
 70
     1
102
RTVSPropertyOp38
 70
     1
102
RTVSPropertyOp39
 70
     1
102
RTVSPropertyOp40
 70
     1
102
RTVSPropertyOp41
 70
     1
102
RTVSPropertyOp42
 70
     1
102
RTVSPropertyOp43
 70
     1
102
RTVSPropertyOp44
 70
     1
102
RTVSPropertyOp45
 70
     1
102
RTVSPropertyOp46
 70
     1
102
RTVSPropertyOp47
 70
     1
102
RTVSPropertyOp48
 70
     1
102
RTVSPropertyOp49
 70
     1
102
RTVSPropertyOp50
 70
     1
102
RTVSPropertyOp51
 70
     0
102
RTVSPropertyOp52
 70
     0
102
RTVSPropertyOp53
 70
     1
102
RTVSPropertyOp54
 70
     1
102
RTVSPropertyOp55
 70
     1
102
RTVSPropertyOp56
 70
     1
102
RTVSPropertyOp57
 70
     1
102
RTVSPropertyOp58
 70
     1
102
RTVSPropertyOp59
 70
     1
102
RTVSPropertyOp60
 70
     1
102
RTVSPropertyOp61
 70
     1
102
RTVSPropertyOp62
 70
     1
  0
XRECORD
  5
85F7
102
{ACAD_REACTORS
330
85F6
102
}
330
85F6
100
AcDbXrecord
280
     1
102
RTVSPost2010Prop28
280
     0
102
RTVSPost2010PropOp28
 70
     1
102
RTVSPost2010Prop29
280
     1
102
RTVSPost2010PropOp29
 70
     1
102
RTVSPost2010Prop30
280
     1
102
RTVSPost2010PropOp30
 70
     1
102
RTVSPost2010Prop31
280
     0
102
RTVSPost2010PropOp31
 70
     1
102
RTVSPost2010Prop32
280
     0
102
RTVSPost2010PropOp32
 70
     1
102
RTVSPost2010Prop33
280
     0
102
RTVSPost2010PropOp33
 70
     1
102
RTVSPost2010Prop34
280
     0
102
RTVSPost2010PropOp34
 70
     1
102
RTVSPost2010Prop35
280
     0
102
RTVSPost2010PropOp35
 70
     1
102
RTVSPost2010Prop36
280
     0
102
RTVSPost2010PropOp36
 70
     1
102
RTVSPost2010Prop37
 90
       50
102
RTVSPost2010PropOp37
 70
     1
102
RTVSPost2010Prop38
140
0.0
102
RTVSPost2010PropOp38
 70
     1
102
RTVSPost2010Prop39
140
1.0
102
RTVSPost2010PropOp39
 70
     1
102
RTVSPost2010Prop40
 90
        0
102
RTVSPost2010PropOp40
 70
     1
102
RTVSPost2010Prop41ColorIndex
 90
       18
102
RTVSPost2010Prop41ColorRGB
 90
        0
102
RTVSPost2010PropOp41
 70
     1
102
RTVSPost2010Prop42
 90
       50
102
RTVSPost2010PropOp42
 70
     1
102
RTVSPost2010Prop43
 90
        3
102
RTVSPost2010PropOp43
 70
     1
102
RTVSPost2010Prop44ColorIndex
 90
        5
102
RTVSPost2010Prop44ColorRGB
 90
      255
102
RTVSPost2010PropOp44
 70
     1
102
RTVSPost2010Prop45
280
     0
102
RTVSPost2010PropOp45
 70
     1
102
RTVSPost2010Prop46
 90
       50
102
RTVSPost2010PropOp46
 70
     1
102
RTVSPost2010Prop47
 90
       50
102
RTVSPost2010PropOp47
 70
     1
102
RTVSPost2010Prop48
 90
       50
102
RTVSPost2010PropOp48
 70
     1
102
RTVSPost2010Prop49
280
     0
102
RTVSPost2010PropOp49
 70
     1
102
RTVSPost2010Prop50
 90
       50
102
RTVSPost2010PropOp50
 70
     1
102
RTVSPost2010Prop51ColorIndex
 90
      256
102
RTVSPost2010Prop51ColorRGB
 90
-16777216
102
RTVSPost2010PropOp51
 70
     0
102
RTVSPost2010Prop52
140
1.0
102
RTVSPost2010PropOp52
 70
     0
102
RTVSPost2010Prop53
 90
        2
102
RTVSPost2010PropOp53
 70
     1
102
RTVSPost2010Prop54
  1
strokes_ogs.tif
102
RTVSPost2010PropOp54
 70
     1
102
RTVSPost2010Prop55
280
     0
102
RTVSPost2010PropOp55
 70
     1
102
RTVSPost2010Prop56
140
1.0
102
RTVSPost2010PropOp56
 70
     1
102
RTVSPost2010Prop57
140
1.0
102
RTVSPost2010PropOp57
 70
     1
102
RTVSPropertyOp0
 70
     1
102
RTVSPropertyOp1
 70
     1
102
RTVSPropertyOp2
 70
     1
102
RTVSPropertyOp3
 70
     1
102
RTVSPropertyOp4
 70
     1
102
RTVSPropertyOp5
 70
     1
102
RTVSPropertyOp6
 70
     1
102
RTVSPropertyOp7
 70
     1
102
RTVSPropertyOp8
 70
     1
102
RTVSPropertyOp9
 70
     1
102
RTVSPropertyOp10
 70
     1
102
RTVSPropertyOp11
 70
     1
102
RTVSPropertyOp12
 70
     1
102
RTVSPropertyOp13
 70
     1
102
RTVSPropertyOp14
 70
     1
102
RTVSPropertyOp15
 70
     1
102
RTVSPropertyOp16
 70
     1
102
RTVSPropertyOp17
 70
     1
102
RTVSPropertyOp18
 70
     1
102
RTVSPropertyOp19
 70
     1
102
RTVSPropertyOp20
 70
     1
102
RTVSPropertyOp21
 70
     1
102
RTVSPropertyOp22
 70
     1
102
RTVSPropertyOp23
 70
     1
102
RTVSPropertyOp24
 70
     1
102
RTVSPropertyOp25
 70
     1
102
RTVSPropertyOp26
 70
     1
102
RTVSPropertyOp27
 70
     1
102
RTVSPropertyOp28
 70
     1
102
RTVSPropertyOp29
 70
     1
102
RTVSPropertyOp30
 70
     1
102
RTVSPropertyOp31
 70
     1
102
RTVSPropertyOp32
 70
     1
102
RTVSPropertyOp33
 70
     1
102
RTVSPropertyOp34
 70
     1
102
RTVSPropertyOp35
 70
     1
102
RTVSPropertyOp36
 70
     1
102
RTVSPropertyOp37
 70
     1
102
RTVSPropertyOp38
 70
     1
102
RTVSPropertyOp39
 70
     1
102
RTVSPropertyOp40
 70
     1
102
RTVSPropertyOp41
 70
     1
102
RTVSPropertyOp42
 70
     1
102
RTVSPropertyOp43
 70
     1
102
RTVSPropertyOp44
 70
     1
102
RTVSPropertyOp45
 70
     1
102
RTVSPropertyOp46
 70
     1
102
RTVSPropertyOp47
 70
     1
102
RTVSPropertyOp48
 70
     1
102
RTVSPropertyOp49
 70
     1
102
RTVSPropertyOp50
 70
     1
102
RTVSPropertyOp51
 70
     0
102
RTVSPropertyOp52
 70
     0
102
RTVSPropertyOp53
 70
     1
102
RTVSPropertyOp54
 70
     1
102
RTVSPropertyOp55
 70
     1
102
RTVSPropertyOp56
 70
     1
102
RTVSPropertyOp57
 70
     1
102
RTVSPropertyOp58
 70
     1
102
RTVSPropertyOp59
 70
     1
102
RTVSPropertyOp60
 70
     1
102
RTVSPropertyOp61
 70
     1
102
RTVSPropertyOp62
 70
     1
  0
XRECORD
  5
85FF
102
{ACAD_REACTORS
330
85FE
102
}
330
85FE
100
AcDbXrecord
280
     1
102
RTVSPost2010Prop28
280
     0
102
RTVSPost2010PropOp28
 70
     1
102
RTVSPost2010Prop29
280
     1
102
RTVSPost2010PropOp29
 70
     1
102
RTVSPost2010Prop30
280
     1
102
RTVSPost2010PropOp30
 70
     1
102
RTVSPost2010Prop31
280
     0
102
RTVSPost2010PropOp31
 70
     1
102
RTVSPost2010Prop32
280
     0
102
RTVSPost2010PropOp32
 70
     1
102
RTVSPost2010Prop33
280
     0
102
RTVSPost2010PropOp33
 70
     1
102
RTVSPost2010Prop34
280
     0
102
RTVSPost2010PropOp34
 70
     1
102
RTVSPost2010Prop35
280
     0
102
RTVSPost2010PropOp35
 70
     1
102
RTVSPost2010Prop36
280
     0
102
RTVSPost2010PropOp36
 70
     1
102
RTVSPost2010Prop37
 90
       50
102
RTVSPost2010PropOp37
 70
     1
102
RTVSPost2010Prop38
140
0.0
102
RTVSPost2010PropOp38
 70
     1
102
RTVSPost2010Prop39
140
1.0
102
RTVSPost2010PropOp39
 70
     1
102
RTVSPost2010Prop40
 90
        0
102
RTVSPost2010PropOp40
 70
     1
102
RTVSPost2010Prop41ColorIndex
 90
       18
102
RTVSPost2010Prop41ColorRGB
 90
        0
102
RTVSPost2010PropOp41
 70
     1
102
RTVSPost2010Prop42
 90
       50
102
RTVSPost2010PropOp42
 70
     1
102
RTVSPost2010Prop43
 90
        3
102
RTVSPost2010PropOp43
 70
     1
102
RTVSPost2010Prop44ColorIndex
 90
        5
102
RTVSPost2010Prop44ColorRGB
 90
      255
102
RTVSPost2010PropOp44
 70
     1
102
RTVSPost2010Prop45
280
     0
102
RTVSPost2010PropOp45
 70
     1
102
RTVSPost2010Prop46
 90
       50
102
RTVSPost2010PropOp46
 70
     1
102
RTVSPost2010Prop47
 90
       50
102
RTVSPost2010PropOp47
 70
     1
102
RTVSPost2010Prop48
 90
       50
102
RTVSPost2010PropOp48
 70
     1
102
RTVSPost2010Prop49
280
     0
102
RTVSPost2010PropOp49
 70
     1
102
RTVSPost2010Prop50
 90
       50
102
RTVSPost2010PropOp50
 70
     1
102
RTVSPost2010Prop51ColorIndex
 90
      256
102
RTVSPost2010Prop51ColorRGB
 90
-16777216
102
RTVSPost2010PropOp51
 70
     0
102
RTVSPost2010Prop52
140
1.0
102
RTVSPost2010PropOp52
 70
     0
102
RTVSPost2010Prop53
 90
        2
102
RTVSPost2010PropOp53
 70
     1
102
RTVSPost2010Prop54
  1
strokes_ogs.tif
102
RTVSPost2010PropOp54
 70
     1
102
RTVSPost2010Prop55
280
     0
102
RTVSPost2010PropOp55
 70
     1
102
RTVSPost2010Prop56
140
1.0
102
RTVSPost2010PropOp56
 70
     1
102
RTVSPost2010Prop57
140
1.0
102
RTVSPost2010PropOp57
 70
     1
102
RTVSPropertyOp0
 70
     1
102
RTVSPropertyOp1
 70
     1
102
RTVSPropertyOp2
 70
     1
102
RTVSPropertyOp3
 70
     1
102
RTVSPropertyOp4
 70
     1
102
RTVSPropertyOp5
 70
     1
102
RTVSPropertyOp6
 70
     1
102
RTVSPropertyOp7
 70
     1
102
RTVSPropertyOp8
 70
     1
102
RTVSPropertyOp9
 70
     1
102
RTVSPropertyOp10
 70
     1
102
RTVSPropertyOp11
 70
     1
102
RTVSPropertyOp12
 70
     1
102
RTVSPropertyOp13
 70
     1
102
RTVSPropertyOp14
 70
     1
102
RTVSPropertyOp15
 70
     1
102
RTVSPropertyOp16
 70
     1
102
RTVSPropertyOp17
 70
     1
102
RTVSPropertyOp18
 70
     1
102
RTVSPropertyOp19
 70
     1
102
RTVSPropertyOp20
 70
     1
102
RTVSPropertyOp21
 70
     1
102
RTVSPropertyOp22
 70
     1
102
RTVSPropertyOp23
 70
     1
102
RTVSPropertyOp24
 70
     1
102
RTVSPropertyOp25
 70
     1
102
RTVSPropertyOp26
 70
     1
102
RTVSPropertyOp27
 70
     1
102
RTVSPropertyOp28
 70
     1
102
RTVSPropertyOp29
 70
     1
102
RTVSPropertyOp30
 70
     1
102
RTVSPropertyOp31
 70
     1
102
RTVSPropertyOp32
 70
     1
102
RTVSPropertyOp33
 70
     1
102
RTVSPropertyOp34
 70
     1
102
RTVSPropertyOp35
 70
     1
102
RTVSPropertyOp36
 70
     1
102
RTVSPropertyOp37
 70
     1
102
RTVSPropertyOp38
 70
     1
102
RTVSPropertyOp39
 70
     1
102
RTVSPropertyOp40
 70
     1
102
RTVSPropertyOp41
 70
     1
102
RTVSPropertyOp42
 70
     1
102
RTVSPropertyOp43
 70
     1
102
RTVSPropertyOp44
 70
     1
102
RTVSPropertyOp45
 70
     1
102
RTVSPropertyOp46
 70
     1
102
RTVSPropertyOp47
 70
     1
102
RTVSPropertyOp48
 70
     1
102
RTVSPropertyOp49
 70
     1
102
RTVSPropertyOp50
 70
     1
102
RTVSPropertyOp51
 70
     0
102
RTVSPropertyOp52
 70
     0
102
RTVSPropertyOp53
 70
     1
102
RTVSPropertyOp54
 70
     1
102
RTVSPropertyOp55
 70
     1
102
RTVSPropertyOp56
 70
     1
102
RTVSPropertyOp57
 70
     1
102
RTVSPropertyOp58
 70
     1
102
RTVSPropertyOp59
 70
     1
102
RTVSPropertyOp60
 70
     1
102
RTVSPropertyOp61
 70
     1
102
RTVSPropertyOp62
 70
     1
  0
XRECORD
  5
861B
102
{ACAD_REACTORS
330
861A
102
}
330
861A
100
AcDbXrecord
280
     1
102
RTVSPost2010Prop28
280
     0
102
RTVSPost2010PropOp28
 70
     1
102
RTVSPost2010Prop29
280
     1
102
RTVSPost2010PropOp29
 70
     1
102
RTVSPost2010Prop30
280
     1
102
RTVSPost2010PropOp30
 70
     1
102
RTVSPost2010Prop31
280
     0
102
RTVSPost2010PropOp31
 70
     1
102
RTVSPost2010Prop32
280
     0
102
RTVSPost2010PropOp32
 70
     1
102
RTVSPost2010Prop33
280
     0
102
RTVSPost2010PropOp33
 70
     1
102
RTVSPost2010Prop34
280
     0
102
RTVSPost2010PropOp34
 70
     1
102
RTVSPost2010Prop35
280
     0
102
RTVSPost2010PropOp35
 70
     1
102
RTVSPost2010Prop36
280
     0
102
RTVSPost2010PropOp36
 70
     1
102
RTVSPost2010Prop37
 90
       50
102
RTVSPost2010PropOp37
 70
     0
102
RTVSPost2010Prop38
140
0.0
102
RTVSPost2010PropOp38
 70
     0
102
RTVSPost2010Prop39
140
1.0
102
RTVSPost2010PropOp39
 70
     0
102
RTVSPost2010Prop40
 90
        0
102
RTVSPost2010PropOp40
 70
     0
102
RTVSPost2010Prop41ColorIndex
 90
       18
102
RTVSPost2010Prop41ColorRGB
 90
        0
102
RTVSPost2010PropOp41
 70
     0
102
RTVSPost2010Prop42
 90
       50
102
RTVSPost2010PropOp42
 70
     0
102
RTVSPost2010Prop43
 90
        3
102
RTVSPost2010PropOp43
 70
     0
102
RTVSPost2010Prop44ColorIndex
 90
        5
102
RTVSPost2010Prop44ColorRGB
 90
      255
102
RTVSPost2010PropOp44
 70
     0
102
RTVSPost2010Prop45
280
     0
102
RTVSPost2010PropOp45
 70
     1
102
RTVSPost2010Prop46
 90
       50
102
RTVSPost2010PropOp46
 70
     0
102
RTVSPost2010Prop47
 90
       50
102
RTVSPost2010PropOp47
 70
     0
102
RTVSPost2010Prop48
 90
       50
102
RTVSPost2010PropOp48
 70
     0
102
RTVSPost2010Prop49
280
     0
102
RTVSPost2010PropOp49
 70
     1
102
RTVSPost2010Prop50
 90
       50
102
RTVSPost2010PropOp50
 70
     0
102
RTVSPost2010Prop51ColorIndex
 90
      256
102
RTVSPost2010Prop51ColorRGB
 90
-16777216
102
RTVSPost2010PropOp51
 70
     0
102
RTVSPost2010Prop52
140
1.0
102
RTVSPost2010PropOp52
 70
     0
102
RTVSPost2010Prop53
 90
        2
102
RTVSPost2010PropOp53
 70
     0
102
RTVSPost2010Prop54
  1
strokes_ogs.tif
102
RTVSPost2010PropOp54
 70
     0
102
RTVSPost2010Prop55
280
     0
102
RTVSPost2010PropOp55
 70
     1
102
RTVSPost2010Prop56
140
1.0
102
RTVSPost2010PropOp56
 70
     0
102
RTVSPost2010Prop57
140
1.0
102
RTVSPost2010PropOp57
 70
     0
102
RTVSPropertyOp0
 70
     0
102
RTVSPropertyOp1
 70
     0
102
RTVSPropertyOp2
 70
     0
102
RTVSPropertyOp3
 70
     0
102
RTVSPropertyOp4
 70
     0
102
RTVSPropertyOp5
 70
     0
102
RTVSPropertyOp6
 70
     0
102
RTVSPropertyOp7
 70
     0
102
RTVSPropertyOp8
 70
     0
102
RTVSPropertyOp9
 70
     0
102
RTVSPropertyOp10
 70
     0
102
RTVSPropertyOp11
 70
     0
102
RTVSPropertyOp12
 70
     0
102
RTVSPropertyOp13
 70
     0
102
RTVSPropertyOp14
 70
     2
102
RTVSPropertyOp15
 70
     0
102
RTVSPropertyOp16
 70
     0
102
RTVSPropertyOp17
 70
     0
102
RTVSPropertyOp18
 70
     0
102
RTVSPropertyOp19
 70
     0
102
RTVSPropertyOp20
 70
     0
102
RTVSPropertyOp21
 70
     0
102
RTVSPropertyOp22
 70
     0
102
RTVSPropertyOp23
 70
     0
102
RTVSPropertyOp24
 70
     0
102
RTVSPropertyOp25
 70
     0
102
RTVSPropertyOp26
 70
     0
102
RTVSPropertyOp27
 70
     0
102
RTVSPropertyOp28
 70
     1
102
RTVSPropertyOp29
 70
     1
102
RTVSPropertyOp30
 70
     1
102
RTVSPropertyOp31
 70
     1
102
RTVSPropertyOp32
 70
     1
102
RTVSPropertyOp33
 70
     1
102
RTVSPropertyOp34
 70
     1
102
RTVSPropertyOp35
 70
     1
102
RTVSPropertyOp36
 70
     1
102
RTVSPropertyOp37
 70
     0
102
RTVSPropertyOp38
 70
     0
102
RTVSPropertyOp39
 70
     0
102
RTVSPropertyOp40
 70
     0
102
RTVSPropertyOp41
 70
     0
102
RTVSPropertyOp42
 70
     0
102
RTVSPropertyOp43
 70
     0
102
RTVSPropertyOp44
 70
     0
102
RTVSPropertyOp45
 70
     1
102
RTVSPropertyOp46
 70
     0
102
RTVSPropertyOp47
 70
     0
102
RTVSPropertyOp48
 70
     0
102
RTVSPropertyOp49
 70
     1
102
RTVSPropertyOp50
 70
     0
102
RTVSPropertyOp51
 70
     0
102
RTVSPropertyOp52
 70
     0
102
RTVSPropertyOp53
 70
     0
102
RTVSPropertyOp54
 70
     0
102
RTVSPropertyOp55
 70
     1
102
RTVSPropertyOp56
 70
     0
102
RTVSPropertyOp57
 70
     0
102
RTVSPropertyOp58
 70
     0
102
RTVSPropertyOp59
 70
     0
102
RTVSPropertyOp60
 70
     0
102
RTVSPropertyOp61
 70
     0
102
RTVSPropertyOp62
 70
     0
  0
XRECORD
  5
860B
102
{ACAD_REACTORS
330
860A
102
}
330
860A
100
AcDbXrecord
280
     1
102
RTVSPost2010Prop28
280
     0
102
RTVSPost2010PropOp28
 70
     1
102
RTVSPost2010Prop29
280
     1
102
RTVSPost2010PropOp29
 70
     1
102
RTVSPost2010Prop30
280
     1
102
RTVSPost2010PropOp30
 70
     1
102
RTVSPost2010Prop31
280
     0
102
RTVSPost2010PropOp31
 70
     1
102
RTVSPost2010Prop32
280
     0
102
RTVSPost2010PropOp32
 70
     1
102
RTVSPost2010Prop33
280
     0
102
RTVSPost2010PropOp33
 70
     1
102
RTVSPost2010Prop34
280
     0
102
RTVSPost2010PropOp34
 70
     1
102
RTVSPost2010Prop35
280
     0
102
RTVSPost2010PropOp35
 70
     1
102
RTVSPost2010Prop36
280
     0
102
RTVSPost2010PropOp36
 70
     1
102
RTVSPost2010Prop37
 90
       50
102
RTVSPost2010PropOp37
 70
     1
102
RTVSPost2010Prop38
140
0.0
102
RTVSPost2010PropOp38
 70
     1
102
RTVSPost2010Prop39
140
1.0
102
RTVSPost2010PropOp39
 70
     1
102
RTVSPost2010Prop40
 90
        0
102
RTVSPost2010PropOp40
 70
     1
102
RTVSPost2010Prop41ColorIndex
 90
       18
102
RTVSPost2010Prop41ColorRGB
 90
        0
102
RTVSPost2010PropOp41
 70
     1
102
RTVSPost2010Prop42
 90
       50
102
RTVSPost2010PropOp42
 70
     1
102
RTVSPost2010Prop43
 90
        3
102
RTVSPost2010PropOp43
 70
     1
102
RTVSPost2010Prop44ColorIndex
 90
        5
102
RTVSPost2010Prop44ColorRGB
 90
      255
102
RTVSPost2010PropOp44
 70
     1
102
RTVSPost2010Prop45
280
     0
102
RTVSPost2010PropOp45
 70
     1
102
RTVSPost2010Prop46
 90
       50
102
RTVSPost2010PropOp46
 70
     1
102
RTVSPost2010Prop47
 90
       50
102
RTVSPost2010PropOp47
 70
     1
102
RTVSPost2010Prop48
 90
       50
102
RTVSPost2010PropOp48
 70
     1
102
RTVSPost2010Prop49
280
     0
102
RTVSPost2010PropOp49
 70
     1
102
RTVSPost2010Prop50
 90
       50
102
RTVSPost2010PropOp50
 70
     1
102
RTVSPost2010Prop51ColorIndex
 90
      256
102
RTVSPost2010Prop51ColorRGB
 90
-16777216
102
RTVSPost2010PropOp51
 70
     0
102
RTVSPost2010Prop52
140
1.0
102
RTVSPost2010PropOp52
 70
     0
102
RTVSPost2010Prop53
 90
        2
102
RTVSPost2010PropOp53
 70
     1
102
RTVSPost2010Prop54
  1
strokes_ogs.tif
102
RTVSPost2010PropOp54
 70
     1
102
RTVSPost2010Prop55
280
     0
102
RTVSPost2010PropOp55
 70
     1
102
RTVSPost2010Prop56
140
1.0
102
RTVSPost2010PropOp56
 70
     1
102
RTVSPost2010Prop57
140
1.0
102
RTVSPost2010PropOp57
 70
     1
102
RTVSPropertyOp0
 70
     1
102
RTVSPropertyOp1
 70
     1
102
RTVSPropertyOp2
 70
     1
102
RTVSPropertyOp3
 70
     1
102
RTVSPropertyOp4
 70
     1
102
RTVSPropertyOp5
 70
     1
102
RTVSPropertyOp6
 70
     1
102
RTVSPropertyOp7
 70
     1
102
RTVSPropertyOp8
 70
     1
102
RTVSPropertyOp9
 70
     1
102
RTVSPropertyOp10
 70
     1
102
RTVSPropertyOp11
 70
     1
102
RTVSPropertyOp12
 70
     1
102
RTVSPropertyOp13
 70
     1
102
RTVSPropertyOp14
 70
     1
102
RTVSPropertyOp15
 70
     1
102
RTVSPropertyOp16
 70
     1
102
RTVSPropertyOp17
 70
     1
102
RTVSPropertyOp18
 70
     1
102
RTVSPropertyOp19
 70
     1
102
RTVSPropertyOp20
 70
     1
102
RTVSPropertyOp21
 70
     1
102
RTVSPropertyOp22
 70
     1
102
RTVSPropertyOp23
 70
     1
102
RTVSPropertyOp24
 70
     1
102
RTVSPropertyOp25
 70
     1
102
RTVSPropertyOp26
 70
     1
102
RTVSPropertyOp27
 70
     1
102
RTVSPropertyOp28
 70
     1
102
RTVSPropertyOp29
 70
     1
102
RTVSPropertyOp30
 70
     1
102
RTVSPropertyOp31
 70
     1
102
RTVSPropertyOp32
 70
     1
102
RTVSPropertyOp33
 70
     1
102
RTVSPropertyOp34
 70
     1
102
RTVSPropertyOp35
 70
     1
102
RTVSPropertyOp36
 70
     1
102
RTVSPropertyOp37
 70
     1
102
RTVSPropertyOp38
 70
     1
102
RTVSPropertyOp39
 70
     1
102
RTVSPropertyOp40
 70
     1
102
RTVSPropertyOp41
 70
     1
102
RTVSPropertyOp42
 70
     1
102
RTVSPropertyOp43
 70
     1
102
RTVSPropertyOp44
 70
     1
102
RTVSPropertyOp45
 70
     1
102
RTVSPropertyOp46
 70
     1
102
RTVSPropertyOp47
 70
     1
102
RTVSPropertyOp48
 70
     1
102
RTVSPropertyOp49
 70
     1
102
RTVSPropertyOp50
 70
     1
102
RTVSPropertyOp51
 70
     0
102
RTVSPropertyOp52
 70
     0
102
RTVSPropertyOp53
 70
     1
102
RTVSPropertyOp54
 70
     1
102
RTVSPropertyOp55
 70
     1
102
RTVSPropertyOp56
 70
     1
102
RTVSPropertyOp57
 70
     1
102
RTVSPropertyOp58
 70
     1
102
RTVSPropertyOp59
 70
     1
102
RTVSPropertyOp60
 70
     1
102
RTVSPropertyOp61
 70
     1
102
RTVSPropertyOp62
 70
     1
  0
XRECORD
  5
861D
102
{ACAD_REACTORS
330
861C
102
}
330
861C
100
AcDbXrecord
280
     1
102
RTVSPost2010Prop28
280
     0
102
RTVSPost2010PropOp28
 70
     1
102
RTVSPost2010Prop29
280
     1
102
RTVSPost2010PropOp29
 70
     1
102
RTVSPost2010Prop30
280
     1
102
RTVSPost2010PropOp30
 70
     1
102
RTVSPost2010Prop31
280
     0
102
RTVSPost2010PropOp31
 70
     1
102
RTVSPost2010Prop32
280
     0
102
RTVSPost2010PropOp32
 70
     1
102
RTVSPost2010Prop33
280
     0
102
RTVSPost2010PropOp33
 70
     1
102
RTVSPost2010Prop34
280
     0
102
RTVSPost2010PropOp34
 70
     1
102
RTVSPost2010Prop35
280
     0
102
RTVSPost2010PropOp35
 70
     1
102
RTVSPost2010Prop36
280
     0
102
RTVSPost2010PropOp36
 70
     1
102
RTVSPost2010Prop37
 90
       50
102
RTVSPost2010PropOp37
 70
     0
102
RTVSPost2010Prop38
140
0.0
102
RTVSPost2010PropOp38
 70
     0
102
RTVSPost2010Prop39
140
1.0
102
RTVSPost2010PropOp39
 70
     0
102
RTVSPost2010Prop40
 90
        0
102
RTVSPost2010PropOp40
 70
     0
102
RTVSPost2010Prop41ColorIndex
 90
       18
102
RTVSPost2010Prop41ColorRGB
 90
        0
102
RTVSPost2010PropOp41
 70
     0
102
RTVSPost2010Prop42
 90
       50
102
RTVSPost2010PropOp42
 70
     0
102
RTVSPost2010Prop43
 90
        3
102
RTVSPost2010PropOp43
 70
     0
102
RTVSPost2010Prop44ColorIndex
 90
        5
102
RTVSPost2010Prop44ColorRGB
 90
      255
102
RTVSPost2010PropOp44
 70
     0
102
RTVSPost2010Prop45
280
     0
102
RTVSPost2010PropOp45
 70
     1
102
RTVSPost2010Prop46
 90
       50
102
RTVSPost2010PropOp46
 70
     0
102
RTVSPost2010Prop47
 90
       50
102
RTVSPost2010PropOp47
 70
     0
102
RTVSPost2010Prop48
 90
       50
102
RTVSPost2010PropOp48
 70
     0
102
RTVSPost2010Prop49
280
     0
102
RTVSPost2010PropOp49
 70
     1
102
RTVSPost2010Prop50
 90
       50
102
RTVSPost2010PropOp50
 70
     0
102
RTVSPost2010Prop51ColorIndex
 90
      256
102
RTVSPost2010Prop51ColorRGB
 90
-16777216
102
RTVSPost2010PropOp51
 70
     0
102
RTVSPost2010Prop52
140
1.0
102
RTVSPost2010PropOp52
 70
     0
102
RTVSPost2010Prop53
 90
        2
102
RTVSPost2010PropOp53
 70
     0
102
RTVSPost2010Prop54
  1
strokes_ogs.tif
102
RTVSPost2010PropOp54
 70
     0
102
RTVSPost2010Prop55
280
     0
102
RTVSPost2010PropOp55
 70
     1
102
RTVSPost2010Prop56
140
1.0
102
RTVSPost2010PropOp56
 70
     0
102
RTVSPost2010Prop57
140
1.0
102
RTVSPost2010PropOp57
 70
     0
102
RTVSPropertyOp0
 70
     0
102
RTVSPropertyOp1
 70
     0
102
RTVSPropertyOp2
 70
     0
102
RTVSPropertyOp3
 70
     0
102
RTVSPropertyOp4
 70
     0
102
RTVSPropertyOp5
 70
     0
102
RTVSPropertyOp6
 70
     0
102
RTVSPropertyOp7
 70
     0
102
RTVSPropertyOp8
 70
     0
102
RTVSPropertyOp9
 70
     0
102
RTVSPropertyOp10
 70
     0
102
RTVSPropertyOp11
 70
     0
102
RTVSPropertyOp12
 70
     0
102
RTVSPropertyOp13
 70
     0
102
RTVSPropertyOp14
 70
     2
102
RTVSPropertyOp15
 70
     0
102
RTVSPropertyOp16
 70
     0
102
RTVSPropertyOp17
 70
     0
102
RTVSPropertyOp18
 70
     0
102
RTVSPropertyOp19
 70
     0
102
RTVSPropertyOp20
 70
     0
102
RTVSPropertyOp21
 70
     0
102
RTVSPropertyOp22
 70
     0
102
RTVSPropertyOp23
 70
     0
102
RTVSPropertyOp24
 70
     0
102
RTVSPropertyOp25
 70
     0
102
RTVSPropertyOp26
 70
     0
102
RTVSPropertyOp27
 70
     0
102
RTVSPropertyOp28
 70
     1
102
RTVSPropertyOp29
 70
     1
102
RTVSPropertyOp30
 70
     1
102
RTVSPropertyOp31
 70
     1
102
RTVSPropertyOp32
 70
     1
102
RTVSPropertyOp33
 70
     1
102
RTVSPropertyOp34
 70
     1
102
RTVSPropertyOp35
 70
     1
102
RTVSPropertyOp36
 70
     1
102
RTVSPropertyOp37
 70
     0
102
RTVSPropertyOp38
 70
     0
102
RTVSPropertyOp39
 70
     0
102
RTVSPropertyOp40
 70
     0
102
RTVSPropertyOp41
 70
     0
102
RTVSPropertyOp42
 70
     0
102
RTVSPropertyOp43
 70
     0
102
RTVSPropertyOp44
 70
     0
102
RTVSPropertyOp45
 70
     1
102
RTVSPropertyOp46
 70
     0
102
RTVSPropertyOp47
 70
     0
102
RTVSPropertyOp48
 70
     0
102
RTVSPropertyOp49
 70
     1
102
RTVSPropertyOp50
 70
     0
102
RTVSPropertyOp51
 70
     0
102
RTVSPropertyOp52
 70
     0
102
RTVSPropertyOp53
 70
     0
102
RTVSPropertyOp54
 70
     0
102
RTVSPropertyOp55
 70
     1
102
RTVSPropertyOp56
 70
     0
102
RTVSPropertyOp57
 70
     0
102
RTVSPropertyOp58
 70
     0
102
RTVSPropertyOp59
 70
     0
102
RTVSPropertyOp60
 70
     0
102
RTVSPropertyOp61
 70
     0
102
RTVSPropertyOp62
 70
     0
  0
XRECORD
  5
8603
102
{ACAD_REACTORS
330
8602
102
}
330
8602
100
AcDbXrecord
280
     1
102
RTVSPost2010Prop28
280
     0
102
RTVSPost2010PropOp28
 70
     1
102
RTVSPost2010Prop29
280
     1
102
RTVSPost2010PropOp29
 70
     1
102
RTVSPost2010Prop30
280
     1
102
RTVSPost2010PropOp30
 70
     1
102
RTVSPost2010Prop31
280
     0
102
RTVSPost2010PropOp31
 70
     1
102
RTVSPost2010Prop32
280
     0
102
RTVSPost2010PropOp32
 70
     1
102
RTVSPost2010Prop33
280
     0
102
RTVSPost2010PropOp33
 70
     1
102
RTVSPost2010Prop34
280
     0
102
RTVSPost2010PropOp34
 70
     1
102
RTVSPost2010Prop35
280
     0
102
RTVSPost2010PropOp35
 70
     1
102
RTVSPost2010Prop36
280
     0
102
RTVSPost2010PropOp36
 70
     1
102
RTVSPost2010Prop37
 90
       50
102
RTVSPost2010PropOp37
 70
     1
102
RTVSPost2010Prop38
140
0.0
102
RTVSPost2010PropOp38
 70
     1
102
RTVSPost2010Prop39
140
1.0
102
RTVSPost2010PropOp39
 70
     1
102
RTVSPost2010Prop40
 90
        0
102
RTVSPost2010PropOp40
 70
     1
102
RTVSPost2010Prop41ColorIndex
 90
       18
102
RTVSPost2010Prop41ColorRGB
 90
        0
102
RTVSPost2010PropOp41
 70
     1
102
RTVSPost2010Prop42
 90
       50
102
RTVSPost2010PropOp42
 70
     1
102
RTVSPost2010Prop43
 90
        3
102
RTVSPost2010PropOp43
 70
     1
102
RTVSPost2010Prop44ColorIndex
 90
        5
102
RTVSPost2010Prop44ColorRGB
 90
      255
102
RTVSPost2010PropOp44
 70
     1
102
RTVSPost2010Prop45
280
     0
102
RTVSPost2010PropOp45
 70
     1
102
RTVSPost2010Prop46
 90
       50
102
RTVSPost2010PropOp46
 70
     1
102
RTVSPost2010Prop47
 90
       50
102
RTVSPost2010PropOp47
 70
     1
102
RTVSPost2010Prop48
 90
       50
102
RTVSPost2010PropOp48
 70
     1
102
RTVSPost2010Prop49
280
     0
102
RTVSPost2010PropOp49
 70
     1
102
RTVSPost2010Prop50
 90
       50
102
RTVSPost2010PropOp50
 70
     1
102
RTVSPost2010Prop51ColorIndex
 90
      256
102
RTVSPost2010Prop51ColorRGB
 90
-16777216
102
RTVSPost2010PropOp51
 70
     0
102
RTVSPost2010Prop52
140
1.0
102
RTVSPost2010PropOp52
 70
     0
102
RTVSPost2010Prop53
 90
        2
102
RTVSPost2010PropOp53
 70
     1
102
RTVSPost2010Prop54
  1
strokes_ogs.tif
102
RTVSPost2010PropOp54
 70
     1
102
RTVSPost2010Prop55
280
     0
102
RTVSPost2010PropOp55
 70
     1
102
RTVSPost2010Prop56
140
1.0
102
RTVSPost2010PropOp56
 70
     1
102
RTVSPost2010Prop57
140
1.0
102
RTVSPost2010PropOp57
 70
     1
102
RTVSPropertyOp0
 70
     1
102
RTVSPropertyOp1
 70
     1
102
RTVSPropertyOp2
 70
     1
102
RTVSPropertyOp3
 70
     1
102
RTVSPropertyOp4
 70
     1
102
RTVSPropertyOp5
 70
     1
102
RTVSPropertyOp6
 70
     1
102
RTVSPropertyOp7
 70
     1
102
RTVSPropertyOp8
 70
     1
102
RTVSPropertyOp9
 70
     1
102
RTVSPropertyOp10
 70
     1
102
RTVSPropertyOp11
 70
     1
102
RTVSPropertyOp12
 70
     1
102
RTVSPropertyOp13
 70
     1
102
RTVSPropertyOp14
 70
     1
102
RTVSPropertyOp15
 70
     1
102
RTVSPropertyOp16
 70
     1
102
RTVSPropertyOp17
 70
     1
102
RTVSPropertyOp18
 70
     1
102
RTVSPropertyOp19
 70
     1
102
RTVSPropertyOp20
 70
     1
102
RTVSPropertyOp21
 70
     1
102
RTVSPropertyOp22
 70
     1
102
RTVSPropertyOp23
 70
     1
102
RTVSPropertyOp24
 70
     1
102
RTVSPropertyOp25
 70
     1
102
RTVSPropertyOp26
 70
     1
102
RTVSPropertyOp27
 70
     1
102
RTVSPropertyOp28
 70
     1
102
RTVSPropertyOp29
 70
     1
102
RTVSPropertyOp30
 70
     1
102
RTVSPropertyOp31
 70
     1
102
RTVSPropertyOp32
 70
     1
102
RTVSPropertyOp33
 70
     1
102
RTVSPropertyOp34
 70
     1
102
RTVSPropertyOp35
 70
     1
102
RTVSPropertyOp36
 70
     1
102
RTVSPropertyOp37
 70
     1
102
RTVSPropertyOp38
 70
     1
102
RTVSPropertyOp39
 70
     1
102
RTVSPropertyOp40
 70
     1
102
RTVSPropertyOp41
 70
     1
102
RTVSPropertyOp42
 70
     1
102
RTVSPropertyOp43
 70
     1
102
RTVSPropertyOp44
 70
     1
102
RTVSPropertyOp45
 70
     1
102
RTVSPropertyOp46
 70
     1
102
RTVSPropertyOp47
 70
     1
102
RTVSPropertyOp48
 70
     1
102
RTVSPropertyOp49
 70
     1
102
RTVSPropertyOp50
 70
     1
102
RTVSPropertyOp51
 70
     0
102
RTVSPropertyOp52
 70
     0
102
RTVSPropertyOp53
 70
     1
102
RTVSPropertyOp54
 70
     1
102
RTVSPropertyOp55
 70
     1
102
RTVSPropertyOp56
 70
     1
102
RTVSPropertyOp57
 70
     1
102
RTVSPropertyOp58
 70
     1
102
RTVSPropertyOp59
 70
     1
102
RTVSPropertyOp60
 70
     1
102
RTVSPropertyOp61
 70
     1
102
RTVSPropertyOp62
 70
     1
  0
XRECORD
  5
8619
102
{ACAD_REACTORS
330
8618
102
}
330
8618
100
AcDbXrecord
280
     1
102
RTVSPost2010Prop28
280
     0
102
RTVSPost2010PropOp28
 70
     1
102
RTVSPost2010Prop29
280
     1
102
RTVSPost2010PropOp29
 70
     1
102
RTVSPost2010Prop30
280
     1
102
RTVSPost2010PropOp30
 70
     1
102
RTVSPost2010Prop31
280
     0
102
RTVSPost2010PropOp31
 70
     1
102
RTVSPost2010Prop32
280
     0
102
RTVSPost2010PropOp32
 70
     1
102
RTVSPost2010Prop33
280
     0
102
RTVSPost2010PropOp33
 70
     1
102
RTVSPost2010Prop34
280
     0
102
RTVSPost2010PropOp34
 70
     1
102
RTVSPost2010Prop35
280
     0
102
RTVSPost2010PropOp35
 70
     1
102
RTVSPost2010Prop36
280
     0
102
RTVSPost2010PropOp36
 70
     1
102
RTVSPost2010Prop37
 90
       50
102
RTVSPost2010PropOp37
 70
     1
102
RTVSPost2010Prop38
140
0.0
102
RTVSPost2010PropOp38
 70
     1
102
RTVSPost2010Prop39
140
1.0
102
RTVSPost2010PropOp39
 70
     1
102
RTVSPost2010Prop40
 90
        0
102
RTVSPost2010PropOp40
 70
     1
102
RTVSPost2010Prop41ColorIndex
 90
       18
102
RTVSPost2010Prop41ColorRGB
 90
        0
102
RTVSPost2010PropOp41
 70
     1
102
RTVSPost2010Prop42
 90
       50
102
RTVSPost2010PropOp42
 70
     1
102
RTVSPost2010Prop43
 90
        3
102
RTVSPost2010PropOp43
 70
     1
102
RTVSPost2010Prop44ColorIndex
 90
        5
102
RTVSPost2010Prop44ColorRGB
 90
      255
102
RTVSPost2010PropOp44
 70
     1
102
RTVSPost2010Prop45
280
     0
102
RTVSPost2010PropOp45
 70
     1
102
RTVSPost2010Prop46
 90
       50
102
RTVSPost2010PropOp46
 70
     1
102
RTVSPost2010Prop47
 90
       50
102
RTVSPost2010PropOp47
 70
     1
102
RTVSPost2010Prop48
 90
       50
102
RTVSPost2010PropOp48
 70
     1
102
RTVSPost2010Prop49
280
     0
102
RTVSPost2010PropOp49
 70
     1
102
RTVSPost2010Prop50
 90
       50
102
RTVSPost2010PropOp50
 70
     1
102
RTVSPost2010Prop51ColorIndex
 90
      256
102
RTVSPost2010Prop51ColorRGB
 90
-16777216
102
RTVSPost2010PropOp51
 70
     0
102
RTVSPost2010Prop52
140
1.0
102
RTVSPost2010PropOp52
 70
     0
102
RTVSPost2010Prop53
 90
        2
102
RTVSPost2010PropOp53
 70
     1
102
RTVSPost2010Prop54
  1
strokes_ogs.tif
102
RTVSPost2010PropOp54
 70
     1
102
RTVSPost2010Prop55
280
     0
102
RTVSPost2010PropOp55
 70
     1
102
RTVSPost2010Prop56
140
1.0
102
RTVSPost2010PropOp56
 70
     1
102
RTVSPost2010Prop57
140
1.0
102
RTVSPost2010PropOp57
 70
     1
102
RTVSPropertyOp0
 70
     1
102
RTVSPropertyOp1
 70
     1
102
RTVSPropertyOp2
 70
     1
102
RTVSPropertyOp3
 70
     1
102
RTVSPropertyOp4
 70
     1
102
RTVSPropertyOp5
 70
     1
102
RTVSPropertyOp6
 70
     1
102
RTVSPropertyOp7
 70
     1
102
RTVSPropertyOp8
 70
     1
102
RTVSPropertyOp9
 70
     1
102
RTVSPropertyOp10
 70
     1
102
RTVSPropertyOp11
 70
     1
102
RTVSPropertyOp12
 70
     1
102
RTVSPropertyOp13
 70
     1
102
RTVSPropertyOp14
 70
     1
102
RTVSPropertyOp15
 70
     1
102
RTVSPropertyOp16
 70
     1
102
RTVSPropertyOp17
 70
     1
102
RTVSPropertyOp18
 70
     1
102
RTVSPropertyOp19
 70
     1
102
RTVSPropertyOp20
 70
     1
102
RTVSPropertyOp21
 70
     1
102
RTVSPropertyOp22
 70
     1
102
RTVSPropertyOp23
 70
     1
102
RTVSPropertyOp24
 70
     1
102
RTVSPropertyOp25
 70
     1
102
RTVSPropertyOp26
 70
     1
102
RTVSPropertyOp27
 70
     1
102
RTVSPropertyOp28
 70
     1
102
RTVSPropertyOp29
 70
     1
102
RTVSPropertyOp30
 70
     1
102
RTVSPropertyOp31
 70
     1
102
RTVSPropertyOp32
 70
     1
102
RTVSPropertyOp33
 70
     1
102
RTVSPropertyOp34
 70
     1
102
RTVSPropertyOp35
 70
     1
102
RTVSPropertyOp36
 70
     1
102
RTVSPropertyOp37
 70
     1
102
RTVSPropertyOp38
 70
     1
102
RTVSPropertyOp39
 70
     1
102
RTVSPropertyOp40
 70
     1
102
RTVSPropertyOp41
 70
     1
102
RTVSPropertyOp42
 70
     1
102
RTVSPropertyOp43
 70
     1
102
RTVSPropertyOp44
 70
     1
102
RTVSPropertyOp45
 70
     1
102
RTVSPropertyOp46
 70
     1
102
RTVSPropertyOp47
 70
     1
102
RTVSPropertyOp48
 70
     1
102
RTVSPropertyOp49
 70
     1
102
RTVSPropertyOp50
 70
     1
102
RTVSPropertyOp51
 70
     0
102
RTVSPropertyOp52
 70
     0
102
RTVSPropertyOp53
 70
     1
102
RTVSPropertyOp54
 70
     1
102
RTVSPropertyOp55
 70
     1
102
RTVSPropertyOp56
 70
     1
102
RTVSPropertyOp57
 70
     1
102
RTVSPropertyOp58
 70
     1
102
RTVSPropertyOp59
 70
     1
102
RTVSPropertyOp60
 70
     1
102
RTVSPropertyOp61
 70
     1
102
RTVSPropertyOp62
 70
     1
  0
XRECORD
  5
8617
102
{ACAD_REACTORS
330
8616
102
}
330
8616
100
AcDbXrecord
280
     1
102
RTVSPost2010Prop28
280
     0
102
RTVSPost2010PropOp28
 70
     1
102
RTVSPost2010Prop29
280
     1
102
RTVSPost2010PropOp29
 70
     1
102
RTVSPost2010Prop30
280
     1
102
RTVSPost2010PropOp30
 70
     1
102
RTVSPost2010Prop31
280
     0
102
RTVSPost2010PropOp31
 70
     1
102
RTVSPost2010Prop32
280
     0
102
RTVSPost2010PropOp32
 70
     1
102
RTVSPost2010Prop33
280
     0
102
RTVSPost2010PropOp33
 70
     1
102
RTVSPost2010Prop34
280
     0
102
RTVSPost2010PropOp34
 70
     1
102
RTVSPost2010Prop35
280
     0
102
RTVSPost2010PropOp35
 70
     1
102
RTVSPost2010Prop36
280
     0
102
RTVSPost2010PropOp36
 70
     1
102
RTVSPost2010Prop37
 90
       50
102
RTVSPost2010PropOp37
 70
     1
102
RTVSPost2010Prop38
140
0.0
102
RTVSPost2010PropOp38
 70
     1
102
RTVSPost2010Prop39
140
1.0
102
RTVSPost2010PropOp39
 70
     1
102
RTVSPost2010Prop40
 90
        0
102
RTVSPost2010PropOp40
 70
     1
102
RTVSPost2010Prop41ColorIndex
 90
       18
102
RTVSPost2010Prop41ColorRGB
 90
        0
102
RTVSPost2010PropOp41
 70
     1
102
RTVSPost2010Prop42
 90
       50
102
RTVSPost2010PropOp42
 70
     1
102
RTVSPost2010Prop43
 90
        3
102
RTVSPost2010PropOp43
 70
     1
102
RTVSPost2010Prop44ColorIndex
 90
        5
102
RTVSPost2010Prop44ColorRGB
 90
      255
102
RTVSPost2010PropOp44
 70
     1
102
RTVSPost2010Prop45
280
     0
102
RTVSPost2010PropOp45
 70
     1
102
RTVSPost2010Prop46
 90
       50
102
RTVSPost2010PropOp46
 70
     1
102
RTVSPost2010Prop47
 90
       50
102
RTVSPost2010PropOp47
 70
     1
102
RTVSPost2010Prop48
 90
       50
102
RTVSPost2010PropOp48
 70
     1
102
RTVSPost2010Prop49
280
     0
102
RTVSPost2010PropOp49
 70
     1
102
RTVSPost2010Prop50
 90
       50
102
RTVSPost2010PropOp50
 70
     1
102
RTVSPost2010Prop51ColorIndex
 90
      256
102
RTVSPost2010Prop51ColorRGB
 90
-16777216
102
RTVSPost2010PropOp51
 70
     0
102
RTVSPost2010Prop52
140
1.0
102
RTVSPost2010PropOp52
 70
     0
102
RTVSPost2010Prop53
 90
        2
102
RTVSPost2010PropOp53
 70
     1
102
RTVSPost2010Prop54
  1
strokes_ogs.tif
102
RTVSPost2010PropOp54
 70
     1
102
RTVSPost2010Prop55
280
     0
102
RTVSPost2010PropOp55
 70
     1
102
RTVSPost2010Prop56
140
1.0
102
RTVSPost2010PropOp56
 70
     1
102
RTVSPost2010Prop57
140
1.0
102
RTVSPost2010PropOp57
 70
     1
102
RTVSPropertyOp0
 70
     1
102
RTVSPropertyOp1
 70
     1
102
RTVSPropertyOp2
 70
     1
102
RTVSPropertyOp3
 70
     1
102
RTVSPropertyOp4
 70
     1
102
RTVSPropertyOp5
 70
     1
102
RTVSPropertyOp6
 70
     1
102
RTVSPropertyOp7
 70
     1
102
RTVSPropertyOp8
 70
     1
102
RTVSPropertyOp9
 70
     1
102
RTVSPropertyOp10
 70
     1
102
RTVSPropertyOp11
 70
     1
102
RTVSPropertyOp12
 70
     1
102
RTVSPropertyOp13
 70
     1
102
RTVSPropertyOp14
 70
     1
102
RTVSPropertyOp15
 70
     1
102
RTVSPropertyOp16
 70
     1
102
RTVSPropertyOp17
 70
     1
102
RTVSPropertyOp18
 70
     1
102
RTVSPropertyOp19
 70
     1
102
RTVSPropertyOp20
 70
     1
102
RTVSPropertyOp21
 70
     1
102
RTVSPropertyOp22
 70
     1
102
RTVSPropertyOp23
 70
     1
102
RTVSPropertyOp24
 70
     1
102
RTVSPropertyOp25
 70
     1
102
RTVSPropertyOp26
 70
     1
102
RTVSPropertyOp27
 70
     1
102
RTVSPropertyOp28
 70
     1
102
RTVSPropertyOp29
 70
     1
102
RTVSPropertyOp30
 70
     1
102
RTVSPropertyOp31
 70
     1
102
RTVSPropertyOp32
 70
     1
102
RTVSPropertyOp33
 70
     1
102
RTVSPropertyOp34
 70
     1
102
RTVSPropertyOp35
 70
     1
102
RTVSPropertyOp36
 70
     1
102
RTVSPropertyOp37
 70
     1
102
RTVSPropertyOp38
 70
     1
102
RTVSPropertyOp39
 70
     1
102
RTVSPropertyOp40
 70
     1
102
RTVSPropertyOp41
 70
     1
102
RTVSPropertyOp42
 70
     1
102
RTVSPropertyOp43
 70
     1
102
RTVSPropertyOp44
 70
     1
102
RTVSPropertyOp45
 70
     1
102
RTVSPropertyOp46
 70
     1
102
RTVSPropertyOp47
 70
     1
102
RTVSPropertyOp48
 70
     1
102
RTVSPropertyOp49
 70
     1
102
RTVSPropertyOp50
 70
     1
102
RTVSPropertyOp51
 70
     0
102
RTVSPropertyOp52
 70
     0
102
RTVSPropertyOp53
 70
     1
102
RTVSPropertyOp54
 70
     1
102
RTVSPropertyOp55
 70
     1
102
RTVSPropertyOp56
 70
     1
102
RTVSPropertyOp57
 70
     1
102
RTVSPropertyOp58
 70
     1
102
RTVSPropertyOp59
 70
     1
102
RTVSPropertyOp60
 70
     1
102
RTVSPropertyOp61
 70
     1
102
RTVSPropertyOp62
 70
     1
  0
XRECORD
  5
8611
102
{ACAD_REACTORS
330
8610
102
}
330
8610
100
AcDbXrecord
280
     1
102
RTVSPost2010Prop28
280
     0
102
RTVSPost2010PropOp28
 70
     1
102
RTVSPost2010Prop29
280
     1
102
RTVSPost2010PropOp29
 70
     1
102
RTVSPost2010Prop30
280
     1
102
RTVSPost2010PropOp30
 70
     1
102
RTVSPost2010Prop31
280
     0
102
RTVSPost2010PropOp31
 70
     1
102
RTVSPost2010Prop32
280
     0
102
RTVSPost2010PropOp32
 70
     1
102
RTVSPost2010Prop33
280
     0
102
RTVSPost2010PropOp33
 70
     1
102
RTVSPost2010Prop34
280
     0
102
RTVSPost2010PropOp34
 70
     1
102
RTVSPost2010Prop35
280
     0
102
RTVSPost2010PropOp35
 70
     1
102
RTVSPost2010Prop36
280
     0
102
RTVSPost2010PropOp36
 70
     1
102
RTVSPost2010Prop37
 90
       50
102
RTVSPost2010PropOp37
 70
     1
102
RTVSPost2010Prop38
140
0.0
102
RTVSPost2010PropOp38
 70
     1
102
RTVSPost2010Prop39
140
1.0
102
RTVSPost2010PropOp39
 70
     1
102
RTVSPost2010Prop40
 90
        0
102
RTVSPost2010PropOp40
 70
     1
102
RTVSPost2010Prop41ColorIndex
 90
       18
102
RTVSPost2010Prop41ColorRGB
 90
        0
102
RTVSPost2010PropOp41
 70
     1
102
RTVSPost2010Prop42
 90
       50
102
RTVSPost2010PropOp42
 70
     1
102
RTVSPost2010Prop43
 90
        3
102
RTVSPost2010PropOp43
 70
     1
102
RTVSPost2010Prop44ColorIndex
 90
        5
102
RTVSPost2010Prop44ColorRGB
 90
      255
102
RTVSPost2010PropOp44
 70
     1
102
RTVSPost2010Prop45
280
     0
102
RTVSPost2010PropOp45
 70
     1
102
RTVSPost2010Prop46
 90
       50
102
RTVSPost2010PropOp46
 70
     1
102
RTVSPost2010Prop47
 90
       50
102
RTVSPost2010PropOp47
 70
     1
102
RTVSPost2010Prop48
 90
       50
102
RTVSPost2010PropOp48
 70
     1
102
RTVSPost2010Prop49
280
     0
102
RTVSPost2010PropOp49
 70
     1
102
RTVSPost2010Prop50
 90
       50
102
RTVSPost2010PropOp50
 70
     1
102
RTVSPost2010Prop51ColorIndex
 90
      256
102
RTVSPost2010Prop51ColorRGB
 90
-16777216
102
RTVSPost2010PropOp51
 70
     0
102
RTVSPost2010Prop52
140
1.0
102
RTVSPost2010PropOp52
 70
     0
102
RTVSPost2010Prop53
 90
        2
102
RTVSPost2010PropOp53
 70
     1
102
RTVSPost2010Prop54
  1
strokes_ogs.tif
102
RTVSPost2010PropOp54
 70
     1
102
RTVSPost2010Prop55
280
     0
102
RTVSPost2010PropOp55
 70
     1
102
RTVSPost2010Prop56
140
1.0
102
RTVSPost2010PropOp56
 70
     1
102
RTVSPost2010Prop57
140
1.0
102
RTVSPost2010PropOp57
 70
     1
102
RTVSPropertyOp0
 70
     1
102
RTVSPropertyOp1
 70
     1
102
RTVSPropertyOp2
 70
     1
102
RTVSPropertyOp3
 70
     1
102
RTVSPropertyOp4
 70
     1
102
RTVSPropertyOp5
 70
     1
102
RTVSPropertyOp6
 70
     1
102
RTVSPropertyOp7
 70
     1
102
RTVSPropertyOp8
 70
     1
102
RTVSPropertyOp9
 70
     1
102
RTVSPropertyOp10
 70
     1
102
RTVSPropertyOp11
 70
     1
102
RTVSPropertyOp12
 70
     1
102
RTVSPropertyOp13
 70
     1
102
RTVSPropertyOp14
 70
     1
102
RTVSPropertyOp15
 70
     1
102
RTVSPropertyOp16
 70
     1
102
RTVSPropertyOp17
 70
     1
102
RTVSPropertyOp18
 70
     1
102
RTVSPropertyOp19
 70
     1
102
RTVSPropertyOp20
 70
     1
102
RTVSPropertyOp21
 70
     1
102
RTVSPropertyOp22
 70
     1
102
RTVSPropertyOp23
 70
     1
102
RTVSPropertyOp24
 70
     1
102
RTVSPropertyOp25
 70
     1
102
RTVSPropertyOp26
 70
     1
102
RTVSPropertyOp27
 70
     1
102
RTVSPropertyOp28
 70
     1
102
RTVSPropertyOp29
 70
     1
102
RTVSPropertyOp30
 70
     1
102
RTVSPropertyOp31
 70
     1
102
RTVSPropertyOp32
 70
     1
102
RTVSPropertyOp33
 70
     1
102
RTVSPropertyOp34
 70
     1
102
RTVSPropertyOp35
 70
     1
102
RTVSPropertyOp36
 70
     1
102
RTVSPropertyOp37
 70
     1
102
RTVSPropertyOp38
 70
     1
102
RTVSPropertyOp39
 70
     1
102
RTVSPropertyOp40
 70
     1
102
RTVSPropertyOp41
 70
     1
102
RTVSPropertyOp42
 70
     1
102
RTVSPropertyOp43
 70
     1
102
RTVSPropertyOp44
 70
     1
102
RTVSPropertyOp45
 70
     1
102
RTVSPropertyOp46
 70
     1
102
RTVSPropertyOp47
 70
     1
102
RTVSPropertyOp48
 70
     1
102
RTVSPropertyOp49
 70
     1
102
RTVSPropertyOp50
 70
     1
102
RTVSPropertyOp51
 70
     0
102
RTVSPropertyOp52
 70
     0
102
RTVSPropertyOp53
 70
     1
102
RTVSPropertyOp54
 70
     1
102
RTVSPropertyOp55
 70
     1
102
RTVSPropertyOp56
 70
     1
102
RTVSPropertyOp57
 70
     1
102
RTVSPropertyOp58
 70
     1
102
RTVSPropertyOp59
 70
     1
102
RTVSPropertyOp60
 70
     1
102
RTVSPropertyOp61
 70
     1
102
RTVSPropertyOp62
 70
     1
  0
XRECORD
  5
8613
102
{ACAD_REACTORS
330
8612
102
}
330
8612
100
AcDbXrecord
280
     1
102
RTVSPost2010Prop28
280
     0
102
RTVSPost2010PropOp28
 70
     1
102
RTVSPost2010Prop29
280
     1
102
RTVSPost2010PropOp29
 70
     1
102
RTVSPost2010Prop30
280
     1
102
RTVSPost2010PropOp30
 70
     1
102
RTVSPost2010Prop31
280
     0
102
RTVSPost2010PropOp31
 70
     1
102
RTVSPost2010Prop32
280
     0
102
RTVSPost2010PropOp32
 70
     1
102
RTVSPost2010Prop33
280
     0
102
RTVSPost2010PropOp33
 70
     1
102
RTVSPost2010Prop34
280
     0
102
RTVSPost2010PropOp34
 70
     1
102
RTVSPost2010Prop35
280
     0
102
RTVSPost2010PropOp35
 70
     1
102
RTVSPost2010Prop36
280
     0
102
RTVSPost2010PropOp36
 70
     1
102
RTVSPost2010Prop37
 90
       50
102
RTVSPost2010PropOp37
 70
     1
102
RTVSPost2010Prop38
140
0.0
102
RTVSPost2010PropOp38
 70
     1
102
RTVSPost2010Prop39
140
1.0
102
RTVSPost2010PropOp39
 70
     1
102
RTVSPost2010Prop40
 90
        0
102
RTVSPost2010PropOp40
 70
     1
102
RTVSPost2010Prop41ColorIndex
 90
       18
102
RTVSPost2010Prop41ColorRGB
 90
        0
102
RTVSPost2010PropOp41
 70
     1
102
RTVSPost2010Prop42
 90
       50
102
RTVSPost2010PropOp42
 70
     1
102
RTVSPost2010Prop43
 90
        3
102
RTVSPost2010PropOp43
 70
     1
102
RTVSPost2010Prop44ColorIndex
 90
        5
102
RTVSPost2010Prop44ColorRGB
 90
      255
102
RTVSPost2010PropOp44
 70
     1
102
RTVSPost2010Prop45
280
     0
102
RTVSPost2010PropOp45
 70
     1
102
RTVSPost2010Prop46
 90
       50
102
RTVSPost2010PropOp46
 70
     1
102
RTVSPost2010Prop47
 90
       50
102
RTVSPost2010PropOp47
 70
     1
102
RTVSPost2010Prop48
 90
       50
102
RTVSPost2010PropOp48
 70
     1
102
RTVSPost2010Prop49
280
     0
102
RTVSPost2010PropOp49
 70
     1
102
RTVSPost2010Prop50
 90
       50
102
RTVSPost2010PropOp50
 70
     1
102
RTVSPost2010Prop51ColorIndex
 90
      256
102
RTVSPost2010Prop51ColorRGB
 90
-16777216
102
RTVSPost2010PropOp51
 70
     0
102
RTVSPost2010Prop52
140
1.0
102
RTVSPost2010PropOp52
 70
     0
102
RTVSPost2010Prop53
 90
        2
102
RTVSPost2010PropOp53
 70
     1
102
RTVSPost2010Prop54
  1
strokes_ogs.tif
102
RTVSPost2010PropOp54
 70
     1
102
RTVSPost2010Prop55
280
     0
102
RTVSPost2010PropOp55
 70
     1
102
RTVSPost2010Prop56
140
1.0
102
RTVSPost2010PropOp56
 70
     1
102
RTVSPost2010Prop57
140
1.0
102
RTVSPost2010PropOp57
 70
     1
102
RTVSPropertyOp0
 70
     1
102
RTVSPropertyOp1
 70
     1
102
RTVSPropertyOp2
 70
     1
102
RTVSPropertyOp3
 70
     1
102
RTVSPropertyOp4
 70
     1
102
RTVSPropertyOp5
 70
     1
102
RTVSPropertyOp6
 70
     1
102
RTVSPropertyOp7
 70
     1
102
RTVSPropertyOp8
 70
     1
102
RTVSPropertyOp9
 70
     1
102
RTVSPropertyOp10
 70
     1
102
RTVSPropertyOp11
 70
     1
102
RTVSPropertyOp12
 70
     1
102
RTVSPropertyOp13
 70
     1
102
RTVSPropertyOp14
 70
     1
102
RTVSPropertyOp15
 70
     1
102
RTVSPropertyOp16
 70
     1
102
RTVSPropertyOp17
 70
     1
102
RTVSPropertyOp18
 70
     1
102
RTVSPropertyOp19
 70
     1
102
RTVSPropertyOp20
 70
     1
102
RTVSPropertyOp21
 70
     1
102
RTVSPropertyOp22
 70
     1
102
RTVSPropertyOp23
 70
     1
102
RTVSPropertyOp24
 70
     1
102
RTVSPropertyOp25
 70
     1
102
RTVSPropertyOp26
 70
     1
102
RTVSPropertyOp27
 70
     1
102
RTVSPropertyOp28
 70
     1
102
RTVSPropertyOp29
 70
     1
102
RTVSPropertyOp30
 70
     1
102
RTVSPropertyOp31
 70
     1
102
RTVSPropertyOp32
 70
     1
102
RTVSPropertyOp33
 70
     1
102
RTVSPropertyOp34
 70
     1
102
RTVSPropertyOp35
 70
     1
102
RTVSPropertyOp36
 70
     1
102
RTVSPropertyOp37
 70
     1
102
RTVSPropertyOp38
 70
     1
102
RTVSPropertyOp39
 70
     1
102
RTVSPropertyOp40
 70
     1
102
RTVSPropertyOp41
 70
     1
102
RTVSPropertyOp42
 70
     1
102
RTVSPropertyOp43
 70
     1
102
RTVSPropertyOp44
 70
     1
102
RTVSPropertyOp45
 70
     1
102
RTVSPropertyOp46
 70
     1
102
RTVSPropertyOp47
 70
     1
102
RTVSPropertyOp48
 70
     1
102
RTVSPropertyOp49
 70
     1
102
RTVSPropertyOp50
 70
     1
102
RTVSPropertyOp51
 70
     0
102
RTVSPropertyOp52
 70
     0
102
RTVSPropertyOp53
 70
     1
102
RTVSPropertyOp54
 70
     1
102
RTVSPropertyOp55
 70
     1
102
RTVSPropertyOp56
 70
     1
102
RTVSPropertyOp57
 70
     1
102
RTVSPropertyOp58
 70
     1
102
RTVSPropertyOp59
 70
     1
102
RTVSPropertyOp60
 70
     1
102
RTVSPropertyOp61
 70
     1
102
RTVSPropertyOp62
 70
     1
  0
XRECORD
  5
8609
102
{ACAD_REACTORS
330
8608
102
}
330
8608
100
AcDbXrecord
280
     1
102
RTVSPost2010Prop28
280
     0
102
RTVSPost2010PropOp28
 70
     1
102
RTVSPost2010Prop29
280
     1
102
RTVSPost2010PropOp29
 70
     1
102
RTVSPost2010Prop30
280
     1
102
RTVSPost2010PropOp30
 70
     1
102
RTVSPost2010Prop31
280
     0
102
RTVSPost2010PropOp31
 70
     1
102
RTVSPost2010Prop32
280
     0
102
RTVSPost2010PropOp32
 70
     1
102
RTVSPost2010Prop33
280
     0
102
RTVSPost2010PropOp33
 70
     1
102
RTVSPost2010Prop34
280
     0
102
RTVSPost2010PropOp34
 70
     1
102
RTVSPost2010Prop35
280
     0
102
RTVSPost2010PropOp35
 70
     1
102
RTVSPost2010Prop36
280
     0
102
RTVSPost2010PropOp36
 70
     1
102
RTVSPost2010Prop37
 90
       50
102
RTVSPost2010PropOp37
 70
     1
102
RTVSPost2010Prop38
140
0.0
102
RTVSPost2010PropOp38
 70
     1
102
RTVSPost2010Prop39
140
1.0
102
RTVSPost2010PropOp39
 70
     1
102
RTVSPost2010Prop40
 90
        0
102
RTVSPost2010PropOp40
 70
     1
102
RTVSPost2010Prop41ColorIndex
 90
       18
102
RTVSPost2010Prop41ColorRGB
 90
        0
102
RTVSPost2010PropOp41
 70
     1
102
RTVSPost2010Prop42
 90
       50
102
RTVSPost2010PropOp42
 70
     1
102
RTVSPost2010Prop43
 90
        3
102
RTVSPost2010PropOp43
 70
     1
102
RTVSPost2010Prop44ColorIndex
 90
        5
102
RTVSPost2010Prop44ColorRGB
 90
      255
102
RTVSPost2010PropOp44
 70
     1
102
RTVSPost2010Prop45
280
     0
102
RTVSPost2010PropOp45
 70
     1
102
RTVSPost2010Prop46
 90
       50
102
RTVSPost2010PropOp46
 70
     1
102
RTVSPost2010Prop47
 90
       50
102
RTVSPost2010PropOp47
 70
     1
102
RTVSPost2010Prop48
 90
       50
102
RTVSPost2010PropOp48
 70
     1
102
RTVSPost2010Prop49
280
     0
102
RTVSPost2010PropOp49
 70
     1
102
RTVSPost2010Prop50
 90
       50
102
RTVSPost2010PropOp50
 70
     1
102
RTVSPost2010Prop51ColorIndex
 90
      256
102
RTVSPost2010Prop51ColorRGB
 90
-16777216
102
RTVSPost2010PropOp51
 70
     0
102
RTVSPost2010Prop52
140
1.0
102
RTVSPost2010PropOp52
 70
     0
102
RTVSPost2010Prop53
 90
        2
102
RTVSPost2010PropOp53
 70
     1
102
RTVSPost2010Prop54
  1
strokes_ogs.tif
102
RTVSPost2010PropOp54
 70
     1
102
RTVSPost2010Prop55
280
     0
102
RTVSPost2010PropOp55
 70
     1
102
RTVSPost2010Prop56
140
1.0
102
RTVSPost2010PropOp56
 70
     1
102
RTVSPost2010Prop57
140
1.0
102
RTVSPost2010PropOp57
 70
     1
102
RTVSPropertyOp0
 70
     1
102
RTVSPropertyOp1
 70
     1
102
RTVSPropertyOp2
 70
     1
102
RTVSPropertyOp3
 70
     1
102
RTVSPropertyOp4
 70
     1
102
RTVSPropertyOp5
 70
     1
102
RTVSPropertyOp6
 70
     1
102
RTVSPropertyOp7
 70
     1
102
RTVSPropertyOp8
 70
     1
102
RTVSPropertyOp9
 70
     1
102
RTVSPropertyOp10
 70
     1
102
RTVSPropertyOp11
 70
     1
102
RTVSPropertyOp12
 70
     1
102
RTVSPropertyOp13
 70
     1
102
RTVSPropertyOp14
 70
     1
102
RTVSPropertyOp15
 70
     1
102
RTVSPropertyOp16
 70
     1
102
RTVSPropertyOp17
 70
     1
102
RTVSPropertyOp18
 70
     1
102
RTVSPropertyOp19
 70
     1
102
RTVSPropertyOp20
 70
     1
102
RTVSPropertyOp21
 70
     1
102
RTVSPropertyOp22
 70
     1
102
RTVSPropertyOp23
 70
     1
102
RTVSPropertyOp24
 70
     1
102
RTVSPropertyOp25
 70
     1
102
RTVSPropertyOp26
 70
     1
102
RTVSPropertyOp27
 70
     1
102
RTVSPropertyOp28
 70
     1
102
RTVSPropertyOp29
 70
     1
102
RTVSPropertyOp30
 70
     1
102
RTVSPropertyOp31
 70
     1
102
RTVSPropertyOp32
 70
     1
102
RTVSPropertyOp33
 70
     1
102
RTVSPropertyOp34
 70
     1
102
RTVSPropertyOp35
 70
     1
102
RTVSPropertyOp36
 70
     1
102
RTVSPropertyOp37
 70
     1
102
RTVSPropertyOp38
 70
     1
102
RTVSPropertyOp39
 70
     1
102
RTVSPropertyOp40
 70
     1
102
RTVSPropertyOp41
 70
     1
102
RTVSPropertyOp42
 70
     1
102
RTVSPropertyOp43
 70
     1
102
RTVSPropertyOp44
 70
     1
102
RTVSPropertyOp45
 70
     1
102
RTVSPropertyOp46
 70
     1
102
RTVSPropertyOp47
 70
     1
102
RTVSPropertyOp48
 70
     1
102
RTVSPropertyOp49
 70
     1
102
RTVSPropertyOp50
 70
     1
102
RTVSPropertyOp51
 70
     0
102
RTVSPropertyOp52
 70
     0
102
RTVSPropertyOp53
 70
     1
102
RTVSPropertyOp54
 70
     1
102
RTVSPropertyOp55
 70
     1
102
RTVSPropertyOp56
 70
     1
102
RTVSPropertyOp57
 70
     1
102
RTVSPropertyOp58
 70
     1
102
RTVSPropertyOp59
 70
     1
102
RTVSPropertyOp60
 70
     1
102
RTVSPropertyOp61
 70
     1
102
RTVSPropertyOp62
 70
     1
  0
XRECORD
  5
85FD
102
{ACAD_REACTORS
330
85FC
102
}
330
85FC
100
AcDbXrecord
280
     1
102
RTVSPost2010Prop28
280
     0
102
RTVSPost2010PropOp28
 70
     1
102
RTVSPost2010Prop29
280
     1
102
RTVSPost2010PropOp29
 70
     1
102
RTVSPost2010Prop30
280
     1
102
RTVSPost2010PropOp30
 70
     1
102
RTVSPost2010Prop31
280
     0
102
RTVSPost2010PropOp31
 70
     1
102
RTVSPost2010Prop32
280
     0
102
RTVSPost2010PropOp32
 70
     1
102
RTVSPost2010Prop33
280
     0
102
RTVSPost2010PropOp33
 70
     1
102
RTVSPost2010Prop34
280
     0
102
RTVSPost2010PropOp34
 70
     1
102
RTVSPost2010Prop35
280
     0
102
RTVSPost2010PropOp35
 70
     1
102
RTVSPost2010Prop36
280
     0
102
RTVSPost2010PropOp36
 70
     1
102
RTVSPost2010Prop37
 90
       50
102
RTVSPost2010PropOp37
 70
     1
102
RTVSPost2010Prop38
140
0.0
102
RTVSPost2010PropOp38
 70
     1
102
RTVSPost2010Prop39
140
1.0
102
RTVSPost2010PropOp39
 70
     1
102
RTVSPost2010Prop40
 90
        0
102
RTVSPost2010PropOp40
 70
     1
102
RTVSPost2010Prop41ColorIndex
 90
       18
102
RTVSPost2010Prop41ColorRGB
 90
        0
102
RTVSPost2010PropOp41
 70
     1
102
RTVSPost2010Prop42
 90
       50
102
RTVSPost2010PropOp42
 70
     1
102
RTVSPost2010Prop43
 90
        3
102
RTVSPost2010PropOp43
 70
     1
102
RTVSPost2010Prop44ColorIndex
 90
        5
102
RTVSPost2010Prop44ColorRGB
 90
      255
102
RTVSPost2010PropOp44
 70
     1
102
RTVSPost2010Prop45
280
     0
102
RTVSPost2010PropOp45
 70
     1
102
RTVSPost2010Prop46
 90
       50
102
RTVSPost2010PropOp46
 70
     1
102
RTVSPost2010Prop47
 90
       50
102
RTVSPost2010PropOp47
 70
     1
102
RTVSPost2010Prop48
 90
       50
102
RTVSPost2010PropOp48
 70
     1
102
RTVSPost2010Prop49
280
     0
102
RTVSPost2010PropOp49
 70
     1
102
RTVSPost2010Prop50
 90
       50
102
RTVSPost2010PropOp50
 70
     1
102
RTVSPost2010Prop51ColorIndex
 90
      256
102
RTVSPost2010Prop51ColorRGB
 90
-16777216
102
RTVSPost2010PropOp51
 70
     0
102
RTVSPost2010Prop52
140
1.0
102
RTVSPost2010PropOp52
 70
     0
102
RTVSPost2010Prop53
 90
        2
102
RTVSPost2010PropOp53
 70
     1
102
RTVSPost2010Prop54
  1
strokes_ogs.tif
102
RTVSPost2010PropOp54
 70
     1
102
RTVSPost2010Prop55
280
     0
102
RTVSPost2010PropOp55
 70
     1
102
RTVSPost2010Prop56
140
1.0
102
RTVSPost2010PropOp56
 70
     1
102
RTVSPost2010Prop57
140
1.0
102
RTVSPost2010PropOp57
 70
     1
102
RTVSPropertyOp0
 70
     1
102
RTVSPropertyOp1
 70
     1
102
RTVSPropertyOp2
 70
     1
102
RTVSPropertyOp3
 70
     1
102
RTVSPropertyOp4
 70
     1
102
RTVSPropertyOp5
 70
     1
102
RTVSPropertyOp6
 70
     1
102
RTVSPropertyOp7
 70
     1
102
RTVSPropertyOp8
 70
     1
102
RTVSPropertyOp9
 70
     1
102
RTVSPropertyOp10
 70
     1
102
RTVSPropertyOp11
 70
     1
102
RTVSPropertyOp12
 70
     1
102
RTVSPropertyOp13
 70
     1
102
RTVSPropertyOp14
 70
     1
102
RTVSPropertyOp15
 70
     1
102
RTVSPropertyOp16
 70
     1
102
RTVSPropertyOp17
 70
     1
102
RTVSPropertyOp18
 70
     1
102
RTVSPropertyOp19
 70
     1
102
RTVSPropertyOp20
 70
     1
102
RTVSPropertyOp21
 70
     1
102
RTVSPropertyOp22
 70
     1
102
RTVSPropertyOp23
 70
     1
102
RTVSPropertyOp24
 70
     1
102
RTVSPropertyOp25
 70
     1
102
RTVSPropertyOp26
 70
     1
102
RTVSPropertyOp27
 70
     1
102
RTVSPropertyOp28
 70
     1
102
RTVSPropertyOp29
 70
     1
102
RTVSPropertyOp30
 70
     1
102
RTVSPropertyOp31
 70
     1
102
RTVSPropertyOp32
 70
     1
102
RTVSPropertyOp33
 70
     1
102
RTVSPropertyOp34
 70
     1
102
RTVSPropertyOp35
 70
     1
102
RTVSPropertyOp36
 70
     1
102
RTVSPropertyOp37
 70
     1
102
RTVSPropertyOp38
 70
     1
102
RTVSPropertyOp39
 70
     1
102
RTVSPropertyOp40
 70
     1
102
RTVSPropertyOp41
 70
     1
102
RTVSPropertyOp42
 70
     1
102
RTVSPropertyOp43
 70
     1
102
RTVSPropertyOp44
 70
     1
102
RTVSPropertyOp45
 70
     1
102
RTVSPropertyOp46
 70
     1
102
RTVSPropertyOp47
 70
     1
102
RTVSPropertyOp48
 70
     1
102
RTVSPropertyOp49
 70
     1
102
RTVSPropertyOp50
 70
     1
102
RTVSPropertyOp51
 70
     0
102
RTVSPropertyOp52
 70
     0
102
RTVSPropertyOp53
 70
     1
102
RTVSPropertyOp54
 70
     1
102
RTVSPropertyOp55
 70
     1
102
RTVSPropertyOp56
 70
     1
102
RTVSPropertyOp57
 70
     1
102
RTVSPropertyOp58
 70
     1
102
RTVSPropertyOp59
 70
     1
102
RTVSPropertyOp60
 70
     1
102
RTVSPropertyOp61
 70
     1
102
RTVSPropertyOp62
 70
     1
  0
XRECORD
  5
8615
102
{ACAD_REACTORS
330
8614
102
}
330
8614
100
AcDbXrecord
280
     1
102
RTVSPost2010Prop28
280
     0
102
RTVSPost2010PropOp28
 70
     1
102
RTVSPost2010Prop29
280
     1
102
RTVSPost2010PropOp29
 70
     1
102
RTVSPost2010Prop30
280
     1
102
RTVSPost2010PropOp30
 70
     1
102
RTVSPost2010Prop31
280
     0
102
RTVSPost2010PropOp31
 70
     1
102
RTVSPost2010Prop32
280
     0
102
RTVSPost2010PropOp32
 70
     1
102
RTVSPost2010Prop33
280
     0
102
RTVSPost2010PropOp33
 70
     1
102
RTVSPost2010Prop34
280
     0
102
RTVSPost2010PropOp34
 70
     1
102
RTVSPost2010Prop35
280
     0
102
RTVSPost2010PropOp35
 70
     1
102
RTVSPost2010Prop36
280
     0
102
RTVSPost2010PropOp36
 70
     1
102
RTVSPost2010Prop37
 90
       50
102
RTVSPost2010PropOp37
 70
     1
102
RTVSPost2010Prop38
140
0.0
102
RTVSPost2010PropOp38
 70
     1
102
RTVSPost2010Prop39
140
1.0
102
RTVSPost2010PropOp39
 70
     1
102
RTVSPost2010Prop40
 90
        0
102
RTVSPost2010PropOp40
 70
     1
102
RTVSPost2010Prop41ColorIndex
 90
       18
102
RTVSPost2010Prop41ColorRGB
 90
        0
102
RTVSPost2010PropOp41
 70
     1
102
RTVSPost2010Prop42
 90
       50
102
RTVSPost2010PropOp42
 70
     1
102
RTVSPost2010Prop43
 90
        3
102
RTVSPost2010PropOp43
 70
     1
102
RTVSPost2010Prop44ColorIndex
 90
        5
102
RTVSPost2010Prop44ColorRGB
 90
      255
102
RTVSPost2010PropOp44
 70
     1
102
RTVSPost2010Prop45
280
     0
102
RTVSPost2010PropOp45
 70
     1
102
RTVSPost2010Prop46
 90
       50
102
RTVSPost2010PropOp46
 70
     1
102
RTVSPost2010Prop47
 90
       50
102
RTVSPost2010PropOp47
 70
     1
102
RTVSPost2010Prop48
 90
       50
102
RTVSPost2010PropOp48
 70
     1
102
RTVSPost2010Prop49
280
     0
102
RTVSPost2010PropOp49
 70
     1
102
RTVSPost2010Prop50
 90
       50
102
RTVSPost2010PropOp50
 70
     1
102
RTVSPost2010Prop51ColorIndex
 90
      256
102
RTVSPost2010Prop51ColorRGB
 90
-16777216
102
RTVSPost2010PropOp51
 70
     0
102
RTVSPost2010Prop52
140
1.0
102
RTVSPost2010PropOp52
 70
     0
102
RTVSPost2010Prop53
 90
        2
102
RTVSPost2010PropOp53
 70
     1
102
RTVSPost2010Prop54
  1
strokes_ogs.tif
102
RTVSPost2010PropOp54
 70
     1
102
RTVSPost2010Prop55
280
     0
102
RTVSPost2010PropOp55
 70
     1
102
RTVSPost2010Prop56
140
1.0
102
RTVSPost2010PropOp56
 70
     1
102
RTVSPost2010Prop57
140
1.0
102
RTVSPost2010PropOp57
 70
     1
102
RTVSPropertyOp0
 70
     1
102
RTVSPropertyOp1
 70
     1
102
RTVSPropertyOp2
 70
     1
102
RTVSPropertyOp3
 70
     1
102
RTVSPropertyOp4
 70
     1
102
RTVSPropertyOp5
 70
     1
102
RTVSPropertyOp6
 70
     1
102
RTVSPropertyOp7
 70
     1
102
RTVSPropertyOp8
 70
     1
102
RTVSPropertyOp9
 70
     1
102
RTVSPropertyOp10
 70
     1
102
RTVSPropertyOp11
 70
     1
102
RTVSPropertyOp12
 70
     1
102
RTVSPropertyOp13
 70
     1
102
RTVSPropertyOp14
 70
     1
102
RTVSPropertyOp15
 70
     1
102
RTVSPropertyOp16
 70
     1
102
RTVSPropertyOp17
 70
     1
102
RTVSPropertyOp18
 70
     1
102
RTVSPropertyOp19
 70
     1
102
RTVSPropertyOp20
 70
     1
102
RTVSPropertyOp21
 70
     1
102
RTVSPropertyOp22
 70
     1
102
RTVSPropertyOp23
 70
     1
102
RTVSPropertyOp24
 70
     1
102
RTVSPropertyOp25
 70
     1
102
RTVSPropertyOp26
 70
     1
102
RTVSPropertyOp27
 70
     1
102
RTVSPropertyOp28
 70
     1
102
RTVSPropertyOp29
 70
     1
102
RTVSPropertyOp30
 70
     1
102
RTVSPropertyOp31
 70
     1
102
RTVSPropertyOp32
 70
     1
102
RTVSPropertyOp33
 70
     1
102
RTVSPropertyOp34
 70
     1
102
RTVSPropertyOp35
 70
     1
102
RTVSPropertyOp36
 70
     1
102
RTVSPropertyOp37
 70
     1
102
RTVSPropertyOp38
 70
     1
102
RTVSPropertyOp39
 70
     1
102
RTVSPropertyOp40
 70
     1
102
RTVSPropertyOp41
 70
     1
102
RTVSPropertyOp42
 70
     1
102
RTVSPropertyOp43
 70
     1
102
RTVSPropertyOp44
 70
     1
102
RTVSPropertyOp45
 70
     1
102
RTVSPropertyOp46
 70
     1
102
RTVSPropertyOp47
 70
     1
102
RTVSPropertyOp48
 70
     1
102
RTVSPropertyOp49
 70
     1
102
RTVSPropertyOp50
 70
     1
102
RTVSPropertyOp51
 70
     0
102
RTVSPropertyOp52
 70
     0
102
RTVSPropertyOp53
 70
     1
102
RTVSPropertyOp54
 70
     1
102
RTVSPropertyOp55
 70
     1
102
RTVSPropertyOp56
 70
     1
102
RTVSPropertyOp57
 70
     1
102
RTVSPropertyOp58
 70
     1
102
RTVSPropertyOp59
 70
     1
102
RTVSPropertyOp60
 70
     1
102
RTVSPropertyOp61
 70
     1
102
RTVSPropertyOp62
 70
     1
  0
ENDSEC
  0
EOF
