  0
SECTION
  2
HEADER
  9
$ACADVER
  1
AC1009
  9
$INSBASE
 10
0.0
 20
0.0
 30
0.0
  9
$EXTMIN
 10
1000.0
 20
1200.0
 30
0.0
  9
$EXTMAX
 10
7400.0
 20
11146.609046
 30
0.0
  9
$LIMMIN
 10
0.0
 20
0.0
  9
$LIMMAX
 10
297.0
 20
210.0
  9
$ORTHOMODE
 70
     0
  9
$REGENMODE
 70
     1
  9
$FILLMODE
 70
     0
  9
$QTEXTMODE
 70
     0
  9
$MIRRTEXT
 70
     1
  9
$DRAGMODE
 70
     2
  9
$LTSCALE
 40
100.0
  9
$OSMODE
 70
    37
  9
$ATTMODE
 70
     1
  9
$TEXTSIZE
 40
180.0
  9
$TRACEWID
 40
0.05
  9
$TEXTSTYLE
  7
STANDARD
  9
$CLAYER
  8
3
  9
$CELTYPE
  6
BYLAYER
  9
$CECOLOR
 62
   256
  9
$DIMSCALE
 40
40.0
  9
$DIMASZ
 40
2.0
  9
$DIMEXO
 40
0.5
  9
$DIMDLI
 40
10.0
  9
$DIMRND
 40
0.0
  9
$DIMDLE
 40
0.0
  9
$DIMEXE
 40
1.0
  9
$DIMTP
 40
1.0
  9
$DIMTM
 40
1.0
  9
$DIMTXT
 40
3.0
  9
$DIMCEN
 40
0.0
  9
$DIMTSZ
 40
0.0
  9
$DIMTOL
 70
     0
  9
$DIMLIM
 70
     0
  9
$DIMTIH
 70
     0
  9
$DIMTOH
 70
     0
  9
$DIMSE1
 70
     0
  9
$DIMSE2
 70
     0
  9
$DIMTAD
 70
     1
  9
$DIMZIN
 70
     8
  9
$DIMBLK
  1

  9
$DIMASO
 70
     1
  9
$DIMSHO
 70
     1
  9
$DIMPOST
  1

  9
$DIMAPOST
  1

  9
$DIMALT
 70
     0
  9
$DIMALTD
 70
     2
  9
$DIMALTF
 40
0.039
  9
$DIMLFAC
 40
1.0
  9
$DIMTOFL
 70
     1
  9
$DIMTVP
 40
0.0
  9
$DIMTIX
 70
     0
  9
$DIMSOXD
 70
     0
  9
$DIMSAH
 70
     1
  9
$DIMBLK1
  1
OPEN
  9
$DIMBLK2
  1
OPEN
  9
$DIMSTYLE
  2
IGA
  9
$DIMCLRD
 70
     0
  9
$DIMCLRE
 70
     0
  9
$DIMCLRT
 70
     0
  9
$DIMTFAC
 40
10.0
  9
$DIMGAP
 40
1.0
  9
$LUNITS
 70
     2
  9
$LUPREC
 70
     3
  9
$SKETCHINC
 40
0.1
  9
$FILLETRAD
 40
50.0
  9
$AUNITS
 70
     0
  9
$AUPREC
 70
     0
  9
$MENU
  1
acad
  9
$ELEVATION
 40
0.0
  9
$PELEVATION
 40
0.0
  9
$THICKNESS
 40
0.0
  9
$LIMCHECK
 70
     0
  9
$BLIPMODE
 70
     0
  9
$CHAMFERA
 40
0.5
  9
$CHAMFERB
 40
0.5
  9
$SKPOLY
 70
     0
  9
$TDCREATE
 40
2450757.383669097
  9
$TDUPDATE
 40
2454953.7794840392
  9
$TDINDWG
 40
0.0095606481
  9
$TDUSRTIMER
 40
0.0095606481
  9
$USRTIMER
 70
     1
  9
$ANGBASE
 50
0.0
  9
$ANGDIR
 70
     0
  9
$PDMODE
 70
     0
  9
$PDSIZE
 40
0.0
  9
$PLINEWID
 40
0.0
  9
$COORDS
 70
     1
  9
$SPLFRAME
 70
     0
  9
$SPLINETYPE
 70
     6
  9
$SPLINESEGS
 70
     8
  9
$ATTDIA
 70
     0
  9
$ATTREQ
 70
     1
  9
$HANDLING
 70
 10241
  9
$HANDSEED
  5
7E4D
  9
$SURFTAB1
 70
     6
  9
$SURFTAB2
 70
     6
  9
$SURFTYPE
 70
     6
  9
$SURFU
 70
     6
  9
$SURFV
 70
     6
  9
$UCSNAME
  2

  9
$UCSORG
 10
0.0
 20
0.0
 30
0.0
  9
$UCSXDIR
 10
1.0
 20
0.0
 30
0.0
  9
$UCSYDIR
 10
0.0
 20
1.0
 30
0.0
  9
$PUCSNAME
  2

  9
$PUCSORG
 10
0.0
 20
0.0
 30
0.0
  9
$PUCSXDIR
 10
1.0
 20
0.0
 30
0.0
  9
$PUCSYDIR
 10
0.0
 20
1.0
 30
0.0
  9
$USERI1
 70
     0
  9
$USERI2
 70
     0
  9
$USERI3
 70
     0
  9
$USERI4
 70
     0
  9
$USERI5
 70
     0
  9
$USERR1
 40
0.0
  9
$USERR2
 40
0.0
  9
$USERR3
 40
0.0
  9
$USERR4
 40
0.0
  9
$USERR5
 40
0.0
  9
$WORLDVIEW
 70
     1
  9
$SHADEDGE
 70
     3
  9
$SHADEDIF
 70
    70
  9
$TILEMODE
 70
     1
  9
$MAXACTVP
 70
    16
  9
$PLIMCHECK
 70
     0
  9
$PEXTMIN
 10
1.0000000000000000E+020
 20
1.0000000000000000E+020
 30
1.0000000000000000E+020
  9
$PEXTMAX
 10
-1.0000000000000000E+020
 20
-1.0000000000000000E+020
 30
-1.0000000000000000E+020
  9
$PLIMMIN
 10
0.0
 20
0.0
  9
$PLIMMAX
 10
12.0
 20
9.0
  9
$UNITMODE
 70
     0
  9
$VISRETAIN
 70
     0
  9
$PLINEGEN
 70
     0
  9
$PSLTSCALE
 70
     1
  0
ENDSEC
  0
SECTION
  2
TABLES
  0
TABLE
  2
VPORT
 70
     2
  0
VPORT
  2
*ACTIVE
 70
     0
 10
0.0
 20
0.0
 11
1.0
 21
1.0
 12
12584.224953905899
 22
6173.2749996292814
 13
0.0
 23
0.0
 14
10.0
 24
10.0
 15
10.0
 25
10.0
 16
0.0
 26
0.0
 36
1.0
 17
0.0
 27
0.0
 37
0.0
 40
10022.99371525931
 41
3.1666666666666661
 42
50.0
 43
0.0
 44
0.0
 50
0.0
 51
0.0
 71
     0
 72
   100
 73
     1
 74
     0
 75
     0
 76
     0
 77
     0
 78
     0
  0
ENDTAB
  0
TABLE
  2
LTYPE
 70
     2
  0
LTYPE
  2
CONTINUOUS
 70
     0
  3
Solid line
 72
    65
 73
     0
 40
0.0
  0
LTYPE
  2
CENTER
 70
     0
  3
____ _ ____ _ ____ _ ____ _ ____ _ ____ _ ____ 
 72
    65
 73
     4
 40
2.0
 49
1.25
 49
-0.25
 49
0.25
 49
-0.25
  0
ENDTAB
  0
TABLE
  2
LAYER
 70
     6
  0
LAYER
  2
0
 70
     0
 62
     7
  6
CONTINUOUS
  0
LAYER
  2
3
 70
     0
 62
     2
  6
CONTINUOUS
  0
LAYER
  2
2
 70
     0
 62
     3
  6
CENTER
  0
LAYER
  2
1
 70
     0
 62
     4
  6
CONTINUOUS
  0
LAYER
  2
4
 70
     0
 62
     7
  6
CONTINUOUS
  0
LAYER
  2
DEFPOINTS
 70
     0
 62
     7
  6
CONTINUOUS
  0
ENDTAB
  0
TABLE
  2
STYLE
 70
     1
  0
STYLE
  2
STANDARD
 70
     0
 40
0.0
 41
1.0
 50
0.0
 71
     0
 42
180.0
  3
simplex.shx
  4
extfont.shx
  0
ENDTAB
  0
TABLE
  2
VIEW
 70
     0
  0
ENDTAB
  0
TABLE
  2
UCS
 70
     0
  0
ENDTAB
  0
TABLE
  2
APPID
 70
     1
  0
APPID
  2
ACAD
 70
     0
  0
ENDTAB
  0
TABLE
  2
DIMSTYLE
 70
     1
  0
DIMSTYLE
  2
IGA
 70
     0
  3

  4

  5

  6
OPEN
  7
OPEN
 40
2.0
 41
2.0
 42
0.5
 43
10.0
 44
1.0
 45
0.0
 46
0.0
 47
1.0
 48
1.0
140
3.0
141
0.0
142
0.0
143
0.03937
144
1.0
145
0.0
146
10.0
147
1.0
 71
     0
 72
     0
 73
     0
 74
     0
 75
     0
 76
     0
 77
     1
 78
     8
170
     0
171
     2
172
     0
173
     1
174
     0
175
     0
176
     0
177
     0
178
     0
  0
ENDTAB
  0
ENDSEC
  0
SECTION
  2
BLOCKS
  0
BLOCK
  8
0
  2
$MODEL_SPACE
 70
     0
 10
0.0
 20
0.0
 30
0.0
  3
$MODEL_SPACE
  1

  0
ENDBLK
  5
1B
  8
0
  0
BLOCK
 67
     1
  8
0
  2
$PAPER_SPACE
 70
     0
 10
0.0
 20
0.0
 30
0.0
  3
$PAPER_SPACE
  1

  0
ENDBLK
  5
18
 67
     1
  8
0
  0
BLOCK
  8
0
  2
_OPEN
 70
     0
 10
0.0
 20
0.0
 30
0.0
  3
_OPEN
  1

  0
LINE
  5
7ADC
  8
0
  6
BYBLOCK
 62
     0
 10
-1.0
 20
0.166667
 30
0.0
 11
0.0
 21
0.0
 31
0.0
  0
LINE
  5
7ADD
  8
0
  6
BYBLOCK
 62
     0
 10
0.0
 20
0.0
 30
0.0
 11
-1.0
 21
-0.166667
 31
0.0
  0
LINE
  5
7ADE
  8
0
  6
BYBLOCK
 62
     0
 10
0.0
 20
0.0
 30
0.0
 11
-1.0
 21
0.0
 31
0.0
  0
ENDBLK
  5
7ADF
  8
0
  0
BLOCK
  8
0
  2
*D1
 70
     1
 10
0.0
 20
0.0
 30
0.0
  3
*D1
  1

  0
LINE
  5
7DA2
  8
3
  6
CONTINUOUS
 62
     0
 10
3777.5361179999991
 20
5146.4951369999999
 30
0.0
 11
4118.096587
 21
5146.4951369999999
 31
0.0
  0
LINE
  5
7DA3
  8
3
  6
CONTINUOUS
 62
     0
 10
3777.5361179999991
 20
3996.4951369999999
 30
0.0
 11
4118.096587
 21
3996.4951369999999
 31
0.0
  0
LINE
  5
7DA4
  8
3
  6
CONTINUOUS
 62
     0
 10
4078.096587
 20
5066.4951369999999
 30
0.0
 11
4078.096587
 21
4076.4951369999999
 31
0.0
  0
INSERT
  5
7DA5
  8
3
  6
CONTINUOUS
 62
     0
  2
_OPEN
 10
4078.096587
 20
5146.4951369999999
 30
0.0
 41
80.0
 42
80.0
 43
80.0
 50
90.0
  0
INSERT
  5
7DA6
  8
3
  6
CONTINUOUS
 62
     0
  2
_OPEN
 10
4078.096587
 20
3996.4951369999999
 30
0.0
 41
80.0
 42
80.0
 43
80.0
 50
270.0
  0
TEXT
  8
3
  40
120
  5
7E3B
  62
0
  72
0
  71
0
 10
3738.10
 20
4316.55
 30
0.000000
  1
1150
  0
POINT
  5
7DA8
  8
DEFPOINTS
  6
CONTINUOUS
 62
     0
 10
3757.536118
 20
5146.4951369999999
 30
0.0
  0
POINT
  5
7DA9
  8
DEFPOINTS
  6
CONTINUOUS
 62
     0
 10
3757.536118
 20
3996.4951369999999
 30
0.0
  0
POINT
  5
7DAA
  8
DEFPOINTS
  6
CONTINUOUS
 62
     0
 10
4078.096587
 20
3996.4951369999999
 30
0.0
  0
ENDBLK
  5
7B10
  8
0
  0
BLOCK
  8
0
  2
*D2
 70
     1
 10
0.0
 20
0.0
 30
0.0
  3
*D2
  1

  0
LINE
  5
7DAB
  8
3
  6
CONTINUOUS
 62
     0
 10
3777.5361179999991
 20
5146.4951369999999
 30
0.0
 11
4397.6076820000008
 21
5146.4951369999999
 31
0.0
  0
LINE
  5
7DAC
  8
3
  6
CONTINUOUS
 62
     0
 10
3994.0396189999992
 20
3948.4951369999999
 30
0.0
 11
4397.6076820000008
 21
3948.4951369999999
 31
0.0
  0
LINE
  5
7DAD
  8
3
  6
CONTINUOUS
 62
     0
 10
4357.6076820000008
 20
5066.4951369999999
 30
0.0
 11
4357.6076820000008
 21
4028.4951369999999
 31
0.0
  0
INSERT
  5
7DAE
  8
3
  6
CONTINUOUS
 62
     0
  2
_OPEN
 10
4357.6076820000008
 20
5146.4951369999999
 30
0.0
 41
80.0
 42
80.0
 43
80.0
 50
90.0
  0
INSERT
  5
7DAF
  8
3
  6
CONTINUOUS
 62
     0
  2
_OPEN
 10
4357.6076820000008
 20
3948.4951369999999
 30
0.0
 41
80.0
 42
80.0
 43
80.0
 50
270.0
  0
TEXT
  8
3
  40
120
  5
7E3C
  62
0
  72
0
  71
0
 10
4017.61
 20
4316.55
 30
0.000000
  1
1198
  0
POINT
  5
7DB1
  8
DEFPOINTS
  6
CONTINUOUS
 62
     0
 10
3757.536118
 20
5146.4951369999999
 30
0.0
  0
POINT
  5
7DB2
  8
DEFPOINTS
  6
CONTINUOUS
 62
     0
 10
3974.0396190000001
 20
3948.4951369999999
 30
0.0
  0
POINT
  5
7DB3
  8
DEFPOINTS
  6
CONTINUOUS
 62
     0
 10
4357.6076820000008
 20
3948.4951369999999
 30
0.0
  0
ENDBLK
  5
7B1D
  8
0
  0
BLOCK
  8
0
  2
*D3
 70
     1
 10
0.0
 20
0.0
 30
0.0
  3
*D3
  1

  0
LINE
  5
7DB4
  8
3
  6
CONTINUOUS
 62
     0
 10
3677.5361179999991
 20
3108.4951369999999
 30
0.0
 11
4397.6076819999989
 21
3108.4951369999999
 31
0.0
  0
LINE
  5
7DB5
  8
3
  6
CONTINUOUS
 62
     0
 10
4357.6076819999998
 20
3868.4951369999999
 30
0.0
 11
4357.6076819999998
 21
3188.4951369999999
 31
0.0
  0
INSERT
  5
7DB6
  8
3
  6
CONTINUOUS
 62
     0
  2
_OPEN
 10
4357.6076819999998
 20
3948.4951369999999
 30
0.0
 41
80.0
 42
80.0
 43
80.0
 50
90.0
  0
INSERT
  5
7DB7
  8
3
  6
CONTINUOUS
 62
     0
  2
_OPEN
 10
4357.6076819999998
 20
3108.4951369999999
 30
0.0
 41
80.0
 42
80.0
 43
80.0
 50
270.0
  0
TEXT
  8
3
  40
120
  5
7E3D
  62
0
  72
0
  71
0
 10
4017.61
 20
3316.10
 30
0.000000
  1
840
  0
POINT
  5
7DB9
  8
DEFPOINTS
  6
CONTINUOUS
 62
     0
 10
3974.0396190000001
 20
3948.4951369999999
 30
0.0
  0
POINT
  5
7DBA
  8
DEFPOINTS
  6
CONTINUOUS
 62
     0
 10
3657.536118
 20
3108.4951369999999
 30
0.0
  0
POINT
  5
7DBB
  8
DEFPOINTS
  6
CONTINUOUS
 62
     0
 10
4357.6076819999998
 20
3108.4951369999999
 30
0.0
  0
ENDBLK
  5
7B29
  8
0
  0
BLOCK
  8
0
  2
*D4
 70
     1
 10
0.0
 20
0.0
 30
0.0
  3
*D4
  1

  0
LINE
  5
7DBC
  8
3
  6
CONTINUOUS
 62
     0
 10
3757.536118
 20
5219.4951369999999
 30
0.0
 11
3757.536118
 21
5388.9563760000001
 31
0.0
  0
LINE
  5
7DBD
  8
3
  6
CONTINUOUS
 62
     0
 10
2997.536118
 20
5306.3537470000001
 30
0.0
 11
2997.536118
 21
5388.9563760000001
 31
0.0
  0
LINE
  5
7DBE
  8
3
  6
CONTINUOUS
 62
     0
 10
3677.5361179999991
 20
5348.9563760000001
 30
0.0
 11
3077.536118
 21
5348.9563760000001
 31
0.0
  0
INSERT
  5
7DBF
  8
3
  6
CONTINUOUS
 62
     0
  2
_OPEN
 10
3757.536118
 20
5348.9563760000001
 30
0.0
 41
80.0
 42
80.0
 43
80.0
  0
INSERT
  5
7DC0
  8
3
  6
CONTINUOUS
 62
     0
  2
_OPEN
 10
2997.536118
 20
5348.9563760000001
 30
0.0
 41
80.0
 42
80.0
 43
80.0
 50
180.0
  0
TEXT
  8
3
  40
120
  5
7E3E
  62
0
  72
0
  71
0
 10
3134.81
 20
5236.56
 30
0.000000
  1
760
  0
POINT
  5
7DC2
  8
DEFPOINTS
  6
CONTINUOUS
 62
     0
 10
3757.536118
 20
5199.4951369999999
 30
0.0
  0
POINT
  5
7DC3
  8
DEFPOINTS
  6
CONTINUOUS
 62
     0
 10
2997.536118
 20
5286.3537470000001
 30
0.0
  0
POINT
  5
7DC4
  8
DEFPOINTS
  6
CONTINUOUS
 62
     0
 10
2997.536118
 20
5348.9563760000001
 30
0.0
  0
ENDBLK
  5
7B46
  8
0
  0
BLOCK
  8
0
  2
*D5
 70
     1
 10
0.0
 20
0.0
 30
0.0
  3
*D5
  1

  0
LINE
  5
7DC5
  8
3
  6
CONTINUOUS
 62
     0
 10
1297.536118
 20
2908.4951369999999
 30
0.0
 11
1297.536118
 21
2635.7894929999989
 31
0.0
  0
LINE
  5
7DC6
  8
3
  6
CONTINUOUS
 62
     0
 10
2997.536118
 20
2810.8438780000001
 30
0.0
 11
2997.536118
 21
2635.7894929999989
 31
0.0
  0
LINE
  5
7DC7
  8
3
  6
CONTINUOUS
 62
     0
 10
1377.536118
 20
2675.7894929999989
 30
0.0
 11
2917.536118
 21
2675.7894929999989
 31
0.0
  0
INSERT
  5
7DC8
  8
3
  6
CONTINUOUS
 62
     0
  2
_OPEN
 10
1297.536118
 20
2675.7894929999989
 30
0.0
 41
80.0
 42
80.0
 43
80.0
 50
180.0
  0
INSERT
  5
7DC9
  8
3
  6
CONTINUOUS
 62
     0
  2
_OPEN
 10
2997.536118
 20
2675.7894929999989
 30
0.0
 41
80.0
 42
80.0
 43
80.0
  0
TEXT
  8
3
  40
120
  5
7E3F
  62
0
  72
0
  71
0
 10
1962.67
 20
2563.39
 30
0.000000
  1
1700
  0
POINT
  5
7DCB
  8
DEFPOINTS
  6
CONTINUOUS
 62
     0
 10
1297.536118
 20
2928.4951369999999
 30
0.0
  0
POINT
  5
7DCC
  8
DEFPOINTS
  6
CONTINUOUS
 62
     0
 10
2997.536118
 20
2830.8438780000001
 30
0.0
  0
POINT
  5
7DCD
  8
DEFPOINTS
  6
CONTINUOUS
 62
     0
 10
2997.536118
 20
2675.7894929999989
 30
0.0
  0
ENDBLK
  5
7B5F
  8
0
  0
BLOCK
  8
0
  2
*D6
 70
     1
 10
0.0
 20
0.0
 30
0.0
  3
*D6
  1

  0
LINE
  5
7DCE
  8
3
  6
CONTINUOUS
 62
     0
 10
3657.536118
 20
2908.4951369999999
 30
0.0
 11
3657.536118
 21
2635.7894929999989
 31
0.0
  0
LINE
  5
7DCF
  8
3
  6
CONTINUOUS
 62
     0
 10
3077.536118
 20
2675.7894929999989
 30
0.0
 11
3577.5361179999991
 21
2675.7894929999989
 31
0.0
  0
INSERT
  5
7DD0
  8
3
  6
CONTINUOUS
 62
     0
  2
_OPEN
 10
2997.536118
 20
2675.7894929999989
 30
0.0
 41
80.0
 42
80.0
 43
80.0
 50
180.0
  0
INSERT
  5
7DD1
  8
3
  6
CONTINUOUS
 62
     0
  2
_OPEN
 10
3657.536118
 20
2675.7894929999989
 30
0.0
 41
80.0
 42
80.0
 43
80.0
  0
TEXT
  8
3
  40
120
  5
7E40
  62
0
  72
0
  71
0
 10
3087.54
 20
2563.39
 30
0.000000
  1
660
  0
POINT
  5
7DD3
  8
DEFPOINTS
  6
CONTINUOUS
 62
     0
 10
2997.536118
 20
2830.8438780000001
 30
0.0
  0
POINT
  5
7DD4
  8
DEFPOINTS
  6
CONTINUOUS
 62
     0
 10
3657.536118
 20
2928.4951369999999
 30
0.0
  0
POINT
  5
7DD5
  8
DEFPOINTS
  6
CONTINUOUS
 62
     0
 10
3657.536118
 20
2675.7894929999989
 30
0.0
  0
ENDBLK
  5
7B6B
  8
0
  0
BLOCK
  8
0
  2
*D7
 70
     1
 10
0.0
 20
0.0
 30
0.0
  3
*D7
  1

  0
LINE
  5
7DD6
  8
3
  6
CONTINUOUS
 62
     0
 10
3777.5361179999991
 20
5199.4951369999999
 30
0.0
 11
4806.4248312773861
 21
5199.4951369999999
 31
0.0
  0
LINE
  5
7DD7
  8
3
  6
CONTINUOUS
 62
     0
 10
3677.5361179999991
 20
2928.4951369999999
 30
0.0
 11
4806.4248312773861
 21
2928.4951369999999
 31
0.0
  0
LINE
  5
7DD8
  8
3
  6
CONTINUOUS
 62
     0
 10
4766.4248312773852
 20
5119.4951369999999
 30
0.0
 11
4766.4248312773852
 21
3008.4951369999999
 31
0.0
  0
INSERT
  5
7DD9
  8
3
  6
CONTINUOUS
 62
     0
  2
_OPEN
 10
4766.4248312773852
 20
5199.4951369999999
 30
0.0
 41
80.0
 42
80.0
 43
80.0
 50
90.0
  0
INSERT
  5
7DDA
  8
3
  6
CONTINUOUS
 62
     0
  2
_OPEN
 10
4766.4248312773852
 20
2928.4951369999999
 30
0.0
 41
80.0
 42
80.0
 43
80.0
 50
270.0
  0
TEXT
  8
3
  40
120
  5
7E41
  62
0
  72
0
  71
0
 10
4426.42
 20
3936.07
 30
0.000000
  1
2271
  0
POINT
  5
7DDC
  8
DEFPOINTS
  6
CONTINUOUS
 62
     0
 10
3757.536118
 20
5199.4951369999999
 30
0.0
  0
POINT
  5
7DDD
  8
DEFPOINTS
  6
CONTINUOUS
 62
     0
 10
3657.536118
 20
2928.4951369999999
 30
0.0
  0
POINT
  5
7DDE
  8
DEFPOINTS
  6
CONTINUOUS
 62
     0
 10
4766.4248312773852
 20
2928.4951369999999
 30
0.0
  0
ENDBLK
  5
7D28
  8
0
  0
BLOCK
  8
0
  2
*D8
 70
     1
 10
0.0
 20
0.0
 30
0.0
  3
*D8
  1

  0
LINE
  5
7DDF
  8
3
  6
CONTINUOUS
 62
     0
 10
5813.8075120000003
 20
5166.4951369999999
 30
0.0
 11
5813.8075120000003
 21
5349.2675419999996
 31
0.0
  0
LINE
  5
7DE0
  8
3
  6
CONTINUOUS
 62
     0
 10
6663.8075119999994
 20
5166.4951369999999
 30
0.0
 11
6663.8075119999994
 21
5349.2675419999996
 31
0.0
  0
LINE
  5
7DE1
  8
3
  6
CONTINUOUS
 62
     0
 10
5893.8075119999994
 20
5309.2675419999996
 30
0.0
 11
6583.8075119999994
 21
5309.2675419999996
 31
0.0
  0
INSERT
  5
7DE2
  8
3
  6
CONTINUOUS
 62
     0
  2
_OPEN
 10
5813.8075120000003
 20
5309.2675419999996
 30
0.0
 41
80.0
 42
80.0
 43
80.0
 50
180.0
  0
INSERT
  5
7DE3
  8
3
  6
CONTINUOUS
 62
     0
  2
_OPEN
 10
6663.8075119999994
 20
5309.2675419999996
 30
0.0
 41
80.0
 42
80.0
 43
80.0
  0
TEXT
  8
3
  40
120
  5
7E42
  62
0
  72
0
  71
0
 10
6002.57
 20
5196.87
 30
0.000000
  1
850
  0
POINT
  5
7DE5
  8
DEFPOINTS
  6
CONTINUOUS
 62
     0
 10
5813.8075120000003
 20
5146.4951369999999
 30
0.0
  0
POINT
  5
7DE6
  8
DEFPOINTS
  6
CONTINUOUS
 62
     0
 10
6663.8075119999994
 20
5146.4951369999999
 30
0.0
  0
POINT
  5
7DE7
  8
DEFPOINTS
  6
CONTINUOUS
 62
     0
 10
6663.8075119999994
 20
5309.2675419999996
 30
0.0
  0
ENDBLK
  5
7B85
  8
0
  0
BLOCK
  8
0
  2
*D9
 70
     1
 10
0.0
 20
0.0
 30
0.0
  3
*D9
  1

  0
LINE
  5
7DE8
  8
3
  6
CONTINUOUS
 62
     0
 10
6786.8075120000003
 20
4508.495136999999
 30
0.0
 11
7122.8042320000004
 21
4508.495136999999
 31
0.0
  0
LINE
  5
7DE9
  8
3
  6
CONTINUOUS
 62
     0
 10
6786.8075120000003
 20
3388.495136999999
 30
0.0
 11
7122.8042320000004
 21
3388.495136999999
 31
0.0
  0
LINE
  5
7DEA
  8
3
  6
CONTINUOUS
 62
     0
 10
7082.8042320000004
 20
4428.4951369999999
 30
0.0
 11
7082.8042320000004
 21
3468.4951369999999
 31
0.0
  0
INSERT
  5
7DEB
  8
3
  6
CONTINUOUS
 62
     0
  2
_OPEN
 10
7082.8042320000004
 20
4508.495136999999
 30
0.0
 41
80.0
 42
80.0
 43
80.0
 50
90.0
  0
INSERT
  5
7DEC
  8
3
  6
CONTINUOUS
 62
     0
  2
_OPEN
 10
7082.8042320000004
 20
3388.495136999999
 30
0.0
 41
80.0
 42
80.0
 43
80.0
 50
270.0
  0
TEXT
  8
3
  40
120
  5
7E43
  62
0
  72
0
  71
0
 10
6742.80
 20
3730.25
 30
0.000000
  1
φ1120
  0
POINT
  5
7DEE
  8
DEFPOINTS
  6
CONTINUOUS
 62
     0
 10
6766.8075119999994
 20
4508.495136999999
 30
0.0
  0
POINT
  5
7DEF
  8
DEFPOINTS
  6
CONTINUOUS
 62
     0
 10
6766.8075119999994
 20
3388.495136999999
 30
0.0
  0
POINT
  5
7DF0
  8
DEFPOINTS
  6
CONTINUOUS
 62
     0
 10
7082.8042320000004
 20
3388.495136999999
 30
0.0
  0
ENDBLK
  5
7CB0
  8
0
  0
BLOCK
  8
0
  2
*D10
 70
     1
 10
0.0
 20
0.0
 30
0.0
  3
*D10
  1

  0
LINE
  5
7CBC
  8
0
  6
BYBLOCK
 62
     0
 10
6766.8075119999994
 20
4578.495136999999
 30
0.0
 11
6766.8075119999994
 21
5594.6183586322732
 31
0.0
  0
LINE
  5
7CBD
  8
0
  6
BYBLOCK
 62
     0
 10
6238.8075120000003
 20
5516.0652380000001
 30
0.0
 11
6238.8075120000003
 21
5594.6183586322732
 31
0.0
  0
LINE
  5
7CBE
  8
0
  6
BYBLOCK
 62
     0
 10
6686.8075120000003
 20
5554.6183586322732
 30
0.0
 11
6318.8075119999994
 21
5554.6183586322732
 31
0.0
  0
TEXT
  5
7CBF
  8
3
 62
     0
 10
6348.5217977142838
 20
5615.6266401116554
 30
0.0
 40
120.0
  1
528
  0
INSERT
  5
7CC0
  8
0
  6
BYBLOCK
 62
     0
  2
_OPEN
 10
6766.8075119999994
 20
5554.6183586322732
 30
0.0
 41
80.0
 42
80.0
 43
80.0
  0
INSERT
  5
7CC1
  8
0
  6
BYBLOCK
 62
     0
  2
_OPEN
 10
6238.8075120000003
 20
5554.6183586322732
 30
0.0
 41
80.0
 42
80.0
 43
80.0
 50
180.0
  0
POINT
  5
7CC2
  8
DEFPOINTS
  6
BYBLOCK
 62
     0
 10
6766.8075119999994
 20
4558.4951369999999
 30
0.0
  0
POINT
  5
7CC3
  8
DEFPOINTS
  6
BYBLOCK
 62
     0
 10
6238.8075120000003
 20
5496.0652379999992
 30
0.0
  0
POINT
  5
7CC4
  8
DEFPOINTS
  6
BYBLOCK
 62
     0
 10
6238.8075120000003
 20
5554.6183586322732
 30
0.0
  0
ENDBLK
  5
7CC5
  8
0
  0
BLOCK
  8
0
  2
*D11
 70
     1
 10
0.0
 20
0.0
 30
0.0
  3
*D11
  1

  0
LINE
  5
7DF1
  8
3
  6
CONTINUOUS
 62
     0
 10
5498.8075119999994
 20
4346.4951369999999
 30
0.0
 11
5498.8075119999994
 21
5594.6183586322732
 31
0.0
  0
LINE
  5
7DF2
  8
3
  6
CONTINUOUS
 62
     0
 10
6158.8075119999994
 20
5554.6183586322732
 30
0.0
 11
5578.8075120000003
 21
5554.6183586322732
 31
0.0
  0
INSERT
  5
7DF3
  8
3
  6
CONTINUOUS
 62
     0
  2
_OPEN
 10
6238.8075120000003
 20
5554.6183586322732
 30
0.0
 41
80.0
 42
80.0
 43
80.0
  0
INSERT
  5
7DF4
  8
3
  6
CONTINUOUS
 62
     0
  2
_OPEN
 10
5498.8075119999994
 20
5554.6183586322732
 30
0.0
 41
80.0
 42
80.0
 43
80.0
 50
180.0
  0
TEXT
  8
3
  40
120
  5
7E44
  62
0
  72
0
  71
0
 10
5628.81
 20
5542.22
 30
0.000000
  1
MAX
  0
TEXT
  8
3
  40
120
  5
7E45
  62
0
  72
0
  71
0
 10
5628.81
 20
5386.22
 30
0.000000
  1
850
  0
POINT
  5
7DF6
  8
DEFPOINTS
  6
CONTINUOUS
 62
     0
 10
6238.8075120000003
 20
5496.0652379999992
 30
0.0
  0
POINT
  5
7DF7
  8
DEFPOINTS
  6
CONTINUOUS
 62
     0
 10
5498.8075119999994
 20
4326.4951369999999
 30
0.0
  0
POINT
  5
7DF8
  8
DEFPOINTS
  6
CONTINUOUS
 62
     0
 10
5498.8075119999994
 20
5554.6183586322732
 30
0.0
  0
ENDBLK
  5
7CBA
  8
0
  0
BLOCK
  8
0
  2
*D12
 70
     1
 10
0.0
 20
0.0
 30
0.0
  3
*D12
  1

  0
LINE
  5
7DF9
  8
3
  6
CONTINUOUS
 62
     0
 10
5551.8075119999994
 20
2908.4951369999999
 30
0.0
 11
5551.8075119999994
 21
2596.45451
 31
0.0
  0
LINE
  5
7DFA
  8
3
  6
CONTINUOUS
 62
     0
 10
6238.8075120000003
 20
2732.8301590000001
 30
0.0
 11
6238.8075120000003
 21
2596.45451
 31
0.0
  0
LINE
  5
7DFB
  8
3
  6
CONTINUOUS
 62
     0
 10
5631.8075119999994
 20
2636.45451
 30
0.0
 11
6158.8075119999994
 21
2636.45451
 31
0.0
  0
INSERT
  5
7DFC
  8
3
  6
CONTINUOUS
 62
     0
  2
_OPEN
 10
5551.8075119999994
 20
2636.45451
 30
0.0
 41
80.0
 42
80.0
 43
80.0
 50
180.0
  0
INSERT
  5
7DFD
  8
3
  6
CONTINUOUS
 62
     0
  2
_OPEN
 10
6238.8075120000003
 20
2636.45451
 30
0.0
 41
80.0
 42
80.0
 43
80.0
  0
TEXT
  8
3
  40
120
  5
7E46
  62
0
  72
0
  71
0
 10
5681.31
 20
2524.05
 30
0.000000
  1
687
  0
POINT
  5
7DFF
  8
DEFPOINTS
  6
CONTINUOUS
 62
     0
 10
5551.8075119999994
 20
2928.4951369999999
 30
0.0
  0
POINT
  5
7E00
  8
DEFPOINTS
  6
CONTINUOUS
 62
     0
 10
6238.8075120000003
 20
2752.8301590000001
 30
0.0
  0
POINT
  5
7E01
  8
DEFPOINTS
  6
CONTINUOUS
 62
     0
 10
6238.8075120000003
 20
2636.45451
 30
0.0
  0
ENDBLK
  5
7BBA
  8
0
  0
BLOCK
  8
0
  2
*D13
 70
     1
 10
0.0
 20
0.0
 30
0.0
  3
*D13
  1

  0
LINE
  5
7E02
  8
3
  6
CONTINUOUS
 62
     0
 10
6731.8075120000003
 20
2908.4951369999999
 30
0.0
 11
6731.8075120000003
 21
2596.45451
 31
0.0
  0
LINE
  5
7E03
  8
3
  6
CONTINUOUS
 62
     0
 10
6318.8075119999994
 20
2636.45451
 30
0.0
 11
6651.8075120000012
 21
2636.45451
 31
0.0
  0
TEXT
  8
3
  40
120
  5
7E47
  62
0
  72
0
  71
0
 10
6233.56
 20
2539.27
 30
0.000000
  1
493
  0
INSERT
  5
7E05
  8
3
  6
CONTINUOUS
 62
     0
  2
_OPEN
 10
6238.8075120000003
 20
2636.45451
 30
0.0
 41
80.0
 42
80.0
 43
80.0
 50
180.0
  0
INSERT
  5
7E06
  8
3
  6
CONTINUOUS
 62
     0
  2
_OPEN
 10
6731.8075120000003
 20
2636.45451
 30
0.0
 41
80.0
 42
80.0
 43
80.0
  0
POINT
  5
7E07
  8
DEFPOINTS
  6
CONTINUOUS
 62
     0
 10
6238.8075120000003
 20
2752.8301590000001
 30
0.0
  0
POINT
  5
7E08
  8
DEFPOINTS
  6
CONTINUOUS
 62
     0
 10
6731.8075120000003
 20
2928.4951369999999
 30
0.0
  0
POINT
  5
7E09
  8
DEFPOINTS
  6
CONTINUOUS
 62
     0
 10
6731.8075120000003
 20
2636.45451
 30
0.0
  0
ENDBLK
  5
7C20
  8
0
  0
BLOCK
  8
0
  2
*D14
 70
     1
 10
0.0
 20
0.0
 30
0.0
  3
*D14
  1

  0
LINE
  5
7E0A
  8
3
  6
CONTINUOUS
 62
     0
 10
1297.536118
 20
7211.3627939999997
 30
0.0
 11
1297.536118
 21
6877.3353559999996
 31
0.0
  0
LINE
  5
7E0B
  8
3
  6
CONTINUOUS
 62
     0
 10
3657.536118
 20
7211.3627939999997
 30
0.0
 11
3657.536118
 21
6877.3353559999996
 31
0.0
  0
LINE
  5
7E0C
  8
3
  6
CONTINUOUS
 62
     0
 10
1377.536118
 20
6917.3353560000014
 30
0.0
 11
3577.5361179999991
 21
6917.3353560000014
 31
0.0
  0
INSERT
  5
7E0D
  8
3
  6
CONTINUOUS
 62
     0
  2
_OPEN
 10
1297.536118
 20
6917.3353560000014
 30
0.0
 41
80.0
 42
80.0
 43
80.0
 50
180.0
  0
INSERT
  5
7E0E
  8
3
  6
CONTINUOUS
 62
     0
  2
_OPEN
 10
3657.536118
 20
6917.3353560000014
 30
0.0
 41
80.0
 42
80.0
 43
80.0
  0
TEXT
  8
3
  40
120
  5
7E48
  62
0
  72
0
  71
0
 10
2146.50
 20
6804.94
 30
0.000000
  1
2360
  0
POINT
  5
7E10
  8
DEFPOINTS
  6
CONTINUOUS
 62
     0
 10
1297.536118
 20
7231.3627939999997
 30
0.0
  0
POINT
  5
7E11
  8
DEFPOINTS
  6
CONTINUOUS
 62
     0
 10
3657.536118
 20
7231.3627939999997
 30
0.0
  0
POINT
  5
7E12
  8
DEFPOINTS
  6
CONTINUOUS
 62
     0
 10
3657.536118
 20
6917.3353560000014
 30
0.0
  0
ENDBLK
  5
7BE1
  8
0
  0
BLOCK
  8
0
  2
*D15
 70
     1
 10
0.0
 20
0.0
 30
0.0
  3
*D15
  1

  0
LINE
  5
7E13
  8
3
  6
CONTINUOUS
 62
     0
 10
3677.5361179999991
 20
8411.3627940000006
 30
0.0
 11
4131.6803520000012
 21
8411.3627939999988
 31
0.0
  0
LINE
  5
7E14
  8
3
  6
CONTINUOUS
 62
     0
 10
3677.5361179999991
 20
7231.3627939999997
 30
0.0
 11
4131.6803520000012
 21
7231.3627939999997
 31
0.0
  0
LINE
  5
7E15
  8
3
  6
CONTINUOUS
 62
     0
 10
4091.6803520000012
 20
8331.3627940000006
 30
0.0
 11
4091.6803520000012
 21
7311.3627939999997
 31
0.0
  0
INSERT
  5
7E16
  8
3
  6
CONTINUOUS
 62
     0
  2
_OPEN
 10
4091.6803520000012
 20
8411.3627940000006
 30
0.0
 41
80.0
 42
80.0
 43
80.0
 50
90.0
  0
INSERT
  5
7E17
  8
3
  6
CONTINUOUS
 62
     0
  2
_OPEN
 10
4091.6803520000012
 20
7231.3627939999997
 30
0.0
 41
80.0
 42
80.0
 43
80.0
 50
270.0
  0
TEXT
  8
3
  40
120
  5
7E49
  62
0
  72
0
  71
0
 10
3751.68
 20
7618.76
 30
0.000000
  1
1180
  0
POINT
  5
7E19
  8
DEFPOINTS
  6
CONTINUOUS
 62
     0
 10
3657.536118
 20
8411.3627940000006
 30
0.0
  0
POINT
  5
7E1A
  8
DEFPOINTS
  6
CONTINUOUS
 62
     0
 10
3657.536118
 20
7231.3627939999997
 30
0.0
  0
POINT
  5
7E1B
  8
DEFPOINTS
  6
CONTINUOUS
 62
     0
 10
4091.6803520000012
 20
7231.3627939999997
 30
0.0
  0
ENDBLK
  5
7BED
  8
0
  0
BLOCK
  8
0
  2
*D16
 70
     1
 10
0.0
 20
0.0
 30
0.0
  3
*D16
  1

  0
LINE
  5
7E1C
  8
3
  6
CONTINUOUS
 62
     0
 10
2028.5361179999991
 20
3968.4951369999999
 30
0.0
 11
2028.5361179999991
 21
5388.9563760000001
 31
0.0
  0
LINE
  5
7E1D
  8
3
  6
CONTINUOUS
 62
     0
 10
2917.536118
 20
5348.9563760000001
 30
0.0
 11
2108.5361179999991
 21
5348.9563760000001
 31
0.0
  0
INSERT
  5
7E1E
  8
3
  6
CONTINUOUS
 62
     0
  2
_OPEN
 10
2997.536118
 20
5348.9563760000001
 30
0.0
 41
80.0
 42
80.0
 43
80.0
  0
INSERT
  5
7E1F
  8
3
  6
CONTINUOUS
 62
     0
  2
_OPEN
 10
2028.5361179999991
 20
5348.9563760000001
 30
0.0
 41
80.0
 42
80.0
 43
80.0
 50
180.0
  0
TEXT
  8
3
  40
120
  5
7E4A
  62
0
  72
0
  71
0
 10
2273.04
 20
5236.56
 30
0.000000
  1
969
  0
POINT
  5
7E21
  8
DEFPOINTS
  6
CONTINUOUS
 62
     0
 10
2997.536118
 20
5286.3537470000001
 30
0.0
  0
POINT
  5
7E22
  8
DEFPOINTS
  6
CONTINUOUS
 62
     0
 10
2028.5361179999991
 20
3948.4951369999999
 30
0.0
  0
POINT
  5
7E23
  8
DEFPOINTS
  6
CONTINUOUS
 62
     0
 10
2028.5361179999991
 20
5348.9563760000001
 30
0.0
  0
ENDBLK
  5
7C78
  8
0
  0
BLOCK
  8
0
  2
*D17
 70
     1
 10
0.0
 20
0.0
 30
0.0
  3
*D17
  1

  0
LINE
  5
7E24
  8
3
 62
     0
 10
3757.536118
 20
5219.4951369999999
 30
0.0
 11
3757.536118
 21
5629.5448953728992
 31
0.0
  0
LINE
  5
7E25
  8
3
 62
     0
 10
1297.536118
 20
3253.4951369999999
 30
0.0
 11
1297.536118
 21
5629.5448953728992
 31
0.0
  0
LINE
  5
7E26
  8
3
 62
     0
 10
3677.5361179999991
 20
5589.5448953728992
 30
0.0
 11
1377.536118
 21
5589.5448953728992
 31
0.0
  0
INSERT
  5
7E27
  8
3
 62
     0
  2
_OPEN
 10
3757.536118
 20
5589.5448953728992
 30
0.0
 41
80.0
 42
80.0
 43
80.0
  0
INSERT
  5
7E28
  8
3
 62
     0
  2
_OPEN
 10
1297.536118
 20
5589.5448953728992
 30
0.0
 41
80.0
 42
80.0
 43
80.0
 50
180.0
  0
TEXT
  8
3
  40
120
  5
7E4B
  62
0
  72
0
  71
0
 10
2293.86
 20
5477.14
 30
0.000000
  1
2460
  0
POINT
  5
7E2A
  8
DEFPOINTS
 62
     0
 10
3757.536118
 20
5199.4951369999999
 30
0.0
  0
POINT
  5
7E2B
  8
DEFPOINTS
 62
     0
 10
1297.536118
 20
3233.4951369999999
 30
0.0
  0
POINT
  5
7E2C
  8
DEFPOINTS
 62
     0
 10
1297.536118
 20
5589.5448953728992
 30
0.0
  0
ENDBLK
  5
7C84
  8
0
  0
BLOCK
  8
0
  2
*D18
 70
     1
 10
0.0
 20
0.0
 30
0.0
  3
*D18
  1

  0
LINE
  5
7D66
  8
0
  6
BYBLOCK
 62
     0
 10
3677.5361179999991
 20
2993.4951369999999
 30
0.0
 11
4397.6076819999989
 21
2993.4951369999999
 31
0.0
  0
LINE
  5
7D67
  8
0
  6
BYBLOCK
 62
     0
 10
4357.6076819999998
 20
3188.4951369999999
 30
0.0
 11
4357.6076819999998
 21
3268.4951369999999
 31
0.0
  0
LINE
  5
7D68
  8
0
  6
BYBLOCK
 62
     0
 10
4357.6076819999998
 20
2913.495136999999
 30
0.0
 11
4357.6076819999998
 21
2833.495136999999
 31
0.0
  0
TEXT
  5
7D69
  8
3
 62
     0
 10
4589.0362534285714
 20
2961.0390679518518
 30
0.0
 40
120.0
  1
(115)
 50
90.0
  0
LINE
  5
7D6A
  8
0
  6
BYBLOCK
 62
     0
 10
4357.6076819999998
 20
3108.4951369999999
 30
0.0
 11
4357.6076819999998
 21
2993.4951369999999
 31
0.0
  0
INSERT
  5
7D6B
  8
0
  6
BYBLOCK
 62
     0
  2
_OPEN
 10
4357.6076819999998
 20
3108.4951369999999
 30
0.0
 41
80.0
 42
80.0
 43
80.0
 50
270.0
  0
INSERT
  5
7D6C
  8
0
  6
BYBLOCK
 62
     0
  2
_DOT
 10
4357.6076819999998
 20
2993.4951369999999
 30
0.0
 41
80.0
 42
80.0
 43
80.0
 50
90.0
  0
POINT
  5
7D6D
  8
DEFPOINTS
  6
BYBLOCK
 62
     0
 10
3657.536118
 20
3108.4951369999999
 30
0.0
  0
POINT
  5
7D6E
  8
DEFPOINTS
  6
BYBLOCK
 62
     0
 10
3657.536118
 20
2993.4951369999999
 30
0.0
  0
POINT
  5
7D6F
  8
DEFPOINTS
  6
BYBLOCK
 62
     0
 10
4357.6076819999998
 20
2993.4951369999999
 30
0.0
  0
ENDBLK
  5
7D70
  8
0
  0
BLOCK
  8
0
  2
*D19
 70
     1
 10
0.0
 20
0.0
 30
0.0
  3
*D19
  1

  0
LINE
  5
7E2D
  8
3
 62
     0
 10
3677.5361179999991
 20
2993.4951369999999
 30
0.0
 11
4397.6076819999989
 21
2993.4951369999999
 31
0.0
  0
LINE
  5
7E2E
  8
3
 62
     0
 10
3677.5361179999991
 20
2928.4951369999999
 30
0.0
 11
4397.6076819999989
 21
2928.4951369999999
 31
0.0
  0
LINE
  5
7E2F
  8
3
 62
     0
 10
4357.6076819999998
 20
3073.4951369999999
 30
0.0
 11
4357.6076819999998
 21
3153.4951369999999
 31
0.0
  0
LINE
  5
7E30
  8
3
 62
     0
 10
4357.6076819999998
 20
2848.4951369999999
 30
0.0
 11
4357.6076819999998
 21
2494.2094227142852
 31
0.0
  0
LINE
  5
7E31
  8
3
 62
     0
 10
4357.6076819999998
 20
2993.4951369999999
 30
0.0
 11
4357.6076819999998
 21
2928.4951369999999
 31
0.0
  0
INSERT
  5
7E32
  8
3
 62
     0
  2
_DOT
 10
4357.6076819999998
 20
2993.4951369999999
 30
0.0
 41
80.0
 42
80.0
 43
80.0
 50
270.0
  0
INSERT
  5
7E33
  8
3
 62
     0
  2
_OPEN
 10
4357.6076819999998
 20
2928.4951369999999
 30
0.0
 41
80.0
 42
80.0
 43
80.0
 50
90.0
  0
TEXT
  8
3
  40
120
  5
7E4C
  62
0
  72
0
  71
0
 10
4017.61
 20
2418.95
 30
0.000000
  1
65
  0
POINT
  5
7E35
  8
DEFPOINTS
 62
     0
 10
3657.536118
 20
2993.4951369999999
 30
0.0
  0
POINT
  5
7E36
  8
DEFPOINTS
 62
     0
 10
3657.536118
 20
2928.4951369999999
 30
0.0
  0
POINT
  5
7E37
  8
DEFPOINTS
 62
     0
 10
4357.6076819999998
 20
2928.4951369999999
 30
0.0
  0
ENDBLK
  5
7D7D
  8
0
  0
BLOCK
  8
0
  2
_DOT
 70
     0
 10
0.0
 20
0.0
 30
0.0
  3
_DOT
  1

  0
LINE
  5
7D7F
  8
0
  6
BYBLOCK
 62
     0
 10
0.0
 20
0.0
 30
0.0
 11
-1.0
 21
-0.0000000000000284
 31
0.0
  0
POLYLINE
  5
7D80
  8
0
  6
BYBLOCK
 62
     0
 66
     1
 10
0.0
 20
0.0
 30
0.0
 70
     1
 40
0.1666666666666666
 41
0.1666666666666666
  0
VERTEX
  5
7E38
  8
0
  6
BYBLOCK
 62
     0
 10
-0.0833333333333286
 20
-0.0000000000000284
 30
0.0
 42
1.0
  0
VERTEX
  5
7E39
  8
0
  6
BYBLOCK
 62
     0
 10
0.0833333333333286
 20
-0.0000000000000284
 30
0.0
 42
1.0
  0
SEQEND
  5
7E3A
  8
0
  6
BYBLOCK
 62
     0
  0
ENDBLK
  5
7D64
  8
0
  0
ENDSEC
  0
SECTION
  2
ENTITIES
  0
LINE
  5
7A6E
  8
1
  6
CONTINUOUS
 10
1672.036118
 20
3254.1951369999988
 30
0.0
 11
3082.636117999999
 21
3580.1951370000002
 31
0.0
  0
LINE
  5
7A6F
  8
1
  6
CONTINUOUS
 10
1649.536118
 20
3351.5951369999998
 30
0.0
 11
3060.136117999999
 21
3677.5951369999998
 31
0.0
  0
LINE
  5
7A70
  8
1
  6
CONTINUOUS
 10
1527.9361180000001
 20
3667.0951369999998
 30
0.0
 11
2834.9361180000001
 21
4289.7951370000001
 31
0.0
  0
LINE
  5
7A71
  8
1
  6
CONTINUOUS
 10
1570.9361180000001
 20
3576.7951369999992
 30
0.0
 11
2877.9361180000001
 21
4199.4951369999999
 31
0.0
  0
LINE
  5
7A72
  8
1
  6
CONTINUOUS
 10
1397.536118
 20
3233.4951369999999
 30
0.0
 11
1847.536118
 21
3233.4951369999999
 31
0.0
  0
ARC
  5
7A73
  8
1
  6
CONTINUOUS
 10
3079.536118
 20
4030.495136999999
 30
0.0
 40
1054.2
 50
94.500000000000014
 51
180.0
  0
ARC
  5
7A74
  8
1
  6
CONTINUOUS
 10
2915.536118
 20
4030.495136999999
 30
0.0
 40
890.20000000000005
 50
180.0
 51
275.10000000000002
  0
LINE
  5
7A75
  8
1
  6
CONTINUOUS
 10
3657.536118
 20
3108.4951369999999
 30
0.0
 11
1297.536118
 21
3108.4951369999999
 31
0.0
  0
LINE
  5
7A76
  8
1
  6
CONTINUOUS
 10
3657.536118
 20
3233.4951369999999
 30
0.0
 11
1297.536118
 21
3233.4951369999999
 31
0.0
  0
LINE
  5
7A77
  8
1
  6
CONTINUOUS
 10
1397.536118
 20
3288.495136999999
 30
0.0
 11
1847.536118
 21
3288.495136999999
 31
0.0
  0
LINE
  5
7A78
  8
1
  6
CONTINUOUS
 10
3657.536118
 20
2993.4951369999999
 30
0.0
 11
1297.536118
 21
2993.4951369999999
 31
0.0
  0
LINE
  5
7A79
  8
1
  6
CONTINUOUS
 10
3657.536118
 20
2928.4951369999999
 30
0.0
 11
1297.536118
 21
2928.4951369999999
 31
0.0
  0
LINE
  5
7A7A
  8
2
  6
CENTER
 10
1622.536118
 20
3348.4951369999999
 30
0.0
 11
1622.536118
 21
3588.4951369999999
 31
0.0
  0
ARC
  5
7A7B
  8
1
  6
CONTINUOUS
 10
1622.536118
 20
3468.4951369999999
 30
0.0
 40
220.0
 50
115.4999999999999
 51
283.0
  0
CIRCLE
  5
7A7C
  8
1
  6
CONTINUOUS
 10
1622.536118
 20
3468.4951369999999
 30
0.0
 40
120.0
  0
ARC
  5
7A7D
  8
1
  6
CONTINUOUS
 10
1622.536118
 20
3468.4951369999999
 30
0.0
 40
199.0
 50
320.10000000000002
 51
219.90000000000001
  0
LINE
  5
7A7E
  8
1
  6
CONTINUOUS
 10
1397.536118
 20
3233.4951369999999
 30
0.0
 11
1397.536118
 21
3288.495136999999
 31
0.0
  0
LINE
  5
7A7F
  8
1
  6
CONTINUOUS
 10
1297.536118
 20
3233.4951369999999
 30
0.0
 11
1297.536118
 21
3108.4951369999999
 31
0.0
  0
LINE
  5
7A80
  8
1
  6
CONTINUOUS
 10
1460.536118
 20
3330.9951369999999
 30
0.0
 11
1469.836117999999
 21
3340.8951369999991
 31
0.0
  0
LINE
  5
7A81
  8
1
  6
CONTINUOUS
 10
1460.536118
 20
3288.495136999999
 30
0.0
 11
1460.536118
 21
3330.9951369999999
 31
0.0
  0
LINE
  5
7A82
  8
1
  6
CONTINUOUS
 10
1297.536118
 20
2993.4951369999999
 30
0.0
 11
1297.536118
 21
2928.4951369999999
 31
0.0
  0
LINE
  5
7A83
  8
1
  6
CONTINUOUS
 10
1784.536118
 20
3330.9951369999999
 30
0.0
 11
1775.236118
 21
3340.8951369999991
 31
0.0
  0
LINE
  5
7A84
  8
1
  6
CONTINUOUS
 10
1784.536118
 20
3288.495136999999
 30
0.0
 11
1784.536118
 21
3330.9951369999999
 31
0.0
  0
LINE
  5
7A85
  8
2
  6
CENTER
 10
1502.536118
 20
3468.4951369999999
 30
0.0
 11
1742.536118
 21
3468.4951369999999
 31
0.0
  0
LINE
  5
7A86
  8
2
  6
CENTER
 10
1679.7373480000001
 20
3948.4951369999999
 30
0.0
 11
3974.0396190000001
 21
3948.4951369999999
 31
0.0
  0
ARC
  5
7A87
  8
1
  6
CONTINUOUS
 10
2997.536118
 20
3948.4951369999999
 30
0.0
 40
378.0
 50
283.0
 51
115.4999999999999
  0
LINE
  5
7A88
  8
1
  6
CONTINUOUS
 10
3757.536118
 20
5146.4951369999999
 30
0.0
 11
2997.536118
 21
5081.4951369999999
 31
0.0
  0
ARC
  5
7A89
  8
1
  6
CONTINUOUS
 10
2929.036118
 20
3879.9951369999999
 30
0.0
 40
739.10000000000002
 50
275.10000000000002
 51
0.0
  0
CIRCLE
  5
7A8A
  8
1
  6
CONTINUOUS
 10
2997.536118
 20
3948.4951369999999
 30
0.0
 40
560.0
  0
CIRCLE
  5
7A8B
  8
1
  6
CONTINUOUS
 10
2997.536118
 20
3948.4951369999999
 30
0.0
 40
610.0
  0
CIRCLE
  5
7A8C
  8
1
  6
CONTINUOUS
 10
2997.536118
 20
3948.4951369999999
 30
0.0
 40
278.0
  0
LINE
  5
7A8D
  8
1
  6
CONTINUOUS
 10
1847.536118
 20
3233.4951369999999
 30
0.0
 11
1847.536118
 21
3288.495136999999
 31
0.0
  0
LINE
  5
7A8E
  8
2
  6
CENTER
 10
2997.536118
 20
2830.8438780000001
 30
0.0
 11
2997.536118
 21
5286.3537470000001
 31
0.0
  0
LINE
  5
7A8F
  8
1
  6
CONTINUOUS
 10
3757.536118
 20
3943.4951369999999
 30
0.0
 11
3757.536118
 21
5199.4951369999999
 31
0.0
  0
LINE
  5
7A90
  8
1
  6
CONTINUOUS
 10
3717.536118
 20
3996.4951369999999
 30
0.0
 11
3717.536118
 21
5143.0951369999993
 31
0.0
  0
LINE
  5
7A91
  8
1
  6
CONTINUOUS
 10
3657.536118
 20
3233.4951369999999
 30
0.0
 11
3657.536118
 21
3108.4951369999999
 31
0.0
  0
LINE
  5
7A92
  8
1
  6
CONTINUOUS
 10
3657.536118
 20
2993.4951369999999
 30
0.0
 11
3657.536118
 21
2928.4951369999999
 31
0.0
  0
LINE
  5
7A93
  8
1
  6
CONTINUOUS
 10
3656.7361179999989
 20
3996.4951369999999
 30
0.0
 11
3757.536118
 21
3996.4951369999999
 31
0.0
  0
ARC
  5
7A94
  8
1
  6
CONTINUOUS
 10
3066.0361179999991
 20
3879.9951369999999
 30
0.0
 40
602.10000000000002
 50
0.0
 51
11.19999999999999
  0
LINE
  5
7A95
  8
1
  6
CONTINUOUS
 10
1402.536118
 20
7418.3627939999997
 30
0.0
 11
3375.536118
 21
7418.3627939999997
 31
0.0
  0
LINE
  5
7A96
  8
1
  6
CONTINUOUS
 10
1402.536118
 20
7178.3627939999997
 30
0.0
 11
3375.536118
 21
7178.3627939999997
 31
0.0
  0
LINE
  5
7A97
  8
1
  6
CONTINUOUS
 10
1297.536118
 20
7231.3627939999997
 30
0.0
 11
3657.536118
 21
7231.3627939999997
 31
0.0
  0
LINE
  5
7A98
  8
1
  6
CONTINUOUS
 10
1297.536118
 20
8411.3627940000006
 30
0.0
 11
2437.536118
 21
8411.3627940000006
 31
0.0
  0
LINE
  5
7A99
  8
1
  6
CONTINUOUS
 10
1297.536118
 20
8411.3627940000006
 30
0.0
 11
1297.536118
 21
7231.3627939999997
 31
0.0
  0
LINE
  5
7A9A
  8
1
  6
CONTINUOUS
 10
1402.536118
 20
7178.3627939999997
 30
0.0
 11
1402.536118
 21
7418.3627939999997
 31
0.0
  0
LINE
  5
7A9B
  8
1
  6
CONTINUOUS
 10
1502.536118
 20
7248.3627940000006
 30
0.0
 11
1502.536118
 21
7348.3627939999997
 31
0.0
  0
LINE
  5
7A9C
  8
1
  6
CONTINUOUS
 10
1742.536118
 20
7248.3627940000006
 30
0.0
 11
1742.536118
 21
7348.3627939999997
 31
0.0
  0
LINE
  5
7A9D
  8
1
  6
CONTINUOUS
 10
1742.536118
 20
7248.3627940000006
 30
0.0
 11
1502.536118
 21
7248.3627940000006
 31
0.0
  0
LINE
  5
7A9E
  8
1
  6
CONTINUOUS
 10
1742.536118
 20
7348.3627939999997
 30
0.0
 11
1502.536118
 21
7348.3627939999997
 31
0.0
  0
LINE
  5
7A9F
  8
1
  6
CONTINUOUS
 10
1423.4361180000001
 20
8066.5627939999986
 30
0.0
 11
1821.636117999999
 21
8066.5627939999986
 31
0.0
  0
LINE
  5
7AA0
  8
1
  6
CONTINUOUS
 10
1423.4361180000001
 20
7467.0627940000004
 30
0.0
 11
1821.636117999999
 21
7467.0627940000004
 31
0.0
  0
LINE
  5
7AA1
  8
1
  6
CONTINUOUS
 10
1423.4361180000001
 20
7467.0627940000004
 30
0.0
 11
1423.4361180000001
 21
8066.5627939999986
 31
0.0
  0
LINE
  5
7AA2
  8
1
  6
CONTINUOUS
 10
1821.636117999999
 20
7467.0627940000004
 30
0.0
 11
1821.636117999999
 21
8066.5627939999986
 31
0.0
  0
LINE
  5
7AA3
  8
1
  6
CONTINUOUS
 10
1650.036118
 20
7348.3627939999997
 30
0.0
 11
1650.036118
 21
7467.0627940000004
 31
0.0
  0
LINE
  5
7AA4
  8
1
  6
CONTINUOUS
 10
1595.036118
 20
7348.3627939999997
 30
0.0
 11
1595.036118
 21
7467.0627940000004
 31
0.0
  0
LINE
  5
7AA5
  8
1
  6
CONTINUOUS
 10
3275.536118
 20
7348.3627939999997
 30
0.0
 11
2719.536118
 21
7348.3627939999997
 31
0.0
  0
LINE
  5
7AA6
  8
1
  6
CONTINUOUS
 10
3275.536118
 20
7248.3627940000006
 30
0.0
 11
2719.536118
 21
7248.3627940000006
 31
0.0
  0
LINE
  5
7AA7
  8
1
  6
CONTINUOUS
 10
2387.5361179999991
 20
8446.3627940000006
 30
0.0
 11
3607.536118
 21
8446.3627940000006
 31
0.0
  0
LINE
  5
7AA8
  8
1
  6
CONTINUOUS
 10
2025.336117999999
 20
7493.3627939999988
 30
0.0
 11
3757.536118
 21
7493.3627939999988
 31
0.0
  0
LINE
  5
7AA9
  8
1
  6
CONTINUOUS
 10
2025.336117999999
 20
8343.3627940000006
 30
0.0
 11
3757.536118
 21
8343.3627940000006
 31
0.0
  0
LINE
  5
7AAA
  8
1
  6
CONTINUOUS
 10
2025.336117999999
 20
7493.3627939999988
 30
0.0
 11
2025.336117999999
 21
8343.3627940000006
 31
0.0
  0
LINE
  5
7AAB
  8
1
  6
CONTINUOUS
 10
2719.536118
 20
7248.3627940000006
 30
0.0
 11
2719.536118
 21
7348.3627939999997
 31
0.0
  0
LINE
  5
7AAC
  8
1
  6
CONTINUOUS
 10
2970.036118
 20
7493.3627939999988
 30
0.0
 11
2970.036118
 21
7348.3627939999997
 31
0.0
  0
LINE
  5
7AAD
  8
1
  6
CONTINUOUS
 10
3025.036118
 20
7493.3627939999988
 30
0.0
 11
3025.036118
 21
7348.3627939999997
 31
0.0
  0
LINE
  5
7AAE
  8
1
  6
CONTINUOUS
 10
2437.536118
 20
8446.3627940000006
 30
0.0
 11
2437.536118
 21
8343.3627940000006
 31
0.0
  0
LINE
  5
7AAF
  8
1
  6
CONTINUOUS
 10
3757.536118
 20
7443.3627939999988
 30
0.0
 11
3757.536118
 21
8393.3627940000006
 31
0.0
  0
LINE
  5
7AB0
  8
1
  6
CONTINUOUS
 10
3375.536118
 20
7178.3627939999997
 30
0.0
 11
3375.536118
 21
7418.3627939999997
 31
0.0
  0
LINE
  5
7AB1
  8
1
  6
CONTINUOUS
 10
3275.536118
 20
7248.3627940000006
 30
0.0
 11
3275.536118
 21
7348.3627939999997
 31
0.0
  0
LINE
  5
7AB2
  8
1
  6
CONTINUOUS
 10
3657.536118
 20
7493.3627939999988
 30
0.0
 11
3657.536118
 21
7231.3627939999997
 31
0.0
  0
LINE
  5
7AB3
  8
1
  6
CONTINUOUS
 10
3557.536118
 20
8411.3627940000006
 30
0.0
 11
3657.536118
 21
8411.3627940000006
 31
0.0
  0
LINE
  5
7AB4
  8
1
  6
CONTINUOUS
 10
3557.536118
 20
8446.3627940000006
 30
0.0
 11
3557.536118
 21
8343.3627940000006
 31
0.0
  0
LINE
  5
7AB5
  8
1
  6
CONTINUOUS
 10
3657.536118
 20
8411.3627940000006
 30
0.0
 11
3657.536118
 21
8343.3627940000006
 31
0.0
  0
LINE
  5
7AB7
  8
1
  6
CONTINUOUS
 10
6663.8075119999994
 20
5146.4951369999999
 30
0.0
 11
5813.8075120000003
 21
3996.4951369999999
 31
0.0
  0
LINE
  5
7AB8
  8
1
  6
CONTINUOUS
 10
5813.8075120000003
 20
5146.4951369999999
 30
0.0
 11
6663.8075119999994
 21
3996.4951369999999
 31
0.0
  0
LINE
  5
7AB9
  8
1
  6
CONTINUOUS
 10
5813.8075120000003
 20
3996.4951369999999
 30
0.0
 11
6663.8075119999994
 21
3996.4951369999999
 31
0.0
  0
LINE
  5
7ABA
  8
1
  6
CONTINUOUS
 10
5813.8075120000003
 20
5146.4951369999999
 30
0.0
 11
6663.8075119999994
 21
5146.4951369999999
 31
0.0
  0
LINE
  5
7ABB
  8
1
  6
CONTINUOUS
 10
6731.8075120000003
 20
3108.4951369999999
 30
0.0
 11
5551.8075119999994
 21
3108.4951369999999
 31
0.0
  0
LINE
  5
7ABC
  8
1
  6
CONTINUOUS
 10
6731.8075120000003
 20
3233.4951369999999
 30
0.0
 11
5551.8075119999994
 21
3233.4951369999999
 31
0.0
  0
LINE
  5
7ABD
  8
1
  6
CONTINUOUS
 10
6731.8075120000003
 20
2993.4951369999999
 30
0.0
 11
5551.8075119999994
 21
2993.4951369999999
 31
0.0
  0
LINE
  5
7ABE
  8
1
  6
CONTINUOUS
 10
6731.8075120000003
 20
2928.4951369999999
 30
0.0
 11
5551.8075119999994
 21
2928.4951369999999
 31
0.0
  0
LINE
  5
7ABF
  8
1
  6
CONTINUOUS
 10
5738.8075120000003
 20
3248.495136999999
 30
0.0
 11
5738.8075120000003
 21
4326.4951369999999
 31
0.0
  0
LINE
  5
7AC0
  8
1
  6
CONTINUOUS
 10
5498.8075119999994
 20
3248.495136999999
 30
0.0
 11
5498.8075119999994
 21
4326.4951369999999
 31
0.0
  0
LINE
  5
7AC1
  8
1
  6
CONTINUOUS
 10
5813.8075120000003
 20
3233.4951369999999
 30
0.0
 11
5813.8075120000003
 21
5146.4951369999999
 31
0.0
  0
LINE
  5
7AC2
  8
1
  6
CONTINUOUS
 10
5498.8075119999994
 20
3248.495136999999
 30
0.0
 11
5738.8075120000003
 21
3248.495136999999
 31
0.0
  0
LINE
  5
7AC3
  8
1
  6
CONTINUOUS
 10
5568.8075119999994
 20
3670.495136999999
 30
0.0
 11
5668.8075119999994
 21
3670.495136999999
 31
0.0
  0
LINE
  5
7AC4
  8
1
  6
CONTINUOUS
 10
5568.8075119999994
 20
3348.4951369999999
 30
0.0
 11
5668.8075119999994
 21
3348.4951369999999
 31
0.0
  0
LINE
  5
7AC5
  8
1
  6
CONTINUOUS
 10
5568.8075119999994
 20
3588.4951369999999
 30
0.0
 11
5668.8075119999994
 21
3588.4951369999999
 31
0.0
  0
LINE
  5
7AC6
  8
1
  6
CONTINUOUS
 10
5568.8075119999994
 20
4226.495136999999
 30
0.0
 11
5668.8075119999994
 21
4226.495136999999
 31
0.0
  0
LINE
  5
7AC7
  8
1
  6
CONTINUOUS
 10
5568.8075119999994
 20
3588.4951369999999
 30
0.0
 11
5568.8075119999994
 21
3348.4951369999999
 31
0.0
  0
LINE
  5
7ACA
  8
1
  6
CONTINUOUS
 10
5551.8075119999994
 20
3108.4951369999999
 30
0.0
 11
5551.8075119999994
 21
3233.4951369999999
 31
0.0
  0
LINE
  5
7ACB
  8
1
  6
CONTINUOUS
 10
5551.8075119999994
 20
2928.4951369999999
 30
0.0
 11
5551.8075119999994
 21
2993.4951369999999
 31
0.0
  0
LINE
  5
7ACC
  8
1
  6
CONTINUOUS
 10
5568.8075119999994
 20
4226.495136999999
 30
0.0
 11
5568.8075119999994
 21
3670.495136999999
 31
0.0
  0
LINE
  5
7ACD
  8
1
  6
CONTINUOUS
 10
5668.8075119999994
 20
3588.4951369999999
 30
0.0
 11
5668.8075119999994
 21
3348.4951369999999
 31
0.0
  0
LINE
  5
7ACE
  8
1
  6
CONTINUOUS
 10
5668.8075119999994
 20
3920.9951369999999
 30
0.0
 11
5813.8075120000003
 21
3920.9951369999999
 31
0.0
  0
LINE
  5
7ACF
  8
1
  6
CONTINUOUS
 10
5668.8075119999994
 20
3975.9951369999999
 30
0.0
 11
5813.8075120000003
 21
3975.9951369999999
 31
0.0
  0
LINE
  5
7AD0
  8
1
  6
CONTINUOUS
 10
5668.8075119999994
 20
3440.9951369999999
 30
0.0
 11
5813.8075120000003
 21
3440.9951369999999
 31
0.0
  0
LINE
  5
7AD1
  8
1
  6
CONTINUOUS
 10
5668.8075119999994
 20
3495.995136999999
 30
0.0
 11
5813.8075120000003
 21
3495.995136999999
 31
0.0
  0
LINE
  5
7AD2
  8
1
  6
CONTINUOUS
 10
5668.8075119999994
 20
4226.495136999999
 30
0.0
 11
5668.8075119999994
 21
3670.495136999999
 31
0.0
  0
LINE
  5
7AD3
  8
1
  6
CONTINUOUS
 10
5498.8075119999994
 20
4326.4951369999999
 30
0.0
 11
5738.8075120000003
 21
4326.4951369999999
 31
0.0
  0
LINE
  5
7AD4
  8
1
  6
CONTINUOUS
 10
6766.8075119999994
 20
3338.495136999999
 30
0.0
 11
6766.8075119999994
 21
4558.4951369999999
 31
0.0
  0
LINE
  5
7AD5
  8
1
  6
CONTINUOUS
 10
6663.8075119999994
 20
3233.4951369999999
 30
0.0
 11
6663.8075119999994
 21
5146.4951369999999
 31
0.0
  0
LINE
  5
7AD6
  8
1
  6
CONTINUOUS
 10
6663.8075119999994
 20
3388.495136999999
 30
0.0
 11
6766.8075119999994
 21
3388.495136999999
 31
0.0
  0
LINE
  5
7AD7
  8
1
  6
CONTINUOUS
 10
6731.8075120000003
 20
3108.4951369999999
 30
0.0
 11
6731.8075120000003
 21
3233.4951369999999
 31
0.0
  0
LINE
  5
7AD8
  8
1
  6
CONTINUOUS
 10
6731.8075120000003
 20
2928.4951369999999
 30
0.0
 11
6731.8075120000003
 21
2993.4951369999999
 31
0.0
  0
LINE
  5
7AD9
  8
1
  6
CONTINUOUS
 10
6663.8075119999994
 20
4508.495136999999
 30
0.0
 11
6766.8075119999994
 21
4508.495136999999
 31
0.0
  0
LINE
  5
7AE0
  8
2
  6
CENTER
 10
1177.8911370000001
 20
7918.3627939999997
 30
0.0
 11
3912.031461
 21
7918.3627939999997
 31
0.0
  0
LINE
  5
7AE1
  8
2
  6
CENTER
 10
6238.8075120000003
 20
5319.8702860000003
 30
0.0
 11
6238.8075120000003
 21
2752.8301590000001
 31
0.0
  0
LINE
  5
7AE3
  8
2
  6
CENTER
 10
2997.536118
 20
6974.5529959999994
 30
0.0
 11
2997.536118
 21
8647.7683459999989
 31
0.0
  0
LINE
  5
7AE4
  8
2
  6
CENTER
 10
5353.1927150000001
 20
3948.4951369999999
 30
0.0
 11
6860.3896720000012
 21
3948.4951369999999
 31
0.0
  0
LINE
  5
7AE5
  8
4
  6
CONTINUOUS
 10
7400.0
 20
2000.0
 30
0.0
 11
7400.0
 21
1200.0
 31
0.0
  0
LINE
  5
7AE6
  8
4
  6
CONTINUOUS
 10
4600.0
 20
2000.0
 30
0.0
 11
4600.0
 21
1200.0
 31
0.0
  0
LINE
  5
7AE7
  8
4
  6
CONTINUOUS
 10
2600.0
 20
2000.0
 30
0.0
 11
2600.0
 21
1200.0
 31
0.0
  0
LINE
  5
7AEA
  8
4
  6
CONTINUOUS
 10
2600.0
 20
1200.0
 30
0.0
 11
7400.0
 21
1200.0
 31
0.0
  0
LINE
  5
7AEB
  8
4
  6
CONTINUOUS
 10
2600.0
 20
1600.0
 30
0.0
 11
7400.0
 21
1600.0
 31
0.0
  0
TEXT
  5
7AEC
  8
4
  6
CONTINUOUS
 10
2754.008323
 20
1726.1721030000001
 30
0.0
 40
200.0
  1
機器名称
  0
TEXT
  5
7AED
  8
4
  6
CONTINUOUS
 10
2745.032424
 20
1286.580627
 30
0.0
 40
200.0
  1
機器型番
  0
TEXT
  5
7AEE
  8
4
  6
CONTINUOUS
 10
4710.7149820000004
 20
1690.2870760000001
 30
0.0
 40
200.0
  1
ミツヤ多翼送風機
  0
TEXT
  5
7AEF
  8
4
  6
CONTINUOUS
 10
4746.6179819999998
 20
1268.6383370000001
 30
0.0
 40
200.0
  1
MF#7-4
  0
TEXT
  5
7AF1
  8
4
  6
CONTINUOUS
 10
3042.880866
 20
9533.715365
 30
0.0
 40
216.0
  1
床置防振ベット
  0
TEXT
  5
7AF2
  8
4
  6
CONTINUOUS
 10
1264.6703729999999
 20
10135.523905
 30
0.0
 40
288.0
  1
ベルト駆動式片吸込両持多翼ファン
  0
LINE
  5
7AF3
  8
4
  6
CONTINUOUS
 10
1000.0
 20
9877.6350170000005
 30
0.0
 11
7400.0
 21
9877.6350170000005
 31
0.0
  0
LINE
  5
7AF4
  8
4
  6
CONTINUOUS
 10
1000.0
 20
10677.635017000001
 30
0.0
 11
7400.0
 21
10677.635017000001
 31
0.0
  0
LINE
  5
7AF5
  8
4
  6
CONTINUOUS
 10
2600.0
 20
2000.0
 30
0.0
 11
7400.0
 21
2000.0
 31
0.0
  0
LINE
  5
7AF6
  8
4
  6
CONTINUOUS
 10
1000.0
 20
10677.635017000001
 30
0.0
 11
1000.0
 21
9877.6350170000005
 31
0.0
  0
TEXT
  5
7AF7
  8
4
  6
CONTINUOUS
 10
1299.4455369999989
 20
9529.2779099999989
 30
0.0
 40
216.0
  1
右回転右横向
  0
TEXT
  5
7AF8
  8
4
  6
CONTINUOUS
 10
5875.8782369999999
 20
10824.244326
 30
0.0
 40
224.0
  1
No.
  0
TEXT
  5
7AF9
  8
4
  6
CONTINUOUS
 10
5245.1842500000012
 20
9533.715365
 30
0.0
 40
216.0
  1
縮尺：1/40
  0
LINE
  5
7AFA
  8
4
  6
CONTINUOUS
 10
7400.0
 20
10677.635017000001
 30
0.0
 11
7400.0
 21
9877.6350170000005
 31
0.0
  0
LINE
  5
7AFC
  8
4
  6
CONTINUOUS
 10
5762.4696889999996
 20
10725.054333
 30
0.0
 11
5762.4696889999996
 21
11146.609046
 31
0.0
  0
LINE
  5
7AFD
  8
4
  6
CONTINUOUS
 10
5762.4696889999996
 20
11146.609046
 30
0.0
 11
7400.0
 21
11146.609046
 31
0.0
  0
LINE
  5
7AFE
  8
4
  6
CONTINUOUS
 10
7400.0
 20
11146.609046
 30
0.0
 11
7400.0
 21
10725.054333
 31
0.0
  0
LINE
  5
7AFF
  8
4
  6
CONTINUOUS
 10
7400.0
 20
10725.054333
 30
0.0
 11
5762.4696889999996
 21
10725.054333
 31
0.0
  0
DIMENSION
  5
7B11
  8
3
  6
CONTINUOUS
  2
*D1
 10
4078.096587
 20
3996.4951369999999
 30
0.0
 11
4078.096587
 21
4528.9487360000003
 31
0.0
 70
   128
 13
3757.536118
 23
5146.4951369999999
 33
0.0
 14
3757.536118
 24
3996.4951369999999
 34
0.0
 50
90.0
1001
ACAD
1000
DSTYLE
1002
{
1070
   287
1070
     3
1070
    40
1040
40.0
1070
   143
1040
0.039
1070
   172
1070
     1
1070
   271
1070
     0
1070
   279
1070
     0
1070
   288
1070
     1
1002
}
  0
DIMENSION
  5
7B1E
  8
3
  6
CONTINUOUS
  2
*D2
 10
4357.6076820000008
 20
3948.4951369999999
 30
0.0
 11
4357.6076819999998
 21
4528.9487360000003
 31
0.0
 70
   128
 13
3757.536118
 23
5146.4951369999999
 33
0.0
 14
3974.0396190000001
 24
3948.4951369999999
 34
0.0
 50
90.0
1001
ACAD
1000
DSTYLE
1002
{
1070
   287
1070
     3
1070
    40
1040
40.0
1070
   143
1040
0.039
1070
   172
1070
     1
1070
   271
1070
     0
1070
   279
1070
     0
1070
   288
1070
     1
1002
}
  0
DIMENSION
  5
7B2A
  8
3
  6
CONTINUOUS
  2
*D3
 10
4357.6076819999998
 20
3108.4951369999999
 30
0.0
 11
4257.607681999998
 21
3528.4951369999999
 31
0.0
 70
     0
 13
3974.0396190000001
 23
3948.4951369999999
 33
0.0
 14
3657.536118
 24
3108.4951369999999
 34
0.0
 50
90.0
1001
ACAD
1000
DSTYLE
1002
{
1070
   287
1070
     4
1070
    40
1040
40.0
1070
    75
1070
     1
1070
   143
1040
0.039
1070
   172
1070
     1
1070
   271
1070
     0
1070
   279
1070
     1
1070
   288
1070
     1
1002
}
  0
DIMENSION
  5
7B47
  8
3
  6
CONTINUOUS
  2
*D4
 10
2997.536118
 20
5348.9563760000001
 30
0.0
 11
3374.81061
 21
5348.9563760000001
 31
0.0
 70
   128
 13
3757.536118
 23
5199.4951369999999
 33
0.0
 14
2997.536118
 24
5286.3537470000001
 34
0.0
1001
ACAD
1000
DSTYLE
1002
{
1070
   287
1070
     3
1070
    40
1040
40.0
1070
   143
1040
0.039
1070
   172
1070
     1
1070
   271
1070
     0
1070
   279
1070
     0
1070
   288
1070
     1
1002
}
  0
DIMENSION
  5
7B60
  8
3
  6
CONTINUOUS
  2
*D5
 10
2997.536118
 20
2675.7894929999989
 30
0.0
 11
2202.6673890000002
 21
2675.7894929999989
 31
0.0
 70
   128
 13
1297.536118
 23
2928.4951369999999
 33
0.0
 14
2997.536118
 24
2830.8438780000001
 34
0.0
1001
ACAD
1000
DSTYLE
1002
{
1070
   287
1070
     3
1070
    40
1040
40.0
1070
   143
1040
0.039
1070
   172
1070
     1
1070
   271
1070
     0
1070
   279
1070
     0
1070
   288
1070
     1
1002
}
  0
DIMENSION
  5
7B6C
  8
3
  6
CONTINUOUS
  2
*D6
 10
3657.536118
 20
2675.7894929999989
 30
0.0
 11
3327.5361179999991
 21
2775.7894929999989
 31
0.0
 70
     0
 13
2997.536118
 23
2830.8438780000001
 33
0.0
 14
3657.536118
 24
2928.4951369999999
 34
0.0
1001
ACAD
1000
DSTYLE
1002
{
1070
   287
1070
     4
1070
    40
1040
40.0
1070
    75
1070
     1
1070
   143
1040
0.039
1070
   172
1070
     1
1070
   271
1070
     0
1070
   279
1070
     1
1070
   288
1070
     1
1002
}
  0
DIMENSION
  5
7B79
  8
3
  6
CONTINUOUS
  2
*D7
 10
4766.4248312773852
 20
2928.4951369999999
 30
0.0
 11
4766.4248312773843
 21
4148.4667899999986
 31
0.0
 70
   128
 13
3757.536118
 23
5199.4951369999999
 33
0.0
 14
3657.536118
 24
2928.4951369999999
 34
0.0
 50
90.0
1001
ACAD
1000
DSTYLE
1002
{
1070
   287
1070
     3
1070
    40
1040
40.0
1070
   143
1040
0.039
1070
   172
1070
     1
1070
   271
1070
     0
1070
   279
1070
     0
1070
   288
1070
     1
1002
}
  0
DIMENSION
  5
7B86
  8
3
  6
CONTINUOUS
  2
*D8
 10
6663.8075119999994
 20
5309.2675419999996
 30
0.0
 11
6242.5715449999998
 21
5309.2675419999996
 31
0.0
 70
   128
 13
5813.8075120000003
 23
5146.4951369999999
 33
0.0
 14
6663.8075119999994
 24
5146.4951369999999
 34
0.0
1001
ACAD
1000
DSTYLE
1002
{
1070
   287
1070
     3
1070
    40
1040
40.0
1070
   143
1040
0.039
1070
   172
1070
     1
1070
   271
1070
     0
1070
   279
1070
     0
1070
   288
1070
     1
1002
}
  0
DIMENSION
  5
7B93
  8
3
  6
CONTINUOUS
  2
*D9
 10
7082.8042320000004
 20
3388.495136999999
 30
0.0
 11
7082.8042319999986
 21
3942.6510579999999
 31
0.0
 70
   128
 13
6766.8075119999994
 23
4508.495136999999
 33
0.0
 14
6766.8075119999994
 24
3388.495136999999
 34
0.0
 50
90.0
1001
ACAD
1000
DSTYLE
1002
{
1070
   287
1070
     3
1070
     3
1000
φ<>
1070
    40
1040
40.0
1070
   143
1040
0.039
1070
   172
1070
     1
1070
   271
1070
     0
1070
   279
1070
     0
1070
   288
1070
     1
1002
}
  0
DIMENSION
  5
7BA2
  8
3
  6
CONTINUOUS
  2
*D10
 10
6238.8075120000003
 20
5554.6183586322732
 30
0.0
 11
6502.8075120000003
 21
5675.6266401116554
 31
0.0
 70
   128
 13
6766.8075119999994
 23
4558.4951369999999
 33
0.0
 14
6238.8075120000003
 24
5496.0652379999992
 34
0.0
1001
ACAD
1000
DSTYLE
1002
{
1070
   288
1070
     1
1070
   172
1070
     1
1070
    40
1040
40.0
1070
   271
1070
     0
1070
   143
1040
0.039
1002
}
  0
DIMENSION
  5
7BAE
  8
3
  6
CONTINUOUS
  2
*D11
 10
5498.8075119999994
 20
5554.6183586322732
 30
0.0
 11
5868.8075120000003
 21
5754.6183586322732
 31
0.0
 70
     0
  1
MAX\P850
 13
6238.8075120000003
 23
5496.0652379999992
 33
0.0
 14
5498.8075119999994
 24
4326.4951369999999
 34
0.0
1001
ACAD
1000
DSTYLE
1002
{
1070
   287
1070
     4
1070
    40
1040
40.0
1070
    75
1070
     1
1070
   143
1040
0.039
1070
   172
1070
     1
1070
   271
1070
     0
1070
   279
1070
     1
1070
   288
1070
     1
1002
}
  0
DIMENSION
  5
7BBB
  8
3
  6
CONTINUOUS
  2
*D12
 10
6238.8075120000003
 20
2636.45451
 30
0.0
 11
5921.3060610000011
 21
2636.45451
 31
0.0
 70
   128
 13
5551.8075119999994
 23
2928.4951369999999
 33
0.0
 14
6238.8075120000003
 24
2752.8301590000001
 34
0.0
1001
ACAD
1000
DSTYLE
1002
{
1070
   287
1070
     3
1070
    40
1040
40.0
1070
   143
1040
0.039
1070
   172
1070
     1
1070
   271
1070
     0
1070
   279
1070
     0
1070
   288
1070
     1
1002
}
  0
DIMENSION
  5
7BC9
  8
3
  6
CONTINUOUS
  2
*D13
 10
6731.8075120000003
 20
2636.45451
 30
0.0
 11
6473.5647590000017
 21
2651.6692520000001
 31
0.0
 70
   128
 13
6238.8075120000003
 23
2752.8301590000001
 33
0.0
 14
6731.8075120000003
 24
2928.4951369999999
 34
0.0
1001
ACAD
1000
DSTYLE
1002
{
1070
   287
1070
     4
1070
    40
1040
40.0
1070
    75
1070
     1
1070
   143
1040
0.039
1070
   172
1070
     1
1070
   271
1070
     0
1070
   279
1070
     1
1070
   288
1070
     1
1002
}
  0
DIMENSION
  5
7BD6
  8
3
  6
CONTINUOUS
  2
*D14
 10
3657.536118
 20
6917.3353560000014
 30
0.0
 11
2386.5022260000001
 21
6917.3353560000014
 31
0.0
 70
   128
 13
1297.536118
 23
7231.3627939999997
 33
0.0
 14
3657.536118
 24
7231.3627939999997
 34
0.0
1001
ACAD
1000
DSTYLE
1002
{
1070
   287
1070
     3
1070
    40
1040
40.0
1070
   143
1040
0.039
1070
   172
1070
     1
1070
   271
1070
     0
1070
   279
1070
     0
1070
   288
1070
     1
1002
}
  0
DIMENSION
  5
7BEE
  8
3
  6
CONTINUOUS
  2
*D15
 10
4091.6803520000012
 20
7231.3627939999997
 30
0.0
 11
4091.6803519999999
 21
7831.1572130000004
 31
0.0
 70
   128
 13
3657.536118
 23
8411.3627940000006
 33
0.0
 14
3657.536118
 24
7231.3627939999997
 34
0.0
 50
90.0
1001
ACAD
1000
DSTYLE
1002
{
1070
   287
1070
     3
1070
    40
1040
40.0
1070
   143
1040
0.039
1070
   172
1070
     1
1070
   271
1070
     0
1070
   279
1070
     0
1070
   288
1070
     1
1002
}
  0
DIMENSION
  5
7C56
  8
3
  6
CONTINUOUS
  2
*D16
 10
2028.5361179999991
 20
5348.9563760000001
 30
0.0
 11
2513.036118
 21
5448.9563760000001
 31
0.0
 70
     0
 13
2997.536118
 23
5286.3537470000001
 33
0.0
 14
2028.5361179999991
 24
3948.4951369999999
 34
0.0
1001
ACAD
1000
DSTYLE
1002
{
1070
   287
1070
     4
1070
    40
1040
40.0
1070
    75
1070
     1
1070
   143
1040
0.039
1070
   172
1070
     1
1070
   271
1070
     0
1070
   279
1070
     1
1070
   288
1070
     1
1002
}
  0
DIMENSION
  5
7C85
  8
3
  2
*D17
 10
1297.536118
 20
5589.5448953728992
 30
0.0
 11
2533.855909849422
 21
5589.5448953728992
 31
0.0
 70
   128
 13
3757.536118
 23
5199.4951369999999
 33
0.0
 14
1297.536118
 24
3233.4951369999999
 34
0.0
1001
ACAD
1000
DSTYLE
1002
{
1070
   287
1070
     3
1070
    40
1040
40.0
1070
   143
1040
0.039
1070
   172
1070
     1
1070
   271
1070
     0
1070
   279
1070
     0
1070
   288
1070
     1
1002
}
  0
DIMENSION
  5
7CE8
  8
3
  2
*D18
 10
4357.6076819999998
 20
2993.4951369999999
 30
0.0
 11
4549.0362534285714
 21
3169.6104965232812
 31
0.0
 70
   128
  1
(<>)
 13
3657.536118
 23
3108.4951369999999
 33
0.0
 14
3657.536118
 24
2993.4951369999999
 34
0.0
 50
90.0
1001
ACAD
1000
DSTYLE
1002
{
1070
   288
1070
     1
1070
   172
1070
     1
1070
    75
1070
     1
1070
    40
1040
40.0
1070
   271
1070
     0
1070
     7
1000
_DOT
1070
   143
1040
0.039
1002
}
  0
DIMENSION
  5
7CF8
  8
3
  2
*D19
 10
4357.6076819999998
 20
2928.4951369999999
 30
0.0
 11
4257.607681999998
 21
2631.352279857143
 31
0.0
 70
     0
 13
3657.536118
 23
2993.4951369999999
 33
0.0
 14
3657.536118
 24
2928.4951369999999
 34
0.0
 50
90.0
1001
ACAD
1000
DSTYLE
1002
{
1070
   287
1070
     3
1070
    40
1040
40.0
1070
   143
1040
0.039
1070
   172
1070
     1
1070
   271
1070
     0
1070
   279
1070
     0
1070
   288
1070
     1
1070
     6
1000
DOT
1002
}
  0
ENDSEC
  0
EOF
