  0
SECTION
  2
HEADER
  9
$ACADVER
  1
AC1009
  9
$INSBASE
 10
0.0
 20
0.0
 30
0.0
  9
$EXTMIN
 10
1000.0
 20
1200.0
 30
0.0
  9
$EXTMAX
 10
7400.0
 20
11146.609046
 30
0.0
  9
$LIMMIN
 10
0.0
 20
0.0
  9
$LIMMAX
 10
297.0
 20
210.0
  9
$ORTHOMODE
 70
     0
  9
$REGENMODE
 70
     1
  9
$FILLMODE
 70
     0
  9
$QTEXTMODE
 70
     0
  9
$MIRRTEXT
 70
     1
  9
$DRAGMODE
 70
     2
  9
$LTSCALE
 40
100.0
  9
$OSMODE
 70
    37
  9
$ATTMODE
 70
     1
  9
$TEXTSIZE
 40
180.0
  9
$TRACEWID
 40
0.05
  9
$TEXTSTYLE
  7
STANDARD
  9
$CLAYER
  8
3
  9
$CELTYPE
  6
BYLAYER
  9
$CECOLOR
 62
   256
  9
$DIMSCALE
 40
40.0
  9
$DIMASZ
 40
2.0
  9
$DIMEXO
 40
0.5
  9
$DIMDLI
 40
10.0
  9
$DIMRND
 40
0.0
  9
$DIMDLE
 40
0.0
  9
$DIMEXE
 40
1.0
  9
$DIMTP
 40
1.0
  9
$DIMTM
 40
1.0
  9
$DIMTXT
 40
3.0
  9
$DIMCEN
 40
0.0
  9
$DIMTSZ
 40
0.0
  9
$DIMTOL
 70
     0
  9
$DIMLIM
 70
     0
  9
$DIMTIH
 70
     0
  9
$DIMTOH
 70
     0
  9
$DIMSE1
 70
     0
  9
$DIMSE2
 70
     0
  9
$DIMTAD
 70
     1
  9
$DIMZIN
 70
     8
  9
$DIMBLK
  1

  9
$DIMASO
 70
     1
  9
$DIMSHO
 70
     1
  9
$DIMPOST
  1

  9
$DIMAPOST
  1

  9
$DIMALT
 70
     0
  9
$DIMALTD
 70
     2
  9
$DIMALTF
 40
0.039
  9
$DIMLFAC
 40
1.0
  9
$DIMTOFL
 70
     1
  9
$DIMTVP
 40
0.0
  9
$DIMTIX
 70
     0
  9
$DIMSOXD
 70
     0
  9
$DIMSAH
 70
     1
  9
$DIMBLK1
  1
OPEN
  9
$DIMBLK2
  1
OPEN
  9
$DIMSTYLE
  2
IGA
  9
$DIMCLRD
 70
     0
  9
$DIMCLRE
 70
     0
  9
$DIMCLRT
 70
     0
  9
$DIMTFAC
 40
10.0
  9
$DIMGAP
 40
1.0
  9
$LUNITS
 70
     2
  9
$LUPREC
 70
     3
  9
$SKETCHINC
 40
0.1
  9
$FILLETRAD
 40
50.0
  9
$AUNITS
 70
     0
  9
$AUPREC
 70
     0
  9
$MENU
  1
acad
  9
$ELEVATION
 40
0.0
  9
$PELEVATION
 40
0.0
  9
$THICKNESS
 40
0.0
  9
$LIMCHECK
 70
     0
  9
$BLIPMODE
 70
     0
  9
$CHAMFERA
 40
0.5
  9
$CHAMFERB
 40
0.5
  9
$SKPOLY
 70
     0
  9
$TDCREATE
 40
2450757.437269791
  9
$TDUPDATE
 40
2454953.779427615
  9
$TDINDWG
 40
0.052555162
  9
$TDUSRTIMER
 40
0.052555162
  9
$USRTIMER
 70
     1
  9
$ANGBASE
 50
0.0
  9
$ANGDIR
 70
     0
  9
$PDMODE
 70
     0
  9
$PDSIZE
 40
0.0
  9
$PLINEWID
 40
0.0
  9
$COORDS
 70
     1
  9
$SPLFRAME
 70
     0
  9
$SPLINETYPE
 70
     6
  9
$SPLINESEGS
 70
     8
  9
$ATTDIA
 70
     0
  9
$ATTREQ
 70
     1
  9
$HANDLING
 70
 10241
  9
$HANDSEED
  5
7EA7
  9
$SURFTAB1
 70
     6
  9
$SURFTAB2
 70
     6
  9
$SURFTYPE
 70
     6
  9
$SURFU
 70
     6
  9
$SURFV
 70
     6
  9
$UCSNAME
  2

  9
$UCSORG
 10
0.0
 20
0.0
 30
0.0
  9
$UCSXDIR
 10
1.0
 20
0.0
 30
0.0
  9
$UCSYDIR
 10
0.0
 20
1.0
 30
0.0
  9
$PUCSNAME
  2

  9
$PUCSORG
 10
0.0
 20
0.0
 30
0.0
  9
$PUCSXDIR
 10
1.0
 20
0.0
 30
0.0
  9
$PUCSYDIR
 10
0.0
 20
1.0
 30
0.0
  9
$USERI1
 70
     0
  9
$USERI2
 70
     0
  9
$USERI3
 70
     0
  9
$USERI4
 70
     0
  9
$USERI5
 70
     0
  9
$USERR1
 40
0.0
  9
$USERR2
 40
0.0
  9
$USERR3
 40
0.0
  9
$USERR4
 40
0.0
  9
$USERR5
 40
0.0
  9
$WORLDVIEW
 70
     1
  9
$SHADEDGE
 70
     3
  9
$SHADEDIF
 70
    70
  9
$TILEMODE
 70
     1
  9
$MAXACTVP
 70
    16
  9
$PLIMCHECK
 70
     0
  9
$PEXTMIN
 10
1.0000000000000000E+020
 20
1.0000000000000000E+020
 30
1.0000000000000000E+020
  9
$PEXTMAX
 10
-1.0000000000000000E+020
 20
-1.0000000000000000E+020
 30
-1.0000000000000000E+020
  9
$PLIMMIN
 10
0.0
 20
0.0
  9
$PLIMMAX
 10
12.0
 20
9.0
  9
$UNITMODE
 70
     0
  9
$VISRETAIN
 70
     0
  9
$PLINEGEN
 70
     0
  9
$PSLTSCALE
 70
     1
  0
ENDSEC
  0
SECTION
  2
TABLES
  0
TABLE
  2
VPORT
 70
     2
  0
VPORT
  2
*ACTIVE
 70
     0
 10
0.0
 20
0.0
 11
1.0
 21
1.0
 12
12584.224953905899
 22
6173.2749996292814
 13
0.0
 23
0.0
 14
10.0
 24
10.0
 15
10.0
 25
10.0
 16
0.0
 26
0.0
 36
1.0
 17
0.0
 27
0.0
 37
0.0
 40
10022.99371525931
 41
3.1666666666666661
 42
50.0
 43
0.0
 44
0.0
 50
0.0
 51
0.0
 71
     0
 72
   100
 73
     1
 74
     0
 75
     0
 76
     0
 77
     0
 78
     0
  0
ENDTAB
  0
TABLE
  2
LTYPE
 70
     2
  0
LTYPE
  2
CONTINUOUS
 70
     0
  3
Solid line
 72
    65
 73
     0
 40
0.0
  0
LTYPE
  2
CENTER
 70
     0
  3
____ _ ____ _ ____ _ ____ _ ____ _ ____ _ ____ 
 72
    65
 73
     4
 40
2.0
 49
1.25
 49
-0.25
 49
0.25
 49
-0.25
  0
ENDTAB
  0
TABLE
  2
LAYER
 70
     6
  0
LAYER
  2
0
 70
     0
 62
     7
  6
CONTINUOUS
  0
LAYER
  2
3
 70
     0
 62
     2
  6
CONTINUOUS
  0
LAYER
  2
2
 70
     0
 62
     3
  6
CENTER
  0
LAYER
  2
1
 70
     0
 62
     4
  6
CONTINUOUS
  0
LAYER
  2
4
 70
     0
 62
     7
  6
CONTINUOUS
  0
LAYER
  2
DEFPOINTS
 70
     0
 62
     7
  6
CONTINUOUS
  0
ENDTAB
  0
TABLE
  2
STYLE
 70
     1
  0
STYLE
  2
STANDARD
 70
     0
 40
0.0
 41
1.0
 50
0.0
 71
     0
 42
180.0
  3
simplex.shx
  4
extfont.shx
  0
ENDTAB
  0
TABLE
  2
VIEW
 70
     0
  0
ENDTAB
  0
TABLE
  2
UCS
 70
     0
  0
ENDTAB
  0
TABLE
  2
APPID
 70
     1
  0
APPID
  2
ACAD
 70
     0
  0
ENDTAB
  0
TABLE
  2
DIMSTYLE
 70
     1
  0
DIMSTYLE
  2
IGA
 70
     0
  3

  4

  5

  6
OPEN
  7
OPEN
 40
2.0
 41
2.0
 42
0.5
 43
10.0
 44
1.0
 45
0.0
 46
0.0
 47
1.0
 48
1.0
140
3.0
141
0.0
142
0.0
143
0.03937
144
1.0
145
0.0
146
10.0
147
1.0
 71
     0
 72
     0
 73
     0
 74
     0
 75
     0
 76
     0
 77
     1
 78
     8
170
     0
171
     2
172
     0
173
     1
174
     0
175
     0
176
     0
177
     0
178
     0
  0
ENDTAB
  0
ENDSEC
  0
SECTION
  2
BLOCKS
  0
BLOCK
  8
0
  2
$MODEL_SPACE
 70
     0
 10
0.0
 20
0.0
 30
0.0
  3
$MODEL_SPACE
  1

  0
ENDBLK
  5
1B
  8
0
  0
BLOCK
 67
     1
  8
0
  2
$PAPER_SPACE
 70
     0
 10
0.0
 20
0.0
 30
0.0
  3
$PAPER_SPACE
  1

  0
ENDBLK
  5
18
 67
     1
  8
0
  0
BLOCK
  8
0
  2
_OPEN
 70
     0
 10
0.0
 20
0.0
 30
0.0
  3
_OPEN
  1

  0
LINE
  5
7B22
  8
0
  6
BYBLOCK
 62
     0
 10
-1.0
 20
0.166667
 30
0.0
 11
0.0
 21
0.0
 31
0.0
  0
LINE
  5
7B23
  8
0
  6
BYBLOCK
 62
     0
 10
0.0
 20
0.0
 30
0.0
 11
-1.0
 21
-0.166667
 31
0.0
  0
LINE
  5
7B24
  8
0
  6
BYBLOCK
 62
     0
 10
0.0
 20
0.0
 30
0.0
 11
-1.0
 21
0.0
 31
0.0
  0
ENDBLK
  5
7B25
  8
0
  0
BLOCK
  8
0
  2
*D1
 70
     1
 10
0.0
 20
0.0
 30
0.0
  3
*D1
  1

  0
LINE
  5
7DF2
  8
3
  6
CONTINUOUS
 62
     0
 10
3693.328164
 20
4458.6671649999998
 30
0.0
 11
3980.0264860000002
 21
4458.6671649999998
 31
0.0
  0
LINE
  5
7DF3
  8
3
  6
CONTINUOUS
 62
     0
 10
3693.328164
 20
3308.6671649999998
 30
0.0
 11
3980.0264860000002
 21
3308.6671649999998
 31
0.0
  0
LINE
  5
7DF4
  8
3
  6
CONTINUOUS
 62
     0
 10
3940.0264860000002
 20
4378.6671649999998
 30
0.0
 11
3940.0264860000002
 21
3388.6671649999989
 31
0.0
  0
INSERT
  5
7DF5
  8
3
  6
CONTINUOUS
 62
     0
  2
_OPEN
 10
3940.0264860000002
 20
4458.6671649999998
 30
0.0
 41
80.0
 42
80.0
 43
80.0
 50
90.0
  0
INSERT
  5
7DF6
  8
3
  6
CONTINUOUS
 62
     0
  2
_OPEN
 10
3940.0264860000002
 20
3308.6671649999998
 30
0.0
 41
80.0
 42
80.0
 43
80.0
 50
270.0
  0
TEXT
  8
3
  40
120
  5
7E94
  62
0
  72
0
  71
0
 10
3600.03
 20
3660.84
 30
0.000000
  1
1150
  0
POINT
  5
7DF8
  8
DEFPOINTS
  6
CONTINUOUS
 62
     0
 10
3673.328164
 20
4458.6671649999998
 30
0.0
  0
POINT
  5
7DF9
  8
DEFPOINTS
  6
CONTINUOUS
 62
     0
 10
3673.328164
 20
3308.6671649999998
 30
0.0
  0
POINT
  5
7DFA
  8
DEFPOINTS
  6
CONTINUOUS
 62
     0
 10
3940.0264860000002
 20
3308.6671649999998
 30
0.0
  0
ENDBLK
  5
7B32
  8
0
  0
BLOCK
  8
0
  2
*D2
 70
     1
 10
0.0
 20
0.0
 30
0.0
  3
*D2
  1

  0
LINE
  5
7DFB
  8
3
  6
CONTINUOUS
 62
     0
 10
3914.2227349999998
 20
4506.6671649999989
 30
0.0
 11
4233.5026610000014
 21
4506.6671649999989
 31
0.0
  0
LINE
  5
7DFC
  8
3
  6
CONTINUOUS
 62
     0
 10
3693.328164
 20
3308.6671649999998
 30
0.0
 11
4233.5026610000014
 21
3308.6671649999998
 31
0.0
  0
LINE
  5
7DFD
  8
3
  6
CONTINUOUS
 62
     0
 10
4193.5026610000014
 20
4426.6671649999998
 30
0.0
 11
4193.5026610000014
 21
3388.6671649999989
 31
0.0
  0
INSERT
  5
7DFE
  8
3
  6
CONTINUOUS
 62
     0
  2
_OPEN
 10
4193.5026610000014
 20
4506.6671649999989
 30
0.0
 41
80.0
 42
80.0
 43
80.0
 50
90.0
  0
INSERT
  5
7DFF
  8
3
  6
CONTINUOUS
 62
     0
  2
_OPEN
 10
4193.5026610000014
 20
3308.6671649999998
 30
0.0
 41
80.0
 42
80.0
 43
80.0
 50
270.0
  0
TEXT
  8
3
  40
120
  5
7E95
  62
0
  72
0
  71
0
 10
3853.50
 20
3676.67
 30
0.000000
  1
1198
  0
POINT
  5
7E01
  8
DEFPOINTS
  6
CONTINUOUS
 62
     0
 10
3894.2227349999998
 20
4506.6671649999989
 30
0.0
  0
POINT
  5
7E02
  8
DEFPOINTS
  6
CONTINUOUS
 62
     0
 10
3673.328164
 20
3308.6671649999998
 30
0.0
  0
POINT
  5
7E03
  8
DEFPOINTS
  6
CONTINUOUS
 62
     0
 10
4193.5026610000014
 20
3308.6671649999998
 30
0.0
  0
ENDBLK
  5
7B3F
  8
0
  0
BLOCK
  8
0
  2
*D3
 70
     1
 10
0.0
 20
0.0
 30
0.0
  3
*D3
  1

  0
LINE
  5
7E04
  8
3
  6
CONTINUOUS
 62
     0
 10
3914.2227349999998
 20
4506.6671649999989
 30
0.0
 11
4494.8999629999989
 21
4506.6671649999989
 31
0.0
  0
LINE
  5
7E05
  8
3
  6
CONTINUOUS
 62
     0
 10
3593.328164
 20
3151.6671649999998
 30
0.0
 11
4494.8999629999989
 21
3151.6671649999998
 31
0.0
  0
LINE
  5
7E06
  8
3
  6
CONTINUOUS
 62
     0
 10
4454.8999629999989
 20
4426.6671649999998
 30
0.0
 11
4454.8999629999989
 21
3231.6671649999989
 31
0.0
  0
INSERT
  5
7E07
  8
3
  6
CONTINUOUS
 62
     0
  2
_OPEN
 10
4454.8999629999989
 20
4506.6671649999989
 30
0.0
 41
80.0
 42
80.0
 43
80.0
 50
90.0
  0
INSERT
  5
7E08
  8
3
  6
CONTINUOUS
 62
     0
  2
_OPEN
 10
4454.8999629999989
 20
3151.6671649999998
 30
0.0
 41
80.0
 42
80.0
 43
80.0
 50
270.0
  0
TEXT
  8
3
  40
120
  5
7E96
  62
0
  72
0
  71
0
 10
4114.90
 20
3616.77
 30
0.000000
  1
1355
  0
POINT
  5
7E0A
  8
DEFPOINTS
  6
CONTINUOUS
 62
     0
 10
3894.2227349999998
 20
4506.6671649999989
 30
0.0
  0
POINT
  5
7E0B
  8
DEFPOINTS
  6
CONTINUOUS
 62
     0
 10
3573.328164
 20
3151.6671649999998
 30
0.0
  0
POINT
  5
7E0C
  8
DEFPOINTS
  6
CONTINUOUS
 62
     0
 10
4454.8999629999989
 20
3151.6671649999998
 30
0.0
  0
ENDBLK
  5
7CDF
  8
0
  0
BLOCK
  8
0
  2
*D4
 70
     1
 10
0.0
 20
0.0
 30
0.0
  3
*D4
  1

  0
LINE
  5
7E0D
  8
3
  6
CONTINUOUS
 62
     0
 10
1213.3281639999991
 20
2951.6671649999989
 30
0.0
 11
1213.3281639999991
 21
2657.0398420000001
 31
0.0
  0
LINE
  5
7E0E
  8
3
  6
CONTINUOUS
 62
     0
 10
2913.328164
 20
2795.8527640000002
 30
0.0
 11
2913.328164
 21
2657.0398420000001
 31
0.0
  0
LINE
  5
7E0F
  8
3
  6
CONTINUOUS
 62
     0
 10
1293.328164
 20
2697.0398420000001
 30
0.0
 11
2833.328164
 21
2697.0398420000001
 31
0.0
  0
INSERT
  5
7E10
  8
3
  6
CONTINUOUS
 62
     0
  2
_OPEN
 10
1213.3281639999991
 20
2697.0398420000001
 30
0.0
 41
80.0
 42
80.0
 43
80.0
 50
180.0
  0
INSERT
  5
7E11
  8
3
  6
CONTINUOUS
 62
     0
  2
_OPEN
 10
2913.328164
 20
2697.0398420000001
 30
0.0
 41
80.0
 42
80.0
 43
80.0
  0
TEXT
  8
3
  40
120
  5
7E97
  62
0
  72
0
  71
0
 10
1795.14
 20
2584.64
 30
0.000000
  1
1700
  0
POINT
  5
7E13
  8
DEFPOINTS
  6
CONTINUOUS
 62
     0
 10
1213.3281639999991
 20
2971.6671649999989
 30
0.0
  0
POINT
  5
7E14
  8
DEFPOINTS
  6
CONTINUOUS
 62
     0
 10
2913.328164
 20
2815.8527640000002
 30
0.0
  0
POINT
  5
7E15
  8
DEFPOINTS
  6
CONTINUOUS
 62
     0
 10
2913.328164
 20
2697.0398420000001
 30
0.0
  0
ENDBLK
  5
7B82
  8
0
  0
BLOCK
  8
0
  2
*D5
 70
     1
 10
0.0
 20
0.0
 30
0.0
  3
*D5
  1

  0
LINE
  5
7E16
  8
3
  6
CONTINUOUS
 62
     0
 10
3573.328164
 20
2951.6671649999989
 30
0.0
 11
3573.328164
 21
2657.0398420000001
 31
0.0
  0
LINE
  5
7E17
  8
3
  6
CONTINUOUS
 62
     0
 10
2993.328164
 20
2697.0398420000001
 30
0.0
 11
3493.328164
 21
2697.0398420000001
 31
0.0
  0
INSERT
  5
7E18
  8
3
  6
CONTINUOUS
 62
     0
  2
_OPEN
 10
2913.328164
 20
2697.0398420000001
 30
0.0
 41
80.0
 42
80.0
 43
80.0
 50
180.0
  0
INSERT
  5
7E19
  8
3
  6
CONTINUOUS
 62
     0
  2
_OPEN
 10
3573.328164
 20
2697.0398420000001
 30
0.0
 41
80.0
 42
80.0
 43
80.0
  0
TEXT
  8
3
  40
120
  5
7E98
  62
0
  72
0
  71
0
 10
3003.33
 20
2584.64
 30
0.000000
  1
660
  0
POINT
  5
7E1B
  8
DEFPOINTS
  6
CONTINUOUS
 62
     0
 10
2913.328164
 20
2815.8527640000002
 30
0.0
  0
POINT
  5
7E1C
  8
DEFPOINTS
  6
CONTINUOUS
 62
     0
 10
3573.328164
 20
2971.6671649999989
 30
0.0
  0
POINT
  5
7E1D
  8
DEFPOINTS
  6
CONTINUOUS
 62
     0
 10
3573.328164
 20
2697.0398420000001
 30
0.0
  0
ENDBLK
  5
7B8E
  8
0
  0
BLOCK
  8
0
  2
*D6
 70
     1
 10
0.0
 20
0.0
 30
0.0
  3
*D6
  1

  0
LINE
  5
7E1E
  8
3
  6
CONTINUOUS
 62
     0
 10
3673.328164
 20
4531.6671649999989
 30
0.0
 11
3673.328164
 21
5582.8364600000014
 31
0.0
  0
LINE
  5
7E1F
  8
3
  6
CONTINUOUS
 62
     0
 10
2913.328164
 20
5501.5339159999994
 30
0.0
 11
2913.328164
 21
5582.8364600000014
 31
0.0
  0
LINE
  5
7E20
  8
3
  6
CONTINUOUS
 62
     0
 10
3593.328164
 20
5542.8364600000014
 30
0.0
 11
2993.328164
 21
5542.8364600000014
 31
0.0
  0
INSERT
  5
7E21
  8
3
  6
CONTINUOUS
 62
     0
  2
_OPEN
 10
3673.328164
 20
5542.8364600000014
 30
0.0
 41
80.0
 42
80.0
 43
80.0
  0
INSERT
  5
7E22
  8
3
  6
CONTINUOUS
 62
     0
  2
_OPEN
 10
2913.328164
 20
5542.8364600000014
 30
0.0
 41
80.0
 42
80.0
 43
80.0
 50
180.0
  0
TEXT
  8
3
  40
120
  5
7E99
  62
0
  72
0
  71
0
 10
3072.60
 20
5430.44
 30
0.000000
  1
760
  0
POINT
  5
7E24
  8
DEFPOINTS
  6
CONTINUOUS
 62
     0
 10
3673.328164
 20
4511.6671649999998
 30
0.0
  0
POINT
  5
7E25
  8
DEFPOINTS
  6
CONTINUOUS
 62
     0
 10
2913.328164
 20
5481.5339160000003
 30
0.0
  0
POINT
  5
7E26
  8
DEFPOINTS
  6
CONTINUOUS
 62
     0
 10
2913.328164
 20
5542.8364600000014
 30
0.0
  0
ENDBLK
  5
7B9B
  8
0
  0
BLOCK
  8
0
  2
*D7
 70
     1
 10
0.0
 20
0.0
 30
0.0
  3
*D7
  1

  0
LINE
  5
7E27
  8
3
  6
CONTINUOUS
 62
     0
 10
6953.6662489999999
 20
5066.6671649999998
 30
0.0
 11
7270.8450540000022
 21
5066.6671649999998
 31
0.0
  0
LINE
  5
7E28
  8
3
  6
CONTINUOUS
 62
     0
 10
6953.6662489999999
 20
3946.6671649999998
 30
0.0
 11
7270.8450540000022
 21
3946.6671649999989
 31
0.0
  0
LINE
  5
7E29
  8
3
  6
CONTINUOUS
 62
     0
 10
7230.8450540000013
 20
4986.6671649999998
 30
0.0
 11
7230.8450540000013
 21
4026.6671649999989
 31
0.0
  0
INSERT
  5
7E2A
  8
3
  6
CONTINUOUS
 62
     0
  2
_OPEN
 10
7230.8450540000013
 20
5066.6671649999998
 30
0.0
 41
80.0
 42
80.0
 43
80.0
 50
90.0
  0
INSERT
  5
7E2B
  8
3
  6
CONTINUOUS
 62
     0
  2
_OPEN
 10
7230.8450540000013
 20
3946.6671649999989
 30
0.0
 41
80.0
 42
80.0
 43
80.0
 50
270.0
  0
TEXT
  8
3
  40
120
  5
7E9A
  62
0
  72
0
  71
0
 10
6890.85
 20
4285.23
 30
0.000000
  1
φ1120
  0
POINT
  5
7E2D
  8
DEFPOINTS
  6
CONTINUOUS
 62
     0
 10
6933.666248999999
 20
5066.6671649999998
 30
0.0
  0
POINT
  5
7E2E
  8
DEFPOINTS
  6
CONTINUOUS
 62
     0
 10
6933.666248999999
 20
3946.6671649999998
 30
0.0
  0
POINT
  5
7E2F
  8
DEFPOINTS
  6
CONTINUOUS
 62
     0
 10
7230.8450540000013
 20
3946.6671649999989
 30
0.0
  0
ENDBLK
  5
7D22
  8
0
  0
BLOCK
  8
0
  2
*D8
 70
     1
 10
0.0
 20
0.0
 30
0.0
  3
*D8
  1

  0
LINE
  5
7D04
  8
0
  6
BYBLOCK
 62
     0
 10
6933.666248999999
 20
5136.6671649999998
 30
0.0
 11
6933.666248999999
 21
5872.6061149999987
 31
0.0
  0
LINE
  5
7D05
  8
0
  6
BYBLOCK
 62
     0
 10
6405.666248999999
 20
5761.1921510000002
 30
0.0
 11
6405.666248999999
 21
5872.6061149999987
 31
0.0
  0
LINE
  5
7D06
  8
0
  6
BYBLOCK
 62
     0
 10
6853.666248999999
 20
5832.6061149999987
 30
0.0
 11
6485.6662490000008
 21
5832.6061149999987
 31
0.0
  0
TEXT
  5
7D07
  8
3
 62
     0
 10
6515.3805347142852
 20
5869.9737867856093
 30
0.0
 40
120.0
  1
528
  0
INSERT
  5
7D08
  8
0
  6
BYBLOCK
 62
     0
  2
_OPEN
 10
6933.666248999999
 20
5832.6061149999987
 30
0.0
 41
80.0
 42
80.0
 43
80.0
  0
INSERT
  5
7D09
  8
0
  6
BYBLOCK
 62
     0
  2
_OPEN
 10
6405.666248999999
 20
5832.6061149999987
 30
0.0
 41
80.0
 42
80.0
 43
80.0
 50
180.0
  0
POINT
  5
7D0A
  8
DEFPOINTS
  6
BYBLOCK
 62
     0
 10
6933.666248999999
 20
5116.6671649999989
 30
0.0
  0
POINT
  5
7D0B
  8
DEFPOINTS
  6
BYBLOCK
 62
     0
 10
6405.666248999999
 20
5741.1921510000002
 30
0.0
  0
POINT
  5
7D0C
  8
DEFPOINTS
  6
BYBLOCK
 62
     0
 10
6405.666248999999
 20
5832.6061149999987
 30
0.0
  0
ENDBLK
  5
7D0D
  8
0
  0
BLOCK
  8
0
  2
*D9
 70
     1
 10
0.0
 20
0.0
 30
0.0
  3
*D9
  1

  0
LINE
  5
7E30
  8
3
  6
CONTINUOUS
 62
     0
 10
5665.6662489999999
 20
4904.6671649999998
 30
0.0
 11
5665.6662489999999
 21
5872.6061149999987
 31
0.0
  0
LINE
  5
7E31
  8
3
  6
CONTINUOUS
 62
     0
 10
6325.6662490000008
 20
5832.6061149999987
 30
0.0
 11
5745.6662489999999
 21
5832.6061149999987
 31
0.0
  0
INSERT
  5
7E32
  8
3
  6
CONTINUOUS
 62
     0
  2
_OPEN
 10
6405.666248999999
 20
5832.6061149999987
 30
0.0
 41
80.0
 42
80.0
 43
80.0
  0
INSERT
  5
7E33
  8
3
  6
CONTINUOUS
 62
     0
  2
_OPEN
 10
5665.6662489999999
 20
5832.6061149999987
 30
0.0
 41
80.0
 42
80.0
 43
80.0
 50
180.0
  0
TEXT
  8
3
  40
120
  5
7E9B
  62
0
  72
0
  71
0
 10
5795.67
 20
5820.21
 30
0.000000
  1
MAX
  0
TEXT
  8
3
  40
120
  5
7E9C
  62
0
  72
0
  71
0
 10
5795.67
 20
5664.21
 30
0.000000
  1
850
  0
POINT
  5
7E35
  8
DEFPOINTS
  6
CONTINUOUS
 62
     0
 10
6405.666248999999
 20
5741.1921510000002
 30
0.0
  0
POINT
  5
7E36
  8
DEFPOINTS
  6
CONTINUOUS
 62
     0
 10
5665.6662489999999
 20
4884.6671649999989
 30
0.0
  0
POINT
  5
7E37
  8
DEFPOINTS
  6
CONTINUOUS
 62
     0
 10
5665.6662489999999
 20
5832.6061149999987
 30
0.0
  0
ENDBLK
  5
7D17
  8
0
  0
BLOCK
  8
0
  2
*D10
 70
     1
 10
0.0
 20
0.0
 30
0.0
  3
*D10
  1

  0
LINE
  5
7E38
  8
3
  6
CONTINUOUS
 62
     0
 10
5718.6662489999999
 20
2951.6671649999989
 30
0.0
 11
5718.6662489999999
 21
2643.0102630000001
 31
0.0
  0
LINE
  5
7E39
  8
3
  6
CONTINUOUS
 62
     0
 10
6405.666248999999
 20
2795.6219420000002
 30
0.0
 11
6405.666248999999
 21
2643.0102630000001
 31
0.0
  0
LINE
  5
7E3A
  8
3
  6
CONTINUOUS
 62
     0
 10
5798.6662489999999
 20
2683.0102630000001
 30
0.0
 11
6325.6662490000008
 21
2683.0102630000001
 31
0.0
  0
INSERT
  5
7E3B
  8
3
  6
CONTINUOUS
 62
     0
  2
_OPEN
 10
5718.6662489999999
 20
2683.0102630000001
 30
0.0
 41
80.0
 42
80.0
 43
80.0
 50
180.0
  0
INSERT
  5
7E3C
  8
3
  6
CONTINUOUS
 62
     0
  2
_OPEN
 10
6405.666248999999
 20
2683.0102630000001
 30
0.0
 41
80.0
 42
80.0
 43
80.0
  0
TEXT
  8
3
  40
120
  5
7E9D
  62
0
  72
0
  71
0
 10
5846.75
 20
2570.61
 30
0.000000
  1
687
  0
POINT
  5
7E3E
  8
DEFPOINTS
  6
CONTINUOUS
 62
     0
 10
5718.6662489999999
 20
2971.6671649999989
 30
0.0
  0
POINT
  5
7E3F
  8
DEFPOINTS
  6
CONTINUOUS
 62
     0
 10
6405.666248999999
 20
2815.6219420000002
 30
0.0
  0
POINT
  5
7E40
  8
DEFPOINTS
  6
CONTINUOUS
 62
     0
 10
6405.666248999999
 20
2683.0102630000001
 30
0.0
  0
ENDBLK
  5
7BE9
  8
0
  0
BLOCK
  8
0
  2
*D11
 70
     1
 10
0.0
 20
0.0
 30
0.0
  3
*D11
  1

  0
LINE
  5
7E41
  8
3
  6
CONTINUOUS
 62
     0
 10
6898.6662489999999
 20
2951.6671649999989
 30
0.0
 11
6898.6662489999999
 21
2643.0102630000001
 31
0.0
  0
LINE
  5
7E42
  8
3
  6
CONTINUOUS
 62
     0
 10
6485.6662490000008
 20
2683.0102630000001
 30
0.0
 11
6818.6662489999999
 21
2683.0102630000001
 31
0.0
  0
TEXT
  8
3
  40
120
  5
7E9E
  62
0
  72
0
  71
0
 10
6422.77
 20
2570.68
 30
0.000000
  1
493
  0
INSERT
  5
7E44
  8
3
  6
CONTINUOUS
 62
     0
  2
_OPEN
 10
6405.666248999999
 20
2683.0102630000001
 30
0.0
 41
80.0
 42
80.0
 43
80.0
 50
180.0
  0
INSERT
  5
7E45
  8
3
  6
CONTINUOUS
 62
     0
  2
_OPEN
 10
6898.6662489999999
 20
2683.0102630000001
 30
0.0
 41
80.0
 42
80.0
 43
80.0
  0
POINT
  5
7E46
  8
DEFPOINTS
  6
CONTINUOUS
 62
     0
 10
6405.666248999999
 20
2815.6219420000002
 30
0.0
  0
POINT
  5
7E47
  8
DEFPOINTS
  6
CONTINUOUS
 62
     0
 10
6898.6662489999999
 20
2971.6671649999989
 30
0.0
  0
POINT
  5
7E48
  8
DEFPOINTS
  6
CONTINUOUS
 62
     0
 10
6898.6662489999999
 20
2683.0102630000001
 30
0.0
  0
ENDBLK
  5
7C26
  8
0
  0
BLOCK
  8
0
  2
*D12
 70
     1
 10
0.0
 20
0.0
 30
0.0
  3
*D12
  1

  0
LINE
  5
7E49
  8
3
  6
CONTINUOUS
 62
     0
 10
1213.3281639999991
 20
7335.4171700000006
 30
0.0
 11
1213.3281639999991
 21
6918.1419650000007
 31
0.0
  0
LINE
  5
7E4A
  8
3
  6
CONTINUOUS
 62
     0
 10
3573.328164
 20
7335.4171700000006
 30
0.0
 11
3573.328164
 21
6918.1419650000007
 31
0.0
  0
LINE
  5
7E4B
  8
3
  6
CONTINUOUS
 62
     0
 10
1293.328164
 20
6958.1419650000016
 30
0.0
 11
3493.328164
 21
6958.1419650000016
 31
0.0
  0
INSERT
  5
7E4C
  8
3
  6
CONTINUOUS
 62
     0
  2
_OPEN
 10
1213.3281639999991
 20
6958.1419650000016
 30
0.0
 41
80.0
 42
80.0
 43
80.0
 50
180.0
  0
INSERT
  5
7E4D
  8
3
  6
CONTINUOUS
 62
     0
  2
_OPEN
 10
3573.328164
 20
6958.1419650000016
 30
0.0
 41
80.0
 42
80.0
 43
80.0
  0
TEXT
  8
3
  40
120
  5
7E9F
  62
0
  72
0
  71
0
 10
2094.67
 20
6845.74
 30
0.000000
  1
2360
  0
POINT
  5
7E4F
  8
DEFPOINTS
  6
CONTINUOUS
 62
     0
 10
1213.3281639999991
 20
7355.4171700000006
 30
0.0
  0
POINT
  5
7E50
  8
DEFPOINTS
  6
CONTINUOUS
 62
     0
 10
3573.328164
 20
7355.4171700000006
 30
0.0
  0
POINT
  5
7E51
  8
DEFPOINTS
  6
CONTINUOUS
 62
     0
 10
3573.328164
 20
6958.1419650000016
 30
0.0
  0
ENDBLK
  5
7C04
  8
0
  0
BLOCK
  8
0
  2
*D13
 70
     1
 10
0.0
 20
0.0
 30
0.0
  3
*D13
  1

  0
LINE
  5
7E52
  8
3
  6
CONTINUOUS
 62
     0
 10
3593.328164
 20
8535.4171700000006
 30
0.0
 11
4049.6878590000019
 21
8535.4171700000006
 31
0.0
  0
LINE
  5
7E53
  8
3
  6
CONTINUOUS
 62
     0
 10
3593.328164
 20
7355.4171700000006
 30
0.0
 11
4049.6878590000019
 21
7355.4171700000006
 31
0.0
  0
LINE
  5
7E54
  8
3
  6
CONTINUOUS
 62
     0
 10
4009.6878590000019
 20
8455.4171700000024
 30
0.0
 11
4009.6878590000019
 21
7435.4171699999997
 31
0.0
  0
INSERT
  5
7E55
  8
3
  6
CONTINUOUS
 62
     0
  2
_OPEN
 10
4009.6878590000019
 20
8535.4171700000006
 30
0.0
 41
80.0
 42
80.0
 43
80.0
 50
90.0
  0
INSERT
  5
7E56
  8
3
  6
CONTINUOUS
 62
     0
  2
_OPEN
 10
4009.6878590000019
 20
7355.4171700000006
 30
0.0
 41
80.0
 42
80.0
 43
80.0
 50
270.0
  0
TEXT
  8
3
  40
120
  5
7EA0
  62
0
  72
0
  71
0
 10
3669.69
 20
7752.37
 30
0.000000
  1
1180
  0
POINT
  5
7E58
  8
DEFPOINTS
  6
CONTINUOUS
 62
     0
 10
3573.328164
 20
8535.4171700000006
 30
0.0
  0
POINT
  5
7E59
  8
DEFPOINTS
  6
CONTINUOUS
 62
     0
 10
3573.328164
 20
7355.4171700000006
 30
0.0
  0
POINT
  5
7E5A
  8
DEFPOINTS
  6
CONTINUOUS
 62
     0
 10
4009.6878590000019
 20
7355.4171700000006
 30
0.0
  0
ENDBLK
  5
7C11
  8
0
  0
BLOCK
  8
0
  2
*D14
 70
     1
 10
0.0
 20
0.0
 30
0.0
  3
*D14
  1

  0
LINE
  5
7E5B
  8
3
  6
CONTINUOUS
 62
     0
 10
2933.328164
 20
5311.6671649999998
 30
0.0
 11
4494.8999629999989
 21
5311.6671649999998
 31
0.0
  0
LINE
  5
7E5C
  8
3
  6
CONTINUOUS
 62
     0
 10
4454.8999629999989
 20
4586.6671649999998
 30
0.0
 11
4454.8999629999989
 21
5231.6671649999998
 31
0.0
  0
INSERT
  5
7E5D
  8
3
  6
CONTINUOUS
 62
     0
  2
_OPEN
 10
4454.8999629999989
 20
4506.6671649999989
 30
0.0
 41
80.0
 42
80.0
 43
80.0
 50
270.0
  0
INSERT
  5
7E5E
  8
3
  6
CONTINUOUS
 62
     0
  2
_OPEN
 10
4454.8999629999989
 20
5311.6671649999998
 30
0.0
 41
80.0
 42
80.0
 43
80.0
 50
90.0
  0
TEXT
  8
3
  40
120
  5
7EA1
  62
0
  72
0
  71
0
 10
4114.90
 20
4696.77
 30
0.000000
  1
805
  0
POINT
  5
7E60
  8
DEFPOINTS
  6
CONTINUOUS
 62
     0
 10
3894.2227349999998
 20
4506.6671649999989
 30
0.0
  0
POINT
  5
7E61
  8
DEFPOINTS
  6
CONTINUOUS
 62
     0
 10
2913.328164
 20
5311.6671649999998
 30
0.0
  0
POINT
  5
7E62
  8
DEFPOINTS
  6
CONTINUOUS
 62
     0
 10
4454.8999629999989
 20
5311.6671649999998
 30
0.0
  0
ENDBLK
  5
7D38
  8
0
  0
BLOCK
  8
0
  2
*D15
 70
     1
 10
0.0
 20
0.0
 30
0.0
  3
*D15
  1

  0
LINE
  5
7E63
  8
3
  6
CONTINUOUS
 62
     0
 10
2933.328164
 20
5311.6671649999998
 30
0.0
 11
4817.2807930000008
 21
5311.6671649999998
 31
0.0
  0
LINE
  5
7E64
  8
3
  6
CONTINUOUS
 62
     0
 10
3593.328164
 20
2971.6671649999989
 30
0.0
 11
4817.2807930000008
 21
2971.6671649999989
 31
0.0
  0
LINE
  5
7E65
  8
3
  6
CONTINUOUS
 62
     0
 10
4777.2807929999999
 20
5231.6671649999998
 30
0.0
 11
4777.2807929999999
 21
3051.6671649999998
 31
0.0
  0
INSERT
  5
7E66
  8
3
  6
CONTINUOUS
 62
     0
  2
_OPEN
 10
4777.2807929999999
 20
5311.6671649999998
 30
0.0
 41
80.0
 42
80.0
 43
80.0
 50
90.0
  0
INSERT
  5
7E67
  8
3
  6
CONTINUOUS
 62
     0
  2
_OPEN
 10
4777.2807929999999
 20
2971.6671649999989
 30
0.0
 41
80.0
 42
80.0
 43
80.0
 50
270.0
  0
TEXT
  8
3
  40
120
  5
7EA2
  62
0
  72
0
  71
0
 10
4437.28
 20
4049.18
 30
0.000000
  1
2340
  0
POINT
  5
7E69
  8
DEFPOINTS
  6
CONTINUOUS
 62
     0
 10
2913.328164
 20
5311.6671649999998
 30
0.0
  0
POINT
  5
7E6A
  8
DEFPOINTS
  6
CONTINUOUS
 62
     0
 10
3573.328164
 20
2971.6671649999989
 30
0.0
  0
POINT
  5
7E6B
  8
DEFPOINTS
  6
CONTINUOUS
 62
     0
 10
4777.2807929999999
 20
2971.6671649999989
 30
0.0
  0
ENDBLK
  5
7D4C
  8
0
  0
BLOCK
  8
0
  2
*D16
 70
     1
 10
0.0
 20
0.0
 30
0.0
  3
*D16
  1

  0
LINE
  5
7E6C
  8
3
  6
CONTINUOUS
 62
     0
 10
1944.328164
 20
4526.6671649999998
 30
0.0
 11
1944.328164
 21
5582.8364600000014
 31
0.0
  0
LINE
  5
7E6D
  8
3
  6
CONTINUOUS
 62
     0
 10
2833.328164
 20
5542.8364600000014
 30
0.0
 11
2024.328164
 21
5542.8364600000014
 31
0.0
  0
INSERT
  5
7E6E
  8
3
  6
CONTINUOUS
 62
     0
  2
_OPEN
 10
2913.328164
 20
5542.8364600000014
 30
0.0
 41
80.0
 42
80.0
 43
80.0
  0
INSERT
  5
7E6F
  8
3
  6
CONTINUOUS
 62
     0
  2
_OPEN
 10
1944.328164
 20
5542.8364600000014
 30
0.0
 41
80.0
 42
80.0
 43
80.0
 50
180.0
  0
TEXT
  8
3
  40
120
  5
7EA3
  62
0
  72
0
  71
0
 10
2188.83
 20
5430.44
 30
0.000000
  1
969
  0
POINT
  5
7E71
  8
DEFPOINTS
  6
CONTINUOUS
 62
     0
 10
2913.328164
 20
5481.5339160000003
 30
0.0
  0
POINT
  5
7E72
  8
DEFPOINTS
  6
CONTINUOUS
 62
     0
 10
1944.328164
 20
4506.6671649999989
 30
0.0
  0
POINT
  5
7E73
  8
DEFPOINTS
  6
CONTINUOUS
 62
     0
 10
1944.328164
 20
5542.8364600000014
 30
0.0
  0
ENDBLK
  5
7CEA
  8
0
  0
BLOCK
  8
0
  2
*D17
 70
     1
 10
0.0
 20
0.0
 30
0.0
  3
*D17
  1

  0
LINE
  5
7E74
  8
3
  6
CONTINUOUS
 62
     0
 10
5980.6662489999999
 20
5334.8671649999997
 30
0.0
 11
5980.6662489999999
 21
5591.4840159999994
 31
0.0
  0
LINE
  5
7E75
  8
3
  6
CONTINUOUS
 62
     0
 10
6830.6662489999999
 20
5334.8671649999997
 30
0.0
 11
6830.6662489999999
 21
5591.4840159999994
 31
0.0
  0
LINE
  5
7E76
  8
3
  6
CONTINUOUS
 62
     0
 10
6060.6662489999999
 20
5551.4840159999994
 30
0.0
 11
6750.6662489999999
 21
5551.4840159999994
 31
0.0
  0
INSERT
  5
7E77
  8
3
  6
CONTINUOUS
 62
     0
  2
_OPEN
 10
5980.6662489999999
 20
5551.4840159999994
 30
0.0
 41
80.0
 42
80.0
 43
80.0
 50
180.0
  0
INSERT
  5
7E78
  8
3
  6
CONTINUOUS
 62
     0
  2
_OPEN
 10
6830.6662489999999
 20
5551.4840159999994
 30
0.0
 41
80.0
 42
80.0
 43
80.0
  0
TEXT
  8
3
  40
120
  5
7EA4
  62
0
  72
0
  71
0
 10
6144.35
 20
5439.08
 30
0.000000
  1
850
  0
POINT
  5
7E7A
  8
DEFPOINTS
  6
CONTINUOUS
 62
     0
 10
5980.6662489999999
 20
5314.8671649999987
 30
0.0
  0
POINT
  5
7E7B
  8
DEFPOINTS
  6
CONTINUOUS
 62
     0
 10
6830.6662489999999
 20
5314.8671649999987
 30
0.0
  0
POINT
  5
7E7C
  8
DEFPOINTS
  6
CONTINUOUS
 62
     0
 10
6830.6662489999999
 20
5551.4840159999994
 30
0.0
  0
ENDBLK
  5
7CA4
  8
0
  0
BLOCK
  8
0
  2
*D18
 70
     1
 10
0.0
 20
0.0
 30
0.0
  3
*D18
  1

  0
LINE
  5
7E7D
  8
3
 62
     0
 10
3673.328164
 20
4531.6671649999989
 30
0.0
 11
3673.328164
 21
5810.1350695062501
 31
0.0
  0
LINE
  5
7E7E
  8
3
 62
     0
 10
1213.3281639999991
 20
3296.6671649999998
 30
0.0
 11
1213.328164
 21
5810.1350695062501
 31
0.0
  0
LINE
  5
7E7F
  8
3
 62
     0
 10
3593.328164
 20
5770.1350695062501
 30
0.0
 11
1293.328164
 21
5770.1350695062501
 31
0.0
  0
INSERT
  5
7E80
  8
3
 62
     0
  2
_OPEN
 10
3673.328164
 20
5770.1350695062501
 30
0.0
 41
80.0
 42
80.0
 43
80.0
  0
INSERT
  5
7E81
  8
3
 62
     0
  2
_OPEN
 10
1213.328164
 20
5770.1350695062501
 30
0.0
 41
80.0
 42
80.0
 43
80.0
 50
180.0
  0
TEXT
  8
3
  40
120
  5
7EA5
  62
0
  72
0
  71
0
 10
2232.33
 20
5657.74
 30
0.000000
  1
2460
  0
POINT
  5
7E83
  8
DEFPOINTS
 62
     0
 10
3673.328164
 20
4511.6671649999998
 30
0.0
  0
POINT
  5
7E84
  8
DEFPOINTS
 62
     0
 10
1213.3281639999991
 20
3276.6671649999998
 30
0.0
  0
POINT
  5
7E85
  8
DEFPOINTS
 62
     0
 10
1213.328164
 20
5770.1350695062501
 30
0.0
  0
ENDBLK
  5
7CF6
  8
0
  0
BLOCK
  8
0
  2
*D19
 70
     1
 10
0.0
 20
0.0
 30
0.0
  3
*D19
  1

  0
LINE
  5
7DC2
  8
0
  6
BYBLOCK
 62
     0
 10
3593.328164
 20
3036.6671649999998
 30
0.0
 11
4494.8999629999989
 21
3036.6671649999998
 31
0.0
  0
LINE
  5
7DC3
  8
0
  6
BYBLOCK
 62
     0
 10
4454.8999629999989
 20
3231.6671649999989
 30
0.0
 11
4454.8999629999989
 21
3311.6671649999998
 31
0.0
  0
LINE
  5
7DC4
  8
0
  6
BYBLOCK
 62
     0
 10
4454.8999629999989
 20
2956.6671649999998
 30
0.0
 11
4454.8999629999989
 21
2876.6671649999998
 31
0.0
  0
TEXT
  5
7DC5
  8
3
 62
     0
 10
4654.8999629999998
 20
3029.9897329774999
 30
0.0
 40
120.0
  1
(115)
 50
90.0
  0
LINE
  5
7DC6
  8
0
  6
BYBLOCK
 62
     0
 10
4454.8999629999989
 20
3151.6671649999998
 30
0.0
 11
4454.8999629999989
 21
3036.6671649999998
 31
0.0
  0
INSERT
  5
7DC7
  8
0
  6
BYBLOCK
 62
     0
  2
_OPEN
 10
4454.8999629999989
 20
3151.6671649999998
 30
0.0
 41
80.0
 42
80.0
 43
80.0
 50
270.0
  0
INSERT
  5
7DC8
  8
0
  6
BYBLOCK
 62
     0
  2
_DOT
 10
4454.8999629999989
 20
3036.6671649999998
 30
0.0
 41
80.0
 42
80.0
 43
80.0
 50
90.0
  0
POINT
  5
7DC9
  8
DEFPOINTS
  6
BYBLOCK
 62
     0
 10
3573.328164
 20
3151.6671649999998
 30
0.0
  0
POINT
  5
7DCA
  8
DEFPOINTS
  6
BYBLOCK
 62
     0
 10
3573.328164
 20
3036.6671649999998
 30
0.0
  0
POINT
  5
7DCB
  8
DEFPOINTS
  6
BYBLOCK
 62
     0
 10
4454.8999629999989
 20
3036.6671649999998
 30
0.0
  0
ENDBLK
  5
7DCC
  8
0
  0
BLOCK
  8
0
  2
*D20
 70
     1
 10
0.0
 20
0.0
 30
0.0
  3
*D20
  1

  0
LINE
  5
7E86
  8
3
 62
     0
 10
3593.328164
 20
3036.6671649999998
 30
0.0
 11
4494.8999629999989
 21
3036.6671649999998
 31
0.0
  0
LINE
  5
7E87
  8
3
 62
     0
 10
3593.328164
 20
2971.6671649999989
 30
0.0
 11
4494.8999629999989
 21
2971.6671649999989
 31
0.0
  0
LINE
  5
7E88
  8
3
 62
     0
 10
4454.8999629999989
 20
3116.6671649999989
 30
0.0
 11
4454.8999629999989
 21
3196.6671649999998
 31
0.0
  0
LINE
  5
7E89
  8
3
 62
     0
 10
4454.8999629999989
 20
2891.6671649999989
 30
0.0
 11
4454.8999629999989
 21
2537.3814507142852
 31
0.0
  0
LINE
  5
7E8A
  8
3
 62
     0
 10
4454.8999629999989
 20
3036.6671649999998
 30
0.0
 11
4454.8999629999989
 21
2971.6671649999989
 31
0.0
  0
INSERT
  5
7E8B
  8
3
 62
     0
  2
_DOT
 10
4454.8999629999989
 20
3036.6671649999998
 30
0.0
 41
80.0
 42
80.0
 43
80.0
 50
270.0
  0
INSERT
  5
7E8C
  8
3
 62
     0
  2
_OPEN
 10
4454.8999629999989
 20
2971.6671649999989
 30
0.0
 41
80.0
 42
80.0
 43
80.0
 50
90.0
  0
TEXT
  8
3
  40
120
  5
7EA6
  62
0
  72
0
  71
0
 10
4114.90
 20
2462.12
 30
0.000000
  1
65
  0
POINT
  5
7E8E
  8
DEFPOINTS
 62
     0
 10
3573.328164
 20
3036.6671649999998
 30
0.0
  0
POINT
  5
7E8F
  8
DEFPOINTS
 62
     0
 10
3573.328164
 20
2971.6671649999989
 30
0.0
  0
POINT
  5
7E90
  8
DEFPOINTS
 62
     0
 10
4454.8999629999989
 20
2971.6671649999989
 30
0.0
  0
ENDBLK
  5
7D8E
  8
0
  0
BLOCK
  8
0
  2
_DOT
 70
     0
 10
0.0
 20
0.0
 30
0.0
  3
_DOT
  1

  0
LINE
  5
7DCD
  8
0
  6
BYBLOCK
 62
     0
 10
0.0
 20
0.0
 30
0.0
 11
-1.0
 21
-0.0000000000000284
 31
0.0
  0
POLYLINE
  5
7DCE
  8
0
  6
BYBLOCK
 62
     0
 66
     1
 10
0.0
 20
0.0
 30
0.0
 70
     1
 40
0.1666666666666666
 41
0.1666666666666666
  0
VERTEX
  5
7E91
  8
0
  6
BYBLOCK
 62
     0
 10
-0.0833333333333286
 20
-0.0000000000000284
 30
0.0
 42
1.0
  0
VERTEX
  5
7E92
  8
0
  6
BYBLOCK
 62
     0
 10
0.0833333333333286
 20
-0.0000000000000284
 30
0.0
 42
1.0
  0
SEQEND
  5
7E93
  8
0
  6
BYBLOCK
 62
     0
  0
ENDBLK
  5
7D81
  8
0
  0
ENDSEC
  0
SECTION
  2
ENTITIES
  0
LINE
  5
7A70
  8
1
  6
CONTINUOUS
 10
5980.6662489999999
 20
4458.6671649999998
 30
0.0
 11
6830.6662489999999
 21
4458.6671649999998
 31
0.0
  0
LINE
  5
7A71
  8
1
  6
CONTINUOUS
 10
6898.6662489999999
 20
3276.6671649999998
 30
0.0
 11
5718.6662489999999
 21
3276.6671649999998
 31
0.0
  0
LINE
  5
7A72
  8
1
  6
CONTINUOUS
 10
6898.6662489999999
 20
3151.6671649999998
 30
0.0
 11
5718.6662489999999
 21
3151.6671649999998
 31
0.0
  0
LINE
  5
7A73
  8
1
  6
CONTINUOUS
 10
5980.6662489999999
 20
5314.8671649999987
 30
0.0
 11
6830.6662489999999
 21
5314.8671649999987
 31
0.0
  0
LINE
  5
7A74
  8
1
  6
CONTINUOUS
 10
5980.6662489999999
 20
3308.6671649999998
 30
0.0
 11
6830.6662489999999
 21
3308.6671649999998
 31
0.0
  0
LINE
  5
7A75
  8
1
  6
CONTINUOUS
 10
5980.6662489999999
 20
4458.6671649999998
 30
0.0
 11
6830.6662489999999
 21
3308.6671649999998
 31
0.0
  0
LINE
  5
7A76
  8
1
  6
CONTINUOUS
 10
6830.6662489999999
 20
4458.6671649999998
 30
0.0
 11
5980.6662489999999
 21
3308.6671649999998
 31
0.0
  0
LINE
  5
7A77
  8
1
  6
CONTINUOUS
 10
6898.6662489999999
 20
2971.6671649999989
 30
0.0
 11
5718.6662489999999
 21
2971.6671649999989
 31
0.0
  0
LINE
  5
7A78
  8
1
  6
CONTINUOUS
 10
6898.6662489999999
 20
3036.6671649999998
 30
0.0
 11
5718.6662489999999
 21
3036.6671649999998
 31
0.0
  0
CIRCLE
  5
7A79
  8
1
  6
CONTINUOUS
 10
2913.328164
 20
4506.6671649999989
 30
0.0
 40
278.0
  0
CIRCLE
  5
7A7A
  8
1
  6
CONTINUOUS
 10
2913.328164
 20
4506.6671649999989
 30
0.0
 40
610.0
  0
CIRCLE
  5
7A7B
  8
1
  6
CONTINUOUS
 10
2913.328164
 20
4506.6671649999989
 30
0.0
 40
560.0
  0
LINE
  5
7A7C
  8
1
  6
CONTINUOUS
 10
3573.328164
 20
3276.6671649999998
 30
0.0
 11
1213.3281639999991
 21
3276.6671649999998
 31
0.0
  0
LINE
  5
7A7D
  8
1
  6
CONTINUOUS
 10
3573.328164
 20
3151.6671649999998
 30
0.0
 11
1213.3281639999991
 21
3151.6671649999998
 31
0.0
  0
ARC
  5
7A7E
  8
1
  6
CONTINUOUS
 10
2844.828164
 20
4575.1671649999989
 30
0.0
 40
739.10000000000002
 50
0.0
 51
84.900000000000006
  0
LINE
  5
7A7F
  8
1
  6
CONTINUOUS
 10
3673.328164
 20
3308.6671649999998
 30
0.0
 11
2913.328164
 21
3373.6671649999998
 31
0.0
  0
ARC
  5
7A80
  8
1
  6
CONTINUOUS
 10
2913.328164
 20
4506.6671649999989
 30
0.0
 40
378.0
 50
300.49999999999989
 51
131.1999999999999
  0
LINE
  5
7A81
  8
2
  6
CENTER
 10
1747.8008600000001
 20
4506.6671649999989
 30
0.0
 11
3894.2227349999998
 21
4506.6671649999989
 31
0.0
  0
LINE
  5
7A82
  8
1
  6
CONTINUOUS
 10
3573.328164
 20
2971.6671649999989
 30
0.0
 11
1213.3281639999991
 21
2971.6671649999989
 31
0.0
  0
LINE
  5
7A83
  8
1
  6
CONTINUOUS
 10
3573.328164
 20
3036.6671649999998
 30
0.0
 11
1213.3281639999991
 21
3036.6671649999998
 31
0.0
  0
LINE
  5
7A84
  8
1
  6
CONTINUOUS
 10
1599.328164
 20
3408.3671650000001
 30
0.0
 11
3054.6281640000002
 21
4267.2671650000002
 31
0.0
  0
LINE
  5
7A85
  8
1
  6
CONTINUOUS
 10
1650.1281639999991
 20
3322.1671649999989
 30
0.0
 11
3105.4281639999999
 21
4181.1671649999998
 31
0.0
  0
LINE
  5
7A86
  8
1
  6
CONTINUOUS
 10
1393.328164
 20
3677.067164999999
 30
0.0
 11
2664.2281640000001
 21
4790.967165
 31
0.0
  0
LINE
  5
7A87
  8
1
  6
CONTINUOUS
 10
1459.2281640000001
 20
3601.8671649999992
 30
0.0
 11
2730.1281640000002
 21
4715.7671650000002
 31
0.0
  0
ARC
  5
7A88
  8
1
  6
CONTINUOUS
 10
2831.328164
 20
4424.6671649999989
 30
0.0
 40
890.20000000000005
 50
84.900000000000006
 51
180.0
  0
ARC
  5
7A89
  8
1
  6
CONTINUOUS
 10
2995.328164
 20
4424.6671649999989
 30
0.0
 40
1054.2
 50
180.0
 51
265.5
  0
ARC
  5
7A8A
  8
1
  6
CONTINUOUS
 10
1538.328164
 20
3511.6671649999998
 30
0.0
 40
220.0
 50
131.1999999999999
 51
300.49999999999989
  0
LINE
  5
7A8B
  8
1
  6
CONTINUOUS
 10
1213.3281639999991
 20
3276.6671649999998
 30
0.0
 11
1213.3281639999991
 21
3151.6671649999998
 31
0.0
  0
LINE
  5
7A8C
  8
1
  6
CONTINUOUS
 10
1213.3281639999991
 20
3036.6671649999998
 30
0.0
 11
1213.3281639999991
 21
2971.6671649999989
 31
0.0
  0
ARC
  5
7A8D
  8
1
  6
CONTINUOUS
 10
1538.328164
 20
3511.6671649999998
 30
0.0
 40
199.0
 50
320.10000000000002
 51
219.90000000000001
  0
CIRCLE
  5
7A8E
  8
1
  6
CONTINUOUS
 10
1538.328164
 20
3511.6671649999998
 30
0.0
 40
120.0
  0
LINE
  5
7A8F
  8
2
  6
CENTER
 10
1538.328164
 20
3391.6671649999989
 30
0.0
 11
1538.328164
 21
3631.6671649999989
 31
0.0
  0
LINE
  5
7A90
  8
1
  6
CONTINUOUS
 10
1313.328164
 20
3331.6671649999989
 30
0.0
 11
1763.3281639999991
 21
3331.6671649999989
 31
0.0
  0
LINE
  5
7A91
  8
1
  6
CONTINUOUS
 10
1313.328164
 20
3276.6671649999998
 30
0.0
 11
1763.3281639999991
 21
3276.6671649999998
 31
0.0
  0
LINE
  5
7A92
  8
1
  6
CONTINUOUS
 10
1376.328164
 20
3331.6671649999989
 30
0.0
 11
1376.328164
 21
3374.1671649999998
 31
0.0
  0
LINE
  5
7A93
  8
1
  6
CONTINUOUS
 10
1376.328164
 20
3374.1671649999998
 30
0.0
 11
1385.628164
 21
3384.067164999999
 31
0.0
  0
LINE
  5
7A94
  8
1
  6
CONTINUOUS
 10
1313.328164
 20
3276.6671649999998
 30
0.0
 11
1313.328164
 21
3331.6671649999989
 31
0.0
  0
LINE
  5
7A95
  8
1
  6
CONTINUOUS
 10
1700.328164
 20
3331.6671649999989
 30
0.0
 11
1700.328164
 21
3374.1671649999998
 31
0.0
  0
LINE
  5
7A96
  8
1
  6
CONTINUOUS
 10
1700.328164
 20
3374.1671649999998
 30
0.0
 11
1691.0281640000001
 21
3384.067164999999
 31
0.0
  0
LINE
  5
7A97
  8
1
  6
CONTINUOUS
 10
1763.3281639999991
 20
3276.6671649999998
 30
0.0
 11
1763.3281639999991
 21
3331.6671649999989
 31
0.0
  0
LINE
  5
7A98
  8
2
  6
CENTER
 10
1418.328164
 20
3511.6671649999998
 30
0.0
 11
1658.328164
 21
3511.6671649999998
 31
0.0
  0
LINE
  5
7A99
  8
2
  6
CENTER
 10
2913.328164
 20
8735.0189700000028
 30
0.0
 11
2913.328164
 21
7142.0983210000004
 31
0.0
  0
LINE
  5
7A9E
  8
1
  6
CONTINUOUS
 10
3633.328164
 20
4458.6671649999998
 30
0.0
 11
3633.328164
 21
3312.0671649999999
 31
0.0
  0
LINE
  5
7A9F
  8
1
  6
CONTINUOUS
 10
3673.328164
 20
4511.6671649999998
 30
0.0
 11
3673.328164
 21
3255.6671649999998
 31
0.0
  0
LINE
  5
7AA0
  8
1
  6
CONTINUOUS
 10
3573.328164
 20
3276.6671649999998
 30
0.0
 11
3573.328164
 21
3151.6671649999998
 31
0.0
  0
LINE
  5
7AA1
  8
1
  6
CONTINUOUS
 10
3573.328164
 20
3036.6671649999998
 30
0.0
 11
3573.328164
 21
2971.6671649999989
 31
0.0
  0
ARC
  5
7AA2
  8
1
  6
CONTINUOUS
 10
2981.828164
 20
4575.1671649999989
 30
0.0
 40
602.10000000000002
 50
348.7999999999999
 51
0.0
  0
LINE
  5
7AA3
  8
1
  6
CONTINUOUS
 10
3572.5281639999989
 20
4458.6671649999998
 30
0.0
 11
3673.328164
 21
4458.6671649999998
 31
0.0
  0
LINE
  5
7AA4
  8
1
  6
CONTINUOUS
 10
5980.6662489999999
 20
3276.6671649999998
 30
0.0
 11
5980.6662489999999
 21
5314.8671649999987
 31
0.0
  0
LINE
  5
7AA5
  8
1
  6
CONTINUOUS
 10
5665.6662489999999
 20
3291.6671649999989
 30
0.0
 11
5665.6662489999999
 21
4884.6671649999989
 31
0.0
  0
LINE
  5
7AA6
  8
1
  6
CONTINUOUS
 10
5905.6662489999999
 20
3291.6671649999989
 30
0.0
 11
5905.6662489999999
 21
4884.6671649999989
 31
0.0
  0
LINE
  5
7AA7
  8
1
  6
CONTINUOUS
 10
5735.6662489999999
 20
4784.6671649999998
 30
0.0
 11
5735.6662489999999
 21
4228.6671649999998
 31
0.0
  0
LINE
  5
7AA8
  8
1
  6
CONTINUOUS
 10
5835.666248999999
 20
4784.6671649999998
 30
0.0
 11
5835.666248999999
 21
4228.6671649999998
 31
0.0
  0
LINE
  5
7AA9
  8
1
  6
CONTINUOUS
 10
5835.666248999999
 20
3539.1671649999998
 30
0.0
 11
5980.6662489999999
 21
3539.1671649999998
 31
0.0
  0
LINE
  5
7AAA
  8
1
  6
CONTINUOUS
 10
5835.666248999999
 20
3484.1671649999998
 30
0.0
 11
5980.6662489999999
 21
3484.1671649999998
 31
0.0
  0
LINE
  5
7AAB
  8
1
  6
CONTINUOUS
 10
5735.6662489999999
 20
3631.6671649999989
 30
0.0
 11
5735.6662489999999
 21
3391.6671649999989
 31
0.0
  0
LINE
  5
7AAC
  8
1
  6
CONTINUOUS
 10
5835.666248999999
 20
3631.6671649999989
 30
0.0
 11
5835.666248999999
 21
3391.6671649999989
 31
0.0
  0
LINE
  5
7AAD
  8
1
  6
CONTINUOUS
 10
5718.6662489999999
 20
3151.6671649999998
 30
0.0
 11
5718.6662489999999
 21
3276.6671649999998
 31
0.0
  0
LINE
  5
7AAE
  8
1
  6
CONTINUOUS
 10
5735.6662489999999
 20
3391.6671649999989
 30
0.0
 11
5835.666248999999
 21
3391.6671649999989
 31
0.0
  0
LINE
  5
7AAF
  8
1
  6
CONTINUOUS
 10
5665.6662489999999
 20
3291.6671649999989
 30
0.0
 11
5905.6662489999999
 21
3291.6671649999989
 31
0.0
  0
LINE
  5
7AB0
  8
1
  6
CONTINUOUS
 10
5718.6662489999999
 20
2971.6671649999989
 30
0.0
 11
5718.6662489999999
 21
3036.6671649999998
 31
0.0
  0
LINE
  5
7AB1
  8
1
  6
CONTINUOUS
 10
5735.6662489999999
 20
3631.6671649999989
 30
0.0
 11
5835.666248999999
 21
3631.6671649999989
 31
0.0
  0
LINE
  5
7AB2
  8
1
  6
CONTINUOUS
 10
5735.6662489999999
 20
4228.6671649999998
 30
0.0
 11
5835.666248999999
 21
4228.6671649999998
 31
0.0
  0
LINE
  5
7AB3
  8
1
  6
CONTINUOUS
 10
5835.666248999999
 20
4534.1671649999998
 30
0.0
 11
5980.6662489999999
 21
4534.1671649999998
 31
0.0
  0
LINE
  5
7AB4
  8
1
  6
CONTINUOUS
 10
5835.666248999999
 20
4479.1671649999989
 30
0.0
 11
5980.6662489999999
 21
4479.1671649999989
 31
0.0
  0
LINE
  5
7AB5
  8
1
  6
CONTINUOUS
 10
5665.6662489999999
 20
4884.6671649999989
 30
0.0
 11
5905.6662489999999
 21
4884.6671649999989
 31
0.0
  0
LINE
  5
7AB6
  8
1
  6
CONTINUOUS
 10
5735.6662489999999
 20
4784.6671649999998
 30
0.0
 11
5835.666248999999
 21
4784.6671649999998
 31
0.0
  0
LINE
  5
7AB7
  8
1
  6
CONTINUOUS
 10
1213.3281639999991
 20
7355.4171700000006
 30
0.0
 11
3573.328164
 21
7355.4171700000006
 31
0.0
  0
LINE
  5
7AB8
  8
1
  6
CONTINUOUS
 10
1941.128164
 20
8467.4171700000006
 30
0.0
 11
3673.328164
 21
8467.4171700000006
 31
0.0
  0
LINE
  5
7AB9
  8
1
  6
CONTINUOUS
 10
1941.128164
 20
7617.4171699999997
 30
0.0
 11
3673.328164
 21
7617.4171699999997
 31
0.0
  0
LINE
  5
7ABA
  8
1
  6
CONTINUOUS
 10
1318.328164
 20
7302.4171700000006
 30
0.0
 11
3291.328164
 21
7302.4171700000006
 31
0.0
  0
LINE
  5
7ABB
  8
1
  6
CONTINUOUS
 10
2303.328164
 20
8570.4171700000006
 30
0.0
 11
3523.328164
 21
8570.4171700000006
 31
0.0
  0
LINE
  5
7ABC
  8
1
  6
CONTINUOUS
 10
1318.328164
 20
7542.4171699999997
 30
0.0
 11
3291.328164
 21
7542.4171699999997
 31
0.0
  0
LINE
  5
7ABD
  8
1
  6
CONTINUOUS
 10
3191.328164
 20
7372.4171700000024
 30
0.0
 11
2635.328164
 21
7372.4171700000024
 31
0.0
  0
LINE
  5
7ABE
  8
1
  6
CONTINUOUS
 10
3191.328164
 20
7472.4171700000006
 30
0.0
 11
2635.328164
 21
7472.4171700000006
 31
0.0
  0
LINE
  5
7ABF
  8
1
  6
CONTINUOUS
 10
1213.3281639999991
 20
8535.4171700000006
 30
0.0
 11
2353.328164
 21
8535.4171700000006
 31
0.0
  0
LINE
  5
7AC0
  8
1
  6
CONTINUOUS
 10
1213.3281639999991
 20
8535.4171700000006
 30
0.0
 11
1213.3281639999991
 21
7355.4171700000006
 31
0.0
  0
LINE
  5
7AC1
  8
1
  6
CONTINUOUS
 10
1658.328164
 20
7372.4171700000024
 30
0.0
 11
1658.328164
 21
7472.4171700000006
 31
0.0
  0
LINE
  5
7AC2
  8
1
  6
CONTINUOUS
 10
1418.328164
 20
7372.4171700000024
 30
0.0
 11
1418.328164
 21
7472.4171700000006
 31
0.0
  0
LINE
  5
7AC3
  8
1
  6
CONTINUOUS
 10
1318.328164
 20
7302.4171700000006
 30
0.0
 11
1318.328164
 21
7542.4171699999997
 31
0.0
  0
LINE
  5
7AC4
  8
1
  6
CONTINUOUS
 10
1658.328164
 20
7372.4171700000024
 30
0.0
 11
1418.328164
 21
7372.4171700000024
 31
0.0
  0
LINE
  5
7AC5
  8
1
  6
CONTINUOUS
 10
1339.2281640000001
 20
7591.1171700000014
 30
0.0
 11
1737.4281639999999
 21
7591.1171700000014
 31
0.0
  0
LINE
  5
7AC6
  8
1
  6
CONTINUOUS
 10
1339.2281640000001
 20
8190.6171700000014
 30
0.0
 11
1737.4281639999999
 21
8190.6171700000014
 31
0.0
  0
LINE
  5
7AC7
  8
1
  6
CONTINUOUS
 10
1658.328164
 20
7472.4171700000006
 30
0.0
 11
1418.328164
 21
7472.4171700000006
 31
0.0
  0
LINE
  5
7AC8
  8
1
  6
CONTINUOUS
 10
1339.2281640000001
 20
7591.1171700000014
 30
0.0
 11
1339.2281640000001
 21
8190.6171700000014
 31
0.0
  0
LINE
  5
7AC9
  8
1
  6
CONTINUOUS
 10
1510.828164
 20
7472.4171700000006
 30
0.0
 11
1510.828164
 21
7591.1171700000014
 31
0.0
  0
LINE
  5
7ACA
  8
1
  6
CONTINUOUS
 10
1565.828164
 20
7472.4171700000006
 30
0.0
 11
1565.828164
 21
7591.1171700000014
 31
0.0
  0
LINE
  5
7ACB
  8
1
  6
CONTINUOUS
 10
1737.4281639999999
 20
7591.1171700000014
 30
0.0
 11
1737.4281639999999
 21
8190.6171700000014
 31
0.0
  0
LINE
  5
7ACC
  8
1
  6
CONTINUOUS
 10
1941.128164
 20
7617.4171699999997
 30
0.0
 11
1941.128164
 21
8467.4171700000006
 31
0.0
  0
LINE
  5
7ACD
  8
1
  6
CONTINUOUS
 10
2635.328164
 20
7372.4171700000024
 30
0.0
 11
2635.328164
 21
7472.4171700000006
 31
0.0
  0
LINE
  5
7ACE
  8
1
  6
CONTINUOUS
 10
2940.828164
 20
7617.4171699999997
 30
0.0
 11
2940.828164
 21
7472.4171700000006
 31
0.0
  0
LINE
  5
7ACF
  8
1
  6
CONTINUOUS
 10
2885.828164
 20
7617.4171699999997
 30
0.0
 11
2885.828164
 21
7472.4171700000006
 31
0.0
  0
LINE
  5
7AD0
  8
1
  6
CONTINUOUS
 10
2353.328164
 20
8570.4171700000006
 30
0.0
 11
2353.328164
 21
8467.4171700000006
 31
0.0
  0
LINE
  5
7AD1
  8
1
  6
CONTINUOUS
 10
3673.328164
 20
7567.4171699999997
 30
0.0
 11
3673.328164
 21
8517.4171699999988
 31
0.0
  0
LINE
  5
7AD2
  8
1
  6
CONTINUOUS
 10
3573.328164
 20
7617.4171699999997
 30
0.0
 11
3573.328164
 21
7355.4171700000006
 31
0.0
  0
LINE
  5
7AD3
  8
1
  6
CONTINUOUS
 10
3191.328164
 20
7372.4171700000024
 30
0.0
 11
3191.328164
 21
7472.4171700000006
 31
0.0
  0
LINE
  5
7AD4
  8
1
  6
CONTINUOUS
 10
3291.328164
 20
7302.4171700000006
 30
0.0
 11
3291.328164
 21
7542.4171699999997
 31
0.0
  0
LINE
  5
7AD5
  8
1
  6
CONTINUOUS
 10
3473.328164
 20
8535.4171700000006
 30
0.0
 11
3573.328164
 21
8535.4171700000006
 31
0.0
  0
LINE
  5
7AD6
  8
1
  6
CONTINUOUS
 10
3573.328164
 20
8535.4171700000006
 30
0.0
 11
3573.328164
 21
8467.4171700000006
 31
0.0
  0
LINE
  5
7AD7
  8
1
  6
CONTINUOUS
 10
3473.328164
 20
8570.4171700000006
 30
0.0
 11
3473.328164
 21
8467.4171700000006
 31
0.0
  0
LINE
  5
7AD8
  8
1
  6
CONTINUOUS
 10
6830.6662489999999
 20
3276.6671649999998
 30
0.0
 11
6830.6662489999999
 21
5314.8671649999987
 31
0.0
  0
LINE
  5
7AD9
  8
1
  6
CONTINUOUS
 10
6933.666248999999
 20
3896.6671649999998
 30
0.0
 11
6933.666248999999
 21
5116.6671649999989
 31
0.0
  0
LINE
  5
7ADA
  8
1
  6
CONTINUOUS
 10
6898.6662489999999
 20
3151.6671649999998
 30
0.0
 11
6898.6662489999999
 21
3276.6671649999998
 31
0.0
  0
LINE
  5
7ADB
  8
1
  6
CONTINUOUS
 10
6898.6662489999999
 20
2971.6671649999989
 30
0.0
 11
6898.6662489999999
 21
3036.6671649999998
 31
0.0
  0
LINE
  5
7ADC
  8
1
  6
CONTINUOUS
 10
6830.6662489999999
 20
3946.6671649999998
 30
0.0
 11
6933.666248999999
 21
3946.6671649999998
 31
0.0
  0
LINE
  5
7ADD
  8
1
  6
CONTINUOUS
 10
6830.6662489999999
 20
5066.6671649999998
 30
0.0
 11
6933.666248999999
 21
5066.6671649999998
 31
0.0
  0
LINE
  5
7ADE
  8
2
  6
CENTER
 10
1069.808391
 20
8042.4171699999997
 30
0.0
 11
3775.9647389999991
 21
8042.4171699999997
 31
0.0
  0
LINE
  5
7ADF
  8
2
  6
CENTER
 10
6405.666248999999
 20
5482.1041309999991
 30
0.0
 11
6405.666248999999
 21
2815.6219420000002
 31
0.0
  0
LINE
  5
7AE0
  8
2
  6
CENTER
 10
2913.328164
 20
5481.5339160000003
 30
0.0
 11
2913.328164
 21
2815.8527640000002
 31
0.0
  0
LINE
  5
7AE1
  8
2
  6
CENTER
 10
5520.6601769999997
 20
4506.6671649999989
 30
0.0
 11
7020.2750130000004
 21
4506.6671649999989
 31
0.0
  0
LINE
  5
7B01
  8
4
  6
CONTINUOUS
 10
7400.0
 20
2000.0
 30
0.0
 11
7400.0
 21
1200.0
 31
0.0
  0
LINE
  5
7B02
  8
4
  6
CONTINUOUS
 10
4600.0
 20
2000.0
 30
0.0
 11
4600.0
 21
1200.0
 31
0.0
  0
LINE
  5
7B03
  8
4
  6
CONTINUOUS
 10
2600.0
 20
2000.0
 30
0.0
 11
2600.0
 21
1200.0
 31
0.0
  0
LINE
  5
7B06
  8
4
  6
CONTINUOUS
 10
2600.0
 20
1200.0
 30
0.0
 11
7400.0
 21
1200.0
 31
0.0
  0
LINE
  5
7B07
  8
4
  6
CONTINUOUS
 10
2600.0
 20
1600.0
 30
0.0
 11
7400.0
 21
1600.0
 31
0.0
  0
TEXT
  5
7B08
  8
4
  6
CONTINUOUS
 10
2754.008323
 20
1726.1721030000001
 30
0.0
 40
200.0
  1
機器名称
  0
TEXT
  5
7B09
  8
4
  6
CONTINUOUS
 10
2745.032424
 20
1286.580627
 30
0.0
 40
200.0
  1
機器型番
  0
TEXT
  5
7B0A
  8
4
  6
CONTINUOUS
 10
4710.7149820000004
 20
1690.2870760000001
 30
0.0
 40
200.0
  1
ミツヤ多翼送風機
  0
TEXT
  5
7B0B
  8
4
  6
CONTINUOUS
 10
4746.6179819999998
 20
1268.6383370000001
 30
0.0
 40
200.0
  1
MF#7-4
  0
TEXT
  5
7B0D
  8
4
  6
CONTINUOUS
 10
3023.6721229999998
 20
9533.715365
 30
0.0
 40
216.0
  1
床置防振ベット
  0
TEXT
  5
7B0E
  8
4
  6
CONTINUOUS
 10
1264.6703729999999
 20
10135.523905
 30
0.0
 40
288.0
  1
ベルト駆動式片吸込両持多翼ファン
  0
LINE
  5
7B0F
  8
4
  6
CONTINUOUS
 10
1000.0
 20
9877.6350170000005
 30
0.0
 11
7400.0
 21
9877.6350170000005
 31
0.0
  0
LINE
  5
7B10
  8
4
  6
CONTINUOUS
 10
1000.0
 20
10677.635017000001
 30
0.0
 11
7400.0
 21
10677.635017000001
 31
0.0
  0
LINE
  5
7B11
  8
4
  6
CONTINUOUS
 10
2600.0
 20
2000.0
 30
0.0
 11
7400.0
 21
2000.0
 31
0.0
  0
LINE
  5
7B12
  8
4
  6
CONTINUOUS
 10
1000.0
 20
10677.635017000001
 30
0.0
 11
1000.0
 21
9877.6350170000005
 31
0.0
  0
TEXT
  5
7B13
  8
4
  6
CONTINUOUS
 10
1280.2367939999999
 20
9529.2779099999989
 30
0.0
 40
216.0
  1
左回転右横向
  0
TEXT
  5
7B14
  8
4
  6
CONTINUOUS
 10
5875.8782369999999
 20
10824.244326
 30
0.0
 40
224.0
  1
No.
  0
TEXT
  5
7B15
  8
4
  6
CONTINUOUS
 10
5245.1842500000012
 20
9533.715365
 30
0.0
 40
216.0
  1
縮尺：1/40
  0
LINE
  5
7B16
  8
4
  6
CONTINUOUS
 10
7400.0
 20
10677.635017000001
 30
0.0
 11
7400.0
 21
9877.6350170000005
 31
0.0
  0
LINE
  5
7B18
  8
4
  6
CONTINUOUS
 10
5762.4696889999996
 20
10725.054333
 30
0.0
 11
5762.4696889999996
 21
11146.609046
 31
0.0
  0
LINE
  5
7B19
  8
4
  6
CONTINUOUS
 10
5762.4696889999996
 20
11146.609046
 30
0.0
 11
7400.0
 21
11146.609046
 31
0.0
  0
LINE
  5
7B1A
  8
4
  6
CONTINUOUS
 10
7400.0
 20
11146.609046
 30
0.0
 11
7400.0
 21
10725.054333
 31
0.0
  0
LINE
  5
7B1B
  8
4
  6
CONTINUOUS
 10
7400.0
 20
10725.054333
 30
0.0
 11
5762.4696889999996
 21
10725.054333
 31
0.0
  0
DIMENSION
  5
7B33
  8
3
  6
CONTINUOUS
  2
*D1
 10
3940.0264860000002
 20
3308.6671649999998
 30
0.0
 11
3940.0264860000002
 21
3873.2354540000001
 31
0.0
 70
   128
 13
3673.328164
 23
4458.6671649999998
 33
0.0
 14
3673.328164
 24
3308.6671649999998
 34
0.0
 50
90.0
1001
ACAD
1000
DSTYLE
1002
{
1070
   287
1070
     3
1070
    40
1040
40.0
1070
   143
1040
0.039
1070
   172
1070
     1
1070
   271
1070
     0
1070
   279
1070
     0
1070
   288
1070
     1
1002
}
  0
DIMENSION
  5
7B40
  8
3
  6
CONTINUOUS
  2
*D2
 10
4193.5026610000014
 20
3308.6671649999998
 30
0.0
 11
4193.5026609999986
 21
3889.0681799999988
 31
0.0
 70
   128
 13
3894.2227349999998
 23
4506.6671649999989
 33
0.0
 14
3673.328164
 24
3308.6671649999998
 34
0.0
 50
90.0
1001
ACAD
1000
DSTYLE
1002
{
1070
   287
1070
     3
1070
    40
1040
40.0
1070
   143
1040
0.039
1070
   172
1070
     1
1070
   271
1070
     0
1070
   279
1070
     0
1070
   288
1070
     1
1002
}
  0
DIMENSION
  5
7B59
  8
3
  6
CONTINUOUS
  2
*D3
 10
4454.8999629999989
 20
3151.6671649999998
 30
0.0
 11
4354.8999629999989
 21
3829.1671649999998
 31
0.0
 70
     0
 13
3894.2227349999998
 23
4506.6671649999989
 33
0.0
 14
3573.328164
 24
3151.6671649999998
 34
0.0
 50
90.0
1001
ACAD
1000
DSTYLE
1002
{
1070
   287
1070
     3
1070
    40
1040
40.0
1070
   143
1040
0.039
1070
   172
1070
     1
1070
   271
1070
     0
1070
   279
1070
     0
1070
   288
1070
     1
1002
}
  0
DIMENSION
  5
7B83
  8
3
  6
CONTINUOUS
  2
*D4
 10
2913.328164
 20
2697.0398420000001
 30
0.0
 11
2035.1377279999999
 21
2697.0398420000001
 31
0.0
 70
   128
 13
1213.3281639999991
 23
2971.6671649999989
 33
0.0
 14
2913.328164
 24
2815.8527640000002
 34
0.0
1001
ACAD
1000
DSTYLE
1002
{
1070
   287
1070
     3
1070
    40
1040
40.0
1070
   143
1040
0.039
1070
   172
1070
     1
1070
   271
1070
     0
1070
   279
1070
     0
1070
   288
1070
     1
1002
}
  0
DIMENSION
  5
7B8F
  8
3
  6
CONTINUOUS
  2
*D5
 10
3573.328164
 20
2697.0398420000001
 30
0.0
 11
3243.328164
 21
2797.0398420000001
 31
0.0
 70
     0
 13
2913.328164
 23
2815.8527640000002
 33
0.0
 14
3573.328164
 24
2971.6671649999989
 34
0.0
1001
ACAD
1000
DSTYLE
1002
{
1070
   287
1070
     4
1070
    40
1040
40.0
1070
    75
1070
     1
1070
   143
1040
0.039
1070
   172
1070
     1
1070
   271
1070
     0
1070
   279
1070
     1
1070
   288
1070
     1
1002
}
  0
DIMENSION
  5
7B9C
  8
3
  6
CONTINUOUS
  2
*D6
 10
2913.328164
 20
5542.8364600000014
 30
0.0
 11
3312.5960150000001
 21
5542.8364600000014
 31
0.0
 70
   128
 13
3673.328164
 23
4511.6671649999998
 33
0.0
 14
2913.328164
 24
5481.5339160000003
 34
0.0
1001
ACAD
1000
DSTYLE
1002
{
1070
   287
1070
     3
1070
    40
1040
40.0
1070
   143
1040
0.039
1070
   172
1070
     1
1070
   271
1070
     0
1070
   279
1070
     0
1070
   288
1070
     1
1002
}
  0
DIMENSION
  5
7BC2
  8
3
  6
CONTINUOUS
  2
*D7
 10
7230.8450540000013
 20
3946.6671649999989
 30
0.0
 11
7230.8450540000013
 21
4497.6331559999999
 31
0.0
 70
   128
 13
6933.666248999999
 23
5066.6671649999998
 33
0.0
 14
6933.666248999999
 24
3946.6671649999998
 34
0.0
 50
90.0
1001
ACAD
1000
DSTYLE
1002
{
1070
   287
1070
     3
1070
     3
1000
φ<>
1070
    40
1040
40.0
1070
   143
1040
0.039
1070
   172
1070
     1
1070
   271
1070
     0
1070
   279
1070
     0
1070
   288
1070
     1
1002
}
  0
DIMENSION
  5
7BD1
  8
3
  6
CONTINUOUS
  2
*D8
 10
6405.666248999999
 20
5832.6061149999987
 30
0.0
 11
6669.666248999999
 21
5929.9737867856093
 31
0.0
 70
   128
 13
6933.666248999999
 23
5116.6671649999989
 33
0.0
 14
6405.666248999999
 24
5741.1921510000002
 34
0.0
1001
ACAD
1000
DSTYLE
1002
{
1070
   288
1070
     1
1070
   172
1070
     1
1070
    40
1040
40.0
1070
   271
1070
     0
1070
   143
1040
0.039
1002
}
  0
DIMENSION
  5
7BDD
  8
3
  6
CONTINUOUS
  2
*D9
 10
5665.6662489999999
 20
5832.6061149999987
 30
0.0
 11
6035.6662489999999
 21
6032.6061149999996
 31
0.0
 70
     0
  1
MAX\P850
 13
6405.666248999999
 23
5741.1921510000002
 33
0.0
 14
5665.6662489999999
 24
4884.6671649999989
 34
0.0
1001
ACAD
1000
DSTYLE
1002
{
1070
   287
1070
     4
1070
    40
1040
40.0
1070
    75
1070
     1
1070
   143
1040
0.039
1070
   172
1070
     1
1070
   271
1070
     0
1070
   279
1070
     1
1070
   288
1070
     1
1002
}
  0
DIMENSION
  5
7BEA
  8
3
  6
CONTINUOUS
  2
*D10
 10
6405.666248999999
 20
2683.0102630000001
 30
0.0
 11
6086.747824
 21
2683.0102630000001
 31
0.0
 70
   128
 13
5718.6662489999999
 23
2971.6671649999989
 33
0.0
 14
6405.666248999999
 24
2815.6219420000002
 34
0.0
1001
ACAD
1000
DSTYLE
1002
{
1070
   287
1070
     3
1070
    40
1040
40.0
1070
   143
1040
0.039
1070
   172
1070
     1
1070
   271
1070
     0
1070
   279
1070
     0
1070
   288
1070
     1
1002
}
  0
DIMENSION
  5
7BF8
  8
3
  6
CONTINUOUS
  2
*D11
 10
6898.6662489999999
 20
2683.0102630000001
 30
0.0
 11
6662.7704049999993
 21
2683.078591
 31
0.0
 70
   128
 13
6405.666248999999
 23
2815.6219420000002
 33
0.0
 14
6898.6662489999999
 24
2971.6671649999989
 34
0.0
1001
ACAD
1000
DSTYLE
1002
{
1070
   287
1070
     4
1070
    40
1040
40.0
1070
    75
1070
     1
1070
   143
1040
0.039
1070
   172
1070
     1
1070
   271
1070
     0
1070
   279
1070
     1
1070
   288
1070
     1
1002
}
  0
DIMENSION
  5
7C05
  8
3
  6
CONTINUOUS
  2
*D12
 10
3573.328164
 20
6958.1419650000016
 30
0.0
 11
2334.6722300000001
 21
6958.1419650000016
 31
0.0
 70
   128
 13
1213.3281639999991
 23
7355.4171700000006
 33
0.0
 14
3573.328164
 24
7355.4171700000006
 34
0.0
1001
ACAD
1000
DSTYLE
1002
{
1070
   287
1070
     3
1070
    40
1040
40.0
1070
   143
1040
0.039
1070
   172
1070
     1
1070
   271
1070
     0
1070
   279
1070
     0
1070
   288
1070
     1
1002
}
  0
DIMENSION
  5
7C12
  8
3
  6
CONTINUOUS
  2
*D13
 10
4009.6878590000019
 20
7355.4171700000006
 30
0.0
 11
4009.687859000001
 21
7964.772512999999
 31
0.0
 70
   128
 13
3573.328164
 23
8535.4171700000006
 33
0.0
 14
3573.328164
 24
7355.4171700000006
 34
0.0
 50
90.0
1001
ACAD
1000
DSTYLE
1002
{
1070
   287
1070
     3
1070
    40
1040
40.0
1070
   143
1040
0.039
1070
   172
1070
     1
1070
   271
1070
     0
1070
   279
1070
     0
1070
   288
1070
     1
1002
}
  0
DIMENSION
  5
7C37
  8
3
  6
CONTINUOUS
  2
*D14
 10
4454.8999629999989
 20
5311.6671649999998
 30
0.0
 11
4354.8999629999989
 21
4909.1671650000008
 31
0.0
 70
     0
 13
3894.2227349999998
 23
4506.6671649999989
 33
0.0
 14
2913.328164
 24
5311.6671649999998
 34
0.0
 50
90.0
1001
ACAD
1000
DSTYLE
1002
{
1070
   287
1070
     4
1070
    40
1040
40.0
1070
    75
1070
     1
1070
   143
1040
0.039
1070
   172
1070
     1
1070
   271
1070
     0
1070
   279
1070
     1
1070
   288
1070
     1
1002
}
  0
DIMENSION
  5
7C5E
  8
3
  6
CONTINUOUS
  2
*D15
 10
4777.2807929999999
 20
2971.6671649999989
 30
0.0
 11
4777.2807929999999
 21
4261.5784990000002
 31
0.0
 70
   128
 13
2913.328164
 23
5311.6671649999998
 33
0.0
 14
3573.328164
 24
2971.6671649999989
 34
0.0
 50
90.0
1001
ACAD
1000
DSTYLE
1002
{
1070
   287
1070
     3
1070
    40
1040
40.0
1070
   143
1040
0.039
1070
   172
1070
     1
1070
   271
1070
     0
1070
   279
1070
     0
1070
   288
1070
     1
1002
}
  0
DIMENSION
  5
7C6A
  8
3
  6
CONTINUOUS
  2
*D16
 10
1944.328164
 20
5542.8364600000014
 30
0.0
 11
2428.828164
 21
5642.8364600000014
 31
0.0
 70
     0
 13
2913.328164
 23
5481.5339160000003
 33
0.0
 14
1944.328164
 24
4506.6671649999989
 34
0.0
1001
ACAD
1000
DSTYLE
1002
{
1070
   287
1070
     4
1070
    40
1040
40.0
1070
    75
1070
     1
1070
   143
1040
0.039
1070
   172
1070
     1
1070
   271
1070
     0
1070
   279
1070
     1
1070
   288
1070
     1
1002
}
  0
DIMENSION
  5
7CA5
  8
3
  6
CONTINUOUS
  2
*D17
 10
6830.6662489999999
 20
5551.4840159999994
 30
0.0
 11
6384.3474930000002
 21
5551.4840159999994
 31
0.0
 70
   128
 13
5980.6662489999999
 23
5314.8671649999987
 33
0.0
 14
6830.6662489999999
 24
5314.8671649999987
 34
0.0
1001
ACAD
1000
DSTYLE
1002
{
1070
   287
1070
     3
1070
    40
1040
40.0
1070
   143
1040
0.039
1070
   172
1070
     1
1070
   271
1070
     0
1070
   279
1070
     0
1070
   288
1070
     1
1002
}
  0
DIMENSION
  5
7CF7
  8
3
  2
*D18
 10
1213.328164
 20
5770.1350695062501
 30
0.0
 11
2472.3310095597039
 21
5770.1350695062501
 31
0.0
 70
   128
 13
3673.328164
 23
4511.6671649999998
 33
0.0
 14
1213.3281639999991
 24
3276.6671649999998
 34
0.0
1001
ACAD
1000
DSTYLE
1002
{
1070
   287
1070
     3
1070
    40
1040
40.0
1070
   143
1040
0.039
1070
   172
1070
     1
1070
   271
1070
     0
1070
   279
1070
     0
1070
   288
1070
     1
1002
}
  0
DIMENSION
  5
7D5C
  8
3
  2
*D19
 10
4454.8999629999989
 20
3036.6671649999998
 30
0.0
 11
4614.8999629999998
 21
3238.5611615489288
 31
0.0
 70
   128
  1
(<>)
 13
3573.328164
 23
3151.6671649999998
 33
0.0
 14
3573.328164
 24
3036.6671649999998
 34
0.0
 50
90.0
1001
ACAD
1000
DSTYLE
1002
{
1070
   288
1070
     1
1070
   172
1070
     1
1070
    75
1070
     1
1070
    40
1040
40.0
1070
   271
1070
     0
1070
     7
1000
_DOT
1070
   143
1040
0.039
1002
}
  0
DIMENSION
  5
7D6C
  8
3
  2
*D20
 10
4454.8999629999989
 20
2971.6671649999989
 30
0.0
 11
4354.8999629999989
 21
2674.524307857143
 31
0.0
 70
     0
 13
3573.328164
 23
3036.6671649999998
 33
0.0
 14
3573.328164
 24
2971.6671649999989
 34
0.0
 50
90.0
1001
ACAD
1000
DSTYLE
1002
{
1070
   287
1070
     3
1070
    40
1040
40.0
1070
   143
1040
0.039
1070
   172
1070
     1
1070
   271
1070
     0
1070
   279
1070
     0
1070
   288
1070
     1
1070
     6
1000
DOT
1002
}
  0
ENDSEC
  0
EOF
