  0
SECTION
  2
HEADER
  9
$ACADVER
  1
AC1009
  9
$INSBASE
 10
0.0
 20
0.0
 30
0.0
  9
$EXTMIN
 10
1000.0
 20
1200.0
 30
0.0
  9
$EXTMAX
 10
7400.0
 20
11146.609046
 30
0.0
  9
$LIMMIN
 10
0.0
 20
0.0
  9
$LIMMAX
 10
297.0
 20
210.0
  9
$ORTHOMODE
 70
     0
  9
$REGENMODE
 70
     1
  9
$FILLMODE
 70
     0
  9
$QTEXTMODE
 70
     0
  9
$MIRRTEXT
 70
     1
  9
$DRAGMODE
 70
     2
  9
$LTSCALE
 40
100.0
  9
$OSMODE
 70
    37
  9
$ATTMODE
 70
     1
  9
$TEXTSIZE
 40
180.0
  9
$TRACEWID
 40
0.05
  9
$TEXTSTYLE
  7
STANDARD
  9
$CLAYER
  8
3
  9
$CELTYPE
  6
BYLAYER
  9
$CECOLOR
 62
   256
  9
$DIMSCALE
 40
40.0
  9
$DIMASZ
 40
2.0
  9
$DIMEXO
 40
0.5
  9
$DIMDLI
 40
10.0
  9
$DIMRND
 40
0.0
  9
$DIMDLE
 40
0.0
  9
$DIMEXE
 40
1.0
  9
$DIMTP
 40
1.0
  9
$DIMTM
 40
1.0
  9
$DIMTXT
 40
3.0
  9
$DIMCEN
 40
0.0
  9
$DIMTSZ
 40
0.0
  9
$DIMTOL
 70
     0
  9
$DIMLIM
 70
     0
  9
$DIMTIH
 70
     0
  9
$DIMTOH
 70
     0
  9
$DIMSE1
 70
     0
  9
$DIMSE2
 70
     0
  9
$DIMTAD
 70
     1
  9
$DIMZIN
 70
     8
  9
$DIMBLK
  1

  9
$DIMASO
 70
     1
  9
$DIMSHO
 70
     1
  9
$DIMPOST
  1

  9
$DIMAPOST
  1

  9
$DIMALT
 70
     0
  9
$DIMALTD
 70
     2
  9
$DIMALTF
 40
0.039
  9
$DIMLFAC
 40
1.0
  9
$DIMTOFL
 70
     1
  9
$DIMTVP
 40
0.0
  9
$DIMTIX
 70
     0
  9
$DIMSOXD
 70
     0
  9
$DIMSAH
 70
     1
  9
$DIMBLK1
  1
OPEN
  9
$DIMBLK2
  1
OPEN
  9
$DIMSTYLE
  2
IGA
  9
$DIMCLRD
 70
     0
  9
$DIMCLRE
 70
     0
  9
$DIMCLRT
 70
     0
  9
$DIMTFAC
 40
10.0
  9
$DIMGAP
 40
1.0
  9
$LUNITS
 70
     2
  9
$LUPREC
 70
     3
  9
$SKETCHINC
 40
0.1
  9
$FILLETRAD
 40
50.0
  9
$AUNITS
 70
     0
  9
$AUPREC
 70
     0
  9
$MENU
  1
acad
  9
$ELEVATION
 40
0.0
  9
$PELEVATION
 40
0.0
  9
$THICKNESS
 40
0.0
  9
$LIMCHECK
 70
     0
  9
$BLIPMODE
 70
     0
  9
$CHAMFERA
 40
0.5
  9
$CHAMFERB
 40
0.5
  9
$SKPOLY
 70
     0
  9
$TDCREATE
 40
2450757.4077829858
  9
$TDUPDATE
 40
2454953.7792245368
  9
$TDINDWG
 40
0.0047457523
  9
$TDUSRTIMER
 40
0.0047457523
  9
$USRTIMER
 70
     1
  9
$ANGBASE
 50
0.0
  9
$ANGDIR
 70
     0
  9
$PDMODE
 70
     0
  9
$PDSIZE
 40
0.0
  9
$PLINEWID
 40
0.0
  9
$COORDS
 70
     1
  9
$SPLFRAME
 70
     0
  9
$SPLINETYPE
 70
     6
  9
$SPLINESEGS
 70
     8
  9
$ATTDIA
 70
     0
  9
$ATTREQ
 70
     1
  9
$HANDLING
 70
 10241
  9
$HANDSEED
  5
7D8F
  9
$SURFTAB1
 70
     6
  9
$SURFTAB2
 70
     6
  9
$SURFTYPE
 70
     6
  9
$SURFU
 70
     6
  9
$SURFV
 70
     6
  9
$UCSNAME
  2

  9
$UCSORG
 10
0.0
 20
0.0
 30
0.0
  9
$UCSXDIR
 10
1.0
 20
0.0
 30
0.0
  9
$UCSYDIR
 10
0.0
 20
1.0
 30
0.0
  9
$PUCSNAME
  2

  9
$PUCSORG
 10
0.0
 20
0.0
 30
0.0
  9
$PUCSXDIR
 10
1.0
 20
0.0
 30
0.0
  9
$PUCSYDIR
 10
0.0
 20
1.0
 30
0.0
  9
$USERI1
 70
     0
  9
$USERI2
 70
     0
  9
$USERI3
 70
     0
  9
$USERI4
 70
     0
  9
$USERI5
 70
     0
  9
$USERR1
 40
0.0
  9
$USERR2
 40
0.0
  9
$USERR3
 40
0.0
  9
$USERR4
 40
0.0
  9
$USERR5
 40
0.0
  9
$WORLDVIEW
 70
     1
  9
$SHADEDGE
 70
     3
  9
$SHADEDIF
 70
    70
  9
$TILEMODE
 70
     1
  9
$MAXACTVP
 70
    16
  9
$PLIMCHECK
 70
     0
  9
$PEXTMIN
 10
1.0000000000000000E+020
 20
1.0000000000000000E+020
 30
1.0000000000000000E+020
  9
$PEXTMAX
 10
-1.0000000000000000E+020
 20
-1.0000000000000000E+020
 30
-1.0000000000000000E+020
  9
$PLIMMIN
 10
0.0
 20
0.0
  9
$PLIMMAX
 10
12.0
 20
9.0
  9
$UNITMODE
 70
     0
  9
$VISRETAIN
 70
     0
  9
$PLINEGEN
 70
     0
  9
$PSLTSCALE
 70
     1
  0
ENDSEC
  0
SECTION
  2
TABLES
  0
TABLE
  2
VPORT
 70
     2
  0
VPORT
  2
*ACTIVE
 70
     0
 10
0.0
 20
0.0
 11
1.0
 21
1.0
 12
12584.224953905899
 22
6173.2749996292814
 13
0.0
 23
0.0
 14
10.0
 24
10.0
 15
10.0
 25
10.0
 16
0.0
 26
0.0
 36
1.0
 17
0.0
 27
0.0
 37
0.0
 40
10022.99371525931
 41
3.1666666666666661
 42
50.0
 43
0.0
 44
0.0
 50
0.0
 51
0.0
 71
     0
 72
   100
 73
     1
 74
     0
 75
     0
 76
     0
 77
     0
 78
     0
  0
ENDTAB
  0
TABLE
  2
LTYPE
 70
     2
  0
LTYPE
  2
CONTINUOUS
 70
     0
  3
Solid line
 72
    65
 73
     0
 40
0.0
  0
LTYPE
  2
CENTER
 70
     0
  3
____ _ ____ _ ____ _ ____ _ ____ _ ____ _ ____ 
 72
    65
 73
     4
 40
2.0
 49
1.25
 49
-0.25
 49
0.25
 49
-0.25
  0
ENDTAB
  0
TABLE
  2
LAYER
 70
     6
  0
LAYER
  2
0
 70
     0
 62
     7
  6
CONTINUOUS
  0
LAYER
  2
3
 70
     0
 62
     2
  6
CONTINUOUS
  0
LAYER
  2
2
 70
     0
 62
     3
  6
CENTER
  0
LAYER
  2
1
 70
     0
 62
     4
  6
CONTINUOUS
  0
LAYER
  2
4
 70
     0
 62
     7
  6
CONTINUOUS
  0
LAYER
  2
DEFPOINTS
 70
     0
 62
     7
  6
CONTINUOUS
  0
ENDTAB
  0
TABLE
  2
STYLE
 70
     1
  0
STYLE
  2
STANDARD
 70
     0
 40
0.0
 41
1.0
 50
0.0
 71
     0
 42
180.0
  3
simplex.shx
  4
extfont.shx
  0
ENDTAB
  0
TABLE
  2
VIEW
 70
     0
  0
ENDTAB
  0
TABLE
  2
UCS
 70
     0
  0
ENDTAB
  0
TABLE
  2
APPID
 70
     1
  0
APPID
  2
ACAD
 70
     0
  0
ENDTAB
  0
TABLE
  2
DIMSTYLE
 70
     1
  0
DIMSTYLE
  2
IGA
 70
     0
  3

  4

  5

  6
OPEN
  7
OPEN
 40
2.0
 41
2.0
 42
0.5
 43
10.0
 44
1.0
 45
0.0
 46
0.0
 47
1.0
 48
1.0
140
3.0
141
0.0
142
0.0
143
0.03937
144
1.0
145
0.0
146
10.0
147
1.0
 71
     0
 72
     0
 73
     0
 74
     0
 75
     0
 76
     0
 77
     1
 78
     8
170
     0
171
     2
172
     0
173
     1
174
     0
175
     0
176
     0
177
     0
178
     0
  0
ENDTAB
  0
ENDSEC
  0
SECTION
  2
BLOCKS
  0
BLOCK
  8
0
  2
$MODEL_SPACE
 70
     0
 10
0.0
 20
0.0
 30
0.0
  3
$MODEL_SPACE
  1

  0
ENDBLK
  5
1B
  8
0
  0
BLOCK
 67
     1
  8
0
  2
$PAPER_SPACE
 70
     0
 10
0.0
 20
0.0
 30
0.0
  3
$PAPER_SPACE
  1

  0
ENDBLK
  5
18
 67
     1
  8
0
  0
BLOCK
  8
0
  2
_OPEN
 70
     0
 10
0.0
 20
0.0
 30
0.0
  3
_OPEN
  1

  0
LINE
  5
7B01
  8
0
  6
BYBLOCK
 62
     0
 10
-1.0
 20
0.166667
 30
0.0
 11
0.0
 21
0.0
 31
0.0
  0
LINE
  5
7B02
  8
0
  6
BYBLOCK
 62
     0
 10
0.0
 20
0.0
 30
0.0
 11
-1.0
 21
-0.166667
 31
0.0
  0
LINE
  5
7B03
  8
0
  6
BYBLOCK
 62
     0
 10
0.0
 20
0.0
 30
0.0
 11
-1.0
 21
0.0
 31
0.0
  0
ENDBLK
  5
7B04
  8
0
  0
BLOCK
  8
0
  2
*D1
 70
     1
 10
0.0
 20
0.0
 30
0.0
  3
*D1
  1

  0
LINE
  5
7CE7
  8
3
  6
CONTINUOUS
 62
     0
 10
1798.287844
 20
4887.1520220000002
 30
0.0
 11
1798.287844
 21
5042.172861
 31
0.0
  0
LINE
  5
7CE8
  8
3
  6
CONTINUOUS
 62
     0
 10
2948.287844
 20
4887.1520220000002
 30
0.0
 11
2948.287844
 21
5042.172861
 31
0.0
  0
LINE
  5
7CE9
  8
3
  6
CONTINUOUS
 62
     0
 10
1878.287844
 20
5002.172861
 30
0.0
 11
2868.287844
 21
5002.172861
 31
0.0
  0
INSERT
  5
7CEA
  8
3
  6
CONTINUOUS
 62
     0
  2
_OPEN
 10
1798.287844
 20
5002.172861
 30
0.0
 41
80.0
 42
80.0
 43
80.0
 50
180.0
  0
INSERT
  5
7CEB
  8
3
  6
CONTINUOUS
 62
     0
  2
_OPEN
 10
2948.287844
 20
5002.172861
 30
0.0
 41
80.0
 42
80.0
 43
80.0
  0
TEXT
  8
3
  40
120
  5
7D7D
  62
0
  72
0
  71
0
 10
2160.41
 20
4889.77
 30
0.000000
  1
1150
  0
POINT
  5
7CED
  8
DEFPOINTS
  6
CONTINUOUS
 62
     0
 10
1798.287844
 20
4867.1520220000002
 30
0.0
  0
POINT
  5
7CEE
  8
DEFPOINTS
  6
CONTINUOUS
 62
     0
 10
2948.287844
 20
4867.1520220000002
 30
0.0
  0
POINT
  5
7CEF
  8
DEFPOINTS
  6
CONTINUOUS
 62
     0
 10
2948.287844
 20
5002.172861
 30
0.0
  0
ENDBLK
  5
7B11
  8
0
  0
BLOCK
  8
0
  2
*D2
 70
     1
 10
0.0
 20
0.0
 30
0.0
  3
*D2
  1

  0
LINE
  5
7CF0
  8
3
  6
CONTINUOUS
 62
     0
 10
1798.287844
 20
4887.1520220000002
 30
0.0
 11
1798.287844
 21
5286.8187340000004
 31
0.0
  0
LINE
  5
7CF1
  8
3
  6
CONTINUOUS
 62
     0
 10
2996.287844
 20
5028.2836909999996
 30
0.0
 11
2996.287844
 21
5286.8187340000004
 31
0.0
  0
LINE
  5
7CF2
  8
3
  6
CONTINUOUS
 62
     0
 10
1878.287844
 20
5246.8187340000013
 30
0.0
 11
2916.287844
 21
5246.8187340000013
 31
0.0
  0
INSERT
  5
7CF3
  8
3
  6
CONTINUOUS
 62
     0
  2
_OPEN
 10
1798.287844
 20
5246.8187340000013
 30
0.0
 41
80.0
 42
80.0
 43
80.0
 50
180.0
  0
INSERT
  5
7CF4
  8
3
  6
CONTINUOUS
 62
     0
  2
_OPEN
 10
2996.287844
 20
5246.8187340000013
 30
0.0
 41
80.0
 42
80.0
 43
80.0
  0
TEXT
  8
3
  40
120
  5
7D7E
  62
0
  72
0
  71
0
 10
2151.67
 20
5134.42
 30
0.000000
  1
1198
  0
POINT
  5
7CF6
  8
DEFPOINTS
  6
CONTINUOUS
 62
     0
 10
1798.287844
 20
4867.1520220000002
 30
0.0
  0
POINT
  5
7CF7
  8
DEFPOINTS
  6
CONTINUOUS
 62
     0
 10
2996.287844
 20
5008.2836909999987
 30
0.0
  0
POINT
  5
7CF8
  8
DEFPOINTS
  6
CONTINUOUS
 62
     0
 10
2996.287844
 20
5246.8187340000013
 30
0.0
  0
ENDBLK
  5
7B1E
  8
0
  0
BLOCK
  8
0
  2
*D3
 70
     1
 10
0.0
 20
0.0
 30
0.0
  3
*D3
  1

  0
LINE
  5
7CF9
  8
3
  6
CONTINUOUS
 62
     0
 10
3021.287844
 20
4867.1520220000002
 30
0.0
 11
4223.9051570000001
 21
4867.1520220000002
 31
0.0
  0
LINE
  5
7CFA
  8
3
  6
CONTINUOUS
 62
     0
 10
4008.7611550000001
 20
4107.1520220000002
 30
0.0
 11
4223.9051570000001
 21
4107.1520220000002
 31
0.0
  0
LINE
  5
7CFB
  8
3
  6
CONTINUOUS
 62
     0
 10
4183.9051570000001
 20
4787.1520219999993
 30
0.0
 11
4183.9051570000001
 21
4187.1520220000002
 31
0.0
  0
INSERT
  5
7CFC
  8
3
  6
CONTINUOUS
 62
     0
  2
_OPEN
 10
4183.9051570000001
 20
4867.1520220000002
 30
0.0
 41
80.0
 42
80.0
 43
80.0
 50
90.0
  0
INSERT
  5
7CFD
  8
3
  6
CONTINUOUS
 62
     0
  2
_OPEN
 10
4183.9051570000001
 20
4107.1520220000002
 30
0.0
 41
80.0
 42
80.0
 43
80.0
 50
270.0
  0
TEXT
  8
3
  40
120
  5
7D7F
  62
0
  72
0
  71
0
 10
3843.91
 20
4274.27
 30
0.000000
  1
760
  0
POINT
  5
7CFF
  8
DEFPOINTS
  6
CONTINUOUS
 62
     0
 10
3001.287844
 20
4867.1520220000002
 30
0.0
  0
POINT
  5
7D00
  8
DEFPOINTS
  6
CONTINUOUS
 62
     0
 10
3988.7611549999988
 20
4107.1520220000002
 30
0.0
  0
POINT
  5
7D01
  8
DEFPOINTS
  6
CONTINUOUS
 62
     0
 10
4183.9051570000001
 20
4107.1520220000002
 30
0.0
  0
ENDBLK
  5
7B37
  8
0
  0
BLOCK
  8
0
  2
*D4
 70
     1
 10
0.0
 20
0.0
 30
0.0
  3
*D4
  1

  0
LINE
  5
7D02
  8
3
  6
CONTINUOUS
 62
     0
 10
3676.287844
 20
3097.1520219999989
 30
0.0
 11
4223.9051569999992
 21
3097.1520219999989
 31
0.0
  0
LINE
  5
7D03
  8
3
  6
CONTINUOUS
 62
     0
 10
4183.9051570000001
 20
4027.1520220000002
 30
0.0
 11
4183.9051570000001
 21
3177.1520220000002
 31
0.0
  0
INSERT
  5
7D04
  8
3
  6
CONTINUOUS
 62
     0
  2
_OPEN
 10
4183.9051570000001
 20
4107.1520220000002
 30
0.0
 41
80.0
 42
80.0
 43
80.0
 50
90.0
  0
INSERT
  5
7D05
  8
3
  6
CONTINUOUS
 62
     0
  2
_OPEN
 10
4183.9051570000001
 20
3097.1520219999989
 30
0.0
 41
80.0
 42
80.0
 43
80.0
 50
270.0
  0
TEXT
  8
3
  40
120
  5
7D80
  62
0
  72
0
  71
0
 10
3843.91
 20
3389.75
 30
0.000000
  1
1010
  0
POINT
  5
7D07
  8
DEFPOINTS
  6
CONTINUOUS
 62
     0
 10
3988.7611549999988
 20
4107.1520220000002
 30
0.0
  0
POINT
  5
7D08
  8
DEFPOINTS
  6
CONTINUOUS
 62
     0
 10
3656.287843999999
 20
3097.1520219999989
 30
0.0
  0
POINT
  5
7D09
  8
DEFPOINTS
  6
CONTINUOUS
 62
     0
 10
4183.9051570000001
 20
3097.1520219999989
 30
0.0
  0
ENDBLK
  5
7B43
  8
0
  0
BLOCK
  8
0
  2
*D5
 70
     1
 10
0.0
 20
0.0
 30
0.0
  3
*D5
  1

  0
LINE
  5
7D0A
  8
3
  6
CONTINUOUS
 62
     0
 10
3676.287844
 20
3097.1520219999989
 30
0.0
 11
4221.6793260000004
 21
3097.1520219999989
 31
0.0
  0
LINE
  5
7D0B
  8
3
  6
CONTINUOUS
 62
     0
 10
3676.287844
 20
3013.1520219999989
 30
0.0
 11
4221.6793260000004
 21
3013.1520219999989
 31
0.0
  0
LINE
  5
7D0C
  8
3
  6
CONTINUOUS
 62
     0
 10
4181.6793260000004
 20
3177.1520220000002
 30
0.0
 11
4181.6793260000004
 21
3257.1520219999989
 31
0.0
  0
LINE
  5
7D0D
  8
3
  6
CONTINUOUS
 62
     0
 10
4181.6793260000004
 20
2933.1520219999989
 30
0.0
 11
4181.6793260000004
 21
2573.1520219999989
 31
0.0
  0
LINE
  5
7D0E
  8
3
  6
CONTINUOUS
 62
     0
 10
4181.6793260000004
 20
3097.1520219999989
 30
0.0
 11
4181.6793260000004
 21
3013.1520219999989
 31
0.0
  0
INSERT
  5
7D0F
  8
3
  6
CONTINUOUS
 62
     0
  2
_OPEN
 10
4181.6793260000004
 20
3097.1520219999989
 30
0.0
 41
80.0
 42
80.0
 43
80.0
 50
270.0
  0
INSERT
  5
7D10
  8
3
  6
CONTINUOUS
 62
     0
  2
_OPEN
 10
4181.6793260000004
 20
3013.1520219999989
 30
0.0
 41
80.0
 42
80.0
 43
80.0
 50
90.0
  0
TEXT
  8
3
  40
120
  5
7D81
  62
0
  72
0
  71
0
 10
3841.68
 20
2500.75
 30
0.000000
  1
84
  0
POINT
  5
7D12
  8
DEFPOINTS
  6
CONTINUOUS
 62
     0
 10
3656.287843999999
 20
3097.1520219999989
 30
0.0
  0
POINT
  5
7D13
  8
DEFPOINTS
  6
CONTINUOUS
 62
     0
 10
3656.287843999999
 20
3013.1520219999989
 30
0.0
  0
POINT
  5
7D14
  8
DEFPOINTS
  6
CONTINUOUS
 62
     0
 10
4181.6793260000004
 20
3013.1520219999989
 30
0.0
  0
ENDBLK
  5
7CAB
  8
0
  0
BLOCK
  8
0
  2
*D6
 70
     1
 10
0.0
 20
0.0
 30
0.0
  3
*D6
  1

  0
LINE
  5
7D15
  8
3
  6
CONTINUOUS
 62
     0
 10
1296.287844
 20
2993.1520220000002
 30
0.0
 11
1296.287844
 21
2699.1984590000002
 31
0.0
  0
LINE
  5
7D16
  8
3
  6
CONTINUOUS
 62
     0
 10
2996.287844
 20
2864.2735505326541
 30
0.0
 11
2996.287844
 21
2699.1984590000002
 31
0.0
  0
LINE
  5
7D17
  8
3
  6
CONTINUOUS
 62
     0
 10
1376.287844
 20
2739.1984590000002
 30
0.0
 11
2916.287844
 21
2739.1984590000002
 31
0.0
  0
INSERT
  5
7D18
  8
3
  6
CONTINUOUS
 62
     0
  2
_OPEN
 10
1296.287844
 20
2739.1984590000002
 30
0.0
 41
80.0
 42
80.0
 43
80.0
 50
180.0
  0
INSERT
  5
7D19
  8
3
  6
CONTINUOUS
 62
     0
  2
_OPEN
 10
2996.287844
 20
2739.1984590000002
 30
0.0
 41
80.0
 42
80.0
 43
80.0
  0
TEXT
  8
3
  40
120
  5
7D82
  62
0
  72
0
  71
0
 10
1915.62
 20
2626.80
 30
0.000000
  1
1700
  0
POINT
  5
7D1B
  8
DEFPOINTS
  6
CONTINUOUS
 62
     0
 10
1296.287844
 20
3013.1520219999989
 30
0.0
  0
POINT
  5
7D1C
  8
DEFPOINTS
  6
CONTINUOUS
 62
     0
 10
2996.287844
 20
2884.2735505326541
 30
0.0
  0
POINT
  5
7D1D
  8
DEFPOINTS
  6
CONTINUOUS
 62
     0
 10
2996.287844
 20
2739.1984590000002
 30
0.0
  0
ENDBLK
  5
7CBA
  8
0
  0
BLOCK
  8
0
  2
*D7
 70
     1
 10
0.0
 20
0.0
 30
0.0
  3
*D7
  1

  0
LINE
  5
7D1E
  8
3
  6
CONTINUOUS
 62
     0
 10
3656.287843999999
 20
2993.1520220000002
 30
0.0
 11
3656.287843999999
 21
2699.1984590000002
 31
0.0
  0
LINE
  5
7D1F
  8
3
  6
CONTINUOUS
 62
     0
 10
3076.287844
 20
2739.1984590000002
 30
0.0
 11
3576.287844
 21
2739.1984590000002
 31
0.0
  0
INSERT
  5
7D20
  8
3
  6
CONTINUOUS
 62
     0
  2
_OPEN
 10
2996.287844
 20
2739.1984590000002
 30
0.0
 41
80.0
 42
80.0
 43
80.0
 50
180.0
  0
INSERT
  5
7D21
  8
3
  6
CONTINUOUS
 62
     0
  2
_OPEN
 10
3656.287843999999
 20
2739.1984590000002
 30
0.0
 41
80.0
 42
80.0
 43
80.0
  0
TEXT
  8
3
  40
120
  5
7D83
  62
0
  72
0
  71
0
 10
3086.29
 20
2626.80
 30
0.000000
  1
660
  0
POINT
  5
7D23
  8
DEFPOINTS
  6
CONTINUOUS
 62
     0
 10
2996.287844
 20
2884.2735505326541
 30
0.0
  0
POINT
  5
7D24
  8
DEFPOINTS
  6
CONTINUOUS
 62
     0
 10
3656.287843999999
 20
3013.1520219999989
 30
0.0
  0
POINT
  5
7D25
  8
DEFPOINTS
  6
CONTINUOUS
 62
     0
 10
3656.287843999999
 20
2739.1984590000002
 30
0.0
  0
ENDBLK
  5
7CC4
  8
0
  0
BLOCK
  8
0
  2
*D8
 70
     1
 10
0.0
 20
0.0
 30
0.0
  3
*D8
  1

  0
LINE
  5
7D26
  8
3
  6
CONTINUOUS
 62
     0
 10
3041.287844
 20
4867.1520220000002
 30
0.0
 11
4538.1716480000014
 21
4867.1520220000002
 31
0.0
  0
LINE
  5
7D27
  8
3
  6
CONTINUOUS
 62
     0
 10
3676.287844
 20
3013.1520219999989
 30
0.0
 11
4538.1716480000014
 21
3013.1520219999989
 31
0.0
  0
LINE
  5
7D28
  8
3
  6
CONTINUOUS
 62
     0
 10
4498.1716479999995
 20
4787.1520219999993
 30
0.0
 11
4498.1716479999995
 21
3093.1520219999989
 31
0.0
  0
INSERT
  5
7D29
  8
3
  6
CONTINUOUS
 62
     0
  2
_OPEN
 10
4498.1716479999995
 20
4867.1520220000002
 30
0.0
 41
80.0
 42
80.0
 43
80.0
 50
90.0
  0
INSERT
  5
7D2A
  8
3
  6
CONTINUOUS
 62
     0
  2
_OPEN
 10
4498.1716479999995
 20
3013.1520219999989
 30
0.0
 41
80.0
 42
80.0
 43
80.0
 50
270.0
  0
TEXT
  8
3
  40
120
  5
7D84
  62
0
  72
0
  71
0
 10
4158.17
 20
3732.55
 30
0.000000
  1
1854
  0
POINT
  5
7D2C
  8
DEFPOINTS
  6
CONTINUOUS
 62
     0
 10
3021.287844
 20
4867.1520220000002
 30
0.0
  0
POINT
  5
7D2D
  8
DEFPOINTS
  6
CONTINUOUS
 62
     0
 10
3656.287843999999
 20
3013.1520219999989
 30
0.0
  0
POINT
  5
7D2E
  8
DEFPOINTS
  6
CONTINUOUS
 62
     0
 10
4498.1716479999995
 20
3013.1520219999989
 30
0.0
  0
ENDBLK
  5
7C51
  8
0
  0
BLOCK
  8
0
  2
*D9
 70
     1
 10
0.0
 20
0.0
 30
0.0
  3
*D9
  1

  0
LINE
  5
7D2F
  8
3
  6
CONTINUOUS
 62
     0
 10
5813.9122360000001
 20
4887.1520220000002
 30
0.0
 11
5813.9122360000001
 21
5040.571132
 31
0.0
  0
LINE
  5
7D30
  8
3
  6
CONTINUOUS
 62
     0
 10
6663.9122360000001
 20
4887.1520220000002
 30
0.0
 11
6663.9122360000001
 21
5040.571132
 31
0.0
  0
LINE
  5
7D31
  8
3
  6
CONTINUOUS
 62
     0
 10
5893.9122360000001
 20
5000.5711320000009
 30
0.0
 11
6583.9122360000001
 21
5000.5711320000009
 31
0.0
  0
INSERT
  5
7D32
  8
3
  6
CONTINUOUS
 62
     0
  2
_OPEN
 10
5813.9122360000001
 20
5000.5711320000009
 30
0.0
 41
80.0
 42
80.0
 43
80.0
 50
180.0
  0
INSERT
  5
7D33
  8
3
  6
CONTINUOUS
 62
     0
  2
_OPEN
 10
6663.9122360000001
 20
5000.5711320000009
 30
0.0
 41
80.0
 42
80.0
 43
80.0
  0
TEXT
  8
3
  40
120
  5
7D85
  62
0
  72
0
  71
0
 10
6009.38
 20
4888.17
 30
0.000000
  1
850
  0
POINT
  5
7D35
  8
DEFPOINTS
  6
CONTINUOUS
 62
     0
 10
5813.9122360000001
 20
4867.1520220000002
 30
0.0
  0
POINT
  5
7D36
  8
DEFPOINTS
  6
CONTINUOUS
 62
     0
 10
6663.9122360000001
 20
4867.1520220000002
 30
0.0
  0
POINT
  5
7D37
  8
DEFPOINTS
  6
CONTINUOUS
 62
     0
 10
6663.9122360000001
 20
5000.5711320000009
 30
0.0
  0
ENDBLK
  5
7B86
  8
0
  0
BLOCK
  8
0
  2
*D10
 70
     1
 10
0.0
 20
0.0
 30
0.0
  3
*D10
  1

  0
LINE
  5
7D38
  8
3
  6
CONTINUOUS
 62
     0
 10
6786.9122360000001
 20
4667.1520220000002
 30
0.0
 11
7081.1448739999996
 21
4667.1520220000002
 31
0.0
  0
LINE
  5
7D39
  8
3
  6
CONTINUOUS
 62
     0
 10
6786.9122360000001
 20
3547.1520219999989
 30
0.0
 11
7081.1448739999996
 21
3547.1520219999989
 31
0.0
  0
LINE
  5
7D3A
  8
3
  6
CONTINUOUS
 62
     0
 10
7041.1448740000014
 20
4587.1520220000002
 30
0.0
 11
7041.1448740000014
 21
3627.1520220000002
 31
0.0
  0
INSERT
  5
7D3B
  8
3
  6
CONTINUOUS
 62
     0
  2
_OPEN
 10
7041.1448740000014
 20
4667.1520220000002
 30
0.0
 41
80.0
 42
80.0
 43
80.0
 50
90.0
  0
INSERT
  5
7D3C
  8
3
  6
CONTINUOUS
 62
     0
  2
_OPEN
 10
7041.1448740000014
 20
3547.1520219999989
 30
0.0
 41
80.0
 42
80.0
 43
80.0
 50
270.0
  0
TEXT
  8
3
  40
120
  5
7D86
  62
0
  72
0
  71
0
 10
6701.14
 20
3897.97
 30
0.000000
  1
φ1120
  0
POINT
  5
7D3E
  8
DEFPOINTS
  6
CONTINUOUS
 62
     0
 10
6766.9122360000001
 20
4667.1520220000002
 30
0.0
  0
POINT
  5
7D3F
  8
DEFPOINTS
  6
CONTINUOUS
 62
     0
 10
6766.9122360000001
 20
3547.1520219999989
 30
0.0
  0
POINT
  5
7D40
  8
DEFPOINTS
  6
CONTINUOUS
 62
     0
 10
7041.1448740000014
 20
3547.1520219999989
 30
0.0
  0
ENDBLK
  5
7C86
  8
0
  0
BLOCK
  8
0
  2
*D11
 70
     1
 10
0.0
 20
0.0
 30
0.0
  3
*D11
  1

  0
LINE
  5
7C68
  8
0
  6
BYBLOCK
 62
     0
 10
6766.9122360000001
 20
4737.1520220000002
 30
0.0
 11
6766.9122360000001
 21
5299.260663
 31
0.0
  0
LINE
  5
7C69
  8
0
  6
BYBLOCK
 62
     0
 10
6238.9122360000001
 20
5212.9365779999998
 30
0.0
 11
6238.9122360000001
 21
5299.260663
 31
0.0
  0
LINE
  5
7C6A
  8
0
  6
BYBLOCK
 62
     0
 10
6686.912236000001
 20
5259.260663
 30
0.0
 11
6318.9122360000001
 21
5259.260663
 31
0.0
  0
TEXT
  5
7C6B
  8
3
 62
     0
 10
6348.6265217142864
 20
5290.0502203498836
 30
0.0
 40
120.0
  1
528
  0
INSERT
  5
7C6C
  8
0
  6
BYBLOCK
 62
     0
  2
_OPEN
 10
6766.9122360000001
 20
5259.260663
 30
0.0
 41
80.0
 42
80.0
 43
80.0
  0
INSERT
  5
7C6D
  8
0
  6
BYBLOCK
 62
     0
  2
_OPEN
 10
6238.9122360000001
 20
5259.260663
 30
0.0
 41
80.0
 42
80.0
 43
80.0
 50
180.0
  0
POINT
  5
7C6E
  8
DEFPOINTS
  6
BYBLOCK
 62
     0
 10
6766.9122360000001
 20
4717.1520220000002
 30
0.0
  0
POINT
  5
7C6F
  8
DEFPOINTS
  6
BYBLOCK
 62
     0
 10
6238.9122360000001
 20
5192.9365779999998
 30
0.0
  0
POINT
  5
7C70
  8
DEFPOINTS
  6
BYBLOCK
 62
     0
 10
6238.9122360000001
 20
5259.260663
 30
0.0
  0
ENDBLK
  5
7C71
  8
0
  0
BLOCK
  8
0
  2
*D12
 70
     1
 10
0.0
 20
0.0
 30
0.0
  3
*D12
  1

  0
LINE
  5
7D41
  8
3
  6
CONTINUOUS
 62
     0
 10
5498.9122360000001
 20
4505.1520219999993
 30
0.0
 11
5498.9122360000001
 21
5299.260663
 31
0.0
  0
LINE
  5
7D42
  8
3
  6
CONTINUOUS
 62
     0
 10
6158.9122360000001
 20
5259.260663
 30
0.0
 11
5578.9122360000001
 21
5259.260663
 31
0.0
  0
INSERT
  5
7D43
  8
3
  6
CONTINUOUS
 62
     0
  2
_OPEN
 10
6238.9122360000001
 20
5259.260663
 30
0.0
 41
80.0
 42
80.0
 43
80.0
  0
INSERT
  5
7D44
  8
3
  6
CONTINUOUS
 62
     0
  2
_OPEN
 10
5498.9122360000001
 20
5259.260663
 30
0.0
 41
80.0
 42
80.0
 43
80.0
 50
180.0
  0
TEXT
  8
3
  40
120
  5
7D87
  62
0
  72
0
  71
0
 10
5628.91
 20
5246.86
 30
0.000000
  1
MAX
  0
TEXT
  8
3
  40
120
  5
7D88
  62
0
  72
0
  71
0
 10
5628.91
 20
5090.86
 30
0.000000
  1
850
  0
POINT
  5
7D46
  8
DEFPOINTS
  6
CONTINUOUS
 62
     0
 10
6238.9122360000001
 20
5192.9365779999998
 30
0.0
  0
POINT
  5
7D47
  8
DEFPOINTS
  6
CONTINUOUS
 62
     0
 10
5498.9122360000001
 20
4485.1520220000002
 30
0.0
  0
POINT
  5
7D48
  8
DEFPOINTS
  6
CONTINUOUS
 62
     0
 10
5498.9122360000001
 20
5259.260663
 30
0.0
  0
ENDBLK
  5
7C7B
  8
0
  0
BLOCK
  8
0
  2
*D13
 70
     1
 10
0.0
 20
0.0
 30
0.0
  3
*D13
  1

  0
LINE
  5
7D49
  8
3
  6
CONTINUOUS
 62
     0
 10
5551.9122360000001
 20
2993.1520220000002
 30
0.0
 11
5551.9122360000001
 21
2693.233565999999
 31
0.0
  0
LINE
  5
7D4A
  8
3
  6
CONTINUOUS
 62
     0
 10
6238.9122360000001
 20
2820.8731659999999
 30
0.0
 11
6238.9122360000001
 21
2693.233565999999
 31
0.0
  0
LINE
  5
7D4B
  8
3
  6
CONTINUOUS
 62
     0
 10
5631.9122360000001
 20
2733.2335659999999
 30
0.0
 11
6158.9122360000001
 21
2733.2335659999999
 31
0.0
  0
INSERT
  5
7D4C
  8
3
  6
CONTINUOUS
 62
     0
  2
_OPEN
 10
5551.9122360000001
 20
2733.2335659999999
 30
0.0
 41
80.0
 42
80.0
 43
80.0
 50
180.0
  0
INSERT
  5
7D4D
  8
3
  6
CONTINUOUS
 62
     0
  2
_OPEN
 10
6238.9122360000001
 20
2733.2335659999999
 30
0.0
 41
80.0
 42
80.0
 43
80.0
  0
TEXT
  8
3
  40
120
  5
7D89
  62
0
  72
0
  71
0
 10
5674.41
 20
2620.83
 30
0.000000
  1
687
  0
POINT
  5
7D4F
  8
DEFPOINTS
  6
CONTINUOUS
 62
     0
 10
5551.9122360000001
 20
3013.1520219999989
 30
0.0
  0
POINT
  5
7D50
  8
DEFPOINTS
  6
CONTINUOUS
 62
     0
 10
6238.9122360000001
 20
2840.8731659999999
 30
0.0
  0
POINT
  5
7D51
  8
DEFPOINTS
  6
CONTINUOUS
 62
     0
 10
6238.9122360000001
 20
2733.2335659999999
 30
0.0
  0
ENDBLK
  5
7BBB
  8
0
  0
BLOCK
  8
0
  2
*D14
 70
     1
 10
0.0
 20
0.0
 30
0.0
  3
*D14
  1

  0
LINE
  5
7D52
  8
3
  6
CONTINUOUS
 62
     0
 10
6731.912236000001
 20
2993.1520220000002
 30
0.0
 11
6731.912236000001
 21
2693.233565999999
 31
0.0
  0
LINE
  5
7D53
  8
3
  6
CONTINUOUS
 62
     0
 10
6318.9122360000001
 20
2733.2335659999999
 30
0.0
 11
6651.9122360000001
 21
2733.2335659999999
 31
0.0
  0
TEXT
  8
3
  40
120
  5
7D8A
  62
0
  72
0
  71
0
 10
6246.93
 20
2638.23
 30
0.000000
  1
493
  0
INSERT
  5
7D55
  8
3
  6
CONTINUOUS
 62
     0
  2
_OPEN
 10
6238.9122360000001
 20
2733.2335659999999
 30
0.0
 41
80.0
 42
80.0
 43
80.0
 50
180.0
  0
INSERT
  5
7D56
  8
3
  6
CONTINUOUS
 62
     0
  2
_OPEN
 10
6731.912236000001
 20
2733.2335659999999
 30
0.0
 41
80.0
 42
80.0
 43
80.0
  0
POINT
  5
7D57
  8
DEFPOINTS
  6
CONTINUOUS
 62
     0
 10
6238.9122360000001
 20
2840.8731659999999
 30
0.0
  0
POINT
  5
7D58
  8
DEFPOINTS
  6
CONTINUOUS
 62
     0
 10
6731.912236000001
 20
3013.1520219999989
 30
0.0
  0
POINT
  5
7D59
  8
DEFPOINTS
  6
CONTINUOUS
 62
     0
 10
6731.912236000001
 20
2733.2335659999999
 30
0.0
  0
ENDBLK
  5
7C1B
  8
0
  0
BLOCK
  8
0
  2
*D15
 70
     1
 10
0.0
 20
0.0
 30
0.0
  3
*D15
  1

  0
LINE
  5
7D5A
  8
3
  6
CONTINUOUS
 62
     0
 10
1296.287844
 20
7260.6814400000003
 30
0.0
 11
1296.287844
 21
6824.8115269999998
 31
0.0
  0
LINE
  5
7D5B
  8
3
  6
CONTINUOUS
 62
     0
 10
3656.287843999999
 20
7260.6814400000003
 30
0.0
 11
3656.287843999999
 21
6824.8115269999998
 31
0.0
  0
LINE
  5
7D5C
  8
3
  6
CONTINUOUS
 62
     0
 10
1376.287844
 20
6864.8115269999998
 30
0.0
 11
3576.287844
 21
6864.8115269999998
 31
0.0
  0
INSERT
  5
7D5D
  8
3
  6
CONTINUOUS
 62
     0
  2
_OPEN
 10
1296.287844
 20
6864.8115269999998
 30
0.0
 41
80.0
 42
80.0
 43
80.0
 50
180.0
  0
INSERT
  5
7D5E
  8
3
  6
CONTINUOUS
 62
     0
  2
_OPEN
 10
3656.287843999999
 20
6864.8115269999998
 30
0.0
 41
80.0
 42
80.0
 43
80.0
  0
TEXT
  8
3
  40
120
  5
7D8B
  62
0
  72
0
  71
0
 10
2201.04
 20
6752.41
 30
0.000000
  1
2360
  0
POINT
  5
7D60
  8
DEFPOINTS
  6
CONTINUOUS
 62
     0
 10
1296.287844
 20
7280.6814400000012
 30
0.0
  0
POINT
  5
7D61
  8
DEFPOINTS
  6
CONTINUOUS
 62
     0
 10
3656.287843999999
 20
7280.6814400000012
 30
0.0
  0
POINT
  5
7D62
  8
DEFPOINTS
  6
CONTINUOUS
 62
     0
 10
3656.287843999999
 20
6864.8115269999998
 30
0.0
  0
ENDBLK
  5
7BD6
  8
0
  0
BLOCK
  8
0
  2
*D16
 70
     1
 10
0.0
 20
0.0
 30
0.0
  3
*D16
  1

  0
LINE
  5
7D63
  8
3
  6
CONTINUOUS
 62
     0
 10
3676.287844
 20
8460.6814400000003
 30
0.0
 11
4148.306493000001
 21
8460.6814400000003
 31
0.0
  0
LINE
  5
7D64
  8
3
  6
CONTINUOUS
 62
     0
 10
3676.287844
 20
7280.6814400000012
 30
0.0
 11
4148.306493000001
 21
7280.6814400000012
 31
0.0
  0
LINE
  5
7D65
  8
3
  6
CONTINUOUS
 62
     0
 10
4108.306493000001
 20
8380.6814400000003
 30
0.0
 11
4108.306493000001
 21
7360.6814400000003
 31
0.0
  0
INSERT
  5
7D66
  8
3
  6
CONTINUOUS
 62
     0
  2
_OPEN
 10
4108.306493000001
 20
8460.6814400000003
 30
0.0
 41
80.0
 42
80.0
 43
80.0
 50
90.0
  0
INSERT
  5
7D67
  8
3
  6
CONTINUOUS
 62
     0
  2
_OPEN
 10
4108.306493000001
 20
7280.6814400000012
 30
0.0
 41
80.0
 42
80.0
 43
80.0
 50
270.0
  0
TEXT
  8
3
  40
120
  5
7D8C
  62
0
  72
0
  71
0
 10
3768.31
 20
7679.56
 30
0.000000
  1
1180
  0
POINT
  5
7D69
  8
DEFPOINTS
  6
CONTINUOUS
 62
     0
 10
3656.287843999999
 20
8460.6814400000003
 30
0.0
  0
POINT
  5
7D6A
  8
DEFPOINTS
  6
CONTINUOUS
 62
     0
 10
3656.287843999999
 20
7280.6814400000012
 30
0.0
  0
POINT
  5
7D6B
  8
DEFPOINTS
  6
CONTINUOUS
 62
     0
 10
4108.306493000001
 20
7280.6814400000012
 30
0.0
  0
ENDBLK
  5
7BE3
  8
0
  0
BLOCK
  8
0
  2
*D17
 70
     1
 10
0.0
 20
0.0
 30
0.0
  3
*D17
  1

  0
LINE
  5
7D6C
  8
3
  6
CONTINUOUS
 62
     0
 10
3801.287843999999
 20
4127.1520220000002
 30
0.0
 11
3801.287843999999
 21
5286.8187340000004
 31
0.0
  0
LINE
  5
7D6D
  8
3
  6
CONTINUOUS
 62
     0
 10
3076.287844
 20
5246.8187340000013
 30
0.0
 11
3721.287843999999
 21
5246.8187340000013
 31
0.0
  0
INSERT
  5
7D6E
  8
3
  6
CONTINUOUS
 62
     0
  2
_OPEN
 10
2996.287844
 20
5246.8187340000013
 30
0.0
 41
80.0
 42
80.0
 43
80.0
 50
180.0
  0
INSERT
  5
7D6F
  8
3
  6
CONTINUOUS
 62
     0
  2
_OPEN
 10
3801.287843999999
 20
5246.8187340000013
 30
0.0
 41
80.0
 42
80.0
 43
80.0
  0
TEXT
  8
3
  40
120
  5
7D8D
  62
0
  72
0
  71
0
 10
3158.79
 20
5134.42
 30
0.000000
  1
805
  0
POINT
  5
7D71
  8
DEFPOINTS
  6
CONTINUOUS
 62
     0
 10
2996.287844
 20
5008.2836909999987
 30
0.0
  0
POINT
  5
7D72
  8
DEFPOINTS
  6
CONTINUOUS
 62
     0
 10
3801.287843999999
 20
4107.1520220000002
 30
0.0
  0
POINT
  5
7D73
  8
DEFPOINTS
  6
CONTINUOUS
 62
     0
 10
3801.287843999999
 20
5246.8187340000013
 30
0.0
  0
ENDBLK
  5
7C91
  8
0
  0
BLOCK
  8
0
  2
*D18
 70
     1
 10
0.0
 20
0.0
 30
0.0
  3
*D18
  1

  0
LINE
  5
7D74
  8
3
 62
     0
 10
1296.287844
 20
3242.1520219999989
 30
0.0
 11
1296.287844
 21
5512.1738511836147
 31
0.0
  0
LINE
  5
7D75
  8
3
 62
     0
 10
3801.287843999999
 20
4147.1520220000002
 30
0.0
 11
3801.287843999999
 21
5512.1738511836147
 31
0.0
  0
LINE
  5
7D76
  8
3
 62
     0
 10
1376.287844
 20
5472.1738511836147
 30
0.0
 11
3721.287843999999
 21
5472.1738511836147
 31
0.0
  0
INSERT
  5
7D77
  8
3
 62
     0
  2
_OPEN
 10
1296.287844
 20
5472.1738511836147
 30
0.0
 41
80.0
 42
80.0
 43
80.0
 50
180.0
  0
INSERT
  5
7D78
  8
3
 62
     0
  2
_OPEN
 10
3801.287843999999
 20
5472.1738511836147
 30
0.0
 41
80.0
 42
80.0
 43
80.0
  0
TEXT
  8
3
  40
120
  5
7D8E
  62
0
  72
0
  71
0
 10
2379.50
 20
5359.77
 30
0.000000
  1
2505
  0
POINT
  5
7D7A
  8
DEFPOINTS
 62
     0
 10
1296.287844
 20
3222.1520219999989
 30
0.0
  0
POINT
  5
7D7B
  8
DEFPOINTS
 62
     0
 10
3801.287843999999
 20
4127.1520220000002
 30
0.0
  0
POINT
  5
7D7C
  8
DEFPOINTS
 62
     0
 10
3801.287843999999
 20
5472.1738511836147
 30
0.0
  0
ENDBLK
  5
7C9D
  8
0
  0
ENDSEC
  0
SECTION
  2
ENTITIES
  0
LINE
  5
7A6E
  8
1
  6
CONTINUOUS
 10
6731.912236000001
 20
3222.1520219999989
 30
0.0
 11
5551.9122360000001
 21
3222.1520219999989
 31
0.0
  0
LINE
  5
7A6F
  8
1
  6
CONTINUOUS
 10
6731.912236000001
 20
3097.1520219999989
 30
0.0
 11
5551.9122360000001
 21
3097.1520219999989
 31
0.0
  0
LINE
  5
7A70
  8
1
  6
CONTINUOUS
 10
5498.9122360000001
 20
4485.1520220000002
 30
0.0
 11
5738.9122360000001
 21
4485.1520220000002
 31
0.0
  0
LINE
  5
7A71
  8
1
  6
CONTINUOUS
 10
5498.9122360000001
 20
3237.1520220000002
 30
0.0
 11
5738.9122360000001
 21
3237.1520220000002
 31
0.0
  0
LINE
  5
7A72
  8
1
  6
CONTINUOUS
 10
5668.9122360000001
 20
3484.6520219999989
 30
0.0
 11
5813.9122360000001
 21
3484.6520219999989
 31
0.0
  0
LINE
  5
7A73
  8
1
  6
CONTINUOUS
 10
5668.9122360000001
 20
3429.6520219999989
 30
0.0
 11
5813.9122360000001
 21
3429.6520219999989
 31
0.0
  0
LINE
  5
7A74
  8
1
  6
CONTINUOUS
 10
5668.9122360000001
 20
4134.6520220000002
 30
0.0
 11
5813.9122360000001
 21
4134.6520220000002
 31
0.0
  0
LINE
  5
7A75
  8
1
  6
CONTINUOUS
 10
5668.9122360000001
 20
4079.6520220000002
 30
0.0
 11
5813.9122360000001
 21
4079.6520220000002
 31
0.0
  0
LINE
  5
7A76
  8
1
  6
CONTINUOUS
 10
6731.912236000001
 20
3013.1520219999989
 30
0.0
 11
5551.9122360000001
 21
3013.1520219999989
 31
0.0
  0
LINE
  5
7A77
  8
1
  6
CONTINUOUS
 10
6731.912236000001
 20
3078.1520219999989
 30
0.0
 11
5551.9122360000001
 21
3078.1520219999989
 31
0.0
  0
LINE
  5
7A78
  8
1
  6
CONTINUOUS
 10
1694.1878439999989
 20
3249.5520219999989
 30
0.0
 11
3121.4878440000002
 21
3750.4520219999999
 31
0.0
  0
LINE
  5
7A79
  8
1
  6
CONTINUOUS
 10
1660.987844
 20
3343.952021999999
 30
0.0
 11
3088.3878439999999
 21
3844.8520219999991
 31
0.0
  0
LINE
  5
7A7A
  8
1
  6
CONTINUOUS
 10
1507.087843999999
 20
3645.2520219999992
 30
0.0
 11
2800.0878440000001
 21
4430.2520219999997
 31
0.0
  0
LINE
  5
7A7B
  8
1
  6
CONTINUOUS
 10
1558.9878439999991
 20
3559.7520220000001
 30
0.0
 11
2851.9878440000002
 21
4344.7520219999988
 31
0.0
  0
CIRCLE
  5
7A7C
  8
1
  6
CONTINUOUS
 10
2996.287844
 20
4107.1520220000002
 30
0.0
 40
610.0
  0
CIRCLE
  5
7A7D
  8
1
  6
CONTINUOUS
 10
2996.287844
 20
4107.1520220000002
 30
0.0
 40
560.0
  0
LINE
  5
7A7E
  8
1
  6
CONTINUOUS
 10
3656.287843999999
 20
3222.1520219999989
 30
0.0
 11
1296.287844
 21
3222.1520219999989
 31
0.0
  0
LINE
  5
7A7F
  8
1
  6
CONTINUOUS
 10
2948.287844
 20
4827.1520220000002
 30
0.0
 11
1801.6878439999989
 21
4827.1520220000002
 31
0.0
  0
LINE
  5
7A80
  8
1
  6
CONTINUOUS
 10
3656.287843999999
 20
3097.1520219999989
 30
0.0
 11
1296.287844
 21
3097.1520219999989
 31
0.0
  0
ARC
  5
7A81
  8
1
  6
CONTINUOUS
 10
2914.287844
 20
4189.1520220000002
 30
0.0
 40
1054.2
 50
184.49999999999989
 51
270.0
  0
LINE
  5
7A82
  8
1
  6
CONTINUOUS
 10
3001.287844
 20
4867.1520220000002
 30
0.0
 11
1745.287844
 21
4867.1520220000002
 31
0.0
  0
LINE
  5
7A83
  8
1
  6
CONTINUOUS
 10
3656.287843999999
 20
3013.1520219999989
 30
0.0
 11
1296.287844
 21
3013.1520219999989
 31
0.0
  0
LINE
  5
7A84
  8
1
  6
CONTINUOUS
 10
3656.287843999999
 20
3078.1520219999989
 30
0.0
 11
1296.287844
 21
3078.1520219999989
 31
0.0
  0
LINE
  5
7A85
  8
1
  6
CONTINUOUS
 10
1296.287844
 20
3222.1520219999989
 30
0.0
 11
1296.287844
 21
3097.1520219999989
 31
0.0
  0
LINE
  5
7A86
  8
1
  6
CONTINUOUS
 10
1296.287844
 20
3078.1520219999989
 30
0.0
 11
1296.287844
 21
3013.1520219999989
 31
0.0
  0
LINE
  5
7A87
  8
1
  6
CONTINUOUS
 10
1798.287844
 20
4867.1520220000002
 30
0.0
 11
1863.287844
 21
4107.1520220000002
 31
0.0
  0
ARC
  5
7A88
  8
1
  6
CONTINUOUS
 10
1621.287844
 20
3457.1520219999989
 30
0.0
 40
199.0
 50
320.10000000000002
 51
219.90000000000001
  0
CIRCLE
  5
7A89
  8
1
  6
CONTINUOUS
 10
1621.287844
 20
3457.1520219999989
 30
0.0
 40
120.0
  0
ARC
  5
7A8A
  8
1
  6
CONTINUOUS
 10
1621.287844
 20
3457.1520219999989
 30
0.0
 40
220.0
 50
121.3
 51
289.30000000000001
  0
LINE
  5
7A8B
  8
2
  6
CENTER
 10
1621.287844
 20
3337.1520220000002
 30
0.0
 11
1621.287844
 21
3577.1520219999989
 31
0.0
  0
LINE
  5
7A8C
  8
1
  6
CONTINUOUS
 10
1396.287843999999
 20
3277.1520220000002
 30
0.0
 11
1846.287844
 21
3277.1520220000002
 31
0.0
  0
LINE
  5
7A8D
  8
1
  6
CONTINUOUS
 10
1396.287843999999
 20
3222.1520219999989
 30
0.0
 11
1846.287844
 21
3222.1520219999989
 31
0.0
  0
LINE
  5
7A8E
  8
1
  6
CONTINUOUS
 10
1459.287844
 20
3277.1520220000002
 30
0.0
 11
1459.287844
 21
3319.6520219999989
 31
0.0
  0
LINE
  5
7A8F
  8
1
  6
CONTINUOUS
 10
1459.287844
 20
3319.6520219999989
 30
0.0
 11
1468.587843999999
 21
3329.5520219999999
 31
0.0
  0
LINE
  5
7A90
  8
1
  6
CONTINUOUS
 10
1396.287843999999
 20
3222.1520219999989
 30
0.0
 11
1396.287843999999
 21
3277.1520220000002
 31
0.0
  0
LINE
  5
7A91
  8
1
  6
CONTINUOUS
 10
1783.287844
 20
3277.1520220000002
 30
0.0
 11
1783.287844
 21
3319.6520219999989
 31
0.0
  0
LINE
  5
7A92
  8
1
  6
CONTINUOUS
 10
1783.287844
 20
3319.6520219999989
 30
0.0
 11
1773.987844
 21
3329.5520219999999
 31
0.0
  0
LINE
  5
7A93
  8
1
  6
CONTINUOUS
 10
1846.287844
 20
3222.1520219999989
 30
0.0
 11
1846.287844
 21
3277.1520220000002
 31
0.0
  0
LINE
  5
7A94
  8
2
  6
CENTER
 10
1501.287844
 20
3457.1520219999989
 30
0.0
 11
1741.287844
 21
3457.1520219999989
 31
0.0
  0
ARC
  5
7A95
  8
1
  6
CONTINUOUS
 10
3064.787844
 20
4038.6520219999989
 30
0.0
 40
739.10000000000002
 50
5.0999999999999988
 51
90.0
  0
ARC
  5
7A96
  8
1
  6
CONTINUOUS
 10
2914.287844
 20
4025.1520219999989
 30
0.0
 40
890.20000000000005
 50
270.0
 51
5.0999999999999988
  0
CIRCLE
  5
7A97
  8
1
  6
CONTINUOUS
 10
2996.287844
 20
4107.1520220000002
 30
0.0
 40
278.0
  0
ARC
  5
7A98
  8
1
  6
CONTINUOUS
 10
2996.287844
 20
4107.1520220000002
 30
0.0
 40
378.0
 50
289.30000000000001
 51
121.3
  0
LINE
  5
7A99
  8
2
  6
CENTER
 10
2996.287844
 20
2884.2735505326541
 30
0.0
 11
2996.287844
 21
5008.2836909999987
 31
0.0
  0
LINE
  5
7A9A
  8
2
  6
CENTER
 10
6805.1392189999997
 20
4107.1520220000002
 30
0.0
 11
5337.3110070000002
 21
4107.1520220000002
 31
0.0
  0
LINE
  5
7A9B
  8
1
  6
CONTINUOUS
 10
3656.287843999999
 20
3222.1520219999989
 30
0.0
 11
3656.287843999999
 21
3097.1520219999989
 31
0.0
  0
LINE
  5
7A9C
  8
1
  6
CONTINUOUS
 10
3656.287843999999
 20
3078.1520219999989
 30
0.0
 11
3656.287843999999
 21
3013.1520219999989
 31
0.0
  0
ARC
  5
7A9D
  8
1
  6
CONTINUOUS
 10
3064.787844
 20
4175.6520220000002
 30
0.0
 40
602.10000000000002
 50
90.0
 51
101.2
  0
LINE
  5
7A9E
  8
1
  6
CONTINUOUS
 10
2948.287844
 20
4766.352022
 30
0.0
 11
2948.287844
 21
4867.1520220000002
 31
0.0
  0
LINE
  5
7A9F
  8
1
  6
CONTINUOUS
 10
5498.9122360000001
 20
3237.1520220000002
 30
0.0
 11
5498.9122360000001
 21
4485.1520220000002
 31
0.0
  0
LINE
  5
7AA0
  8
1
  6
CONTINUOUS
 10
5568.9122360000001
 20
4385.1520220000002
 30
0.0
 11
5568.9122360000001
 21
3829.1520219999989
 31
0.0
  0
LINE
  5
7AA1
  8
1
  6
CONTINUOUS
 10
5668.9122360000001
 20
4385.1520220000002
 30
0.0
 11
5668.9122360000001
 21
3829.1520219999989
 31
0.0
  0
LINE
  5
7AA2
  8
1
  6
CONTINUOUS
 10
5568.9122360000001
 20
3577.1520219999989
 30
0.0
 11
5568.9122360000001
 21
3337.1520220000002
 31
0.0
  0
LINE
  5
7AA3
  8
1
  6
CONTINUOUS
 10
5668.9122360000001
 20
3577.1520219999989
 30
0.0
 11
5668.9122360000001
 21
3337.1520220000002
 31
0.0
  0
LINE
  5
7AA6
  8
1
  6
CONTINUOUS
 10
5551.9122360000001
 20
3097.1520219999989
 30
0.0
 11
5551.9122360000001
 21
3222.1520219999989
 31
0.0
  0
LINE
  5
7AA7
  8
1
  6
CONTINUOUS
 10
5568.9122360000001
 20
3337.1520220000002
 30
0.0
 11
5668.9122360000001
 21
3337.1520220000002
 31
0.0
  0
LINE
  5
7AA8
  8
1
  6
CONTINUOUS
 10
5551.9122360000001
 20
3013.1520219999989
 30
0.0
 11
5551.9122360000001
 21
3078.1520219999989
 31
0.0
  0
LINE
  5
7AA9
  8
1
  6
CONTINUOUS
 10
5568.9122360000001
 20
3577.1520219999989
 30
0.0
 11
5668.9122360000001
 21
3577.1520219999989
 31
0.0
  0
LINE
  5
7AAA
  8
1
  6
CONTINUOUS
 10
5568.9122360000001
 20
3829.1520219999989
 30
0.0
 11
5668.9122360000001
 21
3829.1520219999989
 31
0.0
  0
LINE
  5
7AAB
  8
1
  6
CONTINUOUS
 10
5568.9122360000001
 20
4385.1520220000002
 30
0.0
 11
5668.9122360000001
 21
4385.1520220000002
 31
0.0
  0
LINE
  5
7AAC
  8
1
  6
CONTINUOUS
 10
1798.287844
 20
7542.6814399999994
 30
0.0
 11
2948.287844
 21
8392.6814400000003
 31
0.0
  0
LINE
  5
7AAD
  8
1
  6
CONTINUOUS
 10
1798.287844
 20
8392.6814400000003
 30
0.0
 11
2948.287844
 21
7542.6814399999994
 31
0.0
  0
LINE
  5
7AAE
  8
1
  6
CONTINUOUS
 10
1296.287844
 20
7280.6814400000012
 30
0.0
 11
3656.287843999999
 21
7280.6814400000012
 31
0.0
  0
LINE
  5
7AAF
  8
1
  6
CONTINUOUS
 10
1798.287844
 20
8392.6814400000003
 30
0.0
 11
3804.4878440000002
 21
8392.6814400000003
 31
0.0
  0
LINE
  5
7AB0
  8
1
  6
CONTINUOUS
 10
1798.287844
 20
7542.6814399999994
 30
0.0
 11
3804.4878440000002
 21
7542.6814399999994
 31
0.0
  0
LINE
  5
7AB1
  8
1
  6
CONTINUOUS
 10
1401.287844
 20
7227.6814400000012
 30
0.0
 11
3374.287843999999
 21
7227.6814400000012
 31
0.0
  0
LINE
  5
7AB2
  8
1
  6
CONTINUOUS
 10
2386.287843999999
 20
8495.6814400000003
 30
0.0
 11
3606.287844
 21
8495.6814400000003
 31
0.0
  0
LINE
  5
7AB3
  8
1
  6
CONTINUOUS
 10
1401.287844
 20
7467.6814399999994
 30
0.0
 11
3374.287843999999
 21
7467.6814399999994
 31
0.0
  0
LINE
  5
7AB4
  8
1
  6
CONTINUOUS
 10
1296.287844
 20
8460.6814400000003
 30
0.0
 11
2436.287844
 21
8460.6814400000003
 31
0.0
  0
LINE
  5
7AB5
  8
1
  6
CONTINUOUS
 10
1296.287844
 20
8460.6814400000003
 30
0.0
 11
1296.287844
 21
7280.6814400000012
 31
0.0
  0
LINE
  5
7AB6
  8
1
  6
CONTINUOUS
 10
1798.287844
 20
7542.6814399999994
 30
0.0
 11
1798.287844
 21
8392.6814400000003
 31
0.0
  0
LINE
  5
7AB7
  8
1
  6
CONTINUOUS
 10
1741.287844
 20
7297.6814400000012
 30
0.0
 11
1741.287844
 21
7397.6814400000012
 31
0.0
  0
LINE
  5
7AB8
  8
1
  6
CONTINUOUS
 10
1501.287844
 20
7297.6814400000012
 30
0.0
 11
1501.287844
 21
7397.6814400000012
 31
0.0
  0
LINE
  5
7AB9
  8
1
  6
CONTINUOUS
 10
1401.287844
 20
7227.6814400000012
 30
0.0
 11
1401.287844
 21
7467.6814399999994
 31
0.0
  0
LINE
  5
7ABA
  8
1
  6
CONTINUOUS
 10
1741.287844
 20
7297.6814400000012
 30
0.0
 11
1501.287844
 21
7297.6814400000012
 31
0.0
  0
LINE
  5
7ABB
  8
1
  6
CONTINUOUS
 10
1422.187844
 20
7516.3814400000001
 30
0.0
 11
1820.3878440000001
 21
7516.3814400000001
 31
0.0
  0
LINE
  5
7ABC
  8
1
  6
CONTINUOUS
 10
1422.187844
 20
8115.8814400000001
 30
0.0
 11
1798.287844
 21
8115.8814400000001
 31
0.0
  0
LINE
  5
7ABD
  8
1
  6
CONTINUOUS
 10
1741.287844
 20
7397.6814400000012
 30
0.0
 11
1501.287844
 21
7397.6814400000012
 31
0.0
  0
LINE
  5
7ABE
  8
1
  6
CONTINUOUS
 10
1422.187844
 20
7516.3814400000001
 30
0.0
 11
1422.187844
 21
8115.8814400000001
 31
0.0
  0
LINE
  5
7ABF
  8
1
  6
CONTINUOUS
 10
1593.787844
 20
7397.6814400000012
 30
0.0
 11
1593.787844
 21
7516.3814400000001
 31
0.0
  0
LINE
  5
7AC0
  8
1
  6
CONTINUOUS
 10
1648.787844
 20
7397.6814400000012
 30
0.0
 11
1648.787844
 21
7516.3814400000001
 31
0.0
  0
LINE
  5
7AC1
  8
1
  6
CONTINUOUS
 10
1820.3878440000001
 20
7516.3814400000001
 30
0.0
 11
1820.3878440000001
 21
7542.6814399999994
 31
0.0
  0
LINE
  5
7AC2
  8
1
  6
CONTINUOUS
 10
2436.287844
 20
8495.6814400000003
 30
0.0
 11
2436.287844
 21
8392.6814400000003
 31
0.0
  0
LINE
  5
7AC3
  8
1
  6
CONTINUOUS
 10
2948.287844
 20
7542.6814399999994
 30
0.0
 11
2948.287844
 21
8392.6814400000003
 31
0.0
  0
LINE
  5
7AC4
  8
1
  6
CONTINUOUS
 10
3274.287843999999
 20
7297.6814400000012
 30
0.0
 11
2718.287844
 21
7297.6814400000012
 31
0.0
  0
LINE
  5
7AC5
  8
1
  6
CONTINUOUS
 10
3274.287843999999
 20
7397.6814400000012
 30
0.0
 11
2718.287844
 21
7397.6814400000012
 31
0.0
  0
LINE
  5
7AC6
  8
1
  6
CONTINUOUS
 10
2718.287844
 20
7297.6814400000012
 30
0.0
 11
2718.287844
 21
7397.6814400000012
 31
0.0
  0
LINE
  5
7AC7
  8
1
  6
CONTINUOUS
 10
3023.787844
 20
7542.6814399999994
 30
0.0
 11
3023.787844
 21
7397.6814400000012
 31
0.0
  0
LINE
  5
7AC8
  8
1
  6
CONTINUOUS
 10
2968.787843999999
 20
7542.6814399999994
 30
0.0
 11
2968.787843999999
 21
7397.6814400000012
 31
0.0
  0
LINE
  5
7AC9
  8
1
  6
CONTINUOUS
 10
3656.287843999999
 20
7542.6814399999994
 30
0.0
 11
3656.287843999999
 21
7280.6814400000012
 31
0.0
  0
LINE
  5
7ACA
  8
1
  6
CONTINUOUS
 10
3274.287843999999
 20
7297.6814400000012
 30
0.0
 11
3274.287843999999
 21
7397.6814400000012
 31
0.0
  0
LINE
  5
7ACB
  8
1
  6
CONTINUOUS
 10
3374.287843999999
 20
7227.6814400000012
 30
0.0
 11
3374.287843999999
 21
7467.6814399999994
 31
0.0
  0
LINE
  5
7ACC
  8
1
  6
CONTINUOUS
 10
3556.287843999999
 20
8460.6814400000003
 30
0.0
 11
3656.287843999999
 21
8460.6814400000003
 31
0.0
  0
LINE
  5
7ACD
  8
1
  6
CONTINUOUS
 10
3656.287843999999
 20
8460.6814400000003
 30
0.0
 11
3656.287843999999
 21
8392.6814400000003
 31
0.0
  0
LINE
  5
7ACE
  8
1
  6
CONTINUOUS
 10
3556.287843999999
 20
8495.6814400000003
 30
0.0
 11
3556.287843999999
 21
8392.6814400000003
 31
0.0
  0
LINE
  5
7ACF
  8
1
  6
CONTINUOUS
 10
3804.4878440000002
 20
7542.6814399999994
 30
0.0
 11
3804.4878440000002
 21
8392.6814400000003
 31
0.0
  0
LINE
  5
7AD0
  8
1
  6
CONTINUOUS
 10
5813.9122360000001
 20
3222.1520219999989
 30
0.0
 11
5813.9122360000001
 21
4867.1520220000002
 31
0.0
  0
LINE
  5
7AD1
  8
1
  6
CONTINUOUS
 10
6663.9122360000001
 20
3222.1520219999989
 30
0.0
 11
6663.9122360000001
 21
4867.1520220000002
 31
0.0
  0
LINE
  5
7AD2
  8
1
  6
CONTINUOUS
 10
6766.9122360000001
 20
3497.1520219999989
 30
0.0
 11
6766.9122360000001
 21
4717.1520220000002
 31
0.0
  0
LINE
  5
7AD3
  8
1
  6
CONTINUOUS
 10
5738.9122360000001
 20
3237.1520220000002
 30
0.0
 11
5738.9122360000001
 21
4485.1520220000002
 31
0.0
  0
LINE
  5
7AD4
  8
1
  6
CONTINUOUS
 10
6731.912236000001
 20
3097.1520219999989
 30
0.0
 11
6731.912236000001
 21
3222.1520219999989
 31
0.0
  0
LINE
  5
7AD5
  8
1
  6
CONTINUOUS
 10
6731.912236000001
 20
3013.1520219999989
 30
0.0
 11
6731.912236000001
 21
3078.1520219999989
 31
0.0
  0
LINE
  5
7AD6
  8
1
  6
CONTINUOUS
 10
6663.9122360000001
 20
3547.1520219999989
 30
0.0
 11
6766.9122360000001
 21
3547.1520219999989
 31
0.0
  0
LINE
  5
7AD7
  8
1
  6
CONTINUOUS
 10
6713.9122360000001
 20
4867.1520220000002
 30
0.0
 11
5763.9122360000001
 21
4867.1520220000002
 31
0.0
  0
LINE
  5
7AD8
  8
1
  6
CONTINUOUS
 10
6663.9122360000001
 20
4827.1520220000002
 30
0.0
 11
5813.9122360000001
 21
4827.1520220000002
 31
0.0
  0
LINE
  5
7AD9
  8
1
  6
CONTINUOUS
 10
6663.9122360000001
 20
4667.1520220000002
 30
0.0
 11
6766.9122360000001
 21
4667.1520220000002
 31
0.0
  0
LINE
  5
7ADA
  8
2
  6
CENTER
 10
3902.7531730000001
 20
7967.6814399999994
 30
0.0
 11
1121.6495150000001
 21
7967.6814399999994
 31
0.0
  0
LINE
  5
7ADB
  8
2
  6
CENTER
 10
6238.9122360000001
 20
5013.2175379999999
 30
0.0
 11
6238.9122360000001
 21
2840.8731659999999
 31
0.0
  0
LINE
  5
7ADD
  8
2
  6
CENTER
 10
2996.287844
 20
7058.3943829999989
 30
0.0
 11
2996.287844
 21
8656.4004409999998
 31
0.0
  0
LINE
  5
7ADE
  8
2
  6
CENTER
 10
3988.7611549999988
 20
4107.1520220000002
 30
0.0
 11
1654.638222
 21
4107.1520220000002
 31
0.0
  0
LINE
  5
7AE0
  8
4
  6
CONTINUOUS
 10
7400.0
 20
2000.0
 30
0.0
 11
7400.0
 21
1200.0
 31
0.0
  0
LINE
  5
7AE1
  8
4
  6
CONTINUOUS
 10
4600.0
 20
2000.0
 30
0.0
 11
4600.0
 21
1200.0
 31
0.0
  0
LINE
  5
7AE2
  8
4
  6
CONTINUOUS
 10
2600.0
 20
2000.0
 30
0.0
 11
2600.0
 21
1200.0
 31
0.0
  0
LINE
  5
7AE5
  8
4
  6
CONTINUOUS
 10
2600.0
 20
1200.0
 30
0.0
 11
7400.0
 21
1200.0
 31
0.0
  0
LINE
  5
7AE6
  8
4
  6
CONTINUOUS
 10
2600.0
 20
1600.0
 30
0.0
 11
7400.0
 21
1600.0
 31
0.0
  0
TEXT
  5
7AE7
  8
4
  6
CONTINUOUS
 10
2754.008323
 20
1726.1721030000001
 30
0.0
 40
200.0
  1
機器名称
  0
TEXT
  5
7AE8
  8
4
  6
CONTINUOUS
 10
2745.032424
 20
1286.580627
 30
0.0
 40
200.0
  1
機器型番
  0
TEXT
  5
7AE9
  8
4
  6
CONTINUOUS
 10
4710.7149820000004
 20
1690.2870760000001
 30
0.0
 40
200.0
  1
ミツヤ多翼送風機
  0
TEXT
  5
7AEA
  8
4
  6
CONTINUOUS
 10
4746.6179819999998
 20
1268.6383370000001
 30
0.0
 40
200.0
  1
MF#7-4
  0
TEXT
  5
7AEC
  8
4
  6
CONTINUOUS
 10
3119.7158020000002
 20
9533.715365
 30
0.0
 40
216.0
  1
床置防振ベット
  0
TEXT
  5
7AED
  8
4
  6
CONTINUOUS
 10
1264.6703729999999
 20
10135.523905
 30
0.0
 40
288.0
  1
ベルト駆動式片吸込両持多翼ファン
  0
LINE
  5
7AEE
  8
4
  6
CONTINUOUS
 10
1000.0
 20
9877.6350170000005
 30
0.0
 11
7400.0
 21
9877.6350170000005
 31
0.0
  0
LINE
  5
7AEF
  8
4
  6
CONTINUOUS
 10
1000.0
 20
10677.635017000001
 30
0.0
 11
7400.0
 21
10677.635017000001
 31
0.0
  0
LINE
  5
7AF0
  8
4
  6
CONTINUOUS
 10
2600.0
 20
2000.0
 30
0.0
 11
7400.0
 21
2000.0
 31
0.0
  0
LINE
  5
7AF1
  8
4
  6
CONTINUOUS
 10
1000.0
 20
10677.635017000001
 30
0.0
 11
1000.0
 21
9877.6350170000005
 31
0.0
  0
TEXT
  5
7AF2
  8
4
  6
CONTINUOUS
 10
1376.280473
 20
9529.2779099999989
 30
0.0
 40
216.0
  1
右回転上向
  0
TEXT
  5
7AF3
  8
4
  6
CONTINUOUS
 10
5875.8782369999999
 20
10824.244326
 30
0.0
 40
224.0
  1
No.
  0
TEXT
  5
7AF4
  8
4
  6
CONTINUOUS
 10
5245.1842500000012
 20
9533.715365
 30
0.0
 40
216.0
  1
縮尺：1/40
  0
LINE
  5
7AF5
  8
4
  6
CONTINUOUS
 10
7400.0
 20
10677.635017000001
 30
0.0
 11
7400.0
 21
9877.6350170000005
 31
0.0
  0
LINE
  5
7AF7
  8
4
  6
CONTINUOUS
 10
5762.4696889999996
 20
10725.054333
 30
0.0
 11
5762.4696889999996
 21
11146.609046
 31
0.0
  0
LINE
  5
7AF8
  8
4
  6
CONTINUOUS
 10
5762.4696889999996
 20
11146.609046
 30
0.0
 11
7400.0
 21
11146.609046
 31
0.0
  0
LINE
  5
7AF9
  8
4
  6
CONTINUOUS
 10
7400.0
 20
11146.609046
 30
0.0
 11
7400.0
 21
10725.054333
 31
0.0
  0
LINE
  5
7AFA
  8
4
  6
CONTINUOUS
 10
7400.0
 20
10725.054333
 30
0.0
 11
5762.4696889999996
 21
10725.054333
 31
0.0
  0
DIMENSION
  5
7B12
  8
3
  6
CONTINUOUS
  2
*D1
 10
2948.287844
 20
5002.172861
 30
0.0
 11
2400.41437
 21
5002.172861
 31
0.0
 70
   128
 13
1798.287844
 23
4867.1520220000002
 33
0.0
 14
2948.287844
 24
4867.1520220000002
 34
0.0
1001
ACAD
1000
DSTYLE
1002
{
1070
   287
1070
     3
1070
    40
1040
40.0
1070
   143
1040
0.039
1070
   172
1070
     1
1070
   271
1070
     0
1070
   279
1070
     0
1070
   288
1070
     1
1002
}
  0
DIMENSION
  5
7B1F
  8
3
  6
CONTINUOUS
  2
*D2
 10
2996.287844
 20
5246.8187340000013
 30
0.0
 11
2391.671758
 21
5246.8187340000013
 31
0.0
 70
   128
 13
1798.287844
 23
4867.1520220000002
 33
0.0
 14
2996.287844
 24
5008.2836909999987
 34
0.0
1001
ACAD
1000
DSTYLE
1002
{
1070
   287
1070
     3
1070
    40
1040
40.0
1070
   143
1040
0.039
1070
   172
1070
     1
1070
   271
1070
     0
1070
   279
1070
     0
1070
   288
1070
     1
1002
}
  0
DIMENSION
  5
7B38
  8
3
  6
CONTINUOUS
  2
*D3
 10
4183.9051570000001
 20
4107.1520220000002
 30
0.0
 11
4183.9051570000001
 21
4486.6690509999989
 31
0.0
 70
   128
 13
3001.287844
 23
4867.1520220000002
 33
0.0
 14
3988.7611549999988
 24
4107.1520220000002
 34
0.0
 50
90.0
1001
ACAD
1000
DSTYLE
1002
{
1070
   287
1070
     3
1070
    40
1040
40.0
1070
   143
1040
0.039
1070
   172
1070
     1
1070
   271
1070
     0
1070
   279
1070
     0
1070
   288
1070
     1
1002
}
  0
DIMENSION
  5
7B44
  8
3
  6
CONTINUOUS
  2
*D4
 10
4183.9051570000001
 20
3097.1520219999989
 30
0.0
 11
4083.9051569999988
 21
3602.1520220000002
 31
0.0
 70
     0
 13
3988.7611549999988
 23
4107.1520220000002
 33
0.0
 14
3656.287843999999
 24
3097.1520219999989
 34
0.0
 50
90.0
1001
ACAD
1000
DSTYLE
1002
{
1070
   287
1070
     4
1070
    40
1040
40.0
1070
    75
1070
     1
1070
   143
1040
0.039
1070
   172
1070
     1
1070
   271
1070
     0
1070
   279
1070
     1
1070
   288
1070
     1
1002
}
  0
DIMENSION
  5
7B54
  8
3
  6
CONTINUOUS
  2
*D5
 10
4181.6793260000004
 20
3013.1520219999989
 30
0.0
 11
4181.6793260000004
 21
2713.1520220000002
 31
0.0
 70
   128
 13
3656.287843999999
 23
3097.1520219999989
 33
0.0
 14
3656.287843999999
 24
3013.1520219999989
 34
0.0
 50
90.0
1001
ACAD
1000
DSTYLE
1002
{
1070
   287
1070
     3
1070
    40
1040
40.0
1070
   143
1040
0.039
1070
   172
1070
     1
1070
   271
1070
     0
1070
   279
1070
     0
1070
   288
1070
     1
1002
}
  0
DIMENSION
  5
7B61
  8
3
  6
CONTINUOUS
  2
*D6
 10
2996.287844
 20
2739.1984590000002
 30
0.0
 11
2155.6214809999992
 21
2739.1984590000002
 31
0.0
 70
   128
 13
1296.287844
 23
3013.1520219999989
 33
0.0
 14
2996.287844
 24
2884.2735505326541
 34
0.0
1001
ACAD
1000
DSTYLE
1002
{
1070
   287
1070
     3
1070
    40
1040
40.0
1070
   143
1040
0.039
1070
   172
1070
     1
1070
   271
1070
     0
1070
   279
1070
     0
1070
   288
1070
     1
1002
}
  0
DIMENSION
  5
7B6D
  8
3
  6
CONTINUOUS
  2
*D7
 10
3656.287843999999
 20
2739.1984590000002
 30
0.0
 11
3326.287844
 21
2839.1984590000002
 31
0.0
 70
     0
 13
2996.287844
 23
2884.2735505326541
 33
0.0
 14
3656.287843999999
 24
3013.1520219999989
 34
0.0
1001
ACAD
1000
DSTYLE
1002
{
1070
   287
1070
     4
1070
    40
1040
40.0
1070
    75
1070
     1
1070
   143
1040
0.039
1070
   172
1070
     1
1070
   271
1070
     0
1070
   279
1070
     1
1070
   288
1070
     1
1002
}
  0
DIMENSION
  5
7B7A
  8
3
  6
CONTINUOUS
  2
*D8
 10
4498.1716479999995
 20
3013.1520219999989
 30
0.0
 11
4498.1716479999986
 21
3944.953176
 31
0.0
 70
   128
 13
3021.287844
 23
4867.1520220000002
 33
0.0
 14
3656.287843999999
 24
3013.1520219999989
 34
0.0
 50
90.0
1001
ACAD
1000
DSTYLE
1002
{
1070
   287
1070
     3
1070
    40
1040
40.0
1070
   143
1040
0.039
1070
   172
1070
     1
1070
   271
1070
     0
1070
   279
1070
     0
1070
   288
1070
     1
1002
}
  0
DIMENSION
  5
7B87
  8
3
  6
CONTINUOUS
  2
*D9
 10
6663.9122360000001
 20
5000.5711320000009
 30
0.0
 11
6249.3839270000008
 21
5000.5711320000009
 31
0.0
 70
   128
 13
5813.9122360000001
 23
4867.1520220000002
 33
0.0
 14
6663.9122360000001
 24
4867.1520220000002
 34
0.0
1001
ACAD
1000
DSTYLE
1002
{
1070
   287
1070
     3
1070
    40
1040
40.0
1070
   143
1040
0.039
1070
   172
1070
     1
1070
   271
1070
     0
1070
   279
1070
     0
1070
   288
1070
     1
1002
}
  0
DIMENSION
  5
7B94
  8
3
  6
CONTINUOUS
  2
*D10
 10
7041.1448740000014
 20
3547.1520219999989
 30
0.0
 11
7041.1448739999996
 21
4110.3748260000002
 31
0.0
 70
   128
 13
6766.9122360000001
 23
4667.1520220000002
 33
0.0
 14
6766.9122360000001
 24
3547.1520219999989
 34
0.0
 50
90.0
1001
ACAD
1000
DSTYLE
1002
{
1070
   287
1070
     3
1070
     3
1000
φ<>
1070
    40
1040
40.0
1070
   143
1040
0.039
1070
   172
1070
     1
1070
   271
1070
     0
1070
   279
1070
     0
1070
   288
1070
     1
1002
}
  0
DIMENSION
  5
7BA3
  8
3
  6
CONTINUOUS
  2
*D11
 10
6238.9122360000001
 20
5259.260663
 30
0.0
 11
6502.9122360000001
 21
5350.0502203498836
 31
0.0
 70
   128
 13
6766.9122360000001
 23
4717.1520220000002
 33
0.0
 14
6238.9122360000001
 24
5192.9365779999998
 34
0.0
1001
ACAD
1000
DSTYLE
1002
{
1070
   288
1070
     1
1070
   172
1070
     1
1070
    40
1040
40.0
1070
   271
1070
     0
1070
   143
1040
0.039
1002
}
  0
DIMENSION
  5
7BAF
  8
3
  6
CONTINUOUS
  2
*D12
 10
5498.9122360000001
 20
5259.260663
 30
0.0
 11
5868.9122359999992
 21
5459.260663
 31
0.0
 70
     0
  1
MAX\P850
 13
6238.9122360000001
 23
5192.9365779999998
 33
0.0
 14
5498.9122360000001
 24
4485.1520220000002
 34
0.0
1001
ACAD
1000
DSTYLE
1002
{
1070
   287
1070
     4
1070
    40
1040
40.0
1070
    75
1070
     1
1070
   143
1040
0.039
1070
   172
1070
     1
1070
   271
1070
     0
1070
   279
1070
     1
1070
   288
1070
     1
1002
}
  0
DIMENSION
  5
7BBC
  8
3
  6
CONTINUOUS
  2
*D13
 10
6238.9122360000001
 20
2733.2335659999999
 30
0.0
 11
5914.4081219999998
 21
2733.2335659999999
 31
0.0
 70
   128
 13
5551.9122360000001
 23
3013.1520219999989
 33
0.0
 14
6238.9122360000001
 24
2840.8731659999999
 34
0.0
1001
ACAD
1000
DSTYLE
1002
{
1070
   287
1070
     3
1070
    40
1040
40.0
1070
   143
1040
0.039
1070
   172
1070
     1
1070
   271
1070
     0
1070
   279
1070
     0
1070
   288
1070
     1
1002
}
  0
DIMENSION
  5
7BCA
  8
3
  6
CONTINUOUS
  2
*D14
 10
6731.912236000001
 20
2733.2335659999999
 30
0.0
 11
6486.9252759999999
 21
2750.630017
 31
0.0
 70
   128
 13
6238.9122360000001
 23
2840.8731659999999
 33
0.0
 14
6731.912236000001
 24
3013.1520219999989
 34
0.0
1001
ACAD
1000
DSTYLE
1002
{
1070
   287
1070
     4
1070
    40
1040
40.0
1070
    75
1070
     1
1070
   143
1040
0.039
1070
   172
1070
     1
1070
   271
1070
     0
1070
   279
1070
     1
1070
   288
1070
     1
1002
}
  0
DIMENSION
  5
7BD7
  8
3
  6
CONTINUOUS
  2
*D15
 10
3656.287843999999
 20
6864.8115269999998
 30
0.0
 11
2441.0406149999999
 21
6864.8115269999998
 31
0.0
 70
   128
 13
1296.287844
 23
7280.6814400000012
 33
0.0
 14
3656.287843999999
 24
7280.6814400000012
 34
0.0
1001
ACAD
1000
DSTYLE
1002
{
1070
   287
1070
     3
1070
    40
1040
40.0
1070
   143
1040
0.039
1070
   172
1070
     1
1070
   271
1070
     0
1070
   279
1070
     0
1070
   288
1070
     1
1002
}
  0
DIMENSION
  5
7BE4
  8
3
  6
CONTINUOUS
  2
*D16
 10
4108.306493000001
 20
7280.6814400000012
 30
0.0
 11
4108.3064929999991
 21
7891.9610969999994
 31
0.0
 70
   128
 13
3656.287843999999
 23
8460.6814400000003
 33
0.0
 14
3656.287843999999
 24
7280.6814400000012
 34
0.0
 50
90.0
1001
ACAD
1000
DSTYLE
1002
{
1070
   287
1070
     3
1070
    40
1040
40.0
1070
   143
1040
0.039
1070
   172
1070
     1
1070
   271
1070
     0
1070
   279
1070
     0
1070
   288
1070
     1
1002
}
  0
DIMENSION
  5
7C2C
  8
3
  6
CONTINUOUS
  2
*D17
 10
3801.287843999999
 20
5246.8187340000013
 30
0.0
 11
3398.787843999999
 21
5346.8187340000013
 31
0.0
 70
     0
 13
2996.287844
 23
5008.2836909999987
 33
0.0
 14
3801.287843999999
 24
4107.1520220000002
 34
0.0
1001
ACAD
1000
DSTYLE
1002
{
1070
   287
1070
     4
1070
    40
1040
40.0
1070
    75
1070
     1
1070
   143
1040
0.039
1070
   172
1070
     1
1070
   271
1070
     0
1070
   279
1070
     1
1070
   288
1070
     1
1002
}
  0
DIMENSION
  5
7C9E
  8
3
  2
*D18
 10
3801.287843999999
 20
5472.1738511836147
 30
0.0
 11
2619.4992509984509
 21
5472.1738511836147
 31
0.0
 70
   128
 13
1296.287844
 23
3222.1520219999989
 33
0.0
 14
3801.287843999999
 24
4127.1520220000002
 34
0.0
1001
ACAD
1000
DSTYLE
1002
{
1070
   287
1070
     3
1070
    40
1040
40.0
1070
   143
1040
0.039
1070
   172
1070
     1
1070
   271
1070
     0
1070
   279
1070
     0
1070
   288
1070
     1
1002
}
  0
ENDSEC
  0
EOF
