  0
SECTION
  2
HEADER
  9
$ACADVER
  1
AC1009
  9
$INSBASE
 10
0.0
 20
0.0
 30
0.0
  9
$EXTMIN
 10
1000.0
 20
1200.0
 30
0.0
  9
$EXTMAX
 10
7400.0
 20
11146.609046
 30
0.0
  9
$LIMMIN
 10
0.0
 20
0.0
  9
$LIMMAX
 10
297.0
 20
210.0
  9
$ORTHOMODE
 70
     0
  9
$REGENMODE
 70
     1
  9
$FILLMODE
 70
     0
  9
$QTEXTMODE
 70
     0
  9
$MIRRTEXT
 70
     1
  9
$DRAGMODE
 70
     2
  9
$LTSCALE
 40
100.0
  9
$OSMODE
 70
    37
  9
$ATTMODE
 70
     1
  9
$TEXTSIZE
 40
180.0
  9
$TRACEWID
 40
0.05
  9
$TEXTSTYLE
  7
STANDARD
  9
$CLAYER
  8
3
  9
$CELTYPE
  6
BYLAYER
  9
$CECOLOR
 62
   256
  9
$DIMSCALE
 40
40.0
  9
$DIMASZ
 40
2.0
  9
$DIMEXO
 40
0.5
  9
$DIMDLI
 40
10.0
  9
$DIMRND
 40
0.0
  9
$DIMDLE
 40
0.0
  9
$DIMEXE
 40
1.0
  9
$DIMTP
 40
1.0
  9
$DIMTM
 40
1.0
  9
$DIMTXT
 40
3.0
  9
$DIMCEN
 40
0.0
  9
$DIMTSZ
 40
0.0
  9
$DIMTOL
 70
     0
  9
$DIMLIM
 70
     0
  9
$DIMTIH
 70
     0
  9
$DIMTOH
 70
     0
  9
$DIMSE1
 70
     0
  9
$DIMSE2
 70
     0
  9
$DIMTAD
 70
     1
  9
$DIMZIN
 70
     8
  9
$DIMBLK
  1

  9
$DIMASO
 70
     1
  9
$DIMSHO
 70
     1
  9
$DIMPOST
  1

  9
$DIMAPOST
  1

  9
$DIMALT
 70
     0
  9
$DIMALTD
 70
     2
  9
$DIMALTF
 40
0.039
  9
$DIMLFAC
 40
1.0
  9
$DIMTOFL
 70
     1
  9
$DIMTVP
 40
0.0
  9
$DIMTIX
 70
     0
  9
$DIMSOXD
 70
     0
  9
$DIMSAH
 70
     1
  9
$DIMBLK1
  1
OPEN
  9
$DIMBLK2
  1
OPEN
  9
$DIMSTYLE
  2
IGA
  9
$DIMCLRD
 70
     0
  9
$DIMCLRE
 70
     0
  9
$DIMCLRT
 70
     0
  9
$DIMTFAC
 40
10.0
  9
$DIMGAP
 40
1.0
  9
$LUNITS
 70
     2
  9
$LUPREC
 70
     3
  9
$SKETCHINC
 40
0.1
  9
$FILLETRAD
 40
50.0
  9
$AUNITS
 70
     0
  9
$AUPREC
 70
     0
  9
$MENU
  1
acad
  9
$ELEVATION
 40
0.0
  9
$PELEVATION
 40
0.0
  9
$THICKNESS
 40
0.0
  9
$LIMCHECK
 70
     0
  9
$BLIPMODE
 70
     0
  9
$CHAMFERA
 40
0.5
  9
$CHAMFERB
 40
0.5
  9
$SKPOLY
 70
     0
  9
$TDCREATE
 40
2450757.3921546289
  9
$TDUPDATE
 40
2454953.7790702661
  9
$TDINDWG
 40
0.0043710417
  9
$TDUSRTIMER
 40
0.0043710417
  9
$USRTIMER
 70
     1
  9
$ANGBASE
 50
0.0
  9
$ANGDIR
 70
     0
  9
$PDMODE
 70
     0
  9
$PDSIZE
 40
0.0
  9
$PLINEWID
 40
0.0
  9
$COORDS
 70
     1
  9
$SPLFRAME
 70
     0
  9
$SPLINETYPE
 70
     6
  9
$SPLINESEGS
 70
     8
  9
$ATTDIA
 70
     0
  9
$ATTREQ
 70
     1
  9
$HANDLING
 70
 10241
  9
$HANDSEED
  5
7E38
  9
$SURFTAB1
 70
     6
  9
$SURFTAB2
 70
     6
  9
$SURFTYPE
 70
     6
  9
$SURFU
 70
     6
  9
$SURFV
 70
     6
  9
$UCSNAME
  2

  9
$UCSORG
 10
0.0
 20
0.0
 30
0.0
  9
$UCSXDIR
 10
1.0
 20
0.0
 30
0.0
  9
$UCSYDIR
 10
0.0
 20
1.0
 30
0.0
  9
$PUCSNAME
  2

  9
$PUCSORG
 10
0.0
 20
0.0
 30
0.0
  9
$PUCSXDIR
 10
1.0
 20
0.0
 30
0.0
  9
$PUCSYDIR
 10
0.0
 20
1.0
 30
0.0
  9
$USERI1
 70
     0
  9
$USERI2
 70
     0
  9
$USERI3
 70
     0
  9
$USERI4
 70
     0
  9
$USERI5
 70
     0
  9
$USERR1
 40
0.0
  9
$USERR2
 40
0.0
  9
$USERR3
 40
0.0
  9
$USERR4
 40
0.0
  9
$USERR5
 40
0.0
  9
$WORLDVIEW
 70
     1
  9
$SHADEDGE
 70
     3
  9
$SHADEDIF
 70
    70
  9
$TILEMODE
 70
     1
  9
$MAXACTVP
 70
    16
  9
$PLIMCHECK
 70
     0
  9
$PEXTMIN
 10
1.0000000000000000E+020
 20
1.0000000000000000E+020
 30
1.0000000000000000E+020
  9
$PEXTMAX
 10
-1.0000000000000000E+020
 20
-1.0000000000000000E+020
 30
-1.0000000000000000E+020
  9
$PLIMMIN
 10
0.0
 20
0.0
  9
$PLIMMAX
 10
12.0
 20
9.0
  9
$UNITMODE
 70
     0
  9
$VISRETAIN
 70
     0
  9
$PLINEGEN
 70
     0
  9
$PSLTSCALE
 70
     1
  0
ENDSEC
  0
SECTION
  2
TABLES
  0
TABLE
  2
VPORT
 70
     2
  0
VPORT
  2
*ACTIVE
 70
     0
 10
0.0
 20
0.0
 11
1.0
 21
1.0
 12
12584.224953905899
 22
6173.2749996292814
 13
0.0
 23
0.0
 14
10.0
 24
10.0
 15
10.0
 25
10.0
 16
0.0
 26
0.0
 36
1.0
 17
0.0
 27
0.0
 37
0.0
 40
10022.99371525931
 41
3.1666666666666661
 42
50.0
 43
0.0
 44
0.0
 50
0.0
 51
0.0
 71
     0
 72
   100
 73
     1
 74
     0
 75
     0
 76
     0
 77
     0
 78
     0
  0
ENDTAB
  0
TABLE
  2
LTYPE
 70
     2
  0
LTYPE
  2
CONTINUOUS
 70
     0
  3
Solid line
 72
    65
 73
     0
 40
0.0
  0
LTYPE
  2
CENTER
 70
     0
  3
____ _ ____ _ ____ _ ____ _ ____ _ ____ _ ____ 
 72
    65
 73
     4
 40
2.0
 49
1.25
 49
-0.25
 49
0.25
 49
-0.25
  0
ENDTAB
  0
TABLE
  2
LAYER
 70
     6
  0
LAYER
  2
0
 70
     0
 62
     7
  6
CONTINUOUS
  0
LAYER
  2
3
 70
     0
 62
     2
  6
CONTINUOUS
  0
LAYER
  2
2
 70
     0
 62
     3
  6
CENTER
  0
LAYER
  2
1
 70
     0
 62
     4
  6
CONTINUOUS
  0
LAYER
  2
4
 70
     0
 62
     7
  6
CONTINUOUS
  0
LAYER
  2
DEFPOINTS
 70
     0
 62
     7
  6
CONTINUOUS
  0
ENDTAB
  0
TABLE
  2
STYLE
 70
     1
  0
STYLE
  2
STANDARD
 70
     0
 40
0.0
 41
1.0
 50
0.0
 71
     0
 42
180.0
  3
simplex.shx
  4
extfont.shx
  0
ENDTAB
  0
TABLE
  2
VIEW
 70
     0
  0
ENDTAB
  0
TABLE
  2
UCS
 70
     0
  0
ENDTAB
  0
TABLE
  2
APPID
 70
     1
  0
APPID
  2
ACAD
 70
     0
  0
ENDTAB
  0
TABLE
  2
DIMSTYLE
 70
     1
  0
DIMSTYLE
  2
IGA
 70
     0
  3

  4

  5

  6
OPEN
  7
OPEN
 40
2.0
 41
2.0
 42
0.5
 43
10.0
 44
1.0
 45
0.0
 46
0.0
 47
1.0
 48
1.0
140
3.0
141
0.0
142
0.0
143
0.03937
144
1.0
145
0.0
146
10.0
147
1.0
 71
     0
 72
     0
 73
     0
 74
     0
 75
     0
 76
     0
 77
     1
 78
     8
170
     0
171
     2
172
     0
173
     1
174
     0
175
     0
176
     0
177
     0
178
     0
  0
ENDTAB
  0
ENDSEC
  0
SECTION
  2
BLOCKS
  0
BLOCK
  8
0
  2
$MODEL_SPACE
 70
     0
 10
0.0
 20
0.0
 30
0.0
  3
$MODEL_SPACE
  1

  0
ENDBLK
  5
1B
  8
0
  0
BLOCK
 67
     1
  8
0
  2
$PAPER_SPACE
 70
     0
 10
0.0
 20
0.0
 30
0.0
  3
$PAPER_SPACE
  1

  0
ENDBLK
  5
18
 67
     1
  8
0
  0
BLOCK
  8
0
  2
_OPEN
 70
     0
 10
0.0
 20
0.0
 30
0.0
  3
_OPEN
  1

  0
LINE
  5
7B97
  8
0
  6
BYBLOCK
 62
     0
 10
-1.0
 20
0.166667
 30
0.0
 11
0.0
 21
0.0
 31
0.0
  0
LINE
  5
7B98
  8
0
  6
BYBLOCK
 62
     0
 10
0.0
 20
0.0
 30
0.0
 11
-1.0
 21
-0.166667
 31
0.0
  0
LINE
  5
7B99
  8
0
  6
BYBLOCK
 62
     0
 10
0.0
 20
0.0
 30
0.0
 11
-1.0
 21
0.0
 31
0.0
  0
ENDBLK
  5
7B9A
  8
0
  0
BLOCK
  8
0
  2
*D1
 70
     1
 10
0.0
 20
0.0
 30
0.0
  3
*D1
  1

  0
LINE
  5
7D90
  8
3
  6
CONTINUOUS
 62
     0
 10
3813.5086329999999
 20
4965.9092810000002
 30
0.0
 11
3813.5086329999999
 21
5124.0497109999997
 31
0.0
  0
LINE
  5
7D91
  8
3
  6
CONTINUOUS
 62
     0
 10
2663.5086329999999
 20
4965.9092810000002
 30
0.0
 11
2663.5086329999999
 21
5124.0497109999997
 31
0.0
  0
LINE
  5
7D92
  8
3
  6
CONTINUOUS
 62
     0
 10
3733.5086329999999
 20
5084.0497109999997
 30
0.0
 11
2743.5086329999999
 21
5084.0497109999997
 31
0.0
  0
INSERT
  5
7D93
  8
3
  6
CONTINUOUS
 62
     0
  2
_OPEN
 10
3813.5086329999999
 20
5084.0497109999997
 30
0.0
 41
80.0
 42
80.0
 43
80.0
  0
INSERT
  5
7D94
  8
3
  6
CONTINUOUS
 62
     0
  2
_OPEN
 10
2663.5086329999999
 20
5084.0497109999997
 30
0.0
 41
80.0
 42
80.0
 43
80.0
 50
180.0
  0
TEXT
  8
3
  40
120
  5
7E26
  62
0
  72
0
  71
0
 10
2955.85
 20
4971.65
 30
0.000000
  1
1150
  0
POINT
  5
7D96
  8
DEFPOINTS
  6
CONTINUOUS
 62
     0
 10
3813.5086329999999
 20
4945.9092810000002
 30
0.0
  0
POINT
  5
7D97
  8
DEFPOINTS
  6
CONTINUOUS
 62
     0
 10
2663.5086329999999
 20
4945.9092810000002
 30
0.0
  0
POINT
  5
7D98
  8
DEFPOINTS
  6
CONTINUOUS
 62
     0
 10
2663.5086329999999
 20
5084.0497109999997
 30
0.0
  0
ENDBLK
  5
7BA7
  8
0
  0
BLOCK
  8
0
  2
*D2
 70
     1
 10
0.0
 20
0.0
 30
0.0
  3
*D2
  1

  0
LINE
  5
7D99
  8
3
  6
CONTINUOUS
 62
     0
 10
3813.5086329999999
 20
4965.9092810000002
 30
0.0
 11
3813.5086329999999
 21
5386.7390070000001
 31
0.0
  0
LINE
  5
7D9A
  8
3
  6
CONTINUOUS
 62
     0
 10
2615.5086329999999
 20
5152.3163270000014
 30
0.0
 11
2615.5086329999999
 21
5386.7390070000001
 31
0.0
  0
LINE
  5
7D9B
  8
3
  6
CONTINUOUS
 62
     0
 10
3733.5086329999999
 20
5346.7390070000001
 30
0.0
 11
2695.5086329999999
 21
5346.7390070000001
 31
0.0
  0
INSERT
  5
7D9C
  8
3
  6
CONTINUOUS
 62
     0
  2
_OPEN
 10
3813.5086329999999
 20
5346.7390070000001
 30
0.0
 41
80.0
 42
80.0
 43
80.0
  0
INSERT
  5
7D9D
  8
3
  6
CONTINUOUS
 62
     0
  2
_OPEN
 10
2615.5086329999999
 20
5346.7390070000001
 30
0.0
 41
80.0
 42
80.0
 43
80.0
 50
180.0
  0
TEXT
  8
3
  40
120
  5
7E27
  62
0
  72
0
  71
0
 10
2964.91
 20
5234.34
 30
0.000000
  1
1198
  0
POINT
  5
7D9F
  8
DEFPOINTS
  6
CONTINUOUS
 62
     0
 10
3813.5086329999999
 20
4945.9092810000002
 30
0.0
  0
POINT
  5
7DA0
  8
DEFPOINTS
  6
CONTINUOUS
 62
     0
 10
2615.5086329999999
 20
5132.3163270000014
 30
0.0
  0
POINT
  5
7DA1
  8
DEFPOINTS
  6
CONTINUOUS
 62
     0
 10
2615.5086329999999
 20
5346.7390070000001
 30
0.0
  0
ENDBLK
  5
7BB4
  8
0
  0
BLOCK
  8
0
  2
*D3
 70
     1
 10
0.0
 20
0.0
 30
0.0
  3
*D3
  1

  0
LINE
  5
7DA2
  8
3
  6
CONTINUOUS
 62
     0
 10
2590.5086329999999
 20
4945.9092810000002
 30
0.0
 11
1506.2572860000009
 21
4945.909281000002
 31
0.0
  0
LINE
  5
7DA3
  8
3
  6
CONTINUOUS
 62
     0
 10
1587.2146299999999
 20
4185.9092809999993
 30
0.0
 11
1506.257286
 21
4185.9092809999993
 31
0.0
  0
LINE
  5
7DA4
  8
3
  6
CONTINUOUS
 62
     0
 10
1546.2572860000009
 20
4865.9092810000011
 30
0.0
 11
1546.257286
 21
4265.9092810000002
 31
0.0
  0
INSERT
  5
7DA5
  8
3
  6
CONTINUOUS
 62
     0
  2
_OPEN
 10
1546.2572860000009
 20
4945.909281000002
 30
0.0
 41
80.0
 42
80.0
 43
80.0
 50
90.0
  0
INSERT
  5
7DA6
  8
3
  6
CONTINUOUS
 62
     0
  2
_OPEN
 10
1546.257286
 20
4185.9092809999993
 30
0.0
 41
80.0
 42
80.0
 43
80.0
 50
270.0
  0
TEXT
  8
3
  40
120
  5
7E28
  62
0
  72
0
  71
0
 10
1206.26
 20
4355.33
 30
0.000000
  1
760
  0
POINT
  5
7DA8
  8
DEFPOINTS
  6
CONTINUOUS
 62
     0
 10
2610.5086329999999
 20
4945.9092810000002
 30
0.0
  0
POINT
  5
7DA9
  8
DEFPOINTS
  6
CONTINUOUS
 62
     0
 10
1607.2146299999999
 20
4185.9092809999993
 30
0.0
  0
POINT
  5
7DAA
  8
DEFPOINTS
  6
CONTINUOUS
 62
     0
 10
1546.257286
 20
4185.9092809999993
 30
0.0
  0
ENDBLK
  5
7BCD
  8
0
  0
BLOCK
  8
0
  2
*D4
 70
     1
 10
0.0
 20
0.0
 30
0.0
  3
*D4
  1

  0
LINE
  5
7DAB
  8
3
  6
CONTINUOUS
 62
     0
 10
1935.508632999999
 20
3175.9092810000002
 30
0.0
 11
1506.257286
 21
3175.9092810000002
 31
0.0
  0
LINE
  5
7DAC
  8
3
  6
CONTINUOUS
 62
     0
 10
1546.257286
 20
4105.9092810000002
 30
0.0
 11
1546.257286
 21
3255.9092809999988
 31
0.0
  0
INSERT
  5
7DAD
  8
3
  6
CONTINUOUS
 62
     0
  2
_OPEN
 10
1546.257286
 20
4185.9092809999993
 30
0.0
 41
80.0
 42
80.0
 43
80.0
 50
90.0
  0
INSERT
  5
7DAE
  8
3
  6
CONTINUOUS
 62
     0
  2
_OPEN
 10
1546.257286
 20
3175.9092810000002
 30
0.0
 41
80.0
 42
80.0
 43
80.0
 50
270.0
  0
TEXT
  8
3
  40
120
  5
7E29
  62
0
  72
0
  71
0
 10
1206.26
 20
3468.51
 30
0.000000
  1
1010
  0
POINT
  5
7DB0
  8
DEFPOINTS
  6
CONTINUOUS
 62
     0
 10
1607.2146299999999
 20
4185.9092809999993
 30
0.0
  0
POINT
  5
7DB1
  8
DEFPOINTS
  6
CONTINUOUS
 62
     0
 10
1955.508632999999
 20
3175.9092810000002
 30
0.0
  0
POINT
  5
7DB2
  8
DEFPOINTS
  6
CONTINUOUS
 62
     0
 10
1546.257286
 20
3175.9092810000002
 30
0.0
  0
ENDBLK
  5
7BDA
  8
0
  0
BLOCK
  8
0
  2
*D5
 70
     1
 10
0.0
 20
0.0
 30
0.0
  3
*D5
  1

  0
LINE
  5
7DB3
  8
3
  6
CONTINUOUS
 62
     0
 10
1935.508632999999
 20
3175.9092810000002
 30
0.0
 11
1506.257286
 21
3175.9092810000002
 31
0.0
  0
LINE
  5
7DB4
  8
3
  6
CONTINUOUS
 62
     0
 10
1935.508632999999
 20
3091.9092809999988
 30
0.0
 11
1506.257286
 21
3091.9092809999988
 31
0.0
  0
LINE
  5
7DB5
  8
3
  6
CONTINUOUS
 62
     0
 10
1546.257286
 20
3255.9092809999988
 30
0.0
 11
1546.257286
 21
3335.9092810000002
 31
0.0
  0
LINE
  5
7DB6
  8
3
  6
CONTINUOUS
 62
     0
 10
1546.257286
 20
3011.9092809999988
 30
0.0
 11
1546.257286
 21
2651.9092810000002
 31
0.0
  0
LINE
  5
7DB7
  8
3
  6
CONTINUOUS
 62
     0
 10
1546.257286
 20
3175.9092810000002
 30
0.0
 11
1546.257286
 21
3091.9092809999988
 31
0.0
  0
INSERT
  5
7DB8
  8
3
  6
CONTINUOUS
 62
     0
  2
_OPEN
 10
1546.257286
 20
3175.9092810000002
 30
0.0
 41
80.0
 42
80.0
 43
80.0
 50
270.0
  0
INSERT
  5
7DB9
  8
3
  6
CONTINUOUS
 62
     0
  2
_OPEN
 10
1546.257286
 20
3091.9092809999988
 30
0.0
 41
80.0
 42
80.0
 43
80.0
 50
90.0
  0
TEXT
  8
3
  40
120
  5
7E2A
  62
0
  72
0
  71
0
 10
1206.26
 20
2579.51
 30
0.000000
  1
84
  0
POINT
  5
7DBB
  8
DEFPOINTS
  6
CONTINUOUS
 62
     0
 10
1955.508632999999
 20
3175.9092810000002
 30
0.0
  0
POINT
  5
7DBC
  8
DEFPOINTS
  6
CONTINUOUS
 62
     0
 10
1955.508632999999
 20
3091.9092809999988
 30
0.0
  0
POINT
  5
7DBD
  8
DEFPOINTS
  6
CONTINUOUS
 62
     0
 10
1546.257286
 20
3091.9092809999988
 30
0.0
  0
ENDBLK
  5
7D2A
  8
0
  0
BLOCK
  8
0
  2
*D6
 70
     1
 10
0.0
 20
0.0
 30
0.0
  3
*D6
  1

  0
LINE
  5
7DBE
  8
3
  6
CONTINUOUS
 62
     0
 10
2570.5086329999999
 20
4945.9092810000002
 30
0.0
 11
1254.7871350000009
 21
4945.909281000002
 31
0.0
  0
LINE
  5
7DBF
  8
3
  6
CONTINUOUS
 62
     0
 10
1935.508632999999
 20
3091.9092809999988
 30
0.0
 11
1254.787135
 21
3091.9092809999988
 31
0.0
  0
LINE
  5
7DC0
  8
3
  6
CONTINUOUS
 62
     0
 10
1294.7871350000009
 20
4865.9092810000011
 30
0.0
 11
1294.787135
 21
3171.9092810000002
 31
0.0
  0
INSERT
  5
7DC1
  8
3
  6
CONTINUOUS
 62
     0
  2
_OPEN
 10
1294.7871350000009
 20
4945.909281000002
 30
0.0
 41
80.0
 42
80.0
 43
80.0
 50
90.0
  0
INSERT
  5
7DC2
  8
3
  6
CONTINUOUS
 62
     0
  2
_OPEN
 10
1294.787135
 20
3091.9092809999988
 30
0.0
 41
80.0
 42
80.0
 43
80.0
 50
270.0
  0
TEXT
  8
3
  40
120
  5
7E2B
  62
0
  72
0
  71
0
 10
954.787
 20
3848.07
 30
0.000000
  1
1854
  0
POINT
  5
7DC4
  8
DEFPOINTS
  6
CONTINUOUS
 62
     0
 10
2590.5086329999999
 20
4945.9092810000002
 30
0.0
  0
POINT
  5
7DC5
  8
DEFPOINTS
  6
CONTINUOUS
 62
     0
 10
1955.508632999999
 20
3091.9092809999988
 30
0.0
  0
POINT
  5
7DC6
  8
DEFPOINTS
  6
CONTINUOUS
 62
     0
 10
1294.787135
 20
3091.9092809999988
 30
0.0
  0
ENDBLK
  5
7CE5
  8
0
  0
BLOCK
  8
0
  2
*D7
 70
     1
 10
0.0
 20
0.0
 30
0.0
  3
*D7
  1

  0
LINE
  5
7DC7
  8
3
  6
CONTINUOUS
 62
     0
 10
1955.508632999999
 20
3071.9092809999988
 30
0.0
 11
1955.508632999999
 21
2761.370379
 31
0.0
  0
LINE
  5
7DC8
  8
3
  6
CONTINUOUS
 62
     0
 10
2615.5086329999999
 20
2941.2874619999998
 30
0.0
 11
2615.5086329999999
 21
2761.370379
 31
0.0
  0
LINE
  5
7DC9
  8
3
  6
CONTINUOUS
 62
     0
 10
2035.5086329999999
 20
2801.370379
 30
0.0
 11
2535.5086329999999
 21
2801.370379
 31
0.0
  0
INSERT
  5
7DCA
  8
3
  6
CONTINUOUS
 62
     0
  2
_OPEN
 10
1955.508632999999
 20
2801.370379
 30
0.0
 41
80.0
 42
80.0
 43
80.0
 50
180.0
  0
INSERT
  5
7DCB
  8
3
  6
CONTINUOUS
 62
     0
  2
_OPEN
 10
2615.5086329999999
 20
2801.370379
 30
0.0
 41
80.0
 42
80.0
 43
80.0
  0
TEXT
  8
3
  40
120
  5
7E2C
  62
0
  72
0
  71
0
 10
2058.54
 20
2688.97
 30
0.000000
  1
660
  0
POINT
  5
7DCD
  8
DEFPOINTS
  6
CONTINUOUS
 62
     0
 10
1955.508632999999
 20
3091.9092809999988
 30
0.0
  0
POINT
  5
7DCE
  8
DEFPOINTS
  6
CONTINUOUS
 62
     0
 10
2615.5086329999999
 20
2961.2874619999998
 30
0.0
  0
POINT
  5
7DCF
  8
DEFPOINTS
  6
CONTINUOUS
 62
     0
 10
2615.5086329999999
 20
2801.370379
 30
0.0
  0
ENDBLK
  5
7C12
  8
0
  0
BLOCK
  8
0
  2
*D8
 70
     1
 10
0.0
 20
0.0
 30
0.0
  3
*D8
  1

  0
LINE
  5
7DD0
  8
3
  6
CONTINUOUS
 62
     0
 10
4315.5086329999986
 20
3071.9092809999988
 30
0.0
 11
4315.5086329999986
 21
2761.370379
 31
0.0
  0
LINE
  5
7DD1
  8
3
  6
CONTINUOUS
 62
     0
 10
2695.5086329999999
 20
2801.370379
 30
0.0
 11
4235.5086330000004
 21
2801.370379
 31
0.0
  0
INSERT
  5
7DD2
  8
3
  6
CONTINUOUS
 62
     0
  2
_OPEN
 10
2615.5086329999999
 20
2801.370379
 30
0.0
 41
80.0
 42
80.0
 43
80.0
 50
180.0
  0
INSERT
  5
7DD3
  8
3
  6
CONTINUOUS
 62
     0
  2
_OPEN
 10
4315.5086329999986
 20
2801.370379
 30
0.0
 41
80.0
 42
80.0
 43
80.0
  0
TEXT
  8
3
  40
120
  5
7E2D
  62
0
  72
0
  71
0
 10
3225.51
 20
2688.97
 30
0.000000
  1
1700
  0
POINT
  5
7DD5
  8
DEFPOINTS
  6
CONTINUOUS
 62
     0
 10
2615.5086329999999
 20
2961.2874619999998
 30
0.0
  0
POINT
  5
7DD6
  8
DEFPOINTS
  6
CONTINUOUS
 62
     0
 10
4315.5086329999986
 20
3091.9092809999988
 30
0.0
  0
POINT
  5
7DD7
  8
DEFPOINTS
  6
CONTINUOUS
 62
     0
 10
4315.5086329999986
 20
2801.370379
 30
0.0
  0
ENDBLK
  5
7C1E
  8
0
  0
BLOCK
  8
0
  2
*D9
 70
     1
 10
0.0
 20
0.0
 30
0.0
  3
*D9
  1

  0
LINE
  5
7DD8
  8
3
  6
CONTINUOUS
 62
     0
 10
6748.6449299999986
 20
4965.9092810000002
 30
0.0
 11
6748.6449299999986
 21
5151.2244870000004
 31
0.0
  0
LINE
  5
7DD9
  8
3
  6
CONTINUOUS
 62
     0
 10
5898.6449299999986
 20
4965.9092810000002
 30
0.0
 11
5898.6449299999986
 21
5151.2244870000004
 31
0.0
  0
LINE
  5
7DDA
  8
3
  6
CONTINUOUS
 62
     0
 10
6668.6449299999986
 20
5111.2244870000004
 30
0.0
 11
5978.6449299999986
 21
5111.2244870000004
 31
0.0
  0
INSERT
  5
7DDB
  8
3
  6
CONTINUOUS
 62
     0
  2
_OPEN
 10
6748.6449299999986
 20
5111.2244870000004
 30
0.0
 41
80.0
 42
80.0
 43
80.0
  0
INSERT
  5
7DDC
  8
3
  6
CONTINUOUS
 62
     0
  2
_OPEN
 10
5898.6449299999986
 20
5111.2244870000004
 30
0.0
 41
80.0
 42
80.0
 43
80.0
 50
180.0
  0
TEXT
  8
3
  40
120
  5
7E2E
  62
0
  72
0
  71
0
 10
6087.41
 20
4998.82
 30
0.000000
  1
850
  0
POINT
  5
7DDE
  8
DEFPOINTS
  6
CONTINUOUS
 62
     0
 10
6748.6449299999986
 20
4945.9092810000002
 30
0.0
  0
POINT
  5
7DDF
  8
DEFPOINTS
  6
CONTINUOUS
 62
     0
 10
5898.6449299999986
 20
4945.9092810000002
 30
0.0
  0
POINT
  5
7DE0
  8
DEFPOINTS
  6
CONTINUOUS
 62
     0
 10
5898.6449299999986
 20
5111.2244870000004
 30
0.0
  0
ENDBLK
  5
7C2B
  8
0
  0
BLOCK
  8
0
  2
*D10
 70
     1
 10
0.0
 20
0.0
 30
0.0
  3
*D10
  1

  0
LINE
  5
7DE1
  8
3
  6
CONTINUOUS
 62
     0
 10
6871.6449299999986
 20
4745.9092810000002
 30
0.0
 11
7228.4602050000012
 21
4745.9092810000002
 31
0.0
  0
LINE
  5
7DE2
  8
3
  6
CONTINUOUS
 62
     0
 10
6871.6449299999986
 20
3625.9092810000002
 30
0.0
 11
7228.4602050000012
 21
3625.9092810000002
 31
0.0
  0
LINE
  5
7DE3
  8
3
  6
CONTINUOUS
 62
     0
 10
7188.4602050000003
 20
4665.9092810000002
 30
0.0
 11
7188.4602050000003
 21
3705.9092809999988
 31
0.0
  0
INSERT
  5
7DE4
  8
3
  6
CONTINUOUS
 62
     0
  2
_OPEN
 10
7188.4602050000003
 20
4745.9092810000002
 30
0.0
 41
80.0
 42
80.0
 43
80.0
 50
90.0
  0
INSERT
  5
7DE5
  8
3
  6
CONTINUOUS
 62
     0
  2
_OPEN
 10
7188.4602050000003
 20
3625.9092810000002
 30
0.0
 41
80.0
 42
80.0
 43
80.0
 50
270.0
  0
TEXT
  8
3
  40
120
  5
7E2F
  62
0
  72
0
  71
0
 10
6848.46
 20
3974.88
 30
0.000000
  1
φ1120
  0
POINT
  5
7DE7
  8
DEFPOINTS
  6
CONTINUOUS
 62
     0
 10
6851.6449299999986
 20
4745.9092810000002
 30
0.0
  0
POINT
  5
7DE8
  8
DEFPOINTS
  6
CONTINUOUS
 62
     0
 10
6851.6449299999986
 20
3625.9092810000002
 30
0.0
  0
POINT
  5
7DE9
  8
DEFPOINTS
  6
CONTINUOUS
 62
     0
 10
7188.4602050000003
 20
3625.9092810000002
 30
0.0
  0
ENDBLK
  5
7D6D
  8
0
  0
BLOCK
  8
0
  2
*D11
 70
     1
 10
0.0
 20
0.0
 30
0.0
  3
*D11
  1

  0
LINE
  5
7D4F
  8
0
  6
BYBLOCK
 62
     0
 10
6851.6449299999986
 20
4815.9092810000002
 30
0.0
 11
6851.6449299999986
 21
5413.9137520000004
 31
0.0
  0
LINE
  5
7D50
  8
0
  6
BYBLOCK
 62
     0
 10
6323.6449300000004
 20
5323.698124999999
 30
0.0
 11
6323.6449300000004
 21
5413.9137520000004
 31
0.0
  0
LINE
  5
7D51
  8
0
  6
BYBLOCK
 62
     0
 10
6771.6449299999986
 20
5373.9137520000004
 30
0.0
 11
6403.6449300000004
 21
5373.9137520000004
 31
0.0
  0
TEXT
  5
7D52
  8
3
 62
     0
 10
6433.3592157142839
 20
5415.836169147613
 30
0.0
 40
120.0
  1
528
  0
INSERT
  5
7D53
  8
0
  6
BYBLOCK
 62
     0
  2
_OPEN
 10
6851.6449299999986
 20
5373.9137520000004
 30
0.0
 41
80.0
 42
80.0
 43
80.0
  0
INSERT
  5
7D54
  8
0
  6
BYBLOCK
 62
     0
  2
_OPEN
 10
6323.6449300000004
 20
5373.9137520000004
 30
0.0
 41
80.0
 42
80.0
 43
80.0
 50
180.0
  0
POINT
  5
7D55
  8
DEFPOINTS
  6
BYBLOCK
 62
     0
 10
6851.6449299999986
 20
4795.9092810000002
 30
0.0
  0
POINT
  5
7D56
  8
DEFPOINTS
  6
BYBLOCK
 62
     0
 10
6323.6449300000004
 20
5303.6981249999999
 30
0.0
  0
POINT
  5
7D57
  8
DEFPOINTS
  6
BYBLOCK
 62
     0
 10
6323.6449300000004
 20
5373.9137520000004
 30
0.0
  0
ENDBLK
  5
7D58
  8
0
  0
BLOCK
  8
0
  2
*D12
 70
     1
 10
0.0
 20
0.0
 30
0.0
  3
*D12
  1

  0
LINE
  5
7DEA
  8
3
  6
CONTINUOUS
 62
     0
 10
5583.6449300000004
 20
4583.9092810000002
 30
0.0
 11
5583.6449300000004
 21
5413.9137520000004
 31
0.0
  0
LINE
  5
7DEB
  8
3
  6
CONTINUOUS
 62
     0
 10
6243.6449300000004
 20
5373.9137520000004
 30
0.0
 11
5663.6449300000004
 21
5373.9137520000004
 31
0.0
  0
INSERT
  5
7DEC
  8
3
  6
CONTINUOUS
 62
     0
  2
_OPEN
 10
6323.6449300000004
 20
5373.9137520000004
 30
0.0
 41
80.0
 42
80.0
 43
80.0
  0
INSERT
  5
7DED
  8
3
  6
CONTINUOUS
 62
     0
  2
_OPEN
 10
5583.6449300000004
 20
5373.9137520000004
 30
0.0
 41
80.0
 42
80.0
 43
80.0
 50
180.0
  0
TEXT
  8
3
  40
120
  5
7E30
  62
0
  72
0
  71
0
 10
5713.64
 20
5361.51
 30
0.000000
  1
MAX
  0
TEXT
  8
3
  40
120
  5
7E31
  62
0
  72
0
  71
0
 10
5713.64
 20
5205.51
 30
0.000000
  1
850
  0
POINT
  5
7DEF
  8
DEFPOINTS
  6
CONTINUOUS
 62
     0
 10
6323.6449300000004
 20
5303.6981249999999
 30
0.0
  0
POINT
  5
7DF0
  8
DEFPOINTS
  6
CONTINUOUS
 62
     0
 10
5583.6449300000004
 20
4563.9092809999993
 30
0.0
  0
POINT
  5
7DF1
  8
DEFPOINTS
  6
CONTINUOUS
 62
     0
 10
5583.6449300000004
 20
5373.9137520000004
 30
0.0
  0
ENDBLK
  5
7D62
  8
0
  0
BLOCK
  8
0
  2
*D13
 70
     1
 10
0.0
 20
0.0
 30
0.0
  3
*D13
  1

  0
LINE
  5
7DF2
  8
3
  6
CONTINUOUS
 62
     0
 10
5636.6449300000004
 20
3071.9092809999988
 30
0.0
 11
5636.6449300000004
 21
2757.9691090000001
 31
0.0
  0
LINE
  5
7DF3
  8
3
  6
CONTINUOUS
 62
     0
 10
6323.6449300000004
 20
2884.9338720000001
 30
0.0
 11
6323.6449300000004
 21
2757.9691090000001
 31
0.0
  0
LINE
  5
7DF4
  8
3
  6
CONTINUOUS
 62
     0
 10
5716.6449300000004
 20
2797.9691090000001
 30
0.0
 11
6243.6449300000004
 21
2797.9691090000001
 31
0.0
  0
INSERT
  5
7DF5
  8
3
  6
CONTINUOUS
 62
     0
  2
_OPEN
 10
5636.6449300000004
 20
2797.9691090000001
 30
0.0
 41
80.0
 42
80.0
 43
80.0
 50
180.0
  0
INSERT
  5
7DF6
  8
3
  6
CONTINUOUS
 62
     0
  2
_OPEN
 10
6323.6449300000004
 20
2797.9691090000001
 30
0.0
 41
80.0
 42
80.0
 43
80.0
  0
TEXT
  8
3
  40
120
  5
7E32
  62
0
  72
0
  71
0
 10
5761.12
 20
2685.57
 30
0.000000
  1
687
  0
POINT
  5
7DF8
  8
DEFPOINTS
  6
CONTINUOUS
 62
     0
 10
5636.6449300000004
 20
3091.9092809999988
 30
0.0
  0
POINT
  5
7DF9
  8
DEFPOINTS
  6
CONTINUOUS
 62
     0
 10
6323.6449300000004
 20
2904.9338720000001
 30
0.0
  0
POINT
  5
7DFA
  8
DEFPOINTS
  6
CONTINUOUS
 62
     0
 10
6323.6449300000004
 20
2797.9691090000001
 30
0.0
  0
ENDBLK
  5
7CFC
  8
0
  0
BLOCK
  8
0
  2
*D14
 70
     1
 10
0.0
 20
0.0
 30
0.0
  3
*D14
  1

  0
LINE
  5
7DFB
  8
3
  6
CONTINUOUS
 62
     0
 10
6816.6449299999986
 20
3071.9092809999988
 30
0.0
 11
6816.6449299999986
 21
2757.9691090000001
 31
0.0
  0
LINE
  5
7DFC
  8
3
  6
CONTINUOUS
 62
     0
 10
6403.6449300000004
 20
2797.9691090000001
 30
0.0
 11
6736.6449300000004
 21
2797.9691090000001
 31
0.0
  0
TEXT
  8
3
  40
120
  5
7E33
  62
0
  72
0
  71
0
 10
6341.43
 20
2686.36
 30
0.000000
  1
493
  0
INSERT
  5
7DFE
  8
3
  6
CONTINUOUS
 62
     0
  2
_OPEN
 10
6323.6449300000004
 20
2797.9691090000001
 30
0.0
 41
80.0
 42
80.0
 43
80.0
 50
180.0
  0
INSERT
  5
7DFF
  8
3
  6
CONTINUOUS
 62
     0
  2
_OPEN
 10
6816.6449299999986
 20
2797.9691090000001
 30
0.0
 41
80.0
 42
80.0
 43
80.0
  0
POINT
  5
7E00
  8
DEFPOINTS
  6
CONTINUOUS
 62
     0
 10
6323.6449300000004
 20
2904.9338720000001
 30
0.0
  0
POINT
  5
7E01
  8
DEFPOINTS
  6
CONTINUOUS
 62
     0
 10
6816.6449299999986
 20
3091.9092809999988
 30
0.0
  0
POINT
  5
7E02
  8
DEFPOINTS
  6
CONTINUOUS
 62
     0
 10
6816.6449299999986
 20
2797.9691090000001
 30
0.0
  0
ENDBLK
  5
7D06
  8
0
  0
BLOCK
  8
0
  2
*D15
 70
     1
 10
0.0
 20
0.0
 30
0.0
  3
*D15
  1

  0
LINE
  5
7E03
  8
3
  6
CONTINUOUS
 62
     0
 10
1955.508632999999
 20
7359.6592860000001
 30
0.0
 11
1955.508632999999
 21
6940.3713370000014
 31
0.0
  0
LINE
  5
7E04
  8
3
  6
CONTINUOUS
 62
     0
 10
4315.5086329999986
 20
7359.6592860000001
 30
0.0
 11
4315.5086329999986
 21
6940.3713370000014
 31
0.0
  0
LINE
  5
7E05
  8
3
  6
CONTINUOUS
 62
     0
 10
2035.5086329999999
 20
6980.3713370000014
 30
0.0
 11
4235.5086330000004
 21
6980.3713370000014
 31
0.0
  0
INSERT
  5
7E06
  8
3
  6
CONTINUOUS
 62
     0
  2
_OPEN
 10
1955.508632999999
 20
6980.3713370000014
 30
0.0
 41
80.0
 42
80.0
 43
80.0
 50
180.0
  0
INSERT
  5
7E07
  8
3
  6
CONTINUOUS
 62
     0
  2
_OPEN
 10
4315.5086329999986
 20
6980.3713370000014
 30
0.0
 41
80.0
 42
80.0
 43
80.0
  0
TEXT
  8
3
  40
120
  5
7E34
  62
0
  72
0
  71
0
 10
2747.38
 20
6867.97
 30
0.000000
  1
2360
  0
POINT
  5
7E09
  8
DEFPOINTS
  6
CONTINUOUS
 62
     0
 10
1955.508632999999
 20
7379.6592860000001
 30
0.0
  0
POINT
  5
7E0A
  8
DEFPOINTS
  6
CONTINUOUS
 62
     0
 10
4315.5086329999986
 20
7379.6592860000001
 30
0.0
  0
POINT
  5
7E0B
  8
DEFPOINTS
  6
CONTINUOUS
 62
     0
 10
4315.5086329999986
 20
6980.3713370000014
 30
0.0
  0
ENDBLK
  5
7C7B
  8
0
  0
BLOCK
  8
0
  2
*D16
 70
     1
 10
0.0
 20
0.0
 30
0.0
  3
*D16
  1

  0
LINE
  5
7E0C
  8
3
  6
CONTINUOUS
 62
     0
 10
4335.5086329999986
 20
8559.6592860000001
 30
0.0
 11
4740.4225939999997
 21
8559.6592860000001
 31
0.0
  0
LINE
  5
7E0D
  8
3
  6
CONTINUOUS
 62
     0
 10
4335.5086329999986
 20
7379.6592860000001
 30
0.0
 11
4740.4225939999997
 21
7379.6592860000001
 31
0.0
  0
LINE
  5
7E0E
  8
3
  6
CONTINUOUS
 62
     0
 10
4700.4225939999997
 20
8479.6592860000001
 30
0.0
 11
4700.4225939999997
 21
7459.6592860000001
 31
0.0
  0
INSERT
  5
7E0F
  8
3
  6
CONTINUOUS
 62
     0
  2
_OPEN
 10
4700.4225939999997
 20
8559.6592860000001
 30
0.0
 41
80.0
 42
80.0
 43
80.0
 50
90.0
  0
INSERT
  5
7E10
  8
3
  6
CONTINUOUS
 62
     0
  2
_OPEN
 10
4700.4225939999997
 20
7379.6592860000001
 30
0.0
 41
80.0
 42
80.0
 43
80.0
 50
270.0
  0
TEXT
  8
3
  40
120
  5
7E35
  62
0
  72
0
  71
0
 10
4360.42
 20
7764.38
 30
0.000000
  1
1180
  0
POINT
  5
7E12
  8
DEFPOINTS
  6
CONTINUOUS
 62
     0
 10
4315.5086329999986
 20
8559.6592860000001
 30
0.0
  0
POINT
  5
7E13
  8
DEFPOINTS
  6
CONTINUOUS
 62
     0
 10
4315.5086329999986
 20
7379.6592860000001
 30
0.0
  0
POINT
  5
7E14
  8
DEFPOINTS
  6
CONTINUOUS
 62
     0
 10
4700.4225939999997
 20
7379.6592860000001
 30
0.0
  0
ENDBLK
  5
7C88
  8
0
  0
BLOCK
  8
0
  2
*D17
 70
     1
 10
0.0
 20
0.0
 30
0.0
  3
*D17
  1

  0
LINE
  5
7E15
  8
3
  6
CONTINUOUS
 62
     0
 10
1810.508632999999
 20
4205.9092810000002
 30
0.0
 11
1810.508632999999
 21
5386.7390070000001
 31
0.0
  0
LINE
  5
7E16
  8
3
  6
CONTINUOUS
 62
     0
 10
2535.5086329999999
 20
5346.7390070000001
 30
0.0
 11
1890.508632999999
 21
5346.7390070000001
 31
0.0
  0
INSERT
  5
7E17
  8
3
  6
CONTINUOUS
 62
     0
  2
_OPEN
 10
2615.5086329999999
 20
5346.7390070000001
 30
0.0
 41
80.0
 42
80.0
 43
80.0
  0
INSERT
  5
7E18
  8
3
  6
CONTINUOUS
 62
     0
  2
_OPEN
 10
1810.508632999999
 20
5346.7390070000001
 30
0.0
 41
80.0
 42
80.0
 43
80.0
 50
180.0
  0
TEXT
  8
3
  40
120
  5
7E36
  62
0
  72
0
  71
0
 10
1973.01
 20
5234.34
 30
0.000000
  1
805
  0
POINT
  5
7E1A
  8
DEFPOINTS
  6
CONTINUOUS
 62
     0
 10
2615.5086329999999
 20
5132.3163270000014
 30
0.0
  0
POINT
  5
7E1B
  8
DEFPOINTS
  6
CONTINUOUS
 62
     0
 10
1810.508632999999
 20
4185.9092809999993
 30
0.0
  0
POINT
  5
7E1C
  8
DEFPOINTS
  6
CONTINUOUS
 62
     0
 10
1810.508632999999
 20
5346.7390070000001
 30
0.0
  0
ENDBLK
  5
7D35
  8
0
  0
BLOCK
  8
0
  2
*D18
 70
     1
 10
0.0
 20
0.0
 30
0.0
  3
*D18
  1

  0
LINE
  5
7E1D
  8
3
 62
     0
 10
1810.508632999999
 20
4225.9092810000002
 30
0.0
 11
1810.508632999999
 21
5612.1177727101631
 31
0.0
  0
LINE
  5
7E1E
  8
3
 62
     0
 10
4315.5086329999986
 20
3320.9092810000002
 30
0.0
 11
4315.5086329999986
 21
5612.1177727101631
 31
0.0
  0
LINE
  5
7E1F
  8
3
 62
     0
 10
1890.508632999999
 20
5572.117772710164
 30
0.0
 11
4235.5086330000004
 21
5572.117772710164
 31
0.0
  0
INSERT
  5
7E20
  8
3
 62
     0
  2
_OPEN
 10
1810.508632999999
 20
5572.117772710164
 30
0.0
 41
80.0
 42
80.0
 43
80.0
 50
180.0
  0
INSERT
  5
7E21
  8
3
 62
     0
  2
_OPEN
 10
4315.5086329999986
 20
5572.117772710164
 30
0.0
 41
80.0
 42
80.0
 43
80.0
  0
TEXT
  8
3
  40
120
  5
7E37
  62
0
  72
0
  71
0
 10
2747.91
 20
5459.72
 30
0.000000
  1
2505
  0
POINT
  5
7E23
  8
DEFPOINTS
 62
     0
 10
1810.508632999999
 20
4205.9092810000002
 30
0.0
  0
POINT
  5
7E24
  8
DEFPOINTS
 62
     0
 10
4315.5086329999986
 20
3300.9092810000002
 30
0.0
  0
POINT
  5
7E25
  8
DEFPOINTS
 62
     0
 10
4315.5086329999986
 20
5572.117772710164
 30
0.0
  0
ENDBLK
  5
7D41
  8
0
  0
ENDSEC
  0
SECTION
  2
ENTITIES
  0
LINE
  5
7ABA
  8
1
  6
CONTINUOUS
 10
1955.508632999999
 20
3156.9092809999988
 30
0.0
 11
4315.5086329999986
 21
3156.9092809999988
 31
0.0
  0
LINE
  5
7ABB
  8
1
  6
CONTINUOUS
 10
1955.508632999999
 20
3091.9092809999988
 30
0.0
 11
4315.5086329999986
 21
3091.9092809999988
 31
0.0
  0
LINE
  5
7ABC
  8
1
  6
CONTINUOUS
 10
3870.5086329999999
 20
7396.659286000001
 30
0.0
 11
4110.5086330000004
 21
7396.659286000001
 31
0.0
  0
LINE
  5
7ABD
  8
1
  6
CONTINUOUS
 10
3870.5086329999999
 20
7496.6592860000001
 30
0.0
 11
4110.5086330000004
 21
7496.6592860000001
 31
0.0
  0
LINE
  5
7ABE
  8
1
  6
CONTINUOUS
 10
4210.5086329999986
 20
7566.659286000001
 30
0.0
 11
2237.5086329999999
 21
7566.659286000001
 31
0.0
  0
LINE
  5
7ABF
  8
1
  6
CONTINUOUS
 10
4210.5086329999986
 20
7326.6592860000001
 30
0.0
 11
2237.5086329999999
 21
7326.6592860000001
 31
0.0
  0
LINE
  5
7AC0
  8
1
  6
CONTINUOUS
 10
4315.5086329999986
 20
7379.6592860000001
 30
0.0
 11
1955.508632999999
 21
7379.6592860000001
 31
0.0
  0
LINE
  5
7AC1
  8
1
  6
CONTINUOUS
 10
4315.5086329999986
 20
8559.6592860000001
 30
0.0
 11
3175.5086329999999
 21
8559.6592860000001
 31
0.0
  0
LINE
  5
7AC2
  8
2
  6
CENTER
 10
4110.5086330000004
 20
3535.9092810000002
 30
0.0
 11
3870.5086329999999
 21
3535.9092810000002
 31
0.0
  0
CIRCLE
  5
7AC3
  8
1
  6
CONTINUOUS
 10
3990.5086329999999
 20
3535.9092810000002
 30
0.0
 40
120.0
  0
LINE
  5
7AC4
  8
1
  6
CONTINUOUS
 10
4215.5086329999986
 20
3300.9092810000002
 30
0.0
 11
3765.5086329999999
 21
3300.9092810000002
 31
0.0
  0
ARC
  5
7AC5
  8
1
  6
CONTINUOUS
 10
2697.508632999999
 20
4267.9092810000002
 30
0.0
 40
1054.2
 50
270.0
 51
355.5
  0
LINE
  5
7AC6
  8
1
  6
CONTINUOUS
 10
1955.508632999999
 20
3175.9092810000002
 30
0.0
 11
4315.5086329999986
 21
3175.9092810000002
 31
0.0
  0
LINE
  5
7AC7
  8
1
  6
CONTINUOUS
 10
1955.508632999999
 20
3300.9092810000002
 30
0.0
 11
4315.5086329999986
 21
3300.9092810000002
 31
0.0
  0
ARC
  5
7AC8
  8
1
  6
CONTINUOUS
 10
3990.5086329999999
 20
3535.9092810000002
 30
0.0
 40
199.0
 50
320.10000000000002
 51
219.90000000000001
  0
LINE
  5
7AC9
  8
1
  6
CONTINUOUS
 10
4189.6086329999989
 20
8214.8592860000008
 30
0.0
 11
3813.5086329999999
 21
8214.8592860000008
 31
0.0
  0
LINE
  5
7ACA
  8
1
  6
CONTINUOUS
 10
4189.6086329999989
 20
7615.3592859999999
 30
0.0
 11
3791.408633
 21
7615.3592859999999
 31
0.0
  0
LINE
  5
7ACB
  8
1
  6
CONTINUOUS
 10
4215.5086329999986
 20
3355.9092810000002
 30
0.0
 11
3765.5086329999999
 21
3355.9092810000002
 31
0.0
  0
LINE
  5
7ACC
  8
1
  6
CONTINUOUS
 10
4052.8086330000001
 20
3638.5092810000001
 30
0.0
 11
2759.8086330000001
 21
4423.5092809999996
 31
0.0
  0
LINE
  5
7ACD
  8
1
  6
CONTINUOUS
 10
4104.7086330000002
 20
3724.0092810000001
 30
0.0
 11
2811.7086330000002
 21
4509.0092809999996
 31
0.0
  0
LINE
  5
7ACE
  8
1
  6
CONTINUOUS
 10
3950.8086329999992
 20
3422.7092809999999
 30
0.0
 11
2523.408633
 21
3923.609281
 31
0.0
  0
LINE
  5
7ACF
  8
1
  6
CONTINUOUS
 10
3917.6086329999998
 20
3328.3092809999998
 30
0.0
 11
2490.3086329999992
 21
3829.2092809999999
 31
0.0
  0
LINE
  5
7AD0
  8
2
  6
CENTER
 10
1607.2146299999999
 20
4185.9092809999993
 30
0.0
 11
4048.8612950000002
 21
4185.9092809999993
 31
0.0
  0
ARC
  5
7AD1
  8
1
  6
CONTINUOUS
 10
2615.5086329999999
 20
4185.9092809999993
 30
0.0
 40
378.0
 50
58.700000000000003
 51
250.69999999999999
  0
LINE
  5
7AD2
  8
1
  6
CONTINUOUS
 10
2610.5086329999999
 20
4945.9092810000002
 30
0.0
 11
3866.5086329999999
 21
4945.9092810000002
 31
0.0
  0
LINE
  5
7AD3
  8
1
  6
CONTINUOUS
 10
2663.5086329999999
 20
4905.9092810000002
 30
0.0
 11
3810.1086329999998
 21
4905.9092810000002
 31
0.0
  0
CIRCLE
  5
7AD4
  8
1
  6
CONTINUOUS
 10
2615.5086329999999
 20
4185.9092809999993
 30
0.0
 40
560.0
  0
CIRCLE
  5
7AD5
  8
1
  6
CONTINUOUS
 10
2615.5086329999999
 20
4185.9092809999993
 30
0.0
 40
610.0
  0
CIRCLE
  5
7AD6
  8
1
  6
CONTINUOUS
 10
2615.5086329999999
 20
4185.9092809999993
 30
0.0
 40
278.0
  0
LINE
  5
7AD7
  8
2
  6
CENTER
 10
2615.5086329999999
 20
2961.2874619999998
 30
0.0
 11
2615.5086329999999
 21
5132.3163270000014
 31
0.0
  0
ARC
  5
7AD8
  8
1
  6
CONTINUOUS
 10
2547.0086329999999
 20
4117.4092810000002
 30
0.0
 40
739.10000000000002
 50
90.0
 51
174.90000000000001
  0
ARC
  5
7AD9
  8
1
  6
CONTINUOUS
 10
2697.508632999999
 20
4103.9092809999993
 30
0.0
 40
890.20000000000005
 50
174.90000000000001
 51
270.0
  0
LINE
  5
7ADA
  8
1
  6
CONTINUOUS
 10
1955.508632999999
 20
3156.9092809999988
 30
0.0
 11
1955.508632999999
 21
3091.9092809999988
 31
0.0
  0
LINE
  5
7ADB
  8
1
  6
CONTINUOUS
 10
1955.508632999999
 20
3300.9092810000002
 30
0.0
 11
1955.508632999999
 21
3175.9092810000002
 31
0.0
  0
LINE
  5
7ADC
  8
1
  6
CONTINUOUS
 10
2663.5086329999999
 20
4845.109281
 30
0.0
 11
2663.5086329999999
 21
4945.9092810000002
 31
0.0
  0
ARC
  5
7ADD
  8
1
  6
CONTINUOUS
 10
2547.0086329999999
 20
4254.4092810000002
 30
0.0
 40
602.10000000000002
 50
78.799999999999983
 51
90.0
  0
LINE
  5
7ADE
  8
1
  6
CONTINUOUS
 10
3813.5086329999999
 20
4945.9092810000002
 30
0.0
 11
3748.5086329999999
 21
4185.9092809999993
 31
0.0
  0
LINE
  5
7ADF
  8
1
  6
CONTINUOUS
 10
3765.5086329999999
 20
3300.9092810000002
 30
0.0
 11
3765.5086329999999
 21
3355.9092810000002
 31
0.0
  0
LINE
  5
7AE0
  8
1
  6
CONTINUOUS
 10
3828.5086329999999
 20
3398.4092810000002
 30
0.0
 11
3837.8086329999992
 21
3408.3092809999998
 31
0.0
  0
LINE
  5
7AE1
  8
1
  6
CONTINUOUS
 10
3828.5086329999999
 20
3355.9092810000002
 30
0.0
 11
3828.5086329999999
 21
3398.4092810000002
 31
0.0
  0
LINE
  5
7AE2
  8
1
  6
CONTINUOUS
 10
2337.5086329999999
 20
7496.6592860000001
 30
0.0
 11
2893.5086329999999
 21
7496.6592860000001
 31
0.0
  0
LINE
  5
7AE3
  8
1
  6
CONTINUOUS
 10
2337.5086329999999
 20
7396.659286000001
 30
0.0
 11
2893.5086329999999
 21
7396.659286000001
 31
0.0
  0
LINE
  5
7AE4
  8
1
  6
CONTINUOUS
 10
3225.5086329999999
 20
8594.6592860000001
 30
0.0
 11
2005.508632999999
 21
8594.6592860000001
 31
0.0
  0
LINE
  5
7AE5
  8
1
  6
CONTINUOUS
 10
3813.5086329999999
 20
7641.659286000001
 30
0.0
 11
1807.308632999999
 21
7641.659286000001
 31
0.0
  0
LINE
  5
7AE6
  8
1
  6
CONTINUOUS
 10
3813.5086329999999
 20
8491.6592860000001
 30
0.0
 11
1807.308632999999
 21
8491.6592860000001
 31
0.0
  0
LINE
  5
7AE7
  8
1
  6
CONTINUOUS
 10
3813.5086329999999
 20
8491.6592860000001
 30
0.0
 11
2663.5086329999999
 21
7641.659286000001
 31
0.0
  0
LINE
  5
7AE8
  8
1
  6
CONTINUOUS
 10
3813.5086329999999
 20
7641.659286000001
 30
0.0
 11
2663.5086329999999
 21
8491.6592860000001
 31
0.0
  0
LINE
  5
7AE9
  8
1
  6
CONTINUOUS
 10
1807.308632999999
 20
7641.659286000001
 30
0.0
 11
1807.308632999999
 21
8491.6592860000001
 31
0.0
  0
LINE
  5
7AEA
  8
1
  6
CONTINUOUS
 10
2663.5086329999999
 20
7641.659286000001
 30
0.0
 11
2663.5086329999999
 21
8491.6592860000001
 31
0.0
  0
LINE
  5
7AEB
  8
1
  6
CONTINUOUS
 10
1955.508632999999
 20
7641.659286000001
 30
0.0
 11
1955.508632999999
 21
7379.6592860000001
 31
0.0
  0
LINE
  5
7AEC
  8
1
  6
CONTINUOUS
 10
2237.5086329999999
 20
7326.6592860000001
 30
0.0
 11
2237.5086329999999
 21
7566.659286000001
 31
0.0
  0
LINE
  5
7AED
  8
1
  6
CONTINUOUS
 10
2337.5086329999999
 20
7396.659286000001
 30
0.0
 11
2337.5086329999999
 21
7496.6592860000001
 31
0.0
  0
LINE
  5
7AEE
  8
1
  6
CONTINUOUS
 10
2643.008632999999
 20
7641.659286000001
 30
0.0
 11
2643.008632999999
 21
7496.6592860000001
 31
0.0
  0
LINE
  5
7AEF
  8
1
  6
CONTINUOUS
 10
2588.0086329999999
 20
7641.659286000001
 30
0.0
 11
2588.0086329999999
 21
7496.6592860000001
 31
0.0
  0
LINE
  5
7AF0
  8
1
  6
CONTINUOUS
 10
2055.5086329999999
 20
8594.6592860000001
 30
0.0
 11
2055.5086329999999
 21
8491.6592860000001
 31
0.0
  0
LINE
  5
7AF1
  8
1
  6
CONTINUOUS
 10
1955.508632999999
 20
8559.6592860000001
 30
0.0
 11
1955.508632999999
 21
8491.6592860000001
 31
0.0
  0
LINE
  5
7AF2
  8
1
  6
CONTINUOUS
 10
2055.5086329999999
 20
8559.6592860000001
 30
0.0
 11
1955.508632999999
 21
8559.6592860000001
 31
0.0
  0
LINE
  5
7AF3
  8
1
  6
CONTINUOUS
 10
3813.5086329999999
 20
7641.659286000001
 30
0.0
 11
3813.5086329999999
 21
8491.6592860000001
 31
0.0
  0
LINE
  5
7AF4
  8
1
  6
CONTINUOUS
 10
2893.5086329999999
 20
7396.659286000001
 30
0.0
 11
2893.5086329999999
 21
7496.6592860000001
 31
0.0
  0
LINE
  5
7AF5
  8
1
  6
CONTINUOUS
 10
3870.5086329999999
 20
7396.659286000001
 30
0.0
 11
3870.5086329999999
 21
7496.6592860000001
 31
0.0
  0
LINE
  5
7AF6
  8
1
  6
CONTINUOUS
 10
3791.408633
 20
7615.3592859999999
 30
0.0
 11
3791.408633
 21
7641.659286000001
 31
0.0
  0
LINE
  5
7AF7
  8
1
  6
CONTINUOUS
 10
3175.5086329999999
 20
8594.6592860000001
 30
0.0
 11
3175.5086329999999
 21
8491.6592860000001
 31
0.0
  0
LINE
  5
7AF8
  8
1
  6
CONTINUOUS
 10
6816.6449299999986
 20
3300.9092810000002
 30
0.0
 11
5636.6449300000004
 21
3300.9092810000002
 31
0.0
  0
LINE
  5
7AF9
  8
1
  6
CONTINUOUS
 10
6816.6449299999986
 20
3175.9092810000002
 30
0.0
 11
5636.6449300000004
 21
3175.9092810000002
 31
0.0
  0
LINE
  5
7AFA
  8
1
  6
CONTINUOUS
 10
5583.6449300000004
 20
4563.9092809999993
 30
0.0
 11
5823.6449300000004
 21
4563.9092809999993
 31
0.0
  0
LINE
  5
7AFB
  8
1
  6
CONTINUOUS
 10
5583.6449300000004
 20
3315.9092809999988
 30
0.0
 11
5823.6449300000004
 21
3315.9092809999988
 31
0.0
  0
LINE
  5
7AFC
  8
1
  6
CONTINUOUS
 10
5753.6449300000004
 20
3563.4092810000002
 30
0.0
 11
5898.6449299999986
 21
3563.4092810000002
 31
0.0
  0
LINE
  5
7AFD
  8
1
  6
CONTINUOUS
 10
5753.6449300000004
 20
3508.4092810000002
 30
0.0
 11
5898.6449299999986
 21
3508.4092810000002
 31
0.0
  0
LINE
  5
7AFE
  8
1
  6
CONTINUOUS
 10
5753.6449300000004
 20
4213.4092810000002
 30
0.0
 11
5898.6449299999986
 21
4213.4092810000002
 31
0.0
  0
LINE
  5
7AFF
  8
1
  6
CONTINUOUS
 10
5753.6449300000004
 20
4158.4092809999993
 30
0.0
 11
5898.6449299999986
 21
4158.4092809999993
 31
0.0
  0
LINE
  5
7B00
  8
1
  6
CONTINUOUS
 10
6816.6449299999986
 20
3091.9092809999988
 30
0.0
 11
5636.6449300000004
 21
3091.9092809999988
 31
0.0
  0
LINE
  5
7B01
  8
1
  6
CONTINUOUS
 10
6816.6449299999986
 20
3156.9092809999988
 30
0.0
 11
5636.6449300000004
 21
3156.9092809999988
 31
0.0
  0
LINE
  5
7B0F
  8
2
  6
CENTER
 10
3990.5086329999999
 20
3415.9092810000002
 30
0.0
 11
3990.5086329999999
 21
3655.9092810000002
 31
0.0
  0
ARC
  5
7B10
  8
1
  6
CONTINUOUS
 10
3990.5086329999999
 20
3535.9092810000002
 30
0.0
 40
220.0
 50
250.69999999999999
 51
58.700000000000003
  0
LINE
  5
7B11
  8
1
  6
CONTINUOUS
 10
4215.5086329999986
 20
3300.9092810000002
 30
0.0
 11
4215.5086329999986
 21
3355.9092810000002
 31
0.0
  0
LINE
  5
7B12
  8
1
  6
CONTINUOUS
 10
4152.5086329999986
 20
3398.4092810000002
 30
0.0
 11
4143.2086330000002
 21
3408.3092809999998
 31
0.0
  0
LINE
  5
7B13
  8
1
  6
CONTINUOUS
 10
4152.5086329999986
 20
3355.9092810000002
 30
0.0
 11
4152.5086329999986
 21
3398.4092810000002
 31
0.0
  0
LINE
  5
7B14
  8
1
  6
CONTINUOUS
 10
4315.5086329999986
 20
3156.9092809999988
 30
0.0
 11
4315.5086329999986
 21
3091.9092809999988
 31
0.0
  0
LINE
  5
7B15
  8
1
  6
CONTINUOUS
 10
4315.5086329999986
 20
3300.9092810000002
 30
0.0
 11
4315.5086329999986
 21
3175.9092810000002
 31
0.0
  0
LINE
  5
7B31
  8
1
  6
CONTINUOUS
 10
5583.6449300000004
 20
3315.9092809999988
 30
0.0
 11
5583.6449300000004
 21
4563.9092809999993
 31
0.0
  0
LINE
  5
7B32
  8
1
  6
CONTINUOUS
 10
5653.6449299999986
 20
4463.9092810000002
 30
0.0
 11
5653.6449299999986
 21
3907.9092810000002
 31
0.0
  0
LINE
  5
7B33
  8
1
  6
CONTINUOUS
 10
5753.6449300000004
 20
4463.9092810000002
 30
0.0
 11
5753.6449300000004
 21
3907.9092810000002
 31
0.0
  0
LINE
  5
7B34
  8
1
  6
CONTINUOUS
 10
5653.6449299999986
 20
3655.9092810000002
 30
0.0
 11
5653.6449299999986
 21
3415.9092810000002
 31
0.0
  0
LINE
  5
7B35
  8
1
  6
CONTINUOUS
 10
5753.6449300000004
 20
3655.9092810000002
 30
0.0
 11
5753.6449300000004
 21
3415.9092810000002
 31
0.0
  0
LINE
  5
7B38
  8
1
  6
CONTINUOUS
 10
5636.6449300000004
 20
3175.9092810000002
 30
0.0
 11
5636.6449300000004
 21
3300.9092810000002
 31
0.0
  0
LINE
  5
7B39
  8
1
  6
CONTINUOUS
 10
5653.6449299999986
 20
3415.9092810000002
 30
0.0
 11
5753.6449300000004
 21
3415.9092810000002
 31
0.0
  0
LINE
  5
7B3A
  8
1
  6
CONTINUOUS
 10
5636.6449300000004
 20
3091.9092809999988
 30
0.0
 11
5636.6449300000004
 21
3156.9092809999988
 31
0.0
  0
LINE
  5
7B3B
  8
1
  6
CONTINUOUS
 10
5653.6449299999986
 20
3655.9092810000002
 30
0.0
 11
5753.6449300000004
 21
3655.9092810000002
 31
0.0
  0
LINE
  5
7B3C
  8
1
  6
CONTINUOUS
 10
5653.6449299999986
 20
3907.9092810000002
 30
0.0
 11
5753.6449300000004
 21
3907.9092810000002
 31
0.0
  0
LINE
  5
7B3D
  8
1
  6
CONTINUOUS
 10
5653.6449299999986
 20
4463.9092810000002
 30
0.0
 11
5753.6449300000004
 21
4463.9092810000002
 31
0.0
  0
LINE
  5
7B48
  8
1
  6
CONTINUOUS
 10
4315.5086329999986
 20
8559.6592860000001
 30
0.0
 11
4315.5086329999986
 21
7379.6592860000001
 31
0.0
  0
LINE
  5
7B49
  8
1
  6
CONTINUOUS
 10
4210.5086329999986
 20
7326.6592860000001
 30
0.0
 11
4210.5086329999986
 21
7566.659286000001
 31
0.0
  0
LINE
  5
7B4A
  8
1
  6
CONTINUOUS
 10
4110.5086330000004
 20
7396.659286000001
 30
0.0
 11
4110.5086330000004
 21
7496.6592860000001
 31
0.0
  0
LINE
  5
7B4B
  8
1
  6
CONTINUOUS
 10
3963.008632999999
 20
7496.6592860000001
 30
0.0
 11
3963.008632999999
 21
7615.3592859999999
 31
0.0
  0
LINE
  5
7B4C
  8
1
  6
CONTINUOUS
 10
4018.008632999999
 20
7496.6592860000001
 30
0.0
 11
4018.008632999999
 21
7615.3592859999999
 31
0.0
  0
LINE
  5
7B4D
  8
1
  6
CONTINUOUS
 10
4189.6086329999989
 20
7615.3592859999999
 30
0.0
 11
4189.6086329999989
 21
8214.8592860000008
 31
0.0
  0
LINE
  5
7B68
  8
1
  6
CONTINUOUS
 10
5898.6449299999986
 20
3300.9092810000002
 30
0.0
 11
5898.6449299999986
 21
4945.9092810000002
 31
0.0
  0
LINE
  5
7B69
  8
1
  6
CONTINUOUS
 10
6748.6449299999986
 20
3300.9092810000002
 30
0.0
 11
6748.6449299999986
 21
4945.9092810000002
 31
0.0
  0
LINE
  5
7B6A
  8
1
  6
CONTINUOUS
 10
6851.6449299999986
 20
3575.9092810000002
 30
0.0
 11
6851.6449299999986
 21
4795.9092810000002
 31
0.0
  0
LINE
  5
7B6B
  8
1
  6
CONTINUOUS
 10
5823.6449300000004
 20
3315.9092809999988
 30
0.0
 11
5823.6449300000004
 21
4563.9092809999993
 31
0.0
  0
LINE
  5
7B6C
  8
1
  6
CONTINUOUS
 10
6816.6449299999986
 20
3175.9092810000002
 30
0.0
 11
6816.6449299999986
 21
3300.9092810000002
 31
0.0
  0
LINE
  5
7B6D
  8
1
  6
CONTINUOUS
 10
6816.6449299999986
 20
3091.9092809999988
 30
0.0
 11
6816.6449299999986
 21
3156.9092809999988
 31
0.0
  0
LINE
  5
7B6E
  8
1
  6
CONTINUOUS
 10
6748.6449299999986
 20
3625.9092810000002
 30
0.0
 11
6851.6449299999986
 21
3625.9092810000002
 31
0.0
  0
LINE
  5
7B6F
  8
1
  6
CONTINUOUS
 10
6798.6449299999986
 20
4945.9092810000002
 30
0.0
 11
5848.6449299999986
 21
4945.9092810000002
 31
0.0
  0
LINE
  5
7B70
  8
1
  6
CONTINUOUS
 10
6748.6449299999986
 20
4905.9092810000002
 30
0.0
 11
5898.6449299999986
 21
4905.9092810000002
 31
0.0
  0
LINE
  5
7B71
  8
1
  6
CONTINUOUS
 10
6748.6449299999986
 20
4745.9092810000002
 30
0.0
 11
6851.6449299999986
 21
4745.9092810000002
 31
0.0
  0
LINE
  5
7B72
  8
2
  6
CENTER
 10
1702.0652480000001
 20
8066.659286000001
 30
0.0
 11
4490.883538
 21
8066.659286000001
 31
0.0
  0
LINE
  5
7B73
  8
2
  6
CENTER
 10
6323.6449300000004
 20
5124.3469180000002
 30
0.0
 11
6323.6449300000004
 21
2904.9338720000001
 31
0.0
  0
LINE
  5
7B74
  8
2
  6
CENTER
 10
2615.5086329999999
 20
7137.9134989999993
 30
0.0
 11
2615.5086329999999
 21
8736.6525580000016
 31
0.0
  0
LINE
  5
7B75
  8
2
  6
CENTER
 10
5431.8739759999999
 20
4185.9092809999993
 30
0.0
 11
6943.7404699999997
 21
4185.9092809999993
 31
0.0
  0
LINE
  5
7B76
  8
4
  6
CONTINUOUS
 10
7400.0
 20
2000.0
 30
0.0
 11
7400.0
 21
1200.0
 31
0.0
  0
LINE
  5
7B77
  8
4
  6
CONTINUOUS
 10
4600.0
 20
2000.0
 30
0.0
 11
4600.0
 21
1200.0
 31
0.0
  0
LINE
  5
7B78
  8
4
  6
CONTINUOUS
 10
2600.0
 20
2000.0
 30
0.0
 11
2600.0
 21
1200.0
 31
0.0
  0
LINE
  5
7B7B
  8
4
  6
CONTINUOUS
 10
2600.0
 20
1200.0
 30
0.0
 11
7400.0
 21
1200.0
 31
0.0
  0
LINE
  5
7B7C
  8
4
  6
CONTINUOUS
 10
2600.0
 20
1600.0
 30
0.0
 11
7400.0
 21
1600.0
 31
0.0
  0
TEXT
  5
7B7D
  8
4
  6
CONTINUOUS
 10
2754.008323
 20
1726.1721030000001
 30
0.0
 40
200.0
  1
機器名称
  0
TEXT
  5
7B7E
  8
4
  6
CONTINUOUS
 10
2745.032424
 20
1286.580627
 30
0.0
 40
200.0
  1
機器型番
  0
TEXT
  5
7B7F
  8
4
  6
CONTINUOUS
 10
4710.7149820000004
 20
1690.2870760000001
 30
0.0
 40
200.0
  1
ミツヤ多翼送風機
  0
TEXT
  5
7B80
  8
4
  6
CONTINUOUS
 10
4746.6179819999998
 20
1268.6383370000001
 30
0.0
 40
200.0
  1
MF#7-4
  0
TEXT
  5
7B82
  8
4
  6
CONTINUOUS
 10
3062.089543999999
 20
9533.715365
 30
0.0
 40
216.0
  1
床置防振ベット
  0
TEXT
  5
7B83
  8
4
  6
CONTINUOUS
 10
1264.6703729999999
 20
10135.523905
 30
0.0
 40
288.0
  1
ベルト駆動式片吸込両持多翼ファン
  0
LINE
  5
7B84
  8
4
  6
CONTINUOUS
 10
1000.0
 20
9877.6350170000005
 30
0.0
 11
7400.0
 21
9877.6350170000005
 31
0.0
  0
LINE
  5
7B85
  8
4
  6
CONTINUOUS
 10
1000.0
 20
10677.635017000001
 30
0.0
 11
7400.0
 21
10677.635017000001
 31
0.0
  0
LINE
  5
7B86
  8
4
  6
CONTINUOUS
 10
2600.0
 20
2000.0
 30
0.0
 11
7400.0
 21
2000.0
 31
0.0
  0
LINE
  5
7B87
  8
4
  6
CONTINUOUS
 10
1000.0
 20
10677.635017000001
 30
0.0
 11
1000.0
 21
9877.6350170000005
 31
0.0
  0
TEXT
  5
7B88
  8
4
  6
CONTINUOUS
 10
1318.654215
 20
9529.2779099999989
 30
0.0
 40
216.0
  1
左回転上向
  0
TEXT
  5
7B89
  8
4
  6
CONTINUOUS
 10
5875.8782369999999
 20
10824.244326
 30
0.0
 40
224.0
  1
No.
  0
TEXT
  5
7B8A
  8
4
  6
CONTINUOUS
 10
5245.1842500000012
 20
9533.715365
 30
0.0
 40
216.0
  1
縮尺：1/40
  0
LINE
  5
7B8B
  8
4
  6
CONTINUOUS
 10
7400.0
 20
10677.635017000001
 30
0.0
 11
7400.0
 21
9877.6350170000005
 31
0.0
  0
LINE
  5
7B8D
  8
4
  6
CONTINUOUS
 10
5762.4696889999996
 20
10725.054333
 30
0.0
 11
5762.4696889999996
 21
11146.609046
 31
0.0
  0
LINE
  5
7B8E
  8
4
  6
CONTINUOUS
 10
5762.4696889999996
 20
11146.609046
 30
0.0
 11
7400.0
 21
11146.609046
 31
0.0
  0
LINE
  5
7B8F
  8
4
  6
CONTINUOUS
 10
7400.0
 20
11146.609046
 30
0.0
 11
7400.0
 21
10725.054333
 31
0.0
  0
LINE
  5
7B90
  8
4
  6
CONTINUOUS
 10
7400.0
 20
10725.054333
 30
0.0
 11
5762.4696889999996
 21
10725.054333
 31
0.0
  0
DIMENSION
  5
7BA8
  8
3
  6
CONTINUOUS
  2
*D1
 10
2663.5086329999999
 20
5084.0497109999997
 30
0.0
 11
3195.8494919999998
 21
5084.0497109999997
 31
0.0
 70
   128
 13
3813.5086329999999
 23
4945.9092810000002
 33
0.0
 14
2663.5086329999999
 24
4945.9092810000002
 34
0.0
1001
ACAD
1000
DSTYLE
1002
{
1070
   287
1070
     3
1070
    40
1040
40.0
1070
   143
1040
0.039
1070
   172
1070
     1
1070
   271
1070
     0
1070
   279
1070
     0
1070
   288
1070
     1
1002
}
  0
DIMENSION
  5
7BB5
  8
3
  6
CONTINUOUS
  2
*D2
 10
2615.5086329999999
 20
5346.7390070000001
 30
0.0
 11
3204.9131769999999
 21
5346.7390070000001
 31
0.0
 70
   128
 13
3813.5086329999999
 23
4945.9092810000002
 33
0.0
 14
2615.5086329999999
 24
5132.3163270000014
 34
0.0
1001
ACAD
1000
DSTYLE
1002
{
1070
   287
1070
     3
1070
    40
1040
40.0
1070
   143
1040
0.039
1070
   172
1070
     1
1070
   271
1070
     0
1070
   279
1070
     0
1070
   288
1070
     1
1002
}
  0
DIMENSION
  5
7BCE
  8
3
  6
CONTINUOUS
  2
*D3
 10
1546.257286
 20
4185.9092809999993
 30
0.0
 11
1546.257286
 21
4567.7293989999998
 31
0.0
 70
   128
 13
2610.5086329999999
 23
4945.9092810000002
 33
0.0
 14
1607.2146299999999
 24
4185.9092809999993
 34
0.0
 50
90.0
1001
ACAD
1000
DSTYLE
1002
{
1070
   287
1070
     3
1070
    40
1040
40.0
1070
   143
1040
0.039
1070
   172
1070
     1
1070
   271
1070
     0
1070
   279
1070
     0
1070
   288
1070
     1
1002
}
  0
DIMENSION
  5
7BDB
  8
3
  6
CONTINUOUS
  2
*D4
 10
1546.257286
 20
3175.9092810000002
 30
0.0
 11
1446.2572859999991
 21
3680.9092810000002
 31
0.0
 70
     0
 13
1607.2146299999999
 23
4185.9092809999993
 33
0.0
 14
1955.508632999999
 24
3175.9092810000002
 34
0.0
 50
90.0
1001
ACAD
1000
DSTYLE
1002
{
1070
   287
1070
     4
1070
    40
1040
40.0
1070
    75
1070
     1
1070
   143
1040
0.039
1070
   172
1070
     1
1070
   271
1070
     0
1070
   279
1070
     1
1070
   288
1070
     1
1002
}
  0
DIMENSION
  5
7BEB
  8
3
  6
CONTINUOUS
  2
*D5
 10
1546.257286
 20
3091.9092809999988
 30
0.0
 11
1546.2572859999991
 21
2791.9092810000002
 31
0.0
 70
   128
 13
1955.508632999999
 23
3175.9092810000002
 33
0.0
 14
1955.508632999999
 24
3091.9092809999988
 34
0.0
 50
90.0
1001
ACAD
1000
DSTYLE
1002
{
1070
   287
1070
     3
1070
    40
1040
40.0
1070
   143
1040
0.039
1070
   172
1070
     1
1070
   271
1070
     0
1070
   279
1070
     0
1070
   288
1070
     1
1002
}
  0
DIMENSION
  5
7C06
  8
3
  6
CONTINUOUS
  2
*D6
 10
1294.787135
 20
3091.9092809999988
 30
0.0
 11
1294.7871349999989
 21
4060.4673049999992
 31
0.0
 70
   128
 13
2590.5086329999999
 23
4945.9092810000002
 33
0.0
 14
1955.508632999999
 24
3091.9092809999988
 34
0.0
 50
90.0
1001
ACAD
1000
DSTYLE
1002
{
1070
   287
1070
     3
1070
    40
1040
40.0
1070
   143
1040
0.039
1070
   172
1070
     1
1070
   271
1070
     0
1070
   279
1070
     0
1070
   288
1070
     1
1002
}
  0
DIMENSION
  5
7C13
  8
3
  6
CONTINUOUS
  2
*D7
 10
2615.5086329999999
 20
2801.370379
 30
0.0
 11
2298.5438610000001
 21
2801.370379
 31
0.0
 70
   128
 13
1955.508632999999
 23
3091.9092809999988
 33
0.0
 14
2615.5086329999999
 24
2961.2874619999998
 34
0.0
1001
ACAD
1000
DSTYLE
1002
{
1070
   287
1070
     3
1070
    40
1040
40.0
1070
   143
1040
0.039
1070
   172
1070
     1
1070
   271
1070
     0
1070
   279
1070
     0
1070
   288
1070
     1
1002
}
  0
DIMENSION
  5
7C1F
  8
3
  6
CONTINUOUS
  2
*D8
 10
4315.5086329999986
 20
2801.370379
 30
0.0
 11
3465.508632999999
 21
2901.370379
 31
0.0
 70
     0
 13
2615.5086329999999
 23
2961.2874619999998
 33
0.0
 14
4315.5086329999986
 24
3091.9092809999988
 34
0.0
1001
ACAD
1000
DSTYLE
1002
{
1070
   287
1070
     4
1070
    40
1040
40.0
1070
    75
1070
     1
1070
   143
1040
0.039
1070
   172
1070
     1
1070
   271
1070
     0
1070
   279
1070
     1
1070
   288
1070
     1
1002
}
  0
DIMENSION
  5
7C2C
  8
3
  6
CONTINUOUS
  2
*D9
 10
5898.6449299999986
 20
5111.2244870000004
 30
0.0
 11
6327.4093140000004
 21
5111.2244870000004
 31
0.0
 70
   128
 13
6748.6449299999986
 23
4945.9092810000002
 33
0.0
 14
5898.6449299999986
 24
4945.9092810000002
 34
0.0
1001
ACAD
1000
DSTYLE
1002
{
1070
   287
1070
     3
1070
    40
1040
40.0
1070
   143
1040
0.039
1070
   172
1070
     1
1070
   271
1070
     0
1070
   279
1070
     0
1070
   288
1070
     1
1002
}
  0
DIMENSION
  5
7C39
  8
3
  6
CONTINUOUS
  2
*D10
 10
7188.4602050000003
 20
3625.9092810000002
 30
0.0
 11
7188.4602050000003
 21
4187.2828439999994
 31
0.0
 70
   128
 13
6851.6449299999986
 23
4745.9092810000002
 33
0.0
 14
6851.6449299999986
 24
3625.9092810000002
 34
0.0
 50
90.0
1001
ACAD
1000
DSTYLE
1002
{
1070
   287
1070
     3
1070
     3
1000
φ<>
1070
    40
1040
40.0
1070
   143
1040
0.039
1070
   172
1070
     1
1070
   271
1070
     0
1070
   279
1070
     0
1070
   288
1070
     1
1002
}
  0
DIMENSION
  5
7C48
  8
3
  6
CONTINUOUS
  2
*D11
 10
6323.6449300000004
 20
5373.9137520000004
 30
0.0
 11
6587.6449299999986
 21
5475.836169147613
 31
0.0
 70
   128
 13
6851.6449299999986
 23
4795.9092810000002
 33
0.0
 14
6323.6449300000004
 24
5303.6981249999999
 34
0.0
1001
ACAD
1000
DSTYLE
1002
{
1070
   288
1070
     1
1070
   172
1070
     1
1070
    40
1040
40.0
1070
   271
1070
     0
1070
   143
1040
0.039
1002
}
  0
DIMENSION
  5
7C54
  8
3
  6
CONTINUOUS
  2
*D12
 10
5583.6449300000004
 20
5373.9137520000004
 30
0.0
 11
5953.6449299999986
 21
5573.9137520000013
 31
0.0
 70
     0
  1
MAX\P850
 13
6323.6449300000004
 23
5303.6981249999999
 33
0.0
 14
5583.6449300000004
 24
4563.9092809999993
 34
0.0
1001
ACAD
1000
DSTYLE
1002
{
1070
   287
1070
     4
1070
    40
1040
40.0
1070
    75
1070
     1
1070
   143
1040
0.039
1070
   172
1070
     1
1070
   271
1070
     0
1070
   279
1070
     1
1070
   288
1070
     1
1002
}
  0
DIMENSION
  5
7C61
  8
3
  6
CONTINUOUS
  2
*D13
 10
6323.6449300000004
 20
2797.9691090000001
 30
0.0
 11
6001.1163659999993
 21
2797.9691090000001
 31
0.0
 70
   128
 13
5636.6449300000004
 23
3091.9092809999988
 33
0.0
 14
6323.6449300000004
 24
2904.9338720000001
 34
0.0
1001
ACAD
1000
DSTYLE
1002
{
1070
   287
1070
     3
1070
    40
1040
40.0
1070
   143
1040
0.039
1070
   172
1070
     1
1070
   271
1070
     0
1070
   279
1070
     0
1070
   288
1070
     1
1002
}
  0
DIMENSION
  5
7C6F
  8
3
  6
CONTINUOUS
  2
*D14
 10
6816.6449299999986
 20
2797.9691090000001
 30
0.0
 11
6581.427568000001
 21
2798.7644100000002
 31
0.0
 70
   128
 13
6323.6449300000004
 23
2904.9338720000001
 33
0.0
 14
6816.6449299999986
 24
3091.9092809999988
 34
0.0
1001
ACAD
1000
DSTYLE
1002
{
1070
   287
1070
     4
1070
    40
1040
40.0
1070
    75
1070
     1
1070
   143
1040
0.039
1070
   172
1070
     1
1070
   271
1070
     0
1070
   279
1070
     1
1070
   288
1070
     1
1002
}
  0
DIMENSION
  5
7C7C
  8
3
  6
CONTINUOUS
  2
*D15
 10
4315.5086329999986
 20
6980.3713370000014
 30
0.0
 11
2987.3845449999999
 21
6980.3713370000014
 31
0.0
 70
   128
 13
1955.508632999999
 23
7379.6592860000001
 33
0.0
 14
4315.5086329999986
 24
7379.6592860000001
 34
0.0
1001
ACAD
1000
DSTYLE
1002
{
1070
   287
1070
     3
1070
    40
1040
40.0
1070
   143
1040
0.039
1070
   172
1070
     1
1070
   271
1070
     0
1070
   279
1070
     0
1070
   288
1070
     1
1002
}
  0
DIMENSION
  5
7C89
  8
3
  6
CONTINUOUS
  2
*D16
 10
4700.4225939999997
 20
7379.6592860000001
 30
0.0
 11
4700.4225939999988
 21
7976.7789979999998
 31
0.0
 70
   128
 13
4315.5086329999986
 23
8559.6592860000001
 33
0.0
 14
4315.5086329999986
 24
7379.6592860000001
 34
0.0
 50
90.0
1001
ACAD
1000
DSTYLE
1002
{
1070
   287
1070
     3
1070
    40
1040
40.0
1070
   143
1040
0.039
1070
   172
1070
     1
1070
   271
1070
     0
1070
   279
1070
     0
1070
   288
1070
     1
1002
}
  0
DIMENSION
  5
7CF1
  8
3
  6
CONTINUOUS
  2
*D17
 10
1810.508632999999
 20
5346.7390070000001
 30
0.0
 11
2213.0086329999999
 21
5446.7390070000001
 31
0.0
 70
     0
 13
2615.5086329999999
 23
5132.3163270000014
 33
0.0
 14
1810.508632999999
 24
4185.9092809999993
 34
0.0
1001
ACAD
1000
DSTYLE
1002
{
1070
   287
1070
     4
1070
    40
1040
40.0
1070
    75
1070
     1
1070
   143
1040
0.039
1070
   172
1070
     1
1070
   271
1070
     0
1070
   279
1070
     1
1070
   288
1070
     1
1002
}
  0
DIMENSION
  5
7D42
  8
3
  2
*D18
 10
4315.5086329999986
 20
5572.117772710164
 30
0.0
 11
2987.9113407161271
 21
5572.117772710164
 31
0.0
 70
   128
 13
1810.508632999999
 23
4205.9092810000002
 33
0.0
 14
4315.5086329999986
 24
3300.9092810000002
 34
0.0
1001
ACAD
1000
DSTYLE
1002
{
1070
   287
1070
     3
1070
    40
1040
40.0
1070
   143
1040
0.039
1070
   172
1070
     1
1070
   271
1070
     0
1070
   279
1070
     0
1070
   288
1070
     1
1002
}
  0
ENDSEC
  0
EOF
