  0
SECTION
  2
HEADER
  9
$ACADVER
  1
AC1009
  9
$INSBASE
 10
0.0
 20
0.0
 30
0.0
  9
$EXTMIN
 10
1000.0
 20
1200.0
 30
0.0
  9
$EXTMAX
 10
7400.0
 20
11146.609046
 30
0.0
  9
$LIMMIN
 10
0.0
 20
0.0
  9
$LIMMAX
 10
297.0
 20
210.0
  9
$ORTHOMODE
 70
     0
  9
$REGENMODE
 70
     1
  9
$FILLMODE
 70
     0
  9
$QTEXTMODE
 70
     0
  9
$MIRRTEXT
 70
     1
  9
$DRAGMODE
 70
     2
  9
$LTSCALE
 40
100.0
  9
$OSMODE
 70
    37
  9
$ATTMODE
 70
     1
  9
$TEXTSIZE
 40
180.0
  9
$TRACEWID
 40
0.05
  9
$TEXTSTYLE
  7
STANDARD
  9
$CLAYER
  8
3
  9
$CELTYPE
  6
BYLAYER
  9
$CECOLOR
 62
   256
  9
$DIMSCALE
 40
40.0
  9
$DIMASZ
 40
2.0
  9
$DIMEXO
 40
0.5
  9
$DIMDLI
 40
10.0
  9
$DIMRND
 40
0.0
  9
$DIMDLE
 40
0.0
  9
$DIMEXE
 40
1.0
  9
$DIMTP
 40
1.0
  9
$DIMTM
 40
1.0
  9
$DIMTXT
 40
3.0
  9
$DIMCEN
 40
0.0
  9
$DIMTSZ
 40
0.0
  9
$DIMTOL
 70
     0
  9
$DIMLIM
 70
     0
  9
$DIMTIH
 70
     0
  9
$DIMTOH
 70
     0
  9
$DIMSE1
 70
     0
  9
$DIMSE2
 70
     0
  9
$DIMTAD
 70
     1
  9
$DIMZIN
 70
     8
  9
$DIMBLK
  1

  9
$DIMASO
 70
     1
  9
$DIMSHO
 70
     1
  9
$DIMPOST
  1

  9
$DIMAPOST
  1

  9
$DIMALT
 70
     0
  9
$DIMALTD
 70
     2
  9
$DIMALTF
 40
0.039
  9
$DIMLFAC
 40
1.0
  9
$DIMTOFL
 70
     1
  9
$DIMTVP
 40
0.0
  9
$DIMTIX
 70
     0
  9
$DIMSOXD
 70
     0
  9
$DIMSAH
 70
     1
  9
$DIMBLK1
  1
OPEN
  9
$DIMBLK2
  1
OPEN
  9
$DIMSTYLE
  2
IGA
  9
$DIMCLRD
 70
     0
  9
$DIMCLRE
 70
     0
  9
$DIMCLRT
 70
     0
  9
$DIMTFAC
 40
10.0
  9
$DIMGAP
 40
1.0
  9
$LUNITS
 70
     2
  9
$LUPREC
 70
     3
  9
$SKETCHINC
 40
0.1
  9
$FILLETRAD
 40
50.0
  9
$AUNITS
 70
     0
  9
$AUPREC
 70
     0
  9
$MENU
  1
acad
  9
$ELEVATION
 40
0.0
  9
$PELEVATION
 40
0.0
  9
$THICKNESS
 40
0.0
  9
$LIMCHECK
 70
     0
  9
$BLIPMODE
 70
     0
  9
$CHAMFERA
 40
0.5
  9
$CHAMFERB
 40
0.5
  9
$SKPOLY
 70
     0
  9
$TDCREATE
 40
2450753.6624935181
  9
$TDUPDATE
 40
2454953.7790151159
  9
$TDINDWG
 40
0.0066097569
  9
$TDUSRTIMER
 40
0.0066097569
  9
$USRTIMER
 70
     1
  9
$ANGBASE
 50
0.0
  9
$ANGDIR
 70
     0
  9
$PDMODE
 70
     0
  9
$PDSIZE
 40
0.0
  9
$PLINEWID
 40
0.0
  9
$COORDS
 70
     1
  9
$SPLFRAME
 70
     0
  9
$SPLINETYPE
 70
     6
  9
$SPLINESEGS
 70
     8
  9
$ATTDIA
 70
     0
  9
$ATTREQ
 70
     1
  9
$HANDLING
 70
 10241
  9
$HANDSEED
  5
7E21
  9
$SURFTAB1
 70
     6
  9
$SURFTAB2
 70
     6
  9
$SURFTYPE
 70
     6
  9
$SURFU
 70
     6
  9
$SURFV
 70
     6
  9
$UCSNAME
  2

  9
$UCSORG
 10
0.0
 20
0.0
 30
0.0
  9
$UCSXDIR
 10
1.0
 20
0.0
 30
0.0
  9
$UCSYDIR
 10
0.0
 20
1.0
 30
0.0
  9
$PUCSNAME
  2

  9
$PUCSORG
 10
0.0
 20
0.0
 30
0.0
  9
$PUCSXDIR
 10
1.0
 20
0.0
 30
0.0
  9
$PUCSYDIR
 10
0.0
 20
1.0
 30
0.0
  9
$USERI1
 70
     0
  9
$USERI2
 70
     0
  9
$USERI3
 70
     0
  9
$USERI4
 70
     0
  9
$USERI5
 70
     0
  9
$USERR1
 40
0.0
  9
$USERR2
 40
0.0
  9
$USERR3
 40
0.0
  9
$USERR4
 40
0.0
  9
$USERR5
 40
0.0
  9
$WORLDVIEW
 70
     1
  9
$SHADEDGE
 70
     3
  9
$SHADEDIF
 70
    70
  9
$TILEMODE
 70
     1
  9
$MAXACTVP
 70
    16
  9
$PLIMCHECK
 70
     0
  9
$PEXTMIN
 10
1.0000000000000000E+020
 20
1.0000000000000000E+020
 30
1.0000000000000000E+020
  9
$PEXTMAX
 10
-1.0000000000000000E+020
 20
-1.0000000000000000E+020
 30
-1.0000000000000000E+020
  9
$PLIMMIN
 10
0.0
 20
0.0
  9
$PLIMMAX
 10
12.0
 20
9.0
  9
$UNITMODE
 70
     0
  9
$VISRETAIN
 70
     0
  9
$PLINEGEN
 70
     0
  9
$PSLTSCALE
 70
     1
  0
ENDSEC
  0
SECTION
  2
TABLES
  0
TABLE
  2
VPORT
 70
     2
  0
VPORT
  2
*ACTIVE
 70
     0
 10
0.0
 20
0.0
 11
1.0
 21
1.0
 12
12584.224953905899
 22
6173.2749996292814
 13
0.0
 23
0.0
 14
10.0
 24
10.0
 15
10.0
 25
10.0
 16
0.0
 26
0.0
 36
1.0
 17
0.0
 27
0.0
 37
0.0
 40
10022.99371525931
 41
3.1666666666666661
 42
50.0
 43
0.0
 44
0.0
 50
0.0
 51
0.0
 71
     0
 72
   100
 73
     1
 74
     0
 75
     0
 76
     0
 77
     0
 78
     0
  0
ENDTAB
  0
TABLE
  2
LTYPE
 70
     2
  0
LTYPE
  2
CONTINUOUS
 70
     0
  3
Solid line
 72
    65
 73
     0
 40
0.0
  0
LTYPE
  2
CENTER
 70
     0
  3
____ _ ____ _ ____ _ ____ _ ____ _ ____ _ ____ 
 72
    65
 73
     4
 40
2.0
 49
1.25
 49
-0.25
 49
0.25
 49
-0.25
  0
ENDTAB
  0
TABLE
  2
LAYER
 70
     6
  0
LAYER
  2
0
 70
     0
 62
     7
  6
CONTINUOUS
  0
LAYER
  2
3
 70
     0
 62
     2
  6
CONTINUOUS
  0
LAYER
  2
2
 70
     0
 62
     3
  6
CENTER
  0
LAYER
  2
1
 70
     0
 62
     4
  6
CONTINUOUS
  0
LAYER
  2
4
 70
     0
 62
     7
  6
CONTINUOUS
  0
LAYER
  2
DEFPOINTS
 70
     0
 62
     7
  6
CONTINUOUS
  0
ENDTAB
  0
TABLE
  2
STYLE
 70
     1
  0
STYLE
  2
STANDARD
 70
     0
 40
0.0
 41
1.0
 50
0.0
 71
     0
 42
180.0
  3
simplex.shx
  4
extfont.shx
  0
ENDTAB
  0
TABLE
  2
VIEW
 70
     0
  0
ENDTAB
  0
TABLE
  2
UCS
 70
     0
  0
ENDTAB
  0
TABLE
  2
APPID
 70
     1
  0
APPID
  2
ACAD
 70
     0
  0
ENDTAB
  0
TABLE
  2
DIMSTYLE
 70
     1
  0
DIMSTYLE
  2
IGA
 70
     0
  3

  4

  5

  6
OPEN
  7
OPEN
 40
2.0
 41
2.0
 42
0.5
 43
10.0
 44
1.0
 45
0.0
 46
0.0
 47
1.0
 48
1.0
140
3.0
141
0.0
142
0.0
143
0.03937
144
1.0
145
0.0
146
10.0
147
1.0
 71
     0
 72
     0
 73
     0
 74
     0
 75
     0
 76
     0
 77
     1
 78
     8
170
     0
171
     2
172
     0
173
     1
174
     0
175
     0
176
     0
177
     0
178
     0
  0
ENDTAB
  0
ENDSEC
  0
SECTION
  2
BLOCKS
  0
BLOCK
  8
0
  2
$MODEL_SPACE
 70
     0
 10
0.0
 20
0.0
 30
0.0
  3
$MODEL_SPACE
  1

  0
ENDBLK
  5
1B
  8
0
  0
BLOCK
 67
     1
  8
0
  2
$PAPER_SPACE
 70
     0
 10
0.0
 20
0.0
 30
0.0
  3
$PAPER_SPACE
  1

  0
ENDBLK
  5
18
 67
     1
  8
0
  0
BLOCK
  8
0
  2
_OPEN
 70
     0
 10
0.0
 20
0.0
 30
0.0
  3
_OPEN
  1

  0
LINE
  5
7B8D
  8
0
  6
BYBLOCK
 62
     0
 10
-1.0
 20
0.166667
 30
0.0
 11
0.0
 21
0.0
 31
0.0
  0
LINE
  5
7B8E
  8
0
  6
BYBLOCK
 62
     0
 10
0.0
 20
0.0
 30
0.0
 11
-1.0
 21
-0.166667
 31
0.0
  0
LINE
  5
7B8F
  8
0
  6
BYBLOCK
 62
     0
 10
0.0
 20
0.0
 30
0.0
 11
-1.0
 21
0.0
 31
0.0
  0
ENDBLK
  5
7B90
  8
0
  0
BLOCK
  8
0
  2
*D1
 70
     1
 10
0.0
 20
0.0
 30
0.0
  3
*D1
  1

  0
LINE
  5
7D79
  8
3
  6
CONTINUOUS
 62
     0
 10
2058.2052840000001
 20
5141.6914560000014
 30
0.0
 11
1786.0473120000011
 21
5141.6914560000014
 31
0.0
  0
LINE
  5
7D7A
  8
3
  6
CONTINUOUS
 62
     0
 10
2058.2052840000001
 20
3991.691456
 30
0.0
 11
1786.0473119999999
 21
3991.691456
 31
0.0
  0
LINE
  5
7D7B
  8
3
  6
CONTINUOUS
 62
     0
 10
1826.0473120000011
 20
5061.6914560000014
 30
0.0
 11
1826.0473119999999
 21
4071.6914559999991
 31
0.0
  0
INSERT
  5
7D7C
  8
3
  6
CONTINUOUS
 62
     0
  2
_OPEN
 10
1826.0473120000011
 20
5141.6914560000014
 30
0.0
 41
80.0
 42
80.0
 43
80.0
 50
90.0
  0
INSERT
  5
7D7D
  8
3
  6
CONTINUOUS
 62
     0
  2
_OPEN
 10
1826.0473119999999
 20
3991.691456
 30
0.0
 41
80.0
 42
80.0
 43
80.0
 50
270.0
  0
TEXT
  8
3
  40
120
  5
7E0F
  62
0
  72
0
  71
0
 10
1486.05
 20
4299.97
 30
0.000000
  1
1150
  0
POINT
  5
7D7F
  8
DEFPOINTS
  6
CONTINUOUS
 62
     0
 10
2078.2052840000001
 20
5141.6914560000014
 30
0.0
  0
POINT
  5
7D80
  8
DEFPOINTS
  6
CONTINUOUS
 62
     0
 10
2078.2052840000001
 20
3991.691456
 30
0.0
  0
POINT
  5
7D81
  8
DEFPOINTS
  6
CONTINUOUS
 62
     0
 10
1826.0473119999999
 20
3991.691456
 30
0.0
  0
ENDBLK
  5
7BA2
  8
0
  0
BLOCK
  8
0
  2
*D2
 70
     1
 10
0.0
 20
0.0
 30
0.0
  3
*D2
  1

  0
LINE
  5
7D82
  8
3
  6
CONTINUOUS
 62
     0
 10
2058.2052840000001
 20
5141.6914560000014
 30
0.0
 11
1521.0380900000009
 21
5141.6914560000014
 31
0.0
  0
LINE
  5
7D83
  8
3
  6
CONTINUOUS
 62
     0
 10
1933.925444
 20
3943.6914559999991
 30
0.0
 11
1521.03809
 21
3943.6914559999991
 31
0.0
  0
LINE
  5
7D84
  8
3
  6
CONTINUOUS
 62
     0
 10
1561.0380900000009
 20
5061.6914560000014
 30
0.0
 11
1561.03809
 21
4023.691456
 31
0.0
  0
INSERT
  5
7D85
  8
3
  6
CONTINUOUS
 62
     0
  2
_OPEN
 10
1561.0380900000009
 20
5141.6914560000014
 30
0.0
 41
80.0
 42
80.0
 43
80.0
 50
90.0
  0
INSERT
  5
7D86
  8
3
  6
CONTINUOUS
 62
     0
  2
_OPEN
 10
1561.03809
 20
3943.6914559999991
 30
0.0
 41
80.0
 42
80.0
 43
80.0
 50
270.0
  0
TEXT
  8
3
  40
120
  5
7E10
  62
0
  72
0
  71
0
 10
1221.04
 20
4299.97
 30
0.000000
  1
1198
  0
POINT
  5
7D88
  8
DEFPOINTS
  6
CONTINUOUS
 62
     0
 10
2078.2052840000001
 20
5141.6914560000014
 30
0.0
  0
POINT
  5
7D89
  8
DEFPOINTS
  6
CONTINUOUS
 62
     0
 10
1953.925444
 20
3943.6914559999991
 30
0.0
  0
POINT
  5
7D8A
  8
DEFPOINTS
  6
CONTINUOUS
 62
     0
 10
1561.03809
 20
3943.6914559999991
 30
0.0
  0
ENDBLK
  5
7BAF
  8
0
  0
BLOCK
  8
0
  2
*D3
 70
     1
 10
0.0
 20
0.0
 30
0.0
  3
*D3
  1

  0
LINE
  5
7D8B
  8
3
  6
CONTINUOUS
 62
     0
 10
2158.2052840000001
 20
3103.6914559999991
 30
0.0
 11
1521.03809
 21
3103.6914559999991
 31
0.0
  0
LINE
  5
7D8C
  8
3
  6
CONTINUOUS
 62
     0
 10
1561.03809
 20
3863.691456
 30
0.0
 11
1561.03809
 21
3183.691456
 31
0.0
  0
INSERT
  5
7D8D
  8
3
  6
CONTINUOUS
 62
     0
  2
_OPEN
 10
1561.03809
 20
3943.6914559999991
 30
0.0
 41
80.0
 42
80.0
 43
80.0
 50
90.0
  0
INSERT
  5
7D8E
  8
3
  6
CONTINUOUS
 62
     0
  2
_OPEN
 10
1561.03809
 20
3103.6914559999991
 30
0.0
 41
80.0
 42
80.0
 43
80.0
 50
270.0
  0
TEXT
  8
3
  40
120
  5
7E11
  62
0
  72
0
  71
0
 10
1221.04
 20
3311.29
 30
0.000000
  1
840
  0
POINT
  5
7D90
  8
DEFPOINTS
  6
CONTINUOUS
 62
     0
 10
1953.925444
 20
3943.6914559999991
 30
0.0
  0
POINT
  5
7D91
  8
DEFPOINTS
  6
CONTINUOUS
 62
     0
 10
2178.2052840000001
 20
3103.6914559999991
 30
0.0
  0
POINT
  5
7D92
  8
DEFPOINTS
  6
CONTINUOUS
 62
     0
 10
1561.03809
 20
3103.6914559999991
 30
0.0
  0
ENDBLK
  5
7BBB
  8
0
  0
BLOCK
  8
0
  2
*D4
 70
     1
 10
0.0
 20
0.0
 30
0.0
  3
*D4
  1

  0
LINE
  5
7D93
  8
3
  6
CONTINUOUS
 62
     0
 10
2158.2052840000001
 20
3103.6914559999991
 30
0.0
 11
1522.9401310000001
 21
3103.6914559999991
 31
0.0
  0
LINE
  5
7D94
  8
3
  6
CONTINUOUS
 62
     0
 10
2158.2052840000001
 20
3019.691456
 30
0.0
 11
1522.9401310000001
 21
3019.691456
 31
0.0
  0
LINE
  5
7D95
  8
3
  6
CONTINUOUS
 62
     0
 10
1562.9401310000001
 20
3183.691456
 30
0.0
 11
1562.9401310000001
 21
3263.691456
 31
0.0
  0
LINE
  5
7D96
  8
3
  6
CONTINUOUS
 62
     0
 10
1562.9401310000001
 20
2939.691456
 30
0.0
 11
1562.9401310000001
 21
2579.691456
 31
0.0
  0
LINE
  5
7D97
  8
3
  6
CONTINUOUS
 62
     0
 10
1562.9401310000001
 20
3103.6914559999991
 30
0.0
 11
1562.9401310000001
 21
3019.691456
 31
0.0
  0
INSERT
  5
7D98
  8
3
  6
CONTINUOUS
 62
     0
  2
_OPEN
 10
1562.9401310000001
 20
3103.6914559999991
 30
0.0
 41
80.0
 42
80.0
 43
80.0
 50
270.0
  0
INSERT
  5
7D99
  8
3
  6
CONTINUOUS
 62
     0
  2
_OPEN
 10
1562.9401310000001
 20
3019.691456
 30
0.0
 41
80.0
 42
80.0
 43
80.0
 50
90.0
  0
TEXT
  8
3
  40
120
  5
7E12
  62
0
  72
0
  71
0
 10
1222.94
 20
2507.29
 30
0.000000
  1
84
  0
POINT
  5
7D9B
  8
DEFPOINTS
  6
CONTINUOUS
 62
     0
 10
2178.2052840000001
 20
3103.6914559999991
 30
0.0
  0
POINT
  5
7D9C
  8
DEFPOINTS
  6
CONTINUOUS
 62
     0
 10
2178.2052840000001
 20
3019.691456
 30
0.0
  0
POINT
  5
7D9D
  8
DEFPOINTS
  6
CONTINUOUS
 62
     0
 10
1562.9401310000001
 20
3019.691456
 30
0.0
  0
ENDBLK
  5
7D12
  8
0
  0
BLOCK
  8
0
  2
*D5
 70
     1
 10
0.0
 20
0.0
 30
0.0
  3
*D5
  1

  0
LINE
  5
7D9E
  8
3
  6
CONTINUOUS
 62
     0
 10
2058.2052840000001
 20
5194.6914560000014
 30
0.0
 11
1262.1234199999999
 21
5194.6914560000014
 31
0.0
  0
LINE
  5
7D9F
  8
3
  6
CONTINUOUS
 62
     0
 10
2158.2052840000001
 20
3019.691456
 30
0.0
 11
1262.1234199999999
 21
3019.691456
 31
0.0
  0
LINE
  5
7DA0
  8
3
  6
CONTINUOUS
 62
     0
 10
1302.1234199999999
 20
5114.6914560000014
 30
0.0
 11
1302.1234199999999
 21
3099.691456
 31
0.0
  0
INSERT
  5
7DA1
  8
3
  6
CONTINUOUS
 62
     0
  2
_OPEN
 10
1302.1234199999999
 20
5194.6914560000014
 30
0.0
 41
80.0
 42
80.0
 43
80.0
 50
90.0
  0
INSERT
  5
7DA2
  8
3
  6
CONTINUOUS
 62
     0
  2
_OPEN
 10
1302.1234199999999
 20
3019.691456
 30
0.0
 41
80.0
 42
80.0
 43
80.0
 50
270.0
  0
TEXT
  8
3
  40
120
  5
7E13
  62
0
  72
0
  71
0
 10
962.123
 20
3803.38
 30
0.000000
  1
2175
  0
POINT
  5
7DA4
  8
DEFPOINTS
  6
CONTINUOUS
 62
     0
 10
2078.2052840000001
 20
5194.6914560000014
 30
0.0
  0
POINT
  5
7DA5
  8
DEFPOINTS
  6
CONTINUOUS
 62
     0
 10
2178.2052840000001
 20
3019.691456
 30
0.0
  0
POINT
  5
7DA6
  8
DEFPOINTS
  6
CONTINUOUS
 62
     0
 10
1302.1234199999999
 20
3019.691456
 30
0.0
  0
ENDBLK
  5
7CC4
  8
0
  0
BLOCK
  8
0
  2
*D6
 70
     1
 10
0.0
 20
0.0
 30
0.0
  3
*D6
  1

  0
LINE
  5
7DA7
  8
3
  6
CONTINUOUS
 62
     0
 10
2078.2052840000001
 20
5214.6914559999996
 30
0.0
 11
2078.2052840000001
 21
5479.3458220000002
 31
0.0
  0
LINE
  5
7DA8
  8
3
  6
CONTINUOUS
 62
     0
 10
2838.2052840000001
 20
5303.8092239999996
 30
0.0
 11
2838.2052840000001
 21
5479.3458220000002
 31
0.0
  0
LINE
  5
7DA9
  8
3
  6
CONTINUOUS
 62
     0
 10
2158.2052840000001
 20
5439.3458220000002
 30
0.0
 11
2758.2052840000001
 21
5439.3458220000002
 31
0.0
  0
INSERT
  5
7DAA
  8
3
  6
CONTINUOUS
 62
     0
  2
_OPEN
 10
2078.2052840000001
 20
5439.3458220000002
 30
0.0
 41
80.0
 42
80.0
 43
80.0
 50
180.0
  0
INSERT
  5
7DAB
  8
3
  6
CONTINUOUS
 62
     0
  2
_OPEN
 10
2838.2052840000001
 20
5439.3458220000002
 30
0.0
 41
80.0
 42
80.0
 43
80.0
  0
TEXT
  8
3
  40
120
  5
7E14
  62
0
  72
0
  71
0
 10
2226.49
 20
5326.95
 30
0.000000
  1
760
  0
POINT
  5
7DAD
  8
DEFPOINTS
  6
CONTINUOUS
 62
     0
 10
2078.2052840000001
 20
5194.6914560000014
 30
0.0
  0
POINT
  5
7DAE
  8
DEFPOINTS
  6
CONTINUOUS
 62
     0
 10
2838.2052840000001
 20
5283.8092240000014
 30
0.0
  0
POINT
  5
7DAF
  8
DEFPOINTS
  6
CONTINUOUS
 62
     0
 10
2838.2052840000001
 20
5439.3458220000002
 30
0.0
  0
ENDBLK
  5
7BF3
  8
0
  0
BLOCK
  8
0
  2
*D7
 70
     1
 10
0.0
 20
0.0
 30
0.0
  3
*D7
  1

  0
LINE
  5
7DB0
  8
3
  6
CONTINUOUS
 62
     0
 10
2178.2052840000001
 20
2999.691456
 30
0.0
 11
2178.2052840000001
 21
2673.596693
 31
0.0
  0
LINE
  5
7DB1
  8
3
  6
CONTINUOUS
 62
     0
 10
2838.2052840000001
 20
2831.4920929999989
 30
0.0
 11
2838.2052840000001
 21
2673.596693
 31
0.0
  0
LINE
  5
7DB2
  8
3
  6
CONTINUOUS
 62
     0
 10
2258.2052840000001
 20
2713.596692999999
 30
0.0
 11
2758.2052840000001
 21
2713.596692999999
 31
0.0
  0
INSERT
  5
7DB3
  8
3
  6
CONTINUOUS
 62
     0
  2
_OPEN
 10
2178.2052840000001
 20
2713.596692999999
 30
0.0
 41
80.0
 42
80.0
 43
80.0
 50
180.0
  0
INSERT
  5
7DB4
  8
3
  6
CONTINUOUS
 62
     0
  2
_OPEN
 10
2838.2052840000001
 20
2713.596692999999
 30
0.0
 41
80.0
 42
80.0
 43
80.0
  0
TEXT
  8
3
  40
120
  5
7E15
  62
0
  72
0
  71
0
 10
2270.65
 20
2601.20
 30
0.000000
  1
660
  0
POINT
  5
7DB6
  8
DEFPOINTS
  6
CONTINUOUS
 62
     0
 10
2178.2052840000001
 20
3019.691456
 30
0.0
  0
POINT
  5
7DB7
  8
DEFPOINTS
  6
CONTINUOUS
 62
     0
 10
2838.2052840000001
 20
2851.4920929999998
 30
0.0
  0
POINT
  5
7DB8
  8
DEFPOINTS
  6
CONTINUOUS
 62
     0
 10
2838.2052840000001
 20
2713.596692999999
 30
0.0
  0
ENDBLK
  5
7C0C
  8
0
  0
BLOCK
  8
0
  2
*D8
 70
     1
 10
0.0
 20
0.0
 30
0.0
  3
*D8
  1

  0
LINE
  5
7DB9
  8
3
  6
CONTINUOUS
 62
     0
 10
4538.2052839999997
 20
2999.691456
 30
0.0
 11
4538.2052839999997
 21
2673.596693
 31
0.0
  0
LINE
  5
7DBA
  8
3
  6
CONTINUOUS
 62
     0
 10
2918.2052840000001
 20
2713.596692999999
 30
0.0
 11
4458.2052839999997
 21
2713.596692999999
 31
0.0
  0
INSERT
  5
7DBB
  8
3
  6
CONTINUOUS
 62
     0
  2
_OPEN
 10
2838.2052840000001
 20
2713.596692999999
 30
0.0
 41
80.0
 42
80.0
 43
80.0
 50
180.0
  0
INSERT
  5
7DBC
  8
3
  6
CONTINUOUS
 62
     0
  2
_OPEN
 10
4538.2052839999997
 20
2713.596692999999
 30
0.0
 41
80.0
 42
80.0
 43
80.0
  0
TEXT
  8
3
  40
120
  5
7E16
  62
0
  72
0
  71
0
 10
3448.21
 20
2601.20
 30
0.000000
  1
1700
  0
POINT
  5
7DBE
  8
DEFPOINTS
  6
CONTINUOUS
 62
     0
 10
2838.2052840000001
 20
2851.4920929999998
 30
0.0
  0
POINT
  5
7DBF
  8
DEFPOINTS
  6
CONTINUOUS
 62
     0
 10
4538.2052839999997
 20
3019.691456
 30
0.0
  0
POINT
  5
7DC0
  8
DEFPOINTS
  6
CONTINUOUS
 62
     0
 10
4538.2052839999997
 20
2713.596692999999
 30
0.0
  0
ENDBLK
  5
7C18
  8
0
  0
BLOCK
  8
0
  2
*D9
 70
     1
 10
0.0
 20
0.0
 30
0.0
  3
*D9
  1

  0
LINE
  5
7DC1
  8
3
  6
CONTINUOUS
 62
     0
 10
5817.7049630000001
 20
5161.6914559999996
 30
0.0
 11
5817.7049630000001
 21
5380.0270490000003
 31
0.0
  0
LINE
  5
7DC2
  8
3
  6
CONTINUOUS
 62
     0
 10
6667.7049630000001
 20
5161.6914559999996
 30
0.0
 11
6667.7049630000001
 21
5380.0270490000003
 31
0.0
  0
LINE
  5
7DC3
  8
3
  6
CONTINUOUS
 62
     0
 10
5897.7049630000001
 20
5340.0270490000003
 30
0.0
 11
6587.7049630000001
 21
5340.0270490000003
 31
0.0
  0
INSERT
  5
7DC4
  8
3
  6
CONTINUOUS
 62
     0
  2
_OPEN
 10
5817.7049630000001
 20
5340.0270490000003
 30
0.0
 41
80.0
 42
80.0
 43
80.0
 50
180.0
  0
INSERT
  5
7DC5
  8
3
  6
CONTINUOUS
 62
     0
  2
_OPEN
 10
6667.7049630000001
 20
5340.0270490000003
 30
0.0
 41
80.0
 42
80.0
 43
80.0
  0
TEXT
  8
3
  40
120
  5
7E17
  62
0
  72
0
  71
0
 10
6002.87
 20
5227.63
 30
0.000000
  1
850
  0
POINT
  5
7DC7
  8
DEFPOINTS
  6
CONTINUOUS
 62
     0
 10
5817.7049630000001
 20
5141.6914560000014
 30
0.0
  0
POINT
  5
7DC8
  8
DEFPOINTS
  6
CONTINUOUS
 62
     0
 10
6667.7049630000001
 20
5141.6914560000014
 30
0.0
  0
POINT
  5
7DC9
  8
DEFPOINTS
  6
CONTINUOUS
 62
     0
 10
6667.7049630000001
 20
5340.0270490000003
 30
0.0
  0
ENDBLK
  5
7C25
  8
0
  0
BLOCK
  8
0
  2
*D10
 70
     1
 10
0.0
 20
0.0
 30
0.0
  3
*D10
  1

  0
LINE
  5
7DCA
  8
3
  6
CONTINUOUS
 62
     0
 10
6790.7049629999992
 20
4503.6914560000014
 30
0.0
 11
7144.1479069999996
 21
4503.6914560000014
 31
0.0
  0
LINE
  5
7DCB
  8
3
  6
CONTINUOUS
 62
     0
 10
6790.7049629999992
 20
3383.691456
 30
0.0
 11
7144.1479069999996
 21
3383.691456
 31
0.0
  0
LINE
  5
7DCC
  8
3
  6
CONTINUOUS
 62
     0
 10
7104.1479070000014
 20
4423.6914559999996
 30
0.0
 11
7104.1479070000014
 21
3463.691456
 31
0.0
  0
INSERT
  5
7DCD
  8
3
  6
CONTINUOUS
 62
     0
  2
_OPEN
 10
7104.1479070000014
 20
4503.6914560000014
 30
0.0
 41
80.0
 42
80.0
 43
80.0
 50
90.0
  0
INSERT
  5
7DCE
  8
3
  6
CONTINUOUS
 62
     0
  2
_OPEN
 10
7104.1479070000014
 20
3383.691456
 30
0.0
 41
80.0
 42
80.0
 43
80.0
 50
270.0
  0
TEXT
  8
3
  40
120
  5
7E18
  62
0
  72
0
  71
0
 10
6764.15
 20
3681.99
 30
0.000000
  1
φ1120
  0
POINT
  5
7DD0
  8
DEFPOINTS
  6
CONTINUOUS
 62
     0
 10
6770.7049630000001
 20
4503.6914560000014
 30
0.0
  0
POINT
  5
7DD1
  8
DEFPOINTS
  6
CONTINUOUS
 62
     0
 10
6770.7049630000001
 20
3383.691456
 30
0.0
  0
POINT
  5
7DD2
  8
DEFPOINTS
  6
CONTINUOUS
 62
     0
 10
7104.1479070000014
 20
3383.691456
 30
0.0
  0
ENDBLK
  5
7D40
  8
0
  0
BLOCK
  8
0
  2
*D11
 70
     1
 10
0.0
 20
0.0
 30
0.0
  3
*D11
  1

  0
LINE
  5
7D2C
  8
0
  6
BYBLOCK
 62
     0
 10
6770.7049630000001
 20
4573.6914559999996
 30
0.0
 11
6770.7049630000001
 21
5611.7709060000007
 31
0.0
  0
LINE
  5
7D2D
  8
0
  6
BYBLOCK
 62
     0
 10
6242.704963000001
 20
5543.9898539999986
 30
0.0
 11
6242.704963000001
 21
5611.7709060000007
 31
0.0
  0
LINE
  5
7D2E
  8
0
  6
BYBLOCK
 62
     0
 10
6690.7049629999992
 20
5571.7709060000007
 30
0.0
 11
6322.7049630000001
 21
5571.7709060000007
 31
0.0
  0
TEXT
  5
7D2F
  8
3
 62
     0
 10
6352.4192487142845
 20
5615.6446594888512
 30
0.0
 40
120.0
  1
528
  0
INSERT
  5
7D30
  8
0
  6
BYBLOCK
 62
     0
  2
_OPEN
 10
6770.7049630000001
 20
5571.7709060000007
 30
0.0
 41
80.0
 42
80.0
 43
80.0
  0
INSERT
  5
7D31
  8
0
  6
BYBLOCK
 62
     0
  2
_OPEN
 10
6242.704963000001
 20
5571.7709060000007
 30
0.0
 41
80.0
 42
80.0
 43
80.0
 50
180.0
  0
POINT
  5
7D32
  8
DEFPOINTS
  6
BYBLOCK
 62
     0
 10
6770.7049630000001
 20
4553.6914560000014
 30
0.0
  0
POINT
  5
7D33
  8
DEFPOINTS
  6
BYBLOCK
 62
     0
 10
6242.704963000001
 20
5523.9898539999986
 30
0.0
  0
POINT
  5
7D34
  8
DEFPOINTS
  6
BYBLOCK
 62
     0
 10
6242.704963000001
 20
5571.7709060000007
 30
0.0
  0
ENDBLK
  5
7D35
  8
0
  0
BLOCK
  8
0
  2
*D12
 70
     1
 10
0.0
 20
0.0
 30
0.0
  3
*D12
  1

  0
LINE
  5
7DD3
  8
3
  6
CONTINUOUS
 62
     0
 10
5502.7049630000001
 20
4341.6914559999996
 30
0.0
 11
5502.7049630000001
 21
5611.7709060000007
 31
0.0
  0
LINE
  5
7DD4
  8
3
  6
CONTINUOUS
 62
     0
 10
6162.7049630000001
 20
5571.7709060000007
 30
0.0
 11
5582.704963000001
 21
5571.7709060000007
 31
0.0
  0
INSERT
  5
7DD5
  8
3
  6
CONTINUOUS
 62
     0
  2
_OPEN
 10
6242.704963000001
 20
5571.7709060000007
 30
0.0
 41
80.0
 42
80.0
 43
80.0
  0
INSERT
  5
7DD6
  8
3
  6
CONTINUOUS
 62
     0
  2
_OPEN
 10
5502.7049630000001
 20
5571.7709060000007
 30
0.0
 41
80.0
 42
80.0
 43
80.0
 50
180.0
  0
TEXT
  8
3
  40
120
  5
7E19
  62
0
  72
0
  71
0
 10
5632.70
 20
5559.37
 30
0.000000
  1
MAX
  0
TEXT
  8
3
  40
120
  5
7E1A
  62
0
  72
0
  71
0
 10
5632.70
 20
5403.37
 30
0.000000
  1
850
  0
POINT
  5
7DD8
  8
DEFPOINTS
  6
CONTINUOUS
 62
     0
 10
6242.704963000001
 20
5523.9898539999986
 30
0.0
  0
POINT
  5
7DD9
  8
DEFPOINTS
  6
CONTINUOUS
 62
     0
 10
5502.7049630000001
 20
4321.6914559999996
 30
0.0
  0
POINT
  5
7DDA
  8
DEFPOINTS
  6
CONTINUOUS
 62
     0
 10
5502.7049630000001
 20
5571.7709060000007
 30
0.0
  0
ENDBLK
  5
7D4A
  8
0
  0
BLOCK
  8
0
  2
*D13
 70
     1
 10
0.0
 20
0.0
 30
0.0
  3
*D13
  1

  0
LINE
  5
7DDB
  8
3
  6
CONTINUOUS
 62
     0
 10
5555.7049630000001
 20
2999.691456
 30
0.0
 11
5555.7049630000001
 21
2626.4359100000001
 31
0.0
  0
LINE
  5
7DDC
  8
3
  6
CONTINUOUS
 62
     0
 10
6242.704963000001
 20
2804.02063
 30
0.0
 11
6242.704963000001
 21
2626.4359100000001
 31
0.0
  0
LINE
  5
7DDD
  8
3
  6
CONTINUOUS
 62
     0
 10
5635.704963000001
 20
2666.4359100000001
 30
0.0
 11
6162.7049630000001
 21
2666.4359100000001
 31
0.0
  0
INSERT
  5
7DDE
  8
3
  6
CONTINUOUS
 62
     0
  2
_OPEN
 10
5555.7049630000001
 20
2666.4359100000001
 30
0.0
 41
80.0
 42
80.0
 43
80.0
 50
180.0
  0
INSERT
  5
7DDF
  8
3
  6
CONTINUOUS
 62
     0
  2
_OPEN
 10
6242.704963000001
 20
2666.4359100000001
 30
0.0
 41
80.0
 42
80.0
 43
80.0
  0
TEXT
  8
3
  40
120
  5
7E1B
  62
0
  72
0
  71
0
 10
5682.65
 20
2554.04
 30
0.000000
  1
687
  0
POINT
  5
7DE1
  8
DEFPOINTS
  6
CONTINUOUS
 62
     0
 10
5555.7049630000001
 20
3019.691456
 30
0.0
  0
POINT
  5
7DE2
  8
DEFPOINTS
  6
CONTINUOUS
 62
     0
 10
6242.704963000001
 20
2824.02063
 30
0.0
  0
POINT
  5
7DE3
  8
DEFPOINTS
  6
CONTINUOUS
 62
     0
 10
6242.704963000001
 20
2666.4359100000001
 30
0.0
  0
ENDBLK
  5
7CF1
  8
0
  0
BLOCK
  8
0
  2
*D14
 70
     1
 10
0.0
 20
0.0
 30
0.0
  3
*D14
  1

  0
LINE
  5
7DE4
  8
3
  6
CONTINUOUS
 62
     0
 10
6735.7049629999992
 20
2999.691456
 30
0.0
 11
6735.7049629999992
 21
2626.4359100000001
 31
0.0
  0
LINE
  5
7DE5
  8
3
  6
CONTINUOUS
 62
     0
 10
6322.7049630000001
 20
2666.4359100000001
 30
0.0
 11
6655.7049629999992
 21
2666.4359100000001
 31
0.0
  0
TEXT
  8
3
  40
120
  5
7E1C
  62
0
  72
0
  71
0
 10
6253.22
 20
2551.07
 30
0.000000
  1
493
  0
INSERT
  5
7DE7
  8
3
  6
CONTINUOUS
 62
     0
  2
_OPEN
 10
6242.704963000001
 20
2666.4359100000001
 30
0.0
 41
80.0
 42
80.0
 43
80.0
 50
180.0
  0
INSERT
  5
7DE8
  8
3
  6
CONTINUOUS
 62
     0
  2
_OPEN
 10
6735.7049629999992
 20
2666.4359100000001
 30
0.0
 41
80.0
 42
80.0
 43
80.0
  0
POINT
  5
7DE9
  8
DEFPOINTS
  6
CONTINUOUS
 62
     0
 10
6242.704963000001
 20
2824.02063
 30
0.0
  0
POINT
  5
7DEA
  8
DEFPOINTS
  6
CONTINUOUS
 62
     0
 10
6735.7049629999992
 20
3019.691456
 30
0.0
  0
POINT
  5
7DEB
  8
DEFPOINTS
  6
CONTINUOUS
 62
     0
 10
6735.7049629999992
 20
2666.4359100000001
 30
0.0
  0
ENDBLK
  5
7CFB
  8
0
  0
BLOCK
  8
0
  2
*D15
 70
     1
 10
0.0
 20
0.0
 30
0.0
  3
*D15
  1

  0
LINE
  5
7DEC
  8
3
  6
CONTINUOUS
 62
     0
 10
2178.2052840000001
 20
7267.2208739999996
 30
0.0
 11
2178.2052840000001
 21
6870.5591030000014
 31
0.0
  0
LINE
  5
7DED
  8
3
  6
CONTINUOUS
 62
     0
 10
4538.2052839999997
 20
7267.2208739999996
 30
0.0
 11
4538.2052839999997
 21
6870.5591030000014
 31
0.0
  0
LINE
  5
7DEE
  8
3
  6
CONTINUOUS
 62
     0
 10
2258.2052840000001
 20
6910.5591030000014
 30
0.0
 11
4458.2052839999997
 21
6910.5591030000014
 31
0.0
  0
INSERT
  5
7DEF
  8
3
  6
CONTINUOUS
 62
     0
  2
_OPEN
 10
2178.2052840000001
 20
6910.5591030000014
 30
0.0
 41
80.0
 42
80.0
 43
80.0
 50
180.0
  0
INSERT
  5
7DF0
  8
3
  6
CONTINUOUS
 62
     0
  2
_OPEN
 10
4538.2052839999997
 20
6910.5591030000014
 30
0.0
 41
80.0
 42
80.0
 43
80.0
  0
TEXT
  8
3
  40
120
  5
7E1D
  62
0
  72
0
  71
0
 10
2999.43
 20
6798.16
 30
0.000000
  1
2360
  0
POINT
  5
7DF2
  8
DEFPOINTS
  6
CONTINUOUS
 62
     0
 10
2178.2052840000001
 20
7287.2208739999996
 30
0.0
  0
POINT
  5
7DF3
  8
DEFPOINTS
  6
CONTINUOUS
 62
     0
 10
4538.2052839999997
 20
7287.2208739999996
 30
0.0
  0
POINT
  5
7DF4
  8
DEFPOINTS
  6
CONTINUOUS
 62
     0
 10
4538.2052839999997
 20
6910.5591030000014
 30
0.0
  0
ENDBLK
  5
7C8C
  8
0
  0
BLOCK
  8
0
  2
*D16
 70
     1
 10
0.0
 20
0.0
 30
0.0
  3
*D16
  1

  0
LINE
  5
7DF5
  8
3
  6
CONTINUOUS
 62
     0
 10
4558.2052840000006
 20
8467.2208739999987
 30
0.0
 11
4957.8217550000008
 21
8467.2208739999987
 31
0.0
  0
LINE
  5
7DF6
  8
3
  6
CONTINUOUS
 62
     0
 10
4558.2052840000006
 20
7287.2208739999996
 30
0.0
 11
4957.8217550000008
 21
7287.2208739999996
 31
0.0
  0
LINE
  5
7DF7
  8
3
  6
CONTINUOUS
 62
     0
 10
4917.8217550000008
 20
8387.2208739999987
 30
0.0
 11
4917.8217550000008
 21
7367.2208739999996
 31
0.0
  0
INSERT
  5
7DF8
  8
3
  6
CONTINUOUS
 62
     0
  2
_OPEN
 10
4917.8217550000008
 20
8467.2208739999987
 30
0.0
 41
80.0
 42
80.0
 43
80.0
 50
90.0
  0
INSERT
  5
7DF9
  8
3
  6
CONTINUOUS
 62
     0
  2
_OPEN
 10
4917.8217550000008
 20
7287.2208739999996
 30
0.0
 41
80.0
 42
80.0
 43
80.0
 50
270.0
  0
TEXT
  8
3
  40
120
  5
7E1E
  62
0
  72
0
  71
0
 10
4577.82
 20
7592.03
 30
0.000000
  1
1180
  0
POINT
  5
7DFB
  8
DEFPOINTS
  6
CONTINUOUS
 62
     0
 10
4538.2052839999997
 20
8467.2208739999987
 30
0.0
  0
POINT
  5
7DFC
  8
DEFPOINTS
  6
CONTINUOUS
 62
     0
 10
4538.2052839999997
 20
7287.2208739999996
 30
0.0
  0
POINT
  5
7DFD
  8
DEFPOINTS
  6
CONTINUOUS
 62
     0
 10
4917.8217550000008
 20
7287.2208739999996
 30
0.0
  0
ENDBLK
  5
7C99
  8
0
  0
BLOCK
  8
0
  2
*D17
 70
     1
 10
0.0
 20
0.0
 30
0.0
  3
*D17
  1

  0
LINE
  5
7DFE
  8
3
  6
CONTINUOUS
 62
     0
 10
3807.2052840000001
 20
3963.691456
 30
0.0
 11
3807.2052840000001
 21
5479.3458220000002
 31
0.0
  0
LINE
  5
7DFF
  8
3
  6
CONTINUOUS
 62
     0
 10
2918.2052840000001
 20
5439.3458220000002
 30
0.0
 11
3727.2052840000001
 21
5439.3458220000002
 31
0.0
  0
INSERT
  5
7E00
  8
3
  6
CONTINUOUS
 62
     0
  2
_OPEN
 10
2838.2052840000001
 20
5439.3458220000002
 30
0.0
 41
80.0
 42
80.0
 43
80.0
 50
180.0
  0
INSERT
  5
7E01
  8
3
  6
CONTINUOUS
 62
     0
  2
_OPEN
 10
3807.2052840000001
 20
5439.3458220000002
 30
0.0
 41
80.0
 42
80.0
 43
80.0
  0
TEXT
  8
3
  40
120
  5
7E1F
  62
0
  72
0
  71
0
 10
3082.71
 20
5326.95
 30
0.000000
  1
969
  0
POINT
  5
7E03
  8
DEFPOINTS
  6
CONTINUOUS
 62
     0
 10
2838.2052840000001
 20
5283.8092240000014
 30
0.0
  0
POINT
  5
7E04
  8
DEFPOINTS
  6
CONTINUOUS
 62
     0
 10
3807.2052840000001
 20
3943.6914559999991
 30
0.0
  0
POINT
  5
7E05
  8
DEFPOINTS
  6
CONTINUOUS
 62
     0
 10
3807.2052840000001
 20
5439.3458220000002
 30
0.0
  0
ENDBLK
  5
7D55
  8
0
  0
BLOCK
  8
0
  2
*D18
 70
     1
 10
0.0
 20
0.0
 30
0.0
  3
*D18
  1

  0
LINE
  5
7E06
  8
3
 62
     0
 10
2078.2052840000001
 20
5214.6914559999996
 30
0.0
 11
2078.2052840000001
 21
5722.6484396884662
 31
0.0
  0
LINE
  5
7E07
  8
3
 62
     0
 10
4538.2052839999997
 20
3248.691456
 30
0.0
 11
4538.2052839999997
 21
5722.6484396884662
 31
0.0
  0
LINE
  5
7E08
  8
3
 62
     0
 10
2158.2052840000001
 20
5682.6484396884671
 30
0.0
 11
4458.2052839999997
 21
5682.6484396884671
 31
0.0
  0
INSERT
  5
7E09
  8
3
 62
     0
  2
_OPEN
 10
2078.2052840000001
 20
5682.6484396884671
 30
0.0
 41
80.0
 42
80.0
 43
80.0
 50
180.0
  0
INSERT
  5
7E0A
  8
3
 62
     0
  2
_OPEN
 10
4538.2052839999997
 20
5682.6484396884671
 30
0.0
 41
80.0
 42
80.0
 43
80.0
  0
TEXT
  8
3
  40
120
  5
7E20
  62
0
  72
0
  71
0
 10
3104.63
 20
5570.25
 30
0.000000
  1
2460
  0
POINT
  5
7E0C
  8
DEFPOINTS
 62
     0
 10
2078.2052840000001
 20
5194.6914560000014
 30
0.0
  0
POINT
  5
7E0D
  8
DEFPOINTS
 62
     0
 10
4538.2052839999997
 20
3228.6914559999991
 30
0.0
  0
POINT
  5
7E0E
  8
DEFPOINTS
 62
     0
 10
4538.2052839999997
 20
5682.6484396884671
 30
0.0
  0
ENDBLK
  5
7D1E
  8
0
  0
ENDSEC
  0
SECTION
  2
ENTITIES
  0
LINE
  5
7AB5
  8
1
  6
CONTINUOUS
 10
2178.2052840000001
 20
3019.691456
 30
0.0
 11
4538.2052839999997
 21
3019.691456
 31
0.0
  0
LINE
  5
7AB6
  8
1
  6
CONTINUOUS
 10
2178.2052840000001
 20
3084.691456
 30
0.0
 11
4538.2052839999997
 21
3084.691456
 31
0.0
  0
LINE
  5
7AB7
  8
1
  6
CONTINUOUS
 10
2178.2052840000001
 20
3228.6914559999991
 30
0.0
 11
4538.2052839999997
 21
3228.6914559999991
 31
0.0
  0
LINE
  5
7AB8
  8
1
  6
CONTINUOUS
 10
2178.2052840000001
 20
3103.6914559999991
 30
0.0
 11
4538.2052839999997
 21
3103.6914559999991
 31
0.0
  0
ARC
  5
7AB9
  8
1
  6
CONTINUOUS
 10
2920.2052840000001
 20
4025.6914559999991
 30
0.0
 40
890.20000000000005
 50
264.89999999999998
 51
0.0
  0
ARC
  5
7ABA
  8
1
  6
CONTINUOUS
 10
2756.2052840000001
 20
4025.6914559999991
 30
0.0
 40
1054.2
 50
0.0
 51
85.5
  0
LINE
  5
7ABB
  8
1
  6
CONTINUOUS
 10
4538.2052839999997
 20
8467.2208739999987
 30
0.0
 11
3398.205284000001
 21
8467.2208739999987
 31
0.0
  0
LINE
  5
7ABC
  8
1
  6
CONTINUOUS
 10
4538.2052839999997
 20
7287.2208739999996
 30
0.0
 11
2178.2052840000001
 21
7287.2208739999996
 31
0.0
  0
LINE
  5
7ABD
  8
1
  6
CONTINUOUS
 10
3810.4052839999999
 20
8399.2208739999987
 30
0.0
 11
2078.2052840000001
 21
8399.2208739999987
 31
0.0
  0
LINE
  5
7ABE
  8
1
  6
CONTINUOUS
 10
3810.4052839999999
 20
7549.2208739999987
 30
0.0
 11
2078.2052840000001
 21
7549.2208739999987
 31
0.0
  0
LINE
  5
7ABF
  8
1
  6
CONTINUOUS
 10
4433.2052840000006
 20
7234.2208739999996
 30
0.0
 11
2460.2052840000001
 21
7234.2208739999996
 31
0.0
  0
LINE
  5
7AC0
  8
1
  6
CONTINUOUS
 10
4433.2052840000006
 20
7474.2208739999996
 30
0.0
 11
2460.2052840000001
 21
7474.2208739999996
 31
0.0
  0
LINE
  5
7AC1
  8
1
  6
CONTINUOUS
 10
4264.805284
 20
3571.9914560000002
 30
0.0
 11
2957.805284
 21
4194.6914559999996
 31
0.0
  0
LINE
  5
7AC2
  8
1
  6
CONTINUOUS
 10
4307.8052839999991
 20
3662.2914559999999
 30
0.0
 11
3000.805284
 21
4284.9914560000007
 31
0.0
  0
LINE
  5
7AC3
  8
1
  6
CONTINUOUS
 10
4186.2052839999997
 20
3346.7914559999999
 30
0.0
 11
2775.6052840000002
 21
3672.7914559999999
 31
0.0
  0
LINE
  5
7AC4
  8
1
  6
CONTINUOUS
 10
4163.7052840000006
 20
3249.3914559999998
 30
0.0
 11
2753.1052840000002
 21
3575.3914559999998
 31
0.0
  0
CIRCLE
  5
7AC5
  8
1
  6
CONTINUOUS
 10
2838.2052840000001
 20
3943.6914559999991
 30
0.0
 40
610.0
  0
ARC
  5
7AC6
  8
1
  6
CONTINUOUS
 10
2906.7052840000001
 20
3875.191456
 30
0.0
 40
739.10000000000002
 50
180.0
 51
264.89999999999998
  0
LINE
  5
7AC7
  8
1
  6
CONTINUOUS
 10
2078.2052840000001
 20
5141.6914560000014
 30
0.0
 11
2838.2052840000001
 21
5076.6914559999996
 31
0.0
  0
LINE
  5
7AC8
  8
1
  6
CONTINUOUS
 10
2118.2052840000001
 20
3991.691456
 30
0.0
 11
2118.2052840000001
 21
5138.2914560000008
 31
0.0
  0
LINE
  5
7AC9
  8
1
  6
CONTINUOUS
 10
2078.2052840000001
 20
3938.691456
 30
0.0
 11
2078.2052840000001
 21
5194.6914560000014
 31
0.0
  0
LINE
  5
7ACA
  8
1
  6
CONTINUOUS
 10
2178.2052840000001
 20
3084.691456
 30
0.0
 11
2178.2052840000001
 21
3019.691456
 31
0.0
  0
LINE
  5
7ACB
  8
1
  6
CONTINUOUS
 10
2178.2052840000001
 20
3228.6914559999991
 30
0.0
 11
2178.2052840000001
 21
3103.6914559999991
 31
0.0
  0
ARC
  5
7ACC
  8
1
  6
CONTINUOUS
 10
2769.7052840000001
 20
3875.191456
 30
0.0
 40
602.10000000000002
 50
168.80000000000001
 51
180.0
  0
LINE
  5
7ACD
  8
1
  6
CONTINUOUS
 10
2179.0052839999998
 20
3991.691456
 30
0.0
 11
2078.2052840000001
 21
3991.691456
 31
0.0
  0
CIRCLE
  5
7ACE
  8
1
  6
CONTINUOUS
 10
2838.2052840000001
 20
3943.6914559999991
 30
0.0
 40
560.0
  0
ARC
  5
7ACF
  8
1
  6
CONTINUOUS
 10
2838.2052840000001
 20
3943.6914559999991
 30
0.0
 40
378.0
 50
64.5
 51
257.0
  0
CIRCLE
  5
7AD0
  8
1
  6
CONTINUOUS
 10
2838.2052840000001
 20
3943.6914559999991
 30
0.0
 40
278.0
  0
LINE
  5
7AD1
  8
2
  6
CENTER
 10
6850.1807470000003
 20
3943.6914559999991
 30
0.0
 11
5382.89257
 21
3943.6914559999991
 31
0.0
  0
LINE
  5
7AD2
  8
2
  6
CENTER
 10
2838.2052840000001
 20
2851.4920929999998
 30
0.0
 11
2838.2052840000001
 21
5283.8092240000014
 31
0.0
  0
LINE
  5
7AD3
  8
1
  6
CONTINUOUS
 10
3448.205284000001
 20
8502.2208739999987
 30
0.0
 11
2228.2052840000001
 21
8502.2208739999987
 31
0.0
  0
LINE
  5
7AD4
  8
1
  6
CONTINUOUS
 10
2278.2052840000001
 20
8467.2208739999987
 30
0.0
 11
2178.2052840000001
 21
8467.2208739999987
 31
0.0
  0
LINE
  5
7AD5
  8
1
  6
CONTINUOUS
 10
2078.2052840000001
 20
7499.2208739999987
 30
0.0
 11
2078.2052840000001
 21
8449.2208739999987
 31
0.0
  0
LINE
  5
7AD6
  8
1
  6
CONTINUOUS
 10
2178.2052840000001
 20
7549.2208739999987
 30
0.0
 11
2178.2052840000001
 21
7287.2208739999996
 31
0.0
  0
LINE
  5
7AD7
  8
1
  6
CONTINUOUS
 10
2178.2052840000001
 20
8467.2208739999987
 30
0.0
 11
2178.2052840000001
 21
8399.2208739999987
 31
0.0
  0
LINE
  5
7AD8
  8
1
  6
CONTINUOUS
 10
2560.2052840000001
 20
7304.2208739999987
 30
0.0
 11
3116.2052840000001
 21
7304.2208739999987
 31
0.0
  0
LINE
  5
7AD9
  8
1
  6
CONTINUOUS
 10
2560.2052840000001
 20
7404.2208739999987
 30
0.0
 11
3116.2052840000001
 21
7404.2208739999987
 31
0.0
  0
LINE
  5
7ADA
  8
1
  6
CONTINUOUS
 10
2560.2052840000001
 20
7304.2208739999987
 30
0.0
 11
2560.2052840000001
 21
7404.2208739999987
 31
0.0
  0
LINE
  5
7ADB
  8
1
  6
CONTINUOUS
 10
2460.2052840000001
 20
7234.2208739999996
 30
0.0
 11
2460.2052840000001
 21
7474.2208739999996
 31
0.0
  0
LINE
  5
7ADC
  8
1
  6
CONTINUOUS
 10
2810.7052840000001
 20
7549.2208739999987
 30
0.0
 11
2810.7052840000001
 21
7404.2208739999987
 31
0.0
  0
LINE
  5
7ADD
  8
1
  6
CONTINUOUS
 10
3116.2052840000001
 20
7304.2208739999987
 30
0.0
 11
3116.2052840000001
 21
7404.2208739999987
 31
0.0
  0
LINE
  5
7ADE
  8
1
  6
CONTINUOUS
 10
2865.7052840000001
 20
7549.2208739999987
 30
0.0
 11
2865.7052840000001
 21
7404.2208739999987
 31
0.0
  0
LINE
  5
7ADF
  8
1
  6
CONTINUOUS
 10
2278.2052840000001
 20
8502.2208739999987
 30
0.0
 11
2278.2052840000001
 21
8399.2208739999987
 31
0.0
  0
LINE
  5
7AE0
  8
1
  6
CONTINUOUS
 10
3398.205284000001
 20
8502.2208739999987
 30
0.0
 11
3398.205284000001
 21
8399.2208739999987
 31
0.0
  0
LINE
  5
7AED
  8
1
  6
CONTINUOUS
 10
4438.2052840000006
 20
3283.691456
 30
0.0
 11
3988.205284000001
 21
3283.691456
 31
0.0
  0
ARC
  5
7AEE
  8
1
  6
CONTINUOUS
 10
4213.2052839999997
 20
3463.691456
 30
0.0
 40
199.0
 50
320.10000000000002
 51
219.90000000000001
  0
LINE
  5
7AEF
  8
1
  6
CONTINUOUS
 10
4051.2052840000001
 20
3326.191456
 30
0.0
 11
4060.5052839999998
 21
3336.0914560000001
 31
0.0
  0
LINE
  5
7AF0
  8
1
  6
CONTINUOUS
 10
4438.2052840000006
 20
3228.6914559999991
 30
0.0
 11
3988.205284000001
 21
3228.6914559999991
 31
0.0
  0
LINE
  5
7AF1
  8
1
  6
CONTINUOUS
 10
4051.2052840000001
 20
3283.691456
 30
0.0
 11
4051.2052840000001
 21
3326.191456
 31
0.0
  0
LINE
  5
7AF2
  8
1
  6
CONTINUOUS
 10
3988.205284000001
 20
3228.6914559999991
 30
0.0
 11
3988.205284000001
 21
3283.691456
 31
0.0
  0
CIRCLE
  5
7AF3
  8
1
  6
CONTINUOUS
 10
4213.2052839999997
 20
3463.691456
 30
0.0
 40
120.0
  0
ARC
  5
7AF4
  8
1
  6
CONTINUOUS
 10
4213.2052839999997
 20
3463.691456
 30
0.0
 40
220.0
 50
257.0
 51
64.5
  0
LINE
  5
7AF5
  8
2
  6
CENTER
 10
4213.2052839999997
 20
3343.691456
 30
0.0
 11
4213.2052839999997
 21
3583.691456
 31
0.0
  0
LINE
  5
7AF6
  8
1
  6
CONTINUOUS
 10
4538.2052839999997
 20
3084.691456
 30
0.0
 11
4538.2052839999997
 21
3019.691456
 31
0.0
  0
LINE
  5
7AF7
  8
1
  6
CONTINUOUS
 10
4375.2052839999997
 20
3283.691456
 30
0.0
 11
4375.2052839999997
 21
3326.191456
 31
0.0
  0
LINE
  5
7AF8
  8
1
  6
CONTINUOUS
 10
4375.2052839999997
 20
3326.191456
 30
0.0
 11
4365.9052840000004
 21
3336.0914560000001
 31
0.0
  0
LINE
  5
7AF9
  8
1
  6
CONTINUOUS
 10
4538.2052839999997
 20
3228.6914559999991
 30
0.0
 11
4538.2052839999997
 21
3103.6914559999991
 31
0.0
  0
LINE
  5
7AFA
  8
1
  6
CONTINUOUS
 10
4438.2052840000006
 20
3228.6914559999991
 30
0.0
 11
4438.2052840000006
 21
3283.691456
 31
0.0
  0
LINE
  5
7AFB
  8
2
  6
CENTER
 10
4333.2052839999997
 20
3463.691456
 30
0.0
 11
4093.2052840000001
 21
3463.691456
 31
0.0
  0
LINE
  5
7B1B
  8
1
  6
CONTINUOUS
 10
4538.2052839999997
 20
8467.2208739999987
 30
0.0
 11
4538.2052839999997
 21
7287.2208739999996
 31
0.0
  0
LINE
  5
7B1C
  8
1
  6
CONTINUOUS
 10
3810.4052839999999
 20
7549.2208739999987
 30
0.0
 11
3810.4052839999999
 21
8399.2208739999987
 31
0.0
  0
LINE
  5
7B1D
  8
1
  6
CONTINUOUS
 10
4412.305284
 20
7522.9208739999985
 30
0.0
 11
4014.1052840000002
 21
7522.9208739999985
 31
0.0
  0
LINE
  5
7B1E
  8
1
  6
CONTINUOUS
 10
4412.305284
 20
8122.4208739999985
 30
0.0
 11
4014.1052840000002
 21
8122.4208739999985
 31
0.0
  0
LINE
  5
7B1F
  8
1
  6
CONTINUOUS
 10
4014.1052840000002
 20
7522.9208739999985
 30
0.0
 11
4014.1052840000002
 21
8122.4208739999985
 31
0.0
  0
LINE
  5
7B20
  8
1
  6
CONTINUOUS
 10
4093.2052840000001
 20
7304.2208739999987
 30
0.0
 11
4093.2052840000001
 21
7404.2208739999987
 31
0.0
  0
LINE
  5
7B21
  8
1
  6
CONTINUOUS
 10
4333.2052839999997
 20
7304.2208739999987
 30
0.0
 11
4333.2052839999997
 21
7404.2208739999987
 31
0.0
  0
LINE
  5
7B22
  8
1
  6
CONTINUOUS
 10
4433.2052840000006
 20
7234.2208739999996
 30
0.0
 11
4433.2052840000006
 21
7474.2208739999996
 31
0.0
  0
LINE
  5
7B23
  8
1
  6
CONTINUOUS
 10
4093.2052840000001
 20
7304.2208739999987
 30
0.0
 11
4333.2052839999997
 21
7304.2208739999987
 31
0.0
  0
LINE
  5
7B24
  8
1
  6
CONTINUOUS
 10
4240.7052839999997
 20
7404.2208739999987
 30
0.0
 11
4240.7052839999997
 21
7522.9208739999985
 31
0.0
  0
LINE
  5
7B25
  8
1
  6
CONTINUOUS
 10
4185.7052839999997
 20
7404.2208739999987
 30
0.0
 11
4185.7052839999997
 21
7522.9208739999985
 31
0.0
  0
LINE
  5
7B26
  8
1
  6
CONTINUOUS
 10
4093.2052840000001
 20
7404.2208739999987
 30
0.0
 11
4333.2052839999997
 21
7404.2208739999987
 31
0.0
  0
LINE
  5
7B27
  8
1
  6
CONTINUOUS
 10
4412.305284
 20
7522.9208739999985
 30
0.0
 11
4412.305284
 21
8122.4208739999985
 31
0.0
  0
LINE
  5
7B45
  8
1
  6
CONTINUOUS
 10
6667.7049630000001
 20
5141.6914560000014
 30
0.0
 11
5817.7049630000001
 21
3991.691456
 31
0.0
  0
LINE
  5
7B46
  8
1
  6
CONTINUOUS
 10
5817.7049630000001
 20
5141.6914560000014
 30
0.0
 11
6667.7049630000001
 21
3991.691456
 31
0.0
  0
LINE
  5
7B47
  8
1
  6
CONTINUOUS
 10
5817.7049630000001
 20
3991.691456
 30
0.0
 11
6667.7049630000001
 21
3991.691456
 31
0.0
  0
LINE
  5
7B48
  8
1
  6
CONTINUOUS
 10
5817.7049630000001
 20
5141.6914560000014
 30
0.0
 11
6667.7049630000001
 21
5141.6914560000014
 31
0.0
  0
LINE
  5
7B49
  8
1
  6
CONTINUOUS
 10
6735.7049629999992
 20
3103.6914559999991
 30
0.0
 11
5555.7049630000001
 21
3103.6914559999991
 31
0.0
  0
LINE
  5
7B4A
  8
1
  6
CONTINUOUS
 10
6735.7049629999992
 20
3228.6914559999991
 30
0.0
 11
5555.7049630000001
 21
3228.6914559999991
 31
0.0
  0
LINE
  5
7B4B
  8
1
  6
CONTINUOUS
 10
6735.7049629999992
 20
3084.691456
 30
0.0
 11
5555.7049630000001
 21
3084.691456
 31
0.0
  0
LINE
  5
7B4C
  8
1
  6
CONTINUOUS
 10
6735.7049629999992
 20
3019.691456
 30
0.0
 11
5555.7049630000001
 21
3019.691456
 31
0.0
  0
LINE
  5
7B4D
  8
1
  6
CONTINUOUS
 10
5742.7049630000001
 20
3243.691456
 30
0.0
 11
5742.7049630000001
 21
4321.6914559999996
 31
0.0
  0
LINE
  5
7B4E
  8
1
  6
CONTINUOUS
 10
5502.7049630000001
 20
3243.691456
 30
0.0
 11
5502.7049630000001
 21
4321.6914559999996
 31
0.0
  0
LINE
  5
7B4F
  8
1
  6
CONTINUOUS
 10
5817.7049630000001
 20
3228.6914559999991
 30
0.0
 11
5817.7049630000001
 21
5141.6914560000014
 31
0.0
  0
LINE
  5
7B50
  8
1
  6
CONTINUOUS
 10
5502.7049630000001
 20
3243.691456
 30
0.0
 11
5742.7049630000001
 21
3243.691456
 31
0.0
  0
LINE
  5
7B51
  8
1
  6
CONTINUOUS
 10
5572.7049630000001
 20
3665.691456
 30
0.0
 11
5672.704963000001
 21
3665.691456
 31
0.0
  0
LINE
  5
7B52
  8
1
  6
CONTINUOUS
 10
5572.7049630000001
 20
3343.691456
 30
0.0
 11
5672.704963000001
 21
3343.691456
 31
0.0
  0
LINE
  5
7B53
  8
1
  6
CONTINUOUS
 10
5572.7049630000001
 20
3583.691456
 30
0.0
 11
5672.704963000001
 21
3583.691456
 31
0.0
  0
LINE
  5
7B54
  8
1
  6
CONTINUOUS
 10
5572.7049630000001
 20
4221.6914560000014
 30
0.0
 11
5672.704963000001
 21
4221.6914560000014
 31
0.0
  0
LINE
  5
7B55
  8
1
  6
CONTINUOUS
 10
5572.7049630000001
 20
3583.691456
 30
0.0
 11
5572.7049630000001
 21
3343.691456
 31
0.0
  0
LINE
  5
7B58
  8
1
  6
CONTINUOUS
 10
5555.7049630000001
 20
3103.6914559999991
 30
0.0
 11
5555.7049630000001
 21
3228.6914559999991
 31
0.0
  0
LINE
  5
7B59
  8
1
  6
CONTINUOUS
 10
5555.7049630000001
 20
3019.691456
 30
0.0
 11
5555.7049630000001
 21
3084.691456
 31
0.0
  0
LINE
  5
7B5A
  8
1
  6
CONTINUOUS
 10
5572.7049630000001
 20
4221.6914560000014
 30
0.0
 11
5572.7049630000001
 21
3665.691456
 31
0.0
  0
LINE
  5
7B5B
  8
1
  6
CONTINUOUS
 10
5672.704963000001
 20
3583.691456
 30
0.0
 11
5672.704963000001
 21
3343.691456
 31
0.0
  0
LINE
  5
7B5C
  8
1
  6
CONTINUOUS
 10
5672.704963000001
 20
3916.1914559999991
 30
0.0
 11
5817.7049630000001
 21
3916.1914559999991
 31
0.0
  0
LINE
  5
7B5D
  8
1
  6
CONTINUOUS
 10
5672.704963000001
 20
3971.191456
 30
0.0
 11
5817.7049630000001
 21
3971.191456
 31
0.0
  0
LINE
  5
7B5E
  8
1
  6
CONTINUOUS
 10
5672.704963000001
 20
3436.191456
 30
0.0
 11
5817.7049630000001
 21
3436.191456
 31
0.0
  0
LINE
  5
7B5F
  8
1
  6
CONTINUOUS
 10
5672.704963000001
 20
3491.191456
 30
0.0
 11
5817.7049630000001
 21
3491.191456
 31
0.0
  0
LINE
  5
7B60
  8
1
  6
CONTINUOUS
 10
5672.704963000001
 20
4221.6914560000014
 30
0.0
 11
5672.704963000001
 21
3665.691456
 31
0.0
  0
LINE
  5
7B61
  8
1
  6
CONTINUOUS
 10
5502.7049630000001
 20
4321.6914559999996
 30
0.0
 11
5742.7049630000001
 21
4321.6914559999996
 31
0.0
  0
LINE
  5
7B62
  8
1
  6
CONTINUOUS
 10
6770.7049630000001
 20
3333.691456
 30
0.0
 11
6770.7049630000001
 21
4553.6914560000014
 31
0.0
  0
LINE
  5
7B63
  8
1
  6
CONTINUOUS
 10
6667.7049630000001
 20
3228.6914559999991
 30
0.0
 11
6667.7049630000001
 21
5141.6914560000014
 31
0.0
  0
LINE
  5
7B64
  8
1
  6
CONTINUOUS
 10
6667.7049630000001
 20
3383.691456
 30
0.0
 11
6770.7049630000001
 21
3383.691456
 31
0.0
  0
LINE
  5
7B65
  8
1
  6
CONTINUOUS
 10
6735.7049629999992
 20
3103.6914559999991
 30
0.0
 11
6735.7049629999992
 21
3228.6914559999991
 31
0.0
  0
LINE
  5
7B66
  8
1
  6
CONTINUOUS
 10
6735.7049629999992
 20
3019.691456
 30
0.0
 11
6735.7049629999992
 21
3084.691456
 31
0.0
  0
LINE
  5
7B67
  8
1
  6
CONTINUOUS
 10
6667.7049630000001
 20
4503.6914560000014
 30
0.0
 11
6770.7049630000001
 21
4503.6914560000014
 31
0.0
  0
LINE
  5
7B68
  8
2
  6
CENTER
 10
1926.6353239999989
 20
7974.2208739999996
 30
0.0
 11
4719.774007
 21
7974.2208739999996
 31
0.0
  0
LINE
  5
7B69
  8
2
  6
CENTER
 10
6242.704963000001
 20
5350.6291299999993
 30
0.0
 11
6242.704963000001
 21
2824.02063
 31
0.0
  0
LINE
  5
7B6A
  8
2
  6
CENTER
 10
2838.2052840000001
 20
7065.3235569999988
 30
0.0
 11
2838.2052840000001
 21
8693.7222819999988
 31
0.0
  0
LINE
  5
7B6B
  8
2
  6
CENTER
 10
4170.3329089999997
 20
3943.6914559999991
 30
0.0
 11
1953.925444
 21
3943.6914559999991
 31
0.0
  0
LINE
  5
7B6C
  8
4
  6
CONTINUOUS
 10
7400.0
 20
2000.0
 30
0.0
 11
7400.0
 21
1200.0
 31
0.0
  0
LINE
  5
7B6D
  8
4
  6
CONTINUOUS
 10
4600.0
 20
2000.0
 30
0.0
 11
4600.0
 21
1200.0
 31
0.0
  0
LINE
  5
7B6E
  8
4
  6
CONTINUOUS
 10
2600.0
 20
2000.0
 30
0.0
 11
2600.0
 21
1200.0
 31
0.0
  0
LINE
  5
7B71
  8
4
  6
CONTINUOUS
 10
2600.0
 20
1200.0
 30
0.0
 11
7400.0
 21
1200.0
 31
0.0
  0
LINE
  5
7B72
  8
4
  6
CONTINUOUS
 10
2600.0
 20
1600.0
 30
0.0
 11
7400.0
 21
1600.0
 31
0.0
  0
TEXT
  5
7B73
  8
4
  6
CONTINUOUS
 10
2754.008323
 20
1726.1721030000001
 30
0.0
 40
200.0
  1
機器名称
  0
TEXT
  5
7B74
  8
4
  6
CONTINUOUS
 10
2745.032424
 20
1286.580627
 30
0.0
 40
200.0
  1
機器型番
  0
TEXT
  5
7B75
  8
4
  6
CONTINUOUS
 10
4710.7149820000004
 20
1690.2870760000001
 30
0.0
 40
200.0
  1
ミツヤ多翼送風機
  0
TEXT
  5
7B76
  8
4
  6
CONTINUOUS
 10
4746.6179819999998
 20
1268.6383370000001
 30
0.0
 40
200.0
  1
MF#7-4
  0
TEXT
  5
7B78
  8
4
  6
CONTINUOUS
 10
3081.298315
 20
9533.715365
 30
0.0
 40
216.0
  1
床置防振ベット
  0
TEXT
  5
7B79
  8
4
  6
CONTINUOUS
 10
1264.6703729999999
 20
10135.523905
 30
0.0
 40
288.0
  1
ベルト駆動式片吸込両持多翼ファン
  0
LINE
  5
7B7A
  8
4
  6
CONTINUOUS
 10
1000.0
 20
9877.6350170000005
 30
0.0
 11
7400.0
 21
9877.6350170000005
 31
0.0
  0
LINE
  5
7B7B
  8
4
  6
CONTINUOUS
 10
1000.0
 20
10677.635017000001
 30
0.0
 11
7400.0
 21
10677.635017000001
 31
0.0
  0
LINE
  5
7B7C
  8
4
  6
CONTINUOUS
 10
2600.0
 20
2000.0
 30
0.0
 11
7400.0
 21
2000.0
 31
0.0
  0
LINE
  5
7B7D
  8
4
  6
CONTINUOUS
 10
1000.0
 20
10677.635017000001
 30
0.0
 11
1000.0
 21
9877.6350170000005
 31
0.0
  0
TEXT
  5
7B7E
  8
4
  6
CONTINUOUS
 10
1337.862985999999
 20
9529.2779099999989
 30
0.0
 40
216.0
  1
左回転左横向
  0
TEXT
  5
7B7F
  8
4
  6
CONTINUOUS
 10
5875.8782369999999
 20
10824.244326
 30
0.0
 40
224.0
  1
No.
  0
TEXT
  5
7B80
  8
4
  6
CONTINUOUS
 10
5245.1842500000012
 20
9533.715365
 30
0.0
 40
216.0
  1
縮尺：1/40
  0
LINE
  5
7B81
  8
4
  6
CONTINUOUS
 10
7400.0
 20
10677.635017000001
 30
0.0
 11
7400.0
 21
9877.6350170000005
 31
0.0
  0
LINE
  5
7B83
  8
4
  6
CONTINUOUS
 10
5762.4696889999996
 20
10725.054333
 30
0.0
 11
5762.4696889999996
 21
11146.609046
 31
0.0
  0
LINE
  5
7B84
  8
4
  6
CONTINUOUS
 10
5762.4696889999996
 20
11146.609046
 30
0.0
 11
7400.0
 21
11146.609046
 31
0.0
  0
LINE
  5
7B85
  8
4
  6
CONTINUOUS
 10
7400.0
 20
11146.609046
 30
0.0
 11
7400.0
 21
10725.054333
 31
0.0
  0
LINE
  5
7B86
  8
4
  6
CONTINUOUS
 10
7400.0
 20
10725.054333
 30
0.0
 11
5762.4696889999996
 21
10725.054333
 31
0.0
  0
DIMENSION
  5
7BA3
  8
3
  6
CONTINUOUS
  2
*D1
 10
1826.0473119999999
 20
3991.691456
 30
0.0
 11
1826.0473119999999
 21
4512.3704229999994
 31
0.0
 70
   128
 13
2078.2052840000001
 23
5141.6914560000014
 33
0.0
 14
2078.2052840000001
 24
3991.691456
 34
0.0
 50
90.0
1001
ACAD
1000
DSTYLE
1002
{
1070
   287
1070
     3
1070
    40
1040
40.0
1070
   143
1040
0.039
1070
   172
1070
     1
1070
   271
1070
     0
1070
   279
1070
     0
1070
   288
1070
     1
1002
}
  0
DIMENSION
  5
7BB0
  8
3
  6
CONTINUOUS
  2
*D2
 10
1561.03809
 20
3943.6914559999991
 30
0.0
 11
1561.03809
 21
4512.3704229999994
 31
0.0
 70
   128
 13
2078.2052840000001
 23
5141.6914560000014
 33
0.0
 14
1953.925444
 24
3943.6914559999991
 34
0.0
 50
90.0
1001
ACAD
1000
DSTYLE
1002
{
1070
   287
1070
     3
1070
    40
1040
40.0
1070
   143
1040
0.039
1070
   172
1070
     1
1070
   271
1070
     0
1070
   279
1070
     0
1070
   288
1070
     1
1002
}
  0
DIMENSION
  5
7BBC
  8
3
  6
CONTINUOUS
  2
*D3
 10
1561.03809
 20
3103.6914559999991
 30
0.0
 11
1461.0380899999991
 21
3523.691456
 31
0.0
 70
     0
 13
1953.925444
 23
3943.6914559999991
 33
0.0
 14
2178.2052840000001
 24
3103.6914559999991
 34
0.0
 50
90.0
1001
ACAD
1000
DSTYLE
1002
{
1070
   287
1070
     4
1070
    40
1040
40.0
1070
    75
1070
     1
1070
   143
1040
0.039
1070
   172
1070
     1
1070
   271
1070
     0
1070
   279
1070
     1
1070
   288
1070
     1
1002
}
  0
DIMENSION
  5
7BCC
  8
3
  6
CONTINUOUS
  2
*D4
 10
1562.9401310000001
 20
3019.691456
 30
0.0
 11
1562.9401310000001
 21
2719.691456
 31
0.0
 70
   128
 13
2178.2052840000001
 23
3103.6914559999991
 33
0.0
 14
2178.2052840000001
 24
3019.691456
 34
0.0
 50
90.0
1001
ACAD
1000
DSTYLE
1002
{
1070
   287
1070
     3
1070
    40
1040
40.0
1070
   143
1040
0.039
1070
   172
1070
     1
1070
   271
1070
     0
1070
   279
1070
     0
1070
   288
1070
     1
1002
}
  0
DIMENSION
  5
7BE7
  8
3
  6
CONTINUOUS
  2
*D5
 10
1302.1234199999999
 20
3019.691456
 30
0.0
 11
1302.1234199999999
 21
4015.7764520000001
 31
0.0
 70
   128
 13
2078.2052840000001
 23
5194.6914560000014
 33
0.0
 14
2178.2052840000001
 24
3019.691456
 34
0.0
 50
90.0
1001
ACAD
1000
DSTYLE
1002
{
1070
   287
1070
     3
1070
    40
1040
40.0
1070
   143
1040
0.039
1070
   172
1070
     1
1070
   271
1070
     0
1070
   279
1070
     0
1070
   288
1070
     1
1002
}
  0
DIMENSION
  5
7BF4
  8
3
  6
CONTINUOUS
  2
*D6
 10
2838.2052840000001
 20
5439.3458220000002
 30
0.0
 11
2466.4862889999999
 21
5439.3458220000002
 31
0.0
 70
   128
 13
2078.2052840000001
 23
5194.6914560000014
 33
0.0
 14
2838.2052840000001
 24
5283.8092240000014
 34
0.0
1001
ACAD
1000
DSTYLE
1002
{
1070
   287
1070
     3
1070
    40
1040
40.0
1070
   143
1040
0.039
1070
   172
1070
     1
1070
   271
1070
     0
1070
   279
1070
     0
1070
   288
1070
     1
1002
}
  0
DIMENSION
  5
7C0D
  8
3
  6
CONTINUOUS
  2
*D7
 10
2838.2052840000001
 20
2713.596692999999
 30
0.0
 11
2510.6545379999998
 21
2713.596692999999
 31
0.0
 70
   128
 13
2178.2052840000001
 23
3019.691456
 33
0.0
 14
2838.2052840000001
 24
2851.4920929999998
 34
0.0
1001
ACAD
1000
DSTYLE
1002
{
1070
   287
1070
     3
1070
    40
1040
40.0
1070
   143
1040
0.039
1070
   172
1070
     1
1070
   271
1070
     0
1070
   279
1070
     0
1070
   288
1070
     1
1002
}
  0
DIMENSION
  5
7C19
  8
3
  6
CONTINUOUS
  2
*D8
 10
4538.2052839999997
 20
2713.596692999999
 30
0.0
 11
3688.2052840000001
 21
2813.596693
 31
0.0
 70
     0
 13
2838.2052840000001
 23
2851.4920929999998
 33
0.0
 14
4538.2052839999997
 24
3019.691456
 34
0.0
1001
ACAD
1000
DSTYLE
1002
{
1070
   287
1070
     4
1070
    40
1040
40.0
1070
    75
1070
     1
1070
   143
1040
0.039
1070
   172
1070
     1
1070
   271
1070
     0
1070
   279
1070
     1
1070
   288
1070
     1
1002
}
  0
DIMENSION
  5
7C26
  8
3
  6
CONTINUOUS
  2
*D9
 10
6667.7049630000001
 20
5340.0270490000003
 30
0.0
 11
6242.8679119999997
 21
5340.0270490000003
 31
0.0
 70
   128
 13
5817.7049630000001
 23
5141.6914560000014
 33
0.0
 14
6667.7049630000001
 24
5141.6914560000014
 34
0.0
1001
ACAD
1000
DSTYLE
1002
{
1070
   287
1070
     3
1070
    40
1040
40.0
1070
   143
1040
0.039
1070
   172
1070
     1
1070
   271
1070
     0
1070
   279
1070
     0
1070
   288
1070
     1
1002
}
  0
DIMENSION
  5
7C33
  8
3
  6
CONTINUOUS
  2
*D10
 10
7104.1479070000014
 20
3383.691456
 30
0.0
 11
7104.1479069999987
 21
3894.3867869999999
 31
0.0
 70
   128
 13
6770.7049630000001
 23
4503.6914560000014
 33
0.0
 14
6770.7049630000001
 24
3383.691456
 34
0.0
 50
90.0
1001
ACAD
1000
DSTYLE
1002
{
1070
   287
1070
     3
1070
     3
1000
φ<>
1070
    40
1040
40.0
1070
   143
1040
0.039
1070
   172
1070
     1
1070
   271
1070
     0
1070
   279
1070
     0
1070
   288
1070
     1
1002
}
  0
DIMENSION
  5
7C42
  8
3
  6
CONTINUOUS
  2
*D11
 10
6242.704963000001
 20
5571.7709060000007
 30
0.0
 11
6506.7049630000001
 21
5675.6446594888521
 31
0.0
 70
   128
 13
6770.7049630000001
 23
4553.6914560000014
 33
0.0
 14
6242.704963000001
 24
5523.9898539999986
 34
0.0
1001
ACAD
1000
DSTYLE
1002
{
1070
   288
1070
     1
1070
   172
1070
     1
1070
    40
1040
40.0
1070
   271
1070
     0
1070
   143
1040
0.039
1002
}
  0
DIMENSION
  5
7C4E
  8
3
  6
CONTINUOUS
  2
*D12
 10
5502.7049630000001
 20
5571.7709060000007
 30
0.0
 11
5872.7049630000001
 21
5771.7709059999997
 31
0.0
 70
     0
  1
MAX\P850
 13
6242.704963000001
 23
5523.9898539999986
 33
0.0
 14
5502.7049630000001
 24
4321.6914559999996
 34
0.0
1001
ACAD
1000
DSTYLE
1002
{
1070
   287
1070
     4
1070
    40
1040
40.0
1070
    75
1070
     1
1070
   143
1040
0.039
1070
   172
1070
     1
1070
   271
1070
     0
1070
   279
1070
     1
1070
   288
1070
     1
1002
}
  0
DIMENSION
  5
7C5B
  8
3
  6
CONTINUOUS
  2
*D13
 10
6242.704963000001
 20
2666.4359100000001
 30
0.0
 11
5922.648424
 21
2666.4359100000001
 31
0.0
 70
   128
 13
5555.7049630000001
 23
3019.691456
 33
0.0
 14
6242.704963000001
 24
2824.02063
 34
0.0
1001
ACAD
1000
DSTYLE
1002
{
1070
   287
1070
     3
1070
    40
1040
40.0
1070
   143
1040
0.039
1070
   172
1070
     1
1070
   271
1070
     0
1070
   279
1070
     0
1070
   288
1070
     1
1002
}
  0
DIMENSION
  5
7C69
  8
3
  6
CONTINUOUS
  2
*D14
 10
6735.7049629999992
 20
2666.4359100000001
 30
0.0
 11
6493.216426
 21
2663.4674930000001
 31
0.0
 70
   128
 13
6242.704963000001
 23
2824.02063
 33
0.0
 14
6735.7049629999992
 24
3019.691456
 34
0.0
1001
ACAD
1000
DSTYLE
1002
{
1070
   287
1070
     4
1070
    40
1040
40.0
1070
    75
1070
     1
1070
   143
1040
0.039
1070
   172
1070
     1
1070
   271
1070
     0
1070
   279
1070
     1
1070
   288
1070
     1
1002
}
  0
DIMENSION
  5
7C8D
  8
3
  6
CONTINUOUS
  2
*D15
 10
4538.2052839999997
 20
6910.5591030000014
 30
0.0
 11
3239.4299219999998
 21
6910.5591030000014
 31
0.0
 70
   128
 13
2178.2052840000001
 23
7287.2208739999996
 33
0.0
 14
4538.2052839999997
 24
7287.2208739999996
 34
0.0
1001
ACAD
1000
DSTYLE
1002
{
1070
   287
1070
     3
1070
    40
1040
40.0
1070
   143
1040
0.039
1070
   172
1070
     1
1070
   271
1070
     0
1070
   279
1070
     0
1070
   288
1070
     1
1002
}
  0
DIMENSION
  5
7C9A
  8
3
  6
CONTINUOUS
  2
*D16
 10
4917.8217550000008
 20
7287.2208739999996
 30
0.0
 11
4917.8217549999999
 21
7804.4282719999992
 31
0.0
 70
   128
 13
4538.2052839999997
 23
8467.2208739999987
 33
0.0
 14
4538.2052839999997
 24
7287.2208739999996
 34
0.0
 50
90.0
1001
ACAD
1000
DSTYLE
1002
{
1070
   287
1070
     3
1070
    40
1040
40.0
1070
   143
1040
0.039
1070
   172
1070
     1
1070
   271
1070
     0
1070
   279
1070
     0
1070
   288
1070
     1
1002
}
  0
DIMENSION
  5
7CD0
  8
3
  6
CONTINUOUS
  2
*D17
 10
3807.2052840000001
 20
5439.3458220000002
 30
0.0
 11
3322.7052839999992
 21
5539.3458220000011
 31
0.0
 70
     0
 13
2838.2052840000001
 23
5283.8092240000014
 33
0.0
 14
3807.2052840000001
 24
3943.6914559999991
 34
0.0
1001
ACAD
1000
DSTYLE
1002
{
1070
   287
1070
     4
1070
    40
1040
40.0
1070
    75
1070
     1
1070
   143
1040
0.039
1070
   172
1070
     1
1070
   271
1070
     0
1070
   279
1070
     1
1070
   288
1070
     1
1002
}
  0
DIMENSION
  5
7D1F
  8
3
  2
*D18
 10
4538.2052839999997
 20
5682.6484396884671
 30
0.0
 11
3344.632803884916
 21
5682.6484396884671
 31
0.0
 70
   128
 13
2078.2052840000001
 23
5194.6914560000014
 33
0.0
 14
4538.2052839999997
 24
3228.6914559999991
 34
0.0
1001
ACAD
1000
DSTYLE
1002
{
1070
   287
1070
     3
1070
    40
1040
40.0
1070
   143
1040
0.039
1070
   172
1070
     1
1070
   271
1070
     0
1070
   279
1070
     0
1070
   288
1070
     1
1002
}
  0
ENDSEC
  0
EOF
