  0
SECTION
  2
HEADER
  9
$ACADVER
  1
AC1009
  9
$INSBASE
 10
0.0
 20
0.0
 30
0.0
  9
$EXTMIN
 10
1000.0
 20
1200.0
 30
0.0
  9
$EXTMAX
 10
7400.0
 20
11146.609046
 30
0.0
  9
$LIMMIN
 10
0.0
 20
0.0
  9
$LIMMAX
 10
297.0
 20
210.0
  9
$ORTHOMODE
 70
     0
  9
$REGENMODE
 70
     1
  9
$FILLMODE
 70
     0
  9
$QTEXTMODE
 70
     0
  9
$MIRRTEXT
 70
     1
  9
$DRAGMODE
 70
     2
  9
$LTSCALE
 40
100.0
  9
$OSMODE
 70
    37
  9
$ATTMODE
 70
     1
  9
$TEXTSIZE
 40
180.0
  9
$TRACEWID
 40
0.05
  9
$TEXTSTYLE
  7
STANDARD
  9
$CLAYER
  8
3
  9
$CELTYPE
  6
BYLAYER
  9
$CECOLOR
 62
   256
  9
$DIMSCALE
 40
40.0
  9
$DIMASZ
 40
2.0
  9
$DIMEXO
 40
0.5
  9
$DIMDLI
 40
10.0
  9
$DIMRND
 40
0.0
  9
$DIMDLE
 40
0.0
  9
$DIMEXE
 40
1.0
  9
$DIMTP
 40
1.0
  9
$DIMTM
 40
1.0
  9
$DIMTXT
 40
3.0
  9
$DIMCEN
 40
0.0
  9
$DIMTSZ
 40
0.0
  9
$DIMTOL
 70
     0
  9
$DIMLIM
 70
     0
  9
$DIMTIH
 70
     0
  9
$DIMTOH
 70
     0
  9
$DIMSE1
 70
     0
  9
$DIMSE2
 70
     0
  9
$DIMTAD
 70
     1
  9
$DIMZIN
 70
     8
  9
$DIMBLK
  1

  9
$DIMASO
 70
     1
  9
$DIMSHO
 70
     1
  9
$DIMPOST
  1

  9
$DIMAPOST
  1

  9
$DIMALT
 70
     0
  9
$DIMALTD
 70
     2
  9
$DIMALTF
 40
0.039
  9
$DIMLFAC
 40
1.0
  9
$DIMTOFL
 70
     1
  9
$DIMTVP
 40
0.0
  9
$DIMTIX
 70
     0
  9
$DIMSOXD
 70
     0
  9
$DIMSAH
 70
     1
  9
$DIMBLK1
  1
OPEN
  9
$DIMBLK2
  1
OPEN
  9
$DIMSTYLE
  2
IGA
  9
$DIMCLRD
 70
     0
  9
$DIMCLRE
 70
     0
  9
$DIMCLRT
 70
     0
  9
$DIMTFAC
 40
10.0
  9
$DIMGAP
 40
1.0
  9
$LUNITS
 70
     2
  9
$LUPREC
 70
     3
  9
$SKETCHINC
 40
0.1
  9
$FILLETRAD
 40
50.0
  9
$AUNITS
 70
     0
  9
$AUPREC
 70
     0
  9
$MENU
  1
acad
  9
$ELEVATION
 40
0.0
  9
$PELEVATION
 40
0.0
  9
$THICKNESS
 40
0.0
  9
$LIMCHECK
 70
     0
  9
$BLIPMODE
 70
     0
  9
$CHAMFERA
 40
0.5
  9
$CHAMFERB
 40
0.5
  9
$SKPOLY
 70
     0
  9
$TDCREATE
 40
2450753.6438449072
  9
$TDUPDATE
 40
2454953.778964838
  9
$TDINDWG
 40
0.0054764468
  9
$TDUSRTIMER
 40
0.0054764468
  9
$USRTIMER
 70
     1
  9
$ANGBASE
 50
0.0
  9
$ANGDIR
 70
     0
  9
$PDMODE
 70
     0
  9
$PDSIZE
 40
0.0
  9
$PLINEWID
 40
0.0
  9
$COORDS
 70
     1
  9
$SPLFRAME
 70
     0
  9
$SPLINETYPE
 70
     6
  9
$SPLINESEGS
 70
     8
  9
$ATTDIA
 70
     0
  9
$ATTREQ
 70
     1
  9
$HANDLING
 70
 10241
  9
$HANDSEED
  5
7DED
  9
$SURFTAB1
 70
     6
  9
$SURFTAB2
 70
     6
  9
$SURFTYPE
 70
     6
  9
$SURFU
 70
     6
  9
$SURFV
 70
     6
  9
$UCSNAME
  2

  9
$UCSORG
 10
0.0
 20
0.0
 30
0.0
  9
$UCSXDIR
 10
1.0
 20
0.0
 30
0.0
  9
$UCSYDIR
 10
0.0
 20
1.0
 30
0.0
  9
$PUCSNAME
  2

  9
$PUCSORG
 10
0.0
 20
0.0
 30
0.0
  9
$PUCSXDIR
 10
1.0
 20
0.0
 30
0.0
  9
$PUCSYDIR
 10
0.0
 20
1.0
 30
0.0
  9
$USERI1
 70
     0
  9
$USERI2
 70
     0
  9
$USERI3
 70
     0
  9
$USERI4
 70
     0
  9
$USERI5
 70
     0
  9
$USERR1
 40
0.0
  9
$USERR2
 40
0.0
  9
$USERR3
 40
0.0
  9
$USERR4
 40
0.0
  9
$USERR5
 40
0.0
  9
$WORLDVIEW
 70
     1
  9
$SHADEDGE
 70
     3
  9
$SHADEDIF
 70
    70
  9
$TILEMODE
 70
     1
  9
$MAXACTVP
 70
    16
  9
$PLIMCHECK
 70
     0
  9
$PEXTMIN
 10
1.0000000000000000E+020
 20
1.0000000000000000E+020
 30
1.0000000000000000E+020
  9
$PEXTMAX
 10
-1.0000000000000000E+020
 20
-1.0000000000000000E+020
 30
-1.0000000000000000E+020
  9
$PLIMMIN
 10
0.0
 20
0.0
  9
$PLIMMAX
 10
12.0
 20
9.0
  9
$UNITMODE
 70
     0
  9
$VISRETAIN
 70
     0
  9
$PLINEGEN
 70
     0
  9
$PSLTSCALE
 70
     1
  0
ENDSEC
  0
SECTION
  2
TABLES
  0
TABLE
  2
VPORT
 70
     2
  0
VPORT
  2
*ACTIVE
 70
     0
 10
0.0
 20
0.0
 11
1.0
 21
1.0
 12
12584.224953905899
 22
6173.2749996292814
 13
0.0
 23
0.0
 14
10.0
 24
10.0
 15
10.0
 25
10.0
 16
0.0
 26
0.0
 36
1.0
 17
0.0
 27
0.0
 37
0.0
 40
10022.99371525931
 41
3.1666666666666661
 42
50.0
 43
0.0
 44
0.0
 50
0.0
 51
0.0
 71
     0
 72
   100
 73
     1
 74
     0
 75
     0
 76
     0
 77
     0
 78
     0
  0
ENDTAB
  0
TABLE
  2
LTYPE
 70
     2
  0
LTYPE
  2
CONTINUOUS
 70
     0
  3
Solid line
 72
    65
 73
     0
 40
0.0
  0
LTYPE
  2
CENTER
 70
     0
  3
____ _ ____ _ ____ _ ____ _ ____ _ ____ _ ____ 
 72
    65
 73
     4
 40
2.0
 49
1.25
 49
-0.25
 49
0.25
 49
-0.25
  0
ENDTAB
  0
TABLE
  2
LAYER
 70
     6
  0
LAYER
  2
0
 70
     0
 62
     7
  6
CONTINUOUS
  0
LAYER
  2
3
 70
     0
 62
     2
  6
CONTINUOUS
  0
LAYER
  2
2
 70
     0
 62
     3
  6
CENTER
  0
LAYER
  2
1
 70
     0
 62
     4
  6
CONTINUOUS
  0
LAYER
  2
4
 70
     0
 62
     7
  6
CONTINUOUS
  0
LAYER
  2
DEFPOINTS
 70
     0
 62
     7
  6
CONTINUOUS
  0
ENDTAB
  0
TABLE
  2
STYLE
 70
     1
  0
STYLE
  2
STANDARD
 70
     0
 40
0.0
 41
1.0
 50
0.0
 71
     0
 42
180.0
  3
simplex.shx
  4
extfont.shx
  0
ENDTAB
  0
TABLE
  2
VIEW
 70
     0
  0
ENDTAB
  0
TABLE
  2
UCS
 70
     0
  0
ENDTAB
  0
TABLE
  2
APPID
 70
     1
  0
APPID
  2
ACAD
 70
     0
  0
ENDTAB
  0
TABLE
  2
DIMSTYLE
 70
     1
  0
DIMSTYLE
  2
IGA
 70
     0
  3

  4

  5

  6
OPEN
  7
OPEN
 40
2.0
 41
2.0
 42
0.5
 43
10.0
 44
1.0
 45
0.0
 46
0.0
 47
1.0
 48
1.0
140
3.0
141
0.0
142
0.0
143
0.03937
144
1.0
145
0.0
146
10.0
147
1.0
 71
     0
 72
     0
 73
     0
 74
     0
 75
     0
 76
     0
 77
     1
 78
     8
170
     0
171
     2
172
     0
173
     1
174
     0
175
     0
176
     0
177
     0
178
     0
  0
ENDTAB
  0
ENDSEC
  0
SECTION
  2
BLOCKS
  0
BLOCK
  8
0
  2
$MODEL_SPACE
 70
     0
 10
0.0
 20
0.0
 30
0.0
  3
$MODEL_SPACE
  1

  0
ENDBLK
  5
1B
  8
0
  0
BLOCK
 67
     1
  8
0
  2
$PAPER_SPACE
 70
     0
 10
0.0
 20
0.0
 30
0.0
  3
$PAPER_SPACE
  1

  0
ENDBLK
  5
18
 67
     1
  8
0
  0
BLOCK
  8
0
  2
_OPEN
 70
     0
 10
0.0
 20
0.0
 30
0.0
  3
_OPEN
  1

  0
LINE
  5
7B73
  8
0
  6
BYBLOCK
 62
     0
 10
-1.0
 20
0.166667
 30
0.0
 11
0.0
 21
0.0
 31
0.0
  0
LINE
  5
7B74
  8
0
  6
BYBLOCK
 62
     0
 10
0.0
 20
0.0
 30
0.0
 11
-1.0
 21
-0.166667
 31
0.0
  0
LINE
  5
7B75
  8
0
  6
BYBLOCK
 62
     0
 10
0.0
 20
0.0
 30
0.0
 11
-1.0
 21
0.0
 31
0.0
  0
ENDBLK
  5
7B76
  8
0
  0
BLOCK
  8
0
  2
*D1
 70
     1
 10
0.0
 20
0.0
 30
0.0
  3
*D1
  1

  0
LINE
  5
7D45
  8
3
  6
CONTINUOUS
 62
     0
 10
2253.4707380440018
 20
3415.4519690000002
 30
0.0
 11
1998.565940044002
 21
3415.4519690000002
 31
0.0
  0
LINE
  5
7D46
  8
3
  6
CONTINUOUS
 62
     0
 10
2253.4707380440018
 20
4565.4519689999997
 30
0.0
 11
1998.5659400440029
 21
4565.4519689999997
 31
0.0
  0
LINE
  5
7D47
  8
3
  6
CONTINUOUS
 62
     0
 10
2038.5659400440029
 20
3495.4519689999988
 30
0.0
 11
2038.5659400440029
 21
4485.4519690000006
 31
0.0
  0
INSERT
  5
7D48
  8
3
  6
CONTINUOUS
 62
     0
  2
_OPEN
 10
2038.5659400440029
 20
3415.4519690000002
 30
0.0
 41
80.0
 42
80.0
 43
80.0
 50
270.0
  0
INSERT
  5
7D49
  8
3
  6
CONTINUOUS
 62
     0
  2
_OPEN
 10
2038.5659400440029
 20
4565.4519689999997
 30
0.0
 41
80.0
 42
80.0
 43
80.0
 50
90.0
  0
TEXT
  8
3
  40
120
  5
7DDB
  62
0
  72
0
  71
0
 10
1698.57
 20
3785.32
 30
0.000000
  1
1150
  0
POINT
  5
7D4B
  8
DEFPOINTS
  6
CONTINUOUS
 62
     0
 10
2273.4707380440018
 20
3415.4519690000002
 30
0.0
  0
POINT
  5
7D4C
  8
DEFPOINTS
  6
CONTINUOUS
 62
     0
 10
2273.4707380440018
 20
4565.4519689999997
 30
0.0
  0
POINT
  5
7D4D
  8
DEFPOINTS
  6
CONTINUOUS
 62
     0
 10
2038.5659400440029
 20
4565.4519689999997
 30
0.0
  0
ENDBLK
  5
7B83
  8
0
  0
BLOCK
  8
0
  2
*D2
 70
     1
 10
0.0
 20
0.0
 30
0.0
  3
*D2
  1

  0
LINE
  5
7D4E
  8
3
  6
CONTINUOUS
 62
     0
 10
2253.4707380440018
 20
3415.4519690000002
 30
0.0
 11
1735.3300610440031
 21
3415.4519690000002
 31
0.0
  0
LINE
  5
7D4F
  8
3
  6
CONTINUOUS
 62
     0
 10
2029.0527490440029
 20
4613.4519689999997
 30
0.0
 11
1735.3300610440031
 21
4613.4519689999997
 31
0.0
  0
LINE
  5
7D50
  8
3
  6
CONTINUOUS
 62
     0
 10
1775.3300610440031
 20
3495.4519689999988
 30
0.0
 11
1775.3300610440031
 21
4533.4519689999997
 31
0.0
  0
INSERT
  5
7D51
  8
3
  6
CONTINUOUS
 62
     0
  2
_OPEN
 10
1775.3300610440031
 20
3415.4519690000002
 30
0.0
 41
80.0
 42
80.0
 43
80.0
 50
270.0
  0
INSERT
  5
7D52
  8
3
  6
CONTINUOUS
 62
     0
  2
_OPEN
 10
1775.3300610440031
 20
4613.4519689999997
 30
0.0
 41
80.0
 42
80.0
 43
80.0
 50
90.0
  0
TEXT
  8
3
  40
120
  5
7DDC
  62
0
  72
0
  71
0
 10
1435.33
 20
3777.35
 30
0.000000
  1
1198
  0
POINT
  5
7D54
  8
DEFPOINTS
  6
CONTINUOUS
 62
     0
 10
2273.4707380440018
 20
3415.4519690000002
 30
0.0
  0
POINT
  5
7D55
  8
DEFPOINTS
  6
CONTINUOUS
 62
     0
 10
2049.0527490440022
 20
4613.4519689999988
 30
0.0
  0
POINT
  5
7D56
  8
DEFPOINTS
  6
CONTINUOUS
 62
     0
 10
1775.3300610440031
 20
4613.4519689999997
 30
0.0
  0
ENDBLK
  5
7B90
  8
0
  0
BLOCK
  8
0
  2
*D3
 70
     1
 10
0.0
 20
0.0
 30
0.0
  3
*D3
  1

  0
LINE
  5
7D57
  8
3
  6
CONTINUOUS
 62
     0
 10
2029.0527490440029
 20
4613.4519689999997
 30
0.0
 11
1472.0942290440021
 21
4613.4519689999997
 31
0.0
  0
LINE
  5
7D58
  8
3
  6
CONTINUOUS
 62
     0
 10
2353.4707380440018
 20
3258.4519690000002
 30
0.0
 11
1472.0942290440021
 21
3258.4519690000002
 31
0.0
  0
LINE
  5
7D59
  8
3
  6
CONTINUOUS
 62
     0
 10
1512.0942290440021
 20
4533.4519689999997
 30
0.0
 11
1512.0942290440021
 21
3338.4519690000002
 31
0.0
  0
INSERT
  5
7D5A
  8
3
  6
CONTINUOUS
 62
     0
  2
_OPEN
 10
1512.0942290440021
 20
4613.4519689999997
 30
0.0
 41
80.0
 42
80.0
 43
80.0
 50
90.0
  0
INSERT
  5
7D5B
  8
3
  6
CONTINUOUS
 62
     0
  2
_OPEN
 10
1512.0942290440021
 20
3258.4519690000002
 30
0.0
 41
80.0
 42
80.0
 43
80.0
 50
270.0
  0
TEXT
  8
3
  40
120
  5
7DDD
  62
0
  72
0
  71
0
 10
1172.09
 20
3723.55
 30
0.000000
  1
1355
  0
POINT
  5
7D5D
  8
DEFPOINTS
  6
CONTINUOUS
 62
     0
 10
2049.0527490440022
 20
4613.4519689999988
 30
0.0
  0
POINT
  5
7D5E
  8
DEFPOINTS
  6
CONTINUOUS
 62
     0
 10
2373.4707380440018
 20
3258.4519690000002
 30
0.0
  0
POINT
  5
7D5F
  8
DEFPOINTS
  6
CONTINUOUS
 62
     0
 10
1512.0942290440021
 20
3258.4519690000002
 30
0.0
  0
ENDBLK
  5
7D22
  8
0
  0
BLOCK
  8
0
  2
*D4
 70
     1
 10
0.0
 20
0.0
 30
0.0
  3
*D4
  1

  0
LINE
  5
7D60
  8
3
  6
CONTINUOUS
 62
     0
 10
2373.4707380440018
 20
3238.4519690000002
 30
0.0
 11
2373.4707380440018
 21
2905.4127720000001
 31
0.0
  0
LINE
  5
7D61
  8
3
  6
CONTINUOUS
 62
     0
 10
3033.4707380440018
 20
3132.4352359999998
 30
0.0
 11
3033.4707380440018
 21
2905.4127720000001
 31
0.0
  0
LINE
  5
7D62
  8
3
  6
CONTINUOUS
 62
     0
 10
2453.4707380440018
 20
2945.4127720000001
 30
0.0
 11
2953.4707380440018
 21
2945.4127720000001
 31
0.0
  0
INSERT
  5
7D63
  8
3
  6
CONTINUOUS
 62
     0
  2
_OPEN
 10
2373.4707380440018
 20
2945.4127720000001
 30
0.0
 41
80.0
 42
80.0
 43
80.0
 50
180.0
  0
INSERT
  5
7D64
  8
3
  6
CONTINUOUS
 62
     0
  2
_OPEN
 10
3033.4707380440018
 20
2945.4127720000001
 30
0.0
 41
80.0
 42
80.0
 43
80.0
  0
TEXT
  8
3
  40
120
  5
7DDE
  62
0
  72
0
  71
0
 10
2460.64
 20
2833.01
 30
0.000000
  1
660
  0
POINT
  5
7D66
  8
DEFPOINTS
  6
CONTINUOUS
 62
     0
 10
2373.4707380440018
 20
3258.4519690000002
 30
0.0
  0
POINT
  5
7D67
  8
DEFPOINTS
  6
CONTINUOUS
 62
     0
 10
3033.4707380440018
 20
3152.4352359999998
 30
0.0
  0
POINT
  5
7D68
  8
DEFPOINTS
  6
CONTINUOUS
 62
     0
 10
3033.4707380440018
 20
2945.4127720000001
 30
0.0
  0
ENDBLK
  5
7BC3
  8
0
  0
BLOCK
  8
0
  2
*D5
 70
     1
 10
0.0
 20
0.0
 30
0.0
  3
*D5
  1

  0
LINE
  5
7D69
  8
3
  6
CONTINUOUS
 62
     0
 10
4733.4707380440022
 20
3238.4519690000002
 30
0.0
 11
4733.4707380440022
 21
2905.4127720000001
 31
0.0
  0
LINE
  5
7D6A
  8
3
  6
CONTINUOUS
 62
     0
 10
3113.4707380440018
 20
2945.4127720000001
 30
0.0
 11
4653.4707380440022
 21
2945.4127720000001
 31
0.0
  0
INSERT
  5
7D6B
  8
3
  6
CONTINUOUS
 62
     0
  2
_OPEN
 10
3033.4707380440018
 20
2945.4127720000001
 30
0.0
 41
80.0
 42
80.0
 43
80.0
 50
180.0
  0
INSERT
  5
7D6C
  8
3
  6
CONTINUOUS
 62
     0
  2
_OPEN
 10
4733.4707380440022
 20
2945.4127720000001
 30
0.0
 41
80.0
 42
80.0
 43
80.0
  0
TEXT
  8
3
  40
120
  5
7DDF
  62
0
  72
0
  71
0
 10
3643.47
 20
2833.01
 30
0.000000
  1
1700
  0
POINT
  5
7D6E
  8
DEFPOINTS
  6
CONTINUOUS
 62
     0
 10
3033.4707380440018
 20
3152.4352359999998
 30
0.0
  0
POINT
  5
7D6F
  8
DEFPOINTS
  6
CONTINUOUS
 62
     0
 10
4733.4707380440022
 20
3258.4519690000002
 30
0.0
  0
POINT
  5
7D70
  8
DEFPOINTS
  6
CONTINUOUS
 62
     0
 10
4733.4707380440022
 20
2945.4127720000001
 30
0.0
  0
ENDBLK
  5
7BCF
  8
0
  0
BLOCK
  8
0
  2
*D6
 70
     1
 10
0.0
 20
0.0
 30
0.0
  3
*D6
  1

  0
LINE
  5
7D71
  8
3
  6
CONTINUOUS
 62
     0
 10
2273.4707380440018
 20
4638.4519689999997
 30
0.0
 11
2273.4707380440018
 21
5664.0231979999999
 31
0.0
  0
LINE
  5
7D72
  8
3
  6
CONTINUOUS
 62
     0
 10
3033.4707380440018
 20
5587.0962250000002
 30
0.0
 11
3033.4707380440018
 21
5664.0231979999999
 31
0.0
  0
LINE
  5
7D73
  8
3
  6
CONTINUOUS
 62
     0
 10
2353.4707380440018
 20
5624.023197999999
 30
0.0
 11
2953.4707380440018
 21
5624.023197999999
 31
0.0
  0
INSERT
  5
7D74
  8
3
  6
CONTINUOUS
 62
     0
  2
_OPEN
 10
2273.4707380440018
 20
5624.023197999999
 30
0.0
 41
80.0
 42
80.0
 43
80.0
 50
180.0
  0
INSERT
  5
7D75
  8
3
  6
CONTINUOUS
 62
     0
  2
_OPEN
 10
3033.4707380440018
 20
5624.023197999999
 30
0.0
 41
80.0
 42
80.0
 43
80.0
  0
TEXT
  8
3
  40
120
  5
7DE0
  62
0
  72
0
  71
0
 10
2428.74
 20
5511.62
 30
0.000000
  1
760
  0
POINT
  5
7D77
  8
DEFPOINTS
  6
CONTINUOUS
 62
     0
 10
2273.4707380440018
 20
4618.4519689999988
 30
0.0
  0
POINT
  5
7D78
  8
DEFPOINTS
  6
CONTINUOUS
 62
     0
 10
3033.4707380440018
 20
5567.0962250000002
 30
0.0
  0
POINT
  5
7D79
  8
DEFPOINTS
  6
CONTINUOUS
 62
     0
 10
3033.4707380440018
 20
5624.023197999999
 30
0.0
  0
ENDBLK
  5
7BDC
  8
0
  0
BLOCK
  8
0
  2
*D7
 70
     1
 10
0.0
 20
0.0
 30
0.0
  3
*D7
  1

  0
LINE
  5
7D7A
  8
3
  6
CONTINUOUS
 62
     0
 10
5854.0426190440021
 20
5441.6519689999986
 30
0.0
 11
5854.0426190440021
 21
5656.0511319999987
 31
0.0
  0
LINE
  5
7D7B
  8
3
  6
CONTINUOUS
 62
     0
 10
6704.0426190440021
 20
5441.6519689999986
 30
0.0
 11
6704.0426190440021
 21
5656.0511319999987
 31
0.0
  0
LINE
  5
7D7C
  8
3
  6
CONTINUOUS
 62
     0
 10
5934.0426190440021
 20
5616.0511319999987
 30
0.0
 11
6624.0426190440021
 21
5616.0511319999987
 31
0.0
  0
INSERT
  5
7D7D
  8
3
  6
CONTINUOUS
 62
     0
  2
_OPEN
 10
5854.0426190440021
 20
5616.0511319999987
 30
0.0
 41
80.0
 42
80.0
 43
80.0
 50
180.0
  0
INSERT
  5
7D7E
  8
3
  6
CONTINUOUS
 62
     0
  2
_OPEN
 10
6704.0426190440021
 20
5616.0511319999987
 30
0.0
 41
80.0
 42
80.0
 43
80.0
  0
TEXT
  8
3
  40
120
  5
7DE1
  62
0
  72
0
  71
0
 10
6042.25
 20
5503.65
 30
0.000000
  1
850
  0
POINT
  5
7D80
  8
DEFPOINTS
  6
CONTINUOUS
 62
     0
 10
5854.0426190440021
 20
5421.6519689999996
 30
0.0
  0
POINT
  5
7D81
  8
DEFPOINTS
  6
CONTINUOUS
 62
     0
 10
6704.0426190440021
 20
5421.6519689999996
 30
0.0
  0
POINT
  5
7D82
  8
DEFPOINTS
  6
CONTINUOUS
 62
     0
 10
6704.0426190440021
 20
5616.0511319999987
 30
0.0
  0
ENDBLK
  5
7BF5
  8
0
  0
BLOCK
  8
0
  2
*D8
 70
     1
 10
0.0
 20
0.0
 30
0.0
  3
*D8
  1

  0
LINE
  5
7D83
  8
3
  6
CONTINUOUS
 62
     0
 10
6827.0426190440021
 20
5173.4519689999997
 30
0.0
 11
7151.838855044004
 21
5173.4519689999997
 31
0.0
  0
LINE
  5
7D84
  8
3
  6
CONTINUOUS
 62
     0
 10
6827.0426190440021
 20
4053.4519690000002
 30
0.0
 11
7151.838855044004
 21
4053.4519690000002
 31
0.0
  0
LINE
  5
7D85
  8
3
  6
CONTINUOUS
 62
     0
 10
7111.8388550440031
 20
5093.4519689999997
 30
0.0
 11
7111.8388550440031
 21
4133.4519689999997
 31
0.0
  0
INSERT
  5
7D86
  8
3
  6
CONTINUOUS
 62
     0
  2
_OPEN
 10
7111.8388550440031
 20
5173.4519689999997
 30
0.0
 41
80.0
 42
80.0
 43
80.0
 50
90.0
  0
INSERT
  5
7D87
  8
3
  6
CONTINUOUS
 62
     0
  2
_OPEN
 10
7111.8388550440031
 20
4053.4519690000002
 30
0.0
 41
80.0
 42
80.0
 43
80.0
 50
270.0
  0
TEXT
  8
3
  40
120
  5
7DE2
  62
0
  72
0
  71
0
 10
6771.84
 20
4399.17
 30
0.000000
  1
φ1120
  0
POINT
  5
7D89
  8
DEFPOINTS
  6
CONTINUOUS
 62
     0
 10
6807.0426190440012
 20
5173.4519689999997
 30
0.0
  0
POINT
  5
7D8A
  8
DEFPOINTS
  6
CONTINUOUS
 62
     0
 10
6807.0426190440012
 20
4053.4519690000002
 30
0.0
  0
POINT
  5
7D8B
  8
DEFPOINTS
  6
CONTINUOUS
 62
     0
 10
7111.8388550440031
 20
4053.4519690000002
 30
0.0
  0
ENDBLK
  5
7CF2
  8
0
  0
BLOCK
  8
0
  2
*D9
 70
     1
 10
0.0
 20
0.0
 30
0.0
  3
*D9
  1

  0
LINE
  5
7CDE
  8
0
  6
BYBLOCK
 62
     0
 10
6807.0426190440012
 20
5243.4519689999997
 30
0.0
 11
6807.0426190440012
 21
5919.1289349999988
 31
0.0
  0
LINE
  5
7CDF
  8
0
  6
BYBLOCK
 62
     0
 10
6279.0426190440021
 20
5826.7265649999999
 30
0.0
 11
6279.0426190440021
 21
5919.1289349999988
 31
0.0
  0
LINE
  5
7CE0
  8
0
  6
BYBLOCK
 62
     0
 10
6727.0426190440021
 20
5879.1289349999997
 30
0.0
 11
6359.0426190440021
 21
5879.1289349999997
 31
0.0
  0
TEXT
  5
7CE1
  8
3
 62
     0
 10
6388.7569047582883
 20
5926.8894109626926
 30
0.0
 40
120.0
  1
528
  0
INSERT
  5
7CE2
  8
0
  6
BYBLOCK
 62
     0
  2
_OPEN
 10
6807.0426190440012
 20
5879.1289349999997
 30
0.0
 41
80.0
 42
80.0
 43
80.0
  0
INSERT
  5
7CE3
  8
0
  6
BYBLOCK
 62
     0
  2
_OPEN
 10
6279.0426190440021
 20
5879.1289349999997
 30
0.0
 41
80.0
 42
80.0
 43
80.0
 50
180.0
  0
POINT
  5
7CE4
  8
DEFPOINTS
  6
BYBLOCK
 62
     0
 10
6807.0426190440012
 20
5223.4519689999997
 30
0.0
  0
POINT
  5
7CE5
  8
DEFPOINTS
  6
BYBLOCK
 62
     0
 10
6279.0426190440021
 20
5806.7265649999999
 30
0.0
  0
POINT
  5
7CE6
  8
DEFPOINTS
  6
BYBLOCK
 62
     0
 10
6279.0426190440021
 20
5879.1289349999997
 30
0.0
  0
ENDBLK
  5
7CE7
  8
0
  0
BLOCK
  8
0
  2
*D10
 70
     1
 10
0.0
 20
0.0
 30
0.0
  3
*D10
  1

  0
LINE
  5
7D8C
  8
3
  6
CONTINUOUS
 62
     0
 10
5539.0426190440021
 20
5011.4519689999997
 30
0.0
 11
5539.0426190440021
 21
5919.1289349999988
 31
0.0
  0
LINE
  5
7D8D
  8
3
  6
CONTINUOUS
 62
     0
 10
6199.042619044003
 20
5879.1289349999997
 30
0.0
 11
5619.0426190440021
 21
5879.1289349999997
 31
0.0
  0
INSERT
  5
7D8E
  8
3
  6
CONTINUOUS
 62
     0
  2
_OPEN
 10
6279.0426190440021
 20
5879.1289349999997
 30
0.0
 41
80.0
 42
80.0
 43
80.0
  0
INSERT
  5
7D8F
  8
3
  6
CONTINUOUS
 62
     0
  2
_OPEN
 10
5539.0426190440021
 20
5879.1289349999997
 30
0.0
 41
80.0
 42
80.0
 43
80.0
 50
180.0
  0
TEXT
  8
3
  40
120
  5
7DE3
  62
0
  72
0
  71
0
 10
5669.04
 20
5866.73
 30
0.000000
  1
MAX
  0
TEXT
  8
3
  40
120
  5
7DE4
  62
0
  72
0
  71
0
 10
5669.04
 20
5710.73
 30
0.000000
  1
850
  0
POINT
  5
7D91
  8
DEFPOINTS
  6
CONTINUOUS
 62
     0
 10
6279.0426190440021
 20
5806.7265649999999
 30
0.0
  0
POINT
  5
7D92
  8
DEFPOINTS
  6
CONTINUOUS
 62
     0
 10
5539.0426190440021
 20
4991.4519689999988
 30
0.0
  0
POINT
  5
7D93
  8
DEFPOINTS
  6
CONTINUOUS
 62
     0
 10
5539.0426190440021
 20
5879.1289349999997
 30
0.0
  0
ENDBLK
  5
7CFC
  8
0
  0
BLOCK
  8
0
  2
*D11
 70
     1
 10
0.0
 20
0.0
 30
0.0
  3
*D11
  1

  0
LINE
  5
7D94
  8
3
  6
CONTINUOUS
 62
     0
 10
5592.0426190440021
 20
3238.4519690000002
 30
0.0
 11
5592.0426190440021
 21
2905.4127720000001
 31
0.0
  0
LINE
  5
7D95
  8
3
  6
CONTINUOUS
 62
     0
 10
6279.0426190440021
 20
3085.6581820000001
 30
0.0
 11
6279.0426190440021
 21
2905.4127720000001
 31
0.0
  0
LINE
  5
7D96
  8
3
  6
CONTINUOUS
 62
     0
 10
5512.0426190440021
 20
2945.4127720000001
 30
0.0
 11
5432.0426190440021
 21
2945.4127720000001
 31
0.0
  0
LINE
  5
7D97
  8
3
  6
CONTINUOUS
 62
     0
 10
6359.0426190440021
 20
2945.4127720000001
 30
0.0
 11
6439.0426190440021
 21
2945.4127720000001
 31
0.0
  0
LINE
  5
7D98
  8
3
  6
CONTINUOUS
 62
     0
 10
5592.0426190440021
 20
2945.4127720000001
 30
0.0
 11
6279.0426190440021
 21
2945.4127720000001
 31
0.0
  0
INSERT
  5
7D99
  8
3
  6
CONTINUOUS
 62
     0
  2
_OPEN
 10
5592.0426190440021
 20
2945.4127720000001
 30
0.0
 41
80.0
 42
80.0
 43
80.0
  0
INSERT
  5
7D9A
  8
3
  6
CONTINUOUS
 62
     0
  2
_OPEN
 10
6279.0426190440021
 20
2945.4127720000001
 30
0.0
 41
80.0
 42
80.0
 43
80.0
 50
180.0
  0
TEXT
  8
3
  40
120
  5
7DE5
  62
0
  72
0
  71
0
 10
5764.76
 20
2833.01
 30
0.000000
  1
687
  0
POINT
  5
7D9C
  8
DEFPOINTS
  6
CONTINUOUS
 62
     0
 10
5592.0426190440021
 20
3258.4519690000002
 30
0.0
  0
POINT
  5
7D9D
  8
DEFPOINTS
  6
CONTINUOUS
 62
     0
 10
6279.0426190440021
 20
3105.6581820000001
 30
0.0
  0
POINT
  5
7D9E
  8
DEFPOINTS
  6
CONTINUOUS
 62
     0
 10
6279.0426190440021
 20
2945.4127720000001
 30
0.0
  0
ENDBLK
  5
7C2A
  8
0
  0
BLOCK
  8
0
  2
*D12
 70
     1
 10
0.0
 20
0.0
 30
0.0
  3
*D12
  1

  0
LINE
  5
7D9F
  8
3
  6
CONTINUOUS
 62
     0
 10
6772.0426190440021
 20
3238.4519690000002
 30
0.0
 11
6772.0426190440021
 21
2905.4127720000001
 31
0.0
  0
LINE
  5
7DA0
  8
3
  6
CONTINUOUS
 62
     0
 10
6359.0426190440021
 20
2945.4127720000001
 30
0.0
 11
6692.0426190440021
 21
2945.4127720000001
 31
0.0
  0
TEXT
  8
3
  40
120
  5
7DE6
  62
0
  72
0
  71
0
 10
6297.58
 20
2836.32
 30
0.000000
  1
493
  0
INSERT
  5
7DA2
  8
3
  6
CONTINUOUS
 62
     0
  2
_OPEN
 10
6279.0426190440021
 20
2945.4127720000001
 30
0.0
 41
80.0
 42
80.0
 43
80.0
 50
180.0
  0
INSERT
  5
7DA3
  8
3
  6
CONTINUOUS
 62
     0
  2
_OPEN
 10
6772.0426190440021
 20
2945.4127720000001
 30
0.0
 41
80.0
 42
80.0
 43
80.0
  0
POINT
  5
7DA4
  8
DEFPOINTS
  6
CONTINUOUS
 62
     0
 10
6279.0426190440021
 20
3105.6581820000001
 30
0.0
  0
POINT
  5
7DA5
  8
DEFPOINTS
  6
CONTINUOUS
 62
     0
 10
6772.0426190440021
 20
3258.4519690000002
 30
0.0
  0
POINT
  5
7DA6
  8
DEFPOINTS
  6
CONTINUOUS
 62
     0
 10
6772.0426190440021
 20
2945.4127720000001
 30
0.0
  0
ENDBLK
  5
7C85
  8
0
  0
BLOCK
  8
0
  2
*D13
 70
     1
 10
0.0
 20
0.0
 30
0.0
  3
*D13
  1

  0
LINE
  5
7DA7
  8
3
  6
CONTINUOUS
 62
     0
 10
2373.4707380440018
 20
7098.4519689999997
 30
0.0
 11
2373.4707380440018
 21
6712.0550169999997
 31
0.0
  0
LINE
  5
7DA8
  8
3
  6
CONTINUOUS
 62
     0
 10
4733.4707380440022
 20
7098.4519689999997
 30
0.0
 11
4733.4707380440022
 21
6712.0550169999997
 31
0.0
  0
LINE
  5
7DA9
  8
3
  6
CONTINUOUS
 62
     0
 10
2453.4707380440018
 20
6752.0550169999997
 30
0.0
 11
4653.4707380440022
 21
6752.0550169999997
 31
0.0
  0
INSERT
  5
7DAA
  8
3
  6
CONTINUOUS
 62
     0
  2
_OPEN
 10
2373.4707380440018
 20
6752.0550169999997
 30
0.0
 41
80.0
 42
80.0
 43
80.0
 50
180.0
  0
INSERT
  5
7DAB
  8
3
  6
CONTINUOUS
 62
     0
  2
_OPEN
 10
4733.4707380440022
 20
6752.0550169999997
 30
0.0
 41
80.0
 42
80.0
 43
80.0
  0
TEXT
  8
3
  40
120
  5
7DE7
  62
0
  72
0
  71
0
 10
3258.33
 20
6639.66
 30
0.000000
  1
2360
  0
POINT
  5
7DAD
  8
DEFPOINTS
  6
CONTINUOUS
 62
     0
 10
2373.4707380440018
 20
7118.4519689999997
 30
0.0
  0
POINT
  5
7DAE
  8
DEFPOINTS
  6
CONTINUOUS
 62
     0
 10
4733.4707380440022
 20
7118.4519689999997
 30
0.0
  0
POINT
  5
7DAF
  8
DEFPOINTS
  6
CONTINUOUS
 62
     0
 10
4733.4707380440022
 20
6752.0550169999997
 30
0.0
  0
ENDBLK
  5
7C5C
  8
0
  0
BLOCK
  8
0
  2
*D14
 70
     1
 10
0.0
 20
0.0
 30
0.0
  3
*D14
  1

  0
LINE
  5
7DB0
  8
3
  6
CONTINUOUS
 62
     0
 10
4753.4707380440022
 20
8298.4519689999997
 30
0.0
 11
5133.6972450440044
 21
8298.4519689999997
 31
0.0
  0
LINE
  5
7DB1
  8
3
  6
CONTINUOUS
 62
     0
 10
4753.4707380440022
 20
7118.4519689999997
 30
0.0
 11
5133.6972450440044
 21
7118.4519689999997
 31
0.0
  0
LINE
  5
7DB2
  8
3
  6
CONTINUOUS
 62
     0
 10
5093.6972450440044
 20
8218.4519689999997
 30
0.0
 11
5093.6972450440044
 21
7198.4519689999997
 31
0.0
  0
INSERT
  5
7DB3
  8
3
  6
CONTINUOUS
 62
     0
  2
_OPEN
 10
5093.6972450440044
 20
8298.4519689999997
 30
0.0
 41
80.0
 42
80.0
 43
80.0
 50
90.0
  0
INSERT
  5
7DB4
  8
3
  6
CONTINUOUS
 62
     0
  2
_OPEN
 10
5093.6972450440044
 20
7118.4519689999997
 30
0.0
 41
80.0
 42
80.0
 43
80.0
 50
270.0
  0
TEXT
  8
3
  40
120
  5
7DE8
  62
0
  72
0
  71
0
 10
4753.70
 20
7488.33
 30
0.000000
  1
1180
  0
POINT
  5
7DB6
  8
DEFPOINTS
  6
CONTINUOUS
 62
     0
 10
4733.4707380440022
 20
8298.4519689999997
 30
0.0
  0
POINT
  5
7DB7
  8
DEFPOINTS
  6
CONTINUOUS
 62
     0
 10
4733.4707380440022
 20
7118.4519689999997
 30
0.0
  0
POINT
  5
7DB8
  8
DEFPOINTS
  6
CONTINUOUS
 62
     0
 10
5093.6972450440044
 20
7118.4519689999997
 30
0.0
  0
ENDBLK
  5
7C69
  8
0
  0
BLOCK
  8
0
  2
*D15
 70
     1
 10
0.0
 20
0.0
 30
0.0
  3
*D15
  1

  0
LINE
  5
7DB9
  8
3
  6
CONTINUOUS
 62
     0
 10
3013.4707380440018
 20
5418.4519689999997
 30
0.0
 11
1472.0942290440021
 21
5418.4519690000006
 31
0.0
  0
LINE
  5
7DBA
  8
3
  6
CONTINUOUS
 62
     0
 10
1512.0942290440021
 20
4693.4519689999997
 30
0.0
 11
1512.0942290440021
 21
5338.4519690000006
 31
0.0
  0
INSERT
  5
7DBB
  8
3
  6
CONTINUOUS
 62
     0
  2
_OPEN
 10
1512.0942290440021
 20
4613.4519689999997
 30
0.0
 41
80.0
 42
80.0
 43
80.0
 50
270.0
  0
INSERT
  5
7DBC
  8
3
  6
CONTINUOUS
 62
     0
  2
_OPEN
 10
1512.0942290440021
 20
5418.4519690000006
 30
0.0
 41
80.0
 42
80.0
 43
80.0
 50
90.0
  0
TEXT
  8
3
  40
120
  5
7DE9
  62
0
  72
0
  71
0
 10
1172.09
 20
4803.55
 30
0.000000
  1
805
  0
POINT
  5
7DBE
  8
DEFPOINTS
  6
CONTINUOUS
 62
     0
 10
2049.0527490440022
 20
4613.4519689999988
 30
0.0
  0
POINT
  5
7DBF
  8
DEFPOINTS
  6
CONTINUOUS
 62
     0
 10
3033.4707380440018
 20
5418.4519689999997
 30
0.0
  0
POINT
  5
7DC0
  8
DEFPOINTS
  6
CONTINUOUS
 62
     0
 10
1512.0942290440021
 20
5418.4519690000006
 30
0.0
  0
ENDBLK
  5
7D12
  8
0
  0
BLOCK
  8
0
  2
*D16
 70
     1
 10
0.0
 20
0.0
 30
0.0
  3
*D16
  1

  0
LINE
  5
7DC1
  8
3
  6
CONTINUOUS
 62
     0
 10
3013.4707380440018
 20
5418.4519689999997
 30
0.0
 11
1239.113509044003
 21
5418.4519690000006
 31
0.0
  0
LINE
  5
7DC2
  8
3
  6
CONTINUOUS
 62
     0
 10
2353.4707380440018
 20
3258.4519690000002
 30
0.0
 11
1239.1135090440021
 21
3258.4519690000002
 31
0.0
  0
LINE
  5
7DC3
  8
3
  6
CONTINUOUS
 62
     0
 10
1279.113509044003
 20
5338.4519690000006
 30
0.0
 11
1279.1135090440021
 21
3338.4519690000002
 31
0.0
  0
INSERT
  5
7DC4
  8
3
  6
CONTINUOUS
 62
     0
  2
_OPEN
 10
1279.113509044003
 20
5418.4519690000006
 30
0.0
 41
80.0
 42
80.0
 43
80.0
 50
90.0
  0
INSERT
  5
7DC5
  8
3
  6
CONTINUOUS
 62
     0
  2
_OPEN
 10
1279.1135090440021
 20
3258.4519690000002
 30
0.0
 41
80.0
 42
80.0
 43
80.0
 50
270.0
  0
TEXT
  8
3
  40
120
  5
7DEA
  62
0
  72
0
  71
0
 10
939.114
 20
4236.46
 30
0.000000
  1
2160
  0
POINT
  5
7DC7
  8
DEFPOINTS
  6
CONTINUOUS
 62
     0
 10
3033.4707380440018
 20
5418.4519689999997
 30
0.0
  0
POINT
  5
7DC8
  8
DEFPOINTS
  6
CONTINUOUS
 62
     0
 10
2373.4707380440018
 20
3258.4519690000002
 30
0.0
  0
POINT
  5
7DC9
  8
DEFPOINTS
  6
CONTINUOUS
 62
     0
 10
1279.1135090440021
 20
3258.4519690000002
 30
0.0
  0
ENDBLK
  5
7D08
  8
0
  0
BLOCK
  8
0
  2
*D17
 70
     1
 10
0.0
 20
0.0
 30
0.0
  3
*D17
  1

  0
LINE
  5
7DCA
  8
3
  6
CONTINUOUS
 62
     0
 10
4002.4707380440018
 20
4626.8644348130219
 30
0.0
 11
4002.4707380440018
 21
5664.0231979999999
 31
0.0
  0
LINE
  5
7DCB
  8
3
  6
CONTINUOUS
 62
     0
 10
3113.4707380440018
 20
5624.023197999999
 30
0.0
 11
3922.4707380440018
 21
5624.023197999999
 31
0.0
  0
INSERT
  5
7DCC
  8
3
  6
CONTINUOUS
 62
     0
  2
_OPEN
 10
3033.4707380440018
 20
5624.023197999999
 30
0.0
 41
80.0
 42
80.0
 43
80.0
 50
180.0
  0
INSERT
  5
7DCD
  8
3
  6
CONTINUOUS
 62
     0
  2
_OPEN
 10
4002.4707380440018
 20
5624.023197999999
 30
0.0
 41
80.0
 42
80.0
 43
80.0
  0
TEXT
  8
3
  40
120
  5
7DEB
  62
0
  72
0
  71
0
 10
3277.97
 20
5511.62
 30
0.000000
  1
969
  0
POINT
  5
7DCF
  8
DEFPOINTS
  6
CONTINUOUS
 62
     0
 10
3033.4707380440018
 20
5567.0962250000002
 30
0.0
  0
POINT
  5
7DD0
  8
DEFPOINTS
  6
CONTINUOUS
 62
     0
 10
4002.4707380440018
 20
4606.864434813021
 30
0.0
  0
POINT
  5
7DD1
  8
DEFPOINTS
  6
CONTINUOUS
 62
     0
 10
4002.4707380440018
 20
5624.023197999999
 30
0.0
  0
ENDBLK
  5
7CC4
  8
0
  0
BLOCK
  8
0
  2
*D18
 70
     1
 10
0.0
 20
0.0
 30
0.0
  3
*D18
  1

  0
LINE
  5
7DD2
  8
3
 62
     0
 10
2273.4707380440018
 20
4638.4519689999997
 30
0.0
 11
2273.4707380440018
 21
5909.9990360690244
 31
0.0
  0
LINE
  5
7DD3
  8
3
 62
     0
 10
4733.4707380440022
 20
3403.4519689999988
 30
0.0
 11
4733.4707380440022
 21
5909.9990360690244
 31
0.0
  0
LINE
  5
7DD4
  8
3
 62
     0
 10
2353.4707380440018
 20
5869.9990360690254
 30
0.0
 11
4653.4707380440022
 21
5869.9990360690254
 31
0.0
  0
INSERT
  5
7DD5
  8
3
 62
     0
  2
_OPEN
 10
2273.4707380440018
 20
5869.9990360690254
 30
0.0
 41
80.0
 42
80.0
 43
80.0
 50
180.0
  0
INSERT
  5
7DD6
  8
3
 62
     0
  2
_OPEN
 10
4733.4707380440022
 20
5869.9990360690254
 30
0.0
 41
80.0
 42
80.0
 43
80.0
  0
TEXT
  8
3
  40
120
  5
7DEC
  62
0
  72
0
  71
0
 10
3191.46
 20
5757.60
 30
0.000000
  1
2460
  0
POINT
  5
7DD8
  8
DEFPOINTS
 62
     0
 10
2273.4707380440018
 20
4618.4519689999988
 30
0.0
  0
POINT
  5
7DD9
  8
DEFPOINTS
 62
     0
 10
4733.4707380440022
 20
3383.4519690000002
 30
0.0
  0
POINT
  5
7DDA
  8
DEFPOINTS
 62
     0
 10
4733.4707380440022
 20
5869.9990360690254
 30
0.0
  0
ENDBLK
  5
7CD0
  8
0
  0
ENDSEC
  0
SECTION
  2
ENTITIES
  0
CIRCLE
  5
7AA8
  8
1
  6
CONTINUOUS
 10
3033.4707380440018
 20
4613.4519689999988
 30
0.0
 40
610.0
  0
CIRCLE
  5
7AA9
  8
1
  6
CONTINUOUS
 10
3033.4707380440018
 20
4613.4519689999988
 30
0.0
 40
560.0
  0
LINE
  5
7AAA
  8
1
  6
CONTINUOUS
 10
2373.4707380440018
 20
3383.4519690000002
 30
0.0
 11
4733.4707380440022
 21
3383.4519690000002
 31
0.0
  0
LINE
  5
7AAB
  8
1
  6
CONTINUOUS
 10
2373.4707380440018
 20
3258.4519690000002
 30
0.0
 11
4733.4707380440022
 21
3258.4519690000002
 31
0.0
  0
ARC
  5
7AAC
  8
1
  6
CONTINUOUS
 10
3101.9707380440018
 20
4681.9519689999988
 30
0.0
 40
739.10000000000002
 50
95.099999999999994
 51
180.0
  0
LINE
  5
7AAD
  8
1
  6
CONTINUOUS
 10
2273.4707380440018
 20
3415.4519690000002
 30
0.0
 11
3033.4707380440018
 21
3480.4519690000002
 31
0.0
  0
ARC
  5
7AAE
  8
1
  6
CONTINUOUS
 10
2964.9707380440018
 20
4681.9519689999988
 30
0.0
 40
602.10000000000002
 50
180.0
 51
191.1999999999999
  0
LINE
  5
7AAF
  8
1
  6
CONTINUOUS
 10
2313.4707380440018
 20
4565.4519689999997
 30
0.0
 11
2313.4707380440018
 21
3418.8519689999998
 31
0.0
  0
LINE
  5
7AB0
  8
1
  6
CONTINUOUS
 10
2273.4707380440018
 20
4618.4519689999988
 30
0.0
 11
2273.4707380440018
 21
3362.4519690000002
 31
0.0
  0
LINE
  5
7AB1
  8
1
  6
CONTINUOUS
 10
2373.4707380440018
 20
3383.4519690000002
 30
0.0
 11
2373.4707380440018
 21
3258.4519690000002
 31
0.0
  0
LINE
  5
7AB2
  8
1
  6
CONTINUOUS
 10
2374.270738044002
 20
4565.4519689999997
 30
0.0
 11
2273.4707380440018
 21
4565.4519689999997
 31
0.0
  0
LINE
  5
7AB3
  8
1
  6
CONTINUOUS
 10
4347.4707380440022
 20
3515.1519689999991
 30
0.0
 11
2892.1707380440021
 21
4374.0519689999992
 31
0.0
  0
LINE
  5
7AB4
  8
1
  6
CONTINUOUS
 10
4296.6707380440021
 20
3428.9519689999988
 30
0.0
 11
2841.3707380440019
 21
4287.9519689999988
 31
0.0
  0
LINE
  5
7AB5
  8
1
  6
CONTINUOUS
 10
4553.4707380440022
 20
3783.8519689999998
 30
0.0
 11
3282.5707380440022
 21
4897.7519689999999
 31
0.0
  0
LINE
  5
7AB6
  8
1
  6
CONTINUOUS
 10
4487.5707380440017
 20
3708.6519689999991
 30
0.0
 11
3216.6707380440021
 21
4822.5519690000001
 31
0.0
  0
ARC
  5
7AB7
  8
1
  6
CONTINUOUS
 10
3115.4707380440018
 20
4531.4519689999988
 30
0.0
 40
890.20000000000005
 50
0.0
 51
95.099999999999994
  0
ARC
  5
7AB8
  8
1
  6
CONTINUOUS
 10
2951.4707380440018
 20
4531.4519689999988
 30
0.0
 40
1054.2
 50
274.5
 51
0.0
  0
CIRCLE
  5
7AB9
  8
1
  6
CONTINUOUS
 10
3033.4707380440018
 20
4613.4519689999988
 30
0.0
 40
278.0
  0
ARC
  5
7ABA
  8
1
  6
CONTINUOUS
 10
3033.4707380440018
 20
4613.4519689999988
 30
0.0
 40
378.0
 50
48.79999999999999
 51
239.5
  0
LINE
  5
7ABB
  8
2
  6
CENTER
 10
3033.4707380440018
 20
8505.5571490000002
 30
0.0
 11
3033.4707380440018
 21
6902.7602799999986
 31
0.0
  0
LINE
  5
7ABC
  8
2
  6
CENTER
 10
6904.4408970440008
 20
4613.4519689999988
 30
0.0
 11
5389.4335430440033
 21
4613.4519689999988
 31
0.0
  0
LINE
  5
7ABD
  8
1
  6
CONTINUOUS
 10
4633.4707380440022
 20
3438.4519689999988
 30
0.0
 11
4183.4707380440032
 21
3438.4519689999988
 31
0.0
  0
ARC
  5
7ABE
  8
1
  6
CONTINUOUS
 10
4408.4707380440022
 20
3618.4519689999988
 30
0.0
 40
199.0
 50
320.10000000000002
 51
219.90000000000001
  0
LINE
  5
7ABF
  8
1
  6
CONTINUOUS
 10
4633.4707380440022
 20
3383.4519690000002
 30
0.0
 11
4183.4707380440032
 21
3383.4519690000002
 31
0.0
  0
CIRCLE
  5
7AC0
  8
1
  6
CONTINUOUS
 10
4408.4707380440022
 20
3618.4519689999988
 30
0.0
 40
120.0
  0
ARC
  5
7AC1
  8
1
  6
CONTINUOUS
 10
4408.4707380440022
 20
3618.4519689999988
 30
0.0
 40
220.0
 50
239.5
 51
48.79999999999999
  0
LINE
  5
7AC2
  8
2
  6
CENTER
 10
4528.4707380440022
 20
3618.4519689999988
 30
0.0
 11
4288.4707380440032
 21
3618.4519689999988
 31
0.0
  0
LINE
  5
7AC3
  8
1
  6
CONTINUOUS
 10
4246.4707380440022
 20
3438.4519689999988
 30
0.0
 11
4246.4707380440022
 21
3480.9519689999988
 31
0.0
  0
LINE
  5
7AC4
  8
1
  6
CONTINUOUS
 10
4246.4707380440022
 20
3480.9519689999988
 30
0.0
 11
4255.7707380440024
 21
3490.8519689999989
 31
0.0
  0
LINE
  5
7AC5
  8
1
  6
CONTINUOUS
 10
4183.4707380440032
 20
3383.4519690000002
 30
0.0
 11
4183.4707380440032
 21
3438.4519689999988
 31
0.0
  0
LINE
  5
7AC6
  8
2
  6
CENTER
 10
4408.4707380440022
 20
3498.4519689999988
 30
0.0
 11
4408.4707380440022
 21
3738.4519689999988
 31
0.0
  0
LINE
  5
7AC7
  8
1
  6
CONTINUOUS
 10
4570.4707380440022
 20
3438.4519689999988
 30
0.0
 11
4570.4707380440022
 21
3480.9519689999988
 31
0.0
  0
LINE
  5
7AC8
  8
1
  6
CONTINUOUS
 10
4570.4707380440022
 20
3480.9519689999988
 30
0.0
 11
4561.170738044003
 21
3490.8519689999989
 31
0.0
  0
LINE
  5
7AC9
  8
1
  6
CONTINUOUS
 10
4633.4707380440022
 20
3383.4519690000002
 30
0.0
 11
4633.4707380440022
 21
3438.4519689999988
 31
0.0
  0
LINE
  5
7ACA
  8
1
  6
CONTINUOUS
 10
4733.4707380440022
 20
3383.4519690000002
 30
0.0
 11
4733.4707380440022
 21
3258.4519690000002
 31
0.0
  0
LINE
  5
7ACB
  8
1
  6
CONTINUOUS
 10
4733.4707380440022
 20
7118.4519689999997
 30
0.0
 11
2373.4707380440018
 21
7118.4519689999997
 31
0.0
  0
LINE
  5
7ACC
  8
1
  6
CONTINUOUS
 10
4005.6707380440021
 20
8230.4519689999979
 30
0.0
 11
2273.4707380440018
 21
8230.4519689999979
 31
0.0
  0
LINE
  5
7ACD
  8
1
  6
CONTINUOUS
 10
4005.6707380440021
 20
7380.4519689999988
 30
0.0
 11
2273.4707380440018
 21
7380.4519689999988
 31
0.0
  0
LINE
  5
7ACE
  8
1
  6
CONTINUOUS
 10
3643.4707380440032
 20
8333.4519689999997
 30
0.0
 11
2423.4707380440018
 21
8333.4519689999997
 31
0.0
  0
LINE
  5
7ACF
  8
1
  6
CONTINUOUS
 10
2273.4707380440018
 20
7330.4519689999988
 30
0.0
 11
2273.4707380440018
 21
8280.4519689999997
 31
0.0
  0
LINE
  5
7AD0
  8
1
  6
CONTINUOUS
 10
2373.4707380440018
 20
7380.4519689999988
 30
0.0
 11
2373.4707380440018
 21
7118.4519689999997
 31
0.0
  0
LINE
  5
7AD1
  8
1
  6
CONTINUOUS
 10
2473.4707380440018
 20
8298.4519689999997
 30
0.0
 11
2373.4707380440018
 21
8298.4519689999997
 31
0.0
  0
LINE
  5
7AD2
  8
1
  6
CONTINUOUS
 10
2373.4707380440018
 20
8298.4519689999997
 30
0.0
 11
2373.4707380440018
 21
8230.4519689999979
 31
0.0
  0
LINE
  5
7AD3
  8
1
  6
CONTINUOUS
 10
2473.4707380440018
 20
8333.4519689999997
 30
0.0
 11
2473.4707380440018
 21
8230.4519689999979
 31
0.0
  0
LINE
  5
7AD4
  8
1
  6
CONTINUOUS
 10
4733.4707380440022
 20
8298.4519689999997
 30
0.0
 11
3593.4707380440032
 21
8298.4519689999997
 31
0.0
  0
LINE
  5
7AD5
  8
1
  6
CONTINUOUS
 10
4628.4707380440022
 20
7065.4519689999997
 30
0.0
 11
2655.4707380440018
 21
7065.4519689999997
 31
0.0
  0
LINE
  5
7AD6
  8
1
  6
CONTINUOUS
 10
4628.4707380440022
 20
7305.4519689999988
 30
0.0
 11
2655.4707380440018
 21
7305.4519689999988
 31
0.0
  0
LINE
  5
7AD7
  8
1
  6
CONTINUOUS
 10
2755.4707380440018
 20
7135.4519689999997
 30
0.0
 11
3311.4707380440018
 21
7135.4519689999997
 31
0.0
  0
LINE
  5
7AD8
  8
1
  6
CONTINUOUS
 10
2755.4707380440018
 20
7235.4519689999997
 30
0.0
 11
3311.4707380440018
 21
7235.4519689999997
 31
0.0
  0
LINE
  5
7AD9
  8
1
  6
CONTINUOUS
 10
3005.9707380440018
 20
7380.4519689999988
 30
0.0
 11
3005.9707380440018
 21
7235.4519689999997
 31
0.0
  0
LINE
  5
7ADA
  8
1
  6
CONTINUOUS
 10
3060.9707380440018
 20
7380.4519689999988
 30
0.0
 11
3060.9707380440018
 21
7235.4519689999997
 31
0.0
  0
LINE
  5
7ADB
  8
1
  6
CONTINUOUS
 10
2755.4707380440018
 20
7135.4519689999997
 30
0.0
 11
2755.4707380440018
 21
7235.4519689999997
 31
0.0
  0
LINE
  5
7ADC
  8
1
  6
CONTINUOUS
 10
2655.4707380440018
 20
7065.4519689999997
 30
0.0
 11
2655.4707380440018
 21
7305.4519689999988
 31
0.0
  0
LINE
  5
7ADD
  8
1
  6
CONTINUOUS
 10
3311.4707380440018
 20
7135.4519689999997
 30
0.0
 11
3311.4707380440018
 21
7235.4519689999997
 31
0.0
  0
LINE
  5
7ADE
  8
1
  6
CONTINUOUS
 10
3593.4707380440032
 20
8333.4519689999997
 30
0.0
 11
3593.4707380440032
 21
8230.4519689999979
 31
0.0
  0
LINE
  5
7ADF
  8
1
  6
CONTINUOUS
 10
4733.4707380440022
 20
8298.4519689999997
 30
0.0
 11
4733.4707380440022
 21
7118.4519689999997
 31
0.0
  0
LINE
  5
7AE0
  8
1
  6
CONTINUOUS
 10
4005.6707380440021
 20
7380.4519689999988
 30
0.0
 11
4005.6707380440021
 21
8230.4519689999979
 31
0.0
  0
LINE
  5
7AE1
  8
1
  6
CONTINUOUS
 10
4607.5707380440017
 20
7354.1519689999996
 30
0.0
 11
4209.3707380440028
 21
7354.1519689999996
 31
0.0
  0
LINE
  5
7AE2
  8
1
  6
CONTINUOUS
 10
4607.5707380440017
 20
7953.6519689999986
 30
0.0
 11
4209.3707380440028
 21
7953.6519689999986
 31
0.0
  0
LINE
  5
7AE3
  8
1
  6
CONTINUOUS
 10
4288.4707380440032
 20
7235.4519689999997
 30
0.0
 11
4528.4707380440022
 21
7235.4519689999997
 31
0.0
  0
LINE
  5
7AE4
  8
1
  6
CONTINUOUS
 10
4288.4707380440032
 20
7135.4519689999997
 30
0.0
 11
4528.4707380440022
 21
7135.4519689999997
 31
0.0
  0
LINE
  5
7AE5
  8
1
  6
CONTINUOUS
 10
4380.9707380440022
 20
7235.4519689999997
 30
0.0
 11
4380.9707380440022
 21
7354.1519689999996
 31
0.0
  0
LINE
  5
7AE6
  8
1
  6
CONTINUOUS
 10
4288.4707380440032
 20
7135.4519689999997
 30
0.0
 11
4288.4707380440032
 21
7235.4519689999997
 31
0.0
  0
LINE
  5
7AE7
  8
1
  6
CONTINUOUS
 10
4209.3707380440028
 20
7354.1519689999996
 30
0.0
 11
4209.3707380440028
 21
7953.6519689999986
 31
0.0
  0
LINE
  5
7AE8
  8
1
  6
CONTINUOUS
 10
4435.9707380440022
 20
7235.4519689999997
 30
0.0
 11
4435.9707380440022
 21
7354.1519689999996
 31
0.0
  0
LINE
  5
7AE9
  8
1
  6
CONTINUOUS
 10
4528.4707380440022
 20
7135.4519689999997
 30
0.0
 11
4528.4707380440022
 21
7235.4519689999997
 31
0.0
  0
LINE
  5
7AEA
  8
1
  6
CONTINUOUS
 10
4628.4707380440022
 20
7065.4519689999997
 30
0.0
 11
4628.4707380440022
 21
7305.4519689999988
 31
0.0
  0
LINE
  5
7AEB
  8
1
  6
CONTINUOUS
 10
4607.5707380440017
 20
7354.1519689999996
 30
0.0
 11
4607.5707380440017
 21
7953.6519689999986
 31
0.0
  0
LINE
  5
7AEC
  8
1
  6
CONTINUOUS
 10
6704.0426190440021
 20
4565.4519689999997
 30
0.0
 11
5854.0426190440021
 21
3415.4519690000002
 31
0.0
  0
LINE
  5
7AED
  8
1
  6
CONTINUOUS
 10
5854.0426190440021
 20
4565.4519689999997
 30
0.0
 11
6704.0426190440021
 21
3415.4519690000002
 31
0.0
  0
LINE
  5
7AEE
  8
1
  6
CONTINUOUS
 10
5854.0426190440021
 20
3415.4519690000002
 30
0.0
 11
6704.0426190440021
 21
3415.4519690000002
 31
0.0
  0
LINE
  5
7AEF
  8
1
  6
CONTINUOUS
 10
5854.0426190440021
 20
5421.6519689999996
 30
0.0
 11
6704.0426190440021
 21
5421.6519689999996
 31
0.0
  0
LINE
  5
7AF0
  8
1
  6
CONTINUOUS
 10
6772.0426190440021
 20
3258.4519690000002
 30
0.0
 11
5592.0426190440021
 21
3258.4519690000002
 31
0.0
  0
LINE
  5
7AF1
  8
1
  6
CONTINUOUS
 10
6772.0426190440021
 20
3383.4519690000002
 30
0.0
 11
5592.0426190440021
 21
3383.4519690000002
 31
0.0
  0
LINE
  5
7AF2
  8
1
  6
CONTINUOUS
 10
5854.0426190440021
 20
4565.4519689999997
 30
0.0
 11
6704.0426190440021
 21
4565.4519689999997
 31
0.0
  0
LINE
  5
7B16
  8
1
  6
CONTINUOUS
 10
5709.0426190440021
 20
4891.4519689999997
 30
0.0
 11
5709.0426190440021
 21
4335.4519689999997
 31
0.0
  0
LINE
  5
7B17
  8
1
  6
CONTINUOUS
 10
5609.0426190440021
 20
4891.4519689999997
 30
0.0
 11
5609.0426190440021
 21
4335.4519689999997
 31
0.0
  0
LINE
  5
7B18
  8
1
  6
CONTINUOUS
 10
5779.0426190440021
 20
3398.4519689999988
 30
0.0
 11
5779.0426190440021
 21
4991.4519689999988
 31
0.0
  0
LINE
  5
7B19
  8
1
  6
CONTINUOUS
 10
5539.0426190440021
 20
3398.4519689999988
 30
0.0
 11
5539.0426190440021
 21
4991.4519689999988
 31
0.0
  0
LINE
  5
7B1A
  8
1
  6
CONTINUOUS
 10
5854.0426190440021
 20
3383.4519690000002
 30
0.0
 11
5854.0426190440021
 21
5421.6519689999996
 31
0.0
  0
LINE
  5
7B1B
  8
1
  6
CONTINUOUS
 10
5709.0426190440021
 20
4585.9519689999988
 30
0.0
 11
5854.0426190440021
 21
4585.9519689999988
 31
0.0
  0
LINE
  5
7B1C
  8
1
  6
CONTINUOUS
 10
5709.0426190440021
 20
3590.9519689999988
 30
0.0
 11
5854.0426190440021
 21
3590.9519689999988
 31
0.0
  0
LINE
  5
7B1D
  8
1
  6
CONTINUOUS
 10
5709.0426190440021
 20
3645.9519690000002
 30
0.0
 11
5854.0426190440021
 21
3645.9519690000002
 31
0.0
  0
LINE
  5
7B1E
  8
1
  6
CONTINUOUS
 10
5709.0426190440021
 20
3738.4519689999988
 30
0.0
 11
5709.0426190440021
 21
3498.4519689999988
 31
0.0
  0
LINE
  5
7B1F
  8
1
  6
CONTINUOUS
 10
5609.0426190440021
 20
3738.4519689999988
 30
0.0
 11
5609.0426190440021
 21
3498.4519689999988
 31
0.0
  0
LINE
  5
7B20
  8
1
  6
CONTINUOUS
 10
5539.0426190440021
 20
3398.4519689999988
 30
0.0
 11
5779.0426190440021
 21
3398.4519689999988
 31
0.0
  0
LINE
  5
7B21
  8
1
  6
CONTINUOUS
 10
5609.0426190440021
 20
3498.4519689999988
 30
0.0
 11
5709.0426190440021
 21
3498.4519689999988
 31
0.0
  0
LINE
  5
7B22
  8
1
  6
CONTINUOUS
 10
5609.0426190440021
 20
3738.4519689999988
 30
0.0
 11
5709.0426190440021
 21
3738.4519689999988
 31
0.0
  0
LINE
  5
7B23
  8
1
  6
CONTINUOUS
 10
5592.0426190440021
 20
3258.4519690000002
 30
0.0
 11
5592.0426190440021
 21
3383.4519690000002
 31
0.0
  0
LINE
  5
7B24
  8
1
  6
CONTINUOUS
 10
5609.0426190440021
 20
4335.4519689999997
 30
0.0
 11
5709.0426190440021
 21
4335.4519689999997
 31
0.0
  0
LINE
  5
7B25
  8
1
  6
CONTINUOUS
 10
5709.0426190440021
 20
4640.9519689999988
 30
0.0
 11
5854.0426190440021
 21
4640.9519689999988
 31
0.0
  0
LINE
  5
7B26
  8
1
  6
CONTINUOUS
 10
5609.0426190440021
 20
4891.4519689999997
 30
0.0
 11
5709.0426190440021
 21
4891.4519689999997
 31
0.0
  0
LINE
  5
7B27
  8
1
  6
CONTINUOUS
 10
5539.0426190440021
 20
4991.4519689999988
 30
0.0
 11
5779.0426190440021
 21
4991.4519689999988
 31
0.0
  0
LINE
  5
7B28
  8
1
  6
CONTINUOUS
 10
6807.0426190440012
 20
4003.4519689999988
 30
0.0
 11
6807.0426190440012
 21
5223.4519689999997
 31
0.0
  0
LINE
  5
7B29
  8
1
  6
CONTINUOUS
 10
6704.0426190440021
 20
3383.4519690000002
 30
0.0
 11
6704.0426190440021
 21
5421.6519689999996
 31
0.0
  0
LINE
  5
7B2A
  8
1
  6
CONTINUOUS
 10
6772.0426190440021
 20
3258.4519690000002
 30
0.0
 11
6772.0426190440021
 21
3383.4519690000002
 31
0.0
  0
LINE
  5
7B2B
  8
1
  6
CONTINUOUS
 10
6704.0426190440021
 20
4053.4519690000002
 30
0.0
 11
6807.0426190440012
 21
4053.4519690000002
 31
0.0
  0
LINE
  5
7B2C
  8
1
  6
CONTINUOUS
 10
6704.0426190440021
 20
5173.4519689999997
 30
0.0
 11
6807.0426190440012
 21
5173.4519689999997
 31
0.0
  0
LINE
  5
7B4E
  8
2
  6
CENTER
 10
4807.5506340440033
 20
7805.4519689999988
 30
0.0
 11
2105.544455044002
 21
7805.4519689999988
 31
0.0
  0
LINE
  5
7B4F
  8
2
  6
CENTER
 10
6279.0426190440021
 20
5634.8195589999996
 30
0.0
 11
6279.0426190440021
 21
3105.6581820000001
 31
0.0
  0
LINE
  5
7B50
  8
2
  6
CENTER
 10
3033.4707380440018
 20
5567.0962250000002
 30
0.0
 11
3033.4707380440018
 21
3152.4352359999998
 31
0.0
  0
LINE
  5
7B51
  8
2
  6
CENTER
 10
4205.7060810440016
 20
4613.4519689999988
 30
0.0
 11
2049.0527490440022
 21
4613.4519689999988
 31
0.0
  0
LINE
  5
7B52
  8
4
  6
CONTINUOUS
 10
7400.0
 20
2000.0
 30
0.0
 11
7400.0
 21
1200.0
 31
0.0
  0
LINE
  5
7B53
  8
4
  6
CONTINUOUS
 10
4600.0
 20
2000.0
 30
0.0
 11
4600.0
 21
1200.0
 31
0.0
  0
LINE
  5
7B54
  8
4
  6
CONTINUOUS
 10
2600.0
 20
2000.0
 30
0.0
 11
2600.0
 21
1200.0
 31
0.0
  0
LINE
  5
7B57
  8
4
  6
CONTINUOUS
 10
2600.0
 20
1200.0
 30
0.0
 11
7400.0
 21
1200.0
 31
0.0
  0
LINE
  5
7B58
  8
4
  6
CONTINUOUS
 10
2600.0
 20
1600.0
 30
0.0
 11
7400.0
 21
1600.0
 31
0.0
  0
TEXT
  5
7B59
  8
4
  6
CONTINUOUS
 10
2754.008323
 20
1726.1721030000001
 30
0.0
 40
200.0
  1
機器名称
  0
TEXT
  5
7B5A
  8
4
  6
CONTINUOUS
 10
2745.032424
 20
1286.580627
 30
0.0
 40
200.0
  1
機器型番
  0
TEXT
  5
7B5B
  8
4
  6
CONTINUOUS
 10
4710.7149820000004
 20
1690.2870760000001
 30
0.0
 40
200.0
  1
ミツヤ多翼送風機
  0
TEXT
  5
7B5C
  8
4
  6
CONTINUOUS
 10
4746.6179819999998
 20
1268.6383370000001
 30
0.0
 40
200.0
  1
MF#7-4
  0
TEXT
  5
7B5E
  8
4
  6
CONTINUOUS
 10
3619.1430620000001
 20
9533.715365
 30
0.0
 40
216.0
  1
床置ベット
  0
TEXT
  5
7B5F
  8
4
  6
CONTINUOUS
 10
1264.6703729999999
 20
10135.523905
 30
0.0
 40
288.0
  1
ベルト駆動式片吸込両持多翼ファン
  0
LINE
  5
7B60
  8
4
  6
CONTINUOUS
 10
1000.0
 20
9877.6350170000005
 30
0.0
 11
7400.0
 21
9877.6350170000005
 31
0.0
  0
LINE
  5
7B61
  8
4
  6
CONTINUOUS
 10
1000.0
 20
10677.635017000001
 30
0.0
 11
7400.0
 21
10677.635017000001
 31
0.0
  0
LINE
  5
7B62
  8
4
  6
CONTINUOUS
 10
2600.0
 20
2000.0
 30
0.0
 11
7400.0
 21
2000.0
 31
0.0
  0
LINE
  5
7B63
  8
4
  6
CONTINUOUS
 10
1000.0
 20
10677.635017000001
 30
0.0
 11
1000.0
 21
9877.6350170000005
 31
0.0
  0
TEXT
  5
7B64
  8
4
  6
CONTINUOUS
 10
1645.202847
 20
9529.2779099999989
 30
0.0
 40
216.0
  1
右回転左横向
  0
TEXT
  5
7B65
  8
4
  6
CONTINUOUS
 10
5875.8782369999999
 20
10824.244326
 30
0.0
 40
224.0
  1
No.
  0
TEXT
  5
7B66
  8
4
  6
CONTINUOUS
 10
5245.1842500000012
 20
9533.715365
 30
0.0
 40
216.0
  1
縮尺：1/40
  0
LINE
  5
7B67
  8
4
  6
CONTINUOUS
 10
7400.0
 20
10677.635017000001
 30
0.0
 11
7400.0
 21
9877.6350170000005
 31
0.0
  0
LINE
  5
7B69
  8
4
  6
CONTINUOUS
 10
5762.4696889999996
 20
10725.054333
 30
0.0
 11
5762.4696889999996
 21
11146.609046
 31
0.0
  0
LINE
  5
7B6A
  8
4
  6
CONTINUOUS
 10
5762.4696889999996
 20
11146.609046
 30
0.0
 11
7400.0
 21
11146.609046
 31
0.0
  0
LINE
  5
7B6B
  8
4
  6
CONTINUOUS
 10
7400.0
 20
11146.609046
 30
0.0
 11
7400.0
 21
10725.054333
 31
0.0
  0
LINE
  5
7B6C
  8
4
  6
CONTINUOUS
 10
7400.0
 20
10725.054333
 30
0.0
 11
5762.4696889999996
 21
10725.054333
 31
0.0
  0
DIMENSION
  5
7B84
  8
3
  6
CONTINUOUS
  2
*D1
 10
2038.5659400440029
 20
4565.4519689999997
 30
0.0
 11
2038.565940044002
 21
3997.7240149999998
 31
0.0
 70
   128
 13
2273.4707380440018
 23
3415.4519690000002
 33
0.0
 14
2273.4707380440018
 24
4565.4519689999997
 34
0.0
 50
90.0
1001
ACAD
1000
DSTYLE
1002
{
1070
   287
1070
     3
1070
    40
1040
40.0
1070
   143
1040
0.039
1070
   172
1070
     1
1070
   271
1070
     0
1070
   279
1070
     0
1070
   288
1070
     1
1002
}
  0
DIMENSION
  5
7B91
  8
3
  6
CONTINUOUS
  2
*D2
 10
1775.3300610440031
 20
4613.4519689999997
 30
0.0
 11
1775.3300610440019
 21
3989.751949
 31
0.0
 70
   128
 13
2273.4707380440018
 23
3415.4519690000002
 33
0.0
 14
2049.0527490440022
 24
4613.4519689999988
 34
0.0
 50
90.0
1001
ACAD
1000
DSTYLE
1002
{
1070
   287
1070
     3
1070
    40
1040
40.0
1070
   143
1040
0.039
1070
   172
1070
     1
1070
   271
1070
     0
1070
   279
1070
     0
1070
   288
1070
     1
1002
}
  0
DIMENSION
  5
7BAA
  8
3
  6
CONTINUOUS
  2
*D3
 10
1512.0942290440021
 20
3258.4519690000002
 30
0.0
 11
1412.0942290440009
 21
3935.9519690000002
 31
0.0
 70
     0
 13
2049.0527490440022
 23
4613.4519689999988
 33
0.0
 14
2373.4707380440018
 24
3258.4519690000002
 34
0.0
 50
90.0
1001
ACAD
1000
DSTYLE
1002
{
1070
   287
1070
     3
1070
    40
1040
40.0
1070
   143
1040
0.039
1070
   172
1070
     1
1070
   271
1070
     0
1070
   279
1070
     0
1070
   288
1070
     1
1002
}
  0
DIMENSION
  5
7BC4
  8
3
  6
CONTINUOUS
  2
*D4
 10
3033.4707380440018
 20
2945.4127720000001
 30
0.0
 11
2700.6440090440019
 21
2945.4127720000001
 31
0.0
 70
   128
 13
2373.4707380440018
 23
3258.4519690000002
 33
0.0
 14
3033.4707380440018
 24
3152.4352359999998
 34
0.0
1001
ACAD
1000
DSTYLE
1002
{
1070
   287
1070
     3
1070
    40
1040
40.0
1070
   143
1040
0.039
1070
   172
1070
     1
1070
   271
1070
     0
1070
   279
1070
     0
1070
   288
1070
     1
1002
}
  0
DIMENSION
  5
7BD0
  8
3
  6
CONTINUOUS
  2
*D5
 10
4733.4707380440022
 20
2945.4127720000001
 30
0.0
 11
3883.4707380440018
 21
3045.4127720000001
 31
0.0
 70
     0
 13
3033.4707380440018
 23
3152.4352359999998
 33
0.0
 14
4733.4707380440022
 24
3258.4519690000002
 34
0.0
1001
ACAD
1000
DSTYLE
1002
{
1070
   287
1070
     4
1070
    40
1040
40.0
1070
    75
1070
     1
1070
   143
1040
0.039
1070
   172
1070
     1
1070
   271
1070
     0
1070
   279
1070
     1
1070
   288
1070
     1
1002
}
  0
DIMENSION
  5
7BDD
  8
3
  6
CONTINUOUS
  2
*D6
 10
3033.4707380440018
 20
5624.023197999999
 30
0.0
 11
2668.7366050440019
 21
5624.023197999999
 31
0.0
 70
   128
 13
2273.4707380440018
 23
4618.4519689999988
 33
0.0
 14
3033.4707380440018
 24
5567.0962250000002
 34
0.0
1001
ACAD
1000
DSTYLE
1002
{
1070
   287
1070
     3
1070
    40
1040
40.0
1070
   143
1040
0.039
1070
   172
1070
     1
1070
   271
1070
     0
1070
   279
1070
     0
1070
   288
1070
     1
1002
}
  0
DIMENSION
  5
7BF6
  8
3
  6
CONTINUOUS
  2
*D7
 10
6704.0426190440021
 20
5616.0511319999987
 30
0.0
 11
6282.2470700440026
 21
5616.0511319999987
 31
0.0
 70
   128
 13
5854.0426190440021
 23
5421.6519689999996
 33
0.0
 14
6704.0426190440021
 24
5421.6519689999996
 34
0.0
1001
ACAD
1000
DSTYLE
1002
{
1070
   287
1070
     3
1070
    40
1040
40.0
1070
   143
1040
0.039
1070
   172
1070
     1
1070
   271
1070
     0
1070
   279
1070
     0
1070
   288
1070
     1
1002
}
  0
DIMENSION
  5
7C03
  8
3
  6
CONTINUOUS
  2
*D8
 10
7111.8388550440031
 20
4053.4519690000002
 30
0.0
 11
7111.8388550440031
 21
4611.5722219999998
 31
0.0
 70
   128
 13
6807.0426190440012
 23
5173.4519689999997
 33
0.0
 14
6807.0426190440012
 24
4053.4519690000002
 34
0.0
 50
90.0
1001
ACAD
1000
DSTYLE
1002
{
1070
   287
1070
     3
1070
     3
1000
φ<>
1070
    40
1040
40.0
1070
   143
1040
0.039
1070
   172
1070
     1
1070
   271
1070
     0
1070
   279
1070
     0
1070
   288
1070
     1
1002
}
  0
DIMENSION
  5
7C12
  8
3
  6
CONTINUOUS
  2
*D9
 10
6279.0426190440021
 20
5879.1289349999997
 30
0.0
 11
6543.0426190440012
 21
5986.8894109626917
 31
0.0
 70
   128
 13
6807.0426190440012
 23
5223.4519689999997
 33
0.0
 14
6279.0426190440021
 24
5806.7265649999999
 34
0.0
1001
ACAD
1000
DSTYLE
1002
{
1070
   288
1070
     1
1070
   172
1070
     1
1070
    40
1040
40.0
1070
   271
1070
     0
1070
   143
1040
0.039
1002
}
  0
DIMENSION
  5
7C1E
  8
3
  6
CONTINUOUS
  2
*D10
 10
5539.0426190440021
 20
5879.1289349999997
 30
0.0
 11
5909.0426190440021
 21
6079.1289349999988
 31
0.0
 70
     0
  1
MAX\P850
 13
6279.0426190440021
 23
5806.7265649999999
 33
0.0
 14
5539.0426190440021
 24
4991.4519689999988
 34
0.0
1001
ACAD
1000
DSTYLE
1002
{
1070
   287
1070
     4
1070
    40
1040
40.0
1070
    75
1070
     1
1070
   143
1040
0.039
1070
   172
1070
     1
1070
   271
1070
     0
1070
   279
1070
     1
1070
   288
1070
     1
1002
}
  0
DIMENSION
  5
7C2B
  8
3
  6
CONTINUOUS
  2
*D11
 10
6279.0426190440021
 20
2945.4127720000001
 30
0.0
 11
6004.7569050440025
 21
2945.4127720000001
 31
0.0
 70
   128
 13
5592.0426190440021
 23
3258.4519690000002
 33
0.0
 14
6279.0426190440021
 24
3105.6581820000001
 34
0.0
1001
ACAD
1000
DSTYLE
1002
{
1070
   287
1070
     3
1070
    40
1040
40.0
1070
   143
1040
0.039
1070
   172
1070
     1
1070
   271
1070
     0
1070
   279
1070
     0
1070
   288
1070
     1
1002
}
  0
DIMENSION
  5
7C39
  8
3
  6
CONTINUOUS
  2
*D12
 10
6772.0426190440021
 20
2945.4127720000001
 30
0.0
 11
6537.5823280440027
 21
2948.7151450000001
 31
0.0
 70
   128
 13
6279.0426190440021
 23
3105.6581820000001
 33
0.0
 14
6772.0426190440021
 24
3258.4519690000002
 34
0.0
1001
ACAD
1000
DSTYLE
1002
{
1070
   287
1070
     4
1070
    40
1040
40.0
1070
    75
1070
     1
1070
   143
1040
0.039
1070
   172
1070
     1
1070
   271
1070
     0
1070
   279
1070
     1
1070
   288
1070
     1
1002
}
  0
DIMENSION
  5
7C5D
  8
3
  6
CONTINUOUS
  2
*D13
 10
4733.4707380440022
 20
6752.0550169999997
 30
0.0
 11
3498.328436044002
 21
6752.0550169999997
 31
0.0
 70
   128
 13
2373.4707380440018
 23
7118.4519689999997
 33
0.0
 14
4733.4707380440022
 24
7118.4519689999997
 34
0.0
1001
ACAD
1000
DSTYLE
1002
{
1070
   287
1070
     3
1070
    40
1040
40.0
1070
   143
1040
0.039
1070
   172
1070
     1
1070
   271
1070
     0
1070
   279
1070
     0
1070
   288
1070
     1
1002
}
  0
DIMENSION
  5
7C6A
  8
3
  6
CONTINUOUS
  2
*D14
 10
5093.6972450440044
 20
7118.4519689999997
 30
0.0
 11
5093.6972450440016
 21
7700.729558
 31
0.0
 70
   128
 13
4733.4707380440022
 23
8298.4519689999997
 33
0.0
 14
4733.4707380440022
 24
7118.4519689999997
 34
0.0
 50
90.0
1001
ACAD
1000
DSTYLE
1002
{
1070
   287
1070
     3
1070
    40
1040
40.0
1070
   143
1040
0.039
1070
   172
1070
     1
1070
   271
1070
     0
1070
   279
1070
     0
1070
   288
1070
     1
1002
}
  0
DIMENSION
  5
7C96
  8
3
  6
CONTINUOUS
  2
*D15
 10
1512.0942290440021
 20
5418.4519690000006
 30
0.0
 11
1412.0942290440009
 21
5015.9519690000006
 31
0.0
 70
     0
 13
2049.0527490440022
 23
4613.4519689999988
 33
0.0
 14
3033.4707380440018
 24
5418.4519689999997
 34
0.0
 50
90.0
1001
ACAD
1000
DSTYLE
1002
{
1070
   287
1070
     4
1070
    40
1040
40.0
1070
    75
1070
     1
1070
   143
1040
0.039
1070
   172
1070
     1
1070
   271
1070
     0
1070
   279
1070
     1
1070
   288
1070
     1
1002
}
  0
DIMENSION
  5
7CA3
  8
3
  6
CONTINUOUS
  2
*D16
 10
1279.1135090440021
 20
3258.4519690000002
 30
0.0
 11
1279.1135090440021
 21
4448.864278
 31
0.0
 70
   128
 13
3033.4707380440018
 23
5418.4519689999997
 33
0.0
 14
2373.4707380440018
 24
3258.4519690000002
 34
0.0
 50
90.0
1001
ACAD
1000
DSTYLE
1002
{
1070
   287
1070
     3
1070
    40
1040
40.0
1070
   143
1040
0.039
1070
   172
1070
     1
1070
   271
1070
     0
1070
   279
1070
     0
1070
   288
1070
     1
1002
}
  0
DIMENSION
  5
7CAF
  8
3
  6
CONTINUOUS
  2
*D17
 10
4002.4707380440018
 20
5624.023197999999
 30
0.0
 11
3517.9707380440018
 21
5724.0231979999999
 31
0.0
 70
     0
 13
3033.4707380440018
 23
5567.0962250000002
 33
0.0
 14
4002.4707380440018
 24
4606.864434813021
 34
0.0
1001
ACAD
1000
DSTYLE
1002
{
1070
   287
1070
     4
1070
    40
1040
40.0
1070
    75
1070
     1
1070
   143
1040
0.039
1070
   172
1070
     1
1070
   271
1070
     0
1070
   279
1070
     1
1070
   288
1070
     1
1002
}
  0
DIMENSION
  5
7CD1
  8
3
  2
*D18
 10
4733.4707380440022
 20
5869.9990360690254
 30
0.0
 11
3431.4569953641621
 21
5869.9990360690254
 31
0.0
 70
   128
 13
2273.4707380440018
 23
4618.4519689999988
 33
0.0
 14
4733.4707380440022
 24
3383.4519690000002
 34
0.0
1001
ACAD
1000
DSTYLE
1002
{
1070
   287
1070
     3
1070
    40
1040
40.0
1070
   143
1040
0.039
1070
   172
1070
     1
1070
   271
1070
     0
1070
   279
1070
     0
1070
   288
1070
     1
1002
}
  0
ENDSEC
  0
EOF
