  0
SECTION
  2
HEADER
  9
$ACADVER
  1
AC1009
  9
$INSBASE
 10
0.0
 20
0.0
 30
0.0
  9
$EXTMIN
 10
1000.0
 20
1200.0
 30
0.0
  9
$EXTMAX
 10
7400.0
 20
11146.609046
 30
0.0
  9
$LIMMIN
 10
0.0
 20
0.0
  9
$LIMMAX
 10
297.0
 20
210.0
  9
$ORTHOMODE
 70
     0
  9
$REGENMODE
 70
     1
  9
$FILLMODE
 70
     0
  9
$QTEXTMODE
 70
     0
  9
$MIRRTEXT
 70
     1
  9
$DRAGMODE
 70
     2
  9
$LTSCALE
 40
100.0
  9
$OSMODE
 70
    37
  9
$ATTMODE
 70
     1
  9
$TEXTSIZE
 40
180.0
  9
$TRACEWID
 40
0.05
  9
$TEXTSTYLE
  7
STANDARD
  9
$CLAYER
  8
3
  9
$CELTYPE
  6
BYLAYER
  9
$CECOLOR
 62
   256
  9
$DIMSCALE
 40
40.0
  9
$DIMASZ
 40
2.0
  9
$DIMEXO
 40
0.5
  9
$DIMDLI
 40
10.0
  9
$DIMRND
 40
0.0
  9
$DIMDLE
 40
0.0
  9
$DIMEXE
 40
1.0
  9
$DIMTP
 40
1.0
  9
$DIMTM
 40
1.0
  9
$DIMTXT
 40
3.0
  9
$DIMCEN
 40
0.0
  9
$DIMTSZ
 40
0.0
  9
$DIMTOL
 70
     0
  9
$DIMLIM
 70
     0
  9
$DIMTIH
 70
     0
  9
$DIMTOH
 70
     0
  9
$DIMSE1
 70
     0
  9
$DIMSE2
 70
     0
  9
$DIMTAD
 70
     1
  9
$DIMZIN
 70
     8
  9
$DIMBLK
  1

  9
$DIMASO
 70
     1
  9
$DIMSHO
 70
     1
  9
$DIMPOST
  1

  9
$DIMAPOST
  1

  9
$DIMALT
 70
     0
  9
$DIMALTD
 70
     2
  9
$DIMALTF
 40
0.039
  9
$DIMLFAC
 40
1.0
  9
$DIMTOFL
 70
     1
  9
$DIMTVP
 40
0.0
  9
$DIMTIX
 70
     0
  9
$DIMSOXD
 70
     0
  9
$DIMSAH
 70
     1
  9
$DIMBLK1
  1
OPEN
  9
$DIMBLK2
  1
OPEN
  9
$DIMSTYLE
  2
IGA
  9
$DIMCLRD
 70
     0
  9
$DIMCLRE
 70
     0
  9
$DIMCLRT
 70
     0
  9
$DIMTFAC
 40
10.0
  9
$DIMGAP
 40
1.0
  9
$LUNITS
 70
     2
  9
$LUPREC
 70
     3
  9
$SKETCHINC
 40
0.1
  9
$FILLETRAD
 40
50.0
  9
$AUNITS
 70
     0
  9
$AUPREC
 70
     0
  9
$MENU
  1
acad
  9
$ELEVATION
 40
0.0
  9
$PELEVATION
 40
0.0
  9
$THICKNESS
 40
0.0
  9
$LIMCHECK
 70
     0
  9
$BLIPMODE
 70
     0
  9
$CHAMFERA
 40
0.5
  9
$CHAMFERB
 40
0.5
  9
$SKPOLY
 70
     0
  9
$TDCREATE
 40
2450753.619856366
  9
$TDUPDATE
 40
2454953.778915104
  9
$TDINDWG
 40
0.0106918056
  9
$TDUSRTIMER
 40
0.0106918056
  9
$USRTIMER
 70
     1
  9
$ANGBASE
 50
0.0
  9
$ANGDIR
 70
     0
  9
$PDMODE
 70
     0
  9
$PDSIZE
 40
0.0
  9
$PLINEWID
 40
0.0
  9
$COORDS
 70
     1
  9
$SPLFRAME
 70
     0
  9
$SPLINETYPE
 70
     6
  9
$SPLINESEGS
 70
     8
  9
$ATTDIA
 70
     0
  9
$ATTREQ
 70
     1
  9
$HANDLING
 70
 10241
  9
$HANDSEED
  5
7D28
  9
$SURFTAB1
 70
     6
  9
$SURFTAB2
 70
     6
  9
$SURFTYPE
 70
     6
  9
$SURFU
 70
     6
  9
$SURFV
 70
     6
  9
$UCSNAME
  2

  9
$UCSORG
 10
0.0
 20
0.0
 30
0.0
  9
$UCSXDIR
 10
1.0
 20
0.0
 30
0.0
  9
$UCSYDIR
 10
0.0
 20
1.0
 30
0.0
  9
$PUCSNAME
  2

  9
$PUCSORG
 10
0.0
 20
0.0
 30
0.0
  9
$PUCSXDIR
 10
1.0
 20
0.0
 30
0.0
  9
$PUCSYDIR
 10
0.0
 20
1.0
 30
0.0
  9
$USERI1
 70
     0
  9
$USERI2
 70
     0
  9
$USERI3
 70
     0
  9
$USERI4
 70
     0
  9
$USERI5
 70
     0
  9
$USERR1
 40
0.0
  9
$USERR2
 40
0.0
  9
$USERR3
 40
0.0
  9
$USERR4
 40
0.0
  9
$USERR5
 40
0.0
  9
$WORLDVIEW
 70
     1
  9
$SHADEDGE
 70
     3
  9
$SHADEDIF
 70
    70
  9
$TILEMODE
 70
     1
  9
$MAXACTVP
 70
    16
  9
$PLIMCHECK
 70
     0
  9
$PEXTMIN
 10
1.0000000000000000E+020
 20
1.0000000000000000E+020
 30
1.0000000000000000E+020
  9
$PEXTMAX
 10
-1.0000000000000000E+020
 20
-1.0000000000000000E+020
 30
-1.0000000000000000E+020
  9
$PLIMMIN
 10
0.0
 20
0.0
  9
$PLIMMAX
 10
12.0
 20
9.0
  9
$UNITMODE
 70
     0
  9
$VISRETAIN
 70
     0
  9
$PLINEGEN
 70
     0
  9
$PSLTSCALE
 70
     1
  0
ENDSEC
  0
SECTION
  2
TABLES
  0
TABLE
  2
VPORT
 70
     2
  0
VPORT
  2
*ACTIVE
 70
     0
 10
0.0
 20
0.0
 11
1.0
 21
1.0
 12
12584.224953905899
 22
6173.2749996292814
 13
0.0
 23
0.0
 14
10.0
 24
10.0
 15
10.0
 25
10.0
 16
0.0
 26
0.0
 36
1.0
 17
0.0
 27
0.0
 37
0.0
 40
10022.99371525931
 41
3.1666666666666661
 42
50.0
 43
0.0
 44
0.0
 50
0.0
 51
0.0
 71
     0
 72
   100
 73
     1
 74
     0
 75
     0
 76
     0
 77
     0
 78
     0
  0
ENDTAB
  0
TABLE
  2
LTYPE
 70
     2
  0
LTYPE
  2
CONTINUOUS
 70
     0
  3
Solid line
 72
    65
 73
     0
 40
0.0
  0
LTYPE
  2
CENTER
 70
     0
  3
____ _ ____ _ ____ _ ____ _ ____ _ ____ _ ____ 
 72
    65
 73
     4
 40
2.0
 49
1.25
 49
-0.25
 49
0.25
 49
-0.25
  0
ENDTAB
  0
TABLE
  2
LAYER
 70
     6
  0
LAYER
  2
0
 70
     0
 62
     7
  6
CONTINUOUS
  0
LAYER
  2
3
 70
     0
 62
     2
  6
CONTINUOUS
  0
LAYER
  2
2
 70
     0
 62
     3
  6
CENTER
  0
LAYER
  2
1
 70
     0
 62
     4
  6
CONTINUOUS
  0
LAYER
  2
4
 70
     0
 62
     7
  6
CONTINUOUS
  0
LAYER
  2
DEFPOINTS
 70
     0
 62
     7
  6
CONTINUOUS
  0
ENDTAB
  0
TABLE
  2
STYLE
 70
     1
  0
STYLE
  2
STANDARD
 70
     0
 40
0.0
 41
1.0
 50
0.0
 71
     0
 42
180.0
  3
simplex.shx
  4
extfont.shx
  0
ENDTAB
  0
TABLE
  2
VIEW
 70
     0
  0
ENDTAB
  0
TABLE
  2
UCS
 70
     0
  0
ENDTAB
  0
TABLE
  2
APPID
 70
     1
  0
APPID
  2
ACAD
 70
     0
  0
ENDTAB
  0
TABLE
  2
DIMSTYLE
 70
     1
  0
DIMSTYLE
  2
IGA
 70
     0
  3

  4

  5

  6
OPEN
  7
OPEN
 40
2.0
 41
2.0
 42
0.5
 43
10.0
 44
1.0
 45
0.0
 46
0.0
 47
1.0
 48
1.0
140
3.0
141
0.0
142
0.0
143
0.03937
144
1.0
145
0.0
146
10.0
147
1.0
 71
     0
 72
     0
 73
     0
 74
     0
 75
     0
 76
     0
 77
     1
 78
     8
170
     0
171
     2
172
     0
173
     1
174
     0
175
     0
176
     0
177
     0
178
     0
  0
ENDTAB
  0
ENDSEC
  0
SECTION
  2
BLOCKS
  0
BLOCK
  8
0
  2
$MODEL_SPACE
 70
     0
 10
0.0
 20
0.0
 30
0.0
  3
$MODEL_SPACE
  1

  0
ENDBLK
  5
1B
  8
0
  0
BLOCK
 67
     1
  8
0
  2
$PAPER_SPACE
 70
     0
 10
0.0
 20
0.0
 30
0.0
  3
$PAPER_SPACE
  1

  0
ENDBLK
  5
18
 67
     1
  8
0
  0
BLOCK
  8
0
  2
_OPEN
 70
     0
 10
0.0
 20
0.0
 30
0.0
  3
_OPEN
  1

  0
LINE
  5
7AEB
  8
0
  6
BYBLOCK
 62
     0
 10
-1.0
 20
0.166667
 30
0.0
 11
0.0
 21
0.0
 31
0.0
  0
LINE
  5
7AEC
  8
0
  6
BYBLOCK
 62
     0
 10
0.0
 20
0.0
 30
0.0
 11
-1.0
 21
-0.166667
 31
0.0
  0
LINE
  5
7AED
  8
0
  6
BYBLOCK
 62
     0
 10
0.0
 20
0.0
 30
0.0
 11
-1.0
 21
0.0
 31
0.0
  0
ENDBLK
  5
7AEE
  8
0
  0
BLOCK
  8
0
  2
*D1
 70
     1
 10
0.0
 20
0.0
 30
0.0
  3
*D1
  1

  0
LINE
  5
7C8C
  8
3
  6
CONTINUOUS
 62
     0
 10
1799.6981049999999
 20
4778.8813899999986
 30
0.0
 11
1799.6981049999999
 21
4967.9873770000004
 31
0.0
  0
LINE
  5
7C8D
  8
3
  6
CONTINUOUS
 62
     0
 10
2949.698104999999
 20
4778.8813899999986
 30
0.0
 11
2949.698104999999
 21
4967.9873770000004
 31
0.0
  0
LINE
  5
7C8E
  8
3
  6
CONTINUOUS
 62
     0
 10
1879.6981049999999
 20
4927.9873770000004
 30
0.0
 11
2869.6981049999999
 21
4927.9873770000004
 31
0.0
  0
INSERT
  5
7C8F
  8
3
  6
CONTINUOUS
 62
     0
  2
_OPEN
 10
1799.6981049999999
 20
4927.9873770000004
 30
0.0
 41
80.0
 42
80.0
 43
80.0
 50
180.0
  0
INSERT
  5
7C90
  8
3
  6
CONTINUOUS
 62
     0
  2
_OPEN
 10
2949.698104999999
 20
4927.9873770000004
 30
0.0
 41
80.0
 42
80.0
 43
80.0
  0
TEXT
  8
3
  40
120
  5
7D17
  62
0
  72
0
  71
0
 10
2099.74
 20
4815.59
 30
0.000000
  1
1150
  0
POINT
  5
7C92
  8
DEFPOINTS
  6
CONTINUOUS
 62
     0
 10
1799.6981049999999
 20
4758.8813899999986
 30
0.0
  0
POINT
  5
7C93
  8
DEFPOINTS
  6
CONTINUOUS
 62
     0
 10
2949.698104999999
 20
4758.8813899999986
 30
0.0
  0
POINT
  5
7C94
  8
DEFPOINTS
  6
CONTINUOUS
 62
     0
 10
2949.698104999999
 20
4927.9873770000004
 30
0.0
  0
ENDBLK
  5
7AFB
  8
0
  0
BLOCK
  8
0
  2
*D2
 70
     1
 10
0.0
 20
0.0
 30
0.0
  3
*D2
  1

  0
LINE
  5
7C95
  8
3
  6
CONTINUOUS
 62
     0
 10
1799.6981049999999
 20
4778.8813899999986
 30
0.0
 11
1799.6981049999999
 21
5241.6824990000014
 31
0.0
  0
LINE
  5
7C96
  8
3
  6
CONTINUOUS
 62
     0
 10
2997.698104999999
 20
4950.1499350000004
 30
0.0
 11
2997.698104999999
 21
5241.6824990000014
 31
0.0
  0
LINE
  5
7C97
  8
3
  6
CONTINUOUS
 62
     0
 10
1879.6981049999999
 20
5201.6824989999996
 30
0.0
 11
2917.698104999999
 21
5201.6824989999996
 31
0.0
  0
INSERT
  5
7C98
  8
3
  6
CONTINUOUS
 62
     0
  2
_OPEN
 10
1799.6981049999999
 20
5201.6824989999996
 30
0.0
 41
80.0
 42
80.0
 43
80.0
 50
180.0
  0
INSERT
  5
7C99
  8
3
  6
CONTINUOUS
 62
     0
  2
_OPEN
 10
2997.698104999999
 20
5201.6824989999996
 30
0.0
 41
80.0
 42
80.0
 43
80.0
  0
TEXT
  8
3
  40
120
  5
7D18
  62
0
  72
0
  71
0
 10
2073.24
 20
5089.28
 30
0.000000
  1
1198
  0
POINT
  5
7C9B
  8
DEFPOINTS
  6
CONTINUOUS
 62
     0
 10
1799.6981049999999
 20
4758.8813899999986
 30
0.0
  0
POINT
  5
7C9C
  8
DEFPOINTS
  6
CONTINUOUS
 62
     0
 10
2997.698104999999
 20
4930.1499350000013
 30
0.0
  0
POINT
  5
7C9D
  8
DEFPOINTS
  6
CONTINUOUS
 62
     0
 10
2997.698104999999
 20
5201.6824989999996
 30
0.0
  0
ENDBLK
  5
7B08
  8
0
  0
BLOCK
  8
0
  2
*D3
 70
     1
 10
0.0
 20
0.0
 30
0.0
  3
*D3
  1

  0
LINE
  5
7C9E
  8
3
  6
CONTINUOUS
 62
     0
 10
1297.6981049999999
 20
2968.8813899999991
 30
0.0
 11
1297.6981049999999
 21
2618.9665679999989
 31
0.0
  0
LINE
  5
7C9F
  8
3
  6
CONTINUOUS
 62
     0
 10
2997.698104999999
 20
2791.2351100000001
 30
0.0
 11
2997.698104999999
 21
2618.9665679999989
 31
0.0
  0
LINE
  5
7CA0
  8
3
  6
CONTINUOUS
 62
     0
 10
1377.6981049999999
 20
2658.9665679999998
 30
0.0
 11
2917.698104999999
 21
2658.9665679999998
 31
0.0
  0
INSERT
  5
7CA1
  8
3
  6
CONTINUOUS
 62
     0
  2
_OPEN
 10
1297.6981049999999
 20
2658.9665679999998
 30
0.0
 41
80.0
 42
80.0
 43
80.0
 50
180.0
  0
INSERT
  5
7CA2
  8
3
  6
CONTINUOUS
 62
     0
  2
_OPEN
 10
2997.698104999999
 20
2658.9665679999998
 30
0.0
 41
80.0
 42
80.0
 43
80.0
  0
TEXT
  8
3
  40
120
  5
7D19
  62
0
  72
0
  71
0
 10
1949.56
 20
2546.57
 30
0.000000
  1
1700
  0
POINT
  5
7CA4
  8
DEFPOINTS
  6
CONTINUOUS
 62
     0
 10
1297.6981049999999
 20
2988.88139
 30
0.0
  0
POINT
  5
7CA5
  8
DEFPOINTS
  6
CONTINUOUS
 62
     0
 10
2997.698104999999
 20
2811.2351100000001
 30
0.0
  0
POINT
  5
7CA6
  8
DEFPOINTS
  6
CONTINUOUS
 62
     0
 10
2997.698104999999
 20
2658.9665679999998
 30
0.0
  0
ENDBLK
  5
7B21
  8
0
  0
BLOCK
  8
0
  2
*D4
 70
     1
 10
0.0
 20
0.0
 30
0.0
  3
*D4
  1

  0
LINE
  5
7CA7
  8
3
  6
CONTINUOUS
 62
     0
 10
3657.698104999999
 20
2968.8813899999991
 30
0.0
 11
3657.698104999999
 21
2618.9665679999989
 31
0.0
  0
LINE
  5
7CA8
  8
3
  6
CONTINUOUS
 62
     0
 10
3077.6981049999999
 20
2658.9665679999998
 30
0.0
 11
3577.698104999999
 21
2658.9665679999998
 31
0.0
  0
INSERT
  5
7CA9
  8
3
  6
CONTINUOUS
 62
     0
  2
_OPEN
 10
2997.698104999999
 20
2658.9665679999998
 30
0.0
 41
80.0
 42
80.0
 43
80.0
 50
180.0
  0
INSERT
  5
7CAA
  8
3
  6
CONTINUOUS
 62
     0
  2
_OPEN
 10
3657.698104999999
 20
2658.9665679999998
 30
0.0
 41
80.0
 42
80.0
 43
80.0
  0
TEXT
  8
3
  40
120
  5
7D1A
  62
0
  72
0
  71
0
 10
3087.70
 20
2546.57
 30
0.000000
  1
660
  0
POINT
  5
7CAC
  8
DEFPOINTS
  6
CONTINUOUS
 62
     0
 10
2997.698104999999
 20
2811.2351100000001
 30
0.0
  0
POINT
  5
7CAD
  8
DEFPOINTS
  6
CONTINUOUS
 62
     0
 10
3657.698104999999
 20
2988.88139
 30
0.0
  0
POINT
  5
7CAE
  8
DEFPOINTS
  6
CONTINUOUS
 62
     0
 10
3657.698104999999
 20
2658.9665679999998
 30
0.0
  0
ENDBLK
  5
7B2D
  8
0
  0
BLOCK
  8
0
  2
*D5
 70
     1
 10
0.0
 20
0.0
 30
0.0
  3
*D5
  1

  0
LINE
  5
7CAF
  8
3
  6
CONTINUOUS
 62
     0
 10
3022.698104999999
 20
4758.8813899999986
 30
0.0
 11
4181.9167020000014
 21
4758.8813899999986
 31
0.0
  0
LINE
  5
7CB0
  8
3
  6
CONTINUOUS
 62
     0
 10
4016.3217049999998
 20
3998.88139
 30
0.0
 11
4181.9167020000014
 21
3998.88139
 31
0.0
  0
LINE
  5
7CB1
  8
3
  6
CONTINUOUS
 62
     0
 10
4141.9167020000023
 20
4678.8813899999986
 30
0.0
 11
4141.9167020000023
 21
4078.88139
 31
0.0
  0
INSERT
  5
7CB2
  8
3
  6
CONTINUOUS
 62
     0
  2
_OPEN
 10
4141.9167020000023
 20
4758.8813899999986
 30
0.0
 41
80.0
 42
80.0
 43
80.0
 50
90.0
  0
INSERT
  5
7CB3
  8
3
  6
CONTINUOUS
 62
     0
  2
_OPEN
 10
4141.9167020000023
 20
3998.88139
 30
0.0
 41
80.0
 42
80.0
 43
80.0
 50
270.0
  0
TEXT
  8
3
  40
120
  5
7D1B
  62
0
  72
0
  71
0
 10
3801.92
 20
4159.37
 30
0.000000
  1
760
  0
POINT
  5
7CB5
  8
DEFPOINTS
  6
CONTINUOUS
 62
     0
 10
3002.6981049999999
 20
4758.8813899999986
 30
0.0
  0
POINT
  5
7CB6
  8
DEFPOINTS
  6
CONTINUOUS
 62
     0
 10
3996.3217049999989
 20
3998.88139
 30
0.0
  0
POINT
  5
7CB7
  8
DEFPOINTS
  6
CONTINUOUS
 62
     0
 10
4141.9167020000023
 20
3998.88139
 30
0.0
  0
ENDBLK
  5
7B3A
  8
0
  0
BLOCK
  8
0
  2
*D6
 70
     1
 10
0.0
 20
0.0
 30
0.0
  3
*D6
  1

  0
LINE
  5
7CB8
  8
3
  6
CONTINUOUS
 62
     0
 10
3677.698104999999
 20
2988.88139
 30
0.0
 11
4181.9167020000004
 21
2988.88139
 31
0.0
  0
LINE
  5
7CB9
  8
3
  6
CONTINUOUS
 62
     0
 10
4141.9167020000004
 20
3918.88139
 30
0.0
 11
4141.9167020000004
 21
3068.88139
 31
0.0
  0
INSERT
  5
7CBA
  8
3
  6
CONTINUOUS
 62
     0
  2
_OPEN
 10
4141.9167020000004
 20
3998.88139
 30
0.0
 41
80.0
 42
80.0
 43
80.0
 50
90.0
  0
INSERT
  5
7CBB
  8
3
  6
CONTINUOUS
 62
     0
  2
_OPEN
 10
4141.9167020000004
 20
2988.88139
 30
0.0
 41
80.0
 42
80.0
 43
80.0
 50
270.0
  0
TEXT
  8
3
  40
120
  5
7D1C
  62
0
  72
0
  71
0
 10
3801.92
 20
3281.48
 30
0.000000
  1
1010
  0
POINT
  5
7CBD
  8
DEFPOINTS
  6
CONTINUOUS
 62
     0
 10
3996.3217049999989
 20
3998.88139
 30
0.0
  0
POINT
  5
7CBE
  8
DEFPOINTS
  6
CONTINUOUS
 62
     0
 10
3657.698104999999
 20
2988.88139
 30
0.0
  0
POINT
  5
7CBF
  8
DEFPOINTS
  6
CONTINUOUS
 62
     0
 10
4141.9167020000004
 20
2988.88139
 30
0.0
  0
ENDBLK
  5
7B46
  8
0
  0
BLOCK
  8
0
  2
*D7
 70
     1
 10
0.0
 20
0.0
 30
0.0
  3
*D7
  1

  0
LINE
  5
7CC0
  8
3
  6
CONTINUOUS
 62
     0
 10
3022.698104999999
 20
4758.8813899999986
 30
0.0
 11
4482.2787900000012
 21
4758.8813899999986
 31
0.0
  0
LINE
  5
7CC1
  8
3
  6
CONTINUOUS
 62
     0
 10
3677.698104999999
 20
2988.88139
 30
0.0
 11
4482.2787900000012
 21
2988.88139
 31
0.0
  0
LINE
  5
7CC2
  8
3
  6
CONTINUOUS
 62
     0
 10
4442.2787900000012
 20
4678.8813899999986
 30
0.0
 11
4442.2787900000012
 21
3068.88139
 31
0.0
  0
INSERT
  5
7CC3
  8
3
  6
CONTINUOUS
 62
     0
  2
_OPEN
 10
4442.2787900000012
 20
4758.8813899999986
 30
0.0
 41
80.0
 42
80.0
 43
80.0
 50
90.0
  0
INSERT
  5
7CC4
  8
3
  6
CONTINUOUS
 62
     0
  2
_OPEN
 10
4442.2787900000012
 20
2988.88139
 30
0.0
 41
80.0
 42
80.0
 43
80.0
 50
270.0
  0
TEXT
  8
3
  40
120
  5
7D1D
  62
0
  72
0
  71
0
 10
4102.28
 20
3647.29
 30
0.000000
  1
1770
  0
POINT
  5
7CC6
  8
DEFPOINTS
  6
CONTINUOUS
 62
     0
 10
3002.6981049999999
 20
4758.8813899999986
 30
0.0
  0
POINT
  5
7CC7
  8
DEFPOINTS
  6
CONTINUOUS
 62
     0
 10
3657.698104999999
 20
2988.88139
 30
0.0
  0
POINT
  5
7CC8
  8
DEFPOINTS
  6
CONTINUOUS
 62
     0
 10
4442.2787900000012
 20
2988.88139
 30
0.0
  0
ENDBLK
  5
7B53
  8
0
  0
BLOCK
  8
0
  2
*D8
 70
     1
 10
0.0
 20
0.0
 30
0.0
  3
*D8
  1

  0
LINE
  5
7CC9
  8
3
  6
CONTINUOUS
 62
     0
 10
5760.7736150000001
 20
4778.8813899999986
 30
0.0
 11
5760.7736150000001
 21
4959.1584949999997
 31
0.0
  0
LINE
  5
7CCA
  8
3
  6
CONTINUOUS
 62
     0
 10
6610.773615000001
 20
4778.8813899999986
 30
0.0
 11
6610.773615000001
 21
4959.1584949999997
 31
0.0
  0
LINE
  5
7CCB
  8
3
  6
CONTINUOUS
 62
     0
 10
5840.7736150000001
 20
4919.1584950000006
 30
0.0
 11
6530.7736150000001
 21
4919.1584950000006
 31
0.0
  0
INSERT
  5
7CCC
  8
3
  6
CONTINUOUS
 62
     0
  2
_OPEN
 10
5760.7736150000001
 20
4919.1584950000006
 30
0.0
 41
80.0
 42
80.0
 43
80.0
 50
180.0
  0
INSERT
  5
7CCD
  8
3
  6
CONTINUOUS
 62
     0
  2
_OPEN
 10
6610.773615000001
 20
4919.1584950000006
 30
0.0
 41
80.0
 42
80.0
 43
80.0
  0
TEXT
  8
3
  40
120
  5
7D1E
  62
0
  72
0
  71
0
 10
5941.75
 20
4806.76
 30
0.000000
  1
850
  0
POINT
  5
7CCF
  8
DEFPOINTS
  6
CONTINUOUS
 62
     0
 10
5760.7736150000001
 20
4758.8813899999986
 30
0.0
  0
POINT
  5
7CD0
  8
DEFPOINTS
  6
CONTINUOUS
 62
     0
 10
6610.773615000001
 20
4758.8813899999986
 30
0.0
  0
POINT
  5
7CD1
  8
DEFPOINTS
  6
CONTINUOUS
 62
     0
 10
6610.773615000001
 20
4919.1584950000006
 30
0.0
  0
ENDBLK
  5
7B60
  8
0
  0
BLOCK
  8
0
  2
*D9
 70
     1
 10
0.0
 20
0.0
 30
0.0
  3
*D9
  1

  0
LINE
  5
7CD2
  8
3
  6
CONTINUOUS
 62
     0
 10
6733.773615000001
 20
4558.8813899999986
 30
0.0
 11
7043.3319150000016
 21
4558.8813899999986
 31
0.0
  0
LINE
  5
7CD3
  8
3
  6
CONTINUOUS
 62
     0
 10
6733.773615000001
 20
3438.88139
 30
0.0
 11
7043.3319150000016
 21
3438.88139
 31
0.0
  0
LINE
  5
7CD4
  8
3
  6
CONTINUOUS
 62
     0
 10
7003.3319150000007
 20
4478.8813899999986
 30
0.0
 11
7003.3319150000007
 21
3518.88139
 31
0.0
  0
INSERT
  5
7CD5
  8
3
  6
CONTINUOUS
 62
     0
  2
_OPEN
 10
7003.3319150000007
 20
4558.8813899999986
 30
0.0
 41
80.0
 42
80.0
 43
80.0
 50
90.0
  0
INSERT
  5
7CD6
  8
3
  6
CONTINUOUS
 62
     0
  2
_OPEN
 10
7003.3319150000007
 20
3438.88139
 30
0.0
 41
80.0
 42
80.0
 43
80.0
 50
270.0
  0
TEXT
  8
3
  40
120
  5
7D1F
  62
0
  72
0
  71
0
 10
6663.33
 20
3788.56
 30
0.000000
  1
φ1120
  0
POINT
  5
7CD8
  8
DEFPOINTS
  6
CONTINUOUS
 62
     0
 10
6713.7736150000001
 20
4558.8813899999986
 30
0.0
  0
POINT
  5
7CD9
  8
DEFPOINTS
  6
CONTINUOUS
 62
     0
 10
6713.7736150000001
 20
3438.88139
 30
0.0
  0
POINT
  5
7CDA
  8
DEFPOINTS
  6
CONTINUOUS
 62
     0
 10
7003.3319150000007
 20
3438.88139
 30
0.0
  0
ENDBLK
  5
7C5F
  8
0
  0
BLOCK
  8
0
  2
*D10
 70
     1
 10
0.0
 20
0.0
 30
0.0
  3
*D10
  1

  0
LINE
  5
7C4B
  8
0
  6
BYBLOCK
 62
     0
 10
6713.7736150000001
 20
4628.8813899999986
 30
0.0
 11
6713.7736150000001
 21
5232.8536169999988
 31
0.0
  0
LINE
  5
7C4C
  8
0
  6
BYBLOCK
 62
     0
 10
6185.7736150000001
 20
5139.4887689999987
 30
0.0
 11
6185.7736150000001
 21
5232.8536169999988
 31
0.0
  0
LINE
  5
7C4D
  8
0
  6
BYBLOCK
 62
     0
 10
6633.773615000001
 20
5192.8536169999998
 30
0.0
 11
6265.7736150000001
 21
5192.8536169999998
 31
0.0
  0
TEXT
  5
7C4E
  8
3
 62
     0
 10
6295.4879007142854
 20
5244.1635149779868
 30
0.0
 40
120.0
  1
528
  0
INSERT
  5
7C4F
  8
0
  6
BYBLOCK
 62
     0
  2
_OPEN
 10
6713.7736150000001
 20
5192.8536169999998
 30
0.0
 41
80.0
 42
80.0
 43
80.0
  0
INSERT
  5
7C50
  8
0
  6
BYBLOCK
 62
     0
  2
_OPEN
 10
6185.7736150000001
 20
5192.8536169999998
 30
0.0
 41
80.0
 42
80.0
 43
80.0
 50
180.0
  0
POINT
  5
7C51
  8
DEFPOINTS
  6
BYBLOCK
 62
     0
 10
6713.7736150000001
 20
4608.8813899999986
 30
0.0
  0
POINT
  5
7C52
  8
DEFPOINTS
  6
BYBLOCK
 62
     0
 10
6185.7736150000001
 20
5119.4887689999996
 30
0.0
  0
POINT
  5
7C53
  8
DEFPOINTS
  6
BYBLOCK
 62
     0
 10
6185.7736150000001
 20
5192.8536169999998
 30
0.0
  0
ENDBLK
  5
7C54
  8
0
  0
BLOCK
  8
0
  2
*D11
 70
     1
 10
0.0
 20
0.0
 30
0.0
  3
*D11
  1

  0
LINE
  5
7CDB
  8
3
  6
CONTINUOUS
 62
     0
 10
5445.7736150000001
 20
4396.8813899999986
 30
0.0
 11
5445.7736150000001
 21
5232.8536169999988
 31
0.0
  0
LINE
  5
7CDC
  8
3
  6
CONTINUOUS
 62
     0
 10
6105.7736150000001
 20
5192.8536169999998
 30
0.0
 11
5525.7736150000001
 21
5192.8536169999998
 31
0.0
  0
INSERT
  5
7CDD
  8
3
  6
CONTINUOUS
 62
     0
  2
_OPEN
 10
6185.7736150000001
 20
5192.8536169999998
 30
0.0
 41
80.0
 42
80.0
 43
80.0
  0
INSERT
  5
7CDE
  8
3
  6
CONTINUOUS
 62
     0
  2
_OPEN
 10
5445.7736150000001
 20
5192.8536169999998
 30
0.0
 41
80.0
 42
80.0
 43
80.0
 50
180.0
  0
TEXT
  8
3
  40
120
  5
7D20
  62
0
  72
0
  71
0
 10
5575.77
 20
5180.45
 30
0.000000
  1
MAX
  0
TEXT
  8
3
  40
120
  5
7D21
  62
0
  72
0
  71
0
 10
5575.77
 20
5024.45
 30
0.000000
  1
850
  0
POINT
  5
7CE0
  8
DEFPOINTS
  6
CONTINUOUS
 62
     0
 10
6185.7736150000001
 20
5119.4887689999996
 30
0.0
  0
POINT
  5
7CE1
  8
DEFPOINTS
  6
CONTINUOUS
 62
     0
 10
5445.7736150000001
 20
4376.8813899999996
 30
0.0
  0
POINT
  5
7CE2
  8
DEFPOINTS
  6
CONTINUOUS
 62
     0
 10
5445.7736150000001
 20
5192.8536169999998
 30
0.0
  0
ENDBLK
  5
7C69
  8
0
  0
BLOCK
  8
0
  2
*D12
 70
     1
 10
0.0
 20
0.0
 30
0.0
  3
*D12
  1

  0
LINE
  5
7CE3
  8
3
  6
CONTINUOUS
 62
     0
 10
5498.773615000001
 20
2968.8813899999991
 30
0.0
 11
5498.773615000001
 21
2625.1513839999998
 31
0.0
  0
LINE
  5
7CE4
  8
3
  6
CONTINUOUS
 62
     0
 10
6185.7736150000001
 20
2761.8109899999999
 30
0.0
 11
6185.7736150000001
 21
2625.1513839999998
 31
0.0
  0
LINE
  5
7CE5
  8
3
  6
CONTINUOUS
 62
     0
 10
5578.7736150000001
 20
2665.1513839999998
 30
0.0
 11
6105.7736150000001
 21
2665.1513839999998
 31
0.0
  0
INSERT
  5
7CE6
  8
3
  6
CONTINUOUS
 62
     0
  2
_OPEN
 10
5498.773615000001
 20
2665.1513839999998
 30
0.0
 41
80.0
 42
80.0
 43
80.0
 50
180.0
  0
INSERT
  5
7CE7
  8
3
  6
CONTINUOUS
 62
     0
  2
_OPEN
 10
6185.7736150000001
 20
2665.1513839999998
 30
0.0
 41
80.0
 42
80.0
 43
80.0
  0
TEXT
  8
3
  40
120
  5
7D22
  62
0
  72
0
  71
0
 10
5597.22
 20
2552.75
 30
0.000000
  1
687
  0
POINT
  5
7CE9
  8
DEFPOINTS
  6
CONTINUOUS
 62
     0
 10
5498.773615000001
 20
2988.88139
 30
0.0
  0
POINT
  5
7CEA
  8
DEFPOINTS
  6
CONTINUOUS
 62
     0
 10
6185.7736150000001
 20
2781.8109899999999
 30
0.0
  0
POINT
  5
7CEB
  8
DEFPOINTS
  6
CONTINUOUS
 62
     0
 10
6185.7736150000001
 20
2665.1513839999998
 30
0.0
  0
ENDBLK
  5
7C12
  8
0
  0
BLOCK
  8
0
  2
*D13
 70
     1
 10
0.0
 20
0.0
 30
0.0
  3
*D13
  1

  0
LINE
  5
7CEC
  8
3
  6
CONTINUOUS
 62
     0
 10
6678.7736150000001
 20
2968.8813899999991
 30
0.0
 11
6678.7736150000001
 21
2625.1513839999998
 31
0.0
  0
LINE
  5
7CED
  8
3
  6
CONTINUOUS
 62
     0
 10
6265.7736150000001
 20
2665.1513839999998
 30
0.0
 11
6598.7736150000001
 21
2665.1513839999998
 31
0.0
  0
TEXT
  8
3
  40
120
  5
7D23
  62
0
  72
0
  71
0
 10
6202.92
 20
2563.99
 30
0.000000
  1
493
  0
INSERT
  5
7CEF
  8
3
  6
CONTINUOUS
 62
     0
  2
_OPEN
 10
6185.7736150000001
 20
2665.1513839999998
 30
0.0
 41
80.0
 42
80.0
 43
80.0
 50
180.0
  0
INSERT
  5
7CF0
  8
3
  6
CONTINUOUS
 62
     0
  2
_OPEN
 10
6678.7736150000001
 20
2665.1513839999998
 30
0.0
 41
80.0
 42
80.0
 43
80.0
  0
POINT
  5
7CF1
  8
DEFPOINTS
  6
CONTINUOUS
 62
     0
 10
6185.7736150000001
 20
2781.8109899999999
 30
0.0
  0
POINT
  5
7CF2
  8
DEFPOINTS
  6
CONTINUOUS
 62
     0
 10
6678.7736150000001
 20
2988.88139
 30
0.0
  0
POINT
  5
7CF3
  8
DEFPOINTS
  6
CONTINUOUS
 62
     0
 10
6678.7736150000001
 20
2665.1513839999998
 30
0.0
  0
ENDBLK
  5
7C1C
  8
0
  0
BLOCK
  8
0
  2
*D14
 70
     1
 10
0.0
 20
0.0
 30
0.0
  3
*D14
  1

  0
LINE
  5
7CF4
  8
3
  6
CONTINUOUS
 62
     0
 10
1297.6981049999999
 20
7273.7343050000009
 30
0.0
 11
1297.6981049999999
 21
6810.7815959999989
 31
0.0
  0
LINE
  5
7CF5
  8
3
  6
CONTINUOUS
 62
     0
 10
3657.698104999999
 20
7273.7343050000009
 30
0.0
 11
3657.698104999999
 21
6810.7815959999989
 31
0.0
  0
LINE
  5
7CF6
  8
3
  6
CONTINUOUS
 62
     0
 10
1377.6981049999999
 20
6850.7815959999989
 30
0.0
 11
3577.698104999999
 21
6850.7815959999989
 31
0.0
  0
INSERT
  5
7CF7
  8
3
  6
CONTINUOUS
 62
     0
  2
_OPEN
 10
1297.6981049999999
 20
6850.7815959999989
 30
0.0
 41
80.0
 42
80.0
 43
80.0
 50
180.0
  0
INSERT
  5
7CF8
  8
3
  6
CONTINUOUS
 62
     0
  2
_OPEN
 10
3657.698104999999
 20
6850.7815959999989
 30
0.0
 41
80.0
 42
80.0
 43
80.0
  0
TEXT
  8
3
  40
120
  5
7D24
  62
0
  72
0
  71
0
 10
2188.09
 20
6738.38
 30
0.000000
  1
2360
  0
POINT
  5
7CFA
  8
DEFPOINTS
  6
CONTINUOUS
 62
     0
 10
1297.6981049999999
 20
7293.7343049999999
 30
0.0
  0
POINT
  5
7CFB
  8
DEFPOINTS
  6
CONTINUOUS
 62
     0
 10
3657.698104999999
 20
7293.7343049999999
 30
0.0
  0
POINT
  5
7CFC
  8
DEFPOINTS
  6
CONTINUOUS
 62
     0
 10
3657.698104999999
 20
6850.7815959999989
 30
0.0
  0
ENDBLK
  5
7BC7
  8
0
  0
BLOCK
  8
0
  2
*D15
 70
     1
 10
0.0
 20
0.0
 30
0.0
  3
*D15
  1

  0
LINE
  5
7CFD
  8
3
  6
CONTINUOUS
 62
     0
 10
3677.698104999999
 20
8473.7343049999999
 30
0.0
 11
4234.9217939999999
 21
8473.7343049999981
 31
0.0
  0
LINE
  5
7CFE
  8
3
  6
CONTINUOUS
 62
     0
 10
3677.698104999999
 20
7293.7343049999999
 30
0.0
 11
4234.9217939999999
 21
7293.7343049999999
 31
0.0
  0
LINE
  5
7CFF
  8
3
  6
CONTINUOUS
 62
     0
 10
4194.9217940000008
 20
8393.7343049999981
 30
0.0
 11
4194.9217940000008
 21
7373.7343050000009
 31
0.0
  0
INSERT
  5
7D00
  8
3
  6
CONTINUOUS
 62
     0
  2
_OPEN
 10
4194.9217940000008
 20
8473.7343049999981
 30
0.0
 41
80.0
 42
80.0
 43
80.0
 50
90.0
  0
INSERT
  5
7D01
  8
3
  6
CONTINUOUS
 62
     0
  2
_OPEN
 10
4194.9217940000008
 20
7293.7343049999999
 30
0.0
 41
80.0
 42
80.0
 43
80.0
 50
270.0
  0
TEXT
  8
3
  40
120
  5
7D25
  62
0
  72
0
  71
0
 10
3854.92
 20
7697.85
 30
0.000000
  1
1180
  0
POINT
  5
7D03
  8
DEFPOINTS
  6
CONTINUOUS
 62
     0
 10
3657.698104999999
 20
8473.7343049999999
 30
0.0
  0
POINT
  5
7D04
  8
DEFPOINTS
  6
CONTINUOUS
 62
     0
 10
3657.698104999999
 20
7293.7343049999999
 30
0.0
  0
POINT
  5
7D05
  8
DEFPOINTS
  6
CONTINUOUS
 62
     0
 10
4194.9217940000008
 20
7293.7343049999999
 30
0.0
  0
ENDBLK
  5
7BD4
  8
0
  0
BLOCK
  8
0
  2
*D16
 70
     1
 10
0.0
 20
0.0
 30
0.0
  3
*D16
  1

  0
LINE
  5
7D06
  8
3
  6
CONTINUOUS
 62
     0
 10
3802.6981049999999
 20
4018.8813899999991
 30
0.0
 11
3802.6981049999999
 21
5241.6824990000014
 31
0.0
  0
LINE
  5
7D07
  8
3
  6
CONTINUOUS
 62
     0
 10
3077.6981049999999
 20
5201.6824989999996
 30
0.0
 11
3722.6981049999999
 21
5201.6824989999996
 31
0.0
  0
INSERT
  5
7D08
  8
3
  6
CONTINUOUS
 62
     0
  2
_OPEN
 10
2997.698104999999
 20
5201.6824989999996
 30
0.0
 41
80.0
 42
80.0
 43
80.0
 50
180.0
  0
INSERT
  5
7D09
  8
3
  6
CONTINUOUS
 62
     0
  2
_OPEN
 10
3802.6981049999999
 20
5201.6824989999996
 30
0.0
 41
80.0
 42
80.0
 43
80.0
  0
TEXT
  8
3
  40
120
  5
7D26
  62
0
  72
0
  71
0
 10
3160.20
 20
5089.28
 30
0.000000
  1
805
  0
POINT
  5
7D0B
  8
DEFPOINTS
  6
CONTINUOUS
 62
     0
 10
2997.698104999999
 20
4930.1499350000013
 30
0.0
  0
POINT
  5
7D0C
  8
DEFPOINTS
  6
CONTINUOUS
 62
     0
 10
3802.6981049999999
 20
3998.88139
 30
0.0
  0
POINT
  5
7D0D
  8
DEFPOINTS
  6
CONTINUOUS
 62
     0
 10
3802.6981049999999
 20
5201.6824989999996
 30
0.0
  0
ENDBLK
  5
7C31
  8
0
  0
BLOCK
  8
0
  2
*D17
 70
     1
 10
0.0
 20
0.0
 30
0.0
  3
*D17
  1

  0
LINE
  5
7D0E
  8
3
 62
     0
 10
3802.6981049999999
 20
4038.88139
 30
0.0
 11
3802.6981049999999
 21
5485.8487937893224
 31
0.0
  0
LINE
  5
7D0F
  8
3
 62
     0
 10
1297.6981049999999
 20
3133.88139
 30
0.0
 11
1297.6981049999999
 21
5485.8487937893224
 31
0.0
  0
LINE
  5
7D10
  8
3
 62
     0
 10
3722.6981049999999
 20
5445.8487937893224
 30
0.0
 11
1377.6981049999999
 21
5445.8487937893224
 31
0.0
  0
INSERT
  5
7D11
  8
3
 62
     0
  2
_OPEN
 10
3802.6981049999999
 20
5445.8487937893224
 30
0.0
 41
80.0
 42
80.0
 43
80.0
  0
INSERT
  5
7D12
  8
3
 62
     0
  2
_OPEN
 10
1297.6981049999999
 20
5445.8487937893224
 30
0.0
 41
80.0
 42
80.0
 43
80.0
 50
180.0
  0
TEXT
  8
3
  40
120
  5
7D27
  62
0
  72
0
  71
0
 10
2356.87
 20
5333.45
 30
0.000000
  1
2505
  0
POINT
  5
7D14
  8
DEFPOINTS
 62
     0
 10
3802.6981049999999
 20
4018.8813899999991
 30
0.0
  0
POINT
  5
7D15
  8
DEFPOINTS
 62
     0
 10
1297.6981049999999
 20
3113.88139
 30
0.0
  0
POINT
  5
7D16
  8
DEFPOINTS
 62
     0
 10
1297.6981049999999
 20
5445.8487937893224
 30
0.0
  0
ENDBLK
  5
7C3D
  8
0
  0
ENDSEC
  0
SECTION
  2
ENTITIES
  0
LINE
  5
7A64
  8
1
  6
CONTINUOUS
 10
5615.773615000001
 20
3971.3813899999991
 30
0.0
 11
5760.7736150000001
 21
3971.3813899999991
 31
0.0
  0
LINE
  5
7A65
  8
1
  6
CONTINUOUS
 10
5615.773615000001
 20
4026.38139
 30
0.0
 11
5760.7736150000001
 21
4026.38139
 31
0.0
  0
LINE
  5
7A66
  8
1
  6
CONTINUOUS
 10
5615.773615000001
 20
3321.3813899999991
 30
0.0
 11
5760.7736150000001
 21
3321.3813899999991
 31
0.0
  0
LINE
  5
7A67
  8
1
  6
CONTINUOUS
 10
5615.773615000001
 20
3376.38139
 30
0.0
 11
5760.7736150000001
 21
3376.38139
 31
0.0
  0
LINE
  5
7A68
  8
1
  6
CONTINUOUS
 10
5445.7736150000001
 20
3128.88139
 30
0.0
 11
5685.7736150000001
 21
3128.88139
 31
0.0
  0
LINE
  5
7A69
  8
1
  6
CONTINUOUS
 10
5445.7736150000001
 20
4376.8813899999996
 30
0.0
 11
5685.7736150000001
 21
4376.8813899999996
 31
0.0
  0
LINE
  5
7A6A
  8
1
  6
CONTINUOUS
 10
6678.7736150000001
 20
2988.88139
 30
0.0
 11
5498.773615000001
 21
2988.88139
 31
0.0
  0
LINE
  5
7A6B
  8
1
  6
CONTINUOUS
 10
6678.7736150000001
 20
3113.88139
 30
0.0
 11
5498.773615000001
 21
3113.88139
 31
0.0
  0
LINE
  5
7A6C
  8
1
  6
CONTINUOUS
 10
3002.6981049999999
 20
4758.8813899999986
 30
0.0
 11
1746.6981049999999
 21
4758.8813899999986
 31
0.0
  0
ARC
  5
7A6D
  8
1
  6
CONTINUOUS
 10
2915.6981049999999
 20
4080.88139
 30
0.0
 40
1054.2
 50
184.49999999999989
 51
270.0
  0
LINE
  5
7A6E
  8
1
  6
CONTINUOUS
 10
3657.698104999999
 20
2988.88139
 30
0.0
 11
1297.6981049999999
 21
2988.88139
 31
0.0
  0
LINE
  5
7A6F
  8
1
  6
CONTINUOUS
 10
2949.698104999999
 20
4718.8813899999986
 30
0.0
 11
1803.098105
 21
4718.8813899999986
 31
0.0
  0
LINE
  5
7A70
  8
1
  6
CONTINUOUS
 10
3657.698104999999
 20
3113.88139
 30
0.0
 11
1297.6981049999999
 21
3113.88139
 31
0.0
  0
CIRCLE
  5
7A71
  8
1
  6
CONTINUOUS
 10
2997.698104999999
 20
3998.88139
 30
0.0
 40
560.0
  0
CIRCLE
  5
7A72
  8
1
  6
CONTINUOUS
 10
2997.698104999999
 20
3998.88139
 30
0.0
 40
610.0
  0
LINE
  5
7A73
  8
1
  6
CONTINUOUS
 10
1560.3981049999991
 20
3451.4813899999999
 30
0.0
 11
2853.3981050000002
 21
4236.4813899999999
 31
0.0
  0
LINE
  5
7A74
  8
1
  6
CONTINUOUS
 10
1508.4981049999999
 20
3536.981389999999
 30
0.0
 11
2801.4981050000001
 21
4321.9813899999999
 31
0.0
  0
LINE
  5
7A75
  8
1
  6
CONTINUOUS
 10
1662.398105
 20
3235.6813899999988
 30
0.0
 11
3089.7981049999989
 21
3736.5813899999998
 31
0.0
  0
LINE
  5
7A76
  8
1
  6
CONTINUOUS
 10
1695.598105
 20
3141.2813899999992
 30
0.0
 11
3122.8981050000002
 21
3642.1813899999988
 31
0.0
  0
LINE
  5
7A77
  8
1
  6
CONTINUOUS
 10
1297.6981049999999
 20
3113.88139
 30
0.0
 11
1297.6981049999999
 21
2988.88139
 31
0.0
  0
LINE
  5
7A78
  8
1
  6
CONTINUOUS
 10
1799.6981049999999
 20
4758.8813899999986
 30
0.0
 11
1864.6981049999999
 21
3998.88139
 31
0.0
  0
ARC
  5
7A79
  8
1
  6
CONTINUOUS
 10
1622.6981049999999
 20
3348.88139
 30
0.0
 40
220.0
 50
121.3
 51
289.30000000000001
  0
ARC
  5
7A7A
  8
1
  6
CONTINUOUS
 10
1622.6981049999999
 20
3348.88139
 30
0.0
 40
199.0
 50
320.10000000000002
 51
219.90000000000001
  0
LINE
  5
7A7B
  8
2
  6
CENTER
 10
1502.6981049999999
 20
3348.88139
 30
0.0
 11
1742.6981049999999
 21
3348.88139
 31
0.0
  0
CIRCLE
  5
7A7C
  8
1
  6
CONTINUOUS
 10
1622.6981049999999
 20
3348.88139
 30
0.0
 40
120.0
  0
LINE
  5
7A7D
  8
1
  6
CONTINUOUS
 10
1397.6981049999999
 20
3113.88139
 30
0.0
 11
1847.6981049999999
 21
3113.88139
 31
0.0
  0
LINE
  5
7A7E
  8
1
  6
CONTINUOUS
 10
1397.6981049999999
 20
3168.88139
 30
0.0
 11
1847.6981049999999
 21
3168.88139
 31
0.0
  0
LINE
  5
7A7F
  8
1
  6
CONTINUOUS
 10
1397.6981049999999
 20
3113.88139
 30
0.0
 11
1397.6981049999999
 21
3168.88139
 31
0.0
  0
LINE
  5
7A80
  8
1
  6
CONTINUOUS
 10
1460.6981049999999
 20
3211.38139
 30
0.0
 11
1469.9981049999999
 21
3221.2813900000001
 31
0.0
  0
LINE
  5
7A81
  8
1
  6
CONTINUOUS
 10
1460.6981049999999
 20
3168.88139
 30
0.0
 11
1460.6981049999999
 21
3211.38139
 31
0.0
  0
LINE
  5
7A82
  8
2
  6
CENTER
 10
1622.6981049999999
 20
3228.88139
 30
0.0
 11
1622.6981049999999
 21
3468.8813899999991
 31
0.0
  0
LINE
  5
7A83
  8
1
  6
CONTINUOUS
 10
1847.6981049999999
 20
3113.88139
 30
0.0
 11
1847.6981049999999
 21
3168.88139
 31
0.0
  0
LINE
  5
7A84
  8
1
  6
CONTINUOUS
 10
1784.6981049999999
 20
3211.38139
 30
0.0
 11
1775.398105
 21
3221.2813900000001
 31
0.0
  0
LINE
  5
7A85
  8
1
  6
CONTINUOUS
 10
1784.6981049999999
 20
3168.88139
 30
0.0
 11
1784.6981049999999
 21
3211.38139
 31
0.0
  0
ARC
  5
7A86
  8
1
  6
CONTINUOUS
 10
2915.6981049999999
 20
3916.88139
 30
0.0
 40
890.20000000000005
 50
270.0
 51
5.0999999999999988
  0
ARC
  5
7A87
  8
1
  6
CONTINUOUS
 10
3066.1981049999999
 20
3930.38139
 30
0.0
 40
739.10000000000002
 50
5.0999999999999988
 51
90.0
  0
ARC
  5
7A88
  8
1
  6
CONTINUOUS
 10
2997.698104999999
 20
3998.88139
 30
0.0
 40
378.0
 50
289.30000000000001
 51
121.3
  0
LINE
  5
7A89
  8
2
  6
CENTER
 10
6808.9799620000013
 20
3998.88139
 30
0.0
 11
5248.312887
 21
3998.88139
 31
0.0
  0
CIRCLE
  5
7A8A
  8
1
  6
CONTINUOUS
 10
2997.698104999999
 20
3998.88139
 30
0.0
 40
278.0
  0
LINE
  5
7A8B
  8
2
  6
CENTER
 10
2997.698104999999
 20
2811.2351100000001
 30
0.0
 11
2997.698104999999
 21
4930.1499350000013
 31
0.0
  0
LINE
  5
7A8C
  8
1
  6
CONTINUOUS
 10
3657.698104999999
 20
3113.88139
 30
0.0
 11
3657.698104999999
 21
2988.88139
 31
0.0
  0
LINE
  5
7A8D
  8
1
  6
CONTINUOUS
 10
2949.698104999999
 20
4658.0813900000003
 30
0.0
 11
2949.698104999999
 21
4758.8813899999986
 31
0.0
  0
ARC
  5
7A8E
  8
1
  6
CONTINUOUS
 10
3066.1981049999999
 20
4067.38139
 30
0.0
 40
602.10000000000002
 50
90.0
 51
101.2
  0
LINE
  5
7A8F
  8
1
  6
CONTINUOUS
 10
5445.7736150000001
 20
3128.88139
 30
0.0
 11
5445.7736150000001
 21
4376.8813899999996
 31
0.0
  0
LINE
  5
7A90
  8
1
  6
CONTINUOUS
 10
5615.773615000001
 20
3468.8813899999991
 30
0.0
 11
5615.773615000001
 21
3228.88139
 31
0.0
  0
LINE
  5
7A91
  8
1
  6
CONTINUOUS
 10
5515.7736150000001
 20
3468.8813899999991
 30
0.0
 11
5515.7736150000001
 21
3228.88139
 31
0.0
  0
LINE
  5
7A92
  8
1
  6
CONTINUOUS
 10
5515.7736150000001
 20
3228.88139
 30
0.0
 11
5615.773615000001
 21
3228.88139
 31
0.0
  0
LINE
  5
7A93
  8
1
  6
CONTINUOUS
 10
5515.7736150000001
 20
3468.8813899999991
 30
0.0
 11
5615.773615000001
 21
3468.8813899999991
 31
0.0
  0
LINE
  5
7A94
  8
1
  6
CONTINUOUS
 10
5498.773615000001
 20
2988.88139
 30
0.0
 11
5498.773615000001
 21
3113.88139
 31
0.0
  0
LINE
  5
7A95
  8
1
  6
CONTINUOUS
 10
5615.773615000001
 20
4276.8813899999986
 30
0.0
 11
5615.773615000001
 21
3720.88139
 31
0.0
  0
LINE
  5
7A96
  8
1
  6
CONTINUOUS
 10
5515.7736150000001
 20
4276.8813899999986
 30
0.0
 11
5515.7736150000001
 21
3720.88139
 31
0.0
  0
LINE
  5
7A97
  8
1
  6
CONTINUOUS
 10
5515.7736150000001
 20
3720.88139
 30
0.0
 11
5615.773615000001
 21
3720.88139
 31
0.0
  0
LINE
  5
7A98
  8
1
  6
CONTINUOUS
 10
5515.7736150000001
 20
4276.8813899999986
 30
0.0
 11
5615.773615000001
 21
4276.8813899999986
 31
0.0
  0
LINE
  5
7A99
  8
1
  6
CONTINUOUS
 10
5685.7736150000001
 20
3128.88139
 30
0.0
 11
5685.7736150000001
 21
4376.8813899999996
 31
0.0
  0
LINE
  5
7A9A
  8
1
  6
CONTINUOUS
 10
6713.7736150000001
 20
3388.88139
 30
0.0
 11
6713.7736150000001
 21
4608.8813899999986
 31
0.0
  0
LINE
  5
7A9B
  8
1
  6
CONTINUOUS
 10
6610.773615000001
 20
3113.88139
 30
0.0
 11
6610.773615000001
 21
4758.8813899999986
 31
0.0
  0
LINE
  5
7A9C
  8
1
  6
CONTINUOUS
 10
5760.7736150000001
 20
3113.88139
 30
0.0
 11
5760.7736150000001
 21
4758.8813899999986
 31
0.0
  0
LINE
  5
7A9D
  8
1
  6
CONTINUOUS
 10
6610.773615000001
 20
3438.88139
 30
0.0
 11
6713.7736150000001
 21
3438.88139
 31
0.0
  0
LINE
  5
7A9E
  8
1
  6
CONTINUOUS
 10
6678.7736150000001
 20
2988.88139
 30
0.0
 11
6678.7736150000001
 21
3113.88139
 31
0.0
  0
LINE
  5
7A9F
  8
1
  6
CONTINUOUS
 10
6610.773615000001
 20
4718.8813899999986
 30
0.0
 11
5760.7736150000001
 21
4718.8813899999986
 31
0.0
  0
LINE
  5
7AA0
  8
1
  6
CONTINUOUS
 10
6660.7736150000001
 20
4758.8813899999986
 30
0.0
 11
5710.7736150000001
 21
4758.8813899999986
 31
0.0
  0
LINE
  5
7AA1
  8
1
  6
CONTINUOUS
 10
6610.773615000001
 20
4558.8813899999986
 30
0.0
 11
6713.7736150000001
 21
4558.8813899999986
 31
0.0
  0
LINE
  5
7AA2
  8
1
  6
CONTINUOUS
 10
1402.6981049999999
 20
7480.7343049999999
 30
0.0
 11
3375.698104999999
 21
7480.7343049999999
 31
0.0
  0
LINE
  5
7AA3
  8
1
  6
CONTINUOUS
 10
2387.6981049999999
 20
8508.7343049999999
 30
0.0
 11
3607.698104999999
 21
8508.7343049999999
 31
0.0
  0
LINE
  5
7AA4
  8
1
  6
CONTINUOUS
 10
1402.6981049999999
 20
7240.7343049999999
 30
0.0
 11
3375.698104999999
 21
7240.7343049999999
 31
0.0
  0
LINE
  5
7AA5
  8
1
  6
CONTINUOUS
 10
1799.6981049999999
 20
7555.7343049999999
 30
0.0
 11
3805.8981050000002
 21
7555.7343049999999
 31
0.0
  0
LINE
  5
7AA6
  8
1
  6
CONTINUOUS
 10
1799.6981049999999
 20
8405.7343050000018
 30
0.0
 11
3805.8981050000002
 21
8405.7343050000018
 31
0.0
  0
LINE
  5
7AA7
  8
1
  6
CONTINUOUS
 10
1297.6981049999999
 20
7293.7343049999999
 30
0.0
 11
3657.698104999999
 21
7293.7343049999999
 31
0.0
  0
LINE
  5
7AA8
  8
1
  6
CONTINUOUS
 10
1799.6981049999999
 20
8405.7343050000018
 30
0.0
 11
2949.698104999999
 21
7555.7343049999999
 31
0.0
  0
LINE
  5
7AA9
  8
1
  6
CONTINUOUS
 10
1799.6981049999999
 20
7555.7343049999999
 30
0.0
 11
2949.698104999999
 21
8405.7343050000018
 31
0.0
  0
LINE
  5
7AAA
  8
1
  6
CONTINUOUS
 10
1297.6981049999999
 20
8473.7343049999999
 30
0.0
 11
2437.6981049999999
 21
8473.7343049999999
 31
0.0
  0
LINE
  5
7AAB
  8
1
  6
CONTINUOUS
 10
1297.6981049999999
 20
8473.7343049999999
 30
0.0
 11
1297.6981049999999
 21
7293.7343049999999
 31
0.0
  0
LINE
  5
7AAC
  8
1
  6
CONTINUOUS
 10
1799.6981049999999
 20
7555.7343049999999
 30
0.0
 11
1799.6981049999999
 21
8405.7343050000018
 31
0.0
  0
LINE
  5
7AAD
  8
1
  6
CONTINUOUS
 10
1650.1981049999999
 20
7410.7343049999999
 30
0.0
 11
1650.1981049999999
 21
7529.4343049999989
 31
0.0
  0
LINE
  5
7AAE
  8
1
  6
CONTINUOUS
 10
1595.1981049999999
 20
7410.7343049999999
 30
0.0
 11
1595.1981049999999
 21
7529.4343049999989
 31
0.0
  0
LINE
  5
7AAF
  8
1
  6
CONTINUOUS
 10
1742.6981049999999
 20
7310.7343049999999
 30
0.0
 11
1502.6981049999999
 21
7310.7343049999999
 31
0.0
  0
LINE
  5
7AB0
  8
1
  6
CONTINUOUS
 10
1742.6981049999999
 20
7410.7343049999999
 30
0.0
 11
1502.6981049999999
 21
7410.7343049999999
 31
0.0
  0
LINE
  5
7AB1
  8
1
  6
CONTINUOUS
 10
1402.6981049999999
 20
7240.7343049999999
 30
0.0
 11
1402.6981049999999
 21
7480.7343049999999
 31
0.0
  0
LINE
  5
7AB2
  8
1
  6
CONTINUOUS
 10
1502.6981049999999
 20
7310.7343049999999
 30
0.0
 11
1502.6981049999999
 21
7410.7343049999999
 31
0.0
  0
LINE
  5
7AB3
  8
1
  6
CONTINUOUS
 10
1742.6981049999999
 20
7310.7343049999999
 30
0.0
 11
1742.6981049999999
 21
7410.7343049999999
 31
0.0
  0
LINE
  5
7AB4
  8
1
  6
CONTINUOUS
 10
1423.598105
 20
8128.9343049999989
 30
0.0
 11
1799.6981049999999
 21
8128.9343049999989
 31
0.0
  0
LINE
  5
7AB5
  8
1
  6
CONTINUOUS
 10
1423.598105
 20
7529.4343049999989
 30
0.0
 11
1821.7981050000001
 21
7529.4343049999989
 31
0.0
  0
LINE
  5
7AB6
  8
1
  6
CONTINUOUS
 10
1423.598105
 20
7529.4343049999989
 30
0.0
 11
1423.598105
 21
8128.9343049999989
 31
0.0
  0
LINE
  5
7AB7
  8
1
  6
CONTINUOUS
 10
1821.7981050000001
 20
7529.4343049999989
 30
0.0
 11
1821.7981050000001
 21
7555.7343049999999
 31
0.0
  0
LINE
  5
7AB8
  8
1
  6
CONTINUOUS
 10
2437.6981049999999
 20
8508.7343049999999
 30
0.0
 11
2437.6981049999999
 21
8405.7343050000018
 31
0.0
  0
LINE
  5
7AB9
  8
1
  6
CONTINUOUS
 10
2949.698104999999
 20
7555.7343049999999
 30
0.0
 11
2949.698104999999
 21
8405.7343050000018
 31
0.0
  0
LINE
  5
7ABA
  8
1
  6
CONTINUOUS
 10
3275.6981049999999
 20
7410.7343049999999
 30
0.0
 11
2719.6981049999999
 21
7410.7343049999999
 31
0.0
  0
LINE
  5
7ABB
  8
1
  6
CONTINUOUS
 10
3275.6981049999999
 20
7310.7343049999999
 30
0.0
 11
2719.6981049999999
 21
7310.7343049999999
 31
0.0
  0
LINE
  5
7ABC
  8
1
  6
CONTINUOUS
 10
2970.1981049999999
 20
7555.7343049999999
 30
0.0
 11
2970.1981049999999
 21
7410.7343049999999
 31
0.0
  0
LINE
  5
7ABD
  8
1
  6
CONTINUOUS
 10
3025.1981049999999
 20
7555.7343049999999
 30
0.0
 11
3025.1981049999999
 21
7410.7343049999999
 31
0.0
  0
LINE
  5
7ABE
  8
1
  6
CONTINUOUS
 10
2719.6981049999999
 20
7310.7343049999999
 30
0.0
 11
2719.6981049999999
 21
7410.7343049999999
 31
0.0
  0
LINE
  5
7ABF
  8
1
  6
CONTINUOUS
 10
3657.698104999999
 20
7555.7343049999999
 30
0.0
 11
3657.698104999999
 21
7293.7343049999999
 31
0.0
  0
LINE
  5
7AC0
  8
1
  6
CONTINUOUS
 10
3375.698104999999
 20
7240.7343049999999
 30
0.0
 11
3375.698104999999
 21
7480.7343049999999
 31
0.0
  0
LINE
  5
7AC1
  8
1
  6
CONTINUOUS
 10
3275.6981049999999
 20
7310.7343049999999
 30
0.0
 11
3275.6981049999999
 21
7410.7343049999999
 31
0.0
  0
LINE
  5
7AC2
  8
1
  6
CONTINUOUS
 10
3557.698104999999
 20
8508.7343049999999
 30
0.0
 11
3557.698104999999
 21
8405.7343050000018
 31
0.0
  0
LINE
  5
7AC3
  8
1
  6
CONTINUOUS
 10
3657.698104999999
 20
8473.7343049999999
 30
0.0
 11
3657.698104999999
 21
8405.7343050000018
 31
0.0
  0
LINE
  5
7AC4
  8
1
  6
CONTINUOUS
 10
3557.698104999999
 20
8473.7343049999999
 30
0.0
 11
3657.698104999999
 21
8473.7343049999999
 31
0.0
  0
LINE
  5
7AC5
  8
1
  6
CONTINUOUS
 10
3805.8981050000002
 20
7555.7343049999999
 30
0.0
 11
3805.8981050000002
 21
8405.7343050000018
 31
0.0
  0
LINE
  5
7AC6
  8
2
  6
CENTER
 10
1217.174728
 20
7980.7343049999999
 30
0.0
 11
3956.3989809999998
 21
7980.7343049999999
 31
0.0
  0
LINE
  5
7AC7
  8
2
  6
CENTER
 10
6185.7736150000001
 20
4934.1968530000004
 30
0.0
 11
6185.7736150000001
 21
2781.8109899999999
 31
0.0
  0
LINE
  5
7AC8
  8
2
  6
CENTER
 10
2997.698104999999
 20
7085.1378690000001
 30
0.0
 11
2997.698104999999
 21
8667.9224099999992
 31
0.0
  0
LINE
  5
7AC9
  8
2
  6
CENTER
 10
3996.3217049999989
 20
3998.88139
 30
0.0
 11
1575.2089189999999
 21
3998.88139
 31
0.0
  0
LINE
  5
7ACA
  8
4
  6
CONTINUOUS
 10
7400.0
 20
2000.0
 30
0.0
 11
7400.0
 21
1200.0
 31
0.0
  0
LINE
  5
7ACB
  8
4
  6
CONTINUOUS
 10
4600.0
 20
2000.0
 30
0.0
 11
4600.0
 21
1200.0
 31
0.0
  0
LINE
  5
7ACC
  8
4
  6
CONTINUOUS
 10
2600.0
 20
2000.0
 30
0.0
 11
2600.0
 21
1200.0
 31
0.0
  0
LINE
  5
7ACF
  8
4
  6
CONTINUOUS
 10
2600.0
 20
1200.0
 30
0.0
 11
7400.0
 21
1200.0
 31
0.0
  0
LINE
  5
7AD0
  8
4
  6
CONTINUOUS
 10
2600.0
 20
1600.0
 30
0.0
 11
7400.0
 21
1600.0
 31
0.0
  0
TEXT
  5
7AD1
  8
4
  6
CONTINUOUS
 10
2754.008323
 20
1726.1721030000001
 30
0.0
 40
200.0
  1
機器名称
  0
TEXT
  5
7AD2
  8
4
  6
CONTINUOUS
 10
2745.032424
 20
1286.580627
 30
0.0
 40
200.0
  1
機器型番
  0
TEXT
  5
7AD3
  8
4
  6
CONTINUOUS
 10
4710.7149820000004
 20
1690.2870760000001
 30
0.0
 40
200.0
  1
ミツヤ多翼送風機
  0
TEXT
  5
7AD4
  8
4
  6
CONTINUOUS
 10
4746.6179819999998
 20
1268.6383370000001
 30
0.0
 40
200.0
  1
MF#7-4
  0
TEXT
  5
7AD6
  8
4
  6
CONTINUOUS
 10
3619.1430620000001
 20
9533.715365
 30
0.0
 40
216.0
  1
床置ベット
  0
TEXT
  5
7AD7
  8
4
  6
CONTINUOUS
 10
1264.6703729999999
 20
10135.523905
 30
0.0
 40
288.0
  1
ベルト駆動式片吸込両持多翼ファン
  0
LINE
  5
7AD8
  8
4
  6
CONTINUOUS
 10
1000.0
 20
9877.6350170000005
 30
0.0
 11
7400.0
 21
9877.6350170000005
 31
0.0
  0
LINE
  5
7AD9
  8
4
  6
CONTINUOUS
 10
1000.0
 20
10677.635017000001
 30
0.0
 11
7400.0
 21
10677.635017000001
 31
0.0
  0
LINE
  5
7ADA
  8
4
  6
CONTINUOUS
 10
2600.0
 20
2000.0
 30
0.0
 11
7400.0
 21
2000.0
 31
0.0
  0
LINE
  5
7ADB
  8
4
  6
CONTINUOUS
 10
1000.0
 20
10677.635017000001
 30
0.0
 11
1000.0
 21
9877.6350170000005
 31
0.0
  0
TEXT
  5
7ADC
  8
4
  6
CONTINUOUS
 10
1875.7077329999991
 20
9529.2779099999989
 30
0.0
 40
216.0
  1
右回転上向
  0
TEXT
  5
7ADD
  8
4
  6
CONTINUOUS
 10
5875.8782369999999
 20
10824.244326
 30
0.0
 40
224.0
  1
No.
  0
TEXT
  5
7ADE
  8
4
  6
CONTINUOUS
 10
5245.1842500000012
 20
9533.715365
 30
0.0
 40
216.0
  1
縮尺：1/40
  0
LINE
  5
7ADF
  8
4
  6
CONTINUOUS
 10
7400.0
 20
10677.635017000001
 30
0.0
 11
7400.0
 21
9877.6350170000005
 31
0.0
  0
LINE
  5
7AE1
  8
4
  6
CONTINUOUS
 10
5762.4696889999996
 20
10725.054333
 30
0.0
 11
5762.4696889999996
 21
11146.609046
 31
0.0
  0
LINE
  5
7AE2
  8
4
  6
CONTINUOUS
 10
5762.4696889999996
 20
11146.609046
 30
0.0
 11
7400.0
 21
11146.609046
 31
0.0
  0
LINE
  5
7AE3
  8
4
  6
CONTINUOUS
 10
7400.0
 20
11146.609046
 30
0.0
 11
7400.0
 21
10725.054333
 31
0.0
  0
LINE
  5
7AE4
  8
4
  6
CONTINUOUS
 10
7400.0
 20
10725.054333
 30
0.0
 11
5762.4696889999996
 21
10725.054333
 31
0.0
  0
DIMENSION
  5
7AFC
  8
3
  6
CONTINUOUS
  2
*D1
 10
2949.698104999999
 20
4927.9873770000004
 30
0.0
 11
2339.7442289999999
 21
4927.9873770000004
 31
0.0
 70
   128
 13
1799.6981049999999
 23
4758.8813899999986
 33
0.0
 14
2949.698104999999
 24
4758.8813899999986
 34
0.0
1001
ACAD
1000
DSTYLE
1002
{
1070
   287
1070
     3
1070
    40
1040
40.0
1070
   143
1040
0.039
1070
   172
1070
     1
1070
   271
1070
     0
1070
   279
1070
     0
1070
   288
1070
     1
1002
}
  0
DIMENSION
  5
7B09
  8
3
  6
CONTINUOUS
  2
*D2
 10
2997.698104999999
 20
5201.6824989999996
 30
0.0
 11
2313.2416829999988
 21
5201.6824989999996
 31
0.0
 70
   128
 13
1799.6981049999999
 23
4758.8813899999986
 33
0.0
 14
2997.698104999999
 24
4930.1499350000013
 34
0.0
1001
ACAD
1000
DSTYLE
1002
{
1070
   287
1070
     3
1070
    40
1040
40.0
1070
   143
1040
0.039
1070
   172
1070
     1
1070
   271
1070
     0
1070
   279
1070
     0
1070
   288
1070
     1
1002
}
  0
DIMENSION
  5
7B22
  8
3
  6
CONTINUOUS
  2
*D3
 10
2997.698104999999
 20
2658.9665679999998
 30
0.0
 11
2189.563185999999
 21
2658.9665679999998
 31
0.0
 70
   128
 13
1297.6981049999999
 23
2988.88139
 33
0.0
 14
2997.698104999999
 24
2811.2351100000001
 34
0.0
1001
ACAD
1000
DSTYLE
1002
{
1070
   287
1070
     3
1070
    40
1040
40.0
1070
   143
1040
0.039
1070
   172
1070
     1
1070
   271
1070
     0
1070
   279
1070
     0
1070
   288
1070
     1
1002
}
  0
DIMENSION
  5
7B2E
  8
3
  6
CONTINUOUS
  2
*D4
 10
3657.698104999999
 20
2658.9665679999998
 30
0.0
 11
3327.698104999999
 21
2758.9665679999989
 31
0.0
 70
     0
 13
2997.698104999999
 23
2811.2351100000001
 33
0.0
 14
3657.698104999999
 24
2988.88139
 34
0.0
1001
ACAD
1000
DSTYLE
1002
{
1070
   287
1070
     4
1070
    40
1040
40.0
1070
    75
1070
     1
1070
   143
1040
0.039
1070
   172
1070
     1
1070
   271
1070
     0
1070
   279
1070
     1
1070
   288
1070
     1
1002
}
  0
DIMENSION
  5
7B3B
  8
3
  6
CONTINUOUS
  2
*D5
 10
4141.9167020000023
 20
3998.88139
 30
0.0
 11
4141.9167020000004
 21
4371.7682839999998
 31
0.0
 70
   128
 13
3002.6981049999999
 23
4758.8813899999986
 33
0.0
 14
3996.3217049999989
 24
3998.88139
 34
0.0
 50
90.0
1001
ACAD
1000
DSTYLE
1002
{
1070
   287
1070
     3
1070
    40
1040
40.0
1070
   143
1040
0.039
1070
   172
1070
     1
1070
   271
1070
     0
1070
   279
1070
     0
1070
   288
1070
     1
1002
}
  0
DIMENSION
  5
7B47
  8
3
  6
CONTINUOUS
  2
*D6
 10
4141.9167020000004
 20
2988.88139
 30
0.0
 11
4041.9167019999991
 21
3493.88139
 31
0.0
 70
     0
 13
3996.3217049999989
 23
3998.88139
 33
0.0
 14
3657.698104999999
 24
2988.88139
 34
0.0
 50
90.0
1001
ACAD
1000
DSTYLE
1002
{
1070
   287
1070
     4
1070
    40
1040
40.0
1070
    75
1070
     1
1070
   143
1040
0.039
1070
   172
1070
     1
1070
   271
1070
     0
1070
   279
1070
     1
1070
   288
1070
     1
1002
}
  0
DIMENSION
  5
7B54
  8
3
  6
CONTINUOUS
  2
*D7
 10
4442.2787900000012
 20
2988.88139
 30
0.0
 11
4442.2787900000003
 21
3859.6935319999998
 31
0.0
 70
   128
 13
3002.6981049999999
 23
4758.8813899999986
 33
0.0
 14
3657.698104999999
 24
2988.88139
 34
0.0
 50
90.0
1001
ACAD
1000
DSTYLE
1002
{
1070
   287
1070
     3
1070
    40
1040
40.0
1070
   143
1040
0.039
1070
   172
1070
     1
1070
   271
1070
     0
1070
   279
1070
     0
1070
   288
1070
     1
1002
}
  0
DIMENSION
  5
7B61
  8
3
  6
CONTINUOUS
  2
*D8
 10
6610.773615000001
 20
4919.1584950000006
 30
0.0
 11
6181.7532419999998
 21
4919.1584950000006
 31
0.0
 70
   128
 13
5760.7736150000001
 23
4758.8813899999986
 33
0.0
 14
6610.773615000001
 24
4758.8813899999986
 34
0.0
1001
ACAD
1000
DSTYLE
1002
{
1070
   287
1070
     3
1070
    40
1040
40.0
1070
   143
1040
0.039
1070
   172
1070
     1
1070
   271
1070
     0
1070
   279
1070
     0
1070
   288
1070
     1
1002
}
  0
DIMENSION
  5
7B6E
  8
3
  6
CONTINUOUS
  2
*D9
 10
7003.3319150000007
 20
3438.88139
 30
0.0
 11
7003.3319150000007
 21
4000.9555340000002
 31
0.0
 70
   128
 13
6713.7736150000001
 23
4558.8813899999986
 33
0.0
 14
6713.7736150000001
 24
3438.88139
 34
0.0
 50
90.0
1001
ACAD
1000
DSTYLE
1002
{
1070
   287
1070
     3
1070
     3
1000
φ<>
1070
    40
1040
40.0
1070
   143
1040
0.039
1070
   172
1070
     1
1070
   271
1070
     0
1070
   279
1070
     0
1070
   288
1070
     1
1002
}
  0
DIMENSION
  5
7B7D
  8
3
  6
CONTINUOUS
  2
*D10
 10
6185.7736150000001
 20
5192.8536169999998
 30
0.0
 11
6449.773615000001
 21
5304.1635149779868
 31
0.0
 70
   128
 13
6713.7736150000001
 23
4608.8813899999986
 33
0.0
 14
6185.7736150000001
 24
5119.4887689999996
 34
0.0
1001
ACAD
1000
DSTYLE
1002
{
1070
   288
1070
     1
1070
   172
1070
     1
1070
    40
1040
40.0
1070
   271
1070
     0
1070
   143
1040
0.039
1002
}
  0
DIMENSION
  5
7B89
  8
3
  6
CONTINUOUS
  2
*D11
 10
5445.7736150000001
 20
5192.8536169999998
 30
0.0
 11
5815.773615000001
 21
5392.8536169999998
 31
0.0
 70
     0
  1
MAX\P850
 13
6185.7736150000001
 23
5119.4887689999996
 33
0.0
 14
5445.7736150000001
 24
4376.8813899999996
 34
0.0
1001
ACAD
1000
DSTYLE
1002
{
1070
   287
1070
     4
1070
    40
1040
40.0
1070
    75
1070
     1
1070
   143
1040
0.039
1070
   172
1070
     1
1070
   271
1070
     0
1070
   279
1070
     1
1070
   288
1070
     1
1002
}
  0
DIMENSION
  5
7B96
  8
3
  6
CONTINUOUS
  2
*D12
 10
6185.7736150000001
 20
2665.1513839999998
 30
0.0
 11
5837.2202939999997
 21
2665.1513839999998
 31
0.0
 70
   128
 13
5498.773615000001
 23
2988.88139
 33
0.0
 14
6185.7736150000001
 24
2781.8109899999999
 34
0.0
1001
ACAD
1000
DSTYLE
1002
{
1070
   287
1070
     3
1070
    40
1040
40.0
1070
   143
1040
0.039
1070
   172
1070
     1
1070
   271
1070
     0
1070
   279
1070
     0
1070
   288
1070
     1
1002
}
  0
DIMENSION
  5
7BA4
  8
3
  6
CONTINUOUS
  2
*D13
 10
6678.7736150000001
 20
2665.1513839999998
 30
0.0
 11
6442.916534
 21
2676.3937139999998
 31
0.0
 70
   128
 13
6185.7736150000001
 23
2781.8109899999999
 33
0.0
 14
6678.7736150000001
 24
2988.88139
 34
0.0
1001
ACAD
1000
DSTYLE
1002
{
1070
   287
1070
     4
1070
    40
1040
40.0
1070
    75
1070
     1
1070
   143
1040
0.039
1070
   172
1070
     1
1070
   271
1070
     0
1070
   279
1070
     1
1070
   288
1070
     1
1002
}
  0
DIMENSION
  5
7BC8
  8
3
  6
CONTINUOUS
  2
*D14
 10
3657.698104999999
 20
6850.7815959999989
 30
0.0
 11
2428.0859989999999
 21
6850.7815959999989
 31
0.0
 70
   128
 13
1297.6981049999999
 23
7293.7343049999999
 33
0.0
 14
3657.698104999999
 24
7293.7343049999999
 34
0.0
1001
ACAD
1000
DSTYLE
1002
{
1070
   287
1070
     3
1070
    40
1040
40.0
1070
   143
1040
0.039
1070
   172
1070
     1
1070
   271
1070
     0
1070
   279
1070
     0
1070
   288
1070
     1
1002
}
  0
DIMENSION
  5
7BD5
  8
3
  6
CONTINUOUS
  2
*D15
 10
4194.9217940000008
 20
7293.7343049999999
 30
0.0
 11
4194.921793999999
 21
7910.2465910000001
 31
0.0
 70
   128
 13
3657.698104999999
 23
8473.7343049999999
 33
0.0
 14
3657.698104999999
 24
7293.7343049999999
 34
0.0
 50
90.0
1001
ACAD
1000
DSTYLE
1002
{
1070
   287
1070
     3
1070
    40
1040
40.0
1070
   143
1040
0.039
1070
   172
1070
     1
1070
   271
1070
     0
1070
   279
1070
     0
1070
   288
1070
     1
1002
}
  0
DIMENSION
  5
7C07
  8
3
  6
CONTINUOUS
  2
*D16
 10
3802.6981049999999
 20
5201.6824989999996
 30
0.0
 11
3400.198104999999
 21
5301.6824989999996
 31
0.0
 70
     0
 13
2997.698104999999
 23
4930.1499350000013
 33
0.0
 14
3802.6981049999999
 24
3998.88139
 34
0.0
1001
ACAD
1000
DSTYLE
1002
{
1070
   287
1070
     4
1070
    40
1040
40.0
1070
    75
1070
     1
1070
   143
1040
0.039
1070
   172
1070
     1
1070
   271
1070
     0
1070
   279
1070
     1
1070
   288
1070
     1
1002
}
  0
DIMENSION
  5
7C3E
  8
3
  2
*D17
 10
1297.6981049999999
 20
5445.8487937893224
 30
0.0
 11
2596.8672802136348
 21
5445.8487937893224
 31
0.0
 70
   128
 13
3802.6981049999999
 23
4018.8813899999991
 33
0.0
 14
1297.6981049999999
 24
3113.88139
 34
0.0
1001
ACAD
1000
DSTYLE
1002
{
1070
   287
1070
     3
1070
    40
1040
40.0
1070
   143
1040
0.039
1070
   172
1070
     1
1070
   271
1070
     0
1070
   279
1070
     0
1070
   288
1070
     1
1002
}
  0
ENDSEC
  0
EOF
