  0
SECTION
  2
HEADER
  9
$ACADVER
  1
AC1009
  9
$INSBASE
 10
0.0
 20
0.0
 30
0.0
  9
$EXTMIN
 10
1000.0
 20
1200.0
 30
0.0
  9
$EXTMAX
 10
7400.0
 20
11146.609046
 30
0.0
  9
$LIMMIN
 10
0.0
 20
0.0
  9
$LIMMAX
 10
297.0
 20
210.0
  9
$ORTHOMODE
 70
     0
  9
$REGENMODE
 70
     1
  9
$FILLMODE
 70
     0
  9
$QTEXTMODE
 70
     0
  9
$MIRRTEXT
 70
     1
  9
$DRAGMODE
 70
     2
  9
$LTSCALE
 40
100.0
  9
$OSMODE
 70
    37
  9
$ATTMODE
 70
     1
  9
$TEXTSIZE
 40
180.0
  9
$TRACEWID
 40
0.05
  9
$TEXTSTYLE
  7
STANDARD
  9
$CLAYER
  8
3
  9
$CELTYPE
  6
BYLAYER
  9
$CECOLOR
 62
   256
  9
$DIMSCALE
 40
40.0
  9
$DIMASZ
 40
2.0
  9
$DIMEXO
 40
0.5
  9
$DIMDLI
 40
10.0
  9
$DIMRND
 40
0.0
  9
$DIMDLE
 40
0.0
  9
$DIMEXE
 40
1.0
  9
$DIMTP
 40
1.0
  9
$DIMTM
 40
1.0
  9
$DIMTXT
 40
3.0
  9
$DIMCEN
 40
0.0
  9
$DIMTSZ
 40
0.0
  9
$DIMTOL
 70
     0
  9
$DIMLIM
 70
     0
  9
$DIMTIH
 70
     0
  9
$DIMTOH
 70
     0
  9
$DIMSE1
 70
     0
  9
$DIMSE2
 70
     0
  9
$DIMTAD
 70
     1
  9
$DIMZIN
 70
     8
  9
$DIMBLK
  1

  9
$DIMASO
 70
     1
  9
$DIMSHO
 70
     1
  9
$DIMPOST
  1

  9
$DIMAPOST
  1

  9
$DIMALT
 70
     0
  9
$DIMALTD
 70
     2
  9
$DIMALTF
 40
0.039
  9
$DIMLFAC
 40
1.0
  9
$DIMTOFL
 70
     1
  9
$DIMTVP
 40
0.0
  9
$DIMTIX
 70
     0
  9
$DIMSOXD
 70
     0
  9
$DIMSAH
 70
     1
  9
$DIMBLK1
  1
OPEN
  9
$DIMBLK2
  1
OPEN
  9
$DIMSTYLE
  2
IGA
  9
$DIMCLRD
 70
     0
  9
$DIMCLRE
 70
     0
  9
$DIMCLRT
 70
     0
  9
$DIMTFAC
 40
10.0
  9
$DIMGAP
 40
1.0
  9
$LUNITS
 70
     2
  9
$LUPREC
 70
     3
  9
$SKETCHINC
 40
0.1
  9
$FILLETRAD
 40
50.0
  9
$AUNITS
 70
     0
  9
$AUPREC
 70
     0
  9
$MENU
  1
acad
  9
$ELEVATION
 40
0.0
  9
$PELEVATION
 40
0.0
  9
$THICKNESS
 40
0.0
  9
$LIMCHECK
 70
     0
  9
$BLIPMODE
 70
     0
  9
$CHAMFERA
 40
0.5
  9
$CHAMFERB
 40
0.5
  9
$SKPOLY
 70
     0
  9
$TDCREATE
 40
2450753.6360009261
  9
$TDUPDATE
 40
2454953.7787601268
  9
$TDINDWG
 40
0.0046131366
  9
$TDUSRTIMER
 40
0.0046131366
  9
$USRTIMER
 70
     1
  9
$ANGBASE
 50
0.0
  9
$ANGDIR
 70
     0
  9
$PDMODE
 70
     0
  9
$PDSIZE
 40
0.0
  9
$PLINEWID
 40
0.0
  9
$COORDS
 70
     1
  9
$SPLFRAME
 70
     0
  9
$SPLINETYPE
 70
     6
  9
$SPLINESEGS
 70
     8
  9
$ATTDIA
 70
     0
  9
$ATTREQ
 70
     1
  9
$HANDLING
 70
 10241
  9
$HANDSEED
  5
7DC9
  9
$SURFTAB1
 70
     6
  9
$SURFTAB2
 70
     6
  9
$SURFTYPE
 70
     6
  9
$SURFU
 70
     6
  9
$SURFV
 70
     6
  9
$UCSNAME
  2

  9
$UCSORG
 10
0.0
 20
0.0
 30
0.0
  9
$UCSXDIR
 10
1.0
 20
0.0
 30
0.0
  9
$UCSYDIR
 10
0.0
 20
1.0
 30
0.0
  9
$PUCSNAME
  2

  9
$PUCSORG
 10
0.0
 20
0.0
 30
0.0
  9
$PUCSXDIR
 10
1.0
 20
0.0
 30
0.0
  9
$PUCSYDIR
 10
0.0
 20
1.0
 30
0.0
  9
$USERI1
 70
     0
  9
$USERI2
 70
     0
  9
$USERI3
 70
     0
  9
$USERI4
 70
     0
  9
$USERI5
 70
     0
  9
$USERR1
 40
0.0
  9
$USERR2
 40
0.0
  9
$USERR3
 40
0.0
  9
$USERR4
 40
0.0
  9
$USERR5
 40
0.0
  9
$WORLDVIEW
 70
     1
  9
$SHADEDGE
 70
     3
  9
$SHADEDIF
 70
    70
  9
$TILEMODE
 70
     1
  9
$MAXACTVP
 70
    16
  9
$PLIMCHECK
 70
     0
  9
$PEXTMIN
 10
1.0000000000000000E+020
 20
1.0000000000000000E+020
 30
1.0000000000000000E+020
  9
$PEXTMAX
 10
-1.0000000000000000E+020
 20
-1.0000000000000000E+020
 30
-1.0000000000000000E+020
  9
$PLIMMIN
 10
0.0
 20
0.0
  9
$PLIMMAX
 10
12.0
 20
9.0
  9
$UNITMODE
 70
     0
  9
$VISRETAIN
 70
     0
  9
$PLINEGEN
 70
     0
  9
$PSLTSCALE
 70
     1
  0
ENDSEC
  0
SECTION
  2
TABLES
  0
TABLE
  2
VPORT
 70
     2
  0
VPORT
  2
*ACTIVE
 70
     0
 10
0.0
 20
0.0
 11
1.0
 21
1.0
 12
12584.224953905899
 22
6173.2749996292814
 13
0.0
 23
0.0
 14
10.0
 24
10.0
 15
10.0
 25
10.0
 16
0.0
 26
0.0
 36
1.0
 17
0.0
 27
0.0
 37
0.0
 40
10022.99371525931
 41
3.1666666666666661
 42
50.0
 43
0.0
 44
0.0
 50
0.0
 51
0.0
 71
     0
 72
   100
 73
     1
 74
     0
 75
     0
 76
     0
 77
     0
 78
     0
  0
ENDTAB
  0
TABLE
  2
LTYPE
 70
     2
  0
LTYPE
  2
CONTINUOUS
 70
     0
  3
Solid line
 72
    65
 73
     0
 40
0.0
  0
LTYPE
  2
CENTER
 70
     0
  3
____ _ ____ _ ____ _ ____ _ ____ _ ____ _ ____ 
 72
    65
 73
     4
 40
2.0
 49
1.25
 49
-0.25
 49
0.25
 49
-0.25
  0
ENDTAB
  0
TABLE
  2
LAYER
 70
     6
  0
LAYER
  2
0
 70
     0
 62
     7
  6
CONTINUOUS
  0
LAYER
  2
3
 70
     0
 62
     2
  6
CONTINUOUS
  0
LAYER
  2
2
 70
     0
 62
     3
  6
CENTER
  0
LAYER
  2
1
 70
     0
 62
     4
  6
CONTINUOUS
  0
LAYER
  2
4
 70
     0
 62
     7
  6
CONTINUOUS
  0
LAYER
  2
DEFPOINTS
 70
     0
 62
     7
  6
CONTINUOUS
  0
ENDTAB
  0
TABLE
  2
STYLE
 70
     1
  0
STYLE
  2
STANDARD
 70
     0
 40
0.0
 41
1.0
 50
0.0
 71
     0
 42
180.0
  3
simplex.shx
  4
extfont.shx
  0
ENDTAB
  0
TABLE
  2
VIEW
 70
     0
  0
ENDTAB
  0
TABLE
  2
UCS
 70
     0
  0
ENDTAB
  0
TABLE
  2
APPID
 70
     1
  0
APPID
  2
ACAD
 70
     0
  0
ENDTAB
  0
TABLE
  2
DIMSTYLE
 70
     1
  0
DIMSTYLE
  2
IGA
 70
     0
  3

  4

  5

  6
OPEN
  7
OPEN
 40
2.0
 41
2.0
 42
0.5
 43
10.0
 44
1.0
 45
0.0
 46
0.0
 47
1.0
 48
1.0
140
3.0
141
0.0
142
0.0
143
0.03937
144
1.0
145
0.0
146
10.0
147
1.0
 71
     0
 72
     0
 73
     0
 74
     0
 75
     0
 76
     0
 77
     1
 78
     8
170
     0
171
     2
172
     0
173
     1
174
     0
175
     0
176
     0
177
     0
178
     0
  0
ENDTAB
  0
ENDSEC
  0
SECTION
  2
BLOCKS
  0
BLOCK
  8
0
  2
$MODEL_SPACE
 70
     0
 10
0.0
 20
0.0
 30
0.0
  3
$MODEL_SPACE
  1

  0
ENDBLK
  5
1B
  8
0
  0
BLOCK
 67
     1
  8
0
  2
$PAPER_SPACE
 70
     0
 10
0.0
 20
0.0
 30
0.0
  3
$PAPER_SPACE
  1

  0
ENDBLK
  5
18
 67
     1
  8
0
  0
BLOCK
  8
0
  2
_OPEN
 70
     0
 10
0.0
 20
0.0
 30
0.0
  3
_OPEN
  1

  0
LINE
  5
7B79
  8
0
  6
BYBLOCK
 62
     0
 10
-1.0
 20
0.166667
 30
0.0
 11
0.0
 21
0.0
 31
0.0
  0
LINE
  5
7B7A
  8
0
  6
BYBLOCK
 62
     0
 10
0.0
 20
0.0
 30
0.0
 11
-1.0
 21
-0.166667
 31
0.0
  0
LINE
  5
7B7B
  8
0
  6
BYBLOCK
 62
     0
 10
0.0
 20
0.0
 30
0.0
 11
-1.0
 21
0.0
 31
0.0
  0
ENDBLK
  5
7B7C
  8
0
  0
BLOCK
  8
0
  2
*D1
 70
     1
 10
0.0
 20
0.0
 30
0.0
  3
*D1
  1

  0
LINE
  5
7D2C
  8
3
  6
CONTINUOUS
 62
     0
 10
3986.9100060000001
 20
5012.0338967100652
 30
0.0
 11
3986.9100060000001
 21
5203.8294797100662
 31
0.0
  0
LINE
  5
7D2D
  8
3
  6
CONTINUOUS
 62
     0
 10
2836.9100060000001
 20
5012.0338967100652
 30
0.0
 11
2836.9100060000001
 21
5203.8294797100662
 31
0.0
  0
LINE
  5
7D2E
  8
3
  6
CONTINUOUS
 62
     0
 10
3906.9100060000001
 20
5163.8294797100662
 30
0.0
 11
2916.9100060000001
 21
5163.8294797100662
 31
0.0
  0
INSERT
  5
7D2F
  8
3
  6
CONTINUOUS
 62
     0
  2
_OPEN
 10
3986.9100060000001
 20
5163.8294797100662
 30
0.0
 41
80.0
 42
80.0
 43
80.0
  0
INSERT
  5
7D30
  8
3
  6
CONTINUOUS
 62
     0
  2
_OPEN
 10
2836.9100060000001
 20
5163.8294797100662
 30
0.0
 41
80.0
 42
80.0
 43
80.0
 50
180.0
  0
TEXT
  8
3
  40
120
  5
7DB8
  62
0
  72
0
  71
0
 10
3170.61
 20
5051.43
 30
0.000000
  1
1150
  0
POINT
  5
7D32
  8
DEFPOINTS
  6
CONTINUOUS
 62
     0
 10
3986.9100060000001
 20
4992.0338967100652
 30
0.0
  0
POINT
  5
7D33
  8
DEFPOINTS
  6
CONTINUOUS
 62
     0
 10
2836.9100060000001
 20
4992.0338967100652
 30
0.0
  0
POINT
  5
7D34
  8
DEFPOINTS
  6
CONTINUOUS
 62
     0
 10
2836.9100060000001
 20
5163.8294797100662
 30
0.0
  0
ENDBLK
  5
7B89
  8
0
  0
BLOCK
  8
0
  2
*D2
 70
     1
 10
0.0
 20
0.0
 30
0.0
  3
*D2
  1

  0
LINE
  5
7D35
  8
3
  6
CONTINUOUS
 62
     0
 10
3986.9100060000001
 20
5012.0338967100652
 30
0.0
 11
3986.9100060000001
 21
5458.3298187100654
 31
0.0
  0
LINE
  5
7D36
  8
3
  6
CONTINUOUS
 62
     0
 10
2788.9100060000001
 20
5254.9830917100662
 30
0.0
 11
2788.9100060000001
 21
5458.3298187100654
 31
0.0
  0
LINE
  5
7D37
  8
3
  6
CONTINUOUS
 62
     0
 10
3906.9100060000001
 20
5418.3298187100654
 30
0.0
 11
2868.9100060000001
 21
5418.3298187100654
 31
0.0
  0
INSERT
  5
7D38
  8
3
  6
CONTINUOUS
 62
     0
  2
_OPEN
 10
3986.9100060000001
 20
5418.3298187100654
 30
0.0
 41
80.0
 42
80.0
 43
80.0
  0
INSERT
  5
7D39
  8
3
  6
CONTINUOUS
 62
     0
  2
_OPEN
 10
2788.9100060000001
 20
5418.3298187100654
 30
0.0
 41
80.0
 42
80.0
 43
80.0
 50
180.0
  0
TEXT
  8
3
  40
120
  5
7DB9
  62
0
  72
0
  71
0
 10
3155.18
 20
5305.93
 30
0.000000
  1
1198
  0
POINT
  5
7D3B
  8
DEFPOINTS
  6
CONTINUOUS
 62
     0
 10
3986.9100060000001
 20
4992.0338967100652
 30
0.0
  0
POINT
  5
7D3C
  8
DEFPOINTS
  6
CONTINUOUS
 62
     0
 10
2788.9100060000001
 20
5234.9830917100653
 30
0.0
  0
POINT
  5
7D3D
  8
DEFPOINTS
  6
CONTINUOUS
 62
     0
 10
2788.9100060000001
 20
5418.3298187100654
 30
0.0
  0
ENDBLK
  5
7B96
  8
0
  0
BLOCK
  8
0
  2
*D3
 70
     1
 10
0.0
 20
0.0
 30
0.0
  3
*D3
  1

  0
LINE
  5
7D3E
  8
3
  6
CONTINUOUS
 62
     0
 10
2128.9100060000001
 20
3202.0338967100638
 30
0.0
 11
2128.9100060000001
 21
2841.0386297100649
 31
0.0
  0
LINE
  5
7D3F
  8
3
  6
CONTINUOUS
 62
     0
 10
2788.9100060000001
 20
3035.7326267100648
 30
0.0
 11
2788.9100060000001
 21
2841.0386297100649
 31
0.0
  0
LINE
  5
7D40
  8
3
  6
CONTINUOUS
 62
     0
 10
2208.9100059999992
 20
2881.0386297100649
 30
0.0
 11
2708.9100059999992
 21
2881.0386297100649
 31
0.0
  0
INSERT
  5
7D41
  8
3
  6
CONTINUOUS
 62
     0
  2
_OPEN
 10
2128.9100060000001
 20
2881.0386297100649
 30
0.0
 41
80.0
 42
80.0
 43
80.0
 50
180.0
  0
INSERT
  5
7D42
  8
3
  6
CONTINUOUS
 62
     0
  2
_OPEN
 10
2788.9100060000001
 20
2881.0386297100649
 30
0.0
 41
80.0
 42
80.0
 43
80.0
  0
TEXT
  8
3
  40
120
  5
7DBA
  62
0
  72
0
  71
0
 10
2229.16
 20
2768.64
 30
0.000000
  1
660
  0
POINT
  5
7D44
  8
DEFPOINTS
  6
CONTINUOUS
 62
     0
 10
2128.9100060000001
 20
3222.0338967100652
 30
0.0
  0
POINT
  5
7D45
  8
DEFPOINTS
  6
CONTINUOUS
 62
     0
 10
2788.9100060000001
 20
3055.7326267100648
 30
0.0
  0
POINT
  5
7D46
  8
DEFPOINTS
  6
CONTINUOUS
 62
     0
 10
2788.9100060000001
 20
2881.0386297100649
 30
0.0
  0
ENDBLK
  5
7BAF
  8
0
  0
BLOCK
  8
0
  2
*D4
 70
     1
 10
0.0
 20
0.0
 30
0.0
  3
*D4
  1

  0
LINE
  5
7D47
  8
3
  6
CONTINUOUS
 62
     0
 10
4488.9100060000001
 20
3202.0338967100638
 30
0.0
 11
4488.9100060000001
 21
2841.0386297100649
 31
0.0
  0
LINE
  5
7D48
  8
3
  6
CONTINUOUS
 62
     0
 10
2868.9100060000001
 20
2881.0386297100649
 30
0.0
 11
4408.9100060000001
 21
2881.0386297100649
 31
0.0
  0
INSERT
  5
7D49
  8
3
  6
CONTINUOUS
 62
     0
  2
_OPEN
 10
2788.9100060000001
 20
2881.0386297100649
 30
0.0
 41
80.0
 42
80.0
 43
80.0
 50
180.0
  0
INSERT
  5
7D4A
  8
3
  6
CONTINUOUS
 62
     0
  2
_OPEN
 10
4488.9100060000001
 20
2881.0386297100649
 30
0.0
 41
80.0
 42
80.0
 43
80.0
  0
TEXT
  8
3
  40
120
  5
7DBB
  62
0
  72
0
  71
0
 10
3398.91
 20
2768.64
 30
0.000000
  1
1700
  0
POINT
  5
7D4C
  8
DEFPOINTS
  6
CONTINUOUS
 62
     0
 10
2788.9100060000001
 20
3055.7326267100648
 30
0.0
  0
POINT
  5
7D4D
  8
DEFPOINTS
  6
CONTINUOUS
 62
     0
 10
4488.9100060000001
 20
3222.0338967100652
 30
0.0
  0
POINT
  5
7D4E
  8
DEFPOINTS
  6
CONTINUOUS
 62
     0
 10
4488.9100060000001
 20
2881.0386297100649
 30
0.0
  0
ENDBLK
  5
7BBB
  8
0
  0
BLOCK
  8
0
  2
*D5
 70
     1
 10
0.0
 20
0.0
 30
0.0
  3
*D5
  1

  0
LINE
  5
7D4F
  8
3
  6
CONTINUOUS
 62
     0
 10
2763.9100060000001
 20
4992.0338967100652
 30
0.0
 11
1649.770143
 21
4992.0338967100661
 31
0.0
  0
LINE
  5
7D50
  8
3
  6
CONTINUOUS
 62
     0
 10
1728.1988192602
 20
4232.0338967100652
 30
0.0
 11
1649.770143
 21
4232.0338967100652
 31
0.0
  0
LINE
  5
7D51
  8
3
  6
CONTINUOUS
 62
     0
 10
1689.770143
 20
4912.033896710067
 30
0.0
 11
1689.770143
 21
4312.0338967100643
 31
0.0
  0
INSERT
  5
7D52
  8
3
  6
CONTINUOUS
 62
     0
  2
_OPEN
 10
1689.770143
 20
4992.0338967100661
 30
0.0
 41
80.0
 42
80.0
 43
80.0
 50
90.0
  0
INSERT
  5
7D53
  8
3
  6
CONTINUOUS
 62
     0
  2
_OPEN
 10
1689.770143
 20
4232.0338967100652
 30
0.0
 41
80.0
 42
80.0
 43
80.0
 50
270.0
  0
TEXT
  8
3
  40
120
  5
7DBC
  62
0
  72
0
  71
0
 10
1349.77
 20
4380.73
 30
0.000000
  1
760
  0
POINT
  5
7D55
  8
DEFPOINTS
  6
CONTINUOUS
 62
     0
 10
2783.9100060000001
 20
4992.0338967100652
 30
0.0
  0
POINT
  5
7D56
  8
DEFPOINTS
  6
CONTINUOUS
 62
     0
 10
1748.1988192602
 20
4232.0338967100652
 30
0.0
  0
POINT
  5
7D57
  8
DEFPOINTS
  6
CONTINUOUS
 62
     0
 10
1689.770143
 20
4232.0338967100652
 30
0.0
  0
ENDBLK
  5
7CFE
  8
0
  0
BLOCK
  8
0
  2
*D6
 70
     1
 10
0.0
 20
0.0
 30
0.0
  3
*D6
  1

  0
LINE
  5
7D58
  8
3
  6
CONTINUOUS
 62
     0
 10
1724.8246879291539
 20
4232.0338967100652
 30
0.0
 11
1649.770143
 21
4232.0338967100652
 31
0.0
  0
LINE
  5
7D59
  8
3
  6
CONTINUOUS
 62
     0
 10
2108.9100059999992
 20
3222.0338967100652
 30
0.0
 11
1649.770143
 21
3222.0338967100652
 31
0.0
  0
LINE
  5
7D5A
  8
3
  6
CONTINUOUS
 62
     0
 10
1689.770143
 20
4152.0338967100643
 30
0.0
 11
1689.7701429999991
 21
3302.0338967100652
 31
0.0
  0
INSERT
  5
7D5B
  8
3
  6
CONTINUOUS
 62
     0
  2
_OPEN
 10
1689.770143
 20
4232.0338967100652
 30
0.0
 41
80.0
 42
80.0
 43
80.0
 50
90.0
  0
INSERT
  5
7D5C
  8
3
  6
CONTINUOUS
 62
     0
  2
_OPEN
 10
1689.7701429999991
 20
3222.0338967100652
 30
0.0
 41
80.0
 42
80.0
 43
80.0
 50
270.0
  0
TEXT
  8
3
  40
120
  5
7DBD
  62
0
  72
0
  71
0
 10
1349.77
 20
3514.63
 30
0.000000
  1
1010
  0
POINT
  5
7D5E
  8
DEFPOINTS
  6
CONTINUOUS
 62
     0
 10
1744.8246879291539
 20
4232.0338967100652
 30
0.0
  0
POINT
  5
7D5F
  8
DEFPOINTS
  6
CONTINUOUS
 62
     0
 10
2128.9100060000001
 20
3222.0338967100652
 30
0.0
  0
POINT
  5
7D60
  8
DEFPOINTS
  6
CONTINUOUS
 62
     0
 10
1689.7701429999991
 20
3222.0338967100652
 30
0.0
  0
ENDBLK
  5
7D09
  8
0
  0
BLOCK
  8
0
  2
*D7
 70
     1
 10
0.0
 20
0.0
 30
0.0
  3
*D7
  1

  0
LINE
  5
7D61
  8
3
  6
CONTINUOUS
 62
     0
 10
2763.9100060000001
 20
4992.0338967100652
 30
0.0
 11
1310.232484000001
 21
4992.0338967100661
 31
0.0
  0
LINE
  5
7D62
  8
3
  6
CONTINUOUS
 62
     0
 10
2108.9100059999992
 20
3222.0338967100652
 30
0.0
 11
1310.2324840000001
 21
3222.0338967100652
 31
0.0
  0
LINE
  5
7D63
  8
3
  6
CONTINUOUS
 62
     0
 10
1350.232484000001
 20
4912.033896710067
 30
0.0
 11
1350.2324840000001
 21
3302.0338967100652
 31
0.0
  0
INSERT
  5
7D64
  8
3
  6
CONTINUOUS
 62
     0
  2
_OPEN
 10
1350.232484000001
 20
4992.0338967100661
 30
0.0
 41
80.0
 42
80.0
 43
80.0
 50
90.0
  0
INSERT
  5
7D65
  8
3
  6
CONTINUOUS
 62
     0
  2
_OPEN
 10
1350.2324840000001
 20
3222.0338967100652
 30
0.0
 41
80.0
 42
80.0
 43
80.0
 50
270.0
  0
TEXT
  8
3
  40
120
  5
7DBE
  62
0
  72
0
  71
0
 10
1010.23
 20
3879.44
 30
0.000000
  1
1770
  0
POINT
  5
7D67
  8
DEFPOINTS
  6
CONTINUOUS
 62
     0
 10
2783.9100060000001
 20
4992.0338967100652
 30
0.0
  0
POINT
  5
7D68
  8
DEFPOINTS
  6
CONTINUOUS
 62
     0
 10
2128.9100060000001
 20
3222.0338967100652
 30
0.0
  0
POINT
  5
7D69
  8
DEFPOINTS
  6
CONTINUOUS
 62
     0
 10
1350.2324840000001
 20
3222.0338967100652
 30
0.0
  0
ENDBLK
  5
7BE1
  8
0
  0
BLOCK
  8
0
  2
*D8
 70
     1
 10
0.0
 20
0.0
 30
0.0
  3
*D8
  1

  0
LINE
  5
7D6A
  8
3
  6
CONTINUOUS
 62
     0
 10
5871.2301379999999
 20
5012.0338967100652
 30
0.0
 11
5871.2301379999999
 21
5165.2688347100648
 31
0.0
  0
LINE
  5
7D6B
  8
3
  6
CONTINUOUS
 62
     0
 10
6721.2301379999999
 20
5012.0338967100652
 30
0.0
 11
6721.2301379999999
 21
5165.2688347100648
 31
0.0
  0
LINE
  5
7D6C
  8
3
  6
CONTINUOUS
 62
     0
 10
5951.230137999999
 20
5125.2688347100648
 30
0.0
 11
6641.2301379999999
 21
5125.2688347100648
 31
0.0
  0
INSERT
  5
7D6D
  8
3
  6
CONTINUOUS
 62
     0
  2
_OPEN
 10
5871.2301379999999
 20
5125.2688347100648
 30
0.0
 41
80.0
 42
80.0
 43
80.0
 50
180.0
  0
INSERT
  5
7D6E
  8
3
  6
CONTINUOUS
 62
     0
  2
_OPEN
 10
6721.2301379999999
 20
5125.2688347100648
 30
0.0
 41
80.0
 42
80.0
 43
80.0
  0
TEXT
  8
3
  40
120
  5
7DBF
  62
0
  72
0
  71
0
 10
6053.41
 20
5012.87
 30
0.000000
  1
850
  0
POINT
  5
7D70
  8
DEFPOINTS
  6
CONTINUOUS
 62
     0
 10
5871.2301379999999
 20
4992.0338967100652
 30
0.0
  0
POINT
  5
7D71
  8
DEFPOINTS
  6
CONTINUOUS
 62
     0
 10
6721.2301379999999
 20
4992.0338967100652
 30
0.0
  0
POINT
  5
7D72
  8
DEFPOINTS
  6
CONTINUOUS
 62
     0
 10
6721.2301379999999
 20
5125.2688347100648
 30
0.0
  0
ENDBLK
  5
7BEE
  8
0
  0
BLOCK
  8
0
  2
*D9
 70
     1
 10
0.0
 20
0.0
 30
0.0
  3
*D9
  1

  0
LINE
  5
7D73
  8
3
  6
CONTINUOUS
 62
     0
 10
6844.2301379999999
 20
4792.0338967100652
 30
0.0
 11
7166.8214850000013
 21
4792.0338967100652
 31
0.0
  0
LINE
  5
7D74
  8
3
  6
CONTINUOUS
 62
     0
 10
6844.2301379999999
 20
3672.0338967100652
 30
0.0
 11
7166.8214850000013
 21
3672.0338967100652
 31
0.0
  0
LINE
  5
7D75
  8
3
  6
CONTINUOUS
 62
     0
 10
7126.8214850000004
 20
4712.0338967100652
 30
0.0
 11
7126.8214850000004
 21
3752.0338967100652
 31
0.0
  0
INSERT
  5
7D76
  8
3
  6
CONTINUOUS
 62
     0
  2
_OPEN
 10
7126.8214850000004
 20
4792.0338967100652
 30
0.0
 41
80.0
 42
80.0
 43
80.0
 50
90.0
  0
INSERT
  5
7D77
  8
3
  6
CONTINUOUS
 62
     0
  2
_OPEN
 10
7126.8214850000004
 20
3672.0338967100652
 30
0.0
 41
80.0
 42
80.0
 43
80.0
 50
270.0
  0
TEXT
  8
3
  40
120
  5
7DC0
  62
0
  72
0
  71
0
 10
6786.82
 20
4025.97
 30
0.000000
  1
φ1120
  0
POINT
  5
7D79
  8
DEFPOINTS
  6
CONTINUOUS
 62
     0
 10
6824.2301379999999
 20
4792.0338967100652
 30
0.0
  0
POINT
  5
7D7A
  8
DEFPOINTS
  6
CONTINUOUS
 62
     0
 10
6824.2301379999999
 20
3672.0338967100652
 30
0.0
  0
POINT
  5
7D7B
  8
DEFPOINTS
  6
CONTINUOUS
 62
     0
 10
7126.8214850000004
 20
3672.0338967100652
 30
0.0
  0
ENDBLK
  5
7CDD
  8
0
  0
BLOCK
  8
0
  2
*D10
 70
     1
 10
0.0
 20
0.0
 30
0.0
  3
*D10
  1

  0
LINE
  5
7CBF
  8
0
  6
BYBLOCK
 62
     0
 10
6824.2301379999999
 20
4862.0338967100652
 30
0.0
 11
6824.2301379999999
 21
5489.1783287100652
 31
0.0
  0
LINE
  5
7CC0
  8
0
  6
BYBLOCK
 62
     0
 10
6296.2301379999999
 20
5374.2908967100657
 30
0.0
 11
6296.2301379999999
 21
5489.1783287100652
 31
0.0
  0
LINE
  5
7CC1
  8
0
  6
BYBLOCK
 62
     0
 10
6744.2301379999999
 20
5449.1783287100652
 30
0.0
 11
6376.2301379999999
 21
5449.1783287100652
 31
0.0
  0
TEXT
  5
7CC2
  8
3
 62
     0
 10
6405.9444237142852
 20
5494.6486128640063
 30
0.0
 40
120.0
  1
528
  0
INSERT
  5
7CC3
  8
0
  6
BYBLOCK
 62
     0
  2
_OPEN
 10
6824.2301379999999
 20
5449.1783287100652
 30
0.0
 41
80.0
 42
80.0
 43
80.0
  0
INSERT
  5
7CC4
  8
0
  6
BYBLOCK
 62
     0
  2
_OPEN
 10
6296.2301379999999
 20
5449.1783287100652
 30
0.0
 41
80.0
 42
80.0
 43
80.0
 50
180.0
  0
POINT
  5
7CC5
  8
DEFPOINTS
  6
BYBLOCK
 62
     0
 10
6824.2301379999999
 20
4842.0338967100661
 30
0.0
  0
POINT
  5
7CC6
  8
DEFPOINTS
  6
BYBLOCK
 62
     0
 10
6296.2301379999999
 20
5354.2908967100648
 30
0.0
  0
POINT
  5
7CC7
  8
DEFPOINTS
  6
BYBLOCK
 62
     0
 10
6296.2301379999999
 20
5449.1783287100652
 30
0.0
  0
ENDBLK
  5
7CC8
  8
0
  0
BLOCK
  8
0
  2
*D11
 70
     1
 10
0.0
 20
0.0
 30
0.0
  3
*D11
  1

  0
LINE
  5
7D7C
  8
3
  6
CONTINUOUS
 62
     0
 10
5556.2301379999999
 20
4630.0338967100652
 30
0.0
 11
5556.2301379999999
 21
5489.1783287100652
 31
0.0
  0
LINE
  5
7D7D
  8
3
  6
CONTINUOUS
 62
     0
 10
6216.2301379999999
 20
5449.1783287100652
 30
0.0
 11
5636.2301379999999
 21
5449.1783287100652
 31
0.0
  0
INSERT
  5
7D7E
  8
3
  6
CONTINUOUS
 62
     0
  2
_OPEN
 10
6296.2301379999999
 20
5449.1783287100652
 30
0.0
 41
80.0
 42
80.0
 43
80.0
  0
INSERT
  5
7D7F
  8
3
  6
CONTINUOUS
 62
     0
  2
_OPEN
 10
5556.2301379999999
 20
5449.1783287100652
 30
0.0
 41
80.0
 42
80.0
 43
80.0
 50
180.0
  0
TEXT
  8
3
  40
120
  5
7DC1
  62
0
  72
0
  71
0
 10
5686.23
 20
5436.78
 30
0.000000
  1
MAX
  0
TEXT
  8
3
  40
120
  5
7DC2
  62
0
  72
0
  71
0
 10
5686.23
 20
5280.78
 30
0.000000
  1
850
  0
POINT
  5
7D81
  8
DEFPOINTS
  6
CONTINUOUS
 62
     0
 10
6296.2301379999999
 20
5354.2908967100648
 30
0.0
  0
POINT
  5
7D82
  8
DEFPOINTS
  6
CONTINUOUS
 62
     0
 10
5556.2301379999999
 20
4610.0338967100652
 30
0.0
  0
POINT
  5
7D83
  8
DEFPOINTS
  6
CONTINUOUS
 62
     0
 10
5556.2301379999999
 20
5449.1783287100652
 30
0.0
  0
ENDBLK
  5
7CD2
  8
0
  0
BLOCK
  8
0
  2
*D12
 70
     1
 10
0.0
 20
0.0
 30
0.0
  3
*D12
  1

  0
LINE
  5
7D84
  8
3
  6
CONTINUOUS
 62
     0
 10
5609.2301379999999
 20
3202.0338967100638
 30
0.0
 11
5609.2301379999999
 21
2887.3114097100652
 31
0.0
  0
LINE
  5
7D85
  8
3
  6
CONTINUOUS
 62
     0
 10
6296.2301379999999
 20
3036.1247177100649
 30
0.0
 11
6296.2301379999999
 21
2887.3114097100652
 31
0.0
  0
LINE
  5
7D86
  8
3
  6
CONTINUOUS
 62
     0
 10
5689.2301379999999
 20
2927.3114097100652
 30
0.0
 11
6216.2301379999999
 21
2927.3114097100652
 31
0.0
  0
INSERT
  5
7D87
  8
3
  6
CONTINUOUS
 62
     0
  2
_OPEN
 10
5609.2301379999999
 20
2927.3114097100652
 30
0.0
 41
80.0
 42
80.0
 43
80.0
 50
180.0
  0
INSERT
  5
7D88
  8
3
  6
CONTINUOUS
 62
     0
  2
_OPEN
 10
6296.2301379999999
 20
2927.3114097100652
 30
0.0
 41
80.0
 42
80.0
 43
80.0
  0
TEXT
  8
3
  40
120
  5
7DC3
  62
0
  72
0
  71
0
 10
5721.59
 20
2814.91
 30
0.000000
  1
687
  0
POINT
  5
7D8A
  8
DEFPOINTS
  6
CONTINUOUS
 62
     0
 10
5609.2301379999999
 20
3222.0338967100652
 30
0.0
  0
POINT
  5
7D8B
  8
DEFPOINTS
  6
CONTINUOUS
 62
     0
 10
6296.2301379999999
 20
3056.1247177100649
 30
0.0
  0
POINT
  5
7D8C
  8
DEFPOINTS
  6
CONTINUOUS
 62
     0
 10
6296.2301379999999
 20
2927.3114097100652
 30
0.0
  0
ENDBLK
  5
7C23
  8
0
  0
BLOCK
  8
0
  2
*D13
 70
     1
 10
0.0
 20
0.0
 30
0.0
  3
*D13
  1

  0
LINE
  5
7D8D
  8
3
  6
CONTINUOUS
 62
     0
 10
6789.2301379999999
 20
3202.0338967100638
 30
0.0
 11
6789.2301379999999
 21
2887.3114097100652
 31
0.0
  0
LINE
  5
7D8E
  8
3
  6
CONTINUOUS
 62
     0
 10
6376.2301379999999
 20
2927.3114097100652
 30
0.0
 11
6709.230137999999
 21
2927.3114097100652
 31
0.0
  0
TEXT
  8
3
  40
120
  5
7DC4
  62
0
  72
0
  71
0
 10
6305.17
 20
2817.00
 30
0.000000
  1
493
  0
INSERT
  5
7D90
  8
3
  6
CONTINUOUS
 62
     0
  2
_OPEN
 10
6296.2301379999999
 20
2927.3114097100652
 30
0.0
 41
80.0
 42
80.0
 43
80.0
 50
180.0
  0
INSERT
  5
7D91
  8
3
  6
CONTINUOUS
 62
     0
  2
_OPEN
 10
6789.2301379999999
 20
2927.3114097100652
 30
0.0
 41
80.0
 42
80.0
 43
80.0
  0
POINT
  5
7D92
  8
DEFPOINTS
  6
CONTINUOUS
 62
     0
 10
6296.2301379999999
 20
3056.1247177100649
 30
0.0
  0
POINT
  5
7D93
  8
DEFPOINTS
  6
CONTINUOUS
 62
     0
 10
6789.2301379999999
 20
3222.0338967100652
 30
0.0
  0
POINT
  5
7D94
  8
DEFPOINTS
  6
CONTINUOUS
 62
     0
 10
6789.2301379999999
 20
2927.3114097100652
 30
0.0
  0
ENDBLK
  5
7C7F
  8
0
  0
BLOCK
  8
0
  2
*D14
 70
     1
 10
0.0
 20
0.0
 30
0.0
  3
*D14
  1

  0
LINE
  5
7D95
  8
3
  6
CONTINUOUS
 62
     0
 10
2128.9100060000001
 20
7443.7950435992407
 30
0.0
 11
2128.9100060000001
 21
6996.7893645992408
 31
0.0
  0
LINE
  5
7D96
  8
3
  6
CONTINUOUS
 62
     0
 10
4488.9100060000001
 20
7443.7950435992407
 30
0.0
 11
4488.9100060000001
 21
6996.7893645992408
 31
0.0
  0
LINE
  5
7D97
  8
3
  6
CONTINUOUS
 62
     0
 10
2208.9100059999992
 20
7036.7893645992399
 30
0.0
 11
4408.9100060000001
 21
7036.7893645992399
 31
0.0
  0
INSERT
  5
7D98
  8
3
  6
CONTINUOUS
 62
     0
  2
_OPEN
 10
2128.9100060000001
 20
7036.7893645992399
 30
0.0
 41
80.0
 42
80.0
 43
80.0
 50
180.0
  0
INSERT
  5
7D99
  8
3
  6
CONTINUOUS
 62
     0
  2
_OPEN
 10
4488.9100060000001
 20
7036.7893645992399
 30
0.0
 41
80.0
 42
80.0
 43
80.0
  0
TEXT
  8
3
  40
120
  5
7DC5
  62
0
  72
0
  71
0
 10
3023.99
 20
6924.39
 30
0.000000
  1
2360
  0
POINT
  5
7D9B
  8
DEFPOINTS
  6
CONTINUOUS
 62
     0
 10
2128.9100060000001
 20
7463.7950435992389
 30
0.0
  0
POINT
  5
7D9C
  8
DEFPOINTS
  6
CONTINUOUS
 62
     0
 10
4488.9100060000001
 20
7463.7950435992389
 30
0.0
  0
POINT
  5
7D9D
  8
DEFPOINTS
  6
CONTINUOUS
 62
     0
 10
4488.9100060000001
 20
7036.7893645992399
 30
0.0
  0
ENDBLK
  5
7C56
  8
0
  0
BLOCK
  8
0
  2
*D15
 70
     1
 10
0.0
 20
0.0
 30
0.0
  3
*D15
  1

  0
LINE
  5
7D9E
  8
3
  6
CONTINUOUS
 62
     0
 10
4508.9100059999992
 20
8643.7950435992389
 30
0.0
 11
4878.2100420000006
 21
8643.7950435992389
 31
0.0
  0
LINE
  5
7D9F
  8
3
  6
CONTINUOUS
 62
     0
 10
4508.9100059999992
 20
7463.7950435992389
 30
0.0
 11
4878.2100420000006
 21
7463.7950435992389
 31
0.0
  0
LINE
  5
7DA0
  8
3
  6
CONTINUOUS
 62
     0
 10
4838.2100420000006
 20
8563.7950435992407
 30
0.0
 11
4838.2100420000006
 21
7543.7950435992398
 31
0.0
  0
INSERT
  5
7DA1
  8
3
  6
CONTINUOUS
 62
     0
  2
_OPEN
 10
4838.2100420000006
 20
8643.7950435992389
 30
0.0
 41
80.0
 42
80.0
 43
80.0
 50
90.0
  0
INSERT
  5
7DA2
  8
3
  6
CONTINUOUS
 62
     0
  2
_OPEN
 10
4838.2100420000006
 20
7463.7950435992389
 30
0.0
 41
80.0
 42
80.0
 43
80.0
 50
270.0
  0
TEXT
  8
3
  40
120
  5
7DC6
  62
0
  72
0
  71
0
 10
4498.21
 20
7834.68
 30
0.000000
  1
1180
  0
POINT
  5
7DA4
  8
DEFPOINTS
  6
CONTINUOUS
 62
     0
 10
4488.9100060000001
 20
8643.7950435992389
 30
0.0
  0
POINT
  5
7DA5
  8
DEFPOINTS
  6
CONTINUOUS
 62
     0
 10
4488.9100060000001
 20
7463.7950435992389
 30
0.0
  0
POINT
  5
7DA6
  8
DEFPOINTS
  6
CONTINUOUS
 62
     0
 10
4838.2100420000006
 20
7463.7950435992389
 30
0.0
  0
ENDBLK
  5
7C63
  8
0
  0
BLOCK
  8
0
  2
*D16
 70
     1
 10
0.0
 20
0.0
 30
0.0
  3
*D16
  1

  0
LINE
  5
7DA7
  8
3
  6
CONTINUOUS
 62
     0
 10
1983.9100060000001
 20
4252.0338967100652
 30
0.0
 11
1983.9100060000001
 21
5458.3298187100654
 31
0.0
  0
LINE
  5
7DA8
  8
3
  6
CONTINUOUS
 62
     0
 10
2708.9100059999992
 20
5418.3298187100654
 30
0.0
 11
2063.9100059999992
 21
5418.3298187100654
 31
0.0
  0
INSERT
  5
7DA9
  8
3
  6
CONTINUOUS
 62
     0
  2
_OPEN
 10
2788.9100060000001
 20
5418.3298187100654
 30
0.0
 41
80.0
 42
80.0
 43
80.0
  0
INSERT
  5
7DAA
  8
3
  6
CONTINUOUS
 62
     0
  2
_OPEN
 10
1983.9100060000001
 20
5418.3298187100654
 30
0.0
 41
80.0
 42
80.0
 43
80.0
 50
180.0
  0
TEXT
  8
3
  40
120
  5
7DC7
  62
0
  72
0
  71
0
 10
2146.41
 20
5305.93
 30
0.000000
  1
805
  0
POINT
  5
7DAC
  8
DEFPOINTS
  6
CONTINUOUS
 62
     0
 10
2788.9100060000001
 20
5234.9830917100653
 30
0.0
  0
POINT
  5
7DAD
  8
DEFPOINTS
  6
CONTINUOUS
 62
     0
 10
1983.9100060000001
 20
4232.0338967100652
 30
0.0
  0
POINT
  5
7DAE
  8
DEFPOINTS
  6
CONTINUOUS
 62
     0
 10
1983.9100060000001
 20
5418.3298187100654
 30
0.0
  0
ENDBLK
  5
7CA5
  8
0
  0
BLOCK
  8
0
  2
*D17
 70
     1
 10
0.0
 20
0.0
 30
0.0
  3
*D17
  1

  0
LINE
  5
7DAF
  8
3
 62
     0
 10
1983.9100060000001
 20
4272.0338967100652
 30
0.0
 11
1983.9100060000001
 21
5715.8257927737577
 31
0.0
  0
LINE
  5
7DB0
  8
3
 62
     0
 10
4488.9100060000001
 20
3367.0338967100652
 30
0.0
 11
4488.9100060000001
 21
5715.8257927737577
 31
0.0
  0
LINE
  5
7DB1
  8
3
 62
     0
 10
2063.9100059999992
 20
5675.8257927737577
 30
0.0
 11
4408.9100060000001
 21
5675.8257927737577
 31
0.0
  0
INSERT
  5
7DB2
  8
3
 62
     0
  2
_OPEN
 10
1983.9100060000001
 20
5675.8257927737577
 30
0.0
 41
80.0
 42
80.0
 43
80.0
 50
180.0
  0
INSERT
  5
7DB3
  8
3
 62
     0
  2
_OPEN
 10
4488.9100060000001
 20
5675.8257927737577
 30
0.0
 41
80.0
 42
80.0
 43
80.0
  0
TEXT
  8
3
  40
120
  5
7DC8
  62
0
  72
0
  71
0
 10
2954.83
 20
5563.43
 30
0.000000
  1
2505
  0
POINT
  5
7DB5
  8
DEFPOINTS
 62
     0
 10
1983.9100060000001
 20
4252.0338967100652
 30
0.0
  0
POINT
  5
7DB6
  8
DEFPOINTS
 62
     0
 10
4488.9100060000001
 20
3347.0338967100652
 30
0.0
  0
POINT
  5
7DB7
  8
DEFPOINTS
 62
     0
 10
4488.9100060000001
 20
5675.8257927737577
 30
0.0
  0
ENDBLK
  5
7CB1
  8
0
  0
ENDSEC
  0
SECTION
  2
ENTITIES
  0
LINE
  5
7AAB
  8
1
  6
CONTINUOUS
 10
4091.010006
 20
3374.4338967100648
 30
0.0
 11
2663.7100059999998
 21
3875.3338967100649
 31
0.0
  0
LINE
  5
7AAC
  8
1
  6
CONTINUOUS
 10
4124.2100060000012
 20
3468.833896710064
 30
0.0
 11
2696.8100059999988
 21
3969.733896710065
 31
0.0
  0
LINE
  5
7AAD
  8
1
  6
CONTINUOUS
 10
4278.1100059999999
 20
3770.1338967100651
 30
0.0
 11
2985.1100059999999
 21
4555.1338967100646
 31
0.0
  0
LINE
  5
7AAE
  8
1
  6
CONTINUOUS
 10
4226.2100060000002
 20
3684.633896710066
 30
0.0
 11
2933.2100059999989
 21
4469.6338967100664
 31
0.0
  0
LINE
  5
7AAF
  8
1
  6
CONTINUOUS
 10
4388.9100060000001
 20
3402.0338967100652
 30
0.0
 11
3938.9100060000001
 21
3402.0338967100652
 31
0.0
  0
LINE
  5
7AB0
  8
1
  6
CONTINUOUS
 10
4363.0100060000004
 20
7699.4950435992387
 30
0.0
 11
3964.8100060000002
 21
7699.4950435992387
 31
0.0
  0
LINE
  5
7AB1
  8
1
  6
CONTINUOUS
 10
4363.0100060000004
 20
8298.9950435992396
 30
0.0
 11
3986.9100060000001
 21
8298.9950435992396
 31
0.0
  0
ARC
  5
7AB2
  8
1
  6
CONTINUOUS
 10
4163.9100060000001
 20
3582.0338967100652
 30
0.0
 40
199.0
 50
320.10000000000002
 51
219.90000000000001
  0
LINE
  5
7AB3
  8
1
  6
CONTINUOUS
 10
2128.9100060000001
 20
3347.0338967100652
 30
0.0
 11
4488.9100060000001
 21
3347.0338967100652
 31
0.0
  0
LINE
  5
7AB4
  8
1
  6
CONTINUOUS
 10
2128.9100060000001
 20
3222.0338967100652
 30
0.0
 11
4488.9100060000001
 21
3222.0338967100652
 31
0.0
  0
ARC
  5
7AB5
  8
1
  6
CONTINUOUS
 10
2870.9100060000001
 20
4314.0338967100652
 30
0.0
 40
1054.2
 50
270.0
 51
355.5
  0
LINE
  5
7AB6
  8
1
  6
CONTINUOUS
 10
4388.9100060000001
 20
3347.0338967100652
 30
0.0
 11
3938.9100060000001
 21
3347.0338967100652
 31
0.0
  0
CIRCLE
  5
7AB7
  8
1
  6
CONTINUOUS
 10
4163.9100060000001
 20
3582.0338967100652
 30
0.0
 40
120.0
  0
LINE
  5
7AB8
  8
2
  6
CENTER
 10
4283.9100060000001
 20
3582.0338967100652
 30
0.0
 11
4043.9100059999992
 21
3582.0338967100652
 31
0.0
  0
LINE
  5
7AB9
  8
1
  6
CONTINUOUS
 10
4488.9100060000001
 20
8643.7950435992389
 30
0.0
 11
3348.9100060000001
 21
8643.7950435992389
 31
0.0
  0
LINE
  5
7ABA
  8
1
  6
CONTINUOUS
 10
4488.9100060000001
 20
7463.7950435992389
 30
0.0
 11
2128.9100060000001
 21
7463.7950435992389
 31
0.0
  0
LINE
  5
7ABB
  8
1
  6
CONTINUOUS
 10
4383.9100059999992
 20
7410.7950435992398
 30
0.0
 11
2410.9100060000001
 21
7410.7950435992398
 31
0.0
  0
LINE
  5
7ABC
  8
1
  6
CONTINUOUS
 10
4383.9100059999992
 20
7650.7950435992398
 30
0.0
 11
2410.9100060000001
 21
7650.7950435992398
 31
0.0
  0
LINE
  5
7ABD
  8
1
  6
CONTINUOUS
 10
4043.9100059999992
 20
7580.7950435992389
 30
0.0
 11
4283.9100060000001
 21
7580.7950435992389
 31
0.0
  0
LINE
  5
7ABE
  8
1
  6
CONTINUOUS
 10
4043.9100059999992
 20
7480.7950435992398
 30
0.0
 11
4283.9100060000001
 21
7480.7950435992398
 31
0.0
  0
CIRCLE
  5
7ABF
  8
1
  6
CONTINUOUS
 10
2788.9100060000001
 20
4232.0338967100652
 30
0.0
 40
278.0
  0
CIRCLE
  5
7AC0
  8
1
  6
CONTINUOUS
 10
2788.9100060000001
 20
4232.0338967100652
 30
0.0
 40
610.0
  0
CIRCLE
  5
7AC1
  8
1
  6
CONTINUOUS
 10
2788.9100060000001
 20
4232.0338967100652
 30
0.0
 40
560.0
  0
LINE
  5
7AC2
  8
1
  6
CONTINUOUS
 10
2836.9100060000001
 20
4952.0338967100661
 30
0.0
 11
3983.510006
 21
4952.0338967100661
 31
0.0
  0
LINE
  5
7AC3
  8
1
  6
CONTINUOUS
 10
2783.9100060000001
 20
4992.0338967100652
 30
0.0
 11
4039.9100060000001
 21
4992.0338967100652
 31
0.0
  0
ARC
  5
7AC4
  8
1
  6
CONTINUOUS
 10
2788.9100060000001
 20
4232.0338967100652
 30
0.0
 40
378.0
 50
58.700000000000003
 51
250.69999999999999
  0
LINE
  5
7AC5
  8
2
  6
CENTER
 10
1744.8246879291539
 20
4232.0338967100652
 30
0.0
 11
4123.1764450000001
 21
4232.0338967100652
 31
0.0
  0
ARC
  5
7AC6
  8
1
  6
CONTINUOUS
 10
2720.4100060000001
 20
4163.5338967100652
 30
0.0
 40
739.10000000000002
 50
90.0
 51
174.90000000000001
  0
ARC
  5
7AC7
  8
1
  6
CONTINUOUS
 10
2870.9100060000001
 20
4150.0338967100652
 30
0.0
 40
890.20000000000005
 50
174.90000000000001
 51
270.0
  0
LINE
  5
7AC8
  8
1
  6
CONTINUOUS
 10
2128.9100060000001
 20
3347.0338967100652
 30
0.0
 11
2128.9100060000001
 21
3222.0338967100652
 31
0.0
  0
LINE
  5
7AC9
  8
2
  6
CENTER
 10
2788.9100060000001
 20
3055.7326267100648
 30
0.0
 11
2788.9100060000001
 21
5234.9830917100653
 31
0.0
  0
ARC
  5
7ACA
  8
1
  6
CONTINUOUS
 10
2720.4100060000001
 20
4300.5338967100652
 30
0.0
 40
602.10000000000002
 50
78.799999999999983
 51
90.0
  0
LINE
  5
7ACB
  8
1
  6
CONTINUOUS
 10
2836.9100060000001
 20
4891.233896710065
 30
0.0
 11
2836.9100060000001
 21
4992.0338967100652
 31
0.0
  0
LINE
  5
7ACC
  8
1
  6
CONTINUOUS
 10
3986.9100060000001
 20
4992.0338967100652
 30
0.0
 11
3921.9100060000001
 21
4232.0338967100652
 31
0.0
  0
LINE
  5
7ACD
  8
1
  6
CONTINUOUS
 10
4001.9100060000001
 20
3402.0338967100652
 30
0.0
 11
4001.9100060000001
 21
3444.5338967100652
 31
0.0
  0
LINE
  5
7ACE
  8
1
  6
CONTINUOUS
 10
4001.9100060000001
 20
3444.5338967100652
 30
0.0
 11
4011.2100059999998
 21
3454.4338967100648
 31
0.0
  0
LINE
  5
7ACF
  8
1
  6
CONTINUOUS
 10
3938.9100060000001
 20
3347.0338967100652
 30
0.0
 11
3938.9100060000001
 21
3402.0338967100652
 31
0.0
  0
LINE
  5
7AD0
  8
1
  6
CONTINUOUS
 10
3986.9100060000001
 20
7725.7950435992398
 30
0.0
 11
2836.9100060000001
 21
8575.7950435992389
 31
0.0
  0
LINE
  5
7AD1
  8
1
  6
CONTINUOUS
 10
3986.9100060000001
 20
8575.7950435992389
 30
0.0
 11
2836.9100060000001
 21
7725.7950435992398
 31
0.0
  0
LINE
  5
7AD2
  8
1
  6
CONTINUOUS
 10
3986.9100060000001
 20
8575.7950435992389
 30
0.0
 11
1980.7100059999991
 21
8575.7950435992389
 31
0.0
  0
LINE
  5
7AD3
  8
1
  6
CONTINUOUS
 10
3986.9100060000001
 20
7725.7950435992398
 30
0.0
 11
1980.7100059999991
 21
7725.7950435992398
 31
0.0
  0
LINE
  5
7AD4
  8
1
  6
CONTINUOUS
 10
3398.9100059999992
 20
8678.7950435992389
 30
0.0
 11
2178.9100060000001
 21
8678.7950435992389
 31
0.0
  0
LINE
  5
7AD5
  8
1
  6
CONTINUOUS
 10
2510.9100060000001
 20
7480.7950435992398
 30
0.0
 11
3066.9100060000001
 21
7480.7950435992398
 31
0.0
  0
LINE
  5
7AD6
  8
1
  6
CONTINUOUS
 10
2510.9100060000001
 20
7580.7950435992389
 30
0.0
 11
3066.9100060000001
 21
7580.7950435992389
 31
0.0
  0
LINE
  5
7AD7
  8
1
  6
CONTINUOUS
 10
2836.9100060000001
 20
7725.7950435992398
 30
0.0
 11
2836.9100060000001
 21
8575.7950435992389
 31
0.0
  0
LINE
  5
7AD8
  8
1
  6
CONTINUOUS
 10
1980.7100059999991
 20
7725.7950435992398
 30
0.0
 11
1980.7100059999991
 21
8575.7950435992389
 31
0.0
  0
LINE
  5
7AD9
  8
1
  6
CONTINUOUS
 10
2128.9100060000001
 20
7725.7950435992398
 30
0.0
 11
2128.9100060000001
 21
7463.7950435992389
 31
0.0
  0
LINE
  5
7ADA
  8
1
  6
CONTINUOUS
 10
2761.4100060000001
 20
7725.7950435992398
 30
0.0
 11
2761.4100060000001
 21
7580.7950435992389
 31
0.0
  0
LINE
  5
7ADB
  8
1
  6
CONTINUOUS
 10
2816.4100060000001
 20
7725.7950435992398
 30
0.0
 11
2816.4100060000001
 21
7580.7950435992389
 31
0.0
  0
LINE
  5
7ADC
  8
1
  6
CONTINUOUS
 10
2510.9100060000001
 20
7480.7950435992398
 30
0.0
 11
2510.9100060000001
 21
7580.7950435992389
 31
0.0
  0
LINE
  5
7ADD
  8
1
  6
CONTINUOUS
 10
2410.9100060000001
 20
7410.7950435992398
 30
0.0
 11
2410.9100060000001
 21
7650.7950435992398
 31
0.0
  0
LINE
  5
7ADE
  8
1
  6
CONTINUOUS
 10
2228.9100060000001
 20
8643.7950435992389
 30
0.0
 11
2128.9100060000001
 21
8643.7950435992389
 31
0.0
  0
LINE
  5
7ADF
  8
1
  6
CONTINUOUS
 10
2128.9100060000001
 20
8643.7950435992389
 30
0.0
 11
2128.9100060000001
 21
8575.7950435992389
 31
0.0
  0
LINE
  5
7AE0
  8
1
  6
CONTINUOUS
 10
2228.9100060000001
 20
8678.7950435992389
 30
0.0
 11
2228.9100060000001
 21
8575.7950435992389
 31
0.0
  0
LINE
  5
7AE1
  8
1
  6
CONTINUOUS
 10
3986.9100060000001
 20
7725.7950435992398
 30
0.0
 11
3986.9100060000001
 21
8575.7950435992389
 31
0.0
  0
LINE
  5
7AE2
  8
1
  6
CONTINUOUS
 10
3066.9100060000001
 20
7480.7950435992398
 30
0.0
 11
3066.9100060000001
 21
7580.7950435992389
 31
0.0
  0
LINE
  5
7AE3
  8
1
  6
CONTINUOUS
 10
4043.9100059999992
 20
7480.7950435992398
 30
0.0
 11
4043.9100059999992
 21
7580.7950435992389
 31
0.0
  0
LINE
  5
7AE4
  8
1
  6
CONTINUOUS
 10
3964.8100060000002
 20
7699.4950435992387
 30
0.0
 11
3964.8100060000002
 21
7725.7950435992398
 31
0.0
  0
LINE
  5
7AE5
  8
1
  6
CONTINUOUS
 10
3348.9100060000001
 20
8678.7950435992389
 30
0.0
 11
3348.9100060000001
 21
8575.7950435992389
 31
0.0
  0
LINE
  5
7AE6
  8
1
  6
CONTINUOUS
 10
5726.2301379999999
 20
4204.5338967100652
 30
0.0
 11
5871.2301379999999
 21
4204.5338967100652
 31
0.0
  0
LINE
  5
7AE7
  8
1
  6
CONTINUOUS
 10
5726.2301379999999
 20
4259.5338967100652
 30
0.0
 11
5871.2301379999999
 21
4259.5338967100652
 31
0.0
  0
LINE
  5
7AE8
  8
1
  6
CONTINUOUS
 10
5726.2301379999999
 20
3554.5338967100652
 30
0.0
 11
5871.2301379999999
 21
3554.5338967100652
 31
0.0
  0
LINE
  5
7AE9
  8
1
  6
CONTINUOUS
 10
5726.2301379999999
 20
3609.5338967100652
 30
0.0
 11
5871.2301379999999
 21
3609.5338967100652
 31
0.0
  0
LINE
  5
7AEA
  8
1
  6
CONTINUOUS
 10
5556.2301379999999
 20
3362.0338967100652
 30
0.0
 11
5796.2301379999999
 21
3362.0338967100652
 31
0.0
  0
LINE
  5
7AEB
  8
1
  6
CONTINUOUS
 10
5556.2301379999999
 20
4610.0338967100652
 30
0.0
 11
5796.2301379999999
 21
4610.0338967100652
 31
0.0
  0
LINE
  5
7AEC
  8
1
  6
CONTINUOUS
 10
6789.2301379999999
 20
3222.0338967100652
 30
0.0
 11
5609.2301379999999
 21
3222.0338967100652
 31
0.0
  0
LINE
  5
7AED
  8
1
  6
CONTINUOUS
 10
6789.2301379999999
 20
3347.0338967100652
 30
0.0
 11
5609.2301379999999
 21
3347.0338967100652
 31
0.0
  0
ARC
  5
7AF9
  8
1
  6
CONTINUOUS
 10
4163.9100060000001
 20
3582.0338967100652
 30
0.0
 40
220.0
 50
250.69999999999999
 51
58.700000000000003
  0
LINE
  5
7AFA
  8
1
  6
CONTINUOUS
 10
4325.9100059999992
 20
3402.0338967100652
 30
0.0
 11
4325.9100059999992
 21
3444.5338967100652
 31
0.0
  0
LINE
  5
7AFB
  8
1
  6
CONTINUOUS
 10
4325.9100059999992
 20
3444.5338967100652
 30
0.0
 11
4316.6100059999999
 21
3454.4338967100648
 31
0.0
  0
LINE
  5
7AFC
  8
1
  6
CONTINUOUS
 10
4388.9100060000001
 20
3347.0338967100652
 30
0.0
 11
4388.9100060000001
 21
3402.0338967100652
 31
0.0
  0
LINE
  5
7AFD
  8
2
  6
CENTER
 10
4163.9100060000001
 20
3462.0338967100652
 30
0.0
 11
4163.9100060000001
 21
3702.0338967100652
 31
0.0
  0
LINE
  5
7AFE
  8
1
  6
CONTINUOUS
 10
4488.9100060000001
 20
3347.0338967100652
 30
0.0
 11
4488.9100060000001
 21
3222.0338967100652
 31
0.0
  0
LINE
  5
7B17
  8
1
  6
CONTINUOUS
 10
5556.2301379999999
 20
3362.0338967100652
 30
0.0
 11
5556.2301379999999
 21
4610.0338967100652
 31
0.0
  0
LINE
  5
7B18
  8
1
  6
CONTINUOUS
 10
5726.2301379999999
 20
3702.0338967100652
 30
0.0
 11
5726.2301379999999
 21
3462.0338967100652
 31
0.0
  0
LINE
  5
7B19
  8
1
  6
CONTINUOUS
 10
5626.2301379999999
 20
3702.0338967100652
 30
0.0
 11
5626.2301379999999
 21
3462.0338967100652
 31
0.0
  0
LINE
  5
7B1A
  8
1
  6
CONTINUOUS
 10
5626.2301379999999
 20
3462.0338967100652
 30
0.0
 11
5726.2301379999999
 21
3462.0338967100652
 31
0.0
  0
LINE
  5
7B1B
  8
1
  6
CONTINUOUS
 10
5626.2301379999999
 20
3702.0338967100652
 30
0.0
 11
5726.2301379999999
 21
3702.0338967100652
 31
0.0
  0
LINE
  5
7B1C
  8
1
  6
CONTINUOUS
 10
5609.2301379999999
 20
3222.0338967100652
 30
0.0
 11
5609.2301379999999
 21
3347.0338967100652
 31
0.0
  0
LINE
  5
7B1D
  8
1
  6
CONTINUOUS
 10
5726.2301379999999
 20
4510.0338967100652
 30
0.0
 11
5726.2301379999999
 21
3954.0338967100661
 31
0.0
  0
LINE
  5
7B1E
  8
1
  6
CONTINUOUS
 10
5626.2301379999999
 20
4510.0338967100652
 30
0.0
 11
5626.2301379999999
 21
3954.0338967100661
 31
0.0
  0
LINE
  5
7B1F
  8
1
  6
CONTINUOUS
 10
5626.2301379999999
 20
3954.0338967100661
 30
0.0
 11
5726.2301379999999
 21
3954.0338967100661
 31
0.0
  0
LINE
  5
7B20
  8
1
  6
CONTINUOUS
 10
5626.2301379999999
 20
4510.0338967100652
 30
0.0
 11
5726.2301379999999
 21
4510.0338967100652
 31
0.0
  0
LINE
  5
7B21
  8
1
  6
CONTINUOUS
 10
5796.2301379999999
 20
3362.0338967100652
 30
0.0
 11
5796.2301379999999
 21
4610.0338967100652
 31
0.0
  0
LINE
  5
7B22
  8
1
  6
CONTINUOUS
 10
6824.2301379999999
 20
3622.0338967100652
 30
0.0
 11
6824.2301379999999
 21
4842.0338967100661
 31
0.0
  0
LINE
  5
7B23
  8
1
  6
CONTINUOUS
 10
6721.2301379999999
 20
3347.0338967100652
 30
0.0
 11
6721.2301379999999
 21
4992.0338967100652
 31
0.0
  0
LINE
  5
7B24
  8
1
  6
CONTINUOUS
 10
5871.2301379999999
 20
3347.0338967100652
 30
0.0
 11
5871.2301379999999
 21
4992.0338967100652
 31
0.0
  0
LINE
  5
7B25
  8
1
  6
CONTINUOUS
 10
6721.2301379999999
 20
3672.0338967100652
 30
0.0
 11
6824.2301379999999
 21
3672.0338967100652
 31
0.0
  0
LINE
  5
7B26
  8
1
  6
CONTINUOUS
 10
6789.2301379999999
 20
3222.0338967100652
 30
0.0
 11
6789.2301379999999
 21
3347.0338967100652
 31
0.0
  0
LINE
  5
7B27
  8
1
  6
CONTINUOUS
 10
6721.2301379999999
 20
4952.0338967100661
 30
0.0
 11
5871.2301379999999
 21
4952.0338967100661
 31
0.0
  0
LINE
  5
7B28
  8
1
  6
CONTINUOUS
 10
6771.230137999999
 20
4992.0338967100652
 30
0.0
 11
5821.2301379999999
 21
4992.0338967100652
 31
0.0
  0
LINE
  5
7B29
  8
1
  6
CONTINUOUS
 10
6721.2301379999999
 20
4792.0338967100652
 30
0.0
 11
6824.2301379999999
 21
4792.0338967100652
 31
0.0
  0
LINE
  5
7B34
  8
1
  6
CONTINUOUS
 10
4488.9100060000001
 20
8643.7950435992389
 30
0.0
 11
4488.9100060000001
 21
7463.7950435992389
 31
0.0
  0
LINE
  5
7B35
  8
1
  6
CONTINUOUS
 10
4191.4100060000001
 20
7580.7950435992389
 30
0.0
 11
4191.4100060000001
 21
7699.4950435992387
 31
0.0
  0
LINE
  5
7B36
  8
1
  6
CONTINUOUS
 10
4136.4100060000001
 20
7580.7950435992389
 30
0.0
 11
4136.4100060000001
 21
7699.4950435992387
 31
0.0
  0
LINE
  5
7B37
  8
1
  6
CONTINUOUS
 10
4283.9100060000001
 20
7480.7950435992398
 30
0.0
 11
4283.9100060000001
 21
7580.7950435992389
 31
0.0
  0
LINE
  5
7B38
  8
1
  6
CONTINUOUS
 10
4383.9100059999992
 20
7410.7950435992398
 30
0.0
 11
4383.9100059999992
 21
7650.7950435992398
 31
0.0
  0
LINE
  5
7B39
  8
1
  6
CONTINUOUS
 10
4363.0100060000004
 20
7699.4950435992387
 30
0.0
 11
4363.0100060000004
 21
8298.9950435992396
 31
0.0
  0
LINE
  5
7B54
  8
2
  6
CENTER
 10
4618.0110860000004
 20
8150.7950435992398
 30
0.0
 11
1809.139122999999
 21
8150.7950435992398
 31
0.0
  0
LINE
  5
7B56
  8
2
  6
CENTER
 10
2788.9100060000001
 20
7222.2188365992388
 30
0.0
 11
2788.9100060000001
 21
8827.6934345992413
 31
0.0
  0
LINE
  5
7B57
  8
2
  6
CENTER
 10
5327.7556070000001
 20
4232.0338967100652
 30
0.0
 11
6895.3185770000009
 21
4232.0338967100652
 31
0.0
  0
LINE
  5
7B58
  8
4
  6
CONTINUOUS
 10
7400.0
 20
2000.0
 30
0.0
 11
7400.0
 21
1200.0
 31
0.0
  0
LINE
  5
7B59
  8
4
  6
CONTINUOUS
 10
4600.0
 20
2000.0
 30
0.0
 11
4600.0
 21
1200.0
 31
0.0
  0
LINE
  5
7B5A
  8
4
  6
CONTINUOUS
 10
2600.0
 20
2000.0
 30
0.0
 11
2600.0
 21
1200.0
 31
0.0
  0
LINE
  5
7B5D
  8
4
  6
CONTINUOUS
 10
2600.0
 20
1200.0
 30
0.0
 11
7400.0
 21
1200.0
 31
0.0
  0
LINE
  5
7B5E
  8
4
  6
CONTINUOUS
 10
2600.0
 20
1600.0
 30
0.0
 11
7400.0
 21
1600.0
 31
0.0
  0
TEXT
  5
7B5F
  8
4
  6
CONTINUOUS
 10
2754.008323
 20
1726.1721030000001
 30
0.0
 40
200.0
  1
機器名称
  0
TEXT
  5
7B60
  8
4
  6
CONTINUOUS
 10
2745.032424
 20
1286.580627
 30
0.0
 40
200.0
  1
機器型番
  0
TEXT
  5
7B61
  8
4
  6
CONTINUOUS
 10
4710.7149820000004
 20
1690.2870760000001
 30
0.0
 40
200.0
  1
ミツヤ多翼送風機
  0
TEXT
  5
7B62
  8
4
  6
CONTINUOUS
 10
4746.6179819999998
 20
1268.6383370000001
 30
0.0
 40
200.0
  1
MF#7-4
  0
TEXT
  5
7B64
  8
4
  6
CONTINUOUS
 10
3619.1430620000001
 20
9533.715365
 30
0.0
 40
216.0
  1
床置ベット
  0
TEXT
  5
7B65
  8
4
  6
CONTINUOUS
 10
1264.6703729999999
 20
10135.523905
 30
0.0
 40
288.0
  1
ベルト駆動式片吸込両持多翼ファン
  0
LINE
  5
7B66
  8
4
  6
CONTINUOUS
 10
1000.0
 20
9877.6350170000005
 30
0.0
 11
7400.0
 21
9877.6350170000005
 31
0.0
  0
LINE
  5
7B67
  8
4
  6
CONTINUOUS
 10
1000.0
 20
10677.635017000001
 30
0.0
 11
7400.0
 21
10677.635017000001
 31
0.0
  0
LINE
  5
7B68
  8
4
  6
CONTINUOUS
 10
2600.0
 20
2000.0
 30
0.0
 11
7400.0
 21
2000.0
 31
0.0
  0
LINE
  5
7B69
  8
4
  6
CONTINUOUS
 10
1000.0
 20
10677.635017000001
 30
0.0
 11
1000.0
 21
9877.6350170000005
 31
0.0
  0
TEXT
  5
7B6A
  8
4
  6
CONTINUOUS
 10
1875.7077329999991
 20
9529.2779099999989
 30
0.0
 40
216.0
  1
左回転上向
  0
TEXT
  5
7B6B
  8
4
  6
CONTINUOUS
 10
5875.8782369999999
 20
10824.244326
 30
0.0
 40
224.0
  1
No.
  0
TEXT
  5
7B6C
  8
4
  6
CONTINUOUS
 10
5245.1842500000012
 20
9533.715365
 30
0.0
 40
216.0
  1
縮尺：1/40
  0
LINE
  5
7B6D
  8
4
  6
CONTINUOUS
 10
7400.0
 20
10677.635017000001
 30
0.0
 11
7400.0
 21
9877.6350170000005
 31
0.0
  0
LINE
  5
7B6F
  8
4
  6
CONTINUOUS
 10
5762.4696889999996
 20
10725.054333
 30
0.0
 11
5762.4696889999996
 21
11146.609046
 31
0.0
  0
LINE
  5
7B70
  8
4
  6
CONTINUOUS
 10
5762.4696889999996
 20
11146.609046
 30
0.0
 11
7400.0
 21
11146.609046
 31
0.0
  0
LINE
  5
7B71
  8
4
  6
CONTINUOUS
 10
7400.0
 20
11146.609046
 30
0.0
 11
7400.0
 21
10725.054333
 31
0.0
  0
LINE
  5
7B72
  8
4
  6
CONTINUOUS
 10
7400.0
 20
10725.054333
 30
0.0
 11
5762.4696889999996
 21
10725.054333
 31
0.0
  0
DIMENSION
  5
7B8A
  8
3
  6
CONTINUOUS
  2
*D1
 10
2836.9100060000001
 20
5163.8294797100662
 30
0.0
 11
3410.6086219999988
 21
5163.8294797100662
 31
0.0
 70
   128
 13
3986.9100060000001
 23
4992.0338967100652
 33
0.0
 14
2836.9100060000001
 24
4992.0338967100652
 34
0.0
1001
ACAD
1000
DSTYLE
1002
{
1070
   287
1070
     3
1070
    40
1040
40.0
1070
   143
1040
0.039
1070
   172
1070
     1
1070
   271
1070
     0
1070
   279
1070
     0
1070
   288
1070
     1
1002
}
  0
DIMENSION
  5
7B97
  8
3
  6
CONTINUOUS
  2
*D2
 10
2788.9100060000001
 20
5418.3298187100654
 30
0.0
 11
3395.1750729999999
 21
5418.3298187100654
 31
0.0
 70
   128
 13
3986.9100060000001
 23
4992.0338967100652
 33
0.0
 14
2788.9100060000001
 24
5234.9830917100653
 34
0.0
1001
ACAD
1000
DSTYLE
1002
{
1070
   287
1070
     3
1070
    40
1040
40.0
1070
   143
1040
0.039
1070
   172
1070
     1
1070
   271
1070
     0
1070
   279
1070
     0
1070
   288
1070
     1
1002
}
  0
DIMENSION
  5
7BB0
  8
3
  6
CONTINUOUS
  2
*D3
 10
2788.9100060000001
 20
2881.0386297100649
 30
0.0
 11
2469.1633430000002
 21
2881.0386297100649
 31
0.0
 70
   128
 13
2128.9100060000001
 23
3222.0338967100652
 33
0.0
 14
2788.9100060000001
 24
3055.7326267100648
 34
0.0
1001
ACAD
1000
DSTYLE
1002
{
1070
   287
1070
     3
1070
    40
1040
40.0
1070
   143
1040
0.039
1070
   172
1070
     1
1070
   271
1070
     0
1070
   279
1070
     0
1070
   288
1070
     1
1002
}
  0
DIMENSION
  5
7BBC
  8
3
  6
CONTINUOUS
  2
*D4
 10
4488.9100060000001
 20
2881.0386297100649
 30
0.0
 11
3638.9100060000001
 21
2981.0386297100649
 31
0.0
 70
     0
 13
2788.9100060000001
 23
3055.7326267100648
 33
0.0
 14
4488.9100060000001
 24
3222.0338967100652
 34
0.0
1001
ACAD
1000
DSTYLE
1002
{
1070
   287
1070
     4
1070
    40
1040
40.0
1070
    75
1070
     1
1070
   143
1040
0.039
1070
   172
1070
     1
1070
   271
1070
     0
1070
   279
1070
     1
1070
   288
1070
     1
1002
}
  0
DIMENSION
  5
7BC9
  8
3
  6
CONTINUOUS
  2
*D5
 10
1689.770143
 20
4232.0338967100652
 30
0.0
 11
1689.7701429999991
 21
4593.1317517100651
 31
0.0
 70
   128
 13
2783.9100060000001
 23
4992.0338967100652
 33
0.0
 14
1748.1988192602
 24
4232.0338967100652
 34
0.0
 50
90.0
1001
ACAD
1000
DSTYLE
1002
{
1070
   287
1070
     3
1070
    40
1040
40.0
1070
   143
1040
0.039
1070
   172
1070
     1
1070
   271
1070
     0
1070
   279
1070
     0
1070
   288
1070
     1
1002
}
  0
DIMENSION
  5
7BD5
  8
3
  6
CONTINUOUS
  2
*D6
 10
1689.7701429999991
 20
3222.0338967100652
 30
0.0
 11
1589.7701429999991
 21
3727.0338967100638
 31
0.0
 70
     0
 13
1744.8246879291539
 23
4232.0338967100652
 33
0.0
 14
2128.9100060000001
 24
3222.0338967100652
 34
0.0
 50
90.0
1001
ACAD
1000
DSTYLE
1002
{
1070
   287
1070
     3
1070
    40
1040
40.0
1070
   143
1040
0.039
1070
   172
1070
     1
1070
   271
1070
     0
1070
   279
1070
     0
1070
   288
1070
     1
1002
}
  0
DIMENSION
  5
7BE2
  8
3
  6
CONTINUOUS
  2
*D7
 10
1350.2324840000001
 20
3222.0338967100652
 30
0.0
 11
1350.2324840000001
 21
4091.8432407100649
 31
0.0
 70
   128
 13
2783.9100060000001
 23
4992.0338967100652
 33
0.0
 14
2128.9100060000001
 24
3222.0338967100652
 34
0.0
 50
90.0
1001
ACAD
1000
DSTYLE
1002
{
1070
   287
1070
     3
1070
    40
1040
40.0
1070
   143
1040
0.039
1070
   172
1070
     1
1070
   271
1070
     0
1070
   279
1070
     0
1070
   288
1070
     1
1002
}
  0
DIMENSION
  5
7BEF
  8
3
  6
CONTINUOUS
  2
*D8
 10
6721.2301379999999
 20
5125.2688347100648
 30
0.0
 11
6293.4109570000001
 21
5125.2688347100648
 31
0.0
 70
   128
 13
5871.2301379999999
 23
4992.0338967100652
 33
0.0
 14
6721.2301379999999
 24
4992.0338967100652
 34
0.0
1001
ACAD
1000
DSTYLE
1002
{
1070
   287
1070
     3
1070
    40
1040
40.0
1070
   143
1040
0.039
1070
   172
1070
     1
1070
   271
1070
     0
1070
   279
1070
     0
1070
   288
1070
     1
1002
}
  0
DIMENSION
  5
7BFC
  8
3
  6
CONTINUOUS
  2
*D9
 10
7126.8214850000004
 20
3672.0338967100652
 30
0.0
 11
7126.8214849999986
 21
4238.3737167100644
 31
0.0
 70
   128
 13
6824.2301379999999
 23
4792.0338967100652
 33
0.0
 14
6824.2301379999999
 24
3672.0338967100652
 34
0.0
 50
90.0
1001
ACAD
1000
DSTYLE
1002
{
1070
   287
1070
     3
1070
     3
1000
φ<>
1070
    40
1040
40.0
1070
   143
1040
0.039
1070
   172
1070
     1
1070
   271
1070
     0
1070
   279
1070
     0
1070
   288
1070
     1
1002
}
  0
DIMENSION
  5
7C0B
  8
3
  6
CONTINUOUS
  2
*D10
 10
6296.2301379999999
 20
5449.1783287100652
 30
0.0
 11
6560.2301379999999
 21
5554.6486128640063
 31
0.0
 70
   128
 13
6824.2301379999999
 23
4842.0338967100661
 33
0.0
 14
6296.2301379999999
 24
5354.2908967100648
 34
0.0
1001
ACAD
1000
DSTYLE
1002
{
1070
   288
1070
     1
1070
   172
1070
     1
1070
    40
1040
40.0
1070
   271
1070
     0
1070
   143
1040
0.039
1002
}
  0
DIMENSION
  5
7C17
  8
3
  6
CONTINUOUS
  2
*D11
 10
5556.2301379999999
 20
5449.1783287100652
 30
0.0
 11
5926.2301379999999
 21
5649.1783287100652
 31
0.0
 70
     0
  1
MAX\P850
 13
6296.2301379999999
 23
5354.2908967100648
 33
0.0
 14
5556.2301379999999
 24
4610.0338967100652
 34
0.0
1001
ACAD
1000
DSTYLE
1002
{
1070
   287
1070
     4
1070
    40
1040
40.0
1070
    75
1070
     1
1070
   143
1040
0.039
1070
   172
1070
     1
1070
   271
1070
     0
1070
   279
1070
     1
1070
   288
1070
     1
1002
}
  0
DIMENSION
  5
7C24
  8
3
  6
CONTINUOUS
  2
*D12
 10
6296.2301379999999
 20
2927.3114097100652
 30
0.0
 11
5961.5900719999991
 21
2927.3114097100652
 31
0.0
 70
   128
 13
5609.2301379999999
 23
3222.0338967100652
 33
0.0
 14
6296.2301379999999
 24
3056.1247177100649
 34
0.0
1001
ACAD
1000
DSTYLE
1002
{
1070
   287
1070
     3
1070
    40
1040
40.0
1070
   143
1040
0.039
1070
   172
1070
     1
1070
   271
1070
     0
1070
   279
1070
     0
1070
   288
1070
     1
1002
}
  0
DIMENSION
  5
7C32
  8
3
  6
CONTINUOUS
  2
*D13
 10
6789.2301379999999
 20
2927.3114097100652
 30
0.0
 11
6545.165602
 21
2929.4020317100649
 31
0.0
 70
   128
 13
6296.2301379999999
 23
3056.1247177100649
 33
0.0
 14
6789.2301379999999
 24
3222.0338967100652
 34
0.0
1001
ACAD
1000
DSTYLE
1002
{
1070
   287
1070
     4
1070
    40
1040
40.0
1070
    75
1070
     1
1070
   143
1040
0.039
1070
   172
1070
     1
1070
   271
1070
     0
1070
   279
1070
     1
1070
   288
1070
     1
1002
}
  0
LINE
  5
7C4A
  8
2
  6
CENTER
 10
6296.2301379999999
 20
5142.7119607100658
 30
0.0
 11
6296.2301379999999
 21
3056.1247177100649
 31
0.0
  0
DIMENSION
  5
7C57
  8
3
  6
CONTINUOUS
  2
*D14
 10
4488.9100060000001
 20
7036.7893645992399
 30
0.0
 11
3263.990092999999
 21
7036.7893645992399
 31
0.0
 70
   128
 13
2128.9100060000001
 23
7463.7950435992389
 33
0.0
 14
4488.9100060000001
 24
7463.7950435992389
 34
0.0
1001
ACAD
1000
DSTYLE
1002
{
1070
   287
1070
     3
1070
    40
1040
40.0
1070
   143
1040
0.039
1070
   172
1070
     1
1070
   271
1070
     0
1070
   279
1070
     0
1070
   288
1070
     1
1002
}
  0
DIMENSION
  5
7C64
  8
3
  6
CONTINUOUS
  2
*D15
 10
4838.2100420000006
 20
7463.7950435992389
 30
0.0
 11
4838.2100419999997
 21
8047.0785525992396
 31
0.0
 70
   128
 13
4488.9100060000001
 23
8643.7950435992389
 33
0.0
 14
4488.9100060000001
 24
7463.7950435992389
 34
0.0
 50
90.0
1001
ACAD
1000
DSTYLE
1002
{
1070
   287
1070
     3
1070
    40
1040
40.0
1070
   143
1040
0.039
1070
   172
1070
     1
1070
   271
1070
     0
1070
   279
1070
     0
1070
   288
1070
     1
1002
}
  0
DIMENSION
  5
7C90
  8
3
  6
CONTINUOUS
  2
*D16
 10
1983.9100060000001
 20
5418.3298187100654
 30
0.0
 11
2386.4100060000001
 21
5518.3298187100654
 31
0.0
 70
     0
 13
2788.9100060000001
 23
5234.9830917100653
 33
0.0
 14
1983.9100060000001
 24
4232.0338967100652
 34
0.0
1001
ACAD
1000
DSTYLE
1002
{
1070
   287
1070
     4
1070
    40
1040
40.0
1070
    75
1070
     1
1070
   143
1040
0.039
1070
   172
1070
     1
1070
   271
1070
     0
1070
   279
1070
     1
1070
   288
1070
     1
1002
}
  0
DIMENSION
  5
7CB2
  8
3
  2
*D17
 10
4488.9100060000001
 20
5675.8257927737577
 30
0.0
 11
3194.8339560902532
 21
5675.8257927737577
 31
0.0
 70
   128
 13
1983.9100060000001
 23
4252.0338967100652
 33
0.0
 14
4488.9100060000001
 24
3347.0338967100652
 34
0.0
1001
ACAD
1000
DSTYLE
1002
{
1070
   287
1070
     3
1070
    40
1040
40.0
1070
   143
1040
0.039
1070
   172
1070
     1
1070
   271
1070
     0
1070
   279
1070
     0
1070
   288
1070
     1
1002
}
  0
ENDSEC
  0
EOF
