  0
SECTION
  2
HEADER
  9
$ACADVER
  1
AC1009
  9
$INSBASE
 10
0.0
 20
0.0
 30
0.0
  9
$EXTMIN
 10
0.0
 20
0.0
 30
0.0
  9
$EXTMAX
 10
7350.0
 20
10325.0
 30
0.0
  9
$LIMMIN
 10
0.0
 20
0.0
  9
$LIMMAX
 10
297.0
 20
210.0
  9
$ORTHOMODE
 70
     0
  9
$REGENMODE
 70
     1
  9
$FILLMODE
 70
     0
  9
$QTEXTMODE
 70
     0
  9
$MIRRTEXT
 70
     1
  9
$DRAGMODE
 70
     2
  9
$LTSCALE
 40
100.0
  9
$OSMODE
 70
    37
  9
$ATTMODE
 70
     1
  9
$TEXTSIZE
 40
180.0
  9
$TRACEWID
 40
0.05
  9
$TEXTSTYLE
  7
STANDARD
  9
$CLAYER
  8
3
  9
$CELTYPE
  6
BYLAYER
  9
$CECOLOR
 62
   256
  9
$DIMSCALE
 40
35.0
  9
$DIMASZ
 40
2.0
  9
$DIMEXO
 40
0.5
  9
$DIMDLI
 40
10.0
  9
$DIMRND
 40
0.0
  9
$DIMDLE
 40
0.0
  9
$DIMEXE
 40
1.0
  9
$DIMTP
 40
1.0
  9
$DIMTM
 40
1.0
  9
$DIMTXT
 40
3.0
  9
$DIMCEN
 40
0.0
  9
$DIMTSZ
 40
0.0
  9
$DIMTOL
 70
     0
  9
$DIMLIM
 70
     0
  9
$DIMTIH
 70
     0
  9
$DIMTOH
 70
     0
  9
$DIMSE1
 70
     0
  9
$DIMSE2
 70
     0
  9
$DIMTAD
 70
     1
  9
$DIMZIN
 70
     8
  9
$DIMBLK
  1

  9
$DIMASO
 70
     1
  9
$DIMSHO
 70
     1
  9
$DIMPOST
  1
(<>)
  9
$DIMAPOST
  1

  9
$DIMALT
 70
     0
  9
$DIMALTD
 70
     2
  9
$DIMALTF
 40
0.039
  9
$DIMLFAC
 40
1.0
  9
$DIMTOFL
 70
     1
  9
$DIMTVP
 40
0.0
  9
$DIMTIX
 70
     0
  9
$DIMSOXD
 70
     0
  9
$DIMSAH
 70
     1
  9
$DIMBLK1
  1
OPEN
  9
$DIMBLK2
  1
OPEN
  9
$DIMSTYLE
  2
IGA
  9
$DIMCLRD
 70
     0
  9
$DIMCLRE
 70
     0
  9
$DIMCLRT
 70
     0
  9
$DIMTFAC
 40
10.0
  9
$DIMGAP
 40
1.0
  9
$LUNITS
 70
     2
  9
$LUPREC
 70
     3
  9
$SKETCHINC
 40
0.1
  9
$FILLETRAD
 40
50.0
  9
$AUNITS
 70
     0
  9
$AUPREC
 70
     0
  9
$MENU
  1
acad
  9
$ELEVATION
 40
0.0
  9
$PELEVATION
 40
0.0
  9
$THICKNESS
 40
0.0
  9
$LIMCHECK
 70
     0
  9
$BLIPMODE
 70
     0
  9
$CHAMFERA
 40
0.5
  9
$CHAMFERB
 40
0.5
  9
$SKPOLY
 70
     0
  9
$TDCREATE
 40
2453167.599160763
  9
$TDUPDATE
 40
2454953.7615046292
  9
$TDINDWG
 40
0.0847035417
  9
$TDUSRTIMER
 40
0.0847035417
  9
$USRTIMER
 70
     1
  9
$ANGBASE
 50
0.0
  9
$ANGDIR
 70
     0
  9
$PDMODE
 70
     0
  9
$PDSIZE
 40
0.0
  9
$PLINEWID
 40
0.0
  9
$COORDS
 70
     1
  9
$SPLFRAME
 70
     0
  9
$SPLINETYPE
 70
     6
  9
$SPLINESEGS
 70
     8
  9
$ATTDIA
 70
     0
  9
$ATTREQ
 70
     1
  9
$HANDLING
 70
 10241
  9
$HANDSEED
  5
8794
  9
$SURFTAB1
 70
     6
  9
$SURFTAB2
 70
     6
  9
$SURFTYPE
 70
     6
  9
$SURFU
 70
     6
  9
$SURFV
 70
     6
  9
$UCSNAME
  2

  9
$UCSORG
 10
0.0
 20
0.0
 30
0.0
  9
$UCSXDIR
 10
1.0
 20
0.0
 30
0.0
  9
$UCSYDIR
 10
0.0
 20
1.0
 30
0.0
  9
$PUCSNAME
  2

  9
$PUCSORG
 10
0.0
 20
0.0
 30
0.0
  9
$PUCSXDIR
 10
1.0
 20
0.0
 30
0.0
  9
$PUCSYDIR
 10
0.0
 20
1.0
 30
0.0
  9
$USERI1
 70
     0
  9
$USERI2
 70
     0
  9
$USERI3
 70
     0
  9
$USERI4
 70
     0
  9
$USERI5
 70
     0
  9
$USERR1
 40
0.0
  9
$USERR2
 40
0.0
  9
$USERR3
 40
0.0
  9
$USERR4
 40
0.0
  9
$USERR5
 40
0.0
  9
$WORLDVIEW
 70
     1
  9
$SHADEDGE
 70
     3
  9
$SHADEDIF
 70
    70
  9
$TILEMODE
 70
     1
  9
$MAXACTVP
 70
    16
  9
$PLIMCHECK
 70
     0
  9
$PEXTMIN
 10
1.0000000000000000E+020
 20
1.0000000000000000E+020
 30
1.0000000000000000E+020
  9
$PEXTMAX
 10
-1.0000000000000000E+020
 20
-1.0000000000000000E+020
 30
-1.0000000000000000E+020
  9
$PLIMMIN
 10
0.0
 20
0.0
  9
$PLIMMAX
 10
12.0
 20
9.0
  9
$UNITMODE
 70
     0
  9
$VISRETAIN
 70
     0
  9
$PLINEGEN
 70
     0
  9
$PSLTSCALE
 70
     1
  0
ENDSEC
  0
SECTION
  2
TABLES
  0
TABLE
  2
VPORT
 70
     2
  0
VPORT
  2
*ACTIVE
 70
     0
 10
0.0
 20
0.0
 11
1.0
 21
1.0
 12
12378.134855979781
 22
5162.500024039763
 13
0.0
 23
0.0
 14
10.0
 24
10.0
 15
10.0
 25
10.0
 16
0.0
 26
0.0
 36
1.0
 17
0.0
 27
0.0
 37
0.0
 40
10404.15209055927
 41
3.1666666666666661
 42
50.0
 43
0.0
 44
0.0
 50
0.0
 51
0.0
 71
     0
 72
   100
 73
     1
 74
     0
 75
     0
 76
     0
 77
     0
 78
     0
  0
ENDTAB
  0
TABLE
  2
LTYPE
 70
     2
  0
LTYPE
  2
CONTINUOUS
 70
     0
  3
Solid line
 72
    65
 73
     0
 40
0.0
  0
LTYPE
  2
CENTER
 70
     0
  3
____ _ ____ _ ____ _ ____ _ ____ _ ____ _ ____ 
 72
    65
 73
     4
 40
2.0
 49
1.25
 49
-0.25
 49
0.25
 49
-0.25
  0
ENDTAB
  0
TABLE
  2
LAYER
 70
     6
  0
LAYER
  2
0
 70
     0
 62
     7
  6
CONTINUOUS
  0
LAYER
  2
3
 70
     0
 62
     2
  6
CONTINUOUS
  0
LAYER
  2
2
 70
     0
 62
     3
  6
CENTER
  0
LAYER
  2
1
 70
     0
 62
     4
  6
CONTINUOUS
  0
LAYER
  2
4
 70
     0
 62
     7
  6
CONTINUOUS
  0
LAYER
  2
DEFPOINTS
 70
     0
 62
     7
  6
CONTINUOUS
  0
ENDTAB
  0
TABLE
  2
STYLE
 70
     1
  0
STYLE
  2
STANDARD
 70
     0
 40
0.0
 41
1.0
 50
0.0
 71
     0
 42
180.0
  3
simplex.shx
  4
extfont.shx
  0
ENDTAB
  0
TABLE
  2
VIEW
 70
     0
  0
ENDTAB
  0
TABLE
  2
UCS
 70
     0
  0
ENDTAB
  0
TABLE
  2
APPID
 70
     1
  0
APPID
  2
ACAD
 70
     0
  0
ENDTAB
  0
TABLE
  2
DIMSTYLE
 70
     1
  0
DIMSTYLE
  2
IGA
 70
     0
  3

  4

  5

  6
OPEN
  7
OPEN
 40
2.0
 41
2.0
 42
0.5
 43
10.0
 44
1.0
 45
0.0
 46
0.0
 47
1.0
 48
1.0
140
3.0
141
0.0
142
0.0
143
0.03937
144
1.0
145
0.0
146
10.0
147
1.0
 71
     0
 72
     0
 73
     0
 74
     0
 75
     0
 76
     0
 77
     1
 78
     8
170
     0
171
     2
172
     0
173
     1
174
     0
175
     0
176
     0
177
     0
178
     0
  0
ENDTAB
  0
ENDSEC
  0
SECTION
  2
BLOCKS
  0
BLOCK
  8
0
  2
$MODEL_SPACE
 70
     0
 10
0.0
 20
0.0
 30
0.0
  3
$MODEL_SPACE
  1

  0
ENDBLK
  5
1B
  8
0
  0
BLOCK
 67
     1
  8
0
  2
$PAPER_SPACE
 70
     0
 10
0.0
 20
0.0
 30
0.0
  3
$PAPER_SPACE
  1

  0
ENDBLK
  5
18
 67
     1
  8
0
  0
BLOCK
  8
0
  2
YA_N
 70
     0
 10
0.0
 20
0.0
 30
0.0
  3
YA_N
  1

  0
ENDBLK
  5
79FE
  8
0
  0
BLOCK
  8
0
  2
_OPEN
 70
     0
 10
0.0
 20
0.0
 30
0.0
  3
_OPEN
  1

  0
LINE
  5
7B93
  8
0
  6
BYBLOCK
 62
     0
 10
-1.0
 20
0.1666666666666666
 30
0.0
 11
0.0
 21
0.0
 31
0.0
  0
LINE
  5
7B94
  8
0
  6
BYBLOCK
 62
     0
 10
0.0
 20
0.0
 30
0.0
 11
-1.0
 21
-0.1666666666666666
 31
0.0
  0
LINE
  5
7B95
  8
0
  6
BYBLOCK
 62
     0
 10
0.0
 20
0.0
 30
0.0
 11
-1.0
 21
0.0
 31
0.0
  0
ENDBLK
  5
7B96
  8
0
  0
BLOCK
  8
0
  2
*D2
 70
     1
 10
0.0
 20
0.0
 30
0.0
  3
*D2
  1

  0
LINE
  5
869B
  8
3
 62
     0
 10
2947.0604735312681
 20
7683.7675927715281
 30
0.0
 11
3591.8698919423491
 21
7683.7675927715281
 31
0.0
  0
LINE
  5
869C
  8
3
 62
     0
 10
2947.0604735312681
 20
6693.7675927715281
 30
0.0
 11
3591.8698919423482
 21
6693.7675927715281
 31
0.0
  0
LINE
  5
869D
  8
3
 62
     0
 10
3556.8698919423491
 20
7613.7675927715281
 30
0.0
 11
3556.8698919423491
 21
6763.7675927715281
 31
0.0
  0
INSERT
  5
869E
  8
3
 62
     0
  2
_OPEN
 10
3556.8698919423491
 20
7683.7675927715281
 30
0.0
 41
70.0
 42
70.0
 43
70.0
 50
90.0
  0
INSERT
  5
869F
  8
3
 62
     0
  2
_OPEN
 10
3556.8698919423491
 20
6693.7675927715281
 30
0.0
 41
70.0
 42
70.0
 43
70.0
 50
270.0
  0
TEXT
  8
3
  40
105
  5
877B
  62
0
  72
0
  71
0
 10
3259.37
 20
7005.01
 30
0.000000
  1
990
  0
POINT
  5
86A1
  8
DEFPOINTS
 62
     0
 10
2929.5604735312681
 20
7683.7675927715281
 30
0.0
  0
POINT
  5
86A2
  8
DEFPOINTS
 62
     0
 10
2929.5604735312681
 20
6693.7675927715281
 30
0.0
  0
POINT
  5
86A3
  8
DEFPOINTS
 62
     0
 10
3556.8698919423491
 20
6693.7675927715281
 30
0.0
  0
ENDBLK
  5
7BB0
  8
0
  0
BLOCK
  8
0
  2
*D3
 70
     1
 10
0.0
 20
0.0
 30
0.0
  3
*D3
  1

  0
LINE
  5
86A4
  8
3
 62
     0
 10
2687.0604735312681
 20
5848.7675927715281
 30
0.0
 11
3591.8698919423468
 21
5848.7675927715281
 31
0.0
  0
LINE
  5
86A5
  8
3
 62
     0
 10
3556.8698919423468
 20
6623.7675927715281
 30
0.0
 11
3556.8698919423468
 21
5918.7675927715281
 31
0.0
  0
INSERT
  5
86A6
  8
3
 62
     0
  2
_OPEN
 10
3556.8698919423468
 20
6693.7675927715281
 30
0.0
 41
70.0
 42
70.0
 43
70.0
 50
90.0
  0
INSERT
  5
86A7
  8
3
 62
     0
  2
_OPEN
 10
3556.8698919423468
 20
5848.7675927715281
 30
0.0
 41
70.0
 42
70.0
 43
70.0
 50
270.0
  0
TEXT
  8
3
  40
105
  5
877C
  62
0
  72
0
  71
0
 10
3259.37
 20
6085.42
 30
0.000000
  1
845
  0
POINT
  5
86A9
  8
DEFPOINTS
 62
     0
 10
2929.5604735312681
 20
6693.7675927715281
 30
0.0
  0
POINT
  5
86AA
  8
DEFPOINTS
 62
     0
 10
2669.5604735312681
 20
5848.7675927715281
 30
0.0
  0
POINT
  5
86AB
  8
DEFPOINTS
 62
     0
 10
3556.8698919423468
 20
5848.7675927715281
 30
0.0
  0
ENDBLK
  5
7BBE
  8
0
  0
BLOCK
  8
0
  2
*D4
 70
     1
 10
0.0
 20
0.0
 30
0.0
  3
*D4
  1

  0
LINE
  5
86AC
  8
3
 62
     0
 10
2929.5604735312681
 20
6676.2675927715281
 30
0.0
 11
2929.5604735312681
 21
5351.5740510801079
 31
0.0
  0
LINE
  5
86AD
  8
3
 62
     0
 10
2669.5604735312681
 20
5831.2675927715281
 30
0.0
 11
2669.5604735312681
 21
5351.5740510801079
 31
0.0
  0
LINE
  5
86AE
  8
3
 62
     0
 10
2739.5604735312681
 20
5386.5740510801079
 30
0.0
 11
2859.5604735312681
 21
5386.5740510801079
 31
0.0
  0
LINE
  5
86AF
  8
3
 62
     0
 10
2929.5604735312681
 20
5386.5740510801079
 30
0.0
 11
3339.5604735312681
 21
5386.5740510801079
 31
0.0
  0
INSERT
  5
86B0
  8
3
 62
     0
  2
_OPEN
 10
2669.5604735312681
 20
5386.5740510801079
 30
0.0
 41
70.0
 42
70.0
 43
70.0
 50
180.0
  0
INSERT
  5
86B1
  8
3
 62
     0
  2
_OPEN
 10
2929.5604735312681
 20
5386.5740510801079
 30
0.0
 41
70.0
 42
70.0
 43
70.0
  0
TEXT
  8
3
  40
105
  5
877D
  62
0
  72
0
  71
0
 10
2959.56
 20
5288.22
 30
0.000000
  1
260
  0
POINT
  5
86B3
  8
DEFPOINTS
 62
     0
 10
2929.5604735312681
 20
6693.7675927715281
 30
0.0
  0
POINT
  5
86B4
  8
DEFPOINTS
 62
     0
 10
2669.5604735312681
 20
5848.7675927715281
 30
0.0
  0
POINT
  5
86B5
  8
DEFPOINTS
 62
     0
 10
2669.5604735312681
 20
5386.5740510801079
 30
0.0
  0
ENDBLK
  5
7C30
  8
0
  0
BLOCK
  8
0
  2
*D5
 70
     1
 10
0.0
 20
0.0
 30
0.0
  3
*D5
  1

  0
LINE
  5
86B6
  8
3
 62
     0
 10
1169.5604735312679
 20
5831.2675927715281
 30
0.0
 11
1169.5604735312679
 21
5351.5740510801079
 31
0.0
  0
LINE
  5
86B7
  8
3
 62
     0
 10
2599.5604735312681
 20
5386.5740510801079
 30
0.0
 11
1239.5604735312679
 21
5386.5740510801079
 31
0.0
  0
INSERT
  5
86B8
  8
3
 62
     0
  2
_OPEN
 10
2669.5604735312681
 20
5386.5740510801079
 30
0.0
 41
70.0
 42
70.0
 43
70.0
  0
INSERT
  5
86B9
  8
3
 62
     0
  2
_OPEN
 10
1169.5604735312679
 20
5386.5740510801079
 30
0.0
 41
70.0
 42
70.0
 43
70.0
 50
180.0
  0
TEXT
  8
3
  40
105
  5
877E
  62
0
  72
0
  71
0
 10
1709.56
 20
5288.22
 30
0.000000
  1
1500
  0
POINT
  5
86BB
  8
DEFPOINTS
 62
     0
 10
2669.5604735312681
 20
5848.7675927715281
 30
0.0
  0
POINT
  5
86BC
  8
DEFPOINTS
 62
     0
 10
1169.5604735312679
 20
5848.7675927715281
 30
0.0
  0
POINT
  5
86BD
  8
DEFPOINTS
 62
     0
 10
1169.5604735312679
 20
5386.5740510801079
 30
0.0
  0
ENDBLK
  5
7C24
  8
0
  0
BLOCK
  8
0
  2
*D6
 70
     1
 10
0.0
 20
0.0
 30
0.0
  3
*D6
  1

  0
LINE
  5
86BE
  8
3
 62
     0
 10
1152.0604735312679
 20
5848.7675927715281
 30
0.0
 11
704.16869267066875
 21
5848.7675927715281
 31
0.0
  0
LINE
  5
86BF
  8
3
 62
     0
 10
1152.0604735312679
 20
6758.7675927715263
 30
0.0
 11
704.16869267066909
 21
6758.7675927715263
 31
0.0
  0
LINE
  5
86C0
  8
3
 62
     0
 10
739.16869267066897
 20
5918.7675927715281
 30
0.0
 11
739.16869267066897
 21
6688.7675927715263
 31
0.0
  0
INSERT
  5
86C1
  8
3
 62
     0
  2
_OPEN
 10
739.16869267066886
 20
5848.7675927715281
 30
0.0
 41
70.0
 42
70.0
 43
70.0
 50
270.0
  0
INSERT
  5
86C2
  8
3
 62
     0
  2
_OPEN
 10
739.16869267066897
 20
6758.7675927715263
 30
0.0
 41
70.0
 42
70.0
 43
70.0
 50
90.0
  0
TEXT
  8
3
  40
105
  5
877F
  62
0
  72
0
  71
0
 10
441.669
 20
6072.36
 30
0.000000
  1
910
  0
POINT
  5
86C4
  8
DEFPOINTS
 62
     0
 10
1169.5604735312679
 20
5848.7675927715281
 30
0.0
  0
POINT
  5
86C5
  8
DEFPOINTS
 62
     0
 10
1169.5604735312679
 20
6758.7675927715263
 30
0.0
  0
POINT
  5
86C6
  8
DEFPOINTS
 62
     0
 10
739.16869267066897
 20
6758.7675927715263
 30
0.0
  0
ENDBLK
  5
7BF2
  8
0
  0
BLOCK
  8
0
  2
*D7
 70
     1
 10
0.0
 20
0.0
 30
0.0
  3
*D7
  1

  0
LINE
  5
86C7
  8
3
 62
     0
 10
1592.0604735312679
 20
7683.7675927715281
 30
0.0
 11
704.16869267066795
 21
7683.7675927715281
 31
0.0
  0
LINE
  5
86C8
  8
3
 62
     0
 10
739.16869267066772
 20
6828.7675927715272
 30
0.0
 11
739.16869267066795
 21
7613.7675927715281
 31
0.0
  0
INSERT
  5
86C9
  8
3
 62
     0
  2
_OPEN
 10
739.16869267066772
 20
6758.7675927715263
 30
0.0
 41
70.0
 42
70.0
 43
70.0
 50
270.0
  0
INSERT
  5
86CA
  8
3
 62
     0
  2
_OPEN
 10
739.16869267066795
 20
7683.7675927715281
 30
0.0
 41
70.0
 42
70.0
 43
70.0
 50
90.0
  0
TEXT
  8
3
  40
105
  5
8780
  62
0
  72
0
  71
0
 10
441.669
 20
7035.42
 30
0.000000
  1
925
  0
POINT
  5
86CC
  8
DEFPOINTS
 62
     0
 10
1169.5604735312679
 20
6758.7675927715263
 30
0.0
  0
POINT
  5
86CD
  8
DEFPOINTS
 62
     0
 10
1609.5604735312679
 20
7683.7675927715281
 30
0.0
  0
POINT
  5
86CE
  8
DEFPOINTS
 62
     0
 10
739.16869267066795
 20
7683.7675927715281
 30
0.0
  0
ENDBLK
  5
7BFE
  8
0
  0
BLOCK
  8
0
  2
*D8
 70
     1
 10
0.0
 20
0.0
 30
0.0
  3
*D8
  1

  0
LINE
  5
86CF
  8
3
 62
     0
 10
1169.5604735312679
 20
6776.2675927715263
 30
0.0
 11
1169.5604735312679
 21
7949.311000374676
 31
0.0
  0
LINE
  5
86D0
  8
3
 62
     0
 10
1609.5604735312679
 20
7701.2675927715281
 30
0.0
 11
1609.5604735312679
 21
7949.311000374676
 31
0.0
  0
LINE
  5
86D1
  8
3
 62
     0
 10
1099.5604735312679
 20
7914.311000374677
 30
0.0
 11
1029.5604735312679
 21
7914.311000374677
 31
0.0
  0
LINE
  5
86D2
  8
3
 62
     0
 10
1679.5604735312679
 20
7914.311000374677
 30
0.0
 11
1749.5604735312679
 21
7914.311000374677
 31
0.0
  0
LINE
  5
86D3
  8
3
 62
     0
 10
1169.5604735312679
 20
7914.311000374677
 30
0.0
 11
1609.5604735312679
 21
7914.311000374677
 31
0.0
  0
INSERT
  5
86D4
  8
3
 62
     0
  2
_OPEN
 10
1169.5604735312679
 20
7914.311000374677
 30
0.0
 41
70.0
 42
70.0
 43
70.0
  0
INSERT
  5
86D5
  8
3
 62
     0
  2
_OPEN
 10
1609.5604735312679
 20
7914.311000374677
 30
0.0
 41
70.0
 42
70.0
 43
70.0
 50
180.0
  0
TEXT
  8
3
  40
105
  5
8781
  62
0
  72
0
  71
0
 10
1179.56
 20
7815.96
 30
0.000000
  1
440
  0
POINT
  5
86D7
  8
DEFPOINTS
 62
     0
 10
1169.5604735312679
 20
6758.7675927715263
 30
0.0
  0
POINT
  5
86D8
  8
DEFPOINTS
 62
     0
 10
1609.5604735312679
 20
7683.7675927715281
 30
0.0
  0
POINT
  5
86D9
  8
DEFPOINTS
 62
     0
 10
1609.5604735312679
 20
7914.311000374677
 30
0.0
  0
ENDBLK
  5
7C0D
  8
0
  0
BLOCK
  8
0
  2
*D9
 70
     1
 10
0.0
 20
0.0
 30
0.0
  3
*D9
  1

  0
LINE
  5
86DA
  8
3
 62
     0
 10
2929.5604735312681
 20
7701.2675927715281
 30
0.0
 11
2929.5604735312681
 21
7949.311000374676
 31
0.0
  0
LINE
  5
86DB
  8
3
 62
     0
 10
1679.5604735312679
 20
7914.311000374677
 30
0.0
 11
2859.5604735312681
 21
7914.311000374677
 31
0.0
  0
INSERT
  5
86DC
  8
3
 62
     0
  2
_OPEN
 10
1609.5604735312679
 20
7914.311000374677
 30
0.0
 41
70.0
 42
70.0
 43
70.0
 50
180.0
  0
INSERT
  5
86DD
  8
3
 62
     0
  2
_OPEN
 10
2929.5604735312681
 20
7914.311000374677
 30
0.0
 41
70.0
 42
70.0
 43
70.0
  0
TEXT
  8
3
  40
105
  5
8782
  62
0
  72
0
  71
0
 10
2059.56
 20
7815.96
 30
0.000000
  1
1320
  0
POINT
  5
86DF
  8
DEFPOINTS
 62
     0
 10
1609.5604735312679
 20
7683.7675927715281
 30
0.0
  0
POINT
  5
86E0
  8
DEFPOINTS
 62
     0
 10
2929.5604735312681
 20
7683.7675927715281
 30
0.0
  0
POINT
  5
86E1
  8
DEFPOINTS
 62
     0
 10
2929.5604735312681
 20
7914.311000374677
 30
0.0
  0
ENDBLK
  5
7C19
  8
0
  0
BLOCK
  8
0
  2
*D10
 70
     1
 10
0.0
 20
0.0
 30
0.0
  3
*D10
  1

  0
LINE
  5
86E2
  8
3
 62
     0
 10
5332.9400047573108
 20
4625.9511595622726
 30
0.0
 11
5332.9400047573108
 21
4825.7827828865084
 31
0.0
  0
LINE
  5
86E3
  8
3
 62
     0
 10
6182.9400047573126
 20
4625.9511595622716
 30
0.0
 11
6182.9400047573126
 21
4825.7827828865084
 31
0.0
  0
LINE
  5
86E4
  8
3
 62
     0
 10
5402.9400047573108
 20
4790.7827828865084
 30
0.0
 11
6112.9400047573117
 21
4790.7827828865084
 31
0.0
  0
INSERT
  5
86E5
  8
3
 62
     0
  2
_OPEN
 10
5332.9400047573108
 20
4790.7827828865084
 30
0.0
 41
70.0
 42
70.0
 43
70.0
 50
180.0
  0
INSERT
  5
86E6
  8
3
 62
     0
  2
_OPEN
 10
6182.9400047573126
 20
4790.7827828865084
 30
0.0
 41
70.0
 42
70.0
 43
70.0
  0
TEXT
  8
3
  40
105
  5
8783
  62
0
  72
0
  71
0
 10
5550.71
 20
4692.43
 30
0.000000
  1
850
  0
POINT
  5
86E8
  8
DEFPOINTS
 62
     0
 10
5332.9400047573108
 20
4608.4511595622744
 30
0.0
  0
POINT
  5
86E9
  8
DEFPOINTS
 62
     0
 10
6182.9400047573126
 20
4608.4511595622726
 30
0.0
  0
POINT
  5
86EA
  8
DEFPOINTS
 62
     0
 10
6182.9400047573126
 20
4790.7827828865084
 30
0.0
  0
ENDBLK
  5
83E7
  8
0
  0
BLOCK
  8
0
  2
*D11
 70
     1
 10
0.0
 20
0.0
 30
0.0
  3
*D11
  1

  0
LINE
  5
86EB
  8
3
 62
     0
 10
5757.9400047573081
 20
4959.6986065788878
 30
0.0
 11
5757.9400047573081
 21
5103.7589339639599
 31
0.0
  0
LINE
  5
86EC
  8
3
 62
     0
 10
6193.2400047573092
 20
4625.9511595622716
 30
0.0
 11
6193.2400047573092
 21
5103.7589339639599
 31
0.0
  0
LINE
  5
86ED
  8
3
 62
     0
 10
5687.9400047573081
 20
5068.7589339639599
 30
0.0
 11
5617.9400047573081
 21
5068.7589339639599
 31
0.0
  0
LINE
  5
86EE
  8
3
 62
     0
 10
6263.2400047573092
 20
5068.7589339639599
 30
0.0
 11
6333.2400047573101
 21
5068.7589339639599
 31
0.0
  0
LINE
  5
86EF
  8
3
 62
     0
 10
5757.9400047573081
 20
5068.7589339639599
 30
0.0
 11
6193.2400047573092
 21
5068.7589339639599
 31
0.0
  0
INSERT
  5
86F0
  8
3
 62
     0
  2
_OPEN
 10
5757.9400047573081
 20
5068.7589339639599
 30
0.0
 41
70.0
 42
70.0
 43
70.0
  0
INSERT
  5
86F1
  8
3
 62
     0
  2
_OPEN
 10
6193.2400047573092
 20
5068.7589339639599
 30
0.0
 41
70.0
 42
70.0
 43
70.0
 50
180.0
  0
TEXT
  8
3
  40
105
  5
8784
  62
0
  72
0
  71
0
 10
5765.59
 20
4970.41
 30
0.000000
  1
435
  0
POINT
  5
86F3
  8
DEFPOINTS
 62
     0
 10
5757.9400047573081
 20
4942.1986065788869
 30
0.0
  0
POINT
  5
86F4
  8
DEFPOINTS
 62
     0
 10
6193.2400047573092
 20
4608.4511595622726
 30
0.0
  0
POINT
  5
86F5
  8
DEFPOINTS
 62
     0
 10
6193.2400047573092
 20
5068.7589339639599
 30
0.0
  0
ENDBLK
  5
8408
  8
0
  0
BLOCK
  8
0
  2
*D12
 70
     1
 10
0.0
 20
0.0
 30
0.0
  3
*D12
  1

  0
LINE
  5
86F6
  8
3
 62
     0
 10
4270.940004757309
 20
3359.9511595622712
 30
0.0
 11
4270.940004757309
 21
5103.7589339639599
 31
0.0
  0
LINE
  5
86F7
  8
3
 62
     0
 10
5687.9400047573081
 20
5068.7589339639599
 30
0.0
 11
4340.940004757309
 21
5068.7589339639599
 31
0.0
  0
INSERT
  5
86F8
  8
3
 62
     0
  2
_OPEN
 10
5757.9400047573081
 20
5068.7589339639599
 30
0.0
 41
70.0
 42
70.0
 43
70.0
  0
INSERT
  5
86F9
  8
3
 62
     0
  2
_OPEN
 10
4270.940004757309
 20
5068.7589339639599
 30
0.0
 41
70.0
 42
70.0
 43
70.0
 50
180.0
  0
TEXT
  8
3
  40
105
  5
8785
  62
0
  72
0
  71
0
 10
4804.44
 20
5057.91
 30
0.000000
  1
MAX
  0
TEXT
  8
3
  40
105
  5
8786
  62
0
  72
0
  71
0
 10
4804.44
 20
4921.41
 30
0.000000
  1
1530
  0
POINT
  5
86FB
  8
DEFPOINTS
 62
     0
 10
5757.9400047573081
 20
4942.1986065788869
 30
0.0
  0
POINT
  5
86FC
  8
DEFPOINTS
 62
     0
 10
4270.940004757309
 20
3342.4511595622712
 30
0.0
  0
POINT
  5
86FD
  8
DEFPOINTS
 62
     0
 10
4270.940004757309
 20
5068.7589339639599
 30
0.0
  0
ENDBLK
  5
83FB
  8
0
  0
BLOCK
  8
0
  2
_DOT
 70
     0
 10
0.0
 20
0.0
 30
0.0
  3
_DOT
  1

  0
LINE
  5
7E13
  8
0
  6
BYBLOCK
 62
     0
 10
0.0
 20
0.0
 30
0.0
 11
-1.0
 21
-0.0000000000000284
 31
0.0
  0
POLYLINE
  5
7E14
  8
0
  6
BYBLOCK
 62
     0
 66
     1
 10
0.0
 20
0.0
 30
0.0
 70
     1
 40
0.1666666666666666
 41
0.1666666666666666
  0
VERTEX
  5
86FE
  8
0
  6
BYBLOCK
 62
     0
 10
-0.0833333333333286
 20
-0.0000000000000284
 30
0.0
 42
1.0
  0
VERTEX
  5
86FF
  8
0
  6
BYBLOCK
 62
     0
 10
0.0833333333333286
 20
-0.0000000000000284
 30
0.0
 42
1.0
  0
SEQEND
  5
8700
  8
0
  6
BYBLOCK
 62
     0
  0
ENDBLK
  5
7DF9
  8
0
  0
BLOCK
  8
0
  2
*D14
 70
     1
 10
0.0
 20
0.0
 30
0.0
  3
*D14
  1

  0
LINE
  5
8701
  8
3
 62
     0
 10
3047.0604735312668
 20
4605.4511595622726
 30
0.0
 11
3317.5804215287421
 21
4605.4511595622726
 31
0.0
  0
LINE
  5
8702
  8
3
 62
     0
 10
3047.0604735312668
 20
3455.4511595622721
 30
0.0
 11
3317.5804215287421
 21
3455.4511595622721
 31
0.0
  0
LINE
  5
8703
  8
3
 62
     0
 10
3282.5804215287421
 20
4535.4511595622716
 30
0.0
 11
3282.5804215287421
 21
3525.4511595622721
 31
0.0
  0
INSERT
  5
8704
  8
3
 62
     0
  2
_OPEN
 10
3282.5804215287421
 20
4605.4511595622726
 30
0.0
 41
70.0
 42
70.0
 43
70.0
 50
90.0
  0
INSERT
  5
8705
  8
3
 62
     0
  2
_OPEN
 10
3282.5804215287421
 20
3455.4511595622721
 30
0.0
 41
70.0
 42
70.0
 43
70.0
 50
270.0
  0
TEXT
  8
3
  40
105
  5
8787
  62
0
  72
0
  71
0
 10
2985.08
 20
3844.60
 30
0.000000
  1
1150
  0
POINT
  5
8707
  8
DEFPOINTS
 62
     0
 10
3029.5604735312668
 20
4605.4511595622726
 30
0.0
  0
POINT
  5
8708
  8
DEFPOINTS
 62
     0
 10
3029.5604735312668
 20
3455.4511595622721
 30
0.0
  0
POINT
  5
8709
  8
DEFPOINTS
 62
     0
 10
3282.5804215287421
 20
3455.4511595622721
 30
0.0
  0
ENDBLK
  5
8414
  8
0
  0
BLOCK
  8
0
  2
*D15
 70
     1
 10
0.0
 20
0.0
 30
0.0
  3
*D15
  1

  0
LINE
  5
870A
  8
3
 62
     0
 10
3047.0604735312668
 20
4605.4511595622726
 30
0.0
 11
3549.1084372402179
 21
4605.4511595622726
 31
0.0
  0
LINE
  5
870B
  8
3
 62
     0
 10
3171.0563643124451
 20
3407.4511595622721
 30
0.0
 11
3549.1084372402179
 21
3407.4511595622721
 31
0.0
  0
LINE
  5
870C
  8
3
 62
     0
 10
3514.1084372402179
 20
4535.4511595622716
 30
0.0
 11
3514.1084372402179
 21
3477.451159562273
 31
0.0
  0
INSERT
  5
870D
  8
3
 62
     0
  2
_OPEN
 10
3514.1084372402179
 20
4605.4511595622726
 30
0.0
 41
70.0
 42
70.0
 43
70.0
 50
90.0
  0
INSERT
  5
870E
  8
3
 62
     0
  2
_OPEN
 10
3514.1084372402179
 20
3407.4511595622721
 30
0.0
 41
70.0
 42
70.0
 43
70.0
 50
270.0
  0
TEXT
  8
3
  40
105
  5
8788
  62
0
  72
0
  71
0
 10
3216.61
 20
3820.60
 30
0.000000
  1
1198
  0
POINT
  5
8710
  8
DEFPOINTS
 62
     0
 10
3029.5604735312668
 20
4605.4511595622726
 30
0.0
  0
POINT
  5
8711
  8
DEFPOINTS
 62
     0
 10
3153.5563643124451
 20
3407.4511595622721
 30
0.0
  0
POINT
  5
8712
  8
DEFPOINTS
 62
     0
 10
3514.1084372402179
 20
3407.4511595622721
 30
0.0
  0
ENDBLK
  5
8421
  8
0
  0
BLOCK
  8
0
  2
*D16
 70
     1
 10
0.0
 20
0.0
 30
0.0
  3
*D16
  1

  0
LINE
  5
8713
  8
3
 62
     0
 10
2947.0604735312681
 20
2567.4511595622721
 30
0.0
 11
3549.1084372402179
 21
2567.4511595622721
 31
0.0
  0
LINE
  5
8714
  8
3
 62
     0
 10
3514.1084372402188
 20
3337.4511595622721
 30
0.0
 11
3514.1084372402179
 21
2637.4511595622721
 31
0.0
  0
INSERT
  5
8715
  8
3
 62
     0
  2
_OPEN
 10
3514.1084372402188
 20
3407.4511595622721
 30
0.0
 41
70.0
 42
70.0
 43
70.0
 50
90.0
  0
INSERT
  5
8716
  8
3
 62
     0
  2
_OPEN
 10
3514.1084372402179
 20
2567.4511595622721
 30
0.0
 41
70.0
 42
70.0
 43
70.0
 50
270.0
  0
TEXT
  8
3
  40
105
  5
8789
  62
0
  72
0
  71
0
 10
3216.61
 20
2801.60
 30
0.000000
  1
840
  0
POINT
  5
8718
  8
DEFPOINTS
 62
     0
 10
3153.5563643124451
 20
3407.4511595622721
 30
0.0
  0
POINT
  5
8719
  8
DEFPOINTS
 62
     0
 10
2929.5604735312681
 20
2567.4511595622721
 30
0.0
  0
POINT
  5
871A
  8
DEFPOINTS
 62
     0
 10
3514.1084372402179
 20
2567.4511595622721
 30
0.0
  0
ENDBLK
  5
842D
  8
0
  0
BLOCK
  8
0
  2
*D17
 70
     1
 10
0.0
 20
0.0
 30
0.0
  3
*D17
  1

  0
LINE
  5
871B
  8
3
 62
     0
 10
3029.5604735312668
 20
4675.9511595622726
 30
0.0
 11
3029.5604735312668
 21
4864.2724630194898
 31
0.0
  0
LINE
  5
871C
  8
3
 62
     0
 10
2269.5604735312681
 20
4669.2406811313595
 30
0.0
 11
2269.5604735312681
 21
4864.2724630194898
 31
0.0
  0
LINE
  5
871D
  8
3
 62
     0
 10
2959.5604735312668
 20
4829.2724630194889
 30
0.0
 11
2339.5604735312681
 21
4829.2724630194889
 31
0.0
  0
INSERT
  5
871E
  8
3
 62
     0
  2
_OPEN
 10
3029.5604735312668
 20
4829.2724630194889
 30
0.0
 41
70.0
 42
70.0
 43
70.0
  0
INSERT
  5
871F
  8
3
 62
     0
  2
_OPEN
 10
2269.5604735312681
 20
4829.2724630194889
 30
0.0
 41
70.0
 42
70.0
 43
70.0
 50
180.0
  0
TEXT
  8
3
  40
105
  5
878A
  62
0
  72
0
  71
0
 10
2439.56
 20
4730.92
 30
0.000000
  1
760
  0
POINT
  5
8721
  8
DEFPOINTS
 62
     0
 10
3029.5604735312668
 20
4658.4511595622726
 30
0.0
  0
POINT
  5
8722
  8
DEFPOINTS
 62
     0
 10
2269.5604735312681
 20
4651.7406811313604
 30
0.0
  0
POINT
  5
8723
  8
DEFPOINTS
 62
     0
 10
2269.5604735312681
 20
4829.2724630194889
 30
0.0
  0
ENDBLK
  5
856F
  8
0
  0
BLOCK
  8
0
  2
*D18
 70
     1
 10
0.0
 20
0.0
 30
0.0
  3
*D18
  1

  0
LINE
  5
8724
  8
3
 62
     0
 10
1300.5604735312679
 20
3506.951159562273
 30
0.0
 11
1300.5604735312679
 21
4864.2724630194898
 31
0.0
  0
LINE
  5
8725
  8
3
 62
     0
 10
2199.5604735312681
 20
4829.2724630194889
 30
0.0
 11
1370.5604735312679
 21
4829.2724630194889
 31
0.0
  0
INSERT
  5
8726
  8
3
 62
     0
  2
_OPEN
 10
2269.5604735312681
 20
4829.2724630194889
 30
0.0
 41
70.0
 42
70.0
 43
70.0
  0
INSERT
  5
8727
  8
3
 62
     0
  2
_OPEN
 10
1300.5604735312679
 20
4829.2724630194889
 30
0.0
 41
70.0
 42
70.0
 43
70.0
 50
180.0
  0
TEXT
  8
3
  40
105
  5
878B
  62
0
  72
0
  71
0
 10
1575.06
 20
4730.92
 30
0.000000
  1
969
  0
POINT
  5
8729
  8
DEFPOINTS
 62
     0
 10
2269.5604735312681
 20
4651.7406811313604
 30
0.0
  0
POINT
  5
872A
  8
DEFPOINTS
 62
     0
 10
1300.5604735312679
 20
3489.4511595622721
 30
0.0
  0
POINT
  5
872B
  8
DEFPOINTS
 62
     0
 10
1300.5604735312679
 20
4829.2724630194889
 30
0.0
  0
ENDBLK
  5
857B
  8
0
  0
BLOCK
  8
0
  2
*D19
 70
     1
 10
0.0
 20
0.0
 30
0.0
  3
*D19
  1

  0
LINE
  5
872C
  8
3
 62
     0
 10
6202.4400047573126
 20
3967.4511595622712
 30
0.0
 11
6540.9576547920869
 21
3967.4511595622712
 31
0.0
  0
LINE
  5
872D
  8
3
 62
     0
 10
6202.4400047573081
 20
2847.4511595622712
 30
0.0
 11
6540.9576547920869
 21
2847.4511595622712
 31
0.0
  0
LINE
  5
872E
  8
3
 62
     0
 10
6505.9576547920879
 20
3897.4511595622712
 30
0.0
 11
6505.9576547920879
 21
2917.4511595622721
 31
0.0
  0
INSERT
  5
872F
  8
3
 62
     0
  2
_OPEN
 10
6505.9576547920879
 20
3967.4511595622712
 30
0.0
 41
70.0
 42
70.0
 43
70.0
 50
90.0
  0
INSERT
  5
8730
  8
3
 62
     0
  2
_OPEN
 10
6505.9576547920879
 20
2847.4511595622712
 30
0.0
 41
70.0
 42
70.0
 43
70.0
 50
270.0
  0
TEXT
  8
3
  40
105
  5
878C
  62
0
  72
0
  71
0
 10
6208.46
 20
3221.60
 30
0.000000
  1
φ1120
  0
POINT
  5
8732
  8
DEFPOINTS
 62
     0
 10
6184.9400047573117
 20
3967.4511595622712
 30
0.0
  0
POINT
  5
8733
  8
DEFPOINTS
 62
     0
 10
6184.9400047573081
 20
2847.4511595622712
 30
0.0
  0
POINT
  5
8734
  8
DEFPOINTS
 62
     0
 10
6505.9576547920879
 20
2847.4511595622712
 30
0.0
  0
ENDBLK
  5
8596
  8
0
  0
BLOCK
  8
0
  2
*D20
 70
     1
 10
0.0
 20
0.0
 30
0.0
  3
*D20
  1

  0
LINE
  5
8735
  8
3
 62
     0
 10
1169.5604735312691
 20
2309.9511595622721
 30
0.0
 11
1169.5604735312691
 21
2038.566646324289
 31
0.0
  0
LINE
  5
8736
  8
3
 62
     0
 10
2269.5604735312681
 20
2309.951159562273
 30
0.0
 11
2269.5604735312681
 21
2038.566646324289
 31
0.0
  0
LINE
  5
8737
  8
3
 62
     0
 10
1239.56047353127
 20
2073.5666463242892
 30
0.0
 11
2199.5604735312681
 21
2073.5666463242892
 31
0.0
  0
INSERT
  5
8738
  8
3
 62
     0
  2
_OPEN
 10
1169.5604735312691
 20
2073.5666463242892
 30
0.0
 41
70.0
 42
70.0
 43
70.0
 50
180.0
  0
INSERT
  5
8739
  8
3
 62
     0
  2
_OPEN
 10
2269.5604735312681
 20
2073.5666463242892
 30
0.0
 41
70.0
 42
70.0
 43
70.0
  0
TEXT
  8
3
  40
105
  5
878D
  62
0
  72
0
  71
0
 10
1509.56
 20
1975.22
 30
0.000000
  1
1100
  0
POINT
  5
873B
  8
DEFPOINTS
 62
     0
 10
1169.5604735312691
 20
2327.4511595622721
 30
0.0
  0
POINT
  5
873C
  8
DEFPOINTS
 62
     0
 10
2269.5604735312681
 20
2327.451159562273
 30
0.0
  0
POINT
  5
873D
  8
DEFPOINTS
 62
     0
 10
2269.5604735312681
 20
2073.5666463242892
 30
0.0
  0
ENDBLK
  5
85DE
  8
0
  0
BLOCK
  8
0
  2
*D21
 70
     1
 10
0.0
 20
0.0
 30
0.0
  3
*D21
  1

  0
LINE
  5
873E
  8
3
 62
     0
 10
2269.5604735312681
 20
2309.951159562273
 30
0.0
 11
2269.5604735312681
 21
2038.566646324289
 31
0.0
  0
LINE
  5
873F
  8
3
 62
     0
 10
2929.5604735312681
 20
2309.9511595622721
 30
0.0
 11
2929.5604735312681
 21
2038.566646324289
 31
0.0
  0
LINE
  5
8740
  8
3
 62
     0
 10
2339.5604735312681
 20
2073.5666463242892
 30
0.0
 11
2859.5604735312681
 21
2073.5666463242892
 31
0.0
  0
INSERT
  5
8741
  8
3
 62
     0
  2
_OPEN
 10
2269.5604735312681
 20
2073.5666463242892
 30
0.0
 41
70.0
 42
70.0
 43
70.0
 50
180.0
  0
INSERT
  5
8742
  8
3
 62
     0
  2
_OPEN
 10
2929.5604735312681
 20
2073.5666463242892
 30
0.0
 41
70.0
 42
70.0
 43
70.0
  0
TEXT
  8
3
  40
105
  5
878E
  62
0
  72
0
  71
0
 10
2389.56
 20
1975.22
 30
0.000000
  1
660
  0
POINT
  5
8744
  8
DEFPOINTS
 62
     0
 10
2269.5604735312681
 20
2327.451159562273
 30
0.0
  0
POINT
  5
8745
  8
DEFPOINTS
 62
     0
 10
2929.5604735312681
 20
2327.4511595622721
 30
0.0
  0
POINT
  5
8746
  8
DEFPOINTS
 62
     0
 10
2929.5604735312681
 20
2073.5666463242892
 30
0.0
  0
ENDBLK
  5
85EB
  8
0
  0
BLOCK
  8
0
  2
*D22
 70
     1
 10
0.0
 20
0.0
 30
0.0
  3
*D22
  1

  0
LINE
  5
8747
  8
3
 62
     0
 10
4417.9400047573081
 20
2309.9511595622721
 30
0.0
 11
4417.9400047573081
 21
2038.566646324289
 31
0.0
  0
LINE
  5
8748
  8
3
 62
     0
 10
5757.9400047573081
 20
2309.9511595622721
 30
0.0
 11
5757.9400047573081
 21
2038.566646324289
 31
0.0
  0
LINE
  5
8749
  8
3
 62
     0
 10
4487.940004757309
 20
2073.5666463242892
 30
0.0
 11
5687.940004757309
 21
2073.5666463242892
 31
0.0
  0
INSERT
  5
874A
  8
3
 62
     0
  2
_OPEN
 10
4417.9400047573081
 20
2073.5666463242892
 30
0.0
 41
70.0
 42
70.0
 43
70.0
 50
180.0
  0
INSERT
  5
874B
  8
3
 62
     0
  2
_OPEN
 10
5757.9400047573081
 20
2073.5666463242892
 30
0.0
 41
70.0
 42
70.0
 43
70.0
  0
TEXT
  8
3
  40
105
  5
878F
  62
0
  72
0
  71
0
 10
4877.94
 20
1975.22
 30
0.000000
  1
1340
  0
POINT
  5
874D
  8
DEFPOINTS
 62
     0
 10
4417.9400047573081
 20
2327.4511595622721
 30
0.0
  0
POINT
  5
874E
  8
DEFPOINTS
 62
     0
 10
5757.9400047573081
 20
2327.4511595622721
 30
0.0
  0
POINT
  5
874F
  8
DEFPOINTS
 62
     0
 10
5757.9400047573081
 20
2073.5666463242892
 30
0.0
  0
ENDBLK
  5
85F8
  8
0
  0
BLOCK
  8
0
  2
*D23
 70
     1
 10
0.0
 20
0.0
 30
0.0
  3
*D23
  1

  0
LINE
  5
8750
  8
3
 62
     0
 10
5757.9400047573081
 20
2309.9511595622721
 30
0.0
 11
5757.9400047573081
 21
2038.566646324289
 31
0.0
  0
LINE
  5
8751
  8
3
 62
     0
 10
6252.940004757309
 20
2309.9511595622721
 30
0.0
 11
6252.940004757309
 21
2038.566646324289
 31
0.0
  0
LINE
  5
8752
  8
3
 62
     0
 10
5827.940004757309
 20
2073.5666463242892
 30
0.0
 11
6182.9400047573099
 21
2073.5666463242892
 31
0.0
  0
INSERT
  5
8753
  8
3
 62
     0
  2
_OPEN
 10
5757.9400047573081
 20
2073.5666463242892
 30
0.0
 41
70.0
 42
70.0
 43
70.0
 50
180.0
  0
INSERT
  5
8754
  8
3
 62
     0
  2
_OPEN
 10
6252.940004757309
 20
2073.5666463242892
 30
0.0
 41
70.0
 42
70.0
 43
70.0
  0
TEXT
  8
3
  40
105
  5
8790
  62
0
  72
0
  71
0
 10
5795.44
 20
1975.22
 30
0.000000
  1
495
  0
POINT
  5
8756
  8
DEFPOINTS
 62
     0
 10
5757.9400047573081
 20
2327.4511595622721
 30
0.0
  0
POINT
  5
8757
  8
DEFPOINTS
 62
     0
 10
6252.940004757309
 20
2327.4511595622721
 30
0.0
  0
POINT
  5
8758
  8
DEFPOINTS
 62
     0
 10
6252.940004757309
 20
2073.5666463242892
 30
0.0
  0
ENDBLK
  5
8605
  8
0
  0
BLOCK
  8
0
  2
*D24
 70
     1
 10
0.0
 20
0.0
 30
0.0
  3
*D24
  1

  0
LINE
  5
8759
  8
3
 62
     0
 10
2947.0604735312681
 20
2452.4511595622721
 30
0.0
 11
3546.2357506761691
 21
2452.4511595622721
 31
0.0
  0
LINE
  5
875A
  8
3
 62
     0
 10
2947.0604735312681
 20
2327.4511595622721
 30
0.0
 11
3546.2357506761691
 21
2327.4511595622721
 31
0.0
  0
LINE
  5
875B
  8
3
 62
     0
 10
3511.2357506761691
 20
2522.4511595622721
 30
0.0
 11
3511.2357506761691
 21
2592.4511595622721
 31
0.0
  0
LINE
  5
875C
  8
3
 62
     0
 10
3511.2357506761691
 20
2257.4511595622712
 30
0.0
 11
3511.2357506761691
 21
1867.4511595622721
 31
0.0
  0
LINE
  5
875D
  8
3
 62
     0
 10
3511.2357506761691
 20
2452.4511595622721
 30
0.0
 11
3511.2357506761691
 21
2327.4511595622721
 31
0.0
  0
INSERT
  5
875E
  8
3
 62
     0
  2
_DOT
 10
3511.2357506761691
 20
2452.4511595622721
 30
0.0
 41
70.0
 42
70.0
 43
70.0
 50
270.0
  0
INSERT
  5
875F
  8
3
 62
     0
  2
_OPEN
 10
3511.2357506761691
 20
2327.4511595622721
 30
0.0
 41
70.0
 42
70.0
 43
70.0
 50
90.0
  0
TEXT
  8
3
  40
105
  5
8791
  62
0
  72
0
  71
0
 10
3213.74
 20
1841.60
 30
0.000000
  1
125
  0
POINT
  5
8761
  8
DEFPOINTS
 62
     0
 10
2929.5604735312681
 20
2452.4511595622721
 30
0.0
  0
POINT
  5
8762
  8
DEFPOINTS
 62
     0
 10
2929.5604735312681
 20
2327.4511595622721
 30
0.0
  0
POINT
  5
8763
  8
DEFPOINTS
 62
     0
 10
3511.2357506761691
 20
2327.4511595622721
 30
0.0
  0
ENDBLK
  5
8638
  8
0
  0
BLOCK
  8
0
  2
*D25
 70
     1
 10
0.0
 20
0.0
 30
0.0
  3
*D25
  1

  0
LINE
  5
8764
  8
3
 62
     0
 10
2947.0604735312681
 20
2452.4511595622721
 30
0.0
 11
3551.3820605926958
 21
2452.4511595622721
 31
0.0
  0
LINE
  5
8765
  8
3
 62
     0
 10
2947.0604735312681
 20
2567.4511595622721
 30
0.0
 11
3551.3820605926958
 21
2567.4511595622721
 31
0.0
  0
LINE
  5
8766
  8
3
 62
     0
 10
3516.3820605926949
 20
2382.4511595622712
 30
0.0
 11
3516.3820605926949
 21
2312.4511595622721
 31
0.0
  0
LINE
  5
8767
  8
3
 62
     0
 10
3516.3820605926949
 20
2637.4511595622721
 30
0.0
 11
3516.3820605926949
 21
2707.4511595622721
 31
0.0
  0
LINE
  5
8768
  8
3
 62
     0
 10
3516.3820605926949
 20
2509.9511595622721
 30
0.0
 11
3843.8820605926949
 21
2608.2011595622721
 31
0.0
  0
LINE
  5
8769
  8
3
 62
     0
 10
3843.8820605926949
 20
2608.2011595622721
 30
0.0
 11
3843.8820605926949
 21
3043.2011595622721
 31
0.0
  0
TEXT
  8
3
  40
105
  5
8792
  62
0
  72
0
  71
0
 10
3518.88
 20
2639.85
 30
0.000000
  1
(115)
  0
LINE
  5
876B
  8
3
 62
     0
 10
3516.3820605926949
 20
2452.4511595622721
 30
0.0
 11
3516.3820605926949
 21
2567.4511595622721
 31
0.0
  0
LINE
  5
876C
  8
3
 62
     0
 10
3516.3820605926949
 20
2452.4511595622721
 30
0.0
 11
3516.3820605926949
 21
2567.4511595622721
 31
0.0
  0
INSERT
  5
876D
  8
3
 62
     0
  2
_DOT
 10
3516.3820605926949
 20
2452.4511595622721
 30
0.0
 41
70.0
 42
70.0
 43
70.0
 50
90.0
  0
INSERT
  5
876E
  8
3
 62
     0
  2
_OPEN
 10
3516.3820605926949
 20
2567.4511595622721
 30
0.0
 41
70.0
 42
70.0
 43
70.0
 50
270.0
  0
POINT
  5
876F
  8
DEFPOINTS
 62
     0
 10
2929.5604735312681
 20
2452.4511595622721
 30
0.0
  0
POINT
  5
8770
  8
DEFPOINTS
 62
     0
 10
2929.5604735312681
 20
2567.4511595622721
 30
0.0
  0
POINT
  5
8771
  8
DEFPOINTS
 62
     0
 10
3516.3820605926949
 20
2567.4511595622721
 30
0.0
  0
ENDBLK
  5
8669
  8
0
  0
BLOCK
  8
0
  2
*D26
 70
     1
 10
0.0
 20
0.0
 30
0.0
  3
*D26
  1

  0
LINE
  5
8772
  8
3
 62
     0
 10
3047.0604735312668
 20
4658.4511595622726
 30
0.0
 11
3952.7481640359329
 21
4658.4511595622726
 31
0.0
  0
LINE
  5
8773
  8
3
 62
     0
 10
2947.0604735312681
 20
2327.4511595622721
 30
0.0
 11
3952.7481640359319
 21
2327.4511595622721
 31
0.0
  0
LINE
  5
8774
  8
3
 62
     0
 10
3917.7481640359329
 20
4588.4511595622716
 30
0.0
 11
3917.7481640359329
 21
2397.4511595622721
 31
0.0
  0
INSERT
  5
8775
  8
3
 62
     0
  2
_OPEN
 10
3917.7481640359329
 20
4658.4511595622726
 30
0.0
 41
70.0
 42
70.0
 43
70.0
 50
90.0
  0
INSERT
  5
8776
  8
3
 62
     0
  2
_OPEN
 10
3917.7481640359329
 20
2327.4511595622721
 30
0.0
 41
70.0
 42
70.0
 43
70.0
 50
270.0
  0
TEXT
  8
3
  40
105
  5
8793
  62
0
  72
0
  71
0
 10
3592.75
 20
3307.10
 30
0.000000
  1
(2331)
  0
POINT
  5
8778
  8
DEFPOINTS
 62
     0
 10
3029.5604735312668
 20
4658.4511595622726
 30
0.0
  0
POINT
  5
8779
  8
DEFPOINTS
 62
     0
 10
2929.5604735312681
 20
2327.4511595622721
 30
0.0
  0
POINT
  5
877A
  8
DEFPOINTS
 62
     0
 10
3917.7481640359329
 20
2327.4511595622721
 30
0.0
  0
ENDBLK
  5
8676
  8
0
  0
ENDSEC
  0
SECTION
  2
ENTITIES
  0
INSERT
  5
7AD0
  8
0
  2
YA_N
 10
275.18706682008099
 20
57.69095189364441
 30
0.0
  0
LINE
  5
7AE4
  8
1
 10
4417.9400047573081
 20
2692.4511595622721
 30
0.0
 11
6252.9400047573117
 21
2692.4511595622721
 31
0.0
  0
LINE
  5
7AE5
  8
1
 10
4417.9400047573081
 20
2692.4511595622721
 30
0.0
 11
4417.9400047573081
 21
2567.4511595622721
 31
0.0
  0
LINE
  5
7AE6
  8
1
 10
6252.9400047573108
 20
2692.4511595622721
 30
0.0
 11
6252.940004757309
 21
2567.4511595622721
 31
0.0
  0
LINE
  5
7AE8
  8
1
 10
4417.9400047573081
 20
2567.4511595622721
 30
0.0
 11
6252.9400047573108
 21
2567.4511595622721
 31
0.0
1001
ACAD
1000
ASC_BOUNDS
1002
{
1070
    19
1002
}
  0
LINE
  5
7AE9
  8
2
 10
4302.0222093483189
 20
3407.4511595622712
 30
0.0
 11
6290.1498232362846
 21
3407.4511595622712
 31
0.0
  0
LINE
  5
7AEA
  8
2
 10
5757.9400047573081
 20
4769.367007224766
 30
0.0
 11
5757.9400047573081
 21
2327.4511595622721
 31
0.0
  0
INSERT
  5
7AEC
  8
0
  2
YA_N
 10
-805.59225922110249
 20
-1258.9783687196441
 30
0.0
 41
25.0
 42
25.0
 43
25.0
  0
INSERT
  5
7AEE
  8
0
  2
YA_N
 10
-77.754580822312846
 20
-323.11650731075139
 30
0.0
 41
25.0
 42
25.0
 43
25.0
  0
INSERT
  5
7B16
  8
0
  2
YA_N
 10
-125.28520241714951
 20
-378.20747810478872
 30
0.0
 41
25.0
 42
25.0
 43
25.0
  0
LINE
  5
7B18
  8
1
 10
5330.6400047573088
 20
2692.4511595622721
 30
0.0
 11
5330.6400047573088
 21
3402.4511595622721
 31
0.0
  0
LINE
  5
7B19
  8
1
 10
5332.9400047573108
 20
2692.4511595622721
 30
0.0
 11
5332.9400047573126
 21
3402.4511595622721
 31
0.0
  0
LINE
  5
7B1A
  8
1
 10
6182.9400047573072
 20
2692.4511595622721
 30
0.0
 11
6182.9400047573126
 21
3402.4511595622721
 31
0.0
  0
LINE
  5
7B37
  8
1
 10
2929.5604735312681
 20
7683.7675927715281
 30
0.0
 11
1609.5604735312679
 21
7683.7675927715281
 31
0.0
  0
LINE
  5
7B38
  8
1
 10
2929.5604735312681
 20
7683.7675927715281
 30
0.0
 11
2929.5604735312681
 21
7613.7675927715254
 31
0.0
  0
LINE
  5
7B39
  8
1
 10
1609.5604735312679
 20
7683.7675927715281
 30
0.0
 11
1609.5604735312679
 21
7616.0675927715247
 31
0.0
  0
LINE
  5
7B3A
  8
1
 10
1169.5604735312679
 20
6758.7675927715281
 30
0.0
 11
1169.5604735312679
 21
5848.7675927715281
 31
0.0
  0
LINE
  5
7B3B
  8
1
 10
2669.5604735312681
 20
5848.7675927715281
 30
0.0
 11
1169.5604735312679
 21
5848.7675927715281
 31
0.0
  0
LINE
  5
7B3C
  8
1
 10
2929.5604735312691
 20
6693.7675927715281
 30
0.0
 11
2669.5604735312681
 21
6693.7675927715281
 31
0.0
  0
LINE
  5
7B3D
  8
1
 10
2669.5604735312681
 20
6693.7675927715281
 30
0.0
 11
2669.5604735312681
 21
5848.7675927715281
 31
0.0
  0
POINT
  5
7B3E
  8
1
 10
1869.5604735312679
 20
5848.7675927715281
 30
0.0
  0
LINE
  5
7B3F
  8
1
 10
4480.940004757309
 20
3307.4511595622712
 30
0.0
 11
4480.940004757309
 21
2692.4511595622721
 31
0.0
  0
LINE
  5
7B40
  8
1
 10
4480.940004757309
 20
3307.4511595622712
 30
0.0
 11
5234.940004757309
 21
3307.4511595622712
 31
0.0
  0
LINE
  5
7B41
  8
1
 10
5234.9400047573099
 20
3307.4511595622712
 30
0.0
 11
5234.9400047573072
 21
2692.4511595622721
 31
0.0
  0
LINE
  5
7B42
  8
1
 10
4327.940004757309
 20
3610.651159562271
 30
0.0
 11
4437.9400047573072
 21
3610.651159562271
 31
0.0
  0
LINE
  5
7B43
  8
1
 10
4327.9400047573117
 20
3204.2511595622718
 30
0.0
 11
4437.9400047573108
 21
3204.2511595622718
 31
0.0
  0
LINE
  5
7B44
  8
1
 10
4327.9400047573072
 20
3610.651159562271
 30
0.0
 11
4327.9400047573154
 21
2833.4511595622721
 31
0.0
  0
LINE
  5
7B45
  8
1
 10
4437.9400047573108
 20
3071.4511595622721
 30
0.0
 11
4327.9400047573108
 21
3071.4511595622721
 31
0.0
  0
LINE
  5
7B46
  8
1
 10
4437.9400047573117
 20
2833.4511595622721
 30
0.0
 11
4327.9400047573117
 21
2833.4511595622721
 31
0.0
  0
LINE
  5
7B47
  8
1
 10
4437.9400047573072
 20
3610.651159562271
 30
0.0
 11
4437.9400047573126
 21
2833.4511595622721
 31
0.0
  0
LINE
  5
7B48
  8
1
 10
4470.9400047573081
 20
3687.4511595622698
 30
0.0
 11
4470.9400047573081
 21
2732.4511595622721
 31
0.0
  0
LINE
  5
7B49
  8
1
 10
4270.940004757309
 20
3687.4511595622698
 30
0.0
 11
4270.940004757309
 21
2732.4511595622721
 31
0.0
  0
LINE
  5
7B4A
  8
1
 10
4270.940004757309
 20
3687.4511595622698
 30
0.0
 11
4470.9400047573081
 21
3687.4511595622698
 31
0.0
  0
LINE
  5
7B4D
  8
1
 10
4437.940004757309
 20
3447.4511595622712
 30
0.0
 11
5279.9400047573099
 21
3447.4511595622721
 31
0.0
  0
LINE
  5
7B4E
  8
1
 10
4437.9400047573099
 20
3367.4511595622712
 30
0.0
 11
5330.6400047573088
 21
3367.4511595622712
 31
0.0
  0
POINT
  5
7B59
  8
1
 10
4270.940004757309
 20
3687.4511595622698
 30
0.0
  0
LINE
  5
7B63
  8
2
 10
2269.5604735312681
 20
5622.0116577251356
 30
0.0
 11
2269.5604735312681
 21
7720.9774112505047
 31
0.0
  0
LINE
  5
7B64
  8
1
 10
2979.5604735312668
 20
6763.7675927715291
 30
0.0
 11
1300.5604735312679
 21
6763.7675927715291
 31
0.0
  0
LINE
  5
7B65
  8
1
 10
2549.5604735312681
 20
5701.7675927715281
 30
0.0
 11
1199.5604735312679
 21
5701.7675927715281
 31
0.0
  0
LINE
  5
7B66
  8
1
 10
2549.5604735312681
 20
5901.7675927715281
 30
0.0
 11
1199.5604735312679
 21
5901.7675927715281
 31
0.0
  0
LINE
  5
7B67
  8
1
 10
2472.760473531268
 20
5868.7675927715254
 30
0.0
 11
1300.5604735312679
 21
5868.7675927715354
 31
0.0
  0
LINE
  5
7B68
  8
1
 10
2472.7604735312671
 20
5758.7675927715236
 30
0.0
 11
1300.5604735312679
 21
5758.7675927715354
 31
0.0
  0
LINE
  5
7B69
  8
1
 10
2014.5604735312679
 20
6665.7675927715272
 30
0.0
 11
2229.5604735312681
 21
6665.7675927715291
 31
0.0
  0
LINE
  5
7B6A
  8
1
 10
2524.5604735312681
 20
5911.7675927715281
 30
0.0
 11
2309.56047353127
 21
5911.7675927715281
 31
0.0
  0
LINE
  5
7B6B
  8
1
 10
1199.5604735312679
 20
5901.7675927715281
 30
0.0
 11
1199.5604735312679
 21
5701.7675927715281
 31
0.0
  0
LINE
  5
7B6C
  8
1
 10
1300.5604735312679
 20
5868.7675927715318
 30
0.0
 11
1300.5604735312679
 21
5758.7675927715318
 31
0.0
  0
LINE
  5
7B6D
  8
1
 10
2309.5604735312681
 20
5868.7675927715281
 30
0.0
 11
2309.5604735312681
 21
6763.7675927715281
 31
0.0
  0
LINE
  5
7B6E
  8
1
 10
2229.5604735312681
 20
5868.7675927715281
 30
0.0
 11
2229.5604735312681
 21
6763.7675927715281
 31
0.0
  0
LINE
  5
7B6F
  8
1
 10
1538.5604735312679
 20
5868.7675927715318
 30
0.0
 11
1538.5604735312679
 21
5758.7675927715318
 31
0.0
  0
LINE
  5
7B70
  8
1
 10
2066.3604735312688
 20
5758.7675927715318
 30
0.0
 11
2066.3604735312688
 21
5868.7675927715281
 31
0.0
  0
LINE
  5
7B71
  8
1
 10
2549.5604735312681
 20
5701.7675927715281
 30
0.0
 11
2549.5604735312681
 21
5901.7675927715281
 31
0.0
  0
LINE
  5
7B72
  8
1
 10
2472.760473531268
 20
5758.7675927715281
 30
0.0
 11
2472.760473531268
 21
5868.7675927715254
 31
0.0
  0
POINT
  5
7B73
  8
1
 10
2549.5604735312681
 20
5701.7675927715281
 30
0.0
  0
LINE
  5
7B75
  8
1
 10
2979.5604735312681
 20
7616.0675927715283
 30
0.0
 11
1300.5604735312679
 21
7616.0675927715247
 31
0.0
  0
LINE
  5
7B76
  8
1
 10
2979.5604735312681
 20
7613.7675927715254
 30
0.0
 11
1300.5604735312679
 21
7613.76759277153
 31
0.0
  0
LINE
  5
7B77
  8
2
 10
948.53349854014948
 20
7188.7675927715263
 30
0.0
 11
3247.696241017833
 21
7188.7675927715281
 31
0.0
  0
LINE
  5
7B7E
  8
2
 10
1419.5604735312679
 20
6565.6400606813149
 30
0.0
 11
1419.5604735312679
 21
5596.3840879366162
 31
0.0
  0
LINE
  5
7B7F
  8
1
 10
1219.5604735312679
 20
6561.2675927725249
 30
0.0
 11
1619.5604735312661
 21
6561.2675927725231
 31
0.0
  0
LINE
  5
7B80
  8
1
 10
1219.5604735312679
 20
6031.767592772524
 30
0.0
 11
1219.5604735312679
 21
6561.2675927725249
 31
0.0
  0
LINE
  5
7B81
  8
1
 10
1619.56047353127
 20
5925.4105116901092
 30
0.0
 11
1219.5604735312679
 21
5925.4105116901092
 31
0.0
  0
LINE
  5
7B82
  8
1
 10
1219.5604735312679
 20
5925.4105116901092
 30
0.0
 11
1219.5604735312679
 21
6084.2675927725249
 31
0.0
  0
LINE
  5
7B83
  8
1
 10
1449.5604735312679
 20
5758.7675927715327
 30
0.0
 11
1449.56047353127
 21
5898.7675927676619
 31
0.0
  0
LINE
  5
7B84
  8
1
 10
1389.56047353127
 20
5758.7675927715327
 30
0.0
 11
1389.56047353127
 21
5898.7675927676619
 31
0.0
  0
LINE
  5
7B85
  8
1
 10
1358.84302454867
 20
5903.7675927725249
 30
0.0
 11
1480.277922513865
 21
5903.7675927725249
 31
0.0
  0
LINE
  5
7B86
  8
1
 10
1380.139164585421
 20
5898.7675927676619
 30
0.0
 11
1456.9817824771139
 21
5898.7675927676619
 31
0.0
  0
LINE
  5
7B87
  8
1
 10
1358.84302454867
 20
5925.4105116901092
 30
0.0
 11
1358.84302454867
 21
5903.7675927725249
 31
0.0
  0
LINE
  5
7B88
  8
1
 10
1380.139164585421
 20
5898.7675927676619
 30
0.0
 11
1380.139164585423
 21
5903.7675927725249
 31
0.0
  0
LINE
  5
7B89
  8
1
 10
1456.9817824771139
 20
5898.7675927676619
 30
0.0
 11
1456.9817824771139
 21
5903.7675927725249
 31
0.0
  0
LINE
  5
7B8A
  8
1
 10
1480.277922513865
 20
5925.4105116901092
 30
0.0
 11
1480.277922513865
 21
5903.7675927725249
 31
0.0
  0
LINE
  5
7B8B
  8
1
 10
1449.5604735312679
 20
5758.7675927715327
 30
0.0
 11
1389.5604735312679
 21
5758.7675927715327
 31
0.0
  0
LINE
  5
7B8C
  8
1
 10
1619.5604735312679
 20
5925.4105116901092
 30
0.0
 11
1619.5604735312661
 21
6561.2675927725231
 31
0.0
  0
LINE
  5
7B8F
  8
1
 10
2309.5604735312681
 20
6665.7675927715291
 30
0.0
 11
2524.5604735312681
 21
6665.7675927715272
 31
0.0
  0
LINE
  5
7B90
  8
1
 10
2229.5604735312691
 20
5911.7675927715281
 30
0.0
 11
2014.5604735312679
 21
5911.7675927715281
 31
0.0
  0
DIMENSION
  5
7BA3
  8
3
  2
*D2
 10
3556.8698919423491
 20
6693.7675927715281
 30
0.0
 11
3556.8698919423468
 21
7190.8552420415108
 31
0.0
 70
   128
 13
2929.5604735312681
 23
7683.7675927715281
 33
0.0
 14
2929.5604735312681
 24
6693.7675927715281
 34
0.0
 50
90.0
1001
ACAD
1000
DSTYLE
1002
{
1070
   287
1070
     3
1070
    40
1040
35.0
1070
   143
1040
0.039
1070
   172
1070
     1
1070
   271
1070
     0
1070
   279
1070
     0
1070
   288
1070
     1
1002
}
  0
LINE
  5
7BB1
  8
1
 10
2929.5604735312681
 20
6763.7675927715291
 30
0.0
 11
2929.5604735312681
 21
6693.7675927715281
 31
0.0
  0
DIMENSION
  5
7BBF
  8
3
  2
*D3
 10
3556.8698919423468
 20
5848.7675927715281
 30
0.0
 11
3469.3698919423468
 21
6271.2675927715291
 31
0.0
 70
     0
 13
2929.5604735312681
 23
6693.7675927715281
 33
0.0
 14
2669.5604735312681
 24
5848.7675927715281
 34
0.0
 50
90.0
1001
ACAD
1000
DSTYLE
1002
{
1070
   287
1070
     4
1070
    40
1040
35.0
1070
    75
1070
     1
1070
   143
1040
0.039
1070
   172
1070
     1
1070
   271
1070
     0
1070
   279
1070
     1
1070
   288
1070
     1
1002
}
  0
DIMENSION
  5
7BCE
  8
3
  2
*D4
 10
2669.5604735312681
 20
5386.5740510801079
 30
0.0
 11
3169.5604735312681
 21
5386.5740510801079
 31
0.0
 70
   128
 13
2929.5604735312681
 23
6693.7675927715281
 33
0.0
 14
2669.5604735312681
 24
5848.7675927715281
 34
0.0
1001
ACAD
1000
DSTYLE
1002
{
1070
   287
1070
     3
1070
    40
1040
35.0
1070
   143
1040
0.039
1070
   172
1070
     1
1070
   271
1070
     0
1070
   279
1070
     0
1070
   288
1070
     1
1002
}
  0
DIMENSION
  5
7BE6
  8
3
  2
*D5
 10
1169.5604735312679
 20
5386.5740510801079
 30
0.0
 11
1919.5604735312679
 21
5474.0740510801079
 31
0.0
 70
     0
 13
2669.5604735312681
 23
5848.7675927715281
 33
0.0
 14
1169.5604735312679
 24
5848.7675927715281
 34
0.0
1001
ACAD
1000
DSTYLE
1002
{
1070
   287
1070
     4
1070
    40
1040
35.0
1070
    75
1070
     1
1070
   143
1040
0.039
1070
   172
1070
     1
1070
   271
1070
     0
1070
   279
1070
     1
1070
   288
1070
     1
1002
}
  0
DIMENSION
  5
7BF3
  8
3
  2
*D6
 10
739.16869267066897
 20
6758.7675927715263
 30
0.0
 11
739.16869267066795
 21
6258.2074768975936
 31
0.0
 70
   128
 13
1169.5604735312679
 23
5848.7675927715281
 33
0.0
 14
1169.5604735312679
 24
6758.7675927715263
 34
0.0
 50
90.0
1001
ACAD
1000
DSTYLE
1002
{
1070
   287
1070
     3
1070
    40
1040
35.0
1070
   143
1040
0.039
1070
   172
1070
     1
1070
   271
1070
     0
1070
   279
1070
     0
1070
   288
1070
     1
1002
}
  0
DIMENSION
  5
7BFF
  8
3
  2
*D7
 10
739.16869267066795
 20
7683.7675927715281
 30
0.0
 11
651.66869267066659
 21
7221.2675927715272
 31
0.0
 70
     0
 13
1169.5604735312679
 23
6758.7675927715263
 33
0.0
 14
1609.5604735312679
 24
7683.7675927715281
 34
0.0
 50
90.0
1001
ACAD
1000
DSTYLE
1002
{
1070
   287
1070
     4
1070
    40
1040
35.0
1070
    75
1070
     1
1070
   143
1040
0.039
1070
   172
1070
     1
1070
   271
1070
     0
1070
   279
1070
     1
1070
   288
1070
     1
1002
}
  0
DIMENSION
  5
7C0E
  8
3
  2
*D8
 10
1609.5604735312679
 20
7914.311000374677
 30
0.0
 11
1389.5604735312679
 21
7914.311000374677
 31
0.0
 70
   128
 13
1169.5604735312679
 23
6758.7675927715263
 33
0.0
 14
1609.5604735312679
 24
7683.7675927715281
 34
0.0
1001
ACAD
1000
DSTYLE
1002
{
1070
   287
1070
     3
1070
    40
1040
35.0
1070
   143
1040
0.039
1070
   172
1070
     1
1070
   271
1070
     0
1070
   279
1070
     0
1070
   288
1070
     1
1002
}
  0
DIMENSION
  5
7C1A
  8
3
  2
*D9
 10
2929.5604735312681
 20
7914.311000374677
 30
0.0
 11
2269.5604735312681
 21
8001.8110003746779
 31
0.0
 70
     0
 13
1609.5604735312679
 23
7683.7675927715281
 33
0.0
 14
2929.5604735312681
 24
7683.7675927715281
 34
0.0
1001
ACAD
1000
DSTYLE
1002
{
1070
   287
1070
     4
1070
    40
1040
35.0
1070
    75
1070
     1
1070
   143
1040
0.039
1070
   172
1070
     1
1070
   271
1070
     0
1070
   279
1070
     1
1070
   288
1070
     1
1002
}
  0
DIMENSION
  5
7D19
  8
3
  2
*D10
 10
6182.9400047573126
 20
4790.7827828865084
 30
0.0
 11
5760.7077326111694
 21
4790.7827828865084
 31
0.0
 70
   128
 13
5332.9400047573108
 23
4608.4511595622744
 33
0.0
 14
6182.9400047573126
 24
4608.4511595622726
 34
0.0
1001
ACAD
1000
DSTYLE
1002
{
1070
   287
1070
     3
1070
    40
1040
35.0
1070
   143
1040
0.039
1070
   172
1070
     1
1070
   271
1070
     0
1070
   279
1070
     0
1070
   288
1070
     1
1002
}
  0
DIMENSION
  5
7D28
  8
3
  2
*D11
 10
6193.2400047573092
 20
5068.7589339639599
 30
0.0
 11
5975.5900047573077
 21
5068.7589339639599
 31
0.0
 70
   128
 13
5757.9400047573081
 23
4942.1986065788869
 33
0.0
 14
6193.2400047573092
 24
4608.4511595622726
 34
0.0
1001
ACAD
1000
DSTYLE
1002
{
1070
   287
1070
     3
1070
    40
1040
35.0
1070
   143
1040
0.039
1070
   172
1070
     1
1070
   271
1070
     0
1070
   279
1070
     0
1070
   288
1070
     1
1002
}
  0
DIMENSION
  5
7D76
  8
3
  2
*D12
 10
4270.940004757309
 20
5068.7589339639599
 30
0.0
 11
5014.440004757309
 21
5243.7589339639599
 31
0.0
 70
     0
  1
MAX\P1530
 13
5757.9400047573081
 23
4942.1986065788869
 33
0.0
 14
4270.940004757309
 24
3342.4511595622712
 34
0.0
1001
ACAD
1000
DSTYLE
1002
{
1070
   287
1070
     4
1070
    40
1040
35.0
1070
    75
1070
     1
1070
   143
1040
0.039
1070
   172
1070
     1
1070
   271
1070
     0
1070
   279
1070
     1
1070
   288
1070
     1
1002
}
  0
LINE
  5
7D81
  8
4
 10
6475.0
 20
1580.0
 30
0.0
 11
6475.0
 21
880.0
 31
0.0
  0
LINE
  5
7D82
  8
4
 10
4025.0
 20
1580.0
 30
0.0
 11
4025.0
 21
880.0
 31
0.0
  0
LINE
  5
7D83
  8
4
 10
2275.0
 20
1580.0
 30
0.0
 11
2275.0
 21
880.0
 31
0.0
  0
LINE
  5
7D86
  8
4
 10
2275.0
 20
880.0
 30
0.0
 11
6475.0
 21
880.0
 31
0.0
  0
LINE
  5
7D87
  8
4
 10
2275.0
 20
1230.0
 30
0.0
 11
6475.0
 21
1230.0
 31
0.0
  0
TEXT
  5
7D88
  8
4
 10
2409.7572829641558
 20
1340.4005905331451
 30
0.0
 40
175.0
  1
機器名称
  0
TEXT
  5
7D89
  8
4
 10
2401.9033710867911
 20
955.7580485620382
 30
0.0
 40
175.0
  1
機器型番
  0
TEXT
  5
7D8A
  8
4
 10
4131.1124678485839
 20
1312.5648553767689
 30
0.0
 40
140.0
  1
ミツヤ多翼送風機
  0
TEXT
  5
7D8B
  8
4
 10
4153.2907345491822
 20
940.05854497980181
 30
0.0
 40
175.0
  1
MF#7-1
  0
TEXT
  5
7D8D
  8
4
 10
2697.9708263690191
 20
8342.0009446638051
 30
0.0
 40
188.99999999999989
  1
床置防振ベット
  0
TEXT
  5
7D8E
  8
4
 10
1004.678023501895
 20
8868.5834166975455
 30
0.0
 40
252.0
  1
遠心式片吸込片持多翼ファン
  0
LINE
  5
7D8F
  8
4
 10
875.0
 20
8642.9306399268171
 30
0.0
 11
6475.0
 21
8642.9306399268171
 31
0.0
  0
LINE
  5
7D90
  8
4
 10
875.0
 20
9342.9306399268171
 30
0.0
 11
6475.0
 21
9342.9306399268171
 31
0.0
  0
LINE
  5
7D91
  8
4
 10
2275.0
 20
1580.0
 30
0.0
 11
6475.0
 21
1580.0
 31
0.0
  0
LINE
  5
7D92
  8
4
 10
875.0
 20
9342.9306399268171
 30
0.0
 11
875.0
 21
8642.9306399268171
 31
0.0
  0
TEXT
  5
7D93
  8
4
 10
1172.4649135195609
 20
8338.1181714122031
 30
0.0
 40
188.99999999999989
  1
右回転右横向
  0
TEXT
  5
7D94
  8
4
 10
5141.3934573725146
 20
9471.21378523358
 30
0.0
 40
196.0
  1
No.
  0
TEXT
  5
7D95
  8
4
 10
4589.5362191000459
 20
8342.0009446638051
 30
0.0
 40
188.99999999999989
  1
縮尺：1/35
  0
LINE
  5
7D96
  8
4
 10
6475.0
 20
9342.9306399268171
 30
0.0
 11
6475.0
 21
8642.9306399268171
 31
0.0
  0
LINE
  5
7D97
  8
4
 10
7350.0
 20
10325.0
 30
0.0
 11
7350.0
 21
10325.0
 31
0.0
  0
LINE
  5
7D98
  8
4
 10
5042.160978259526
 20
9384.4225409389055
 30
0.0
 11
5042.160978259526
 21
9753.2829154241354
 31
0.0
  0
LINE
  5
7D99
  8
4
 10
5042.160978259526
 20
9753.2829154241354
 30
0.0
 11
6475.0
 21
9753.2829154241354
 31
0.0
  0
LINE
  5
7D9A
  8
4
 10
6475.0
 20
9753.2829154241354
 30
0.0
 11
6475.0
 21
9384.4225409389055
 31
0.0
  0
LINE
  5
7D9B
  8
4
 10
6475.0
 20
9384.4225409389055
 30
0.0
 11
5042.160978259526
 21
9384.4225409389055
 31
0.0
  0
LINE
  5
7D9C
  8
4
 10
0.0
 20
0.0
 30
0.0
 11
0.0
 21
10325.0
 31
0.0
  0
LINE
  5
7D9D
  8
4
 10
0.0
 20
10325.0
 30
0.0
 11
7350.0
 21
10325.0
 31
0.0
  0
LINE
  5
7D9E
  8
4
 10
7350.0
 20
10325.0
 30
0.0
 11
7350.0
 21
0.0
 31
0.0
  0
LINE
  5
7D9F
  8
4
 10
7350.0
 20
0.0
 30
0.0
 11
0.0
 21
0.0
 31
0.0
  0
LINE
  5
8069
  8
1
 10
3029.5604735312668
 20
6710.7675927715291
 30
0.0
 11
3029.5604735312668
 21
7666.7675927715272
 31
0.0
  0
LINE
  5
806A
  8
1
 10
2979.5604735312659
 20
7666.7675927715272
 30
0.0
 11
3029.5604735312668
 21
7666.7675927715254
 31
0.0
  0
LINE
  5
806B
  8
1
 10
2979.5604735312668
 20
6710.7675927715291
 30
0.0
 11
3029.5604735312668
 21
6710.7675927715291
 31
0.0
  0
LINE
  5
806C
  8
1
 10
2979.5604735312668
 20
6710.7675927715291
 30
0.0
 11
2979.5604735312668
 21
7666.7675927715272
 31
0.0
  0
LINE
  5
806D
  8
1
 10
1300.5604735312679
 20
6761.76759277153
 30
0.0
 11
1300.5604735312679
 21
7616.0675927715247
 31
0.0
  0
LINE
  5
806F
  8
1
 10
2979.5604735312668
 20
6761.76759277153
 30
0.0
 11
1300.5604735312679
 21
6761.76759277153
 31
0.0
  0
LINE
  5
8071
  8
1
 10
1169.5604735312679
 20
6758.7675927715281
 30
0.0
 11
2929.5604735312681
 21
6758.7675927715281
 31
0.0
  0
LINE
  5
80FB
  8
1
 10
5279.940004757309
 20
4658.4511595622726
 30
0.0
 11
5279.940004757309
 21
3402.451159562273
 31
0.0
  0
LINE
  5
80FD
  8
1
 10
6235.940004757309
 20
4658.4511595622726
 30
0.0
 11
6235.9400047573099
 21
3402.451159562273
 31
0.0
  0
LINE
  5
8100
  8
1
 10
5332.9400047573126
 20
3452.4511595622721
 30
0.0
 11
5332.9400047573108
 21
4608.4511595622744
 31
0.0
  0
LINE
  5
8101
  8
1
 10
5330.6400047573088
 20
3452.4511595622721
 30
0.0
 11
5330.6400047573088
 21
4608.4511595622744
 31
0.0
  0
LINE
  5
8102
  8
1
 10
6182.9400047573126
 20
3452.451159562273
 30
0.0
 11
6182.9400047573126
 21
4608.4511595622726
 31
0.0
  0
LINE
  5
8103
  8
1
 10
6184.9400047573117
 20
3452.451159562273
 30
0.0
 11
6184.9400047573117
 21
4608.4511595622726
 31
0.0
  0
LINE
  5
8104
  8
1
 10
5330.6400047573088
 20
3102.451159562273
 30
0.0
 11
5332.9400047573099
 21
3102.451159562273
 31
0.0
  0
LINE
  5
8105
  8
1
 10
5330.6400047573088
 20
3022.4511595622721
 30
0.0
 11
5332.9400047573099
 21
3022.4511595622721
 31
0.0
  0
LINE
  5
8288
  8
2
 10
1115.191002990279
 20
3407.4511595622721
 30
0.0
 11
3153.5563643124451
 21
3407.4511595622721
 31
0.0
  0
ARC
  5
8289
  8
1
 10
2187.5604735312681
 20
3489.4511595622721
 30
0.0
 40
887.0
 50
180.0
 51
202.5428645827227
  0
ARC
  5
828A
  8
1
 10
2351.5604735312681
 20
3489.4511595622721
 30
0.0
 40
1051.0
 50
94.474817898542952
 51
180.0
  0
ARC
  5
828B
  8
1
 10
1419.5604735312679
 20
2952.4511595622721
 30
0.0
 40
220.0
 50
121.72787497341361
 51
294.59188759590751
  0
LINE
  5
828C
  8
2
 10
1681.343779466871
 20
2952.4511595622721
 30
0.0
 11
1114.6974356359481
 21
2952.4511595622721
 31
0.0
  0
CIRCLE
  5
828D
  8
1
 10
1419.5604735312679
 20
2952.4511595622721
 30
0.0
 40
118.0
  0
LINE
  5
828E
  8
1
 10
1489.5604735312679
 20
2742.4511595622721
 30
0.0
 11
1349.56047353127
 21
2742.4511595622721
 31
0.0
  0
LINE
  5
828F
  8
1
 10
1489.56047353127
 20
2702.4511595622721
 30
0.0
 11
1349.56047353127
 21
2702.4511595622721
 31
0.0
  0
LINE
  5
8290
  8
1
 10
1364.822436531269
 20
2756.4511595622721
 30
0.0
 11
1474.2985105312689
 21
2756.4511595622721
 31
0.0
  0
ARC
  5
8291
  8
1
 10
1419.5604735312679
 20
2952.4511595622721
 30
0.0
 40
203.5
 50
285.60369900000001
 51
254.39624000000001
  0
LINE
  5
8292
  8
1
 10
2929.5604735312681
 20
2692.4511595622721
 30
0.0
 11
1159.5604735312691
 21
2692.4511595622721
 31
0.0
  0
LINE
  5
8293
  8
1
 10
2929.5604735312681
 20
2567.4511595622721
 30
0.0
 11
1169.5604735312691
 21
2567.4511595622721
 31
0.0
1001
ACAD
1000
ASC_BOUNDS
1002
{
1070
    19
1005
0
1005
0
1002
}
  0
LINE
  5
8294
  8
1
 10
1169.5604735312691
 20
2692.4511595622721
 30
0.0
 11
1169.5604735312691
 21
2567.4511595622721
 31
0.0
  0
LINE
  5
8295
  8
1
 10
1260.5604735312679
 20
2699.0926655938911
 30
0.0
 11
1260.5604735312679
 21
2669.9769435938911
 31
0.0
  0
LINE
  5
8297
  8
1
 10
1349.56047353127
 20
2752.4511595622721
 30
0.0
 11
1175.5454834376319
 21
2752.4511595622721
 31
0.0
  0
LINE
  5
8298
  8
1
 10
1232.6965825312691
 20
2830.8764525622719
 30
0.0
 11
1248.6344485312691
 21
2842.012927562273
 31
0.0
  0
LINE
  5
8299
  8
1
 10
1307.0604735312679
 20
2772.4511595622721
 30
0.0
 11
1233.5604735312679
 21
2772.4511595622721
 31
0.0
  0
LINE
  5
829A
  8
1
 10
1159.5604735312691
 20
2692.4511595622721
 30
0.0
 11
1175.5454834376319
 21
2752.4511595622721
 31
0.0
  0
ARC
  5
829B
  8
1
 10
1235.5604735312679
 20
2826.7778205622722
 30
0.0
 40
5.0
 50
124.94366100000001
 51
180.0
  0
ARC
  5
829C
  8
1
 10
1233.5604735312679
 20
2769.4511595622721
 30
0.0
 40
3.0
 50
90.0
 51
180.0
  0
LINE
  5
829D
  8
1
 10
1230.5604735312679
 20
2826.7778205622722
 30
0.0
 11
1230.5604735312679
 21
2752.4511595622721
 31
0.0
  0
LINE
  5
829E
  8
1
 10
1260.5604735312679
 20
2776.8749875622721
 30
0.0
 11
1260.5604735312679
 21
2747.759265562272
 31
0.0
  0
LINE
  5
829F
  8
1
 10
1269.8104735312679
 20
2772.4511595622721
 30
0.0
 11
1269.8104735312679
 21
2752.4511595622721
 31
0.0
  0
LINE
  5
82A0
  8
1
 10
1251.3104735312679
 20
2772.4511595622721
 30
0.0
 11
1251.3104735312679
 21
2752.4511595622721
 31
0.0
  0
LINE
  5
82A1
  8
1
 10
1349.56047353127
 20
2702.4511595622721
 30
0.0
 11
1349.5604735312679
 21
2692.4511595622721
 31
0.0
  0
LINE
  5
82A2
  8
1
 10
1349.56047353127
 20
2752.4511595622721
 30
0.0
 11
1349.56047353127
 21
2742.4511595622721
 31
0.0
  0
ARC
  5
82A3
  8
1
 10
1307.0604735312679
 20
2769.4511595622721
 30
0.0
 40
3.0
 50
0.0
 51
90.0
  0
LINE
  5
82A4
  8
1
 10
1310.0604735312679
 20
2769.4511595622721
 30
0.0
 11
1310.0604735312679
 21
2752.4511595622721
 31
0.0
  0
LINE
  5
82A5
  8
1
 10
1315.4576905312681
 20
2777.5944705622719
 30
0.0
 11
1310.0604735312679
 21
2757.4511595622721
 31
0.0
  0
ARC
  5
82A8
  8
1
 10
2269.5604735312681
 20
3407.4511595622721
 30
0.0
 40
280.0
 50
294.59188759590751
 51
121.72787497341371
  0
ARC
  5
82A9
  8
1
 10
2201.0604735312681
 20
3338.9511595622721
 30
0.0
 40
736.5
 50
307.95613024891361
 51
5.336648321383449
  0
LINE
  5
82AB
  8
2
 10
2269.5604735312681
 20
2327.451159562273
 30
0.0
 11
2269.5604735312681
 21
4651.7406811313604
 31
0.0
  0
LINE
  5
82B0
  8
2
 10
1419.5604735312679
 20
3240.6495143967768
 30
0.0
 11
1419.5604735312691
 21
2567.451159562273
 31
0.0
  0
LINE
  5
82B1
  8
1
 10
1578.5604735312679
 20
2699.0926655938911
 30
0.0
 11
1578.5604735312679
 21
2669.9769435938911
 31
0.0
  0
LINE
  5
82B2
  8
1
 10
1679.56047353127
 20
2692.4511595622721
 30
0.0
 11
1663.6227295793569
 21
2752.4511595622721
 31
0.0
  0
LINE
  5
82B3
  8
1
 10
1663.6227295793569
 20
2752.4511595622721
 30
0.0
 11
1489.5604735312679
 21
2752.4511595622721
 31
0.0
  0
LINE
  5
82B4
  8
1
 10
1489.56047353127
 20
2702.4511595622721
 30
0.0
 11
1489.56047353127
 21
2692.4511595622721
 31
0.0
  0
LINE
  5
82B5
  8
1
 10
1489.56047353127
 20
2752.4511595622721
 30
0.0
 11
1489.56047353127
 21
2742.4511595622721
 31
0.0
  0
LINE
  5
82B7
  8
1
 10
1606.4242435312681
 20
2830.8764525622719
 30
0.0
 11
1590.486377531269
 21
2842.012927562273
 31
0.0
  0
LINE
  5
82B8
  8
1
 10
1532.0604735312679
 20
2772.4511595622721
 30
0.0
 11
1605.5604735312679
 21
2772.4511595622721
 31
0.0
  0
ARC
  5
82B9
  8
1
 10
1532.0604735312679
 20
2769.4511595622721
 30
0.0
 40
3.0
 50
90.0
 51
180.0
  0
LINE
  5
82BA
  8
1
 10
1529.0604735312679
 20
2769.4511595622721
 30
0.0
 11
1529.0604735312679
 21
2752.4511595622721
 31
0.0
  0
LINE
  5
82BB
  8
1
 10
1523.6630435312691
 20
2777.594348562272
 30
0.0
 11
1529.0604735312679
 21
2757.4511595622721
 31
0.0
  0
LINE
  5
82BC
  8
1
 10
1578.5604735312679
 20
2776.8749875622721
 30
0.0
 11
1578.5604735312679
 21
2747.759265562272
 31
0.0
  0
LINE
  5
82BD
  8
1
 10
1569.3104735312679
 20
2772.4511595622721
 30
0.0
 11
1569.3104735312679
 21
2752.4511595622721
 31
0.0
  0
LINE
  5
82BE
  8
1
 10
1587.8104735312679
 20
2772.4511595622721
 30
0.0
 11
1587.8104735312679
 21
2752.4511595622721
 31
0.0
  0
LINE
  5
82C0
  8
1
 10
1608.5604735312679
 20
2826.7778205622722
 30
0.0
 11
1608.5604735312679
 21
2752.4511595622721
 31
0.0
  0
ARC
  5
82C1
  8
1
 10
1603.5604735312679
 20
2826.7778205622722
 30
0.0
 40
5.0000669999999987
 50
0.0
 51
55.056334999999997
  0
ARC
  5
82C2
  8
1
 10
1605.5604735312679
 20
2769.4511595622721
 30
0.0
 40
3.0
 50
0.0
 51
90.0
  0
CIRCLE
  5
82C4
  8
1
 10
2269.5604735312681
 20
3407.4511595622721
 30
0.0
 40
203.19999999999999
  0
LINE
  5
82C7
  8
1
 10
3029.5604735312668
 20
3402.4511595622721
 30
0.0
 11
3029.5604735312668
 21
4658.4511595622726
 31
0.0
  0
LINE
  5
82C8
  8
1
 10
2979.5604735312668
 20
3402.4511595622721
 30
0.0
 11
2979.5604735312668
 21
4658.4511595622726
 31
0.0
  0
LINE
  5
82C9
  8
1
 10
3025.5604735312668
 20
3402.4511595622721
 30
0.0
 11
3025.5604735312668
 21
4658.4511595622726
 31
0.0
  0
LINE
  5
82CC
  8
1
 10
2669.5604735312681
 20
2567.4511595622721
 30
0.0
 11
2669.5604735312681
 21
2692.4511595622721
 31
0.0
  0
LINE
  5
82CD
  8
1
 10
2929.5604735312681
 20
2692.4511595622721
 30
0.0
 11
2929.5604735312681
 21
2567.4511595622721
 31
0.0
  0
POINT
  5
82D3
  8
1
 10
2929.5604735312681
 20
2567.4511595622721
 30
0.0
  0
POINT
  5
82D4
  8
1
 10
2929.5604735312681
 20
2567.4511595622721
 30
0.0
  0
LINE
  5
82D5
  8
1
 10
3029.5604735312668
 20
4658.4511595622726
 30
0.0
 11
2979.5604735312668
 21
4658.4511595622726
 31
0.0
  0
LINE
  5
82D6
  8
1
 10
3029.5604735312668
 20
4605.4511595622726
 30
0.0
 11
2245.6905413991608
 21
4535.1052885506024
 31
0.0
  0
ARC
  5
82DA
  8
1
 10
2338.0604735312681
 20
3338.9511595622721
 30
0.0
 40
599.5
 50
6.5610535428334762
 51
11.20550536855359
  0
LINE
  5
82DB
  8
1
 10
3029.5604735312668
 20
3455.4511595622721
 30
0.0
 11
2926.1318977647538
 21
3455.4511595622721
 31
0.0
  0
LINE
  5
82DC
  8
1
 10
3029.5604735312668
 20
3402.4511595622721
 30
0.0
 11
2979.5604735312668
 21
3402.4511595622721
 31
0.0
  0
LINE
  5
8365
  8
1
 10
2158.2072910374109
 20
3577.4238301551932
 30
0.0
 11
1354.8967159807009
 21
3051.1557615798151
 31
0.0
  0
LINE
  5
8366
  8
1
 10
2349.2507228065469
 20
3220.529507069994
 30
0.0
 11
1465.837291515928
 21
2843.9041369535671
 31
0.0
  0
LINE
  5
8367
  8
1
 10
2386.0830478165881
 20
3152.8485482600272
 30
0.0
 11
1511.113924755447
 21
2752.4062506819369
 31
0.0
  0
LINE
  5
8368
  8
1
 10
2122.3125287610228
 20
3645.60666078141
 30
0.0
 11
1303.865659783218
 21
3139.5733390915962
 31
0.0
  0
LINE
  5
836B
  8
1
 10
5279.9400047573099
 20
4658.4511595622726
 30
0.0
 11
6235.940004757309
 21
4658.4511595622726
 31
0.0
  0
LINE
  5
836C
  8
1
 10
5279.940004757309
 20
3402.4511595622721
 30
0.0
 11
6235.9400047573099
 21
3402.4511595622721
 31
0.0
  0
LINE
  5
83A6
  8
1
 10
5330.6400047573088
 20
4608.4511595622726
 30
0.0
 11
6184.9400047573108
 21
4608.4511595622726
 31
0.0
  0
LINE
  5
83CB
  8
1
 10
5330.6400047573088
 20
3452.4511595622721
 30
0.0
 11
6184.9400047573108
 21
3452.4511595622721
 31
0.0
  0
LINE
  5
83CD
  8
1
 10
6184.9400047573072
 20
2692.4511595622721
 30
0.0
 11
6184.9400047573117
 21
3402.4511595622721
 31
0.0
  0
DIMENSION
  5
8415
  8
3
  2
*D14
 10
3282.5804215287421
 20
3455.4511595622721
 30
0.0
 11
3195.0804215287421
 21
4030.451159562273
 31
0.0
 70
     0
 13
3029.5604735312668
 23
4605.4511595622726
 33
0.0
 14
3029.5604735312668
 24
3455.4511595622721
 34
0.0
 50
90.0
1001
ACAD
1000
DSTYLE
1002
{
1070
   287
1070
     3
1070
    40
1040
35.0
1070
   143
1040
0.039
1070
   172
1070
     1
1070
   271
1070
     0
1070
   279
1070
     0
1002
}
  0
DIMENSION
  5
8422
  8
3
  2
*D15
 10
3514.1084372402179
 20
3407.4511595622721
 30
0.0
 11
3426.6084372402179
 21
4006.451159562273
 31
0.0
 70
     0
 13
3029.5604735312668
 23
4605.4511595622726
 33
0.0
 14
3153.5563643124451
 24
3407.4511595622721
 34
0.0
 50
90.0
1001
ACAD
1000
DSTYLE
1002
{
1070
   287
1070
     3
1070
    40
1040
35.0
1070
   143
1040
0.039
1070
   172
1070
     1
1070
   271
1070
     0
1070
   279
1070
     0
1002
}
  0
DIMENSION
  5
842E
  8
3
  2
*D16
 10
3514.1084372402179
 20
2567.4511595622721
 30
0.0
 11
3426.6084372402179
 21
2987.451159562273
 31
0.0
 70
     0
 13
3153.5563643124451
 23
3407.4511595622721
 33
0.0
 14
2929.5604735312681
 24
2567.4511595622721
 34
0.0
 50
90.0
1001
ACAD
1000
DSTYLE
1002
{
1070
   287
1070
     4
1070
    40
1040
35.0
1070
    75
1070
     1
1070
   143
1040
0.039
1070
   172
1070
     1
1070
   271
1070
     0
1070
   279
1070
     1
1002
}
  0
DIMENSION
  5
8570
  8
3
  2
*D17
 10
2269.5604735312681
 20
4829.2724630194889
 30
0.0
 11
2649.5604735312681
 21
4916.7724630194898
 31
0.0
 70
     0
 13
3029.5604735312668
 23
4658.4511595622726
 33
0.0
 14
2269.5604735312681
 24
4651.7406811313604
 34
0.0
1001
ACAD
1000
DSTYLE
1002
{
1070
   287
1070
     3
1070
    40
1040
35.0
1070
   143
1040
0.039
1070
   172
1070
     1
1070
   271
1070
     0
1070
   279
1070
     0
1002
}
  0
DIMENSION
  5
857C
  8
3
  2
*D18
 10
1300.5604735312679
 20
4829.2724630194889
 30
0.0
 11
1785.0604735312679
 21
4916.7724630194898
 31
0.0
 70
     0
 13
2269.5604735312681
 23
4651.7406811313604
 33
0.0
 14
1300.5604735312679
 24
3489.4511595622721
 34
0.0
1001
ACAD
1000
DSTYLE
1002
{
1070
   287
1070
     4
1070
    40
1040
35.0
1070
    75
1070
     1
1070
   143
1040
0.039
1070
   172
1070
     1
1070
   271
1070
     0
1070
   279
1070
     1
1002
}
  0
DIMENSION
  5
858B
  8
3
  2
*D19
 10
6505.9576547920879
 20
2847.4511595622712
 30
0.0
 11
6418.4576547920869
 21
3407.4511595622721
 31
0.0
 70
     0
 13
6184.9400047573117
 23
3967.4511595622712
 33
0.0
 14
6184.9400047573081
 24
2847.4511595622712
 34
0.0
 50
90.0
1001
ACAD
1000
DSTYLE
1002
{
1070
   287
1070
     3
1070
     3
1000
φ<>
1070
    40
1040
35.0
1070
   143
1040
0.039
1070
   172
1070
     1
1070
   271
1070
     0
1070
   279
1070
     0
1002
}
  0
LINE
  5
8598
  8
1
 10
5279.940004757309
 20
4658.4511595622726
 30
0.0
 11
6235.9400047573099
 21
3402.4511595622721
 31
0.0
  0
LINE
  5
8599
  8
1
 10
6235.940004757309
 20
4658.4511595622726
 30
0.0
 11
5279.940004757309
 21
3402.4511595622721
 31
0.0
  0
DIMENSION
  5
85DF
  8
3
  2
*D20
 10
2269.5604735312681
 20
2073.5666463242892
 30
0.0
 11
1719.5604735312691
 21
2161.0666463242892
 31
0.0
 70
     0
 13
1169.5604735312691
 23
2327.4511595622721
 33
0.0
 14
2269.5604735312681
 24
2327.451159562273
 34
0.0
1001
ACAD
1000
DSTYLE
1002
{
1070
   287
1070
     3
1070
    40
1040
35.0
1070
   143
1040
0.039
1070
   172
1070
     1
1070
   271
1070
     0
1070
   279
1070
     0
1002
}
  0
DIMENSION
  5
85EC
  8
3
  2
*D21
 10
2929.5604735312681
 20
2073.5666463242892
 30
0.0
 11
2599.5604735312681
 21
2161.0666463242892
 31
0.0
 70
     0
 13
2269.5604735312681
 23
2327.451159562273
 33
0.0
 14
2929.5604735312681
 24
2327.4511595622721
 34
0.0
1001
ACAD
1000
DSTYLE
1002
{
1070
   287
1070
     3
1070
    40
1040
35.0
1070
   143
1040
0.039
1070
   172
1070
     1
1070
   271
1070
     0
1070
   279
1070
     0
1002
}
  0
DIMENSION
  5
85F9
  8
3
  2
*D22
 10
5757.9400047573081
 20
2073.5666463242892
 30
0.0
 11
5087.940004757309
 21
2161.0666463242892
 31
0.0
 70
     0
 13
4417.9400047573081
 23
2327.4511595622721
 33
0.0
 14
5757.9400047573081
 24
2327.4511595622721
 34
0.0
1001
ACAD
1000
DSTYLE
1002
{
1070
   287
1070
     3
1070
    40
1040
35.0
1070
   143
1040
0.039
1070
   172
1070
     1
1070
   271
1070
     0
1070
   279
1070
     0
1002
}
  0
DIMENSION
  5
8606
  8
3
  2
*D23
 10
6252.940004757309
 20
2073.5666463242892
 30
0.0
 11
6005.440004757309
 21
2161.0666463242892
 31
0.0
 70
     0
 13
5757.9400047573081
 23
2327.4511595622721
 33
0.0
 14
6252.940004757309
 24
2327.4511595622721
 34
0.0
1001
ACAD
1000
DSTYLE
1002
{
1070
   287
1070
     3
1070
    40
1040
35.0
1070
   143
1040
0.039
1070
   172
1070
     1
1070
   271
1070
     0
1070
   279
1070
     0
1002
}
  0
LINE
  5
8607
  8
2
 10
4470.9400047573081
 20
2952.4511595622721
 30
0.0
 11
4270.940004757309
 21
2952.4511595622721
 31
0.0
  0
LINE
  5
8608
  8
1
 10
4470.9400047573081
 20
2732.4511595622721
 30
0.0
 11
4270.940004757309
 21
2732.4511595622721
 31
0.0
  0
LINE
  5
8615
  8
1
 10
2014.5604735312679
 20
3307.4511595622712
 30
0.0
 11
2524.5604735312681
 21
3307.4511595622721
 31
0.0
  0
LINE
  5
8617
  8
1
 10
2524.5604735312681
 20
3307.4511595622712
 30
0.0
 11
2669.5604735312681
 21
2692.4511595622721
 31
0.0
  0
LINE
  5
8618
  8
1
 10
2014.5604735312679
 20
3307.4511595622712
 30
0.0
 11
1869.5604735312679
 21
2692.4511595622721
 31
0.0
  0
LINE
  5
8619
  8
1
 10
2014.5604735312679
 20
5911.7675927715281
 30
0.0
 11
2014.5604735312679
 21
6665.7675927715272
 31
0.0
  0
LINE
  5
861A
  8
1
 10
2524.5604735312681
 20
5911.7675927715281
 30
0.0
 11
2524.5604735312681
 21
6665.7675927715272
 31
0.0
  0
LINE
  5
861F
  8
1
 10
4417.9400047573081
 20
2327.4511595622721
 30
0.0
 11
6252.9400047573108
 21
2327.4511595622721
 31
0.0
1001
ACAD
1000
ASC_BOUNDS
1002
{
1070
    19
1002
}
  0
LINE
  5
8620
  8
1
 10
4417.9400047573081
 20
2452.4511595622721
 30
0.0
 11
6252.9400047573117
 21
2452.4511595622721
 31
0.0
  0
LINE
  5
8621
  8
1
 10
6252.9400047573108
 20
2452.4511595622721
 30
0.0
 11
6252.940004757309
 21
2327.4511595622721
 31
0.0
  0
LINE
  5
8623
  8
1
 10
4417.9400047573081
 20
2452.4511595622721
 30
0.0
 11
4417.9400047573081
 21
2327.4511595622721
 31
0.0
  0
LINE
  5
8624
  8
1
 10
2929.5604735312681
 20
2452.4511595622721
 30
0.0
 11
2929.5604735312681
 21
2327.4511595622721
 31
0.0
  0
LINE
  5
8625
  8
1
 10
2929.5604735312681
 20
2327.4511595622721
 30
0.0
 11
1169.5604735312691
 21
2327.4511595622721
 31
0.0
1001
ACAD
1000
ASC_BOUNDS
1002
{
1070
    19
1005
0
1005
0
1002
}
  0
LINE
  5
8626
  8
1
 10
2929.5604735312681
 20
2452.4511595622721
 30
0.0
 11
1169.5604735312691
 21
2452.4511595622721
 31
0.0
  0
LINE
  5
8627
  8
1
 10
2669.5604735312681
 20
2327.4511595622721
 30
0.0
 11
2669.5604735312681
 21
2452.4511595622721
 31
0.0
  0
LINE
  5
8628
  8
1
 10
1169.5604735312691
 20
2452.4511595622721
 30
0.0
 11
1169.5604735312691
 21
2327.4511595622721
 31
0.0
  0
LINE
  5
8629
  8
1
 10
5262.9400047573072
 20
2692.4511595622721
 30
0.0
 11
5262.9400047573081
 21
2567.4511595622721
 31
0.0
  0
LINE
  5
862A
  8
1
 10
5262.9400047573072
 20
2452.4511595622721
 30
0.0
 11
5262.9400047573081
 21
2327.4511595622721
 31
0.0
  0
DIMENSION
  5
8639
  8
3
  2
*D24
 10
3511.2357506761691
 20
2327.4511595622721
 30
0.0
 11
3423.7357506761682
 21
2027.4511595622721
 31
0.0
 70
     0
 13
2929.5604735312681
 23
2452.4511595622721
 33
0.0
 14
2929.5604735312681
 24
2327.4511595622721
 34
0.0
 50
90.0
1001
ACAD
1000
DSTYLE
1002
{
1070
   287
1070
     3
1070
    40
1040
35.0
1070
   143
1040
0.039
1070
   172
1070
     1
1070
   271
1070
     0
1070
   279
1070
     0
1070
     6
1000
DOT
1002
}
  0
DIMENSION
  5
866A
  8
3
  2
*D25
 10
3516.3820605926949
 20
2567.4511595622721
 30
0.0
 11
3728.8820605926949
 21
2643.2011595622721
 31
0.0
 70
     0
 13
2929.5604735312681
 23
2452.4511595622721
 33
0.0
 14
2929.5604735312681
 24
2567.4511595622721
 34
0.0
 50
90.0
1001
ACAD
1000
DSTYLE
1002
{
1070
   287
1070
     4
1070
     3
1000
(<>)
1070
    40
1040
35.0
1070
   143
1040
0.039
1070
   172
1070
     1
1070
   271
1070
     0
1070
   279
1070
     1
1070
     6
1000
DOT
1002
}
  0
DIMENSION
  5
8677
  8
3
  2
*D26
 10
3917.7481640359329
 20
2327.4511595622721
 30
0.0
 11
3802.7481640359319
 21
3492.9511595622721
 31
0.0
 70
     0
 13
3029.5604735312668
 23
4658.4511595622726
 33
0.0
 14
2929.5604735312681
 24
2327.4511595622721
 34
0.0
 50
90.0
1001
ACAD
1000
DSTYLE
1002
{
1070
   287
1070
     4
1070
     3
1000
(<>)
1070
    40
1040
35.0
1070
   143
1040
0.039
1070
   172
1070
     1
1070
   271
1070
     0
1070
   279
1070
     1
1002
}
  0
ARC
  5
867C
  8
1
 10
2187.5604735312681
 20
3489.4511595622721
 30
0.0
 40
887.0
 50
229.2498209768701
 51
243.9660825265812
  0
ENDSEC
  0
EOF
