  0
SECTION
  2
HEADER
  9
$ACADVER
  1
AC1009
  9
$INSBASE
 10
0.0
 20
0.0
 30
0.0
  9
$EXTMIN
 10
0.0
 20
0.0
 30
0.0
  9
$EXTMAX
 10
7350.0
 20
10325.0
 30
0.0
  9
$LIMMIN
 10
0.0
 20
0.0
  9
$LIMMAX
 10
297.0
 20
210.0
  9
$ORTHOMODE
 70
     0
  9
$REGENMODE
 70
     1
  9
$FILLMODE
 70
     0
  9
$QTEXTMODE
 70
     0
  9
$MIRRTEXT
 70
     1
  9
$DRAGMODE
 70
     2
  9
$LTSCALE
 40
100.0
  9
$OSMODE
 70
    37
  9
$ATTMODE
 70
     1
  9
$TEXTSIZE
 40
180.0
  9
$TRACEWID
 40
0.05
  9
$TEXTSTYLE
  7
STANDARD
  9
$CLAYER
  8
3
  9
$CELTYPE
  6
BYLAYER
  9
$CECOLOR
 62
   256
  9
$DIMSCALE
 40
35.0
  9
$DIMASZ
 40
2.0
  9
$DIMEXO
 40
0.5
  9
$DIMDLI
 40
10.0
  9
$DIMRND
 40
0.0
  9
$DIMDLE
 40
0.0
  9
$DIMEXE
 40
1.0
  9
$DIMTP
 40
1.0
  9
$DIMTM
 40
1.0
  9
$DIMTXT
 40
3.0
  9
$DIMCEN
 40
0.0
  9
$DIMTSZ
 40
0.0
  9
$DIMTOL
 70
     0
  9
$DIMLIM
 70
     0
  9
$DIMTIH
 70
     0
  9
$DIMTOH
 70
     0
  9
$DIMSE1
 70
     0
  9
$DIMSE2
 70
     0
  9
$DIMTAD
 70
     1
  9
$DIMZIN
 70
     8
  9
$DIMBLK
  1

  9
$DIMASO
 70
     1
  9
$DIMSHO
 70
     1
  9
$DIMPOST
  1

  9
$DIMAPOST
  1

  9
$DIMALT
 70
     0
  9
$DIMALTD
 70
     2
  9
$DIMALTF
 40
0.039
  9
$DIMLFAC
 40
1.0
  9
$DIMTOFL
 70
     1
  9
$DIMTVP
 40
0.0
  9
$DIMTIX
 70
     0
  9
$DIMSOXD
 70
     0
  9
$DIMSAH
 70
     1
  9
$DIMBLK1
  1
OPEN
  9
$DIMBLK2
  1
OPEN
  9
$DIMSTYLE
  2
IGA
  9
$DIMCLRD
 70
     0
  9
$DIMCLRE
 70
     0
  9
$DIMCLRT
 70
     0
  9
$DIMTFAC
 40
10.0
  9
$DIMGAP
 40
1.0
  9
$LUNITS
 70
     2
  9
$LUPREC
 70
     3
  9
$SKETCHINC
 40
0.1
  9
$FILLETRAD
 40
50.0
  9
$AUNITS
 70
     0
  9
$AUPREC
 70
     0
  9
$MENU
  1
acad
  9
$ELEVATION
 40
0.0
  9
$PELEVATION
 40
0.0
  9
$THICKNESS
 40
0.0
  9
$LIMCHECK
 70
     0
  9
$BLIPMODE
 70
     0
  9
$CHAMFERA
 40
0.5
  9
$CHAMFERB
 40
0.5
  9
$SKPOLY
 70
     0
  9
$TDCREATE
 40
2453167.599160763
  9
$TDUPDATE
 40
2454953.7606891892
  9
$TDINDWG
 40
0.0860998611
  9
$TDUSRTIMER
 40
0.0860998611
  9
$USRTIMER
 70
     1
  9
$ANGBASE
 50
0.0
  9
$ANGDIR
 70
     0
  9
$PDMODE
 70
     0
  9
$PDSIZE
 40
0.0
  9
$PLINEWID
 40
0.0
  9
$COORDS
 70
     1
  9
$SPLFRAME
 70
     0
  9
$SPLINETYPE
 70
     6
  9
$SPLINESEGS
 70
     8
  9
$ATTDIA
 70
     0
  9
$ATTREQ
 70
     1
  9
$HANDLING
 70
 10241
  9
$HANDSEED
  5
3DD
  9
$SURFTAB1
 70
     6
  9
$SURFTAB2
 70
     6
  9
$SURFTYPE
 70
     6
  9
$SURFU
 70
     6
  9
$SURFV
 70
     6
  9
$UCSNAME
  2

  9
$UCSORG
 10
0.0
 20
0.0
 30
0.0
  9
$UCSXDIR
 10
1.0
 20
0.0
 30
0.0
  9
$UCSYDIR
 10
0.0
 20
1.0
 30
0.0
  9
$PUCSNAME
  2

  9
$PUCSORG
 10
0.0
 20
0.0
 30
0.0
  9
$PUCSXDIR
 10
1.0
 20
0.0
 30
0.0
  9
$PUCSYDIR
 10
0.0
 20
1.0
 30
0.0
  9
$USERI1
 70
     0
  9
$USERI2
 70
     0
  9
$USERI3
 70
     0
  9
$USERI4
 70
     0
  9
$USERI5
 70
     0
  9
$USERR1
 40
0.0
  9
$USERR2
 40
0.0
  9
$USERR3
 40
0.0
  9
$USERR4
 40
0.0
  9
$USERR5
 40
0.0
  9
$WORLDVIEW
 70
     1
  9
$SHADEDGE
 70
     3
  9
$SHADEDIF
 70
    70
  9
$TILEMODE
 70
     1
  9
$MAXACTVP
 70
    16
  9
$PLIMCHECK
 70
     0
  9
$PEXTMIN
 10
1.0000000000000000E+020
 20
1.0000000000000000E+020
 30
1.0000000000000000E+020
  9
$PEXTMAX
 10
-1.0000000000000000E+020
 20
-1.0000000000000000E+020
 30
-1.0000000000000000E+020
  9
$PLIMMIN
 10
0.0
 20
0.0
  9
$PLIMMAX
 10
12.0
 20
9.0
  9
$UNITMODE
 70
     0
  9
$VISRETAIN
 70
     0
  9
$PLINEGEN
 70
     0
  9
$PSLTSCALE
 70
     1
  0
ENDSEC
  0
SECTION
  2
TABLES
  0
TABLE
  2
VPORT
 70
     2
  0
VPORT
  2
*ACTIVE
 70
     0
 10
0.0
 20
0.0
 11
1.0
 21
1.0
 12
12378.134855979781
 22
5162.500024039763
 13
0.0
 23
0.0
 14
10.0
 24
10.0
 15
10.0
 25
10.0
 16
0.0
 26
0.0
 36
1.0
 17
0.0
 27
0.0
 37
0.0
 40
10404.15209055927
 41
3.1666666666666661
 42
50.0
 43
0.0
 44
0.0
 50
0.0
 51
0.0
 71
     0
 72
   100
 73
     1
 74
     0
 75
     0
 76
     0
 77
     0
 78
     0
  0
ENDTAB
  0
TABLE
  2
LTYPE
 70
     2
  0
LTYPE
  2
CONTINUOUS
 70
     0
  3
Solid line
 72
    65
 73
     0
 40
0.0
  0
LTYPE
  2
CENTER
 70
     0
  3
____ _ ____ _ ____ _ ____ _ ____ _ ____ _ ____ 
 72
    65
 73
     4
 40
2.0
 49
1.25
 49
-0.25
 49
0.25
 49
-0.25
  0
ENDTAB
  0
TABLE
  2
LAYER
 70
     7
  0
LAYER
  2
0
 70
     0
 62
     7
  6
CONTINUOUS
  0
LAYER
  2
3
 70
     0
 62
     2
  6
CONTINUOUS
  0
LAYER
  2
2
 70
     0
 62
     3
  6
CENTER
  0
LAYER
  2
1
 70
     0
 62
     4
  6
CONTINUOUS
  0
LAYER
  2
4
 70
     0
 62
     7
  6
CONTINUOUS
  0
LAYER
  2
DEFPOINTS
 70
     0
 62
     7
  6
CONTINUOUS
  0
LAYER
  2
FUTO
 70
     0
 62
     4
  6
CONTINUOUS
  0
ENDTAB
  0
TABLE
  2
STYLE
 70
     1
  0
STYLE
  2
STANDARD
 70
     0
 40
0.0
 41
1.0
 50
0.0
 71
     0
 42
180.0
  3
simplex.shx
  4
extfont.shx
  0
ENDTAB
  0
TABLE
  2
VIEW
 70
     0
  0
ENDTAB
  0
TABLE
  2
UCS
 70
     0
  0
ENDTAB
  0
TABLE
  2
APPID
 70
     1
  0
APPID
  2
ACAD
 70
     0
  0
ENDTAB
  0
TABLE
  2
DIMSTYLE
 70
     1
  0
DIMSTYLE
  2
IGA
 70
     0
  3

  4

  5

  6
OPEN
  7
OPEN
 40
2.0
 41
2.0
 42
0.5
 43
10.0
 44
1.0
 45
0.0
 46
0.0
 47
1.0
 48
1.0
140
3.0
141
0.0
142
0.0
143
0.03937
144
1.0
145
0.0
146
10.0
147
1.0
 71
     0
 72
     0
 73
     0
 74
     0
 75
     0
 76
     0
 77
     1
 78
     8
170
     0
171
     2
172
     0
173
     1
174
     0
175
     0
176
     0
177
     0
178
     0
  0
ENDTAB
  0
ENDSEC
  0
SECTION
  2
BLOCKS
  0
BLOCK
  8
0
  2
$MODEL_SPACE
 70
     0
 10
0.0
 20
0.0
 30
0.0
  3
$MODEL_SPACE
  1

  0
ENDBLK
  5
7
  8
0
  0
BLOCK
 67
     1
  8
0
  2
$PAPER_SPACE
 70
     0
 10
0.0
 20
0.0
 30
0.0
  3
$PAPER_SPACE
  1

  0
ENDBLK
  5
A
 67
     1
  8
0
  0
BLOCK
  8
0
  2
_OPEN
 70
     0
 10
0.0
 20
0.0
 30
0.0
  3
_OPEN
  1

  0
LINE
  5
2A
  8
0
  6
BYBLOCK
 62
     0
 10
-1.0
 20
0.1666666666666666
 30
0.0
 11
0.0
 21
0.0
 31
0.0
  0
LINE
  5
2B
  8
0
  6
BYBLOCK
 62
     0
 10
0.0
 20
0.0
 30
0.0
 11
-1.0
 21
-0.1666666666666666
 31
0.0
  0
LINE
  5
2C
  8
0
  6
BYBLOCK
 62
     0
 10
0.0
 20
0.0
 30
0.0
 11
-1.0
 21
0.0
 31
0.0
  0
ENDBLK
  5
2E
  8
0
  0
BLOCK
  8
0
  2
*D1
 70
     1
 10
0.0
 20
0.0
 30
0.0
  3
*D1
  1

  0
LINE
  5
1EA
  8
0
  6
BYBLOCK
 62
     0
 10
-4323.5939238298306
 20
7683.7675927715281
 30
0.0
 11
-4968.403342240912
 21
7683.7675927715281
 31
0.0
  0
LINE
  5
1EB
  8
0
  6
BYBLOCK
 62
     0
 10
-4323.5939238298306
 20
6693.7675927715281
 30
0.0
 11
-4968.403342240912
 21
6693.7675927715281
 31
0.0
  0
LINE
  5
1EC
  8
0
  6
BYBLOCK
 62
     0
 10
-4933.403342240912
 20
7613.7675927715281
 30
0.0
 11
-4933.403342240912
 21
6763.7675927715281
 31
0.0
  0
INSERT
  5
1ED
  8
0
  6
BYBLOCK
 62
     0
  2
_OPEN
 10
-4933.403342240912
 20
7683.7675927715281
 30
0.0
 41
70.0
 42
70.0
 43
70.0
 50
90.0
  0
INSERT
  5
1EE
  8
0
  6
BYBLOCK
 62
     0
  2
_OPEN
 10
-4933.403342240912
 20
6693.7675927715281
 30
0.0
 41
70.0
 42
70.0
 43
70.0
 50
270.0
  0
TEXT
  5
1EF
  8
3
 62
     0
 10
-4968.403342240912
 20
7055.8552420415108
 30
0.0
 40
105.0
  1
990
 50
90.0
  0
POINT
  5
1F0
  8
DEFPOINTS
  6
BYBLOCK
 62
     0
 10
-4306.0939238298324
 20
7683.7675927715281
 30
0.0
  0
POINT
  5
1F1
  8
DEFPOINTS
  6
BYBLOCK
 62
     0
 10
-4306.0939238298324
 20
6693.7675927715281
 30
0.0
  0
POINT
  5
1F2
  8
DEFPOINTS
  6
BYBLOCK
 62
     0
 10
-4933.403342240912
 20
6693.7675927715281
 30
0.0
  0
ENDBLK
  5
1F4
  8
0
  0
BLOCK
  8
0
  2
*D2
 70
     1
 10
0.0
 20
0.0
 30
0.0
  3
*D2
  1

  0
LINE
  5
1F7
  8
0
  6
BYBLOCK
 62
     0
 10
-4063.5939238298329
 20
5848.7675927715281
 30
0.0
 11
-4968.403342240912
 21
5848.7675927715281
 31
0.0
  0
LINE
  5
1F8
  8
0
  6
BYBLOCK
 62
     0
 10
-4933.403342240912
 20
6623.7675927715281
 30
0.0
 11
-4933.403342240912
 21
5918.7675927715281
 31
0.0
  0
INSERT
  5
1F9
  8
0
  6
BYBLOCK
 62
     0
  2
_OPEN
 10
-4933.403342240912
 20
6693.7675927715281
 30
0.0
 41
70.0
 42
70.0
 43
70.0
 50
90.0
  0
INSERT
  5
1FA
  8
0
  6
BYBLOCK
 62
     0
  2
_OPEN
 10
-4933.403342240912
 20
5848.7675927715281
 30
0.0
 41
70.0
 42
70.0
 43
70.0
 50
270.0
  0
TEXT
  5
1FB
  8
3
 62
     0
 10
-4968.403342240912
 20
6136.2675927715281
 30
0.0
 40
105.0
  1
845
 50
90.0
  0
POINT
  5
1FC
  8
DEFPOINTS
  6
BYBLOCK
 62
     0
 10
-4306.0939238298324
 20
6693.7675927715281
 30
0.0
  0
POINT
  5
1FD
  8
DEFPOINTS
  6
BYBLOCK
 62
     0
 10
-4046.093923829832
 20
5848.7675927715281
 30
0.0
  0
POINT
  5
1FE
  8
DEFPOINTS
  6
BYBLOCK
 62
     0
 10
-4933.403342240912
 20
5848.7675927715281
 30
0.0
  0
ENDBLK
  5
200
  8
0
  0
BLOCK
  8
0
  2
*D3
 70
     1
 10
0.0
 20
0.0
 30
0.0
  3
*D3
  1

  0
LINE
  5
24
  8
0
  6
BYBLOCK
 62
     0
 10
-4306.0939238298324
 20
6676.2675927715281
 30
0.0
 11
-4306.0939238298324
 21
5351.5740510801079
 31
0.0
  0
LINE
  5
25
  8
0
  6
BYBLOCK
 62
     0
 10
-4046.093923829832
 20
5831.2675927715281
 30
0.0
 11
-4046.093923829832
 21
5351.5740510801079
 31
0.0
  0
LINE
  5
26
  8
0
  6
BYBLOCK
 62
     0
 10
-4116.0939238298324
 20
5386.5740510801079
 30
0.0
 11
-4236.0939238298324
 21
5386.5740510801079
 31
0.0
  0
LINE
  5
27
  8
0
  6
BYBLOCK
 62
     0
 10
-4306.0939238298324
 20
5386.5740510801079
 30
0.0
 11
-4681.0939238298324
 21
5386.5740510801079
 31
0.0
  0
INSERT
  5
28
  8
0
  6
BYBLOCK
 62
     0
  2
_OPEN
 10
-4046.093923829832
 20
5386.5740510801079
 30
0.0
 41
70.0
 42
70.0
 43
70.0
  0
INSERT
  5
2F
  8
0
  6
BYBLOCK
 62
     0
  2
_OPEN
 10
-4306.0939238298324
 20
5386.5740510801079
 30
0.0
 41
70.0
 42
70.0
 43
70.0
 50
180.0
  0
TEXT
  5
30
  8
3
 62
     0
 10
-4646.0939238298324
 20
5421.5740510801079
 30
0.0
 40
105.0
  1
260
  0
POINT
  5
31
  8
DEFPOINTS
  6
BYBLOCK
 62
     0
 10
-4306.0939238298324
 20
6693.7675927715281
 30
0.0
  0
POINT
  5
33
  8
DEFPOINTS
  6
BYBLOCK
 62
     0
 10
-4046.093923829832
 20
5848.7675927715281
 30
0.0
  0
POINT
  5
34
  8
DEFPOINTS
  6
BYBLOCK
 62
     0
 10
-4046.093923829832
 20
5386.5740510801079
 30
0.0
  0
ENDBLK
  5
36
  8
0
  0
BLOCK
  8
0
  2
*D4
 70
     1
 10
0.0
 20
0.0
 30
0.0
  3
*D4
  1

  0
LINE
  5
3A
  8
0
  6
BYBLOCK
 62
     0
 10
-2546.093923829832
 20
5831.2675927715281
 30
0.0
 11
-2546.093923829832
 21
5351.5740510801079
 31
0.0
  0
LINE
  5
3B
  8
0
  6
BYBLOCK
 62
     0
 10
-3976.093923829832
 20
5386.5740510801079
 30
0.0
 11
-2616.093923829832
 21
5386.5740510801079
 31
0.0
  0
INSERT
  5
3C
  8
0
  6
BYBLOCK
 62
     0
  2
_OPEN
 10
-4046.093923829832
 20
5386.5740510801079
 30
0.0
 41
70.0
 42
70.0
 43
70.0
 50
180.0
  0
INSERT
  5
3D
  8
0
  6
BYBLOCK
 62
     0
  2
_OPEN
 10
-2546.093923829832
 20
5386.5740510801079
 30
0.0
 41
70.0
 42
70.0
 43
70.0
  0
TEXT
  5
3E
  8
3
 62
     0
 10
-3471.093923829832
 20
5421.5740510801079
 30
0.0
 40
105.0
  1
1500
  0
POINT
  5
3F
  8
DEFPOINTS
  6
BYBLOCK
 62
     0
 10
-4046.093923829832
 20
5848.7675927715281
 30
0.0
  0
POINT
  5
40
  8
DEFPOINTS
  6
BYBLOCK
 62
     0
 10
-2546.093923829832
 20
5848.7675927715281
 30
0.0
  0
POINT
  5
41
  8
DEFPOINTS
  6
BYBLOCK
 62
     0
 10
-2546.093923829832
 20
5386.5740510801079
 30
0.0
  0
ENDBLK
  5
43
  8
0
  0
BLOCK
  8
0
  2
*D5
 70
     1
 10
0.0
 20
0.0
 30
0.0
  3
*D5
  1

  0
LINE
  5
23A
  8
0
  6
BYBLOCK
 62
     0
 10
-2528.593923829832
 20
5848.7675927715281
 30
0.0
 11
-2080.7021429692322
 21
5848.7675927715281
 31
0.0
  0
LINE
  5
23B
  8
0
  6
BYBLOCK
 62
     0
 10
-2528.593923829832
 20
6758.7675927715263
 30
0.0
 11
-2080.7021429692322
 21
6758.7675927715263
 31
0.0
  0
LINE
  5
23C
  8
0
  6
BYBLOCK
 62
     0
 10
-2115.7021429692322
 20
5918.7675927715281
 30
0.0
 11
-2115.7021429692322
 21
6688.7675927715263
 31
0.0
  0
INSERT
  5
23D
  8
0
  6
BYBLOCK
 62
     0
  2
_OPEN
 10
-2115.7021429692322
 20
5848.7675927715281
 30
0.0
 41
70.0
 42
70.0
 43
70.0
 50
270.0
  0
INSERT
  5
23E
  8
0
  6
BYBLOCK
 62
     0
  2
_OPEN
 10
-2115.7021429692322
 20
6758.7675927715263
 30
0.0
 41
70.0
 42
70.0
 43
70.0
 50
90.0
  0
TEXT
  5
23F
  8
3
 62
     0
 10
-2150.7021429692322
 20
6133.2074768975936
 30
0.0
 40
105.0
  1
910
 50
90.0
  0
POINT
  5
240
  8
DEFPOINTS
  6
BYBLOCK
 62
     0
 10
-2546.093923829832
 20
5848.7675927715281
 30
0.0
  0
POINT
  5
241
  8
DEFPOINTS
  6
BYBLOCK
 62
     0
 10
-2546.093923829832
 20
6758.7675927715263
 30
0.0
  0
POINT
  5
242
  8
DEFPOINTS
  6
BYBLOCK
 62
     0
 10
-2115.7021429692322
 20
6758.7675927715263
 30
0.0
  0
ENDBLK
  5
244
  8
0
  0
BLOCK
  8
0
  2
*D6
 70
     1
 10
0.0
 20
0.0
 30
0.0
  3
*D6
  1

  0
LINE
  5
1C7
  8
0
  6
BYBLOCK
 62
     0
 10
-2968.593923829832
 20
7683.7675927715281
 30
0.0
 11
-2080.7021429692322
 21
7683.7675927715281
 31
0.0
  0
LINE
  5
1C8
  8
0
  6
BYBLOCK
 62
     0
 10
-2115.7021429692322
 20
6828.7675927715272
 30
0.0
 11
-2115.7021429692322
 21
7613.7675927715281
 31
0.0
  0
INSERT
  5
1C9
  8
0
  6
BYBLOCK
 62
     0
  2
_OPEN
 10
-2115.7021429692322
 20
6758.7675927715263
 30
0.0
 41
70.0
 42
70.0
 43
70.0
 50
270.0
  0
INSERT
  5
1CA
  8
0
  6
BYBLOCK
 62
     0
  2
_OPEN
 10
-2115.7021429692322
 20
7683.7675927715281
 30
0.0
 41
70.0
 42
70.0
 43
70.0
 50
90.0
  0
TEXT
  5
1CB
  8
3
 62
     0
 10
-2150.7021429692322
 20
7086.2675927715272
 30
0.0
 40
105.0
  1
925
 50
90.0
  0
POINT
  5
1CC
  8
DEFPOINTS
  6
BYBLOCK
 62
     0
 10
-2546.093923829832
 20
6758.7675927715263
 30
0.0
  0
POINT
  5
1CD
  8
DEFPOINTS
  6
BYBLOCK
 62
     0
 10
-2986.093923829832
 20
7683.7675927715281
 30
0.0
  0
POINT
  5
1CE
  8
DEFPOINTS
  6
BYBLOCK
 62
     0
 10
-2115.7021429692322
 20
7683.7675927715281
 30
0.0
  0
ENDBLK
  5
1D0
  8
0
  0
BLOCK
  8
0
  2
*D7
 70
     1
 10
0.0
 20
0.0
 30
0.0
  3
*D7
  1

  0
LINE
  5
1D3
  8
0
  6
BYBLOCK
 62
     0
 10
-2546.093923829832
 20
6776.2675927715263
 30
0.0
 11
-2546.093923829832
 21
7949.311000374676
 31
0.0
  0
LINE
  5
1D4
  8
0
  6
BYBLOCK
 62
     0
 10
-2986.093923829832
 20
7701.2675927715281
 30
0.0
 11
-2986.093923829832
 21
7949.311000374676
 31
0.0
  0
LINE
  5
1D5
  8
0
  6
BYBLOCK
 62
     0
 10
-2476.093923829832
 20
7914.311000374677
 30
0.0
 11
-2406.093923829832
 21
7914.311000374677
 31
0.0
  0
LINE
  5
1D6
  8
0
  6
BYBLOCK
 62
     0
 10
-3056.093923829832
 20
7914.311000374677
 30
0.0
 11
-3126.093923829832
 21
7914.311000374677
 31
0.0
  0
LINE
  5
1D7
  8
0
  6
BYBLOCK
 62
     0
 10
-2546.093923829832
 20
7914.311000374677
 30
0.0
 11
-2986.093923829832
 21
7914.311000374677
 31
0.0
  0
INSERT
  5
1D8
  8
0
  6
BYBLOCK
 62
     0
  2
_OPEN
 10
-2546.093923829832
 20
7914.311000374677
 30
0.0
 41
70.0
 42
70.0
 43
70.0
 50
180.0
  0
INSERT
  5
1D9
  8
0
  6
BYBLOCK
 62
     0
  2
_OPEN
 10
-2986.093923829832
 20
7914.311000374677
 30
0.0
 41
70.0
 42
70.0
 43
70.0
  0
TEXT
  5
1DA
  8
3
 62
     0
 10
-2901.093923829832
 20
7949.311000374676
 30
0.0
 40
105.0
  1
440
  0
POINT
  5
1DB
  8
DEFPOINTS
  6
BYBLOCK
 62
     0
 10
-2546.093923829832
 20
6758.7675927715263
 30
0.0
  0
POINT
  5
1DC
  8
DEFPOINTS
  6
BYBLOCK
 62
     0
 10
-2986.093923829832
 20
7683.7675927715281
 30
0.0
  0
POINT
  5
1DD
  8
DEFPOINTS
  6
BYBLOCK
 62
     0
 10
-2986.093923829832
 20
7914.311000374677
 30
0.0
  0
ENDBLK
  5
1DF
  8
0
  0
BLOCK
  8
0
  2
*D8
 70
     1
 10
0.0
 20
0.0
 30
0.0
  3
*D8
  1

  0
LINE
  5
229
  8
0
  6
BYBLOCK
 62
     0
 10
-4306.0939238298324
 20
7701.2675927715281
 30
0.0
 11
-4306.0939238298324
 21
7949.311000374676
 31
0.0
  0
LINE
  5
22A
  8
0
  6
BYBLOCK
 62
     0
 10
-3056.093923829832
 20
7914.311000374677
 30
0.0
 11
-4236.0939238298324
 21
7914.311000374677
 31
0.0
  0
INSERT
  5
22B
  8
0
  6
BYBLOCK
 62
     0
  2
_OPEN
 10
-2986.093923829832
 20
7914.311000374677
 30
0.0
 41
70.0
 42
70.0
 43
70.0
  0
INSERT
  5
22C
  8
0
  6
BYBLOCK
 62
     0
  2
_OPEN
 10
-4306.0939238298324
 20
7914.311000374677
 30
0.0
 41
70.0
 42
70.0
 43
70.0
 50
180.0
  0
TEXT
  5
22D
  8
3
 62
     0
 10
-3821.093923829832
 20
7949.311000374676
 30
0.0
 40
105.0
  1
1320
  0
POINT
  5
22E
  8
DEFPOINTS
  6
BYBLOCK
 62
     0
 10
-2986.093923829832
 20
7683.7675927715281
 30
0.0
  0
POINT
  5
22F
  8
DEFPOINTS
  6
BYBLOCK
 62
     0
 10
-4306.0939238298324
 20
7683.7675927715281
 30
0.0
  0
POINT
  5
230
  8
DEFPOINTS
  6
BYBLOCK
 62
     0
 10
-4306.0939238298324
 20
7914.311000374677
 30
0.0
  0
ENDBLK
  5
232
  8
0
  0
BLOCK
  8
0
  2
*D9
 70
     1
 10
0.0
 20
0.0
 30
0.0
  3
*D9
  1

  0
LINE
  5
5F
  8
0
  6
BYBLOCK
 62
     0
 10
4417.9400047573081
 20
2173.4880679732642
 30
0.0
 11
4417.9400047573081
 21
1907.135825600358
 31
0.0
  0
LINE
  5
60
  8
0
  6
BYBLOCK
 62
     0
 10
5757.9400047573081
 20
2173.4880679732642
 30
0.0
 11
5757.9400047573081
 21
1907.135825600358
 31
0.0
  0
LINE
  5
61
  8
0
  6
BYBLOCK
 62
     0
 10
4487.940004757309
 20
1942.135825600358
 30
0.0
 11
5687.940004757309
 21
1942.135825600358
 31
0.0
  0
INSERT
  5
62
  8
0
  6
BYBLOCK
 62
     0
  2
_OPEN
 10
4417.9400047573081
 20
1942.135825600358
 30
0.0
 41
70.0
 42
70.0
 43
70.0
 50
180.0
  0
INSERT
  5
63
  8
0
  6
BYBLOCK
 62
     0
  2
_OPEN
 10
5757.9400047573081
 20
1942.135825600358
 30
0.0
 41
70.0
 42
70.0
 43
70.0
  0
TEXT
  5
64
  8
3
 62
     0
 10
4880.0261621183081
 20
1977.135825600358
 30
0.0
 40
105.0
  1
1340
  0
POINT
  5
65
  8
DEFPOINTS
  6
BYBLOCK
 62
     0
 10
4417.9400047573081
 20
2190.9880679732642
 30
0.0
  0
POINT
  5
66
  8
DEFPOINTS
  6
BYBLOCK
 62
     0
 10
5757.9400047573081
 20
2190.9880679732642
 30
0.0
  0
POINT
  5
67
  8
DEFPOINTS
  6
BYBLOCK
 62
     0
 10
5757.9400047573081
 20
1942.135825600358
 30
0.0
  0
ENDBLK
  5
69
  8
0
  0
BLOCK
  8
0
  2
*D10
 70
     1
 10
0.0
 20
0.0
 30
0.0
  3
*D10
  1

  0
LINE
  5
46
  8
0
  6
BYBLOCK
 62
     0
 10
6252.940004757309
 20
2173.4880679732642
 30
0.0
 11
6252.940004757309
 21
1907.135825600358
 31
0.0
  0
LINE
  5
47
  8
0
  6
BYBLOCK
 62
     0
 10
5827.940004757309
 20
1942.135825600358
 30
0.0
 11
6182.9400047573099
 21
1942.135825600358
 31
0.0
  0
INSERT
  5
48
  8
0
  6
BYBLOCK
 62
     0
  2
_OPEN
 10
5757.9400047573081
 20
1942.135825600358
 30
0.0
 41
70.0
 42
70.0
 43
70.0
 50
180.0
  0
INSERT
  5
49
  8
0
  6
BYBLOCK
 62
     0
  2
_OPEN
 10
6252.940004757309
 20
1942.135825600358
 30
0.0
 41
70.0
 42
70.0
 43
70.0
  0
TEXT
  5
4A
  8
3
 62
     0
 10
5870.440004757309
 20
1977.135825600358
 30
0.0
 40
105.0
  1
495
  0
POINT
  5
4B
  8
DEFPOINTS
  6
BYBLOCK
 62
     0
 10
5757.9400047573081
 20
2190.9880679732642
 30
0.0
  0
POINT
  5
4C
  8
DEFPOINTS
  6
BYBLOCK
 62
     0
 10
6252.940004757309
 20
2190.9880679732642
 30
0.0
  0
POINT
  5
4D
  8
DEFPOINTS
  6
BYBLOCK
 62
     0
 10
6252.940004757309
 20
1942.135825600358
 30
0.0
  0
ENDBLK
  5
4F
  8
0
  0
BLOCK
  8
0
  2
*D11
 70
     1
 10
0.0
 20
0.0
 30
0.0
  3
*D11
  1

  0
LINE
  5
1B0
  8
0
  6
BYBLOCK
 62
     0
 10
5332.9400047573108
 20
4976.842021305767
 30
0.0
 11
5332.9400047573108
 21
5176.6736446300019
 31
0.0
  0
LINE
  5
1B1
  8
0
  6
BYBLOCK
 62
     0
 10
6182.9400047573126
 20
4976.8420213057661
 30
0.0
 11
6182.9400047573126
 21
5176.6736446300019
 31
0.0
  0
LINE
  5
1B2
  8
0
  6
BYBLOCK
 62
     0
 10
5402.9400047573108
 20
5141.6736446300019
 30
0.0
 11
6112.9400047573117
 21
5141.6736446300019
 31
0.0
  0
INSERT
  5
1B3
  8
0
  6
BYBLOCK
 62
     0
  2
_OPEN
 10
5332.9400047573108
 20
5141.6736446300019
 30
0.0
 41
70.0
 42
70.0
 43
70.0
 50
180.0
  0
INSERT
  5
1B4
  8
0
  6
BYBLOCK
 62
     0
  2
_OPEN
 10
6182.9400047573126
 20
5141.6736446300019
 30
0.0
 41
70.0
 42
70.0
 43
70.0
  0
TEXT
  5
1B5
  8
3
 62
     0
 10
5625.7077326111676
 20
5176.6736446300019
 30
0.0
 40
105.0
  1
850
  0
POINT
  5
1B6
  8
DEFPOINTS
  6
BYBLOCK
 62
     0
 10
5332.9400047573108
 20
4959.342021305767
 30
0.0
  0
POINT
  5
1B7
  8
DEFPOINTS
  6
BYBLOCK
 62
     0
 10
6182.9400047573126
 20
4959.3420213057661
 30
0.0
  0
POINT
  5
1B8
  8
DEFPOINTS
  6
BYBLOCK
 62
     0
 10
6182.9400047573126
 20
5141.6736446300019
 30
0.0
  0
ENDBLK
  5
1BA
  8
0
  0
BLOCK
  8
0
  2
*D12
 70
     1
 10
0.0
 20
0.0
 30
0.0
  3
*D12
  1

  0
LINE
  5
1A1
  8
0
  6
BYBLOCK
 62
     0
 10
5757.9400047573081
 20
5310.5894683223814
 30
0.0
 11
5757.9400047573081
 21
5454.6497957074534
 31
0.0
  0
LINE
  5
1A2
  8
0
  6
BYBLOCK
 62
     0
 10
6193.2400047573092
 20
4976.8420213057661
 30
0.0
 11
6193.2400047573092
 21
5454.6497957074534
 31
0.0
  0
LINE
  5
1A3
  8
0
  6
BYBLOCK
 62
     0
 10
5687.9400047573081
 20
5419.6497957074534
 30
0.0
 11
5617.9400047573081
 21
5419.6497957074534
 31
0.0
  0
LINE
  5
1A4
  8
0
  6
BYBLOCK
 62
     0
 10
6263.2400047573092
 20
5419.6497957074534
 30
0.0
 11
6333.2400047573101
 21
5419.6497957074534
 31
0.0
  0
LINE
  5
1A5
  8
0
  6
BYBLOCK
 62
     0
 10
5757.9400047573081
 20
5419.6497957074534
 30
0.0
 11
6193.2400047573092
 21
5419.6497957074534
 31
0.0
  0
INSERT
  5
1A6
  8
0
  6
BYBLOCK
 62
     0
  2
_OPEN
 10
5757.9400047573081
 20
5419.6497957074534
 30
0.0
 41
70.0
 42
70.0
 43
70.0
  0
INSERT
  5
1A7
  8
0
  6
BYBLOCK
 62
     0
  2
_OPEN
 10
6193.2400047573092
 20
5419.6497957074534
 30
0.0
 41
70.0
 42
70.0
 43
70.0
 50
180.0
  0
TEXT
  5
1A8
  8
3
 62
     0
 10
5840.5900047573077
 20
5454.6497957074534
 30
0.0
 40
105.0
  1
435
  0
POINT
  5
1A9
  8
DEFPOINTS
  6
BYBLOCK
 62
     0
 10
5757.9400047573081
 20
5293.0894683223814
 30
0.0
  0
POINT
  5
1AA
  8
DEFPOINTS
  6
BYBLOCK
 62
     0
 10
6193.2400047573092
 20
4959.3420213057661
 30
0.0
  0
POINT
  5
1AB
  8
DEFPOINTS
  6
BYBLOCK
 62
     0
 10
6193.2400047573092
 20
5419.6497957074534
 30
0.0
  0
ENDBLK
  5
1AD
  8
0
  0
BLOCK
  8
0
  2
*D13
 70
     1
 10
0.0
 20
0.0
 30
0.0
  3
*D13
  1

  0
LINE
  5
158
  8
0
  6
BYBLOCK
 62
     0
 10
4270.940004757309
 20
3710.8420213057648
 30
0.0
 11
4270.940004757309
 21
5454.6497957074534
 31
0.0
  0
LINE
  5
159
  8
0
  6
BYBLOCK
 62
     0
 10
5687.9400047573081
 20
5419.6497957074534
 30
0.0
 11
4340.940004757309
 21
5419.6497957074534
 31
0.0
  0
INSERT
  5
15A
  8
0
  6
BYBLOCK
 62
     0
  2
_OPEN
 10
5757.9400047573081
 20
5419.6497957074534
 30
0.0
 41
70.0
 42
70.0
 43
70.0
  0
INSERT
  5
15B
  8
0
  6
BYBLOCK
 62
     0
  2
_OPEN
 10
4270.940004757309
 20
5419.6497957074534
 30
0.0
 41
70.0
 42
70.0
 43
70.0
 50
180.0
  0
INSERT
  5
15C
  8
3
  2
*U37
 10
0.0
 20
0.0
 30
0.0
  0
POINT
  5
15D
  8
DEFPOINTS
  6
BYBLOCK
 62
     0
 10
5757.9400047573081
 20
5293.0894683223814
 30
0.0
  0
POINT
  5
15E
  8
DEFPOINTS
  6
BYBLOCK
 62
     0
 10
4270.940004757309
 20
3693.3420213057648
 30
0.0
  0
POINT
  5
15F
  8
DEFPOINTS
  6
BYBLOCK
 62
     0
 10
4270.940004757309
 20
5419.6497957074534
 30
0.0
  0
ENDBLK
  5
161
  8
0
  0
BLOCK
  8
0
  2
_DOT
 70
     0
 10
0.0
 20
0.0
 30
0.0
  3
_DOT
  1

  0
LINE
  5
72
  8
0
  6
BYBLOCK
 62
     0
 10
0.0
 20
0.0
 30
0.0
 11
-1.0
 21
-0.0000000000000284
 31
0.0
  0
POLYLINE
  5
73
  8
0
  6
BYBLOCK
 62
     0
 66
     1
 10
0.0
 20
0.0
 30
0.0
 70
     1
 40
0.1666666666666666
 41
0.1666666666666666
  0
VERTEX
  5
302
  8
0
  6
BYBLOCK
 62
     0
 10
-0.0833333333333286
 20
-0.0000000000000284
 30
0.0
 42
1.0
  0
VERTEX
  5
303
  8
0
  6
BYBLOCK
 62
     0
 10
0.0833333333333286
 20
-0.0000000000000284
 30
0.0
 42
1.0
  0
SEQEND
  5
304
  8
0
  6
BYBLOCK
 62
     0
  0
ENDBLK
  5
78
  8
0
  0
BLOCK
  8
0
  2
*D15
 70
     1
 10
0.0
 20
0.0
 30
0.0
  3
*D15
  1

  0
LINE
  5
52
  8
0
  6
BYBLOCK
 62
     0
 10
-2546.0939238298338
 20
2309.9511595622721
 30
0.0
 11
-2546.0939238298338
 21
2038.3396899440079
 31
0.0
  0
LINE
  5
53
  8
0
  6
BYBLOCK
 62
     0
 10
-3646.093923829832
 20
2309.9511595622721
 30
0.0
 11
-3646.093923829832
 21
2038.3396899440079
 31
0.0
  0
LINE
  5
54
  8
0
  6
BYBLOCK
 62
     0
 10
-2616.0939238298338
 20
2073.3396899440081
 30
0.0
 11
-3576.093923829832
 21
2073.3396899440081
 31
0.0
  0
INSERT
  5
55
  8
0
  6
BYBLOCK
 62
     0
  2
_OPEN
 10
-2546.0939238298338
 20
2073.3396899440081
 30
0.0
 41
70.0
 42
70.0
 43
70.0
  0
INSERT
  5
56
  8
0
  6
BYBLOCK
 62
     0
  2
_OPEN
 10
-3646.093923829832
 20
2073.3396899440081
 30
0.0
 41
70.0
 42
70.0
 43
70.0
 50
180.0
  0
TEXT
  5
57
  8
3
 62
     0
 10
-3240.6927845983009
 20
2108.3396899440081
 30
0.0
 40
105.0
  1
1100
  0
POINT
  5
58
  8
DEFPOINTS
  6
BYBLOCK
 62
     0
 10
-2546.0939238298338
 20
2327.4511595622721
 30
0.0
  0
POINT
  5
59
  8
DEFPOINTS
  6
BYBLOCK
 62
     0
 10
-3646.093923829832
 20
2327.4511595622721
 30
0.0
  0
POINT
  5
5A
  8
DEFPOINTS
  6
BYBLOCK
 62
     0
 10
-3646.093923829832
 20
2073.3396899440081
 30
0.0
  0
ENDBLK
  5
5C
  8
0
  0
BLOCK
  8
0
  2
*D16
 70
     1
 10
0.0
 20
0.0
 30
0.0
  3
*D16
  1

  0
LINE
  5
82
  8
0
  6
BYBLOCK
 62
     0
 10
-4306.0939238298324
 20
2309.9511595622721
 30
0.0
 11
-4306.0939238298324
 21
2038.3396899440079
 31
0.0
  0
LINE
  5
83
  8
0
  6
BYBLOCK
 62
     0
 10
-3716.093923829832
 20
2073.3396899440081
 30
0.0
 11
-4236.0939238298324
 21
2073.3396899440081
 31
0.0
  0
INSERT
  5
84
  8
0
  6
BYBLOCK
 62
     0
  2
_OPEN
 10
-3646.093923829832
 20
2073.3396899440081
 30
0.0
 41
70.0
 42
70.0
 43
70.0
  0
INSERT
  5
85
  8
0
  6
BYBLOCK
 62
     0
  2
_OPEN
 10
-4306.0939238298324
 20
2073.3396899440081
 30
0.0
 41
70.0
 42
70.0
 43
70.0
 50
180.0
  0
TEXT
  5
86
  8
3
 62
     0
 10
-4111.0939238298324
 20
2108.3396899440081
 30
0.0
 40
105.0
  1
660
  0
POINT
  5
87
  8
DEFPOINTS
  6
BYBLOCK
 62
     0
 10
-3646.093923829832
 20
2327.4511595622721
 30
0.0
  0
POINT
  5
88
  8
DEFPOINTS
  6
BYBLOCK
 62
     0
 10
-4306.0939238298324
 20
2327.4511595622721
 30
0.0
  0
POINT
  5
89
  8
DEFPOINTS
  6
BYBLOCK
 62
     0
 10
-4306.0939238298324
 20
2073.3396899440081
 30
0.0
  0
ENDBLK
  5
8B
  8
0
  0
BLOCK
  8
0
  2
*D17
 70
     1
 10
0.0
 20
0.0
 30
0.0
  3
*D17
  1

  0
LINE
  5
B6
  8
0
  6
BYBLOCK
 62
     0
 10
-4423.5939238298306
 20
4605.4511595622726
 30
0.0
 11
-4694.113871827306
 21
4605.4511595622726
 31
0.0
  0
LINE
  5
B7
  8
0
  6
BYBLOCK
 62
     0
 10
-4423.5939238298306
 20
3455.4511595622721
 30
0.0
 11
-4694.113871827306
 21
3455.4511595622721
 31
0.0
  0
LINE
  5
B8
  8
0
  6
BYBLOCK
 62
     0
 10
-4659.1138718273069
 20
4535.4511595622716
 30
0.0
 11
-4659.1138718273069
 21
3525.4511595622721
 31
0.0
  0
INSERT
  5
B9
  8
0
  6
BYBLOCK
 62
     0
  2
_OPEN
 10
-4659.1138718273069
 20
4605.4511595622726
 30
0.0
 41
70.0
 42
70.0
 43
70.0
 50
90.0
  0
INSERT
  5
BA
  8
0
  6
BYBLOCK
 62
     0
  2
_OPEN
 10
-4659.1138718273069
 20
3455.4511595622721
 30
0.0
 41
70.0
 42
70.0
 43
70.0
 50
270.0
  0
TEXT
  5
BB
  8
3
 62
     0
 10
-4694.113871827306
 20
3865.4511595622721
 30
0.0
 40
105.0
  1
1150
 50
90.0
  0
POINT
  5
BC
  8
DEFPOINTS
  6
BYBLOCK
 62
     0
 10
-4406.0939238298306
 20
4605.4511595622726
 30
0.0
  0
POINT
  5
BD
  8
DEFPOINTS
  6
BYBLOCK
 62
     0
 10
-4406.0939238298306
 20
3455.4511595622721
 30
0.0
  0
POINT
  5
BE
  8
DEFPOINTS
  6
BYBLOCK
 62
     0
 10
-4659.1138718273069
 20
3455.4511595622721
 30
0.0
  0
ENDBLK
  5
C0
  8
0
  0
BLOCK
  8
0
  2
*D18
 70
     1
 10
0.0
 20
0.0
 30
0.0
  3
*D18
  1

  0
LINE
  5
C3
  8
0
  6
BYBLOCK
 62
     0
 10
-4423.5939238298306
 20
4605.4511595622726
 30
0.0
 11
-4925.6418875387826
 21
4605.4511595622726
 31
0.0
  0
LINE
  5
C4
  8
0
  6
BYBLOCK
 62
     0
 10
-4547.5898146110103
 20
3407.4511595622721
 30
0.0
 11
-4925.6418875387826
 21
3407.4511595622721
 31
0.0
  0
LINE
  5
C5
  8
0
  6
BYBLOCK
 62
     0
 10
-4890.6418875387826
 20
4535.4511595622716
 30
0.0
 11
-4890.6418875387826
 21
3477.451159562273
 31
0.0
  0
INSERT
  5
C6
  8
0
  6
BYBLOCK
 62
     0
  2
_OPEN
 10
-4890.6418875387826
 20
4605.4511595622726
 30
0.0
 41
70.0
 42
70.0
 43
70.0
 50
90.0
  0
INSERT
  5
C7
  8
0
  6
BYBLOCK
 62
     0
  2
_OPEN
 10
-4890.6418875387826
 20
3407.4511595622721
 30
0.0
 41
70.0
 42
70.0
 43
70.0
 50
270.0
  0
TEXT
  5
C8
  8
3
 62
     0
 10
-4925.6418875387826
 20
3841.4511595622721
 30
0.0
 40
105.0
  1
1198
 50
90.0
  0
POINT
  5
C9
  8
DEFPOINTS
  6
BYBLOCK
 62
     0
 10
-4406.0939238298306
 20
4605.4511595622726
 30
0.0
  0
POINT
  5
CA
  8
DEFPOINTS
  6
BYBLOCK
 62
     0
 10
-4530.0898146110094
 20
3407.4511595622721
 30
0.0
  0
POINT
  5
CB
  8
DEFPOINTS
  6
BYBLOCK
 62
     0
 10
-4890.6418875387826
 20
3407.4511595622721
 30
0.0
  0
ENDBLK
  5
CD
  8
0
  0
BLOCK
  8
0
  2
*D19
 70
     1
 10
0.0
 20
0.0
 30
0.0
  3
*D19
  1

  0
LINE
  5
EF
  8
0
  6
BYBLOCK
 62
     0
 10
-4323.5939238298306
 20
2567.4511595622721
 30
0.0
 11
-4925.6418875387826
 21
2567.4511595622721
 31
0.0
  0
LINE
  5
F0
  8
0
  6
BYBLOCK
 62
     0
 10
-4890.6418875387826
 20
3337.4511595622721
 30
0.0
 11
-4890.6418875387826
 21
2637.4511595622721
 31
0.0
  0
INSERT
  5
F1
  8
0
  6
BYBLOCK
 62
     0
  2
_OPEN
 10
-4890.6418875387826
 20
3407.4511595622721
 30
0.0
 41
70.0
 42
70.0
 43
70.0
 50
90.0
  0
INSERT
  5
F2
  8
0
  6
BYBLOCK
 62
     0
  2
_OPEN
 10
-4890.6418875387826
 20
2567.4511595622721
 30
0.0
 41
70.0
 42
70.0
 43
70.0
 50
270.0
  0
TEXT
  5
F3
  8
3
 62
     0
 10
-4925.6418875387826
 20
2852.451159562273
 30
0.0
 40
105.0
  1
840
 50
90.0
  0
POINT
  5
F4
  8
DEFPOINTS
  6
BYBLOCK
 62
     0
 10
-4530.0898146110094
 20
3407.4511595622721
 30
0.0
  0
POINT
  5
F5
  8
DEFPOINTS
  6
BYBLOCK
 62
     0
 10
-4306.0939238298324
 20
2567.4511595622721
 30
0.0
  0
POINT
  5
F6
  8
DEFPOINTS
  6
BYBLOCK
 62
     0
 10
-4890.6418875387826
 20
2567.4511595622721
 30
0.0
  0
ENDBLK
  5
F8
  8
0
  0
BLOCK
  8
0
  2
*D20
 70
     1
 10
0.0
 20
0.0
 30
0.0
  3
*D20
  1

  0
LINE
  5
133
  8
0
  6
BYBLOCK
 62
     0
 10
-4406.0939238298306
 20
4675.9511595622726
 30
0.0
 11
-4406.0939238298306
 21
4864.2724630194898
 31
0.0
  0
LINE
  5
134
  8
0
  6
BYBLOCK
 62
     0
 10
-3646.093923829832
 20
4669.2406811313595
 30
0.0
 11
-3646.093923829832
 21
4864.2724630194898
 31
0.0
  0
LINE
  5
135
  8
0
  6
BYBLOCK
 62
     0
 10
-4336.0939238298306
 20
4829.2724630194889
 30
0.0
 11
-3716.093923829832
 21
4829.2724630194889
 31
0.0
  0
INSERT
  5
136
  8
0
  6
BYBLOCK
 62
     0
  2
_OPEN
 10
-4406.0939238298306
 20
4829.2724630194889
 30
0.0
 41
70.0
 42
70.0
 43
70.0
 50
180.0
  0
INSERT
  5
137
  8
0
  6
BYBLOCK
 62
     0
  2
_OPEN
 10
-3646.093923829832
 20
4829.2724630194889
 30
0.0
 41
70.0
 42
70.0
 43
70.0
  0
TEXT
  5
138
  8
3
 62
     0
 10
-4161.0939238298306
 20
4864.2724630194898
 30
0.0
 40
105.0
  1
760
  0
POINT
  5
139
  8
DEFPOINTS
  6
BYBLOCK
 62
     0
 10
-4406.0939238298306
 20
4658.4511595622726
 30
0.0
  0
POINT
  5
13A
  8
DEFPOINTS
  6
BYBLOCK
 62
     0
 10
-3646.093923829832
 20
4651.7406811313604
 30
0.0
  0
POINT
  5
13B
  8
DEFPOINTS
  6
BYBLOCK
 62
     0
 10
-3646.093923829832
 20
4829.2724630194889
 30
0.0
  0
ENDBLK
  5
13D
  8
0
  0
BLOCK
  8
0
  2
*D21
 70
     1
 10
0.0
 20
0.0
 30
0.0
  3
*D21
  1

  0
LINE
  5
A8
  8
0
  6
BYBLOCK
 62
     0
 10
-2677.093923829832
 20
3506.951159562273
 30
0.0
 11
-2677.093923829832
 21
4864.2724630194898
 31
0.0
  0
LINE
  5
A9
  8
0
  6
BYBLOCK
 62
     0
 10
-3576.093923829832
 20
4829.2724630194889
 30
0.0
 11
-2747.093923829832
 21
4829.2724630194889
 31
0.0
  0
INSERT
  5
AA
  8
0
  6
BYBLOCK
 62
     0
  2
_OPEN
 10
-3646.093923829832
 20
4829.2724630194889
 30
0.0
 41
70.0
 42
70.0
 43
70.0
 50
180.0
  0
INSERT
  5
AB
  8
0
  6
BYBLOCK
 62
     0
  2
_OPEN
 10
-2677.093923829832
 20
4829.2724630194889
 30
0.0
 41
70.0
 42
70.0
 43
70.0
  0
TEXT
  5
AC
  8
3
 62
     0
 10
-3294.093923829832
 20
4864.2724630194898
 30
0.0
 40
105.0
  1
969
  0
POINT
  5
AD
  8
DEFPOINTS
  6
BYBLOCK
 62
     0
 10
-3646.093923829832
 20
4651.7406811313604
 30
0.0
  0
POINT
  5
AE
  8
DEFPOINTS
  6
BYBLOCK
 62
     0
 10
-2677.093923829832
 20
3489.4511595622721
 30
0.0
  0
POINT
  5
AF
  8
DEFPOINTS
  6
BYBLOCK
 62
     0
 10
-2677.093923829832
 20
4829.2724630194889
 30
0.0
  0
ENDBLK
  5
B1
  8
0
  0
BLOCK
  8
0
  2
*D22
 70
     1
 10
0.0
 20
0.0
 30
0.0
  3
*D22
  1

  0
LINE
  5
14A
  8
0
  6
BYBLOCK
 62
     0
 10
6202.4400047573126
 20
3967.4511595622712
 30
0.0
 11
6540.9576547920869
 21
3967.4511595622712
 31
0.0
  0
LINE
  5
14B
  8
0
  6
BYBLOCK
 62
     0
 10
6202.4400047573081
 20
2847.4511595622712
 30
0.0
 11
6540.9576547920869
 21
2847.4511595622712
 31
0.0
  0
LINE
  5
14C
  8
0
  6
BYBLOCK
 62
     0
 10
6505.9576547920879
 20
3897.4511595622712
 30
0.0
 11
6505.9576547920879
 21
2917.4511595622721
 31
0.0
  0
INSERT
  5
14D
  8
0
  6
BYBLOCK
 62
     0
  2
_OPEN
 10
6505.9576547920879
 20
3967.4511595622712
 30
0.0
 41
70.0
 42
70.0
 43
70.0
 50
90.0
  0
INSERT
  5
14E
  8
0
  6
BYBLOCK
 62
     0
  2
_OPEN
 10
6505.9576547920879
 20
2847.4511595622712
 30
0.0
 41
70.0
 42
70.0
 43
70.0
 50
270.0
  0
TEXT
  5
14F
  8
3
 62
     0
 10
6470.9576547920869
 20
3189.9511595622712
 30
0.0
 40
105.0
  1
φ1120
 50
90.0
  0
POINT
  5
150
  8
DEFPOINTS
  6
BYBLOCK
 62
     0
 10
6184.9400047573117
 20
3967.4511595622712
 30
0.0
  0
POINT
  5
151
  8
DEFPOINTS
  6
BYBLOCK
 62
     0
 10
6184.9400047573081
 20
2847.4511595622712
 30
0.0
  0
POINT
  5
152
  8
DEFPOINTS
  6
BYBLOCK
 62
     0
 10
6505.9576547920879
 20
2847.4511595622712
 30
0.0
  0
ENDBLK
  5
154
  8
0
  0
BLOCK
  8
0
  2
*D23
 70
     1
 10
0.0
 20
0.0
 30
0.0
  3
*D23
  1

  0
LINE
  5
289
  8
0
  6
BYBLOCK
 62
     0
 10
1385.226240709095
 20
4658.4511595622726
 30
0.0
 11
657.76751023581164
 21
4658.4511595622726
 31
0.0
  0
LINE
  5
28A
  8
0
  6
BYBLOCK
 62
     0
 10
1485.2262407090941
 20
2567.4511595622721
 30
0.0
 11
657.76751023581164
 21
2567.4511595622721
 31
0.0
  0
LINE
  5
28B
  8
0
  6
BYBLOCK
 62
     0
 10
692.76751023581164
 20
4588.4511595622716
 30
0.0
 11
692.76751023581164
 21
2637.4511595622721
 31
0.0
  0
INSERT
  5
28C
  8
0
  6
BYBLOCK
 62
     0
  2
_OPEN
 10
692.76751023581164
 20
4658.4511595622726
 30
0.0
 41
70.0
 42
70.0
 43
70.0
 50
90.0
  0
INSERT
  5
28D
  8
0
  6
BYBLOCK
 62
     0
  2
_OPEN
 10
692.76751023581164
 20
2567.4511595622721
 30
0.0
 41
70.0
 42
70.0
 43
70.0
 50
270.0
  0
TEXT
  5
28E
  8
3
 62
     0
 10
657.76751023581164
 20
3450.4511595622721
 30
0.0
 40
105.0
  1
2091
 50
90.0
  0
POINT
  5
28F
  8
DEFPOINTS
  6
BYBLOCK
 62
     0
 10
1402.726240709095
 20
4658.4511595622726
 30
0.0
  0
POINT
  5
290
  8
DEFPOINTS
  6
BYBLOCK
 62
     0
 10
1502.7262407090941
 20
2567.4511595622721
 30
0.0
  0
POINT
  5
291
  8
DEFPOINTS
  6
BYBLOCK
 62
     0
 10
692.76751023581164
 20
2567.4511595622721
 30
0.0
  0
ENDBLK
  5
292
  8
0
  0
BLOCK
  8
0
  2
*D24
 70
     1
 10
0.0
 20
0.0
 30
0.0
  3
*D24
  1

  0
LINE
  5
2C8
  8
3
 62
     0
 10
1502.7262407090941
 20
6676.2675927715281
 30
0.0
 11
1502.7262407090941
 21
5351.5740510801079
 31
0.0
  0
LINE
  5
2C9
  8
3
 62
     0
 10
1762.726240709095
 20
5831.2675927715281
 30
0.0
 11
1762.726240709095
 21
5351.5740510801079
 31
0.0
  0
LINE
  5
2CA
  8
3
 62
     0
 10
1692.7262407090941
 20
5386.5740510801079
 30
0.0
 11
1572.7262407090941
 21
5386.5740510801079
 31
0.0
  0
LINE
  5
2CB
  8
3
 62
     0
 10
1502.7262407090941
 20
5386.5740510801079
 30
0.0
 11
1092.7262407090941
 21
5386.5740510801079
 31
0.0
  0
INSERT
  5
2CC
  8
3
 62
     0
  2
_OPEN
 10
1762.726240709095
 20
5386.5740510801079
 30
0.0
 41
70.0
 42
70.0
 43
70.0
  0
INSERT
  5
2CD
  8
3
 62
     0
  2
_OPEN
 10
1502.7262407090941
 20
5386.5740510801079
 30
0.0
 41
70.0
 42
70.0
 43
70.0
 50
180.0
  0
TEXT
  8
3
  40
105
  5
3C7
  62
0
  72
0
  71
0
 10
1052.73
 20
5288.22
 30
0.000000
  1
260
  0
POINT
  5
2CF
  8
DEFPOINTS
 62
     0
 10
1502.7262407090941
 20
6693.7675927715281
 30
0.0
  0
POINT
  5
2D0
  8
DEFPOINTS
 62
     0
 10
1762.726240709095
 20
5848.7675927715281
 30
0.0
  0
POINT
  5
2D1
  8
DEFPOINTS
 62
     0
 10
1762.726240709095
 20
5386.5740510801079
 30
0.0
  0
ENDBLK
  5
2D3
  8
0
  0
BLOCK
  8
0
  2
*D25
 70
     1
 10
0.0
 20
0.0
 30
0.0
  3
*D25
  1

  0
LINE
  5
2D5
  8
3
 62
     0
 10
3262.7262407090939
 20
5831.2675927715281
 30
0.0
 11
3262.7262407090939
 21
5351.5740510801079
 31
0.0
  0
LINE
  5
2D6
  8
3
 62
     0
 10
1832.7262407090941
 20
5386.5740510801079
 30
0.0
 11
3192.7262407090948
 21
5386.5740510801079
 31
0.0
  0
INSERT
  5
2D7
  8
3
 62
     0
  2
_OPEN
 10
1762.726240709095
 20
5386.5740510801079
 30
0.0
 41
70.0
 42
70.0
 43
70.0
 50
180.0
  0
INSERT
  5
2D8
  8
3
 62
     0
  2
_OPEN
 10
3262.7262407090939
 20
5386.5740510801079
 30
0.0
 41
70.0
 42
70.0
 43
70.0
  0
TEXT
  8
3
  40
105
  5
3C8
  62
0
  72
0
  71
0
 10
2302.73
 20
5288.22
 30
0.000000
  1
1500
  0
POINT
  5
2DA
  8
DEFPOINTS
 62
     0
 10
1762.726240709095
 20
5848.7675927715281
 30
0.0
  0
POINT
  5
2DB
  8
DEFPOINTS
 62
     0
 10
3262.7262407090939
 20
5848.7675927715281
 30
0.0
  0
POINT
  5
2DC
  8
DEFPOINTS
 62
     0
 10
3262.7262407090939
 20
5386.5740510801079
 30
0.0
  0
ENDBLK
  5
2DE
  8
0
  0
BLOCK
  8
0
  2
*D26
 70
     1
 10
0.0
 20
0.0
 30
0.0
  3
*D26
  1

  0
LINE
  5
2E0
  8
3
 62
     0
 10
6252.940004757309
 20
2529.9511595622721
 30
0.0
 11
6252.940004757309
 21
2263.5989171893671
 31
0.0
  0
LINE
  5
2E1
  8
3
 62
     0
 10
5827.940004757309
 20
2298.5989171893671
 30
0.0
 11
6182.9400047573099
 21
2298.5989171893671
 31
0.0
  0
INSERT
  5
2E2
  8
3
 62
     0
  2
_OPEN
 10
5757.9400047573081
 20
2298.5989171893671
 30
0.0
 41
70.0
 42
70.0
 43
70.0
 50
180.0
  0
INSERT
  5
2E3
  8
3
 62
     0
  2
_OPEN
 10
6252.940004757309
 20
2298.5989171893671
 30
0.0
 41
70.0
 42
70.0
 43
70.0
  0
TEXT
  8
3
  40
105
  5
3C9
  62
0
  72
0
  71
0
 10
5795.44
 20
2200.25
 30
0.000000
  1
495
  0
POINT
  5
2E5
  8
DEFPOINTS
 62
     0
 10
5757.9400047573081
 20
2547.4511595622721
 30
0.0
  0
POINT
  5
2E6
  8
DEFPOINTS
 62
     0
 10
6252.940004757309
 20
2547.4511595622721
 30
0.0
  0
POINT
  5
2E7
  8
DEFPOINTS
 62
     0
 10
6252.940004757309
 20
2298.5989171893671
 30
0.0
  0
ENDBLK
  5
2E9
  8
0
  0
BLOCK
  8
0
  2
*D27
 70
     1
 10
0.0
 20
0.0
 30
0.0
  3
*D27
  1

  0
LINE
  5
2EB
  8
3
 62
     0
 10
3262.726240709093
 20
2529.9511595622721
 30
0.0
 11
3262.726240709093
 21
2258.3396899440081
 31
0.0
  0
LINE
  5
2EC
  8
3
 62
     0
 10
2162.7262407090948
 20
2529.9511595622721
 30
0.0
 11
2162.7262407090948
 21
2258.3396899440081
 31
0.0
  0
LINE
  5
2ED
  8
3
 62
     0
 10
3192.726240709093
 20
2293.3396899440081
 30
0.0
 11
2232.7262407090939
 21
2293.3396899440081
 31
0.0
  0
INSERT
  5
2EE
  8
3
 62
     0
  2
_OPEN
 10
3262.726240709093
 20
2293.3396899440081
 30
0.0
 41
70.0
 42
70.0
 43
70.0
  0
INSERT
  5
2EF
  8
3
 62
     0
  2
_OPEN
 10
2162.7262407090948
 20
2293.3396899440081
 30
0.0
 41
70.0
 42
70.0
 43
70.0
 50
180.0
  0
TEXT
  8
3
  40
105
  5
3CA
  62
0
  72
0
  71
0
 10
2523.13
 20
2194.99
 30
0.000000
  1
1100
  0
POINT
  5
2F1
  8
DEFPOINTS
 62
     0
 10
3262.726240709093
 20
2547.4511595622721
 30
0.0
  0
POINT
  5
2F2
  8
DEFPOINTS
 62
     0
 10
2162.7262407090948
 20
2547.4511595622721
 30
0.0
  0
POINT
  5
2F3
  8
DEFPOINTS
 62
     0
 10
2162.7262407090948
 20
2293.3396899440081
 30
0.0
  0
ENDBLK
  5
2F5
  8
0
  0
BLOCK
  8
0
  2
*D28
 70
     1
 10
0.0
 20
0.0
 30
0.0
  3
*D28
  1

  0
LINE
  5
2F7
  8
3
 62
     0
 10
4417.9400047573081
 20
2529.9511595622721
 30
0.0
 11
4417.9400047573081
 21
2263.5989171893671
 31
0.0
  0
LINE
  5
2F8
  8
3
 62
     0
 10
5757.9400047573081
 20
2529.9511595622721
 30
0.0
 11
5757.9400047573081
 21
2263.5989171893671
 31
0.0
  0
LINE
  5
2F9
  8
3
 62
     0
 10
4487.940004757309
 20
2298.5989171893671
 30
0.0
 11
5687.940004757309
 21
2298.5989171893671
 31
0.0
  0
INSERT
  5
2FA
  8
3
 62
     0
  2
_OPEN
 10
4417.9400047573081
 20
2298.5989171893671
 30
0.0
 41
70.0
 42
70.0
 43
70.0
 50
180.0
  0
INSERT
  5
2FB
  8
3
 62
     0
  2
_OPEN
 10
5757.9400047573081
 20
2298.5989171893671
 30
0.0
 41
70.0
 42
70.0
 43
70.0
  0
TEXT
  8
3
  40
105
  5
3CB
  62
0
  72
0
  71
0
 10
4845.03
 20
2200.25
 30
0.000000
  1
1340
  0
POINT
  5
2FD
  8
DEFPOINTS
 62
     0
 10
4417.9400047573081
 20
2547.4511595622721
 30
0.0
  0
POINT
  5
2FE
  8
DEFPOINTS
 62
     0
 10
5757.9400047573081
 20
2547.4511595622721
 30
0.0
  0
POINT
  5
2FF
  8
DEFPOINTS
 62
     0
 10
5757.9400047573081
 20
2298.5989171893671
 30
0.0
  0
ENDBLK
  5
301
  8
0
  0
BLOCK
  8
0
  2
*D29
 70
     1
 10
0.0
 20
0.0
 30
0.0
  3
*D29
  1

  0
LINE
  5
306
  8
3
 62
     0
 10
1502.7262407090941
 20
2529.9511595622721
 30
0.0
 11
1502.7262407090941
 21
2258.3396899440081
 31
0.0
  0
LINE
  5
307
  8
3
 62
     0
 10
2092.7262407090939
 20
2293.3396899440081
 30
0.0
 11
1572.7262407090941
 21
2293.3396899440081
 31
0.0
  0
INSERT
  5
308
  8
3
 62
     0
  2
_OPEN
 10
2162.7262407090948
 20
2293.3396899440081
 30
0.0
 41
70.0
 42
70.0
 43
70.0
  0
INSERT
  5
309
  8
3
 62
     0
  2
_OPEN
 10
1502.7262407090941
 20
2293.3396899440081
 30
0.0
 41
70.0
 42
70.0
 43
70.0
 50
180.0
  0
TEXT
  8
3
  40
105
  5
3CC
  62
0
  72
0
  71
0
 10
1622.73
 20
2194.99
 30
0.000000
  1
660
  0
POINT
  5
30B
  8
DEFPOINTS
 62
     0
 10
2162.7262407090948
 20
2547.4511595622721
 30
0.0
  0
POINT
  5
30C
  8
DEFPOINTS
 62
     0
 10
1502.7262407090941
 20
2547.4511595622721
 30
0.0
  0
POINT
  5
30D
  8
DEFPOINTS
 62
     0
 10
1502.7262407090941
 20
2293.3396899440081
 30
0.0
  0
ENDBLK
  5
30F
  8
0
  0
BLOCK
  8
0
  2
*D30
 70
     1
 10
0.0
 20
0.0
 30
0.0
  3
*D30
  1

  0
LINE
  5
311
  8
3
 62
     0
 10
3131.7262407090939
 20
3506.951159562273
 30
0.0
 11
3131.7262407090939
 21
4864.2724630194898
 31
0.0
  0
LINE
  5
312
  8
3
 62
     0
 10
2232.7262407090939
 20
4829.2724630194889
 30
0.0
 11
3061.7262407090948
 21
4829.2724630194889
 31
0.0
  0
INSERT
  5
313
  8
3
 62
     0
  2
_OPEN
 10
2162.7262407090948
 20
4829.2724630194889
 30
0.0
 41
70.0
 42
70.0
 43
70.0
 50
180.0
  0
INSERT
  5
314
  8
3
 62
     0
  2
_OPEN
 10
3131.7262407090939
 20
4829.2724630194889
 30
0.0
 41
70.0
 42
70.0
 43
70.0
  0
TEXT
  8
3
  40
105
  5
3CD
  62
0
  72
0
  71
0
 10
2437.23
 20
4730.92
 30
0.000000
  1
969
  0
POINT
  5
316
  8
DEFPOINTS
 62
     0
 10
2162.7262407090948
 20
4651.7406811313604
 30
0.0
  0
POINT
  5
317
  8
DEFPOINTS
 62
     0
 10
3131.7262407090939
 20
3489.4511595622721
 30
0.0
  0
POINT
  5
318
  8
DEFPOINTS
 62
     0
 10
3131.7262407090939
 20
4829.2724630194889
 30
0.0
  0
ENDBLK
  5
31A
  8
0
  0
BLOCK
  8
0
  2
*D31
 70
     1
 10
0.0
 20
0.0
 30
0.0
  3
*D31
  1

  0
LINE
  5
31C
  8
3
 62
     0
 10
1385.226240709095
 20
4605.4511595622726
 30
0.0
 11
1114.7062927116201
 21
4605.4511595622726
 31
0.0
  0
LINE
  5
31D
  8
3
 62
     0
 10
1385.226240709095
 20
3455.4511595622721
 30
0.0
 11
1114.7062927116201
 21
3455.4511595622721
 31
0.0
  0
LINE
  5
31E
  8
3
 62
     0
 10
1149.7062927116201
 20
4535.4511595622716
 30
0.0
 11
1149.7062927116201
 21
3525.4511595622721
 31
0.0
  0
INSERT
  5
31F
  8
3
 62
     0
  2
_OPEN
 10
1149.7062927116201
 20
4605.4511595622726
 30
0.0
 41
70.0
 42
70.0
 43
70.0
 50
90.0
  0
INSERT
  5
320
  8
3
 62
     0
  2
_OPEN
 10
1149.7062927116201
 20
3455.4511595622721
 30
0.0
 41
70.0
 42
70.0
 43
70.0
 50
270.0
  0
TEXT
  8
3
  40
105
  5
3CE
  62
0
  72
0
  71
0
 10
852.206
 20
3844.60
 30
0.000000
  1
1150
  0
POINT
  5
322
  8
DEFPOINTS
 62
     0
 10
1402.726240709095
 20
4605.4511595622726
 30
0.0
  0
POINT
  5
323
  8
DEFPOINTS
 62
     0
 10
1402.726240709095
 20
3455.4511595622721
 30
0.0
  0
POINT
  5
324
  8
DEFPOINTS
 62
     0
 10
1149.7062927116201
 20
3455.4511595622721
 30
0.0
  0
ENDBLK
  5
326
  8
0
  0
BLOCK
  8
0
  2
*D32
 70
     1
 10
0.0
 20
0.0
 30
0.0
  3
*D32
  1

  0
LINE
  5
328
  8
3
 62
     0
 10
1385.226240709095
 20
4605.4511595622726
 30
0.0
 11
883.1782770001447
 21
4605.4511595622726
 31
0.0
  0
LINE
  5
329
  8
3
 62
     0
 10
1261.230349927918
 20
3407.4511595622721
 30
0.0
 11
883.17827700014459
 21
3407.451159562273
 31
0.0
  0
LINE
  5
32A
  8
3
 62
     0
 10
918.1782770001447
 20
4535.4511595622716
 30
0.0
 11
918.17827700014448
 21
3477.451159562273
 31
0.0
  0
INSERT
  5
32B
  8
3
 62
     0
  2
_OPEN
 10
918.1782770001447
 20
4605.4511595622726
 30
0.0
 41
70.0
 42
70.0
 43
70.0
 50
90.0
  0
INSERT
  5
32C
  8
3
 62
     0
  2
_OPEN
 10
918.17827700014448
 20
3407.451159562273
 30
0.0
 41
70.0
 42
70.0
 43
70.0
 50
270.0
  0
TEXT
  8
3
  40
105
  5
3CF
  62
0
  72
0
  71
0
 10
620.678
 20
3820.60
 30
0.000000
  1
1198
  0
POINT
  5
32E
  8
DEFPOINTS
 62
     0
 10
1402.726240709095
 20
4605.4511595622726
 30
0.0
  0
POINT
  5
32F
  8
DEFPOINTS
 62
     0
 10
1278.7303499279169
 20
3407.4511595622721
 30
0.0
  0
POINT
  5
330
  8
DEFPOINTS
 62
     0
 10
918.17827700014448
 20
3407.451159562273
 30
0.0
  0
ENDBLK
  5
332
  8
0
  0
BLOCK
  8
0
  2
*D33
 70
     1
 10
0.0
 20
0.0
 30
0.0
  3
*D33
  1

  0
LINE
  5
334
  8
3
 62
     0
 10
1485.2262407090941
 20
2567.4511595622721
 30
0.0
 11
883.17827700014459
 21
2567.451159562273
 31
0.0
  0
LINE
  5
335
  8
3
 62
     0
 10
918.1782770001447
 20
3337.4511595622721
 30
0.0
 11
918.17827700014448
 21
2637.451159562273
 31
0.0
  0
INSERT
  5
336
  8
3
 62
     0
  2
_OPEN
 10
918.1782770001447
 20
3407.451159562273
 30
0.0
 41
70.0
 42
70.0
 43
70.0
 50
90.0
  0
INSERT
  5
337
  8
3
 62
     0
  2
_OPEN
 10
918.17827700014448
 20
2567.451159562273
 30
0.0
 41
70.0
 42
70.0
 43
70.0
 50
270.0
  0
TEXT
  8
3
  40
105
  5
3D0
  62
0
  72
0
  71
0
 10
620.678
 20
2801.60
 30
0.000000
  1
840
  0
POINT
  5
339
  8
DEFPOINTS
 62
     0
 10
1278.7303499279169
 20
3407.4511595622721
 30
0.0
  0
POINT
  5
33A
  8
DEFPOINTS
 62
     0
 10
1502.7262407090941
 20
2567.4511595622721
 30
0.0
  0
POINT
  5
33B
  8
DEFPOINTS
 62
     0
 10
918.17827700014448
 20
2567.451159562273
 30
0.0
  0
ENDBLK
  5
33D
  8
0
  0
BLOCK
  8
0
  2
*D34
 70
     1
 10
0.0
 20
0.0
 30
0.0
  3
*D34
  1

  0
LINE
  5
33F
  8
3
 62
     0
 10
1402.726240709095
 20
4675.9511595622726
 30
0.0
 11
1402.726240709095
 21
4864.2724630194898
 31
0.0
  0
LINE
  5
340
  8
3
 62
     0
 10
2162.7262407090948
 20
4669.2406811313595
 30
0.0
 11
2162.7262407090948
 21
4864.2724630194898
 31
0.0
  0
LINE
  5
341
  8
3
 62
     0
 10
1472.726240709095
 20
4829.2724630194889
 30
0.0
 11
2092.7262407090939
 21
4829.2724630194889
 31
0.0
  0
INSERT
  5
342
  8
3
 62
     0
  2
_OPEN
 10
1402.726240709095
 20
4829.2724630194889
 30
0.0
 41
70.0
 42
70.0
 43
70.0
 50
180.0
  0
INSERT
  5
343
  8
3
 62
     0
  2
_OPEN
 10
2162.7262407090948
 20
4829.2724630194889
 30
0.0
 41
70.0
 42
70.0
 43
70.0
  0
TEXT
  8
3
  40
105
  5
3D1
  62
0
  72
0
  71
0
 10
1572.73
 20
4730.92
 30
0.000000
  1
760
  0
POINT
  5
345
  8
DEFPOINTS
 62
     0
 10
1402.726240709095
 20
4658.4511595622726
 30
0.0
  0
POINT
  5
346
  8
DEFPOINTS
 62
     0
 10
2162.7262407090948
 20
4651.7406811313604
 30
0.0
  0
POINT
  5
347
  8
DEFPOINTS
 62
     0
 10
2162.7262407090948
 20
4829.2724630194889
 30
0.0
  0
ENDBLK
  5
349
  8
0
  0
BLOCK
  8
0
  2
*D35
 70
     1
 10
0.0
 20
0.0
 30
0.0
  3
*D35
  1

  0
LINE
  5
34B
  8
3
 62
     0
 10
6202.4400047573126
 20
3967.4511595622712
 30
0.0
 11
6540.9576547920869
 21
3967.4511595622712
 31
0.0
  0
LINE
  5
34C
  8
3
 62
     0
 10
6202.4400047573081
 20
2847.4511595622712
 30
0.0
 11
6540.9576547920869
 21
2847.4511595622712
 31
0.0
  0
LINE
  5
34D
  8
3
 62
     0
 10
6505.9576547920879
 20
3897.4511595622712
 30
0.0
 11
6505.9576547920879
 21
2917.4511595622721
 31
0.0
  0
INSERT
  5
34E
  8
3
 62
     0
  2
_OPEN
 10
6505.9576547920879
 20
3967.4511595622712
 30
0.0
 41
70.0
 42
70.0
 43
70.0
 50
90.0
  0
INSERT
  5
34F
  8
3
 62
     0
  2
_OPEN
 10
6505.9576547920879
 20
2847.4511595622712
 30
0.0
 41
70.0
 42
70.0
 43
70.0
 50
270.0
  0
TEXT
  8
3
  40
105
  5
3D2
  62
0
  72
0
  71
0
 10
6208.46
 20
3221.60
 30
0.000000
  1
φ1120
  0
POINT
  5
351
  8
DEFPOINTS
 62
     0
 10
6184.9400047573117
 20
3967.4511595622712
 30
0.0
  0
POINT
  5
352
  8
DEFPOINTS
 62
     0
 10
6184.9400047573081
 20
2847.4511595622712
 30
0.0
  0
POINT
  5
353
  8
DEFPOINTS
 62
     0
 10
6505.9576547920879
 20
2847.4511595622712
 30
0.0
  0
ENDBLK
  5
355
  8
0
  0
BLOCK
  8
0
  2
*D36
 70
     1
 10
0.0
 20
0.0
 30
0.0
  3
*D36
  1

  0
LINE
  5
357
  8
3
 62
     0
 10
4270.940004757309
 20
3359.9511595622712
 30
0.0
 11
4270.940004757309
 21
5103.7589339639599
 31
0.0
  0
LINE
  5
358
  8
3
 62
     0
 10
5687.9400047573081
 20
5068.7589339639599
 30
0.0
 11
4340.940004757309
 21
5068.7589339639599
 31
0.0
  0
INSERT
  5
359
  8
3
 62
     0
  2
_OPEN
 10
5757.9400047573081
 20
5068.7589339639599
 30
0.0
 41
70.0
 42
70.0
 43
70.0
  0
INSERT
  5
35A
  8
3
 62
     0
  2
_OPEN
 10
4270.940004757309
 20
5068.7589339639599
 30
0.0
 41
70.0
 42
70.0
 43
70.0
 50
180.0
  0
TEXT
  8
3
  40
105
  5
3D3
  62
0
  72
0
  71
0
 10
4804.44
 20
5057.91
 30
0.000000
  1
MAX
  0
TEXT
  8
3
  40
105
  5
3D4
  62
0
  72
0
  71
0
 10
4804.44
 20
4921.41
 30
0.000000
  1
1530
  0
POINT
  5
35C
  8
DEFPOINTS
 62
     0
 10
5757.9400047573081
 20
4942.1986065788869
 30
0.0
  0
POINT
  5
35D
  8
DEFPOINTS
 62
     0
 10
4270.940004757309
 20
3342.4511595622712
 30
0.0
  0
POINT
  5
35E
  8
DEFPOINTS
 62
     0
 10
4270.940004757309
 20
5068.7589339639599
 30
0.0
  0
ENDBLK
  5
360
  8
0
  0
BLOCK
  8
0
  2
*U37
 70
     1
 10
0.0
 20
0.0
 30
0.0
  3
*U37
  1

  0
TEXT
  5
362
  8
3
 62
     0
 10
4864.440004757309
 20
5629.6497957074544
 30
0.0
 40
105.0
  1
MAX
  0
TEXT
  5
363
  8
3
 62
     0
 10
4839.440004757309
 20
5454.6497957074534
 30
0.0
 40
105.0
  1
1530
  0
ENDBLK
  5
365
  8
0
  0
BLOCK
  8
0
  2
*D38
 70
     1
 10
0.0
 20
0.0
 30
0.0
  3
*D38
  1

  0
LINE
  5
367
  8
3
 62
     0
 10
5757.9400047573081
 20
4959.6986065788878
 30
0.0
 11
5757.9400047573081
 21
5103.7589339639599
 31
0.0
  0
LINE
  5
368
  8
3
 62
     0
 10
6193.2400047573092
 20
4625.9511595622716
 30
0.0
 11
6193.2400047573092
 21
5103.7589339639599
 31
0.0
  0
LINE
  5
369
  8
3
 62
     0
 10
5687.9400047573081
 20
5068.7589339639599
 30
0.0
 11
5617.9400047573081
 21
5068.7589339639599
 31
0.0
  0
LINE
  5
36A
  8
3
 62
     0
 10
6263.2400047573092
 20
5068.7589339639599
 30
0.0
 11
6333.2400047573101
 21
5068.7589339639599
 31
0.0
  0
LINE
  5
36B
  8
3
 62
     0
 10
5757.9400047573081
 20
5068.7589339639599
 30
0.0
 11
6193.2400047573092
 21
5068.7589339639599
 31
0.0
  0
INSERT
  5
36C
  8
3
 62
     0
  2
_OPEN
 10
5757.9400047573081
 20
5068.7589339639599
 30
0.0
 41
70.0
 42
70.0
 43
70.0
  0
INSERT
  5
36D
  8
3
 62
     0
  2
_OPEN
 10
6193.2400047573092
 20
5068.7589339639599
 30
0.0
 41
70.0
 42
70.0
 43
70.0
 50
180.0
  0
TEXT
  8
3
  40
105
  5
3D5
  62
0
  72
0
  71
0
 10
5765.59
 20
4970.41
 30
0.000000
  1
435
  0
POINT
  5
36F
  8
DEFPOINTS
 62
     0
 10
5757.9400047573081
 20
4942.1986065788869
 30
0.0
  0
POINT
  5
370
  8
DEFPOINTS
 62
     0
 10
6193.2400047573092
 20
4608.4511595622726
 30
0.0
  0
POINT
  5
371
  8
DEFPOINTS
 62
     0
 10
6193.2400047573092
 20
5068.7589339639599
 30
0.0
  0
ENDBLK
  5
373
  8
0
  0
BLOCK
  8
0
  2
*D39
 70
     1
 10
0.0
 20
0.0
 30
0.0
  3
*D39
  1

  0
LINE
  5
375
  8
3
 62
     0
 10
5332.9400047573108
 20
4625.9511595622726
 30
0.0
 11
5332.9400047573108
 21
4825.7827828865084
 31
0.0
  0
LINE
  5
376
  8
3
 62
     0
 10
6182.9400047573126
 20
4625.9511595622716
 30
0.0
 11
6182.9400047573126
 21
4825.7827828865084
 31
0.0
  0
LINE
  5
377
  8
3
 62
     0
 10
5402.9400047573108
 20
4790.7827828865084
 30
0.0
 11
6112.9400047573117
 21
4790.7827828865084
 31
0.0
  0
INSERT
  5
378
  8
3
 62
     0
  2
_OPEN
 10
5332.9400047573108
 20
4790.7827828865084
 30
0.0
 41
70.0
 42
70.0
 43
70.0
 50
180.0
  0
INSERT
  5
379
  8
3
 62
     0
  2
_OPEN
 10
6182.9400047573126
 20
4790.7827828865084
 30
0.0
 41
70.0
 42
70.0
 43
70.0
  0
TEXT
  8
3
  40
105
  5
3D6
  62
0
  72
0
  71
0
 10
5550.71
 20
4692.43
 30
0.000000
  1
850
  0
POINT
  5
37B
  8
DEFPOINTS
 62
     0
 10
5332.9400047573108
 20
4608.4511595622744
 30
0.0
  0
POINT
  5
37C
  8
DEFPOINTS
 62
     0
 10
6182.9400047573126
 20
4608.4511595622726
 30
0.0
  0
POINT
  5
37D
  8
DEFPOINTS
 62
     0
 10
6182.9400047573126
 20
4790.7827828865084
 30
0.0
  0
ENDBLK
  5
37F
  8
0
  0
BLOCK
  8
0
  2
*D40
 70
     1
 10
0.0
 20
0.0
 30
0.0
  3
*D40
  1

  0
LINE
  5
381
  8
3
 62
     0
 10
2840.2262407090939
 20
7683.7675927715281
 30
0.0
 11
3728.118021569695
 21
7683.7675927715281
 31
0.0
  0
LINE
  5
382
  8
3
 62
     0
 10
3693.118021569695
 20
6828.7675927715272
 30
0.0
 11
3693.118021569695
 21
7613.7675927715281
 31
0.0
  0
INSERT
  5
383
  8
3
 62
     0
  2
_OPEN
 10
3693.118021569695
 20
6758.7675927715263
 30
0.0
 41
70.0
 42
70.0
 43
70.0
 50
270.0
  0
INSERT
  5
384
  8
3
 62
     0
  2
_OPEN
 10
3693.118021569695
 20
7683.7675927715281
 30
0.0
 41
70.0
 42
70.0
 43
70.0
 50
90.0
  0
TEXT
  8
3
  40
105
  5
3D7
  62
0
  72
0
  71
0
 10
3395.62
 20
7035.42
 30
0.000000
  1
925
  0
POINT
  5
386
  8
DEFPOINTS
 62
     0
 10
3262.7262407090939
 20
6758.7675927715263
 30
0.0
  0
POINT
  5
387
  8
DEFPOINTS
 62
     0
 10
2822.7262407090939
 20
7683.7675927715281
 30
0.0
  0
POINT
  5
388
  8
DEFPOINTS
 62
     0
 10
3693.118021569695
 20
7683.7675927715281
 30
0.0
  0
ENDBLK
  5
38A
  8
0
  0
BLOCK
  8
0
  2
*D41
 70
     1
 10
0.0
 20
0.0
 30
0.0
  3
*D41
  1

  0
LINE
  5
38C
  8
3
 62
     0
 10
3262.7262407090939
 20
6776.2675927715263
 30
0.0
 11
3262.7262407090939
 21
7949.311000374676
 31
0.0
  0
LINE
  5
38D
  8
3
 62
     0
 10
2822.7262407090939
 20
7701.2675927715281
 30
0.0
 11
2822.7262407090939
 21
7949.311000374676
 31
0.0
  0
LINE
  5
38E
  8
3
 62
     0
 10
3332.7262407090939
 20
7914.311000374677
 30
0.0
 11
3402.7262407090948
 21
7914.311000374677
 31
0.0
  0
LINE
  5
38F
  8
3
 62
     0
 10
2752.7262407090939
 20
7914.311000374677
 30
0.0
 11
2682.7262407090948
 21
7914.311000374677
 31
0.0
  0
LINE
  5
390
  8
3
 62
     0
 10
3262.7262407090939
 20
7914.311000374677
 30
0.0
 11
2822.7262407090939
 21
7914.311000374677
 31
0.0
  0
INSERT
  5
391
  8
3
 62
     0
  2
_OPEN
 10
3262.7262407090939
 20
7914.311000374677
 30
0.0
 41
70.0
 42
70.0
 43
70.0
 50
180.0
  0
INSERT
  5
392
  8
3
 62
     0
  2
_OPEN
 10
2822.7262407090939
 20
7914.311000374677
 30
0.0
 41
70.0
 42
70.0
 43
70.0
  0
TEXT
  8
3
  40
105
  5
3D8
  62
0
  72
0
  71
0
 10
2832.73
 20
7815.96
 30
0.000000
  1
440
  0
POINT
  5
394
  8
DEFPOINTS
 62
     0
 10
3262.7262407090939
 20
6758.7675927715263
 30
0.0
  0
POINT
  5
395
  8
DEFPOINTS
 62
     0
 10
2822.7262407090939
 20
7683.7675927715281
 30
0.0
  0
POINT
  5
396
  8
DEFPOINTS
 62
     0
 10
2822.7262407090939
 20
7914.311000374677
 30
0.0
  0
ENDBLK
  5
398
  8
0
  0
BLOCK
  8
0
  2
*D42
 70
     1
 10
0.0
 20
0.0
 30
0.0
  3
*D42
  1

  0
LINE
  5
39A
  8
3
 62
     0
 10
1485.2262407090941
 20
7683.7675927715281
 30
0.0
 11
840.41682229801643
 21
7683.7675927715281
 31
0.0
  0
LINE
  5
39B
  8
3
 62
     0
 10
1485.2262407090941
 20
6693.7675927715281
 30
0.0
 11
840.4168222980162
 21
6693.7675927715281
 31
0.0
  0
LINE
  5
39C
  8
3
 62
     0
 10
875.41682229801643
 20
7613.7675927715281
 30
0.0
 11
875.4168222980162
 21
6763.7675927715281
 31
0.0
  0
INSERT
  5
39D
  8
3
 62
     0
  2
_OPEN
 10
875.41682229801643
 20
7683.7675927715281
 30
0.0
 41
70.0
 42
70.0
 43
70.0
 50
90.0
  0
INSERT
  5
39E
  8
3
 62
     0
  2
_OPEN
 10
875.4168222980162
 20
6693.7675927715281
 30
0.0
 41
70.0
 42
70.0
 43
70.0
 50
270.0
  0
TEXT
  8
3
  40
105
  5
3D9
  62
0
  72
0
  71
0
 10
577.917
 20
7005.01
 30
0.000000
  1
990
  0
POINT
  5
3A0
  8
DEFPOINTS
 62
     0
 10
1502.7262407090941
 20
7683.7675927715281
 30
0.0
  0
POINT
  5
3A1
  8
DEFPOINTS
 62
     0
 10
1502.7262407090941
 20
6693.7675927715281
 30
0.0
  0
POINT
  5
3A2
  8
DEFPOINTS
 62
     0
 10
875.4168222980162
 20
6693.7675927715281
 30
0.0
  0
ENDBLK
  5
3A4
  8
0
  0
BLOCK
  8
0
  2
*D43
 70
     1
 10
0.0
 20
0.0
 30
0.0
  3
*D43
  1

  0
LINE
  5
3A6
  8
3
 62
     0
 10
1745.226240709095
 20
5848.7675927715281
 30
0.0
 11
840.41682229801506
 21
5848.7675927715281
 31
0.0
  0
LINE
  5
3A7
  8
3
 62
     0
 10
875.41682229801529
 20
6623.7675927715281
 30
0.0
 11
875.41682229801529
 21
5918.7675927715281
 31
0.0
  0
INSERT
  5
3A8
  8
3
 62
     0
  2
_OPEN
 10
875.41682229801529
 20
6693.7675927715281
 30
0.0
 41
70.0
 42
70.0
 43
70.0
 50
90.0
  0
INSERT
  5
3A9
  8
3
 62
     0
  2
_OPEN
 10
875.41682229801506
 20
5848.7675927715281
 30
0.0
 41
70.0
 42
70.0
 43
70.0
 50
270.0
  0
TEXT
  8
3
  40
105
  5
3DA
  62
0
  72
0
  71
0
 10
577.917
 20
6085.42
 30
0.000000
  1
845
  0
POINT
  5
3AB
  8
DEFPOINTS
 62
     0
 10
1502.7262407090941
 20
6693.7675927715281
 30
0.0
  0
POINT
  5
3AC
  8
DEFPOINTS
 62
     0
 10
1762.726240709095
 20
5848.7675927715281
 30
0.0
  0
POINT
  5
3AD
  8
DEFPOINTS
 62
     0
 10
875.41682229801506
 20
5848.7675927715281
 30
0.0
  0
ENDBLK
  5
3AF
  8
0
  0
BLOCK
  8
0
  2
*D44
 70
     1
 10
0.0
 20
0.0
 30
0.0
  3
*D44
  1

  0
LINE
  5
3B1
  8
3
 62
     0
 10
1502.7262407090941
 20
7701.2675927715281
 30
0.0
 11
1502.7262407090941
 21
7949.311000374676
 31
0.0
  0
LINE
  5
3B2
  8
3
 62
     0
 10
2752.7262407090939
 20
7914.311000374677
 30
0.0
 11
1572.7262407090941
 21
7914.311000374677
 31
0.0
  0
INSERT
  5
3B3
  8
3
 62
     0
  2
_OPEN
 10
2822.7262407090939
 20
7914.311000374677
 30
0.0
 41
70.0
 42
70.0
 43
70.0
  0
INSERT
  5
3B4
  8
3
 62
     0
  2
_OPEN
 10
1502.7262407090941
 20
7914.311000374677
 30
0.0
 41
70.0
 42
70.0
 43
70.0
 50
180.0
  0
TEXT
  8
3
  40
105
  5
3DB
  62
0
  72
0
  71
0
 10
1952.73
 20
7815.96
 30
0.000000
  1
1320
  0
POINT
  5
3B6
  8
DEFPOINTS
 62
     0
 10
2822.7262407090939
 20
7683.7675927715281
 30
0.0
  0
POINT
  5
3B7
  8
DEFPOINTS
 62
     0
 10
1502.7262407090941
 20
7683.7675927715281
 30
0.0
  0
POINT
  5
3B8
  8
DEFPOINTS
 62
     0
 10
1502.7262407090941
 20
7914.311000374677
 30
0.0
  0
ENDBLK
  5
3BA
  8
0
  0
BLOCK
  8
0
  2
*D45
 70
     1
 10
0.0
 20
0.0
 30
0.0
  3
*D45
  1

  0
LINE
  5
3BC
  8
3
 62
     0
 10
3280.2262407090948
 20
5848.7675927715281
 30
0.0
 11
3728.118021569695
 21
5848.7675927715281
 31
0.0
  0
LINE
  5
3BD
  8
3
 62
     0
 10
3280.2262407090948
 20
6758.7675927715263
 30
0.0
 11
3728.118021569695
 21
6758.7675927715263
 31
0.0
  0
LINE
  5
3BE
  8
3
 62
     0
 10
3693.1180215696959
 20
5918.7675927715281
 30
0.0
 11
3693.1180215696959
 21
6688.7675927715263
 31
0.0
  0
INSERT
  5
3BF
  8
3
 62
     0
  2
_OPEN
 10
3693.1180215696959
 20
5848.7675927715281
 30
0.0
 41
70.0
 42
70.0
 43
70.0
 50
270.0
  0
INSERT
  5
3C0
  8
3
 62
     0
  2
_OPEN
 10
3693.1180215696959
 20
6758.7675927715263
 30
0.0
 41
70.0
 42
70.0
 43
70.0
 50
90.0
  0
TEXT
  8
3
  40
105
  5
3DC
  62
0
  72
0
  71
0
 10
3395.62
 20
6072.36
 30
0.000000
  1
910
  0
POINT
  5
3C2
  8
DEFPOINTS
 62
     0
 10
3262.7262407090939
 20
5848.7675927715281
 30
0.0
  0
POINT
  5
3C3
  8
DEFPOINTS
 62
     0
 10
3262.7262407090939
 20
6758.7675927715263
 30
0.0
  0
POINT
  5
3C4
  8
DEFPOINTS
 62
     0
 10
3693.1180215696959
 20
6758.7675927715263
 30
0.0
  0
ENDBLK
  5
3C6
  8
0
  0
ENDSEC
  0
SECTION
  2
ENTITIES
  0
LINE
  5
1E
  8
4
 10
7350.0
 20
0.0
 30
0.0
 11
0.0
 21
0.0
 31
0.0
  0
LINE
  5
20
  8
4
 10
0.0
 20
10325.0
 30
0.0
 11
7350.0
 21
10325.0
 31
0.0
  0
DIMENSION
  5
21
  8
3
  2
*D24
 10
1762.726240709095
 20
5386.5740510801079
 30
0.0
 11
1262.7262407090941
 21
5386.5740510801079
 31
0.0
 70
   128
 13
1502.7262407090941
 23
6693.7675927715281
 33
0.0
 14
1762.726240709095
 24
5848.7675927715281
 34
0.0
1001
ACAD
1000
DSTYLE
1002
{
1070
   287
1070
     3
1070
    40
1040
35.0
1070
   143
1040
0.039
1070
   172
1070
     1
1070
   271
1070
     0
1070
   279
1070
     0
1070
   288
1070
     1
1002
}
  0
LINE
  5
37
  8
4
 10
0.0
 20
0.0
 30
0.0
 11
0.0
 21
10325.0
 31
0.0
  0
DIMENSION
  5
38
  8
3
  2
*D25
 10
3262.7262407090939
 20
5386.5740510801079
 30
0.0
 11
2512.7262407090948
 21
5474.0740510801079
 31
0.0
 70
     0
 13
1762.726240709095
 23
5848.7675927715281
 33
0.0
 14
3262.7262407090939
 24
5848.7675927715281
 34
0.0
1001
ACAD
1000
DSTYLE
1002
{
1070
   287
1070
     4
1070
    40
1040
35.0
1070
    75
1070
     1
1070
   143
1040
0.039
1070
   172
1070
     1
1070
   271
1070
     0
1070
   279
1070
     1
1070
   288
1070
     1
1002
}
  0
DIMENSION
  5
44
  8
3
  2
*D26
 10
6252.940004757309
 20
2298.5989171893671
 30
0.0
 11
6005.440004757309
 21
2386.0989171893671
 31
0.0
 70
     0
 13
5757.9400047573081
 23
2547.4511595622721
 33
0.0
 14
6252.940004757309
 24
2547.4511595622721
 34
0.0
1001
ACAD
1000
DSTYLE
1002
{
1070
   287
1070
     4
1070
    40
1040
35.0
1070
    75
1070
     1
1070
   143
1040
0.039
1070
   172
1070
     1
1070
   271
1070
     0
1070
   279
1070
     1
1070
   288
1070
     1
1002
}
  0
DIMENSION
  5
50
  8
3
  2
*D27
 10
2162.7262407090948
 20
2293.3396899440081
 30
0.0
 11
2733.1273799406258
 21
2293.3396899440081
 31
0.0
 70
   128
 13
3262.726240709093
 23
2547.4511595622721
 33
0.0
 14
2162.7262407090948
 24
2547.4511595622721
 34
0.0
1001
ACAD
1000
DSTYLE
1002
{
1070
   287
1070
     3
1070
    40
1040
35.0
1070
   143
1040
0.039
1070
   172
1070
     1
1070
   271
1070
     0
1070
   279
1070
     0
1070
   288
1070
     1
1002
}
  0
DIMENSION
  5
5D
  8
3
  2
*D28
 10
5757.9400047573081
 20
2298.5989171893671
 30
0.0
 11
5055.026162118309
 21
2298.5989171893671
 31
0.0
 70
   128
 13
4417.9400047573081
 23
2547.4511595622721
 33
0.0
 14
5757.9400047573081
 24
2547.4511595622721
 34
0.0
1001
ACAD
1000
DSTYLE
1002
{
1070
   287
1070
     3
1070
    40
1040
35.0
1070
   143
1040
0.039
1070
   172
1070
     1
1070
   271
1070
     0
1070
   279
1070
     0
1070
   288
1070
     1
1002
}
  0
DIMENSION
  5
80
  8
3
  2
*D29
 10
1502.7262407090941
 20
2293.3396899440081
 30
0.0
 11
1832.7262407090941
 21
2380.8396899440081
 31
0.0
 70
     0
 13
2162.7262407090948
 23
2547.4511595622721
 33
0.0
 14
1502.7262407090941
 24
2547.4511595622721
 34
0.0
1001
ACAD
1000
DSTYLE
1002
{
1070
   287
1070
     4
1070
    40
1040
35.0
1070
    75
1070
     1
1070
   143
1040
0.039
1070
   172
1070
     1
1070
   271
1070
     0
1070
   279
1070
     1
1070
   288
1070
     1
1002
}
  0
TEXT
  5
8C
  8
4
 10
2409.7572829641558
 20
1510.4005905331451
 30
0.0
 40
175.0
  1
機器名称
  0
TEXT
  5
8E
  8
4
 10
2401.9033710867911
 20
1125.7580485620381
 30
0.0
 40
175.0
  1
機器型番
  0
LINE
  5
8F
  8
4
 10
2275.0
 20
1750.0
 30
0.0
 11
6475.0
 21
1750.0
 31
0.0
  0
LINE
  5
90
  8
4
 10
2275.0
 20
1400.0
 30
0.0
 11
6475.0
 21
1400.0
 31
0.0
  0
LINE
  5
91
  8
4
 10
2275.0
 20
1050.0
 30
0.0
 11
6475.0
 21
1050.0
 31
0.0
  0
LINE
  5
93
  8
4
 10
2275.0
 20
1750.0
 30
0.0
 11
2275.0
 21
1050.0
 31
0.0
  0
TEXT
  5
95
  8
4
 10
4131.1124678485839
 20
1482.5648553767689
 30
0.0
 40
140.0
  1
ミツヤ多翼送風機
  0
LINE
  5
96
  8
4
 10
4025.0
 20
1750.0
 30
0.0
 11
4025.0
 21
1050.0
 31
0.0
  0
TEXT
  5
97
  8
4
 10
4153.2907345491822
 20
1110.0585449798009
 30
0.0
 40
175.0
  1
MF#7-1
  0
LINE
  5
98
  8
4
 10
6475.0
 20
1750.0
 30
0.0
 11
6475.0
 21
1050.0
 31
0.0
  0
ARC
  5
99
  8
1
 10
2080.7262407090948
 20
3489.4511595622721
 30
0.0
 40
1051.0
 50
0.0
 51
85.525182101457034
  0
LINE
  5
9A
  8
1
 10
3125.2262407090939
 20
2772.4511595622721
 30
0.0
 11
3198.7262407090948
 21
2772.4511595622721
 31
0.0
  0
LINE
  5
9B
  8
1
 10
3082.726240709093
 20
2752.4511595622721
 30
0.0
 11
3256.741230802731
 21
2752.4511595622721
 31
0.0
  0
ARC
  5
9C
  8
1
 10
3012.7262407090948
 20
2952.4511595622721
 30
0.0
 40
203.5
 50
285.60376000000002
 51
254.39630099999991
  0
ARC
  5
9D
  8
1
 10
3012.7262407090948
 20
2952.4511595622721
 30
0.0
 40
220.0
 50
245.40811240409249
 51
58.272125026586302
  0
LINE
  5
9E
  8
2
 10
2750.9429347734908
 20
2952.4511595622721
 30
0.0
 11
3317.5892786044151
 21
2952.4511595622721
 31
0.0
  0
LINE
  5
A1
  8
2
 10
3317.0957112500828
 20
3407.4511595622721
 30
0.0
 11
1278.7303499279169
 21
3407.4511595622721
 31
0.0
  0
LINE
  5
A2
  8
1
 10
1502.7262407090941
 20
2567.4511595622721
 30
0.0
 11
3262.726240709093
 21
2567.4511595622721
 31
0.0
1001
ACAD
1000
ASC_BOUNDS
1002
{
1070
    19
1005
0
1005
0
1002
}
  0
LINE
  5
A3
  8
1
 10
1502.7262407090941
 20
2692.4511595622721
 30
0.0
 11
3272.726240709093
 21
2692.4511595622721
 31
0.0
  0
DIMENSION
  5
A6
  8
3
  2
*D30
 10
3131.7262407090939
 20
4829.2724630194889
 30
0.0
 11
2647.2262407090948
 21
4916.7724630194898
 31
0.0
 70
     0
 13
2162.7262407090948
 23
4651.7406811313604
 33
0.0
 14
3131.7262407090939
 24
3489.4511595622721
 34
0.0
1001
ACAD
1000
DSTYLE
1002
{
1070
   287
1070
     4
1070
    40
1040
35.0
1070
    75
1070
     1
1070
   143
1040
0.039
1070
   172
1070
     1
1070
   271
1070
     0
1070
   279
1070
     1
1002
}
  0
LINE
  5
B2
  8
2
 10
2162.7262407090948
 20
2567.451159562273
 30
0.0
 11
2162.7262407090948
 21
4651.7406811313604
 31
0.0
  0
LINE
  5
B3
  8
1
 10
1452.726240709095
 20
3402.4511595622721
 30
0.0
 11
1452.726240709095
 21
4658.4511595622726
 31
0.0
  0
DIMENSION
  5
B4
  8
3
  2
*D31
 10
1149.7062927116201
 20
3455.4511595622721
 30
0.0
 11
1062.206292711619
 21
4030.4511595622721
 31
0.0
 70
     0
 13
1402.726240709095
 23
4605.4511595622726
 33
0.0
 14
1402.726240709095
 24
3455.4511595622721
 34
0.0
 50
270.0
1001
ACAD
1000
DSTYLE
1002
{
1070
   287
1070
     3
1070
    40
1040
35.0
1070
   143
1040
0.039
1070
   172
1070
     1
1070
   271
1070
     0
1070
   279
1070
     0
1002
}
  0
DIMENSION
  5
C1
  8
3
  2
*D32
 10
918.17827700014448
 20
3407.451159562273
 30
0.0
 11
830.67827700014402
 21
4006.4511595622721
 31
0.0
 70
     0
 13
1402.726240709095
 23
4605.4511595622726
 33
0.0
 14
1278.7303499279169
 24
3407.4511595622721
 34
0.0
 50
270.0
1001
ACAD
1000
DSTYLE
1002
{
1070
   287
1070
     3
1070
    40
1040
35.0
1070
   143
1040
0.039
1070
   172
1070
     1
1070
   271
1070
     0
1070
   279
1070
     0
1002
}
  0
LINE
  5
CE
  8
1
 10
1406.726240709095
 20
3402.4511595622721
 30
0.0
 11
1406.726240709095
 21
4658.4511595622726
 31
0.0
  0
LINE
  5
CF
  8
1
 10
1402.726240709095
 20
3402.4511595622721
 30
0.0
 11
1402.726240709095
 21
4658.4511595622726
 31
0.0
  0
DIMENSION
  5
ED
  8
3
  2
*D33
 10
918.17827700014448
 20
2567.451159562273
 30
0.0
 11
830.67827700014425
 21
2987.451159562273
 31
0.0
 70
     0
 13
1278.7303499279169
 23
3407.4511595622721
 33
0.0
 14
1502.7262407090941
 24
2567.4511595622721
 34
0.0
 50
270.0
1001
ACAD
1000
DSTYLE
1002
{
1070
   287
1070
     4
1070
    40
1040
35.0
1070
    75
1070
     1
1070
   143
1040
0.039
1070
   172
1070
     1
1070
   271
1070
     0
1070
   279
1070
     1
1002
}
  0
LINE
  5
F9
  8
2
 10
3012.7262407090948
 20
3240.6495143967768
 30
0.0
 11
3012.7262407090939
 21
2567.4511595622721
 31
0.0
  0
CIRCLE
  5
FA
  8
1
 10
3012.7262407090948
 20
2952.4511595622721
 30
0.0
 40
118.0
  0
LINE
  5
FF
  8
1
 10
2046.2036664237751
 20
3152.8485482600272
 30
0.0
 11
2921.172789484915
 21
2752.4062506819369
 31
0.0
  0
LINE
  5
100
  8
1
 10
2083.035991433816
 20
3220.529507069994
 30
0.0
 11
2966.449422724435
 21
2843.9041369535671
 31
0.0
  0
ARC
  5
101
  8
1
 10
2231.2262407090939
 20
3338.9511595622721
 30
0.0
 40
736.5
 50
174.66335167861649
 51
232.04386975108619
  0
POINT
  5
107
  8
1
 10
1502.7262407090941
 20
2567.4511595622721
 30
0.0
  0
POINT
  5
108
  8
1
 10
1502.7262407090941
 20
2567.4511595622721
 30
0.0
  0
LINE
  5
109
  8
1
 10
1502.7262407090941
 20
2692.4511595622721
 30
0.0
 11
1502.7262407090941
 21
2567.4511595622721
 31
0.0
  0
LINE
  5
10A
  8
1
 10
1762.726240709095
 20
2567.4511595622721
 30
0.0
 11
1762.726240709095
 21
2692.4511595622721
 31
0.0
  0
LINE
  5
10C
  8
1
 10
3082.726240709093
 20
2752.4511595622721
 30
0.0
 11
3082.726240709093
 21
2742.4511595622721
 31
0.0
  0
LINE
  5
10D
  8
1
 10
2942.726240709093
 20
2752.4511595622721
 30
0.0
 11
2942.726240709093
 21
2742.4511595622721
 31
0.0
  0
LINE
  5
10E
  8
1
 10
2752.726240709093
 20
2692.4511595622721
 30
0.0
 11
2768.6639846610051
 21
2752.4511595622721
 31
0.0
  0
LINE
  5
10F
  8
1
 10
2853.7262407090948
 20
2699.0926655938911
 30
0.0
 11
2853.7262407090948
 21
2669.9769435938911
 31
0.0
  0
LINE
  5
110
  8
1
 10
3082.726240709093
 20
2702.4511595622721
 30
0.0
 11
3082.7262407090939
 21
2692.4511595622721
 31
0.0
  0
LINE
  5
111
  8
1
 10
2942.726240709093
 20
2702.4511595622721
 30
0.0
 11
2942.726240709093
 21
2692.4511595622721
 31
0.0
  0
LINE
  5
112
  8
1
 10
2942.726240709093
 20
2702.4511595622721
 30
0.0
 11
3082.726240709093
 21
2702.4511595622721
 31
0.0
  0
LINE
  5
113
  8
1
 10
2942.7262407090948
 20
2742.4511595622721
 30
0.0
 11
3082.726240709093
 21
2742.4511595622721
 31
0.0
  0
LINE
  5
114
  8
1
 10
2908.6236707090939
 20
2777.594348562272
 30
0.0
 11
2903.2262407090948
 21
2757.4511595622721
 31
0.0
  0
LINE
  5
115
  8
1
 10
2768.6639846610051
 20
2752.4511595622721
 30
0.0
 11
2942.7262407090948
 21
2752.4511595622721
 31
0.0
  0
LINE
  5
116
  8
1
 10
2900.2262407090948
 20
2772.4511595622721
 30
0.0
 11
2826.7262407090948
 21
2772.4511595622721
 31
0.0
  0
LINE
  5
117
  8
1
 10
2862.9762407090948
 20
2772.4511595622721
 30
0.0
 11
2862.9762407090948
 21
2752.4511595622721
 31
0.0
  0
LINE
  5
118
  8
1
 10
2903.2262407090948
 20
2769.4511595622721
 30
0.0
 11
2903.2262407090948
 21
2752.4511595622721
 31
0.0
  0
ARC
  5
119
  8
1
 10
2900.2262407090948
 20
2769.4511595622721
 30
0.0
 40
3.0
 50
0.0
 51
90.0
  0
ARC
  5
11A
  8
1
 10
2828.7262407090939
 20
2826.7778205622722
 30
0.0
 40
5.0000669999999987
 50
124.943665
 51
180.0
  0
ARC
  5
11B
  8
1
 10
2826.7262407090948
 20
2769.4511595622721
 30
0.0
 40
3.0
 50
90.0
 51
180.0
  0
LINE
  5
11D
  8
1
 10
2823.7262407090948
 20
2826.7778205622722
 30
0.0
 11
2823.7262407090948
 21
2752.4511595622721
 31
0.0
  0
LINE
  5
11E
  8
1
 10
2853.7262407090948
 20
2776.8749875622721
 30
0.0
 11
2853.7262407090948
 21
2747.759265562272
 31
0.0
  0
LINE
  5
11F
  8
1
 10
2844.4762407090948
 20
2772.4511595622721
 30
0.0
 11
2844.4762407090948
 21
2752.4511595622721
 31
0.0
  0
LINE
  5
120
  8
1
 10
2825.8624707090949
 20
2830.8764525622719
 30
0.0
 11
2841.8003367090928
 21
2842.012927562273
 31
0.0
  0
LINE
  5
122
  8
1
 10
3116.8290237090951
 20
2777.5944705622719
 30
0.0
 11
3122.2262407090939
 21
2757.4511595622721
 31
0.0
  0
LINE
  5
123
  8
1
 10
3122.2262407090939
 20
2769.4511595622721
 30
0.0
 11
3122.2262407090939
 21
2752.4511595622721
 31
0.0
  0
ARC
  5
124
  8
1
 10
3125.2262407090939
 20
2769.4511595622721
 30
0.0
 40
3.0
 50
90.0
 51
180.0
  0
LINE
  5
125
  8
1
 10
3067.4642777090939
 20
2756.4511595622721
 30
0.0
 11
2957.9882037090938
 21
2756.4511595622721
 31
0.0
  0
CIRCLE
  5
127
  8
1
 10
2162.7262407090948
 20
3407.4511595622721
 30
0.0
 40
203.19999999999999
  0
ARC
  5
128
  8
1
 10
2162.7262407090948
 20
3407.4511595622721
 30
0.0
 40
280.0
 50
58.272125026586252
 51
245.40811240409249
  0
LINE
  5
12A
  8
1
 10
1402.726240709095
 20
3402.4511595622721
 30
0.0
 11
1452.726240709095
 21
3402.4511595622721
 31
0.0
  0
LINE
  5
12B
  8
1
 10
1402.726240709095
 20
3455.4511595622721
 30
0.0
 11
1506.154816475608
 21
3455.4511595622721
 31
0.0
  0
ARC
  5
12C
  8
1
 10
2094.2262407090939
 20
3338.9511595622721
 30
0.0
 40
599.5
 50
168.79449463144641
 51
173.43894645716651
  0
LINE
  5
12D
  8
1
 10
2274.0794232029521
 20
3577.4238301551932
 30
0.0
 11
3077.3899982596608
 21
3051.1557615798151
 31
0.0
  0
LINE
  5
12E
  8
1
 10
2309.9741854793392
 20
3645.60666078141
 30
0.0
 11
3128.4210544571438
 21
3139.5733390915962
 31
0.0
  0
ARC
  5
12F
  8
1
 10
2244.7262407090939
 20
3489.4511595622721
 30
0.0
 40
887.0
 50
296.03391747341868
 51
310.75017902312982
  0
DIMENSION
  5
131
  8
3
  2
*D34
 10
2162.7262407090948
 20
4829.2724630194889
 30
0.0
 11
1782.726240709095
 21
4916.7724630194898
 31
0.0
 70
     0
 13
1402.726240709095
 23
4658.4511595622726
 33
0.0
 14
2162.7262407090948
 24
4651.7406811313604
 34
0.0
1001
ACAD
1000
DSTYLE
1002
{
1070
   287
1070
     3
1070
    40
1040
35.0
1070
   143
1040
0.039
1070
   172
1070
     1
1070
   271
1070
     0
1070
   279
1070
     0
1002
}
  0
LINE
  5
13E
  8
1
 10
1402.726240709095
 20
4605.4511595622726
 30
0.0
 11
2186.5961728412021
 21
4535.1052885506024
 31
0.0
  0
LINE
  5
13F
  8
1
 10
1402.726240709095
 20
4658.4511595622726
 30
0.0
 11
1452.726240709095
 21
4658.4511595622726
 31
0.0
  0
LINE
  5
142
  8
1
 10
5279.940004757309
 20
4658.4511595622726
 30
0.0
 11
5279.9400047573099
 21
3447.451159562273
 31
0.0
  0
LINE
  5
143
  8
1
 10
6235.940004757309
 20
4658.4511595622726
 30
0.0
 11
6235.9400047573099
 21
3402.451159562273
 31
0.0
  0
LINE
  5
144
  8
1
 10
6182.9400047573117
 20
2692.4511595622721
 30
0.0
 11
6182.9400047573126
 21
4608.4511595622726
 31
0.0
  0
LINE
  5
145
  8
1
 10
6184.9400047573108
 20
2692.4511595622721
 30
0.0
 11
6184.9400047573117
 21
4608.4511595622726
 31
0.0
  0
LINE
  5
146
  8
1
 10
5330.6400047573088
 20
2692.4511595622721
 30
0.0
 11
5330.6400047573088
 21
4608.4511595622744
 31
0.0
  0
LINE
  5
147
  8
1
 10
5332.9400047573154
 20
2692.4511595622721
 30
0.0
 11
5332.9400047573108
 21
4608.4511595622744
 31
0.0
  0
DIMENSION
  5
148
  8
3
  2
*D35
 10
6505.9576547920879
 20
2847.4511595622712
 30
0.0
 11
6418.4576547920869
 21
3407.4511595622721
 31
0.0
 70
     0
 13
6184.9400047573117
 23
3967.4511595622712
 33
0.0
 14
6184.9400047573081
 24
2847.4511595622712
 34
0.0
 50
90.0
1001
ACAD
1000
DSTYLE
1002
{
1070
   287
1070
     3
1070
     3
1000
φ<>
1070
    40
1040
35.0
1070
   143
1040
0.039
1070
   172
1070
     1
1070
   271
1070
     0
1070
   279
1070
     0
1002
}
  0
LINE
  5
155
  8
2
 10
5757.9400047573081
 20
4769.367007224766
 30
0.0
 11
5757.9400047573081
 21
2567.4511595622721
 31
0.0
  0
DIMENSION
  5
156
  8
3
  2
*D36
 10
4270.940004757309
 20
5068.7589339639599
 30
0.0
 11
5014.440004757309
 21
5243.7589339639599
 31
0.0
 70
     0
  1
MAX\P1530
 13
5757.9400047573081
 23
4942.1986065788869
 33
0.0
 14
4270.940004757309
 24
3342.4511595622712
 34
0.0
1001
ACAD
1000
DSTYLE
1002
{
1070
   287
1070
     4
1070
    40
1040
35.0
1070
    75
1070
     1
1070
   143
1040
0.039
1070
   172
1070
     1
1070
   271
1070
     0
1070
   279
1070
     1
1070
   288
1070
     1
1002
}
  0
LINE
  5
162
  8
1
 10
4437.940004757309
 20
3447.4511595622712
 30
0.0
 11
5330.6400047573088
 21
3447.4511595622721
 31
0.0
  0
LINE
  5
163
  8
2
 10
4302.0222093483189
 20
3407.4511595622712
 30
0.0
 11
6290.1498232362846
 21
3407.4511595622712
 31
0.0
  0
LINE
  5
164
  8
FUTO
 10
4494.5829236758909
 20
2758.8183417764408
 30
0.0
 11
5130.4400047583031
 21
2758.8183417764408
 31
0.0
  0
LINE
  5
166
  8
FUTO
 10
4494.5829236758909
 20
3172.496309676279
 30
0.0
 11
5130.4400047583031
 21
3172.4963096762881
 31
0.0
  0
LINE
  5
167
  8
1
 10
4480.940004757309
 20
3307.4511595622712
 30
0.0
 11
5234.940004757309
 21
3307.4511595622712
 31
0.0
  0
LINE
  5
168
  8
1
 10
4437.9400047573099
 20
3367.4511595622712
 30
0.0
 11
5330.6400047573088
 21
3367.4511595622712
 31
0.0
  0
LINE
  5
169
  8
1
 10
4417.9400047573081
 20
2692.4511595622721
 30
0.0
 11
6252.9400047573117
 21
2692.4511595622721
 31
0.0
  0
LINE
  5
16A
  8
1
 10
4417.9400047573081
 20
2567.4511595622721
 30
0.0
 11
6252.9400047573108
 21
2567.4511595622721
 31
0.0
1001
ACAD
1000
ASC_BOUNDS
1002
{
1070
    19
1002
}
  0
LINE
  5
16D
  8
FUTO
 10
4472.9400047583067
 20
2891.7337105796109
 30
0.0
 11
4472.9400047583067
 21
3013.1686085448091
 31
0.0
  0
LINE
  5
16E
  8
FUTO
 10
4467.9400047534427
 20
2913.029850616364
 30
0.0
 11
4467.9400047534427
 21
2989.872468508056
 31
0.0
  0
LINE
  5
16F
  8
FUTO
 10
4327.9400047573154
 20
2982.4511595622098
 30
0.0
 11
4327.9400047573154
 21
2922.4511595622098
 31
0.0
  0
LINE
  5
170
  8
FUTO
 10
4494.5829236758909
 20
3172.496309676279
 30
0.0
 11
4494.5829236758909
 21
2758.8183417764408
 31
0.0
  0
LINE
  5
171
  8
1
 10
4480.940004757309
 20
3307.4511595622712
 30
0.0
 11
4480.940004757309
 21
2692.4511595622721
 31
0.0
  0
LINE
  5
172
  8
1
 10
4327.9400047573072
 20
3610.651159562271
 30
0.0
 11
4327.9400047573163
 21
2833.4511595622721
 31
0.0
  0
LINE
  5
173
  8
1
 10
4437.9400047573072
 20
3610.651159562271
 30
0.0
 11
4437.9400047573163
 21
2833.4511595622721
 31
0.0
  0
LINE
  5
174
  8
1
 10
4470.9400047573081
 20
3687.4511595622698
 30
0.0
 11
4470.9400047573081
 21
2732.4511595622721
 31
0.0
  0
LINE
  5
175
  8
1
 10
4270.940004757309
 20
3687.4511595622698
 30
0.0
 11
4270.940004757309
 21
2732.4511595622721
 31
0.0
  0
LINE
  5
177
  8
1
 10
3272.726240709093
 20
2692.4511595622721
 30
0.0
 11
3256.741230802731
 21
2752.4511595622721
 31
0.0
  0
LINE
  5
178
  8
1
 10
3171.7262407090939
 20
2699.0926655938911
 30
0.0
 11
3171.7262407090939
 21
2669.9769435938911
 31
0.0
  0
LINE
  5
179
  8
1
 10
3262.726240709093
 20
2692.4511595622721
 30
0.0
 11
3262.726240709093
 21
2567.4511595622721
 31
0.0
  0
LINE
  5
17A
  8
1
 10
3171.7262407090939
 20
2776.8749875622721
 30
0.0
 11
3171.7262407090939
 21
2747.759265562272
 31
0.0
  0
LINE
  5
17B
  8
1
 10
3162.4762407090948
 20
2772.4511595622721
 30
0.0
 11
3162.4762407090948
 21
2752.4511595622721
 31
0.0
  0
LINE
  5
17C
  8
1
 10
3180.9762407090939
 20
2772.4511595622721
 30
0.0
 11
3180.9762407090939
 21
2752.4511595622721
 31
0.0
  0
ARC
  5
17D
  8
1
 10
3196.7262407090948
 20
2826.7778205622722
 30
0.0
 40
5.0
 50
0.0
 51
55.05633899999998
  0
ARC
  5
17E
  8
1
 10
3198.7262407090948
 20
2769.4511595622721
 30
0.0
 40
3.0
 50
0.0
 51
90.0
  0
LINE
  5
17F
  8
1
 10
3201.7262407090939
 20
2826.7778205622722
 30
0.0
 11
3201.7262407090939
 21
2752.4511595622721
 31
0.0
  0
LINE
  5
180
  8
1
 10
3199.5901317090938
 20
2830.8764525622719
 30
0.0
 11
3183.6522657090941
 21
2842.012927562273
 31
0.0
  0
LINE
  5
183
  8
FUTO
 10
4493.4400047583076
 20
2752.4511595622098
 30
0.0
 11
5013.4400047583067
 21
2752.4511595622098
 31
0.0
  0
LINE
  5
184
  8
FUTO
 10
4493.4400047583076
 20
2692.4511595622098
 30
0.0
 11
4493.440004758304
 21
2752.4511595622089
 31
0.0
  0
LINE
  5
185
  8
1
 10
4470.9400047573081
 20
2732.4511595622721
 30
0.0
 11
4270.940004757309
 21
2732.4511595622721
 31
0.0
  0
LINE
  5
186
  8
1
 10
4417.9400047573081
 20
2692.4511595622721
 30
0.0
 11
4417.9400047573081
 21
2567.4511595622721
 31
0.0
  0
LINE
  5
188
  8
FUTO
 10
4327.9400047573154
 20
2922.4511595622112
 30
0.0
 11
4467.9400047534427
 21
2922.4511595622112
 31
0.0
  0
LINE
  5
189
  8
2
 10
5170.5851356404019
 20
2952.4511595622721
 30
0.0
 11
4302.4444802595908
 21
2952.4511595622721
 31
0.0
  0
LINE
  5
18A
  8
1
 10
4437.9400047573135
 20
2833.4511595622721
 30
0.0
 11
4327.9400047573154
 21
2833.4511595622721
 31
0.0
  0
LINE
  5
18B
  8
FUTO
 10
4494.5829236758909
 20
2891.7337105796109
 30
0.0
 11
4472.9400047583067
 21
2891.7337105796109
 31
0.0
  0
LINE
  5
18C
  8
FUTO
 10
4467.9400047534427
 20
2913.029850616364
 30
0.0
 11
4472.9400047583067
 21
2913.0298506163649
 31
0.0
  0
LINE
  5
18D
  8
FUTO
 10
5013.4400047583067
 20
2692.4511595622098
 30
0.0
 11
5013.4400047583031
 21
2752.4511595622089
 31
0.0
  0
LINE
  5
18E
  8
FUTO
 10
4853.4400047583067
 20
2752.4511595622098
 30
0.0
 11
4933.4400047583031
 21
2752.4511595622098
 31
0.0
  0
LINE
  5
18F
  8
1
 10
4437.9400047573117
 20
3071.4511595622721
 30
0.0
 11
4327.9400047573117
 21
3071.4511595622721
 31
0.0
  0
LINE
  5
190
  8
FUTO
 10
4327.9400047573154
 20
2982.4511595622098
 30
0.0
 11
4467.9400047534427
 21
2982.4511595622112
 31
0.0
  0
LINE
  5
191
  8
FUTO
 10
4467.9400047534427
 20
2989.872468508056
 30
0.0
 11
4472.9400047583067
 21
2989.872468508056
 31
0.0
  0
LINE
  5
192
  8
FUTO
 10
4494.5829236758909
 20
3013.1686085448091
 30
0.0
 11
4472.9400047583067
 21
3013.1686085448091
 31
0.0
  0
LINE
  5
193
  8
1
 10
4327.9400047573117
 20
3204.2511595622718
 30
0.0
 11
4437.9400047573108
 21
3204.2511595622718
 31
0.0
  0
LINE
  5
194
  8
1
 10
4327.940004757309
 20
3610.651159562271
 30
0.0
 11
4437.9400047573072
 21
3610.651159562271
 31
0.0
  0
LINE
  5
195
  8
1
 10
4270.940004757309
 20
3687.4511595622698
 30
0.0
 11
4470.9400047573081
 21
3687.4511595622698
 31
0.0
  0
POINT
  5
196
  8
1
 10
4270.940004757309
 20
3687.4511595622698
 30
0.0
  0
LINE
  5
197
  8
FUTO
 10
5130.4400047583031
 20
2758.8183417764408
 30
0.0
 11
5130.4400047583031
 21
3172.4963096762881
 31
0.0
  0
LINE
  5
198
  8
1
 10
5234.9400047573099
 20
3307.4511595622712
 30
0.0
 11
5234.9400047573072
 21
2692.4511595622721
 31
0.0
  0
LINE
  5
19D
  8
1
 10
6252.9400047573108
 20
2692.4511595622721
 30
0.0
 11
6252.940004757309
 21
2567.4511595622721
 31
0.0
  0
LINE
  5
19E
  8
1
 10
6184.9400047573126
 20
3402.451159562273
 30
0.0
 11
6235.9400047573099
 21
3402.4511595622721
 31
0.0
  0
DIMENSION
  5
19F
  8
3
  2
*D38
 10
6193.2400047573092
 20
5068.7589339639599
 30
0.0
 11
5975.5900047573077
 21
5068.7589339639599
 31
0.0
 70
   128
 13
5757.9400047573081
 23
4942.1986065788869
 33
0.0
 14
6193.2400047573092
 24
4608.4511595622726
 34
0.0
1001
ACAD
1000
DSTYLE
1002
{
1070
   287
1070
     3
1070
    40
1040
35.0
1070
   143
1040
0.039
1070
   172
1070
     1
1070
   271
1070
     0
1070
   279
1070
     0
1070
   288
1070
     1
1002
}
  0
DIMENSION
  5
1AE
  8
3
  2
*D39
 10
6182.9400047573126
 20
4790.7827828865084
 30
0.0
 11
5760.7077326111694
 21
4790.7827828865084
 31
0.0
 70
   128
 13
5332.9400047573108
 23
4608.4511595622744
 33
0.0
 14
6182.9400047573126
 24
4608.4511595622726
 34
0.0
1001
ACAD
1000
DSTYLE
1002
{
1070
   287
1070
     3
1070
    40
1040
35.0
1070
   143
1040
0.039
1070
   172
1070
     1
1070
   271
1070
     0
1070
   279
1070
     0
1070
   288
1070
     1
1002
}
  0
LINE
  5
1BB
  8
1
 10
5279.9400047573099
 20
4658.4511595622726
 30
0.0
 11
6235.940004757309
 21
4658.4511595622726
 31
0.0
  0
LINE
  5
1BC
  8
1
 10
5330.6400047573088
 20
4608.4511595622726
 30
0.0
 11
6184.9400047573108
 21
4608.4511595622726
 31
0.0
  0
LINE
  5
1BD
  8
4
 10
6475.0
 20
9342.9306399268171
 30
0.0
 11
6475.0
 21
8642.9306399268171
 31
0.0
  0
LINE
  5
1BE
  8
4
 10
875.0
 20
9342.9306399268171
 30
0.0
 11
875.0
 21
8642.9306399268171
 31
0.0
  0
TEXT
  5
1BF
  8
4
 10
1004.678023501895
 20
8868.5834166975455
 30
0.0
 40
252.0
  1
遠心式片吸込片持多翼ファン
  0
TEXT
  5
1C0
  8
4
 10
2697.9708263690191
 20
8342.0009446638051
 30
0.0
 40
188.99999999999989
  1
床置ベット
  0
LINE
  5
1C1
  8
1
 10
3212.7262407090939
 20
6561.2675927725249
 30
0.0
 11
2812.7262407090961
 21
6561.2675927725231
 31
0.0
  0
LINE
  5
1C2
  8
1
 10
2812.726240709093
 20
5925.4105116901092
 30
0.0
 11
3212.7262407090939
 21
5925.4105116901092
 31
0.0
  0
LINE
  5
1C3
  8
1
 10
1882.726240709095
 20
5901.7675927715281
 30
0.0
 11
3232.7262407090939
 21
5901.7675927715281
 31
0.0
  0
LINE
  5
1C4
  8
1
 10
1882.726240709095
 20
5701.7675927715281
 30
0.0
 11
3232.7262407090939
 21
5701.7675927715281
 31
0.0
  0
DIMENSION
  5
1C5
  8
3
  2
*D40
 10
3693.118021569695
 20
7683.7675927715281
 30
0.0
 11
3605.6180215696932
 21
7221.2675927715281
 31
0.0
 70
     0
 13
3262.7262407090939
 23
6758.7675927715263
 33
0.0
 14
2822.7262407090939
 24
7683.7675927715281
 34
0.0
 50
270.0
1001
ACAD
1000
DSTYLE
1002
{
1070
   287
1070
     4
1070
    40
1040
35.0
1070
    75
1070
     1
1070
   143
1040
0.039
1070
   172
1070
     1
1070
   271
1070
     0
1070
   279
1070
     1
1070
   288
1070
     1
1002
}
  0
DIMENSION
  5
1D1
  8
3
  2
*D41
 10
2822.7262407090939
 20
7914.311000374677
 30
0.0
 11
3042.7262407090948
 21
7914.311000374677
 31
0.0
 70
   128
 13
3262.7262407090939
 23
6758.7675927715263
 33
0.0
 14
2822.7262407090939
 24
7683.7675927715281
 34
0.0
1001
ACAD
1000
DSTYLE
1002
{
1070
   287
1070
     3
1070
    40
1040
35.0
1070
   143
1040
0.039
1070
   172
1070
     1
1070
   271
1070
     0
1070
   279
1070
     0
1070
   288
1070
     1
1002
}
  0
LINE
  5
1E0
  8
1
 10
3262.7262407090939
 20
6758.7675927715281
 30
0.0
 11
1502.7262407090941
 21
6758.7675927715281
 31
0.0
  0
LINE
  5
1E1
  8
1
 10
1762.726240709095
 20
5848.7675927715281
 30
0.0
 11
3262.7262407090939
 21
5848.7675927715281
 31
0.0
  0
LINE
  5
1E2
  8
2
 10
3483.7532157002129
 20
7188.7675927715263
 30
0.0
 11
1184.5904732225299
 21
7188.7675927715281
 31
0.0
  0
LINE
  5
1E3
  8
4
 10
875.0
 20
8642.9306399268171
 30
0.0
 11
6475.0
 21
8642.9306399268171
 31
0.0
  0
LINE
  5
1E4
  8
1
 10
3131.7262407090939
 20
6761.76759277153
 30
0.0
 11
3131.7262407090939
 21
7616.0675927715247
 31
0.0
  0
LINE
  5
1E5
  8
2
 10
2162.7262407090948
 20
5622.0116577251356
 30
0.0
 11
2162.7262407090948
 21
7720.9774112505047
 31
0.0
  0
LINE
  5
1E6
  8
1
 10
1452.726240709095
 20
6710.7675927715291
 30
0.0
 11
1452.726240709095
 21
7666.7675927715272
 31
0.0
  0
LINE
  5
1E7
  8
1
 10
1402.726240709095
 20
6710.7675927715291
 30
0.0
 11
1402.726240709095
 21
7666.7675927715272
 31
0.0
  0
DIMENSION
  5
1E8
  8
3
  2
*D42
 10
875.4168222980162
 20
6693.7675927715281
 30
0.0
 11
875.41682229801506
 21
7190.8552420415108
 31
0.0
 70
   128
 13
1502.7262407090941
 23
7683.7675927715281
 33
0.0
 14
1502.7262407090941
 24
6693.7675927715281
 34
0.0
 50
270.0
1001
ACAD
1000
DSTYLE
1002
{
1070
   287
1070
     3
1070
    40
1040
35.0
1070
   143
1040
0.039
1070
   172
1070
     1
1070
   271
1070
     0
1070
   279
1070
     0
1070
   288
1070
     1
1002
}
  0
DIMENSION
  5
1F5
  8
3
  2
*D43
 10
875.41682229801506
 20
5848.7675927715281
 30
0.0
 11
787.91682229801415
 21
6271.2675927715281
 31
0.0
 70
     0
 13
1502.7262407090941
 23
6693.7675927715281
 33
0.0
 14
1762.726240709095
 24
5848.7675927715281
 34
0.0
 50
270.0
1001
ACAD
1000
DSTYLE
1002
{
1070
   287
1070
     4
1070
    40
1040
35.0
1070
    75
1070
     1
1070
   143
1040
0.039
1070
   172
1070
     1
1070
   271
1070
     0
1070
   279
1070
     1
1070
   288
1070
     1
1002
}
  0
LINE
  5
201
  8
2
 10
3012.7262407090948
 20
6565.6400606813149
 30
0.0
 11
3012.7262407090948
 21
5596.3840879366162
 31
0.0
  0
LINE
  5
202
  8
1
 10
2812.7262407090939
 20
5925.4105116901092
 30
0.0
 11
2812.7262407090961
 21
6561.2675927725231
 31
0.0
  0
LINE
  5
204
  8
1
 10
2202.7262407090948
 20
5868.7675927715281
 30
0.0
 11
2202.7262407090948
 21
6763.7675927715281
 31
0.0
  0
LINE
  5
205
  8
1
 10
2122.7262407090939
 20
5868.7675927715281
 30
0.0
 11
2122.7262407090939
 21
6763.7675927715281
 31
0.0
  0
LINE
  5
207
  8
1
 10
1762.726240709095
 20
6693.7675927715281
 30
0.0
 11
1762.726240709095
 21
5848.7675927715281
 31
0.0
  0
LINE
  5
208
  8
1
 10
1959.5262407090961
 20
5758.7675927715236
 30
0.0
 11
3131.7262407090939
 21
5758.7675927715354
 31
0.0
  0
LINE
  5
209
  8
1
 10
1959.5262407090941
 20
5868.7675927715254
 30
0.0
 11
3131.7262407090939
 21
5868.7675927715354
 31
0.0
  0
LINE
  5
20A
  8
1
 10
1959.5262407090941
 20
5758.7675927715281
 30
0.0
 11
1959.5262407090941
 21
5868.7675927715254
 31
0.0
  0
LINE
  5
20B
  8
1
 10
1882.726240709095
 20
5701.7675927715281
 30
0.0
 11
1882.726240709095
 21
5901.7675927715281
 31
0.0
  0
POINT
  5
20C
  8
1
 10
1882.726240709095
 20
5701.7675927715281
 30
0.0
  0
LINE
  5
20D
  8
1
 10
1907.726240709095
 20
5911.7675927715281
 30
0.0
 11
2122.726240709093
 21
5911.7675927715281
 31
0.0
  0
LINE
  5
20E
  8
1
 10
2365.9262407090928
 20
5758.7675927715318
 30
0.0
 11
2365.9262407090928
 21
5868.7675927715281
 31
0.0
  0
LINE
  5
20F
  8
1
 10
2202.726240709093
 20
5911.7675927715281
 30
0.0
 11
2417.7262407090948
 21
5911.7675927715281
 31
0.0
  0
POINT
  5
210
  8
1
 10
2562.7262407090939
 20
5848.7675927715281
 30
0.0
  0
LINE
  5
211
  8
1
 10
3131.7262407090939
 20
5868.7675927715318
 30
0.0
 11
3131.7262407090939
 21
5758.7675927715318
 31
0.0
  0
LINE
  5
212
  8
1
 10
3042.726240709093
 20
5758.7675927715327
 30
0.0
 11
3042.726240709093
 21
5898.7675927676619
 31
0.0
  0
LINE
  5
213
  8
1
 10
2982.7262407090939
 20
5758.7675927715327
 30
0.0
 11
2982.726240709093
 21
5898.7675927676619
 31
0.0
  0
LINE
  5
214
  8
1
 10
2893.7262407090939
 20
5868.7675927715318
 30
0.0
 11
2893.7262407090939
 21
5758.7675927715318
 31
0.0
  0
LINE
  5
215
  8
1
 10
2982.7262407090939
 20
5758.7675927715327
 30
0.0
 11
3042.7262407090948
 21
5758.7675927715327
 31
0.0
  0
LINE
  5
216
  8
1
 10
3052.147549654941
 20
5898.7675927676619
 30
0.0
 11
2975.3049317632481
 21
5898.7675927676619
 31
0.0
  0
LINE
  5
217
  8
1
 10
3052.147549654941
 20
5898.7675927676619
 30
0.0
 11
3052.1475496549392
 21
5903.7675927725249
 31
0.0
  0
LINE
  5
218
  8
1
 10
3073.4436896916918
 20
5925.4105116901092
 30
0.0
 11
3073.4436896916918
 21
5903.7675927725249
 31
0.0
  0
LINE
  5
219
  8
1
 10
2975.3049317632481
 20
5898.7675927676619
 30
0.0
 11
2975.3049317632481
 21
5903.7675927725249
 31
0.0
  0
LINE
  5
21A
  8
1
 10
2952.0087917264968
 20
5925.4105116901092
 30
0.0
 11
2952.0087917264968
 21
5903.7675927725249
 31
0.0
  0
LINE
  5
21B
  8
1
 10
3073.4436896916918
 20
5903.7675927725249
 30
0.0
 11
2952.0087917264968
 21
5903.7675927725249
 31
0.0
  0
LINE
  5
21C
  8
1
 10
1452.726240709095
 20
6761.76759277153
 30
0.0
 11
3131.7262407090939
 21
6761.76759277153
 31
0.0
  0
LINE
  5
21D
  8
1
 10
1452.726240709095
 20
6763.7675927715291
 30
0.0
 11
3131.7262407090939
 21
6763.7675927715291
 31
0.0
  0
LINE
  5
21E
  8
1
 10
1502.726240709093
 20
6693.7675927715281
 30
0.0
 11
1762.726240709095
 21
6693.7675927715281
 31
0.0
  0
LINE
  5
21F
  8
1
 10
1452.726240709095
 20
6710.7675927715291
 30
0.0
 11
1402.726240709095
 21
6710.7675927715291
 31
0.0
  0
LINE
  5
220
  8
1
 10
1502.7262407090941
 20
6763.7675927715291
 30
0.0
 11
1502.7262407090941
 21
6693.7675927715281
 31
0.0
  0
LINE
  5
221
  8
1
 10
2122.7262407090939
 20
6665.7675927715291
 30
0.0
 11
1907.7262407090941
 21
6665.7675927715272
 31
0.0
  0
LINE
  5
222
  8
1
 10
2417.7262407090948
 20
6665.7675927715272
 30
0.0
 11
2202.7262407090948
 21
6665.7675927715291
 31
0.0
  0
TEXT
  5
223
  8
4
 10
1172.4649135195609
 20
8338.1181714122031
 30
0.0
 40
188.99999999999989
  1
左回転左横向
  0
LINE
  5
224
  8
1
 10
1502.7262407090941
 20
7683.7675927715281
 30
0.0
 11
2822.7262407090939
 21
7683.7675927715281
 31
0.0
  0
LINE
  5
225
  8
1
 10
1452.7262407090941
 20
7613.7675927715254
 30
0.0
 11
3131.7262407090939
 21
7613.76759277153
 31
0.0
  0
LINE
  5
226
  8
1
 10
1452.7262407090941
 20
7616.0675927715283
 30
0.0
 11
3131.7262407090939
 21
7616.0675927715247
 31
0.0
  0
DIMENSION
  5
227
  8
3
  2
*D44
 10
1502.7262407090941
 20
7914.311000374677
 30
0.0
 11
2162.7262407090948
 21
8001.8110003746779
 31
0.0
 70
     0
 13
2822.7262407090939
 23
7683.7675927715281
 33
0.0
 14
1502.7262407090941
 24
7683.7675927715281
 34
0.0
1001
ACAD
1000
DSTYLE
1002
{
1070
   287
1070
     4
1070
    40
1040
35.0
1070
    75
1070
     1
1070
   143
1040
0.039
1070
   172
1070
     1
1070
   271
1070
     0
1070
   279
1070
     1
1070
   288
1070
     1
1002
}
  0
LINE
  5
233
  8
1
 10
1452.7262407090959
 20
7666.7675927715272
 30
0.0
 11
1402.7262407090959
 21
7666.7675927715254
 31
0.0
  0
LINE
  5
234
  8
1
 10
1502.7262407090941
 20
7683.7675927715281
 30
0.0
 11
1502.7262407090941
 21
7613.7675927715254
 31
0.0
  0
LINE
  5
235
  8
1
 10
2822.7262407090939
 20
7683.7675927715281
 30
0.0
 11
2822.7262407090939
 21
7616.0675927715247
 31
0.0
  0
LINE
  5
236
  8
1
 10
3212.7262407090939
 20
6031.767592772524
 30
0.0
 11
3212.7262407090939
 21
6561.2675927725249
 31
0.0
  0
LINE
  5
237
  8
1
 10
3262.7262407090939
 20
6758.7675927715281
 30
0.0
 11
3262.7262407090939
 21
5848.7675927715281
 31
0.0
  0
DIMENSION
  5
238
  8
3
  2
*D45
 10
3693.1180215696959
 20
6758.7675927715263
 30
0.0
 11
3693.118021569695
 21
6258.2074768975936
 31
0.0
 70
   128
 13
3262.7262407090939
 23
5848.7675927715281
 33
0.0
 14
3262.7262407090939
 24
6758.7675927715263
 34
0.0
 50
270.0
1001
ACAD
1000
DSTYLE
1002
{
1070
   287
1070
     3
1070
    40
1040
35.0
1070
   143
1040
0.039
1070
   172
1070
     1
1070
   271
1070
     0
1070
   279
1070
     0
1070
   288
1070
     1
1002
}
  0
LINE
  5
245
  8
1
 10
3212.7262407090939
 20
5925.4105116901092
 30
0.0
 11
3212.7262407090939
 21
6084.2675927725249
 31
0.0
  0
LINE
  5
246
  8
1
 10
3232.7262407090939
 20
5901.7675927715281
 30
0.0
 11
3232.7262407090939
 21
5701.7675927715281
 31
0.0
  0
TEXT
  5
247
  8
4
 10
4589.5362191000459
 20
8342.0009446638051
 30
0.0
 40
188.99999999999989
  1
縮尺：1/35
  0
LINE
  5
248
  8
4
 10
875.0
 20
9342.9306399268171
 30
0.0
 11
6475.0
 21
9342.9306399268171
 31
0.0
  0
LINE
  5
249
  8
4
 10
6475.0
 20
9384.4225409389055
 30
0.0
 11
5042.160978259526
 21
9384.4225409389055
 31
0.0
  0
LINE
  5
24A
  8
4
 10
5042.160978259526
 20
9753.2829154241354
 30
0.0
 11
6475.0
 21
9753.2829154241354
 31
0.0
  0
LINE
  5
24B
  8
4
 10
5042.160978259526
 20
9384.4225409389055
 30
0.0
 11
5042.160978259526
 21
9753.2829154241354
 31
0.0
  0
TEXT
  5
24C
  8
4
 10
5141.3934573725146
 20
9471.21378523358
 30
0.0
 40
196.0
  1
No.
  0
LINE
  5
24D
  8
4
 10
6475.0
 20
9753.2829154241354
 30
0.0
 11
6475.0
 21
9384.4225409389055
 31
0.0
  0
LINE
  5
24E
  8
4
 10
7350.0
 20
10325.0
 30
0.0
 11
7350.0
 21
0.0
 31
0.0
  0
LINE
  5
24F
  8
4
 10
7350.0
 20
10325.0
 30
0.0
 11
7350.0
 21
10325.0
 31
0.0
  0
DIMENSION
  5
293
  8
3
  2
*D23
 10
692.76751023581164
 20
2567.4511595622721
 30
0.0
 11
605.26751023581164
 21
3612.9511595622721
 31
0.0
 70
     0
 13
1402.726240709095
 23
4658.4511595622726
 33
0.0
 14
1502.7262407090941
 24
2567.4511595622721
 34
0.0
 50
90.0
1001
ACAD
1000
DSTYLE
1002
{
1070
   172
1070
     1
1070
    40
1040
35.0
1070
   271
1070
     0
1070
   143
1040
0.039
1002
}
  0
LINE
  5
29C
  8
1
 10
5262.9400047573072
 20
2692.4511595622721
 30
0.0
 11
5262.9400047573081
 21
2567.4511595622721
 31
0.0
  0
LINE
  5
29E
  8
1
 10
1907.7262407090941
 20
3307.4511595622712
 30
0.0
 11
2417.7262407090948
 21
3307.4511595622712
 31
0.0
  0
LINE
  5
2A0
  8
1
 10
1907.7262407090941
 20
3307.4511595622712
 30
0.0
 11
1762.726240709095
 21
2692.4511595622721
 31
0.0
  0
LINE
  5
2A1
  8
1
 10
2417.7262407090948
 20
3307.4511595622712
 30
0.0
 11
2562.7262407090939
 21
2692.4511595622721
 31
0.0
  0
LINE
  5
2A2
  8
1
 10
2417.7262407090948
 20
5911.7675927715281
 30
0.0
 11
2417.7262407090948
 21
6665.7675927715272
 31
0.0
  0
LINE
  5
2A3
  8
1
 10
1907.726240709095
 20
5911.7675927715281
 30
0.0
 11
1907.7262407090941
 21
6665.7675927715272
 31
0.0
  0
ARC
  5
2A8
  8
1
 10
2244.7262407090939
 20
3489.4511595622721
 30
0.0
 40
887.0
 50
337.45713541727719
 51
0.0
  0
ENDSEC
  0
EOF
