  0
SECTION
  2
HEADER
  9
$ACADVER
  1
AC1015
  9
$ACADMAINTVER
 70
    20
  9
$DWGCODEPAGE
  3
ANSI_932
  9
$INSBASE
 10
0.0
 20
0.0
 30
0.0
  9
$EXTMIN
 10
-0.1922460740788665
 20
-0.2700599612071528
 30
-0.0015258207003583
  9
$EXTMAX
 10
6300.192275410744
 20
8850.270101172235
 30
0.0000000349246037
  9
$LIMMIN
 10
0.0
 20
0.0
  9
$LIMMAX
 10
297.0
 20
210.0
  9
$ORTHOMODE
 70
     1
  9
$REGENMODE
 70
     1
  9
$FILLMODE
 70
     0
  9
$QTEXTMODE
 70
     0
  9
$MIRRTEXT
 70
     1
  9
$LTSCALE
 40
100.0
  9
$ATTMODE
 70
     1
  9
$TEXTSIZE
 40
180.0
  9
$TRACEWID
 40
0.05
  9
$TEXTSTYLE
  7
STANDARD
  9
$CLAYER
  8
3
  9
$CELTYPE
  6
ByLayer
  9
$CECOLOR
 62
   256
  9
$CELTSCALE
 40
1.0
  9
$DISPSILH
 70
     0
  9
$DIMSCALE
 40
30.0
  9
$DIMASZ
 40
2.0
  9
$DIMEXO
 40
1.0
  9
$DIMDLI
 40
10.0
  9
$DIMRND
 40
0.0
  9
$DIMDLE
 40
0.0
  9
$DIMEXE
 40
1.0
  9
$DIMTP
 40
1.0
  9
$DIMTM
 40
1.0
  9
$DIMTXT
 40
3.0
  9
$DIMCEN
 40
0.0
  9
$DIMTSZ
 40
0.0
  9
$DIMTOL
 70
     0
  9
$DIMLIM
 70
     0
  9
$DIMTIH
 70
     0
  9
$DIMTOH
 70
     0
  9
$DIMSE1
 70
     0
  9
$DIMSE2
 70
     0
  9
$DIMTAD
 70
     1
  9
$DIMZIN
 70
     8
  9
$DIMBLK
  1

  9
$DIMASO
 70
     1
  9
$DIMSHO
 70
     1
  9
$DIMPOST
  1

  9
$DIMAPOST
  1

  9
$DIMALT
 70
     0
  9
$DIMALTD
 70
     2
  9
$DIMALTF
 40
0.039
  9
$DIMLFAC
 40
1.0
  9
$DIMTOFL
 70
     1
  9
$DIMTVP
 40
0.0
  9
$DIMTIX
 70
     0
  9
$DIMSOXD
 70
     0
  9
$DIMSAH
 70
     1
  9
$DIMBLK1
  1
OPEN
  9
$DIMBLK2
  1
OPEN
  9
$DIMSTYLE
  2
IGA
  9
$DIMCLRD
 70
     0
  9
$DIMCLRE
 70
     0
  9
$DIMCLRT
 70
     0
  9
$DIMTFAC
 40
10.0
  9
$DIMGAP
 40
1.0
  9
$DIMJUST
 70
     0
  9
$DIMSD1
 70
     0
  9
$DIMSD2
 70
     0
  9
$DIMTOLJ
 70
     1
  9
$DIMTZIN
 70
     0
  9
$DIMALTZ
 70
     0
  9
$DIMALTTZ
 70
     0
  9
$DIMUPT
 70
     0
  9
$DIMDEC
 70
     4
  9
$DIMTDEC
 70
     4
  9
$DIMALTU
 70
     2
  9
$DIMALTTD
 70
     2
  9
$DIMTXSTY
  7
STANDARD
  9
$DIMAUNIT
 70
     0
  9
$DIMADEC
 70
     0
  9
$DIMALTRND
 40
0.0
  9
$DIMAZIN
 70
     0
  9
$DIMDSEP
 70
    46
  9
$DIMATFIT
 70
     3
  9
$DIMFRAC
 70
     0
  9
$DIMLDRBLK
  1
OPEN
  9
$DIMLUNIT
 70
     2
  9
$DIMLWD
 70
    -2
  9
$DIMLWE
 70
    -2
  9
$DIMTMOVE
 70
     0
  9
$LUNITS
 70
     2
  9
$LUPREC
 70
     3
  9
$SKETCHINC
 40
0.1
  9
$FILLETRAD
 40
50.0
  9
$AUNITS
 70
     0
  9
$AUPREC
 70
     0
  9
$MENU
  1
acad
  9
$ELEVATION
 40
0.0
  9
$PELEVATION
 40
0.0
  9
$THICKNESS
 40
0.0
  9
$LIMCHECK
 70
     0
  9
$CHAMFERA
 40
0.5
  9
$CHAMFERB
 40
0.5
  9
$CHAMFERC
 40
0.0
  9
$CHAMFERD
 40
0.0
  9
$SKPOLY
 70
     0
  9
$TDCREATE
 40
2451389.563479514
  9
$TDUCREATE
 40
2451389.188479514
  9
$TDUPDATE
 40
2460271.763173449
  9
$TDUUPDATE
 40
2460271.388173449
  9
$TDINDWG
 40
0.0343966088
  9
$TDUSRTIMER
 40
0.0343965972
  9
$USRTIMER
 70
     1
  9
$ANGBASE
 50
0.0
  9
$ANGDIR
 70
     0
  9
$PDMODE
 70
     0
  9
$PDSIZE
 40
0.0
  9
$PLINEWID
 40
0.0
  9
$SPLFRAME
 70
     0
  9
$SPLINETYPE
 70
     6
  9
$SPLINESEGS
 70
     8
  9
$HANDSEED
  5
8526
  9
$SURFTAB1
 70
     6
  9
$SURFTAB2
 70
     6
  9
$SURFTYPE
 70
     6
  9
$SURFU
 70
     6
  9
$SURFV
 70
     6
  9
$UCSBASE
  2

  9
$UCSNAME
  2

  9
$UCSORG
 10
0.0
 20
0.0
 30
0.0
  9
$UCSXDIR
 10
1.0
 20
0.0
 30
0.0
  9
$UCSYDIR
 10
0.0
 20
1.0
 30
0.0
  9
$UCSORTHOREF
  2

  9
$UCSORTHOVIEW
 70
     0
  9
$UCSORGTOP
 10
0.0
 20
0.0
 30
0.0
  9
$UCSORGBOTTOM
 10
0.0
 20
0.0
 30
0.0
  9
$UCSORGLEFT
 10
0.0
 20
0.0
 30
0.0
  9
$UCSORGRIGHT
 10
0.0
 20
0.0
 30
0.0
  9
$UCSORGFRONT
 10
0.0
 20
0.0
 30
0.0
  9
$UCSORGBACK
 10
0.0
 20
0.0
 30
0.0
  9
$PUCSBASE
  2

  9
$PUCSNAME
  2

  9
$PUCSORG
 10
0.0
 20
0.0
 30
0.0
  9
$PUCSXDIR
 10
1.0
 20
0.0
 30
0.0
  9
$PUCSYDIR
 10
0.0
 20
1.0
 30
0.0
  9
$PUCSORTHOREF
  2

  9
$PUCSORTHOVIEW
 70
     0
  9
$PUCSORGTOP
 10
0.0
 20
0.0
 30
0.0
  9
$PUCSORGBOTTOM
 10
0.0
 20
0.0
 30
0.0
  9
$PUCSORGLEFT
 10
0.0
 20
0.0
 30
0.0
  9
$PUCSORGRIGHT
 10
0.0
 20
0.0
 30
0.0
  9
$PUCSORGFRONT
 10
0.0
 20
0.0
 30
0.0
  9
$PUCSORGBACK
 10
0.0
 20
0.0
 30
0.0
  9
$USERI1
 70
     0
  9
$USERI2
 70
     0
  9
$USERI3
 70
     0
  9
$USERI4
 70
     0
  9
$USERI5
 70
     0
  9
$USERR1
 40
0.0
  9
$USERR2
 40
0.0
  9
$USERR3
 40
0.0
  9
$USERR4
 40
0.0
  9
$USERR5
 40
0.0
  9
$WORLDVIEW
 70
     1
  9
$SHADEDGE
 70
     3
  9
$SHADEDIF
 70
    70
  9
$TILEMODE
 70
     1
  9
$MAXACTVP
 70
    16
  9
$PINSBASE
 10
0.0
 20
0.0
 30
0.0
  9
$PLIMCHECK
 70
     0
  9
$PEXTMIN
 10
1.000000000000000E+20
 20
1.000000000000000E+20
 30
1.000000000000000E+20
  9
$PEXTMAX
 10
-1.000000000000000E+20
 20
-1.000000000000000E+20
 30
-1.000000000000000E+20
  9
$PLIMMIN
 10
0.0
 20
0.0
  9
$PLIMMAX
 10
12.0
 20
9.0
  9
$UNITMODE
 70
     0
  9
$VISRETAIN
 70
     0
  9
$PLINEGEN
 70
     0
  9
$PSLTSCALE
 70
     1
  9
$TREEDEPTH
 70
  3020
  9
$CMLSTYLE
  2
Standard
  9
$CMLJUST
 70
     0
  9
$CMLSCALE
 40
1.0
  9
$PROXYGRAPHICS
 70
     1
  9
$MEASUREMENT
 70
     0
  9
$CELWEIGHT
370
    -1
  9
$ENDCAPS
280
     0
  9
$JOINSTYLE
280
     0
  9
$LWDISPLAY
290
     0
  9
$INSUNITS
 70
     0
  9
$HYPERLINKBASE
  1

  9
$STYLESHEET
  1

  9
$XEDIT
290
     1
  9
$CEPSNTYPE
380
     0
  9
$PSTYLEMODE
290
     1
  9
$FINGERPRINTGUID
  2
{A65CFE0C-1F35-41B6-95AA-72E36454D914}
  9
$VERSIONGUID
  2
{695A9123-6498-4A65-9F9B-B1C171CDBA4A}
  9
$EXTNAMES
290
     1
  9
$PSVPSCALE
 40
0.0
  9
$OLESTARTUP
290
     0
  0
ENDSEC
  0
SECTION
  2
CLASSES
  0
CLASS
  1
ACDBDICTIONARYWDFLT
  2
AcDbDictionaryWithDefault
  3
ObjectDBX Classes
 90
        0
280
     0
281
     0
  0
CLASS
  1
MATERIAL
  2
AcDbMaterial
  3
ObjectDBX Classes
 90
     1153
280
     0
281
     0
  0
CLASS
  1
VISUALSTYLE
  2
AcDbVisualStyle
  3
ObjectDBX Classes
 90
     4095
280
     0
281
     0
  0
CLASS
  1
SCALE
  2
AcDbScale
  3
ObjectDBX Classes
 90
     1153
280
     0
281
     0
  0
CLASS
  1
TABLESTYLE
  2
AcDbTableStyle
  3
ObjectDBX Classes
 90
     4095
280
     0
281
     0
  0
CLASS
  1
MLEADERSTYLE
  2
AcDbMLeaderStyle
  3
ACDB_MLEADERSTYLE_CLASS
 90
     4095
280
     0
281
     0
  0
CLASS
  1
ACDBSECTIONVIEWSTYLE
  2
AcDbSectionViewStyle
  3
ObjectDBX Classes
 90
     1025
280
     0
281
     0
  0
CLASS
  1
ACDBDETAILVIEWSTYLE
  2
AcDbDetailViewStyle
  3
ObjectDBX Classes
 90
     1025
280
     0
281
     0
  0
CLASS
  1
DICTIONARYVAR
  2
AcDbDictionaryVar
  3
ObjectDBX Classes
 90
        0
280
     0
281
     0
  0
CLASS
  1
CELLSTYLEMAP
  2
AcDbCellStyleMap
  3
ObjectDBX Classes
 90
     1152
280
     0
281
     0
  0
CLASS
  1
ACDBPLACEHOLDER
  2
AcDbPlaceHolder
  3
ObjectDBX Classes
 90
        0
280
     0
281
     0
  0
CLASS
  1
LAYOUT
  2
AcDbLayout
  3
ObjectDBX Classes
 90
        0
280
     0
281
     0
  0
ENDSEC
  0
SECTION
  2
TABLES
  0
TABLE
  2
VPORT
  5
81AD
330
0
100
AcDbSymbolTable
 70
     1
  0
VPORT
  5
8219
330
81AD
100
AcDbSymbolTableRecord
100
AcDbViewportTableRecord
  2
*ACTIVE
 70
     0
 10
0.0
 20
0.0
 11
1.0
 21
1.0
 12
3150.000014668333
 22
4425.000020605514
 13
0.0
 23
0.0
 14
10.0
 24
10.0
 15
10.0
 25
10.0
 16
0.0
 26
0.0
 36
1.0
 17
0.0
 27
0.0
 37
0.0
 40
8907.213844128961
 41
2.050213675213675
 42
50.0
 43
0.0
 44
0.0
 50
0.0
 51
0.0
 71
     0
 72
   100
 73
     1
 74
     0
 75
     0
 76
     0
 77
     0
 78
     0
281
     0
 65
     1
110
0.0
120
0.0
130
0.0
111
1.0
121
0.0
131
0.0
112
0.0
122
1.0
132
0.0
 79
     0
146
0.0
1001
ACAD_NAV_VCDISPLAY
1070
     3
  0
ENDTAB
  0
TABLE
  2
LTYPE
  5
81AA
330
0
100
AcDbSymbolTable
 70
     3
  0
LTYPE
  5
81FF
330
81AA
100
AcDbSymbolTableRecord
100
AcDbLinetypeTableRecord
  2
ByBlock
 70
     0
  3

 72
    65
 73
     0
 40
0.0
  0
LTYPE
  5
8200
330
81AA
100
AcDbSymbolTableRecord
100
AcDbLinetypeTableRecord
  2
ByLayer
 70
     0
  3

 72
    65
 73
     0
 40
0.0
  0
LTYPE
  5
8201
330
81AA
100
AcDbSymbolTableRecord
100
AcDbLinetypeTableRecord
  2
CONTINUOUS
 70
     0
  3
Solid line
 72
    65
 73
     0
 40
0.0
  0
LTYPE
  5
821A
330
81AA
100
AcDbSymbolTableRecord
100
AcDbLinetypeTableRecord
  2
CENTER
 70
     0
  3
____ _ ____ _ ____ _ ____ _ ____ _ ____ _ ____ 
 72
    65
 73
     4
 40
2.0
 49
1.25
 74
     0
 49
-0.25
 74
     0
 49
0.25
 74
     0
 49
-0.25
 74
     0
  0
ENDTAB
  0
TABLE
  2
LAYER
  5
81A7
330
0
100
AcDbSymbolTable
 70
     6
  0
LAYER
  5
81F9
102
{ACAD_XDICTIONARY
360
84D0
102
}
330
81A7
100
AcDbSymbolTableRecord
100
AcDbLayerTableRecord
  2
0
 70
     0
 62
     7
  6
CONTINUOUS
370
    -3
390
81B4
  0
LAYER
  5
8218
102
{ACAD_XDICTIONARY
360
84D2
102
}
330
81A7
100
AcDbSymbolTableRecord
100
AcDbLayerTableRecord
  2
3
 70
     0
 62
     2
  6
CONTINUOUS
370
    -3
390
81B4
  0
LAYER
  5
821B
102
{ACAD_XDICTIONARY
360
84D4
102
}
330
81A7
100
AcDbSymbolTableRecord
100
AcDbLayerTableRecord
  2
2
 70
     0
 62
     3
  6
CENTER
370
    -3
390
81B4
  0
LAYER
  5
821C
102
{ACAD_XDICTIONARY
360
84D6
102
}
330
81A7
100
AcDbSymbolTableRecord
100
AcDbLayerTableRecord
  2
1
 70
     0
 62
     4
  6
CONTINUOUS
370
    -3
390
81B4
  0
LAYER
  5
821D
102
{ACAD_XDICTIONARY
360
84D8
102
}
330
81A7
100
AcDbSymbolTableRecord
100
AcDbLayerTableRecord
  2
4
 70
     0
 62
     7
  6
CONTINUOUS
370
    -3
390
81B4
  0
LAYER
  5
821E
330
81A7
100
AcDbSymbolTableRecord
100
AcDbLayerTableRecord
  2
DEFPOINTS
 70
     0
 62
     7
  6
CONTINUOUS
290
     0
370
    -3
390
81B4
  0
ENDTAB
  0
TABLE
  2
STYLE
  5
81A8
330
0
100
AcDbSymbolTable
 70
     2
  0
STYLE
  5
81FA
330
81A8
100
AcDbSymbolTableRecord
100
AcDbTextStyleTableRecord
  2
STANDARD
 70
     0
 40
0.0
 41
1.0
 50
0.0
 71
     0
 42
180.0
  3
simplex.shx
  4
extfont.shx
  0
STYLE
  5
81FE
330
81A8
100
AcDbSymbolTableRecord
100
AcDbTextStyleTableRecord
  2
Annotative
 70
     0
 40
0.0
 41
1.0
 50
0.0
 71
     0
 42
0.2
  3
txt
  4

1001
AcadAnnotative
1000
AnnotativeData
1002
{
1070
     1
1070
     1
1002
}
  0
ENDTAB
  0
TABLE
  2
VIEW
  5
81AB
330
0
100
AcDbSymbolTable
 70
     0
  0
ENDTAB
  0
TABLE
  2
UCS
  5
81AC
330
0
100
AcDbSymbolTable
 70
     0
  0
ENDTAB
  0
TABLE
  2
APPID
  5
81AE
330
0
100
AcDbSymbolTable
 70
     8
  0
APPID
  5
81FB
330
81AE
100
AcDbSymbolTableRecord
100
AcDbRegAppTableRecord
  2
ACAD
 70
     0
  0
APPID
  5
8202
330
81AE
100
AcDbSymbolTableRecord
100
AcDbRegAppTableRecord
  2
AcadAnnotative
 70
     0
  0
APPID
  5
830E
330
81AE
100
AcDbSymbolTableRecord
100
AcDbRegAppTableRecord
  2
ACAD_DSTYLE_DIMJAG
 70
     0
  0
APPID
  5
830F
330
81AE
100
AcDbSymbolTableRecord
100
AcDbRegAppTableRecord
  2
ACAD_DSTYLE_DIMTALN
 70
     0
  0
APPID
  5
8380
330
81AE
100
AcDbSymbolTableRecord
100
AcDbRegAppTableRecord
  2
AcadAnnoMonitorAlertIconDisabled
 70
     0
  0
APPID
  5
8381
330
81AE
100
AcDbSymbolTableRecord
100
AcDbRegAppTableRecord
  2
ACAD_EXEMPT_FROM_CAD_STANDARDS
 70
     0
  0
APPID
  5
84E4
330
81AE
100
AcDbSymbolTableRecord
100
AcDbRegAppTableRecord
  2
ACAD_NAV_VCDISPLAY
 70
     0
  0
APPID
  5
851D
330
81AE
100
AcDbSymbolTableRecord
100
AcDbRegAppTableRecord
  2
ACAD_MLEADERVER
 70
     0
  0
ENDTAB
  0
TABLE
  2
DIMSTYLE
  5
81AF
330
0
100
AcDbSymbolTable
 70
     4
100
AcDbDimStyleTable
 71
     1
340
821F
  0
DIMSTYLE
105
81FC
102
{ACAD_REACTORS
330
7C89
330
7C8A
330
7C8D
330
7C8E
330
7CCD
330
7CCF
330
7CD0
330
7CD4
330
7CD5
330
7D01
330
7D0C
330
7D18
102
}
330
81AF
100
AcDbSymbolTableRecord
100
AcDbDimStyleTableRecord
  2
Standard
 70
     0
340
81FA
  0
DIMSTYLE
105
81FD
330
81AF
100
AcDbSymbolTableRecord
100
AcDbDimStyleTableRecord
  2
Annotative
 70
     0
340
81FA
1001
AcadAnnotative
1000
AnnotativeData
1002
{
1070
     1
1070
     1
1002
}
  0
DIMSTYLE
105
821F
102
{ACAD_REACTORS
330
82E1
330
82EE
330
8310
330
831D
330
832A
330
8337
330
8344
330
8351
330
8363
330
84A4
330
84C3
102
}
330
81AF
100
AcDbSymbolTableRecord
100
AcDbDimStyleTableRecord
  2
IGA
 70
     0
 40
2.0
 41
2.0
 42
0.5
 43
10.0
 44
1.0
 47
1.0
 48
1.0
 73
     0
 74
     0
 77
     1
 78
     8
140
3.0
141
0.0
143
0.03937
146
10.0
147
1.0
173
     1
271
     3
272
     3
279
     2
284
     8
285
     8
286
     8
340
81FA
  0
DIMSTYLE
105
8220
330
81AF
100
AcDbSymbolTableRecord
100
AcDbDimStyleTableRecord
  2
MATSU
 70
     0
 41
2.0
 42
1.0
 43
10.0
 44
1.0
 73
     0
 74
     0
 77
     1
 78
     8
140
3.0
141
0.0
143
0.03937
147
0.5
172
     1
173
     1
176
   256
177
   256
178
   256
271
     3
272
     3
279
     2
284
     8
285
     8
286
     8
340
81FA
  0
ENDTAB
  0
TABLE
  2
BLOCK_RECORD
  5
81A6
330
0
100
AcDbSymbolTable
 70
    52
  0
BLOCK_RECORD
  5
8214
330
81A6
100
AcDbSymbolTableRecord
100
AcDbBlockTableRecord
  2
*Model_Space
340
8217
  0
BLOCK_RECORD
  5
8210
330
81A6
100
AcDbSymbolTableRecord
100
AcDbBlockTableRecord
  2
*Paper_Space
340
8213
  0
BLOCK_RECORD
  5
8224
330
81A6
100
AcDbSymbolTableRecord
100
AcDbBlockTableRecord
  2
$MODEL_SPACE
340
0
  0
BLOCK_RECORD
  5
8226
330
81A6
100
AcDbSymbolTableRecord
100
AcDbBlockTableRecord
  2
$PAPER_SPACE
340
0
  0
BLOCK_RECORD
  5
8228
330
81A6
100
AcDbSymbolTableRecord
100
AcDbBlockTableRecord
  2
_OPEN
340
0
102
{BLKREFS
331
7ED6
331
7ED7
331
7EE1
331
7EE2
331
807B
331
807C
331
8070
331
8071
331
7F02
331
7F03
331
7F0D
331
7F0E
331
7F18
331
7F19
331
7F23
331
7F24
331
7F2E
331
7F2F
331
818B
331
818C
331
8197
331
8090
331
8091
331
809D
331
809E
331
82FE
331
82FF
331
8307
331
8308
331
8317
331
8318
331
8324
331
8325
331
8331
331
8332
331
833E
331
833F
331
7E52
331
7E53
331
7E5D
331
7E5E
331
7E68
331
7E69
331
7E73
331
7E74
331
7EC0
331
7EC1
331
7ECB
331
7ECC
331
80AA
331
80AB
331
80B7
331
80B8
331
8120
331
8121
331
8467
331
8468
331
847E
331
84A0
331
84BD
331
84BE
331
84CA
331
84CB
102
}
  0
BLOCK_RECORD
  5
822A
330
81A6
100
AcDbSymbolTableRecord
100
AcDbBlockTableRecord
  2
YA_N
340
0
102
{BLKREFS
331
7C37
331
7C4D
331
7C87
331
7CA8
331
7CDD
331
7CDF
331
7CE1
331
7CE3
102
}
  0
BLOCK_RECORD
  5
822C
330
81A6
100
AcDbSymbolTableRecord
100
AcDbBlockTableRecord
  2
*D4
340
0
  0
BLOCK_RECORD
  5
822E
330
81A6
100
AcDbSymbolTableRecord
100
AcDbBlockTableRecord
  2
*D5
340
0
  0
BLOCK_RECORD
  5
8230
330
81A6
100
AcDbSymbolTableRecord
100
AcDbBlockTableRecord
  2
*D6
340
0
  0
BLOCK_RECORD
  5
8232
330
81A6
100
AcDbSymbolTableRecord
100
AcDbBlockTableRecord
  2
*D7
340
0
  0
BLOCK_RECORD
  5
8234
330
81A6
100
AcDbSymbolTableRecord
100
AcDbBlockTableRecord
  2
*D8
340
0
  0
BLOCK_RECORD
  5
8236
330
81A6
100
AcDbSymbolTableRecord
100
AcDbBlockTableRecord
  2
*D9
340
0
  0
BLOCK_RECORD
  5
8238
330
81A6
100
AcDbSymbolTableRecord
100
AcDbBlockTableRecord
  2
*D10
340
0
  0
BLOCK_RECORD
  5
823A
330
81A6
100
AcDbSymbolTableRecord
100
AcDbBlockTableRecord
  2
*D11
340
0
  0
BLOCK_RECORD
  5
823C
330
81A6
100
AcDbSymbolTableRecord
100
AcDbBlockTableRecord
  2
*D12
340
0
  0
BLOCK_RECORD
  5
823E
330
81A6
100
AcDbSymbolTableRecord
100
AcDbBlockTableRecord
  2
*U13
340
0
102
{BLKREFS
331
807D
102
}
  0
BLOCK_RECORD
  5
823F
330
81A6
100
AcDbSymbolTableRecord
100
AcDbBlockTableRecord
  2
*D14
340
0
  0
BLOCK_RECORD
  5
8241
330
81A6
100
AcDbSymbolTableRecord
100
AcDbBlockTableRecord
  2
*D15
340
0
  0
BLOCK_RECORD
  5
8243
330
81A6
100
AcDbSymbolTableRecord
100
AcDbBlockTableRecord
  2
*D16
340
0
  0
BLOCK_RECORD
  5
8245
330
81A6
100
AcDbSymbolTableRecord
100
AcDbBlockTableRecord
  2
*D17
340
0
  0
BLOCK_RECORD
  5
8247
330
81A6
100
AcDbSymbolTableRecord
100
AcDbBlockTableRecord
  2
*D18
340
0
  0
BLOCK_RECORD
  5
8249
330
81A6
100
AcDbSymbolTableRecord
100
AcDbBlockTableRecord
  2
*D19
340
0
  0
BLOCK_RECORD
  5
824B
330
81A6
100
AcDbSymbolTableRecord
100
AcDbBlockTableRecord
  2
*D20
340
0
  0
BLOCK_RECORD
  5
824D
330
81A6
100
AcDbSymbolTableRecord
100
AcDbBlockTableRecord
  2
*D21
340
0
  0
BLOCK_RECORD
  5
824F
330
81A6
100
AcDbSymbolTableRecord
100
AcDbBlockTableRecord
  2
_DOT
340
0
102
{BLKREFS
331
8196
102
}
  0
BLOCK_RECORD
  5
8251
330
81A6
100
AcDbSymbolTableRecord
100
AcDbBlockTableRecord
  2
*D23
340
0
  0
BLOCK_RECORD
  5
8253
330
81A6
100
AcDbSymbolTableRecord
100
AcDbBlockTableRecord
  2
*D24
340
0
  0
BLOCK_RECORD
  5
8255
330
81A6
100
AcDbSymbolTableRecord
100
AcDbBlockTableRecord
  2
*D25
340
0
  0
BLOCK_RECORD
  5
8257
330
81A6
100
AcDbSymbolTableRecord
100
AcDbBlockTableRecord
  2
*D26
340
0
  0
BLOCK_RECORD
  5
8259
330
81A6
100
AcDbSymbolTableRecord
100
AcDbBlockTableRecord
  2
_NONE
340
0
  0
BLOCK_RECORD
  5
825B
330
81A6
100
AcDbSymbolTableRecord
100
AcDbBlockTableRecord
  2
*D28
340
0
  0
BLOCK_RECORD
  5
825D
330
81A6
100
AcDbSymbolTableRecord
100
AcDbBlockTableRecord
  2
*D29
340
0
  0
BLOCK_RECORD
  5
8261
330
81A6
100
AcDbSymbolTableRecord
100
AcDbBlockTableRecord
  2
*D30
340
0
  0
BLOCK_RECORD
  5
826E
330
81A6
100
AcDbSymbolTableRecord
100
AcDbBlockTableRecord
  2
*D31
340
0
  0
BLOCK_RECORD
  5
827B
330
81A6
100
AcDbSymbolTableRecord
100
AcDbBlockTableRecord
  2
*D32
340
0
  0
BLOCK_RECORD
  5
8288
330
81A6
100
AcDbSymbolTableRecord
100
AcDbBlockTableRecord
  2
*D33
340
0
  0
BLOCK_RECORD
  5
8295
330
81A6
100
AcDbSymbolTableRecord
100
AcDbBlockTableRecord
  2
*D34
340
0
  0
BLOCK_RECORD
  5
82A2
330
81A6
100
AcDbSymbolTableRecord
100
AcDbBlockTableRecord
  2
*D35
340
0
  0
BLOCK_RECORD
  5
82AF
330
81A6
100
AcDbSymbolTableRecord
100
AcDbBlockTableRecord
  2
*D36
340
0
  0
BLOCK_RECORD
  5
82BC
330
81A6
100
AcDbSymbolTableRecord
100
AcDbBlockTableRecord
  2
*D37
340
0
  0
BLOCK_RECORD
  5
82C7
330
81A6
100
AcDbSymbolTableRecord
100
AcDbBlockTableRecord
  2
*D38
340
0
  0
BLOCK_RECORD
  5
82D4
330
81A6
100
AcDbSymbolTableRecord
100
AcDbBlockTableRecord
  2
*D39
340
0
  0
BLOCK_RECORD
  5
82E2
330
81A6
100
AcDbSymbolTableRecord
100
AcDbBlockTableRecord
  2
*D40
340
0
  0
BLOCK_RECORD
  5
82EF
330
81A6
100
AcDbSymbolTableRecord
100
AcDbBlockTableRecord
  2
*D41
340
0
  0
BLOCK_RECORD
  5
8311
330
81A6
100
AcDbSymbolTableRecord
100
AcDbBlockTableRecord
  2
*D42
340
0
  0
BLOCK_RECORD
  5
831E
330
81A6
100
AcDbSymbolTableRecord
100
AcDbBlockTableRecord
  2
*D43
340
0
  0
BLOCK_RECORD
  5
832B
330
81A6
100
AcDbSymbolTableRecord
100
AcDbBlockTableRecord
  2
*D44
340
0
  0
BLOCK_RECORD
  5
8338
330
81A6
100
AcDbSymbolTableRecord
100
AcDbBlockTableRecord
  2
*D45
340
0
  0
BLOCK_RECORD
  5
8345
330
81A6
100
AcDbSymbolTableRecord
100
AcDbBlockTableRecord
  2
*D46
340
0
  0
BLOCK_RECORD
  5
8352
330
81A6
100
AcDbSymbolTableRecord
100
AcDbBlockTableRecord
  2
*D47
340
0
  0
BLOCK_RECORD
  5
8364
330
81A6
100
AcDbSymbolTableRecord
100
AcDbBlockTableRecord
  2
*D48
340
0
  0
BLOCK_RECORD
  5
83FC
330
81A6
100
AcDbSymbolTableRecord
100
AcDbBlockTableRecord
  2
_DotSmall
340
0
102
{BLKREFS
331
847F
331
849F
102
}
  0
BLOCK_RECORD
  5
84A5
330
81A6
100
AcDbSymbolTableRecord
100
AcDbBlockTableRecord
  2
*D50
340
0
  0
BLOCK_RECORD
  5
84C4
330
81A6
100
AcDbSymbolTableRecord
100
AcDbBlockTableRecord
  2
*D51
340
0
  0
ENDTAB
  0
ENDSEC
  0
SECTION
  2
BLOCKS
  0
BLOCK
  5
8215
330
8214
100
AcDbEntity
  8
0
100
AcDbBlockBegin
  2
*Model_Space
 70
     0
 10
0.0
 20
0.0
 30
0.0
  3
*Model_Space
  1

  0
ENDBLK
  5
8216
330
8214
100
AcDbEntity
  8
0
100
AcDbBlockEnd
  0
BLOCK
  5
8211
330
8210
100
AcDbEntity
 67
     1
  8
0
100
AcDbBlockBegin
  2
*Paper_Space
 70
     0
 10
0.0
 20
0.0
 30
0.0
  3
*Paper_Space
  1

  0
ENDBLK
  5
8212
330
8210
100
AcDbEntity
 67
     1
  8
0
100
AcDbBlockEnd
  0
BLOCK
  5
8225
330
8224
100
AcDbEntity
  8
0
100
AcDbBlockBegin
  2
$MODEL_SPACE
 70
     0
 10
0.0
 20
0.0
 30
0.0
  3
$MODEL_SPACE
  1

  0
ENDBLK
  5
1B
330
8224
100
AcDbEntity
  8
0
100
AcDbBlockEnd
  0
BLOCK
  5
8227
330
8226
100
AcDbEntity
  8
0
100
AcDbBlockBegin
  2
$PAPER_SPACE
 70
     0
 10
0.0
 20
0.0
 30
0.0
  3
$PAPER_SPACE
  1

  0
ENDBLK
  5
18
330
8226
100
AcDbEntity
  8
0
100
AcDbBlockEnd
  0
BLOCK
  5
8229
330
8228
100
AcDbEntity
  8
0
100
AcDbBlockBegin
  2
_OPEN
 70
     0
 10
0.0
 20
0.0
 30
0.0
  3
_OPEN
  1

  0
LINE
  5
79FD
330
8228
100
AcDbEntity
  8
0
  6
ByBlock
 62
     0
100
AcDbLine
 10
-1.0
 20
0.1666666666666666
 30
0.0
 11
0.0
 21
0.0
 31
0.0
  0
LINE
  5
79FE
330
8228
100
AcDbEntity
  8
0
  6
ByBlock
 62
     0
100
AcDbLine
 10
0.0
 20
0.0
 30
0.0
 11
-1.0
 21
-0.1666666666666666
 31
0.0
  0
LINE
  5
79FF
330
8228
100
AcDbEntity
  8
0
  6
ByBlock
 62
     0
100
AcDbLine
 10
0.0
 20
0.0
 30
0.0
 11
-1.0
 21
0.0
 31
0.0
  0
ENDBLK
  5
7A01
330
8228
100
AcDbEntity
  8
0
100
AcDbBlockEnd
  0
BLOCK
  5
822B
330
822A
100
AcDbEntity
  8
0
100
AcDbBlockBegin
  2
YA_N
 70
     0
 10
0.0
 20
0.0
 30
0.0
  3
YA_N
  1

  0
ENDBLK
  5
7A04
330
822A
100
AcDbEntity
  8
0
100
AcDbBlockEnd
  0
BLOCK
  5
822D
330
822C
100
AcDbEntity
  8
0
100
AcDbBlockBegin
  2
*D4
 70
     1
 10
0.0
 20
0.0
 30
0.0
  3
*D4
  1

  0
LINE
  5
7E4F
330
822C
100
AcDbEntity
  8
0
  6
ByBlock
100
AcDbLine
 10
386.0326745044558
 20
-445.9396971642539
 30
0.0
 11
184.8725775103121
 21
-445.9396971642539
 31
0.0
  0
LINE
  5
7E50
330
822C
100
AcDbEntity
  8
0
  6
ByBlock
100
AcDbLine
 10
386.0326745044549
 20
584.060302835745
 30
0.0
 11
184.8725775103121
 21
584.060302835745
 31
0.0
  0
LINE
  5
7E51
330
822C
100
AcDbEntity
  8
0
  6
ByBlock
100
AcDbLine
 10
214.8725775103121
 20
-385.939697164254
 30
0.0
 11
214.8725775103121
 21
524.0603028357448
 31
0.0
  0
INSERT
  5
7E52
330
822C
100
AcDbEntity
  8
0
  6
ByBlock
100
AcDbBlockReference
  2
_OPEN
 10
214.8725775103121
 20
-445.9396971642539
 30
0.0
 41
60.0
 42
60.0
 43
60.0
 50
270.0
  0
INSERT
  5
7E53
330
822C
100
AcDbEntity
  8
0
  6
ByBlock
100
AcDbBlockReference
  2
_OPEN
 10
214.8725775103121
 20
584.060302835745
 30
0.0
 41
60.0
 42
60.0
 43
60.0
 50
90.0
  0
TEXT
  5
7E54
330
822C
100
AcDbEntity
  8
3
100
AcDbText
 10
199.8725775103121
 20
-80.93969716425448
 30
0.0
 40
90.0
  1
1030
 50
90.0
100
AcDbText
  0
POINT
  5
7E55
330
822C
100
AcDbEntity
  8
DEFPOINTS
  6
ByBlock
 62
     0
100
AcDbPoint
 10
416.0326745044558
 20
-445.9396971642539
 30
0.0
  0
POINT
  5
7E56
330
822C
100
AcDbEntity
  8
DEFPOINTS
  6
ByBlock
 62
     0
100
AcDbPoint
 10
416.0326745044548
 20
584.060302835745
 30
0.0
  0
POINT
  5
7E57
330
822C
100
AcDbEntity
  8
DEFPOINTS
  6
ByBlock
 62
     0
100
AcDbPoint
 10
214.8725775103121
 20
584.060302835745
 30
0.0
  0
ENDBLK
  5
7E58
330
822C
100
AcDbEntity
  8
0
100
AcDbBlockEnd
  0
BLOCK
  5
822F
330
822E
100
AcDbEntity
  8
0
100
AcDbBlockBegin
  2
*D5
 70
     1
 10
0.0
 20
0.0
 30
0.0
  3
*D5
  1

  0
LINE
  5
7E5A
330
822E
100
AcDbEntity
  8
0
  6
ByBlock
100
AcDbLine
 10
386.0326745044558
 20
-445.9396971642539
 30
0.0
 11
-15.92946794884119
 21
-445.9396971642539
 31
0.0
  0
LINE
  5
7E5B
330
822E
100
AcDbEntity
  8
0
  6
ByBlock
100
AcDbLine
 10
326.4166920068273
 20
628.0603028357453
 30
0.0
 11
-15.92946794884119
 21
628.0603028357453
 31
0.0
  0
LINE
  5
7E5C
330
822E
100
AcDbEntity
  8
0
  6
ByBlock
100
AcDbLine
 10
14.0705320511588
 20
-385.939697164254
 30
0.0
 11
14.0705320511588
 21
568.0603028357453
 31
0.0
  0
INSERT
  5
7E5D
330
822E
100
AcDbEntity
  8
0
  6
ByBlock
100
AcDbBlockReference
  2
_OPEN
 10
14.0705320511588
 20
-445.9396971642539
 30
0.0
 41
60.0
 42
60.0
 43
60.0
 50
270.0
  0
INSERT
  5
7E5E
330
822E
100
AcDbEntity
  8
0
  6
ByBlock
100
AcDbBlockReference
  2
_OPEN
 10
14.0705320511588
 20
628.0603028357453
 30
0.0
 41
60.0
 42
60.0
 43
60.0
 50
90.0
  0
TEXT
  5
7E5F
330
822E
100
AcDbEntity
  8
3
100
AcDbText
 10
-0.9294679488411928
 20
-61.08255430711142
 30
0.0
 40
90.0
  1
1074
 50
90.0
100
AcDbText
  0
POINT
  5
7E60
330
822E
100
AcDbEntity
  8
DEFPOINTS
  6
ByBlock
 62
     0
100
AcDbPoint
 10
416.0326745044558
 20
-445.9396971642539
 30
0.0
  0
POINT
  5
7E61
330
822E
100
AcDbEntity
  8
DEFPOINTS
  6
ByBlock
 62
     0
100
AcDbPoint
 10
356.4166920068273
 20
628.0603028357453
 30
0.0
  0
POINT
  5
7E62
330
822E
100
AcDbEntity
  8
DEFPOINTS
  6
ByBlock
 62
     0
100
AcDbPoint
 10
14.0705320511588
 20
628.0603028357453
 30
0.0
  0
ENDBLK
  5
7E63
330
822E
100
AcDbEntity
  8
0
100
AcDbBlockEnd
  0
BLOCK
  5
8231
330
8230
100
AcDbEntity
  8
0
100
AcDbBlockBegin
  2
*D6
 70
     1
 10
0.0
 20
0.0
 30
0.0
  3
*D6
  1

  0
LINE
  5
7E65
330
8230
100
AcDbEntity
  8
0
  6
ByBlock
100
AcDbLine
 10
416.0326745044548
 20
633.9398566882286
 30
0.0
 11
416.0326745044548
 21
1583.964519529796
 31
0.0
  0
LINE
  5
7E66
330
8230
100
AcDbEntity
  8
0
  6
ByBlock
100
AcDbLine
 10
1096.032674504456
 20
1421.105738527262
 30
0.0
 11
1096.032674504456
 21
1583.964519529796
 31
0.0
  0
LINE
  5
7E67
330
8230
100
AcDbEntity
  8
0
  6
ByBlock
100
AcDbLine
 10
476.0326745044548
 20
1553.964519529796
 30
0.0
 11
1036.032674504456
 21
1553.964519529796
 31
0.0
  0
INSERT
  5
7E68
330
8230
100
AcDbEntity
  8
0
  6
ByBlock
100
AcDbBlockReference
  2
_OPEN
 10
416.0326745044548
 20
1553.964519529796
 30
0.0
 41
60.0
 42
60.0
 43
60.0
 50
180.0
  0
INSERT
  5
7E69
330
8230
100
AcDbEntity
  8
0
  6
ByBlock
100
AcDbBlockReference
  2
_OPEN
 10
1096.032674504456
 20
1553.964519529796
 30
0.0
 41
60.0
 42
60.0
 43
60.0
  0
TEXT
  5
7E6A
330
8230
100
AcDbEntity
  8
3
100
AcDbText
 10
640.3183887901701
 20
1568.964519529796
 30
0.0
 40
90.0
  1
680
100
AcDbText
  0
POINT
  5
7E6B
330
8230
100
AcDbEntity
  8
DEFPOINTS
  6
ByBlock
 62
     0
100
AcDbPoint
 10
416.0326745044548
 20
603.9398566882288
 30
0.0
  0
POINT
  5
7E6C
330
8230
100
AcDbEntity
  8
DEFPOINTS
  6
ByBlock
 62
     0
100
AcDbPoint
 10
1096.032674504456
 20
1391.105738527262
 30
0.0
  0
POINT
  5
7E6D
330
8230
100
AcDbEntity
  8
DEFPOINTS
  6
ByBlock
 62
     0
100
AcDbPoint
 10
1096.032674504456
 20
1553.964519529796
 30
0.0
  0
ENDBLK
  5
7E6E
330
8230
100
AcDbEntity
  8
0
100
AcDbBlockEnd
  0
BLOCK
  5
8233
330
8232
100
AcDbEntity
  8
0
100
AcDbBlockBegin
  2
*D7
 70
     1
 10
0.0
 20
0.0
 30
0.0
  3
*D7
  1

  0
LINE
  5
7E70
330
8232
100
AcDbEntity
  8
0
  6
ByBlock
100
AcDbLine
 10
1096.032674504456
 20
1421.105738527262
 30
0.0
 11
1096.032674504456
 21
1583.50681959488
 31
0.0
  0
LINE
  5
7E71
330
8232
100
AcDbEntity
  8
0
  6
ByBlock
100
AcDbLine
 10
1960.576790920484
 20
658.0603028357444
 30
0.0
 11
1960.576790920484
 21
1583.50681959488
 31
0.0
  0
LINE
  5
7E72
330
8232
100
AcDbEntity
  8
0
  6
ByBlock
100
AcDbLine
 10
1156.032674504456
 20
1553.50681959488
 30
0.0
 11
1900.576790920483
 21
1553.50681959488
 31
0.0
  0
INSERT
  5
7E73
330
8232
100
AcDbEntity
  8
0
  6
ByBlock
100
AcDbBlockReference
  2
_OPEN
 10
1096.032674504456
 20
1553.50681959488
 30
0.0
 41
60.0
 42
60.0
 43
60.0
 50
180.0
  0
INSERT
  5
7E74
330
8232
100
AcDbEntity
  8
0
  6
ByBlock
100
AcDbBlockReference
  2
_OPEN
 10
1960.576790920484
 20
1553.50681959488
 30
0.0
 41
60.0
 42
60.0
 43
60.0
  0
TEXT
  5
7E75
330
8232
100
AcDbEntity
  8
3
100
AcDbText
 10
1412.590446998184
 20
1568.50681959488
 30
0.0
 40
90.0
  1
868
100
AcDbText
  0
POINT
  5
7E76
330
8232
100
AcDbEntity
  8
DEFPOINTS
  6
ByBlock
 62
     0
100
AcDbPoint
 10
1096.032674504456
 20
1391.105738527262
 30
0.0
  0
POINT
  5
7E77
330
8232
100
AcDbEntity
  8
DEFPOINTS
  6
ByBlock
 62
     0
100
AcDbPoint
 10
1960.576790920484
 20
628.0603028357444
 30
0.0
  0
POINT
  5
7E78
330
8232
100
AcDbEntity
  8
DEFPOINTS
  6
ByBlock
 62
     0
100
AcDbPoint
 10
1960.576790920484
 20
1553.50681959488
 30
0.0
  0
ENDBLK
  5
7E79
330
8232
100
AcDbEntity
  8
0
100
AcDbBlockEnd
  0
BLOCK
  5
8235
330
8234
100
AcDbEntity
  8
0
100
AcDbBlockBegin
  2
*D8
 70
     1
 10
0.0
 20
0.0
 30
0.0
  3
*D8
  1

  0
LINE
  5
7EBD
330
8234
100
AcDbEntity
  8
0
  6
ByBlock
100
AcDbLine
 10
1721.032674504455
 20
4406.031599361241
 30
0.0
 11
1721.032674504455
 21
4627.335536588958
 31
0.0
  0
LINE
  5
7EBE
330
8234
100
AcDbEntity
  8
0
  6
ByBlock
100
AcDbLine
 10
471.0326745044548
 20
4406.031599361237
 30
0.0
 11
471.0326745044548
 21
4627.335536588958
 31
0.0
  0
LINE
  5
7EBF
330
8234
100
AcDbEntity
  8
0
  6
ByBlock
100
AcDbLine
 10
1661.032674504454
 20
4597.335536588958
 30
0.0
 11
531.0326745044549
 21
4597.335536588958
 31
0.0
  0
INSERT
  5
7EC0
330
8234
100
AcDbEntity
  8
0
  6
ByBlock
100
AcDbBlockReference
  2
_OPEN
 10
1721.032674504455
 20
4597.335536588958
 30
0.0
 41
60.0
 42
60.0
 43
60.0
  0
INSERT
  5
7EC1
330
8234
100
AcDbEntity
  8
0
  6
ByBlock
100
AcDbBlockReference
  2
_OPEN
 10
471.0326745044548
 20
4597.335536588958
 30
0.0
 41
60.0
 42
60.0
 43
60.0
 50
180.0
  0
TEXT
  5
7EC2
330
8234
100
AcDbEntity
  8
3
100
AcDbText
 10
946.0326745044548
 20
4612.335536588958
 30
0.0
 40
90.0
  1
1250
100
AcDbText
  0
POINT
  5
7EC3
330
8234
100
AcDbEntity
  8
DEFPOINTS
  6
ByBlock
 62
     0
100
AcDbPoint
 10
1721.032674504455
 20
4376.031599361239
 30
0.0
  0
POINT
  5
7EC4
330
8234
100
AcDbEntity
  8
DEFPOINTS
  6
ByBlock
 62
     0
100
AcDbPoint
 10
471.0326745044548
 20
4376.031599361239
 30
0.0
  0
POINT
  5
7EC5
330
8234
100
AcDbEntity
  8
DEFPOINTS
  6
ByBlock
 62
     0
100
AcDbPoint
 10
471.0326745044548
 20
4597.335536588958
 30
0.0
  0
ENDBLK
  5
7EC6
330
8234
100
AcDbEntity
  8
0
100
AcDbBlockEnd
  0
BLOCK
  5
8237
330
8236
100
AcDbEntity
  8
0
100
AcDbBlockBegin
  2
*D9
 70
     1
 10
0.0
 20
0.0
 30
0.0
  3
*D9
  1

  0
LINE
  5
7EC8
330
8236
100
AcDbEntity
  8
0
  6
ByBlock
100
AcDbLine
 10
2521.032674504455
 20
2841.031599361241
 30
0.0
 11
2521.032674504455
 21
2552.481475534663
 31
0.0
  0
LINE
  5
7EC9
330
8236
100
AcDbEntity
  8
0
  6
ByBlock
100
AcDbLine
 10
471.0326745044548
 20
2841.031599361238
 30
0.0
 11
471.0326745044548
 21
2552.481475534663
 31
0.0
  0
LINE
  5
7ECA
330
8236
100
AcDbEntity
  8
0
  6
ByBlock
100
AcDbLine
 10
2461.032674504455
 20
2582.481475534663
 30
0.0
 11
531.0326745044549
 21
2582.481475534663
 31
0.0
  0
INSERT
  5
7ECB
330
8236
100
AcDbEntity
  8
0
  6
ByBlock
100
AcDbBlockReference
  2
_OPEN
 10
2521.032674504455
 20
2582.481475534663
 30
0.0
 41
60.0
 42
60.0
 43
60.0
  0
INSERT
  5
7ECC
330
8236
100
AcDbEntity
  8
0
  6
ByBlock
100
AcDbBlockReference
  2
_OPEN
 10
471.0326745044548
 20
2582.481475534663
 30
0.0
 41
60.0
 42
60.0
 43
60.0
 50
180.0
  0
TEXT
  5
7ECD
330
8236
100
AcDbEntity
  8
3
100
AcDbText
 10
1337.461245933026
 20
2597.481475534663
 30
0.0
 40
90.0
  1
2050
100
AcDbText
  0
POINT
  5
7ECE
330
8236
100
AcDbEntity
  8
DEFPOINTS
  6
ByBlock
 62
     0
100
AcDbPoint
 10
2521.032674504455
 20
2871.03159936124
 30
0.0
  0
POINT
  5
7ECF
330
8236
100
AcDbEntity
  8
DEFPOINTS
  6
ByBlock
 62
     0
100
AcDbPoint
 10
471.0326745044548
 20
2871.031599361238
 30
0.0
  0
POINT
  5
7ED0
330
8236
100
AcDbEntity
  8
DEFPOINTS
  6
ByBlock
 62
     0
100
AcDbPoint
 10
471.0326745044548
 20
2582.481475534663
 30
0.0
  0
ENDBLK
  5
7ED1
330
8236
100
AcDbEntity
  8
0
100
AcDbBlockEnd
  0
BLOCK
  5
8239
330
8238
100
AcDbEntity
  8
0
100
AcDbBlockBegin
  2
*D10
 70
     1
 10
0.0
 20
0.0
 30
0.0
  3
*D10
  1

  0
LINE
  5
7ED3
330
8238
100
AcDbEntity
  8
0
  6
ByBlock
100
AcDbLine
 10
2551.032674504455
 20
3721.031599361241
 30
0.0
 11
2773.080742005066
 21
3721.031599361241
 31
0.0
  0
LINE
  5
7ED4
330
8238
100
AcDbEntity
  8
0
  6
ByBlock
100
AcDbLine
 10
2551.032674504455
 20
2871.03159936124
 30
0.0
 11
2773.080742005066
 21
2871.03159936124
 31
0.0
  0
LINE
  5
7ED5
330
8238
100
AcDbEntity
  8
0
  6
ByBlock
100
AcDbLine
 10
2743.080742005066
 20
3661.031599361241
 30
0.0
 11
2743.080742005066
 21
2931.03159936124
 31
0.0
  0
INSERT
  5
7ED6
330
8238
100
AcDbEntity
  8
0
  6
ByBlock
100
AcDbBlockReference
  2
_OPEN
 10
2743.080742005066
 20
3721.031599361241
 30
0.0
 41
60.0
 42
60.0
 43
60.0
 50
90.0
  0
INSERT
  5
7ED7
330
8238
100
AcDbEntity
  8
0
  6
ByBlock
100
AcDbBlockReference
  2
_OPEN
 10
2743.080742005066
 20
2871.03159936124
 30
0.0
 41
60.0
 42
60.0
 43
60.0
 50
270.0
  0
TEXT
  5
7ED8
330
8238
100
AcDbEntity
  8
3
100
AcDbText
 10
2728.080742005066
 20
3180.317313646954
 30
0.0
 40
90.0
  1
850
 50
90.0
100
AcDbText
  0
POINT
  5
7ED9
330
8238
100
AcDbEntity
  8
DEFPOINTS
  6
ByBlock
 62
     0
100
AcDbPoint
 10
2521.032674504455
 20
3721.031599361241
 30
0.0
  0
POINT
  5
7EDA
330
8238
100
AcDbEntity
  8
DEFPOINTS
  6
ByBlock
 62
     0
100
AcDbPoint
 10
2521.032674504455
 20
2871.03159936124
 30
0.0
  0
POINT
  5
7EDB
330
8238
100
AcDbEntity
  8
DEFPOINTS
  6
ByBlock
 62
     0
100
AcDbPoint
 10
2743.080742005066
 20
2871.03159936124
 30
0.0
  0
ENDBLK
  5
7EDC
330
8238
100
AcDbEntity
  8
0
100
AcDbBlockEnd
  0
BLOCK
  5
823B
330
823A
100
AcDbEntity
  8
0
100
AcDbBlockBegin
  2
*D11
 70
     1
 10
0.0
 20
0.0
 30
0.0
  3
*D11
  1

  0
LINE
  5
7EDE
330
823A
100
AcDbEntity
  8
0
  6
ByBlock
100
AcDbLine
 10
441.0326745044549
 20
4376.031599361239
 30
0.0
 11
42.38853649552037
 21
4376.031599361239
 31
0.0
  0
LINE
  5
7EDF
330
823A
100
AcDbEntity
  8
0
  6
ByBlock
100
AcDbLine
 10
441.0326745044549
 20
2871.031599361238
 30
0.0
 11
42.38853649552037
 21
2871.031599361238
 31
0.0
  0
LINE
  5
7EE0
330
823A
100
AcDbEntity
  8
0
  6
ByBlock
100
AcDbLine
 10
72.38853649552037
 20
4316.031599361237
 30
0.0
 11
72.38853649552037
 21
2931.031599361238
 31
0.0
  0
INSERT
  5
7EE1
330
823A
100
AcDbEntity
  8
0
  6
ByBlock
100
AcDbBlockReference
  2
_OPEN
 10
72.38853649552037
 20
4376.031599361239
 30
0.0
 41
60.0
 42
60.0
 43
60.0
 50
90.0
  0
INSERT
  5
7EE2
330
823A
100
AcDbEntity
  8
0
  6
ByBlock
100
AcDbBlockReference
  2
_OPEN
 10
72.38853649552037
 20
2871.031599361238
 30
0.0
 41
60.0
 42
60.0
 43
60.0
 50
270.0
  0
TEXT
  5
7EE3
330
823A
100
AcDbEntity
  8
3
100
AcDbText
 10
57.38853649552038
 20
3473.531599361239
 30
0.0
 40
90.0
  1
1505
 50
90.0
100
AcDbText
  0
POINT
  5
7EE4
330
823A
100
AcDbEntity
  8
DEFPOINTS
  6
ByBlock
 62
     0
100
AcDbPoint
 10
471.0326745044548
 20
4376.031599361239
 30
0.0
  0
POINT
  5
7EE5
330
823A
100
AcDbEntity
  8
DEFPOINTS
  6
ByBlock
 62
     0
100
AcDbPoint
 10
471.0326745044548
 20
2871.031599361238
 30
0.0
  0
POINT
  5
7EE6
330
823A
100
AcDbEntity
  8
DEFPOINTS
  6
ByBlock
 62
     0
100
AcDbPoint
 10
72.38853649552037
 20
2871.031599361238
 30
0.0
  0
ENDBLK
  5
7EE7
330
823A
100
AcDbEntity
  8
0
100
AcDbBlockEnd
  0
BLOCK
  5
823D
330
823C
100
AcDbEntity
  8
0
100
AcDbBlockBegin
  2
*D12
 70
     1
 10
0.0
 20
0.0
 30
0.0
  3
*D12
  1

  0
LINE
  5
8078
330
823C
100
AcDbEntity
  8
0
  6
ByBlock
100
AcDbLine
 10
3910.373342866204
 20
3759.580412632439
 30
0.0
 11
3910.373342866204
 21
4653.103047100914
 31
0.0
  0
LINE
  5
8079
330
823C
100
AcDbEntity
  8
0
  6
ByBlock
100
AcDbLine
 10
4877.873342866208
 20
4568.80733211438
 30
0.0
 11
4877.873342866208
 21
4653.103047100914
 31
0.0
  0
LINE
  5
807A
330
823C
100
AcDbEntity
  8
0
  6
ByBlock
100
AcDbLine
 10
3970.373342866203
 20
4623.103047100913
 30
0.0
 11
4817.873342866208
 21
4623.103047100913
 31
0.0
  0
INSERT
  5
807B
330
823C
100
AcDbEntity
  8
0
  6
ByBlock
100
AcDbBlockReference
  2
_OPEN
 10
3910.373342866204
 20
4623.103047100913
 30
0.0
 41
60.0
 42
60.0
 43
60.0
 50
180.0
  0
INSERT
  5
807C
330
823C
100
AcDbEntity
  8
0
  6
ByBlock
100
AcDbBlockReference
  2
_OPEN
 10
4877.873342866208
 20
4623.103047100913
 30
0.0
 41
60.0
 42
60.0
 43
60.0
  0
INSERT
  5
807D
330
823C
100
AcDbEntity
  8
3
100
AcDbBlockReference
  2
*U13
 10
0.0
 20
0.0
 30
0.0
  0
POINT
  5
807E
330
823C
100
AcDbEntity
  8
DEFPOINTS
  6
ByBlock
 62
     0
100
AcDbPoint
 10
3910.373342866204
 20
3729.580412632439
 30
0.0
  0
POINT
  5
807F
330
823C
100
AcDbEntity
  8
DEFPOINTS
  6
ByBlock
 62
     0
100
AcDbPoint
 10
4877.873342866208
 20
4538.807332114382
 30
0.0
  0
POINT
  5
8080
330
823C
100
AcDbEntity
  8
DEFPOINTS
  6
ByBlock
 62
     0
100
AcDbPoint
 10
4877.873342866208
 20
4623.103047100913
 30
0.0
  0
ENDBLK
  5
8081
330
823C
100
AcDbEntity
  8
0
100
AcDbBlockEnd
  0
BLOCK
  5
825F
330
823E
100
AcDbEntity
  8
0
100
AcDbBlockBegin
  2
*U13
 70
     1
 10
0.0
 20
0.0
 30
0.0
  3
*U13
  1

  0
TEXT
  5
81A0
330
823E
100
AcDbEntity
  8
3
100
AcDbText
 10
4265.551914294777
 20
4788.103047100913
 30
0.0
 40
90.0
  1
MAX
100
AcDbText
  0
TEXT
  5
81A1
330
823E
100
AcDbEntity
  8
3
100
AcDbText
 10
4244.123342866204
 20
4638.103047100915
 30
0.0
 40
90.0
  1
1020
100
AcDbText
  0
ENDBLK
  5
81A3
330
823E
100
AcDbEntity
  8
0
100
AcDbBlockEnd
  0
BLOCK
  5
8240
330
823F
100
AcDbEntity
  8
0
100
AcDbBlockBegin
  2
*D14
 70
     1
 10
0.0
 20
0.0
 30
0.0
  3
*D14
  1

  0
LINE
  5
806D
330
823F
100
AcDbEntity
  8
0
  6
ByBlock
100
AcDbLine
 10
4877.873342866208
 20
4568.80733211438
 30
0.0
 11
4877.873342866208
 21
4653.103047100914
 31
0.0
  0
LINE
  5
806E
330
823F
100
AcDbEntity
  8
0
  6
ByBlock
100
AcDbLine
 10
5645.873342866212
 20
3443.78041263244
 30
0.0
 11
5645.873342866212
 21
4653.103047100914
 31
0.0
  0
LINE
  5
806F
330
823F
100
AcDbEntity
  8
0
  6
ByBlock
100
AcDbLine
 10
4937.873342866208
 20
4623.103047100913
 30
0.0
 11
5585.873342866212
 21
4623.103047100913
 31
0.0
  0
INSERT
  5
8070
330
823F
100
AcDbEntity
  8
0
  6
ByBlock
100
AcDbBlockReference
  2
_OPEN
 10
4877.873342866208
 20
4623.103047100913
 30
0.0
 41
60.0
 42
60.0
 43
60.0
 50
180.0
  0
INSERT
  5
8071
330
823F
100
AcDbEntity
  8
0
  6
ByBlock
100
AcDbBlockReference
  2
_OPEN
 10
5645.873342866212
 20
4623.103047100913
 30
0.0
 41
60.0
 42
60.0
 43
60.0
  0
TEXT
  5
8072
330
823F
100
AcDbEntity
  8
3
100
AcDbText
 10
5088.301914294782
 20
4676.674475672341
 30
0.0
 40
90.0
  1
(780)
100
AcDbText
  0
POINT
  5
8073
330
823F
100
AcDbEntity
  8
DEFPOINTS
  6
ByBlock
 62
     0
100
AcDbPoint
 10
4877.873342866208
 20
4538.807332114382
 30
0.0
  0
POINT
  5
8074
330
823F
100
AcDbEntity
  8
DEFPOINTS
  6
ByBlock
 62
     0
100
AcDbPoint
 10
5645.873342866212
 20
3413.780412632439
 30
0.0
  0
POINT
  5
8075
330
823F
100
AcDbEntity
  8
DEFPOINTS
  6
ByBlock
 62
     0
100
AcDbPoint
 10
5645.873342866212
 20
4623.103047100913
 30
0.0
  0
ENDBLK
  5
8076
330
823F
100
AcDbEntity
  8
0
100
AcDbBlockEnd
  0
BLOCK
  5
8242
330
8241
100
AcDbEntity
  8
0
100
AcDbBlockBegin
  2
*D15
 70
     1
 10
0.0
 20
0.0
 30
0.0
  3
*D15
  1

  0
LINE
  5
7EFF
330
8241
100
AcDbEntity
  8
0
  6
ByBlock
100
AcDbLine
 10
4259.104621073492
 20
1352.374620489381
 30
0.0
 11
4259.104621073492
 21
1632.055054257674
 31
0.0
  0
LINE
  5
7F00
330
8241
100
AcDbEntity
  8
0
  6
ByBlock
100
AcDbLine
 10
5509.104621073492
 20
1349.096068293924
 30
0.0
 11
5509.104621073492
 21
1632.055054257674
 31
0.0
  0
LINE
  5
7F01
330
8241
100
AcDbEntity
  8
0
  6
ByBlock
100
AcDbLine
 10
4319.104621073492
 20
1602.055054257674
 30
0.0
 11
5449.104621073495
 21
1602.055054257674
 31
0.0
  0
INSERT
  5
7F02
330
8241
100
AcDbEntity
  8
0
  6
ByBlock
100
AcDbBlockReference
  2
_OPEN
 10
4259.104621073492
 20
1602.055054257674
 30
0.0
 41
60.0
 42
60.0
 43
60.0
 50
180.0
  0
INSERT
  5
7F03
330
8241
100
AcDbEntity
  8
0
  6
ByBlock
100
AcDbBlockReference
  2
_OPEN
 10
5509.104621073492
 20
1602.055054257674
 30
0.0
 41
60.0
 42
60.0
 43
60.0
  0
TEXT
  5
7F04
330
8241
100
AcDbEntity
  8
3
100
AcDbText
 10
4734.104621073493
 20
1617.055054257674
 30
0.0
 40
90.0
  1
1250
100
AcDbText
  0
POINT
  5
7F05
330
8241
100
AcDbEntity
  8
DEFPOINTS
  6
ByBlock
 62
     0
100
AcDbPoint
 10
4259.104621073492
 20
1322.374620489382
 30
0.0
  0
POINT
  5
7F06
330
8241
100
AcDbEntity
  8
DEFPOINTS
  6
ByBlock
 62
     0
100
AcDbPoint
 10
5509.104621073492
 20
1319.096068293924
 30
0.0
  0
POINT
  5
7F07
330
8241
100
AcDbEntity
  8
DEFPOINTS
  6
ByBlock
 62
     0
100
AcDbPoint
 10
5509.104621073492
 20
1602.055054257674
 30
0.0
  0
ENDBLK
  5
7F08
330
8241
100
AcDbEntity
  8
0
100
AcDbBlockEnd
  0
BLOCK
  5
8244
330
8243
100
AcDbEntity
  8
0
100
AcDbBlockBegin
  2
*D16
 70
     1
 10
0.0
 20
0.0
 30
0.0
  3
*D16
  1

  0
LINE
  5
7F0A
330
8243
100
AcDbEntity
  8
0
  6
ByBlock
100
AcDbLine
 10
5544.604621073492
 20
98.06030283574637
 30
0.0
 11
5883.472841444802
 21
98.06030283574637
 31
0.0
  0
LINE
  5
7F0B
330
8243
100
AcDbEntity
  8
0
  6
ByBlock
100
AcDbLine
 10
5544.604621073492
 20
1158.060302835746
 30
0.0
 11
5883.472841444802
 21
1158.060302835746
 31
0.0
  0
LINE
  5
7F0C
330
8243
100
AcDbEntity
  8
0
  6
ByBlock
100
AcDbLine
 10
5853.472841444804
 20
158.0603028357463
 30
0.0
 11
5853.472841444804
 21
1098.060302835746
 31
0.0
  0
INSERT
  5
7F0D
330
8243
100
AcDbEntity
  8
0
  6
ByBlock
100
AcDbBlockReference
  2
_OPEN
 10
5853.472841444804
 20
98.06030283574637
 30
0.0
 41
60.0
 42
60.0
 43
60.0
 50
270.0
  0
INSERT
  5
7F0E
330
8243
100
AcDbEntity
  8
0
  6
ByBlock
100
AcDbBlockReference
  2
_OPEN
 10
5853.472841444804
 20
1158.060302835746
 30
0.0
 41
60.0
 42
60.0
 43
60.0
 50
90.0
  0
TEXT
  5
7F0F
330
8243
100
AcDbEntity
  8
3
100
AcDbText
 10
5838.472841444802
 20
433.0603028357463
 30
0.0
 40
90.0
  1
\U+03C61060
 50
90.0
100
AcDbText
  0
POINT
  5
7F10
330
8243
100
AcDbEntity
  8
DEFPOINTS
  6
ByBlock
 62
     0
100
AcDbPoint
 10
5514.604621073492
 20
98.06030283574637
 30
0.0
  0
POINT
  5
7F11
330
8243
100
AcDbEntity
  8
DEFPOINTS
  6
ByBlock
 62
     0
100
AcDbPoint
 10
5514.604621073492
 20
1158.060302835746
 30
0.0
  0
POINT
  5
7F12
330
8243
100
AcDbEntity
  8
DEFPOINTS
  6
ByBlock
 62
     0
100
AcDbPoint
 10
5853.472841444804
 20
1158.060302835746
 30
0.0
  0
ENDBLK
  5
7F13
330
8243
100
AcDbEntity
  8
0
100
AcDbBlockEnd
  0
BLOCK
  5
8246
330
8245
100
AcDbEntity
  8
0
100
AcDbBlockBegin
  2
*D17
 70
     1
 10
0.0
 20
0.0
 30
0.0
  3
*D17
  1

  0
LINE
  5
7F15
330
8245
100
AcDbEntity
  8
0
  6
ByBlock
100
AcDbLine
 10
416.0326745044548
 20
633.9398566882286
 30
0.0
 11
416.0326745044548
 21
1763.351022905701
 31
0.0
  0
LINE
  5
7F16
330
8245
100
AcDbEntity
  8
0
  6
ByBlock
100
AcDbLine
 10
2521.032674504455
 20
-451.9396971642548
 30
0.0
 11
2521.032674504455
 21
1763.351022905701
 31
0.0
  0
LINE
  5
7F17
330
8245
100
AcDbEntity
  8
0
  6
ByBlock
100
AcDbLine
 10
476.0326745044548
 20
1733.351022905701
 30
0.0
 11
2461.032674504455
 21
1733.351022905701
 31
0.0
  0
INSERT
  5
7F18
330
8245
100
AcDbEntity
  8
0
  6
ByBlock
100
AcDbBlockReference
  2
_OPEN
 10
416.0326745044548
 20
1733.351022905701
 30
0.0
 41
60.0
 42
60.0
 43
60.0
 50
180.0
  0
INSERT
  5
7F19
330
8245
100
AcDbEntity
  8
0
  6
ByBlock
100
AcDbBlockReference
  2
_OPEN
 10
2521.032674504455
 20
1733.351022905701
 30
0.0
 41
60.0
 42
60.0
 43
60.0
  0
TEXT
  5
7F1A
330
8245
100
AcDbEntity
  8
3
100
AcDbText
 10
1318.532674504454
 20
1748.351022905701
 30
0.0
 40
90.0
  1
2105
100
AcDbText
  0
POINT
  5
7F1B
330
8245
100
AcDbEntity
  8
DEFPOINTS
  6
ByBlock
 62
     0
100
AcDbPoint
 10
416.0326745044548
 20
603.9398566882288
 30
0.0
  0
POINT
  5
7F1C
330
8245
100
AcDbEntity
  8
DEFPOINTS
  6
ByBlock
 62
     0
100
AcDbPoint
 10
2521.032674504455
 20
-481.9396971642547
 30
0.0
  0
POINT
  5
7F1D
330
8245
100
AcDbEntity
  8
DEFPOINTS
  6
ByBlock
 62
     0
100
AcDbPoint
 10
2521.032674504455
 20
1733.351022905701
 30
0.0
  0
ENDBLK
  5
7F1E
330
8245
100
AcDbEntity
  8
0
100
AcDbBlockEnd
  0
BLOCK
  5
8248
330
8247
100
AcDbEntity
  8
0
100
AcDbBlockBegin
  2
*D18
 70
     1
 10
0.0
 20
0.0
 30
0.0
  3
*D18
  1

  0
LINE
  5
7F20
330
8247
100
AcDbEntity
  8
0
  6
ByBlock
100
AcDbLine
 10
1721.032674504455
 20
4406.031599361241
 30
0.0
 11
1721.032674504455
 21
4627.335536588958
 31
0.0
  0
LINE
  5
7F21
330
8247
100
AcDbEntity
  8
0
  6
ByBlock
100
AcDbLine
 10
2521.032674504455
 20
3751.03159936124
 30
0.0
 11
2521.032674504455
 21
4627.335536588958
 31
0.0
  0
LINE
  5
7F22
330
8247
100
AcDbEntity
  8
0
  6
ByBlock
100
AcDbLine
 10
1781.032674504454
 20
4597.335536588958
 30
0.0
 11
2461.032674504455
 21
4597.335536588958
 31
0.0
  0
INSERT
  5
7F23
330
8247
100
AcDbEntity
  8
0
  6
ByBlock
100
AcDbBlockReference
  2
_OPEN
 10
1721.032674504455
 20
4597.335536588958
 30
0.0
 41
60.0
 42
60.0
 43
60.0
 50
180.0
  0
INSERT
  5
7F24
330
8247
100
AcDbEntity
  8
0
  6
ByBlock
100
AcDbBlockReference
  2
_OPEN
 10
2521.032674504455
 20
4597.335536588958
 30
0.0
 41
60.0
 42
60.0
 43
60.0
  0
TEXT
  5
7F25
330
8247
100
AcDbEntity
  8
3
100
AcDbText
 10
2005.318388790169
 20
4612.335536588958
 30
0.0
 40
90.0
  1
800
100
AcDbText
  0
POINT
  5
7F26
330
8247
100
AcDbEntity
  8
DEFPOINTS
  6
ByBlock
 62
     0
100
AcDbPoint
 10
1721.032674504455
 20
4376.031599361239
 30
0.0
  0
POINT
  5
7F27
330
8247
100
AcDbEntity
  8
DEFPOINTS
  6
ByBlock
 62
     0
100
AcDbPoint
 10
2521.032674504455
 20
3721.031599361241
 30
0.0
  0
POINT
  5
7F28
330
8247
100
AcDbEntity
  8
DEFPOINTS
  6
ByBlock
 62
     0
100
AcDbPoint
 10
2521.032674504455
 20
4597.335536588958
 30
0.0
  0
ENDBLK
  5
7F29
330
8247
100
AcDbEntity
  8
0
100
AcDbBlockEnd
  0
BLOCK
  5
824A
330
8249
100
AcDbEntity
  8
0
100
AcDbBlockBegin
  2
*D19
 70
     1
 10
0.0
 20
0.0
 30
0.0
  3
*D19
  1

  0
LINE
  5
7F2B
330
8249
100
AcDbEntity
  8
0
  6
ByBlock
100
AcDbLine
 10
1140.032674504455
 20
1348.060302835746
 30
0.0
 11
-255.1387932543839
 21
1348.060302835746
 31
0.0
  0
LINE
  5
7F2C
330
8249
100
AcDbEntity
  8
0
  6
ByBlock
100
AcDbLine
 10
326.4166920068273
 20
628.0603028357453
 30
0.0
 11
-255.1387932543839
 21
628.0603028357453
 31
0.0
  0
LINE
  5
7F2D
330
8249
100
AcDbEntity
  8
0
  6
ByBlock
100
AcDbLine
 10
-225.1387932543839
 20
1288.060302835746
 30
0.0
 11
-225.1387932543839
 21
688.0603028357453
 31
0.0
  0
INSERT
  5
7F2E
330
8249
100
AcDbEntity
  8
0
  6
ByBlock
100
AcDbBlockReference
  2
_OPEN
 10
-225.1387932543839
 20
1348.060302835746
 30
0.0
 41
60.0
 42
60.0
 43
60.0
 50
90.0
  0
INSERT
  5
7F2F
330
8249
100
AcDbEntity
  8
0
  6
ByBlock
100
AcDbBlockReference
  2
_OPEN
 10
-225.1387932543839
 20
628.0603028357453
 30
0.0
 41
60.0
 42
60.0
 43
60.0
 50
270.0
  0
TEXT
  5
7F30
330
8249
100
AcDbEntity
  8
3
100
AcDbText
 10
-240.1387932543839
 20
872.3460171214604
 30
0.0
 40
90.0
  1
720
 50
90.0
100
AcDbText
  0
POINT
  5
7F31
330
8249
100
AcDbEntity
  8
DEFPOINTS
  6
ByBlock
 62
     0
100
AcDbPoint
 10
1170.032674504454
 20
1348.060302835746
 30
0.0
  0
POINT
  5
7F32
330
8249
100
AcDbEntity
  8
DEFPOINTS
  6
ByBlock
 62
     0
100
AcDbPoint
 10
356.4166920068273
 20
628.0603028357453
 30
0.0
  0
POINT
  5
7F33
330
8249
100
AcDbEntity
  8
DEFPOINTS
  6
ByBlock
 62
     0
100
AcDbPoint
 10
-225.1387932543839
 20
628.0603028357453
 30
0.0
  0
ENDBLK
  5
7F34
330
8249
100
AcDbEntity
  8
0
100
AcDbBlockEnd
  0
BLOCK
  5
824C
330
824B
100
AcDbEntity
  8
0
100
AcDbBlockBegin
  2
*D20
 70
     1
 10
0.0
 20
0.0
 30
0.0
  3
*D20
  1

  0
LINE
  5
8188
330
824B
100
AcDbEntity
  8
3
 62
     0
100
AcDbLine
 10
1491.601162979292
 20
3449.580412632438
 30
0.0
 11
895.0456777180811
 21
3449.580412632438
 31
0.0
  0
LINE
  5
8189
330
824B
100
AcDbEntity
  8
3
 62
     0
100
AcDbLine
 10
1606.217145476919
 20
2239.58041263244
 30
0.0
 11
895.0456777180807
 21
2239.58041263244
 31
0.0
  0
LINE
  5
818A
330
824B
100
AcDbEntity
  8
3
 62
     0
100
AcDbLine
 10
925.045677718081
 20
3389.580412632438
 30
0.0
 11
925.0456777180804
 21
2299.58041263244
 31
0.0
  0
INSERT
  5
818B
330
824B
100
AcDbEntity
  8
3
 62
     0
100
AcDbBlockReference
  2
_OPEN
 10
925.045677718081
 20
3449.580412632438
 30
0.0
 41
60.0
 42
60.0
 43
60.0
 50
90.0
  0
INSERT
  5
818C
330
824B
100
AcDbEntity
  8
3
 62
     0
100
AcDbBlockReference
  2
_OPEN
 10
925.0456777180804
 20
2239.58041263244
 30
0.0
 41
60.0
 42
60.0
 43
60.0
 50
270.0
  0
TEXT
  5
81A4
330
824B
100
AcDbEntity
  8
3
 62
     0
100
AcDbText
 10
670.046
 20
2685.28
 30
0.0
 40
90.0
  1
1210
100
AcDbText
  0
POINT
  5
818E
330
824B
100
AcDbEntity
  8
DEFPOINTS
 62
     0
100
AcDbPoint
 10
1506.601162979292
 20
3449.580412632438
 30
0.0
  0
POINT
  5
818F
330
824B
100
AcDbEntity
  8
DEFPOINTS
 62
     0
100
AcDbPoint
 10
1621.217145476919
 20
2239.58041263244
 30
0.0
  0
POINT
  5
8190
330
824B
100
AcDbEntity
  8
DEFPOINTS
 62
     0
100
AcDbPoint
 10
925.0456777180804
 20
2239.58041263244
 30
0.0
  0
ENDBLK
  5
7F99
330
824B
100
AcDbEntity
  8
0
100
AcDbBlockEnd
  0
BLOCK
  5
824E
330
824D
100
AcDbEntity
  8
0
100
AcDbBlockBegin
  2
*D21
 70
     1
 10
0.0
 20
0.0
 30
0.0
  3
*D21
  1

  0
LINE
  5
8191
330
824D
100
AcDbEntity
  8
3
 62
     0
100
AcDbLine
 10
1606.217145476919
 20
2124.58041263244
 30
0.0
 11
895.0456777180807
 21
2124.58041263244
 31
0.0
  0
LINE
  5
8192
330
824D
100
AcDbEntity
  8
3
 62
     0
100
AcDbLine
 10
1606.217145476919
 20
2024.58041263244
 30
0.0
 11
895.0456777180807
 21
2024.58041263244
 31
0.0
  0
LINE
  5
8193
330
824D
100
AcDbEntity
  8
3
 62
     0
100
AcDbLine
 10
925.0456777180804
 20
2184.58041263244
 30
0.0
 11
925.0456777180804
 21
2244.58041263244
 31
0.0
  0
LINE
  5
8194
330
824D
100
AcDbEntity
  8
3
 62
     0
100
AcDbLine
 10
925.0456777180804
 20
1964.58041263244
 30
0.0
 11
925.0456777180804
 21
1630.294698346726
 31
0.0
  0
LINE
  5
8195
330
824D
100
AcDbEntity
  8
3
 62
     0
100
AcDbLine
 10
925.0456777180804
 20
2124.58041263244
 30
0.0
 11
925.0456777180804
 21
2024.58041263244
 31
0.0
  0
INSERT
  5
8196
330
824D
100
AcDbEntity
  8
3
 62
     0
100
AcDbBlockReference
  2
_DOT
 10
925.0456777180804
 20
2124.58041263244
 30
0.0
 41
60.0
 42
60.0
 43
60.0
 50
270.0
  0
INSERT
  5
8197
330
824D
100
AcDbEntity
  8
3
 62
     0
100
AcDbBlockReference
  2
_OPEN
 10
925.0456777180804
 20
2024.58041263244
 30
0.0
 41
60.0
 42
60.0
 43
60.0
 50
90.0
  0
TEXT
  5
81A5
330
824D
100
AcDbEntity
  8
3
 62
     0
100
AcDbText
 10
670.046
 20
1608.14
 30
0.0
 40
90.0
  1
100
100
AcDbText
  0
POINT
  5
8199
330
824D
100
AcDbEntity
  8
DEFPOINTS
 62
     0
100
AcDbPoint
 10
1621.217145476919
 20
2124.58041263244
 30
0.0
  0
POINT
  5
819A
330
824D
100
AcDbEntity
  8
DEFPOINTS
 62
     0
100
AcDbPoint
 10
1621.217145476919
 20
2024.58041263244
 30
0.0
  0
POINT
  5
819B
330
824D
100
AcDbEntity
  8
DEFPOINTS
 62
     0
100
AcDbPoint
 10
925.0456777180804
 20
2024.58041263244
 30
0.0
  0
ENDBLK
  5
8011
330
824D
100
AcDbEntity
  8
0
100
AcDbBlockEnd
  0
BLOCK
  5
8250
330
824F
100
AcDbEntity
  8
0
100
AcDbBlockBegin
  2
_DOT
 70
     0
 10
0.0
 20
0.0
 30
0.0
  3
_DOT
  1

  0
LWPOLYLINE
  5
8014
330
824F
100
AcDbEntity
  8
0
  6
ByBlock
 62
     0
100
AcDbPolyline
 90
        2
 70
     1
 43
0.25
 10
-0.125
 20
0.0
 42
1.0
 10
0.125
 20
0.0
 42
1.0
  0
LINE
  5
8018
330
824F
100
AcDbEntity
  8
0
  6
ByBlock
 62
     0
100
AcDbLine
 10
-0.25
 20
0.0
 30
0.0
 11
-1.0
 21
0.0
 31
0.0
  0
ENDBLK
  5
7FF7
330
824F
100
AcDbEntity
  8
0
100
AcDbBlockEnd
  0
BLOCK
  5
8252
330
8251
100
AcDbEntity
  8
0
100
AcDbBlockBegin
  2
*D23
 70
     1
 10
0.0
 20
0.0
 30
0.0
  3
*D23
  1

  0
LINE
  5
808D
330
8251
100
AcDbEntity
  8
0
  6
ByBlock
 62
     0
100
AcDbLine
 10
1621.217145476919
 20
2082.58041263244
 30
0.0
 11
1621.217145476919
 21
1881.819914238813
 31
0.0
  0
LINE
  5
808E
330
8251
100
AcDbEntity
  8
0
  6
ByBlock
 62
     0
100
AcDbLine
 10
2246.21714547692
 20
2082.58041263244
 30
0.0
 11
2246.21714547692
 21
1881.819914238813
 31
0.0
  0
LINE
  5
808F
330
8251
100
AcDbEntity
  8
0
  6
ByBlock
 62
     0
100
AcDbLine
 10
1681.217145476919
 20
1911.819914238813
 30
0.0
 11
2186.217145476921
 21
1911.819914238813
 31
0.0
  0
INSERT
  5
8090
330
8251
100
AcDbEntity
  8
0
  6
ByBlock
 62
     0
100
AcDbBlockReference
  2
_OPEN
 10
1621.217145476919
 20
1911.819914238813
 30
0.0
 41
60.0
 42
60.0
 43
60.0
 50
180.0
  0
INSERT
  5
8091
330
8251
100
AcDbEntity
  8
0
  6
ByBlock
 62
     0
100
AcDbBlockReference
  2
_OPEN
 10
2246.21714547692
 20
1911.819914238813
 30
0.0
 41
60.0
 42
60.0
 43
60.0
  0
TEXT
  5
8092
330
8251
100
AcDbEntity
  8
3
 62
     0
100
AcDbText
 10
1818.002859762634
 20
1941.819914238813
 30
0.0
 40
90.0
  1
625
100
AcDbText
  0
POINT
  5
8093
330
8251
100
AcDbEntity
  8
DEFPOINTS
  6
ByBlock
 62
     0
100
AcDbPoint
 10
1621.217145476919
 20
2112.58041263244
 30
0.0
  0
POINT
  5
8094
330
8251
100
AcDbEntity
  8
DEFPOINTS
  6
ByBlock
 62
     0
100
AcDbPoint
 10
2246.21714547692
 20
2112.58041263244
 30
0.0
  0
POINT
  5
8095
330
8251
100
AcDbEntity
  8
DEFPOINTS
  6
ByBlock
 62
     0
100
AcDbPoint
 10
2246.21714547692
 20
1911.819914238813
 30
0.0
  0
ENDBLK
  5
8096
330
8251
100
AcDbEntity
  8
0
100
AcDbBlockEnd
  0
BLOCK
  5
8254
330
8253
100
AcDbEntity
  8
0
100
AcDbBlockBegin
  2
*D24
 70
     1
 10
0.0
 20
0.0
 30
0.0
  3
*D24
  1

  0
LINE
  5
809A
330
8253
100
AcDbEntity
  8
0
  6
ByBlock
 62
     0
100
AcDbLine
 10
2246.21714547692
 20
2082.58041263244
 30
0.0
 11
2246.21714547692
 21
1881.819914238813
 31
0.0
  0
LINE
  5
809B
330
8253
100
AcDbEntity
  8
0
  6
ByBlock
 62
     0
100
AcDbLine
 10
3671.217145476919
 20
2082.58041263244
 30
0.0
 11
3671.217145476919
 21
1881.819914238813
 31
0.0
  0
LINE
  5
809C
330
8253
100
AcDbEntity
  8
0
  6
ByBlock
 62
     0
100
AcDbLine
 10
2306.21714547692
 20
1911.819914238813
 30
0.0
 11
3611.217145476919
 21
1911.819914238813
 31
0.0
  0
INSERT
  5
809D
330
8253
100
AcDbEntity
  8
0
  6
ByBlock
 62
     0
100
AcDbBlockReference
  2
_OPEN
 10
2246.21714547692
 20
1911.819914238813
 30
0.0
 41
60.0
 42
60.0
 43
60.0
 50
180.0
  0
INSERT
  5
809E
330
8253
100
AcDbEntity
  8
0
  6
ByBlock
 62
     0
100
AcDbBlockReference
  2
_OPEN
 10
3671.217145476919
 20
1911.819914238813
 30
0.0
 41
60.0
 42
60.0
 43
60.0
  0
TEXT
  5
809F
330
8253
100
AcDbEntity
  8
3
 62
     0
100
AcDbText
 10
2808.71714547692
 20
1941.819914238813
 30
0.0
 40
90.0
  1
1425
100
AcDbText
  0
POINT
  5
80A0
330
8253
100
AcDbEntity
  8
DEFPOINTS
  6
ByBlock
 62
     0
100
AcDbPoint
 10
2246.21714547692
 20
2112.58041263244
 30
0.0
  0
POINT
  5
80A1
330
8253
100
AcDbEntity
  8
DEFPOINTS
  6
ByBlock
 62
     0
100
AcDbPoint
 10
3671.217145476919
 20
2112.58041263244
 30
0.0
  0
POINT
  5
80A2
330
8253
100
AcDbEntity
  8
DEFPOINTS
  6
ByBlock
 62
     0
100
AcDbPoint
 10
3671.217145476919
 20
1911.819914238813
 30
0.0
  0
ENDBLK
  5
80A3
330
8253
100
AcDbEntity
  8
0
100
AcDbBlockEnd
  0
BLOCK
  5
8256
330
8255
100
AcDbEntity
  8
0
100
AcDbBlockBegin
  2
*D25
 70
     1
 10
0.0
 20
0.0
 30
0.0
  3
*D25
  1

  0
LINE
  5
80A7
330
8255
100
AcDbEntity
  8
0
  6
ByBlock
 62
     0
100
AcDbLine
 10
4050.873342866209
 20
2082.580412632439
 30
0.0
 11
4050.873342866209
 21
1881.819914238813
 31
0.0
  0
LINE
  5
80A8
330
8255
100
AcDbEntity
  8
0
  6
ByBlock
 62
     0
100
AcDbLine
 10
4877.873342866208
 20
2082.580412632439
 30
0.0
 11
4877.873342866208
 21
1881.819914238813
 31
0.0
  0
LINE
  5
80A9
330
8255
100
AcDbEntity
  8
0
  6
ByBlock
 62
     0
100
AcDbLine
 10
4110.873342866208
 20
1911.819914238813
 30
0.0
 11
4817.873342866208
 21
1911.819914238813
 31
0.0
  0
INSERT
  5
80AA
330
8255
100
AcDbEntity
  8
0
  6
ByBlock
 62
     0
100
AcDbBlockReference
  2
_OPEN
 10
4050.873342866209
 20
1911.819914238813
 30
0.0
 41
60.0
 42
60.0
 43
60.0
 50
180.0
  0
INSERT
  5
80AB
330
8255
100
AcDbEntity
  8
0
  6
ByBlock
 62
     0
100
AcDbBlockReference
  2
_OPEN
 10
4877.873342866208
 20
1911.819914238813
 30
0.0
 41
60.0
 42
60.0
 43
60.0
  0
TEXT
  5
80AC
330
8255
100
AcDbEntity
  8
3
 62
     0
100
AcDbText
 10
4348.659057151922
 20
1941.819914238813
 30
0.0
 40
90.0
  1
827
100
AcDbText
  0
POINT
  5
80AD
330
8255
100
AcDbEntity
  8
DEFPOINTS
  6
ByBlock
 62
     0
100
AcDbPoint
 10
4050.873342866209
 20
2112.580412632439
 30
0.0
  0
POINT
  5
80AE
330
8255
100
AcDbEntity
  8
DEFPOINTS
  6
ByBlock
 62
     0
100
AcDbPoint
 10
4877.873342866208
 20
2112.580412632439
 30
0.0
  0
POINT
  5
80AF
330
8255
100
AcDbEntity
  8
DEFPOINTS
  6
ByBlock
 62
     0
100
AcDbPoint
 10
4877.873342866208
 20
1911.819914238813
 30
0.0
  0
ENDBLK
  5
80B0
330
8255
100
AcDbEntity
  8
0
100
AcDbBlockEnd
  0
BLOCK
  5
8258
330
8257
100
AcDbEntity
  8
0
100
AcDbBlockBegin
  2
*D26
 70
     1
 10
0.0
 20
0.0
 30
0.0
  3
*D26
  1

  0
LINE
  5
80B4
330
8257
100
AcDbEntity
  8
0
  6
ByBlock
 62
     0
100
AcDbLine
 10
4877.873342866208
 20
2082.580412632439
 30
0.0
 11
4877.873342866208
 21
1881.819914238813
 31
0.0
  0
LINE
  5
80B5
330
8257
100
AcDbEntity
  8
0
  6
ByBlock
 62
     0
100
AcDbLine
 10
5555.87334286621
 20
2082.580412632439
 30
0.0
 11
5555.87334286621
 21
1881.819914238813
 31
0.0
  0
LINE
  5
80B6
330
8257
100
AcDbEntity
  8
0
  6
ByBlock
 62
     0
100
AcDbLine
 10
4937.873342866208
 20
1911.819914238813
 30
0.0
 11
5495.873342866209
 21
1911.819914238813
 31
0.0
  0
INSERT
  5
80B7
330
8257
100
AcDbEntity
  8
0
  6
ByBlock
 62
     0
100
AcDbBlockReference
  2
_OPEN
 10
4877.873342866208
 20
1911.819914238813
 30
0.0
 41
60.0
 42
60.0
 43
60.0
 50
180.0
  0
INSERT
  5
80B8
330
8257
100
AcDbEntity
  8
0
  6
ByBlock
 62
     0
100
AcDbBlockReference
  2
_OPEN
 10
5555.87334286621
 20
1911.819914238813
 30
0.0
 41
60.0
 42
60.0
 43
60.0
  0
TEXT
  5
80B9
330
8257
100
AcDbEntity
  8
3
 62
     0
100
AcDbText
 10
5101.159057151924
 20
1941.819914238813
 30
0.0
 40
90.0
  1
678
100
AcDbText
  0
POINT
  5
80BA
330
8257
100
AcDbEntity
  8
DEFPOINTS
  6
ByBlock
 62
     0
100
AcDbPoint
 10
4877.873342866208
 20
2112.580412632439
 30
0.0
  0
POINT
  5
80BB
330
8257
100
AcDbEntity
  8
DEFPOINTS
  6
ByBlock
 62
     0
100
AcDbPoint
 10
5555.87334286621
 20
2112.580412632439
 30
0.0
  0
POINT
  5
80BC
330
8257
100
AcDbEntity
  8
DEFPOINTS
  6
ByBlock
 62
     0
100
AcDbPoint
 10
5555.87334286621
 20
1911.819914238813
 30
0.0
  0
ENDBLK
  5
80BD
330
8257
100
AcDbEntity
  8
0
100
AcDbBlockEnd
  0
BLOCK
  5
825A
330
8259
100
AcDbEntity
  8
0
100
AcDbBlockBegin
  2
_NONE
 70
     0
 10
0.0
 20
0.0
 30
0.0
  3
_NONE
  1

  0
CIRCLE
  5
80C1
330
8259
100
AcDbEntity
  8
0
  6
ByBlock
 62
     0
100
AcDbCircle
 10
0.0
 20
0.0
 30
0.0
 40
0.25
  0
ENDBLK
  5
80C2
330
8259
100
AcDbEntity
  8
0
100
AcDbBlockEnd
  0
BLOCK
  5
825C
330
825B
100
AcDbEntity
  8
0
100
AcDbBlockBegin
  2
*D28
 70
     1
 10
0.0
 20
0.0
 30
0.0
  3
*D28
  1

  0
LINE
  5
8114
330
825B
100
AcDbEntity
  8
0
  6
ByBlock
 62
     0
100
AcDbLine
 10
922.7672330469395
 20
2124.58041263244
 30
0.0
 11
922.7672330469395
 21
2239.58041263244
 31
0.0
  0
TEXT
  5
8115
330
825B
100
AcDbEntity
  8
3
 62
     0
100
AcDbText
 10
809.1958044755108
 20
2025.651841203868
 30
0.0
 40
90.0
  1
(115)
 50
90.0
100
AcDbText
  0
POINT
  5
8116
330
825B
100
AcDbEntity
  8
DEFPOINTS
  6
ByBlock
 62
     0
100
AcDbPoint
 10
1621.217145476919
 20
2124.58041263244
 30
0.0
  0
POINT
  5
8117
330
825B
100
AcDbEntity
  8
DEFPOINTS
  6
ByBlock
 62
     0
100
AcDbPoint
 10
1621.217145476919
 20
2239.58041263244
 30
0.0
  0
POINT
  5
8118
330
825B
100
AcDbEntity
  8
DEFPOINTS
  6
ByBlock
 62
     0
100
AcDbPoint
 10
922.7672330469395
 20
2239.58041263244
 30
0.0
  0
ENDBLK
  5
8119
330
825B
100
AcDbEntity
  8
0
100
AcDbBlockEnd
  0
BLOCK
  5
825E
330
825D
100
AcDbEntity
  8
0
100
AcDbBlockBegin
  2
*D29
 70
     1
 10
0.0
 20
0.0
 30
0.0
  3
*D29
  1

  0
LINE
  5
811D
330
825D
100
AcDbEntity
  8
0
  6
ByBlock
 62
     0
100
AcDbLine
 10
1591.217145476919
 20
2024.58041263244
 30
0.0
 11
636.3787629006256
 21
2024.58041263244
 31
0.0
  0
LINE
  5
811E
330
825D
100
AcDbEntity
  8
0
  6
ByBlock
 62
     0
100
AcDbLine
 10
2260.217145476919
 20
4169.580412632439
 30
0.0
 11
636.3787629006256
 21
4169.580412632439
 31
0.0
  0
LINE
  5
811F
330
825D
100
AcDbEntity
  8
0
  6
ByBlock
 62
     0
100
AcDbLine
 10
666.3787629006256
 20
2084.58041263244
 30
0.0
 11
666.3787629006256
 21
4109.580412632439
 31
0.0
  0
INSERT
  5
8120
330
825D
100
AcDbEntity
  8
0
  6
ByBlock
 62
     0
100
AcDbBlockReference
  2
_OPEN
 10
666.3787629006256
 20
2024.58041263244
 30
0.0
 41
60.0
 42
60.0
 43
60.0
 50
270.0
  0
INSERT
  5
8121
330
825D
100
AcDbEntity
  8
0
  6
ByBlock
 62
     0
100
AcDbBlockReference
  2
_OPEN
 10
666.3787629006256
 20
4169.580412632439
 30
0.0
 41
60.0
 42
60.0
 43
60.0
 50
90.0
  0
TEXT
  5
8122
330
825D
100
AcDbEntity
  8
3
 62
     0
100
AcDbText
 10
597.807334329197
 20
2889.223269775296
 30
0.0
 40
90.0
  1
(2145)
 50
90.0
100
AcDbText
  0
POINT
  5
8123
330
825D
100
AcDbEntity
  8
DEFPOINTS
  6
ByBlock
 62
     0
100
AcDbPoint
 10
1621.217145476919
 20
2024.58041263244
 30
0.0
  0
POINT
  5
8124
330
825D
100
AcDbEntity
  8
DEFPOINTS
  6
ByBlock
 62
     0
100
AcDbPoint
 10
2290.217145476919
 20
4169.580412632439
 30
0.0
  0
POINT
  5
8125
330
825D
100
AcDbEntity
  8
DEFPOINTS
  6
ByBlock
 62
     0
100
AcDbPoint
 10
666.3787629006256
 20
4169.580412632439
 30
0.0
  0
ENDBLK
  5
8126
330
825D
100
AcDbEntity
  8
0
100
AcDbBlockEnd
  0
BLOCK
  5
8262
330
8261
100
AcDbEntity
  8
0
100
AcDbBlockBegin
  2
*D30
 70
     1
 10
0.0
 20
0.0
 30
0.0
  3
*D30
  1

  0
LINE
  5
8264
330
8261
100
AcDbEntity
  8
3
 62
     0
370
    -2
100
AcDbLine
 10
3817.873342866204
 20
3731.455412632439
 30
0.0
 11
3817.873342866204
 21
4628.503047100912
 31
0.0
  0
LINE
  5
8265
330
8261
100
AcDbEntity
  8
3
 62
     0
370
    -2
100
AcDbLine
 10
4877.873342866208
 20
4540.682332114381
 30
0.0
 11
4877.873342866208
 21
4628.503047100912
 31
0.0
  0
LINE
  5
8266
330
8261
100
AcDbEntity
  8
3
 62
     0
370
    -2
100
AcDbLine
 10
3823.273342866205
 20
4623.103047100913
 30
0.0
 11
4336.173342866206
 21
4623.103047100913
 31
0.0
  0
LINE
  5
8267
330
8261
100
AcDbEntity
  8
3
 62
     0
370
    -2
100
AcDbLine
 10
4872.473342866208
 20
4623.103047100913
 30
0.0
 11
4359.573342866206
 21
4623.103047100913
 31
0.0
  0
SOLID
  5
8268
330
8261
100
AcDbEntity
  8
3
 62
     0
100
AcDbTrace
 10
3823.273342866205
 20
4624.003047100913
 30
0.0
 11
3823.273342866205
 21
4622.203047100914
 31
0.0
 12
3817.873342866204
 22
4623.103047100913
 32
0.0
 13
3817.873342866204
 23
4623.103047100913
 33
0.0
  0
SOLID
  5
8269
330
8261
100
AcDbEntity
  8
3
 62
     0
100
AcDbTrace
 10
4872.473342866208
 20
4624.003047100913
 30
0.0
 11
4872.473342866208
 21
4622.203047100914
 31
0.0
 12
4877.873342866208
 22
4623.103047100913
 32
0.0
 13
4877.873342866208
 23
4623.103047100913
 33
0.0
  0
MTEXT
  5
826A
330
8261
100
AcDbEntity
  8
3
 62
     0
100
AcDbMText
 10
4347.873342866206
 20
4623.103047100913
 30
0.0
 40
5.399999999999999
 41
0.0
 71
     5
 72
     1
  1
\A1;MAX\P1020
 73
     1
 44
1.0
1001
ACAD
1000
MTEXTBEGIN
1070
    73
1070
     1
1070
    44
1040
1.0
1070
    74
1070
     0
1000
MTEXTEND
  0
POINT
  5
826B
330
8261
100
AcDbEntity
  8
DEFPOINTS
 62
     0
100
AcDbPoint
 10
3817.873342866204
 20
3729.580412632439
 30
0.0
  0
POINT
  5
826C
330
8261
100
AcDbEntity
  8
DEFPOINTS
 62
     0
100
AcDbPoint
 10
4877.873342866208
 20
4538.807332114382
 30
0.0
  0
POINT
  5
826D
330
8261
100
AcDbEntity
  8
DEFPOINTS
 62
     0
100
AcDbPoint
 10
4877.873342866208
 20
4623.103047100913
 30
0.0
  0
ENDBLK
  5
8263
330
8261
100
AcDbEntity
  8
0
100
AcDbBlockEnd
  0
BLOCK
  5
826F
330
826E
100
AcDbEntity
  8
0
100
AcDbBlockBegin
  2
*D31
 70
     1
 10
0.0
 20
0.0
 30
0.0
  3
*D31
  1

  0
LINE
  5
8271
330
826E
100
AcDbEntity
  8
3
 62
     0
370
    -2
100
AcDbLine
 10
4877.873342866208
 20
4540.682332114381
 30
0.0
 11
4877.873342866208
 21
4628.503047100912
 31
0.0
  0
LINE
  5
8272
330
826E
100
AcDbEntity
  8
3
 62
     0
370
    -2
100
AcDbLine
 10
5657.873342866212
 20
3415.655412632439
 30
0.0
 11
5657.873342866212
 21
4628.503047100914
 31
0.0
  0
LINE
  5
8273
330
826E
100
AcDbEntity
  8
3
 62
     0
370
    -2
100
AcDbLine
 10
4883.273342866208
 20
4623.103047100913
 30
0.0
 11
5254.759057151924
 21
4623.103047100913
 31
0.0
  0
LINE
  5
8274
330
826E
100
AcDbEntity
  8
3
 62
     0
370
    -2
100
AcDbLine
 10
5652.473342866212
 20
4623.103047100913
 30
0.0
 11
5280.987628580496
 21
4623.103047100913
 31
0.0
  0
SOLID
  5
8275
330
826E
100
AcDbEntity
  8
3
 62
     0
100
AcDbTrace
 10
4883.273342866208
 20
4624.003047100913
 30
0.0
 11
4883.273342866208
 21
4622.203047100914
 31
0.0
 12
4877.873342866208
 22
4623.103047100913
 32
0.0
 13
4877.873342866208
 23
4623.103047100913
 33
0.0
  0
SOLID
  5
8276
330
826E
100
AcDbEntity
  8
3
 62
     0
100
AcDbTrace
 10
5652.473342866212
 20
4624.003047100913
 30
0.0
 11
5652.473342866212
 21
4622.203047100914
 31
0.0
 12
5657.873342866212
 22
4623.103047100913
 32
0.0
 13
5657.873342866212
 23
4623.103047100913
 33
0.0
  0
MTEXT
  5
8277
330
826E
100
AcDbEntity
  8
3
 62
     0
100
AcDbMText
 10
5267.873342866209
 20
4623.103047100913
 30
0.0
 40
5.399999999999999
 41
0.0
 71
     5
 72
     1
  1
\A1;(780)
 73
     1
 44
1.0
1001
ACAD
1000
MTEXTBEGIN
1070
    73
1070
     1
1070
    44
1040
1.0
1070
    74
1070
     0
1000
MTEXTEND
  0
POINT
  5
8278
330
826E
100
AcDbEntity
  8
DEFPOINTS
 62
     0
100
AcDbPoint
 10
4877.873342866208
 20
4538.807332114382
 30
0.0
  0
POINT
  5
8279
330
826E
100
AcDbEntity
  8
DEFPOINTS
 62
     0
100
AcDbPoint
 10
5657.873342866212
 20
3413.780412632439
 30
0.0
  0
POINT
  5
827A
330
826E
100
AcDbEntity
  8
DEFPOINTS
 62
     0
100
AcDbPoint
 10
5657.873342866212
 20
4623.103047100913
 30
0.0
  0
ENDBLK
  5
8270
330
826E
100
AcDbEntity
  8
0
100
AcDbBlockEnd
  0
BLOCK
  5
827C
330
827B
100
AcDbEntity
  8
0
100
AcDbBlockBegin
  2
*D32
 70
     1
 10
0.0
 20
0.0
 30
0.0
  3
*D32
  1

  0
LINE
  5
827E
330
827B
100
AcDbEntity
  8
3
 62
     0
370
    -2
100
AcDbLine
 10
3671.217145476919
 20
5152.394064037404
 30
0.0
 11
3671.217145476919
 21
4740.318940210827
 31
0.0
  0
LINE
  5
827F
330
827B
100
AcDbEntity
  8
3
 62
     0
370
    -2
100
AcDbLine
 10
1621.217145476919
 20
5152.394064037402
 30
0.0
 11
1621.217145476919
 21
4740.318940210827
 31
0.0
  0
LINE
  5
8280
330
827B
100
AcDbEntity
  8
3
 62
     0
370
    -2
100
AcDbLine
 10
3665.817145476919
 20
4745.718940210827
 30
0.0
 11
2670.002859762633
 21
4745.718940210827
 31
0.0
  0
LINE
  5
8281
330
827B
100
AcDbEntity
  8
3
 62
     0
370
    -2
100
AcDbLine
 10
1626.617145476919
 20
4745.718940210827
 30
0.0
 11
2622.431431191205
 21
4745.718940210827
 31
0.0
  0
SOLID
  5
8282
330
827B
100
AcDbEntity
  8
3
 62
     0
100
AcDbTrace
 10
3665.817145476919
 20
4746.618940210827
 30
0.0
 11
3665.817145476919
 21
4744.818940210827
 31
0.0
 12
3671.217145476919
 22
4745.718940210827
 32
0.0
 13
3671.217145476919
 23
4745.718940210827
 33
0.0
  0
SOLID
  5
8283
330
827B
100
AcDbEntity
  8
3
 62
     0
100
AcDbTrace
 10
1626.617145476919
 20
4746.618940210827
 30
0.0
 11
1626.617145476919
 21
4744.818940210827
 31
0.0
 12
1621.217145476919
 22
4745.718940210827
 32
0.0
 13
1621.217145476919
 23
4745.718940210827
 33
0.0
  0
MTEXT
  5
8284
330
827B
100
AcDbEntity
  8
3
 62
     0
100
AcDbMText
 10
2646.217145476919
 20
4745.718940210827
 30
0.0
 40
5.399999999999999
 41
0.0
 71
     5
 72
     1
  1
\A1;2050.0000
 73
     1
 44
1.0
1001
ACAD
1000
MTEXTBEGIN
1070
    73
1070
     1
1070
    44
1040
1.0
1070
    74
1070
     0
1000
MTEXTEND
  0
POINT
  5
8285
330
827B
100
AcDbEntity
  8
DEFPOINTS
 62
     0
100
AcDbPoint
 10
3671.217145476919
 20
5154.269064037404
 30
0.0
  0
POINT
  5
8286
330
827B
100
AcDbEntity
  8
DEFPOINTS
 62
     0
100
AcDbPoint
 10
1621.217145476919
 20
5154.269064037402
 30
0.0
  0
POINT
  5
8287
330
827B
100
AcDbEntity
  8
DEFPOINTS
 62
     0
100
AcDbPoint
 10
1621.217145476919
 20
4745.718940210827
 30
0.0
  0
ENDBLK
  5
827D
330
827B
100
AcDbEntity
  8
0
100
AcDbBlockEnd
  0
BLOCK
  5
8289
330
8288
100
AcDbEntity
  8
0
100
AcDbBlockBegin
  2
*D33
 70
     1
 10
0.0
 20
0.0
 30
0.0
  3
*D33
  1

  0
LINE
  5
828B
330
8288
100
AcDbEntity
  8
3
 62
     0
370
    -2
100
AcDbLine
 10
1621.217145476919
 20
2004.58041263244
 30
0.0
 11
1621.217145476919
 21
1828.419914238813
 31
0.0
  0
LINE
  5
828C
330
8288
100
AcDbEntity
  8
3
 62
     0
370
    -2
100
AcDbLine
 10
2246.21714547692
 20
2004.58041263244
 30
0.0
 11
2246.21714547692
 21
1828.419914238813
 31
0.0
  0
LINE
  5
828D
330
8288
100
AcDbEntity
  8
3
 62
     0
370
    -2
100
AcDbLine
 10
1626.617145476919
 20
1833.819914238813
 30
0.0
 11
1924.074288334062
 21
1833.819914238813
 31
0.0
  0
LINE
  5
828E
330
8288
100
AcDbEntity
  8
3
 62
     0
370
    -2
100
AcDbLine
 10
2240.81714547692
 20
1833.819914238813
 30
0.0
 11
1943.360002619776
 21
1833.819914238813
 31
0.0
  0
SOLID
  5
828F
330
8288
100
AcDbEntity
  8
3
 62
     0
100
AcDbTrace
 10
1626.617145476919
 20
1834.719914238813
 30
0.0
 11
1626.617145476919
 21
1832.919914238813
 31
0.0
 12
1621.217145476919
 22
1833.819914238813
 32
0.0
 13
1621.217145476919
 23
1833.819914238813
 33
0.0
  0
SOLID
  5
8290
330
8288
100
AcDbEntity
  8
3
 62
     0
100
AcDbTrace
 10
2240.81714547692
 20
1834.719914238813
 30
0.0
 11
2240.81714547692
 21
1832.919914238813
 31
0.0
 12
2246.21714547692
 22
1833.819914238813
 32
0.0
 13
2246.21714547692
 23
1833.819914238813
 33
0.0
  0
MTEXT
  5
8291
330
8288
100
AcDbEntity
  8
3
 62
     0
100
AcDbMText
 10
1933.717145476919
 20
1833.819914238813
 30
0.0
 40
5.399999999999999
 41
0.0
 71
     5
 72
     1
  1
\A1;625
 73
     1
 44
1.0
1001
ACAD
1000
MTEXTBEGIN
1070
    73
1070
     1
1070
    44
1040
1.0
1070
    74
1070
     0
1000
MTEXTEND
  0
POINT
  5
8292
330
8288
100
AcDbEntity
  8
DEFPOINTS
 62
     0
100
AcDbPoint
 10
1621.217145476919
 20
2034.58041263244
 30
0.0
  0
POINT
  5
8293
330
8288
100
AcDbEntity
  8
DEFPOINTS
 62
     0
100
AcDbPoint
 10
2246.21714547692
 20
2034.58041263244
 30
0.0
  0
POINT
  5
8294
330
8288
100
AcDbEntity
  8
DEFPOINTS
 62
     0
100
AcDbPoint
 10
2246.21714547692
 20
1833.819914238813
 30
0.0
  0
ENDBLK
  5
828A
330
8288
100
AcDbEntity
  8
0
100
AcDbBlockEnd
  0
BLOCK
  5
8296
330
8295
100
AcDbEntity
  8
0
100
AcDbBlockBegin
  2
*D34
 70
     1
 10
0.0
 20
0.0
 30
0.0
  3
*D34
  1

  0
LINE
  5
8298
330
8295
100
AcDbEntity
  8
3
 62
     0
370
    -2
100
AcDbLine
 10
2246.21714547692
 20
2004.58041263244
 30
0.0
 11
2246.21714547692
 21
1828.419914238813
 31
0.0
  0
LINE
  5
8299
330
8295
100
AcDbEntity
  8
3
 62
     0
370
    -2
100
AcDbLine
 10
3671.217145476919
 20
2004.58041263244
 30
0.0
 11
3671.217145476919
 21
1828.419914238813
 31
0.0
  0
LINE
  5
829A
330
8295
100
AcDbEntity
  8
3
 62
     0
370
    -2
100
AcDbLine
 10
2251.61714547692
 20
1833.819914238813
 30
0.0
 11
2947.01714547692
 21
1833.819914238813
 31
0.0
  0
LINE
  5
829B
330
8295
100
AcDbEntity
  8
3
 62
     0
370
    -2
100
AcDbLine
 10
3665.817145476919
 20
1833.819914238813
 30
0.0
 11
2970.41714547692
 21
1833.819914238813
 31
0.0
  0
SOLID
  5
829C
330
8295
100
AcDbEntity
  8
3
 62
     0
100
AcDbTrace
 10
2251.61714547692
 20
1834.719914238813
 30
0.0
 11
2251.61714547692
 21
1832.919914238813
 31
0.0
 12
2246.21714547692
 22
1833.819914238813
 32
0.0
 13
2246.21714547692
 23
1833.819914238813
 33
0.0
  0
SOLID
  5
829D
330
8295
100
AcDbEntity
  8
3
 62
     0
100
AcDbTrace
 10
3665.817145476919
 20
1834.719914238813
 30
0.0
 11
3665.817145476919
 21
1832.919914238813
 31
0.0
 12
3671.217145476919
 22
1833.819914238813
 32
0.0
 13
3671.217145476919
 23
1833.819914238813
 33
0.0
  0
MTEXT
  5
829E
330
8295
100
AcDbEntity
  8
3
 62
     0
100
AcDbMText
 10
2958.717145476919
 20
1833.819914238813
 30
0.0
 40
5.399999999999999
 41
0.0
 71
     5
 72
     1
  1
\A1;1425
 73
     1
 44
1.0
1001
ACAD
1000
MTEXTBEGIN
1070
    73
1070
     1
1070
    44
1040
1.0
1070
    74
1070
     0
1000
MTEXTEND
  0
POINT
  5
829F
330
8295
100
AcDbEntity
  8
DEFPOINTS
 62
     0
100
AcDbPoint
 10
2246.21714547692
 20
2034.58041263244
 30
0.0
  0
POINT
  5
82A0
330
8295
100
AcDbEntity
  8
DEFPOINTS
 62
     0
100
AcDbPoint
 10
3671.217145476919
 20
2034.58041263244
 30
0.0
  0
POINT
  5
82A1
330
8295
100
AcDbEntity
  8
DEFPOINTS
 62
     0
100
AcDbPoint
 10
3671.217145476919
 20
1833.819914238813
 30
0.0
  0
ENDBLK
  5
8297
330
8295
100
AcDbEntity
  8
0
100
AcDbBlockEnd
  0
BLOCK
  5
82A3
330
82A2
100
AcDbEntity
  8
0
100
AcDbBlockBegin
  2
*D35
 70
     1
 10
0.0
 20
0.0
 30
0.0
  3
*D35
  1

  0
LINE
  5
82A5
330
82A2
100
AcDbEntity
  8
3
 62
     0
370
    -2
100
AcDbLine
 10
4050.873342866209
 20
2004.580412632439
 30
0.0
 11
4050.873342866209
 21
1828.419914238813
 31
0.0
  0
LINE
  5
82A6
330
82A2
100
AcDbEntity
  8
3
 62
     0
370
    -2
100
AcDbLine
 10
4877.873342866208
 20
2004.580412632439
 30
0.0
 11
4877.873342866208
 21
1828.419914238813
 31
0.0
  0
LINE
  5
82A7
330
82A2
100
AcDbEntity
  8
3
 62
     0
370
    -2
100
AcDbLine
 10
4056.273342866209
 20
1833.819914238813
 30
0.0
 11
4454.730485723351
 21
1833.819914238813
 31
0.0
  0
LINE
  5
82A8
330
82A2
100
AcDbEntity
  8
3
 62
     0
370
    -2
100
AcDbLine
 10
4872.473342866208
 20
1833.819914238813
 30
0.0
 11
4474.016200009065
 21
1833.819914238813
 31
0.0
  0
SOLID
  5
82A9
330
82A2
100
AcDbEntity
  8
3
 62
     0
100
AcDbTrace
 10
4056.273342866209
 20
1834.719914238813
 30
0.0
 11
4056.273342866209
 21
1832.919914238813
 31
0.0
 12
4050.873342866209
 22
1833.819914238813
 32
0.0
 13
4050.873342866209
 23
1833.819914238813
 33
0.0
  0
SOLID
  5
82AA
330
82A2
100
AcDbEntity
  8
3
 62
     0
100
AcDbTrace
 10
4872.473342866208
 20
1834.719914238813
 30
0.0
 11
4872.473342866208
 21
1832.919914238813
 31
0.0
 12
4877.873342866208
 22
1833.819914238813
 32
0.0
 13
4877.873342866208
 23
1833.819914238813
 33
0.0
  0
MTEXT
  5
82AB
330
82A2
100
AcDbEntity
  8
3
 62
     0
100
AcDbMText
 10
4464.373342866209
 20
1833.819914238813
 30
0.0
 40
5.399999999999999
 41
0.0
 71
     5
 72
     1
  1
\A1;827
 73
     1
 44
1.0
1001
ACAD
1000
MTEXTBEGIN
1070
    73
1070
     1
1070
    44
1040
1.0
1070
    74
1070
     0
1000
MTEXTEND
  0
POINT
  5
82AC
330
82A2
100
AcDbEntity
  8
DEFPOINTS
 62
     0
100
AcDbPoint
 10
4050.873342866209
 20
2034.580412632439
 30
0.0
  0
POINT
  5
82AD
330
82A2
100
AcDbEntity
  8
DEFPOINTS
 62
     0
100
AcDbPoint
 10
4877.873342866208
 20
2034.580412632439
 30
0.0
  0
POINT
  5
82AE
330
82A2
100
AcDbEntity
  8
DEFPOINTS
 62
     0
100
AcDbPoint
 10
4877.873342866208
 20
1833.819914238813
 30
0.0
  0
ENDBLK
  5
82A4
330
82A2
100
AcDbEntity
  8
0
100
AcDbBlockEnd
  0
BLOCK
  5
82B0
330
82AF
100
AcDbEntity
  8
0
100
AcDbBlockBegin
  2
*D36
 70
     1
 10
0.0
 20
0.0
 30
0.0
  3
*D36
  1

  0
LINE
  5
82B2
330
82AF
100
AcDbEntity
  8
3
 62
     0
370
    -2
100
AcDbLine
 10
4877.873342866208
 20
2004.580412632439
 30
0.0
 11
4877.873342866208
 21
1828.419914238813
 31
0.0
  0
LINE
  5
82B3
330
82AF
100
AcDbEntity
  8
3
 62
     0
370
    -2
100
AcDbLine
 10
5555.87334286621
 20
2004.580412632439
 30
0.0
 11
5555.87334286621
 21
1828.419914238813
 31
0.0
  0
LINE
  5
82B4
330
82AF
100
AcDbEntity
  8
3
 62
     0
370
    -2
100
AcDbLine
 10
4883.273342866208
 20
1833.819914238813
 30
0.0
 11
5207.230485723352
 21
1833.819914238813
 31
0.0
  0
LINE
  5
82B5
330
82AF
100
AcDbEntity
  8
3
 62
     0
370
    -2
100
AcDbLine
 10
5550.473342866211
 20
1833.819914238813
 30
0.0
 11
5226.516200009066
 21
1833.819914238813
 31
0.0
  0
SOLID
  5
82B6
330
82AF
100
AcDbEntity
  8
3
 62
     0
100
AcDbTrace
 10
4883.273342866208
 20
1834.719914238813
 30
0.0
 11
4883.273342866208
 21
1832.919914238813
 31
0.0
 12
4877.873342866208
 22
1833.819914238813
 32
0.0
 13
4877.873342866208
 23
1833.819914238813
 33
0.0
  0
SOLID
  5
82B7
330
82AF
100
AcDbEntity
  8
3
 62
     0
100
AcDbTrace
 10
5550.473342866211
 20
1834.719914238813
 30
0.0
 11
5550.473342866211
 21
1832.919914238813
 31
0.0
 12
5555.87334286621
 22
1833.819914238813
 32
0.0
 13
5555.87334286621
 23
1833.819914238813
 33
0.0
  0
MTEXT
  5
82B8
330
82AF
100
AcDbEntity
  8
3
 62
     0
100
AcDbMText
 10
5216.873342866209
 20
1833.819914238813
 30
0.0
 40
5.399999999999999
 41
0.0
 71
     5
 72
     1
  1
\A1;678
 73
     1
 44
1.0
1001
ACAD
1000
MTEXTBEGIN
1070
    73
1070
     1
1070
    44
1040
1.0
1070
    74
1070
     0
1000
MTEXTEND
  0
POINT
  5
82B9
330
82AF
100
AcDbEntity
  8
DEFPOINTS
 62
     0
100
AcDbPoint
 10
4877.873342866208
 20
2034.580412632439
 30
0.0
  0
POINT
  5
82BA
330
82AF
100
AcDbEntity
  8
DEFPOINTS
 62
     0
100
AcDbPoint
 10
5555.87334286621
 20
2034.580412632439
 30
0.0
  0
POINT
  5
82BB
330
82AF
100
AcDbEntity
  8
DEFPOINTS
 62
     0
100
AcDbPoint
 10
5555.87334286621
 20
1833.819914238813
 30
0.0
  0
ENDBLK
  5
82B1
330
82AF
100
AcDbEntity
  8
0
100
AcDbBlockEnd
  0
BLOCK
  5
82BD
330
82BC
100
AcDbEntity
  8
0
100
AcDbBlockBegin
  2
*D37
 70
     1
 10
0.0
 20
0.0
 30
0.0
  3
*D37
  1

  0
LINE
  5
82BF
330
82BC
100
AcDbEntity
  8
3
 62
     0
370
    -2
100
AcDbLine
 10
922.7672330469395
 20
2139.98041263244
 30
0.0
 11
922.7672330469395
 21
2180.266126918155
 31
0.0
  0
LINE
  5
82C0
330
82BC
100
AcDbEntity
  8
3
 62
     0
370
    -2
100
AcDbLine
 10
922.7672330469395
 20
2234.18041263244
 30
0.0
 11
922.7672330469395
 21
2193.894698346726
 31
0.0
  0
SOLID
  5
82C1
330
82BC
100
AcDbEntity
  8
3
 62
     0
100
AcDbTrace
 10
921.8672330469395
 20
2139.98041263244
 30
0.0
 11
923.6672330469394
 21
2139.98041263244
 31
0.0
 12
922.7672330469395
 22
2134.58041263244
 32
0.0
 13
922.7672330469395
 23
2134.58041263244
 33
0.0
  0
SOLID
  5
82C2
330
82BC
100
AcDbEntity
  8
3
 62
     0
100
AcDbTrace
 10
921.8672330469395
 20
2234.18041263244
 30
0.0
 11
923.6672330469394
 21
2234.18041263244
 31
0.0
 12
922.7672330469395
 22
2239.58041263244
 32
0.0
 13
922.7672330469395
 23
2239.58041263244
 33
0.0
  0
MTEXT
  5
82C3
330
82BC
100
AcDbEntity
  8
3
 62
     0
100
AcDbMText
 10
922.7672330469392
 20
2187.08041263244
 30
0.0
 40
5.399999999999999
 41
0.0
 71
     5
 72
     1
  1
\A1;(105)
 73
     1
 44
1.0
1001
ACAD
1000
MTEXTBEGIN
1070
    73
1070
     1
1070
    44
1040
1.0
1070
    74
1070
     0
1000
MTEXTEND
  0
POINT
  5
82C4
330
82BC
100
AcDbEntity
  8
DEFPOINTS
 62
     0
100
AcDbPoint
 10
1621.217145476919
 20
2134.580412632439
 30
0.0
  0
POINT
  5
82C5
330
82BC
100
AcDbEntity
  8
DEFPOINTS
 62
     0
100
AcDbPoint
 10
1621.217145476919
 20
2239.58041263244
 30
0.0
  0
POINT
  5
82C6
330
82BC
100
AcDbEntity
  8
DEFPOINTS
 62
     0
100
AcDbPoint
 10
922.7672330469395
 20
2239.58041263244
 30
0.0
  0
ENDBLK
  5
82BE
330
82BC
100
AcDbEntity
  8
0
100
AcDbBlockEnd
  0
BLOCK
  5
82C8
330
82C7
100
AcDbEntity
  8
0
100
AcDbBlockBegin
  2
*D38
 70
     1
 10
0.0
 20
0.0
 30
0.0
  3
*D38
  1

  0
LINE
  5
82CA
330
82C7
100
AcDbEntity
  8
3
 62
     0
370
    -2
100
AcDbLine
 10
1591.217145476919
 20
2034.58041263244
 30
0.0
 11
660.9787629006251
 21
2034.58041263244
 31
0.0
  0
LINE
  5
82CB
330
82C7
100
AcDbEntity
  8
3
 62
     0
370
    -2
100
AcDbLine
 10
2260.217145476919
 20
4169.580412632439
 30
0.0
 11
660.9787629006254
 21
4169.58041263244
 31
0.0
  0
LINE
  5
82CC
330
82C7
100
AcDbEntity
  8
3
 62
     0
370
    -2
100
AcDbLine
 10
666.3787629006251
 20
2039.98041263244
 30
0.0
 11
666.3787629006253
 21
3095.266126918155
 31
0.0
  0
LINE
  5
82CD
330
82C7
100
AcDbEntity
  8
3
 62
     0
370
    -2
100
AcDbLine
 10
666.3787629006256
 20
4164.180412632441
 30
0.0
 11
666.3787629006253
 21
3108.894698346726
 31
0.0
  0
SOLID
  5
82CE
330
82C7
100
AcDbEntity
  8
3
 62
     0
100
AcDbTrace
 10
665.4787629006251
 20
2039.98041263244
 30
0.0
 11
667.2787629006251
 21
2039.98041263244
 31
0.0
 12
666.3787629006251
 22
2034.58041263244
 32
0.0
 13
666.3787629006251
 23
2034.58041263244
 33
0.0
  0
SOLID
  5
82CF
330
82C7
100
AcDbEntity
  8
3
 62
     0
100
AcDbTrace
 10
665.4787629006256
 20
4164.180412632441
 30
0.0
 11
667.2787629006255
 21
4164.180412632441
 31
0.0
 12
666.3787629006256
 22
4169.58041263244
 32
0.0
 13
666.3787629006256
 23
4169.58041263244
 33
0.0
  0
MTEXT
  5
82D0
330
82C7
100
AcDbEntity
  8
3
 62
     0
100
AcDbMText
 10
666.3787629006248
 20
3102.080412632441
 30
0.0
 40
5.399999999999999
 41
0.0
 71
     5
 72
     1
  1
\A1;(2135)
 73
     1
 44
1.0
1001
ACAD
1000
MTEXTBEGIN
1070
    73
1070
     1
1070
    44
1040
1.0
1070
    74
1070
     0
1000
MTEXTEND
  0
POINT
  5
82D1
330
82C7
100
AcDbEntity
  8
DEFPOINTS
 62
     0
100
AcDbPoint
 10
1621.217145476919
 20
2034.58041263244
 30
0.0
  0
POINT
  5
82D2
330
82C7
100
AcDbEntity
  8
DEFPOINTS
 62
     0
100
AcDbPoint
 10
2290.217145476919
 20
4169.580412632439
 30
0.0
  0
POINT
  5
82D3
330
82C7
100
AcDbEntity
  8
DEFPOINTS
 62
     0
100
AcDbPoint
 10
666.3787629006256
 20
4169.58041263244
 30
0.0
  0
ENDBLK
  5
82C9
330
82C7
100
AcDbEntity
  8
0
100
AcDbBlockEnd
  0
BLOCK
  5
82D5
330
82D4
100
AcDbEntity
  8
0
100
AcDbBlockBegin
  2
*D39
 70
     1
 10
0.0
 20
0.0
 30
0.0
  3
*D39
  1

  0
LINE
  5
82D7
330
82D4
100
AcDbEntity
  8
3
 62
     0
370
    -2
100
AcDbLine
 10
1619.342145476919
 20
2134.580412632439
 30
0.0
 11
919.6456777180804
 21
2134.58041263244
 31
0.0
  0
LINE
  5
82D8
330
82D4
100
AcDbEntity
  8
3
 62
     0
370
    -2
100
AcDbLine
 10
1619.342145476919
 20
2034.58041263244
 30
0.0
 11
919.6456777180804
 21
2034.58041263244
 31
0.0
  0
LINE
  5
82D9
330
82D4
100
AcDbEntity
  8
3
 62
     0
370
    -2
100
AcDbLine
 10
925.0456777180804
 20
2129.18041263244
 30
0.0
 11
925.0456777180804
 21
2089.98041263244
 31
0.0
  0
LINE
  5
82DA
330
82D4
100
AcDbEntity
  8
3
 62
     0
370
    -2
100
AcDbLine
 10
925.0456777180804
 20
2039.98041263244
 30
0.0
 11
925.0456777180804
 21
2079.18041263244
 31
0.0
  0
SOLID
  5
82DB
330
82D4
100
AcDbEntity
  8
3
 62
     0
100
AcDbTrace
 10
924.1456777180804
 20
2129.18041263244
 30
0.0
 11
925.9456777180805
 21
2129.18041263244
 31
0.0
 12
925.0456777180804
 22
2134.58041263244
 32
0.0
 13
925.0456777180804
 23
2134.58041263244
 33
0.0
  0
SOLID
  5
82DC
330
82D4
100
AcDbEntity
  8
3
 62
     0
100
AcDbTrace
 10
924.1456777180804
 20
2039.98041263244
 30
0.0
 11
925.9456777180805
 21
2039.98041263244
 31
0.0
 12
925.0456777180804
 22
2034.58041263244
 32
0.0
 13
925.0456777180804
 23
2034.58041263244
 33
0.0
  0
MTEXT
  5
82DD
330
82D4
100
AcDbEntity
  8
3
 62
     0
100
AcDbMText
 10
925.0456777180801
 20
2084.58041263244
 30
0.0
 40
5.399999999999999
 41
0.0
 71
     5
 72
     1
  1
\A1;100
 73
     1
 44
1.0
1001
ACAD
1000
MTEXTBEGIN
1070
    73
1070
     1
1070
    44
1040
1.0
1070
    74
1070
     0
1000
MTEXTEND
  0
POINT
  5
82DE
330
82D4
100
AcDbEntity
  8
DEFPOINTS
 62
     0
100
AcDbPoint
 10
1621.217145476919
 20
2134.580412632439
 30
0.0
  0
POINT
  5
82DF
330
82D4
100
AcDbEntity
  8
DEFPOINTS
 62
     0
100
AcDbPoint
 10
1621.217145476919
 20
2034.58041263244
 30
0.0
  0
POINT
  5
82E0
330
82D4
100
AcDbEntity
  8
DEFPOINTS
 62
     0
100
AcDbPoint
 10
925.0456777180804
 20
2034.58041263244
 30
0.0
  0
ENDBLK
  5
82D6
330
82D4
100
AcDbEntity
  8
0
100
AcDbBlockEnd
  0
BLOCK
  5
82E3
330
82E2
100
AcDbEntity
  8
0
100
AcDbBlockBegin
  2
*D40
 70
     1
 10
0.0
 20
0.0
 30
0.0
  3
*D40
  1

  0
LINE
  5
82FB
330
82E2
100
AcDbEntity
  8
3
 62
     0
370
    -2
100
AcDbLine
 10
3817.873342866204
 20
3759.580412632439
 30
0.0
 11
3817.873342866204
 21
4653.103047100914
 31
0.0
  0
LINE
  5
82FC
330
82E2
100
AcDbEntity
  8
3
 62
     0
370
    -2
100
AcDbLine
 10
4877.873342866209
 20
4558.575164054367
 30
0.0
 11
4877.873342866209
 21
4653.103047100914
 31
0.0
  0
LINE
  5
82FD
330
82E2
100
AcDbEntity
  8
3
 62
     0
370
    -2
100
AcDbLine
 10
3877.873342866204
 20
4623.103047100913
 30
0.0
 11
4817.873342866209
 21
4623.103047100913
 31
0.0
  0
INSERT
  5
82FE
330
82E2
100
AcDbEntity
  8
3
 62
     0
370
    -2
100
AcDbBlockReference
  2
_OPEN
 10
3817.873342866204
 20
4623.103047100913
 30
0.0
 41
60.0
 42
60.0
 43
60.0
 50
180.0
  0
INSERT
  5
82FF
330
82E2
100
AcDbEntity
  8
3
 62
     0
370
    -2
100
AcDbBlockReference
  2
_OPEN
 10
4877.873342866209
 20
4623.103047100913
 30
0.0
 41
60.0
 42
60.0
 43
60.0
  0
MTEXT
  5
8300
330
82E2
100
AcDbEntity
  8
3
 62
     0
100
AcDbMText
 10
4347.873342866207
 20
4721.674475672342
 30
0.0
 40
90.0
 41
0.0
 71
     5
 72
     1
  1
\A1;(1060)
 73
     1
 44
1.0
1001
ACAD
1000
MTEXTBEGIN
1070
    73
1070
     1
1070
    44
1040
1.0
1070
    74
1070
     0
1000
MTEXTEND
  0
POINT
  5
8301
330
82E2
100
AcDbEntity
  8
DEFPOINTS
 62
     0
100
AcDbPoint
 10
3817.873342866204
 20
3729.580412632439
 30
0.0
  0
POINT
  5
8302
330
82E2
100
AcDbEntity
  8
DEFPOINTS
 62
     0
100
AcDbPoint
 10
4877.873342866209
 20
4528.575164054368
 30
0.0
  0
POINT
  5
8303
330
82E2
100
AcDbEntity
  8
DEFPOINTS
 62
     0
100
AcDbPoint
 10
4877.873342866209
 20
4623.103047100913
 30
0.0
  0
ENDBLK
  5
82E4
330
82E2
100
AcDbEntity
  8
0
100
AcDbBlockEnd
  0
BLOCK
  5
82F0
330
82EF
100
AcDbEntity
  8
0
100
AcDbBlockBegin
  2
*D41
 70
     1
 10
0.0
 20
0.0
 30
0.0
  3
*D41
  1

  0
LINE
  5
8304
330
82EF
100
AcDbEntity
  8
3
 62
     0
370
    -2
100
AcDbLine
 10
4877.873342866209
 20
4558.575164054367
 30
0.0
 11
4877.873342866209
 21
4653.103047100914
 31
0.0
  0
LINE
  5
8305
330
82EF
100
AcDbEntity
  8
3
 62
     0
370
    -2
100
AcDbLine
 10
5657.87334286621
 20
3443.78041263244
 30
0.0
 11
5657.87334286621
 21
4653.103047100914
 31
0.0
  0
LINE
  5
8306
330
82EF
100
AcDbEntity
  8
3
 62
     0
370
    -2
100
AcDbLine
 10
4937.873342866208
 20
4623.103047100913
 30
0.0
 11
5597.87334286621
 21
4623.103047100913
 31
0.0
  0
INSERT
  5
8307
330
82EF
100
AcDbEntity
  8
3
 62
     0
370
    -2
100
AcDbBlockReference
  2
_OPEN
 10
4877.873342866209
 20
4623.103047100913
 30
0.0
 41
60.0
 42
60.0
 43
60.0
 50
180.0
  0
INSERT
  5
8308
330
82EF
100
AcDbEntity
  8
3
 62
     0
370
    -2
100
AcDbBlockReference
  2
_OPEN
 10
5657.87334286621
 20
4623.103047100913
 30
0.0
 41
60.0
 42
60.0
 43
60.0
  0
MTEXT
  5
8309
330
82EF
100
AcDbEntity
  8
3
 62
     0
100
AcDbMText
 10
5267.873342866209
 20
4721.674475672342
 30
0.0
 40
90.0
 41
0.0
 71
     5
 72
     1
  1
\A1;(780)
 73
     1
 44
1.0
1001
ACAD
1000
MTEXTBEGIN
1070
    73
1070
     1
1070
    44
1040
1.0
1070
    74
1070
     0
1000
MTEXTEND
  0
POINT
  5
830A
330
82EF
100
AcDbEntity
  8
DEFPOINTS
 62
     0
100
AcDbPoint
 10
4877.873342866209
 20
4528.575164054368
 30
0.0
  0
POINT
  5
830B
330
82EF
100
AcDbEntity
  8
DEFPOINTS
 62
     0
100
AcDbPoint
 10
5657.87334286621
 20
3413.780412632439
 30
0.0
  0
POINT
  5
830C
330
82EF
100
AcDbEntity
  8
DEFPOINTS
 62
     0
100
AcDbPoint
 10
5657.87334286621
 20
4623.103047100913
 30
0.0
  0
ENDBLK
  5
82F1
330
82EF
100
AcDbEntity
  8
0
100
AcDbBlockEnd
  0
BLOCK
  5
8312
330
8311
100
AcDbEntity
  8
0
100
AcDbBlockBegin
  2
*D42
 70
     1
 10
0.0
 20
0.0
 30
0.0
  3
*D42
  1

  0
LINE
  5
8314
330
8311
100
AcDbEntity
  8
3
 62
     0
370
    -2
100
AcDbLine
 10
4050.873342866209
 20
2004.580412632439
 30
0.0
 11
4050.873342866209
 21
1803.819914238813
 31
0.0
  0
LINE
  5
8315
330
8311
100
AcDbEntity
  8
3
 62
     0
370
    -2
100
AcDbLine
 10
4877.873342866208
 20
2004.580412632439
 30
0.0
 11
4877.873342866208
 21
1803.819914238813
 31
0.0
  0
LINE
  5
8316
330
8311
100
AcDbEntity
  8
3
 62
     0
370
    -2
100
AcDbLine
 10
4110.873342866208
 20
1833.819914238813
 30
0.0
 11
4817.873342866208
 21
1833.819914238813
 31
0.0
  0
INSERT
  5
8317
330
8311
100
AcDbEntity
  8
3
 62
     0
370
    -2
100
AcDbBlockReference
  2
_OPEN
 10
4050.873342866209
 20
1833.819914238813
 30
0.0
 41
60.0
 42
60.0
 43
60.0
 50
180.0
  0
INSERT
  5
8318
330
8311
100
AcDbEntity
  8
3
 62
     0
370
    -2
100
AcDbBlockReference
  2
_OPEN
 10
4877.873342866208
 20
1833.819914238813
 30
0.0
 41
60.0
 42
60.0
 43
60.0
  0
MTEXT
  5
8319
330
8311
100
AcDbEntity
  8
3
 62
     0
100
AcDbMText
 10
4464.373342866209
 20
1908.819914238813
 30
0.0
 40
90.0
 41
0.0
 71
     5
 72
     1
  1
\A1;827
 73
     1
 44
1.0
1001
ACAD
1000
MTEXTBEGIN
1070
    73
1070
     1
1070
    44
1040
1.0
1070
    74
1070
     0
1000
MTEXTEND
  0
POINT
  5
831A
330
8311
100
AcDbEntity
  8
DEFPOINTS
 62
     0
100
AcDbPoint
 10
4050.873342866209
 20
2034.580412632439
 30
0.0
  0
POINT
  5
831B
330
8311
100
AcDbEntity
  8
DEFPOINTS
 62
     0
100
AcDbPoint
 10
4877.873342866208
 20
2034.580412632439
 30
0.0
  0
POINT
  5
831C
330
8311
100
AcDbEntity
  8
DEFPOINTS
 62
     0
100
AcDbPoint
 10
4877.873342866208
 20
1833.819914238813
 30
0.0
  0
ENDBLK
  5
8313
330
8311
100
AcDbEntity
  8
0
100
AcDbBlockEnd
  0
BLOCK
  5
831F
330
831E
100
AcDbEntity
  8
0
100
AcDbBlockBegin
  2
*D43
 70
     1
 10
0.0
 20
0.0
 30
0.0
  3
*D43
  1

  0
LINE
  5
8321
330
831E
100
AcDbEntity
  8
3
 62
     0
370
    -2
100
AcDbLine
 10
4877.873342866208
 20
2004.580412632439
 30
0.0
 11
4877.873342866208
 21
1803.819914238813
 31
0.0
  0
LINE
  5
8322
330
831E
100
AcDbEntity
  8
3
 62
     0
370
    -2
100
AcDbLine
 10
5555.87334286621
 20
2004.580412632439
 30
0.0
 11
5555.87334286621
 21
1803.819914238813
 31
0.0
  0
LINE
  5
8323
330
831E
100
AcDbEntity
  8
3
 62
     0
370
    -2
100
AcDbLine
 10
4937.873342866208
 20
1833.819914238813
 30
0.0
 11
5495.87334286621
 21
1833.819914238813
 31
0.0
  0
INSERT
  5
8324
330
831E
100
AcDbEntity
  8
3
 62
     0
370
    -2
100
AcDbBlockReference
  2
_OPEN
 10
4877.873342866208
 20
1833.819914238813
 30
0.0
 41
60.0
 42
60.0
 43
60.0
 50
180.0
  0
INSERT
  5
8325
330
831E
100
AcDbEntity
  8
3
 62
     0
370
    -2
100
AcDbBlockReference
  2
_OPEN
 10
5555.87334286621
 20
1833.819914238813
 30
0.0
 41
60.0
 42
60.0
 43
60.0
  0
MTEXT
  5
8326
330
831E
100
AcDbEntity
  8
3
 62
     0
100
AcDbMText
 10
5216.873342866209
 20
1908.819914238813
 30
0.0
 40
90.0
 41
0.0
 71
     5
 72
     1
  1
\A1;678
 73
     1
 44
1.0
1001
ACAD
1000
MTEXTBEGIN
1070
    73
1070
     1
1070
    44
1040
1.0
1070
    74
1070
     0
1000
MTEXTEND
  0
POINT
  5
8327
330
831E
100
AcDbEntity
  8
DEFPOINTS
 62
     0
100
AcDbPoint
 10
4877.873342866208
 20
2034.580412632439
 30
0.0
  0
POINT
  5
8328
330
831E
100
AcDbEntity
  8
DEFPOINTS
 62
     0
100
AcDbPoint
 10
5555.87334286621
 20
2034.580412632439
 30
0.0
  0
POINT
  5
8329
330
831E
100
AcDbEntity
  8
DEFPOINTS
 62
     0
100
AcDbPoint
 10
5555.87334286621
 20
1833.819914238813
 30
0.0
  0
ENDBLK
  5
8320
330
831E
100
AcDbEntity
  8
0
100
AcDbBlockEnd
  0
BLOCK
  5
832C
330
832B
100
AcDbEntity
  8
0
100
AcDbBlockBegin
  2
*D44
 70
     1
 10
0.0
 20
0.0
 30
0.0
  3
*D44
  1

  0
LINE
  5
832E
330
832B
100
AcDbEntity
  8
3
 62
     0
370
    -2
100
AcDbLine
 10
1621.217145476919
 20
2004.58041263244
 30
0.0
 11
1621.217145476919
 21
1803.819914238813
 31
0.0
  0
LINE
  5
832F
330
832B
100
AcDbEntity
  8
3
 62
     0
370
    -2
100
AcDbLine
 10
2246.21714547692
 20
2004.58041263244
 30
0.0
 11
2246.21714547692
 21
1803.819914238813
 31
0.0
  0
LINE
  5
8330
330
832B
100
AcDbEntity
  8
3
 62
     0
370
    -2
100
AcDbLine
 10
1681.217145476919
 20
1833.819914238813
 30
0.0
 11
2186.21714547692
 21
1833.819914238813
 31
0.0
  0
INSERT
  5
8331
330
832B
100
AcDbEntity
  8
3
 62
     0
370
    -2
100
AcDbBlockReference
  2
_OPEN
 10
1621.217145476919
 20
1833.819914238813
 30
0.0
 41
60.0
 42
60.0
 43
60.0
 50
180.0
  0
INSERT
  5
8332
330
832B
100
AcDbEntity
  8
3
 62
     0
370
    -2
100
AcDbBlockReference
  2
_OPEN
 10
2246.21714547692
 20
1833.819914238813
 30
0.0
 41
60.0
 42
60.0
 43
60.0
  0
MTEXT
  5
8333
330
832B
100
AcDbEntity
  8
3
 62
     0
100
AcDbMText
 10
1933.717145476919
 20
1908.819914238813
 30
0.0
 40
90.0
 41
0.0
 71
     5
 72
     1
  1
\A1;625
 73
     1
 44
1.0
1001
ACAD
1000
MTEXTBEGIN
1070
    73
1070
     1
1070
    44
1040
1.0
1070
    74
1070
     0
1000
MTEXTEND
  0
POINT
  5
8334
330
832B
100
AcDbEntity
  8
DEFPOINTS
 62
     0
100
AcDbPoint
 10
1621.217145476919
 20
2034.58041263244
 30
0.0
  0
POINT
  5
8335
330
832B
100
AcDbEntity
  8
DEFPOINTS
 62
     0
100
AcDbPoint
 10
2246.21714547692
 20
2034.58041263244
 30
0.0
  0
POINT
  5
8336
330
832B
100
AcDbEntity
  8
DEFPOINTS
 62
     0
100
AcDbPoint
 10
2246.21714547692
 20
1833.819914238813
 30
0.0
  0
ENDBLK
  5
832D
330
832B
100
AcDbEntity
  8
0
100
AcDbBlockEnd
  0
BLOCK
  5
8339
330
8338
100
AcDbEntity
  8
0
100
AcDbBlockBegin
  2
*D45
 70
     1
 10
0.0
 20
0.0
 30
0.0
  3
*D45
  1

  0
LINE
  5
833B
330
8338
100
AcDbEntity
  8
3
 62
     0
370
    -2
100
AcDbLine
 10
2246.21714547692
 20
2004.58041263244
 30
0.0
 11
2246.21714547692
 21
1803.819914238813
 31
0.0
  0
LINE
  5
833C
330
8338
100
AcDbEntity
  8
3
 62
     0
370
    -2
100
AcDbLine
 10
3671.217145476919
 20
2004.58041263244
 30
0.0
 11
3671.217145476919
 21
1803.819914238813
 31
0.0
  0
LINE
  5
833D
330
8338
100
AcDbEntity
  8
3
 62
     0
370
    -2
100
AcDbLine
 10
2306.21714547692
 20
1833.819914238813
 30
0.0
 11
3611.217145476919
 21
1833.819914238813
 31
0.0
  0
INSERT
  5
833E
330
8338
100
AcDbEntity
  8
3
 62
     0
370
    -2
100
AcDbBlockReference
  2
_OPEN
 10
2246.21714547692
 20
1833.819914238813
 30
0.0
 41
60.0
 42
60.0
 43
60.0
 50
180.0
  0
INSERT
  5
833F
330
8338
100
AcDbEntity
  8
3
 62
     0
370
    -2
100
AcDbBlockReference
  2
_OPEN
 10
3671.217145476919
 20
1833.819914238813
 30
0.0
 41
60.0
 42
60.0
 43
60.0
  0
MTEXT
  5
8340
330
8338
100
AcDbEntity
  8
3
 62
     0
100
AcDbMText
 10
2958.717145476919
 20
1908.819914238813
 30
0.0
 40
90.0
 41
0.0
 71
     5
 72
     1
  1
\A1;1425
 73
     1
 44
1.0
1001
ACAD
1000
MTEXTBEGIN
1070
    73
1070
     1
1070
    44
1040
1.0
1070
    74
1070
     0
1000
MTEXTEND
  0
POINT
  5
8341
330
8338
100
AcDbEntity
  8
DEFPOINTS
 62
     0
100
AcDbPoint
 10
2246.21714547692
 20
2034.58041263244
 30
0.0
  0
POINT
  5
8342
330
8338
100
AcDbEntity
  8
DEFPOINTS
 62
     0
100
AcDbPoint
 10
3671.217145476919
 20
2034.58041263244
 30
0.0
  0
POINT
  5
8343
330
8338
100
AcDbEntity
  8
DEFPOINTS
 62
     0
100
AcDbPoint
 10
3671.217145476919
 20
1833.819914238813
 30
0.0
  0
ENDBLK
  5
833A
330
8338
100
AcDbEntity
  8
0
100
AcDbBlockEnd
  0
BLOCK
  5
8346
330
8345
100
AcDbEntity
  8
0
100
AcDbBlockBegin
  2
*D46
 70
     1
 10
0.0
 20
0.0
 30
0.0
  3
*D46
  1

  0
LINE
  5
8464
330
8345
100
AcDbEntity
  8
3
 62
     0
370
    -2
100
AcDbLine
 10
1476.601162979292
 20
3449.580412632438
 30
0.0
 11
895.0456777180802
 21
3449.580412632439
 31
0.0
  0
LINE
  5
8465
330
8345
100
AcDbEntity
  8
3
 62
     0
370
    -2
100
AcDbLine
 10
1591.217145476919
 20
2239.58041263244
 30
0.0
 11
895.0456777180798
 21
2239.58041263244
 31
0.0
  0
LINE
  5
8466
330
8345
100
AcDbEntity
  8
3
 62
     0
370
    -2
100
AcDbLine
 10
925.0456777180803
 20
3389.580412632439
 30
0.0
 11
925.0456777180799
 21
2299.58041263244
 31
0.0
  0
INSERT
  5
8467
330
8345
100
AcDbEntity
  8
3
 62
     0
370
    -2
100
AcDbBlockReference
  2
_OPEN
 10
925.0456777180803
 20
3449.580412632439
 30
0.0
 41
60.0
 42
60.0
 43
60.0
 50
90.0
  0
INSERT
  5
8468
330
8345
100
AcDbEntity
  8
3
 62
     0
370
    -2
100
AcDbBlockReference
  2
_OPEN
 10
925.0456777180799
 20
2239.58041263244
 30
0.0
 41
60.0
 42
60.0
 43
60.0
 50
270.0
  0
MTEXT
  5
8469
330
8345
100
AcDbEntity
  8
3
 62
     0
100
AcDbMText
 10
850.0456777180797
 20
2844.580412632439
 30
0.0
 40
90.0
 41
0.0
 71
     5
 72
     1
  1
\A1;1210
 11
0.0000000000000001
 21
1.0
 31
0.0
 73
     1
 44
1.0
1001
ACAD
1000
MTEXTBEGIN
1070
    73
1070
     1
1070
    44
1040
1.0
1070
    74
1070
     0
1000
MTEXTEND
  0
POINT
  5
846A
330
8345
100
AcDbEntity
  8
DEFPOINTS
 62
     0
100
AcDbPoint
 10
1506.601162979292
 20
3449.580412632438
 30
0.0
  0
POINT
  5
846B
330
8345
100
AcDbEntity
  8
DEFPOINTS
 62
     0
100
AcDbPoint
 10
1621.217145476919
 20
2239.58041263244
 30
0.0
  0
POINT
  5
846C
330
8345
100
AcDbEntity
  8
DEFPOINTS
 62
     0
100
AcDbPoint
 10
925.0456777180799
 20
2239.58041263244
 30
0.0
  0
ENDBLK
  5
8347
330
8345
100
AcDbEntity
  8
0
100
AcDbBlockEnd
  0
BLOCK
  5
8353
330
8352
100
AcDbEntity
  8
0
100
AcDbBlockBegin
  2
*D47
 70
     1
 10
0.0
 20
0.0
 30
0.0
  3
*D47
  1

  0
LINE
  5
8478
330
8352
100
AcDbEntity
  8
3
 62
     0
370
    -2
100
AcDbLine
 10
1591.217145476919
 20
2239.58041263244
 30
0.0
 11
895.0456777180798
 21
2239.58041263244
 31
0.0
  0
LINE
  5
8479
330
8352
100
AcDbEntity
  8
3
 62
     0
370
    -2
100
AcDbLine
 10
1591.217145476919
 20
2134.580412632439
 30
0.0
 11
895.0456777180798
 21
2134.58041263244
 31
0.0
  0
LINE
  5
847A
330
8352
100
AcDbEntity
  8
3
 62
     0
370
    -2
100
AcDbLine
 10
925.0456777180799
 20
2299.58041263244
 30
0.0
 11
925.0456777180799
 21
2359.58041263244
 31
0.0
  0
LINE
  5
847B
330
8352
100
AcDbEntity
  8
3
 62
     0
370
    -2
100
AcDbLine
 10
925.0456777180799
 20
2134.58041263244
 30
0.0
 11
925.0456777180799
 21
2074.58041263244
 31
0.0
  0
MTEXT
  5
847C
330
8352
100
AcDbEntity
  8
3
 62
     0
100
AcDbMText
 10
826.4742491466513
 20
2239.58041263244
 30
0.0
 40
90.0
 41
0.0
 71
     5
 72
     1
  1
\A1;(105)
 11
0.0000000000000001
 21
1.0
 31
0.0
 73
     1
 44
1.0
1001
ACAD
1000
MTEXTBEGIN
1070
    73
1070
     1
1070
    44
1040
1.0
1070
    74
1070
     0
1000
MTEXTEND
  0
LINE
  5
847D
330
8352
100
AcDbEntity
  8
3
 62
     0
370
    -2
100
AcDbLine
 10
925.0456777180799
 20
2239.58041263244
 30
0.0
 11
925.0456777180799
 21
2134.58041263244
 31
0.0
  0
INSERT
  5
847E
330
8352
100
AcDbEntity
  8
3
 62
     0
370
    -2
100
AcDbBlockReference
  2
_OPEN
 10
925.0456777180799
 20
2239.58041263244
 30
0.0
 41
60.0
 42
60.0
 43
60.0
 50
270.0
  0
INSERT
  5
847F
330
8352
100
AcDbEntity
  8
3
 62
     0
370
    -2
100
AcDbBlockReference
  2
_DotSmall
 10
925.0456777180799
 20
2134.58041263244
 30
0.0
 41
60.0
 42
60.0
 43
60.0
 50
90.0
  0
POINT
  5
8480
330
8352
100
AcDbEntity
  8
DEFPOINTS
 62
     0
100
AcDbPoint
 10
1621.217145476919
 20
2239.58041263244
 30
0.0
  0
POINT
  5
8481
330
8352
100
AcDbEntity
  8
DEFPOINTS
 62
     0
100
AcDbPoint
 10
1621.217145476919
 20
2134.580412632439
 30
0.0
  0
POINT
  5
8482
330
8352
100
AcDbEntity
  8
DEFPOINTS
 62
     0
100
AcDbPoint
 10
925.0456777180799
 20
2134.58041263244
 30
0.0
  0
ENDBLK
  5
8354
330
8352
100
AcDbEntity
  8
0
100
AcDbBlockEnd
  0
BLOCK
  5
8365
330
8364
100
AcDbEntity
  8
0
100
AcDbBlockBegin
  2
*D48
 70
     1
 10
0.0
 20
0.0
 30
0.0
  3
*D48
  1

  0
LINE
  5
8499
330
8364
100
AcDbEntity
  8
3
 62
     0
370
    -2
100
AcDbLine
 10
1591.217145476919
 20
2134.580412632439
 30
0.0
 11
895.0456777180798
 21
2134.58041263244
 31
0.0
  0
LINE
  5
849A
330
8364
100
AcDbEntity
  8
3
 62
     0
370
    -2
100
AcDbLine
 10
1591.217145476919
 20
2034.58041263244
 30
0.0
 11
895.0456777180798
 21
2034.58041263244
 31
0.0
  0
LINE
  5
849B
330
8364
100
AcDbEntity
  8
3
 62
     0
370
    -2
100
AcDbLine
 10
925.0456777180799
 20
2134.58041263244
 30
0.0
 11
925.0456777180799
 21
2194.58041263244
 31
0.0
  0
LINE
  5
849C
330
8364
100
AcDbEntity
  8
3
 62
     0
370
    -2
100
AcDbLine
 10
925.0456777180799
 20
1974.58041263244
 30
0.0
 11
925.0456777180799
 21
1914.58041263244
 31
0.0
  0
MTEXT
  5
849D
330
8364
100
AcDbEntity
  8
3
 62
     0
100
AcDbMText
 10
849.9533700970351
 20
1887.785364257674
 30
0.0
 40
90.0
 41
0.0
 71
     5
 72
     1
  1
\A1;100
 11
0.0000000000000001
 21
1.0
 31
0.0
 73
     1
 44
1.0
1001
ACAD
1000
MTEXTBEGIN
1070
    73
1070
     1
1070
    44
1040
1.0
1070
    74
1070
     0
1000
MTEXTEND
  0
LINE
  5
849E
330
8364
100
AcDbEntity
  8
3
 62
     0
370
    -2
100
AcDbLine
 10
925.0456777180799
 20
2134.58041263244
 30
0.0
 11
925.0456777180799
 21
2034.58041263244
 31
0.0
  0
INSERT
  5
849F
330
8364
100
AcDbEntity
  8
3
 62
     0
370
    -2
100
AcDbBlockReference
  2
_DotSmall
 10
925.0456777180799
 20
2134.58041263244
 30
0.0
 41
60.0
 42
60.0
 43
60.0
 50
270.0
  0
INSERT
  5
84A0
330
8364
100
AcDbEntity
  8
3
 62
     0
370
    -2
100
AcDbBlockReference
  2
_OPEN
 10
925.0456777180799
 20
2034.58041263244
 30
0.0
 41
60.0
 42
60.0
 43
60.0
 50
90.0
  0
POINT
  5
84A1
330
8364
100
AcDbEntity
  8
DEFPOINTS
 62
     0
100
AcDbPoint
 10
1621.217145476919
 20
2134.580412632439
 30
0.0
  0
POINT
  5
84A2
330
8364
100
AcDbEntity
  8
DEFPOINTS
 62
     0
100
AcDbPoint
 10
1621.217145476919
 20
2034.58041263244
 30
0.0
  0
POINT
  5
84A3
330
8364
100
AcDbEntity
  8
DEFPOINTS
 62
     0
100
AcDbPoint
 10
925.0456777180799
 20
2034.58041263244
 30
0.0
  0
ENDBLK
  5
8366
330
8364
100
AcDbEntity
  8
0
100
AcDbBlockEnd
  0
BLOCK
  5
83FE
330
83FC
100
AcDbEntity
  8
0
100
AcDbBlockBegin
  2
_DotSmall
 70
     0
 10
0.0
 20
0.0
 30
0.0
  3
_DotSmall
  1

  0
LWPOLYLINE
  5
83FD
330
83FC
100
AcDbEntity
  8
0
  6
ByBlock
 62
     0
100
AcDbPolyline
 90
        2
 70
     1
 43
0.5
 10
-0.0625
 20
0.0
 42
1.0
 10
0.0625
 20
0.0
 42
1.0
  0
ENDBLK
  5
83FF
330
83FC
100
AcDbEntity
  8
0
100
AcDbBlockEnd
  0
BLOCK
  5
84A6
330
84A5
100
AcDbEntity
  8
0
100
AcDbBlockBegin
  2
*D50
 70
     1
 10
0.0
 20
0.0
 30
0.0
  3
*D50
  1

  0
LINE
  5
84BA
330
84A5
100
AcDbEntity
  8
3
 62
     0
370
    -2
100
AcDbLine
 10
1591.217145476919
 20
2034.58041263244
 30
0.0
 11
663.9744979598178
 21
2034.58041263244
 31
0.0
  0
LINE
  5
84BB
330
84A5
100
AcDbEntity
  8
3
 62
     0
370
    -2
100
AcDbLine
 10
2290.217145476919
 20
4169.580412632438
 30
0.0
 11
663.9744979598183
 21
4169.580412632439
 31
0.0
  0
LINE
  5
84BC
330
84A5
100
AcDbEntity
  8
3
 62
     0
370
    -2
100
AcDbLine
 10
693.9744979598178
 20
2094.58041263244
 30
0.0
 11
693.9744979598183
 21
4109.580412632439
 31
0.0
  0
INSERT
  5
84BD
330
84A5
100
AcDbEntity
  8
3
 62
     0
370
    -2
100
AcDbBlockReference
  2
_OPEN
 10
693.9744979598178
 20
2034.58041263244
 30
0.0
 41
60.0
 42
60.0
 43
60.0
 50
270.0
  0
INSERT
  5
84BE
330
84A5
100
AcDbEntity
  8
3
 62
     0
370
    -2
100
AcDbBlockReference
  2
_OPEN
 10
693.9744979598183
 20
4169.580412632439
 30
0.0
 41
60.0
 42
60.0
 43
60.0
 50
90.0
  0
MTEXT
  5
84BF
330
84A5
100
AcDbEntity
  8
3
 62
     0
100
AcDbMText
 10
595.4030693883891
 20
3102.08041263244
 30
0.0
 40
90.0
 41
0.0
 71
     5
 72
     1
  1
\A1;(2135)
 11
0.0000000000000001
 21
1.0
 31
0.0
 73
     1
 44
1.0
1001
ACAD
1000
MTEXTBEGIN
1070
    73
1070
     1
1070
    44
1040
1.0
1070
    74
1070
     0
1000
MTEXTEND
  0
POINT
  5
84C0
330
84A5
100
AcDbEntity
  8
DEFPOINTS
 62
     0
100
AcDbPoint
 10
1621.217145476919
 20
2034.58041263244
 30
0.0
  0
POINT
  5
84C1
330
84A5
100
AcDbEntity
  8
DEFPOINTS
 62
     0
100
AcDbPoint
 10
2320.217145476919
 20
4169.580412632438
 30
0.0
  0
POINT
  5
84C2
330
84A5
100
AcDbEntity
  8
DEFPOINTS
 62
     0
100
AcDbPoint
 10
693.9744979598183
 20
4169.580412632439
 30
0.0
  0
ENDBLK
  5
84A7
330
84A5
100
AcDbEntity
  8
0
100
AcDbBlockEnd
  0
BLOCK
  5
84C5
330
84C4
100
AcDbEntity
  8
0
100
AcDbBlockBegin
  2
*D51
 70
     1
 10
0.0
 20
0.0
 30
0.0
  3
*D51
  1

  0
LINE
  5
84C7
330
84C4
100
AcDbEntity
  8
3
 62
     0
370
    -2
100
AcDbLine
 10
1621.217145476919
 20
5124.269064037402
 30
0.0
 11
1621.217145476919
 21
4702.457154333326
 31
0.0
  0
LINE
  5
84C8
330
84C4
100
AcDbEntity
  8
3
 62
     0
370
    -2
100
AcDbLine
 10
3671.217145476919
 20
5124.269064037404
 30
0.0
 11
3671.217145476919
 21
4702.457154333326
 31
0.0
  0
LINE
  5
84C9
330
84C4
100
AcDbEntity
  8
3
 62
     0
370
    -2
100
AcDbLine
 10
1681.217145476919
 20
4732.457154333325
 30
0.0
 11
3611.217145476919
 21
4732.457154333325
 31
0.0
  0
INSERT
  5
84CA
330
84C4
100
AcDbEntity
  8
3
 62
     0
370
    -2
100
AcDbBlockReference
  2
_OPEN
 10
1621.217145476919
 20
4732.457154333325
 30
0.0
 41
60.0
 42
60.0
 43
60.0
 50
180.0
  0
INSERT
  5
84CB
330
84C4
100
AcDbEntity
  8
3
 62
     0
370
    -2
100
AcDbBlockReference
  2
_OPEN
 10
3671.217145476919
 20
4732.457154333325
 30
0.0
 41
60.0
 42
60.0
 43
60.0
  0
MTEXT
  5
84CC
330
84C4
100
AcDbEntity
  8
3
 62
     0
100
AcDbMText
 10
2646.217145476919
 20
4807.457154333326
 30
0.0
 40
90.0
 41
0.0
 71
     5
 72
     1
  1
\A1;2050
 73
     1
 44
1.0
1001
ACAD
1000
MTEXTBEGIN
1070
    73
1070
     1
1070
    44
1040
1.0
1070
    74
1070
     0
1000
MTEXTEND
  0
POINT
  5
84CD
330
84C4
100
AcDbEntity
  8
DEFPOINTS
 62
     0
100
AcDbPoint
 10
1621.217145476919
 20
5154.269064037402
 30
0.0
  0
POINT
  5
84CE
330
84C4
100
AcDbEntity
  8
DEFPOINTS
 62
     0
100
AcDbPoint
 10
3671.217145476919
 20
5154.269064037404
 30
0.0
  0
POINT
  5
84CF
330
84C4
100
AcDbEntity
  8
DEFPOINTS
 62
     0
100
AcDbPoint
 10
3671.217145476919
 20
4732.457154333325
 30
0.0
  0
ENDBLK
  5
84C6
330
84C4
100
AcDbEntity
  8
0
100
AcDbBlockEnd
  0
ENDSEC
  0
SECTION
  2
ENTITIES
  0
INSERT
  5
7C37
330
8214
100
AcDbEntity
  8
0
100
AcDbBlockReference
  2
YA_N
 10
6.0
 20
5.0
 30
0.0
  0
ARC
  5
7C39
330
8214
100
AcDbEntity
  8
1
100
AcDbCircle
 10
2172.217145476919
 20
3375.580412632438
 30
0.0
 40
942.0
100
AcDbArc
 50
274.5055845266444
 51
4.50558452664448
  0
ARC
  5
7C3A
330
8214
100
AcDbEntity
  8
1
100
AcDbCircle
 10
2320.217145476919
 20
3375.580412632439
 30
0.0
 40
794.0
100
AcDbArc
 50
5.347669749838811
 51
95.34766974983879
  0
ARC
  5
7C3B
330
8214
100
AcDbEntity
  8
1
100
AcDbCircle
 10
2306.717145476919
 20
3510.080412632439
 30
0.0
 40
659.4999999999998
100
AcDbArc
 50
95.263495203067
 51
185.2634952030669
  0
LINE
  5
7C3C
330
8214
100
AcDbEntity
  8
1
100
AcDbLine
 10
1648.835358007634
 20
3405.580412632438
 30
0.0
 11
1566.217145476919
 21
3405.580412632438
 31
0.0
  0
LINE
  5
7C3D
330
8214
100
AcDbEntity
  8
1
100
AcDbLine
 10
1566.21714547692
 20
2322.580412632437
 30
0.0
 11
1566.217145476919
 21
3458.580412632438
 31
0.0
  0
LINE
  5
7C3E
330
8214
100
AcDbEntity
  8
1
100
AcDbLine
 10
1566.21714547692
 20
2375.580412632439
 30
0.0
 11
2246.21714547692
 21
2436.491492455016
 31
0.0
  0
LINE
  5
7C3F
330
8214
100
AcDbEntity
  8
1
100
AcDbLine
 10
1570.21714547692
 20
2322.580412632437
 30
0.0
 11
1566.21714547692
 21
2322.580412632437
 31
0.0
  0
LINE
  5
7C40
330
8214
100
AcDbEntity
  8
1
100
AcDbLine
 10
1570.217145476917
 20
3458.580412632438
 30
0.0
 11
1566.217145476919
 21
3458.580412632438
 31
0.0
  0
LINE
  5
7C41
330
8214
100
AcDbEntity
  8
1
100
AcDbLine
 10
1616.21714547692
 20
2380.059168501746
 30
0.0
 11
1616.217145476919
 21
3405.580412632438
 31
0.0
  0
LINE
  5
7C42
330
8214
100
AcDbEntity
  8
1
100
AcDbLine
 10
1570.217145476922
 20
2322.580412632437
 30
0.0
 11
1570.217145476917
 21
3458.580412632438
 31
0.0
  0
LINE
  5
7C43
330
8214
100
AcDbEntity
  8
1
100
AcDbLine
 10
3671.217145476919
 20
2339.580412632437
 30
0.0
 11
1621.217145476919
 21
2339.580412632439
 31
0.0
  0
LINE
  5
7C44
330
8214
100
AcDbEntity
  8
1
100
AcDbLine
 10
1621.217145476919
 20
2339.580412632439
 30
0.0
 11
1621.217145476919
 21
2239.58041263244
 31
0.0
  0
LINE
  5
7C45
330
8214
100
AcDbEntity
  8
2
100
AcDbLine
 10
3792.873342866207
 20
3449.580412632439
 30
0.0
 11
5683.949974415511
 21
3449.580412632439
 31
0.0
  0
LINE
  5
7C46
330
8214
100
AcDbEntity
  8
2
100
AcDbLine
 10
4877.873342866209
 20
4400.62928398111
 30
0.0
 11
4877.873342866208
 21
2034.580412632439
 31
0.0
  0
LINE
  5
7C47
330
8214
100
AcDbEntity
  8
1
100
AcDbLine
 10
4050.873342866208
 20
2239.580412632439
 30
0.0
 11
5555.87334286621
 21
2239.580412632439
 31
0.0
1001
ACAD
1000
ASC_BOUNDS
1002
{
1070
    19
1005
0
1005
0
1002
}
  0
LINE
  5
7C48
330
8214
100
AcDbEntity
  8
1
100
AcDbLine
 10
4050.873342866209
 20
2339.580412632439
 30
0.0
 11
5555.87334286621
 21
2339.580412632439
 31
0.0
  0
LINE
  5
7C49
330
8214
100
AcDbEntity
  8
1
100
AcDbLine
 10
5502.87334286621
 20
4169.580412632438
 30
0.0
 11
5502.87334286621
 21
3449.580412632439
 31
0.0
  0
LINE
  5
7C4A
330
8214
100
AcDbEntity
  8
2
100
AcDbLine
 10
2246.217145476921
 20
4212.625848323955
 30
0.0
 11
2246.21714547692
 21
2034.58041263244
 31
0.0
  0
LINE
  5
7C4B
330
8214
100
AcDbEntity
  8
2
100
AcDbLine
 10
1506.601162979292
 20
3449.580412632438
 30
0.0
 11
3178.732061533128
 21
3449.580412632439
 31
0.0
  0
LINE
  5
7C4C
330
8214
100
AcDbEntity
  8
1
100
AcDbLine
 10
3671.217145476919
 20
2239.58041263244
 30
0.0
 11
1621.217145476919
 21
2239.58041263244
 31
0.0
1001
ACAD
1000
ASC_BOUNDS
1002
{
1070
    19
1005
0
1002
}
  0
INSERT
  5
7C4D
330
8214
100
AcDbEntity
  8
0
100
AcDbBlockReference
  2
YA_N
 10
-1637.209838160516
 20
-1405.432827243363
 30
0.0
 41
25.0
 42
25.0
 43
25.0
  0
ARC
  5
7C4F
330
8214
100
AcDbEntity
  8
1
100
AcDbCircle
 10
3396.217145476919
 20
2574.580412632438
 30
0.0
 40
185.0
100
AcDbArc
 50
287.9452509999999
 51
252.054749
  0
LINE
  5
7C50
330
8214
100
AcDbEntity
  8
2
100
AcDbLine
 10
3396.217145476919
 20
2838.396086632439
 30
0.0
 11
3396.217145476921
 21
2034.58041263244
 31
0.0
  0
LINE
  5
7C51
330
8214
100
AcDbEntity
  8
1
100
AcDbLine
 10
3339.217130476921
 20
2398.580412632437
 30
0.0
 11
3453.217145476919
 21
2398.580412632437
 31
0.0
  0
LINE
  5
7C52
330
8214
100
AcDbEntity
  8
1
100
AcDbLine
 10
3234.21713047692
 20
2469.839445632438
 30
0.0
 11
3234.21713047692
 21
2394.580412632439
 31
0.0
  0
LINE
  5
7C56
330
8214
100
AcDbEntity
  8
1
100
AcDbLine
 10
3293.71713047692
 20
2399.728971632439
 30
0.0
 11
3303.223844476919
 21
2414.651579632439
 31
0.0
  0
LINE
  5
7C57
330
8214
100
AcDbEntity
  8
1
100
AcDbLine
 10
3293.71713047692
 20
2411.580412632439
 30
0.0
 11
3293.71713047692
 21
2394.580412632439
 31
0.0
  0
LINE
  5
7C59
330
8214
100
AcDbEntity
  8
1
100
AcDbLine
 10
3237.217130476919
 20
2414.580412632439
 30
0.0
 11
3290.717130476921
 21
2414.580412632439
 31
0.0
  0
ARC
  5
7C5B
330
8214
100
AcDbEntity
  8
1
100
AcDbCircle
 10
3237.217130476919
 20
2411.580412632439
 30
0.0
 40
3.0
100
AcDbArc
 50
90.0
 51
180.0
  0
LINE
  5
7C5D
330
8214
100
AcDbEntity
  8
1
100
AcDbLine
 10
3285.393216476919
 20
2414.580412632439
 30
0.0
 11
3290.572965476921
 21
2422.711012632437
 31
0.0
  0
ARC
  5
7C5E
330
8214
100
AcDbEntity
  8
1
100
AcDbCircle
 10
3290.717130476921
 20
2411.580412632439
 30
0.0
 40
3.0
100
AcDbArc
 50
0.0
 51
90.0
  0
LINE
  5
7C61
330
8214
100
AcDbEntity
  8
1
100
AcDbLine
 10
3234.21713047692
 20
2469.839445632438
 30
0.0
 11
3240.60110247692
 21
2474.537199632439
 31
0.0
  0
LINE
  5
7C64
330
8214
100
AcDbEntity
  8
1
100
AcDbLine
 10
3558.217145476919
 20
2469.839445632438
 30
0.0
 11
3558.217145476919
 21
2394.580412632439
 31
0.0
  0
LINE
  5
7C65
330
8214
100
AcDbEntity
  8
1
100
AcDbLine
 10
3555.21714547692
 20
2414.580412632439
 30
0.0
 11
3501.71714547692
 21
2414.580412632439
 31
0.0
  0
LINE
  5
7C66
330
8214
100
AcDbEntity
  8
1
100
AcDbLine
 10
3498.717145476919
 20
2399.728971632439
 30
0.0
 11
3489.210431476921
 21
2414.651579632439
 31
0.0
  0
LINE
  5
7C69
330
8214
100
AcDbEntity
  8
1
100
AcDbLine
 10
3498.717145476919
 20
2394.580412632439
 30
0.0
 11
3498.717145476919
 21
2411.580412632439
 31
0.0
  0
LINE
  5
7C6C
330
8214
100
AcDbEntity
  8
1
100
AcDbLine
 10
3507.04105947692
 20
2414.580412632439
 30
0.0
 11
3501.861310476919
 21
2422.711012632437
 31
0.0
  0
ARC
  5
7C6D
330
8214
100
AcDbEntity
  8
1
100
AcDbCircle
 10
3501.71714547692
 20
2411.580412632439
 30
0.0
 40
3.0
100
AcDbArc
 50
90.0
 51
180.0
  0
ARC
  5
7C70
330
8214
100
AcDbEntity
  8
1
100
AcDbCircle
 10
3555.21714547692
 20
2411.580412632439
 30
0.0
 40
3.0
100
AcDbArc
 50
0.0
 51
90.0
  0
LINE
  5
7C71
330
8214
100
AcDbEntity
  8
1
100
AcDbLine
 10
3558.217145476919
 20
2469.839445632438
 30
0.0
 11
3551.833173476921
 21
2474.537199632439
 31
0.0
  0
LINE
  5
7C72
330
8214
100
AcDbEntity
  8
2
100
AcDbLine
 10
3646.643559602464
 20
2574.580412632438
 30
0.0
 11
3180.137612830964
 21
2574.580412632438
 31
0.0
  0
LINE
  5
7C73
330
8214
100
AcDbEntity
  8
1
100
AcDbLine
 10
3606.633158502686
 20
2394.580412632437
 30
0.0
 11
3466.21714547692
 21
2394.580412632437
 31
0.0
  0
LINE
  5
7C74
330
8214
100
AcDbEntity
  8
1
100
AcDbLine
 10
3171.217145476919
 20
2339.580412632437
 30
0.0
 11
3186.001894263254
 21
2394.580412632437
 31
0.0
  0
LINE
  5
7C75
330
8214
100
AcDbEntity
  8
1
100
AcDbLine
 10
3621.217145476919
 20
2339.580412632437
 30
0.0
 11
3606.633158502686
 21
2394.580412632437
 31
0.0
  0
LINE
  5
7C77
330
8214
100
AcDbEntity
  8
1
100
AcDbLine
 10
3466.21714547692
 20
2384.580412632437
 30
0.0
 11
3326.217145476919
 21
2384.580412632437
 31
0.0
  0
LINE
  5
7C78
330
8214
100
AcDbEntity
  8
1
100
AcDbLine
 10
3466.21714547692
 20
2394.580412632437
 30
0.0
 11
3466.21714547692
 21
2384.580412632437
 31
0.0
  0
LINE
  5
7C79
330
8214
100
AcDbEntity
  8
1
100
AcDbLine
 10
3326.217145476919
 20
2394.580412632437
 30
0.0
 11
3326.217145476919
 21
2384.580412632437
 31
0.0
  0
LINE
  5
7C7A
330
8214
100
AcDbEntity
  8
1
100
AcDbLine
 10
3326.217145476919
 20
2394.580412632437
 30
0.0
 11
3186.001894263254
 21
2394.580412632437
 31
0.0
  0
CIRCLE
  5
7C7D
330
8214
100
AcDbEntity
  8
1
100
AcDbCircle
 10
2246.217145476921
 20
3449.580412632438
 30
0.0
 40
165.0999999999999
  0
CIRCLE
  5
7C7E
330
8214
100
AcDbEntity
  8
1
100
AcDbCircle
 10
3396.217145476919
 20
2574.580412632438
 30
0.0
 40
114.3
  0
LINE
  5
7C7F
330
8214
100
AcDbEntity
  8
1
100
AcDbLine
 10
3671.217145476919
 20
2134.580412632439
 30
0.0
 11
1621.217145476919
 21
2134.580412632439
 31
0.0
1001
ACAD
1000
ASC_BOUNDS
1002
{
1070
    19
1005
0
1002
}
  0
LINE
  5
7C80
330
8214
100
AcDbEntity
  8
1
100
AcDbLine
 10
3671.217145476919
 20
2034.58041263244
 30
0.0
 11
1621.217145476919
 21
2034.58041263244
 31
0.0
  0
LINE
  5
7C81
330
8214
100
AcDbEntity
  8
1
100
AcDbLine
 10
1621.217145476919
 20
2134.580412632439
 30
0.0
 11
1621.217145476919
 21
2034.58041263244
 31
0.0
  0
POINT
  5
7C82
330
8214
100
AcDbEntity
  8
1
100
AcDbPoint
 10
1621.217145476919
 20
2134.580412632439
 30
0.0
  0
POINT
  5
7C83
330
8214
100
AcDbEntity
  8
1
100
AcDbPoint
 10
1621.217145476919
 20
2134.580412632439
 30
0.0
  0
LINE
  5
7C84
330
8214
100
AcDbEntity
  8
1
100
AcDbLine
 10
4050.873342866208
 20
2134.580412632439
 30
0.0
 11
5555.87334286621
 21
2134.580412632439
 31
0.0
1001
ACAD
1000
ASC_BOUNDS
1002
{
1070
    19
1005
0
1005
0
1002
}
  0
POINT
  5
7C85
330
8214
100
AcDbEntity
  8
1
100
AcDbPoint
 10
1621.217145476919
 20
2134.580412632439
 30
0.0
  0
POINT
  5
7C86
330
8214
100
AcDbEntity
  8
1
100
AcDbPoint
 10
1621.217145476919
 20
2134.580412632439
 30
0.0
  0
INSERT
  5
7C87
330
8214
100
AcDbEntity
  8
0
100
AcDbBlockReference
  2
YA_N
 10
-1144.893563079054
 20
-989.0222135336152
 30
0.0
 41
25.0
 42
25.0
 43
25.0
  0
DIMENSION
  5
7C89
330
8214
100
AcDbEntity
  8
3
100
AcDbDimension
  2
*D4
 10
1365.057048482776
 20
3405.580412632438
 30
0.0
 11
1305.057048482776
 21
2890.580412632438
 31
0.0
 12
1150.184470972464
 22
2821.520109796693
 32
0.0
 71
     5
 42
-1.0
  3
Standard
100
AcDbAlignedDimension
 13
1566.21714547692
 23
2375.580412632439
 33
0.0
 14
1566.217145476919
 24
3405.580412632438
 34
0.0
 50
90.00000000000005
100
AcDbRotatedDimension
1001
ACAD
1000
DSTYLE
1002
{
1070
    40
1040
30.0
1002
}
  0
DIMENSION
  5
7C8A
330
8214
100
AcDbEntity
  8
3
100
AcDbDimension
  2
*D5
 10
1164.255003023623
 20
3449.580412632438
 30
0.0
 11
1104.255003023623
 21
2912.580412632438
 31
0.0
 12
1150.184470972464
 22
2821.520109796693
 32
0.0
 71
     5
 42
-1.0
  3
Standard
100
AcDbAlignedDimension
 13
1566.21714547692
 23
2375.580412632439
 33
0.0
 14
1506.601162979292
 24
3449.580412632438
 34
0.0
 50
90.00000000000005
100
AcDbRotatedDimension
1001
ACAD
1000
DSTYLE
1002
{
1070
    40
1040
30.0
1002
}
  0
POINT
  5
7C8B
330
8214
100
AcDbEntity
  8
1
100
AcDbPoint
 10
1621.217145476919
 20
2134.580412632439
 30
0.0
  0
POINT
  5
7C8C
330
8214
100
AcDbEntity
  8
1
100
AcDbPoint
 10
1621.217145476919
 20
2134.580412632439
 30
0.0
  0
DIMENSION
  5
7C8D
330
8214
100
AcDbEntity
  8
3
100
AcDbDimension
  2
*D6
 10
2246.217145476921
 20
4375.484629326488
 30
0.0
 11
1906.21714547692
 21
4435.484629326489
 31
0.0
 12
1150.184470972464
 22
2821.520109796693
 32
0.0
 71
     5
 42
-1.0
  3
Standard
100
AcDbAlignedDimension
 13
1566.217145476919
 23
3425.459966484921
 33
0.0
 14
2246.217145476921
 24
4212.625848323955
 34
0.0
100
AcDbRotatedDimension
1001
ACAD
1000
DSTYLE
1002
{
1070
    40
1040
30.0
1002
}
  0
DIMENSION
  5
7C8E
330
8214
100
AcDbEntity
  8
3
100
AcDbDimension
  2
*D7
 10
3110.76126189295
 20
4375.026929391572
 30
0.0
 11
2678.489203684935
 21
4435.026929391574
 31
0.0
 12
1150.184470972464
 22
2821.520109796693
 32
0.0
  1
868
 71
     5
 42
-1.0
  3
Standard
100
AcDbAlignedDimension
 13
2246.217145476921
 23
4212.625848323955
 33
0.0
 14
3110.76126189295
 24
3449.580412632438
 34
0.0
100
AcDbRotatedDimension
1001
ACAD
1000
DSTYLE
1002
{
1070
    40
1040
30.0
1002
}
  0
LINE
  5
7C8F
330
8214
100
AcDbEntity
  8
1
100
AcDbLine
 10
5502.87334286621
 20
3449.580412632439
 30
0.0
 11
5502.873342866208
 21
2375.580412632439
 31
0.0
  0
LINE
  5
7C90
330
8214
100
AcDbEntity
  8
1
100
AcDbLine
 10
4252.873342866208
 20
4169.580412632439
 30
0.0
 11
4252.873342866208
 21
3449.580412632439
 31
0.0
  0
LINE
  5
7C91
330
8214
100
AcDbEntity
  8
1
100
AcDbLine
 10
4252.873342866208
 20
3449.580412632439
 30
0.0
 11
4252.873342866207
 21
2757.080412632439
 31
0.0
  0
LINE
  5
7C92
330
8214
100
AcDbEntity
  8
1
100
AcDbLine
 10
5657.873342866208
 20
3413.780412632439
 30
0.0
 11
5657.87334286621
 21
3283.780412632439
 31
0.0
  0
LINE
  5
7C93
330
8214
100
AcDbEntity
  8
1
100
AcDbLine
 10
5520.87334286621
 20
3423.780412632441
 30
0.0
 11
5520.87334286621
 21
3273.780412632441
 31
0.0
  0
LINE
  5
7C94
330
8214
100
AcDbEntity
  8
1
100
AcDbLine
 10
5520.87334286621
 20
3423.780412632439
 30
0.0
 11
5570.173342866208
 21
3423.780412632441
 31
0.0
  0
LINE
  5
7C95
330
8214
100
AcDbEntity
  8
1
100
AcDbLine
 10
5520.87334286621
 20
3273.780412632441
 30
0.0
 11
5570.173342866208
 21
3273.780412632441
 31
0.0
  0
ARC
  5
7C96
330
8214
100
AcDbEntity
  8
1
100
AcDbCircle
 10
5647.87334286621
 20
3413.780412632439
 30
0.0
 40
10.0
100
AcDbArc
 50
0.0000000000006514
 51
90.0
  0
ARC
  5
7C97
330
8214
100
AcDbEntity
  8
1
100
AcDbCircle
 10
5647.87334286621
 20
3283.780412632439
 30
0.0
 40
10.0
100
AcDbArc
 50
270.0
 51
0.0000000000006514
  0
LINE
  5
7C98
330
8214
100
AcDbEntity
  8
1
100
AcDbLine
 10
5570.173342866208
 20
3423.780412632441
 30
0.0
 11
5647.873342866208
 21
3423.780412632441
 31
0.0
  0
LINE
  5
7C99
330
8214
100
AcDbEntity
  8
1
100
AcDbLine
 10
5570.173342866208
 20
3273.780412632441
 30
0.0
 11
5647.87334286621
 21
3273.780412632441
 31
0.0
  0
LINE
  5
7C9A
330
8214
100
AcDbEntity
  8
1
100
AcDbLine
 10
3954.873342866209
 20
3614.680412632439
 30
0.0
 11
4064.873342866209
 21
3614.680412632439
 31
0.0
  0
LINE
  5
7C9B
330
8214
100
AcDbEntity
  8
1
100
AcDbLine
 10
3954.873342866209
 20
3284.480412632439
 30
0.0
 11
4064.873342866209
 21
3284.480412632439
 31
0.0
  0
LINE
  5
7C9C
330
8214
100
AcDbEntity
  8
1
100
AcDbLine
 10
3954.873342866209
 20
2688.880412632439
 30
0.0
 11
4064.873342866209
 21
2688.880412632439
 31
0.0
  0
LINE
  5
7C9D
330
8214
100
AcDbEntity
  8
1
100
AcDbLine
 10
3954.873342866209
 20
2460.280412632438
 30
0.0
 11
4064.873342866209
 21
2460.280412632438
 31
0.0
  0
LINE
  5
7C9E
330
8214
100
AcDbEntity
  8
1
100
AcDbLine
 10
3954.873342866209
 20
3614.680412632439
 30
0.0
 11
3954.873342866209
 21
2460.280412632438
 31
0.0
  0
LINE
  5
7C9F
330
8214
100
AcDbEntity
  8
1
100
AcDbLine
 10
4064.873342866209
 20
3614.680412632439
 30
0.0
 11
4064.873342866206
 21
2460.280412632438
 31
0.0
  0
LINE
  5
7CA0
330
8214
100
AcDbEntity
  8
1
100
AcDbLine
 10
3817.873342866204
 20
3729.580412632439
 30
0.0
 11
3817.873342866218
 21
2354.580412632437
 31
0.0
  0
LINE
  5
7CA1
330
8214
100
AcDbEntity
  8
1
100
AcDbLine
 10
3817.873342866204
 20
3729.580412632439
 30
0.0
 11
4110.373342866203
 21
3729.580412632439
 31
0.0
  0
LINE
  5
7CA2
330
8214
100
AcDbEntity
  8
1
100
AcDbLine
 10
3817.873342866212
 20
2354.580412632437
 30
0.0
 11
4110.373342866211
 21
2354.580412632437
 31
0.0
  0
LINE
  5
7CA3
330
8214
100
AcDbEntity
  8
1
100
AcDbLine
 10
4110.373342866203
 20
3729.58041263244
 30
0.0
 11
4110.373342866203
 21
3709.580412632439
 31
0.0
  0
LINE
  5
7CA4
330
8214
100
AcDbEntity
  8
1
100
AcDbLine
 10
4110.373342866211
 20
2374.580412632437
 30
0.0
 11
4110.373342866211
 21
2354.58041263244
 31
0.0
  0
POINT
  5
7CA5
330
8214
100
AcDbEntity
  8
1
100
AcDbPoint
 10
5657.873342866212
 20
3413.780412632439
 30
0.0
  0
LINE
  5
7CA6
330
8214
100
AcDbEntity
  8
2
100
AcDbLine
 10
2246.217145476919
 20
6575.184625886584
 30
0.0
 11
2246.217145476919
 21
4887.196818316027
 31
0.0
  0
LINE
  5
7CA7
330
8214
100
AcDbEntity
  8
2
100
AcDbLine
 10
2731.871711129199
 20
5981.269064037404
 30
0.0
 11
1767.291955094333
 21
5981.269064037402
 31
0.0
  0
INSERT
  5
7CA8
330
8214
100
AcDbEntity
  8
0
100
AcDbBlockReference
  2
YA_N
 10
3439.312525519781
 20
-2261.498311600258
 30
0.0
  0
LINE
  5
7CAA
330
8214
100
AcDbEntity
  8
1
100
AcDbLine
 10
4050.873342866209
 20
2034.580412632439
 30
0.0
 11
5555.87334286621
 21
2034.580412632439
 31
0.0
1001
ACAD
1000
ASC_BOUNDS
1002
{
1070
    19
1002
}
  0
LINE
  5
7CAB
330
8214
100
AcDbEntity
  8
1
100
AcDbLine
 10
5555.87334286621
 20
2339.580412632439
 30
0.0
 11
5555.87334286621
 21
2239.580412632439
 31
0.0
  0
LINE
  5
7CAC
330
8214
100
AcDbEntity
  8
1
100
AcDbLine
 10
4050.873342866208
 20
2339.580412632439
 30
0.0
 11
4050.873342866208
 21
2239.580412632439
 31
0.0
  0
LINE
  5
7CAD
330
8214
100
AcDbEntity
  8
1
100
AcDbLine
 10
4185.573342866208
 20
3417.380412632439
 30
0.0
 11
4119.87334286621
 21
3417.380412632439
 31
0.0
  0
LINE
  5
7CAE
330
8214
100
AcDbEntity
  8
1
100
AcDbLine
 10
4185.573342866208
 20
3267.380412632439
 30
0.0
 11
4119.873342866207
 21
3267.380412632439
 31
0.0
  0
LINE
  5
7CAF
330
8214
100
AcDbEntity
  8
1
100
AcDbLine
 10
4234.873342866207
 20
3417.380412632439
 30
0.0
 11
4234.873342866209
 21
3267.380412632439
 31
0.0
  0
LINE
  5
7CB0
330
8214
100
AcDbEntity
  8
1
100
AcDbLine
 10
4234.873342866209
 20
3267.380412632439
 30
0.0
 11
4185.573342866208
 21
3267.380412632439
 31
0.0
  0
LINE
  5
7CB1
330
8214
100
AcDbEntity
  8
1
100
AcDbLine
 10
4234.873342866209
 20
3417.380412632439
 30
0.0
 11
4185.573342866208
 21
3417.380412632439
 31
0.0
  0
LINE
  5
7CB2
330
8214
100
AcDbEntity
  8
1
100
AcDbLine
 10
4109.87334286621
 20
3407.38041263244
 30
0.0
 11
4109.873342866209
 21
3277.380412632439
 31
0.0
  0
ARC
  5
7CB3
330
8214
100
AcDbEntity
  8
1
100
AcDbCircle
 10
4119.873342866207
 20
3277.380412632439
 30
0.0
 40
10.0
100
AcDbArc
 50
179.9999999999992
 51
270.0
  0
ARC
  5
7CB4
330
8214
100
AcDbEntity
  8
1
100
AcDbCircle
 10
4119.873342866206
 20
3407.38041263244
 30
0.0
 40
10.0
100
AcDbArc
 50
90.0
 51
179.9999999999992
  0
POINT
  5
7CB5
330
8214
100
AcDbEntity
  8
1
100
AcDbPoint
 10
4109.873342866206
 20
3407.38041263244
 30
0.0
  0
LINE
  5
7CB6
330
8214
100
AcDbEntity
  8
1
100
AcDbLine
 10
4074.873342866209
 20
3482.080412632438
 30
0.0
 11
4252.873342866208
 21
3482.080412632439
 31
0.0
  0
LINE
  5
7CB7
330
8214
100
AcDbEntity
  8
1
100
AcDbLine
 10
4074.873342866209
 20
3417.080412632439
 30
0.0
 11
4117.442293709976
 21
3417.080412632439
 31
0.0
  0
LINE
  5
7CB8
330
8214
100
AcDbEntity
  8
1
100
AcDbLine
 10
4074.873342866209
 20
3482.080412632438
 30
0.0
 11
4074.873342866209
 21
3417.080412632439
 31
0.0
  0
LINE
  5
7CB9
330
8214
100
AcDbEntity
  8
1
100
AcDbLine
 10
4064.873342866209
 20
3479.580412632439
 30
0.0
 11
4074.87334286621
 21
3479.580412632439
 31
0.0
  0
LINE
  5
7CBA
330
8214
100
AcDbEntity
  8
1
100
AcDbLine
 10
4064.873342866209
 20
3419.580412632439
 30
0.0
 11
4074.87334286621
 21
3419.580412632439
 31
0.0
  0
LINE
  5
7CBE
330
8214
100
AcDbEntity
  8
1
100
AcDbLine
 10
3671.217145476919
 20
2339.580412632439
 30
0.0
 11
3671.217145476919
 21
2239.58041263244
 31
0.0
  0
LINE
  5
7CBF
330
8214
100
AcDbEntity
  8
1
100
AcDbLine
 10
3671.217145476919
 20
2134.580412632439
 30
0.0
 11
3671.217145476919
 21
2034.58041263244
 31
0.0
  0
POINT
  5
7CC0
330
8214
100
AcDbEntity
  8
1
100
AcDbPoint
 10
1621.217145476919
 20
2134.580412632439
 30
0.0
  0
POINT
  5
7CC1
330
8214
100
AcDbEntity
  8
1
100
AcDbPoint
 10
1621.217145476919
 20
2239.58041263244
 30
0.0
  0
POINT
  5
7CC2
330
8214
100
AcDbEntity
  8
1
100
AcDbPoint
 10
1621.217145476919
 20
2134.580412632439
 30
0.0
  0
LINE
  5
7CC6
330
8214
100
AcDbEntity
  8
1
100
AcDbLine
 10
3671.217145476919
 20
5154.269064037404
 30
0.0
 11
1621.217145476919
 21
5154.269064037402
 31
0.0
  0
LINE
  5
7CC7
330
8214
100
AcDbEntity
  8
1
100
AcDbLine
 10
2871.217145476919
 20
6659.269064037404
 30
0.0
 11
1621.217145476919
 21
6659.269064037402
 31
0.0
  0
LINE
  5
7CC8
330
8214
100
AcDbEntity
  8
1
100
AcDbLine
 10
1621.217145476919
 20
6659.269064037402
 30
0.0
 11
1621.217145476919
 21
5154.269064037402
 31
0.0
  0
LINE
  5
7CC9
330
8214
100
AcDbEntity
  8
1
100
AcDbLine
 10
3671.217145476919
 20
6004.269064037405
 30
0.0
 11
3671.217145476919
 21
5154.269064037404
 31
0.0
  0
LINE
  5
7CCA
330
8214
100
AcDbEntity
  8
1
100
AcDbLine
 10
2871.217145476919
 20
6659.269064037404
 30
0.0
 11
2871.217145476919
 21
6606.269064037404
 31
0.0
  0
LINE
  5
7CCB
330
8214
100
AcDbEntity
  8
1
100
AcDbLine
 10
3671.217145476919
 20
6004.269064037404
 30
0.0
 11
3114.217145476919
 21
6004.269064037404
 31
0.0
  0
LINE
  5
7CCC
330
8214
100
AcDbEntity
  8
2
100
AcDbLine
 10
3396.21714547692
 20
5898.304427725777
 30
0.0
 11
3396.21714547692
 21
4889.571182947095
 31
0.0
  0
DIMENSION
  5
7CCD
330
8214
100
AcDbEntity
  8
3
100
AcDbDimension
  2
*D8
 10
1621.217145476919
 20
6880.573001265123
 30
0.0
 11
2246.217145476919
 21
6880.573001265123
 31
0.0
 12
1150.184470972464
 22
2283.237464676163
 32
0.0
 70
   128
 71
     5
 42
-1.0
  3
Standard
100
AcDbAlignedDimension
 13
2871.217145476919
 23
6659.269064037404
 33
0.0
 14
1621.217145476919
 24
6659.269064037402
 34
0.0
100
AcDbRotatedDimension
1001
ACAD
1000
DSTYLE
1002
{
1070
    40
1040
30.0
1002
}
  0
DIMENSION
  5
7CCF
330
8214
100
AcDbEntity
  8
3
100
AcDbDimension
  2
*D10
 10
3893.265212977529
 20
5154.269064037404
 30
0.0
 11
3893.265212977529
 21
5579.269064037404
 31
0.0
 12
1150.184470972464
 22
2283.237464676163
 32
0.0
 70
   128
 71
     5
 42
-1.0
  3
Standard
100
AcDbAlignedDimension
 13
3671.217145476919
 23
6004.269064037405
 33
0.0
 14
3671.217145476919
 24
5154.269064037404
 34
0.0
 50
270.0
100
AcDbRotatedDimension
1001
ACAD
1000
DSTYLE
1002
{
1070
    40
1040
30.0
1002
}
  0
DIMENSION
  5
7CD0
330
8214
100
AcDbEntity
  8
3
100
AcDbDimension
  2
*D11
 10
1222.573007467985
 20
5154.269064037402
 30
0.0
 11
1162.573007467985
 21
5906.769064037402
 31
0.0
 12
1150.184470972464
 22
2283.237464676163
 32
0.0
 71
     5
 42
-1.0
  3
Standard
100
AcDbAlignedDimension
 13
1621.217145476919
 23
6659.269064037402
 33
0.0
 14
1621.217145476919
 24
5154.269064037402
 34
0.0
 50
270.0
100
AcDbRotatedDimension
1001
ACAD
1000
DSTYLE
1002
{
1070
    40
1040
30.0
1002
}
  0
DIMENSION
  5
7CD4
330
8214
100
AcDbEntity
  8
3
100
AcDbDimension
  2
*D15
 10
5502.87334286621
 20
4423.575164054367
 30
0.0
 11
4877.873342866209
 21
4483.575164054367
 31
0.0
 12
-6.231278207284049
 22
2821.520109796693
 32
0.0
 71
     5
 42
-1.0
  3
Standard
100
AcDbAlignedDimension
 13
4252.873342866208
 23
4143.894730286073
 33
0.0
 14
5502.87334286621
 24
4140.616178090616
 34
0.0
100
AcDbRotatedDimension
1001
ACAD
1000
DSTYLE
1002
{
1070
    40
1040
30.0
1002
}
  0
DIMENSION
  5
7CD5
330
8214
100
AcDbEntity
  8
3
100
AcDbDimension
  2
*D16
 10
5847.24156323752
 20
3979.580412632439
 30
0.0
 11
5787.241563237519
 21
3449.580412632439
 31
0.0
 12
-6.231278207284049
 22
2821.520109796693
 32
0.0
  1
\U+03C6<>
 71
     5
 42
-1.0
  3
Standard
100
AcDbAlignedDimension
 13
5508.373342866208
 23
2919.580412632439
 33
0.0
 14
5508.373342866208
 24
3979.580412632439
 34
0.0
 50
90.0
100
AcDbRotatedDimension
1001
ACAD
1000
DSTYLE
1002
{
1070
    40
1040
30.0
1002
}
  0
LINE
  5
7CD6
330
8214
100
AcDbEntity
  8
2
100
AcDbLine
 10
3788.349431696434
 20
2574.580412632438
 30
0.0
 11
4665.283410518069
 21
2574.580412632438
 31
0.0
  0
ARC
  5
7CD7
330
8214
100
AcDbEntity
  8
1
100
AcDbCircle
 10
2246.217145476921
 20
3449.580412632438
 30
0.0
 40
280.0
100
AcDbArc
 50
67.34404266857237
 51
252.9700165845115
  0
ARC
  5
7CD8
330
8214
100
AcDbEntity
  8
1
100
AcDbCircle
 10
3396.217145476919
 20
2574.580412632438
 30
0.0
 40
220.0
100
AcDbArc
 50
252.9700165845115
 51
67.34404266857237
  0
LINE
  5
7CD9
330
8214
100
AcDbEntity
  8
1
100
AcDbLine
 10
2354.072244707609
 20
3707.97406110302
 30
0.0
 11
3480.960437729604
 21
2777.60399357361
 31
0.0
  0
LINE
  5
7CDA
330
8214
100
AcDbEntity
  8
1
100
AcDbLine
 10
2164.212955276322
 20
3181.857957859695
 30
0.0
 11
3331.785281747877
 21
2364.227055310997
 31
0.0
  0
LINE
  5
7CDB
330
8214
100
AcDbEntity
  8
1
100
AcDbLine
 10
2308.663648733024
 20
3602.415108402364
 30
0.0
 11
3439.449340038838
 21
2680.389048165464
 31
0.0
  0
LINE
  5
7CDC
330
8214
100
AcDbEntity
  8
1
100
AcDbLine
 10
2196.676216155823
 20
3292.088488007709
 30
0.0
 11
3361.919579023852
 21
2465.547541738394
 31
0.0
  0
INSERT
  5
7CDD
330
8214
100
AcDbEntity
  8
0
100
AcDbBlockReference
  2
YA_N
 10
742.6405419924267
 20
-7350.772430041375
 30
0.0
  0
INSERT
  5
7CDF
330
8214
100
AcDbEntity
  8
0
100
AcDbBlockReference
  2
YA_N
 10
2.995684825677016
 20
-7626.802696743742
 30
0.0
 41
20.0
 42
20.0
 43
20.0
  0
INSERT
  5
7CE1
330
8214
100
AcDbEntity
  8
0
100
AcDbBlockReference
  2
YA_N
 10
699.9059132844049
 20
-7054.118742438055
 30
0.0
 41
20.0
 42
20.0
 43
20.0
  0
INSERT
  5
7CE3
330
8214
100
AcDbEntity
  8
0
100
AcDbBlockReference
  2
YA_N
 10
814.1254386385663
 20
-7130.460452277301
 30
0.0
 41
20.0
 42
20.0
 43
20.0
  0
ARC
  5
7CE5
330
8214
100
AcDbEntity
  8
1
100
AcDbCircle
 10
2246.217145476921
 20
3449.580412632438
 30
0.0
 40
599.0
100
AcDbArc
 50
180.0
 51
184.2124990779144
  0
CIRCLE
  5
7CE6
330
8214
100
AcDbEntity
  8
1
100
AcDbCircle
 10
2246.217145476921
 20
3449.580412632438
 30
0.0
 40
530.0
  0
CIRCLE
  5
7CE7
330
8214
100
AcDbEntity
  8
1
100
AcDbCircle
 10
2246.217145476921
 20
3449.580412632438
 30
0.0
 40
580.0
  0
LINE
  5
7CE8
330
8214
100
AcDbEntity
  8
1
100
AcDbLine
 10
5555.87334286621
 20
2134.580412632439
 30
0.0
 11
5555.87334286621
 21
2034.580412632439
 31
0.0
  0
LINE
  5
7CE9
330
8214
100
AcDbEntity
  8
1
100
AcDbLine
 10
4050.873342866208
 20
2134.580412632439
 30
0.0
 11
4050.873342866209
 21
2034.580412632439
 31
0.0
  0
LINE
  5
7CEA
330
8214
100
AcDbEntity
  8
1
100
AcDbLine
 10
3616.21714547692
 20
4921.269064037404
 30
0.0
 11
1966.217145476921
 21
4921.269064037402
 31
0.0
  0
LINE
  5
7CEB
330
8214
100
AcDbEntity
  8
1
100
AcDbLine
 10
3616.21714547692
 20
5241.269064037403
 30
0.0
 11
1966.217145476921
 21
5241.269064037402
 31
0.0
  0
LINE
  5
7CEC
330
8214
100
AcDbEntity
  8
1
100
AcDbLine
 10
1966.217145476921
 20
4921.269064037402
 30
0.0
 11
1966.217145476921
 21
5241.269064037402
 31
0.0
  0
LINE
  5
7CED
330
8214
100
AcDbEntity
  8
1
100
AcDbLine
 10
3616.21714547692
 20
4921.269064037404
 30
0.0
 11
3616.21714547692
 21
5241.269064037403
 31
0.0
  0
LINE
  5
7CEE
330
8214
100
AcDbEntity
  8
1
100
AcDbLine
 10
3510.517145476921
 20
5086.269064037404
 30
0.0
 11
3510.517145476921
 21
5196.269064037404
 31
0.0
  0
LINE
  5
7CEF
330
8214
100
AcDbEntity
  8
1
100
AcDbLine
 10
3281.917145476921
 20
5086.269064037402
 30
0.0
 11
3281.917145476921
 21
5196.269064037403
 31
0.0
  0
LINE
  5
7CF0
330
8214
100
AcDbEntity
  8
1
100
AcDbLine
 10
2081.117145476921
 20
5086.269064037402
 30
0.0
 11
2081.117145476921
 21
5196.269064037402
 31
0.0
  0
LINE
  5
7CF1
330
8214
100
AcDbEntity
  8
1
100
AcDbLine
 10
2411.317145476921
 20
5086.269064037402
 30
0.0
 11
2411.317145476921
 21
5196.269064037402
 31
0.0
  0
LINE
  5
7CF2
330
8214
100
AcDbEntity
  8
1
100
AcDbLine
 10
3510.517145476921
 20
5196.269064037404
 30
0.0
 11
3281.917145476921
 21
5196.269064037404
 31
0.0
  0
LINE
  5
7CF3
330
8214
100
AcDbEntity
  8
1
100
AcDbLine
 10
3510.517145476921
 20
5086.269064037404
 30
0.0
 11
3281.917145476921
 21
5086.269064037404
 31
0.0
  0
LINE
  5
7CF4
330
8214
100
AcDbEntity
  8
1
100
AcDbLine
 10
2411.317145476921
 20
5086.269064037402
 30
0.0
 11
2081.117145476921
 21
5086.269064037402
 31
0.0
  0
LINE
  5
7CF5
330
8214
100
AcDbEntity
  8
1
100
AcDbLine
 10
2411.317145476921
 20
5196.269064037402
 30
0.0
 11
2081.117145476921
 21
5196.269064037402
 31
0.0
  0
LINE
  5
7CF6
330
8214
100
AcDbEntity
  8
1
100
AcDbLine
 10
3213.71714547692
 20
5762.769064037405
 30
0.0
 11
3213.71714547692
 21
5201.269064037404
 31
0.0
  0
LINE
  5
7CF7
330
8214
100
AcDbEntity
  8
1
100
AcDbLine
 10
3578.71714547692
 20
5762.769064037405
 30
0.0
 11
3578.71714547692
 21
5201.269064037404
 31
0.0
  0
LINE
  5
7CF8
330
8214
100
AcDbEntity
  8
1
100
AcDbLine
 10
3578.71714547692
 20
5762.769064037404
 30
0.0
 11
3213.71714547692
 21
5762.769064037404
 31
0.0
  0
LINE
  5
7CF9
330
8214
100
AcDbEntity
  8
1
100
AcDbLine
 10
3578.71714547692
 20
5201.269064037404
 30
0.0
 11
3213.71714547692
 21
5201.269064037404
 31
0.0
  0
LINE
  5
7CFA
330
8214
100
AcDbEntity
  8
1
100
AcDbLine
 10
3372.21714547692
 20
5201.269064037404
 30
0.0
 11
3372.21714547692
 21
5196.269064037404
 31
0.0
  0
LINE
  5
7CFB
330
8214
100
AcDbEntity
  8
1
100
AcDbLine
 10
3420.21714547692
 20
5201.269064037404
 30
0.0
 11
3420.21714547692
 21
5196.269064037404
 31
0.0
  0
LINE
  5
7CFC
330
8214
100
AcDbEntity
  8
1
100
AcDbLine
 10
4631.37334286621
 20
2757.080412632439
 30
0.0
 11
4069.87334286621
 21
2757.080412632439
 31
0.0
  0
LINE
  5
7CFD
330
8214
100
AcDbEntity
  8
1
100
AcDbLine
 10
4631.37334286621
 20
2392.080412632439
 30
0.0
 11
4069.87334286621
 21
2392.080412632439
 31
0.0
  0
LINE
  5
7CFE
330
8214
100
AcDbEntity
  8
1
100
AcDbLine
 10
4069.87334286621
 20
2757.080412632439
 30
0.0
 11
4069.87334286621
 21
2392.080412632439
 31
0.0
  0
LINE
  5
7CFF
330
8214
100
AcDbEntity
  8
1
100
AcDbLine
 10
4069.87334286621
 20
2598.580412632439
 30
0.0
 11
4064.873342866209
 21
2598.580412632439
 31
0.0
  0
LINE
  5
7D00
330
8214
100
AcDbEntity
  8
1
100
AcDbLine
 10
4069.87334286621
 20
2550.580412632439
 30
0.0
 11
4064.873342866209
 21
2550.580412632439
 31
0.0
  0
DIMENSION
  5
7D01
330
8214
100
AcDbEntity
  8
3
100
AcDbDimension
  2
*D17
 10
3671.217145476919
 20
4554.871132702394
 30
0.0
 11
2618.71714547692
 21
4614.871132702393
 31
0.0
 12
1150.184470972464
 22
2821.520109796693
 32
0.0
 71
     5
 42
-1.0
  3
Standard
100
AcDbAlignedDimension
 13
1566.217145476919
 23
3425.459966484921
 33
0.0
 14
3671.217145476919
 24
2339.580412632437
 34
0.0
100
AcDbRotatedDimension
1001
ACAD
1000
DSTYLE
1002
{
1070
    40
1040
30.0
1002
}
  0
LINE
  5
7D02
330
8214
100
AcDbEntity
  8
1
100
AcDbLine
 10
1566.217145476919
 20
6656.269064037402
 30
0.0
 11
1566.217145476919
 21
5306.269064037402
 31
0.0
  0
LINE
  5
7D03
330
8214
100
AcDbEntity
  8
1
100
AcDbLine
 10
3114.217145476919
 20
6606.269064037404
 30
0.0
 11
3114.217145476919
 21
5356.269064037402
 31
0.0
  0
LINE
  5
7D04
330
8214
100
AcDbEntity
  8
1
100
AcDbLine
 10
3114.217145476919
 20
5356.269064037402
 30
0.0
 11
1566.217145476919
 21
5356.269064037402
 31
0.0
  0
LINE
  5
7D05
330
8214
100
AcDbEntity
  8
1
100
AcDbLine
 10
3114.217145476919
 20
6606.269064037404
 30
0.0
 11
1566.217145476919
 21
6606.269064037403
 31
0.0
  0
LINE
  5
7D06
330
8214
100
AcDbEntity
  8
1
100
AcDbLine
 10
1570.217145476919
 20
6656.269064037402
 30
0.0
 11
1566.217145476919
 21
6656.269064037402
 31
0.0
  0
LINE
  5
7D07
330
8214
100
AcDbEntity
  8
1
100
AcDbLine
 10
1570.217145476919
 20
5306.269064037402
 30
0.0
 11
1566.217145476919
 21
5306.269064037402
 31
0.0
  0
LINE
  5
7D08
330
8214
100
AcDbEntity
  8
1
100
AcDbLine
 10
1570.217145476919
 20
6656.269064037402
 30
0.0
 11
1570.217145476919
 21
5306.269064037402
 31
0.0
  0
LINE
  5
7D09
330
8214
100
AcDbEntity
  8
1
100
AcDbLine
 10
2213.717145476919
 20
5356.269064037403
 30
0.0
 11
2213.717145476919
 21
5196.269064037403
 31
0.0
  0
LINE
  5
7D0A
330
8214
100
AcDbEntity
  8
1
100
AcDbLine
 10
2278.717145476919
 20
5356.269064037403
 30
0.0
 11
2278.717145476919
 21
5196.269064037403
 31
0.0
  0
LINE
  5
7D0B
330
8214
100
AcDbEntity
  8
1
100
AcDbLine
 10
4234.873342866207
 20
3417.080412632439
 30
0.0
 11
4252.873342866208
 21
3417.080412632439
 31
0.0
  0
DIMENSION
  5
7D0C
330
8214
100
AcDbEntity
  8
3
100
AcDbDimension
  2
*D18
 10
3671.217145476919
 20
6880.573001265123
 30
0.0
 11
3271.217145476919
 21
6940.573001265121
 31
0.0
 12
1150.184470972464
 22
2283.237464676163
 32
0.0
 71
     5
 42
-1.0
  3
Standard
100
AcDbAlignedDimension
 13
2871.217145476919
 23
6659.269064037404
 33
0.0
 14
3671.217145476919
 24
6004.269064037404
 34
0.0
100
AcDbRotatedDimension
1001
ACAD
1000
DSTYLE
1002
{
1070
    40
1040
30.0
1002
}
  0
LINE
  5
7D13
330
8214
100
AcDbEntity
  8
1
100
AcDbLine
 10
4252.873342866208
 20
4169.580412632439
 30
0.0
 11
5502.87334286621
 21
4169.580412632439
 31
0.0
  0
LINE
  5
7D14
330
8214
100
AcDbEntity
  8
1
100
AcDbLine
 10
4539.951775067672
 20
2375.580412632439
 30
0.0
 11
5502.87334286621
 21
2375.580412632439
 31
0.0
  0
DIMENSION
  5
7D18
330
8214
100
AcDbEntity
  8
3
100
AcDbDimension
  2
*D19
 10
925.0456777180804
 20
3449.580412632438
 30
0.0
 11
865.0456777180805
 21
3809.580412632438
 31
0.0
 12
1150.184470972464
 22
2821.520109796693
 32
0.0
 71
     5
 42
-1.0
  3
Standard
100
AcDbAlignedDimension
 13
2320.217145476919
 23
4169.580412632439
 33
0.0
 14
1506.601162979292
 24
3449.580412632438
 34
0.0
 50
270.0
100
AcDbRotatedDimension
1001
ACAD
1000
DSTYLE
1002
{
1070
    40
1040
30.0
1002
}
  0
LINE
  5
7D1D
330
8214
100
AcDbEntity
  8
1
100
AcDbLine
 10
4631.37334286621
 20
2757.080412632439
 30
0.0
 11
4631.37334286621
 21
2392.080412632439
 31
0.0
  0
LINE
  5
7D1E
330
8214
100
AcDbEntity
  8
1
100
AcDbLine
 10
4539.951775067672
 20
2392.080412632439
 30
0.0
 11
4539.951775067672
 21
2339.580412632439
 31
0.0
  0
LINE
  5
7D1F
330
8214
100
AcDbEntity
  8
1
100
AcDbLine
 10
4157.797422810499
 20
2392.080412632439
 30
0.0
 11
4157.797422810498
 21
2339.580412632439
 31
0.0
  0
LINE
  5
7F63
330
8214
100
AcDbEntity
  8
4
100
AcDbLine
 10
5550.0
 20
1500.0
 30
0.0
 11
5550.0
 21
900.0
 31
0.0
  0
LINE
  5
7F64
330
8214
100
AcDbEntity
  8
4
100
AcDbLine
 10
3450.0
 20
1500.0
 30
0.0
 11
3450.0
 21
900.0
 31
0.0
  0
LINE
  5
7F65
330
8214
100
AcDbEntity
  8
4
100
AcDbLine
 10
1950.0
 20
1500.0
 30
0.0
 11
1950.0
 21
900.0
 31
0.0
  0
LINE
  5
7F68
330
8214
100
AcDbEntity
  8
4
100
AcDbLine
 10
1950.0
 20
900.0
 30
0.0
 11
5550.0
 21
900.0
 31
0.0
  0
LINE
  5
7F69
330
8214
100
AcDbEntity
  8
4
100
AcDbLine
 10
1950.0
 20
1200.0
 30
0.0
 11
5550.0
 21
1200.0
 31
0.0
  0
TEXT
  5
7F6A
330
8214
100
AcDbEntity
  8
4
100
AcDbText
 10
2065.506242540704
 20
1294.629077599838
 30
0.0
 40
150.0
  1
機器名称
100
AcDbText
  0
TEXT
  5
7F6B
330
8214
100
AcDbEntity
  8
4
100
AcDbText
 10
2058.774318074392
 20
964.9354701960326
 30
0.0
 40
150.0
  1
機器型番
100
AcDbText
  0
TEXT
  5
7F6C
330
8214
100
AcDbEntity
  8
4
100
AcDbText
 10
3533.036236462995
 20
1267.715306872705
 30
0.0
 40
150.0
  1
ミツヤ多翼送風機
100
AcDbText
  0
TEXT
  5
7F6D
330
8214
100
AcDbEntity
  8
4
100
AcDbText
 10
3559.963486756442
 20
951.4787528398301
 30
0.0
 40
150.0
  1
MF#6-5
100
AcDbText
  0
TEXT
  5
7F6F
330
8214
100
AcDbEntity
  8
4
100
AcDbText
 10
2397.53107104676
 20
7150.286523997547
 30
0.0
 40
161.9999999999998
  1
床置防振ベット
100
AcDbText
  0
TEXT
  5
7F70
330
8214
100
AcDbEntity
  8
4
100
AcDbText
 10
948.5027799883393
 20
7601.642928597894
 30
0.0
 40
216.0
  1
遠心式両吸込両持多翼ファン
100
AcDbText
  0
LINE
  5
7F71
330
8214
100
AcDbEntity
  8
4
100
AcDbLine
 10
750.0
 20
7408.226262794413
 30
0.0
 11
5550.0
 21
7408.226262794413
 31
0.0
  0
LINE
  5
7F72
330
8214
100
AcDbEntity
  8
4
100
AcDbLine
 10
750.0
 20
8008.226262794414
 30
0.0
 11
5550.0
 21
8008.226262794414
 31
0.0
  0
LINE
  5
7F73
330
8214
100
AcDbEntity
  8
4
100
AcDbLine
 10
1950.0
 20
1500.0
 30
0.0
 11
5550.0
 21
1500.0
 31
0.0
  0
LINE
  5
7F74
330
8214
100
AcDbEntity
  8
4
100
AcDbLine
 10
750.0
 20
8008.226262794414
 30
0.0
 11
750.0
 21
7408.226262794413
 31
0.0
  0
TEXT
  5
7F75
330
8214
100
AcDbEntity
  8
4
100
AcDbText
 10
1089.954574318652
 20
7146.958432639029
 30
0.0
 40
161.9999999999998
  1
右回転左横向
100
AcDbText
  0
TEXT
  5
7F76
330
8214
100
AcDbEntity
  8
4
100
AcDbText
 10
4406.908677747869
 20
8118.183244485924
 30
0.0
 40
168.0
  1
No.
100
AcDbText
  0
TEXT
  5
7F77
330
8214
100
AcDbEntity
  8
4
100
AcDbText
 10
3933.888187800039
 20
7150.286523997547
 30
0.0
 40
161.9999999999998
  1
縮尺：1/30
100
AcDbText
  0
LINE
  5
7F78
330
8214
100
AcDbEntity
  8
4
100
AcDbLine
 10
5550.0
 20
8008.226262794414
 30
0.0
 11
5550.0
 21
7408.226262794413
 31
0.0
  0
LINE
  5
7F79
330
8214
100
AcDbEntity
  8
4
100
AcDbLine
 10
6300.0
 20
8850.0
 30
0.0
 11
6300.0
 21
8850.0
 31
0.0
  0
LINE
  5
7F7A
330
8214
100
AcDbEntity
  8
4
100
AcDbLine
 10
4321.852267079594
 20
8043.790749376205
 30
0.0
 11
4321.852267079594
 21
8359.956784649257
 31
0.0
  0
LINE
  5
7F7B
330
8214
100
AcDbEntity
  8
4
100
AcDbLine
 10
4321.852267079594
 20
8359.956784649257
 30
0.0
 11
5550.0
 21
8359.956784649257
 31
0.0
  0
LINE
  5
7F7C
330
8214
100
AcDbEntity
  8
4
100
AcDbLine
 10
5550.0
 20
8359.956784649257
 30
0.0
 11
5550.0
 21
8043.790749376205
 31
0.0
  0
LINE
  5
7F7D
330
8214
100
AcDbEntity
  8
4
100
AcDbLine
 10
5550.0
 20
8043.790749376205
 30
0.0
 11
4321.852267079594
 21
8043.790749376205
 31
0.0
  0
LINE
  5
7F7E
330
8214
100
AcDbEntity
  8
4
100
AcDbLine
 10
0.0
 20
0.0
 30
0.0
 11
0.0
 21
8850.0
 31
0.0
  0
LINE
  5
7F7F
330
8214
100
AcDbEntity
  8
4
100
AcDbLine
 10
0.0
 20
8850.0
 30
0.0
 11
6300.0
 21
8850.0
 31
0.0
  0
LINE
  5
7F80
330
8214
100
AcDbEntity
  8
4
100
AcDbLine
 10
6300.0
 20
8850.0
 30
0.0
 11
6300.0
 21
0.0
 31
0.0
  0
LINE
  5
7F81
330
8214
100
AcDbEntity
  8
4
100
AcDbLine
 10
6300.0
 20
0.0
 30
0.0
 11
0.0
 21
0.0
 31
0.0
  0
DIMENSION
  5
82E1
330
8214
100
AcDbEntity
  8
3
100
AcDbDimension
  2
*D40
 10
4877.873342866209
 20
4623.103047100913
 30
0.0
 11
4347.873342866207
 21
4721.674475672342
 31
0.0
 70
    32
 71
     5
 42
1060.000000000004
  3
IGA
100
AcDbAlignedDimension
 13
3817.873342866204
 23
3729.580412632439
 33
0.0
 14
4877.873342866209
 24
4528.575164054368
 34
0.0
100
AcDbRotatedDimension
1001
ACAD
1000
DSTYLE
1002
{
1070
     3
1000
(<>)
1070
    40
1040
30.0
1070
    42
1040
1.0
1070
   143
1040
0.039
1070
   172
1070
     1
1070
   271
1070
     4
1070
   272
1070
     4
1070
   279
1070
     0
1070
   284
1070
     0
1070
   285
1070
     0
1070
   286
1070
     0
1070
   341
1005
8228
1070
   343
1005
8228
1070
   344
1005
8228
1002
}
  0
DIMENSION
  5
82EE
330
8214
100
AcDbEntity
  8
3
100
AcDbDimension
  2
*D41
 10
5657.87334286621
 20
4623.103047100913
 30
0.0
 11
5267.873342866209
 21
4721.674475672342
 31
0.0
 70
    32
 71
     5
 42
780.0000000000009
  3
IGA
100
AcDbAlignedDimension
 13
4877.873342866209
 23
4528.575164054368
 33
0.0
 14
5657.87334286621
 24
3413.780412632439
 34
0.0
100
AcDbRotatedDimension
1001
ACAD
1000
DSTYLE
1002
{
1070
     3
1000
(<>)
1070
    40
1040
30.0
1070
    42
1040
1.0
1070
   143
1040
0.039
1070
   172
1070
     1
1070
   271
1070
     4
1070
   272
1070
     4
1070
   279
1070
     1
1070
   284
1070
     0
1070
   285
1070
     0
1070
   286
1070
     0
1070
   341
1005
8228
1070
   343
1005
8228
1070
   344
1005
8228
1002
}
  0
DIMENSION
  5
8310
330
8214
100
AcDbEntity
  8
3
100
AcDbDimension
  2
*D42
 10
4877.873342866208
 20
1833.819914238813
 30
0.0
 11
4464.373342866209
 21
1908.819914238813
 31
0.0
 70
    32
 71
     5
 42
826.999999999999
  3
IGA
100
AcDbAlignedDimension
 13
4050.873342866209
 23
2034.580412632439
 33
0.0
 14
4877.873342866208
 24
2034.580412632439
 34
0.0
100
AcDbRotatedDimension
1001
ACAD
1000
DSTYLE
1002
{
1070
    40
1040
30.0
1070
    42
1040
1.0
1070
   143
1040
0.039
1070
   172
1070
     1
1070
   271
1070
     4
1070
   272
1070
     4
1070
   279
1070
     0
1070
   284
1070
     0
1070
   285
1070
     0
1070
   286
1070
     0
1070
   341
1005
8228
1070
   343
1005
8228
1070
   344
1005
8228
1002
}
  0
DIMENSION
  5
831D
330
8214
100
AcDbEntity
  8
3
100
AcDbDimension
  2
*D43
 10
5555.87334286621
 20
1833.819914238813
 30
0.0
 11
5216.873342866209
 21
1908.819914238813
 31
0.0
 70
    32
 71
     5
 42
678.0000000000018
  3
IGA
100
AcDbAlignedDimension
 13
4877.873342866208
 23
2034.580412632439
 33
0.0
 14
5555.87334286621
 24
2034.580412632439
 34
0.0
100
AcDbRotatedDimension
1001
ACAD
1000
DSTYLE
1002
{
1070
    40
1040
30.0
1070
    42
1040
1.0
1070
   143
1040
0.039
1070
   172
1070
     1
1070
   271
1070
     4
1070
   272
1070
     4
1070
   279
1070
     1
1070
   284
1070
     0
1070
   285
1070
     0
1070
   286
1070
     0
1070
   341
1005
8228
1070
   343
1005
8228
1070
   344
1005
8228
1002
}
  0
DIMENSION
  5
832A
330
8214
100
AcDbEntity
  8
3
100
AcDbDimension
  2
*D44
 10
2246.21714547692
 20
1833.819914238813
 30
0.0
 11
1933.717145476919
 21
1908.819914238813
 31
0.0
 70
    32
 71
     5
 42
625.0000000000007
  3
IGA
100
AcDbAlignedDimension
 13
1621.217145476919
 23
2034.58041263244
 33
0.0
 14
2246.21714547692
 24
2034.58041263244
 34
0.0
100
AcDbRotatedDimension
1001
ACAD
1000
DSTYLE
1002
{
1070
    40
1040
30.0
1070
    42
1040
1.0
1070
   143
1040
0.039
1070
   172
1070
     1
1070
   271
1070
     4
1070
   272
1070
     4
1070
   279
1070
     0
1070
   284
1070
     0
1070
   285
1070
     0
1070
   286
1070
     0
1070
   341
1005
8228
1070
   343
1005
8228
1070
   344
1005
8228
1002
}
  0
DIMENSION
  5
8337
330
8214
100
AcDbEntity
  8
3
100
AcDbDimension
  2
*D45
 10
3671.217145476919
 20
1833.819914238813
 30
0.0
 11
2958.717145476919
 21
1908.819914238813
 31
0.0
 70
    32
 71
     5
 42
1424.999999999999
  3
IGA
100
AcDbAlignedDimension
 13
2246.21714547692
 23
2034.58041263244
 33
0.0
 14
3671.217145476919
 24
2034.58041263244
 34
0.0
100
AcDbRotatedDimension
1001
ACAD
1000
DSTYLE
1002
{
1070
    40
1040
30.0
1070
    42
1040
1.0
1070
   143
1040
0.039
1070
   172
1070
     1
1070
   271
1070
     4
1070
   272
1070
     4
1070
   279
1070
     1
1070
   284
1070
     0
1070
   285
1070
     0
1070
   286
1070
     0
1070
   341
1005
8228
1070
   343
1005
8228
1070
   344
1005
8228
1002
}
  0
DIMENSION
  5
8344
330
8214
100
AcDbEntity
  8
3
100
AcDbDimension
  2
*D46
 10
925.0456777180799
 20
2239.58041263244
 30
0.0
 11
850.0456777180797
 21
2844.580412632439
 31
0.0
 70
    32
 71
     5
 42
1209.999999999998
  3
IGA
100
AcDbAlignedDimension
 13
1506.601162979292
 23
3449.580412632438
 33
0.0
 14
1621.217145476919
 24
2239.58041263244
 34
0.0
 50
90.0
100
AcDbRotatedDimension
1001
ACAD
1000
DSTYLE
1002
{
1070
    40
1040
30.0
1070
    42
1040
1.0
1070
   143
1040
0.039
1070
   172
1070
     1
1070
   271
1070
     4
1070
   272
1070
     4
1070
   279
1070
     0
1070
   284
1070
     0
1070
   285
1070
     0
1070
   286
1070
     0
1070
   341
1005
8228
1070
   343
1005
8228
1070
   344
1005
8228
1002
}
  0
DIMENSION
  5
8351
330
8214
100
AcDbEntity
  8
3
100
AcDbDimension
  2
*D47
 10
925.0456777180799
 20
2134.58041263244
 30
0.0
 11
925.0456777180799
 21
2239.58041263244
 31
0.0
 70
   160
  1
(<>)
 71
     5
 42
105.0
  3
IGA
100
AcDbAlignedDimension
 13
1621.217145476919
 23
2239.58041263244
 33
0.0
 14
1621.217145476919
 24
2134.580412632439
 34
0.0
 50
90.0
100
AcDbRotatedDimension
1001
ACAD
1000
DSTYLE
1002
{
1070
    40
1040
30.0
1070
    42
1040
1.0
1070
   143
1040
0.039
1070
   172
1070
     1
1070
   271
1070
     4
1070
   272
1070
     4
1070
   279
1070
     1
1070
   284
1070
     0
1070
   285
1070
     0
1070
   286
1070
     0
1070
   341
1005
8228
1070
   343
1005
8228
1070
   344
1005
83FC
1002
}
  0
DIMENSION
  5
8363
330
8214
100
AcDbEntity
  8
3
100
AcDbDimension
  2
*D48
 10
925.0456777180799
 20
2034.58041263244
 30
0.0
 11
924.9533700970351
 21
1887.785364257674
 31
0.0
 70
   160
 71
     5
 42
99.99999999999978
  3
IGA
100
AcDbAlignedDimension
 13
1621.217145476919
 23
2134.580412632439
 33
0.0
 14
1621.217145476919
 24
2034.58041263244
 34
0.0
 50
90.0
100
AcDbRotatedDimension
1001
ACAD
1000
DSTYLE
1002
{
1070
    40
1040
30.0
1070
    42
1040
1.0
1070
   143
1040
0.039
1070
   172
1070
     1
1070
   271
1070
     4
1070
   272
1070
     4
1070
   279
1070
     1
1070
   284
1070
     0
1070
   285
1070
     0
1070
   286
1070
     0
1070
   341
1005
8228
1070
   343
1005
83FC
1070
   344
1005
8228
1002
}
  0
DIMENSION
  5
84A4
330
8214
100
AcDbEntity
  8
3
100
AcDbDimension
  2
*D50
 10
693.9744979598183
 20
4169.580412632439
 30
0.0
 11
595.4030693883891
 21
3102.08041263244
 31
0.0
 70
    32
  1
(<>)
 71
     5
 42
2134.999999999999
  3
IGA
100
AcDbAlignedDimension
 13
1621.217145476919
 23
2034.58041263244
 33
0.0
 14
2320.217145476919
 24
4169.580412632438
 34
0.0
 50
90.0
100
AcDbRotatedDimension
1001
ACAD
1000
DSTYLE
1002
{
1070
    40
1040
30.0
1070
    42
1040
1.0
1070
   143
1040
0.039
1070
   172
1070
     1
1070
   271
1070
     4
1070
   272
1070
     4
1070
   279
1070
     0
1070
   284
1070
     0
1070
   285
1070
     0
1070
   286
1070
     0
1070
   341
1005
8228
1070
   343
1005
8228
1070
   344
1005
8228
1002
}
  0
DIMENSION
  5
84C3
330
8214
100
AcDbEntity
  8
3
100
AcDbDimension
  2
*D51
 10
3671.217145476919
 20
4732.457154333325
 30
0.0
 11
2646.217145476919
 21
4807.457154333326
 31
0.0
 70
    32
 71
     5
 42
2050.0
  3
IGA
100
AcDbAlignedDimension
 13
1621.217145476919
 23
5154.269064037402
 33
0.0
 14
3671.217145476919
 24
5154.269064037404
 34
0.0
100
AcDbRotatedDimension
1001
ACAD
1000
DSTYLE
1002
{
1070
    40
1040
30.0
1070
    42
1040
1.0
1070
   143
1040
0.039
1070
   172
1070
     1
1070
   271
1070
     4
1070
   272
1070
     4
1070
   279
1070
     0
1070
   284
1070
     0
1070
   285
1070
     0
1070
   286
1070
     0
1070
   341
1005
8228
1070
   343
1005
8228
1070
   344
1005
8228
1002
}
  0
ENDSEC
  0
SECTION
  2
OBJECTS
  0
DICTIONARY
  5
81B1
330
0
100
AcDbDictionary
281
     1
  3
ACAD_CIP_PREVIOUS_PRODUCT_INFO
350
8260
  3
ACAD_COLOR
350
8207
  3
ACAD_DETAILVIEWSTYLE
350
820E
  3
ACAD_GROUP
350
81B2
  3
ACAD_LAYOUT
350
8206
  3
ACAD_MATERIAL
350
81B5
  3
ACAD_MLEADERSTYLE
350
820A
  3
ACAD_MLINESTYLE
350
8203
  3
ACAD_PLOTSETTINGS
350
8205
  3
ACAD_PLOTSTYLENAME
350
81B3
  3
ACAD_SCALELIST
350
81E7
  3
ACAD_SECTIONVIEWSTYLE
350
820C
  3
ACAD_TABLESTYLE
350
8208
  3
ACAD_VISUALSTYLE
350
81CE
  3
ACDB_RECOMPOSE_DATA
350
84E7
  3
AcDbVariableDictionary
350
84DA
  3
DWGPROPS
350
84E8
  0
DICTIONARY
  5
84D0
330
81F9
100
AcDbDictionary
280
     1
281
     1
  3
ADSK_XREC_LAYER_RECONCILED
360
84D1
  0
DICTIONARY
  5
84D2
330
8218
100
AcDbDictionary
280
     1
281
     1
  3
ADSK_XREC_LAYER_RECONCILED
360
84D3
  0
DICTIONARY
  5
84D4
330
821B
100
AcDbDictionary
280
     1
281
     1
  3
ADSK_XREC_LAYER_RECONCILED
360
84D5
  0
DICTIONARY
  5
84D6
330
821C
100
AcDbDictionary
280
     1
281
     1
  3
ADSK_XREC_LAYER_RECONCILED
360
84D7
  0
DICTIONARY
  5
84D8
330
821D
100
AcDbDictionary
280
     1
281
     1
  3
ADSK_XREC_LAYER_RECONCILED
360
84D9
  0
XRECORD
  5
8260
102
{ACAD_REACTORS
330
81B1
102
}
330
81B1
100
AcDbXrecord
280
     1
300
ACDLT
300
2015
300
INVLTS_F_S
  0
DICTIONARY
  5
8207
102
{ACAD_REACTORS
330
81B1
102
}
330
81B1
100
AcDbDictionary
281
     1
  0
DICTIONARY
  5
820E
102
{ACAD_REACTORS
330
81B1
102
}
330
81B1
100
AcDbDictionary
281
     1
  3
Imperial24
350
820F
  0
DICTIONARY
  5
81B2
102
{ACAD_REACTORS
330
81B1
102
}
330
81B1
100
AcDbDictionary
281
     1
  0
DICTIONARY
  5
8206
102
{ACAD_REACTORS
330
81B1
102
}
330
81B1
100
AcDbDictionary
281
     1
  3
Model
350
8217
  3
レイアウト1
350
8213
  0
DICTIONARY
  5
81B5
102
{ACAD_REACTORS
330
81B1
102
}
330
81B1
100
AcDbDictionary
281
     1
  3
ByBlock
350
81BE
  3
ByLayer
350
81B6
  3
Global
350
81C6
  0
DICTIONARY
  5
820A
102
{ACAD_REACTORS
330
81B1
102
}
330
81B1
100
AcDbDictionary
281
     1
  3
Standard
350
820B
  0
DICTIONARY
  5
8203
102
{ACAD_REACTORS
330
81B1
102
}
330
81B1
100
AcDbDictionary
281
     1
  3
Standard
350
8204
  0
DICTIONARY
  5
8205
102
{ACAD_REACTORS
330
81B1
102
}
330
81B1
100
AcDbDictionary
281
     1
  0
ACDBDICTIONARYWDFLT
  5
81B3
102
{ACAD_REACTORS
330
81B1
102
}
330
81B1
100
AcDbDictionary
281
     1
  3
Normal
350
81B4
100
AcDbDictionaryWithDefault
340
81B4
  0
DICTIONARY
  5
81E7
102
{ACAD_REACTORS
330
81B1
102
}
330
81B1
100
AcDbDictionary
281
     1
  3
A0
350
81E8
  3
A1
350
81E9
  3
A2
350
81EA
  3
A3
350
81EB
  3
A4
350
81EC
  3
A5
350
81ED
  3
A6
350
81EE
  3
A7
350
81EF
  3
A8
350
81F0
  3
A9
350
81F1
  3
B0
350
81F2
  3
B1
350
81F3
  3
B2
350
81F4
  3
B3
350
81F5
  3
B4
350
81F6
  3
B5
350
81F7
  3
B6
350
81F8
  0
DICTIONARY
  5
820C
102
{ACAD_REACTORS
330
81B1
102
}
330
81B1
100
AcDbDictionary
281
     1
  3
Imperial24
350
820D
  0
DICTIONARY
  5
8208
102
{ACAD_REACTORS
330
81B1
102
}
330
81B1
100
AcDbDictionary
281
     1
  3
Standard
350
8209
  0
DICTIONARY
  5
81CE
102
{ACAD_REACTORS
330
81B1
102
}
330
81B1
100
AcDbDictionary
281
     1
  3
2dWireframe
350
81D4
  3
Basic
350
81D3
  3
Brighten
350
81DA
  3
ColorChange
350
81DE
  3
Conceptual
350
81D7
  3
Dim
350
81D9
  3
EdgeColorOff
350
81E6
  3
Facepattern
350
81DD
  3
Flat
350
81CF
  3
FlatWithEdges
350
81D0
  3
Gouraud
350
81D1
  3
GouraudWithEdges
350
81D2
  3
Hidden
350
81D6
  3
JitterOff
350
81E4
  3
Linepattern
350
81DC
  3
OverhangOff
350
81E5
  3
Realistic
350
81D8
  3
Shaded
350
81E3
  3
Shaded with edges
350
81E2
  3
Shades of Gray
350
81DF
  3
Sketchy
350
81E0
  3
Thicken
350
81DB
  3
Wireframe
350
81D5
  3
X-Ray
350
81E1
  0
XRECORD
  5
84E7
102
{ACAD_REACTORS
330
81B1
102
}
330
81B1
100
AcDbXrecord
280
     1
 90
        1
330
8209
  0
DICTIONARY
  5
84DA
102
{ACAD_REACTORS
330
81B1
102
}
330
81B1
100
AcDbDictionary
281
     1
  3
CANNOSCALE
350
84DF
  3
CMLEADERSTYLE
350
84DC
  3
CTABLESTYLE
350
84DB
  3
CVIEWDETAILSTYLE
350
84DD
  3
CVIEWSECTIONSTYLE
350
84DE
  3
DIMASSOC
350
84E2
  3
INDEXCTL
350
84E1
  3
SORTENTS
350
84E0
  3
XCLIPFRAME
350
84E3
  0
XRECORD
  5
84E8
102
{ACAD_REACTORS
330
81B1
102
}
330
81B1
100
AcDbXrecord
280
     1
  1
DWGPROPS COOKIE
  2

  3

  4

  6

  7

  8
yasukiyo.ogawa
  9

300
=
301
=
302
=
303
=
304
=
305
=
306
=
307
=
308
=
309
=
 40
0.0343957060185185
 41
2451389.563479514
 42
2460271.763173449
  1

 90
        0
  0
XRECORD
  5
84D1
102
{ACAD_REACTORS
330
84D0
102
}
330
84D0
100
AcDbXrecord
280
     1
290
     1
  0
XRECORD
  5
84D3
102
{ACAD_REACTORS
330
84D2
102
}
330
84D2
100
AcDbXrecord
280
     1
290
     1
  0
XRECORD
  5
84D5
102
{ACAD_REACTORS
330
84D4
102
}
330
84D4
100
AcDbXrecord
280
     1
290
     1
  0
XRECORD
  5
84D7
102
{ACAD_REACTORS
330
84D6
102
}
330
84D6
100
AcDbXrecord
280
     1
290
     1
  0
XRECORD
  5
84D9
102
{ACAD_REACTORS
330
84D8
102
}
330
84D8
100
AcDbXrecord
280
     1
290
     1
  0
ACDBDETAILVIEWSTYLE
  5
820F
102
{ACAD_XDICTIONARY
360
8520
102
}
102
{ACAD_REACTORS
330
820E
102
}
330
820E
100
AcDbModelDocViewStyle
 70
     0
  3
Imperial24
290
     0
100
AcDbDetailViewStyle
 70
     0
 71
     0
 90
        3
 71
     1
340
81FA
 40
0.24
340
0
 40
0.24
300

 40
0.36
280
     3
 71
     2
340
8201
 90
       25
 71
     3
340
81FA
 40
0.24
 90
        1
 40
0.75
 90
        1
300
%<\AcVar ViewType \f "%tc1">% %<\AcVar ViewDetailId>%\PSCALE %<\AcVar ViewScale \f "%sn">%
 71
     4
340
8201
 90
       25
340
8201
 90
       25
280
     0
  0
LAYOUT
  5
8217
102
{ACAD_XDICTIONARY
360
8524
102
}
102
{ACAD_REACTORS
330
8206
102
}
330
8206
100
AcDbPlotSettings
  1

  2
RICOH imagio MP W3600 RPCS
  4

  6

 40
0.0
 41
0.0
 42
0.0
 43
0.0
 44
0.0
 45
0.0
 46
0.0
 47
0.0
 48
0.0
 49
0.0
140
0.0
141
0.0
142
1.0
143
1.0
 70
  1712
 72
     0
 73
     0
 74
     0
  7

 75
     0
147
1.0
148
0.0
149
0.0
100
AcDbLayout
  1
Model
 70
     1
 71
     0
 10
0.0
 20
0.0
 11
12.0
 21
9.0
 12
0.0
 22
0.0
 32
0.0
 14
0.0
 24
0.0
 34
0.0
 15
0.0
 25
0.0
 35
0.0
146
0.0
 13
0.0
 23
0.0
 33
0.0
 16
1.0
 26
0.0
 36
0.0
 17
0.0
 27
1.0
 37
0.0
 76
     0
330
8214
331
8219
  0
LAYOUT
  5
8213
102
{ACAD_XDICTIONARY
360
8522
102
}
102
{ACAD_REACTORS
330
8206
102
}
330
8206
100
AcDbPlotSettings
  1

  2
RICOH imagio MP W3600 RPCS
  4

  6

 40
0.0
 41
0.0
 42
0.0
 43
0.0
 44
0.0
 45
0.0
 46
0.0
 47
0.0
 48
0.0
 49
0.0
140
0.0
141
0.0
142
1.0
143
1.0
 70
   688
 72
     0
 73
     0
 74
     5
  7

 75
    16
147
1.0
148
0.0
149
0.0
100
AcDbLayout
  1
レイアウト1
 70
     1
 71
     1
 10
0.0
 20
0.0
 11
12.0
 21
9.0
 12
0.0
 22
0.0
 32
0.0
 14
1.000000000000000E+20
 24
1.000000000000000E+20
 34
1.000000000000000E+20
 15
-1.000000000000000E+20
 25
-1.000000000000000E+20
 35
-1.000000000000000E+20
146
0.0
 13
0.0
 23
0.0
 33
0.0
 16
1.0
 26
0.0
 36
0.0
 17
0.0
 27
1.0
 37
0.0
 76
     0
330
8210
  0
MATERIAL
  5
81BE
102
{ACAD_XDICTIONARY
360
81BF
102
}
102
{ACAD_REACTORS
330
81B5
102
}
330
81B5
100
AcDbMaterial
  1
ByBlock
 72
     0
 43
0.0208333333333333
 43
0.0
 43
0.0
 43
0.0
 43
0.0
 43
0.0208333333333333
 43
0.0
 43
0.0
 43
0.0
 43
0.0
 43
1.0
 43
0.0
 43
0.0
 43
0.0
 43
0.0
 43
1.0
 77
     0
 47
0.0208333333333333
 47
0.0
 47
0.0
 47
0.0
 47
0.0
 47
0.0208333333333333
 47
0.0
 47
0.0
 47
0.0
 47
0.0
 47
1.0
 47
0.0
 47
0.0
 47
0.0
 47
0.0
 47
1.0
171
     0
 49
0.0208333333333333
 49
0.0
 49
0.0
 49
0.0
 49
0.0
 49
0.0208333333333333
 49
0.0
 49
0.0
 49
0.0
 49
0.0
 49
1.0
 49
0.0
 49
0.0
 49
0.0
 49
0.0
 49
1.0
175
     0
142
0.0208333333333333
142
0.0
142
0.0
142
0.0
142
0.0
142
0.0208333333333333
142
0.0
142
0.0
142
0.0
142
0.0
142
1.0
142
0.0
142
0.0
142
0.0
142
0.0
142
1.0
179
     0
144
0.0208333333333333
144
0.0
144
0.0
144
0.0
144
0.0
144
0.0208333333333333
144
0.0
144
0.0
144
0.0
144
0.0
144
1.0
144
0.0
144
0.0
144
0.0
144
0.0
144
1.0
147
0.0208333333333333
147
0.0
147
0.0
147
0.0
147
0.0
147
0.0208333333333333
147
0.0
147
0.0
147
0.0
147
0.0
147
1.0
147
0.0
147
0.0
147
0.0
147
0.0
147
1.0
  0
MATERIAL
  5
81B6
102
{ACAD_XDICTIONARY
360
81B7
102
}
102
{ACAD_REACTORS
330
81B5
102
}
330
81B5
100
AcDbMaterial
  1
ByLayer
 72
     0
 43
0.0208333333333333
 43
0.0
 43
0.0
 43
0.0
 43
0.0
 43
0.0208333333333333
 43
0.0
 43
0.0
 43
0.0
 43
0.0
 43
1.0
 43
0.0
 43
0.0
 43
0.0
 43
0.0
 43
1.0
 77
     0
 47
0.0208333333333333
 47
0.0
 47
0.0
 47
0.0
 47
0.0
 47
0.0208333333333333
 47
0.0
 47
0.0
 47
0.0
 47
0.0
 47
1.0
 47
0.0
 47
0.0
 47
0.0
 47
0.0
 47
1.0
171
     0
 49
0.0208333333333333
 49
0.0
 49
0.0
 49
0.0
 49
0.0
 49
0.0208333333333333
 49
0.0
 49
0.0
 49
0.0
 49
0.0
 49
1.0
 49
0.0
 49
0.0
 49
0.0
 49
0.0
 49
1.0
175
     0
142
0.0208333333333333
142
0.0
142
0.0
142
0.0
142
0.0
142
0.0208333333333333
142
0.0
142
0.0
142
0.0
142
0.0
142
1.0
142
0.0
142
0.0
142
0.0
142
0.0
142
1.0
179
     0
144
0.0208333333333333
144
0.0
144
0.0
144
0.0
144
0.0
144
0.0208333333333333
144
0.0
144
0.0
144
0.0
144
0.0
144
1.0
144
0.0
144
0.0
144
0.0
144
0.0
144
1.0
147
0.0208333333333333
147
0.0
147
0.0
147
0.0
147
0.0
147
0.0208333333333333
147
0.0
147
0.0
147
0.0
147
0.0
147
1.0
147
0.0
147
0.0
147
0.0
147
0.0
147
1.0
  0
MATERIAL
  5
81C6
102
{ACAD_XDICTIONARY
360
81C7
102
}
102
{ACAD_REACTORS
330
81B5
102
}
330
81B5
100
AcDbMaterial
  1
Global
 72
     0
 43
0.0208333333333333
 43
0.0
 43
0.0
 43
0.0
 43
0.0
 43
0.0208333333333333
 43
0.0
 43
0.0
 43
0.0
 43
0.0
 43
1.0
 43
0.0
 43
0.0
 43
0.0
 43
0.0
 43
1.0
 77
     0
 47
0.0208333333333333
 47
0.0
 47
0.0
 47
0.0
 47
0.0
 47
0.0208333333333333
 47
0.0
 47
0.0
 47
0.0
 47
0.0
 47
1.0
 47
0.0
 47
0.0
 47
0.0
 47
0.0
 47
1.0
171
     0
 49
0.0208333333333333
 49
0.0
 49
0.0
 49
0.0
 49
0.0
 49
0.0208333333333333
 49
0.0
 49
0.0
 49
0.0
 49
0.0
 49
1.0
 49
0.0
 49
0.0
 49
0.0
 49
0.0
 49
1.0
175
     0
142
0.0208333333333333
142
0.0
142
0.0
142
0.0
142
0.0
142
0.0208333333333333
142
0.0
142
0.0
142
0.0
142
0.0
142
1.0
142
0.0
142
0.0
142
0.0
142
0.0
142
1.0
179
     0
144
0.0208333333333333
144
0.0
144
0.0
144
0.0
144
0.0
144
0.0208333333333333
144
0.0
144
0.0
144
0.0
144
0.0
144
1.0
144
0.0
144
0.0
144
0.0
144
0.0
144
1.0
147
0.0208333333333333
147
0.0
147
0.0
147
0.0
147
0.0
147
0.0208333333333333
147
0.0
147
0.0
147
0.0
147
0.0
147
1.0
147
0.0
147
0.0
147
0.0
147
0.0
147
1.0
  0
MLEADERSTYLE
  5
820B
102
{ACAD_REACTORS
330
820A
102
}
330
820A
100
AcDbMLeaderStyle
170
     2
171
     1
172
     0
 90
        2
 40
0.0
 41
0.0
173
     1
 91
-1056964608
340
81FF
 92
       -2
290
     1
 42
0.09
291
     1
 43
0.36
  3
Standard
 44
0.18
300

342
81FA
174
     1
178
     6
175
     1
176
     0
 93
-1056964608
 45
0.18
292
     0
297
     0
 46
0.18
 94
-1056964608
 47
1.0
 49
1.0
140
1.0
293
     1
141
0.0
294
     1
177
     0
142
1.0
295
     0
296
     0
143
0.125
1001
ACAD_MLEADERVER
1070
     2
  0
MLINESTYLE
  5
8204
102
{ACAD_REACTORS
330
8203
102
}
330
8203
100
AcDbMlineStyle
  2
STANDARD
 70
     0
  3

 62
   256
 51
90.0
 52
90.0
 71
     2
 49
0.5
 62
   256
  6
BYLAYER
 49
-0.5
 62
   256
  6
BYLAYER
  0
ACDBPLACEHOLDER
  5
81B4
102
{ACAD_REACTORS
330
81B3
102
}
330
81B3
  0
SCALE
  5
81E8
102
{ACAD_REACTORS
330
81E7
102
}
330
81E7
100
AcDbScale
 70
     0
300
1:1
140
1.0
141
1.0
290
     1
  0
SCALE
  5
81E9
102
{ACAD_REACTORS
330
81E7
102
}
330
81E7
100
AcDbScale
 70
     0
300
1/128" = 1'-0"
140
0.0078125
141
12.0
290
     0
  0
SCALE
  5
81EA
102
{ACAD_REACTORS
330
81E7
102
}
330
81E7
100
AcDbScale
 70
     0
300
1/64" = 1'-0"
140
0.015625
141
12.0
290
     0
  0
SCALE
  5
81EB
102
{ACAD_REACTORS
330
81E7
102
}
330
81E7
100
AcDbScale
 70
     0
300
1/32" = 1'-0"
140
0.03125
141
12.0
290
     0
  0
SCALE
  5
81EC
102
{ACAD_REACTORS
330
81E7
102
}
330
81E7
100
AcDbScale
 70
     0
300
1/16" = 1'-0"
140
0.0625
141
12.0
290
     0
  0
SCALE
  5
81ED
102
{ACAD_REACTORS
330
81E7
102
}
330
81E7
100
AcDbScale
 70
     0
300
3/32" = 1'-0"
140
0.09375
141
12.0
290
     0
  0
SCALE
  5
81EE
102
{ACAD_REACTORS
330
81E7
102
}
330
81E7
100
AcDbScale
 70
     0
300
1/8" = 1'-0"
140
0.125
141
12.0
290
     0
  0
SCALE
  5
81EF
102
{ACAD_REACTORS
330
81E7
102
}
330
81E7
100
AcDbScale
 70
     0
300
3/16" = 1'-0"
140
0.1875
141
12.0
290
     0
  0
SCALE
  5
81F0
102
{ACAD_REACTORS
330
81E7
102
}
330
81E7
100
AcDbScale
 70
     0
300
1/4" = 1'-0"
140
0.25
141
12.0
290
     0
  0
SCALE
  5
81F1
102
{ACAD_REACTORS
330
81E7
102
}
330
81E7
100
AcDbScale
 70
     0
300
3/8" = 1'-0"
140
0.375
141
12.0
290
     0
  0
SCALE
  5
81F2
102
{ACAD_REACTORS
330
81E7
102
}
330
81E7
100
AcDbScale
 70
     0
300
1/2" = 1'-0"
140
0.5
141
12.0
290
     0
  0
SCALE
  5
81F3
102
{ACAD_REACTORS
330
81E7
102
}
330
81E7
100
AcDbScale
 70
     0
300
3/4" = 1'-0"
140
0.75
141
12.0
290
     0
  0
SCALE
  5
81F4
102
{ACAD_REACTORS
330
81E7
102
}
330
81E7
100
AcDbScale
 70
     0
300
1" = 1'-0"
140
1.0
141
12.0
290
     0
  0
SCALE
  5
81F5
102
{ACAD_REACTORS
330
81E7
102
}
330
81E7
100
AcDbScale
 70
     0
300
1-1/2" = 1'-0"
140
1.5
141
12.0
290
     0
  0
SCALE
  5
81F6
102
{ACAD_REACTORS
330
81E7
102
}
330
81E7
100
AcDbScale
 70
     0
300
3" = 1'-0"
140
3.0
141
12.0
290
     0
  0
SCALE
  5
81F7
102
{ACAD_REACTORS
330
81E7
102
}
330
81E7
100
AcDbScale
 70
     0
300
6" = 1'-0"
140
6.0
141
12.0
290
     0
  0
SCALE
  5
81F8
102
{ACAD_REACTORS
330
81E7
102
}
330
81E7
100
AcDbScale
 70
     0
300
1'-0" = 1'-0"
140
12.0
141
12.0
290
     0
  0
ACDBSECTIONVIEWSTYLE
  5
820D
102
{ACAD_XDICTIONARY
360
851E
102
}
102
{ACAD_REACTORS
330
820C
102
}
330
820C
100
AcDbModelDocViewStyle
 70
     0
  3
Imperial24
290
     0
100
AcDbSectionViewStyle
 70
     0
 71
     0
 90
       78
 71
     1
340
81FA
 40
0.24
340
0
340
0
 40
0.24
300
I, O, Q, S, X, Z
 40
0.48
 90
        3
 40
0.18
 90
        1
 71
     2
340
8201
 90
       25
340
8201
 90
       50
 40
0.24
 40
0.0
 40
0.24
 71
     3
340
81FA
 40
0.24
 90
        1
 40
0.75
 90
        1
300
%<\AcVar ViewType \f "%tc1">% %<\AcVar ViewSectionStartId>%-%<\AcVar ViewSectionEndId>%\PSCALE %<\AcVar ViewScale \f "%sn">%
 71
     4
300
ANSI31
 40
1.0
 90
        0
290
     0
290
     0
 90
        6
 40
0.0
 40
1.570796326794896
 40
0.2617993877991494
 40
1.308996938995747
 40
-0.2617993877991494
 40
1.832595714594046
  0
TABLESTYLE
  5
8209
102
{ACAD_XDICTIONARY
360
84E5
102
}
102
{ACAD_REACTORS
330
8208
102
}
330
8208
100
AcDbTableStyle
  3
Standard
 70
     0
 71
     0
 40
0.06
 41
0.06
280
     0
281
     0
  7
STANDARD
140
0.18
170
     2
 62
     0
 63
     7
283
     0
274
    -2
284
     1
 64
     0
275
    -2
285
     1
 65
     0
276
    -2
286
     1
 66
     0
277
    -2
287
     1
 67
     0
278
    -2
288
     1
 68
     0
279
    -2
289
     1
 69
     0
  7
STANDARD
140
0.25
170
     5
 62
     0
 63
     7
283
     0
274
    -2
284
     1
 64
     0
275
    -2
285
     1
 65
     0
276
    -2
286
     1
 66
     0
277
    -2
287
     1
 67
     0
278
    -2
288
     1
 68
     0
279
    -2
289
     1
 69
     0
  7
STANDARD
140
0.18
170
     5
 62
     0
 63
     7
283
     0
274
    -2
284
     1
 64
     0
275
    -2
285
     1
 65
     0
276
    -2
286
     1
 66
     0
277
    -2
287
     1
 67
     0
278
    -2
288
     1
 68
     0
279
    -2
289
     1
 69
     0
  0
VISUALSTYLE
  5
81D4
102
{ACAD_XDICTIONARY
360
84F6
102
}
102
{ACAD_REACTORS
330
81CE
102
}
330
81CE
100
AcDbVisualStyle
  2
2dWireframe
 70
     4
 71
     0
 72
     2
 73
     0
 90
        0
 40
-0.6
 41
-30.0
 62
     5
 63
     7
 74
     1
 91
        4
 64
     7
 65
   257
 75
     1
175
     1
 42
1.0
 92
        0
 66
   257
 43
1.0
 76
     1
 77
     6
 78
     2
 67
     7
 79
     5
170
     0
171
     0
290
     0
174
     0
 93
        1
 44
0.0
173
     0
291
     0
 45
0.0
1001
ACAD
1000
AcDbSavedByObjectVersion
1070
     0
  0
VISUALSTYLE
  5
81D3
102
{ACAD_XDICTIONARY
360
84F4
102
}
102
{ACAD_REACTORS
330
81CE
102
}
330
81CE
100
AcDbVisualStyle
  2
Basic
 70
     7
 71
     1
 72
     0
 73
     1
 90
        0
 40
-0.6
 41
-30.0
 62
     5
 63
     7
 74
     0
 91
        4
 64
     7
 65
   257
 75
     1
175
     1
 42
1.0
 92
        8
 66
     7
 43
1.0
 76
     1
 77
     6
 78
     2
 67
     7
 79
     5
170
     0
171
     0
290
     0
174
     0
 93
        1
 44
0.0
173
     0
291
     1
 45
0.0
1001
ACAD
1000
AcDbSavedByObjectVersion
1070
     0
  0
VISUALSTYLE
  5
81DA
102
{ACAD_XDICTIONARY
360
8502
102
}
102
{ACAD_REACTORS
330
81CE
102
}
330
81CE
100
AcDbVisualStyle
  2
Brighten
 70
    12
 71
     2
 72
     2
 73
     0
 90
        0
 40
-0.6
 41
-30.0
 62
     5
 63
     7
 74
     1
 91
        4
 64
     7
 65
   257
 75
     1
175
     1
 42
1.0
 92
        8
 66
     7
 43
1.0
 76
     1
 77
     6
 78
     2
 67
     7
 79
     5
170
     0
171
     0
290
     0
174
     0
 93
        1
 44
50.0
173
     0
291
     1
 45
0.0
1001
ACAD
1000
AcDbSavedByObjectVersion
1070
     0
  0
VISUALSTYLE
  5
81DE
102
{ACAD_XDICTIONARY
360
850A
102
}
102
{ACAD_REACTORS
330
81CE
102
}
330
81CE
100
AcDbVisualStyle
  2
ColorChange
 70
    16
 71
     2
 72
     2
 73
     3
 90
        0
 40
-0.6
 41
-30.0
 62
     5
 63
     8
 74
     1
 91
        4
 64
     7
 65
   257
 75
     1
175
     1
 42
1.0
 92
        8
 66
     8
 43
1.0
 76
     1
 77
     6
 78
     2
 67
     7
 79
     5
170
     0
171
     0
290
     0
174
     0
 93
        1
 44
0.0
173
     0
291
     1
 45
0.0
1001
ACAD
1000
AcDbSavedByObjectVersion
1070
     0
  0
VISUALSTYLE
  5
81D7
102
{ACAD_XDICTIONARY
360
84FC
102
}
102
{ACAD_REACTORS
330
81CE
102
}
330
81CE
100
AcDbVisualStyle
  2
Conceptual
 70
     9
 71
     3
 72
     2
 73
     0
 90
        0
 40
-0.6
 41
-30.0
 62
     5
 63
     7
 74
     2
 91
        2
 64
     7
 65
   257
 75
     1
175
     1
 42
179.0
 92
        8
 66
     7
 43
1.0
 76
     1
 77
     6
 78
     2
 67
     7
 79
     3
170
     0
171
     0
290
     0
174
     0
 93
        1
 44
0.0
173
     0
291
     0
 45
0.0
1001
ACAD
1000
AcDbSavedByObjectVersion
1070
     0
  0
VISUALSTYLE
  5
81D9
102
{ACAD_XDICTIONARY
360
8500
102
}
102
{ACAD_REACTORS
330
81CE
102
}
330
81CE
100
AcDbVisualStyle
  2
Dim
 70
    11
 71
     2
 72
     2
 73
     0
 90
        0
 40
-0.6
 41
-30.0
 62
     5
 63
     7
 74
     1
 91
        4
 64
     7
 65
   257
 75
     1
175
     1
 42
1.0
 92
        8
 66
     7
 43
1.0
 76
     1
 77
     6
 78
     2
 67
     7
 79
     5
170
     0
171
     0
290
     0
174
     0
 93
        1
 44
-50.0
173
     0
291
     1
 45
0.0
1001
ACAD
1000
AcDbSavedByObjectVersion
1070
     0
  0
VISUALSTYLE
  5
81E6
102
{ACAD_XDICTIONARY
360
851A
102
}
102
{ACAD_REACTORS
330
81CE
102
}
330
81CE
100
AcDbVisualStyle
  2
EdgeColorOff
 70
    22
 71
     2
 72
     2
 73
     0
 90
        0
 40
-0.6
 41
-30.0
 62
     5
 63
     7
 74
     1
 91
        4
 64
     7
 65
   257
 75
     1
175
     1
 42
1.0
 92
        8
 66
     7
 43
1.0
 76
     1
 77
     6
 78
     2
 67
     7
 79
     5
170
     0
171
     0
290
     0
174
     0
 93
        1
 44
0.0
173
     0
291
     1
 45
0.0
1001
ACAD
1000
AcDbSavedByObjectVersion
1070
     0
  0
VISUALSTYLE
  5
81DD
102
{ACAD_XDICTIONARY
360
8508
102
}
102
{ACAD_REACTORS
330
81CE
102
}
330
81CE
100
AcDbVisualStyle
  2
Facepattern
 70
    15
 71
     2
 72
     2
 73
     0
 90
        0
 40
-0.6
 41
-30.0
 62
     5
 63
     7
 74
     1
 91
        4
 64
     7
 65
   257
 75
     1
175
     1
 42
1.0
 92
        8
 66
     7
 43
1.0
 76
     1
 77
     6
 78
     2
 67
     7
 79
     5
170
     0
171
     0
290
     0
174
     0
 93
        1
 44
0.0
173
     0
291
     1
 45
0.0
1001
ACAD
1000
AcDbSavedByObjectVersion
1070
     0
  0
VISUALSTYLE
  5
81CF
102
{ACAD_XDICTIONARY
360
84EC
102
}
102
{ACAD_REACTORS
330
81CE
102
}
330
81CE
100
AcDbVisualStyle
  2
Flat
 70
     0
 71
     2
 72
     1
 73
     1
 90
        2
 40
-0.6
 41
30.0
 62
     5
 63
     7
 74
     0
 91
        0
 64
     7
 65
   257
 75
     1
175
     1
 42
1.0
 92
        8
 66
     7
 43
1.0
 76
     1
 77
     6
 78
     2
 67
     7
 79
     5
170
     0
171
     0
290
     0
174
     0
 93
       13
 44
0.0
173
     0
291
     1
 45
0.0
1001
ACAD
1000
AcDbSavedByObjectVersion
1070
     0
  0
VISUALSTYLE
  5
81D0
102
{ACAD_XDICTIONARY
360
84EE
102
}
102
{ACAD_REACTORS
330
81CE
102
}
330
81CE
100
AcDbVisualStyle
  2
FlatWithEdges
 70
     1
 71
     2
 72
     1
 73
     1
 90
        2
 40
-0.6
 41
30.0
 62
     5
 63
     7
 74
     1
 91
        0
 64
     7
 65
   257
 75
     1
175
     1
 42
1.0
 92
        0
 66
   257
 43
1.0
 76
     1
 77
     6
 78
     2
 67
     7
 79
     5
170
     0
171
     0
290
     0
174
     0
 93
       13
 44
0.0
173
     0
291
     1
 45
0.0
1001
ACAD
1000
AcDbSavedByObjectVersion
1070
     0
  0
VISUALSTYLE
  5
81D1
102
{ACAD_XDICTIONARY
360
84F0
102
}
102
{ACAD_REACTORS
330
81CE
102
}
330
81CE
100
AcDbVisualStyle
  2
Gouraud
 70
     2
 71
     2
 72
     2
 73
     1
 90
        2
 40
-0.6
 41
30.0
 62
     5
 63
     7
 74
     0
 91
        0
 64
     7
 65
   257
 75
     1
175
     1
 42
1.0
 92
        0
 66
     7
 43
1.0
 76
     1
 77
     6
 78
     2
 67
     7
 79
     5
170
     0
171
     0
290
     0
174
     0
 93
       13
 44
0.0
173
     0
291
     1
 45
0.0
1001
ACAD
1000
AcDbSavedByObjectVersion
1070
     0
  0
VISUALSTYLE
  5
81D2
102
{ACAD_XDICTIONARY
360
84F2
102
}
102
{ACAD_REACTORS
330
81CE
102
}
330
81CE
100
AcDbVisualStyle
  2
GouraudWithEdges
 70
     3
 71
     2
 72
     2
 73
     1
 90
        2
 40
-0.6
 41
30.0
 62
     5
 63
     7
 74
     1
 91
        0
 64
     7
 65
   257
 75
     1
175
     1
 42
1.0
 92
        0
 66
   257
 43
1.0
 76
     1
 77
     6
 78
     2
 67
     7
 79
     5
170
     0
171
     0
290
     0
174
     0
 93
       13
 44
0.0
173
     0
291
     1
 45
0.0
1001
ACAD
1000
AcDbSavedByObjectVersion
1070
     0
  0
VISUALSTYLE
  5
81D6
102
{ACAD_XDICTIONARY
360
84FA
102
}
102
{ACAD_REACTORS
330
81CE
102
}
330
81CE
100
AcDbVisualStyle
  2
Hidden
 70
     6
 71
     1
 72
     2
 73
     2
 90
        0
 40
-0.6
 41
-30.0
 62
     5
 63
     7
 74
     2
 91
        2
 64
     7
 65
   257
 75
     2
175
     1
 42
40.0
 92
        0
 66
   257
 43
1.0
 76
     1
 77
     6
 78
     2
 67
     7
 79
     3
170
     0
171
     0
290
     0
174
     0
 93
        1
 44
0.0
173
     0
291
     0
 45
0.0
1001
ACAD
1000
AcDbSavedByObjectVersion
1070
     0
  0
VISUALSTYLE
  5
81E4
102
{ACAD_XDICTIONARY
360
8516
102
}
102
{ACAD_REACTORS
330
81CE
102
}
330
81CE
100
AcDbVisualStyle
  2
JitterOff
 70
    20
 71
     2
 72
     2
 73
     0
 90
        0
 40
-0.6
 41
-30.0
 62
     5
 63
     7
 74
     1
 91
        4
 64
     7
 65
   257
 75
     1
175
     1
 42
1.0
 92
       10
 66
     7
 43
1.0
 76
     1
 77
     6
 78
     2
 67
     7
 79
     5
170
     0
171
     0
290
     0
174
     0
 93
        1
 44
0.0
173
     0
291
     1
 45
0.0
1001
ACAD
1000
AcDbSavedByObjectVersion
1070
     0
  0
VISUALSTYLE
  5
81DC
102
{ACAD_XDICTIONARY
360
8506
102
}
102
{ACAD_REACTORS
330
81CE
102
}
330
81CE
100
AcDbVisualStyle
  2
Linepattern
 70
    14
 71
     2
 72
     2
 73
     0
 90
        0
 40
-0.6
 41
-30.0
 62
     5
 63
     7
 74
     1
 91
        4
 64
     7
 65
   257
 75
     7
175
     7
 42
1.0
 92
        8
 66
     7
 43
1.0
 76
     1
 77
     6
 78
     2
 67
     7
 79
     5
170
     0
171
     0
290
     0
174
     0
 93
        1
 44
0.0
173
     0
291
     1
 45
0.0
1001
ACAD
1000
AcDbSavedByObjectVersion
1070
     0
  0
VISUALSTYLE
  5
81E5
102
{ACAD_XDICTIONARY
360
8518
102
}
102
{ACAD_REACTORS
330
81CE
102
}
330
81CE
100
AcDbVisualStyle
  2
OverhangOff
 70
    21
 71
     2
 72
     2
 73
     0
 90
        0
 40
-0.6
 41
-30.0
 62
     5
 63
     7
 74
     1
 91
        4
 64
     7
 65
   257
 75
     1
175
     1
 42
1.0
 92
        9
 66
     7
 43
1.0
 76
     1
 77
     6
 78
     2
 67
     7
 79
     5
170
     0
171
     0
290
     0
174
     0
 93
        1
 44
0.0
173
     0
291
     1
 45
0.0
1001
ACAD
1000
AcDbSavedByObjectVersion
1070
     0
  0
VISUALSTYLE
  5
81D8
102
{ACAD_XDICTIONARY
360
84FE
102
}
102
{ACAD_REACTORS
330
81CE
102
}
330
81CE
100
AcDbVisualStyle
  2
Realistic
 70
     8
 71
     2
 72
     3
 73
     0
 90
        2
 40
-0.6
 41
30.0
 62
     5
 63
     7
 74
     0
 91
        0
 64
     7
 65
   257
 75
     1
175
     1
 42
1.0
 92
        8
 66
   257
 43
1.0
 76
     1
 77
     6
 78
     2
 67
     7
 79
     3
170
     0
171
     0
290
     0
174
     0
 93
       13
 44
0.0
173
     0
291
     0
 45
0.0
1001
ACAD
1000
AcDbSavedByObjectVersion
1070
     0
  0
VISUALSTYLE
  5
81E3
102
{ACAD_XDICTIONARY
360
8514
102
}
102
{ACAD_REACTORS
330
81CE
102
}
330
81CE
100
AcDbVisualStyle
  2
Shaded
 70
    27
 71
     2
 72
     2
 73
     1
 90
        2
 40
-0.6
 41
30.0
 62
     5
 63
     7
 74
     0
 91
        4
 64
     7
 65
   257
 75
     1
175
     1
 42
1.0
 92
        8
 66
   257
 43
1.0
 76
     1
 77
     6
 78
     2
 67
     8
 79
     3
170
     0
171
     0
290
     0
174
     0
 93
        5
 44
0.0
173
     0
291
     0
 45
0.0
1001
ACAD
1000
AcDbSavedByObjectVersion
1070
     0
  0
VISUALSTYLE
  5
81E2
102
{ACAD_XDICTIONARY
360
8512
102
}
102
{ACAD_REACTORS
330
81CE
102
}
330
81CE
100
AcDbVisualStyle
  2
Shaded with edges
 70
    26
 71
     2
 72
     2
 73
     1
 90
        2
 40
-0.6
 41
30.0
 62
     5
 63
     7
 74
     1
 91
       10
 64
     7
 65
   257
 75
     2
175
     1
 42
1.0
 92
        8
 66
   257
 43
1.0
 76
     1
 77
     6
 78
     2
 67
     7
 79
     3
170
     0
171
     0
290
     0
174
     0
 93
        5
 44
0.0
173
     0
291
     0
 45
0.0
1001
ACAD
1000
AcDbSavedByObjectVersion
1070
     0
  0
VISUALSTYLE
  5
81DF
102
{ACAD_XDICTIONARY
360
850C
102
}
102
{ACAD_REACTORS
330
81CE
102
}
330
81CE
100
AcDbVisualStyle
  2
Shades of Gray
 70
    23
 71
     2
 72
     2
 73
     3
 90
        0
 40
-0.6
 41
-30.0
 62
     5
 63
     7
 74
     2
 91
        2
 64
     7
 65
     7
 75
     1
175
     1
 42
40.0
 92
        8
 66
     7
 43
1.0
 76
     1
 77
     6
 78
     2
 67
     7
 79
     3
170
     0
171
     0
290
     0
174
     0
 93
        1
 44
0.0
173
     0
291
     0
 45
0.0
1001
ACAD
1000
AcDbSavedByObjectVersion
1070
     0
  0
VISUALSTYLE
  5
81E0
102
{ACAD_XDICTIONARY
360
850E
102
}
102
{ACAD_REACTORS
330
81CE
102
}
330
81CE
100
AcDbVisualStyle
  2
Sketchy
 70
    24
 71
     1
 72
     2
 73
     2
 90
        0
 40
-0.6
 41
-30.0
 62
     5
 63
     7
 74
     2
 91
        2
 64
     7
 65
     7
 75
     1
175
     1
 42
40.0
 92
       11
 66
     7
 43
1.0
 76
     1
 77
     6
 78
     2
 67
     7
 79
     6
170
     0
171
     0
290
     0
174
     0
 93
        1
 44
0.0
173
     0
291
     0
 45
0.0
1001
ACAD
1000
AcDbSavedByObjectVersion
1070
     0
  0
VISUALSTYLE
  5
81DB
102
{ACAD_XDICTIONARY
360
8504
102
}
102
{ACAD_REACTORS
330
81CE
102
}
330
81CE
100
AcDbVisualStyle
  2
Thicken
 70
    13
 71
     2
 72
     2
 73
     0
 90
        0
 40
-0.6
 41
-30.0
 62
     5
 63
     7
 74
     1
 91
        4
 64
     7
 65
   257
 75
     1
175
     1
 42
1.0
 92
       12
 66
     7
 43
1.0
 76
     1
 77
     6
 78
     2
 67
     7
 79
     5
170
     0
171
     0
290
     0
174
     0
 93
        1
 44
0.0
173
     0
291
     1
 45
0.0
1001
ACAD
1000
AcDbSavedByObjectVersion
1070
     0
  0
VISUALSTYLE
  5
81D5
102
{ACAD_XDICTIONARY
360
84F8
102
}
102
{ACAD_REACTORS
330
81CE
102
}
330
81CE
100
AcDbVisualStyle
  2
Wireframe
 70
     5
 71
     0
 72
     2
 73
     0
 90
        0
 40
-0.6
 41
-30.0
 62
     5
 63
     7
 74
     1
 91
        4
 64
     7
 65
   257
 75
     1
175
     1
 42
1.0
 92
        0
 66
   257
 43
1.0
 76
     1
 77
     6
 78
     2
 67
     7
 79
     3
170
     0
171
     0
290
     0
174
     0
 93
        1
 44
0.0
173
     0
291
     0
 45
0.0
1001
ACAD
1000
AcDbSavedByObjectVersion
1070
     0
  0
VISUALSTYLE
  5
81E1
102
{ACAD_XDICTIONARY
360
8510
102
}
102
{ACAD_REACTORS
330
81CE
102
}
330
81CE
100
AcDbVisualStyle
  2
X-Ray
 70
    25
 71
     2
 72
     2
 73
     1
 90
        1
 40
0.5
 41
-30.0
 62
     5
 63
     7
 74
     1
 91
        0
 64
     7
 65
   257
 75
     1
175
     1
 42
1.0
 92
        8
 66
     7
 43
1.0
 76
     1
 77
     6
 78
     2
 67
     7
 79
     3
170
     0
171
     0
290
     0
174
     0
 93
       13
 44
0.0
173
     0
291
     0
 45
0.0
1001
ACAD
1000
AcDbSavedByObjectVersion
1070
     0
  0
DICTIONARYVAR
  5
84DF
102
{ACAD_REACTORS
330
84DA
102
}
330
84DA
100
DictionaryVariables
280
     0
  1
1:1
  0
DICTIONARYVAR
  5
84DC
102
{ACAD_REACTORS
330
84DA
102
}
330
84DA
100
DictionaryVariables
280
     0
  1
STANDARD
  0
DICTIONARYVAR
  5
84DB
102
{ACAD_REACTORS
330
84DA
102
}
330
84DA
100
DictionaryVariables
280
     0
  1
STANDARD
  0
DICTIONARYVAR
  5
84DD
102
{ACAD_REACTORS
330
84DA
102
}
330
84DA
100
DictionaryVariables
280
     0
  1
Imperial24
  0
DICTIONARYVAR
  5
84DE
102
{ACAD_REACTORS
330
84DA
102
}
330
84DA
100
DictionaryVariables
280
     0
  1
Imperial24
  0
DICTIONARYVAR
  5
84E2
102
{ACAD_REACTORS
330
84DA
102
}
330
84DA
100
DictionaryVariables
280
     0
  1
1
  0
DICTIONARYVAR
  5
84E1
102
{ACAD_REACTORS
330
84DA
102
}
330
84DA
100
DictionaryVariables
280
     0
  1
0
  0
DICTIONARYVAR
  5
84E0
102
{ACAD_REACTORS
330
84DA
102
}
330
84DA
100
DictionaryVariables
280
     0
  1
127
  0
DICTIONARYVAR
  5
84E3
102
{ACAD_REACTORS
330
84DA
102
}
330
84DA
100
DictionaryVariables
280
     0
  1
2
  0
DICTIONARY
  5
8520
330
820F
100
AcDbDictionary
280
     1
281
     1
  3
ACAD_XREC_ROUNDTRIP
360
8521
  0
DICTIONARY
  5
8524
330
8217
100
AcDbDictionary
280
     1
281
     1
  3
ACAD_XREC_ROUNDTRIP
360
8525
  0
DICTIONARY
  5
8522
330
8213
100
AcDbDictionary
280
     1
281
     1
  3
ACAD_XREC_ROUNDTRIP
360
8523
  0
DICTIONARY
  5
81BF
330
81BE
100
AcDbDictionary
280
     1
281
     1
  3
ACAD_XREC_ROUNDTRIP
360
84EA
  3
BUMPTILE
360
81C1
  3
DIFFUSETILE
360
81C0
  3
OPACITYTILE
360
81C4
  3
REFLECTIONTILE
360
81C3
  3
REFRACTIONTILE
360
81C5
  3
SPECULARTILE
360
81C2
  0
DICTIONARY
  5
81B7
330
81B6
100
AcDbDictionary
280
     1
281
     1
  3
ACAD_XREC_ROUNDTRIP
360
84E9
  3
BUMPTILE
360
81B9
  3
DIFFUSETILE
360
81B8
  3
OPACITYTILE
360
81BC
  3
REFLECTIONTILE
360
81BB
  3
REFRACTIONTILE
360
81BD
  3
SPECULARTILE
360
81BA
  0
DICTIONARY
  5
81C7
330
81C6
100
AcDbDictionary
280
     1
281
     1
  3
ACAD_XREC_ROUNDTRIP
360
84EB
  3
BUMPTILE
360
81C9
  3
DIFFUSETILE
360
81C8
  3
FBXASSET
360
830D
  3
OPACITYTILE
360
81CC
  3
REFLECTIONTILE
360
81CB
  3
REFRACTIONTILE
360
81CD
  3
SPECULARTILE
360
81CA
  0
DICTIONARY
  5
851E
330
820D
100
AcDbDictionary
280
     1
281
     1
  3
ACAD_XREC_ROUNDTRIP
360
851F
  0
DICTIONARY
  5
84E5
330
8209
100
AcDbDictionary
280
     1
281
     1
  3
ACAD_ROUNDTRIP_2008_TABLESTYLE_CELLSTYLEMAP
360
84E6
  3
ACAD_XREC_ROUNDTRIP
360
851C
  0
DICTIONARY
  5
84F6
330
81D4
100
AcDbDictionary
280
     1
281
     1
  3
ACAD_XREC_ROUNDTRIP
360
84F7
  0
DICTIONARY
  5
84F4
330
81D3
100
AcDbDictionary
280
     1
281
     1
  3
ACAD_XREC_ROUNDTRIP
360
84F5
  0
DICTIONARY
  5
8502
330
81DA
100
AcDbDictionary
280
     1
281
     1
  3
ACAD_XREC_ROUNDTRIP
360
8503
  0
DICTIONARY
  5
850A
330
81DE
100
AcDbDictionary
280
     1
281
     1
  3
ACAD_XREC_ROUNDTRIP
360
850B
  0
DICTIONARY
  5
84FC
330
81D7
100
AcDbDictionary
280
     1
281
     1
  3
ACAD_XREC_ROUNDTRIP
360
84FD
  0
DICTIONARY
  5
8500
330
81D9
100
AcDbDictionary
280
     1
281
     1
  3
ACAD_XREC_ROUNDTRIP
360
8501
  0
DICTIONARY
  5
851A
330
81E6
100
AcDbDictionary
280
     1
281
     1
  3
ACAD_XREC_ROUNDTRIP
360
851B
  0
DICTIONARY
  5
8508
330
81DD
100
AcDbDictionary
280
     1
281
     1
  3
ACAD_XREC_ROUNDTRIP
360
8509
  0
DICTIONARY
  5
84EC
330
81CF
100
AcDbDictionary
280
     1
281
     1
  3
ACAD_XREC_ROUNDTRIP
360
84ED
  0
DICTIONARY
  5
84EE
330
81D0
100
AcDbDictionary
280
     1
281
     1
  3
ACAD_XREC_ROUNDTRIP
360
84EF
  0
DICTIONARY
  5
84F0
330
81D1
100
AcDbDictionary
280
     1
281
     1
  3
ACAD_XREC_ROUNDTRIP
360
84F1
  0
DICTIONARY
  5
84F2
330
81D2
100
AcDbDictionary
280
     1
281
     1
  3
ACAD_XREC_ROUNDTRIP
360
84F3
  0
DICTIONARY
  5
84FA
330
81D6
100
AcDbDictionary
280
     1
281
     1
  3
ACAD_XREC_ROUNDTRIP
360
84FB
  0
DICTIONARY
  5
8516
330
81E4
100
AcDbDictionary
280
     1
281
     1
  3
ACAD_XREC_ROUNDTRIP
360
8517
  0
DICTIONARY
  5
8506
330
81DC
100
AcDbDictionary
280
     1
281
     1
  3
ACAD_XREC_ROUNDTRIP
360
8507
  0
DICTIONARY
  5
8518
330
81E5
100
AcDbDictionary
280
     1
281
     1
  3
ACAD_XREC_ROUNDTRIP
360
8519
  0
DICTIONARY
  5
84FE
330
81D8
100
AcDbDictionary
280
     1
281
     1
  3
ACAD_XREC_ROUNDTRIP
360
84FF
  0
DICTIONARY
  5
8514
330
81E3
100
AcDbDictionary
280
     1
281
     1
  3
ACAD_XREC_ROUNDTRIP
360
8515
  0
DICTIONARY
  5
8512
330
81E2
100
AcDbDictionary
280
     1
281
     1
  3
ACAD_XREC_ROUNDTRIP
360
8513
  0
DICTIONARY
  5
850C
330
81DF
100
AcDbDictionary
280
     1
281
     1
  3
ACAD_XREC_ROUNDTRIP
360
850D
  0
DICTIONARY
  5
850E
330
81E0
100
AcDbDictionary
280
     1
281
     1
  3
ACAD_XREC_ROUNDTRIP
360
850F
  0
DICTIONARY
  5
8504
330
81DB
100
AcDbDictionary
280
     1
281
     1
  3
ACAD_XREC_ROUNDTRIP
360
8505
  0
DICTIONARY
  5
84F8
330
81D5
100
AcDbDictionary
280
     1
281
     1
  3
ACAD_XREC_ROUNDTRIP
360
84F9
  0
DICTIONARY
  5
8510
330
81E1
100
AcDbDictionary
280
     1
281
     1
  3
ACAD_XREC_ROUNDTRIP
360
8511
  0
XRECORD
  5
8521
102
{ACAD_REACTORS
330
8520
102
}
330
8520
100
AcDbXrecord
280
     1
102
DISPLAYNAME
  1
Imperial24
102
FLAGS
 90
        0
  0
XRECORD
  5
8525
102
{ACAD_REACTORS
330
8524
102
}
330
8524
100
AcDbXrecord
280
     1
102
SHADEPLOT
 70
     0
102
SHADEPLOTRESLEVEL
 70
     2
102
SHADEPLOTCUSTOMDPI
 70
   300
  0
XRECORD
  5
8523
102
{ACAD_REACTORS
330
8522
102
}
330
8522
100
AcDbXrecord
280
     1
102
SHADEPLOT
 70
     0
102
SHADEPLOTRESLEVEL
 70
     2
102
SHADEPLOTCUSTOMDPI
 70
   300
  0
XRECORD
  5
84EA
102
{ACAD_REACTORS
330
81BF
102
}
330
81BF
100
AcDbXrecord
280
     1
102
MATERIAL
148
0.0
149
0.0
149
0.0
 93
        0
 94
      127
282
     0
 72
     0
 77
     0
171
     0
175
     0
179
     0
273
     0
  0
XRECORD
  5
81C1
102
{ACAD_REACTORS
330
81BF
102
}
330
81BF
100
AcDbXrecord
280
     1
270
     1
271
     1
  0
XRECORD
  5
81C0
102
{ACAD_REACTORS
330
81BF
102
}
330
81BF
100
AcDbXrecord
280
     1
270
     1
271
     1
  0
XRECORD
  5
81C4
102
{ACAD_REACTORS
330
81BF
102
}
330
81BF
100
AcDbXrecord
280
     1
270
     1
271
     1
  0
XRECORD
  5
81C3
102
{ACAD_REACTORS
330
81BF
102
}
330
81BF
100
AcDbXrecord
280
     1
270
     1
271
     1
  0
XRECORD
  5
81C5
102
{ACAD_REACTORS
330
81BF
102
}
330
81BF
100
AcDbXrecord
280
     1
270
     1
271
     1
  0
XRECORD
  5
81C2
102
{ACAD_REACTORS
330
81BF
102
}
330
81BF
100
AcDbXrecord
280
     1
270
     1
271
     1
  0
XRECORD
  5
84E9
102
{ACAD_REACTORS
330
81B7
102
}
330
81B7
100
AcDbXrecord
280
     1
102
MATERIAL
148
0.0
149
0.0
149
0.0
 93
        0
 94
      127
282
     0
 72
     0
 77
     0
171
     0
175
     0
179
     0
273
     0
  0
XRECORD
  5
81B9
102
{ACAD_REACTORS
330
81B7
102
}
330
81B7
100
AcDbXrecord
280
     1
270
     1
271
     1
  0
XRECORD
  5
81B8
102
{ACAD_REACTORS
330
81B7
102
}
330
81B7
100
AcDbXrecord
280
     1
270
     1
271
     1
  0
XRECORD
  5
81BC
102
{ACAD_REACTORS
330
81B7
102
}
330
81B7
100
AcDbXrecord
280
     1
270
     1
271
     1
  0
XRECORD
  5
81BB
102
{ACAD_REACTORS
330
81B7
102
}
330
81B7
100
AcDbXrecord
280
     1
270
     1
271
     1
  0
XRECORD
  5
81BD
102
{ACAD_REACTORS
330
81B7
102
}
330
81B7
100
AcDbXrecord
280
     1
270
     1
271
     1
  0
XRECORD
  5
81BA
102
{ACAD_REACTORS
330
81B7
102
}
330
81B7
100
AcDbXrecord
280
     1
270
     1
271
     1
  0
XRECORD
  5
84EB
102
{ACAD_REACTORS
330
81C7
102
}
330
81C7
100
AcDbXrecord
280
     1
102
MATERIAL
148
0.0
149
0.0
149
0.0
 93
        0
 94
      127
282
     0
 72
     0
 77
     0
171
     0
175
     0
179
     0
273
     0
  0
XRECORD
  5
81C9
102
{ACAD_REACTORS
330
81C7
102
}
330
81C7
100
AcDbXrecord
280
     1
270
     1
271
     1
  0
XRECORD
  5
81C8
102
{ACAD_REACTORS
330
81C7
102
}
330
81C7
100
AcDbXrecord
280
     1
270
     1
271
     1
  0
XRECORD
  5
830D
102
{ACAD_REACTORS
330
81C7
102
}
330
81C7
100
AcDbXrecord
280
     1
 70
     1
 90
1959938040
 71
     1
  1
B72C6AA3-9EDA-4816-8CD7-4C95FD715D7A
311
504B0304140006080800F69176578132F76CB3000000200100004F00000036303544463632352D393232412D344337382D393236312D4437423233313746303733442F4173736574446174612F446566696E6974696F6E4974657261746F7250726F706572746965732E62696EEB606060F80F0540260323103700495E20ED
311
9E9A975A94991C9C9C919A9BC8C00612C9C94F4ACC6147C831019920AE4B6A5A62694E0948976F6671726A4E4E625E6A7E69B12042A9426E6209D0B8C41C3D90264E20860914834C48875806B2DF0F88414E02D189290556F689C5C5A925B6FA694915FAA6864E0616AEE626BA6EAE0626BA2606A66EBA4EAE6686BA66C606
311
96264096A999A1A37E516A717E6951726AB1BE91BE413CD4E4F882BC74A081240200504B0304140006080800F6917657FE9CDD64F0000000300200004500000036303544463632352D393232412D344337382D393236312D4437423233313746303733442F4173736574446174612F496E7374616E636550726F7065727469
311
65732E62696EEB606060F80F0540260323103700495E20ED9E9A975A94991C9C9C919A9BA802147032377236737434D6B5747571D435B13034D3B5707631D73571B6347573313734753177644768046931363471713532B5D435353131D635313332D475727372D13534373670367376B67474B5042A03DBCBA019D37FE8AB
311
C6157B20CD04146B0062181F4C03F940F0C11EA29A8141C08141002C0426541C106CAC2CA046088033B02A030AC2157C6006F21A8018AAF50194E6010A610250382264E08660284CD9E98021862280A91564B406929A0FF62C401E28B6F88038B83CB1243943D7A928312F25350524131B1BFB9F161800504B030414000608
311
0800F691765728BB58AF800100009E0500003D00000036303544463632352D393232412D344337382D393236312D4437423233313746303733442F536368656D61732F436F6D6D6F6E536368656D612E786D6CBD544D4FC23018BEFB2B96DE15493C78601010A34B880709DEDFB52FD0D8B54BD70DF6EFED3AC0B12E6442E2
311
716BFB3CEFF3D18E26FB440405EA8C2B1992E1C323095052C5B8DC842437EBFB673219DF8DA659866649B798C078B48AE6410122242F2A4994AC7F93815DF85C049C8564CA0A901499DD886B2EB9B1E02448F358701A9235880C49A0119892A20C89D1B9FD768815CAD268CB5E0355B40B1E47F3E37A2020464BED06AA57CE
311
8FCC20C3C3446D46761A2632A8C1283D07031EFF2AE7CCB1BFEEE916E406DFAC8E36FFD99A9D60A6944090EEDC3B670C7DC13DE86B6B2C5C240D6E503BB85ACD579D513F1B9F9A69DC9CC22AFA80C426D40AF0B21EA168559156B6276F0F726A6BFF04DCD513A87A62CAD41FB24FCB2858B3952E3D852084DA25B9303C1568
311
7973CC8E8AAE11DF2836C38C6A9E765E8C1BA1BFB1DC29CDFE518C8B5A7655A4ED7E77291ABEB80DBD82EC866ADE1B8D05AF9E35CF09D7A061F38A986D9EC412B8F0F65E5D81534D9B231D1E5A8FE577A241F3A5FD01504B0304140006080800F69176572CCEBD668A040000E01200003E00000036303544463632352D3932
311
32412D344337382D393236312D4437423233313746303733442F536368656D61732F47656E65726963536368656D612E786D6CD5586D6FDB380CFE7EBF42F0F7A649B70E1B90744856B4970F450FCD7A5F05459613EDE4174872DADCAF3F522F8ED3B88D2F1D06AC4050DBA2493EE4438AF2F8EB73AEC8466823CB62928C06
311
C384888297A92C5693A4B6D9D9E7E4EBD51FE3A931C22EF85AE4EC6AFC38BF261BA626C9AD288496DC3F4FCEAFC63366845F7A10452AF41DB320C0D44EC26EAB20918735565582695670811A6A49643A49A6E9069FA4604A64B29016DC4B48552F95E4932463CA888468C1D2B250DB4962750DF7CE273069CE8363F1FF4EDB
311
00E0A21999574AE4A2B00C353B93F3BD4777B8A61ED8F604ABFEDD79CE56A2B7BDFBDBC50996E0ADDE16FED26223C5D30956C29BDF4A55EA686E5E58B112DA45CE67F76F4FA27EFA3FB672FD7372FC388FAECDCA5209E693CAD167BADCD272F943701B3812F8A3D852008B1D2E32DB927B2F833C6EA95879925356D2545826
311
95095A3CE982924720BE5774A3CB9CDCDB350427D2DF20DA1B5532EBE2D5D6288D75D4F7E4FD9890A0EF8E3D93EBB8F8BA4758158EF6FB90A6F9520281C93DE7AAC6D24607DA296BB96018123F821A7D6A5C5884050C475DA4865442732C8B95684A50165CBB3A32F25F783A4A480ED59AD7F924B968AEA50131F46303223E
311
6A397B0E52976030DC1DCA81D7E7C1EDEEA42C19FF27635C505E2BD5198A599020DF50A2330FCB3AAF28CB0124108429553EF1B228802E2265D8F7CC2401042B155BCC7070F1E5C55F13B4A9577362CCCE46C32174E010C3C378C44841A4BDA00FE3A12006CE11EE6AEC59894D3526DDE1CD59D503ECC324017F8061B7F162
311
162FA62EDD81AE3308617770796DCBDAD2B2625C5AE8A63DE20B2C8AA5E95E76E5730823955956E33E705425A2187C185D36489A1B44D3DCEC2172F6BA2105C3546287A7194B2331768EBBE64F6E70A9930ABE0ADEA89E9E2C38523B810287AD67A54A039C1606EAFE68F8304610BB9093DBDDABC0B2AE4E290DCDA15376D7
311
E39F72B556F0B32EAB5D3D498B4C41ABADEC3A1434C422D87E8025A84BDCB2B1417ED750FAE4DA8976863974C577C7F902D3F156AD354DEA3540DE6BEAE2BEA52F7A2EB4CA43802ECE5BF2CE2EDC9347179FFB023CE412E60BE16DA0BE29B374988A553F561DC04615DD35F7D2C8979F60E5955CE93DF29DED8AFA1EE6642D
311
53418086C03C47C377910F75F7E8F5EF665F70B60FFB22AEDF897D119E8423C773E819A3C1E55E550599EE6EDCA34D0C86FD72057DF2CD46F16A470682471C164E4346D5306BF12D7D12D82CFF673D41636C347443FEB51B50D72EA171A8E4A58623A4A16E0FA2B8B10A0D23268D87C33896EE8FB73305A74BF224EDBADFA0
311
BD674AB354D63DB7BD5D83426761C077DE767728235446A552754EB93B755891C3C4CC6CADE37CF0E912A7BB38DBA010F9DE1282EDF470CA69A9CDA482E334C4A6EA4107987980B17E72F31730EBF88BBD39E7C629F56797A3C0009C2C5AE7951D9A05A02773440F02EEB4DE396A3B6A570C72CCFBCD823B0B8ED3F1D5CEDD
311
FED772FA70236C83FB7D86C385D570B87107535572A60A96035F8F7C6A7192F13007246BBE0521855E6AC46F3E27689CEE7D186A6FD679D98CDCAD13333E04EBE7ED6F55FF01504B0304140006080800F69176576180134D5F0100006B0300004500000036303544463632352D393232412D344337382D393236312D443742
311
3233313746303733442F536368656D61732F52656E6465724D6174657269616C536368656D612E786D6CA5934D6FC2300C86EFFB1551EEE343DBA41D1A103009551ADAD40EAE28A4A68D9426284961FCFBE5A340113B2071746D3F765EBF4DC6BFB5407BD0862B49F0B037C0082453059725C18DDD3EBFE3F1E82999180336
311
6715D474942CD30FB4A782E00C64017A412D684E454CE3FE28995203B162A6EA5AC94B66997D225E109CD63B0135484BAD1B3C07E9080CA35DB3119C11BCA5C200461A68A1A438126C75E3E230D40FF81FB3F03C91D1E3A3A0AF79FE28E25BC39EC3E17E4C2A2D94A0833A51AF55BCCA7D88572FCBAC529C4140B020FC3AAF
311
A886621DCED7EAD7664CC86024E806DC297DA1BB393E4156543457A4537DB8817349A70F8ACBF09B3EEE2CB2F33E91B65D60786E4E3B39B77E3FEEEF5650424525DA657FB8B46BE6BF064646F0A0F7327C0BC1BC1B4CBBC1C419FA3CCB23500007872A2580CAAE5461865565294E4EDB4617B62FF579DF9A5B2F54E834076A
311
597573A020912FED777F9B3F504B0304140006080800F691765750F277E751000000570000004700000036303544463632352D393232412D344337382D393236312D4437423233313746303733442F4173736574446174612F41737365745461626C654F66436F6E74656E74732E62696E536160607032377236737434D6B5
311
747571D435B13034D3B5707631D73571B63475733137347531771402AACB4D2C492DCA4CCC492C28484D2C4ACC4B4E050A82012F90744FCD03CA26072767A4E6260200504B0304140006080800F6917657F865834058000000680000004500000036303544463632352D393232412D344337382D393236312D443742323331
311
3746303733442F4173736574446174612F53747265616D56657273696F6E5461626C652E696E66558CBD0A80300C06F73E4B117FB66E451741D041DC5BF98480A492E4FDD18EAEC7DD4555D89EF28DF51A0B1BD8340C4DE7DD848B988C0ACF0649566493F2408C508DDEBB99D5129FF8F1AF8CF5B9503E20FAE5A16B5AF702
311
504B0304140006080800F691765747B79F8B350100009A0400003600000036303544463632352D393232412D344337382D393236312D4437423233313746303733442F4173736574446174612F636E782E786D6CCD94314FC3301085FF4AE43D76138A54558E2B044B2790A818D8AECEA5B5EAD8917D41F0EFB1D30CA022A6
311
0E5DCFEFCECF9FFC4E6E3E7B5B7C6088C6BB86557CC10A74DAB7C61D1A365257AE58B15132784F3F64AC70D063C372992979087E1CE6528B1D8C3657AD71A7B9F81023D20EF6169FBB47EF081D4556680B31362CEA23F6C06124DF623CF1160878C503463F068D6912991EE7493A2010B64CD58BFAAEACAAB2AE77D56A5DDD
311
AF97CB7729B252C9BDF776D69B7459F043A1CFB732B590221F2B3906336BF25B98FACB23DF1B2745522A1929242673077D0DA90386C11A0D94D009AF09A94C22845E8AB358499119FC22F1849D7126B76C9331201F5E923D0C64F0E688FCE7F5FA64B62E12388DB7CBE3D2E1F529BC4E3FE8ED1CC82931B796934B87DCB8EE
311
0A2911D31A49A1C95B457D03504B0304140006080800F69176576E8224DA090100004F0300003400000036303544463632352D393232412D344337382D393236312D4437423233313746303733442F536368656D61732F636E782E786D6CCD93316FC3201085FF0A6237366E2A45112643874E5DDA4EDD28BE242898B30E5C
311
B5FFBEE0322452B776C8068F4FE8BDC7A1F69F93671F40D16118B8141D67102C8E2E1C07BEA443B3E56CAF1521A60B8CB36026187891B95647C265AED20807B3F8A27A17CE557CC069C2F0624F3019CEAC37310E3CAE5B61968423C4B3184D32420A82880B59C837243741BDC112980423D77DD7DF3552367DFF2AB73B79BF
311
DB6CDE545B48ADDE117DE55D484038338B7911B29D4EB5E558AB855C654A06AE2FBD89DC866A33A1554C943BA864FA9A3369E6D93B6B52AEAA5DC11F46ABB644BD0AFC0801C8D9DB4C7C65EEDF223F4318819EF22B9133FE3693FFE6F16F05B4EBECE711285F417F03504B0304140006080800F6917657410A3D5871000000
311
A40000002C00000036303544463632352D393232412D344337382D393236312D4437423233313746303733442F636E782E786D6C55CC4D0E82301086E1AB34B31774E7A22D31F1069E60020334B633A63FC6E34B0909B07DDE2F9FEE7EC1AB2FC5E4840DDC9A2B28E25E06C7938192C7CB1D54677514C9871928C640062A83
311
D55394F2D968A0118BAFEA1DBF377CA444F98919176EAB9FEAAB9F2960DA5BBB1E2ED3FA6FFF504B0304140006080800F691765707D5B0FA7E000000A300000007000000636E782E786D6C4D8C410EC2201444AF42FE1E056AA12640A392DEA3B1B4215230588CC7174C17AEDEE4656664FF593D7ADBF4723128A00702C886
311
7B9C5C5814E46DC61DA05ECB14E3F6570314C6D52AA81AB45C52CCCF5D4D761EB3AFD6BBF0D82527AD19386BF199B10B3EDD445712A7D8882B6BA81888684C591CEBA4E0F75758EFF517504B0304140006080800F691765716E99B5DA600000035010000130000005B436F6E74656E745F54797065735D2E786D6C9590410E
311
82301045AFD2740F4517C6180A0BF5065E60AC53688469D30E066F6F91AD9AB89CF9FFFD3F99BA9DC7413C3026E749CB4D59498164FCCD51A7E5C4B6D84BD136F5E5193089ECA5A465CF1C0E4A25D3E308A9F401292BD6C711388FB15301CC1D3A54DBAADA29E38991B8E0254336F5092D4C038BF39CD76B6FC6A538AEBEA5
311
4A4B08617006389FA516557DE4AE8E7E70DE30729138228C5F021CD93F02D4FB0DCD0B504B0304140006080800F69176573DEE336E64000000790000001B0000006175746F6465736B2D64657369676E2D7061636B6167652E786D6C35CBC10E83200C00D05F21DCA56CA76D41FC96062B120735B69A7DBE268BB7777961F8
311
D5AF396893C2ADB70FE7ADA196782C2DF776D7A97B5933C430F15651E5469C55D70F80A4992A3ADC954792C525AE70A1E4D6AD9816CC044FEFDF01FE3FDE907802504B0304140006080800F69176573CC7B736F8000000960100003700000036303544463632352D393232412D344337382D393236312D4437423233313746
311
303733442F4173736574446174612F636F72652E786D6C8550CB6E833010FC15B4770336584D22E3084AF3053DF5661987580936F2A3EAE7D70E546A4F3DED6A76667677D8F96B79149FCA796D4D07B8ACA15046DA499BB98318AEE800C59933676DF84583C28845759061E06C7636AE3B24AD09CA64D4D849EDA0F05E0528
311
E423351D7879538B28450C89E1EFE52AE45DCCAAC4E5C6E32C463DED523D25377DD5CA0127634F693BF4E8F5D253D4BEBDD4E8383404F5F8385E2826174A0656653167412F3FDBA55322A829E96BD2208C1121EFF870C2F4D4B61FACCA4CCE7C70E9E77D69FE0E789FAF1E4510ACDAA67F5CE33AFDEF1AB5090DD95D378507
311
8ED391CF0167554E29956784A9E644F937504B0304140006080800F6917657F7D0FE99F7000000940100003500000036303544463632352D393232412D344337382D393236312D4437423233313746303733442F536368656D61732F636F72652E786D6C8550CB6E833010FC15B4770336584D22E3089AF203EDA937CB38D4
311
4AB0911F553FBF36A1527BEA6957B333B3BBC3CE5FCBBDF854CE6B6B3AC0650D8532D24EDACC1DC470450728CE9C396BC32F1A14462CAA830C0367B3B371DD21694D5026A3C64E6A0785F72A4021EFA9E9C0CB0FB58852C49018FE56AE42DEC4AC4A5C3E789CC5A8A75DAAA7E4A6AF5A39E0E4D253DA0E3D7A1E7B8ADA97A7
311
1A1D8786A01E1F2F23C564A4646055167316F4F2B35D3A25829A92BE260DC21811F2860F274C4F6DFBCEAACCE4CC07977EDE97E6EF80BF6E777A563D667F3CE33AFDEF19B5090DD93D1F0A0F1CA713B7016755CE28952DC054739EFC1B504B0304140006080800F691765768B0D6A000010000D70100002D00000036303544
311
463632352D393232412D344337382D393236312D4437423233313746303733442F636F72652E786D6C9591DD4EC42010855F85CC7D7FA0EDB66E281BB5D927F0CA3B84D94A760B4DA1C6C7176C8D7AA7574C0EDF193833FCF43EDDC81B2EDE38DB03CD4B206895D3C68E3DACE19275404E822FCE851F18102B27EC21C920F8
311
B8B875DE25E56C409B54EB34EEA2F41E0310758B450F5EBDE22473B98648F86B3E4B759523E634DF38C18399BEAC6A411950836025AB324A33C69E6877A4CDB1AE9F799148C1576343C5F6C7707A414DDC1C6224100D2FB6DB48AD46EF8CD1F18FE662700171289BE17C604D76C7D87D563FB65DAC0E341BDA0756D1F65CB6
311
D5109B44B3E03E2C71327B933483BFDA37E3AF64EBACFF996C737810F43B5491C62C78F1B98378A695880F504B0304140006080800F6917657090476D206010000B201000008000000636F72652E786D6C8D50CB6E842014FD15C21E15D47466824CB453BFA0ABEE2830968C82E13169FFBE30DAA4DD7575C979DC73B8F4FC
311
B9CCE0AE9CD7D67410171504CA082BB5993A18C3151D203833EAAC0DBF641018BEA80E6618323A391BD71D12D60465326AAC543BC8BD57010231A74707BDF8500B2F780C49E16FC5CAC58D4FAAC0C5A66334E8E5C72A9CE24149C848456A843122E4151F4EB83D35CD1B2DB392D118B5DCA3B44CE9FAAA954B964BDFB6CDD0
311
A3E7B16F51F3F254A1E35013D4E3E3656C31195B32D0329B19F5C1A53FEF4B52CF003CBFE75C5A6E14A3EFD6CEBB209592C09AF90BB28A9699F8533AAEF21FA5B50935D9176E0E0F194E851E440ACE174CE371DE34F3B5D937504B01021400140006080800F69176578132F76CB3000000200100004F000000000000000000
311
000000000000000036303544463632352D393232412D344337382D393236312D4437423233313746303733442F4173736574446174612F446566696E6974696F6E4974657261746F7250726F706572746965732E62696E504B01021400140006080800F6917657FE9CDD64F000000030020000450000000000000000000000
311
00002001000036303544463632352D393232412D344337382D393236312D4437423233313746303733442F4173736574446174612F496E7374616E636550726F706572746965732E62696E504B01021400140006080800F691765728BB58AF800100009E0500003D0000000000000000000000000073020000363035444636
311
32352D393232412D344337382D393236312D4437423233313746303733442F536368656D61732F436F6D6D6F6E536368656D612E786D6C504B01021400140006080800F69176572CCEBD668A040000E01200003E000000000000000000000000004E04000036303544463632352D393232412D344337382D393236312D4437
311
423233313746303733442F536368656D61732F47656E65726963536368656D612E786D6C504B01021400140006080800F69176576180134D5F0100006B03000045000000000000000000000000003409000036303544463632352D393232412D344337382D393236312D4437423233313746303733442F536368656D61732F
311
52656E6465724D6174657269616C536368656D612E786D6C504B01021400140006080800F691765750F277E751000000570000004700000000000000000000000000F60A000036303544463632352D393232412D344337382D393236312D4437423233313746303733442F4173736574446174612F41737365745461626C65
311
4F66436F6E74656E74732E62696E504B01021400140006080800F6917657F865834058000000680000004500000000000000000000000000AC0B000036303544463632352D393232412D344337382D393236312D4437423233313746303733442F4173736574446174612F53747265616D56657273696F6E5461626C652E69
311
6E66504B01021400140006080800F691765747B79F8B350100009A0400003600000000000000000000000000670C000036303544463632352D393232412D344337382D393236312D4437423233313746303733442F4173736574446174612F636E782E786D6C504B01021400140006080800F69176576E8224DA090100004F
311
0300003400000000000000000000000000F00D000036303544463632352D393232412D344337382D393236312D4437423233313746303733442F536368656D61732F636E782E786D6C504B01021400140006080800F6917657410A3D5871000000A40000002C000000000000000000000000004B0F00003630354446363235
311
2D393232412D344337382D393236312D4437423233313746303733442F636E782E786D6C504B01021400140006080800F691765707D5B0FA7E000000A3000000070000000000000000000000000006100000636E782E786D6C504B01021400140006080800F691765716E99B5DA60000003501000013000000000000000000
311
00000000A91000005B436F6E74656E745F54797065735D2E786D6C504B01021400140006080800F69176573DEE336E64000000790000001B00000000000000000000000000801100006175746F6465736B2D64657369676E2D7061636B6167652E786D6C504B01021400140006080800F69176573CC7B736F8000000960100
311
0037000000000000000000000000001D12000036303544463632352D393232412D344337382D393236312D4437423233313746303733442F4173736574446174612F636F72652E786D6C504B01021400140006080800F6917657F7D0FE99F70000009401000035000000000000000000000000006A13000036303544463632
311
352D393232412D344337382D393236312D4437423233313746303733442F536368656D61732F636F72652E786D6C504B01021400140006080800F691765768B0D6A000010000D70100002D00000000000000000000000000B414000036303544463632352D393232412D344337382D393236312D4437423233313746303733
311
442F636F72652E786D6C504B01021400140006080800F6917657090476D206010000B20100000800000000000000000000000000FF150000636F72652E786D6C504B050600000000110011005A0600002B1700000000
310
504B0304140006080800F6917657000000000000000000000000370000006662782F46464545394445412D433744302D343439422D413746362D4141383835364245433237382F617474726962757465732E62696E504B0304140006080800F6917657000000000000000000000000350000006662782F4646454539444541
310
2D433744302D343439422D413746362D4141383835364245433237382F76657274696365732E62696E504B0304140006080800F6917657F270F1330600000004000000360000006662782F46464545394445412D433744302D343439422D413746362D4141383835364245433237382F747269616E676C65732E62696E6366
310
60600000504B0304140006080800F691765751464CB48900000043010000360000006662782F46464545394445412D433744302D343439422D413746362D4141383835364245433237382F6469726563746F72792E786D6C9D8F310EC2300C45AF127987122606C71DD918B841D4B851A43646695A717C52A85029031293A5
310
A76FBF6FACEF7DA7264E43906840EF0FA03836E242F406C6DCEE4EA06AC22492573150D1F66C60C640E8938CB705396EEDD86DE9B5042FE27813D640EA63BB001C722AF6E55CB61E4863F58284D5D3F53DD715CE1C3985E63FD7F1B7EBDD617E9F1E504B0304140006080800F691765783C4F45036070000201C0000340000
310
006662782F46464545394445412D433744302D343439422D413746362D4141383835364245433237382F6F626A656374732E786D6CDD59596FDB3810FE2B84F665F74197AFD885E2C2B193C228D20635BAD837819669871B5D20A5C4D95FBF438A942559B6956C0B149B00B14293C3996FEE91F7711F85E899304E93F8DA70
310
2DC740240E920D8D77D7469E6DCDB1813E4E91C79224ABEC33508C23726D886563EAED5892A76A6943B6380F9BAB77377F211E909818280831E7D7060F1E49842D9C67C986F0276B83336CEDB67BCBB58A8D75B23B86D3C7C655296624CE8055588F818AE2C0ADFF0B22D953CF161B6ADB7ADDB6F5CF6CB3A5E0754669CC33
310
1C07475C35E8F4BA71D577078BDBDE70620E0783BE3918F55CF3E6EE6661BA577D673E9ACF27B3DB8981A6DE3A49C25201298937A0C55763EA7AB6F8A6145FA1D0C67790C43109149A6D1B3644D1A5843731A901EB4AD12A0A2964AD2CF43B0A7F625B27506A2CD5D0D6C2E9CFAAF526EBBF0104DEC54A1927C2CA79C640D7
310
0AFBC21F1CCF2E566B7AA11C4538238CE2108574CD300305C1D642413532C25B04292430935AD4F4AABC82615FF6A5362EB779180AFF35A6D2D37CF0479271C919FD87B003F7D5DB80279036A7713656C266AF29909878B65C2CBEEBF7D4970590681BE21D580B882936F57B0DBCE622162C17C6F4F3DD7ABF12F1A1FDF294
310
25296199B03CE9CCCAEFB4062BA605C6D7019402D7BAEE0EA87C03E8BF00F2252FC803CD31BA1FEC075A768663BE4D5804DA410E321DF8E320F178F4E4D9E5E12942B558790A5370DB1F84694D8CDADD1548A7DE33187DC2FA4AB8558043B0E97B1A0B3F07434161024B10EFB7EBBD315D42308545388543901E7E3D5B3C22
310
F828E840BC6968A82DFC7650947698A69F1D74F5096C86D1A054554DC653F80E7F08BEB3C5EAF32A675B1C907BE5D80BB2A531CD2099B6335403BDE6F2DF975FA4471EC953DB15C03DBB44048E16BDAC945E90540CB022F270A11AB9724FC1DDC310C724C9B95A6F0B54411226CC5FBFFA850FB7DEF5A73682E232F06F6101
310
ADC10CB27BC0682A4031A64ABC32125A079C441C5406B82B94EAAF71F024E0F5038858EFE103AC16B326D13C4A7D1C25792CC2F7B1793745B3FA8EFC71DD49CF99F4C6939116964BF2DA7B7468289917F744383D71C9BCA62D153534E5C28F06102DDB2408A066CA333F497140B3765B6808A13C14C03ECBF2866EB73987A0
310
DE0A4B8363ABEF0E9153F95B5E729E7B75894F23BC23FE168B0CD77A5F0DA092B896A015995D98704E63C265857214B91AA838160482C26E35D51623A4DC8F4886DF637F32E535CC8F916DE8432D95896AF6B2F5690655F63C4551546E49EC4BF95F7D8EA3342CAAB44B18B8BDC60DADB80AA6C515CF606F3ECE7C674364D1
310
7D897A191734BE9DA84FDE4DFE043C0CFF7478F415144A6FC8919735EB5A4377227EC610544643B77FA51571092B7D55266A903087AA2978F55F08DD3D760B689DEEE124DCFA340CF3C82FF241462228C17096B34EFE3A1A3A47CA5771A1E110959BB6348402B973D094B587AE3E402A597C9C0A9A956B40281A438FD64990
310
23295A4D58EA42F6A3A2EDBAACFDB753FDCFF1B2DAA73C91D797846D5A39AD9711BA02D3058308972AC3957624294FBDAAF345B271B98CC3401351F1ADE812948530F24CC560427640ADFD037FC159008174253FCD1BF0880DD91C6A8A1A3935E630A670A9A6A6EBD46AA703C14EA48F5AE1B51401358269031671F65E3C84
310
DF30A81A2A3F6EABAAC62ED69722B159305839F07186D6D74FAB061558E97CFA4160445E1A14D4EA5C147267487D5F1EEAD5060525D1F7E599E3D9631EAD634C456614668137E9878FB297BCB6A151B087EE8D33BEBD1A9877B7CEC01C38C33BF3E676E49AA3BE3319C0D370E4CE6C467892B38070BB673BBEAE9DD278A70D
310
A380AE4B47015385CBAD9FB6E7A682FFC71D4598ACF1295BFC551B8AB2DC130559C317BB3614AD817AFDB6EADF3D0AD4ED49EC4D9573312BD0067E3E6D4130D2F9BE7B69A149EB4AA29DE74A467C63E23DD9ADFCF41C530BE8ADF9A1B6A32DE4D76331CC9E5AB294EE6E655CBBB9EACD47B359DF9CDC2E66E660EC8ECCF17C
310
71650EE693E1DDE2CA1D2EAE6625E22A1776CD2BBF440CD5CC56C668300DE6494861284F36684712E88060EAD021BEB28870D9D94001A0D2B87E23D0E1F4733153CDF03AD4A783470C83E95065E43C80A128741DD7865A47BFC118544C22E570CA7A82C4A3ACDD4039A3D70698404621BF586B1867C9E1A1A4DE185782DA70
310
BC133D5371AAFCFF704CA003B67290ABDCD305172559CD3A613890CAF70410ED7441F27ED1353B0867F0B8CEB35298C3C2411A05827E2150080753BF2705EF1E02CF79B95C4BEEA941D269327FD60E0AAA6686D94E8ED72B78CF160FB6988C2FBFA234CC77429DE7F27D8D9229EA8C302F86501E18861233C5A20F9F7FB01F
310
5802AF98227447C108D0EFFBF1E80F7B9E445112174BF64CBDA842AB4778EDB4B1F5C80F0A17C71DDAB2EE51637D985B7162E10D7F8205502DA362365A405C3380323C550C406B44E8028ED5F62F174825814A095B2D5D053C72A68FC091C4BB1CE136D50D950124F8027055CC69CB07BDE0D90C86E0D37F01504B03041400
310
06080800F6917657D720B48C3E01000046050000300000006662782F46464545394445412D433744302D343439422D413746362D4141383835364245433237382F636E782E786D6CCD94C14EC3300C865FA5CABDED5286344D692671E00938206E69EA95B034AE1217B1B72719D900A1210E93C62D727E4BFF67FFB2D8BC8D
310
B678051F0CBA96F16AC10A701A7BE38696CDB42D57ACD848E111E98B8C154E8DD0B25466520C1EE729977AD8AAD9A6AA356E978B8AC89B6E2608ACD05685D0B2A09F6154959A097B08BBAA57A42A5E7908387B0DB19FCC08B95F7B50043D93CDA2B929392F9BE681AFD6FC76BD5C3E893A29A5E8106DD61B47E0712A34C687
310
8B6616A24EDF52CCDE644D2260F2D359D51927EAF82F45886EDD9075B49F926E9AACD18AE2986AD404544611A851D41F6229EAC4FB8DFAFEEEF1E8A0E88D074DE8F7571A003F378093B12A26E16FFC07E1EFD8D8BD44DC6B6DFB2C6CB67531D4635A438CEBCFFDC7142937D8FF17FA93B1CB673E9E1232FAFF211F7D5D88B8
310
3E9CBCB8F47401E53B504B0304140006080800F69176576D0ED8157F000000A30000000B0000006662782F636E782E786D6C4D8CD10E822018465F85FDF7943513DC00870AEFE1121D0BA191B41E3F685E74F56D67DF39ACFB6C0EBD4D7CD9E0395C4E1520E3EF61B67EE590F60553409D603184FDEF06C84F9BE1503008B6
310
C6909E079ACD322557A8B3FE7140AD956A4725F140C60AD775DB63497483A5A4F4D6F46AB8129A8D7351F2FC7A794B5E7C01504B0304140006080800F6917657A6D797065F0000008200000007000000636E782E786D6C4DCB3B0E80201045D1AD90E9FD7516806B51190811670C8A61F982B1B0BAC9C97B72CA7B1037C6D3
310
332918DA1E04D2CAC69353902EDB8C20262D23F3F59B81A079470595414B17391D1F19B4730A5583A7ED43BBE4025D9592775E5ADFFA01504B0304140006080800F69176574FEB6A7CA0000000F4000000130000005B436F6E74656E745F54797065735D2E786D6C7D8F4B0EC2300C44AF1279DFA6B0400835ED02B8011730
310
C16D239A8F121795DB93D02D6269CFBC19BBED573B8B17C564BC53B0AB1B10E4B47F18372A5878A88E20FAAEBDBD032591BD2E299898C349CAA427B2986A1FC86565F0D122E7318E32A07EE24872DF3407A9BD63725C71C980AEBDD080CBCCE2BAE6F5D69B7110E7CD57AA146008B3D1C8F92C5954F993BB1BF787F39A89AB
310
C491D09600F9FDA2FB00504B0304140006080800F69176573DEE336E64000000790000001B0000006175746F6465736B2D64657369676E2D7061636B6167652E786D6C35CBC10E83200C00D05F21DCA56CA76D41FC96062B120735B69A7DBE268BB7777961F8D5AF396893C2ADB70FE7ADA196782C2DF776D7A97B5933C430
310
F15651E5469C55D70F80A4992A3ADC954792C525AE70A1E4D6AD9816CC044FEFDF01FE3FDE907802504B0304140006080800F6917657B30E5AB0F7000000960100003B0000006662782F46464545394445412D433744302D343439422D413746362D4141383835364245433237382F7265736F75726365732F636F72652E78
310
6D6C8550CB6E833010FC15B477436C5C9944C6911A942FE8A937CB6CA89560233FAA7E7E71A0527BEA6957B333B3BB23CF5FF3A3FAC410AD773DD0FA00153AE347EBA61E72BA910EAAB392C1FBF48B0695D333F6506050720A3E2F3B64BC4BE80AEAFC883BA863C4049579AC4D0FD17CE0AC6B9DD3CA88F77AD1E6AE27AC69
310
BDF194CCD98EBBD48EAB9BBD590CA084A017F1DA0D44B4979670C1AFA43B0A4ABA81F14174FC78E5543645AC64B2F3CF761350271C41B1036B09A584B137DA9DE8CB89F377D914A6923185F5E77D69F90E54C0E873301865B34DFFB8E665FCDF355B975AB6BB6E8A08AA1CF91C28D99494D6F28C70AD2551F50D504B030414
310
0006080800F6917657E17ED173F4000000B1010000310000006662782F46464545394445412D433744302D343439422D413746362D4141383835364245433237382F636F72652E786D6C8D50CB6EC32010FC156BEFD88638B11361222771BEA0A7DE10260E4A0C168FAA9F5F885DA9BDE5B4687686991D7AFC9E9ED997B44E
310
19DD02CE4BC8A41666507A6C21F81B6A203B326A8DF17F6890693EC916120C8C8ED684798584D15EEA846A33C815E4CE490F9978C6470B4EDCE5C4731E7C64B8473E73F1E0A3CC71BEF018F56AFA950A2BB997033052920DC21811F2819B03DE1EAAEA931689C968086A58ADD410DDD54D490BEC7AEDFBFDA5EFD0B9BE94A8
310
AAF627D4D5D71DEABAA6D9EE4EFD99D40D2D929851E76DBC79FD245DF7AE7C11FECB1CE6E18DCC4AFB0D590D17850386639ED782D1221518C7ABDD3853D9EC07504B0304140006080800F69176576C5172D752010000DD0200000C0000006662782F636F72652E786D6C8D525D6F832014FD2B8677B4288BB6419AAC4D7FC1
310
9EF646913AA2824130FDF9033FE27C58B7982039F7DE73EE39819C9F5D1B8DC20C52AB12A0F80022A1B8AEA4AA4BE0EC0316203A5362B4B63FDA40A458274A106040496DB4EB17886B65850AA8D2955840360CC28288B7FE5282817F898EC5CC59DF313471CF78C36A11A378EEA3C439592DA3B2F26CF221850134CFD1257F
310
2FAE30CF2E19C439BEC1E29823585C537CCD0B7CBC614492304C8995DDAACE8D60565480A687348308C134FD40C509BD9D30FE2449E8A464B0C67B5E44833B401FF72749667CC7E7FAEA6F3E2795CDD2856F9E18000DEB4D054A92908FFF4DE1ED33F4C23E3FCBEEED6AA1F1D028B8D506FB4AA5DD561A59EB84A73E44D347
310
92B9EA992782DF78D2173CAF397C504CD57E3566FDF5EE6C50DFEFD40B0347FB8C94361D6BB7E5E615B77313DA595AC7B96EB5F9CFF46A750D33090F937E03504B0304140006080800F69176572A9C04E805010000B201000008000000636F72652E786D6C8D50416EC32010FC0ADA3BB6C1543811265263E5053DF5460D71
310
506CB00C8EDADF1762576A6F3D2D9A99DD19469C3EA7113DCC12AC772D90A202645CEFB575430B6BBCE206D0498AC5FBF84B06C8A9C9B49061906258FC3AEF50EF5D342EA3CE6BB3832A041301F5637AB410FA9B9954A1D69814E15ECCAABFABC114A4D87452443BFDACF68B51D16890B4A235260453FA469A23793932F62E
310
CAAC94625DADDEADAC4EEEF66ACD02927372E6AF4D87797DAE31E3EC829B0327B8E928EB78C30E1746449997A50871497FDE8FA49C1105F5C8BEA2DC28293EBC1F77410AA59177E317C84A9499F8137A9DF53F425B176BBA1FDC3602C81CE84924E3DC601ACF7AD3CC6DCB6F504B01021400140006080800F6917657000000
310
0000000000000000003700000000000000000000000000000000006662782F46464545394445412D433744302D343439422D413746362D4141383835364245433237382F617474726962757465732E62696E504B01021400140006080800F69176570000000000000000000000003500000000000000000000000000550000
310
006662782F46464545394445412D433744302D343439422D413746362D4141383835364245433237382F76657274696365732E62696E504B01021400140006080800F6917657F270F13306000000040000003600000000000000000000000000A80000006662782F46464545394445412D433744302D343439422D41374636
310
2D4141383835364245433237382F747269616E676C65732E62696E504B01021400140006080800F691765751464CB489000000430100003600000000000000000000000000020100006662782F46464545394445412D433744302D343439422D413746362D4141383835364245433237382F6469726563746F72792E786D6C
310
504B01021400140006080800F691765783C4F45036070000201C00003400000000000000000000000000DF0100006662782F46464545394445412D433744302D343439422D413746362D4141383835364245433237382F6F626A656374732E786D6C504B01021400140006080800F6917657D720B48C3E0100004605000030
310
00000000000000000000000000670900006662782F46464545394445412D433744302D343439422D413746362D4141383835364245433237382F636E782E786D6C504B01021400140006080800F69176576D0ED8157F000000A30000000B00000000000000000000000000F30A00006662782F636E782E786D6C504B010214
310
00140006080800F6917657A6D797065F0000008200000007000000000000000000000000009B0B0000636E782E786D6C504B01021400140006080800F69176574FEB6A7CA0000000F400000013000000000000000000000000001F0C00005B436F6E74656E745F54797065735D2E786D6C504B01021400140006080800F691
310
76573DEE336E64000000790000001B00000000000000000000000000F00C00006175746F6465736B2D64657369676E2D7061636B6167652E786D6C504B01021400140006080800F6917657B30E5AB0F7000000960100003B000000000000000000000000008D0D00006662782F46464545394445412D433744302D34343942
310
2D413746362D4141383835364245433237382F7265736F75726365732F636F72652E786D6C504B01021400140006080800F6917657E17ED173F4000000B10100003100000000000000000000000000DD0E00006662782F46464545394445412D433744302D343439422D413746362D4141383835364245433237382F636F72
310
652E786D6C504B01021400140006080800F69176576C5172D752010000DD0200000C00000000000000000000000000201000006662782F636F72652E786D6C504B01021400140006080800F69176572A9C04E805010000B201000008000000000000000000000000009C110000636F72652E786D6C504B0506000000000E00
310
0E0080040000C71200000000
  0
XRECORD
  5
81CC
102
{ACAD_REACTORS
330
81C7
102
}
330
81C7
100
AcDbXrecord
280
     1
270
     1
271
     1
  0
XRECORD
  5
81CB
102
{ACAD_REACTORS
330
81C7
102
}
330
81C7
100
AcDbXrecord
280
     1
270
     1
271
     1
  0
XRECORD
  5
81CD
102
{ACAD_REACTORS
330
81C7
102
}
330
81C7
100
AcDbXrecord
280
     1
270
     1
271
     1
  0
XRECORD
  5
81CA
102
{ACAD_REACTORS
330
81C7
102
}
330
81C7
100
AcDbXrecord
280
     1
270
     1
271
     1
  0
XRECORD
  5
851F
102
{ACAD_REACTORS
330
851E
102
}
330
851E
100
AcDbXrecord
280
     1
102
DISPLAYNAME
  1
Imperial24
102
FLAGS
 90
        0
  0
CELLSTYLEMAP
  5
84E6
102
{ACAD_REACTORS
330
84E5
102
}
330
84E5
100
AcDbCellStyleMap
 90
        3
300
CELLSTYLE
  1
TABLEFORMAT_BEGIN
 90
        5
170
     1
 91
        0
 92
    32768
 62
   257
 93
        1
300
CONTENTFORMAT
  1
CONTENTFORMAT_BEGIN
 90
        0
 91
        0
 92
      512
 93
        0
300

 40
0.0
140
1.0
 94
        5
 62
     0
340
81FA
144
0.25
309
CONTENTFORMAT_END
171
     0
 94
        0
309
TABLEFORMAT_END
  1
CELLSTYLE_BEGIN
 90
        1
 91
        1
300
_TITLE
309
CELLSTYLE_END
300
CELLSTYLE
  1
TABLEFORMAT_BEGIN
 90
        5
170
     1
 91
        0
 92
        0
 62
   257
 93
        1
300
CONTENTFORMAT
  1
CONTENTFORMAT_BEGIN
 90
        0
 91
        0
 92
      512
 93
        0
300

 40
0.0
140
1.0
 94
        5
 62
     0
340
81FA
144
0.18
309
CONTENTFORMAT_END
171
     0
 94
        0
309
TABLEFORMAT_END
  1
CELLSTYLE_BEGIN
 90
        2
 91
        1
300
_HEADER
309
CELLSTYLE_END
300
CELLSTYLE
  1
TABLEFORMAT_BEGIN
 90
        5
170
     1
 91
        0
 92
        0
 62
   257
 93
        1
300
CONTENTFORMAT
  1
CONTENTFORMAT_BEGIN
 90
        0
 91
        0
 92
      512
 93
        0
300

 40
0.0
140
1.0
 94
        2
 62
     0
340
81FA
144
0.18
309
CONTENTFORMAT_END
171
     0
 94
        0
309
TABLEFORMAT_END
  1
CELLSTYLE_BEGIN
 90
        3
 91
        2
300
_DATA
309
CELLSTYLE_END
  0
XRECORD
  5
851C
102
{ACAD_REACTORS
330
84E5
102
}
330
84E5
100
AcDbXrecord
280
     1
102
ACAD_ROUNDTRIP_PRE2007_TABLESTYLE
 90
      512
 91
        0
  1

 92
      512
 93
        0
  2

 94
      512
 95
        0
  3

  0
XRECORD
  5
84F7
102
{ACAD_REACTORS
330
84F6
102
}
330
84F6
100
AcDbXrecord
280
     1
102
RTVSPost2010Prop28
280
     1
102
RTVSPost2010PropOp28
 70
     1
102
RTVSPost2010Prop29
280
     1
102
RTVSPost2010PropOp29
 70
     1
102
RTVSPost2010Prop30
280
     0
102
RTVSPost2010PropOp30
 70
     1
102
RTVSPost2010Prop31
280
     0
102
RTVSPost2010PropOp31
 70
     1
102
RTVSPost2010Prop32
280
     0
102
RTVSPost2010PropOp32
 70
     1
102
RTVSPost2010Prop33
280
     0
102
RTVSPost2010PropOp33
 70
     1
102
RTVSPost2010Prop34
280
     0
102
RTVSPost2010PropOp34
 70
     1
102
RTVSPost2010Prop35
280
     0
102
RTVSPost2010PropOp35
 70
     1
102
RTVSPost2010Prop36
280
     0
102
RTVSPost2010PropOp36
 70
     1
102
RTVSPost2010Prop37
 90
       50
102
RTVSPost2010PropOp37
 70
     1
102
RTVSPost2010Prop38
140
0.0
102
RTVSPost2010PropOp38
 70
     1
102
RTVSPost2010Prop39
140
1.0
102
RTVSPost2010PropOp39
 70
     1
102
RTVSPost2010Prop40
 90
        0
102
RTVSPost2010PropOp40
 70
     1
102
RTVSPost2010Prop41ColorIndex
 90
       18
102
RTVSPost2010Prop41ColorRGB
 90
        0
102
RTVSPost2010PropOp41
 70
     1
102
RTVSPost2010Prop42
 90
       50
102
RTVSPost2010PropOp42
 70
     1
102
RTVSPost2010Prop43
 90
        3
102
RTVSPost2010PropOp43
 70
     1
102
RTVSPost2010Prop44ColorIndex
 90
        5
102
RTVSPost2010Prop44ColorRGB
 90
      255
102
RTVSPost2010PropOp44
 70
     1
102
RTVSPost2010Prop45
280
     0
102
RTVSPost2010PropOp45
 70
     1
102
RTVSPost2010Prop46
 90
       50
102
RTVSPost2010PropOp46
 70
     1
102
RTVSPost2010Prop47
 90
       50
102
RTVSPost2010PropOp47
 70
     1
102
RTVSPost2010Prop48
 90
       50
102
RTVSPost2010PropOp48
 70
     1
102
RTVSPost2010Prop49
280
     0
102
RTVSPost2010PropOp49
 70
     1
102
RTVSPost2010Prop50
 90
       50
102
RTVSPost2010PropOp50
 70
     1
102
RTVSPost2010Prop51ColorIndex
 90
      256
102
RTVSPost2010Prop51ColorRGB
 90
-16777216
102
RTVSPost2010PropOp51
 70
     0
102
RTVSPost2010Prop52
140
1.0
102
RTVSPost2010PropOp52
 70
     0
102
RTVSPost2010Prop53
 90
        2
102
RTVSPost2010PropOp53
 70
     1
102
RTVSPost2010Prop54
  1
strokes_ogs.tif
102
RTVSPost2010PropOp54
 70
     1
102
RTVSPost2010Prop55
280
     0
102
RTVSPost2010PropOp55
 70
     1
102
RTVSPost2010Prop56
140
1.0
102
RTVSPost2010PropOp56
 70
     1
102
RTVSPost2010Prop57
140
1.0
102
RTVSPost2010PropOp57
 70
     1
102
RTVSPropertyOp0
 70
     1
102
RTVSPropertyOp1
 70
     1
102
RTVSPropertyOp2
 70
     1
102
RTVSPropertyOp3
 70
     1
102
RTVSPropertyOp4
 70
     1
102
RTVSPropertyOp5
 70
     1
102
RTVSPropertyOp6
 70
     1
102
RTVSPropertyOp7
 70
     1
102
RTVSPropertyOp8
 70
     1
102
RTVSPropertyOp9
 70
     1
102
RTVSPropertyOp10
 70
     1
102
RTVSPropertyOp11
 70
     1
102
RTVSPropertyOp12
 70
     1
102
RTVSPropertyOp13
 70
     1
102
RTVSPropertyOp14
 70
     1
102
RTVSPropertyOp15
 70
     1
102
RTVSPropertyOp16
 70
     1
102
RTVSPropertyOp17
 70
     1
102
RTVSPropertyOp18
 70
     1
102
RTVSPropertyOp19
 70
     1
102
RTVSPropertyOp20
 70
     1
102
RTVSPropertyOp21
 70
     1
102
RTVSPropertyOp22
 70
     1
102
RTVSPropertyOp23
 70
     1
102
RTVSPropertyOp24
 70
     1
102
RTVSPropertyOp25
 70
     1
102
RTVSPropertyOp26
 70
     1
102
RTVSPropertyOp27
 70
     1
102
RTVSPropertyOp28
 70
     1
102
RTVSPropertyOp29
 70
     1
102
RTVSPropertyOp30
 70
     1
102
RTVSPropertyOp31
 70
     1
102
RTVSPropertyOp32
 70
     1
102
RTVSPropertyOp33
 70
     1
102
RTVSPropertyOp34
 70
     1
102
RTVSPropertyOp35
 70
     1
102
RTVSPropertyOp36
 70
     1
102
RTVSPropertyOp37
 70
     1
102
RTVSPropertyOp38
 70
     1
102
RTVSPropertyOp39
 70
     1
102
RTVSPropertyOp40
 70
     1
102
RTVSPropertyOp41
 70
     1
102
RTVSPropertyOp42
 70
     1
102
RTVSPropertyOp43
 70
     1
102
RTVSPropertyOp44
 70
     1
102
RTVSPropertyOp45
 70
     1
102
RTVSPropertyOp46
 70
     1
102
RTVSPropertyOp47
 70
     1
102
RTVSPropertyOp48
 70
     1
102
RTVSPropertyOp49
 70
     1
102
RTVSPropertyOp50
 70
     1
102
RTVSPropertyOp51
 70
     0
102
RTVSPropertyOp52
 70
     0
102
RTVSPropertyOp53
 70
     1
102
RTVSPropertyOp54
 70
     1
102
RTVSPropertyOp55
 70
     1
102
RTVSPropertyOp56
 70
     1
102
RTVSPropertyOp57
 70
     1
102
RTVSPropertyOp58
 70
     1
102
RTVSPropertyOp59
 70
     1
102
RTVSPropertyOp60
 70
     1
102
RTVSPropertyOp61
 70
     1
102
RTVSPropertyOp62
 70
     1
  0
XRECORD
  5
84F5
102
{ACAD_REACTORS
330
84F4
102
}
330
84F4
100
AcDbXrecord
280
     1
102
RTVSPost2010Prop28
280
     0
102
RTVSPost2010PropOp28
 70
     1
102
RTVSPost2010Prop29
280
     1
102
RTVSPost2010PropOp29
 70
     1
102
RTVSPost2010Prop30
280
     1
102
RTVSPost2010PropOp30
 70
     1
102
RTVSPost2010Prop31
280
     0
102
RTVSPost2010PropOp31
 70
     1
102
RTVSPost2010Prop32
280
     0
102
RTVSPost2010PropOp32
 70
     1
102
RTVSPost2010Prop33
280
     0
102
RTVSPost2010PropOp33
 70
     1
102
RTVSPost2010Prop34
280
     0
102
RTVSPost2010PropOp34
 70
     1
102
RTVSPost2010Prop35
280
     0
102
RTVSPost2010PropOp35
 70
     1
102
RTVSPost2010Prop36
280
     0
102
RTVSPost2010PropOp36
 70
     1
102
RTVSPost2010Prop37
 90
       50
102
RTVSPost2010PropOp37
 70
     1
102
RTVSPost2010Prop38
140
0.0
102
RTVSPost2010PropOp38
 70
     1
102
RTVSPost2010Prop39
140
1.0
102
RTVSPost2010PropOp39
 70
     1
102
RTVSPost2010Prop40
 90
        0
102
RTVSPost2010PropOp40
 70
     1
102
RTVSPost2010Prop41ColorIndex
 90
       18
102
RTVSPost2010Prop41ColorRGB
 90
        0
102
RTVSPost2010PropOp41
 70
     1
102
RTVSPost2010Prop42
 90
       50
102
RTVSPost2010PropOp42
 70
     1
102
RTVSPost2010Prop43
 90
        3
102
RTVSPost2010PropOp43
 70
     1
102
RTVSPost2010Prop44ColorIndex
 90
        5
102
RTVSPost2010Prop44ColorRGB
 90
      255
102
RTVSPost2010PropOp44
 70
     1
102
RTVSPost2010Prop45
280
     0
102
RTVSPost2010PropOp45
 70
     1
102
RTVSPost2010Prop46
 90
       50
102
RTVSPost2010PropOp46
 70
     1
102
RTVSPost2010Prop47
 90
       50
102
RTVSPost2010PropOp47
 70
     1
102
RTVSPost2010Prop48
 90
       50
102
RTVSPost2010PropOp48
 70
     1
102
RTVSPost2010Prop49
280
     0
102
RTVSPost2010PropOp49
 70
     1
102
RTVSPost2010Prop50
 90
       50
102
RTVSPost2010PropOp50
 70
     1
102
RTVSPost2010Prop51ColorIndex
 90
      256
102
RTVSPost2010Prop51ColorRGB
 90
-16777216
102
RTVSPost2010PropOp51
 70
     0
102
RTVSPost2010Prop52
140
1.0
102
RTVSPost2010PropOp52
 70
     0
102
RTVSPost2010Prop53
 90
        2
102
RTVSPost2010PropOp53
 70
     1
102
RTVSPost2010Prop54
  1
strokes_ogs.tif
102
RTVSPost2010PropOp54
 70
     1
102
RTVSPost2010Prop55
280
     0
102
RTVSPost2010PropOp55
 70
     1
102
RTVSPost2010Prop56
140
1.0
102
RTVSPost2010PropOp56
 70
     1
102
RTVSPost2010Prop57
140
1.0
102
RTVSPost2010PropOp57
 70
     1
102
RTVSPropertyOp0
 70
     1
102
RTVSPropertyOp1
 70
     1
102
RTVSPropertyOp2
 70
     1
102
RTVSPropertyOp3
 70
     1
102
RTVSPropertyOp4
 70
     1
102
RTVSPropertyOp5
 70
     1
102
RTVSPropertyOp6
 70
     1
102
RTVSPropertyOp7
 70
     1
102
RTVSPropertyOp8
 70
     1
102
RTVSPropertyOp9
 70
     1
102
RTVSPropertyOp10
 70
     1
102
RTVSPropertyOp11
 70
     1
102
RTVSPropertyOp12
 70
     1
102
RTVSPropertyOp13
 70
     1
102
RTVSPropertyOp14
 70
     1
102
RTVSPropertyOp15
 70
     1
102
RTVSPropertyOp16
 70
     1
102
RTVSPropertyOp17
 70
     1
102
RTVSPropertyOp18
 70
     1
102
RTVSPropertyOp19
 70
     1
102
RTVSPropertyOp20
 70
     1
102
RTVSPropertyOp21
 70
     1
102
RTVSPropertyOp22
 70
     1
102
RTVSPropertyOp23
 70
     1
102
RTVSPropertyOp24
 70
     1
102
RTVSPropertyOp25
 70
     1
102
RTVSPropertyOp26
 70
     1
102
RTVSPropertyOp27
 70
     1
102
RTVSPropertyOp28
 70
     1
102
RTVSPropertyOp29
 70
     1
102
RTVSPropertyOp30
 70
     1
102
RTVSPropertyOp31
 70
     1
102
RTVSPropertyOp32
 70
     1
102
RTVSPropertyOp33
 70
     1
102
RTVSPropertyOp34
 70
     1
102
RTVSPropertyOp35
 70
     1
102
RTVSPropertyOp36
 70
     1
102
RTVSPropertyOp37
 70
     1
102
RTVSPropertyOp38
 70
     1
102
RTVSPropertyOp39
 70
     1
102
RTVSPropertyOp40
 70
     1
102
RTVSPropertyOp41
 70
     1
102
RTVSPropertyOp42
 70
     1
102
RTVSPropertyOp43
 70
     1
102
RTVSPropertyOp44
 70
     1
102
RTVSPropertyOp45
 70
     1
102
RTVSPropertyOp46
 70
     1
102
RTVSPropertyOp47
 70
     1
102
RTVSPropertyOp48
 70
     1
102
RTVSPropertyOp49
 70
     1
102
RTVSPropertyOp50
 70
     1
102
RTVSPropertyOp51
 70
     0
102
RTVSPropertyOp52
 70
     0
102
RTVSPropertyOp53
 70
     1
102
RTVSPropertyOp54
 70
     1
102
RTVSPropertyOp55
 70
     1
102
RTVSPropertyOp56
 70
     1
102
RTVSPropertyOp57
 70
     1
102
RTVSPropertyOp58
 70
     1
102
RTVSPropertyOp59
 70
     1
102
RTVSPropertyOp60
 70
     1
102
RTVSPropertyOp61
 70
     1
102
RTVSPropertyOp62
 70
     1
  0
XRECORD
  5
8503
102
{ACAD_REACTORS
330
8502
102
}
330
8502
100
AcDbXrecord
280
     1
102
RTVSPost2010Prop28
280
     0
102
RTVSPost2010PropOp28
 70
     1
102
RTVSPost2010Prop29
280
     1
102
RTVSPost2010PropOp29
 70
     1
102
RTVSPost2010Prop30
280
     1
102
RTVSPost2010PropOp30
 70
     1
102
RTVSPost2010Prop31
280
     0
102
RTVSPost2010PropOp31
 70
     1
102
RTVSPost2010Prop32
280
     0
102
RTVSPost2010PropOp32
 70
     1
102
RTVSPost2010Prop33
280
     0
102
RTVSPost2010PropOp33
 70
     1
102
RTVSPost2010Prop34
280
     0
102
RTVSPost2010PropOp34
 70
     1
102
RTVSPost2010Prop35
280
     0
102
RTVSPost2010PropOp35
 70
     1
102
RTVSPost2010Prop36
280
     0
102
RTVSPost2010PropOp36
 70
     1
102
RTVSPost2010Prop37
 90
       50
102
RTVSPost2010PropOp37
 70
     1
102
RTVSPost2010Prop38
140
0.0
102
RTVSPost2010PropOp38
 70
     1
102
RTVSPost2010Prop39
140
1.0
102
RTVSPost2010PropOp39
 70
     1
102
RTVSPost2010Prop40
 90
        0
102
RTVSPost2010PropOp40
 70
     1
102
RTVSPost2010Prop41ColorIndex
 90
       18
102
RTVSPost2010Prop41ColorRGB
 90
        0
102
RTVSPost2010PropOp41
 70
     1
102
RTVSPost2010Prop42
 90
       50
102
RTVSPost2010PropOp42
 70
     1
102
RTVSPost2010Prop43
 90
        3
102
RTVSPost2010PropOp43
 70
     1
102
RTVSPost2010Prop44ColorIndex
 90
        5
102
RTVSPost2010Prop44ColorRGB
 90
      255
102
RTVSPost2010PropOp44
 70
     1
102
RTVSPost2010Prop45
280
     0
102
RTVSPost2010PropOp45
 70
     1
102
RTVSPost2010Prop46
 90
       50
102
RTVSPost2010PropOp46
 70
     1
102
RTVSPost2010Prop47
 90
       50
102
RTVSPost2010PropOp47
 70
     1
102
RTVSPost2010Prop48
 90
       50
102
RTVSPost2010PropOp48
 70
     1
102
RTVSPost2010Prop49
280
     0
102
RTVSPost2010PropOp49
 70
     1
102
RTVSPost2010Prop50
 90
       50
102
RTVSPost2010PropOp50
 70
     1
102
RTVSPost2010Prop51ColorIndex
 90
      256
102
RTVSPost2010Prop51ColorRGB
 90
-16777216
102
RTVSPost2010PropOp51
 70
     0
102
RTVSPost2010Prop52
140
1.0
102
RTVSPost2010PropOp52
 70
     0
102
RTVSPost2010Prop53
 90
        2
102
RTVSPost2010PropOp53
 70
     1
102
RTVSPost2010Prop54
  1
strokes_ogs.tif
102
RTVSPost2010PropOp54
 70
     1
102
RTVSPost2010Prop55
280
     0
102
RTVSPost2010PropOp55
 70
     1
102
RTVSPost2010Prop56
140
1.0
102
RTVSPost2010PropOp56
 70
     1
102
RTVSPost2010Prop57
140
1.0
102
RTVSPost2010PropOp57
 70
     1
102
RTVSPropertyOp0
 70
     1
102
RTVSPropertyOp1
 70
     1
102
RTVSPropertyOp2
 70
     1
102
RTVSPropertyOp3
 70
     1
102
RTVSPropertyOp4
 70
     1
102
RTVSPropertyOp5
 70
     1
102
RTVSPropertyOp6
 70
     1
102
RTVSPropertyOp7
 70
     1
102
RTVSPropertyOp8
 70
     1
102
RTVSPropertyOp9
 70
     1
102
RTVSPropertyOp10
 70
     1
102
RTVSPropertyOp11
 70
     1
102
RTVSPropertyOp12
 70
     1
102
RTVSPropertyOp13
 70
     1
102
RTVSPropertyOp14
 70
     1
102
RTVSPropertyOp15
 70
     1
102
RTVSPropertyOp16
 70
     1
102
RTVSPropertyOp17
 70
     1
102
RTVSPropertyOp18
 70
     1
102
RTVSPropertyOp19
 70
     1
102
RTVSPropertyOp20
 70
     1
102
RTVSPropertyOp21
 70
     1
102
RTVSPropertyOp22
 70
     1
102
RTVSPropertyOp23
 70
     1
102
RTVSPropertyOp24
 70
     1
102
RTVSPropertyOp25
 70
     1
102
RTVSPropertyOp26
 70
     1
102
RTVSPropertyOp27
 70
     1
102
RTVSPropertyOp28
 70
     1
102
RTVSPropertyOp29
 70
     1
102
RTVSPropertyOp30
 70
     1
102
RTVSPropertyOp31
 70
     1
102
RTVSPropertyOp32
 70
     1
102
RTVSPropertyOp33
 70
     1
102
RTVSPropertyOp34
 70
     1
102
RTVSPropertyOp35
 70
     1
102
RTVSPropertyOp36
 70
     1
102
RTVSPropertyOp37
 70
     1
102
RTVSPropertyOp38
 70
     1
102
RTVSPropertyOp39
 70
     1
102
RTVSPropertyOp40
 70
     1
102
RTVSPropertyOp41
 70
     1
102
RTVSPropertyOp42
 70
     1
102
RTVSPropertyOp43
 70
     1
102
RTVSPropertyOp44
 70
     1
102
RTVSPropertyOp45
 70
     1
102
RTVSPropertyOp46
 70
     1
102
RTVSPropertyOp47
 70
     1
102
RTVSPropertyOp48
 70
     1
102
RTVSPropertyOp49
 70
     1
102
RTVSPropertyOp50
 70
     1
102
RTVSPropertyOp51
 70
     0
102
RTVSPropertyOp52
 70
     0
102
RTVSPropertyOp53
 70
     1
102
RTVSPropertyOp54
 70
     1
102
RTVSPropertyOp55
 70
     1
102
RTVSPropertyOp56
 70
     1
102
RTVSPropertyOp57
 70
     1
102
RTVSPropertyOp58
 70
     1
102
RTVSPropertyOp59
 70
     1
102
RTVSPropertyOp60
 70
     1
102
RTVSPropertyOp61
 70
     1
102
RTVSPropertyOp62
 70
     1
  0
XRECORD
  5
850B
102
{ACAD_REACTORS
330
850A
102
}
330
850A
100
AcDbXrecord
280
     1
102
RTVSPost2010Prop28
280
     0
102
RTVSPost2010PropOp28
 70
     1
102
RTVSPost2010Prop29
280
     1
102
RTVSPost2010PropOp29
 70
     1
102
RTVSPost2010Prop30
280
     1
102
RTVSPost2010PropOp30
 70
     1
102
RTVSPost2010Prop31
280
     0
102
RTVSPost2010PropOp31
 70
     1
102
RTVSPost2010Prop32
280
     0
102
RTVSPost2010PropOp32
 70
     1
102
RTVSPost2010Prop33
280
     0
102
RTVSPost2010PropOp33
 70
     1
102
RTVSPost2010Prop34
280
     0
102
RTVSPost2010PropOp34
 70
     1
102
RTVSPost2010Prop35
280
     0
102
RTVSPost2010PropOp35
 70
     1
102
RTVSPost2010Prop36
280
     0
102
RTVSPost2010PropOp36
 70
     1
102
RTVSPost2010Prop37
 90
       50
102
RTVSPost2010PropOp37
 70
     1
102
RTVSPost2010Prop38
140
0.0
102
RTVSPost2010PropOp38
 70
     1
102
RTVSPost2010Prop39
140
1.0
102
RTVSPost2010PropOp39
 70
     1
102
RTVSPost2010Prop40
 90
        0
102
RTVSPost2010PropOp40
 70
     1
102
RTVSPost2010Prop41ColorIndex
 90
       18
102
RTVSPost2010Prop41ColorRGB
 90
        0
102
RTVSPost2010PropOp41
 70
     1
102
RTVSPost2010Prop42
 90
       50
102
RTVSPost2010PropOp42
 70
     1
102
RTVSPost2010Prop43
 90
        3
102
RTVSPost2010PropOp43
 70
     1
102
RTVSPost2010Prop44ColorIndex
 90
        5
102
RTVSPost2010Prop44ColorRGB
 90
      255
102
RTVSPost2010PropOp44
 70
     1
102
RTVSPost2010Prop45
280
     0
102
RTVSPost2010PropOp45
 70
     1
102
RTVSPost2010Prop46
 90
       50
102
RTVSPost2010PropOp46
 70
     1
102
RTVSPost2010Prop47
 90
       50
102
RTVSPost2010PropOp47
 70
     1
102
RTVSPost2010Prop48
 90
       50
102
RTVSPost2010PropOp48
 70
     1
102
RTVSPost2010Prop49
280
     0
102
RTVSPost2010PropOp49
 70
     1
102
RTVSPost2010Prop50
 90
       50
102
RTVSPost2010PropOp50
 70
     1
102
RTVSPost2010Prop51ColorIndex
 90
      256
102
RTVSPost2010Prop51ColorRGB
 90
-16777216
102
RTVSPost2010PropOp51
 70
     0
102
RTVSPost2010Prop52
140
1.0
102
RTVSPost2010PropOp52
 70
     0
102
RTVSPost2010Prop53
 90
        2
102
RTVSPost2010PropOp53
 70
     1
102
RTVSPost2010Prop54
  1
strokes_ogs.tif
102
RTVSPost2010PropOp54
 70
     1
102
RTVSPost2010Prop55
280
     0
102
RTVSPost2010PropOp55
 70
     1
102
RTVSPost2010Prop56
140
1.0
102
RTVSPost2010PropOp56
 70
     1
102
RTVSPost2010Prop57
140
1.0
102
RTVSPost2010PropOp57
 70
     1
102
RTVSPropertyOp0
 70
     1
102
RTVSPropertyOp1
 70
     1
102
RTVSPropertyOp2
 70
     1
102
RTVSPropertyOp3
 70
     1
102
RTVSPropertyOp4
 70
     1
102
RTVSPropertyOp5
 70
     1
102
RTVSPropertyOp6
 70
     1
102
RTVSPropertyOp7
 70
     1
102
RTVSPropertyOp8
 70
     1
102
RTVSPropertyOp9
 70
     1
102
RTVSPropertyOp10
 70
     1
102
RTVSPropertyOp11
 70
     1
102
RTVSPropertyOp12
 70
     1
102
RTVSPropertyOp13
 70
     1
102
RTVSPropertyOp14
 70
     1
102
RTVSPropertyOp15
 70
     1
102
RTVSPropertyOp16
 70
     1
102
RTVSPropertyOp17
 70
     1
102
RTVSPropertyOp18
 70
     1
102
RTVSPropertyOp19
 70
     1
102
RTVSPropertyOp20
 70
     1
102
RTVSPropertyOp21
 70
     1
102
RTVSPropertyOp22
 70
     1
102
RTVSPropertyOp23
 70
     1
102
RTVSPropertyOp24
 70
     1
102
RTVSPropertyOp25
 70
     1
102
RTVSPropertyOp26
 70
     1
102
RTVSPropertyOp27
 70
     1
102
RTVSPropertyOp28
 70
     1
102
RTVSPropertyOp29
 70
     1
102
RTVSPropertyOp30
 70
     1
102
RTVSPropertyOp31
 70
     1
102
RTVSPropertyOp32
 70
     1
102
RTVSPropertyOp33
 70
     1
102
RTVSPropertyOp34
 70
     1
102
RTVSPropertyOp35
 70
     1
102
RTVSPropertyOp36
 70
     1
102
RTVSPropertyOp37
 70
     1
102
RTVSPropertyOp38
 70
     1
102
RTVSPropertyOp39
 70
     1
102
RTVSPropertyOp40
 70
     1
102
RTVSPropertyOp41
 70
     1
102
RTVSPropertyOp42
 70
     1
102
RTVSPropertyOp43
 70
     1
102
RTVSPropertyOp44
 70
     1
102
RTVSPropertyOp45
 70
     1
102
RTVSPropertyOp46
 70
     1
102
RTVSPropertyOp47
 70
     1
102
RTVSPropertyOp48
 70
     1
102
RTVSPropertyOp49
 70
     1
102
RTVSPropertyOp50
 70
     1
102
RTVSPropertyOp51
 70
     0
102
RTVSPropertyOp52
 70
     0
102
RTVSPropertyOp53
 70
     1
102
RTVSPropertyOp54
 70
     1
102
RTVSPropertyOp55
 70
     1
102
RTVSPropertyOp56
 70
     1
102
RTVSPropertyOp57
 70
     1
102
RTVSPropertyOp58
 70
     1
102
RTVSPropertyOp59
 70
     1
102
RTVSPropertyOp60
 70
     1
102
RTVSPropertyOp61
 70
     1
102
RTVSPropertyOp62
 70
     1
  0
XRECORD
  5
84FD
102
{ACAD_REACTORS
330
84FC
102
}
330
84FC
100
AcDbXrecord
280
     1
102
RTVSPost2010Prop28
280
     0
102
RTVSPost2010PropOp28
 70
     1
102
RTVSPost2010Prop29
280
     1
102
RTVSPost2010PropOp29
 70
     1
102
RTVSPost2010Prop30
280
     1
102
RTVSPost2010PropOp30
 70
     1
102
RTVSPost2010Prop31
280
     0
102
RTVSPost2010PropOp31
 70
     1
102
RTVSPost2010Prop32
280
     0
102
RTVSPost2010PropOp32
 70
     1
102
RTVSPost2010Prop33
280
     0
102
RTVSPost2010PropOp33
 70
     1
102
RTVSPost2010Prop34
280
     0
102
RTVSPost2010PropOp34
 70
     1
102
RTVSPost2010Prop35
280
     0
102
RTVSPost2010PropOp35
 70
     1
102
RTVSPost2010Prop36
280
     0
102
RTVSPost2010PropOp36
 70
     1
102
RTVSPost2010Prop37
 90
       50
102
RTVSPost2010PropOp37
 70
     1
102
RTVSPost2010Prop38
140
0.0
102
RTVSPost2010PropOp38
 70
     1
102
RTVSPost2010Prop39
140
1.0
102
RTVSPost2010PropOp39
 70
     1
102
RTVSPost2010Prop40
 90
        0
102
RTVSPost2010PropOp40
 70
     1
102
RTVSPost2010Prop41ColorIndex
 90
       18
102
RTVSPost2010Prop41ColorRGB
 90
        0
102
RTVSPost2010PropOp41
 70
     1
102
RTVSPost2010Prop42
 90
       50
102
RTVSPost2010PropOp42
 70
     1
102
RTVSPost2010Prop43
 90
        3
102
RTVSPost2010PropOp43
 70
     1
102
RTVSPost2010Prop44ColorIndex
 90
        5
102
RTVSPost2010Prop44ColorRGB
 90
      255
102
RTVSPost2010PropOp44
 70
     1
102
RTVSPost2010Prop45
280
     0
102
RTVSPost2010PropOp45
 70
     1
102
RTVSPost2010Prop46
 90
       50
102
RTVSPost2010PropOp46
 70
     1
102
RTVSPost2010Prop47
 90
       50
102
RTVSPost2010PropOp47
 70
     1
102
RTVSPost2010Prop48
 90
       50
102
RTVSPost2010PropOp48
 70
     1
102
RTVSPost2010Prop49
280
     0
102
RTVSPost2010PropOp49
 70
     1
102
RTVSPost2010Prop50
 90
       50
102
RTVSPost2010PropOp50
 70
     1
102
RTVSPost2010Prop51ColorIndex
 90
      256
102
RTVSPost2010Prop51ColorRGB
 90
-16777216
102
RTVSPost2010PropOp51
 70
     0
102
RTVSPost2010Prop52
140
1.0
102
RTVSPost2010PropOp52
 70
     0
102
RTVSPost2010Prop53
 90
        2
102
RTVSPost2010PropOp53
 70
     1
102
RTVSPost2010Prop54
  1
strokes_ogs.tif
102
RTVSPost2010PropOp54
 70
     1
102
RTVSPost2010Prop55
280
     0
102
RTVSPost2010PropOp55
 70
     1
102
RTVSPost2010Prop56
140
1.0
102
RTVSPost2010PropOp56
 70
     1
102
RTVSPost2010Prop57
140
1.0
102
RTVSPost2010PropOp57
 70
     1
102
RTVSPropertyOp0
 70
     1
102
RTVSPropertyOp1
 70
     1
102
RTVSPropertyOp2
 70
     1
102
RTVSPropertyOp3
 70
     1
102
RTVSPropertyOp4
 70
     1
102
RTVSPropertyOp5
 70
     1
102
RTVSPropertyOp6
 70
     1
102
RTVSPropertyOp7
 70
     1
102
RTVSPropertyOp8
 70
     1
102
RTVSPropertyOp9
 70
     1
102
RTVSPropertyOp10
 70
     1
102
RTVSPropertyOp11
 70
     1
102
RTVSPropertyOp12
 70
     1
102
RTVSPropertyOp13
 70
     1
102
RTVSPropertyOp14
 70
     1
102
RTVSPropertyOp15
 70
     1
102
RTVSPropertyOp16
 70
     1
102
RTVSPropertyOp17
 70
     1
102
RTVSPropertyOp18
 70
     1
102
RTVSPropertyOp19
 70
     1
102
RTVSPropertyOp20
 70
     1
102
RTVSPropertyOp21
 70
     1
102
RTVSPropertyOp22
 70
     1
102
RTVSPropertyOp23
 70
     1
102
RTVSPropertyOp24
 70
     1
102
RTVSPropertyOp25
 70
     1
102
RTVSPropertyOp26
 70
     1
102
RTVSPropertyOp27
 70
     1
102
RTVSPropertyOp28
 70
     1
102
RTVSPropertyOp29
 70
     1
102
RTVSPropertyOp30
 70
     1
102
RTVSPropertyOp31
 70
     1
102
RTVSPropertyOp32
 70
     1
102
RTVSPropertyOp33
 70
     1
102
RTVSPropertyOp34
 70
     1
102
RTVSPropertyOp35
 70
     1
102
RTVSPropertyOp36
 70
     1
102
RTVSPropertyOp37
 70
     1
102
RTVSPropertyOp38
 70
     1
102
RTVSPropertyOp39
 70
     1
102
RTVSPropertyOp40
 70
     1
102
RTVSPropertyOp41
 70
     1
102
RTVSPropertyOp42
 70
     1
102
RTVSPropertyOp43
 70
     1
102
RTVSPropertyOp44
 70
     1
102
RTVSPropertyOp45
 70
     1
102
RTVSPropertyOp46
 70
     1
102
RTVSPropertyOp47
 70
     1
102
RTVSPropertyOp48
 70
     1
102
RTVSPropertyOp49
 70
     1
102
RTVSPropertyOp50
 70
     1
102
RTVSPropertyOp51
 70
     0
102
RTVSPropertyOp52
 70
     0
102
RTVSPropertyOp53
 70
     1
102
RTVSPropertyOp54
 70
     1
102
RTVSPropertyOp55
 70
     1
102
RTVSPropertyOp56
 70
     1
102
RTVSPropertyOp57
 70
     1
102
RTVSPropertyOp58
 70
     1
102
RTVSPropertyOp59
 70
     1
102
RTVSPropertyOp60
 70
     1
102
RTVSPropertyOp61
 70
     1
102
RTVSPropertyOp62
 70
     1
  0
XRECORD
  5
8501
102
{ACAD_REACTORS
330
8500
102
}
330
8500
100
AcDbXrecord
280
     1
102
RTVSPost2010Prop28
280
     0
102
RTVSPost2010PropOp28
 70
     1
102
RTVSPost2010Prop29
280
     1
102
RTVSPost2010PropOp29
 70
     1
102
RTVSPost2010Prop30
280
     1
102
RTVSPost2010PropOp30
 70
     1
102
RTVSPost2010Prop31
280
     0
102
RTVSPost2010PropOp31
 70
     1
102
RTVSPost2010Prop32
280
     0
102
RTVSPost2010PropOp32
 70
     1
102
RTVSPost2010Prop33
280
     0
102
RTVSPost2010PropOp33
 70
     1
102
RTVSPost2010Prop34
280
     0
102
RTVSPost2010PropOp34
 70
     1
102
RTVSPost2010Prop35
280
     0
102
RTVSPost2010PropOp35
 70
     1
102
RTVSPost2010Prop36
280
     0
102
RTVSPost2010PropOp36
 70
     1
102
RTVSPost2010Prop37
 90
       50
102
RTVSPost2010PropOp37
 70
     1
102
RTVSPost2010Prop38
140
0.0
102
RTVSPost2010PropOp38
 70
     1
102
RTVSPost2010Prop39
140
1.0
102
RTVSPost2010PropOp39
 70
     1
102
RTVSPost2010Prop40
 90
        0
102
RTVSPost2010PropOp40
 70
     1
102
RTVSPost2010Prop41ColorIndex
 90
       18
102
RTVSPost2010Prop41ColorRGB
 90
        0
102
RTVSPost2010PropOp41
 70
     1
102
RTVSPost2010Prop42
 90
       50
102
RTVSPost2010PropOp42
 70
     1
102
RTVSPost2010Prop43
 90
        3
102
RTVSPost2010PropOp43
 70
     1
102
RTVSPost2010Prop44ColorIndex
 90
        5
102
RTVSPost2010Prop44ColorRGB
 90
      255
102
RTVSPost2010PropOp44
 70
     1
102
RTVSPost2010Prop45
280
     0
102
RTVSPost2010PropOp45
 70
     1
102
RTVSPost2010Prop46
 90
       50
102
RTVSPost2010PropOp46
 70
     1
102
RTVSPost2010Prop47
 90
       50
102
RTVSPost2010PropOp47
 70
     1
102
RTVSPost2010Prop48
 90
       50
102
RTVSPost2010PropOp48
 70
     1
102
RTVSPost2010Prop49
280
     0
102
RTVSPost2010PropOp49
 70
     1
102
RTVSPost2010Prop50
 90
       50
102
RTVSPost2010PropOp50
 70
     1
102
RTVSPost2010Prop51ColorIndex
 90
      256
102
RTVSPost2010Prop51ColorRGB
 90
-16777216
102
RTVSPost2010PropOp51
 70
     0
102
RTVSPost2010Prop52
140
1.0
102
RTVSPost2010PropOp52
 70
     0
102
RTVSPost2010Prop53
 90
        2
102
RTVSPost2010PropOp53
 70
     1
102
RTVSPost2010Prop54
  1
strokes_ogs.tif
102
RTVSPost2010PropOp54
 70
     1
102
RTVSPost2010Prop55
280
     0
102
RTVSPost2010PropOp55
 70
     1
102
RTVSPost2010Prop56
140
1.0
102
RTVSPost2010PropOp56
 70
     1
102
RTVSPost2010Prop57
140
1.0
102
RTVSPost2010PropOp57
 70
     1
102
RTVSPropertyOp0
 70
     1
102
RTVSPropertyOp1
 70
     1
102
RTVSPropertyOp2
 70
     1
102
RTVSPropertyOp3
 70
     1
102
RTVSPropertyOp4
 70
     1
102
RTVSPropertyOp5
 70
     1
102
RTVSPropertyOp6
 70
     1
102
RTVSPropertyOp7
 70
     1
102
RTVSPropertyOp8
 70
     1
102
RTVSPropertyOp9
 70
     1
102
RTVSPropertyOp10
 70
     1
102
RTVSPropertyOp11
 70
     1
102
RTVSPropertyOp12
 70
     1
102
RTVSPropertyOp13
 70
     1
102
RTVSPropertyOp14
 70
     1
102
RTVSPropertyOp15
 70
     1
102
RTVSPropertyOp16
 70
     1
102
RTVSPropertyOp17
 70
     1
102
RTVSPropertyOp18
 70
     1
102
RTVSPropertyOp19
 70
     1
102
RTVSPropertyOp20
 70
     1
102
RTVSPropertyOp21
 70
     1
102
RTVSPropertyOp22
 70
     1
102
RTVSPropertyOp23
 70
     1
102
RTVSPropertyOp24
 70
     1
102
RTVSPropertyOp25
 70
     1
102
RTVSPropertyOp26
 70
     1
102
RTVSPropertyOp27
 70
     1
102
RTVSPropertyOp28
 70
     1
102
RTVSPropertyOp29
 70
     1
102
RTVSPropertyOp30
 70
     1
102
RTVSPropertyOp31
 70
     1
102
RTVSPropertyOp32
 70
     1
102
RTVSPropertyOp33
 70
     1
102
RTVSPropertyOp34
 70
     1
102
RTVSPropertyOp35
 70
     1
102
RTVSPropertyOp36
 70
     1
102
RTVSPropertyOp37
 70
     1
102
RTVSPropertyOp38
 70
     1
102
RTVSPropertyOp39
 70
     1
102
RTVSPropertyOp40
 70
     1
102
RTVSPropertyOp41
 70
     1
102
RTVSPropertyOp42
 70
     1
102
RTVSPropertyOp43
 70
     1
102
RTVSPropertyOp44
 70
     1
102
RTVSPropertyOp45
 70
     1
102
RTVSPropertyOp46
 70
     1
102
RTVSPropertyOp47
 70
     1
102
RTVSPropertyOp48
 70
     1
102
RTVSPropertyOp49
 70
     1
102
RTVSPropertyOp50
 70
     1
102
RTVSPropertyOp51
 70
     0
102
RTVSPropertyOp52
 70
     0
102
RTVSPropertyOp53
 70
     1
102
RTVSPropertyOp54
 70
     1
102
RTVSPropertyOp55
 70
     1
102
RTVSPropertyOp56
 70
     1
102
RTVSPropertyOp57
 70
     1
102
RTVSPropertyOp58
 70
     1
102
RTVSPropertyOp59
 70
     1
102
RTVSPropertyOp60
 70
     1
102
RTVSPropertyOp61
 70
     1
102
RTVSPropertyOp62
 70
     1
  0
XRECORD
  5
851B
102
{ACAD_REACTORS
330
851A
102
}
330
851A
100
AcDbXrecord
280
     1
102
RTVSPost2010Prop28
280
     0
102
RTVSPost2010PropOp28
 70
     1
102
RTVSPost2010Prop29
280
     1
102
RTVSPost2010PropOp29
 70
     1
102
RTVSPost2010Prop30
280
     1
102
RTVSPost2010PropOp30
 70
     1
102
RTVSPost2010Prop31
280
     0
102
RTVSPost2010PropOp31
 70
     1
102
RTVSPost2010Prop32
280
     0
102
RTVSPost2010PropOp32
 70
     1
102
RTVSPost2010Prop33
280
     0
102
RTVSPost2010PropOp33
 70
     1
102
RTVSPost2010Prop34
280
     0
102
RTVSPost2010PropOp34
 70
     1
102
RTVSPost2010Prop35
280
     0
102
RTVSPost2010PropOp35
 70
     1
102
RTVSPost2010Prop36
280
     0
102
RTVSPost2010PropOp36
 70
     1
102
RTVSPost2010Prop37
 90
       50
102
RTVSPost2010PropOp37
 70
     0
102
RTVSPost2010Prop38
140
0.0
102
RTVSPost2010PropOp38
 70
     0
102
RTVSPost2010Prop39
140
1.0
102
RTVSPost2010PropOp39
 70
     0
102
RTVSPost2010Prop40
 90
        0
102
RTVSPost2010PropOp40
 70
     0
102
RTVSPost2010Prop41ColorIndex
 90
       18
102
RTVSPost2010Prop41ColorRGB
 90
        0
102
RTVSPost2010PropOp41
 70
     0
102
RTVSPost2010Prop42
 90
       50
102
RTVSPost2010PropOp42
 70
     0
102
RTVSPost2010Prop43
 90
        3
102
RTVSPost2010PropOp43
 70
     0
102
RTVSPost2010Prop44ColorIndex
 90
        5
102
RTVSPost2010Prop44ColorRGB
 90
      255
102
RTVSPost2010PropOp44
 70
     0
102
RTVSPost2010Prop45
280
     0
102
RTVSPost2010PropOp45
 70
     1
102
RTVSPost2010Prop46
 90
       50
102
RTVSPost2010PropOp46
 70
     0
102
RTVSPost2010Prop47
 90
       50
102
RTVSPost2010PropOp47
 70
     0
102
RTVSPost2010Prop48
 90
       50
102
RTVSPost2010PropOp48
 70
     0
102
RTVSPost2010Prop49
280
     0
102
RTVSPost2010PropOp49
 70
     1
102
RTVSPost2010Prop50
 90
       50
102
RTVSPost2010PropOp50
 70
     0
102
RTVSPost2010Prop51ColorIndex
 90
      256
102
RTVSPost2010Prop51ColorRGB
 90
-16777216
102
RTVSPost2010PropOp51
 70
     0
102
RTVSPost2010Prop52
140
1.0
102
RTVSPost2010PropOp52
 70
     0
102
RTVSPost2010Prop53
 90
        2
102
RTVSPost2010PropOp53
 70
     0
102
RTVSPost2010Prop54
  1
strokes_ogs.tif
102
RTVSPost2010PropOp54
 70
     0
102
RTVSPost2010Prop55
280
     0
102
RTVSPost2010PropOp55
 70
     1
102
RTVSPost2010Prop56
140
1.0
102
RTVSPost2010PropOp56
 70
     0
102
RTVSPost2010Prop57
140
1.0
102
RTVSPost2010PropOp57
 70
     0
102
RTVSPropertyOp0
 70
     0
102
RTVSPropertyOp1
 70
     0
102
RTVSPropertyOp2
 70
     0
102
RTVSPropertyOp3
 70
     0
102
RTVSPropertyOp4
 70
     0
102
RTVSPropertyOp5
 70
     0
102
RTVSPropertyOp6
 70
     0
102
RTVSPropertyOp7
 70
     0
102
RTVSPropertyOp8
 70
     0
102
RTVSPropertyOp9
 70
     0
102
RTVSPropertyOp10
 70
     0
102
RTVSPropertyOp11
 70
     0
102
RTVSPropertyOp12
 70
     0
102
RTVSPropertyOp13
 70
     0
102
RTVSPropertyOp14
 70
     2
102
RTVSPropertyOp15
 70
     0
102
RTVSPropertyOp16
 70
     0
102
RTVSPropertyOp17
 70
     0
102
RTVSPropertyOp18
 70
     0
102
RTVSPropertyOp19
 70
     0
102
RTVSPropertyOp20
 70
     0
102
RTVSPropertyOp21
 70
     0
102
RTVSPropertyOp22
 70
     0
102
RTVSPropertyOp23
 70
     0
102
RTVSPropertyOp24
 70
     0
102
RTVSPropertyOp25
 70
     0
102
RTVSPropertyOp26
 70
     0
102
RTVSPropertyOp27
 70
     0
102
RTVSPropertyOp28
 70
     1
102
RTVSPropertyOp29
 70
     1
102
RTVSPropertyOp30
 70
     1
102
RTVSPropertyOp31
 70
     1
102
RTVSPropertyOp32
 70
     1
102
RTVSPropertyOp33
 70
     1
102
RTVSPropertyOp34
 70
     1
102
RTVSPropertyOp35
 70
     1
102
RTVSPropertyOp36
 70
     1
102
RTVSPropertyOp37
 70
     0
102
RTVSPropertyOp38
 70
     0
102
RTVSPropertyOp39
 70
     0
102
RTVSPropertyOp40
 70
     0
102
RTVSPropertyOp41
 70
     0
102
RTVSPropertyOp42
 70
     0
102
RTVSPropertyOp43
 70
     0
102
RTVSPropertyOp44
 70
     0
102
RTVSPropertyOp45
 70
     1
102
RTVSPropertyOp46
 70
     0
102
RTVSPropertyOp47
 70
     0
102
RTVSPropertyOp48
 70
     0
102
RTVSPropertyOp49
 70
     1
102
RTVSPropertyOp50
 70
     0
102
RTVSPropertyOp51
 70
     0
102
RTVSPropertyOp52
 70
     0
102
RTVSPropertyOp53
 70
     0
102
RTVSPropertyOp54
 70
     0
102
RTVSPropertyOp55
 70
     1
102
RTVSPropertyOp56
 70
     0
102
RTVSPropertyOp57
 70
     0
102
RTVSPropertyOp58
 70
     0
102
RTVSPropertyOp59
 70
     0
102
RTVSPropertyOp60
 70
     0
102
RTVSPropertyOp61
 70
     0
102
RTVSPropertyOp62
 70
     0
  0
XRECORD
  5
8509
102
{ACAD_REACTORS
330
8508
102
}
330
8508
100
AcDbXrecord
280
     1
102
RTVSPost2010Prop28
280
     0
102
RTVSPost2010PropOp28
 70
     1
102
RTVSPost2010Prop29
280
     1
102
RTVSPost2010PropOp29
 70
     1
102
RTVSPost2010Prop30
280
     1
102
RTVSPost2010PropOp30
 70
     1
102
RTVSPost2010Prop31
280
     0
102
RTVSPost2010PropOp31
 70
     1
102
RTVSPost2010Prop32
280
     0
102
RTVSPost2010PropOp32
 70
     1
102
RTVSPost2010Prop33
280
     0
102
RTVSPost2010PropOp33
 70
     1
102
RTVSPost2010Prop34
280
     0
102
RTVSPost2010PropOp34
 70
     1
102
RTVSPost2010Prop35
280
     0
102
RTVSPost2010PropOp35
 70
     1
102
RTVSPost2010Prop36
280
     0
102
RTVSPost2010PropOp36
 70
     1
102
RTVSPost2010Prop37
 90
       50
102
RTVSPost2010PropOp37
 70
     1
102
RTVSPost2010Prop38
140
0.0
102
RTVSPost2010PropOp38
 70
     1
102
RTVSPost2010Prop39
140
1.0
102
RTVSPost2010PropOp39
 70
     1
102
RTVSPost2010Prop40
 90
        0
102
RTVSPost2010PropOp40
 70
     1
102
RTVSPost2010Prop41ColorIndex
 90
       18
102
RTVSPost2010Prop41ColorRGB
 90
        0
102
RTVSPost2010PropOp41
 70
     1
102
RTVSPost2010Prop42
 90
       50
102
RTVSPost2010PropOp42
 70
     1
102
RTVSPost2010Prop43
 90
        3
102
RTVSPost2010PropOp43
 70
     1
102
RTVSPost2010Prop44ColorIndex
 90
        5
102
RTVSPost2010Prop44ColorRGB
 90
      255
102
RTVSPost2010PropOp44
 70
     1
102
RTVSPost2010Prop45
280
     0
102
RTVSPost2010PropOp45
 70
     1
102
RTVSPost2010Prop46
 90
       50
102
RTVSPost2010PropOp46
 70
     1
102
RTVSPost2010Prop47
 90
       50
102
RTVSPost2010PropOp47
 70
     1
102
RTVSPost2010Prop48
 90
       50
102
RTVSPost2010PropOp48
 70
     1
102
RTVSPost2010Prop49
280
     0
102
RTVSPost2010PropOp49
 70
     1
102
RTVSPost2010Prop50
 90
       50
102
RTVSPost2010PropOp50
 70
     1
102
RTVSPost2010Prop51ColorIndex
 90
      256
102
RTVSPost2010Prop51ColorRGB
 90
-16777216
102
RTVSPost2010PropOp51
 70
     0
102
RTVSPost2010Prop52
140
1.0
102
RTVSPost2010PropOp52
 70
     0
102
RTVSPost2010Prop53
 90
        2
102
RTVSPost2010PropOp53
 70
     1
102
RTVSPost2010Prop54
  1
strokes_ogs.tif
102
RTVSPost2010PropOp54
 70
     1
102
RTVSPost2010Prop55
280
     0
102
RTVSPost2010PropOp55
 70
     1
102
RTVSPost2010Prop56
140
1.0
102
RTVSPost2010PropOp56
 70
     1
102
RTVSPost2010Prop57
140
1.0
102
RTVSPost2010PropOp57
 70
     1
102
RTVSPropertyOp0
 70
     1
102
RTVSPropertyOp1
 70
     1
102
RTVSPropertyOp2
 70
     1
102
RTVSPropertyOp3
 70
     1
102
RTVSPropertyOp4
 70
     1
102
RTVSPropertyOp5
 70
     1
102
RTVSPropertyOp6
 70
     1
102
RTVSPropertyOp7
 70
     1
102
RTVSPropertyOp8
 70
     1
102
RTVSPropertyOp9
 70
     1
102
RTVSPropertyOp10
 70
     1
102
RTVSPropertyOp11
 70
     1
102
RTVSPropertyOp12
 70
     1
102
RTVSPropertyOp13
 70
     1
102
RTVSPropertyOp14
 70
     1
102
RTVSPropertyOp15
 70
     1
102
RTVSPropertyOp16
 70
     1
102
RTVSPropertyOp17
 70
     1
102
RTVSPropertyOp18
 70
     1
102
RTVSPropertyOp19
 70
     1
102
RTVSPropertyOp20
 70
     1
102
RTVSPropertyOp21
 70
     1
102
RTVSPropertyOp22
 70
     1
102
RTVSPropertyOp23
 70
     1
102
RTVSPropertyOp24
 70
     1
102
RTVSPropertyOp25
 70
     1
102
RTVSPropertyOp26
 70
     1
102
RTVSPropertyOp27
 70
     1
102
RTVSPropertyOp28
 70
     1
102
RTVSPropertyOp29
 70
     1
102
RTVSPropertyOp30
 70
     1
102
RTVSPropertyOp31
 70
     1
102
RTVSPropertyOp32
 70
     1
102
RTVSPropertyOp33
 70
     1
102
RTVSPropertyOp34
 70
     1
102
RTVSPropertyOp35
 70
     1
102
RTVSPropertyOp36
 70
     1
102
RTVSPropertyOp37
 70
     1
102
RTVSPropertyOp38
 70
     1
102
RTVSPropertyOp39
 70
     1
102
RTVSPropertyOp40
 70
     1
102
RTVSPropertyOp41
 70
     1
102
RTVSPropertyOp42
 70
     1
102
RTVSPropertyOp43
 70
     1
102
RTVSPropertyOp44
 70
     1
102
RTVSPropertyOp45
 70
     1
102
RTVSPropertyOp46
 70
     1
102
RTVSPropertyOp47
 70
     1
102
RTVSPropertyOp48
 70
     1
102
RTVSPropertyOp49
 70
     1
102
RTVSPropertyOp50
 70
     1
102
RTVSPropertyOp51
 70
     0
102
RTVSPropertyOp52
 70
     0
102
RTVSPropertyOp53
 70
     1
102
RTVSPropertyOp54
 70
     1
102
RTVSPropertyOp55
 70
     1
102
RTVSPropertyOp56
 70
     1
102
RTVSPropertyOp57
 70
     1
102
RTVSPropertyOp58
 70
     1
102
RTVSPropertyOp59
 70
     1
102
RTVSPropertyOp60
 70
     1
102
RTVSPropertyOp61
 70
     1
102
RTVSPropertyOp62
 70
     1
  0
XRECORD
  5
84ED
102
{ACAD_REACTORS
330
84EC
102
}
330
84EC
100
AcDbXrecord
280
     1
102
RTVSPost2010Prop28
280
     0
102
RTVSPost2010PropOp28
 70
     1
102
RTVSPost2010Prop29
280
     1
102
RTVSPost2010PropOp29
 70
     1
102
RTVSPost2010Prop30
280
     1
102
RTVSPost2010PropOp30
 70
     1
102
RTVSPost2010Prop31
280
     0
102
RTVSPost2010PropOp31
 70
     1
102
RTVSPost2010Prop32
280
     0
102
RTVSPost2010PropOp32
 70
     1
102
RTVSPost2010Prop33
280
     0
102
RTVSPost2010PropOp33
 70
     1
102
RTVSPost2010Prop34
280
     0
102
RTVSPost2010PropOp34
 70
     1
102
RTVSPost2010Prop35
280
     0
102
RTVSPost2010PropOp35
 70
     1
102
RTVSPost2010Prop36
280
     0
102
RTVSPost2010PropOp36
 70
     1
102
RTVSPost2010Prop37
 90
       50
102
RTVSPost2010PropOp37
 70
     1
102
RTVSPost2010Prop38
140
0.0
102
RTVSPost2010PropOp38
 70
     1
102
RTVSPost2010Prop39
140
1.0
102
RTVSPost2010PropOp39
 70
     1
102
RTVSPost2010Prop40
 90
        0
102
RTVSPost2010PropOp40
 70
     1
102
RTVSPost2010Prop41ColorIndex
 90
       18
102
RTVSPost2010Prop41ColorRGB
 90
        0
102
RTVSPost2010PropOp41
 70
     1
102
RTVSPost2010Prop42
 90
       50
102
RTVSPost2010PropOp42
 70
     1
102
RTVSPost2010Prop43
 90
        3
102
RTVSPost2010PropOp43
 70
     1
102
RTVSPost2010Prop44ColorIndex
 90
        5
102
RTVSPost2010Prop44ColorRGB
 90
      255
102
RTVSPost2010PropOp44
 70
     1
102
RTVSPost2010Prop45
280
     0
102
RTVSPost2010PropOp45
 70
     1
102
RTVSPost2010Prop46
 90
       50
102
RTVSPost2010PropOp46
 70
     1
102
RTVSPost2010Prop47
 90
       50
102
RTVSPost2010PropOp47
 70
     1
102
RTVSPost2010Prop48
 90
       50
102
RTVSPost2010PropOp48
 70
     1
102
RTVSPost2010Prop49
280
     0
102
RTVSPost2010PropOp49
 70
     1
102
RTVSPost2010Prop50
 90
       50
102
RTVSPost2010PropOp50
 70
     1
102
RTVSPost2010Prop51ColorIndex
 90
      256
102
RTVSPost2010Prop51ColorRGB
 90
-16777216
102
RTVSPost2010PropOp51
 70
     0
102
RTVSPost2010Prop52
140
1.0
102
RTVSPost2010PropOp52
 70
     0
102
RTVSPost2010Prop53
 90
        2
102
RTVSPost2010PropOp53
 70
     1
102
RTVSPost2010Prop54
  1
strokes_ogs.tif
102
RTVSPost2010PropOp54
 70
     1
102
RTVSPost2010Prop55
280
     0
102
RTVSPost2010PropOp55
 70
     1
102
RTVSPost2010Prop56
140
1.0
102
RTVSPost2010PropOp56
 70
     1
102
RTVSPost2010Prop57
140
1.0
102
RTVSPost2010PropOp57
 70
     1
102
RTVSPropertyOp0
 70
     1
102
RTVSPropertyOp1
 70
     1
102
RTVSPropertyOp2
 70
     1
102
RTVSPropertyOp3
 70
     1
102
RTVSPropertyOp4
 70
     1
102
RTVSPropertyOp5
 70
     1
102
RTVSPropertyOp6
 70
     1
102
RTVSPropertyOp7
 70
     1
102
RTVSPropertyOp8
 70
     1
102
RTVSPropertyOp9
 70
     1
102
RTVSPropertyOp10
 70
     1
102
RTVSPropertyOp11
 70
     1
102
RTVSPropertyOp12
 70
     1
102
RTVSPropertyOp13
 70
     1
102
RTVSPropertyOp14
 70
     1
102
RTVSPropertyOp15
 70
     1
102
RTVSPropertyOp16
 70
     1
102
RTVSPropertyOp17
 70
     1
102
RTVSPropertyOp18
 70
     1
102
RTVSPropertyOp19
 70
     1
102
RTVSPropertyOp20
 70
     1
102
RTVSPropertyOp21
 70
     1
102
RTVSPropertyOp22
 70
     1
102
RTVSPropertyOp23
 70
     1
102
RTVSPropertyOp24
 70
     1
102
RTVSPropertyOp25
 70
     1
102
RTVSPropertyOp26
 70
     1
102
RTVSPropertyOp27
 70
     1
102
RTVSPropertyOp28
 70
     1
102
RTVSPropertyOp29
 70
     1
102
RTVSPropertyOp30
 70
     1
102
RTVSPropertyOp31
 70
     1
102
RTVSPropertyOp32
 70
     1
102
RTVSPropertyOp33
 70
     1
102
RTVSPropertyOp34
 70
     1
102
RTVSPropertyOp35
 70
     1
102
RTVSPropertyOp36
 70
     1
102
RTVSPropertyOp37
 70
     1
102
RTVSPropertyOp38
 70
     1
102
RTVSPropertyOp39
 70
     1
102
RTVSPropertyOp40
 70
     1
102
RTVSPropertyOp41
 70
     1
102
RTVSPropertyOp42
 70
     1
102
RTVSPropertyOp43
 70
     1
102
RTVSPropertyOp44
 70
     1
102
RTVSPropertyOp45
 70
     1
102
RTVSPropertyOp46
 70
     1
102
RTVSPropertyOp47
 70
     1
102
RTVSPropertyOp48
 70
     1
102
RTVSPropertyOp49
 70
     1
102
RTVSPropertyOp50
 70
     1
102
RTVSPropertyOp51
 70
     0
102
RTVSPropertyOp52
 70
     0
102
RTVSPropertyOp53
 70
     1
102
RTVSPropertyOp54
 70
     1
102
RTVSPropertyOp55
 70
     1
102
RTVSPropertyOp56
 70
     1
102
RTVSPropertyOp57
 70
     1
102
RTVSPropertyOp58
 70
     1
102
RTVSPropertyOp59
 70
     1
102
RTVSPropertyOp60
 70
     1
102
RTVSPropertyOp61
 70
     1
102
RTVSPropertyOp62
 70
     1
  0
XRECORD
  5
84EF
102
{ACAD_REACTORS
330
84EE
102
}
330
84EE
100
AcDbXrecord
280
     1
102
RTVSPost2010Prop28
280
     0
102
RTVSPost2010PropOp28
 70
     1
102
RTVSPost2010Prop29
280
     1
102
RTVSPost2010PropOp29
 70
     1
102
RTVSPost2010Prop30
280
     1
102
RTVSPost2010PropOp30
 70
     1
102
RTVSPost2010Prop31
280
     0
102
RTVSPost2010PropOp31
 70
     1
102
RTVSPost2010Prop32
280
     0
102
RTVSPost2010PropOp32
 70
     1
102
RTVSPost2010Prop33
280
     0
102
RTVSPost2010PropOp33
 70
     1
102
RTVSPost2010Prop34
280
     0
102
RTVSPost2010PropOp34
 70
     1
102
RTVSPost2010Prop35
280
     0
102
RTVSPost2010PropOp35
 70
     1
102
RTVSPost2010Prop36
280
     0
102
RTVSPost2010PropOp36
 70
     1
102
RTVSPost2010Prop37
 90
       50
102
RTVSPost2010PropOp37
 70
     1
102
RTVSPost2010Prop38
140
0.0
102
RTVSPost2010PropOp38
 70
     1
102
RTVSPost2010Prop39
140
1.0
102
RTVSPost2010PropOp39
 70
     1
102
RTVSPost2010Prop40
 90
        0
102
RTVSPost2010PropOp40
 70
     1
102
RTVSPost2010Prop41ColorIndex
 90
       18
102
RTVSPost2010Prop41ColorRGB
 90
        0
102
RTVSPost2010PropOp41
 70
     1
102
RTVSPost2010Prop42
 90
       50
102
RTVSPost2010PropOp42
 70
     1
102
RTVSPost2010Prop43
 90
        3
102
RTVSPost2010PropOp43
 70
     1
102
RTVSPost2010Prop44ColorIndex
 90
        5
102
RTVSPost2010Prop44ColorRGB
 90
      255
102
RTVSPost2010PropOp44
 70
     1
102
RTVSPost2010Prop45
280
     0
102
RTVSPost2010PropOp45
 70
     1
102
RTVSPost2010Prop46
 90
       50
102
RTVSPost2010PropOp46
 70
     1
102
RTVSPost2010Prop47
 90
       50
102
RTVSPost2010PropOp47
 70
     1
102
RTVSPost2010Prop48
 90
       50
102
RTVSPost2010PropOp48
 70
     1
102
RTVSPost2010Prop49
280
     0
102
RTVSPost2010PropOp49
 70
     1
102
RTVSPost2010Prop50
 90
       50
102
RTVSPost2010PropOp50
 70
     1
102
RTVSPost2010Prop51ColorIndex
 90
      256
102
RTVSPost2010Prop51ColorRGB
 90
-16777216
102
RTVSPost2010PropOp51
 70
     0
102
RTVSPost2010Prop52
140
1.0
102
RTVSPost2010PropOp52
 70
     0
102
RTVSPost2010Prop53
 90
        2
102
RTVSPost2010PropOp53
 70
     1
102
RTVSPost2010Prop54
  1
strokes_ogs.tif
102
RTVSPost2010PropOp54
 70
     1
102
RTVSPost2010Prop55
280
     0
102
RTVSPost2010PropOp55
 70
     1
102
RTVSPost2010Prop56
140
1.0
102
RTVSPost2010PropOp56
 70
     1
102
RTVSPost2010Prop57
140
1.0
102
RTVSPost2010PropOp57
 70
     1
102
RTVSPropertyOp0
 70
     1
102
RTVSPropertyOp1
 70
     1
102
RTVSPropertyOp2
 70
     1
102
RTVSPropertyOp3
 70
     1
102
RTVSPropertyOp4
 70
     1
102
RTVSPropertyOp5
 70
     1
102
RTVSPropertyOp6
 70
     1
102
RTVSPropertyOp7
 70
     1
102
RTVSPropertyOp8
 70
     1
102
RTVSPropertyOp9
 70
     1
102
RTVSPropertyOp10
 70
     1
102
RTVSPropertyOp11
 70
     1
102
RTVSPropertyOp12
 70
     1
102
RTVSPropertyOp13
 70
     1
102
RTVSPropertyOp14
 70
     1
102
RTVSPropertyOp15
 70
     1
102
RTVSPropertyOp16
 70
     1
102
RTVSPropertyOp17
 70
     1
102
RTVSPropertyOp18
 70
     1
102
RTVSPropertyOp19
 70
     1
102
RTVSPropertyOp20
 70
     1
102
RTVSPropertyOp21
 70
     1
102
RTVSPropertyOp22
 70
     1
102
RTVSPropertyOp23
 70
     1
102
RTVSPropertyOp24
 70
     1
102
RTVSPropertyOp25
 70
     1
102
RTVSPropertyOp26
 70
     1
102
RTVSPropertyOp27
 70
     1
102
RTVSPropertyOp28
 70
     1
102
RTVSPropertyOp29
 70
     1
102
RTVSPropertyOp30
 70
     1
102
RTVSPropertyOp31
 70
     1
102
RTVSPropertyOp32
 70
     1
102
RTVSPropertyOp33
 70
     1
102
RTVSPropertyOp34
 70
     1
102
RTVSPropertyOp35
 70
     1
102
RTVSPropertyOp36
 70
     1
102
RTVSPropertyOp37
 70
     1
102
RTVSPropertyOp38
 70
     1
102
RTVSPropertyOp39
 70
     1
102
RTVSPropertyOp40
 70
     1
102
RTVSPropertyOp41
 70
     1
102
RTVSPropertyOp42
 70
     1
102
RTVSPropertyOp43
 70
     1
102
RTVSPropertyOp44
 70
     1
102
RTVSPropertyOp45
 70
     1
102
RTVSPropertyOp46
 70
     1
102
RTVSPropertyOp47
 70
     1
102
RTVSPropertyOp48
 70
     1
102
RTVSPropertyOp49
 70
     1
102
RTVSPropertyOp50
 70
     1
102
RTVSPropertyOp51
 70
     0
102
RTVSPropertyOp52
 70
     0
102
RTVSPropertyOp53
 70
     1
102
RTVSPropertyOp54
 70
     1
102
RTVSPropertyOp55
 70
     1
102
RTVSPropertyOp56
 70
     1
102
RTVSPropertyOp57
 70
     1
102
RTVSPropertyOp58
 70
     1
102
RTVSPropertyOp59
 70
     1
102
RTVSPropertyOp60
 70
     1
102
RTVSPropertyOp61
 70
     1
102
RTVSPropertyOp62
 70
     1
  0
XRECORD
  5
84F1
102
{ACAD_REACTORS
330
84F0
102
}
330
84F0
100
AcDbXrecord
280
     1
102
RTVSPost2010Prop28
280
     0
102
RTVSPost2010PropOp28
 70
     1
102
RTVSPost2010Prop29
280
     1
102
RTVSPost2010PropOp29
 70
     1
102
RTVSPost2010Prop30
280
     1
102
RTVSPost2010PropOp30
 70
     1
102
RTVSPost2010Prop31
280
     0
102
RTVSPost2010PropOp31
 70
     1
102
RTVSPost2010Prop32
280
     0
102
RTVSPost2010PropOp32
 70
     1
102
RTVSPost2010Prop33
280
     0
102
RTVSPost2010PropOp33
 70
     1
102
RTVSPost2010Prop34
280
     0
102
RTVSPost2010PropOp34
 70
     1
102
RTVSPost2010Prop35
280
     0
102
RTVSPost2010PropOp35
 70
     1
102
RTVSPost2010Prop36
280
     0
102
RTVSPost2010PropOp36
 70
     1
102
RTVSPost2010Prop37
 90
       50
102
RTVSPost2010PropOp37
 70
     1
102
RTVSPost2010Prop38
140
0.0
102
RTVSPost2010PropOp38
 70
     1
102
RTVSPost2010Prop39
140
1.0
102
RTVSPost2010PropOp39
 70
     1
102
RTVSPost2010Prop40
 90
        0
102
RTVSPost2010PropOp40
 70
     1
102
RTVSPost2010Prop41ColorIndex
 90
       18
102
RTVSPost2010Prop41ColorRGB
 90
        0
102
RTVSPost2010PropOp41
 70
     1
102
RTVSPost2010Prop42
 90
       50
102
RTVSPost2010PropOp42
 70
     1
102
RTVSPost2010Prop43
 90
        3
102
RTVSPost2010PropOp43
 70
     1
102
RTVSPost2010Prop44ColorIndex
 90
        5
102
RTVSPost2010Prop44ColorRGB
 90
      255
102
RTVSPost2010PropOp44
 70
     1
102
RTVSPost2010Prop45
280
     0
102
RTVSPost2010PropOp45
 70
     1
102
RTVSPost2010Prop46
 90
       50
102
RTVSPost2010PropOp46
 70
     1
102
RTVSPost2010Prop47
 90
       50
102
RTVSPost2010PropOp47
 70
     1
102
RTVSPost2010Prop48
 90
       50
102
RTVSPost2010PropOp48
 70
     1
102
RTVSPost2010Prop49
280
     0
102
RTVSPost2010PropOp49
 70
     1
102
RTVSPost2010Prop50
 90
       50
102
RTVSPost2010PropOp50
 70
     1
102
RTVSPost2010Prop51ColorIndex
 90
      256
102
RTVSPost2010Prop51ColorRGB
 90
-16777216
102
RTVSPost2010PropOp51
 70
     0
102
RTVSPost2010Prop52
140
1.0
102
RTVSPost2010PropOp52
 70
     0
102
RTVSPost2010Prop53
 90
        2
102
RTVSPost2010PropOp53
 70
     1
102
RTVSPost2010Prop54
  1
strokes_ogs.tif
102
RTVSPost2010PropOp54
 70
     1
102
RTVSPost2010Prop55
280
     0
102
RTVSPost2010PropOp55
 70
     1
102
RTVSPost2010Prop56
140
1.0
102
RTVSPost2010PropOp56
 70
     1
102
RTVSPost2010Prop57
140
1.0
102
RTVSPost2010PropOp57
 70
     1
102
RTVSPropertyOp0
 70
     1
102
RTVSPropertyOp1
 70
     1
102
RTVSPropertyOp2
 70
     1
102
RTVSPropertyOp3
 70
     1
102
RTVSPropertyOp4
 70
     1
102
RTVSPropertyOp5
 70
     1
102
RTVSPropertyOp6
 70
     1
102
RTVSPropertyOp7
 70
     1
102
RTVSPropertyOp8
 70
     1
102
RTVSPropertyOp9
 70
     1
102
RTVSPropertyOp10
 70
     1
102
RTVSPropertyOp11
 70
     1
102
RTVSPropertyOp12
 70
     1
102
RTVSPropertyOp13
 70
     1
102
RTVSPropertyOp14
 70
     1
102
RTVSPropertyOp15
 70
     1
102
RTVSPropertyOp16
 70
     1
102
RTVSPropertyOp17
 70
     1
102
RTVSPropertyOp18
 70
     1
102
RTVSPropertyOp19
 70
     1
102
RTVSPropertyOp20
 70
     1
102
RTVSPropertyOp21
 70
     1
102
RTVSPropertyOp22
 70
     1
102
RTVSPropertyOp23
 70
     1
102
RTVSPropertyOp24
 70
     1
102
RTVSPropertyOp25
 70
     1
102
RTVSPropertyOp26
 70
     1
102
RTVSPropertyOp27
 70
     1
102
RTVSPropertyOp28
 70
     1
102
RTVSPropertyOp29
 70
     1
102
RTVSPropertyOp30
 70
     1
102
RTVSPropertyOp31
 70
     1
102
RTVSPropertyOp32
 70
     1
102
RTVSPropertyOp33
 70
     1
102
RTVSPropertyOp34
 70
     1
102
RTVSPropertyOp35
 70
     1
102
RTVSPropertyOp36
 70
     1
102
RTVSPropertyOp37
 70
     1
102
RTVSPropertyOp38
 70
     1
102
RTVSPropertyOp39
 70
     1
102
RTVSPropertyOp40
 70
     1
102
RTVSPropertyOp41
 70
     1
102
RTVSPropertyOp42
 70
     1
102
RTVSPropertyOp43
 70
     1
102
RTVSPropertyOp44
 70
     1
102
RTVSPropertyOp45
 70
     1
102
RTVSPropertyOp46
 70
     1
102
RTVSPropertyOp47
 70
     1
102
RTVSPropertyOp48
 70
     1
102
RTVSPropertyOp49
 70
     1
102
RTVSPropertyOp50
 70
     1
102
RTVSPropertyOp51
 70
     0
102
RTVSPropertyOp52
 70
     0
102
RTVSPropertyOp53
 70
     1
102
RTVSPropertyOp54
 70
     1
102
RTVSPropertyOp55
 70
     1
102
RTVSPropertyOp56
 70
     1
102
RTVSPropertyOp57
 70
     1
102
RTVSPropertyOp58
 70
     1
102
RTVSPropertyOp59
 70
     1
102
RTVSPropertyOp60
 70
     1
102
RTVSPropertyOp61
 70
     1
102
RTVSPropertyOp62
 70
     1
  0
XRECORD
  5
84F3
102
{ACAD_REACTORS
330
84F2
102
}
330
84F2
100
AcDbXrecord
280
     1
102
RTVSPost2010Prop28
280
     0
102
RTVSPost2010PropOp28
 70
     1
102
RTVSPost2010Prop29
280
     1
102
RTVSPost2010PropOp29
 70
     1
102
RTVSPost2010Prop30
280
     1
102
RTVSPost2010PropOp30
 70
     1
102
RTVSPost2010Prop31
280
     0
102
RTVSPost2010PropOp31
 70
     1
102
RTVSPost2010Prop32
280
     0
102
RTVSPost2010PropOp32
 70
     1
102
RTVSPost2010Prop33
280
     0
102
RTVSPost2010PropOp33
 70
     1
102
RTVSPost2010Prop34
280
     0
102
RTVSPost2010PropOp34
 70
     1
102
RTVSPost2010Prop35
280
     0
102
RTVSPost2010PropOp35
 70
     1
102
RTVSPost2010Prop36
280
     0
102
RTVSPost2010PropOp36
 70
     1
102
RTVSPost2010Prop37
 90
       50
102
RTVSPost2010PropOp37
 70
     1
102
RTVSPost2010Prop38
140
0.0
102
RTVSPost2010PropOp38
 70
     1
102
RTVSPost2010Prop39
140
1.0
102
RTVSPost2010PropOp39
 70
     1
102
RTVSPost2010Prop40
 90
        0
102
RTVSPost2010PropOp40
 70
     1
102
RTVSPost2010Prop41ColorIndex
 90
       18
102
RTVSPost2010Prop41ColorRGB
 90
        0
102
RTVSPost2010PropOp41
 70
     1
102
RTVSPost2010Prop42
 90
       50
102
RTVSPost2010PropOp42
 70
     1
102
RTVSPost2010Prop43
 90
        3
102
RTVSPost2010PropOp43
 70
     1
102
RTVSPost2010Prop44ColorIndex
 90
        5
102
RTVSPost2010Prop44ColorRGB
 90
      255
102
RTVSPost2010PropOp44
 70
     1
102
RTVSPost2010Prop45
280
     0
102
RTVSPost2010PropOp45
 70
     1
102
RTVSPost2010Prop46
 90
       50
102
RTVSPost2010PropOp46
 70
     1
102
RTVSPost2010Prop47
 90
       50
102
RTVSPost2010PropOp47
 70
     1
102
RTVSPost2010Prop48
 90
       50
102
RTVSPost2010PropOp48
 70
     1
102
RTVSPost2010Prop49
280
     0
102
RTVSPost2010PropOp49
 70
     1
102
RTVSPost2010Prop50
 90
       50
102
RTVSPost2010PropOp50
 70
     1
102
RTVSPost2010Prop51ColorIndex
 90
      256
102
RTVSPost2010Prop51ColorRGB
 90
-16777216
102
RTVSPost2010PropOp51
 70
     0
102
RTVSPost2010Prop52
140
1.0
102
RTVSPost2010PropOp52
 70
     0
102
RTVSPost2010Prop53
 90
        2
102
RTVSPost2010PropOp53
 70
     1
102
RTVSPost2010Prop54
  1
strokes_ogs.tif
102
RTVSPost2010PropOp54
 70
     1
102
RTVSPost2010Prop55
280
     0
102
RTVSPost2010PropOp55
 70
     1
102
RTVSPost2010Prop56
140
1.0
102
RTVSPost2010PropOp56
 70
     1
102
RTVSPost2010Prop57
140
1.0
102
RTVSPost2010PropOp57
 70
     1
102
RTVSPropertyOp0
 70
     1
102
RTVSPropertyOp1
 70
     1
102
RTVSPropertyOp2
 70
     1
102
RTVSPropertyOp3
 70
     1
102
RTVSPropertyOp4
 70
     1
102
RTVSPropertyOp5
 70
     1
102
RTVSPropertyOp6
 70
     1
102
RTVSPropertyOp7
 70
     1
102
RTVSPropertyOp8
 70
     1
102
RTVSPropertyOp9
 70
     1
102
RTVSPropertyOp10
 70
     1
102
RTVSPropertyOp11
 70
     1
102
RTVSPropertyOp12
 70
     1
102
RTVSPropertyOp13
 70
     1
102
RTVSPropertyOp14
 70
     1
102
RTVSPropertyOp15
 70
     1
102
RTVSPropertyOp16
 70
     1
102
RTVSPropertyOp17
 70
     1
102
RTVSPropertyOp18
 70
     1
102
RTVSPropertyOp19
 70
     1
102
RTVSPropertyOp20
 70
     1
102
RTVSPropertyOp21
 70
     1
102
RTVSPropertyOp22
 70
     1
102
RTVSPropertyOp23
 70
     1
102
RTVSPropertyOp24
 70
     1
102
RTVSPropertyOp25
 70
     1
102
RTVSPropertyOp26
 70
     1
102
RTVSPropertyOp27
 70
     1
102
RTVSPropertyOp28
 70
     1
102
RTVSPropertyOp29
 70
     1
102
RTVSPropertyOp30
 70
     1
102
RTVSPropertyOp31
 70
     1
102
RTVSPropertyOp32
 70
     1
102
RTVSPropertyOp33
 70
     1
102
RTVSPropertyOp34
 70
     1
102
RTVSPropertyOp35
 70
     1
102
RTVSPropertyOp36
 70
     1
102
RTVSPropertyOp37
 70
     1
102
RTVSPropertyOp38
 70
     1
102
RTVSPropertyOp39
 70
     1
102
RTVSPropertyOp40
 70
     1
102
RTVSPropertyOp41
 70
     1
102
RTVSPropertyOp42
 70
     1
102
RTVSPropertyOp43
 70
     1
102
RTVSPropertyOp44
 70
     1
102
RTVSPropertyOp45
 70
     1
102
RTVSPropertyOp46
 70
     1
102
RTVSPropertyOp47
 70
     1
102
RTVSPropertyOp48
 70
     1
102
RTVSPropertyOp49
 70
     1
102
RTVSPropertyOp50
 70
     1
102
RTVSPropertyOp51
 70
     0
102
RTVSPropertyOp52
 70
     0
102
RTVSPropertyOp53
 70
     1
102
RTVSPropertyOp54
 70
     1
102
RTVSPropertyOp55
 70
     1
102
RTVSPropertyOp56
 70
     1
102
RTVSPropertyOp57
 70
     1
102
RTVSPropertyOp58
 70
     1
102
RTVSPropertyOp59
 70
     1
102
RTVSPropertyOp60
 70
     1
102
RTVSPropertyOp61
 70
     1
102
RTVSPropertyOp62
 70
     1
  0
XRECORD
  5
84FB
102
{ACAD_REACTORS
330
84FA
102
}
330
84FA
100
AcDbXrecord
280
     1
102
RTVSPost2010Prop28
280
     0
102
RTVSPost2010PropOp28
 70
     1
102
RTVSPost2010Prop29
280
     1
102
RTVSPost2010PropOp29
 70
     1
102
RTVSPost2010Prop30
280
     1
102
RTVSPost2010PropOp30
 70
     1
102
RTVSPost2010Prop31
280
     0
102
RTVSPost2010PropOp31
 70
     1
102
RTVSPost2010Prop32
280
     0
102
RTVSPost2010PropOp32
 70
     1
102
RTVSPost2010Prop33
280
     0
102
RTVSPost2010PropOp33
 70
     1
102
RTVSPost2010Prop34
280
     0
102
RTVSPost2010PropOp34
 70
     1
102
RTVSPost2010Prop35
280
     0
102
RTVSPost2010PropOp35
 70
     1
102
RTVSPost2010Prop36
280
     0
102
RTVSPost2010PropOp36
 70
     1
102
RTVSPost2010Prop37
 90
       50
102
RTVSPost2010PropOp37
 70
     1
102
RTVSPost2010Prop38
140
0.0
102
RTVSPost2010PropOp38
 70
     1
102
RTVSPost2010Prop39
140
1.0
102
RTVSPost2010PropOp39
 70
     1
102
RTVSPost2010Prop40
 90
        0
102
RTVSPost2010PropOp40
 70
     1
102
RTVSPost2010Prop41ColorIndex
 90
       18
102
RTVSPost2010Prop41ColorRGB
 90
        0
102
RTVSPost2010PropOp41
 70
     1
102
RTVSPost2010Prop42
 90
       50
102
RTVSPost2010PropOp42
 70
     1
102
RTVSPost2010Prop43
 90
        3
102
RTVSPost2010PropOp43
 70
     1
102
RTVSPost2010Prop44ColorIndex
 90
        5
102
RTVSPost2010Prop44ColorRGB
 90
      255
102
RTVSPost2010PropOp44
 70
     1
102
RTVSPost2010Prop45
280
     0
102
RTVSPost2010PropOp45
 70
     1
102
RTVSPost2010Prop46
 90
       50
102
RTVSPost2010PropOp46
 70
     1
102
RTVSPost2010Prop47
 90
       50
102
RTVSPost2010PropOp47
 70
     1
102
RTVSPost2010Prop48
 90
       50
102
RTVSPost2010PropOp48
 70
     1
102
RTVSPost2010Prop49
280
     0
102
RTVSPost2010PropOp49
 70
     1
102
RTVSPost2010Prop50
 90
       50
102
RTVSPost2010PropOp50
 70
     1
102
RTVSPost2010Prop51ColorIndex
 90
      256
102
RTVSPost2010Prop51ColorRGB
 90
-16777216
102
RTVSPost2010PropOp51
 70
     0
102
RTVSPost2010Prop52
140
1.0
102
RTVSPost2010PropOp52
 70
     0
102
RTVSPost2010Prop53
 90
        2
102
RTVSPost2010PropOp53
 70
     1
102
RTVSPost2010Prop54
  1
strokes_ogs.tif
102
RTVSPost2010PropOp54
 70
     1
102
RTVSPost2010Prop55
280
     0
102
RTVSPost2010PropOp55
 70
     1
102
RTVSPost2010Prop56
140
1.0
102
RTVSPost2010PropOp56
 70
     1
102
RTVSPost2010Prop57
140
1.0
102
RTVSPost2010PropOp57
 70
     1
102
RTVSPropertyOp0
 70
     1
102
RTVSPropertyOp1
 70
     1
102
RTVSPropertyOp2
 70
     1
102
RTVSPropertyOp3
 70
     1
102
RTVSPropertyOp4
 70
     1
102
RTVSPropertyOp5
 70
     1
102
RTVSPropertyOp6
 70
     1
102
RTVSPropertyOp7
 70
     1
102
RTVSPropertyOp8
 70
     1
102
RTVSPropertyOp9
 70
     1
102
RTVSPropertyOp10
 70
     1
102
RTVSPropertyOp11
 70
     1
102
RTVSPropertyOp12
 70
     1
102
RTVSPropertyOp13
 70
     1
102
RTVSPropertyOp14
 70
     1
102
RTVSPropertyOp15
 70
     1
102
RTVSPropertyOp16
 70
     1
102
RTVSPropertyOp17
 70
     1
102
RTVSPropertyOp18
 70
     1
102
RTVSPropertyOp19
 70
     1
102
RTVSPropertyOp20
 70
     1
102
RTVSPropertyOp21
 70
     1
102
RTVSPropertyOp22
 70
     1
102
RTVSPropertyOp23
 70
     1
102
RTVSPropertyOp24
 70
     1
102
RTVSPropertyOp25
 70
     1
102
RTVSPropertyOp26
 70
     1
102
RTVSPropertyOp27
 70
     1
102
RTVSPropertyOp28
 70
     1
102
RTVSPropertyOp29
 70
     1
102
RTVSPropertyOp30
 70
     1
102
RTVSPropertyOp31
 70
     1
102
RTVSPropertyOp32
 70
     1
102
RTVSPropertyOp33
 70
     1
102
RTVSPropertyOp34
 70
     1
102
RTVSPropertyOp35
 70
     1
102
RTVSPropertyOp36
 70
     1
102
RTVSPropertyOp37
 70
     1
102
RTVSPropertyOp38
 70
     1
102
RTVSPropertyOp39
 70
     1
102
RTVSPropertyOp40
 70
     1
102
RTVSPropertyOp41
 70
     1
102
RTVSPropertyOp42
 70
     1
102
RTVSPropertyOp43
 70
     1
102
RTVSPropertyOp44
 70
     1
102
RTVSPropertyOp45
 70
     1
102
RTVSPropertyOp46
 70
     1
102
RTVSPropertyOp47
 70
     1
102
RTVSPropertyOp48
 70
     1
102
RTVSPropertyOp49
 70
     1
102
RTVSPropertyOp50
 70
     1
102
RTVSPropertyOp51
 70
     0
102
RTVSPropertyOp52
 70
     0
102
RTVSPropertyOp53
 70
     1
102
RTVSPropertyOp54
 70
     1
102
RTVSPropertyOp55
 70
     1
102
RTVSPropertyOp56
 70
     1
102
RTVSPropertyOp57
 70
     1
102
RTVSPropertyOp58
 70
     1
102
RTVSPropertyOp59
 70
     1
102
RTVSPropertyOp60
 70
     1
102
RTVSPropertyOp61
 70
     1
102
RTVSPropertyOp62
 70
     1
  0
XRECORD
  5
8517
102
{ACAD_REACTORS
330
8516
102
}
330
8516
100
AcDbXrecord
280
     1
102
RTVSPost2010Prop28
280
     0
102
RTVSPost2010PropOp28
 70
     1
102
RTVSPost2010Prop29
280
     1
102
RTVSPost2010PropOp29
 70
     1
102
RTVSPost2010Prop30
280
     1
102
RTVSPost2010PropOp30
 70
     1
102
RTVSPost2010Prop31
280
     0
102
RTVSPost2010PropOp31
 70
     1
102
RTVSPost2010Prop32
280
     0
102
RTVSPost2010PropOp32
 70
     1
102
RTVSPost2010Prop33
280
     0
102
RTVSPost2010PropOp33
 70
     1
102
RTVSPost2010Prop34
280
     0
102
RTVSPost2010PropOp34
 70
     1
102
RTVSPost2010Prop35
280
     0
102
RTVSPost2010PropOp35
 70
     1
102
RTVSPost2010Prop36
280
     0
102
RTVSPost2010PropOp36
 70
     1
102
RTVSPost2010Prop37
 90
       50
102
RTVSPost2010PropOp37
 70
     0
102
RTVSPost2010Prop38
140
0.0
102
RTVSPost2010PropOp38
 70
     0
102
RTVSPost2010Prop39
140
1.0
102
RTVSPost2010PropOp39
 70
     0
102
RTVSPost2010Prop40
 90
        0
102
RTVSPost2010PropOp40
 70
     0
102
RTVSPost2010Prop41ColorIndex
 90
       18
102
RTVSPost2010Prop41ColorRGB
 90
        0
102
RTVSPost2010PropOp41
 70
     0
102
RTVSPost2010Prop42
 90
       50
102
RTVSPost2010PropOp42
 70
     0
102
RTVSPost2010Prop43
 90
        3
102
RTVSPost2010PropOp43
 70
     0
102
RTVSPost2010Prop44ColorIndex
 90
        5
102
RTVSPost2010Prop44ColorRGB
 90
      255
102
RTVSPost2010PropOp44
 70
     0
102
RTVSPost2010Prop45
280
     0
102
RTVSPost2010PropOp45
 70
     1
102
RTVSPost2010Prop46
 90
       50
102
RTVSPost2010PropOp46
 70
     0
102
RTVSPost2010Prop47
 90
       50
102
RTVSPost2010PropOp47
 70
     0
102
RTVSPost2010Prop48
 90
       50
102
RTVSPost2010PropOp48
 70
     0
102
RTVSPost2010Prop49
280
     0
102
RTVSPost2010PropOp49
 70
     1
102
RTVSPost2010Prop50
 90
       50
102
RTVSPost2010PropOp50
 70
     0
102
RTVSPost2010Prop51ColorIndex
 90
      256
102
RTVSPost2010Prop51ColorRGB
 90
-16777216
102
RTVSPost2010PropOp51
 70
     0
102
RTVSPost2010Prop52
140
1.0
102
RTVSPost2010PropOp52
 70
     0
102
RTVSPost2010Prop53
 90
        2
102
RTVSPost2010PropOp53
 70
     0
102
RTVSPost2010Prop54
  1
strokes_ogs.tif
102
RTVSPost2010PropOp54
 70
     0
102
RTVSPost2010Prop55
280
     0
102
RTVSPost2010PropOp55
 70
     1
102
RTVSPost2010Prop56
140
1.0
102
RTVSPost2010PropOp56
 70
     0
102
RTVSPost2010Prop57
140
1.0
102
RTVSPost2010PropOp57
 70
     0
102
RTVSPropertyOp0
 70
     0
102
RTVSPropertyOp1
 70
     0
102
RTVSPropertyOp2
 70
     0
102
RTVSPropertyOp3
 70
     0
102
RTVSPropertyOp4
 70
     0
102
RTVSPropertyOp5
 70
     0
102
RTVSPropertyOp6
 70
     0
102
RTVSPropertyOp7
 70
     0
102
RTVSPropertyOp8
 70
     0
102
RTVSPropertyOp9
 70
     0
102
RTVSPropertyOp10
 70
     0
102
RTVSPropertyOp11
 70
     0
102
RTVSPropertyOp12
 70
     0
102
RTVSPropertyOp13
 70
     0
102
RTVSPropertyOp14
 70
     2
102
RTVSPropertyOp15
 70
     0
102
RTVSPropertyOp16
 70
     0
102
RTVSPropertyOp17
 70
     0
102
RTVSPropertyOp18
 70
     0
102
RTVSPropertyOp19
 70
     0
102
RTVSPropertyOp20
 70
     0
102
RTVSPropertyOp21
 70
     0
102
RTVSPropertyOp22
 70
     0
102
RTVSPropertyOp23
 70
     0
102
RTVSPropertyOp24
 70
     0
102
RTVSPropertyOp25
 70
     0
102
RTVSPropertyOp26
 70
     0
102
RTVSPropertyOp27
 70
     0
102
RTVSPropertyOp28
 70
     1
102
RTVSPropertyOp29
 70
     1
102
RTVSPropertyOp30
 70
     1
102
RTVSPropertyOp31
 70
     1
102
RTVSPropertyOp32
 70
     1
102
RTVSPropertyOp33
 70
     1
102
RTVSPropertyOp34
 70
     1
102
RTVSPropertyOp35
 70
     1
102
RTVSPropertyOp36
 70
     1
102
RTVSPropertyOp37
 70
     0
102
RTVSPropertyOp38
 70
     0
102
RTVSPropertyOp39
 70
     0
102
RTVSPropertyOp40
 70
     0
102
RTVSPropertyOp41
 70
     0
102
RTVSPropertyOp42
 70
     0
102
RTVSPropertyOp43
 70
     0
102
RTVSPropertyOp44
 70
     0
102
RTVSPropertyOp45
 70
     1
102
RTVSPropertyOp46
 70
     0
102
RTVSPropertyOp47
 70
     0
102
RTVSPropertyOp48
 70
     0
102
RTVSPropertyOp49
 70
     1
102
RTVSPropertyOp50
 70
     0
102
RTVSPropertyOp51
 70
     0
102
RTVSPropertyOp52
 70
     0
102
RTVSPropertyOp53
 70
     0
102
RTVSPropertyOp54
 70
     0
102
RTVSPropertyOp55
 70
     1
102
RTVSPropertyOp56
 70
     0
102
RTVSPropertyOp57
 70
     0
102
RTVSPropertyOp58
 70
     0
102
RTVSPropertyOp59
 70
     0
102
RTVSPropertyOp60
 70
     0
102
RTVSPropertyOp61
 70
     0
102
RTVSPropertyOp62
 70
     0
  0
XRECORD
  5
8507
102
{ACAD_REACTORS
330
8506
102
}
330
8506
100
AcDbXrecord
280
     1
102
RTVSPost2010Prop28
280
     0
102
RTVSPost2010PropOp28
 70
     1
102
RTVSPost2010Prop29
280
     1
102
RTVSPost2010PropOp29
 70
     1
102
RTVSPost2010Prop30
280
     1
102
RTVSPost2010PropOp30
 70
     1
102
RTVSPost2010Prop31
280
     0
102
RTVSPost2010PropOp31
 70
     1
102
RTVSPost2010Prop32
280
     0
102
RTVSPost2010PropOp32
 70
     1
102
RTVSPost2010Prop33
280
     0
102
RTVSPost2010PropOp33
 70
     1
102
RTVSPost2010Prop34
280
     0
102
RTVSPost2010PropOp34
 70
     1
102
RTVSPost2010Prop35
280
     0
102
RTVSPost2010PropOp35
 70
     1
102
RTVSPost2010Prop36
280
     0
102
RTVSPost2010PropOp36
 70
     1
102
RTVSPost2010Prop37
 90
       50
102
RTVSPost2010PropOp37
 70
     1
102
RTVSPost2010Prop38
140
0.0
102
RTVSPost2010PropOp38
 70
     1
102
RTVSPost2010Prop39
140
1.0
102
RTVSPost2010PropOp39
 70
     1
102
RTVSPost2010Prop40
 90
        0
102
RTVSPost2010PropOp40
 70
     1
102
RTVSPost2010Prop41ColorIndex
 90
       18
102
RTVSPost2010Prop41ColorRGB
 90
        0
102
RTVSPost2010PropOp41
 70
     1
102
RTVSPost2010Prop42
 90
       50
102
RTVSPost2010PropOp42
 70
     1
102
RTVSPost2010Prop43
 90
        3
102
RTVSPost2010PropOp43
 70
     1
102
RTVSPost2010Prop44ColorIndex
 90
        5
102
RTVSPost2010Prop44ColorRGB
 90
      255
102
RTVSPost2010PropOp44
 70
     1
102
RTVSPost2010Prop45
280
     0
102
RTVSPost2010PropOp45
 70
     1
102
RTVSPost2010Prop46
 90
       50
102
RTVSPost2010PropOp46
 70
     1
102
RTVSPost2010Prop47
 90
       50
102
RTVSPost2010PropOp47
 70
     1
102
RTVSPost2010Prop48
 90
       50
102
RTVSPost2010PropOp48
 70
     1
102
RTVSPost2010Prop49
280
     0
102
RTVSPost2010PropOp49
 70
     1
102
RTVSPost2010Prop50
 90
       50
102
RTVSPost2010PropOp50
 70
     1
102
RTVSPost2010Prop51ColorIndex
 90
      256
102
RTVSPost2010Prop51ColorRGB
 90
-16777216
102
RTVSPost2010PropOp51
 70
     0
102
RTVSPost2010Prop52
140
1.0
102
RTVSPost2010PropOp52
 70
     0
102
RTVSPost2010Prop53
 90
        2
102
RTVSPost2010PropOp53
 70
     1
102
RTVSPost2010Prop54
  1
strokes_ogs.tif
102
RTVSPost2010PropOp54
 70
     1
102
RTVSPost2010Prop55
280
     0
102
RTVSPost2010PropOp55
 70
     1
102
RTVSPost2010Prop56
140
1.0
102
RTVSPost2010PropOp56
 70
     1
102
RTVSPost2010Prop57
140
1.0
102
RTVSPost2010PropOp57
 70
     1
102
RTVSPropertyOp0
 70
     1
102
RTVSPropertyOp1
 70
     1
102
RTVSPropertyOp2
 70
     1
102
RTVSPropertyOp3
 70
     1
102
RTVSPropertyOp4
 70
     1
102
RTVSPropertyOp5
 70
     1
102
RTVSPropertyOp6
 70
     1
102
RTVSPropertyOp7
 70
     1
102
RTVSPropertyOp8
 70
     1
102
RTVSPropertyOp9
 70
     1
102
RTVSPropertyOp10
 70
     1
102
RTVSPropertyOp11
 70
     1
102
RTVSPropertyOp12
 70
     1
102
RTVSPropertyOp13
 70
     1
102
RTVSPropertyOp14
 70
     1
102
RTVSPropertyOp15
 70
     1
102
RTVSPropertyOp16
 70
     1
102
RTVSPropertyOp17
 70
     1
102
RTVSPropertyOp18
 70
     1
102
RTVSPropertyOp19
 70
     1
102
RTVSPropertyOp20
 70
     1
102
RTVSPropertyOp21
 70
     1
102
RTVSPropertyOp22
 70
     1
102
RTVSPropertyOp23
 70
     1
102
RTVSPropertyOp24
 70
     1
102
RTVSPropertyOp25
 70
     1
102
RTVSPropertyOp26
 70
     1
102
RTVSPropertyOp27
 70
     1
102
RTVSPropertyOp28
 70
     1
102
RTVSPropertyOp29
 70
     1
102
RTVSPropertyOp30
 70
     1
102
RTVSPropertyOp31
 70
     1
102
RTVSPropertyOp32
 70
     1
102
RTVSPropertyOp33
 70
     1
102
RTVSPropertyOp34
 70
     1
102
RTVSPropertyOp35
 70
     1
102
RTVSPropertyOp36
 70
     1
102
RTVSPropertyOp37
 70
     1
102
RTVSPropertyOp38
 70
     1
102
RTVSPropertyOp39
 70
     1
102
RTVSPropertyOp40
 70
     1
102
RTVSPropertyOp41
 70
     1
102
RTVSPropertyOp42
 70
     1
102
RTVSPropertyOp43
 70
     1
102
RTVSPropertyOp44
 70
     1
102
RTVSPropertyOp45
 70
     1
102
RTVSPropertyOp46
 70
     1
102
RTVSPropertyOp47
 70
     1
102
RTVSPropertyOp48
 70
     1
102
RTVSPropertyOp49
 70
     1
102
RTVSPropertyOp50
 70
     1
102
RTVSPropertyOp51
 70
     0
102
RTVSPropertyOp52
 70
     0
102
RTVSPropertyOp53
 70
     1
102
RTVSPropertyOp54
 70
     1
102
RTVSPropertyOp55
 70
     1
102
RTVSPropertyOp56
 70
     1
102
RTVSPropertyOp57
 70
     1
102
RTVSPropertyOp58
 70
     1
102
RTVSPropertyOp59
 70
     1
102
RTVSPropertyOp60
 70
     1
102
RTVSPropertyOp61
 70
     1
102
RTVSPropertyOp62
 70
     1
  0
XRECORD
  5
8519
102
{ACAD_REACTORS
330
8518
102
}
330
8518
100
AcDbXrecord
280
     1
102
RTVSPost2010Prop28
280
     0
102
RTVSPost2010PropOp28
 70
     1
102
RTVSPost2010Prop29
280
     1
102
RTVSPost2010PropOp29
 70
     1
102
RTVSPost2010Prop30
280
     1
102
RTVSPost2010PropOp30
 70
     1
102
RTVSPost2010Prop31
280
     0
102
RTVSPost2010PropOp31
 70
     1
102
RTVSPost2010Prop32
280
     0
102
RTVSPost2010PropOp32
 70
     1
102
RTVSPost2010Prop33
280
     0
102
RTVSPost2010PropOp33
 70
     1
102
RTVSPost2010Prop34
280
     0
102
RTVSPost2010PropOp34
 70
     1
102
RTVSPost2010Prop35
280
     0
102
RTVSPost2010PropOp35
 70
     1
102
RTVSPost2010Prop36
280
     0
102
RTVSPost2010PropOp36
 70
     1
102
RTVSPost2010Prop37
 90
       50
102
RTVSPost2010PropOp37
 70
     0
102
RTVSPost2010Prop38
140
0.0
102
RTVSPost2010PropOp38
 70
     0
102
RTVSPost2010Prop39
140
1.0
102
RTVSPost2010PropOp39
 70
     0
102
RTVSPost2010Prop40
 90
        0
102
RTVSPost2010PropOp40
 70
     0
102
RTVSPost2010Prop41ColorIndex
 90
       18
102
RTVSPost2010Prop41ColorRGB
 90
        0
102
RTVSPost2010PropOp41
 70
     0
102
RTVSPost2010Prop42
 90
       50
102
RTVSPost2010PropOp42
 70
     0
102
RTVSPost2010Prop43
 90
        3
102
RTVSPost2010PropOp43
 70
     0
102
RTVSPost2010Prop44ColorIndex
 90
        5
102
RTVSPost2010Prop44ColorRGB
 90
      255
102
RTVSPost2010PropOp44
 70
     0
102
RTVSPost2010Prop45
280
     0
102
RTVSPost2010PropOp45
 70
     1
102
RTVSPost2010Prop46
 90
       50
102
RTVSPost2010PropOp46
 70
     0
102
RTVSPost2010Prop47
 90
       50
102
RTVSPost2010PropOp47
 70
     0
102
RTVSPost2010Prop48
 90
       50
102
RTVSPost2010PropOp48
 70
     0
102
RTVSPost2010Prop49
280
     0
102
RTVSPost2010PropOp49
 70
     1
102
RTVSPost2010Prop50
 90
       50
102
RTVSPost2010PropOp50
 70
     0
102
RTVSPost2010Prop51ColorIndex
 90
      256
102
RTVSPost2010Prop51ColorRGB
 90
-16777216
102
RTVSPost2010PropOp51
 70
     0
102
RTVSPost2010Prop52
140
1.0
102
RTVSPost2010PropOp52
 70
     0
102
RTVSPost2010Prop53
 90
        2
102
RTVSPost2010PropOp53
 70
     0
102
RTVSPost2010Prop54
  1
strokes_ogs.tif
102
RTVSPost2010PropOp54
 70
     0
102
RTVSPost2010Prop55
280
     0
102
RTVSPost2010PropOp55
 70
     1
102
RTVSPost2010Prop56
140
1.0
102
RTVSPost2010PropOp56
 70
     0
102
RTVSPost2010Prop57
140
1.0
102
RTVSPost2010PropOp57
 70
     0
102
RTVSPropertyOp0
 70
     0
102
RTVSPropertyOp1
 70
     0
102
RTVSPropertyOp2
 70
     0
102
RTVSPropertyOp3
 70
     0
102
RTVSPropertyOp4
 70
     0
102
RTVSPropertyOp5
 70
     0
102
RTVSPropertyOp6
 70
     0
102
RTVSPropertyOp7
 70
     0
102
RTVSPropertyOp8
 70
     0
102
RTVSPropertyOp9
 70
     0
102
RTVSPropertyOp10
 70
     0
102
RTVSPropertyOp11
 70
     0
102
RTVSPropertyOp12
 70
     0
102
RTVSPropertyOp13
 70
     0
102
RTVSPropertyOp14
 70
     2
102
RTVSPropertyOp15
 70
     0
102
RTVSPropertyOp16
 70
     0
102
RTVSPropertyOp17
 70
     0
102
RTVSPropertyOp18
 70
     0
102
RTVSPropertyOp19
 70
     0
102
RTVSPropertyOp20
 70
     0
102
RTVSPropertyOp21
 70
     0
102
RTVSPropertyOp22
 70
     0
102
RTVSPropertyOp23
 70
     0
102
RTVSPropertyOp24
 70
     0
102
RTVSPropertyOp25
 70
     0
102
RTVSPropertyOp26
 70
     0
102
RTVSPropertyOp27
 70
     0
102
RTVSPropertyOp28
 70
     1
102
RTVSPropertyOp29
 70
     1
102
RTVSPropertyOp30
 70
     1
102
RTVSPropertyOp31
 70
     1
102
RTVSPropertyOp32
 70
     1
102
RTVSPropertyOp33
 70
     1
102
RTVSPropertyOp34
 70
     1
102
RTVSPropertyOp35
 70
     1
102
RTVSPropertyOp36
 70
     1
102
RTVSPropertyOp37
 70
     0
102
RTVSPropertyOp38
 70
     0
102
RTVSPropertyOp39
 70
     0
102
RTVSPropertyOp40
 70
     0
102
RTVSPropertyOp41
 70
     0
102
RTVSPropertyOp42
 70
     0
102
RTVSPropertyOp43
 70
     0
102
RTVSPropertyOp44
 70
     0
102
RTVSPropertyOp45
 70
     1
102
RTVSPropertyOp46
 70
     0
102
RTVSPropertyOp47
 70
     0
102
RTVSPropertyOp48
 70
     0
102
RTVSPropertyOp49
 70
     1
102
RTVSPropertyOp50
 70
     0
102
RTVSPropertyOp51
 70
     0
102
RTVSPropertyOp52
 70
     0
102
RTVSPropertyOp53
 70
     0
102
RTVSPropertyOp54
 70
     0
102
RTVSPropertyOp55
 70
     1
102
RTVSPropertyOp56
 70
     0
102
RTVSPropertyOp57
 70
     0
102
RTVSPropertyOp58
 70
     0
102
RTVSPropertyOp59
 70
     0
102
RTVSPropertyOp60
 70
     0
102
RTVSPropertyOp61
 70
     0
102
RTVSPropertyOp62
 70
     0
  0
XRECORD
  5
84FF
102
{ACAD_REACTORS
330
84FE
102
}
330
84FE
100
AcDbXrecord
280
     1
102
RTVSPost2010Prop28
280
     0
102
RTVSPost2010PropOp28
 70
     1
102
RTVSPost2010Prop29
280
     1
102
RTVSPost2010PropOp29
 70
     1
102
RTVSPost2010Prop30
280
     1
102
RTVSPost2010PropOp30
 70
     1
102
RTVSPost2010Prop31
280
     0
102
RTVSPost2010PropOp31
 70
     1
102
RTVSPost2010Prop32
280
     0
102
RTVSPost2010PropOp32
 70
     1
102
RTVSPost2010Prop33
280
     0
102
RTVSPost2010PropOp33
 70
     1
102
RTVSPost2010Prop34
280
     0
102
RTVSPost2010PropOp34
 70
     1
102
RTVSPost2010Prop35
280
     0
102
RTVSPost2010PropOp35
 70
     1
102
RTVSPost2010Prop36
280
     0
102
RTVSPost2010PropOp36
 70
     1
102
RTVSPost2010Prop37
 90
       50
102
RTVSPost2010PropOp37
 70
     1
102
RTVSPost2010Prop38
140
0.0
102
RTVSPost2010PropOp38
 70
     1
102
RTVSPost2010Prop39
140
1.0
102
RTVSPost2010PropOp39
 70
     1
102
RTVSPost2010Prop40
 90
        0
102
RTVSPost2010PropOp40
 70
     1
102
RTVSPost2010Prop41ColorIndex
 90
       18
102
RTVSPost2010Prop41ColorRGB
 90
        0
102
RTVSPost2010PropOp41
 70
     1
102
RTVSPost2010Prop42
 90
       50
102
RTVSPost2010PropOp42
 70
     1
102
RTVSPost2010Prop43
 90
        3
102
RTVSPost2010PropOp43
 70
     1
102
RTVSPost2010Prop44ColorIndex
 90
        5
102
RTVSPost2010Prop44ColorRGB
 90
      255
102
RTVSPost2010PropOp44
 70
     1
102
RTVSPost2010Prop45
280
     0
102
RTVSPost2010PropOp45
 70
     1
102
RTVSPost2010Prop46
 90
       50
102
RTVSPost2010PropOp46
 70
     1
102
RTVSPost2010Prop47
 90
       50
102
RTVSPost2010PropOp47
 70
     1
102
RTVSPost2010Prop48
 90
       50
102
RTVSPost2010PropOp48
 70
     1
102
RTVSPost2010Prop49
280
     0
102
RTVSPost2010PropOp49
 70
     1
102
RTVSPost2010Prop50
 90
       50
102
RTVSPost2010PropOp50
 70
     1
102
RTVSPost2010Prop51ColorIndex
 90
      256
102
RTVSPost2010Prop51ColorRGB
 90
-16777216
102
RTVSPost2010PropOp51
 70
     0
102
RTVSPost2010Prop52
140
1.0
102
RTVSPost2010PropOp52
 70
     0
102
RTVSPost2010Prop53
 90
        2
102
RTVSPost2010PropOp53
 70
     1
102
RTVSPost2010Prop54
  1
strokes_ogs.tif
102
RTVSPost2010PropOp54
 70
     1
102
RTVSPost2010Prop55
280
     0
102
RTVSPost2010PropOp55
 70
     1
102
RTVSPost2010Prop56
140
1.0
102
RTVSPost2010PropOp56
 70
     1
102
RTVSPost2010Prop57
140
1.0
102
RTVSPost2010PropOp57
 70
     1
102
RTVSPropertyOp0
 70
     1
102
RTVSPropertyOp1
 70
     1
102
RTVSPropertyOp2
 70
     1
102
RTVSPropertyOp3
 70
     1
102
RTVSPropertyOp4
 70
     1
102
RTVSPropertyOp5
 70
     1
102
RTVSPropertyOp6
 70
     1
102
RTVSPropertyOp7
 70
     1
102
RTVSPropertyOp8
 70
     1
102
RTVSPropertyOp9
 70
     1
102
RTVSPropertyOp10
 70
     1
102
RTVSPropertyOp11
 70
     1
102
RTVSPropertyOp12
 70
     1
102
RTVSPropertyOp13
 70
     1
102
RTVSPropertyOp14
 70
     1
102
RTVSPropertyOp15
 70
     1
102
RTVSPropertyOp16
 70
     1
102
RTVSPropertyOp17
 70
     1
102
RTVSPropertyOp18
 70
     1
102
RTVSPropertyOp19
 70
     1
102
RTVSPropertyOp20
 70
     1
102
RTVSPropertyOp21
 70
     1
102
RTVSPropertyOp22
 70
     1
102
RTVSPropertyOp23
 70
     1
102
RTVSPropertyOp24
 70
     1
102
RTVSPropertyOp25
 70
     1
102
RTVSPropertyOp26
 70
     1
102
RTVSPropertyOp27
 70
     1
102
RTVSPropertyOp28
 70
     1
102
RTVSPropertyOp29
 70
     1
102
RTVSPropertyOp30
 70
     1
102
RTVSPropertyOp31
 70
     1
102
RTVSPropertyOp32
 70
     1
102
RTVSPropertyOp33
 70
     1
102
RTVSPropertyOp34
 70
     1
102
RTVSPropertyOp35
 70
     1
102
RTVSPropertyOp36
 70
     1
102
RTVSPropertyOp37
 70
     1
102
RTVSPropertyOp38
 70
     1
102
RTVSPropertyOp39
 70
     1
102
RTVSPropertyOp40
 70
     1
102
RTVSPropertyOp41
 70
     1
102
RTVSPropertyOp42
 70
     1
102
RTVSPropertyOp43
 70
     1
102
RTVSPropertyOp44
 70
     1
102
RTVSPropertyOp45
 70
     1
102
RTVSPropertyOp46
 70
     1
102
RTVSPropertyOp47
 70
     1
102
RTVSPropertyOp48
 70
     1
102
RTVSPropertyOp49
 70
     1
102
RTVSPropertyOp50
 70
     1
102
RTVSPropertyOp51
 70
     0
102
RTVSPropertyOp52
 70
     0
102
RTVSPropertyOp53
 70
     1
102
RTVSPropertyOp54
 70
     1
102
RTVSPropertyOp55
 70
     1
102
RTVSPropertyOp56
 70
     1
102
RTVSPropertyOp57
 70
     1
102
RTVSPropertyOp58
 70
     1
102
RTVSPropertyOp59
 70
     1
102
RTVSPropertyOp60
 70
     1
102
RTVSPropertyOp61
 70
     1
102
RTVSPropertyOp62
 70
     1
  0
XRECORD
  5
8515
102
{ACAD_REACTORS
330
8514
102
}
330
8514
100
AcDbXrecord
280
     1
102
RTVSPost2010Prop28
280
     0
102
RTVSPost2010PropOp28
 70
     1
102
RTVSPost2010Prop29
280
     1
102
RTVSPost2010PropOp29
 70
     1
102
RTVSPost2010Prop30
280
     1
102
RTVSPost2010PropOp30
 70
     1
102
RTVSPost2010Prop31
280
     0
102
RTVSPost2010PropOp31
 70
     1
102
RTVSPost2010Prop32
280
     0
102
RTVSPost2010PropOp32
 70
     1
102
RTVSPost2010Prop33
280
     0
102
RTVSPost2010PropOp33
 70
     1
102
RTVSPost2010Prop34
280
     0
102
RTVSPost2010PropOp34
 70
     1
102
RTVSPost2010Prop35
280
     0
102
RTVSPost2010PropOp35
 70
     1
102
RTVSPost2010Prop36
280
     0
102
RTVSPost2010PropOp36
 70
     1
102
RTVSPost2010Prop37
 90
       50
102
RTVSPost2010PropOp37
 70
     1
102
RTVSPost2010Prop38
140
0.0
102
RTVSPost2010PropOp38
 70
     1
102
RTVSPost2010Prop39
140
1.0
102
RTVSPost2010PropOp39
 70
     1
102
RTVSPost2010Prop40
 90
        0
102
RTVSPost2010PropOp40
 70
     1
102
RTVSPost2010Prop41ColorIndex
 90
       18
102
RTVSPost2010Prop41ColorRGB
 90
        0
102
RTVSPost2010PropOp41
 70
     1
102
RTVSPost2010Prop42
 90
       50
102
RTVSPost2010PropOp42
 70
     1
102
RTVSPost2010Prop43
 90
        3
102
RTVSPost2010PropOp43
 70
     1
102
RTVSPost2010Prop44ColorIndex
 90
        5
102
RTVSPost2010Prop44ColorRGB
 90
      255
102
RTVSPost2010PropOp44
 70
     1
102
RTVSPost2010Prop45
280
     0
102
RTVSPost2010PropOp45
 70
     1
102
RTVSPost2010Prop46
 90
       50
102
RTVSPost2010PropOp46
 70
     1
102
RTVSPost2010Prop47
 90
       50
102
RTVSPost2010PropOp47
 70
     1
102
RTVSPost2010Prop48
 90
       50
102
RTVSPost2010PropOp48
 70
     1
102
RTVSPost2010Prop49
280
     0
102
RTVSPost2010PropOp49
 70
     1
102
RTVSPost2010Prop50
 90
       50
102
RTVSPost2010PropOp50
 70
     1
102
RTVSPost2010Prop51ColorIndex
 90
      256
102
RTVSPost2010Prop51ColorRGB
 90
-16777216
102
RTVSPost2010PropOp51
 70
     0
102
RTVSPost2010Prop52
140
1.0
102
RTVSPost2010PropOp52
 70
     0
102
RTVSPost2010Prop53
 90
        2
102
RTVSPost2010PropOp53
 70
     1
102
RTVSPost2010Prop54
  1
strokes_ogs.tif
102
RTVSPost2010PropOp54
 70
     1
102
RTVSPost2010Prop55
280
     0
102
RTVSPost2010PropOp55
 70
     1
102
RTVSPost2010Prop56
140
1.0
102
RTVSPost2010PropOp56
 70
     1
102
RTVSPost2010Prop57
140
1.0
102
RTVSPost2010PropOp57
 70
     1
102
RTVSPropertyOp0
 70
     1
102
RTVSPropertyOp1
 70
     1
102
RTVSPropertyOp2
 70
     1
102
RTVSPropertyOp3
 70
     1
102
RTVSPropertyOp4
 70
     1
102
RTVSPropertyOp5
 70
     1
102
RTVSPropertyOp6
 70
     1
102
RTVSPropertyOp7
 70
     1
102
RTVSPropertyOp8
 70
     1
102
RTVSPropertyOp9
 70
     1
102
RTVSPropertyOp10
 70
     1
102
RTVSPropertyOp11
 70
     1
102
RTVSPropertyOp12
 70
     1
102
RTVSPropertyOp13
 70
     1
102
RTVSPropertyOp14
 70
     1
102
RTVSPropertyOp15
 70
     1
102
RTVSPropertyOp16
 70
     1
102
RTVSPropertyOp17
 70
     1
102
RTVSPropertyOp18
 70
     1
102
RTVSPropertyOp19
 70
     1
102
RTVSPropertyOp20
 70
     1
102
RTVSPropertyOp21
 70
     1
102
RTVSPropertyOp22
 70
     1
102
RTVSPropertyOp23
 70
     1
102
RTVSPropertyOp24
 70
     1
102
RTVSPropertyOp25
 70
     1
102
RTVSPropertyOp26
 70
     1
102
RTVSPropertyOp27
 70
     1
102
RTVSPropertyOp28
 70
     1
102
RTVSPropertyOp29
 70
     1
102
RTVSPropertyOp30
 70
     1
102
RTVSPropertyOp31
 70
     1
102
RTVSPropertyOp32
 70
     1
102
RTVSPropertyOp33
 70
     1
102
RTVSPropertyOp34
 70
     1
102
RTVSPropertyOp35
 70
     1
102
RTVSPropertyOp36
 70
     1
102
RTVSPropertyOp37
 70
     1
102
RTVSPropertyOp38
 70
     1
102
RTVSPropertyOp39
 70
     1
102
RTVSPropertyOp40
 70
     1
102
RTVSPropertyOp41
 70
     1
102
RTVSPropertyOp42
 70
     1
102
RTVSPropertyOp43
 70
     1
102
RTVSPropertyOp44
 70
     1
102
RTVSPropertyOp45
 70
     1
102
RTVSPropertyOp46
 70
     1
102
RTVSPropertyOp47
 70
     1
102
RTVSPropertyOp48
 70
     1
102
RTVSPropertyOp49
 70
     1
102
RTVSPropertyOp50
 70
     1
102
RTVSPropertyOp51
 70
     0
102
RTVSPropertyOp52
 70
     0
102
RTVSPropertyOp53
 70
     1
102
RTVSPropertyOp54
 70
     1
102
RTVSPropertyOp55
 70
     1
102
RTVSPropertyOp56
 70
     1
102
RTVSPropertyOp57
 70
     1
102
RTVSPropertyOp58
 70
     1
102
RTVSPropertyOp59
 70
     1
102
RTVSPropertyOp60
 70
     1
102
RTVSPropertyOp61
 70
     1
102
RTVSPropertyOp62
 70
     1
  0
XRECORD
  5
8513
102
{ACAD_REACTORS
330
8512
102
}
330
8512
100
AcDbXrecord
280
     1
102
RTVSPost2010Prop28
280
     0
102
RTVSPost2010PropOp28
 70
     1
102
RTVSPost2010Prop29
280
     1
102
RTVSPost2010PropOp29
 70
     1
102
RTVSPost2010Prop30
280
     1
102
RTVSPost2010PropOp30
 70
     1
102
RTVSPost2010Prop31
280
     0
102
RTVSPost2010PropOp31
 70
     1
102
RTVSPost2010Prop32
280
     0
102
RTVSPost2010PropOp32
 70
     1
102
RTVSPost2010Prop33
280
     0
102
RTVSPost2010PropOp33
 70
     1
102
RTVSPost2010Prop34
280
     0
102
RTVSPost2010PropOp34
 70
     1
102
RTVSPost2010Prop35
280
     0
102
RTVSPost2010PropOp35
 70
     1
102
RTVSPost2010Prop36
280
     0
102
RTVSPost2010PropOp36
 70
     1
102
RTVSPost2010Prop37
 90
       50
102
RTVSPost2010PropOp37
 70
     1
102
RTVSPost2010Prop38
140
0.0
102
RTVSPost2010PropOp38
 70
     1
102
RTVSPost2010Prop39
140
1.0
102
RTVSPost2010PropOp39
 70
     1
102
RTVSPost2010Prop40
 90
        0
102
RTVSPost2010PropOp40
 70
     1
102
RTVSPost2010Prop41ColorIndex
 90
       18
102
RTVSPost2010Prop41ColorRGB
 90
        0
102
RTVSPost2010PropOp41
 70
     1
102
RTVSPost2010Prop42
 90
       50
102
RTVSPost2010PropOp42
 70
     1
102
RTVSPost2010Prop43
 90
        3
102
RTVSPost2010PropOp43
 70
     1
102
RTVSPost2010Prop44ColorIndex
 90
        5
102
RTVSPost2010Prop44ColorRGB
 90
      255
102
RTVSPost2010PropOp44
 70
     1
102
RTVSPost2010Prop45
280
     0
102
RTVSPost2010PropOp45
 70
     1
102
RTVSPost2010Prop46
 90
       50
102
RTVSPost2010PropOp46
 70
     1
102
RTVSPost2010Prop47
 90
       50
102
RTVSPost2010PropOp47
 70
     1
102
RTVSPost2010Prop48
 90
       50
102
RTVSPost2010PropOp48
 70
     1
102
RTVSPost2010Prop49
280
     0
102
RTVSPost2010PropOp49
 70
     1
102
RTVSPost2010Prop50
 90
       50
102
RTVSPost2010PropOp50
 70
     1
102
RTVSPost2010Prop51ColorIndex
 90
      256
102
RTVSPost2010Prop51ColorRGB
 90
-16777216
102
RTVSPost2010PropOp51
 70
     0
102
RTVSPost2010Prop52
140
1.0
102
RTVSPost2010PropOp52
 70
     0
102
RTVSPost2010Prop53
 90
        2
102
RTVSPost2010PropOp53
 70
     1
102
RTVSPost2010Prop54
  1
strokes_ogs.tif
102
RTVSPost2010PropOp54
 70
     1
102
RTVSPost2010Prop55
280
     0
102
RTVSPost2010PropOp55
 70
     1
102
RTVSPost2010Prop56
140
1.0
102
RTVSPost2010PropOp56
 70
     1
102
RTVSPost2010Prop57
140
1.0
102
RTVSPost2010PropOp57
 70
     1
102
RTVSPropertyOp0
 70
     1
102
RTVSPropertyOp1
 70
     1
102
RTVSPropertyOp2
 70
     1
102
RTVSPropertyOp3
 70
     1
102
RTVSPropertyOp4
 70
     1
102
RTVSPropertyOp5
 70
     1
102
RTVSPropertyOp6
 70
     1
102
RTVSPropertyOp7
 70
     1
102
RTVSPropertyOp8
 70
     1
102
RTVSPropertyOp9
 70
     1
102
RTVSPropertyOp10
 70
     1
102
RTVSPropertyOp11
 70
     1
102
RTVSPropertyOp12
 70
     1
102
RTVSPropertyOp13
 70
     1
102
RTVSPropertyOp14
 70
     1
102
RTVSPropertyOp15
 70
     1
102
RTVSPropertyOp16
 70
     1
102
RTVSPropertyOp17
 70
     1
102
RTVSPropertyOp18
 70
     1
102
RTVSPropertyOp19
 70
     1
102
RTVSPropertyOp20
 70
     1
102
RTVSPropertyOp21
 70
     1
102
RTVSPropertyOp22
 70
     1
102
RTVSPropertyOp23
 70
     1
102
RTVSPropertyOp24
 70
     1
102
RTVSPropertyOp25
 70
     1
102
RTVSPropertyOp26
 70
     1
102
RTVSPropertyOp27
 70
     1
102
RTVSPropertyOp28
 70
     1
102
RTVSPropertyOp29
 70
     1
102
RTVSPropertyOp30
 70
     1
102
RTVSPropertyOp31
 70
     1
102
RTVSPropertyOp32
 70
     1
102
RTVSPropertyOp33
 70
     1
102
RTVSPropertyOp34
 70
     1
102
RTVSPropertyOp35
 70
     1
102
RTVSPropertyOp36
 70
     1
102
RTVSPropertyOp37
 70
     1
102
RTVSPropertyOp38
 70
     1
102
RTVSPropertyOp39
 70
     1
102
RTVSPropertyOp40
 70
     1
102
RTVSPropertyOp41
 70
     1
102
RTVSPropertyOp42
 70
     1
102
RTVSPropertyOp43
 70
     1
102
RTVSPropertyOp44
 70
     1
102
RTVSPropertyOp45
 70
     1
102
RTVSPropertyOp46
 70
     1
102
RTVSPropertyOp47
 70
     1
102
RTVSPropertyOp48
 70
     1
102
RTVSPropertyOp49
 70
     1
102
RTVSPropertyOp50
 70
     1
102
RTVSPropertyOp51
 70
     0
102
RTVSPropertyOp52
 70
     0
102
RTVSPropertyOp53
 70
     1
102
RTVSPropertyOp54
 70
     1
102
RTVSPropertyOp55
 70
     1
102
RTVSPropertyOp56
 70
     1
102
RTVSPropertyOp57
 70
     1
102
RTVSPropertyOp58
 70
     1
102
RTVSPropertyOp59
 70
     1
102
RTVSPropertyOp60
 70
     1
102
RTVSPropertyOp61
 70
     1
102
RTVSPropertyOp62
 70
     1
  0
XRECORD
  5
850D
102
{ACAD_REACTORS
330
850C
102
}
330
850C
100
AcDbXrecord
280
     1
102
RTVSPost2010Prop28
280
     0
102
RTVSPost2010PropOp28
 70
     1
102
RTVSPost2010Prop29
280
     1
102
RTVSPost2010PropOp29
 70
     1
102
RTVSPost2010Prop30
280
     1
102
RTVSPost2010PropOp30
 70
     1
102
RTVSPost2010Prop31
280
     0
102
RTVSPost2010PropOp31
 70
     1
102
RTVSPost2010Prop32
280
     0
102
RTVSPost2010PropOp32
 70
     1
102
RTVSPost2010Prop33
280
     0
102
RTVSPost2010PropOp33
 70
     1
102
RTVSPost2010Prop34
280
     0
102
RTVSPost2010PropOp34
 70
     1
102
RTVSPost2010Prop35
280
     0
102
RTVSPost2010PropOp35
 70
     1
102
RTVSPost2010Prop36
280
     0
102
RTVSPost2010PropOp36
 70
     1
102
RTVSPost2010Prop37
 90
       50
102
RTVSPost2010PropOp37
 70
     1
102
RTVSPost2010Prop38
140
0.0
102
RTVSPost2010PropOp38
 70
     1
102
RTVSPost2010Prop39
140
1.0
102
RTVSPost2010PropOp39
 70
     1
102
RTVSPost2010Prop40
 90
        0
102
RTVSPost2010PropOp40
 70
     1
102
RTVSPost2010Prop41ColorIndex
 90
       18
102
RTVSPost2010Prop41ColorRGB
 90
        0
102
RTVSPost2010PropOp41
 70
     1
102
RTVSPost2010Prop42
 90
       50
102
RTVSPost2010PropOp42
 70
     1
102
RTVSPost2010Prop43
 90
        3
102
RTVSPost2010PropOp43
 70
     1
102
RTVSPost2010Prop44ColorIndex
 90
        5
102
RTVSPost2010Prop44ColorRGB
 90
      255
102
RTVSPost2010PropOp44
 70
     1
102
RTVSPost2010Prop45
280
     0
102
RTVSPost2010PropOp45
 70
     1
102
RTVSPost2010Prop46
 90
       50
102
RTVSPost2010PropOp46
 70
     1
102
RTVSPost2010Prop47
 90
       50
102
RTVSPost2010PropOp47
 70
     1
102
RTVSPost2010Prop48
 90
       50
102
RTVSPost2010PropOp48
 70
     1
102
RTVSPost2010Prop49
280
     0
102
RTVSPost2010PropOp49
 70
     1
102
RTVSPost2010Prop50
 90
       50
102
RTVSPost2010PropOp50
 70
     1
102
RTVSPost2010Prop51ColorIndex
 90
      256
102
RTVSPost2010Prop51ColorRGB
 90
-16777216
102
RTVSPost2010PropOp51
 70
     0
102
RTVSPost2010Prop52
140
1.0
102
RTVSPost2010PropOp52
 70
     0
102
RTVSPost2010Prop53
 90
        2
102
RTVSPost2010PropOp53
 70
     1
102
RTVSPost2010Prop54
  1
strokes_ogs.tif
102
RTVSPost2010PropOp54
 70
     1
102
RTVSPost2010Prop55
280
     0
102
RTVSPost2010PropOp55
 70
     1
102
RTVSPost2010Prop56
140
1.0
102
RTVSPost2010PropOp56
 70
     1
102
RTVSPost2010Prop57
140
1.0
102
RTVSPost2010PropOp57
 70
     1
102
RTVSPropertyOp0
 70
     1
102
RTVSPropertyOp1
 70
     1
102
RTVSPropertyOp2
 70
     1
102
RTVSPropertyOp3
 70
     1
102
RTVSPropertyOp4
 70
     1
102
RTVSPropertyOp5
 70
     1
102
RTVSPropertyOp6
 70
     1
102
RTVSPropertyOp7
 70
     1
102
RTVSPropertyOp8
 70
     1
102
RTVSPropertyOp9
 70
     1
102
RTVSPropertyOp10
 70
     1
102
RTVSPropertyOp11
 70
     1
102
RTVSPropertyOp12
 70
     1
102
RTVSPropertyOp13
 70
     1
102
RTVSPropertyOp14
 70
     1
102
RTVSPropertyOp15
 70
     1
102
RTVSPropertyOp16
 70
     1
102
RTVSPropertyOp17
 70
     1
102
RTVSPropertyOp18
 70
     1
102
RTVSPropertyOp19
 70
     1
102
RTVSPropertyOp20
 70
     1
102
RTVSPropertyOp21
 70
     1
102
RTVSPropertyOp22
 70
     1
102
RTVSPropertyOp23
 70
     1
102
RTVSPropertyOp24
 70
     1
102
RTVSPropertyOp25
 70
     1
102
RTVSPropertyOp26
 70
     1
102
RTVSPropertyOp27
 70
     1
102
RTVSPropertyOp28
 70
     1
102
RTVSPropertyOp29
 70
     1
102
RTVSPropertyOp30
 70
     1
102
RTVSPropertyOp31
 70
     1
102
RTVSPropertyOp32
 70
     1
102
RTVSPropertyOp33
 70
     1
102
RTVSPropertyOp34
 70
     1
102
RTVSPropertyOp35
 70
     1
102
RTVSPropertyOp36
 70
     1
102
RTVSPropertyOp37
 70
     1
102
RTVSPropertyOp38
 70
     1
102
RTVSPropertyOp39
 70
     1
102
RTVSPropertyOp40
 70
     1
102
RTVSPropertyOp41
 70
     1
102
RTVSPropertyOp42
 70
     1
102
RTVSPropertyOp43
 70
     1
102
RTVSPropertyOp44
 70
     1
102
RTVSPropertyOp45
 70
     1
102
RTVSPropertyOp46
 70
     1
102
RTVSPropertyOp47
 70
     1
102
RTVSPropertyOp48
 70
     1
102
RTVSPropertyOp49
 70
     1
102
RTVSPropertyOp50
 70
     1
102
RTVSPropertyOp51
 70
     0
102
RTVSPropertyOp52
 70
     0
102
RTVSPropertyOp53
 70
     1
102
RTVSPropertyOp54
 70
     1
102
RTVSPropertyOp55
 70
     1
102
RTVSPropertyOp56
 70
     1
102
RTVSPropertyOp57
 70
     1
102
RTVSPropertyOp58
 70
     1
102
RTVSPropertyOp59
 70
     1
102
RTVSPropertyOp60
 70
     1
102
RTVSPropertyOp61
 70
     1
102
RTVSPropertyOp62
 70
     1
  0
XRECORD
  5
850F
102
{ACAD_REACTORS
330
850E
102
}
330
850E
100
AcDbXrecord
280
     1
102
RTVSPost2010Prop28
280
     0
102
RTVSPost2010PropOp28
 70
     1
102
RTVSPost2010Prop29
280
     1
102
RTVSPost2010PropOp29
 70
     1
102
RTVSPost2010Prop30
280
     1
102
RTVSPost2010PropOp30
 70
     1
102
RTVSPost2010Prop31
280
     0
102
RTVSPost2010PropOp31
 70
     1
102
RTVSPost2010Prop32
280
     0
102
RTVSPost2010PropOp32
 70
     1
102
RTVSPost2010Prop33
280
     0
102
RTVSPost2010PropOp33
 70
     1
102
RTVSPost2010Prop34
280
     0
102
RTVSPost2010PropOp34
 70
     1
102
RTVSPost2010Prop35
280
     0
102
RTVSPost2010PropOp35
 70
     1
102
RTVSPost2010Prop36
280
     0
102
RTVSPost2010PropOp36
 70
     1
102
RTVSPost2010Prop37
 90
       50
102
RTVSPost2010PropOp37
 70
     1
102
RTVSPost2010Prop38
140
0.0
102
RTVSPost2010PropOp38
 70
     1
102
RTVSPost2010Prop39
140
1.0
102
RTVSPost2010PropOp39
 70
     1
102
RTVSPost2010Prop40
 90
        0
102
RTVSPost2010PropOp40
 70
     1
102
RTVSPost2010Prop41ColorIndex
 90
       18
102
RTVSPost2010Prop41ColorRGB
 90
        0
102
RTVSPost2010PropOp41
 70
     1
102
RTVSPost2010Prop42
 90
       50
102
RTVSPost2010PropOp42
 70
     1
102
RTVSPost2010Prop43
 90
        3
102
RTVSPost2010PropOp43
 70
     1
102
RTVSPost2010Prop44ColorIndex
 90
        5
102
RTVSPost2010Prop44ColorRGB
 90
      255
102
RTVSPost2010PropOp44
 70
     1
102
RTVSPost2010Prop45
280
     0
102
RTVSPost2010PropOp45
 70
     1
102
RTVSPost2010Prop46
 90
       50
102
RTVSPost2010PropOp46
 70
     1
102
RTVSPost2010Prop47
 90
       50
102
RTVSPost2010PropOp47
 70
     1
102
RTVSPost2010Prop48
 90
       50
102
RTVSPost2010PropOp48
 70
     1
102
RTVSPost2010Prop49
280
     0
102
RTVSPost2010PropOp49
 70
     1
102
RTVSPost2010Prop50
 90
       50
102
RTVSPost2010PropOp50
 70
     1
102
RTVSPost2010Prop51ColorIndex
 90
      256
102
RTVSPost2010Prop51ColorRGB
 90
-16777216
102
RTVSPost2010PropOp51
 70
     0
102
RTVSPost2010Prop52
140
1.0
102
RTVSPost2010PropOp52
 70
     0
102
RTVSPost2010Prop53
 90
        2
102
RTVSPost2010PropOp53
 70
     1
102
RTVSPost2010Prop54
  1
strokes_ogs.tif
102
RTVSPost2010PropOp54
 70
     1
102
RTVSPost2010Prop55
280
     0
102
RTVSPost2010PropOp55
 70
     1
102
RTVSPost2010Prop56
140
1.0
102
RTVSPost2010PropOp56
 70
     1
102
RTVSPost2010Prop57
140
1.0
102
RTVSPost2010PropOp57
 70
     1
102
RTVSPropertyOp0
 70
     1
102
RTVSPropertyOp1
 70
     1
102
RTVSPropertyOp2
 70
     1
102
RTVSPropertyOp3
 70
     1
102
RTVSPropertyOp4
 70
     1
102
RTVSPropertyOp5
 70
     1
102
RTVSPropertyOp6
 70
     1
102
RTVSPropertyOp7
 70
     1
102
RTVSPropertyOp8
 70
     1
102
RTVSPropertyOp9
 70
     1
102
RTVSPropertyOp10
 70
     1
102
RTVSPropertyOp11
 70
     1
102
RTVSPropertyOp12
 70
     1
102
RTVSPropertyOp13
 70
     1
102
RTVSPropertyOp14
 70
     1
102
RTVSPropertyOp15
 70
     1
102
RTVSPropertyOp16
 70
     1
102
RTVSPropertyOp17
 70
     1
102
RTVSPropertyOp18
 70
     1
102
RTVSPropertyOp19
 70
     1
102
RTVSPropertyOp20
 70
     1
102
RTVSPropertyOp21
 70
     1
102
RTVSPropertyOp22
 70
     1
102
RTVSPropertyOp23
 70
     1
102
RTVSPropertyOp24
 70
     1
102
RTVSPropertyOp25
 70
     1
102
RTVSPropertyOp26
 70
     1
102
RTVSPropertyOp27
 70
     1
102
RTVSPropertyOp28
 70
     1
102
RTVSPropertyOp29
 70
     1
102
RTVSPropertyOp30
 70
     1
102
RTVSPropertyOp31
 70
     1
102
RTVSPropertyOp32
 70
     1
102
RTVSPropertyOp33
 70
     1
102
RTVSPropertyOp34
 70
     1
102
RTVSPropertyOp35
 70
     1
102
RTVSPropertyOp36
 70
     1
102
RTVSPropertyOp37
 70
     1
102
RTVSPropertyOp38
 70
     1
102
RTVSPropertyOp39
 70
     1
102
RTVSPropertyOp40
 70
     1
102
RTVSPropertyOp41
 70
     1
102
RTVSPropertyOp42
 70
     1
102
RTVSPropertyOp43
 70
     1
102
RTVSPropertyOp44
 70
     1
102
RTVSPropertyOp45
 70
     1
102
RTVSPropertyOp46
 70
     1
102
RTVSPropertyOp47
 70
     1
102
RTVSPropertyOp48
 70
     1
102
RTVSPropertyOp49
 70
     1
102
RTVSPropertyOp50
 70
     1
102
RTVSPropertyOp51
 70
     0
102
RTVSPropertyOp52
 70
     0
102
RTVSPropertyOp53
 70
     1
102
RTVSPropertyOp54
 70
     1
102
RTVSPropertyOp55
 70
     1
102
RTVSPropertyOp56
 70
     1
102
RTVSPropertyOp57
 70
     1
102
RTVSPropertyOp58
 70
     1
102
RTVSPropertyOp59
 70
     1
102
RTVSPropertyOp60
 70
     1
102
RTVSPropertyOp61
 70
     1
102
RTVSPropertyOp62
 70
     1
  0
XRECORD
  5
8505
102
{ACAD_REACTORS
330
8504
102
}
330
8504
100
AcDbXrecord
280
     1
102
RTVSPost2010Prop28
280
     0
102
RTVSPost2010PropOp28
 70
     1
102
RTVSPost2010Prop29
280
     1
102
RTVSPost2010PropOp29
 70
     1
102
RTVSPost2010Prop30
280
     1
102
RTVSPost2010PropOp30
 70
     1
102
RTVSPost2010Prop31
280
     0
102
RTVSPost2010PropOp31
 70
     1
102
RTVSPost2010Prop32
280
     0
102
RTVSPost2010PropOp32
 70
     1
102
RTVSPost2010Prop33
280
     0
102
RTVSPost2010PropOp33
 70
     1
102
RTVSPost2010Prop34
280
     0
102
RTVSPost2010PropOp34
 70
     1
102
RTVSPost2010Prop35
280
     0
102
RTVSPost2010PropOp35
 70
     1
102
RTVSPost2010Prop36
280
     0
102
RTVSPost2010PropOp36
 70
     1
102
RTVSPost2010Prop37
 90
       50
102
RTVSPost2010PropOp37
 70
     1
102
RTVSPost2010Prop38
140
0.0
102
RTVSPost2010PropOp38
 70
     1
102
RTVSPost2010Prop39
140
1.0
102
RTVSPost2010PropOp39
 70
     1
102
RTVSPost2010Prop40
 90
        0
102
RTVSPost2010PropOp40
 70
     1
102
RTVSPost2010Prop41ColorIndex
 90
       18
102
RTVSPost2010Prop41ColorRGB
 90
        0
102
RTVSPost2010PropOp41
 70
     1
102
RTVSPost2010Prop42
 90
       50
102
RTVSPost2010PropOp42
 70
     1
102
RTVSPost2010Prop43
 90
        3
102
RTVSPost2010PropOp43
 70
     1
102
RTVSPost2010Prop44ColorIndex
 90
        5
102
RTVSPost2010Prop44ColorRGB
 90
      255
102
RTVSPost2010PropOp44
 70
     1
102
RTVSPost2010Prop45
280
     0
102
RTVSPost2010PropOp45
 70
     1
102
RTVSPost2010Prop46
 90
       50
102
RTVSPost2010PropOp46
 70
     1
102
RTVSPost2010Prop47
 90
       50
102
RTVSPost2010PropOp47
 70
     1
102
RTVSPost2010Prop48
 90
       50
102
RTVSPost2010PropOp48
 70
     1
102
RTVSPost2010Prop49
280
     0
102
RTVSPost2010PropOp49
 70
     1
102
RTVSPost2010Prop50
 90
       50
102
RTVSPost2010PropOp50
 70
     1
102
RTVSPost2010Prop51ColorIndex
 90
      256
102
RTVSPost2010Prop51ColorRGB
 90
-16777216
102
RTVSPost2010PropOp51
 70
     0
102
RTVSPost2010Prop52
140
1.0
102
RTVSPost2010PropOp52
 70
     0
102
RTVSPost2010Prop53
 90
        2
102
RTVSPost2010PropOp53
 70
     1
102
RTVSPost2010Prop54
  1
strokes_ogs.tif
102
RTVSPost2010PropOp54
 70
     1
102
RTVSPost2010Prop55
280
     0
102
RTVSPost2010PropOp55
 70
     1
102
RTVSPost2010Prop56
140
1.0
102
RTVSPost2010PropOp56
 70
     1
102
RTVSPost2010Prop57
140
1.0
102
RTVSPost2010PropOp57
 70
     1
102
RTVSPropertyOp0
 70
     1
102
RTVSPropertyOp1
 70
     1
102
RTVSPropertyOp2
 70
     1
102
RTVSPropertyOp3
 70
     1
102
RTVSPropertyOp4
 70
     1
102
RTVSPropertyOp5
 70
     1
102
RTVSPropertyOp6
 70
     1
102
RTVSPropertyOp7
 70
     1
102
RTVSPropertyOp8
 70
     1
102
RTVSPropertyOp9
 70
     1
102
RTVSPropertyOp10
 70
     1
102
RTVSPropertyOp11
 70
     1
102
RTVSPropertyOp12
 70
     1
102
RTVSPropertyOp13
 70
     1
102
RTVSPropertyOp14
 70
     1
102
RTVSPropertyOp15
 70
     1
102
RTVSPropertyOp16
 70
     1
102
RTVSPropertyOp17
 70
     1
102
RTVSPropertyOp18
 70
     1
102
RTVSPropertyOp19
 70
     1
102
RTVSPropertyOp20
 70
     1
102
RTVSPropertyOp21
 70
     1
102
RTVSPropertyOp22
 70
     1
102
RTVSPropertyOp23
 70
     1
102
RTVSPropertyOp24
 70
     1
102
RTVSPropertyOp25
 70
     1
102
RTVSPropertyOp26
 70
     1
102
RTVSPropertyOp27
 70
     1
102
RTVSPropertyOp28
 70
     1
102
RTVSPropertyOp29
 70
     1
102
RTVSPropertyOp30
 70
     1
102
RTVSPropertyOp31
 70
     1
102
RTVSPropertyOp32
 70
     1
102
RTVSPropertyOp33
 70
     1
102
RTVSPropertyOp34
 70
     1
102
RTVSPropertyOp35
 70
     1
102
RTVSPropertyOp36
 70
     1
102
RTVSPropertyOp37
 70
     1
102
RTVSPropertyOp38
 70
     1
102
RTVSPropertyOp39
 70
     1
102
RTVSPropertyOp40
 70
     1
102
RTVSPropertyOp41
 70
     1
102
RTVSPropertyOp42
 70
     1
102
RTVSPropertyOp43
 70
     1
102
RTVSPropertyOp44
 70
     1
102
RTVSPropertyOp45
 70
     1
102
RTVSPropertyOp46
 70
     1
102
RTVSPropertyOp47
 70
     1
102
RTVSPropertyOp48
 70
     1
102
RTVSPropertyOp49
 70
     1
102
RTVSPropertyOp50
 70
     1
102
RTVSPropertyOp51
 70
     0
102
RTVSPropertyOp52
 70
     0
102
RTVSPropertyOp53
 70
     1
102
RTVSPropertyOp54
 70
     1
102
RTVSPropertyOp55
 70
     1
102
RTVSPropertyOp56
 70
     1
102
RTVSPropertyOp57
 70
     1
102
RTVSPropertyOp58
 70
     1
102
RTVSPropertyOp59
 70
     1
102
RTVSPropertyOp60
 70
     1
102
RTVSPropertyOp61
 70
     1
102
RTVSPropertyOp62
 70
     1
  0
XRECORD
  5
84F9
102
{ACAD_REACTORS
330
84F8
102
}
330
84F8
100
AcDbXrecord
280
     1
102
RTVSPost2010Prop28
280
     0
102
RTVSPost2010PropOp28
 70
     1
102
RTVSPost2010Prop29
280
     1
102
RTVSPost2010PropOp29
 70
     1
102
RTVSPost2010Prop30
280
     1
102
RTVSPost2010PropOp30
 70
     1
102
RTVSPost2010Prop31
280
     0
102
RTVSPost2010PropOp31
 70
     1
102
RTVSPost2010Prop32
280
     0
102
RTVSPost2010PropOp32
 70
     1
102
RTVSPost2010Prop33
280
     0
102
RTVSPost2010PropOp33
 70
     1
102
RTVSPost2010Prop34
280
     0
102
RTVSPost2010PropOp34
 70
     1
102
RTVSPost2010Prop35
280
     0
102
RTVSPost2010PropOp35
 70
     1
102
RTVSPost2010Prop36
280
     0
102
RTVSPost2010PropOp36
 70
     1
102
RTVSPost2010Prop37
 90
       50
102
RTVSPost2010PropOp37
 70
     1
102
RTVSPost2010Prop38
140
0.0
102
RTVSPost2010PropOp38
 70
     1
102
RTVSPost2010Prop39
140
1.0
102
RTVSPost2010PropOp39
 70
     1
102
RTVSPost2010Prop40
 90
        0
102
RTVSPost2010PropOp40
 70
     1
102
RTVSPost2010Prop41ColorIndex
 90
       18
102
RTVSPost2010Prop41ColorRGB
 90
        0
102
RTVSPost2010PropOp41
 70
     1
102
RTVSPost2010Prop42
 90
       50
102
RTVSPost2010PropOp42
 70
     1
102
RTVSPost2010Prop43
 90
        3
102
RTVSPost2010PropOp43
 70
     1
102
RTVSPost2010Prop44ColorIndex
 90
        5
102
RTVSPost2010Prop44ColorRGB
 90
      255
102
RTVSPost2010PropOp44
 70
     1
102
RTVSPost2010Prop45
280
     0
102
RTVSPost2010PropOp45
 70
     1
102
RTVSPost2010Prop46
 90
       50
102
RTVSPost2010PropOp46
 70
     1
102
RTVSPost2010Prop47
 90
       50
102
RTVSPost2010PropOp47
 70
     1
102
RTVSPost2010Prop48
 90
       50
102
RTVSPost2010PropOp48
 70
     1
102
RTVSPost2010Prop49
280
     0
102
RTVSPost2010PropOp49
 70
     1
102
RTVSPost2010Prop50
 90
       50
102
RTVSPost2010PropOp50
 70
     1
102
RTVSPost2010Prop51ColorIndex
 90
      256
102
RTVSPost2010Prop51ColorRGB
 90
-16777216
102
RTVSPost2010PropOp51
 70
     0
102
RTVSPost2010Prop52
140
1.0
102
RTVSPost2010PropOp52
 70
     0
102
RTVSPost2010Prop53
 90
        2
102
RTVSPost2010PropOp53
 70
     1
102
RTVSPost2010Prop54
  1
strokes_ogs.tif
102
RTVSPost2010PropOp54
 70
     1
102
RTVSPost2010Prop55
280
     0
102
RTVSPost2010PropOp55
 70
     1
102
RTVSPost2010Prop56
140
1.0
102
RTVSPost2010PropOp56
 70
     1
102
RTVSPost2010Prop57
140
1.0
102
RTVSPost2010PropOp57
 70
     1
102
RTVSPropertyOp0
 70
     1
102
RTVSPropertyOp1
 70
     1
102
RTVSPropertyOp2
 70
     1
102
RTVSPropertyOp3
 70
     1
102
RTVSPropertyOp4
 70
     1
102
RTVSPropertyOp5
 70
     1
102
RTVSPropertyOp6
 70
     1
102
RTVSPropertyOp7
 70
     1
102
RTVSPropertyOp8
 70
     1
102
RTVSPropertyOp9
 70
     1
102
RTVSPropertyOp10
 70
     1
102
RTVSPropertyOp11
 70
     1
102
RTVSPropertyOp12
 70
     1
102
RTVSPropertyOp13
 70
     1
102
RTVSPropertyOp14
 70
     1
102
RTVSPropertyOp15
 70
     1
102
RTVSPropertyOp16
 70
     1
102
RTVSPropertyOp17
 70
     1
102
RTVSPropertyOp18
 70
     1
102
RTVSPropertyOp19
 70
     1
102
RTVSPropertyOp20
 70
     1
102
RTVSPropertyOp21
 70
     1
102
RTVSPropertyOp22
 70
     1
102
RTVSPropertyOp23
 70
     1
102
RTVSPropertyOp24
 70
     1
102
RTVSPropertyOp25
 70
     1
102
RTVSPropertyOp26
 70
     1
102
RTVSPropertyOp27
 70
     1
102
RTVSPropertyOp28
 70
     1
102
RTVSPropertyOp29
 70
     1
102
RTVSPropertyOp30
 70
     1
102
RTVSPropertyOp31
 70
     1
102
RTVSPropertyOp32
 70
     1
102
RTVSPropertyOp33
 70
     1
102
RTVSPropertyOp34
 70
     1
102
RTVSPropertyOp35
 70
     1
102
RTVSPropertyOp36
 70
     1
102
RTVSPropertyOp37
 70
     1
102
RTVSPropertyOp38
 70
     1
102
RTVSPropertyOp39
 70
     1
102
RTVSPropertyOp40
 70
     1
102
RTVSPropertyOp41
 70
     1
102
RTVSPropertyOp42
 70
     1
102
RTVSPropertyOp43
 70
     1
102
RTVSPropertyOp44
 70
     1
102
RTVSPropertyOp45
 70
     1
102
RTVSPropertyOp46
 70
     1
102
RTVSPropertyOp47
 70
     1
102
RTVSPropertyOp48
 70
     1
102
RTVSPropertyOp49
 70
     1
102
RTVSPropertyOp50
 70
     1
102
RTVSPropertyOp51
 70
     0
102
RTVSPropertyOp52
 70
     0
102
RTVSPropertyOp53
 70
     1
102
RTVSPropertyOp54
 70
     1
102
RTVSPropertyOp55
 70
     1
102
RTVSPropertyOp56
 70
     1
102
RTVSPropertyOp57
 70
     1
102
RTVSPropertyOp58
 70
     1
102
RTVSPropertyOp59
 70
     1
102
RTVSPropertyOp60
 70
     1
102
RTVSPropertyOp61
 70
     1
102
RTVSPropertyOp62
 70
     1
  0
XRECORD
  5
8511
102
{ACAD_REACTORS
330
8510
102
}
330
8510
100
AcDbXrecord
280
     1
102
RTVSPost2010Prop28
280
     0
102
RTVSPost2010PropOp28
 70
     1
102
RTVSPost2010Prop29
280
     1
102
RTVSPost2010PropOp29
 70
     1
102
RTVSPost2010Prop30
280
     1
102
RTVSPost2010PropOp30
 70
     1
102
RTVSPost2010Prop31
280
     0
102
RTVSPost2010PropOp31
 70
     1
102
RTVSPost2010Prop32
280
     0
102
RTVSPost2010PropOp32
 70
     1
102
RTVSPost2010Prop33
280
     0
102
RTVSPost2010PropOp33
 70
     1
102
RTVSPost2010Prop34
280
     0
102
RTVSPost2010PropOp34
 70
     1
102
RTVSPost2010Prop35
280
     0
102
RTVSPost2010PropOp35
 70
     1
102
RTVSPost2010Prop36
280
     0
102
RTVSPost2010PropOp36
 70
     1
102
RTVSPost2010Prop37
 90
       50
102
RTVSPost2010PropOp37
 70
     1
102
RTVSPost2010Prop38
140
0.0
102
RTVSPost2010PropOp38
 70
     1
102
RTVSPost2010Prop39
140
1.0
102
RTVSPost2010PropOp39
 70
     1
102
RTVSPost2010Prop40
 90
        0
102
RTVSPost2010PropOp40
 70
     1
102
RTVSPost2010Prop41ColorIndex
 90
       18
102
RTVSPost2010Prop41ColorRGB
 90
        0
102
RTVSPost2010PropOp41
 70
     1
102
RTVSPost2010Prop42
 90
       50
102
RTVSPost2010PropOp42
 70
     1
102
RTVSPost2010Prop43
 90
        3
102
RTVSPost2010PropOp43
 70
     1
102
RTVSPost2010Prop44ColorIndex
 90
        5
102
RTVSPost2010Prop44ColorRGB
 90
      255
102
RTVSPost2010PropOp44
 70
     1
102
RTVSPost2010Prop45
280
     0
102
RTVSPost2010PropOp45
 70
     1
102
RTVSPost2010Prop46
 90
       50
102
RTVSPost2010PropOp46
 70
     1
102
RTVSPost2010Prop47
 90
       50
102
RTVSPost2010PropOp47
 70
     1
102
RTVSPost2010Prop48
 90
       50
102
RTVSPost2010PropOp48
 70
     1
102
RTVSPost2010Prop49
280
     0
102
RTVSPost2010PropOp49
 70
     1
102
RTVSPost2010Prop50
 90
       50
102
RTVSPost2010PropOp50
 70
     1
102
RTVSPost2010Prop51ColorIndex
 90
      256
102
RTVSPost2010Prop51ColorRGB
 90
-16777216
102
RTVSPost2010PropOp51
 70
     0
102
RTVSPost2010Prop52
140
1.0
102
RTVSPost2010PropOp52
 70
     0
102
RTVSPost2010Prop53
 90
        2
102
RTVSPost2010PropOp53
 70
     1
102
RTVSPost2010Prop54
  1
strokes_ogs.tif
102
RTVSPost2010PropOp54
 70
     1
102
RTVSPost2010Prop55
280
     0
102
RTVSPost2010PropOp55
 70
     1
102
RTVSPost2010Prop56
140
1.0
102
RTVSPost2010PropOp56
 70
     1
102
RTVSPost2010Prop57
140
1.0
102
RTVSPost2010PropOp57
 70
     1
102
RTVSPropertyOp0
 70
     1
102
RTVSPropertyOp1
 70
     1
102
RTVSPropertyOp2
 70
     1
102
RTVSPropertyOp3
 70
     1
102
RTVSPropertyOp4
 70
     1
102
RTVSPropertyOp5
 70
     1
102
RTVSPropertyOp6
 70
     1
102
RTVSPropertyOp7
 70
     1
102
RTVSPropertyOp8
 70
     1
102
RTVSPropertyOp9
 70
     1
102
RTVSPropertyOp10
 70
     1
102
RTVSPropertyOp11
 70
     1
102
RTVSPropertyOp12
 70
     1
102
RTVSPropertyOp13
 70
     1
102
RTVSPropertyOp14
 70
     1
102
RTVSPropertyOp15
 70
     1
102
RTVSPropertyOp16
 70
     1
102
RTVSPropertyOp17
 70
     1
102
RTVSPropertyOp18
 70
     1
102
RTVSPropertyOp19
 70
     1
102
RTVSPropertyOp20
 70
     1
102
RTVSPropertyOp21
 70
     1
102
RTVSPropertyOp22
 70
     1
102
RTVSPropertyOp23
 70
     1
102
RTVSPropertyOp24
 70
     1
102
RTVSPropertyOp25
 70
     1
102
RTVSPropertyOp26
 70
     1
102
RTVSPropertyOp27
 70
     1
102
RTVSPropertyOp28
 70
     1
102
RTVSPropertyOp29
 70
     1
102
RTVSPropertyOp30
 70
     1
102
RTVSPropertyOp31
 70
     1
102
RTVSPropertyOp32
 70
     1
102
RTVSPropertyOp33
 70
     1
102
RTVSPropertyOp34
 70
     1
102
RTVSPropertyOp35
 70
     1
102
RTVSPropertyOp36
 70
     1
102
RTVSPropertyOp37
 70
     1
102
RTVSPropertyOp38
 70
     1
102
RTVSPropertyOp39
 70
     1
102
RTVSPropertyOp40
 70
     1
102
RTVSPropertyOp41
 70
     1
102
RTVSPropertyOp42
 70
     1
102
RTVSPropertyOp43
 70
     1
102
RTVSPropertyOp44
 70
     1
102
RTVSPropertyOp45
 70
     1
102
RTVSPropertyOp46
 70
     1
102
RTVSPropertyOp47
 70
     1
102
RTVSPropertyOp48
 70
     1
102
RTVSPropertyOp49
 70
     1
102
RTVSPropertyOp50
 70
     1
102
RTVSPropertyOp51
 70
     0
102
RTVSPropertyOp52
 70
     0
102
RTVSPropertyOp53
 70
     1
102
RTVSPropertyOp54
 70
     1
102
RTVSPropertyOp55
 70
     1
102
RTVSPropertyOp56
 70
     1
102
RTVSPropertyOp57
 70
     1
102
RTVSPropertyOp58
 70
     1
102
RTVSPropertyOp59
 70
     1
102
RTVSPropertyOp60
 70
     1
102
RTVSPropertyOp61
 70
     1
102
RTVSPropertyOp62
 70
     1
  0
ENDSEC
  0
EOF
