  0
SECTION
  2
HEADER
  9
$ACADVER
  1
AC1015
  9
$ACADMAINTVER
 70
    20
  9
$DWGCODEPAGE
  3
ANSI_932
  9
$INSBASE
 10
0.0
 20
0.0
 30
0.0
  9
$EXTMIN
 10
-0.1922460740788665
 20
-0.2700599612071528
 30
-0.0015258207003583
  9
$EXTMAX
 10
6300.192275410744
 20
8850.270101172235
 30
0.0000000349246037
  9
$LIMMIN
 10
0.0
 20
0.0
  9
$LIMMAX
 10
297.0
 20
210.0
  9
$ORTHOMODE
 70
     1
  9
$REGENMODE
 70
     1
  9
$FILLMODE
 70
     0
  9
$QTEXTMODE
 70
     0
  9
$MIRRTEXT
 70
     1
  9
$LTSCALE
 40
100.0
  9
$ATTMODE
 70
     1
  9
$TEXTSIZE
 40
180.0
  9
$TRACEWID
 40
0.05
  9
$TEXTSTYLE
  7
STANDARD
  9
$CLAYER
  8
3
  9
$CELTYPE
  6
ByLayer
  9
$CECOLOR
 62
   256
  9
$CELTSCALE
 40
1.0
  9
$DISPSILH
 70
     0
  9
$DIMSCALE
 40
30.0
  9
$DIMASZ
 40
2.0
  9
$DIMEXO
 40
1.0
  9
$DIMDLI
 40
10.0
  9
$DIMRND
 40
0.0
  9
$DIMDLE
 40
0.0
  9
$DIMEXE
 40
1.0
  9
$DIMTP
 40
1.0
  9
$DIMTM
 40
1.0
  9
$DIMTXT
 40
3.0
  9
$DIMCEN
 40
0.0
  9
$DIMTSZ
 40
0.0
  9
$DIMTOL
 70
     0
  9
$DIMLIM
 70
     0
  9
$DIMTIH
 70
     0
  9
$DIMTOH
 70
     0
  9
$DIMSE1
 70
     0
  9
$DIMSE2
 70
     0
  9
$DIMTAD
 70
     1
  9
$DIMZIN
 70
     8
  9
$DIMBLK
  1

  9
$DIMASO
 70
     1
  9
$DIMSHO
 70
     1
  9
$DIMPOST
  1

  9
$DIMAPOST
  1

  9
$DIMALT
 70
     0
  9
$DIMALTD
 70
     2
  9
$DIMALTF
 40
0.039
  9
$DIMLFAC
 40
1.0
  9
$DIMTOFL
 70
     1
  9
$DIMTVP
 40
0.0
  9
$DIMTIX
 70
     0
  9
$DIMSOXD
 70
     0
  9
$DIMSAH
 70
     1
  9
$DIMBLK1
  1
OPEN
  9
$DIMBLK2
  1
OPEN
  9
$DIMSTYLE
  2
IGA
  9
$DIMCLRD
 70
     0
  9
$DIMCLRE
 70
     0
  9
$DIMCLRT
 70
     0
  9
$DIMTFAC
 40
10.0
  9
$DIMGAP
 40
1.0
  9
$DIMJUST
 70
     0
  9
$DIMSD1
 70
     0
  9
$DIMSD2
 70
     0
  9
$DIMTOLJ
 70
     1
  9
$DIMTZIN
 70
     0
  9
$DIMALTZ
 70
     0
  9
$DIMALTTZ
 70
     0
  9
$DIMUPT
 70
     0
  9
$DIMDEC
 70
     4
  9
$DIMTDEC
 70
     4
  9
$DIMALTU
 70
     2
  9
$DIMALTTD
 70
     2
  9
$DIMTXSTY
  7
STANDARD
  9
$DIMAUNIT
 70
     0
  9
$DIMADEC
 70
     0
  9
$DIMALTRND
 40
0.0
  9
$DIMAZIN
 70
     0
  9
$DIMDSEP
 70
    46
  9
$DIMATFIT
 70
     3
  9
$DIMFRAC
 70
     0
  9
$DIMLDRBLK
  1
OPEN
  9
$DIMLUNIT
 70
     2
  9
$DIMLWD
 70
    -2
  9
$DIMLWE
 70
    -2
  9
$DIMTMOVE
 70
     0
  9
$LUNITS
 70
     2
  9
$LUPREC
 70
     3
  9
$SKETCHINC
 40
0.1
  9
$FILLETRAD
 40
50.0
  9
$AUNITS
 70
     0
  9
$AUPREC
 70
     0
  9
$MENU
  1
acad
  9
$ELEVATION
 40
0.0
  9
$PELEVATION
 40
0.0
  9
$THICKNESS
 40
0.0
  9
$LIMCHECK
 70
     0
  9
$CHAMFERA
 40
0.5
  9
$CHAMFERB
 40
0.5
  9
$CHAMFERC
 40
0.0
  9
$CHAMFERD
 40
0.0
  9
$SKPOLY
 70
     0
  9
$TDCREATE
 40
2451389.557585880
  9
$TDUCREATE
 40
2451389.182585880
  9
$TDUPDATE
 40
2460271.759369607
  9
$TDUUPDATE
 40
2460271.384369607
  9
$TDINDWG
 40
0.0185886227
  9
$TDUSRTIMER
 40
0.0185883912
  9
$USRTIMER
 70
     1
  9
$ANGBASE
 50
0.0
  9
$ANGDIR
 70
     0
  9
$PDMODE
 70
     0
  9
$PDSIZE
 40
0.0
  9
$PLINEWID
 40
0.0
  9
$SPLFRAME
 70
     0
  9
$SPLINETYPE
 70
     6
  9
$SPLINESEGS
 70
     8
  9
$HANDSEED
  5
855C
  9
$SURFTAB1
 70
     6
  9
$SURFTAB2
 70
     6
  9
$SURFTYPE
 70
     6
  9
$SURFU
 70
     6
  9
$SURFV
 70
     6
  9
$UCSBASE
  2

  9
$UCSNAME
  2

  9
$UCSORG
 10
0.0
 20
0.0
 30
0.0
  9
$UCSXDIR
 10
1.0
 20
0.0
 30
0.0
  9
$UCSYDIR
 10
0.0
 20
1.0
 30
0.0
  9
$UCSORTHOREF
  2

  9
$UCSORTHOVIEW
 70
     0
  9
$UCSORGTOP
 10
0.0
 20
0.0
 30
0.0
  9
$UCSORGBOTTOM
 10
0.0
 20
0.0
 30
0.0
  9
$UCSORGLEFT
 10
0.0
 20
0.0
 30
0.0
  9
$UCSORGRIGHT
 10
0.0
 20
0.0
 30
0.0
  9
$UCSORGFRONT
 10
0.0
 20
0.0
 30
0.0
  9
$UCSORGBACK
 10
0.0
 20
0.0
 30
0.0
  9
$PUCSBASE
  2

  9
$PUCSNAME
  2

  9
$PUCSORG
 10
0.0
 20
0.0
 30
0.0
  9
$PUCSXDIR
 10
1.0
 20
0.0
 30
0.0
  9
$PUCSYDIR
 10
0.0
 20
1.0
 30
0.0
  9
$PUCSORTHOREF
  2

  9
$PUCSORTHOVIEW
 70
     0
  9
$PUCSORGTOP
 10
0.0
 20
0.0
 30
0.0
  9
$PUCSORGBOTTOM
 10
0.0
 20
0.0
 30
0.0
  9
$PUCSORGLEFT
 10
0.0
 20
0.0
 30
0.0
  9
$PUCSORGRIGHT
 10
0.0
 20
0.0
 30
0.0
  9
$PUCSORGFRONT
 10
0.0
 20
0.0
 30
0.0
  9
$PUCSORGBACK
 10
0.0
 20
0.0
 30
0.0
  9
$USERI1
 70
     0
  9
$USERI2
 70
     0
  9
$USERI3
 70
     0
  9
$USERI4
 70
     0
  9
$USERI5
 70
     0
  9
$USERR1
 40
0.0
  9
$USERR2
 40
0.0
  9
$USERR3
 40
0.0
  9
$USERR4
 40
0.0
  9
$USERR5
 40
0.0
  9
$WORLDVIEW
 70
     1
  9
$SHADEDGE
 70
     3
  9
$SHADEDIF
 70
    70
  9
$TILEMODE
 70
     1
  9
$MAXACTVP
 70
    16
  9
$PINSBASE
 10
0.0
 20
0.0
 30
0.0
  9
$PLIMCHECK
 70
     0
  9
$PEXTMIN
 10
1.000000000000000E+20
 20
1.000000000000000E+20
 30
1.000000000000000E+20
  9
$PEXTMAX
 10
-1.000000000000000E+20
 20
-1.000000000000000E+20
 30
-1.000000000000000E+20
  9
$PLIMMIN
 10
0.0
 20
0.0
  9
$PLIMMAX
 10
12.0
 20
9.0
  9
$UNITMODE
 70
     0
  9
$VISRETAIN
 70
     0
  9
$PLINEGEN
 70
     0
  9
$PSLTSCALE
 70
     1
  9
$TREEDEPTH
 70
  3020
  9
$CMLSTYLE
  2
Standard
  9
$CMLJUST
 70
     0
  9
$CMLSCALE
 40
1.0
  9
$PROXYGRAPHICS
 70
     1
  9
$MEASUREMENT
 70
     0
  9
$CELWEIGHT
370
    -1
  9
$ENDCAPS
280
     0
  9
$JOINSTYLE
280
     0
  9
$LWDISPLAY
290
     0
  9
$INSUNITS
 70
     0
  9
$HYPERLINKBASE
  1

  9
$STYLESHEET
  1

  9
$XEDIT
290
     1
  9
$CEPSNTYPE
380
     0
  9
$PSTYLEMODE
290
     1
  9
$FINGERPRINTGUID
  2
{69D47549-9949-4395-B1A9-32A5125E1756}
  9
$VERSIONGUID
  2
{0B4F716F-A20A-4D14-81A9-401545A7B8B3}
  9
$EXTNAMES
290
     1
  9
$PSVPSCALE
 40
0.0
  9
$OLESTARTUP
290
     0
  0
ENDSEC
  0
SECTION
  2
CLASSES
  0
CLASS
  1
ACDBDICTIONARYWDFLT
  2
AcDbDictionaryWithDefault
  3
ObjectDBX Classes
 90
        0
280
     0
281
     0
  0
CLASS
  1
MATERIAL
  2
AcDbMaterial
  3
ObjectDBX Classes
 90
     1153
280
     0
281
     0
  0
CLASS
  1
VISUALSTYLE
  2
AcDbVisualStyle
  3
ObjectDBX Classes
 90
     4095
280
     0
281
     0
  0
CLASS
  1
SCALE
  2
AcDbScale
  3
ObjectDBX Classes
 90
     1153
280
     0
281
     0
  0
CLASS
  1
TABLESTYLE
  2
AcDbTableStyle
  3
ObjectDBX Classes
 90
     4095
280
     0
281
     0
  0
CLASS
  1
MLEADERSTYLE
  2
AcDbMLeaderStyle
  3
ACDB_MLEADERSTYLE_CLASS
 90
     4095
280
     0
281
     0
  0
CLASS
  1
ACDBSECTIONVIEWSTYLE
  2
AcDbSectionViewStyle
  3
ObjectDBX Classes
 90
     1025
280
     0
281
     0
  0
CLASS
  1
ACDBDETAILVIEWSTYLE
  2
AcDbDetailViewStyle
  3
ObjectDBX Classes
 90
     1025
280
     0
281
     0
  0
CLASS
  1
SORTENTSTABLE
  2
AcDbSortentsTable
  3
ObjectDBX Classes
 90
        0
280
     0
281
     0
  0
CLASS
  1
DICTIONARYVAR
  2
AcDbDictionaryVar
  3
ObjectDBX Classes
 90
        0
280
     0
281
     0
  0
CLASS
  1
CELLSTYLEMAP
  2
AcDbCellStyleMap
  3
ObjectDBX Classes
 90
     1152
280
     0
281
     0
  0
CLASS
  1
ACDBPLACEHOLDER
  2
AcDbPlaceHolder
  3
ObjectDBX Classes
 90
        0
280
     0
281
     0
  0
CLASS
  1
LAYOUT
  2
AcDbLayout
  3
ObjectDBX Classes
 90
        0
280
     0
281
     0
  0
ENDSEC
  0
SECTION
  2
TABLES
  0
TABLE
  2
VPORT
  5
81AE
330
0
100
AcDbSymbolTable
 70
     1
  0
VPORT
  5
821A
330
81AE
100
AcDbSymbolTableRecord
100
AcDbViewportTableRecord
  2
*ACTIVE
 70
     0
 10
0.0
 20
0.0
 11
1.0
 21
1.0
 12
3150.000014668333
 22
4425.000020605514
 13
0.0
 23
0.0
 14
10.0
 24
10.0
 15
10.0
 25
10.0
 16
0.0
 26
0.0
 36
1.0
 17
0.0
 27
0.0
 37
0.0
 40
8907.213844128961
 41
2.050213675213675
 42
50.0
 43
0.0
 44
0.0
 50
0.0
 51
0.0
 71
     0
 72
   100
 73
     1
 74
     0
 75
     0
 76
     0
 77
     0
 78
     0
281
     0
 65
     1
110
0.0
120
0.0
130
0.0
111
1.0
121
0.0
131
0.0
112
0.0
122
1.0
132
0.0
 79
     0
146
0.0
1001
ACAD_NAV_VCDISPLAY
1070
     3
  0
ENDTAB
  0
TABLE
  2
LTYPE
  5
81AB
330
0
100
AcDbSymbolTable
 70
     3
  0
LTYPE
  5
8200
330
81AB
100
AcDbSymbolTableRecord
100
AcDbLinetypeTableRecord
  2
ByBlock
 70
     0
  3

 72
    65
 73
     0
 40
0.0
  0
LTYPE
  5
8201
330
81AB
100
AcDbSymbolTableRecord
100
AcDbLinetypeTableRecord
  2
ByLayer
 70
     0
  3

 72
    65
 73
     0
 40
0.0
  0
LTYPE
  5
8202
330
81AB
100
AcDbSymbolTableRecord
100
AcDbLinetypeTableRecord
  2
CONTINUOUS
 70
     0
  3
Solid line
 72
    65
 73
     0
 40
0.0
  0
LTYPE
  5
821B
330
81AB
100
AcDbSymbolTableRecord
100
AcDbLinetypeTableRecord
  2
CENTER
 70
     0
  3
____ _ ____ _ ____ _ ____ _ ____ _ ____ _ ____ 
 72
    65
 73
     4
 40
2.0
 49
1.25
 74
     0
 49
-0.25
 74
     0
 49
0.25
 74
     0
 49
-0.25
 74
     0
  0
ENDTAB
  0
TABLE
  2
LAYER
  5
81A8
330
0
100
AcDbSymbolTable
 70
     6
  0
LAYER
  5
81FA
102
{ACAD_XDICTIONARY
360
8506
102
}
330
81A8
100
AcDbSymbolTableRecord
100
AcDbLayerTableRecord
  2
0
 70
     0
 62
     7
  6
CONTINUOUS
370
    -3
390
81B5
  0
LAYER
  5
8219
102
{ACAD_XDICTIONARY
360
8508
102
}
330
81A8
100
AcDbSymbolTableRecord
100
AcDbLayerTableRecord
  2
3
 70
     0
 62
     2
  6
CONTINUOUS
370
    -3
390
81B5
  0
LAYER
  5
821C
102
{ACAD_XDICTIONARY
360
850A
102
}
330
81A8
100
AcDbSymbolTableRecord
100
AcDbLayerTableRecord
  2
2
 70
     0
 62
     3
  6
CENTER
370
    -3
390
81B5
  0
LAYER
  5
821D
102
{ACAD_XDICTIONARY
360
850C
102
}
330
81A8
100
AcDbSymbolTableRecord
100
AcDbLayerTableRecord
  2
1
 70
     0
 62
     4
  6
CONTINUOUS
370
    -3
390
81B5
  0
LAYER
  5
821E
102
{ACAD_XDICTIONARY
360
850E
102
}
330
81A8
100
AcDbSymbolTableRecord
100
AcDbLayerTableRecord
  2
4
 70
     0
 62
     7
  6
CONTINUOUS
370
    -3
390
81B5
  0
LAYER
  5
821F
330
81A8
100
AcDbSymbolTableRecord
100
AcDbLayerTableRecord
  2
DEFPOINTS
 70
     0
 62
     7
  6
CONTINUOUS
290
     0
370
    -3
390
81B5
  0
ENDTAB
  0
TABLE
  2
STYLE
  5
81A9
330
0
100
AcDbSymbolTable
 70
     2
  0
STYLE
  5
81FB
330
81A9
100
AcDbSymbolTableRecord
100
AcDbTextStyleTableRecord
  2
STANDARD
 70
     0
 40
0.0
 41
1.0
 50
0.0
 71
     0
 42
180.0
  3
simplex.shx
  4
extfont.shx
  0
STYLE
  5
81FF
330
81A9
100
AcDbSymbolTableRecord
100
AcDbTextStyleTableRecord
  2
Annotative
 70
     0
 40
0.0
 41
1.0
 50
0.0
 71
     0
 42
0.2
  3
txt
  4

1001
AcadAnnotative
1000
AnnotativeData
1002
{
1070
     1
1070
     1
1002
}
  0
ENDTAB
  0
TABLE
  2
VIEW
  5
81AC
330
0
100
AcDbSymbolTable
 70
     0
  0
ENDTAB
  0
TABLE
  2
UCS
  5
81AD
330
0
100
AcDbSymbolTable
 70
     0
  0
ENDTAB
  0
TABLE
  2
APPID
  5
81AF
330
0
100
AcDbSymbolTable
 70
     8
  0
APPID
  5
81FC
330
81AF
100
AcDbSymbolTableRecord
100
AcDbRegAppTableRecord
  2
ACAD
 70
     0
  0
APPID
  5
8203
330
81AF
100
AcDbSymbolTableRecord
100
AcDbRegAppTableRecord
  2
AcadAnnotative
 70
     0
  0
APPID
  5
8310
330
81AF
100
AcDbSymbolTableRecord
100
AcDbRegAppTableRecord
  2
ACAD_DSTYLE_DIMJAG
 70
     0
  0
APPID
  5
8311
330
81AF
100
AcDbSymbolTableRecord
100
AcDbRegAppTableRecord
  2
ACAD_DSTYLE_DIMTALN
 70
     0
  0
APPID
  5
83A5
330
81AF
100
AcDbSymbolTableRecord
100
AcDbRegAppTableRecord
  2
AcadAnnoMonitorAlertIconDisabled
 70
     0
  0
APPID
  5
83A6
330
81AF
100
AcDbSymbolTableRecord
100
AcDbRegAppTableRecord
  2
ACAD_EXEMPT_FROM_CAD_STANDARDS
 70
     0
  0
APPID
  5
851A
330
81AF
100
AcDbSymbolTableRecord
100
AcDbRegAppTableRecord
  2
ACAD_NAV_VCDISPLAY
 70
     0
  0
APPID
  5
8553
330
81AF
100
AcDbSymbolTableRecord
100
AcDbRegAppTableRecord
  2
ACAD_MLEADERVER
 70
     0
  0
ENDTAB
  0
TABLE
  2
DIMSTYLE
  5
81B0
330
0
100
AcDbSymbolTable
 70
     4
100
AcDbDimStyleTable
 71
     1
340
8220
  0
DIMSTYLE
105
81FD
102
{ACAD_REACTORS
330
7C77
330
7C78
330
7CBA
330
7CBC
330
7CBD
330
7CC1
330
7CC2
330
7CF8
330
7D00
330
7D05
102
}
330
81B0
100
AcDbSymbolTableRecord
100
AcDbDimStyleTableRecord
  2
Standard
 70
     0
340
81FB
  0
DIMSTYLE
105
81FE
330
81B0
100
AcDbSymbolTableRecord
100
AcDbDimStyleTableRecord
  2
Annotative
 70
     0
340
81FB
1001
AcadAnnotative
1000
AnnotativeData
1002
{
1070
     1
1070
     1
1002
}
  0
DIMSTYLE
105
8220
102
{ACAD_REACTORS
330
82E3
330
82F0
330
8312
330
831F
330
832C
330
8339
330
834F
330
835C
330
8369
330
8376
330
8388
330
84E7
102
}
330
81B0
100
AcDbSymbolTableRecord
100
AcDbDimStyleTableRecord
  2
IGA
 70
     0
 40
2.0
 41
2.0
 42
0.5
 43
10.0
 44
1.0
 47
1.0
 48
1.0
 73
     0
 74
     0
 77
     1
 78
     8
140
3.0
141
0.0
143
0.03937
146
10.0
147
1.0
173
     1
271
     3
272
     3
279
     2
284
     8
285
     8
286
     8
340
81FB
  0
DIMSTYLE
105
8221
330
81B0
100
AcDbSymbolTableRecord
100
AcDbDimStyleTableRecord
  2
MATSU
 70
     0
 41
2.0
 42
1.0
 43
10.0
 44
1.0
 73
     0
 74
     0
 77
     1
 78
     8
140
3.0
141
0.0
143
0.03937
147
0.5
172
     1
173
     1
176
   256
177
   256
178
   256
271
     3
272
     3
279
     2
284
     8
285
     8
286
     8
340
81FB
  0
ENDTAB
  0
TABLE
  2
BLOCK_RECORD
  5
81A7
330
0
100
AcDbSymbolTable
 70
    52
  0
BLOCK_RECORD
  5
8215
102
{ACAD_XDICTIONARY
360
8261
102
}
330
81A7
100
AcDbSymbolTableRecord
100
AcDbBlockTableRecord
  2
*Model_Space
340
8218
  0
BLOCK_RECORD
  5
8211
330
81A7
100
AcDbSymbolTableRecord
100
AcDbBlockTableRecord
  2
*Paper_Space
340
8214
  0
BLOCK_RECORD
  5
8225
330
81A7
100
AcDbSymbolTableRecord
100
AcDbBlockTableRecord
  2
$MODEL_SPACE
340
0
  0
BLOCK_RECORD
  5
8227
330
81A7
100
AcDbSymbolTableRecord
100
AcDbBlockTableRecord
  2
$PAPER_SPACE
340
0
  0
BLOCK_RECORD
  5
8229
330
81A7
100
AcDbSymbolTableRecord
100
AcDbBlockTableRecord
  2
_OPEN
340
0
102
{BLKREFS
331
807A
331
807B
331
8087
331
8088
331
8108
331
8109
331
8300
331
8301
331
8309
331
830A
331
8319
331
831A
331
8326
331
8327
331
8333
331
8334
331
7E2F
331
7E30
331
7E3A
331
7E3B
331
7E87
331
7E88
331
7E92
331
7E93
331
7E9D
331
7E9E
331
7EA8
331
7EA9
331
8045
331
8046
331
803A
331
803B
331
7EC9
331
7ECA
331
7ED4
331
7ED5
331
7EDF
331
7EE0
331
8183
331
8184
331
818B
331
818C
331
7EF4
331
7EF5
331
8197
331
7F2D
331
7F2E
331
8060
331
8061
331
806D
331
806E
331
8349
331
834A
331
8356
331
8357
331
8363
331
8364
331
84AF
331
84B0
331
84D5
331
84E2
331
8500
331
8501
102
}
  0
BLOCK_RECORD
  5
822B
330
81A7
100
AcDbSymbolTableRecord
100
AcDbBlockTableRecord
  2
YA_N
340
0
102
{BLKREFS
331
7C24
331
7C3A
331
7C75
331
7C95
331
7CCA
331
7CCC
331
7CCE
331
7CD0
102
}
  0
BLOCK_RECORD
  5
822D
330
81A7
100
AcDbSymbolTableRecord
100
AcDbBlockTableRecord
  2
*D4
340
0
  0
BLOCK_RECORD
  5
822F
330
81A7
100
AcDbSymbolTableRecord
100
AcDbBlockTableRecord
  2
*D5
340
0
  0
BLOCK_RECORD
  5
8231
330
81A7
100
AcDbSymbolTableRecord
100
AcDbBlockTableRecord
  2
*D6
340
0
  0
BLOCK_RECORD
  5
8233
330
81A7
100
AcDbSymbolTableRecord
100
AcDbBlockTableRecord
  2
*D7
340
0
  0
BLOCK_RECORD
  5
8235
330
81A7
100
AcDbSymbolTableRecord
100
AcDbBlockTableRecord
  2
*D8
340
0
  0
BLOCK_RECORD
  5
8237
330
81A7
100
AcDbSymbolTableRecord
100
AcDbBlockTableRecord
  2
*D9
340
0
  0
BLOCK_RECORD
  5
8239
330
81A7
100
AcDbSymbolTableRecord
100
AcDbBlockTableRecord
  2
*D10
340
0
  0
BLOCK_RECORD
  5
823B
330
81A7
100
AcDbSymbolTableRecord
100
AcDbBlockTableRecord
  2
*U11
340
0
102
{BLKREFS
331
8047
102
}
  0
BLOCK_RECORD
  5
823C
330
81A7
100
AcDbSymbolTableRecord
100
AcDbBlockTableRecord
  2
*D12
340
0
  0
BLOCK_RECORD
  5
823E
330
81A7
100
AcDbSymbolTableRecord
100
AcDbBlockTableRecord
  2
*D13
340
0
  0
BLOCK_RECORD
  5
8240
330
81A7
100
AcDbSymbolTableRecord
100
AcDbBlockTableRecord
  2
*D14
340
0
  0
BLOCK_RECORD
  5
8242
330
81A7
100
AcDbSymbolTableRecord
100
AcDbBlockTableRecord
  2
*D15
340
0
  0
BLOCK_RECORD
  5
8244
330
81A7
100
AcDbSymbolTableRecord
100
AcDbBlockTableRecord
  2
*D16
340
0
  0
BLOCK_RECORD
  5
8246
330
81A7
100
AcDbSymbolTableRecord
100
AcDbBlockTableRecord
  2
*D17
340
0
  0
BLOCK_RECORD
  5
8248
330
81A7
100
AcDbSymbolTableRecord
100
AcDbBlockTableRecord
  2
*D18
340
0
  0
BLOCK_RECORD
  5
824A
330
81A7
100
AcDbSymbolTableRecord
100
AcDbBlockTableRecord
  2
*D19
340
0
  0
BLOCK_RECORD
  5
824C
330
81A7
100
AcDbSymbolTableRecord
100
AcDbBlockTableRecord
  2
_DOT
340
0
102
{BLKREFS
331
8196
102
}
  0
BLOCK_RECORD
  5
824D
330
81A7
100
AcDbSymbolTableRecord
100
AcDbBlockTableRecord
  2
*D21
340
0
  0
BLOCK_RECORD
  5
8250
330
81A7
100
AcDbSymbolTableRecord
100
AcDbBlockTableRecord
  2
*D22
340
0
  0
BLOCK_RECORD
  5
8252
330
81A7
100
AcDbSymbolTableRecord
100
AcDbBlockTableRecord
  2
*D23
340
0
  0
BLOCK_RECORD
  5
8254
330
81A7
100
AcDbSymbolTableRecord
100
AcDbBlockTableRecord
  2
*D24
340
0
  0
BLOCK_RECORD
  5
8256
330
81A7
100
AcDbSymbolTableRecord
100
AcDbBlockTableRecord
  2
*D25
340
0
  0
BLOCK_RECORD
  5
8258
330
81A7
100
AcDbSymbolTableRecord
100
AcDbBlockTableRecord
  2
_NONE
340
0
  0
BLOCK_RECORD
  5
825A
330
81A7
100
AcDbSymbolTableRecord
100
AcDbBlockTableRecord
  2
*D27
340
0
  0
BLOCK_RECORD
  5
825C
330
81A7
100
AcDbSymbolTableRecord
100
AcDbBlockTableRecord
  2
*D28
340
0
  0
BLOCK_RECORD
  5
8263
330
81A7
100
AcDbSymbolTableRecord
100
AcDbBlockTableRecord
  2
*D29
340
0
  0
BLOCK_RECORD
  5
8270
330
81A7
100
AcDbSymbolTableRecord
100
AcDbBlockTableRecord
  2
*D30
340
0
  0
BLOCK_RECORD
  5
827D
330
81A7
100
AcDbSymbolTableRecord
100
AcDbBlockTableRecord
  2
*D31
340
0
  0
BLOCK_RECORD
  5
8288
330
81A7
100
AcDbSymbolTableRecord
100
AcDbBlockTableRecord
  2
*D32
340
0
  0
BLOCK_RECORD
  5
8295
330
81A7
100
AcDbSymbolTableRecord
100
AcDbBlockTableRecord
  2
*D33
340
0
  0
BLOCK_RECORD
  5
82A2
330
81A7
100
AcDbSymbolTableRecord
100
AcDbBlockTableRecord
  2
*D34
340
0
  0
BLOCK_RECORD
  5
82AF
330
81A7
100
AcDbSymbolTableRecord
100
AcDbBlockTableRecord
  2
*D35
340
0
  0
BLOCK_RECORD
  5
82BC
330
81A7
100
AcDbSymbolTableRecord
100
AcDbBlockTableRecord
  2
*D36
340
0
  0
BLOCK_RECORD
  5
82C9
330
81A7
100
AcDbSymbolTableRecord
100
AcDbBlockTableRecord
  2
*D37
340
0
  0
BLOCK_RECORD
  5
82D6
330
81A7
100
AcDbSymbolTableRecord
100
AcDbBlockTableRecord
  2
*D38
340
0
  0
BLOCK_RECORD
  5
82E4
330
81A7
100
AcDbSymbolTableRecord
100
AcDbBlockTableRecord
  2
*D39
340
0
  0
BLOCK_RECORD
  5
82F1
330
81A7
100
AcDbSymbolTableRecord
100
AcDbBlockTableRecord
  2
*D40
340
0
  0
BLOCK_RECORD
  5
8313
330
81A7
100
AcDbSymbolTableRecord
100
AcDbBlockTableRecord
  2
*D41
340
0
  0
BLOCK_RECORD
  5
8320
330
81A7
100
AcDbSymbolTableRecord
100
AcDbBlockTableRecord
  2
*D42
340
0
  0
BLOCK_RECORD
  5
832D
330
81A7
100
AcDbSymbolTableRecord
100
AcDbBlockTableRecord
  2
*D43
340
0
  0
BLOCK_RECORD
  5
833A
330
81A7
100
AcDbSymbolTableRecord
100
AcDbBlockTableRecord
  2
*D44
340
0
  0
BLOCK_RECORD
  5
8350
330
81A7
100
AcDbSymbolTableRecord
100
AcDbBlockTableRecord
  2
*D45
340
0
  0
BLOCK_RECORD
  5
835D
330
81A7
100
AcDbSymbolTableRecord
100
AcDbBlockTableRecord
  2
*D46
340
0
  0
BLOCK_RECORD
  5
836A
330
81A7
100
AcDbSymbolTableRecord
100
AcDbBlockTableRecord
  2
*D47
340
0
  0
BLOCK_RECORD
  5
8377
330
81A7
100
AcDbSymbolTableRecord
100
AcDbBlockTableRecord
  2
*D48
340
0
  0
BLOCK_RECORD
  5
8389
330
81A7
100
AcDbSymbolTableRecord
100
AcDbBlockTableRecord
  2
*D49
340
0
  0
BLOCK_RECORD
  5
8441
330
81A7
100
AcDbSymbolTableRecord
100
AcDbBlockTableRecord
  2
_DotSmall
340
0
102
{BLKREFS
331
84D4
331
84E3
102
}
  0
BLOCK_RECORD
  5
84E8
330
81A7
100
AcDbSymbolTableRecord
100
AcDbBlockTableRecord
  2
*D51
340
0
  0
ENDTAB
  0
ENDSEC
  0
SECTION
  2
BLOCKS
  0
BLOCK
  5
8216
330
8215
100
AcDbEntity
  8
0
100
AcDbBlockBegin
  2
*Model_Space
 70
     0
 10
0.0
 20
0.0
 30
0.0
  3
*Model_Space
  1

  0
ENDBLK
  5
8217
330
8215
100
AcDbEntity
  8
0
100
AcDbBlockEnd
  0
BLOCK
  5
8212
330
8211
100
AcDbEntity
 67
     1
  8
0
100
AcDbBlockBegin
  2
*Paper_Space
 70
     0
 10
0.0
 20
0.0
 30
0.0
  3
*Paper_Space
  1

  0
ENDBLK
  5
8213
330
8211
100
AcDbEntity
 67
     1
  8
0
100
AcDbBlockEnd
  0
BLOCK
  5
8226
330
8225
100
AcDbEntity
  8
0
100
AcDbBlockBegin
  2
$MODEL_SPACE
 70
     0
 10
0.0
 20
0.0
 30
0.0
  3
$MODEL_SPACE
  1

  0
ENDBLK
  5
1B
330
8225
100
AcDbEntity
  8
0
100
AcDbBlockEnd
  0
BLOCK
  5
8228
330
8227
100
AcDbEntity
  8
0
100
AcDbBlockBegin
  2
$PAPER_SPACE
 70
     0
 10
0.0
 20
0.0
 30
0.0
  3
$PAPER_SPACE
  1

  0
ENDBLK
  5
18
330
8227
100
AcDbEntity
  8
0
100
AcDbBlockEnd
  0
BLOCK
  5
822A
330
8229
100
AcDbEntity
  8
0
100
AcDbBlockBegin
  2
_OPEN
 70
     0
 10
0.0
 20
0.0
 30
0.0
  3
_OPEN
  1

  0
LINE
  5
79FD
330
8229
100
AcDbEntity
  8
0
  6
ByBlock
 62
     0
100
AcDbLine
 10
-1.0
 20
0.1666666666666666
 30
0.0
 11
0.0
 21
0.0
 31
0.0
  0
LINE
  5
79FE
330
8229
100
AcDbEntity
  8
0
  6
ByBlock
 62
     0
100
AcDbLine
 10
0.0
 20
0.0
 30
0.0
 11
-1.0
 21
-0.1666666666666666
 31
0.0
  0
LINE
  5
79FF
330
8229
100
AcDbEntity
  8
0
  6
ByBlock
 62
     0
100
AcDbLine
 10
0.0
 20
0.0
 30
0.0
 11
-1.0
 21
0.0
 31
0.0
  0
ENDBLK
  5
7A01
330
8229
100
AcDbEntity
  8
0
100
AcDbBlockEnd
  0
BLOCK
  5
822C
330
822B
100
AcDbEntity
  8
0
100
AcDbBlockBegin
  2
YA_N
 70
     0
 10
0.0
 20
0.0
 30
0.0
  3
YA_N
  1

  0
ENDBLK
  5
7A04
330
822B
100
AcDbEntity
  8
0
100
AcDbBlockEnd
  0
BLOCK
  5
822E
330
822D
100
AcDbEntity
  8
0
100
AcDbBlockBegin
  2
*D4
 70
     1
 10
0.0
 20
0.0
 30
0.0
  3
*D4
  1

  0
LINE
  5
7E2C
330
822D
100
AcDbEntity
  8
0
  6
ByBlock
100
AcDbLine
 10
413.6251149768384
 20
1338.060302835747
 30
0.0
 11
413.6251149768384
 21
1539.22039982989
 31
0.0
  0
LINE
  5
7E2D
330
822D
100
AcDbEntity
  8
0
  6
ByBlock
100
AcDbLine
 10
1443.625114976837
 20
1338.060302835747
 30
0.0
 11
1443.625114976837
 21
1539.22039982989
 31
0.0
  0
LINE
  5
7E2E
330
822D
100
AcDbEntity
  8
0
  6
ByBlock
100
AcDbLine
 10
473.6251149768385
 20
1509.22039982989
 30
0.0
 11
1383.625114976837
 21
1509.22039982989
 31
0.0
  0
INSERT
  5
7E2F
330
822D
100
AcDbEntity
  8
0
  6
ByBlock
100
AcDbBlockReference
  2
_OPEN
 10
413.6251149768384
 20
1509.22039982989
 30
0.0
 41
60.0
 42
60.0
 43
60.0
 50
180.0
  0
INSERT
  5
7E30
330
822D
100
AcDbEntity
  8
0
  6
ByBlock
100
AcDbBlockReference
  2
_OPEN
 10
1443.625114976837
 20
1509.22039982989
 30
0.0
 41
60.0
 42
60.0
 43
60.0
  0
TEXT
  5
7E31
330
822D
100
AcDbEntity
  8
3
100
AcDbText
 10
778.625114976838
 20
1524.22039982989
 30
0.0
 40
90.0
  1
1030
100
AcDbText
  0
POINT
  5
7E32
330
822D
100
AcDbEntity
  8
DEFPOINTS
  6
ByBlock
 62
     0
100
AcDbPoint
 10
413.6251149768384
 20
1308.060302835747
 30
0.0
  0
POINT
  5
7E33
330
822D
100
AcDbEntity
  8
DEFPOINTS
  6
ByBlock
 62
     0
100
AcDbPoint
 10
1443.625114976837
 20
1308.060302835747
 30
0.0
  0
POINT
  5
7E34
330
822D
100
AcDbEntity
  8
DEFPOINTS
  6
ByBlock
 62
     0
100
AcDbPoint
 10
1443.625114976837
 20
1509.22039982989
 30
0.0
  0
ENDBLK
  5
7E35
330
822D
100
AcDbEntity
  8
0
100
AcDbBlockEnd
  0
BLOCK
  5
8230
330
822F
100
AcDbEntity
  8
0
100
AcDbBlockBegin
  2
*D5
 70
     1
 10
0.0
 20
0.0
 30
0.0
  3
*D5
  1

  0
LINE
  5
7E37
330
822F
100
AcDbEntity
  8
0
  6
ByBlock
100
AcDbLine
 10
413.6251149768384
 20
1338.060302835747
 30
0.0
 11
413.6251149768384
 21
1740.022445289042
 31
0.0
  0
LINE
  5
7E38
330
822F
100
AcDbEntity
  8
0
  6
ByBlock
100
AcDbLine
 10
1487.625114976838
 20
1397.676285333375
 30
0.0
 11
1487.625114976838
 21
1740.022445289042
 31
0.0
  0
LINE
  5
7E39
330
822F
100
AcDbEntity
  8
0
  6
ByBlock
100
AcDbLine
 10
473.6251149768385
 20
1710.022445289044
 30
0.0
 11
1427.625114976838
 21
1710.022445289044
 31
0.0
  0
INSERT
  5
7E3A
330
822F
100
AcDbEntity
  8
0
  6
ByBlock
100
AcDbBlockReference
  2
_OPEN
 10
413.6251149768384
 20
1710.022445289044
 30
0.0
 41
60.0
 42
60.0
 43
60.0
 50
180.0
  0
INSERT
  5
7E3B
330
822F
100
AcDbEntity
  8
0
  6
ByBlock
100
AcDbBlockReference
  2
_OPEN
 10
1487.625114976838
 20
1710.022445289044
 30
0.0
 41
60.0
 42
60.0
 43
60.0
  0
TEXT
  5
7E3C
330
822F
100
AcDbEntity
  8
3
100
AcDbText
 10
798.4822578339811
 20
1725.022445289043
 30
0.0
 40
90.0
  1
1074
100
AcDbText
  0
POINT
  5
7E3D
330
822F
100
AcDbEntity
  8
DEFPOINTS
  6
ByBlock
 62
     0
100
AcDbPoint
 10
413.6251149768384
 20
1308.060302835747
 30
0.0
  0
POINT
  5
7E3E
330
822F
100
AcDbEntity
  8
DEFPOINTS
  6
ByBlock
 62
     0
100
AcDbPoint
 10
1487.625114976838
 20
1367.676285333375
 30
0.0
  0
POINT
  5
7E3F
330
822F
100
AcDbEntity
  8
DEFPOINTS
  6
ByBlock
 62
     0
100
AcDbPoint
 10
1487.625114976838
 20
1710.022445289044
 30
0.0
  0
ENDBLK
  5
7E40
330
822F
100
AcDbEntity
  8
0
100
AcDbBlockEnd
  0
BLOCK
  5
8232
330
8231
100
AcDbEntity
  8
0
100
AcDbBlockBegin
  2
*D6
 70
     1
 10
0.0
 20
0.0
 30
0.0
  3
*D6
  1

  0
LINE
  5
7E84
330
8231
100
AcDbEntity
  8
0
  6
ByBlock
100
AcDbLine
 10
862.6251149768394
 20
4406.031599361241
 30
0.0
 11
862.6251149768394
 21
4627.335536588958
 31
0.0
  0
LINE
  5
7E85
330
8231
100
AcDbEntity
  8
0
  6
ByBlock
100
AcDbLine
 10
2112.625114976839
 20
4406.031599361237
 30
0.0
 11
2112.625114976839
 21
4627.335536588958
 31
0.0
  0
LINE
  5
7E86
330
8231
100
AcDbEntity
  8
0
  6
ByBlock
100
AcDbLine
 10
922.6251149768396
 20
4597.335536588958
 30
0.0
 11
2052.625114976839
 21
4597.335536588958
 31
0.0
  0
INSERT
  5
7E87
330
8231
100
AcDbEntity
  8
0
  6
ByBlock
100
AcDbBlockReference
  2
_OPEN
 10
862.6251149768394
 20
4597.335536588958
 30
0.0
 41
60.0
 42
60.0
 43
60.0
 50
180.0
  0
INSERT
  5
7E88
330
8231
100
AcDbEntity
  8
0
  6
ByBlock
100
AcDbBlockReference
  2
_OPEN
 10
2112.625114976839
 20
4597.335536588958
 30
0.0
 41
60.0
 42
60.0
 43
60.0
  0
TEXT
  5
7E89
330
8231
100
AcDbEntity
  8
3
100
AcDbText
 10
1337.625114976839
 20
4612.335536588958
 30
0.0
 40
90.0
  1
1250
100
AcDbText
  0
POINT
  5
7E8A
330
8231
100
AcDbEntity
  8
DEFPOINTS
  6
ByBlock
 62
     0
100
AcDbPoint
 10
862.6251149768394
 20
4376.031599361239
 30
0.0
  0
POINT
  5
7E8B
330
8231
100
AcDbEntity
  8
DEFPOINTS
  6
ByBlock
 62
     0
100
AcDbPoint
 10
2112.625114976839
 20
4376.031599361239
 30
0.0
  0
POINT
  5
7E8C
330
8231
100
AcDbEntity
  8
DEFPOINTS
  6
ByBlock
 62
     0
100
AcDbPoint
 10
2112.625114976839
 20
4597.335536588958
 30
0.0
  0
ENDBLK
  5
7E8D
330
8231
100
AcDbEntity
  8
0
100
AcDbBlockEnd
  0
BLOCK
  5
8234
330
8233
100
AcDbEntity
  8
0
100
AcDbBlockBegin
  2
*D7
 70
     1
 10
0.0
 20
0.0
 30
0.0
  3
*D7
  1

  0
LINE
  5
7E8F
330
8233
100
AcDbEntity
  8
0
  6
ByBlock
100
AcDbLine
 10
62.62511497683954
 20
2841.031599361241
 30
0.0
 11
62.62511497683954
 21
2552.481475534663
 31
0.0
  0
LINE
  5
7E90
330
8233
100
AcDbEntity
  8
0
  6
ByBlock
100
AcDbLine
 10
2112.625114976839
 20
2841.031599361238
 30
0.0
 11
2112.625114976839
 21
2552.481475534663
 31
0.0
  0
LINE
  5
7E91
330
8233
100
AcDbEntity
  8
0
  6
ByBlock
100
AcDbLine
 10
122.6251149768395
 20
2582.481475534663
 30
0.0
 11
2052.625114976839
 21
2582.481475534663
 31
0.0
  0
INSERT
  5
7E92
330
8233
100
AcDbEntity
  8
0
  6
ByBlock
100
AcDbBlockReference
  2
_OPEN
 10
62.62511497683954
 20
2582.481475534663
 30
0.0
 41
60.0
 42
60.0
 43
60.0
 50
180.0
  0
INSERT
  5
7E93
330
8233
100
AcDbEntity
  8
0
  6
ByBlock
100
AcDbBlockReference
  2
_OPEN
 10
2112.625114976839
 20
2582.481475534663
 30
0.0
 41
60.0
 42
60.0
 43
60.0
  0
TEXT
  5
7E94
330
8233
100
AcDbEntity
  8
3
100
AcDbText
 10
929.0536864054109
 20
2597.481475534663
 30
0.0
 40
90.0
  1
2050
100
AcDbText
  0
POINT
  5
7E95
330
8233
100
AcDbEntity
  8
DEFPOINTS
  6
ByBlock
 62
     0
100
AcDbPoint
 10
62.62511497683954
 20
2871.03159936124
 30
0.0
  0
POINT
  5
7E96
330
8233
100
AcDbEntity
  8
DEFPOINTS
  6
ByBlock
 62
     0
100
AcDbPoint
 10
2112.625114976839
 20
2871.031599361238
 30
0.0
  0
POINT
  5
7E97
330
8233
100
AcDbEntity
  8
DEFPOINTS
  6
ByBlock
 62
     0
100
AcDbPoint
 10
2112.625114976839
 20
2582.481475534663
 30
0.0
  0
ENDBLK
  5
7E98
330
8233
100
AcDbEntity
  8
0
100
AcDbBlockEnd
  0
BLOCK
  5
8236
330
8235
100
AcDbEntity
  8
0
100
AcDbBlockBegin
  2
*D8
 70
     1
 10
0.0
 20
0.0
 30
0.0
  3
*D8
  1

  0
LINE
  5
7E9A
330
8235
100
AcDbEntity
  8
0
  6
ByBlock
100
AcDbLine
 10
32.62511497683954
 20
3721.031599361241
 30
0.0
 11
-189.4229525237715
 21
3721.031599361241
 31
0.0
  0
LINE
  5
7E9B
330
8235
100
AcDbEntity
  8
0
  6
ByBlock
100
AcDbLine
 10
32.62511497683954
 20
2871.03159936124
 30
0.0
 11
-189.4229525237715
 21
2871.03159936124
 31
0.0
  0
LINE
  5
7E9C
330
8235
100
AcDbEntity
  8
0
  6
ByBlock
100
AcDbLine
 10
-159.4229525237715
 20
3661.031599361241
 30
0.0
 11
-159.4229525237715
 21
2931.03159936124
 31
0.0
  0
INSERT
  5
7E9D
330
8235
100
AcDbEntity
  8
0
  6
ByBlock
100
AcDbBlockReference
  2
_OPEN
 10
-159.4229525237715
 20
3721.031599361241
 30
0.0
 41
60.0
 42
60.0
 43
60.0
 50
90.0
  0
INSERT
  5
7E9E
330
8235
100
AcDbEntity
  8
0
  6
ByBlock
100
AcDbBlockReference
  2
_OPEN
 10
-159.4229525237715
 20
2871.03159936124
 30
0.0
 41
60.0
 42
60.0
 43
60.0
 50
270.0
  0
TEXT
  5
7E9F
330
8235
100
AcDbEntity
  8
3
100
AcDbText
 10
-174.4229525237715
 20
3180.317313646954
 30
0.0
 40
90.0
  1
850
 50
90.0
100
AcDbText
  0
POINT
  5
7EA0
330
8235
100
AcDbEntity
  8
DEFPOINTS
  6
ByBlock
 62
     0
100
AcDbPoint
 10
62.62511497683954
 20
3721.031599361241
 30
0.0
  0
POINT
  5
7EA1
330
8235
100
AcDbEntity
  8
DEFPOINTS
  6
ByBlock
 62
     0
100
AcDbPoint
 10
62.62511497683954
 20
2871.03159936124
 30
0.0
  0
POINT
  5
7EA2
330
8235
100
AcDbEntity
  8
DEFPOINTS
  6
ByBlock
 62
     0
100
AcDbPoint
 10
-159.4229525237715
 20
2871.03159936124
 30
0.0
  0
ENDBLK
  5
7EA3
330
8235
100
AcDbEntity
  8
0
100
AcDbBlockEnd
  0
BLOCK
  5
8238
330
8237
100
AcDbEntity
  8
0
100
AcDbBlockBegin
  2
*D9
 70
     1
 10
0.0
 20
0.0
 30
0.0
  3
*D9
  1

  0
LINE
  5
7EA5
330
8237
100
AcDbEntity
  8
0
  6
ByBlock
100
AcDbLine
 10
2142.625114976839
 20
4376.031599361239
 30
0.0
 11
2541.269252985774
 21
4376.031599361239
 31
0.0
  0
LINE
  5
7EA6
330
8237
100
AcDbEntity
  8
0
  6
ByBlock
100
AcDbLine
 10
2142.625114976839
 20
2871.031599361238
 30
0.0
 11
2541.269252985774
 21
2871.031599361238
 31
0.0
  0
LINE
  5
7EA7
330
8237
100
AcDbEntity
  8
0
  6
ByBlock
100
AcDbLine
 10
2511.269252985774
 20
4316.031599361237
 30
0.0
 11
2511.269252985774
 21
2931.031599361238
 31
0.0
  0
INSERT
  5
7EA8
330
8237
100
AcDbEntity
  8
0
  6
ByBlock
100
AcDbBlockReference
  2
_OPEN
 10
2511.269252985774
 20
4376.031599361239
 30
0.0
 41
60.0
 42
60.0
 43
60.0
 50
90.0
  0
INSERT
  5
7EA9
330
8237
100
AcDbEntity
  8
0
  6
ByBlock
100
AcDbBlockReference
  2
_OPEN
 10
2511.269252985774
 20
2871.031599361238
 30
0.0
 41
60.0
 42
60.0
 43
60.0
 50
270.0
  0
TEXT
  5
7EAA
330
8237
100
AcDbEntity
  8
3
100
AcDbText
 10
2496.269252985774
 20
3473.531599361239
 30
0.0
 40
90.0
  1
1505
 50
90.0
100
AcDbText
  0
POINT
  5
7EAB
330
8237
100
AcDbEntity
  8
DEFPOINTS
  6
ByBlock
 62
     0
100
AcDbPoint
 10
2112.625114976839
 20
4376.031599361239
 30
0.0
  0
POINT
  5
7EAC
330
8237
100
AcDbEntity
  8
DEFPOINTS
  6
ByBlock
 62
     0
100
AcDbPoint
 10
2112.625114976839
 20
2871.031599361238
 30
0.0
  0
POINT
  5
7EAD
330
8237
100
AcDbEntity
  8
DEFPOINTS
  6
ByBlock
 62
     0
100
AcDbPoint
 10
2511.269252985774
 20
2871.031599361238
 30
0.0
  0
ENDBLK
  5
7EAE
330
8237
100
AcDbEntity
  8
0
100
AcDbBlockEnd
  0
BLOCK
  5
823A
330
8239
100
AcDbEntity
  8
0
100
AcDbBlockBegin
  2
*D10
 70
     1
 10
0.0
 20
0.0
 30
0.0
  3
*D10
  1

  0
LINE
  5
8042
330
8239
100
AcDbEntity
  8
0
  6
ByBlock
100
AcDbLine
 10
3858.26378413398
 20
3324.169466167079
 30
0.0
 11
3858.26378413398
 21
4177.692100635555
 31
0.0
  0
LINE
  5
8043
330
8239
100
AcDbEntity
  8
0
  6
ByBlock
100
AcDbLine
 10
4825.763784133985
 20
4093.430817459545
 30
0.0
 11
4825.763784133985
 21
4177.692100635555
 31
0.0
  0
LINE
  5
8044
330
8239
100
AcDbEntity
  8
0
  6
ByBlock
100
AcDbLine
 10
3918.26378413398
 20
4147.692100635555
 30
0.0
 11
4765.763784133985
 21
4147.692100635555
 31
0.0
  0
INSERT
  5
8045
330
8239
100
AcDbEntity
  8
0
  6
ByBlock
100
AcDbBlockReference
  2
_OPEN
 10
3858.26378413398
 20
4147.692100635555
 30
0.0
 41
60.0
 42
60.0
 43
60.0
 50
180.0
  0
INSERT
  5
8046
330
8239
100
AcDbEntity
  8
0
  6
ByBlock
100
AcDbBlockReference
  2
_OPEN
 10
4825.763784133985
 20
4147.692100635555
 30
0.0
 41
60.0
 42
60.0
 43
60.0
  0
INSERT
  5
8047
330
8239
100
AcDbEntity
  8
3
100
AcDbBlockReference
  2
*U11
 10
0.0
 20
0.0
 30
0.0
  0
POINT
  5
8048
330
8239
100
AcDbEntity
  8
DEFPOINTS
  6
ByBlock
 62
     0
100
AcDbPoint
 10
3858.26378413398
 20
3294.16946616708
 30
0.0
  0
POINT
  5
8049
330
8239
100
AcDbEntity
  8
DEFPOINTS
  6
ByBlock
 62
     0
100
AcDbPoint
 10
4825.763784133985
 20
4063.430817459545
 30
0.0
  0
POINT
  5
804A
330
8239
100
AcDbEntity
  8
DEFPOINTS
  6
ByBlock
 62
     0
100
AcDbPoint
 10
4825.763784133985
 20
4147.692100635555
 30
0.0
  0
ENDBLK
  5
804B
330
8239
100
AcDbEntity
  8
0
100
AcDbBlockEnd
  0
BLOCK
  5
825E
330
823B
100
AcDbEntity
  8
0
100
AcDbBlockBegin
  2
*U11
 70
     1
 10
0.0
 20
0.0
 30
0.0
  3
*U11
  1

  0
TEXT
  5
81A0
330
823B
100
AcDbEntity
  8
3
100
AcDbText
 10
4213.442355562554
 20
4312.692100635555
 30
0.0
 40
90.0
  1
MAX
100
AcDbText
  0
TEXT
  5
81A1
330
823B
100
AcDbEntity
  8
3
100
AcDbText
 10
4192.013784133982
 20
4162.692100635555
 30
0.0
 40
90.0
  1
1020
100
AcDbText
  0
ENDBLK
  5
81A3
330
823B
100
AcDbEntity
  8
0
100
AcDbBlockEnd
  0
BLOCK
  5
823D
330
823C
100
AcDbEntity
  8
0
100
AcDbBlockBegin
  2
*D12
 70
     1
 10
0.0
 20
0.0
 30
0.0
  3
*D12
  1

  0
LINE
  5
8037
330
823C
100
AcDbEntity
  8
0
  6
ByBlock
100
AcDbLine
 10
4825.763784133985
 20
4093.430817459545
 30
0.0
 11
4825.763784133985
 21
4177.692100635555
 31
0.0
  0
LINE
  5
8038
330
823C
100
AcDbEntity
  8
0
  6
ByBlock
100
AcDbLine
 10
5593.763784133988
 20
3008.36946616708
 30
0.0
 11
5593.763784133988
 21
4177.692100635555
 31
0.0
  0
LINE
  5
8039
330
823C
100
AcDbEntity
  8
0
  6
ByBlock
100
AcDbLine
 10
4885.763784133985
 20
4147.692100635555
 30
0.0
 11
5533.763784133988
 21
4147.692100635555
 31
0.0
  0
INSERT
  5
803A
330
823C
100
AcDbEntity
  8
0
  6
ByBlock
100
AcDbBlockReference
  2
_OPEN
 10
4825.763784133985
 20
4147.692100635555
 30
0.0
 41
60.0
 42
60.0
 43
60.0
 50
180.0
  0
INSERT
  5
803B
330
823C
100
AcDbEntity
  8
0
  6
ByBlock
100
AcDbBlockReference
  2
_OPEN
 10
5593.763784133988
 20
4147.692100635555
 30
0.0
 41
60.0
 42
60.0
 43
60.0
  0
TEXT
  5
803C
330
823C
100
AcDbEntity
  8
3
100
AcDbText
 10
5036.192355562558
 20
4201.263529206982
 30
0.0
 40
90.0
  1
(780)
100
AcDbText
  0
POINT
  5
803D
330
823C
100
AcDbEntity
  8
DEFPOINTS
  6
ByBlock
 62
     0
100
AcDbPoint
 10
4825.763784133985
 20
4063.430817459545
 30
0.0
  0
POINT
  5
803E
330
823C
100
AcDbEntity
  8
DEFPOINTS
  6
ByBlock
 62
     0
100
AcDbPoint
 10
5593.763784133988
 20
2978.369466167081
 30
0.0
  0
POINT
  5
803F
330
823C
100
AcDbEntity
  8
DEFPOINTS
  6
ByBlock
 62
     0
100
AcDbPoint
 10
5593.763784133988
 20
4147.692100635555
 30
0.0
  0
ENDBLK
  5
8040
330
823C
100
AcDbEntity
  8
0
100
AcDbBlockEnd
  0
BLOCK
  5
823F
330
823E
100
AcDbEntity
  8
0
100
AcDbBlockBegin
  2
*D13
 70
     1
 10
0.0
 20
0.0
 30
0.0
  3
*D13
  1

  0
LINE
  5
7EC6
330
823E
100
AcDbEntity
  8
0
  6
ByBlock
100
AcDbLine
 10
4259.104621073492
 20
1312.374620489382
 30
0.0
 11
4259.104621073492
 21
1592.055054257674
 31
0.0
  0
LINE
  5
7EC7
330
823E
100
AcDbEntity
  8
0
  6
ByBlock
100
AcDbLine
 10
5509.104621073492
 20
1309.096068293924
 30
0.0
 11
5509.104621073492
 21
1592.055054257674
 31
0.0
  0
LINE
  5
7EC8
330
823E
100
AcDbEntity
  8
0
  6
ByBlock
100
AcDbLine
 10
4319.104621073492
 20
1562.055054257674
 30
0.0
 11
5449.104621073495
 21
1562.055054257674
 31
0.0
  0
INSERT
  5
7EC9
330
823E
100
AcDbEntity
  8
0
  6
ByBlock
100
AcDbBlockReference
  2
_OPEN
 10
4259.104621073492
 20
1562.055054257674
 30
0.0
 41
60.0
 42
60.0
 43
60.0
 50
180.0
  0
INSERT
  5
7ECA
330
823E
100
AcDbEntity
  8
0
  6
ByBlock
100
AcDbBlockReference
  2
_OPEN
 10
5509.104621073492
 20
1562.055054257674
 30
0.0
 41
60.0
 42
60.0
 43
60.0
  0
TEXT
  5
7ECB
330
823E
100
AcDbEntity
  8
3
100
AcDbText
 10
4734.104621073493
 20
1577.055054257674
 30
0.0
 40
90.0
  1
1250
100
AcDbText
  0
POINT
  5
7ECC
330
823E
100
AcDbEntity
  8
DEFPOINTS
  6
ByBlock
 62
     0
100
AcDbPoint
 10
4259.104621073492
 20
1282.374620489382
 30
0.0
  0
POINT
  5
7ECD
330
823E
100
AcDbEntity
  8
DEFPOINTS
  6
ByBlock
 62
     0
100
AcDbPoint
 10
5509.104621073492
 20
1279.096068293924
 30
0.0
  0
POINT
  5
7ECE
330
823E
100
AcDbEntity
  8
DEFPOINTS
  6
ByBlock
 62
     0
100
AcDbPoint
 10
5509.104621073492
 20
1562.055054257674
 30
0.0
  0
ENDBLK
  5
7ECF
330
823E
100
AcDbEntity
  8
0
100
AcDbBlockEnd
  0
BLOCK
  5
8241
330
8240
100
AcDbEntity
  8
0
100
AcDbBlockBegin
  2
*D14
 70
     1
 10
0.0
 20
0.0
 30
0.0
  3
*D14
  1

  0
LINE
  5
7ED1
330
8240
100
AcDbEntity
  8
0
  6
ByBlock
100
AcDbLine
 10
5544.604621073492
 20
98.06030283574637
 30
0.0
 11
5883.472841444802
 21
98.06030283574637
 31
0.0
  0
LINE
  5
7ED2
330
8240
100
AcDbEntity
  8
0
  6
ByBlock
100
AcDbLine
 10
5544.604621073492
 20
1158.060302835746
 30
0.0
 11
5883.472841444802
 21
1158.060302835746
 31
0.0
  0
LINE
  5
7ED3
330
8240
100
AcDbEntity
  8
0
  6
ByBlock
100
AcDbLine
 10
5853.472841444804
 20
158.0603028357463
 30
0.0
 11
5853.472841444804
 21
1098.060302835746
 31
0.0
  0
INSERT
  5
7ED4
330
8240
100
AcDbEntity
  8
0
  6
ByBlock
100
AcDbBlockReference
  2
_OPEN
 10
5853.472841444804
 20
98.06030283574637
 30
0.0
 41
60.0
 42
60.0
 43
60.0
 50
270.0
  0
INSERT
  5
7ED5
330
8240
100
AcDbEntity
  8
0
  6
ByBlock
100
AcDbBlockReference
  2
_OPEN
 10
5853.472841444804
 20
1158.060302835746
 30
0.0
 41
60.0
 42
60.0
 43
60.0
 50
90.0
  0
TEXT
  5
7ED6
330
8240
100
AcDbEntity
  8
3
100
AcDbText
 10
5838.472841444802
 20
433.0603028357463
 30
0.0
 40
90.0
  1
\U+03C61060
 50
90.0
100
AcDbText
  0
POINT
  5
7ED7
330
8240
100
AcDbEntity
  8
DEFPOINTS
  6
ByBlock
 62
     0
100
AcDbPoint
 10
5514.604621073492
 20
98.06030283574637
 30
0.0
  0
POINT
  5
7ED8
330
8240
100
AcDbEntity
  8
DEFPOINTS
  6
ByBlock
 62
     0
100
AcDbPoint
 10
5514.604621073492
 20
1158.060302835746
 30
0.0
  0
POINT
  5
7ED9
330
8240
100
AcDbEntity
  8
DEFPOINTS
  6
ByBlock
 62
     0
100
AcDbPoint
 10
5853.472841444804
 20
1158.060302835746
 30
0.0
  0
ENDBLK
  5
7EDA
330
8240
100
AcDbEntity
  8
0
100
AcDbBlockEnd
  0
BLOCK
  5
8243
330
8242
100
AcDbEntity
  8
0
100
AcDbBlockBegin
  2
*D15
 70
     1
 10
0.0
 20
0.0
 30
0.0
  3
*D15
  1

  0
LINE
  5
7EDC
330
8242
100
AcDbEntity
  8
0
  6
ByBlock
100
AcDbLine
 10
862.6251149768394
 20
4406.031599361241
 30
0.0
 11
862.6251149768394
 21
4627.335536588958
 31
0.0
  0
LINE
  5
7EDD
330
8242
100
AcDbEntity
  8
0
  6
ByBlock
100
AcDbLine
 10
62.62511497683954
 20
3751.03159936124
 30
0.0
 11
62.62511497683954
 21
4627.335536588958
 31
0.0
  0
LINE
  5
7EDE
330
8242
100
AcDbEntity
  8
0
  6
ByBlock
100
AcDbLine
 10
802.6251149768395
 20
4597.335536588958
 30
0.0
 11
122.6251149768395
 21
4597.335536588958
 31
0.0
  0
INSERT
  5
7EDF
330
8242
100
AcDbEntity
  8
0
  6
ByBlock
100
AcDbBlockReference
  2
_OPEN
 10
862.6251149768394
 20
4597.335536588958
 30
0.0
 41
60.0
 42
60.0
 43
60.0
  0
INSERT
  5
7EE0
330
8242
100
AcDbEntity
  8
0
  6
ByBlock
100
AcDbBlockReference
  2
_OPEN
 10
62.62511497683954
 20
4597.335536588958
 30
0.0
 41
60.0
 42
60.0
 43
60.0
 50
180.0
  0
TEXT
  5
7EE1
330
8242
100
AcDbEntity
  8
3
100
AcDbText
 10
346.9108292625538
 20
4612.335536588958
 30
0.0
 40
90.0
  1
800
100
AcDbText
  0
POINT
  5
7EE2
330
8242
100
AcDbEntity
  8
DEFPOINTS
  6
ByBlock
 62
     0
100
AcDbPoint
 10
862.6251149768394
 20
4376.031599361239
 30
0.0
  0
POINT
  5
7EE3
330
8242
100
AcDbEntity
  8
DEFPOINTS
  6
ByBlock
 62
     0
100
AcDbPoint
 10
62.62511497683954
 20
3721.031599361241
 30
0.0
  0
POINT
  5
7EE4
330
8242
100
AcDbEntity
  8
DEFPOINTS
  6
ByBlock
 62
     0
100
AcDbPoint
 10
62.62511497683954
 20
4597.335536588958
 30
0.0
  0
ENDBLK
  5
7EE5
330
8242
100
AcDbEntity
  8
0
100
AcDbBlockEnd
  0
BLOCK
  5
8245
330
8244
100
AcDbEntity
  8
0
100
AcDbBlockBegin
  2
*D16
 70
     1
 10
0.0
 20
0.0
 30
0.0
  3
*D16
  1

  0
LINE
  5
8181
330
8244
100
AcDbEntity
  8
3
100
AcDbLine
 10
2987.691023858453
 20
2970.169466167082
 30
0.0
 11
2987.691023858453
 21
4126.131608620377
 31
0.0
  0
LINE
  5
8182
330
8244
100
AcDbEntity
  8
3
100
AcDbLine
 10
2327.691023858452
 20
4096.131608620377
 30
0.0
 11
2927.691023858452
 21
4096.131608620377
 31
0.0
  0
INSERT
  5
8183
330
8244
100
AcDbEntity
  8
3
100
AcDbBlockReference
  2
_OPEN
 10
2267.691023858451
 20
4096.131608620377
 30
0.0
 41
60.0
 42
60.0
 43
60.0
 50
180.0
  0
INSERT
  5
8184
330
8244
100
AcDbEntity
  8
3
100
AcDbBlockReference
  2
_OPEN
 10
2987.691023858453
 20
4096.131608620377
 30
0.0
 41
60.0
 42
60.0
 43
60.0
  0
TEXT
  5
81A4
330
8244
100
AcDbEntity
  8
3
100
AcDbText
 10
2447.69
 20
3996.83
 30
0.0
 40
90.0
  1
720
100
AcDbText
  0
POINT
  5
8186
330
8244
100
AcDbEntity
  8
DEFPOINTS
 62
     0
100
AcDbPoint
 10
2267.691023858451
 20
3753.785448664709
 30
0.0
  0
POINT
  5
8187
330
8244
100
AcDbEntity
  8
DEFPOINTS
 62
     0
100
AcDbPoint
 10
2987.691023858453
 20
2940.169466167081
 30
0.0
  0
POINT
  5
8188
330
8244
100
AcDbEntity
  8
DEFPOINTS
 62
     0
100
AcDbPoint
 10
2987.691023858453
 20
4096.131608620377
 30
0.0
  0
ENDBLK
  5
7EEF
330
8244
100
AcDbEntity
  8
0
100
AcDbBlockEnd
  0
BLOCK
  5
8247
330
8246
100
AcDbEntity
  8
0
100
AcDbBlockBegin
  2
*D17
 70
     1
 10
0.0
 20
0.0
 30
0.0
  3
*D17
  1

  0
LINE
  5
7EF1
330
8246
100
AcDbEntity
  8
0
  6
ByBlock
100
AcDbLine
 10
1517.625114976837
 20
1308.060302835747
 30
0.0
 11
2504.318983650129
 21
1308.060302835747
 31
0.0
  0
LINE
  5
7EF2
330
8246
100
AcDbEntity
  8
0
  6
ByBlock
100
AcDbLine
 10
2257.241097474467
 20
628.0603028357453
 30
0.0
 11
2504.318983650129
 21
628.0603028357453
 31
0.0
  0
LINE
  5
7EF3
330
8246
100
AcDbEntity
  8
0
  6
ByBlock
100
AcDbLine
 10
2474.31898365013
 20
1248.060302835747
 30
0.0
 11
2474.31898365013
 21
688.0603028357453
 31
0.0
  0
INSERT
  5
7EF4
330
8246
100
AcDbEntity
  8
0
  6
ByBlock
100
AcDbBlockReference
  2
_OPEN
 10
2474.31898365013
 20
1308.060302835747
 30
0.0
 41
60.0
 42
60.0
 43
60.0
 50
90.0
  0
INSERT
  5
7EF5
330
8246
100
AcDbEntity
  8
0
  6
ByBlock
100
AcDbBlockReference
  2
_OPEN
 10
2474.31898365013
 20
628.0603028357453
 30
0.0
 41
60.0
 42
60.0
 43
60.0
 50
270.0
  0
TEXT
  5
7EF6
330
8246
100
AcDbEntity
  8
3
100
AcDbText
 10
2459.318983650129
 20
852.3460171214606
 30
0.0
 40
90.0
  1
680
 50
90.0
100
AcDbText
  0
POINT
  5
7EF7
330
8246
100
AcDbEntity
  8
DEFPOINTS
  6
ByBlock
 62
     0
100
AcDbPoint
 10
1487.625114976837
 20
1308.060302835747
 30
0.0
  0
POINT
  5
7EF8
330
8246
100
AcDbEntity
  8
DEFPOINTS
  6
ByBlock
 62
     0
100
AcDbPoint
 10
2227.241097474466
 20
628.0603028357453
 30
0.0
  0
POINT
  5
7EF9
330
8246
100
AcDbEntity
  8
DEFPOINTS
  6
ByBlock
 62
     0
100
AcDbPoint
 10
2474.31898365013
 20
628.0603028357453
 30
0.0
  0
ENDBLK
  5
7EFA
330
8246
100
AcDbEntity
  8
0
100
AcDbBlockEnd
  0
BLOCK
  5
8249
330
8248
100
AcDbEntity
  8
0
100
AcDbBlockBegin
  2
*D18
 70
     1
 10
0.0
 20
0.0
 30
0.0
  3
*D18
  1

  0
LINE
  5
8189
330
8248
100
AcDbEntity
  8
3
100
AcDbLine
 10
2922.691023858453
 20
2118.972316392661
 30
0.0
 11
3284.384892531743
 21
2118.97231639266
 31
0.0
  0
LINE
  5
818A
330
8248
100
AcDbEntity
  8
3
100
AcDbLine
 10
3254.384892531744
 20
2954.169466167078
 30
0.0
 11
3254.384892531744
 21
2178.97231639266
 31
0.0
  0
INSERT
  5
818B
330
8248
100
AcDbEntity
  8
3
100
AcDbBlockReference
  2
_OPEN
 10
3254.384892531744
 20
3014.169466167079
 30
0.0
 41
60.0
 42
60.0
 43
60.0
 50
90.0
  0
INSERT
  5
818C
330
8248
100
AcDbEntity
  8
3
100
AcDbBlockReference
  2
_OPEN
 10
3254.384892531744
 20
2118.97231639266
 30
0.0
 41
60.0
 42
60.0
 43
60.0
 50
270.0
  0
TEXT
  5
81A5
330
8248
100
AcDbEntity
  8
3
100
AcDbText
 10
3014.38
 20
2407.27
 30
0.0
 40
90.0
  1
895
100
AcDbText
  0
POINT
  5
818E
330
8248
100
AcDbEntity
  8
DEFPOINTS
 62
     0
100
AcDbPoint
 10
3007.30700635608
 20
3014.169466167079
 30
0.0
  0
POINT
  5
818F
330
8248
100
AcDbEntity
  8
DEFPOINTS
 62
     0
100
AcDbPoint
 10
2892.691023858453
 20
2118.972316392661
 30
0.0
  0
POINT
  5
8190
330
8248
100
AcDbEntity
  8
DEFPOINTS
 62
     0
100
AcDbPoint
 10
3254.384892531744
 20
2118.97231639266
 30
0.0
  0
ENDBLK
  5
7F04
330
8248
100
AcDbEntity
  8
0
100
AcDbBlockEnd
  0
BLOCK
  5
824B
330
824A
100
AcDbEntity
  8
0
100
AcDbBlockBegin
  2
*D19
 70
     1
 10
0.0
 20
0.0
 30
0.0
  3
*D19
  1

  0
LINE
  5
8191
330
824A
100
AcDbEntity
  8
3
 62
     0
100
AcDbLine
 10
2907.691023858453
 20
2003.972316392661
 30
0.0
 11
3284.384892531743
 21
2003.972316392661
 31
0.0
  0
LINE
  5
8192
330
824A
100
AcDbEntity
  8
3
 62
     0
100
AcDbLine
 10
2907.691023858453
 20
1903.97231639266
 30
0.0
 11
3284.384892531743
 21
1903.97231639266
 31
0.0
  0
LINE
  5
8193
330
824A
100
AcDbEntity
  8
3
 62
     0
100
AcDbLine
 10
3254.384892531744
 20
2063.972316392661
 30
0.0
 11
3254.384892531744
 21
2123.972316392661
 31
0.0
  0
LINE
  5
8194
330
824A
100
AcDbEntity
  8
3
 62
     0
100
AcDbLine
 10
3254.384892531744
 20
1843.972316392661
 30
0.0
 11
3254.384892531744
 21
1509.686602106946
 31
0.0
  0
LINE
  5
8195
330
824A
100
AcDbEntity
  8
3
 62
     0
100
AcDbLine
 10
3254.384892531744
 20
2003.972316392661
 30
0.0
 11
3254.384892531744
 21
1903.97231639266
 31
0.0
  0
INSERT
  5
8196
330
824A
100
AcDbEntity
  8
3
 62
     0
100
AcDbBlockReference
  2
_DOT
 10
3254.384892531744
 20
2003.972316392661
 30
0.0
 41
60.0
 42
60.0
 43
60.0
 50
270.0
  0
INSERT
  5
8197
330
824A
100
AcDbEntity
  8
3
 62
     0
100
AcDbBlockReference
  2
_OPEN
 10
3254.384892531744
 20
1903.97231639266
 30
0.0
 41
60.0
 42
60.0
 43
60.0
 50
90.0
  0
TEXT
  5
81A6
330
824A
100
AcDbEntity
  8
3
 62
     0
100
AcDbText
 10
2999.38
 20
1487.53
 30
0.0
 40
90.0
  1
100
100
AcDbText
  0
POINT
  5
8199
330
824A
100
AcDbEntity
  8
DEFPOINTS
 62
     0
100
AcDbPoint
 10
2892.691023858453
 20
2003.972316392661
 30
0.0
  0
POINT
  5
819A
330
824A
100
AcDbEntity
  8
DEFPOINTS
 62
     0
100
AcDbPoint
 10
2892.691023858453
 20
1903.97231639266
 30
0.0
  0
POINT
  5
819B
330
824A
100
AcDbEntity
  8
DEFPOINTS
 62
     0
100
AcDbPoint
 10
3254.384892531744
 20
1903.97231639266
 30
0.0
  0
ENDBLK
  5
7FE4
330
824A
100
AcDbEntity
  8
0
100
AcDbBlockEnd
  0
BLOCK
  5
824F
330
824C
100
AcDbEntity
  8
0
100
AcDbBlockBegin
  2
_DOT
 70
     0
 10
0.0
 20
0.0
 30
0.0
  3
_DOT
  1

  0
LWPOLYLINE
  5
7FE7
330
824C
100
AcDbEntity
  8
0
  6
ByBlock
 62
     0
100
AcDbPolyline
 90
        2
 70
     1
 43
0.25
 10
-0.125
 20
0.0
 42
1.0
 10
0.125
 20
0.0
 42
1.0
  0
LINE
  5
7FEB
330
824C
100
AcDbEntity
  8
0
  6
ByBlock
 62
     0
100
AcDbLine
 10
-0.25
 20
0.0
 30
0.0
 11
-1.0
 21
0.0
 31
0.0
  0
ENDBLK
  5
7FCA
330
824C
100
AcDbEntity
  8
0
100
AcDbBlockEnd
  0
BLOCK
  5
824E
330
824D
100
AcDbEntity
  8
0
100
AcDbBlockBegin
  2
*D21
 70
     1
 10
0.0
 20
0.0
 30
0.0
  3
*D21
  1

  0
LINE
  5
7F2A
330
824D
100
AcDbEntity
  8
0
  6
ByBlock
100
AcDbLine
 10
2207.625114976838
 20
584.0603028357476
 30
0.0
 11
2207.625114976838
 21
1915.071285267736
 31
0.0
  0
LINE
  5
7F2B
330
824D
100
AcDbEntity
  8
0
  6
ByBlock
100
AcDbLine
 10
62.62511497683954
 20
-137.1368469386742
 30
0.0
 11
62.62511497683954
 21
1915.071285267736
 31
0.0
  0
LINE
  5
7F2C
330
824D
100
AcDbEntity
  8
0
  6
ByBlock
100
AcDbLine
 10
2147.625114976838
 20
1885.071285267737
 30
0.0
 11
122.6251149768395
 21
1885.071285267737
 31
0.0
  0
INSERT
  5
7F2D
330
824D
100
AcDbEntity
  8
0
  6
ByBlock
100
AcDbBlockReference
  2
_OPEN
 10
2207.625114976838
 20
1885.071285267737
 30
0.0
 41
60.0
 42
60.0
 43
60.0
  0
INSERT
  5
7F2E
330
824D
100
AcDbEntity
  8
0
  6
ByBlock
100
AcDbBlockReference
  2
_OPEN
 10
62.62511497683954
 20
1885.071285267737
 30
0.0
 41
60.0
 42
60.0
 43
60.0
 50
180.0
  0
TEXT
  5
7F2F
330
824D
100
AcDbEntity
  8
3
100
AcDbText
 10
985.1251149768392
 20
1900.071285267737
 30
0.0
 40
90.0
  1
2145
100
AcDbText
  0
POINT
  5
7F30
330
824D
100
AcDbEntity
  8
DEFPOINTS
  6
ByBlock
 62
     0
100
AcDbPoint
 10
2207.625114976838
 20
554.0603028357477
 30
0.0
  0
POINT
  5
7F31
330
824D
100
AcDbEntity
  8
DEFPOINTS
  6
ByBlock
 62
     0
100
AcDbPoint
 10
62.62511497683954
 20
-167.1368469386742
 30
0.0
  0
POINT
  5
7F32
330
824D
100
AcDbEntity
  8
DEFPOINTS
  6
ByBlock
 62
     0
100
AcDbPoint
 10
62.62511497683954
 20
1885.071285267737
 30
0.0
  0
ENDBLK
  5
7F33
330
824D
100
AcDbEntity
  8
0
100
AcDbBlockEnd
  0
BLOCK
  5
8251
330
8250
100
AcDbEntity
  8
0
100
AcDbBlockBegin
  2
*D22
 70
     1
 10
0.0
 20
0.0
 30
0.0
  3
*D22
  1

  0
LINE
  5
805D
330
8250
100
AcDbEntity
  8
0
  6
ByBlock
 62
     0
100
AcDbLine
 10
842.6910238584531
 20
1961.972316392661
 30
0.0
 11
842.6910238584531
 21
1759.426305100245
 31
0.0
  0
LINE
  5
805E
330
8250
100
AcDbEntity
  8
0
  6
ByBlock
 62
     0
100
AcDbLine
 10
2267.691023858451
 20
1961.972316392661
 30
0.0
 11
2267.691023858451
 21
1759.426305100245
 31
0.0
  0
LINE
  5
805F
330
8250
100
AcDbEntity
  8
0
  6
ByBlock
 62
     0
100
AcDbLine
 10
902.691023858453
 20
1789.426305100245
 30
0.0
 11
2207.691023858451
 21
1789.426305100245
 31
0.0
  0
INSERT
  5
8060
330
8250
100
AcDbEntity
  8
0
  6
ByBlock
 62
     0
100
AcDbBlockReference
  2
_OPEN
 10
842.6910238584531
 20
1789.426305100245
 30
0.0
 41
60.0
 42
60.0
 43
60.0
 50
180.0
  0
INSERT
  5
8061
330
8250
100
AcDbEntity
  8
0
  6
ByBlock
 62
     0
100
AcDbBlockReference
  2
_OPEN
 10
2267.691023858451
 20
1789.426305100245
 30
0.0
 41
60.0
 42
60.0
 43
60.0
  0
TEXT
  5
8062
330
8250
100
AcDbEntity
  8
3
 62
     0
100
AcDbText
 10
1405.191023858452
 20
1819.426305100245
 30
0.0
 40
90.0
  1
1425
100
AcDbText
  0
POINT
  5
8063
330
8250
100
AcDbEntity
  8
DEFPOINTS
  6
ByBlock
 62
     0
100
AcDbPoint
 10
842.6910238584531
 20
1991.972316392661
 30
0.0
  0
POINT
  5
8064
330
8250
100
AcDbEntity
  8
DEFPOINTS
  6
ByBlock
 62
     0
100
AcDbPoint
 10
2267.691023858451
 20
1991.972316392661
 30
0.0
  0
POINT
  5
8065
330
8250
100
AcDbEntity
  8
DEFPOINTS
  6
ByBlock
 62
     0
100
AcDbPoint
 10
2267.691023858451
 20
1789.426305100245
 30
0.0
  0
ENDBLK
  5
8066
330
8250
100
AcDbEntity
  8
0
100
AcDbBlockEnd
  0
BLOCK
  5
8253
330
8252
100
AcDbEntity
  8
0
100
AcDbBlockBegin
  2
*D23
 70
     1
 10
0.0
 20
0.0
 30
0.0
  3
*D23
  1

  0
LINE
  5
806A
330
8252
100
AcDbEntity
  8
0
  6
ByBlock
 62
     0
100
AcDbLine
 10
2267.691023858451
 20
1961.972316392661
 30
0.0
 11
2267.691023858451
 21
1759.426305100245
 31
0.0
  0
LINE
  5
806B
330
8252
100
AcDbEntity
  8
0
  6
ByBlock
 62
     0
100
AcDbLine
 10
2892.691023858453
 20
1961.972316392661
 30
0.0
 11
2892.691023858453
 21
1759.426305100245
 31
0.0
  0
LINE
  5
806C
330
8252
100
AcDbEntity
  8
0
  6
ByBlock
 62
     0
100
AcDbLine
 10
2327.691023858451
 20
1789.426305100245
 30
0.0
 11
2832.691023858453
 21
1789.426305100245
 31
0.0
  0
INSERT
  5
806D
330
8252
100
AcDbEntity
  8
0
  6
ByBlock
 62
     0
100
AcDbBlockReference
  2
_OPEN
 10
2267.691023858451
 20
1789.426305100245
 30
0.0
 41
60.0
 42
60.0
 43
60.0
 50
180.0
  0
INSERT
  5
806E
330
8252
100
AcDbEntity
  8
0
  6
ByBlock
 62
     0
100
AcDbBlockReference
  2
_OPEN
 10
2892.691023858453
 20
1789.426305100245
 30
0.0
 41
60.0
 42
60.0
 43
60.0
  0
TEXT
  5
806F
330
8252
100
AcDbEntity
  8
3
 62
     0
100
AcDbText
 10
2464.476738144167
 20
1819.426305100245
 30
0.0
 40
90.0
  1
625
100
AcDbText
  0
POINT
  5
8070
330
8252
100
AcDbEntity
  8
DEFPOINTS
  6
ByBlock
 62
     0
100
AcDbPoint
 10
2267.691023858451
 20
1991.972316392661
 30
0.0
  0
POINT
  5
8071
330
8252
100
AcDbEntity
  8
DEFPOINTS
  6
ByBlock
 62
     0
100
AcDbPoint
 10
2892.691023858453
 20
1991.972316392661
 30
0.0
  0
POINT
  5
8072
330
8252
100
AcDbEntity
  8
DEFPOINTS
  6
ByBlock
 62
     0
100
AcDbPoint
 10
2892.691023858453
 20
1789.426305100245
 30
0.0
  0
ENDBLK
  5
8073
330
8252
100
AcDbEntity
  8
0
100
AcDbBlockEnd
  0
BLOCK
  5
8255
330
8254
100
AcDbEntity
  8
0
100
AcDbBlockBegin
  2
*D24
 70
     1
 10
0.0
 20
0.0
 30
0.0
  3
*D24
  1

  0
LINE
  5
8077
330
8254
100
AcDbEntity
  8
0
  6
ByBlock
 62
     0
100
AcDbLine
 10
3876.47352743828
 20
1962.169466167079
 30
0.0
 11
3876.47352743828
 21
1759.426305100245
 31
0.0
  0
LINE
  5
8078
330
8254
100
AcDbEntity
  8
0
  6
ByBlock
 62
     0
100
AcDbLine
 10
4703.473527438279
 20
1962.169466167079
 30
0.0
 11
4703.473527438279
 21
1759.426305100245
 31
0.0
  0
LINE
  5
8079
330
8254
100
AcDbEntity
  8
0
  6
ByBlock
 62
     0
100
AcDbLine
 10
3936.47352743828
 20
1789.426305100245
 30
0.0
 11
4643.473527438279
 21
1789.426305100245
 31
0.0
  0
INSERT
  5
807A
330
8254
100
AcDbEntity
  8
0
  6
ByBlock
 62
     0
100
AcDbBlockReference
  2
_OPEN
 10
3876.47352743828
 20
1789.426305100245
 30
0.0
 41
60.0
 42
60.0
 43
60.0
 50
180.0
  0
INSERT
  5
807B
330
8254
100
AcDbEntity
  8
0
  6
ByBlock
 62
     0
100
AcDbBlockReference
  2
_OPEN
 10
4703.473527438279
 20
1789.426305100245
 30
0.0
 41
60.0
 42
60.0
 43
60.0
  0
TEXT
  5
807C
330
8254
100
AcDbEntity
  8
3
 62
     0
100
AcDbText
 10
4174.259241723993
 20
1819.426305100245
 30
0.0
 40
90.0
  1
827
100
AcDbText
  0
POINT
  5
807D
330
8254
100
AcDbEntity
  8
DEFPOINTS
  6
ByBlock
 62
     0
100
AcDbPoint
 10
3876.47352743828
 20
1992.169466167078
 30
0.0
  0
POINT
  5
807E
330
8254
100
AcDbEntity
  8
DEFPOINTS
  6
ByBlock
 62
     0
100
AcDbPoint
 10
4703.473527438279
 20
1992.169466167078
 30
0.0
  0
POINT
  5
807F
330
8254
100
AcDbEntity
  8
DEFPOINTS
  6
ByBlock
 62
     0
100
AcDbPoint
 10
4703.473527438279
 20
1789.426305100245
 30
0.0
  0
ENDBLK
  5
8080
330
8254
100
AcDbEntity
  8
0
100
AcDbBlockEnd
  0
BLOCK
  5
8257
330
8256
100
AcDbEntity
  8
0
100
AcDbBlockBegin
  2
*D25
 70
     1
 10
0.0
 20
0.0
 30
0.0
  3
*D25
  1

  0
LINE
  5
8084
330
8256
100
AcDbEntity
  8
0
  6
ByBlock
 62
     0
100
AcDbLine
 10
4703.473527438279
 20
1962.169466167079
 30
0.0
 11
4703.473527438279
 21
1759.426305100245
 31
0.0
  0
LINE
  5
8085
330
8256
100
AcDbEntity
  8
0
  6
ByBlock
 62
     0
100
AcDbLine
 10
5381.473527438281
 20
1962.169466167079
 30
0.0
 11
5381.473527438281
 21
1759.426305100245
 31
0.0
  0
LINE
  5
8086
330
8256
100
AcDbEntity
  8
0
  6
ByBlock
 62
     0
100
AcDbLine
 10
4763.473527438279
 20
1789.426305100245
 30
0.0
 11
5321.47352743828
 21
1789.426305100245
 31
0.0
  0
INSERT
  5
8087
330
8256
100
AcDbEntity
  8
0
  6
ByBlock
 62
     0
100
AcDbBlockReference
  2
_OPEN
 10
4703.473527438279
 20
1789.426305100245
 30
0.0
 41
60.0
 42
60.0
 43
60.0
 50
180.0
  0
INSERT
  5
8088
330
8256
100
AcDbEntity
  8
0
  6
ByBlock
 62
     0
100
AcDbBlockReference
  2
_OPEN
 10
5381.473527438281
 20
1789.426305100245
 30
0.0
 41
60.0
 42
60.0
 43
60.0
  0
TEXT
  5
8089
330
8256
100
AcDbEntity
  8
3
 62
     0
100
AcDbText
 10
4926.759241723994
 20
1819.426305100245
 30
0.0
 40
90.0
  1
678
100
AcDbText
  0
POINT
  5
808A
330
8256
100
AcDbEntity
  8
DEFPOINTS
  6
ByBlock
 62
     0
100
AcDbPoint
 10
4703.473527438279
 20
1992.169466167078
 30
0.0
  0
POINT
  5
808B
330
8256
100
AcDbEntity
  8
DEFPOINTS
  6
ByBlock
 62
     0
100
AcDbPoint
 10
5381.473527438281
 20
1992.169466167078
 30
0.0
  0
POINT
  5
808C
330
8256
100
AcDbEntity
  8
DEFPOINTS
  6
ByBlock
 62
     0
100
AcDbPoint
 10
5381.473527438281
 20
1789.426305100245
 30
0.0
  0
ENDBLK
  5
808D
330
8256
100
AcDbEntity
  8
0
100
AcDbBlockEnd
  0
BLOCK
  5
8259
330
8258
100
AcDbEntity
  8
0
100
AcDbBlockBegin
  2
_NONE
 70
     0
 10
0.0
 20
0.0
 30
0.0
  3
_NONE
  1

  0
CIRCLE
  5
8091
330
8258
100
AcDbEntity
  8
0
  6
ByBlock
 62
     0
100
AcDbCircle
 10
0.0
 20
0.0
 30
0.0
 40
0.25
  0
ENDBLK
  5
8092
330
8258
100
AcDbEntity
  8
0
100
AcDbBlockEnd
  0
BLOCK
  5
825B
330
825A
100
AcDbEntity
  8
0
100
AcDbBlockBegin
  2
*D27
 70
     1
 10
0.0
 20
0.0
 30
0.0
  3
*D27
  1

  0
LINE
  5
80FC
330
825A
100
AcDbEntity
  8
0
  6
ByBlock
 62
     0
100
AcDbLine
 10
3252.059195748221
 20
2003.972316392661
 30
0.0
 11
3252.059195748221
 21
2118.972316392661
 31
0.0
  0
TEXT
  5
80FD
330
825A
100
AcDbEntity
  8
3
 62
     0
100
AcDbText
 10
3425.630624319651
 20
1905.043744964089
 30
0.0
 40
90.0
  1
(115)
 50
90.0
100
AcDbText
  0
POINT
  5
80FE
330
825A
100
AcDbEntity
  8
DEFPOINTS
  6
ByBlock
 62
     0
100
AcDbPoint
 10
2892.691023858453
 20
2003.972316392661
 30
0.0
  0
POINT
  5
80FF
330
825A
100
AcDbEntity
  8
DEFPOINTS
  6
ByBlock
 62
     0
100
AcDbPoint
 10
2892.691023858453
 20
2118.972316392661
 30
0.0
  0
POINT
  5
8100
330
825A
100
AcDbEntity
  8
DEFPOINTS
  6
ByBlock
 62
     0
100
AcDbPoint
 10
3252.059195748221
 20
2118.972316392661
 30
0.0
  0
ENDBLK
  5
8101
330
825A
100
AcDbEntity
  8
0
100
AcDbBlockEnd
  0
BLOCK
  5
825D
330
825C
100
AcDbEntity
  8
0
100
AcDbBlockBegin
  2
*D28
 70
     1
 10
0.0
 20
0.0
 30
0.0
  3
*D28
  1

  0
LINE
  5
8105
330
825C
100
AcDbEntity
  8
0
  6
ByBlock
 62
     0
100
AcDbLine
 10
2922.691023858453
 20
1903.97231639266
 30
0.0
 11
3547.162147590152
 21
1903.97231639266
 31
0.0
  0
LINE
  5
8106
330
825C
100
AcDbEntity
  8
0
  6
ByBlock
 62
     0
100
AcDbLine
 10
2306.691023858452
 20
3694.169466167082
 30
0.0
 11
3547.162147590152
 21
3694.169466167082
 31
0.0
  0
LINE
  5
8107
330
825C
100
AcDbEntity
  8
0
  6
ByBlock
 62
     0
100
AcDbLine
 10
3517.162147590152
 20
1963.972316392661
 30
0.0
 11
3517.162147590152
 21
3634.169466167082
 31
0.0
  0
INSERT
  5
8108
330
825C
100
AcDbEntity
  8
0
  6
ByBlock
 62
     0
100
AcDbBlockReference
  2
_OPEN
 10
3517.162147590152
 20
1903.97231639266
 30
0.0
 41
60.0
 42
60.0
 43
60.0
 50
270.0
  0
INSERT
  5
8109
330
825C
100
AcDbEntity
  8
0
  6
ByBlock
 62
     0
100
AcDbBlockReference
  2
_OPEN
 10
3517.162147590152
 20
3694.169466167082
 30
0.0
 41
60.0
 42
60.0
 43
60.0
 50
90.0
  0
TEXT
  5
810A
330
825C
100
AcDbEntity
  8
3
 62
     0
100
AcDbText
 10
3448.590719018723
 20
2591.213748422728
 30
0.0
 40
90.0
  1
(1790)
 50
90.0
100
AcDbText
  0
POINT
  5
810B
330
825C
100
AcDbEntity
  8
DEFPOINTS
  6
ByBlock
 62
     0
100
AcDbPoint
 10
2892.691023858453
 20
1903.97231639266
 30
0.0
  0
POINT
  5
810C
330
825C
100
AcDbEntity
  8
DEFPOINTS
  6
ByBlock
 62
     0
100
AcDbPoint
 10
2276.691023858453
 20
3694.169466167082
 30
0.0
  0
POINT
  5
810D
330
825C
100
AcDbEntity
  8
DEFPOINTS
  6
ByBlock
 62
     0
100
AcDbPoint
 10
3517.162147590152
 20
3694.169466167082
 30
0.0
  0
ENDBLK
  5
810E
330
825C
100
AcDbEntity
  8
0
100
AcDbBlockEnd
  0
BLOCK
  5
8264
330
8263
100
AcDbEntity
  8
0
100
AcDbBlockBegin
  2
*D29
 70
     1
 10
0.0
 20
0.0
 30
0.0
  3
*D29
  1

  0
LINE
  5
8266
330
8263
100
AcDbEntity
  8
3
 62
     0
370
    -2
100
AcDbLine
 10
3876.47352743828
 20
1884.169466167079
 30
0.0
 11
3876.47352743828
 21
1706.026305100245
 31
0.0
  0
LINE
  5
8267
330
8263
100
AcDbEntity
  8
3
 62
     0
370
    -2
100
AcDbLine
 10
4703.473527438279
 20
1884.169466167079
 30
0.0
 11
4703.473527438279
 21
1706.026305100245
 31
0.0
  0
LINE
  5
8268
330
8263
100
AcDbEntity
  8
3
 62
     0
370
    -2
100
AcDbLine
 10
3881.87352743828
 20
1711.426305100244
 30
0.0
 11
4280.330670295422
 21
1711.426305100244
 31
0.0
  0
LINE
  5
8269
330
8263
100
AcDbEntity
  8
3
 62
     0
370
    -2
100
AcDbLine
 10
4698.073527438279
 20
1711.426305100244
 30
0.0
 11
4299.616384581137
 21
1711.426305100244
 31
0.0
  0
SOLID
  5
826A
330
8263
100
AcDbEntity
  8
3
 62
     0
100
AcDbTrace
 10
3881.87352743828
 20
1712.326305100245
 30
0.0
 11
3881.87352743828
 21
1710.526305100244
 31
0.0
 12
3876.47352743828
 22
1711.426305100244
 32
0.0
 13
3876.47352743828
 23
1711.426305100244
 33
0.0
  0
SOLID
  5
826B
330
8263
100
AcDbEntity
  8
3
 62
     0
100
AcDbTrace
 10
4698.073527438279
 20
1712.326305100245
 30
0.0
 11
4698.073527438279
 21
1710.526305100244
 31
0.0
 12
4703.473527438279
 22
1711.426305100244
 32
0.0
 13
4703.473527438279
 23
1711.426305100244
 33
0.0
  0
MTEXT
  5
826C
330
8263
100
AcDbEntity
  8
3
 62
     0
100
AcDbMText
 10
4289.97352743828
 20
1711.426305100244
 30
0.0
 40
5.399999999999999
 41
0.0
 71
     5
 72
     1
  1
\A1;827
 73
     1
 44
1.0
1001
ACAD
1000
MTEXTBEGIN
1070
    73
1070
     1
1070
    44
1040
1.0
1070
    74
1070
     0
1000
MTEXTEND
  0
POINT
  5
826D
330
8263
100
AcDbEntity
  8
DEFPOINTS
 62
     0
100
AcDbPoint
 10
3876.47352743828
 20
1914.169466167079
 30
0.0
  0
POINT
  5
826E
330
8263
100
AcDbEntity
  8
DEFPOINTS
 62
     0
100
AcDbPoint
 10
4703.473527438279
 20
1914.169466167079
 30
0.0
  0
POINT
  5
826F
330
8263
100
AcDbEntity
  8
DEFPOINTS
 62
     0
100
AcDbPoint
 10
4703.473527438279
 20
1711.426305100244
 30
0.0
  0
ENDBLK
  5
8265
330
8263
100
AcDbEntity
  8
0
100
AcDbBlockEnd
  0
BLOCK
  5
8271
330
8270
100
AcDbEntity
  8
0
100
AcDbBlockBegin
  2
*D30
 70
     1
 10
0.0
 20
0.0
 30
0.0
  3
*D30
  1

  0
LINE
  5
8273
330
8270
100
AcDbEntity
  8
3
 62
     0
370
    -2
100
AcDbLine
 10
4703.473527438279
 20
1884.169466167079
 30
0.0
 11
4703.473527438279
 21
1706.026305100245
 31
0.0
  0
LINE
  5
8274
330
8270
100
AcDbEntity
  8
3
 62
     0
370
    -2
100
AcDbLine
 10
5381.473527438281
 20
1884.169466167079
 30
0.0
 11
5381.473527438281
 21
1706.026305100245
 31
0.0
  0
LINE
  5
8275
330
8270
100
AcDbEntity
  8
3
 62
     0
370
    -2
100
AcDbLine
 10
4708.873527438279
 20
1711.426305100244
 30
0.0
 11
5032.830670295424
 21
1711.426305100244
 31
0.0
  0
LINE
  5
8276
330
8270
100
AcDbEntity
  8
3
 62
     0
370
    -2
100
AcDbLine
 10
5376.073527438282
 20
1711.426305100244
 30
0.0
 11
5052.116384581137
 21
1711.426305100244
 31
0.0
  0
SOLID
  5
8277
330
8270
100
AcDbEntity
  8
3
 62
     0
100
AcDbTrace
 10
4708.873527438279
 20
1712.326305100245
 30
0.0
 11
4708.873527438279
 21
1710.526305100244
 31
0.0
 12
4703.473527438279
 22
1711.426305100244
 32
0.0
 13
4703.473527438279
 23
1711.426305100244
 33
0.0
  0
SOLID
  5
8278
330
8270
100
AcDbEntity
  8
3
 62
     0
100
AcDbTrace
 10
5376.073527438282
 20
1712.326305100245
 30
0.0
 11
5376.073527438282
 21
1710.526305100244
 31
0.0
 12
5381.473527438281
 22
1711.426305100244
 32
0.0
 13
5381.473527438281
 23
1711.426305100244
 33
0.0
  0
MTEXT
  5
8279
330
8270
100
AcDbEntity
  8
3
 62
     0
100
AcDbMText
 10
5042.47352743828
 20
1711.426305100244
 30
0.0
 40
5.399999999999999
 41
0.0
 71
     5
 72
     1
  1
\A1;678
 73
     1
 44
1.0
1001
ACAD
1000
MTEXTBEGIN
1070
    73
1070
     1
1070
    44
1040
1.0
1070
    74
1070
     0
1000
MTEXTEND
  0
POINT
  5
827A
330
8270
100
AcDbEntity
  8
DEFPOINTS
 62
     0
100
AcDbPoint
 10
4703.473527438279
 20
1914.169466167079
 30
0.0
  0
POINT
  5
827B
330
8270
100
AcDbEntity
  8
DEFPOINTS
 62
     0
100
AcDbPoint
 10
5381.473527438281
 20
1914.169466167079
 30
0.0
  0
POINT
  5
827C
330
8270
100
AcDbEntity
  8
DEFPOINTS
 62
     0
100
AcDbPoint
 10
5381.473527438281
 20
1711.426305100244
 30
0.0
  0
ENDBLK
  5
8272
330
8270
100
AcDbEntity
  8
0
100
AcDbBlockEnd
  0
BLOCK
  5
827E
330
827D
100
AcDbEntity
  8
0
100
AcDbBlockBegin
  2
*D31
 70
     1
 10
0.0
 20
0.0
 30
0.0
  3
*D31
  1

  0
LINE
  5
8280
330
827D
100
AcDbEntity
  8
3
 62
     0
370
    -2
100
AcDbLine
 10
3252.059195748221
 20
2019.372316392662
 30
0.0
 11
3252.059195748221
 21
2059.658030678376
 31
0.0
  0
LINE
  5
8281
330
827D
100
AcDbEntity
  8
3
 62
     0
370
    -2
100
AcDbLine
 10
3252.059195748221
 20
2113.57231639266
 30
0.0
 11
3252.059195748221
 21
2073.286602106946
 31
0.0
  0
SOLID
  5
8282
330
827D
100
AcDbEntity
  8
3
 62
     0
100
AcDbTrace
 10
3251.159195748221
 20
2019.372316392662
 30
0.0
 11
3252.959195748221
 21
2019.372316392662
 31
0.0
 12
3252.059195748221
 22
2013.972316392662
 32
0.0
 13
3252.059195748221
 23
2013.972316392662
 33
0.0
  0
SOLID
  5
8283
330
827D
100
AcDbEntity
  8
3
 62
     0
100
AcDbTrace
 10
3251.159195748221
 20
2113.57231639266
 30
0.0
 11
3252.959195748221
 21
2113.57231639266
 31
0.0
 12
3252.059195748221
 22
2118.97231639266
 32
0.0
 13
3252.059195748221
 23
2118.97231639266
 33
0.0
  0
MTEXT
  5
8284
330
827D
100
AcDbEntity
  8
3
 62
     0
100
AcDbMText
 10
3252.05919574822
 20
2066.472316392662
 30
0.0
 40
5.399999999999999
 41
0.0
 71
     5
 72
     1
  1
\A1;(105)
 73
     1
 44
1.0
1001
ACAD
1000
MTEXTBEGIN
1070
    73
1070
     1
1070
    44
1040
1.0
1070
    74
1070
     0
1000
MTEXTEND
  0
POINT
  5
8285
330
827D
100
AcDbEntity
  8
DEFPOINTS
 62
     0
100
AcDbPoint
 10
2892.691023858453
 20
2013.972316392662
 30
0.0
  0
POINT
  5
8286
330
827D
100
AcDbEntity
  8
DEFPOINTS
 62
     0
100
AcDbPoint
 10
2892.691023858453
 20
2118.972316392661
 30
0.0
  0
POINT
  5
8287
330
827D
100
AcDbEntity
  8
DEFPOINTS
 62
     0
100
AcDbPoint
 10
3252.059195748221
 20
2118.97231639266
 30
0.0
  0
ENDBLK
  5
827F
330
827D
100
AcDbEntity
  8
0
100
AcDbBlockEnd
  0
BLOCK
  5
8289
330
8288
100
AcDbEntity
  8
0
100
AcDbBlockBegin
  2
*D32
 70
     1
 10
0.0
 20
0.0
 30
0.0
  3
*D32
  1

  0
LINE
  5
828B
330
8288
100
AcDbEntity
  8
3
 62
     0
370
    -2
100
AcDbLine
 10
2922.691023858453
 20
1913.97231639266
 30
0.0
 11
3522.562147590152
 21
1913.97231639266
 31
0.0
  0
LINE
  5
828C
330
8288
100
AcDbEntity
  8
3
 62
     0
370
    -2
100
AcDbLine
 10
2306.691023858452
 20
3694.169466167082
 30
0.0
 11
3522.562147590152
 21
3694.169466167081
 31
0.0
  0
LINE
  5
828D
330
8288
100
AcDbEntity
  8
3
 62
     0
370
    -2
100
AcDbLine
 10
3517.162147590152
 20
1919.37231639266
 30
0.0
 11
3517.162147590152
 21
2797.256605565584
 31
0.0
  0
LINE
  5
828E
330
8288
100
AcDbEntity
  8
3
 62
     0
370
    -2
100
AcDbLine
 10
3517.162147590152
 20
3688.769466167081
 30
0.0
 11
3517.162147590152
 21
2810.885176994156
 31
0.0
  0
SOLID
  5
828F
330
8288
100
AcDbEntity
  8
3
 62
     0
100
AcDbTrace
 10
3516.262147590152
 20
1919.37231639266
 30
0.0
 11
3518.062147590152
 21
1919.37231639266
 31
0.0
 12
3517.162147590152
 22
1913.97231639266
 32
0.0
 13
3517.162147590152
 23
1913.97231639266
 33
0.0
  0
SOLID
  5
8290
330
8288
100
AcDbEntity
  8
3
 62
     0
100
AcDbTrace
 10
3516.262147590152
 20
3688.769466167081
 30
0.0
 11
3518.062147590153
 21
3688.769466167081
 31
0.0
 12
3517.162147590152
 22
3694.169466167081
 32
0.0
 13
3517.162147590152
 23
3694.169466167081
 33
0.0
  0
MTEXT
  5
8291
330
8288
100
AcDbEntity
  8
3
 62
     0
100
AcDbMText
 10
3517.162147590151
 20
2804.070891279871
 30
0.0
 40
5.399999999999999
 41
0.0
 71
     5
 72
     1
  1
\A1;(1780)
 73
     1
 44
1.0
1001
ACAD
1000
MTEXTBEGIN
1070
    73
1070
     1
1070
    44
1040
1.0
1070
    74
1070
     0
1000
MTEXTEND
  0
POINT
  5
8292
330
8288
100
AcDbEntity
  8
DEFPOINTS
 62
     0
100
AcDbPoint
 10
2892.691023858453
 20
1913.97231639266
 30
0.0
  0
POINT
  5
8293
330
8288
100
AcDbEntity
  8
DEFPOINTS
 62
     0
100
AcDbPoint
 10
2276.691023858453
 20
3694.169466167082
 30
0.0
  0
POINT
  5
8294
330
8288
100
AcDbEntity
  8
DEFPOINTS
 62
     0
100
AcDbPoint
 10
3517.162147590152
 20
3694.169466167081
 30
0.0
  0
ENDBLK
  5
828A
330
8288
100
AcDbEntity
  8
0
100
AcDbBlockEnd
  0
BLOCK
  5
8296
330
8295
100
AcDbEntity
  8
0
100
AcDbBlockBegin
  2
*D33
 70
     1
 10
0.0
 20
0.0
 30
0.0
  3
*D33
  1

  0
LINE
  5
8298
330
8295
100
AcDbEntity
  8
3
 62
     0
370
    -2
100
AcDbLine
 10
842.6910238584531
 20
1883.97231639266
 30
0.0
 11
842.6910238584531
 21
1706.026305100245
 31
0.0
  0
LINE
  5
8299
330
8295
100
AcDbEntity
  8
3
 62
     0
370
    -2
100
AcDbLine
 10
2267.691023858451
 20
1883.972316392661
 30
0.0
 11
2267.691023858451
 21
1706.026305100245
 31
0.0
  0
LINE
  5
829A
330
8295
100
AcDbEntity
  8
3
 62
     0
370
    -2
100
AcDbLine
 10
848.0910238584529
 20
1711.426305100244
 30
0.0
 11
1543.491023858452
 21
1711.426305100244
 31
0.0
  0
LINE
  5
829B
330
8295
100
AcDbEntity
  8
3
 62
     0
370
    -2
100
AcDbLine
 10
2262.291023858451
 20
1711.426305100244
 30
0.0
 11
1566.891023858452
 21
1711.426305100244
 31
0.0
  0
SOLID
  5
829C
330
8295
100
AcDbEntity
  8
3
 62
     0
100
AcDbTrace
 10
848.0910238584529
 20
1712.326305100245
 30
0.0
 11
848.0910238584529
 21
1710.526305100244
 31
0.0
 12
842.6910238584531
 22
1711.426305100244
 32
0.0
 13
842.6910238584531
 23
1711.426305100244
 33
0.0
  0
SOLID
  5
829D
330
8295
100
AcDbEntity
  8
3
 62
     0
100
AcDbTrace
 10
2262.291023858451
 20
1712.326305100245
 30
0.0
 11
2262.291023858451
 21
1710.526305100244
 31
0.0
 12
2267.691023858451
 22
1711.426305100244
 32
0.0
 13
2267.691023858451
 23
1711.426305100244
 33
0.0
  0
MTEXT
  5
829E
330
8295
100
AcDbEntity
  8
3
 62
     0
100
AcDbMText
 10
1555.191023858452
 20
1711.426305100244
 30
0.0
 40
5.399999999999999
 41
0.0
 71
     5
 72
     1
  1
\A1;1425
 73
     1
 44
1.0
1001
ACAD
1000
MTEXTBEGIN
1070
    73
1070
     1
1070
    44
1040
1.0
1070
    74
1070
     0
1000
MTEXTEND
  0
POINT
  5
829F
330
8295
100
AcDbEntity
  8
DEFPOINTS
 62
     0
100
AcDbPoint
 10
842.6910238584531
 20
1913.97231639266
 30
0.0
  0
POINT
  5
82A0
330
8295
100
AcDbEntity
  8
DEFPOINTS
 62
     0
100
AcDbPoint
 10
2267.691023858451
 20
1913.972316392661
 30
0.0
  0
POINT
  5
82A1
330
8295
100
AcDbEntity
  8
DEFPOINTS
 62
     0
100
AcDbPoint
 10
2267.691023858451
 20
1711.426305100244
 30
0.0
  0
ENDBLK
  5
8297
330
8295
100
AcDbEntity
  8
0
100
AcDbBlockEnd
  0
BLOCK
  5
82A3
330
82A2
100
AcDbEntity
  8
0
100
AcDbBlockBegin
  2
*D34
 70
     1
 10
0.0
 20
0.0
 30
0.0
  3
*D34
  1

  0
LINE
  5
82A5
330
82A2
100
AcDbEntity
  8
3
 62
     0
370
    -2
100
AcDbLine
 10
2267.691023858451
 20
1883.972316392661
 30
0.0
 11
2267.691023858451
 21
1706.026305100245
 31
0.0
  0
LINE
  5
82A6
330
82A2
100
AcDbEntity
  8
3
 62
     0
370
    -2
100
AcDbLine
 10
2892.691023858453
 20
1883.97231639266
 30
0.0
 11
2892.691023858453
 21
1706.026305100245
 31
0.0
  0
LINE
  5
82A7
330
82A2
100
AcDbEntity
  8
3
 62
     0
370
    -2
100
AcDbLine
 10
2273.091023858451
 20
1711.426305100244
 30
0.0
 11
2570.548166715595
 21
1711.426305100244
 31
0.0
  0
LINE
  5
82A8
330
82A2
100
AcDbEntity
  8
3
 62
     0
370
    -2
100
AcDbLine
 10
2887.291023858453
 20
1711.426305100244
 30
0.0
 11
2589.83388100131
 21
1711.426305100244
 31
0.0
  0
SOLID
  5
82A9
330
82A2
100
AcDbEntity
  8
3
 62
     0
100
AcDbTrace
 10
2273.091023858451
 20
1712.326305100245
 30
0.0
 11
2273.091023858451
 21
1710.526305100244
 31
0.0
 12
2267.691023858451
 22
1711.426305100244
 32
0.0
 13
2267.691023858451
 23
1711.426305100244
 33
0.0
  0
SOLID
  5
82AA
330
82A2
100
AcDbEntity
  8
3
 62
     0
100
AcDbTrace
 10
2887.291023858453
 20
1712.326305100245
 30
0.0
 11
2887.291023858453
 21
1710.526305100244
 31
0.0
 12
2892.691023858453
 22
1711.426305100244
 32
0.0
 13
2892.691023858453
 23
1711.426305100244
 33
0.0
  0
MTEXT
  5
82AB
330
82A2
100
AcDbEntity
  8
3
 62
     0
100
AcDbMText
 10
2580.191023858452
 20
1711.426305100244
 30
0.0
 40
5.399999999999999
 41
0.0
 71
     5
 72
     1
  1
\A1;625
 73
     1
 44
1.0
1001
ACAD
1000
MTEXTBEGIN
1070
    73
1070
     1
1070
    44
1040
1.0
1070
    74
1070
     0
1000
MTEXTEND
  0
POINT
  5
82AC
330
82A2
100
AcDbEntity
  8
DEFPOINTS
 62
     0
100
AcDbPoint
 10
2267.691023858451
 20
1913.972316392661
 30
0.0
  0
POINT
  5
82AD
330
82A2
100
AcDbEntity
  8
DEFPOINTS
 62
     0
100
AcDbPoint
 10
2892.691023858453
 20
1913.97231639266
 30
0.0
  0
POINT
  5
82AE
330
82A2
100
AcDbEntity
  8
DEFPOINTS
 62
     0
100
AcDbPoint
 10
2892.691023858453
 20
1711.426305100244
 30
0.0
  0
ENDBLK
  5
82A4
330
82A2
100
AcDbEntity
  8
0
100
AcDbBlockEnd
  0
BLOCK
  5
82B0
330
82AF
100
AcDbEntity
  8
0
100
AcDbBlockBegin
  2
*D35
 70
     1
 10
0.0
 20
0.0
 30
0.0
  3
*D35
  1

  0
LINE
  5
82B2
330
82AF
100
AcDbEntity
  8
3
 62
     0
370
    -2
100
AcDbLine
 10
2894.566023858453
 20
2013.972316392662
 30
0.0
 11
3259.784892531744
 21
2013.972316392662
 31
0.0
  0
LINE
  5
82B3
330
82AF
100
AcDbEntity
  8
3
 62
     0
370
    -2
100
AcDbLine
 10
2894.566023858453
 20
1913.97231639266
 30
0.0
 11
3259.784892531744
 21
1913.97231639266
 31
0.0
  0
LINE
  5
82B4
330
82AF
100
AcDbEntity
  8
3
 62
     0
370
    -2
100
AcDbLine
 10
3254.384892531744
 20
2008.572316392661
 30
0.0
 11
3254.384892531744
 21
1969.37231639266
 31
0.0
  0
LINE
  5
82B5
330
82AF
100
AcDbEntity
  8
3
 62
     0
370
    -2
100
AcDbLine
 10
3254.384892531744
 20
1919.37231639266
 30
0.0
 11
3254.384892531744
 21
1958.57231639266
 31
0.0
  0
SOLID
  5
82B6
330
82AF
100
AcDbEntity
  8
3
 62
     0
100
AcDbTrace
 10
3253.484892531743
 20
2008.572316392661
 30
0.0
 11
3255.284892531744
 21
2008.572316392661
 31
0.0
 12
3254.384892531744
 22
2013.972316392662
 32
0.0
 13
3254.384892531744
 23
2013.972316392662
 33
0.0
  0
SOLID
  5
82B7
330
82AF
100
AcDbEntity
  8
3
 62
     0
100
AcDbTrace
 10
3253.484892531743
 20
1919.37231639266
 30
0.0
 11
3255.284892531744
 21
1919.37231639266
 31
0.0
 12
3254.384892531744
 22
1913.97231639266
 32
0.0
 13
3254.384892531744
 23
1913.97231639266
 33
0.0
  0
MTEXT
  5
82B8
330
82AF
100
AcDbEntity
  8
3
 62
     0
100
AcDbMText
 10
3254.384892531743
 20
1963.972316392661
 30
0.0
 40
5.399999999999999
 41
0.0
 71
     5
 72
     1
  1
\A1;100
 73
     1
 44
1.0
1001
ACAD
1000
MTEXTBEGIN
1070
    73
1070
     1
1070
    44
1040
1.0
1070
    74
1070
     0
1000
MTEXTEND
  0
POINT
  5
82B9
330
82AF
100
AcDbEntity
  8
DEFPOINTS
 62
     0
100
AcDbPoint
 10
2892.691023858453
 20
2013.972316392662
 30
0.0
  0
POINT
  5
82BA
330
82AF
100
AcDbEntity
  8
DEFPOINTS
 62
     0
100
AcDbPoint
 10
2892.691023858453
 20
1913.97231639266
 30
0.0
  0
POINT
  5
82BB
330
82AF
100
AcDbEntity
  8
DEFPOINTS
 62
     0
100
AcDbPoint
 10
3254.384892531744
 20
1913.97231639266
 30
0.0
  0
ENDBLK
  5
82B1
330
82AF
100
AcDbEntity
  8
0
100
AcDbBlockEnd
  0
BLOCK
  5
82BD
330
82BC
100
AcDbEntity
  8
0
100
AcDbBlockBegin
  2
*D36
 70
     1
 10
0.0
 20
0.0
 30
0.0
  3
*D36
  1

  0
LINE
  5
82BF
330
82BC
100
AcDbEntity
  8
3
 62
     0
370
    -2
100
AcDbLine
 10
842.6910238584531
 20
4922.797059535993
 30
0.0
 11
842.6910238584531
 21
4510.721935709416
 31
0.0
  0
LINE
  5
82C0
330
82BC
100
AcDbEntity
  8
3
 62
     0
370
    -2
100
AcDbLine
 10
2892.691023858453
 20
4922.797059535991
 30
0.0
 11
2892.691023858453
 21
4510.721935709416
 31
0.0
  0
LINE
  5
82C1
330
82BC
100
AcDbEntity
  8
3
 62
     0
370
    -2
100
AcDbLine
 10
848.0910238584529
 20
4516.121935709416
 30
0.0
 11
1843.905309572739
 21
4516.121935709416
 31
0.0
  0
LINE
  5
82C2
330
82BC
100
AcDbEntity
  8
3
 62
     0
370
    -2
100
AcDbLine
 10
2887.291023858453
 20
4516.121935709416
 30
0.0
 11
1891.476738144167
 21
4516.121935709416
 31
0.0
  0
SOLID
  5
82C3
330
82BC
100
AcDbEntity
  8
3
 62
     0
100
AcDbTrace
 10
848.0910238584529
 20
4517.021935709415
 30
0.0
 11
848.0910238584529
 21
4515.221935709416
 31
0.0
 12
842.6910238584531
 22
4516.121935709416
 32
0.0
 13
842.6910238584531
 23
4516.121935709416
 33
0.0
  0
SOLID
  5
82C4
330
82BC
100
AcDbEntity
  8
3
 62
     0
100
AcDbTrace
 10
2887.291023858453
 20
4517.021935709415
 30
0.0
 11
2887.291023858453
 21
4515.221935709416
 31
0.0
 12
2892.691023858453
 22
4516.121935709416
 32
0.0
 13
2892.691023858453
 23
4516.121935709416
 33
0.0
  0
MTEXT
  5
82C5
330
82BC
100
AcDbEntity
  8
3
 62
     0
100
AcDbMText
 10
1867.691023858453
 20
4516.121935709416
 30
0.0
 40
5.399999999999999
 41
0.0
 71
     5
 72
     1
  1
\A1;2050.0000
 73
     1
 44
1.0
1001
ACAD
1000
MTEXTBEGIN
1070
    73
1070
     1
1070
    44
1040
1.0
1070
    74
1070
     0
1000
MTEXTEND
  0
POINT
  5
82C6
330
82BC
100
AcDbEntity
  8
DEFPOINTS
 62
     0
100
AcDbPoint
 10
842.6910238584531
 20
4924.672059535993
 30
0.0
  0
POINT
  5
82C7
330
82BC
100
AcDbEntity
  8
DEFPOINTS
 62
     0
100
AcDbPoint
 10
2892.691023858453
 20
4924.672059535991
 30
0.0
  0
POINT
  5
82C8
330
82BC
100
AcDbEntity
  8
DEFPOINTS
 62
     0
100
AcDbPoint
 10
2892.691023858453
 20
4516.121935709416
 30
0.0
  0
ENDBLK
  5
82BE
330
82BC
100
AcDbEntity
  8
0
100
AcDbBlockEnd
  0
BLOCK
  5
82CA
330
82C9
100
AcDbEntity
  8
0
100
AcDbBlockBegin
  2
*D37
 70
     1
 10
0.0
 20
0.0
 30
0.0
  3
*D37
  1

  0
LINE
  5
82CC
330
82C9
100
AcDbEntity
  8
3
 62
     0
370
    -2
100
AcDbLine
 10
3643.473527438275
 20
3296.04446616708
 30
0.0
 11
3643.473527438275
 21
4153.092100635555
 31
0.0
  0
LINE
  5
82CD
330
82C9
100
AcDbEntity
  8
3
 62
     0
370
    -2
100
AcDbLine
 10
4703.473527438279
 20
4065.305817459544
 30
0.0
 11
4703.473527438279
 21
4153.092100635555
 31
0.0
  0
LINE
  5
82CE
330
82C9
100
AcDbEntity
  8
3
 62
     0
370
    -2
100
AcDbLine
 10
3648.873527438276
 20
4147.692100635555
 30
0.0
 11
4161.773527438277
 21
4147.692100635555
 31
0.0
  0
LINE
  5
82CF
330
82C9
100
AcDbEntity
  8
3
 62
     0
370
    -2
100
AcDbLine
 10
4698.073527438279
 20
4147.692100635555
 30
0.0
 11
4185.173527438277
 21
4147.692100635555
 31
0.0
  0
SOLID
  5
82D0
330
82C9
100
AcDbEntity
  8
3
 62
     0
100
AcDbTrace
 10
3648.873527438276
 20
4148.592100635554
 30
0.0
 11
3648.873527438276
 21
4146.792100635555
 31
0.0
 12
3643.473527438275
 22
4147.692100635555
 32
0.0
 13
3643.473527438275
 23
4147.692100635555
 33
0.0
  0
SOLID
  5
82D1
330
82C9
100
AcDbEntity
  8
3
 62
     0
100
AcDbTrace
 10
4698.073527438279
 20
4148.592100635554
 30
0.0
 11
4698.073527438279
 21
4146.792100635555
 31
0.0
 12
4703.473527438279
 22
4147.692100635555
 32
0.0
 13
4703.473527438279
 23
4147.692100635555
 33
0.0
  0
MTEXT
  5
82D2
330
82C9
100
AcDbEntity
  8
3
 62
     0
100
AcDbMText
 10
4173.473527438278
 20
4147.692100635555
 30
0.0
 40
5.399999999999999
 41
0.0
 71
     5
 72
     1
  1
\A1;MAX\P1020
 73
     1
 44
1.0
1001
ACAD
1000
MTEXTBEGIN
1070
    73
1070
     1
1070
    44
1040
1.0
1070
    74
1070
     0
1000
MTEXTEND
  0
POINT
  5
82D3
330
82C9
100
AcDbEntity
  8
DEFPOINTS
 62
     0
100
AcDbPoint
 10
3643.473527438275
 20
3294.16946616708
 30
0.0
  0
POINT
  5
82D4
330
82C9
100
AcDbEntity
  8
DEFPOINTS
 62
     0
100
AcDbPoint
 10
4703.473527438279
 20
4063.430817459545
 30
0.0
  0
POINT
  5
82D5
330
82C9
100
AcDbEntity
  8
DEFPOINTS
 62
     0
100
AcDbPoint
 10
4703.473527438279
 20
4147.692100635555
 30
0.0
  0
ENDBLK
  5
82CB
330
82C9
100
AcDbEntity
  8
0
100
AcDbBlockEnd
  0
BLOCK
  5
82D7
330
82D6
100
AcDbEntity
  8
0
100
AcDbBlockBegin
  2
*D38
 70
     1
 10
0.0
 20
0.0
 30
0.0
  3
*D38
  1

  0
LINE
  5
82D9
330
82D6
100
AcDbEntity
  8
3
 62
     0
370
    -2
100
AcDbLine
 10
4703.473527438279
 20
4065.305817459544
 30
0.0
 11
4703.473527438279
 21
4153.092100635555
 31
0.0
  0
LINE
  5
82DA
330
82D6
100
AcDbEntity
  8
3
 62
     0
370
    -2
100
AcDbLine
 10
5483.473527438282
 20
2980.24446616708
 30
0.0
 11
5483.473527438282
 21
4153.092100635555
 31
0.0
  0
LINE
  5
82DB
330
82D6
100
AcDbEntity
  8
3
 62
     0
370
    -2
100
AcDbLine
 10
4708.873527438279
 20
4147.692100635555
 30
0.0
 11
5080.359241723994
 21
4147.692100635555
 31
0.0
  0
LINE
  5
82DC
330
82D6
100
AcDbEntity
  8
3
 62
     0
370
    -2
100
AcDbLine
 10
5478.073527438283
 20
4147.692100635555
 30
0.0
 11
5106.587813152566
 21
4147.692100635555
 31
0.0
  0
SOLID
  5
82DD
330
82D6
100
AcDbEntity
  8
3
 62
     0
100
AcDbTrace
 10
4708.873527438279
 20
4148.592100635554
 30
0.0
 11
4708.873527438279
 21
4146.792100635555
 31
0.0
 12
4703.473527438279
 22
4147.692100635555
 32
0.0
 13
4703.473527438279
 23
4147.692100635555
 33
0.0
  0
SOLID
  5
82DE
330
82D6
100
AcDbEntity
  8
3
 62
     0
100
AcDbTrace
 10
5478.073527438283
 20
4148.592100635554
 30
0.0
 11
5478.073527438283
 21
4146.792100635555
 31
0.0
 12
5483.473527438282
 22
4147.692100635555
 32
0.0
 13
5483.473527438282
 23
4147.692100635555
 33
0.0
  0
MTEXT
  5
82DF
330
82D6
100
AcDbEntity
  8
3
 62
     0
100
AcDbMText
 10
5093.47352743828
 20
4147.692100635555
 30
0.0
 40
5.399999999999999
 41
0.0
 71
     5
 72
     1
  1
\A1;(780)
 73
     1
 44
1.0
1001
ACAD
1000
MTEXTBEGIN
1070
    73
1070
     1
1070
    44
1040
1.0
1070
    74
1070
     0
1000
MTEXTEND
  0
POINT
  5
82E0
330
82D6
100
AcDbEntity
  8
DEFPOINTS
 62
     0
100
AcDbPoint
 10
4703.473527438279
 20
4063.430817459545
 30
0.0
  0
POINT
  5
82E1
330
82D6
100
AcDbEntity
  8
DEFPOINTS
 62
     0
100
AcDbPoint
 10
5483.473527438282
 20
2978.369466167081
 30
0.0
  0
POINT
  5
82E2
330
82D6
100
AcDbEntity
  8
DEFPOINTS
 62
     0
100
AcDbPoint
 10
5483.473527438282
 20
4147.692100635555
 30
0.0
  0
ENDBLK
  5
82D8
330
82D6
100
AcDbEntity
  8
0
100
AcDbBlockEnd
  0
BLOCK
  5
82E5
330
82E4
100
AcDbEntity
  8
0
100
AcDbBlockBegin
  2
*D39
 70
     1
 10
0.0
 20
0.0
 30
0.0
  3
*D39
  1

  0
LINE
  5
82FD
330
82E4
100
AcDbEntity
  8
3
 62
     0
370
    -2
100
AcDbLine
 10
3643.473527438275
 20
3324.16946616708
 30
0.0
 11
3643.473527438275
 21
4177.692100635555
 31
0.0
  0
LINE
  5
82FE
330
82E4
100
AcDbEntity
  8
3
 62
     0
370
    -2
100
AcDbLine
 10
4703.47352743828
 20
4083.164217589007
 30
0.0
 11
4703.47352743828
 21
4177.692100635555
 31
0.0
  0
LINE
  5
82FF
330
82E4
100
AcDbEntity
  8
3
 62
     0
370
    -2
100
AcDbLine
 10
3703.473527438275
 20
4147.692100635555
 30
0.0
 11
4643.47352743828
 21
4147.692100635555
 31
0.0
  0
INSERT
  5
8300
330
82E4
100
AcDbEntity
  8
3
 62
     0
370
    -2
100
AcDbBlockReference
  2
_OPEN
 10
3643.473527438275
 20
4147.692100635555
 30
0.0
 41
60.0
 42
60.0
 43
60.0
 50
180.0
  0
INSERT
  5
8301
330
82E4
100
AcDbEntity
  8
3
 62
     0
370
    -2
100
AcDbBlockReference
  2
_OPEN
 10
4703.47352743828
 20
4147.692100635555
 30
0.0
 41
60.0
 42
60.0
 43
60.0
  0
MTEXT
  5
8302
330
82E4
100
AcDbEntity
  8
3
 62
     0
100
AcDbMText
 10
4173.473527438278
 20
4246.263529206983
 30
0.0
 40
90.0
 41
0.0
 71
     5
 72
     1
  1
\A1;(1060)
 73
     1
 44
1.0
1001
ACAD
1000
MTEXTBEGIN
1070
    73
1070
     1
1070
    44
1040
1.0
1070
    74
1070
     0
1000
MTEXTEND
  0
POINT
  5
8303
330
82E4
100
AcDbEntity
  8
DEFPOINTS
 62
     0
100
AcDbPoint
 10
3643.473527438275
 20
3294.16946616708
 30
0.0
  0
POINT
  5
8304
330
82E4
100
AcDbEntity
  8
DEFPOINTS
 62
     0
100
AcDbPoint
 10
4703.47352743828
 20
4053.164217589007
 30
0.0
  0
POINT
  5
8305
330
82E4
100
AcDbEntity
  8
DEFPOINTS
 62
     0
100
AcDbPoint
 10
4703.47352743828
 20
4147.692100635555
 30
0.0
  0
ENDBLK
  5
82E6
330
82E4
100
AcDbEntity
  8
0
100
AcDbBlockEnd
  0
BLOCK
  5
82F2
330
82F1
100
AcDbEntity
  8
0
100
AcDbBlockBegin
  2
*D40
 70
     1
 10
0.0
 20
0.0
 30
0.0
  3
*D40
  1

  0
LINE
  5
8306
330
82F1
100
AcDbEntity
  8
3
 62
     0
370
    -2
100
AcDbLine
 10
4703.47352743828
 20
4083.164217589007
 30
0.0
 11
4703.47352743828
 21
4177.692100635555
 31
0.0
  0
LINE
  5
8307
330
82F1
100
AcDbEntity
  8
3
 62
     0
370
    -2
100
AcDbLine
 10
5483.47352743828
 20
3008.36946616708
 30
0.0
 11
5483.47352743828
 21
4177.692100635555
 31
0.0
  0
LINE
  5
8308
330
82F1
100
AcDbEntity
  8
3
 62
     0
370
    -2
100
AcDbLine
 10
4763.47352743828
 20
4147.692100635555
 30
0.0
 11
5423.47352743828
 21
4147.692100635555
 31
0.0
  0
INSERT
  5
8309
330
82F1
100
AcDbEntity
  8
3
 62
     0
370
    -2
100
AcDbBlockReference
  2
_OPEN
 10
4703.47352743828
 20
4147.692100635555
 30
0.0
 41
60.0
 42
60.0
 43
60.0
 50
180.0
  0
INSERT
  5
830A
330
82F1
100
AcDbEntity
  8
3
 62
     0
370
    -2
100
AcDbBlockReference
  2
_OPEN
 10
5483.47352743828
 20
4147.692100635555
 30
0.0
 41
60.0
 42
60.0
 43
60.0
  0
MTEXT
  5
830B
330
82F1
100
AcDbEntity
  8
3
 62
     0
100
AcDbMText
 10
5093.47352743828
 20
4246.263529206983
 30
0.0
 40
90.0
 41
0.0
 71
     5
 72
     1
  1
\A1;(780)
 73
     1
 44
1.0
1001
ACAD
1000
MTEXTBEGIN
1070
    73
1070
     1
1070
    44
1040
1.0
1070
    74
1070
     0
1000
MTEXTEND
  0
POINT
  5
830C
330
82F1
100
AcDbEntity
  8
DEFPOINTS
 62
     0
100
AcDbPoint
 10
4703.47352743828
 20
4053.164217589007
 30
0.0
  0
POINT
  5
830D
330
82F1
100
AcDbEntity
  8
DEFPOINTS
 62
     0
100
AcDbPoint
 10
5483.47352743828
 20
2978.369466167081
 30
0.0
  0
POINT
  5
830E
330
82F1
100
AcDbEntity
  8
DEFPOINTS
 62
     0
100
AcDbPoint
 10
5483.47352743828
 20
4147.692100635555
 30
0.0
  0
ENDBLK
  5
82F3
330
82F1
100
AcDbEntity
  8
0
100
AcDbBlockEnd
  0
BLOCK
  5
8314
330
8313
100
AcDbEntity
  8
0
100
AcDbBlockBegin
  2
*D41
 70
     1
 10
0.0
 20
0.0
 30
0.0
  3
*D41
  1

  0
LINE
  5
8316
330
8313
100
AcDbEntity
  8
3
 62
     0
370
    -2
100
AcDbLine
 10
842.6910238584531
 20
4894.672059535992
 30
0.0
 11
842.6910238584531
 21
4477.906798144264
 31
0.0
  0
LINE
  5
8317
330
8313
100
AcDbEntity
  8
3
 62
     0
370
    -2
100
AcDbLine
 10
2892.691023858453
 20
4894.672059535992
 30
0.0
 11
2892.691023858453
 21
4477.906798144264
 31
0.0
  0
LINE
  5
8318
330
8313
100
AcDbEntity
  8
3
 62
     0
370
    -2
100
AcDbLine
 10
902.691023858453
 20
4507.906798144264
 30
0.0
 11
2832.691023858453
 21
4507.906798144264
 31
0.0
  0
INSERT
  5
8319
330
8313
100
AcDbEntity
  8
3
 62
     0
370
    -2
100
AcDbBlockReference
  2
_OPEN
 10
842.6910238584531
 20
4507.906798144264
 30
0.0
 41
60.0
 42
60.0
 43
60.0
 50
180.0
  0
INSERT
  5
831A
330
8313
100
AcDbEntity
  8
3
 62
     0
370
    -2
100
AcDbBlockReference
  2
_OPEN
 10
2892.691023858453
 20
4507.906798144264
 30
0.0
 41
60.0
 42
60.0
 43
60.0
  0
MTEXT
  5
831B
330
8313
100
AcDbEntity
  8
3
 62
     0
100
AcDbMText
 10
1867.691023858453
 20
4582.906798144263
 30
0.0
 40
90.0
 41
0.0
 71
     5
 72
     1
  1
\A1;2050
 73
     1
 44
1.0
1001
ACAD
1000
MTEXTBEGIN
1070
    73
1070
     1
1070
    44
1040
1.0
1070
    74
1070
     0
1000
MTEXTEND
  0
POINT
  5
831C
330
8313
100
AcDbEntity
  8
DEFPOINTS
 62
     0
100
AcDbPoint
 10
842.6910238584531
 20
4924.672059535993
 30
0.0
  0
POINT
  5
831D
330
8313
100
AcDbEntity
  8
DEFPOINTS
 62
     0
100
AcDbPoint
 10
2892.691023858453
 20
4924.672059535991
 30
0.0
  0
POINT
  5
831E
330
8313
100
AcDbEntity
  8
DEFPOINTS
 62
     0
100
AcDbPoint
 10
2892.691023858453
 20
4507.906798144264
 30
0.0
  0
ENDBLK
  5
8315
330
8313
100
AcDbEntity
  8
0
100
AcDbBlockEnd
  0
BLOCK
  5
8321
330
8320
100
AcDbEntity
  8
0
100
AcDbBlockBegin
  2
*D42
 70
     1
 10
0.0
 20
0.0
 30
0.0
  3
*D42
  1

  0
LINE
  5
8323
330
8320
100
AcDbEntity
  8
3
 62
     0
370
    -2
100
AcDbLine
 10
3876.47352743828
 20
1884.169466167079
 30
0.0
 11
3876.47352743828
 21
1681.426305100245
 31
0.0
  0
LINE
  5
8324
330
8320
100
AcDbEntity
  8
3
 62
     0
370
    -2
100
AcDbLine
 10
4703.473527438279
 20
1884.169466167079
 30
0.0
 11
4703.473527438279
 21
1681.426305100245
 31
0.0
  0
LINE
  5
8325
330
8320
100
AcDbEntity
  8
3
 62
     0
370
    -2
100
AcDbLine
 10
3936.47352743828
 20
1711.426305100244
 30
0.0
 11
4643.473527438279
 21
1711.426305100244
 31
0.0
  0
INSERT
  5
8326
330
8320
100
AcDbEntity
  8
3
 62
     0
370
    -2
100
AcDbBlockReference
  2
_OPEN
 10
3876.47352743828
 20
1711.426305100244
 30
0.0
 41
60.0
 42
60.0
 43
60.0
 50
180.0
  0
INSERT
  5
8327
330
8320
100
AcDbEntity
  8
3
 62
     0
370
    -2
100
AcDbBlockReference
  2
_OPEN
 10
4703.473527438279
 20
1711.426305100244
 30
0.0
 41
60.0
 42
60.0
 43
60.0
  0
MTEXT
  5
8328
330
8320
100
AcDbEntity
  8
3
 62
     0
100
AcDbMText
 10
4289.97352743828
 20
1786.426305100244
 30
0.0
 40
90.0
 41
0.0
 71
     5
 72
     1
  1
\A1;827
 73
     1
 44
1.0
1001
ACAD
1000
MTEXTBEGIN
1070
    73
1070
     1
1070
    44
1040
1.0
1070
    74
1070
     0
1000
MTEXTEND
  0
POINT
  5
8329
330
8320
100
AcDbEntity
  8
DEFPOINTS
 62
     0
100
AcDbPoint
 10
3876.47352743828
 20
1914.169466167079
 30
0.0
  0
POINT
  5
832A
330
8320
100
AcDbEntity
  8
DEFPOINTS
 62
     0
100
AcDbPoint
 10
4703.473527438279
 20
1914.169466167079
 30
0.0
  0
POINT
  5
832B
330
8320
100
AcDbEntity
  8
DEFPOINTS
 62
     0
100
AcDbPoint
 10
4703.473527438279
 20
1711.426305100244
 30
0.0
  0
ENDBLK
  5
8322
330
8320
100
AcDbEntity
  8
0
100
AcDbBlockEnd
  0
BLOCK
  5
832E
330
832D
100
AcDbEntity
  8
0
100
AcDbBlockBegin
  2
*D43
 70
     1
 10
0.0
 20
0.0
 30
0.0
  3
*D43
  1

  0
LINE
  5
8330
330
832D
100
AcDbEntity
  8
3
 62
     0
370
    -2
100
AcDbLine
 10
4703.473527438279
 20
1884.169466167079
 30
0.0
 11
4703.473527438279
 21
1681.426305100245
 31
0.0
  0
LINE
  5
8331
330
832D
100
AcDbEntity
  8
3
 62
     0
370
    -2
100
AcDbLine
 10
5381.473527438281
 20
1884.169466167079
 30
0.0
 11
5381.473527438281
 21
1681.426305100245
 31
0.0
  0
LINE
  5
8332
330
832D
100
AcDbEntity
  8
3
 62
     0
370
    -2
100
AcDbLine
 10
4763.473527438279
 20
1711.426305100244
 30
0.0
 11
5321.473527438281
 21
1711.426305100244
 31
0.0
  0
INSERT
  5
8333
330
832D
100
AcDbEntity
  8
3
 62
     0
370
    -2
100
AcDbBlockReference
  2
_OPEN
 10
4703.473527438279
 20
1711.426305100244
 30
0.0
 41
60.0
 42
60.0
 43
60.0
 50
180.0
  0
INSERT
  5
8334
330
832D
100
AcDbEntity
  8
3
 62
     0
370
    -2
100
AcDbBlockReference
  2
_OPEN
 10
5381.473527438281
 20
1711.426305100244
 30
0.0
 41
60.0
 42
60.0
 43
60.0
  0
MTEXT
  5
8335
330
832D
100
AcDbEntity
  8
3
 62
     0
100
AcDbMText
 10
5042.47352743828
 20
1786.426305100244
 30
0.0
 40
90.0
 41
0.0
 71
     5
 72
     1
  1
\A1;678
 73
     1
 44
1.0
1001
ACAD
1000
MTEXTBEGIN
1070
    73
1070
     1
1070
    44
1040
1.0
1070
    74
1070
     0
1000
MTEXTEND
  0
POINT
  5
8336
330
832D
100
AcDbEntity
  8
DEFPOINTS
 62
     0
100
AcDbPoint
 10
4703.473527438279
 20
1914.169466167079
 30
0.0
  0
POINT
  5
8337
330
832D
100
AcDbEntity
  8
DEFPOINTS
 62
     0
100
AcDbPoint
 10
5381.473527438281
 20
1914.169466167079
 30
0.0
  0
POINT
  5
8338
330
832D
100
AcDbEntity
  8
DEFPOINTS
 62
     0
100
AcDbPoint
 10
5381.473527438281
 20
1711.426305100244
 30
0.0
  0
ENDBLK
  5
832F
330
832D
100
AcDbEntity
  8
0
100
AcDbBlockEnd
  0
BLOCK
  5
833B
330
833A
100
AcDbEntity
  8
0
100
AcDbBlockBegin
  2
*D44
 70
     1
 10
0.0
 20
0.0
 30
0.0
  3
*D44
  1

  0
LINE
  5
8346
330
833A
100
AcDbEntity
  8
3
 62
     0
370
    -2
100
AcDbLine
 10
2267.691023858451
 20
3763.82600011631
 30
0.0
 11
2267.691023858451
 21
4126.131608620377
 31
0.0
  0
LINE
  5
8347
330
833A
100
AcDbEntity
  8
3
 62
     0
370
    -2
100
AcDbLine
 10
2987.691023858453
 20
2970.169466167082
 30
0.0
 11
2987.691023858453
 21
4126.131608620377
 31
0.0
  0
LINE
  5
8348
330
833A
100
AcDbEntity
  8
3
 62
     0
370
    -2
100
AcDbLine
 10
2327.691023858451
 20
4096.131608620377
 30
0.0
 11
2927.691023858452
 21
4096.131608620377
 31
0.0
  0
INSERT
  5
8349
330
833A
100
AcDbEntity
  8
3
 62
     0
370
    -2
100
AcDbBlockReference
  2
_OPEN
 10
2267.691023858451
 20
4096.131608620377
 30
0.0
 41
60.0
 42
60.0
 43
60.0
 50
180.0
  0
INSERT
  5
834A
330
833A
100
AcDbEntity
  8
3
 62
     0
370
    -2
100
AcDbBlockReference
  2
_OPEN
 10
2987.691023858453
 20
4096.131608620377
 30
0.0
 41
60.0
 42
60.0
 43
60.0
  0
MTEXT
  5
834B
330
833A
100
AcDbEntity
  8
3
 62
     0
100
AcDbMText
 10
2627.691023858452
 20
4171.131608620377
 30
0.0
 40
90.0
 41
0.0
 71
     5
 72
     1
  1
\A1;720
 73
     1
 44
1.0
1001
ACAD
1000
MTEXTBEGIN
1070
    73
1070
     1
1070
    44
1040
1.0
1070
    74
1070
     0
1000
MTEXTEND
  0
POINT
  5
834C
330
833A
100
AcDbEntity
  8
DEFPOINTS
 62
     0
100
AcDbPoint
 10
2267.691023858451
 20
3733.826000116309
 30
0.0
  0
POINT
  5
834D
330
833A
100
AcDbEntity
  8
DEFPOINTS
 62
     0
100
AcDbPoint
 10
2987.691023858453
 20
2940.169466167081
 30
0.0
  0
POINT
  5
834E
330
833A
100
AcDbEntity
  8
DEFPOINTS
 62
     0
100
AcDbPoint
 10
2987.691023858453
 20
4096.131608620377
 30
0.0
  0
ENDBLK
  5
833C
330
833A
100
AcDbEntity
  8
0
100
AcDbBlockEnd
  0
BLOCK
  5
8351
330
8350
100
AcDbEntity
  8
0
100
AcDbBlockBegin
  2
*D45
 70
     1
 10
0.0
 20
0.0
 30
0.0
  3
*D45
  1

  0
LINE
  5
8353
330
8350
100
AcDbEntity
  8
3
 62
     0
370
    -2
100
AcDbLine
 10
842.6910238584525
 20
1884.169466167078
 30
0.0
 11
842.6910238584525
 21
1681.426305100245
 31
0.0
  0
LINE
  5
8354
330
8350
100
AcDbEntity
  8
3
 62
     0
370
    -2
100
AcDbLine
 10
2267.691023858451
 20
1883.97231639266
 30
0.0
 11
2267.691023858451
 21
1681.426305100245
 31
0.0
  0
LINE
  5
8355
330
8350
100
AcDbEntity
  8
3
 62
     0
370
    -2
100
AcDbLine
 10
902.6910238584525
 20
1711.426305100244
 30
0.0
 11
2207.691023858451
 21
1711.426305100244
 31
0.0
  0
INSERT
  5
8356
330
8350
100
AcDbEntity
  8
3
 62
     0
370
    -2
100
AcDbBlockReference
  2
_OPEN
 10
842.6910238584525
 20
1711.426305100244
 30
0.0
 41
60.0
 42
60.0
 43
60.0
 50
180.0
  0
INSERT
  5
8357
330
8350
100
AcDbEntity
  8
3
 62
     0
370
    -2
100
AcDbBlockReference
  2
_OPEN
 10
2267.691023858451
 20
1711.426305100244
 30
0.0
 41
60.0
 42
60.0
 43
60.0
  0
MTEXT
  5
8358
330
8350
100
AcDbEntity
  8
3
 62
     0
100
AcDbMText
 10
1555.191023858452
 20
1786.426305100244
 30
0.0
 40
90.0
 41
0.0
 71
     5
 72
     1
  1
\A1;1425
 73
     1
 44
1.0
1001
ACAD
1000
MTEXTBEGIN
1070
    73
1070
     1
1070
    44
1040
1.0
1070
    74
1070
     0
1000
MTEXTEND
  0
POINT
  5
8359
330
8350
100
AcDbEntity
  8
DEFPOINTS
 62
     0
100
AcDbPoint
 10
842.6910238584525
 20
1914.169466167078
 30
0.0
  0
POINT
  5
835A
330
8350
100
AcDbEntity
  8
DEFPOINTS
 62
     0
100
AcDbPoint
 10
2267.691023858451
 20
1913.97231639266
 30
0.0
  0
POINT
  5
835B
330
8350
100
AcDbEntity
  8
DEFPOINTS
 62
     0
100
AcDbPoint
 10
2267.691023858451
 20
1711.426305100244
 30
0.0
  0
ENDBLK
  5
8352
330
8350
100
AcDbEntity
  8
0
100
AcDbBlockEnd
  0
BLOCK
  5
835E
330
835D
100
AcDbEntity
  8
0
100
AcDbBlockBegin
  2
*D46
 70
     1
 10
0.0
 20
0.0
 30
0.0
  3
*D46
  1

  0
LINE
  5
8360
330
835D
100
AcDbEntity
  8
3
 62
     0
370
    -2
100
AcDbLine
 10
2267.691023858451
 20
1883.97231639266
 30
0.0
 11
2267.691023858451
 21
1681.426305100245
 31
0.0
  0
LINE
  5
8361
330
835D
100
AcDbEntity
  8
3
 62
     0
370
    -2
100
AcDbLine
 10
2892.691023858453
 20
1884.169466167078
 30
0.0
 11
2892.691023858453
 21
1681.426305100245
 31
0.0
  0
LINE
  5
8362
330
835D
100
AcDbEntity
  8
3
 62
     0
370
    -2
100
AcDbLine
 10
2327.691023858451
 20
1711.426305100244
 30
0.0
 11
2832.691023858453
 21
1711.426305100244
 31
0.0
  0
INSERT
  5
8363
330
835D
100
AcDbEntity
  8
3
 62
     0
370
    -2
100
AcDbBlockReference
  2
_OPEN
 10
2267.691023858451
 20
1711.426305100244
 30
0.0
 41
60.0
 42
60.0
 43
60.0
 50
180.0
  0
INSERT
  5
8364
330
835D
100
AcDbEntity
  8
3
 62
     0
370
    -2
100
AcDbBlockReference
  2
_OPEN
 10
2892.691023858453
 20
1711.426305100244
 30
0.0
 41
60.0
 42
60.0
 43
60.0
  0
MTEXT
  5
8365
330
835D
100
AcDbEntity
  8
3
 62
     0
100
AcDbMText
 10
2580.191023858452
 20
1786.426305100244
 30
0.0
 40
90.0
 41
0.0
 71
     5
 72
     1
  1
\A1;625
 73
     1
 44
1.0
1001
ACAD
1000
MTEXTBEGIN
1070
    73
1070
     1
1070
    44
1040
1.0
1070
    74
1070
     0
1000
MTEXTEND
  0
POINT
  5
8366
330
835D
100
AcDbEntity
  8
DEFPOINTS
 62
     0
100
AcDbPoint
 10
2267.691023858451
 20
1913.97231639266
 30
0.0
  0
POINT
  5
8367
330
835D
100
AcDbEntity
  8
DEFPOINTS
 62
     0
100
AcDbPoint
 10
2892.691023858453
 20
1914.169466167078
 30
0.0
  0
POINT
  5
8368
330
835D
100
AcDbEntity
  8
DEFPOINTS
 62
     0
100
AcDbPoint
 10
2892.691023858453
 20
1711.426305100244
 30
0.0
  0
ENDBLK
  5
835F
330
835D
100
AcDbEntity
  8
0
100
AcDbBlockEnd
  0
BLOCK
  5
836B
330
836A
100
AcDbEntity
  8
0
100
AcDbBlockBegin
  2
*D47
 70
     1
 10
0.0
 20
0.0
 30
0.0
  3
*D47
  1

  0
LINE
  5
84AC
330
836A
100
AcDbEntity
  8
3
 62
     0
370
    -2
100
AcDbLine
 10
3037.30700635608
 20
3014.169466167079
 30
0.0
 11
3284.384892531744
 21
3014.169466167079
 31
0.0
  0
LINE
  5
84AD
330
836A
100
AcDbEntity
  8
3
 62
     0
370
    -2
100
AcDbLine
 10
2922.691023858453
 20
2119.169466167079
 30
0.0
 11
3284.384892531744
 21
2119.169466167079
 31
0.0
  0
LINE
  5
84AE
330
836A
100
AcDbEntity
  8
3
 62
     0
370
    -2
100
AcDbLine
 10
3254.384892531744
 20
2954.169466167078
 30
0.0
 11
3254.384892531744
 21
2179.169466167079
 31
0.0
  0
INSERT
  5
84AF
330
836A
100
AcDbEntity
  8
3
 62
     0
370
    -2
100
AcDbBlockReference
  2
_OPEN
 10
3254.384892531744
 20
3014.169466167079
 30
0.0
 41
60.0
 42
60.0
 43
60.0
 50
90.0
  0
INSERT
  5
84B0
330
836A
100
AcDbEntity
  8
3
 62
     0
370
    -2
100
AcDbBlockReference
  2
_OPEN
 10
3254.384892531744
 20
2119.169466167079
 30
0.0
 41
60.0
 42
60.0
 43
60.0
 50
270.0
  0
MTEXT
  5
84B1
330
836A
100
AcDbEntity
  8
3
 62
     0
100
AcDbMText
 10
3179.384892531743
 20
2566.66946616708
 30
0.0
 40
90.0
 41
0.0
 71
     5
 72
     1
  1
\A1;895
 11
0.0000000000000001
 21
1.0
 31
0.0
 73
     1
 44
1.0
1001
ACAD
1000
MTEXTBEGIN
1070
    73
1070
     1
1070
    44
1040
1.0
1070
    74
1070
     0
1000
MTEXTEND
  0
POINT
  5
84B2
330
836A
100
AcDbEntity
  8
DEFPOINTS
 62
     0
100
AcDbPoint
 10
3007.30700635608
 20
3014.169466167079
 30
0.0
  0
POINT
  5
84B3
330
836A
100
AcDbEntity
  8
DEFPOINTS
 62
     0
100
AcDbPoint
 10
2892.691023858453
 20
2119.169466167079
 30
0.0
  0
POINT
  5
84B4
330
836A
100
AcDbEntity
  8
DEFPOINTS
 62
     0
100
AcDbPoint
 10
3254.384892531744
 20
2119.169466167079
 30
0.0
  0
ENDBLK
  5
836C
330
836A
100
AcDbEntity
  8
0
100
AcDbBlockEnd
  0
BLOCK
  5
8378
330
8377
100
AcDbEntity
  8
0
100
AcDbBlockBegin
  2
*D48
 70
     1
 10
0.0
 20
0.0
 30
0.0
  3
*D48
  1

  0
LINE
  5
84D9
330
8377
100
AcDbEntity
  8
3
 62
     0
370
    -2
100
AcDbLine
 10
2922.691023858453
 20
2119.169466167079
 30
0.0
 11
3284.384892531744
 21
2119.169466167079
 31
0.0
  0
LINE
  5
84DA
330
8377
100
AcDbEntity
  8
3
 62
     0
370
    -2
100
AcDbLine
 10
2922.691023858453
 20
2014.169466167079
 30
0.0
 11
3284.384892531744
 21
2014.169466167079
 31
0.0
  0
LINE
  5
84DB
330
8377
100
AcDbEntity
  8
3
 62
     0
370
    -2
100
AcDbLine
 10
3254.384892531744
 20
2179.169466167079
 30
0.0
 11
3254.384892531744
 21
2239.169466167079
 31
0.0
  0
LINE
  5
84DC
330
8377
100
AcDbEntity
  8
3
 62
     0
370
    -2
100
AcDbLine
 10
3254.384892531744
 20
2014.169466167079
 30
0.0
 11
3254.384892531744
 21
1954.169466167079
 31
0.0
  0
LINE
  5
84DD
330
8377
100
AcDbEntity
  8
3
 62
     0
370
    -2
100
AcDbLine
 10
3254.384892531744
 20
2066.669466167079
 30
0.0
 11
3469.129562049828
 21
2113.717359930527
 31
0.0
  0
LINE
  5
84DE
330
8377
100
AcDbEntity
  8
3
 62
     0
370
    -2
100
AcDbLine
 10
3469.129562049828
 20
2113.717359930527
 30
0.0
 11
3469.129562049828
 21
2503.717359930527
 31
0.0
  0
MTEXT
  5
84DF
330
8377
100
AcDbEntity
  8
3
 62
     0
100
AcDbMText
 10
3370.558133478399
 20
2308.717359930528
 30
0.0
 40
90.0
 41
0.0
 71
     5
 72
     1
  1
\A1;(105)
 11
0.0000000000000001
 21
1.0
 31
0.0
 73
     1
 44
1.0
1001
ACAD
1000
MTEXTBEGIN
1070
    73
1070
     1
1070
    44
1040
1.0
1070
    74
1070
     0
1000
MTEXTEND
  0
LINE
  5
84E0
330
8377
100
AcDbEntity
  8
3
 62
     0
370
    -2
100
AcDbLine
 10
3254.384892531744
 20
2119.169466167079
 30
0.0
 11
3254.384892531744
 21
2014.169466167079
 31
0.0
  0
LINE
  5
84E1
330
8377
100
AcDbEntity
  8
3
 62
     0
370
    -2
100
AcDbLine
 10
3254.384892531744
 20
2119.169466167079
 30
0.0
 11
3254.384892531744
 21
2014.169466167079
 31
0.0
  0
INSERT
  5
84E2
330
8377
100
AcDbEntity
  8
3
 62
     0
370
    -2
100
AcDbBlockReference
  2
_OPEN
 10
3254.384892531744
 20
2119.169466167079
 30
0.0
 41
60.0
 42
60.0
 43
60.0
 50
270.0
  0
INSERT
  5
84E3
330
8377
100
AcDbEntity
  8
3
 62
     0
370
    -2
100
AcDbBlockReference
  2
_DotSmall
 10
3254.384892531744
 20
2014.169466167079
 30
0.0
 41
60.0
 42
60.0
 43
60.0
 50
90.0
  0
POINT
  5
84E4
330
8377
100
AcDbEntity
  8
DEFPOINTS
 62
     0
100
AcDbPoint
 10
2892.691023858453
 20
2119.169466167079
 30
0.0
  0
POINT
  5
84E5
330
8377
100
AcDbEntity
  8
DEFPOINTS
 62
     0
100
AcDbPoint
 10
2892.691023858453
 20
2014.169466167079
 30
0.0
  0
POINT
  5
84E6
330
8377
100
AcDbEntity
  8
DEFPOINTS
 62
     0
100
AcDbPoint
 10
3254.384892531744
 20
2014.169466167079
 30
0.0
  0
ENDBLK
  5
8379
330
8377
100
AcDbEntity
  8
0
100
AcDbBlockEnd
  0
BLOCK
  5
838A
330
8389
100
AcDbEntity
  8
0
100
AcDbBlockBegin
  2
*D49
 70
     1
 10
0.0
 20
0.0
 30
0.0
  3
*D49
  1

  0
LINE
  5
84CE
330
8389
100
AcDbEntity
  8
3
 62
     0
370
    -2
100
AcDbLine
 10
2922.691023858453
 20
2014.169466167079
 30
0.0
 11
3284.384892531744
 21
2014.169466167079
 31
0.0
  0
LINE
  5
84CF
330
8389
100
AcDbEntity
  8
3
 62
     0
370
    -2
100
AcDbLine
 10
2922.691023858453
 20
1914.169466167078
 30
0.0
 11
3284.384892531744
 21
1914.169466167078
 31
0.0
  0
LINE
  5
84D0
330
8389
100
AcDbEntity
  8
3
 62
     0
370
    -2
100
AcDbLine
 10
3254.384892531744
 20
2014.169466167079
 30
0.0
 11
3254.384892531744
 21
2074.169466167079
 31
0.0
  0
LINE
  5
84D1
330
8389
100
AcDbEntity
  8
3
 62
     0
370
    -2
100
AcDbLine
 10
3254.384892531744
 20
1854.169466167078
 30
0.0
 11
3254.384892531744
 21
1794.169466167078
 31
0.0
  0
MTEXT
  5
84D2
330
8389
100
AcDbEntity
  8
3
 62
     0
100
AcDbMText
 10
3181.283348496109
 20
1776.679817616452
 30
0.0
 40
90.0
 41
0.0
 71
     5
 72
     1
  1
\A1;100
 11
0.0000000000000001
 21
1.0
 31
0.0
 73
     1
 44
1.0
1001
ACAD
1000
MTEXTBEGIN
1070
    73
1070
     1
1070
    44
1040
1.0
1070
    74
1070
     0
1000
MTEXTEND
  0
LINE
  5
84D3
330
8389
100
AcDbEntity
  8
3
 62
     0
370
    -2
100
AcDbLine
 10
3254.384892531744
 20
2014.169466167079
 30
0.0
 11
3254.384892531744
 21
1914.169466167078
 31
0.0
  0
INSERT
  5
84D4
330
8389
100
AcDbEntity
  8
3
 62
     0
370
    -2
100
AcDbBlockReference
  2
_DotSmall
 10
3254.384892531744
 20
2014.169466167079
 30
0.0
 41
60.0
 42
60.0
 43
60.0
 50
270.0
  0
INSERT
  5
84D5
330
8389
100
AcDbEntity
  8
3
 62
     0
370
    -2
100
AcDbBlockReference
  2
_OPEN
 10
3254.384892531744
 20
1914.169466167078
 30
0.0
 41
60.0
 42
60.0
 43
60.0
 50
90.0
  0
POINT
  5
84D6
330
8389
100
AcDbEntity
  8
DEFPOINTS
 62
     0
100
AcDbPoint
 10
2892.691023858453
 20
2014.169466167079
 30
0.0
  0
POINT
  5
84D7
330
8389
100
AcDbEntity
  8
DEFPOINTS
 62
     0
100
AcDbPoint
 10
2892.691023858453
 20
1914.169466167078
 30
0.0
  0
POINT
  5
84D8
330
8389
100
AcDbEntity
  8
DEFPOINTS
 62
     0
100
AcDbPoint
 10
3254.384892531744
 20
1914.169466167078
 30
0.0
  0
ENDBLK
  5
838B
330
8389
100
AcDbEntity
  8
0
100
AcDbBlockEnd
  0
BLOCK
  5
8443
330
8441
100
AcDbEntity
  8
0
100
AcDbBlockBegin
  2
_DotSmall
 70
     0
 10
0.0
 20
0.0
 30
0.0
  3
_DotSmall
  1

  0
LWPOLYLINE
  5
8442
330
8441
100
AcDbEntity
  8
0
  6
ByBlock
 62
     0
100
AcDbPolyline
 90
        2
 70
     1
 43
0.5
 10
-0.0625
 20
0.0
 42
1.0
 10
0.0625
 20
0.0
 42
1.0
  0
ENDBLK
  5
8444
330
8441
100
AcDbEntity
  8
0
100
AcDbBlockEnd
  0
BLOCK
  5
84E9
330
84E8
100
AcDbEntity
  8
0
100
AcDbBlockBegin
  2
*D51
 70
     1
 10
0.0
 20
0.0
 30
0.0
  3
*D51
  1

  0
LINE
  5
84FD
330
84E8
100
AcDbEntity
  8
3
 62
     0
370
    -2
100
AcDbLine
 10
2922.691023858453
 20
1914.169466167078
 30
0.0
 11
3563.475166812445
 21
1914.169466167078
 31
0.0
  0
LINE
  5
84FE
330
84E8
100
AcDbEntity
  8
3
 62
     0
370
    -2
100
AcDbLine
 10
2306.691023858452
 20
3694.169466167082
 30
0.0
 11
3563.475166812445
 21
3694.169466167081
 31
0.0
  0
LINE
  5
84FF
330
84E8
100
AcDbEntity
  8
3
 62
     0
370
    -2
100
AcDbLine
 10
3533.475166812444
 20
1974.169466167078
 30
0.0
 11
3533.475166812445
 21
3634.169466167081
 31
0.0
  0
INSERT
  5
8500
330
84E8
100
AcDbEntity
  8
3
 62
     0
370
    -2
100
AcDbBlockReference
  2
_OPEN
 10
3533.475166812444
 20
1914.169466167078
 30
0.0
 41
60.0
 42
60.0
 43
60.0
 50
270.0
  0
INSERT
  5
8501
330
84E8
100
AcDbEntity
  8
3
 62
     0
370
    -2
100
AcDbBlockReference
  2
_OPEN
 10
3533.475166812445
 20
3694.169466167081
 30
0.0
 41
60.0
 42
60.0
 43
60.0
 50
90.0
  0
MTEXT
  5
8502
330
84E8
100
AcDbEntity
  8
3
 62
     0
100
AcDbMText
 10
3434.903738241015
 20
2804.16946616708
 30
0.0
 40
90.0
 41
0.0
 71
     5
 72
     1
  1
\A1;(1780)
 11
0.0000000000000001
 21
1.0
 31
0.0
 73
     1
 44
1.0
1001
ACAD
1000
MTEXTBEGIN
1070
    73
1070
     1
1070
    44
1040
1.0
1070
    74
1070
     0
1000
MTEXTEND
  0
POINT
  5
8503
330
84E8
100
AcDbEntity
  8
DEFPOINTS
 62
     0
100
AcDbPoint
 10
2892.691023858453
 20
1914.169466167078
 30
0.0
  0
POINT
  5
8504
330
84E8
100
AcDbEntity
  8
DEFPOINTS
 62
     0
100
AcDbPoint
 10
2276.691023858453
 20
3694.169466167082
 30
0.0
  0
POINT
  5
8505
330
84E8
100
AcDbEntity
  8
DEFPOINTS
 62
     0
100
AcDbPoint
 10
3533.475166812445
 20
3694.169466167081
 30
0.0
  0
ENDBLK
  5
84EA
330
84E8
100
AcDbEntity
  8
0
100
AcDbBlockEnd
  0
ENDSEC
  0
SECTION
  2
ENTITIES
  0
INSERT
  5
7C24
330
8215
100
AcDbEntity
  8
0
100
AcDbBlockReference
  2
YA_N
 10
6.0
 20
5.0
 30
0.0
  0
ARC
  5
7C26
330
8215
100
AcDbEntity
  8
1
100
AcDbCircle
 10
2193.691023858451
 20
3088.169466167081
 30
0.0
 40
942.0
100
AcDbArc
 50
184.5055845266444
 51
247.3262204656537
  0
ARC
  5
7C27
330
8215
100
AcDbEntity
  8
1
100
AcDbCircle
 10
2193.691023858452
 20
2940.169466167081
 30
0.0
 40
794.0
100
AcDbArc
 50
294.7273299114463
 51
5.347669749838726
  0
ARC
  5
7C28
330
8215
100
AcDbEntity
  8
1
100
AcDbCircle
 10
2328.191023858452
 20
2953.669466167081
 30
0.0
 40
659.4999999999998
100
AcDbArc
 50
5.263495203066978
 51
95.26349520306693
  0
LINE
  5
7C29
330
8215
100
AcDbEntity
  8
1
100
AcDbLine
 10
2223.691023858453
 20
3611.551253636366
 30
0.0
 11
2223.691023858451
 21
3694.169466167082
 31
0.0
  0
LINE
  5
7C2A
330
8215
100
AcDbEntity
  8
1
100
AcDbLine
 10
1140.691023858451
 20
3694.169466167082
 30
0.0
 11
2276.691023858453
 21
3694.169466167082
 31
0.0
  0
LINE
  5
7C2B
330
8215
100
AcDbEntity
  8
1
100
AcDbLine
 10
1193.691023858452
 20
3694.169466167082
 30
0.0
 11
1254.602103681028
 21
3014.169466167081
 31
0.0
  0
LINE
  5
7C2C
330
8215
100
AcDbEntity
  8
1
100
AcDbLine
 10
1140.691023858451
 20
3690.16946616708
 30
0.0
 11
1140.691023858451
 21
3694.169466167082
 31
0.0
  0
LINE
  5
7C2D
330
8215
100
AcDbEntity
  8
1
100
AcDbLine
 10
2276.691023858453
 20
3690.169466167083
 30
0.0
 11
2276.691023858453
 21
3694.169466167082
 31
0.0
  0
LINE
  5
7C2E
330
8215
100
AcDbEntity
  8
1
100
AcDbLine
 10
1198.169779727759
 20
3644.169466167082
 30
0.0
 11
2223.691023858453
 21
3644.169466167082
 31
0.0
  0
LINE
  5
7C2F
330
8215
100
AcDbEntity
  8
1
100
AcDbLine
 10
1140.691023858451
 20
3690.169466167079
 30
0.0
 11
2276.691023858453
 21
3690.169466167083
 31
0.0
  0
LINE
  5
7C30
330
8215
100
AcDbEntity
  8
1
100
AcDbLine
 10
842.6910238584525
 20
2219.169466167077
 30
0.0
 11
2892.691023858453
 21
2219.169466167079
 31
0.0
  0
LINE
  5
7C31
330
8215
100
AcDbEntity
  8
1
100
AcDbLine
 10
2892.691023858453
 20
2219.169466167079
 30
0.0
 11
2892.691023858453
 21
2119.169466167079
 31
0.0
  0
LINE
  5
7C32
330
8215
100
AcDbEntity
  8
2
100
AcDbLine
 10
3618.473527438278
 20
3014.16946616708
 30
0.0
 11
5509.550158987583
 21
3014.16946616708
 31
0.0
  0
LINE
  5
7C33
330
8215
100
AcDbEntity
  8
2
100
AcDbLine
 10
4703.47352743828
 20
3925.218337515751
 30
0.0
 11
4703.473527438279
 21
1914.169466167079
 31
0.0
  0
LINE
  5
7C34
330
8215
100
AcDbEntity
  8
1
100
AcDbLine
 10
3876.473527438279
 20
2119.169466167079
 30
0.0
 11
5381.473527438281
 21
2119.169466167079
 31
0.0
1001
ACAD
1000
ASC_BOUNDS
1002
{
1070
    19
1005
0
1005
0
1002
}
  0
LINE
  5
7C35
330
8215
100
AcDbEntity
  8
1
100
AcDbLine
 10
3876.47352743828
 20
2219.169466167079
 30
0.0
 11
5381.473527438281
 21
2219.169466167079
 31
0.0
  0
LINE
  5
7C36
330
8215
100
AcDbEntity
  8
1
100
AcDbLine
 10
5328.473527438281
 20
3694.16946616708
 30
0.0
 11
5328.473527438282
 21
3014.16946616708
 31
0.0
  0
LINE
  5
7C37
330
8215
100
AcDbEntity
  8
2
100
AcDbLine
 10
2267.691023858451
 20
3733.826000116309
 30
0.0
 11
2267.691023858451
 21
1913.97231639266
 31
0.0
  0
LINE
  5
7C38
330
8215
100
AcDbEntity
  8
2
100
AcDbLine
 10
3007.30700635608
 20
3014.169466167079
 30
0.0
 11
1194.515253351841
 21
3014.16946616708
 31
0.0
  0
LINE
  5
7C39
330
8215
100
AcDbEntity
  8
1
100
AcDbLine
 10
842.6910238584525
 20
2119.169466167079
 30
0.0
 11
2892.691023858453
 21
2119.169466167079
 31
0.0
1001
ACAD
1000
ASC_BOUNDS
1002
{
1070
    19
1005
0
1002
}
  0
INSERT
  5
7C3A
330
8215
100
AcDbEntity
  8
0
100
AcDbBlockReference
  2
YA_N
 10
-1637.209838160516
 20
-1405.432827243363
 30
0.0
 41
25.0
 42
25.0
 43
25.0
  0
ARC
  5
7C3C
330
8215
100
AcDbEntity
  8
1
100
AcDbCircle
 10
1117.691023858451
 20
2454.169466167078
 30
0.0
 40
185.0
100
AcDbArc
 50
287.9452509999999
 51
252.054749
  0
LINE
  5
7C3D
330
8215
100
AcDbEntity
  8
2
100
AcDbLine
 10
1117.691023858451
 20
2717.985140167078
 30
0.0
 11
1117.691023858451
 21
1914.169466167078
 31
0.0
  0
LINE
  5
7C3E
330
8215
100
AcDbEntity
  8
1
100
AcDbLine
 10
1174.691038858452
 20
2278.169466167078
 30
0.0
 11
1060.691023858451
 21
2278.169466167078
 31
0.0
  0
LINE
  5
7C3F
330
8215
100
AcDbEntity
  8
1
100
AcDbLine
 10
1279.691038858453
 20
2349.428499167077
 30
0.0
 11
1279.691038858453
 21
2274.169466167078
 31
0.0
  0
LINE
  5
7C43
330
8215
100
AcDbEntity
  8
1
100
AcDbLine
 10
1220.191038858452
 20
2279.318025167078
 30
0.0
 11
1210.684324858452
 21
2294.240633167078
 31
0.0
  0
LINE
  5
7C44
330
8215
100
AcDbEntity
  8
1
100
AcDbLine
 10
1220.191038858452
 20
2291.169466167078
 30
0.0
 11
1220.191038858452
 21
2274.169466167078
 31
0.0
  0
LINE
  5
7C46
330
8215
100
AcDbEntity
  8
1
100
AcDbLine
 10
1276.691038858451
 20
2294.169466167078
 30
0.0
 11
1223.191038858453
 21
2294.169466167078
 31
0.0
  0
ARC
  5
7C48
330
8215
100
AcDbEntity
  8
1
100
AcDbCircle
 10
1276.691038858451
 20
2291.169466167078
 30
0.0
 40
3.0
100
AcDbArc
 50
0.0
 51
90.0
  0
LINE
  5
7C4A
330
8215
100
AcDbEntity
  8
1
100
AcDbLine
 10
1228.514952858451
 20
2294.169466167078
 30
0.0
 11
1223.335203858451
 21
2302.300066167077
 31
0.0
  0
ARC
  5
7C4B
330
8215
100
AcDbEntity
  8
1
100
AcDbCircle
 10
1223.191038858453
 20
2291.169466167078
 30
0.0
 40
3.0
100
AcDbArc
 50
90.0
 51
180.0
  0
LINE
  5
7C4E
330
8215
100
AcDbEntity
  8
1
100
AcDbLine
 10
1279.691038858453
 20
2349.428499167077
 30
0.0
 11
1273.307066858451
 21
2354.126253167078
 31
0.0
  0
LINE
  5
7C51
330
8215
100
AcDbEntity
  8
1
100
AcDbLine
 10
955.6910238584519
 20
2349.428499167077
 30
0.0
 11
955.6910238584519
 21
2274.169466167078
 31
0.0
  0
LINE
  5
7C52
330
8215
100
AcDbEntity
  8
1
100
AcDbLine
 10
958.691023858452
 20
2294.169466167078
 30
0.0
 11
1012.191023858451
 21
2294.169466167078
 31
0.0
  0
LINE
  5
7C53
330
8215
100
AcDbEntity
  8
1
100
AcDbLine
 10
1015.191023858451
 20
2279.318025167078
 30
0.0
 11
1024.697737858451
 21
2294.240633167078
 31
0.0
  0
LINE
  5
7C56
330
8215
100
AcDbEntity
  8
1
100
AcDbLine
 10
1015.191023858451
 20
2274.169466167078
 30
0.0
 11
1015.191023858451
 21
2291.169466167078
 31
0.0
  0
LINE
  5
7C59
330
8215
100
AcDbEntity
  8
1
100
AcDbLine
 10
1006.867109858451
 20
2294.169466167078
 30
0.0
 11
1012.046858858451
 21
2302.300066167077
 31
0.0
  0
ARC
  5
7C5A
330
8215
100
AcDbEntity
  8
1
100
AcDbCircle
 10
1012.191023858451
 20
2291.169466167078
 30
0.0
 40
3.0
100
AcDbArc
 50
0.0
 51
90.0
  0
ARC
  5
7C5D
330
8215
100
AcDbEntity
  8
1
100
AcDbCircle
 10
958.691023858452
 20
2291.169466167078
 30
0.0
 40
3.0
100
AcDbArc
 50
90.0
 51
180.0
  0
LINE
  5
7C5E
330
8215
100
AcDbEntity
  8
1
100
AcDbLine
 10
955.6910238584519
 20
2349.428499167077
 30
0.0
 11
962.0749958584525
 21
2354.126253167078
 31
0.0
  0
LINE
  5
7C5F
330
8215
100
AcDbEntity
  8
2
100
AcDbLine
 10
867.2646097329083
 20
2454.169466167078
 30
0.0
 11
1333.770556504408
 21
2454.169466167078
 31
0.0
  0
LINE
  5
7C60
330
8215
100
AcDbEntity
  8
1
100
AcDbLine
 10
907.2750108326868
 20
2274.169466167077
 30
0.0
 11
1047.691023858451
 21
2274.169466167077
 31
0.0
  0
LINE
  5
7C61
330
8215
100
AcDbEntity
  8
1
100
AcDbLine
 10
1342.691023858451
 20
2219.169466167077
 30
0.0
 11
1327.906275072117
 21
2274.169466167077
 31
0.0
  0
LINE
  5
7C62
330
8215
100
AcDbEntity
  8
1
100
AcDbLine
 10
892.6910238584518
 20
2219.169466167077
 30
0.0
 11
907.2750108326868
 21
2274.169466167077
 31
0.0
  0
LINE
  5
7C64
330
8215
100
AcDbEntity
  8
1
100
AcDbLine
 10
1047.691023858451
 20
2264.169466167077
 30
0.0
 11
1187.691023858451
 21
2264.169466167077
 31
0.0
  0
LINE
  5
7C65
330
8215
100
AcDbEntity
  8
1
100
AcDbLine
 10
1047.691023858451
 20
2274.169466167077
 30
0.0
 11
1047.691023858451
 21
2264.169466167077
 31
0.0
  0
LINE
  5
7C66
330
8215
100
AcDbEntity
  8
1
100
AcDbLine
 10
1187.691023858453
 20
2274.169466167077
 30
0.0
 11
1187.691023858453
 21
2264.169466167077
 31
0.0
  0
LINE
  5
7C67
330
8215
100
AcDbEntity
  8
1
100
AcDbLine
 10
1187.691023858451
 20
2274.169466167077
 30
0.0
 11
1327.906275072117
 21
2274.169466167077
 31
0.0
  0
CIRCLE
  5
7C6A
330
8215
100
AcDbEntity
  8
1
100
AcDbCircle
 10
2267.691023858451
 20
3014.169466167079
 30
0.0
 40
165.0999999999999
  0
CIRCLE
  5
7C6B
330
8215
100
AcDbEntity
  8
1
100
AcDbCircle
 10
1117.691023858451
 20
2454.169466167078
 30
0.0
 40
114.3
  0
LINE
  5
7C6C
330
8215
100
AcDbEntity
  8
1
100
AcDbLine
 10
842.6910238584525
 20
2014.169466167079
 30
0.0
 11
2892.691023858453
 21
2014.169466167079
 31
0.0
1001
ACAD
1000
ASC_BOUNDS
1002
{
1070
    19
1005
0
1002
}
  0
LINE
  5
7C6D
330
8215
100
AcDbEntity
  8
1
100
AcDbLine
 10
842.6910238584525
 20
1914.169466167078
 30
0.0
 11
2892.691023858453
 21
1914.169466167078
 31
0.0
  0
LINE
  5
7C6E
330
8215
100
AcDbEntity
  8
1
100
AcDbLine
 10
2892.691023858453
 20
2014.169466167079
 30
0.0
 11
2892.691023858453
 21
1914.169466167078
 31
0.0
  0
POINT
  5
7C6F
330
8215
100
AcDbEntity
  8
1
100
AcDbPoint
 10
2892.691023858453
 20
2013.972316392662
 30
0.0
  0
POINT
  5
7C70
330
8215
100
AcDbEntity
  8
1
100
AcDbPoint
 10
2892.691023858453
 20
2013.972316392662
 30
0.0
  0
LINE
  5
7C71
330
8215
100
AcDbEntity
  8
1
100
AcDbLine
 10
3876.473527438279
 20
2014.16946616708
 30
0.0
 11
5381.473527438281
 21
2014.16946616708
 31
0.0
1001
ACAD
1000
ASC_BOUNDS
1002
{
1070
    19
1005
0
1005
0
1002
}
  0
POINT
  5
7C72
330
8215
100
AcDbEntity
  8
1
100
AcDbPoint
 10
2892.691023858453
 20
2013.972316392662
 30
0.0
  0
POINT
  5
7C73
330
8215
100
AcDbEntity
  8
1
100
AcDbPoint
 10
2892.691023858453
 20
2013.972316392662
 30
0.0
  0
LINE
  5
7C74
330
8215
100
AcDbEntity
  8
1
100
AcDbLine
 10
4703.47352743828
 20
3694.16946616708
 30
0.0
 11
5368.473527438281
 21
3694.16946616708
 31
0.0
  0
INSERT
  5
7C75
330
8215
100
AcDbEntity
  8
0
100
AcDbBlockReference
  2
YA_N
 10
-1144.893563079054
 20
-989.0222135336152
 30
0.0
 41
25.0
 42
25.0
 43
25.0
  0
DIMENSION
  5
7C77
330
8215
100
AcDbEntity
  8
3
100
AcDbDimension
  2
*D4
 10
2223.691023858451
 20
3895.329563161224
 30
0.0
 11
1708.691023858452
 21
3955.329563161224
 31
0.0
 12
780.0659088816137
 22
2386.109163331333
 32
0.0
 71
     5
 42
-1.0
  3
Standard
100
AcDbAlignedDimension
 13
1193.691023858452
 23
3694.169466167082
 33
0.0
 14
2223.691023858451
 24
3694.169466167082
 34
0.0
100
AcDbRotatedDimension
1001
ACAD
1000
DSTYLE
1002
{
1070
    40
1040
30.0
1002
}
  0
DIMENSION
  5
7C78
330
8215
100
AcDbEntity
  8
3
100
AcDbDimension
  2
*D5
 10
2267.691023858451
 20
4096.131608620377
 30
0.0
 11
1730.691023858452
 21
4156.131608620376
 31
0.0
 12
780.0659088816137
 22
2386.109163331333
 32
0.0
 71
     5
 42
-1.0
  3
Standard
100
AcDbAlignedDimension
 13
1193.691023858452
 23
3694.169466167082
 33
0.0
 14
2267.691023858451
 24
3753.785448664709
 34
0.0
100
AcDbRotatedDimension
1001
ACAD
1000
DSTYLE
1002
{
1070
    40
1040
30.0
1002
}
  0
POINT
  5
7C79
330
8215
100
AcDbEntity
  8
1
100
AcDbPoint
 10
2892.691023858453
 20
2013.972316392662
 30
0.0
  0
POINT
  5
7C7A
330
8215
100
AcDbEntity
  8
1
100
AcDbPoint
 10
2892.691023858453
 20
2013.972316392662
 30
0.0
  0
LINE
  5
7C7B
330
8215
100
AcDbEntity
  8
1
100
AcDbLine
 10
5328.473527438281
 20
3014.16946616708
 30
0.0
 11
5328.473527438281
 21
2219.169466167079
 31
0.0
  0
LINE
  5
7C7C
330
8215
100
AcDbEntity
  8
1
100
AcDbLine
 10
4078.473527438279
 20
3694.16946616708
 30
0.0
 11
4078.473527438279
 21
3014.16946616708
 31
0.0
  0
LINE
  5
7C7D
330
8215
100
AcDbEntity
  8
1
100
AcDbLine
 10
4703.47352743828
 20
3694.16946616708
 30
0.0
 11
4038.473527438279
 21
3694.16946616708
 31
0.0
  0
LINE
  5
7C7E
330
8215
100
AcDbEntity
  8
1
100
AcDbLine
 10
4078.473527438279
 20
3014.16946616708
 30
0.0
 11
4078.473527438279
 21
2219.169466167079
 31
0.0
  0
LINE
  5
7C7F
330
8215
100
AcDbEntity
  8
1
100
AcDbLine
 10
5483.47352743828
 20
2978.369466167081
 30
0.0
 11
5483.473527438281
 21
2848.36946616708
 31
0.0
  0
LINE
  5
7C80
330
8215
100
AcDbEntity
  8
1
100
AcDbLine
 10
5346.473527438281
 20
2988.36946616708
 30
0.0
 11
5346.473527438281
 21
2838.36946616708
 31
0.0
  0
LINE
  5
7C81
330
8215
100
AcDbEntity
  8
1
100
AcDbLine
 10
5346.473527438281
 20
2988.36946616708
 30
0.0
 11
5395.77352743828
 21
2988.36946616708
 31
0.0
  0
LINE
  5
7C82
330
8215
100
AcDbEntity
  8
1
100
AcDbLine
 10
5346.473527438281
 20
2838.36946616708
 30
0.0
 11
5395.77352743828
 21
2838.36946616708
 31
0.0
  0
ARC
  5
7C83
330
8215
100
AcDbEntity
  8
1
100
AcDbCircle
 10
5473.473527438282
 20
2978.369466167081
 30
0.0
 40
10.0
100
AcDbArc
 50
0.0000000000006514
 51
90.0
  0
ARC
  5
7C84
330
8215
100
AcDbEntity
  8
1
100
AcDbCircle
 10
5473.473527438282
 20
2848.36946616708
 30
0.0
 40
10.0
100
AcDbArc
 50
270.0
 51
0.0000000000006514
  0
LINE
  5
7C85
330
8215
100
AcDbEntity
  8
1
100
AcDbLine
 10
5395.77352743828
 20
2988.36946616708
 30
0.0
 11
5473.473527438279
 21
2988.36946616708
 31
0.0
  0
LINE
  5
7C86
330
8215
100
AcDbEntity
  8
1
100
AcDbLine
 10
5395.77352743828
 20
2838.36946616708
 30
0.0
 11
5473.473527438282
 21
2838.36946616708
 31
0.0
  0
LINE
  5
7C87
330
8215
100
AcDbEntity
  8
1
100
AcDbLine
 10
3780.47352743828
 20
3179.269466167079
 30
0.0
 11
3890.47352743828
 21
3179.269466167079
 31
0.0
  0
LINE
  5
7C88
330
8215
100
AcDbEntity
  8
1
100
AcDbLine
 10
3780.47352743828
 20
2849.06946616708
 30
0.0
 11
3890.47352743828
 21
2849.06946616708
 31
0.0
  0
LINE
  5
7C89
330
8215
100
AcDbEntity
  8
1
100
AcDbLine
 10
3780.47352743828
 20
2568.27231639266
 30
0.0
 11
3890.47352743828
 21
2568.27231639266
 31
0.0
  0
LINE
  5
7C8A
330
8215
100
AcDbEntity
  8
1
100
AcDbLine
 10
3780.473527438282
 20
2339.672316392659
 30
0.0
 11
3890.47352743828
 21
2339.672316392659
 31
0.0
  0
LINE
  5
7C8B
330
8215
100
AcDbEntity
  8
1
100
AcDbLine
 10
3780.47352743828
 20
3179.269466167079
 30
0.0
 11
3780.47352743828
 21
2339.672316392659
 31
0.0
  0
LINE
  5
7C8C
330
8215
100
AcDbEntity
  8
1
100
AcDbLine
 10
3890.473527438281
 20
3179.269466167079
 30
0.0
 11
3890.473527438279
 21
2339.672316392659
 31
0.0
  0
LINE
  5
7C8D
330
8215
100
AcDbEntity
  8
1
100
AcDbLine
 10
3643.473527438275
 20
3294.16946616708
 30
0.0
 11
3643.473527438288
 21
2233.972316392661
 31
0.0
  0
LINE
  5
7C8E
330
8215
100
AcDbEntity
  8
1
100
AcDbLine
 10
3643.473527438275
 20
3294.16946616708
 30
0.0
 11
3935.973527438274
 21
3294.16946616708
 31
0.0
  0
LINE
  5
7C8F
330
8215
100
AcDbEntity
  8
1
100
AcDbLine
 10
3643.473527438283
 20
2233.972316392661
 30
0.0
 11
3935.973527438283
 21
2233.972316392661
 31
0.0
  0
LINE
  5
7C90
330
8215
100
AcDbEntity
  8
1
100
AcDbLine
 10
3935.973527438274
 20
3294.169466167082
 30
0.0
 11
3935.973527438274
 21
3274.16946616708
 31
0.0
  0
LINE
  5
7C91
330
8215
100
AcDbEntity
  8
1
100
AcDbLine
 10
3935.973527438283
 20
2253.97231639266
 30
0.0
 11
3935.973527438283
 21
2233.972316392661
 31
0.0
  0
POINT
  5
7C92
330
8215
100
AcDbEntity
  8
1
100
AcDbPoint
 10
5483.473527438282
 20
2978.369466167081
 30
0.0
  0
LINE
  5
7C93
330
8215
100
AcDbEntity
  8
2
100
AcDbLine
 10
2267.691023858454
 20
6345.587621385174
 30
0.0
 11
2267.691023858454
 21
4657.599813814615
 31
0.0
  0
LINE
  5
7C94
330
8215
100
AcDbEntity
  8
2
100
AcDbLine
 10
1193.691023858452
 20
5751.672059535992
 30
0.0
 11
2746.616214241039
 21
5751.672059535991
 31
0.0
  0
INSERT
  5
7C95
330
8215
100
AcDbEntity
  8
0
100
AcDbBlockReference
  2
YA_N
 10
3439.312525519781
 20
-2261.498311600258
 30
0.0
  0
LINE
  5
7C97
330
8215
100
AcDbEntity
  8
1
100
AcDbLine
 10
3876.47352743828
 20
1914.169466167079
 30
0.0
 11
5381.473527438281
 21
1914.169466167079
 31
0.0
1001
ACAD
1000
ASC_BOUNDS
1002
{
1070
    19
1002
}
  0
LINE
  5
7C98
330
8215
100
AcDbEntity
  8
1
100
AcDbLine
 10
5381.473527438281
 20
2219.169466167079
 30
0.0
 11
5381.473527438281
 21
2119.169466167079
 31
0.0
  0
LINE
  5
7C99
330
8215
100
AcDbEntity
  8
1
100
AcDbLine
 10
3876.473527438279
 20
2219.169466167079
 30
0.0
 11
3876.473527438279
 21
2119.169466167079
 31
0.0
  0
LINE
  5
7C9A
330
8215
100
AcDbEntity
  8
1
100
AcDbLine
 10
4011.17352743828
 20
2981.96946616708
 30
0.0
 11
3945.473527438281
 21
2981.96946616708
 31
0.0
  0
LINE
  5
7C9B
330
8215
100
AcDbEntity
  8
1
100
AcDbLine
 10
4011.17352743828
 20
2831.96946616708
 30
0.0
 11
3945.473527438278
 21
2831.96946616708
 31
0.0
  0
LINE
  5
7C9C
330
8215
100
AcDbEntity
  8
1
100
AcDbLine
 10
4060.473527438277
 20
2981.96946616708
 30
0.0
 11
4060.47352743828
 21
2831.96946616708
 31
0.0
  0
LINE
  5
7C9D
330
8215
100
AcDbEntity
  8
1
100
AcDbLine
 10
4060.47352743828
 20
2831.96946616708
 30
0.0
 11
4011.17352743828
 21
2831.96946616708
 31
0.0
  0
LINE
  5
7C9E
330
8215
100
AcDbEntity
  8
1
100
AcDbLine
 10
4060.47352743828
 20
2981.969466167079
 30
0.0
 11
4011.17352743828
 21
2981.96946616708
 31
0.0
  0
LINE
  5
7C9F
330
8215
100
AcDbEntity
  8
1
100
AcDbLine
 10
3935.473527438281
 20
2971.96946616708
 30
0.0
 11
3935.473527438281
 21
2841.969466167081
 31
0.0
  0
ARC
  5
7CA0
330
8215
100
AcDbEntity
  8
1
100
AcDbCircle
 10
3945.473527438278
 20
2841.969466167081
 30
0.0
 40
10.0
100
AcDbArc
 50
179.9999999999992
 51
270.0
  0
ARC
  5
7CA1
330
8215
100
AcDbEntity
  8
1
100
AcDbCircle
 10
3945.473527438277
 20
2971.96946616708
 30
0.0
 40
10.0
100
AcDbArc
 50
90.0
 51
179.9999999999992
  0
POINT
  5
7CA2
330
8215
100
AcDbEntity
  8
1
100
AcDbPoint
 10
3935.473527438277
 20
2971.96946616708
 30
0.0
  0
LINE
  5
7CA3
330
8215
100
AcDbEntity
  8
1
100
AcDbLine
 10
3900.47352743828
 20
3046.669466167079
 30
0.0
 11
4078.473527438279
 21
3046.66946616708
 31
0.0
  0
LINE
  5
7CA4
330
8215
100
AcDbEntity
  8
1
100
AcDbLine
 10
3900.47352743828
 20
2981.66946616708
 30
0.0
 11
3943.042478282048
 21
2981.66946616708
 31
0.0
  0
LINE
  5
7CA5
330
8215
100
AcDbEntity
  8
1
100
AcDbLine
 10
3900.47352743828
 20
3046.669466167079
 30
0.0
 11
3900.47352743828
 21
2981.66946616708
 31
0.0
  0
LINE
  5
7CA6
330
8215
100
AcDbEntity
  8
1
100
AcDbLine
 10
3890.473527438281
 20
3044.16946616708
 30
0.0
 11
3900.473527438281
 21
3044.16946616708
 31
0.0
  0
LINE
  5
7CA7
330
8215
100
AcDbEntity
  8
1
100
AcDbLine
 10
3890.473527438281
 20
2984.16946616708
 30
0.0
 11
3900.473527438281
 21
2984.16946616708
 31
0.0
  0
LINE
  5
7CAB
330
8215
100
AcDbEntity
  8
1
100
AcDbLine
 10
842.6910238584525
 20
2219.169466167079
 30
0.0
 11
842.6910238584525
 21
2119.169466167079
 31
0.0
  0
LINE
  5
7CAC
330
8215
100
AcDbEntity
  8
1
100
AcDbLine
 10
842.6910238584525
 20
2014.169466167079
 30
0.0
 11
842.6910238584525
 21
1914.169466167078
 31
0.0
  0
POINT
  5
7CAD
330
8215
100
AcDbEntity
  8
1
100
AcDbPoint
 10
2892.691023858453
 20
2013.972316392662
 30
0.0
  0
POINT
  5
7CAE
330
8215
100
AcDbEntity
  8
1
100
AcDbPoint
 10
2892.691023858453
 20
2118.972316392661
 30
0.0
  0
POINT
  5
7CAF
330
8215
100
AcDbEntity
  8
1
100
AcDbPoint
 10
2892.691023858453
 20
2013.972316392662
 30
0.0
  0
LINE
  5
7CB3
330
8215
100
AcDbEntity
  8
1
100
AcDbLine
 10
842.6910238584531
 20
4924.672059535993
 30
0.0
 11
2892.691023858453
 21
4924.672059535991
 31
0.0
  0
LINE
  5
7CB4
330
8215
100
AcDbEntity
  8
1
100
AcDbLine
 10
1642.691023858453
 20
6429.672059535992
 30
0.0
 11
2892.691023858453
 21
6429.672059535992
 31
0.0
  0
LINE
  5
7CB5
330
8215
100
AcDbEntity
  8
1
100
AcDbLine
 10
2892.691023858453
 20
6429.672059535992
 30
0.0
 11
2892.691023858453
 21
6376.672059535991
 31
0.0
  0
LINE
  5
7CB6
330
8215
100
AcDbEntity
  8
1
100
AcDbLine
 10
842.6910238584531
 20
5774.672059535994
 30
0.0
 11
842.6910238584531
 21
4924.672059535993
 31
0.0
  0
LINE
  5
7CB7
330
8215
100
AcDbEntity
  8
1
100
AcDbLine
 10
1642.691023858453
 20
6429.672059535992
 30
0.0
 11
1642.691023858453
 21
6376.672059535992
 31
0.0
  0
LINE
  5
7CB8
330
8215
100
AcDbEntity
  8
1
100
AcDbLine
 10
842.6910238584531
 20
5774.672059535992
 30
0.0
 11
1193.691023858452
 21
5774.672059535992
 31
0.0
  0
LINE
  5
7CB9
330
8215
100
AcDbEntity
  8
2
100
AcDbLine
 10
1117.691023858452
 20
5668.707423224365
 30
0.0
 11
1117.691023858452
 21
4659.974178445684
 31
0.0
  0
DIMENSION
  5
7CBA
330
8215
100
AcDbEntity
  8
3
100
AcDbDimension
  2
*D6
 10
2892.691023858453
 20
6650.975996763711
 30
0.0
 11
2267.691023858454
 21
6650.975996763711
 31
0.0
 12
780.0659088816137
 22
2053.640460174752
 32
0.0
 70
   128
 71
     5
 42
-1.0
  3
Standard
100
AcDbAlignedDimension
 13
1642.691023858453
 23
6429.672059535992
 33
0.0
 14
2892.691023858453
 24
6429.672059535992
 34
0.0
100
AcDbRotatedDimension
1001
ACAD
1000
DSTYLE
1002
{
1070
    40
1040
30.0
1002
}
  0
DIMENSION
  5
7CBC
330
8215
100
AcDbEntity
  8
3
100
AcDbDimension
  2
*D8
 10
620.6429563578421
 20
4924.672059535993
 30
0.0
 11
620.6429563578421
 21
5349.672059535993
 31
0.0
 12
780.0659088816137
 22
2053.640460174752
 32
0.0
 70
   128
 71
     5
 42
-1.0
  3
Standard
100
AcDbAlignedDimension
 13
842.6910238584531
 23
5774.672059535994
 33
0.0
 14
842.6910238584531
 24
4924.672059535993
 34
0.0
 50
90.0
100
AcDbRotatedDimension
1001
ACAD
1000
DSTYLE
1002
{
1070
    40
1040
30.0
1002
}
  0
DIMENSION
  5
7CBD
330
8215
100
AcDbEntity
  8
3
100
AcDbDimension
  2
*D9
 10
3291.335161867388
 20
4924.672059535991
 30
0.0
 11
3231.335161867388
 21
5677.17205953599
 31
0.0
 12
780.0659088816137
 22
2053.640460174752
 32
0.0
 71
     5
 42
-1.0
  3
Standard
100
AcDbAlignedDimension
 13
2892.691023858453
 23
6429.672059535992
 33
0.0
 14
2892.691023858453
 24
4924.672059535991
 34
0.0
 50
90.0
100
AcDbRotatedDimension
1001
ACAD
1000
DSTYLE
1002
{
1070
    40
1040
30.0
1002
}
  0
DIMENSION
  5
7CC1
330
8215
100
AcDbEntity
  8
3
100
AcDbDimension
  2
*D13
 10
5328.473527438281
 20
3948.164217589009
 30
0.0
 11
4703.47352743828
 21
4008.164217589007
 31
0.0
 12
-180.6310936352128
 22
2386.109163331333
 32
0.0
 71
     5
 42
-1.0
  3
Standard
100
AcDbAlignedDimension
 13
4078.473527438279
 23
3668.483783820716
 33
0.0
 14
5328.473527438281
 24
3665.205231625258
 34
0.0
100
AcDbRotatedDimension
1001
ACAD
1000
DSTYLE
1002
{
1070
    40
1040
30.0
1002
}
  0
DIMENSION
  5
7CC2
330
8215
100
AcDbEntity
  8
3
100
AcDbDimension
  2
*D14
 10
5672.841747809591
 20
3544.16946616708
 30
0.0
 11
5612.841747809591
 21
3014.16946616708
 31
0.0
 12
-180.6310936352128
 22
2386.109163331333
 32
0.0
  1
\U+03C6<>
 71
     5
 42
-1.0
  3
Standard
100
AcDbAlignedDimension
 13
5333.97352743828
 23
2484.16946616708
 33
0.0
 14
5333.97352743828
 24
3544.16946616708
 34
0.0
 50
90.0
100
AcDbRotatedDimension
1001
ACAD
1000
DSTYLE
1002
{
1070
    40
1040
30.0
1002
}
  0
LINE
  5
7CC3
330
8215
100
AcDbEntity
  8
2
100
AcDbLine
 10
3613.949616268506
 20
2453.97231639266
 30
0.0
 11
4218.844005409784
 21
2453.97231639266
 31
0.0
  0
ARC
  5
7CC4
330
8215
100
AcDbEntity
  8
1
100
AcDbCircle
 10
2267.691023858451
 20
3014.169466167079
 30
0.0
 40
280.0
100
AcDbArc
 50
287.0299834154885
 51
112.6559573314276
  0
ARC
  5
7CC5
330
8215
100
AcDbEntity
  8
1
100
AcDbCircle
 10
1117.691023858451
 20
2454.169466167078
 30
0.0
 40
220.0
100
AcDbArc
 50
112.6559573314276
 51
287.0299834154885
  0
LINE
  5
7CC6
330
8215
100
AcDbEntity
  8
1
100
AcDbLine
 10
2159.835924627763
 20
3272.563114637661
 30
0.0
 11
1032.947731605768
 21
2656.995897333831
 31
0.0
  0
LINE
  5
7CC7
330
8215
100
AcDbEntity
  8
1
100
AcDbLine
 10
2349.695214059051
 20
2746.447011394335
 30
0.0
 11
1182.122887587494
 21
2243.618959071218
 31
0.0
  0
LINE
  5
7CC8
330
8215
100
AcDbEntity
  8
1
100
AcDbLine
 10
2205.244520602348
 20
3167.004161937004
 30
0.0
 11
1074.458829296535
 21
2559.780951925685
 31
0.0
  0
LINE
  5
7CC9
330
8215
100
AcDbEntity
  8
1
100
AcDbLine
 10
2317.23195317955
 20
2856.677541542348
 30
0.0
 11
1151.988590311521
 21
2344.939445498615
 31
0.0
  0
INSERT
  5
7CCA
330
8215
100
AcDbEntity
  8
0
100
AcDbBlockReference
  2
YA_N
 10
742.6405419924267
 20
-7350.772430041375
 30
0.0
  0
INSERT
  5
7CCC
330
8215
100
AcDbEntity
  8
0
100
AcDbBlockReference
  2
YA_N
 10
2.995684825677016
 20
-7626.802696743742
 30
0.0
 41
20.0
 42
20.0
 43
20.0
  0
INSERT
  5
7CCE
330
8215
100
AcDbEntity
  8
0
100
AcDbBlockReference
  2
YA_N
 10
699.9059132844049
 20
-7054.118742438055
 30
0.0
 41
20.0
 42
20.0
 43
20.0
  0
INSERT
  5
7CD0
330
8215
100
AcDbEntity
  8
0
100
AcDbBlockReference
  2
YA_N
 10
814.1254386385663
 20
-7130.460452277301
 30
0.0
 41
20.0
 42
20.0
 43
20.0
  0
ARC
  5
7CD2
330
8215
100
AcDbEntity
  8
1
100
AcDbCircle
 10
2267.691023858451
 20
3014.169466167079
 30
0.0
 40
599.0
100
AcDbArc
 50
89.99999999999991
 51
94.2124990779145
  0
CIRCLE
  5
7CD3
330
8215
100
AcDbEntity
  8
1
100
AcDbCircle
 10
2267.691023858451
 20
3014.169466167079
 30
0.0
 40
530.0
  0
CIRCLE
  5
7CD4
330
8215
100
AcDbEntity
  8
1
100
AcDbCircle
 10
2267.691023858451
 20
3014.169466167079
 30
0.0
 40
580.0
  0
LINE
  5
7CD5
330
8215
100
AcDbEntity
  8
1
100
AcDbLine
 10
5381.473527438281
 20
2014.16946616708
 30
0.0
 11
5381.473527438281
 21
1914.169466167079
 31
0.0
  0
LINE
  5
7CD6
330
8215
100
AcDbEntity
  8
1
100
AcDbLine
 10
3876.473527438279
 20
2014.16946616708
 30
0.0
 11
3876.47352743828
 21
1914.169466167079
 31
0.0
  0
LINE
  5
7CD7
330
8215
100
AcDbEntity
  8
1
100
AcDbLine
 10
897.6910238584521
 20
4691.672059535993
 30
0.0
 11
2547.691023858451
 21
4691.672059535991
 31
0.0
  0
LINE
  5
7CD8
330
8215
100
AcDbEntity
  8
1
100
AcDbLine
 10
897.6910238584521
 20
5011.672059535992
 30
0.0
 11
2547.691023858451
 21
5011.672059535992
 31
0.0
  0
LINE
  5
7CD9
330
8215
100
AcDbEntity
  8
1
100
AcDbLine
 10
2547.691023858451
 20
4691.672059535991
 30
0.0
 11
2547.691023858451
 21
5011.672059535992
 31
0.0
  0
LINE
  5
7CDA
330
8215
100
AcDbEntity
  8
1
100
AcDbLine
 10
897.6910238584521
 20
4691.672059535993
 30
0.0
 11
897.6910238584521
 21
5011.672059535992
 31
0.0
  0
LINE
  5
7CDB
330
8215
100
AcDbEntity
  8
1
100
AcDbLine
 10
1003.391023858452
 20
4856.672059535993
 30
0.0
 11
1003.391023858452
 21
4966.672059535993
 31
0.0
  0
LINE
  5
7CDC
330
8215
100
AcDbEntity
  8
1
100
AcDbLine
 10
1231.991023858452
 20
4856.672059535991
 30
0.0
 11
1231.991023858452
 21
4966.672059535992
 31
0.0
  0
LINE
  5
7CDD
330
8215
100
AcDbEntity
  8
1
100
AcDbLine
 10
2432.791023858452
 20
4856.672059535991
 30
0.0
 11
2432.791023858452
 21
4966.672059535991
 31
0.0
  0
LINE
  5
7CDE
330
8215
100
AcDbEntity
  8
1
100
AcDbLine
 10
2102.591023858451
 20
4856.672059535991
 30
0.0
 11
2102.591023858451
 21
4966.672059535991
 31
0.0
  0
LINE
  5
7CDF
330
8215
100
AcDbEntity
  8
1
100
AcDbLine
 10
1003.391023858452
 20
4966.672059535993
 30
0.0
 11
1231.991023858452
 21
4966.672059535993
 31
0.0
  0
LINE
  5
7CE0
330
8215
100
AcDbEntity
  8
1
100
AcDbLine
 10
1003.391023858452
 20
4856.672059535993
 30
0.0
 11
1231.991023858452
 21
4856.672059535993
 31
0.0
  0
LINE
  5
7CE1
330
8215
100
AcDbEntity
  8
1
100
AcDbLine
 10
2102.591023858451
 20
4856.672059535991
 30
0.0
 11
2432.791023858452
 21
4856.672059535991
 31
0.0
  0
LINE
  5
7CE2
330
8215
100
AcDbEntity
  8
1
100
AcDbLine
 10
2102.591023858451
 20
4966.672059535991
 30
0.0
 11
2432.791023858452
 21
4966.672059535991
 31
0.0
  0
LINE
  5
7CE3
330
8215
100
AcDbEntity
  8
1
100
AcDbLine
 10
1300.191023858452
 20
5126.672059535991
 30
0.0
 11
1300.191023858452
 21
4971.672059535993
 31
0.0
  0
LINE
  5
7CE4
330
8215
100
AcDbEntity
  8
1
100
AcDbLine
 10
935.1910238584521
 20
5533.172059535994
 30
0.0
 11
935.1910238584521
 21
4971.672059535993
 31
0.0
  0
LINE
  5
7CE5
330
8215
100
AcDbEntity
  8
1
100
AcDbLine
 10
935.1910238584521
 20
5533.172059535992
 30
0.0
 11
1193.691023858452
 21
5533.172059535992
 31
0.0
  0
LINE
  5
7CE6
330
8215
100
AcDbEntity
  8
1
100
AcDbLine
 10
935.1910238584521
 20
4971.672059535993
 30
0.0
 11
1300.191023858452
 21
4971.672059535993
 31
0.0
  0
LINE
  5
7CE7
330
8215
100
AcDbEntity
  8
1
100
AcDbLine
 10
1141.691023858452
 20
4971.672059535993
 30
0.0
 11
1141.691023858452
 21
4966.672059535993
 31
0.0
  0
LINE
  5
7CE8
330
8215
100
AcDbEntity
  8
1
100
AcDbLine
 10
1093.691023858452
 20
4971.672059535993
 30
0.0
 11
1093.691023858452
 21
4966.672059535993
 31
0.0
  0
LINE
  5
7CE9
330
8215
100
AcDbEntity
  8
1
100
AcDbLine
 10
4078.473527438279
 20
2636.47231639266
 30
0.0
 11
3895.473527438282
 21
2636.47231639266
 31
0.0
  0
LINE
  5
7CEA
330
8215
100
AcDbEntity
  8
1
100
AcDbLine
 10
4078.473527438279
 20
2271.47231639266
 30
0.0
 11
3895.473527438282
 21
2271.47231639266
 31
0.0
  0
LINE
  5
7CEB
330
8215
100
AcDbEntity
  8
1
100
AcDbLine
 10
3895.473527438281
 20
2636.47231639266
 30
0.0
 11
3895.473527438281
 21
2271.47231639266
 31
0.0
  0
LINE
  5
7CEC
330
8215
100
AcDbEntity
  8
1
100
AcDbLine
 10
3895.473527438282
 20
2477.97231639266
 30
0.0
 11
3890.47352743828
 21
2477.97231639266
 31
0.0
  0
LINE
  5
7CED
330
8215
100
AcDbEntity
  8
1
100
AcDbLine
 10
3895.473527438282
 20
2429.97231639266
 30
0.0
 11
3890.47352743828
 21
2429.97231639266
 31
0.0
  0
LINE
  5
7CF0
330
8215
100
AcDbEntity
  8
1
100
AcDbLine
 10
1193.691023858452
 20
5126.672059535992
 30
0.0
 11
2987.691023858451
 21
5126.672059535991
 31
0.0
  0
LINE
  5
7CF1
330
8215
100
AcDbEntity
  8
1
100
AcDbLine
 10
1193.691023858452
 20
6376.672059535994
 30
0.0
 11
2987.691023858451
 21
6376.672059535991
 31
0.0
  0
LINE
  5
7CF5
330
8215
100
AcDbEntity
  8
1
100
AcDbLine
 10
2300.191023858453
 20
5126.672059535992
 30
0.0
 11
2300.191023858453
 21
4966.672059535992
 31
0.0
  0
LINE
  5
7CF6
330
8215
100
AcDbEntity
  8
1
100
AcDbLine
 10
2235.191023858453
 20
5126.672059535992
 30
0.0
 11
2235.191023858453
 21
4966.672059535992
 31
0.0
  0
LINE
  5
7CF7
330
8215
100
AcDbEntity
  8
1
100
AcDbLine
 10
4060.473527438277
 20
2981.66946616708
 30
0.0
 11
4078.473527438279
 21
2981.66946616708
 31
0.0
  0
DIMENSION
  5
7CF8
330
8215
100
AcDbEntity
  8
3
100
AcDbDimension
  2
*D15
 10
842.6910238584531
 20
6650.975996763711
 30
0.0
 11
1242.691023858453
 21
6710.975996763711
 31
0.0
 12
780.0659088816137
 22
2053.640460174752
 32
0.0
 71
     5
 42
-1.0
  3
Standard
100
AcDbAlignedDimension
 13
1642.691023858453
 23
6429.672059535992
 33
0.0
 14
842.6910238584531
 24
5774.672059535992
 34
0.0
100
AcDbRotatedDimension
1001
ACAD
1000
DSTYLE
1002
{
1070
    40
1040
30.0
1002
}
  0
DIMENSION
  5
7D00
330
8215
100
AcDbEntity
  8
3
100
AcDbDimension
  2
*D17
 10
3254.384892531744
 20
3014.169466167079
 30
0.0
 11
3194.384892531744
 21
3354.169466167081
 31
0.0
 12
780.0659088816137
 22
2386.109163331333
 32
0.0
 71
     5
 42
-1.0
  3
Standard
100
AcDbAlignedDimension
 13
2267.691023858451
 23
3694.169466167082
 33
0.0
 14
3007.30700635608
 24
3014.169466167079
 34
0.0
 50
90.0
100
AcDbRotatedDimension
1001
ACAD
1000
DSTYLE
1002
{
1070
    40
1040
30.0
1002
}
  0
DIMENSION
  5
7D05
330
8215
100
AcDbEntity
  8
3
100
AcDbDimension
  2
*D21
 10
842.6910238584531
 20
4271.180448599069
 30
0.0
 11
1915.191023858452
 21
4331.180448599069
 31
0.0
 12
780.0659088816137
 22
2386.109163331333
 32
0.0
 71
     5
 42
-1.0
  3
Standard
100
AcDbAlignedDimension
 13
2987.691023858453
 23
2940.169466167081
 33
0.0
 14
842.6910238584531
 24
2218.97231639266
 34
0.0
100
AcDbRotatedDimension
1001
ACAD
1000
DSTYLE
1002
{
1070
    40
1040
30.0
1002
}
  0
LINE
  5
7D06
330
8215
100
AcDbEntity
  8
1
100
AcDbLine
 10
4703.47352743828
 20
3690.16946616708
 30
0.0
 11
4038.473527438279
 21
3690.16946616708
 31
0.0
  0
LINE
  5
7D07
330
8215
100
AcDbEntity
  8
1
100
AcDbLine
 10
4703.47352743828
 20
3690.16946616708
 30
0.0
 11
5368.473527438281
 21
3690.16946616708
 31
0.0
  0
LINE
  5
7D08
330
8215
100
AcDbEntity
  8
1
100
AcDbLine
 10
4038.473527438279
 20
3694.16946616708
 30
0.0
 11
4038.473527438279
 21
3690.16946616708
 31
0.0
  0
LINE
  5
7D09
330
8215
100
AcDbEntity
  8
1
100
AcDbLine
 10
5368.473527438281
 20
3694.16946616708
 30
0.0
 11
5368.47352743828
 21
3690.169466167079
 31
0.0
  0
LINE
  5
7F34
330
8215
100
AcDbEntity
  8
4
100
AcDbLine
 10
5550.0
 20
1200.753340800995
 30
0.0
 11
5550.0
 21
600.7533408009947
 31
0.0
  0
LINE
  5
7F35
330
8215
100
AcDbEntity
  8
4
100
AcDbLine
 10
3450.0
 20
1200.753340800995
 30
0.0
 11
3450.0
 21
600.7533408009947
 31
0.0
  0
LINE
  5
7F36
330
8215
100
AcDbEntity
  8
4
100
AcDbLine
 10
1950.0
 20
1200.753340800995
 30
0.0
 11
1950.0
 21
600.7533408009947
 31
0.0
  0
LINE
  5
7F39
330
8215
100
AcDbEntity
  8
4
100
AcDbLine
 10
1950.0
 20
600.7533408009947
 30
0.0
 11
5550.0
 21
600.7533408009947
 31
0.0
  0
LINE
  5
7F3A
330
8215
100
AcDbEntity
  8
4
100
AcDbLine
 10
1950.0
 20
900.7533408009949
 30
0.0
 11
5550.0
 21
900.7533408009949
 31
0.0
  0
TEXT
  5
7F3B
330
8215
100
AcDbEntity
  8
4
100
AcDbText
 10
2065.506242540704
 20
995.3824184008336
 30
0.0
 40
150.0
  1
機器名称
100
AcDbText
  0
TEXT
  5
7F3C
330
8215
100
AcDbEntity
  8
4
100
AcDbText
 10
2058.774318074392
 20
665.6888109970276
 30
0.0
 40
150.0
  1
機器型番
100
AcDbText
  0
TEXT
  5
7F3D
330
8215
100
AcDbEntity
  8
4
100
AcDbText
 10
3533.036236462995
 20
968.4686476737006
 30
0.0
 40
150.0
  1
ミツヤ多翼送風機
100
AcDbText
  0
TEXT
  5
7F3E
330
8215
100
AcDbEntity
  8
4
100
AcDbText
 10
3559.963486756442
 20
652.2320936408249
 30
0.0
 40
150.0
  1
MF#6-5
100
AcDbText
  0
TEXT
  5
7F40
330
8215
100
AcDbEntity
  8
4
100
AcDbText
 10
2381.689775839433
 20
7150.286523997547
 30
0.0
 40
161.9999999999998
  1
床置防振ベット
100
AcDbText
  0
TEXT
  5
7F41
330
8215
100
AcDbEntity
  8
4
100
AcDbText
 10
948.5027799883393
 20
7601.642928597894
 30
0.0
 40
216.0
  1
遠心式両吸込両持多翼ファン
100
AcDbText
  0
LINE
  5
7F42
330
8215
100
AcDbEntity
  8
4
100
AcDbLine
 10
750.0
 20
7408.226262794413
 30
0.0
 11
5550.0
 21
7408.226262794413
 31
0.0
  0
LINE
  5
7F43
330
8215
100
AcDbEntity
  8
4
100
AcDbLine
 10
750.0
 20
8008.226262794414
 30
0.0
 11
5550.0
 21
8008.226262794414
 31
0.0
  0
LINE
  5
7F44
330
8215
100
AcDbEntity
  8
4
100
AcDbLine
 10
1950.0
 20
1200.753340800995
 30
0.0
 11
5550.0
 21
1200.753340800995
 31
0.0
  0
LINE
  5
7F45
330
8215
100
AcDbEntity
  8
4
100
AcDbLine
 10
750.0
 20
8008.226262794414
 30
0.0
 11
750.0
 21
7408.226262794413
 31
0.0
  0
TEXT
  5
7F46
330
8215
100
AcDbEntity
  8
4
100
AcDbText
 10
1074.113279111327
 20
7146.958432639029
 30
0.0
 40
161.9999999999998
  1
右回転上向
100
AcDbText
  0
TEXT
  5
7F47
330
8215
100
AcDbEntity
  8
4
100
AcDbText
 10
4406.908677747869
 20
8118.183244485924
 30
0.0
 40
168.0
  1
No.
100
AcDbText
  0
TEXT
  5
7F48
330
8215
100
AcDbEntity
  8
4
100
AcDbText
 10
3933.888187800039
 20
7150.286523997547
 30
0.0
 40
161.9999999999998
  1
縮尺：1/30
100
AcDbText
  0
LINE
  5
7F49
330
8215
100
AcDbEntity
  8
4
100
AcDbLine
 10
5550.0
 20
8008.226262794414
 30
0.0
 11
5550.0
 21
7408.226262794413
 31
0.0
  0
LINE
  5
7F4A
330
8215
100
AcDbEntity
  8
4
100
AcDbLine
 10
6300.0
 20
8850.0
 30
0.0
 11
6300.0
 21
8850.0
 31
0.0
  0
LINE
  5
7F4B
330
8215
100
AcDbEntity
  8
4
100
AcDbLine
 10
4321.852267079594
 20
8043.790749376205
 30
0.0
 11
4321.852267079594
 21
8359.956784649257
 31
0.0
  0
LINE
  5
7F4C
330
8215
100
AcDbEntity
  8
4
100
AcDbLine
 10
4321.852267079594
 20
8359.956784649257
 30
0.0
 11
5550.0
 21
8359.956784649257
 31
0.0
  0
LINE
  5
7F4D
330
8215
100
AcDbEntity
  8
4
100
AcDbLine
 10
5550.0
 20
8359.956784649257
 30
0.0
 11
5550.0
 21
8043.790749376205
 31
0.0
  0
LINE
  5
7F4E
330
8215
100
AcDbEntity
  8
4
100
AcDbLine
 10
5550.0
 20
8043.790749376205
 30
0.0
 11
4321.852267079594
 21
8043.790749376205
 31
0.0
  0
LINE
  5
7F4F
330
8215
100
AcDbEntity
  8
4
100
AcDbLine
 10
0.0
 20
0.0
 30
0.0
 11
0.0
 21
8850.0
 31
0.0
  0
LINE
  5
7F50
330
8215
100
AcDbEntity
  8
4
100
AcDbLine
 10
0.0
 20
8850.0
 30
0.0
 11
6300.0
 21
8850.0
 31
0.0
  0
LINE
  5
7F51
330
8215
100
AcDbEntity
  8
4
100
AcDbLine
 10
6300.0
 20
8850.0
 30
0.0
 11
6300.0
 21
0.0
 31
0.0
  0
LINE
  5
7F52
330
8215
100
AcDbEntity
  8
4
100
AcDbLine
 10
6300.0
 20
0.0
 30
0.0
 11
0.0
 21
0.0
 31
0.0
  0
LINE
  5
8114
330
8215
100
AcDbEntity
  8
1
100
AcDbLine
 10
1193.691023858452
 20
5126.672059535993
 30
0.0
 11
1193.691023858452
 21
6376.672059535994
 31
0.0
  0
LINE
  5
8115
330
8215
100
AcDbEntity
  8
1
100
AcDbLine
 10
2223.691023858451
 20
5126.672059535992
 30
0.0
 11
2223.691023858451
 21
6376.672059535992
 31
0.0
  0
LINE
  5
8116
330
8215
100
AcDbEntity
  8
1
100
AcDbLine
 10
2987.691023858453
 20
5126.672059535991
 30
0.0
 11
2987.691023858453
 21
6376.672059535991
 31
0.0
  0
LINE
  5
8117
330
8215
100
AcDbEntity
  8
1
100
AcDbLine
 10
2892.691023858453
 20
5126.672059535991
 30
0.0
 11
2892.691023858453
 21
4924.672059535991
 31
0.0
  0
LINE
  5
8118
330
8215
100
AcDbEntity
  8
1
100
AcDbLine
 10
1193.691023858452
 20
5126.672059535992
 30
0.0
 11
2223.691023858451
 21
6376.672059535992
 31
0.0
  0
LINE
  5
8119
330
8215
100
AcDbEntity
  8
1
100
AcDbLine
 10
1193.691023858452
 20
6376.672059535994
 30
0.0
 11
2223.691023858451
 21
5126.672059535992
 31
0.0
  0
DIMENSION
  5
82E3
330
8215
100
AcDbEntity
  8
3
100
AcDbDimension
  2
*D39
 10
4703.47352743828
 20
4147.692100635555
 30
0.0
 11
4173.473527438278
 21
4246.263529206983
 31
0.0
 70
    32
 71
     5
 42
1060.000000000005
  3
IGA
100
AcDbAlignedDimension
 13
3643.473527438275
 23
3294.16946616708
 33
0.0
 14
4703.47352743828
 24
4053.164217589007
 34
0.0
100
AcDbRotatedDimension
1001
ACAD
1000
DSTYLE
1002
{
1070
     3
1000
(<>)
1070
    40
1040
30.0
1070
    42
1040
1.0
1070
   143
1040
0.039
1070
   172
1070
     1
1070
   271
1070
     4
1070
   272
1070
     4
1070
   279
1070
     0
1070
   284
1070
     0
1070
   285
1070
     0
1070
   286
1070
     0
1070
   341
1005
8229
1070
   343
1005
8229
1070
   344
1005
8229
1002
}
  0
DIMENSION
  5
82F0
330
8215
100
AcDbEntity
  8
3
100
AcDbDimension
  2
*D40
 10
5483.47352743828
 20
4147.692100635555
 30
0.0
 11
5093.47352743828
 21
4246.263529206983
 31
0.0
 70
    32
 71
     5
 42
780.0
  3
IGA
100
AcDbAlignedDimension
 13
4703.47352743828
 23
4053.164217589007
 33
0.0
 14
5483.47352743828
 24
2978.369466167081
 34
0.0
100
AcDbRotatedDimension
1001
ACAD
1000
DSTYLE
1002
{
1070
     3
1000
(<>)
1070
    40
1040
30.0
1070
    42
1040
1.0
1070
   143
1040
0.039
1070
   172
1070
     1
1070
   271
1070
     4
1070
   272
1070
     4
1070
   279
1070
     1
1070
   284
1070
     0
1070
   285
1070
     0
1070
   286
1070
     0
1070
   341
1005
8229
1070
   343
1005
8229
1070
   344
1005
8229
1002
}
  0
DIMENSION
  5
8312
330
8215
100
AcDbEntity
  8
3
100
AcDbDimension
  2
*D41
 10
2892.691023858453
 20
4507.906798144264
 30
0.0
 11
1867.691023858453
 21
4582.906798144263
 31
0.0
 70
    32
 71
     5
 42
2050.0
  3
IGA
100
AcDbAlignedDimension
 13
842.6910238584531
 23
4924.672059535993
 33
0.0
 14
2892.691023858453
 24
4924.672059535991
 34
0.0
100
AcDbRotatedDimension
1001
ACAD
1000
DSTYLE
1002
{
1070
    40
1040
30.0
1070
    42
1040
1.0
1070
   143
1040
0.039
1070
   172
1070
     1
1070
   271
1070
     4
1070
   272
1070
     4
1070
   279
1070
     0
1070
   284
1070
     0
1070
   285
1070
     0
1070
   286
1070
     0
1070
   341
1005
8229
1070
   343
1005
8229
1070
   344
1005
8229
1002
}
  0
DIMENSION
  5
831F
330
8215
100
AcDbEntity
  8
3
100
AcDbDimension
  2
*D42
 10
4703.473527438279
 20
1711.426305100244
 30
0.0
 11
4289.97352743828
 21
1786.426305100244
 31
0.0
 70
    32
 71
     5
 42
826.999999999999
  3
IGA
100
AcDbAlignedDimension
 13
3876.47352743828
 23
1914.169466167079
 33
0.0
 14
4703.473527438279
 24
1914.169466167079
 34
0.0
100
AcDbRotatedDimension
1001
ACAD
1000
DSTYLE
1002
{
1070
    40
1040
30.0
1070
    42
1040
1.0
1070
   143
1040
0.039
1070
   172
1070
     1
1070
   271
1070
     4
1070
   272
1070
     4
1070
   279
1070
     0
1070
   284
1070
     0
1070
   285
1070
     0
1070
   286
1070
     0
1070
   341
1005
8229
1070
   343
1005
8229
1070
   344
1005
8229
1002
}
  0
DIMENSION
  5
832C
330
8215
100
AcDbEntity
  8
3
100
AcDbDimension
  2
*D43
 10
5381.473527438281
 20
1711.426305100244
 30
0.0
 11
5042.47352743828
 21
1786.426305100244
 31
0.0
 70
    32
 71
     5
 42
678.0000000000018
  3
IGA
100
AcDbAlignedDimension
 13
4703.473527438279
 23
1914.169466167079
 33
0.0
 14
5381.473527438281
 24
1914.169466167079
 34
0.0
100
AcDbRotatedDimension
1001
ACAD
1000
DSTYLE
1002
{
1070
    40
1040
30.0
1070
    42
1040
1.0
1070
   143
1040
0.039
1070
   172
1070
     1
1070
   271
1070
     4
1070
   272
1070
     4
1070
   279
1070
     1
1070
   284
1070
     0
1070
   285
1070
     0
1070
   286
1070
     0
1070
   341
1005
8229
1070
   343
1005
8229
1070
   344
1005
8229
1002
}
  0
DIMENSION
  5
8339
330
8215
100
AcDbEntity
  8
3
100
AcDbDimension
  2
*D44
 10
2987.691023858453
 20
4096.131608620377
 30
0.0
 11
2627.691023858452
 21
4171.131608620377
 31
0.0
 70
    32
 71
     5
 42
720.0000000000013
  3
IGA
100
AcDbAlignedDimension
 13
2267.691023858451
 23
3733.826000116309
 33
0.0
 14
2987.691023858453
 24
2940.169466167081
 34
0.0
100
AcDbRotatedDimension
1001
ACAD
1000
DSTYLE
1002
{
1070
    40
1040
30.0
1070
    42
1040
1.0
1070
   143
1040
0.039
1070
   172
1070
     1
1070
   271
1070
     4
1070
   272
1070
     4
1070
   279
1070
     0
1070
   284
1070
     0
1070
   285
1070
     0
1070
   286
1070
     0
1070
   341
1005
8229
1070
   343
1005
8229
1070
   344
1005
8229
1002
}
  0
DIMENSION
  5
834F
330
8215
100
AcDbEntity
  8
3
100
AcDbDimension
  2
*D45
 10
2267.691023858451
 20
1711.426305100244
 30
0.0
 11
1555.191023858452
 21
1786.426305100244
 31
0.0
 70
    32
 71
     5
 42
1424.999999999998
  3
IGA
100
AcDbAlignedDimension
 13
842.6910238584525
 23
1914.169466167078
 33
0.0
 14
2267.691023858451
 24
1913.97231639266
 34
0.0
100
AcDbRotatedDimension
1001
ACAD
1000
DSTYLE
1002
{
1070
    40
1040
30.0
1070
    42
1040
1.0
1070
   143
1040
0.039
1070
   172
1070
     1
1070
   271
1070
     4
1070
   272
1070
     4
1070
   279
1070
     0
1070
   284
1070
     0
1070
   285
1070
     0
1070
   286
1070
     0
1070
   341
1005
8229
1070
   343
1005
8229
1070
   344
1005
8229
1002
}
  0
DIMENSION
  5
835C
330
8215
100
AcDbEntity
  8
3
100
AcDbDimension
  2
*D46
 10
2892.691023858453
 20
1711.426305100244
 30
0.0
 11
2580.191023858452
 21
1786.426305100244
 31
0.0
 70
    32
 71
     5
 42
625.0000000000014
  3
IGA
100
AcDbAlignedDimension
 13
2267.691023858451
 23
1913.97231639266
 33
0.0
 14
2892.691023858453
 24
1914.169466167078
 34
0.0
100
AcDbRotatedDimension
1001
ACAD
1000
DSTYLE
1002
{
1070
    40
1040
30.0
1070
    42
1040
1.0
1070
   143
1040
0.039
1070
   172
1070
     1
1070
   271
1070
     4
1070
   272
1070
     4
1070
   279
1070
     1
1070
   284
1070
     0
1070
   285
1070
     0
1070
   286
1070
     0
1070
   341
1005
8229
1070
   343
1005
8229
1070
   344
1005
8229
1002
}
  0
DIMENSION
  5
8369
330
8215
100
AcDbEntity
  8
3
100
AcDbDimension
  2
*D47
 10
3254.384892531744
 20
2119.169466167079
 30
0.0
 11
3179.384892531743
 21
2566.66946616708
 31
0.0
 70
    32
 71
     5
 42
895.0
  3
IGA
100
AcDbAlignedDimension
 13
3007.30700635608
 23
3014.169466167079
 33
0.0
 14
2892.691023858453
 24
2119.169466167079
 34
0.0
 50
90.0
100
AcDbRotatedDimension
1001
ACAD
1000
DSTYLE
1002
{
1070
    40
1040
30.0
1070
    42
1040
1.0
1070
   143
1040
0.039
1070
   172
1070
     1
1070
   271
1070
     4
1070
   272
1070
     4
1070
   279
1070
     0
1070
   284
1070
     0
1070
   285
1070
     0
1070
   286
1070
     0
1070
   341
1005
8229
1070
   343
1005
8229
1070
   344
1005
8229
1002
}
  0
DIMENSION
  5
8376
330
8215
100
AcDbEntity
  8
3
100
AcDbDimension
  2
*D48
 10
3254.384892531744
 20
2014.169466167079
 30
0.0
 11
3469.129562049828
 21
2143.717359930528
 31
0.0
 70
   160
  1
(<>)
 71
     5
 42
104.9999999999995
  3
IGA
100
AcDbAlignedDimension
 13
2892.691023858453
 23
2119.169466167079
 33
0.0
 14
2892.691023858453
 24
2014.169466167079
 34
0.0
 50
90.0
100
AcDbRotatedDimension
1001
ACAD
1000
DSTYLE
1002
{
1070
    40
1040
30.0
1070
    42
1040
1.0
1070
   143
1040
0.039
1070
   172
1070
     1
1070
   271
1070
     4
1070
   272
1070
     4
1070
   279
1070
     1
1070
   284
1070
     0
1070
   285
1070
     0
1070
   286
1070
     0
1070
   341
1005
8229
1070
   343
1005
8229
1070
   344
1005
8441
1002
}
  0
DIMENSION
  5
8388
330
8215
100
AcDbEntity
  8
3
100
AcDbDimension
  2
*D49
 10
3254.384892531744
 20
1914.169466167078
 30
0.0
 11
3256.283348496108
 21
1776.679817616452
 31
0.0
 70
   160
 71
     5
 42
100.0000000000013
  3
IGA
100
AcDbAlignedDimension
 13
2892.691023858453
 23
2014.169466167079
 33
0.0
 14
2892.691023858453
 24
1914.169466167078
 34
0.0
 50
90.0
100
AcDbRotatedDimension
1001
ACAD
1000
DSTYLE
1002
{
1070
    40
1040
30.0
1070
    42
1040
1.0
1070
   143
1040
0.039
1070
   172
1070
     1
1070
   271
1070
     4
1070
   272
1070
     4
1070
   279
1070
     1
1070
   284
1070
     0
1070
   285
1070
     0
1070
   286
1070
     0
1070
   341
1005
8229
1070
   343
1005
8441
1070
   344
1005
8229
1002
}
  0
DIMENSION
  5
84E7
330
8215
100
AcDbEntity
  8
3
100
AcDbDimension
  2
*D51
 10
3533.475166812445
 20
3694.169466167081
 30
0.0
 11
3434.903738241015
 21
2804.16946616708
 31
0.0
 70
    32
  1
(<>)
 71
     5
 42
1780.000000000003
  3
IGA
100
AcDbAlignedDimension
 13
2892.691023858453
 23
1914.169466167078
 33
0.0
 14
2276.691023858453
 24
3694.169466167082
 34
0.0
 50
90.0
100
AcDbRotatedDimension
1001
ACAD
1000
DSTYLE
1002
{
1070
    40
1040
30.0
1070
    42
1040
1.0
1070
   143
1040
0.039
1070
   172
1070
     1
1070
   271
1070
     4
1070
   272
1070
     4
1070
   279
1070
     0
1070
   284
1070
     0
1070
   285
1070
     0
1070
   286
1070
     0
1070
   341
1005
8229
1070
   343
1005
8229
1070
   344
1005
8229
1002
}
  0
ENDSEC
  0
SECTION
  2
OBJECTS
  0
DICTIONARY
  5
81B2
330
0
100
AcDbDictionary
281
     1
  3
ACAD_CIP_PREVIOUS_PRODUCT_INFO
350
825F
  3
ACAD_COLOR
350
8208
  3
ACAD_DETAILVIEWSTYLE
350
820F
  3
ACAD_GROUP
350
81B3
  3
ACAD_LAYOUT
350
8207
  3
ACAD_MATERIAL
350
81B6
  3
ACAD_MLEADERSTYLE
350
820B
  3
ACAD_MLINESTYLE
350
8204
  3
ACAD_PLOTSETTINGS
350
8206
  3
ACAD_PLOTSTYLENAME
350
81B4
  3
ACAD_SCALELIST
350
81E8
  3
ACAD_SECTIONVIEWSTYLE
350
820D
  3
ACAD_TABLESTYLE
350
8209
  3
ACAD_VISUALSTYLE
350
81CF
  3
ACDB_RECOMPOSE_DATA
350
851D
  3
AcDbVariableDictionary
350
8510
  3
DWGPROPS
350
851E
  0
DICTIONARY
  5
8506
330
81FA
100
AcDbDictionary
280
     1
281
     1
  3
ADSK_XREC_LAYER_RECONCILED
360
8507
  0
DICTIONARY
  5
8508
330
8219
100
AcDbDictionary
280
     1
281
     1
  3
ADSK_XREC_LAYER_RECONCILED
360
8509
  0
DICTIONARY
  5
850A
330
821C
100
AcDbDictionary
280
     1
281
     1
  3
ADSK_XREC_LAYER_RECONCILED
360
850B
  0
DICTIONARY
  5
850C
330
821D
100
AcDbDictionary
280
     1
281
     1
  3
ADSK_XREC_LAYER_RECONCILED
360
850D
  0
DICTIONARY
  5
850E
330
821E
100
AcDbDictionary
280
     1
281
     1
  3
ADSK_XREC_LAYER_RECONCILED
360
850F
  0
DICTIONARY
  5
8261
330
8215
100
AcDbDictionary
280
     1
281
     1
  3
ACAD_SORTENTS
360
8262
  0
XRECORD
  5
825F
102
{ACAD_REACTORS
330
81B2
102
}
330
81B2
100
AcDbXrecord
280
     1
300
ACDLT
300
2015
300
INVLTS_F_S
  0
DICTIONARY
  5
8208
102
{ACAD_REACTORS
330
81B2
102
}
330
81B2
100
AcDbDictionary
281
     1
  0
DICTIONARY
  5
820F
102
{ACAD_REACTORS
330
81B2
102
}
330
81B2
100
AcDbDictionary
281
     1
  3
Imperial24
350
8210
  0
DICTIONARY
  5
81B3
102
{ACAD_REACTORS
330
81B2
102
}
330
81B2
100
AcDbDictionary
281
     1
  0
DICTIONARY
  5
8207
102
{ACAD_REACTORS
330
81B2
102
}
330
81B2
100
AcDbDictionary
281
     1
  3
Model
350
8218
  3
レイアウト1
350
8214
  0
DICTIONARY
  5
81B6
102
{ACAD_REACTORS
330
81B2
102
}
330
81B2
100
AcDbDictionary
281
     1
  3
ByBlock
350
81BF
  3
ByLayer
350
81B7
  3
Global
350
81C7
  0
DICTIONARY
  5
820B
102
{ACAD_REACTORS
330
81B2
102
}
330
81B2
100
AcDbDictionary
281
     1
  3
Standard
350
820C
  0
DICTIONARY
  5
8204
102
{ACAD_REACTORS
330
81B2
102
}
330
81B2
100
AcDbDictionary
281
     1
  3
Standard
350
8205
  0
DICTIONARY
  5
8206
102
{ACAD_REACTORS
330
81B2
102
}
330
81B2
100
AcDbDictionary
281
     1
  0
ACDBDICTIONARYWDFLT
  5
81B4
102
{ACAD_REACTORS
330
81B2
102
}
330
81B2
100
AcDbDictionary
281
     1
  3
Normal
350
81B5
100
AcDbDictionaryWithDefault
340
81B5
  0
DICTIONARY
  5
81E8
102
{ACAD_REACTORS
330
81B2
102
}
330
81B2
100
AcDbDictionary
281
     1
  3
A0
350
81E9
  3
A1
350
81EA
  3
A2
350
81EB
  3
A3
350
81EC
  3
A4
350
81ED
  3
A5
350
81EE
  3
A6
350
81EF
  3
A7
350
81F0
  3
A8
350
81F1
  3
A9
350
81F2
  3
B0
350
81F3
  3
B1
350
81F4
  3
B2
350
81F5
  3
B3
350
81F6
  3
B4
350
81F7
  3
B5
350
81F8
  3
B6
350
81F9
  0
DICTIONARY
  5
820D
102
{ACAD_REACTORS
330
81B2
102
}
330
81B2
100
AcDbDictionary
281
     1
  3
Imperial24
350
820E
  0
DICTIONARY
  5
8209
102
{ACAD_REACTORS
330
81B2
102
}
330
81B2
100
AcDbDictionary
281
     1
  3
Standard
350
820A
  0
DICTIONARY
  5
81CF
102
{ACAD_REACTORS
330
81B2
102
}
330
81B2
100
AcDbDictionary
281
     1
  3
2dWireframe
350
81D5
  3
Basic
350
81D4
  3
Brighten
350
81DB
  3
ColorChange
350
81DF
  3
Conceptual
350
81D8
  3
Dim
350
81DA
  3
EdgeColorOff
350
81E7
  3
Facepattern
350
81DE
  3
Flat
350
81D0
  3
FlatWithEdges
350
81D1
  3
Gouraud
350
81D2
  3
GouraudWithEdges
350
81D3
  3
Hidden
350
81D7
  3
JitterOff
350
81E5
  3
Linepattern
350
81DD
  3
OverhangOff
350
81E6
  3
Realistic
350
81D9
  3
Shaded
350
81E4
  3
Shaded with edges
350
81E3
  3
Shades of Gray
350
81E0
  3
Sketchy
350
81E1
  3
Thicken
350
81DC
  3
Wireframe
350
81D6
  3
X-Ray
350
81E2
  0
XRECORD
  5
851D
102
{ACAD_REACTORS
330
81B2
102
}
330
81B2
100
AcDbXrecord
280
     1
 90
        1
330
820A
  0
DICTIONARY
  5
8510
102
{ACAD_REACTORS
330
81B2
102
}
330
81B2
100
AcDbDictionary
281
     1
  3
CANNOSCALE
350
8515
  3
CMLEADERSTYLE
350
8512
  3
CTABLESTYLE
350
8511
  3
CVIEWDETAILSTYLE
350
8513
  3
CVIEWSECTIONSTYLE
350
8514
  3
DIMASSOC
350
8518
  3
INDEXCTL
350
8517
  3
SORTENTS
350
8516
  3
XCLIPFRAME
350
8519
  0
XRECORD
  5
851E
102
{ACAD_REACTORS
330
81B2
102
}
330
81B2
100
AcDbXrecord
280
     1
  1
DWGPROPS COOKIE
  2

  3

  4

  6

  7

  8
yasukiyo.ogawa
  9

300
=
301
=
302
=
303
=
304
=
305
=
306
=
307
=
308
=
309
=
 40
0.0185878240740741
 41
2451389.55758588
 42
2460271.759369607
  1

 90
        0
  0
XRECORD
  5
8507
102
{ACAD_REACTORS
330
8506
102
}
330
8506
100
AcDbXrecord
280
     1
290
     1
  0
XRECORD
  5
8509
102
{ACAD_REACTORS
330
8508
102
}
330
8508
100
AcDbXrecord
280
     1
290
     1
  0
XRECORD
  5
850B
102
{ACAD_REACTORS
330
850A
102
}
330
850A
100
AcDbXrecord
280
     1
290
     1
  0
XRECORD
  5
850D
102
{ACAD_REACTORS
330
850C
102
}
330
850C
100
AcDbXrecord
280
     1
290
     1
  0
XRECORD
  5
850F
102
{ACAD_REACTORS
330
850E
102
}
330
850E
100
AcDbXrecord
280
     1
290
     1
  0
SORTENTSTABLE
  5
8262
102
{ACAD_REACTORS
330
8261
102
}
330
8261
100
AcDbSortentsTable
330
8215
331
7CAE
  5
7CAF
331
7C9D
  5
7C9E
331
7C56
  5
7C59
331
7CD0
  5
7CD2
331
7CE1
  5
7CE2
331
7C78
  5
7C79
331
7F45
  5
7F46
331
7C89
  5
7C8A
331
7C67
  5
7C6A
331
7C34
  5
7C34
331
7C9E
  5
7C9F
331
7CAF
  5
7CB3
331
7C46
  5
7C48
331
7CE2
  5
7CE3
331
7F46
  5
7F47
331
7C8A
  5
7C8B
331
7C79
  5
7C7A
331
7C35
  5
7C35
331
7C24
  5
7C24
331
7CD2
  5
7CD3
331
7CC1
  5
7CC2
331
7C9F
  5
7CA0
331
7CE3
  5
7CE4
331
7C7A
  5
7C7B
331
7F47
  5
7F48
331
7D05
  5
7D06
331
7C8B
  5
7C8C
331
7C36
  5
7C36
331
7F48
  5
7F49
331
7CA0
  5
7CA1
331
7CC2
  5
7CC3
331
7C59
  5
7C5A
331
7C48
  5
7C4A
331
7CD3
  5
7CD4
331
7CE4
  5
7CE5
331
7C7B
  5
7C7C
331
7D06
  5
7D07
331
7CF5
  5
7CF6
331
7C8C
  5
7C8D
331
7C6A
  5
7C6B
331
7C37
  5
7C37
331
7C26
  5
7C26
331
7F49
  5
7F4A
331
7CA1
  5
7CA2
331
7CC3
  5
7CC4
331
7C5A
  5
7C5D
331
7F34
  5
7F35
331
7CD4
  5
7CD5
331
7CE5
  5
7CE6
331
7C7C
  5
7C7D
331
7D07
  5
7D08
331
7CF6
  5
7CF7
331
7C8D
  5
7C8E
331
7C6B
  5
7C6C
331
7C38
  5
7C38
331
7C27
  5
7C27
331
7F4A
  5
7F4B
331
7F39
  5
7F3A
331
7D08
  5
7D09
331
7CA2
  5
7CA3
331
7C39
  5
7C3A
331
7CC4
  5
7CC5
331
7CB3
  5
7CB4
331
7C4A
  5
7C4B
331
7F35
  5
7F36
331
7CD5
  5
7CD6
331
7CE6
  5
7CE7
331
7C7D
  5
7C7E
331
7CF7
  5
7CF8
331
7C8E
  5
7C8F
331
7C6C
  5
7C6D
331
7C28
  5
7C28
331
8114
  5
8115
331
7F4B
  5
7F4C
331
7F3A
  5
7F3B
331
7D09
  5
7F34
331
7CF8
  5
7CFF
331
7CA3
  5
7CA4
331
7C3A
  5
7C3C
331
7CC5
  5
7CC6
331
7CB4
  5
7CB5
331
7C4B
  5
7C4E
331
7F36
  5
7F39
331
7CD6
  5
7CD7
331
7CE7
  5
7CE8
331
7C7E
  5
7C7F
331
7C8F
  5
7C90
331
7C6D
  5
7C6E
331
7C29
  5
7C29
331
7CE8
  5
7CE9
331
8115
  5
8116
331
7F4C
  5
7F4D
331
7F3B
  5
7F3C
331
7C90
  5
7C91
331
7CB5
  5
7CB6
331
7CA4
  5
7CA5
331
7CC6
  5
7CC7
331
7C5D
  5
7C5E
331
7CD7
  5
7CD8
331
7C7F
  5
7C80
331
7C6E
  5
7C6F
331
7C2A
  5
7C2A
331
7CD8
  5
7CD9
331
7CE9
  5
7CEA
331
7C80
  5
7C81
331
8116
  5
8117
331
7F4D
  5
7F4E
331
7F3C
  5
7F3D
331
7C91
  5
7C92
331
7CB6
  5
7CB7
331
7CA5
  5
7CA6
331
7C3C
  5
7C3D
331
7CC7
  5
7CC8
331
7C5E
  5
7C5F
331
7C6F
  5
7C70
331
7C2B
  5
7C2B
331
7CC8
  5
7CC9
331
7CD9
  5
7CDA
331
7C70
  5
7C71
331
7CEA
  5
7CEB
331
7C92
  5
7C93
331
8117
  5
8118
331
7F4E
  5
7F4F
331
7F3D
  5
7F3E
331
7C81
  5
7C82
331
7CA6
  5
7CA7
331
7C3D
  5
7C3E
331
7CB7
  5
7CB8
331
7C4E
  5
7C51
331
7C5F
  5
7C60
331
7C2C
  5
7C2C
331
7CB8
  5
7CB9
331
7CC9
  5
7CCA
331
7C60
  5
7C61
331
7CDA
  5
7CDB
331
7CEB
  5
7CEC
331
7C82
  5
7C83
331
7F3E
  5
7F40
331
8118
  5
8119
331
7F4F
  5
7F50
331
7C93
  5
7C94
331
7C71
  5
7C72
331
7CA7
  5
7CAB
331
7C3E
  5
7C3F
331
7C2D
  5
7C2D
331
7CB9
  5
7CBA
331
7CCA
  5
7CCC
331
7C61
  5
7C62
331
7CDB
  5
7CDC
331
7CEC
  5
7CED
331
7C83
  5
7C84
331
8119
  5
8260
331
7F50
  5
7F51
331
7C94
  5
7C95
331
7C72
  5
7C73
331
7C3F
  5
7C43
331
7C2E
  5
7C2E
331
7C98
  5
7C99
331
7CBA
  5
7CBB
331
7C51
  5
7C52
331
7CDC
  5
7CDD
331
7C73
  5
7C74
331
7CED
  5
7CF0
331
7F51
  5
7F52
331
7F40
  5
7F41
331
7C95
  5
7C97
331
7C84
  5
7C85
331
7C62
  5
7C64
331
7C2F
  5
7C2F
331
7C99
  5
7C9A
331
7CCC
  5
7CCE
331
7C52
  5
7C53
331
7CDD
  5
7CDE
331
7C85
  5
7C86
331
7F52
  5
8067
331
7F41
  5
7F42
331
7C74
  5
7C75
331
7C30
  5
7C30
331
7CAB
  5
7CAC
331
7C9A
  5
7C9B
331
7CBC
  5
7CBD
331
7C53
  5
7C56
331
7CDE
  5
7CDF
331
7C75
  5
7C77
331
7D00
  5
7D01
331
7C97
  5
7C98
331
7F42
  5
7F43
331
7C86
  5
7C87
331
7C64
  5
7C65
331
7C31
  5
7C31
331
7C9B
  5
7C9C
331
7CBD
  5
7CBF
331
7CAC
  5
7CAD
331
7C43
  5
7C44
331
7CDF
  5
7CE0
331
7CCE
  5
7CD0
331
7F43
  5
7F44
331
7CF0
  5
7CF1
331
7C87
  5
7C88
331
7C65
  5
7C66
331
7C32
  5
7C32
331
7C9C
  5
7C9D
331
7CAD
  5
7CAE
331
7C44
  5
7C46
331
7CE0
  5
7CE1
331
7C77
  5
7C78
331
7F44
  5
7F45
331
7CF1
  5
7CF5
331
7C88
  5
7C89
331
7C66
  5
7C67
331
7C33
  5
7C33
  0
ACDBDETAILVIEWSTYLE
  5
8210
102
{ACAD_XDICTIONARY
360
8556
102
}
102
{ACAD_REACTORS
330
820F
102
}
330
820F
100
AcDbModelDocViewStyle
 70
     0
  3
Imperial24
290
     0
100
AcDbDetailViewStyle
 70
     0
 71
     0
 90
        3
 71
     1
340
81FB
 40
0.24
340
0
 40
0.24
300

 40
0.36
280
     3
 71
     2
340
8202
 90
       25
 71
     3
340
81FB
 40
0.24
 90
        1
 40
0.75
 90
        1
300
%<\AcVar ViewType \f "%tc1">% %<\AcVar ViewDetailId>%\PSCALE %<\AcVar ViewScale \f "%sn">%
 71
     4
340
8202
 90
       25
340
8202
 90
       25
280
     0
  0
LAYOUT
  5
8218
102
{ACAD_XDICTIONARY
360
855A
102
}
102
{ACAD_REACTORS
330
8207
102
}
330
8207
100
AcDbPlotSettings
  1

  2
RICOH imagio MP W3600 RPCS
  4

  6

 40
0.0
 41
0.0
 42
0.0
 43
0.0
 44
0.0
 45
0.0
 46
0.0
 47
0.0
 48
0.0
 49
0.0
140
0.0
141
0.0
142
1.0
143
1.0
 70
  1712
 72
     0
 73
     0
 74
     0
  7

 75
     0
147
1.0
148
0.0
149
0.0
100
AcDbLayout
  1
Model
 70
     1
 71
     0
 10
0.0
 20
0.0
 11
12.0
 21
9.0
 12
0.0
 22
0.0
 32
0.0
 14
0.0
 24
0.0
 34
0.0
 15
0.0
 25
0.0
 35
0.0
146
0.0
 13
0.0
 23
0.0
 33
0.0
 16
1.0
 26
0.0
 36
0.0
 17
0.0
 27
1.0
 37
0.0
 76
     0
330
8215
331
821A
  0
LAYOUT
  5
8214
102
{ACAD_XDICTIONARY
360
8558
102
}
102
{ACAD_REACTORS
330
8207
102
}
330
8207
100
AcDbPlotSettings
  1

  2
RICOH imagio MP W3600 RPCS
  4

  6

 40
0.0
 41
0.0
 42
0.0
 43
0.0
 44
0.0
 45
0.0
 46
0.0
 47
0.0
 48
0.0
 49
0.0
140
0.0
141
0.0
142
1.0
143
1.0
 70
   688
 72
     0
 73
     0
 74
     5
  7

 75
    16
147
1.0
148
0.0
149
0.0
100
AcDbLayout
  1
レイアウト1
 70
     1
 71
     1
 10
0.0
 20
0.0
 11
12.0
 21
9.0
 12
0.0
 22
0.0
 32
0.0
 14
1.000000000000000E+20
 24
1.000000000000000E+20
 34
1.000000000000000E+20
 15
-1.000000000000000E+20
 25
-1.000000000000000E+20
 35
-1.000000000000000E+20
146
0.0
 13
0.0
 23
0.0
 33
0.0
 16
1.0
 26
0.0
 36
0.0
 17
0.0
 27
1.0
 37
0.0
 76
     0
330
8211
  0
MATERIAL
  5
81BF
102
{ACAD_XDICTIONARY
360
81C0
102
}
102
{ACAD_REACTORS
330
81B6
102
}
330
81B6
100
AcDbMaterial
  1
ByBlock
 72
     0
 43
0.0208333333333333
 43
0.0
 43
0.0
 43
0.0
 43
0.0
 43
0.0208333333333333
 43
0.0
 43
0.0
 43
0.0
 43
0.0
 43
1.0
 43
0.0
 43
0.0
 43
0.0
 43
0.0
 43
1.0
 77
     0
 47
0.0208333333333333
 47
0.0
 47
0.0
 47
0.0
 47
0.0
 47
0.0208333333333333
 47
0.0
 47
0.0
 47
0.0
 47
0.0
 47
1.0
 47
0.0
 47
0.0
 47
0.0
 47
0.0
 47
1.0
171
     0
 49
0.0208333333333333
 49
0.0
 49
0.0
 49
0.0
 49
0.0
 49
0.0208333333333333
 49
0.0
 49
0.0
 49
0.0
 49
0.0
 49
1.0
 49
0.0
 49
0.0
 49
0.0
 49
0.0
 49
1.0
175
     0
142
0.0208333333333333
142
0.0
142
0.0
142
0.0
142
0.0
142
0.0208333333333333
142
0.0
142
0.0
142
0.0
142
0.0
142
1.0
142
0.0
142
0.0
142
0.0
142
0.0
142
1.0
179
     0
144
0.0208333333333333
144
0.0
144
0.0
144
0.0
144
0.0
144
0.0208333333333333
144
0.0
144
0.0
144
0.0
144
0.0
144
1.0
144
0.0
144
0.0
144
0.0
144
0.0
144
1.0
147
0.0208333333333333
147
0.0
147
0.0
147
0.0
147
0.0
147
0.0208333333333333
147
0.0
147
0.0
147
0.0
147
0.0
147
1.0
147
0.0
147
0.0
147
0.0
147
0.0
147
1.0
  0
MATERIAL
  5
81B7
102
{ACAD_XDICTIONARY
360
81B8
102
}
102
{ACAD_REACTORS
330
81B6
102
}
330
81B6
100
AcDbMaterial
  1
ByLayer
 72
     0
 43
0.0208333333333333
 43
0.0
 43
0.0
 43
0.0
 43
0.0
 43
0.0208333333333333
 43
0.0
 43
0.0
 43
0.0
 43
0.0
 43
1.0
 43
0.0
 43
0.0
 43
0.0
 43
0.0
 43
1.0
 77
     0
 47
0.0208333333333333
 47
0.0
 47
0.0
 47
0.0
 47
0.0
 47
0.0208333333333333
 47
0.0
 47
0.0
 47
0.0
 47
0.0
 47
1.0
 47
0.0
 47
0.0
 47
0.0
 47
0.0
 47
1.0
171
     0
 49
0.0208333333333333
 49
0.0
 49
0.0
 49
0.0
 49
0.0
 49
0.0208333333333333
 49
0.0
 49
0.0
 49
0.0
 49
0.0
 49
1.0
 49
0.0
 49
0.0
 49
0.0
 49
0.0
 49
1.0
175
     0
142
0.0208333333333333
142
0.0
142
0.0
142
0.0
142
0.0
142
0.0208333333333333
142
0.0
142
0.0
142
0.0
142
0.0
142
1.0
142
0.0
142
0.0
142
0.0
142
0.0
142
1.0
179
     0
144
0.0208333333333333
144
0.0
144
0.0
144
0.0
144
0.0
144
0.0208333333333333
144
0.0
144
0.0
144
0.0
144
0.0
144
1.0
144
0.0
144
0.0
144
0.0
144
0.0
144
1.0
147
0.0208333333333333
147
0.0
147
0.0
147
0.0
147
0.0
147
0.0208333333333333
147
0.0
147
0.0
147
0.0
147
0.0
147
1.0
147
0.0
147
0.0
147
0.0
147
0.0
147
1.0
  0
MATERIAL
  5
81C7
102
{ACAD_XDICTIONARY
360
81C8
102
}
102
{ACAD_REACTORS
330
81B6
102
}
330
81B6
100
AcDbMaterial
  1
Global
 72
     0
 43
0.0208333333333333
 43
0.0
 43
0.0
 43
0.0
 43
0.0
 43
0.0208333333333333
 43
0.0
 43
0.0
 43
0.0
 43
0.0
 43
1.0
 43
0.0
 43
0.0
 43
0.0
 43
0.0
 43
1.0
 77
     0
 47
0.0208333333333333
 47
0.0
 47
0.0
 47
0.0
 47
0.0
 47
0.0208333333333333
 47
0.0
 47
0.0
 47
0.0
 47
0.0
 47
1.0
 47
0.0
 47
0.0
 47
0.0
 47
0.0
 47
1.0
171
     0
 49
0.0208333333333333
 49
0.0
 49
0.0
 49
0.0
 49
0.0
 49
0.0208333333333333
 49
0.0
 49
0.0
 49
0.0
 49
0.0
 49
1.0
 49
0.0
 49
0.0
 49
0.0
 49
0.0
 49
1.0
175
     0
142
0.0208333333333333
142
0.0
142
0.0
142
0.0
142
0.0
142
0.0208333333333333
142
0.0
142
0.0
142
0.0
142
0.0
142
1.0
142
0.0
142
0.0
142
0.0
142
0.0
142
1.0
179
     0
144
0.0208333333333333
144
0.0
144
0.0
144
0.0
144
0.0
144
0.0208333333333333
144
0.0
144
0.0
144
0.0
144
0.0
144
1.0
144
0.0
144
0.0
144
0.0
144
0.0
144
1.0
147
0.0208333333333333
147
0.0
147
0.0
147
0.0
147
0.0
147
0.0208333333333333
147
0.0
147
0.0
147
0.0
147
0.0
147
1.0
147
0.0
147
0.0
147
0.0
147
0.0
147
1.0
  0
MLEADERSTYLE
  5
820C
102
{ACAD_REACTORS
330
820B
102
}
330
820B
100
AcDbMLeaderStyle
170
     2
171
     1
172
     0
 90
        2
 40
0.0
 41
0.0
173
     1
 91
-1056964608
340
8200
 92
       -2
290
     1
 42
0.09
291
     1
 43
0.36
  3
Standard
 44
0.18
300

342
81FB
174
     1
178
     6
175
     1
176
     0
 93
-1056964608
 45
0.18
292
     0
297
     0
 46
0.18
 94
-1056964608
 47
1.0
 49
1.0
140
1.0
293
     1
141
0.0
294
     1
177
     0
142
1.0
295
     0
296
     0
143
0.125
1001
ACAD_MLEADERVER
1070
     2
  0
MLINESTYLE
  5
8205
102
{ACAD_REACTORS
330
8204
102
}
330
8204
100
AcDbMlineStyle
  2
STANDARD
 70
     0
  3

 62
   256
 51
90.0
 52
90.0
 71
     2
 49
0.5
 62
   256
  6
BYLAYER
 49
-0.5
 62
   256
  6
BYLAYER
  0
ACDBPLACEHOLDER
  5
81B5
102
{ACAD_REACTORS
330
81B4
102
}
330
81B4
  0
SCALE
  5
81E9
102
{ACAD_REACTORS
330
81E8
102
}
330
81E8
100
AcDbScale
 70
     0
300
1:1
140
1.0
141
1.0
290
     1
  0
SCALE
  5
81EA
102
{ACAD_REACTORS
330
81E8
102
}
330
81E8
100
AcDbScale
 70
     0
300
1/128" = 1'-0"
140
0.0078125
141
12.0
290
     0
  0
SCALE
  5
81EB
102
{ACAD_REACTORS
330
81E8
102
}
330
81E8
100
AcDbScale
 70
     0
300
1/64" = 1'-0"
140
0.015625
141
12.0
290
     0
  0
SCALE
  5
81EC
102
{ACAD_REACTORS
330
81E8
102
}
330
81E8
100
AcDbScale
 70
     0
300
1/32" = 1'-0"
140
0.03125
141
12.0
290
     0
  0
SCALE
  5
81ED
102
{ACAD_REACTORS
330
81E8
102
}
330
81E8
100
AcDbScale
 70
     0
300
1/16" = 1'-0"
140
0.0625
141
12.0
290
     0
  0
SCALE
  5
81EE
102
{ACAD_REACTORS
330
81E8
102
}
330
81E8
100
AcDbScale
 70
     0
300
3/32" = 1'-0"
140
0.09375
141
12.0
290
     0
  0
SCALE
  5
81EF
102
{ACAD_REACTORS
330
81E8
102
}
330
81E8
100
AcDbScale
 70
     0
300
1/8" = 1'-0"
140
0.125
141
12.0
290
     0
  0
SCALE
  5
81F0
102
{ACAD_REACTORS
330
81E8
102
}
330
81E8
100
AcDbScale
 70
     0
300
3/16" = 1'-0"
140
0.1875
141
12.0
290
     0
  0
SCALE
  5
81F1
102
{ACAD_REACTORS
330
81E8
102
}
330
81E8
100
AcDbScale
 70
     0
300
1/4" = 1'-0"
140
0.25
141
12.0
290
     0
  0
SCALE
  5
81F2
102
{ACAD_REACTORS
330
81E8
102
}
330
81E8
100
AcDbScale
 70
     0
300
3/8" = 1'-0"
140
0.375
141
12.0
290
     0
  0
SCALE
  5
81F3
102
{ACAD_REACTORS
330
81E8
102
}
330
81E8
100
AcDbScale
 70
     0
300
1/2" = 1'-0"
140
0.5
141
12.0
290
     0
  0
SCALE
  5
81F4
102
{ACAD_REACTORS
330
81E8
102
}
330
81E8
100
AcDbScale
 70
     0
300
3/4" = 1'-0"
140
0.75
141
12.0
290
     0
  0
SCALE
  5
81F5
102
{ACAD_REACTORS
330
81E8
102
}
330
81E8
100
AcDbScale
 70
     0
300
1" = 1'-0"
140
1.0
141
12.0
290
     0
  0
SCALE
  5
81F6
102
{ACAD_REACTORS
330
81E8
102
}
330
81E8
100
AcDbScale
 70
     0
300
1-1/2" = 1'-0"
140
1.5
141
12.0
290
     0
  0
SCALE
  5
81F7
102
{ACAD_REACTORS
330
81E8
102
}
330
81E8
100
AcDbScale
 70
     0
300
3" = 1'-0"
140
3.0
141
12.0
290
     0
  0
SCALE
  5
81F8
102
{ACAD_REACTORS
330
81E8
102
}
330
81E8
100
AcDbScale
 70
     0
300
6" = 1'-0"
140
6.0
141
12.0
290
     0
  0
SCALE
  5
81F9
102
{ACAD_REACTORS
330
81E8
102
}
330
81E8
100
AcDbScale
 70
     0
300
1'-0" = 1'-0"
140
12.0
141
12.0
290
     0
  0
ACDBSECTIONVIEWSTYLE
  5
820E
102
{ACAD_XDICTIONARY
360
8554
102
}
102
{ACAD_REACTORS
330
820D
102
}
330
820D
100
AcDbModelDocViewStyle
 70
     0
  3
Imperial24
290
     0
100
AcDbSectionViewStyle
 70
     0
 71
     0
 90
       78
 71
     1
340
81FB
 40
0.24
340
0
340
0
 40
0.24
300
I, O, Q, S, X, Z
 40
0.48
 90
        3
 40
0.18
 90
        1
 71
     2
340
8202
 90
       25
340
8202
 90
       50
 40
0.24
 40
0.0
 40
0.24
 71
     3
340
81FB
 40
0.24
 90
        1
 40
0.75
 90
        1
300
%<\AcVar ViewType \f "%tc1">% %<\AcVar ViewSectionStartId>%-%<\AcVar ViewSectionEndId>%\PSCALE %<\AcVar ViewScale \f "%sn">%
 71
     4
300
ANSI31
 40
1.0
 90
        0
290
     0
290
     0
 90
        6
 40
0.0
 40
1.570796326794896
 40
0.2617993877991494
 40
1.308996938995747
 40
-0.2617993877991494
 40
1.832595714594046
  0
TABLESTYLE
  5
820A
102
{ACAD_XDICTIONARY
360
851B
102
}
102
{ACAD_REACTORS
330
8209
102
}
330
8209
100
AcDbTableStyle
  3
Standard
 70
     0
 71
     0
 40
0.06
 41
0.06
280
     0
281
     0
  7
STANDARD
140
0.18
170
     2
 62
     0
 63
     7
283
     0
274
    -2
284
     1
 64
     0
275
    -2
285
     1
 65
     0
276
    -2
286
     1
 66
     0
277
    -2
287
     1
 67
     0
278
    -2
288
     1
 68
     0
279
    -2
289
     1
 69
     0
  7
STANDARD
140
0.25
170
     5
 62
     0
 63
     7
283
     0
274
    -2
284
     1
 64
     0
275
    -2
285
     1
 65
     0
276
    -2
286
     1
 66
     0
277
    -2
287
     1
 67
     0
278
    -2
288
     1
 68
     0
279
    -2
289
     1
 69
     0
  7
STANDARD
140
0.18
170
     5
 62
     0
 63
     7
283
     0
274
    -2
284
     1
 64
     0
275
    -2
285
     1
 65
     0
276
    -2
286
     1
 66
     0
277
    -2
287
     1
 67
     0
278
    -2
288
     1
 68
     0
279
    -2
289
     1
 69
     0
  0
VISUALSTYLE
  5
81D5
102
{ACAD_XDICTIONARY
360
852C
102
}
102
{ACAD_REACTORS
330
81CF
102
}
330
81CF
100
AcDbVisualStyle
  2
2dWireframe
 70
     4
 71
     0
 72
     2
 73
     0
 90
        0
 40
-0.6
 41
-30.0
 62
     5
 63
     7
 74
     1
 91
        4
 64
     7
 65
   257
 75
     1
175
     1
 42
1.0
 92
        0
 66
   257
 43
1.0
 76
     1
 77
     6
 78
     2
 67
     7
 79
     5
170
     0
171
     0
290
     0
174
     0
 93
        1
 44
0.0
173
     0
291
     0
 45
0.0
1001
ACAD
1000
AcDbSavedByObjectVersion
1070
     0
  0
VISUALSTYLE
  5
81D4
102
{ACAD_XDICTIONARY
360
852A
102
}
102
{ACAD_REACTORS
330
81CF
102
}
330
81CF
100
AcDbVisualStyle
  2
Basic
 70
     7
 71
     1
 72
     0
 73
     1
 90
        0
 40
-0.6
 41
-30.0
 62
     5
 63
     7
 74
     0
 91
        4
 64
     7
 65
   257
 75
     1
175
     1
 42
1.0
 92
        8
 66
     7
 43
1.0
 76
     1
 77
     6
 78
     2
 67
     7
 79
     5
170
     0
171
     0
290
     0
174
     0
 93
        1
 44
0.0
173
     0
291
     1
 45
0.0
1001
ACAD
1000
AcDbSavedByObjectVersion
1070
     0
  0
VISUALSTYLE
  5
81DB
102
{ACAD_XDICTIONARY
360
8538
102
}
102
{ACAD_REACTORS
330
81CF
102
}
330
81CF
100
AcDbVisualStyle
  2
Brighten
 70
    12
 71
     2
 72
     2
 73
     0
 90
        0
 40
-0.6
 41
-30.0
 62
     5
 63
     7
 74
     1
 91
        4
 64
     7
 65
   257
 75
     1
175
     1
 42
1.0
 92
        8
 66
     7
 43
1.0
 76
     1
 77
     6
 78
     2
 67
     7
 79
     5
170
     0
171
     0
290
     0
174
     0
 93
        1
 44
50.0
173
     0
291
     1
 45
0.0
1001
ACAD
1000
AcDbSavedByObjectVersion
1070
     0
  0
VISUALSTYLE
  5
81DF
102
{ACAD_XDICTIONARY
360
8540
102
}
102
{ACAD_REACTORS
330
81CF
102
}
330
81CF
100
AcDbVisualStyle
  2
ColorChange
 70
    16
 71
     2
 72
     2
 73
     3
 90
        0
 40
-0.6
 41
-30.0
 62
     5
 63
     8
 74
     1
 91
        4
 64
     7
 65
   257
 75
     1
175
     1
 42
1.0
 92
        8
 66
     8
 43
1.0
 76
     1
 77
     6
 78
     2
 67
     7
 79
     5
170
     0
171
     0
290
     0
174
     0
 93
        1
 44
0.0
173
     0
291
     1
 45
0.0
1001
ACAD
1000
AcDbSavedByObjectVersion
1070
     0
  0
VISUALSTYLE
  5
81D8
102
{ACAD_XDICTIONARY
360
8532
102
}
102
{ACAD_REACTORS
330
81CF
102
}
330
81CF
100
AcDbVisualStyle
  2
Conceptual
 70
     9
 71
     3
 72
     2
 73
     0
 90
        0
 40
-0.6
 41
-30.0
 62
     5
 63
     7
 74
     2
 91
        2
 64
     7
 65
   257
 75
     1
175
     1
 42
179.0
 92
        8
 66
     7
 43
1.0
 76
     1
 77
     6
 78
     2
 67
     7
 79
     3
170
     0
171
     0
290
     0
174
     0
 93
        1
 44
0.0
173
     0
291
     0
 45
0.0
1001
ACAD
1000
AcDbSavedByObjectVersion
1070
     0
  0
VISUALSTYLE
  5
81DA
102
{ACAD_XDICTIONARY
360
8536
102
}
102
{ACAD_REACTORS
330
81CF
102
}
330
81CF
100
AcDbVisualStyle
  2
Dim
 70
    11
 71
     2
 72
     2
 73
     0
 90
        0
 40
-0.6
 41
-30.0
 62
     5
 63
     7
 74
     1
 91
        4
 64
     7
 65
   257
 75
     1
175
     1
 42
1.0
 92
        8
 66
     7
 43
1.0
 76
     1
 77
     6
 78
     2
 67
     7
 79
     5
170
     0
171
     0
290
     0
174
     0
 93
        1
 44
-50.0
173
     0
291
     1
 45
0.0
1001
ACAD
1000
AcDbSavedByObjectVersion
1070
     0
  0
VISUALSTYLE
  5
81E7
102
{ACAD_XDICTIONARY
360
8550
102
}
102
{ACAD_REACTORS
330
81CF
102
}
330
81CF
100
AcDbVisualStyle
  2
EdgeColorOff
 70
    22
 71
     2
 72
     2
 73
     0
 90
        0
 40
-0.6
 41
-30.0
 62
     5
 63
     7
 74
     1
 91
        4
 64
     7
 65
   257
 75
     1
175
     1
 42
1.0
 92
        8
 66
     7
 43
1.0
 76
     1
 77
     6
 78
     2
 67
     7
 79
     5
170
     0
171
     0
290
     0
174
     0
 93
        1
 44
0.0
173
     0
291
     1
 45
0.0
1001
ACAD
1000
AcDbSavedByObjectVersion
1070
     0
  0
VISUALSTYLE
  5
81DE
102
{ACAD_XDICTIONARY
360
853E
102
}
102
{ACAD_REACTORS
330
81CF
102
}
330
81CF
100
AcDbVisualStyle
  2
Facepattern
 70
    15
 71
     2
 72
     2
 73
     0
 90
        0
 40
-0.6
 41
-30.0
 62
     5
 63
     7
 74
     1
 91
        4
 64
     7
 65
   257
 75
     1
175
     1
 42
1.0
 92
        8
 66
     7
 43
1.0
 76
     1
 77
     6
 78
     2
 67
     7
 79
     5
170
     0
171
     0
290
     0
174
     0
 93
        1
 44
0.0
173
     0
291
     1
 45
0.0
1001
ACAD
1000
AcDbSavedByObjectVersion
1070
     0
  0
VISUALSTYLE
  5
81D0
102
{ACAD_XDICTIONARY
360
8522
102
}
102
{ACAD_REACTORS
330
81CF
102
}
330
81CF
100
AcDbVisualStyle
  2
Flat
 70
     0
 71
     2
 72
     1
 73
     1
 90
        2
 40
-0.6
 41
30.0
 62
     5
 63
     7
 74
     0
 91
        0
 64
     7
 65
   257
 75
     1
175
     1
 42
1.0
 92
        8
 66
     7
 43
1.0
 76
     1
 77
     6
 78
     2
 67
     7
 79
     5
170
     0
171
     0
290
     0
174
     0
 93
       13
 44
0.0
173
     0
291
     1
 45
0.0
1001
ACAD
1000
AcDbSavedByObjectVersion
1070
     0
  0
VISUALSTYLE
  5
81D1
102
{ACAD_XDICTIONARY
360
8524
102
}
102
{ACAD_REACTORS
330
81CF
102
}
330
81CF
100
AcDbVisualStyle
  2
FlatWithEdges
 70
     1
 71
     2
 72
     1
 73
     1
 90
        2
 40
-0.6
 41
30.0
 62
     5
 63
     7
 74
     1
 91
        0
 64
     7
 65
   257
 75
     1
175
     1
 42
1.0
 92
        0
 66
   257
 43
1.0
 76
     1
 77
     6
 78
     2
 67
     7
 79
     5
170
     0
171
     0
290
     0
174
     0
 93
       13
 44
0.0
173
     0
291
     1
 45
0.0
1001
ACAD
1000
AcDbSavedByObjectVersion
1070
     0
  0
VISUALSTYLE
  5
81D2
102
{ACAD_XDICTIONARY
360
8526
102
}
102
{ACAD_REACTORS
330
81CF
102
}
330
81CF
100
AcDbVisualStyle
  2
Gouraud
 70
     2
 71
     2
 72
     2
 73
     1
 90
        2
 40
-0.6
 41
30.0
 62
     5
 63
     7
 74
     0
 91
        0
 64
     7
 65
   257
 75
     1
175
     1
 42
1.0
 92
        0
 66
     7
 43
1.0
 76
     1
 77
     6
 78
     2
 67
     7
 79
     5
170
     0
171
     0
290
     0
174
     0
 93
       13
 44
0.0
173
     0
291
     1
 45
0.0
1001
ACAD
1000
AcDbSavedByObjectVersion
1070
     0
  0
VISUALSTYLE
  5
81D3
102
{ACAD_XDICTIONARY
360
8528
102
}
102
{ACAD_REACTORS
330
81CF
102
}
330
81CF
100
AcDbVisualStyle
  2
GouraudWithEdges
 70
     3
 71
     2
 72
     2
 73
     1
 90
        2
 40
-0.6
 41
30.0
 62
     5
 63
     7
 74
     1
 91
        0
 64
     7
 65
   257
 75
     1
175
     1
 42
1.0
 92
        0
 66
   257
 43
1.0
 76
     1
 77
     6
 78
     2
 67
     7
 79
     5
170
     0
171
     0
290
     0
174
     0
 93
       13
 44
0.0
173
     0
291
     1
 45
0.0
1001
ACAD
1000
AcDbSavedByObjectVersion
1070
     0
  0
VISUALSTYLE
  5
81D7
102
{ACAD_XDICTIONARY
360
8530
102
}
102
{ACAD_REACTORS
330
81CF
102
}
330
81CF
100
AcDbVisualStyle
  2
Hidden
 70
     6
 71
     1
 72
     2
 73
     2
 90
        0
 40
-0.6
 41
-30.0
 62
     5
 63
     7
 74
     2
 91
        2
 64
     7
 65
   257
 75
     2
175
     1
 42
40.0
 92
        0
 66
   257
 43
1.0
 76
     1
 77
     6
 78
     2
 67
     7
 79
     3
170
     0
171
     0
290
     0
174
     0
 93
        1
 44
0.0
173
     0
291
     0
 45
0.0
1001
ACAD
1000
AcDbSavedByObjectVersion
1070
     0
  0
VISUALSTYLE
  5
81E5
102
{ACAD_XDICTIONARY
360
854C
102
}
102
{ACAD_REACTORS
330
81CF
102
}
330
81CF
100
AcDbVisualStyle
  2
JitterOff
 70
    20
 71
     2
 72
     2
 73
     0
 90
        0
 40
-0.6
 41
-30.0
 62
     5
 63
     7
 74
     1
 91
        4
 64
     7
 65
   257
 75
     1
175
     1
 42
1.0
 92
       10
 66
     7
 43
1.0
 76
     1
 77
     6
 78
     2
 67
     7
 79
     5
170
     0
171
     0
290
     0
174
     0
 93
        1
 44
0.0
173
     0
291
     1
 45
0.0
1001
ACAD
1000
AcDbSavedByObjectVersion
1070
     0
  0
VISUALSTYLE
  5
81DD
102
{ACAD_XDICTIONARY
360
853C
102
}
102
{ACAD_REACTORS
330
81CF
102
}
330
81CF
100
AcDbVisualStyle
  2
Linepattern
 70
    14
 71
     2
 72
     2
 73
     0
 90
        0
 40
-0.6
 41
-30.0
 62
     5
 63
     7
 74
     1
 91
        4
 64
     7
 65
   257
 75
     7
175
     7
 42
1.0
 92
        8
 66
     7
 43
1.0
 76
     1
 77
     6
 78
     2
 67
     7
 79
     5
170
     0
171
     0
290
     0
174
     0
 93
        1
 44
0.0
173
     0
291
     1
 45
0.0
1001
ACAD
1000
AcDbSavedByObjectVersion
1070
     0
  0
VISUALSTYLE
  5
81E6
102
{ACAD_XDICTIONARY
360
854E
102
}
102
{ACAD_REACTORS
330
81CF
102
}
330
81CF
100
AcDbVisualStyle
  2
OverhangOff
 70
    21
 71
     2
 72
     2
 73
     0
 90
        0
 40
-0.6
 41
-30.0
 62
     5
 63
     7
 74
     1
 91
        4
 64
     7
 65
   257
 75
     1
175
     1
 42
1.0
 92
        9
 66
     7
 43
1.0
 76
     1
 77
     6
 78
     2
 67
     7
 79
     5
170
     0
171
     0
290
     0
174
     0
 93
        1
 44
0.0
173
     0
291
     1
 45
0.0
1001
ACAD
1000
AcDbSavedByObjectVersion
1070
     0
  0
VISUALSTYLE
  5
81D9
102
{ACAD_XDICTIONARY
360
8534
102
}
102
{ACAD_REACTORS
330
81CF
102
}
330
81CF
100
AcDbVisualStyle
  2
Realistic
 70
     8
 71
     2
 72
     3
 73
     0
 90
        2
 40
-0.6
 41
30.0
 62
     5
 63
     7
 74
     0
 91
        0
 64
     7
 65
   257
 75
     1
175
     1
 42
1.0
 92
        8
 66
   257
 43
1.0
 76
     1
 77
     6
 78
     2
 67
     7
 79
     3
170
     0
171
     0
290
     0
174
     0
 93
       13
 44
0.0
173
     0
291
     0
 45
0.0
1001
ACAD
1000
AcDbSavedByObjectVersion
1070
     0
  0
VISUALSTYLE
  5
81E4
102
{ACAD_XDICTIONARY
360
854A
102
}
102
{ACAD_REACTORS
330
81CF
102
}
330
81CF
100
AcDbVisualStyle
  2
Shaded
 70
    27
 71
     2
 72
     2
 73
     1
 90
        2
 40
-0.6
 41
30.0
 62
     5
 63
     7
 74
     0
 91
        4
 64
     7
 65
   257
 75
     1
175
     1
 42
1.0
 92
        8
 66
   257
 43
1.0
 76
     1
 77
     6
 78
     2
 67
     8
 79
     3
170
     0
171
     0
290
     0
174
     0
 93
        5
 44
0.0
173
     0
291
     0
 45
0.0
1001
ACAD
1000
AcDbSavedByObjectVersion
1070
     0
  0
VISUALSTYLE
  5
81E3
102
{ACAD_XDICTIONARY
360
8548
102
}
102
{ACAD_REACTORS
330
81CF
102
}
330
81CF
100
AcDbVisualStyle
  2
Shaded with edges
 70
    26
 71
     2
 72
     2
 73
     1
 90
        2
 40
-0.6
 41
30.0
 62
     5
 63
     7
 74
     1
 91
       10
 64
     7
 65
   257
 75
     2
175
     1
 42
1.0
 92
        8
 66
   257
 43
1.0
 76
     1
 77
     6
 78
     2
 67
     7
 79
     3
170
     0
171
     0
290
     0
174
     0
 93
        5
 44
0.0
173
     0
291
     0
 45
0.0
1001
ACAD
1000
AcDbSavedByObjectVersion
1070
     0
  0
VISUALSTYLE
  5
81E0
102
{ACAD_XDICTIONARY
360
8542
102
}
102
{ACAD_REACTORS
330
81CF
102
}
330
81CF
100
AcDbVisualStyle
  2
Shades of Gray
 70
    23
 71
     2
 72
     2
 73
     3
 90
        0
 40
-0.6
 41
-30.0
 62
     5
 63
     7
 74
     2
 91
        2
 64
     7
 65
     7
 75
     1
175
     1
 42
40.0
 92
        8
 66
     7
 43
1.0
 76
     1
 77
     6
 78
     2
 67
     7
 79
     3
170
     0
171
     0
290
     0
174
     0
 93
        1
 44
0.0
173
     0
291
     0
 45
0.0
1001
ACAD
1000
AcDbSavedByObjectVersion
1070
     0
  0
VISUALSTYLE
  5
81E1
102
{ACAD_XDICTIONARY
360
8544
102
}
102
{ACAD_REACTORS
330
81CF
102
}
330
81CF
100
AcDbVisualStyle
  2
Sketchy
 70
    24
 71
     1
 72
     2
 73
     2
 90
        0
 40
-0.6
 41
-30.0
 62
     5
 63
     7
 74
     2
 91
        2
 64
     7
 65
     7
 75
     1
175
     1
 42
40.0
 92
       11
 66
     7
 43
1.0
 76
     1
 77
     6
 78
     2
 67
     7
 79
     6
170
     0
171
     0
290
     0
174
     0
 93
        1
 44
0.0
173
     0
291
     0
 45
0.0
1001
ACAD
1000
AcDbSavedByObjectVersion
1070
     0
  0
VISUALSTYLE
  5
81DC
102
{ACAD_XDICTIONARY
360
853A
102
}
102
{ACAD_REACTORS
330
81CF
102
}
330
81CF
100
AcDbVisualStyle
  2
Thicken
 70
    13
 71
     2
 72
     2
 73
     0
 90
        0
 40
-0.6
 41
-30.0
 62
     5
 63
     7
 74
     1
 91
        4
 64
     7
 65
   257
 75
     1
175
     1
 42
1.0
 92
       12
 66
     7
 43
1.0
 76
     1
 77
     6
 78
     2
 67
     7
 79
     5
170
     0
171
     0
290
     0
174
     0
 93
        1
 44
0.0
173
     0
291
     1
 45
0.0
1001
ACAD
1000
AcDbSavedByObjectVersion
1070
     0
  0
VISUALSTYLE
  5
81D6
102
{ACAD_XDICTIONARY
360
852E
102
}
102
{ACAD_REACTORS
330
81CF
102
}
330
81CF
100
AcDbVisualStyle
  2
Wireframe
 70
     5
 71
     0
 72
     2
 73
     0
 90
        0
 40
-0.6
 41
-30.0
 62
     5
 63
     7
 74
     1
 91
        4
 64
     7
 65
   257
 75
     1
175
     1
 42
1.0
 92
        0
 66
   257
 43
1.0
 76
     1
 77
     6
 78
     2
 67
     7
 79
     3
170
     0
171
     0
290
     0
174
     0
 93
        1
 44
0.0
173
     0
291
     0
 45
0.0
1001
ACAD
1000
AcDbSavedByObjectVersion
1070
     0
  0
VISUALSTYLE
  5
81E2
102
{ACAD_XDICTIONARY
360
8546
102
}
102
{ACAD_REACTORS
330
81CF
102
}
330
81CF
100
AcDbVisualStyle
  2
X-Ray
 70
    25
 71
     2
 72
     2
 73
     1
 90
        1
 40
0.5
 41
-30.0
 62
     5
 63
     7
 74
     1
 91
        0
 64
     7
 65
   257
 75
     1
175
     1
 42
1.0
 92
        8
 66
     7
 43
1.0
 76
     1
 77
     6
 78
     2
 67
     7
 79
     3
170
     0
171
     0
290
     0
174
     0
 93
       13
 44
0.0
173
     0
291
     0
 45
0.0
1001
ACAD
1000
AcDbSavedByObjectVersion
1070
     0
  0
DICTIONARYVAR
  5
8515
102
{ACAD_REACTORS
330
8510
102
}
330
8510
100
DictionaryVariables
280
     0
  1
1:1
  0
DICTIONARYVAR
  5
8512
102
{ACAD_REACTORS
330
8510
102
}
330
8510
100
DictionaryVariables
280
     0
  1
STANDARD
  0
DICTIONARYVAR
  5
8511
102
{ACAD_REACTORS
330
8510
102
}
330
8510
100
DictionaryVariables
280
     0
  1
STANDARD
  0
DICTIONARYVAR
  5
8513
102
{ACAD_REACTORS
330
8510
102
}
330
8510
100
DictionaryVariables
280
     0
  1
Imperial24
  0
DICTIONARYVAR
  5
8514
102
{ACAD_REACTORS
330
8510
102
}
330
8510
100
DictionaryVariables
280
     0
  1
Imperial24
  0
DICTIONARYVAR
  5
8518
102
{ACAD_REACTORS
330
8510
102
}
330
8510
100
DictionaryVariables
280
     0
  1
1
  0
DICTIONARYVAR
  5
8517
102
{ACAD_REACTORS
330
8510
102
}
330
8510
100
DictionaryVariables
280
     0
  1
0
  0
DICTIONARYVAR
  5
8516
102
{ACAD_REACTORS
330
8510
102
}
330
8510
100
DictionaryVariables
280
     0
  1
127
  0
DICTIONARYVAR
  5
8519
102
{ACAD_REACTORS
330
8510
102
}
330
8510
100
DictionaryVariables
280
     0
  1
2
  0
DICTIONARY
  5
8556
330
8210
100
AcDbDictionary
280
     1
281
     1
  3
ACAD_XREC_ROUNDTRIP
360
8557
  0
DICTIONARY
  5
855A
330
8218
100
AcDbDictionary
280
     1
281
     1
  3
ACAD_XREC_ROUNDTRIP
360
855B
  0
DICTIONARY
  5
8558
330
8214
100
AcDbDictionary
280
     1
281
     1
  3
ACAD_XREC_ROUNDTRIP
360
8559
  0
DICTIONARY
  5
81C0
330
81BF
100
AcDbDictionary
280
     1
281
     1
  3
ACAD_XREC_ROUNDTRIP
360
8520
  3
BUMPTILE
360
81C2
  3
DIFFUSETILE
360
81C1
  3
OPACITYTILE
360
81C5
  3
REFLECTIONTILE
360
81C4
  3
REFRACTIONTILE
360
81C6
  3
SPECULARTILE
360
81C3
  0
DICTIONARY
  5
81B8
330
81B7
100
AcDbDictionary
280
     1
281
     1
  3
ACAD_XREC_ROUNDTRIP
360
851F
  3
BUMPTILE
360
81BA
  3
DIFFUSETILE
360
81B9
  3
OPACITYTILE
360
81BD
  3
REFLECTIONTILE
360
81BC
  3
REFRACTIONTILE
360
81BE
  3
SPECULARTILE
360
81BB
  0
DICTIONARY
  5
81C8
330
81C7
100
AcDbDictionary
280
     1
281
     1
  3
ACAD_XREC_ROUNDTRIP
360
8521
  3
BUMPTILE
360
81CA
  3
DIFFUSETILE
360
81C9
  3
FBXASSET
360
830F
  3
OPACITYTILE
360
81CD
  3
REFLECTIONTILE
360
81CC
  3
REFRACTIONTILE
360
81CE
  3
SPECULARTILE
360
81CB
  0
DICTIONARY
  5
8554
330
820E
100
AcDbDictionary
280
     1
281
     1
  3
ACAD_XREC_ROUNDTRIP
360
8555
  0
DICTIONARY
  5
851B
330
820A
100
AcDbDictionary
280
     1
281
     1
  3
ACAD_ROUNDTRIP_2008_TABLESTYLE_CELLSTYLEMAP
360
851C
  3
ACAD_XREC_ROUNDTRIP
360
8552
  0
DICTIONARY
  5
852C
330
81D5
100
AcDbDictionary
280
     1
281
     1
  3
ACAD_XREC_ROUNDTRIP
360
852D
  0
DICTIONARY
  5
852A
330
81D4
100
AcDbDictionary
280
     1
281
     1
  3
ACAD_XREC_ROUNDTRIP
360
852B
  0
DICTIONARY
  5
8538
330
81DB
100
AcDbDictionary
280
     1
281
     1
  3
ACAD_XREC_ROUNDTRIP
360
8539
  0
DICTIONARY
  5
8540
330
81DF
100
AcDbDictionary
280
     1
281
     1
  3
ACAD_XREC_ROUNDTRIP
360
8541
  0
DICTIONARY
  5
8532
330
81D8
100
AcDbDictionary
280
     1
281
     1
  3
ACAD_XREC_ROUNDTRIP
360
8533
  0
DICTIONARY
  5
8536
330
81DA
100
AcDbDictionary
280
     1
281
     1
  3
ACAD_XREC_ROUNDTRIP
360
8537
  0
DICTIONARY
  5
8550
330
81E7
100
AcDbDictionary
280
     1
281
     1
  3
ACAD_XREC_ROUNDTRIP
360
8551
  0
DICTIONARY
  5
853E
330
81DE
100
AcDbDictionary
280
     1
281
     1
  3
ACAD_XREC_ROUNDTRIP
360
853F
  0
DICTIONARY
  5
8522
330
81D0
100
AcDbDictionary
280
     1
281
     1
  3
ACAD_XREC_ROUNDTRIP
360
8523
  0
DICTIONARY
  5
8524
330
81D1
100
AcDbDictionary
280
     1
281
     1
  3
ACAD_XREC_ROUNDTRIP
360
8525
  0
DICTIONARY
  5
8526
330
81D2
100
AcDbDictionary
280
     1
281
     1
  3
ACAD_XREC_ROUNDTRIP
360
8527
  0
DICTIONARY
  5
8528
330
81D3
100
AcDbDictionary
280
     1
281
     1
  3
ACAD_XREC_ROUNDTRIP
360
8529
  0
DICTIONARY
  5
8530
330
81D7
100
AcDbDictionary
280
     1
281
     1
  3
ACAD_XREC_ROUNDTRIP
360
8531
  0
DICTIONARY
  5
854C
330
81E5
100
AcDbDictionary
280
     1
281
     1
  3
ACAD_XREC_ROUNDTRIP
360
854D
  0
DICTIONARY
  5
853C
330
81DD
100
AcDbDictionary
280
     1
281
     1
  3
ACAD_XREC_ROUNDTRIP
360
853D
  0
DICTIONARY
  5
854E
330
81E6
100
AcDbDictionary
280
     1
281
     1
  3
ACAD_XREC_ROUNDTRIP
360
854F
  0
DICTIONARY
  5
8534
330
81D9
100
AcDbDictionary
280
     1
281
     1
  3
ACAD_XREC_ROUNDTRIP
360
8535
  0
DICTIONARY
  5
854A
330
81E4
100
AcDbDictionary
280
     1
281
     1
  3
ACAD_XREC_ROUNDTRIP
360
854B
  0
DICTIONARY
  5
8548
330
81E3
100
AcDbDictionary
280
     1
281
     1
  3
ACAD_XREC_ROUNDTRIP
360
8549
  0
DICTIONARY
  5
8542
330
81E0
100
AcDbDictionary
280
     1
281
     1
  3
ACAD_XREC_ROUNDTRIP
360
8543
  0
DICTIONARY
  5
8544
330
81E1
100
AcDbDictionary
280
     1
281
     1
  3
ACAD_XREC_ROUNDTRIP
360
8545
  0
DICTIONARY
  5
853A
330
81DC
100
AcDbDictionary
280
     1
281
     1
  3
ACAD_XREC_ROUNDTRIP
360
853B
  0
DICTIONARY
  5
852E
330
81D6
100
AcDbDictionary
280
     1
281
     1
  3
ACAD_XREC_ROUNDTRIP
360
852F
  0
DICTIONARY
  5
8546
330
81E2
100
AcDbDictionary
280
     1
281
     1
  3
ACAD_XREC_ROUNDTRIP
360
8547
  0
XRECORD
  5
8557
102
{ACAD_REACTORS
330
8556
102
}
330
8556
100
AcDbXrecord
280
     1
102
DISPLAYNAME
  1
Imperial24
102
FLAGS
 90
        0
  0
XRECORD
  5
855B
102
{ACAD_REACTORS
330
855A
102
}
330
855A
100
AcDbXrecord
280
     1
102
SHADEPLOT
 70
     0
102
SHADEPLOTRESLEVEL
 70
     2
102
SHADEPLOTCUSTOMDPI
 70
   300
  0
XRECORD
  5
8559
102
{ACAD_REACTORS
330
8558
102
}
330
8558
100
AcDbXrecord
280
     1
102
SHADEPLOT
 70
     0
102
SHADEPLOTRESLEVEL
 70
     2
102
SHADEPLOTCUSTOMDPI
 70
   300
  0
XRECORD
  5
8520
102
{ACAD_REACTORS
330
81C0
102
}
330
81C0
100
AcDbXrecord
280
     1
102
MATERIAL
148
0.0
149
0.0
149
0.0
 93
        0
 94
      127
282
     0
 72
     0
 77
     0
171
     0
175
     0
179
     0
273
     0
  0
XRECORD
  5
81C2
102
{ACAD_REACTORS
330
81C0
102
}
330
81C0
100
AcDbXrecord
280
     1
270
     1
271
     1
  0
XRECORD
  5
81C1
102
{ACAD_REACTORS
330
81C0
102
}
330
81C0
100
AcDbXrecord
280
     1
270
     1
271
     1
  0
XRECORD
  5
81C5
102
{ACAD_REACTORS
330
81C0
102
}
330
81C0
100
AcDbXrecord
280
     1
270
     1
271
     1
  0
XRECORD
  5
81C4
102
{ACAD_REACTORS
330
81C0
102
}
330
81C0
100
AcDbXrecord
280
     1
270
     1
271
     1
  0
XRECORD
  5
81C6
102
{ACAD_REACTORS
330
81C0
102
}
330
81C0
100
AcDbXrecord
280
     1
270
     1
271
     1
  0
XRECORD
  5
81C3
102
{ACAD_REACTORS
330
81C0
102
}
330
81C0
100
AcDbXrecord
280
     1
270
     1
271
     1
  0
XRECORD
  5
851F
102
{ACAD_REACTORS
330
81B8
102
}
330
81B8
100
AcDbXrecord
280
     1
102
MATERIAL
148
0.0
149
0.0
149
0.0
 93
        0
 94
      127
282
     0
 72
     0
 77
     0
171
     0
175
     0
179
     0
273
     0
  0
XRECORD
  5
81BA
102
{ACAD_REACTORS
330
81B8
102
}
330
81B8
100
AcDbXrecord
280
     1
270
     1
271
     1
  0
XRECORD
  5
81B9
102
{ACAD_REACTORS
330
81B8
102
}
330
81B8
100
AcDbXrecord
280
     1
270
     1
271
     1
  0
XRECORD
  5
81BD
102
{ACAD_REACTORS
330
81B8
102
}
330
81B8
100
AcDbXrecord
280
     1
270
     1
271
     1
  0
XRECORD
  5
81BC
102
{ACAD_REACTORS
330
81B8
102
}
330
81B8
100
AcDbXrecord
280
     1
270
     1
271
     1
  0
XRECORD
  5
81BE
102
{ACAD_REACTORS
330
81B8
102
}
330
81B8
100
AcDbXrecord
280
     1
270
     1
271
     1
  0
XRECORD
  5
81BB
102
{ACAD_REACTORS
330
81B8
102
}
330
81B8
100
AcDbXrecord
280
     1
270
     1
271
     1
  0
XRECORD
  5
8521
102
{ACAD_REACTORS
330
81C8
102
}
330
81C8
100
AcDbXrecord
280
     1
102
MATERIAL
148
0.0
149
0.0
149
0.0
 93
        0
 94
      127
282
     0
 72
     0
 77
     0
171
     0
175
     0
179
     0
273
     0
  0
XRECORD
  5
81CA
102
{ACAD_REACTORS
330
81C8
102
}
330
81C8
100
AcDbXrecord
280
     1
270
     1
271
     1
  0
XRECORD
  5
81C9
102
{ACAD_REACTORS
330
81C8
102
}
330
81C8
100
AcDbXrecord
280
     1
270
     1
271
     1
  0
XRECORD
  5
830F
102
{ACAD_REACTORS
330
81C8
102
}
330
81C8
100
AcDbXrecord
280
     1
 70
     1
 90
1959938040
 71
     1
  1
E6C1745D-BAD6-483B-9954-6241445522EE
311
504B030414000608080040917657889F533AD8000000200100004F00000036433346384338432D464633452D343032392D394231442D3644343245423939353234312F4173736574446174612F446566696E6974696F6E4974657261746F7250726F706572746965732E62696E454E3D4FC3400C3D18400C0CFC83AAFB71BE
311
6B124AD416519132C102134BE55EDC12E99254B9446264E45F83AD16D5D2B39FBF9EFDA394FA3D1A5375C6F8667FCDF1991AEA2AFFE63FA946752195D06E305C9E7AE74C257DA22D0EA197AD972A7A0A011B6A8778731A1DD5D8B31C865B59BA62FC17A228EC0EC7E4FE2B435E9288E53E7FC018A99F9BEDE6CBA47609D3E2
311
2ED1AB02129D40BAD2CB22B33A9BC07DC22CCDECA3E928B643E7291A67607D545EEF9B5D552E667D55D3A8C19AE663DF11FF548E170EDC445BAB9D7BB7D3DC420EF0313332F907504B0304140006080800409176578589D32C16010000300200004500000036433346384338432D464633452D343032392D394231442D3644
311
343245423939353234312F4173736574446174612F496E7374616E636550726F706572746965732E62696EEB606060F80F0540260323103700495E20ED9E9A975A94991C9C9C919A9BA802147035733634373175D175727431D335B13076D2B5B43435D1353332313431313535327275654768046931363471713532B5D435
311
353131D635313332D475727372D13534373670367376B67474B5042A03DBCBA019D37FE8ABC6157B20CD04146B0062181F4C03F940F0C11EA29A8141C08141002C0426541C106CAC2CA046088033B02A030AC2157C6006F21A8018AAF50194E6010A610250382264E08660284CD9E98021862280A91564B406929A0FF62C40
311
1E28B6F88038B83CB1243943D7A928312F25350524F36453488C033010DF2C86D05FA640E83FAD109AA51C42F36440689148082DE305A155AC21B48E0E84369185D000504B03041400060808004091765728BB58AF800100009E0500003D00000036433346384338432D464633452D343032392D394231442D364434324542
311
3939353234312F536368656D61732F436F6D6D6F6E536368656D612E786D6CBD544D4FC23018BEFB2B96DE15493C78601010A34B880709DEDFB52FD0D8B54BD70DF6EFED3AC0B12E6442E2716BFB3CEFF3D18E26FB440405EA8C2B1992E1C323095052C5B8DC842437EBFB673219DF8DA659866649B798C078B48AE6410122
311
242F2A4994AC7F93815DF85C049C8564CA0A901499DD886B2EB9B1E02448F358701A9235880C49A0119892A20C89D1B9FD768815CAD268CB5E0355B40B1E47F3E37A2020464BED06AA57CE8FCC20C3C3446D46761A2632A8C1283D07031EFF2AE7CCB1BFEEE916E406DFAC8E36FFD99A9D60A6944090EEDC3B670C7DC13DE8
311
6B6B2C5C240D6E503BB85ACD579D513F1B9F9A69DC9CC22AFA80C426D40AF0B21EA168559156B6276F0F726A6BFF04DCD513A87A62CAD41FB24FCB2858B3952E3D852084DA25B9303C15687973CC8E8AAE11DF2836C38C6A9E765E8C1BA1BFB1DC29CDFE518C8B5A7655A4ED7E77291ABEB80DBD82EC866ADE1B8D05AF9E35
311
CF09D7A061F38A986D9EC412B8F0F65E5D81534D9B231D1E5A8FE577A241F3A5FD01504B0304140006080800409176572CCEBD668A040000E01200003E00000036433346384338432D464633452D343032392D394231442D3644343245423939353234312F536368656D61732F47656E65726963536368656D612E786D6CD5
311
586D6FDB380CFE7EBF42F0F7A649B70E1B90744856B4970F450FCD7A5F05459613EDE4174872DADCAF3F522F8ED3B88D2F1D06AC4050DBA2493EE4438AF2F8EB73AEC8466823CB62928C06C384888297A92C5693A4B6D9D9E7E4EBD51FE3A931C22EF85AE4EC6AFC38BF261BA626C9AD288496DC3F4FCEAFC63366845F7A10
311
452AF41DB320C0D44EC26EAB20918735565582695670811A6A49643A49A6E9069FA4604A64B29016DC4B48552F95E4932463CA888468C1D2B250DB4962750DF7CE273069CE8363F1FF4EDB00E0A21999574AE4A2B00C353B93F3BD4777B8A61ED8F604ABFEDD79CE56A2B7BDFBDBC50996E0ADDE16FED26223C5D30956C29B
311
DF4A55EA686E5E58B112DA45CE67F76F4FA27EFA3FB672FD7372FC388FAECDCA5209E693CAD167BADCD272F943701B3812F8A3D852008B1D2E32DB927B2F833C6EA95879925356D254582695095A3CE982924720BE5774A3CB9CDCDB350427D2DF20DA1B5532EBE2D5D6288D75D4F7E4FD9890A0EF8E3D93EBB8F8BA475815
311
8EF6FB90A6F9520281C93DE7AAC6D24607DA296BB96018123F821A7D6A5C5884050C475DA4865442732C8B95684A50165CBB3A32F25F783A4A480ED59AD7F924B968AEA50131F46303223E6A397B0E52976030DC1DCA81D7E7C1EDEEA42C19FF27635C505E2BD5198A599020DF50A2330FCB3AAF28CB0124108429553EF1B2
311
28802E2265D8F7CC2401042B155BCC7070F1E5C55F13B4A9577362CCCE46C32174E010C3C378C44841A4BDA00FE3A12006CE11EE6AEC59894D3526DDE1CD59D503ECC324017F8061B7F162162FA62EDD81AE3308617770796DCBDAD2B2625C5AE8A63DE20B2C8AA5E95E76E5730823955956E33E705425A2187C185D36489A
311
1B44D3DCEC2172F6BA2105C3546287A7194B2331768EBBE64F6E70A9930ABE0ADEA89E9E2C38523B810287AD67A54A039C1606EAFE68F8304610BB9093DBDDABC0B2AE4E290DCDA15376D7E39F72B556F0B32EAB5D3D498B4C41ABADEC3A1434C422D87E8025A84BDCB2B1417ED750FAE4DA8976863974C577C7F902D3F156
311
AD354DEA3540DE6BEAE2BEA52F7A2EB4CA43802ECE5BF2CE2EDC9347179FFB023CE412E60BE16DA0BE29B374988A553F561DC04615DD35F7D2C8979F60E5955CE93DF29DED8AFA1EE6642D53418086C03C47C377910F75F7E8F5EF665F70B60FFB22AEDF897D119E8423C773E819A3C1E55E550599EE6EDCA34D0C86FD7205
311
7DF2CD46F16A470682471C164E4346D5306BF12D7D12D82CFF673D41636C347443FEB51B50D72EA171A8E4A58623A4A16E0FA2B8B10A0D23268D87C33896EE8FB73305A74BF224EDBADFA0BD674AB354D63DB7BD5D83426761C077DE767728235446A552754EB93B755891C3C4CC6CADE37CF0E912A7BB38DBA010F9DE1282
311
EDF470CA69A9CDA482E334C4A6EA4107987980B17E72F31730EBF88BBD39E7C629F56797A3C0009C2C5AE7951D9A05A02773440F02EEB4DE396A3B6A570C72CCFBCD823B0B8ED3F1D5CEDDFED772FA70236C83FB7D86C385D570B87107535572A60A96035F8F7C6A7192F13007246BBE0521855E6AC46F3E27689CEE7D186A
311
6FD679D98CDCAD13333E04EBE7ED6F55FF01504B0304140006080800409176576180134D5F0100006B0300004500000036433346384338432D464633452D343032392D394231442D3644343245423939353234312F536368656D61732F52656E6465724D6174657269616C536368656D612E786D6CA5934D6FC2300C86EFFB
311
1551EEE343DBA41D1A103009551ADAD40EAE28A4A68D9426284961FCFBE5A340113B2071746D3F765EBF4DC6BFB5407BD0862B49F0B037C0082453059725C18DDD3EBFE3F1E829991803366715D474942CD30FB4A782E00C64017A412D684E454CE3FE28995203B162A6EA5AC94B66997D225E109CD63B0135484BAD1B3C07
311
E9080CA35DB3119C11BCA5C200461A68A1A438126C75E3E230D40FF81FB3F03C91D1E3A3A0AF79FE28E25BC39EC3E17E4C2A2D94A0833A51AF55BCCA7D88572FCBAC529C4140B020FC3AAFA886621DCED7EAD7664CC86024E806DC297DA1BB393E4156543457A4537DB8817349A70F8ACBF09B3EEE2CB2F33E91B65D60786E
311
4E3B39B77E3FEEEF5650424525DA657FB8B46BE6BF064646F0A0F7327C0BC1BC1B4CBBC1C419FA3CCB23500007872A2580CAAE5461865565294E4EDB4617B62FF579DF9A5B2F54E834076A597573A020912FED777F9B3F504B030414000608080040917657CF6D874851000000570000004700000036433346384338432D46
311
4633452D343032392D394231442D3644343245423939353234312F4173736574446174612F41737365745461626C654F66436F6E74656E74732E62696E536160607035733634373175D175727431D335B13076D2B5B43435D13533323134313135353272751502AACB4D2C492DCA4CCC492C28484D2C4ACC4B4E050A82012F
311
90744FCD03CA26072767A4E6260200504B030414000608080040917657F865834058000000680000004500000036433346384338432D464633452D343032392D394231442D3644343245423939353234312F4173736574446174612F53747265616D56657273696F6E5461626C652E696E66558CBD0A80300C06F73E4B117F
311
B66E451741D041DC5BF98480A492E4FDD18EAEC7DD4555D89EF28DF51A0B1BD8340C4DE7DD848B988C0ACF0649566493F2408C508DDEBB99D5129FF8F1AF8CF5B9503E20FAE5A16B5AF702504B0304140006080800409176571E1688E9330100009A0400003600000036433346384338432D464633452D343032392D394231
311
442D3644343245423939353234312F4173736574446174612F636E782E786D6CCD94314FC3301085FF4AE43D761296AA725C21583A8144C5C076712EC5AA6347F605C1BFC76E33808A9832743DBF3B3F7FF23BB9FB1C6DF181211AEF5A56F38A15E8B4EF8D3BB66CA6A1DCB062A764F09E7EC858E160C496E53253F218FC3C
311
2DA51E07986DAE5AE34E4BF13E46A40374169F8607EF081D4556680B31B62CEA771C81C34CBEC778E23D10F09A078C7E0E1AD32432232E93744020EC996AAAE6AEACEBB2690EF5665B57DBAA7A93222B95ECBCB78BDEA4CB829F0A7DB995A94A8A7CACE41CCCA2C96F61EA2F8FBC334E8AA4543252484C960EFA9A52074C93
311
351A28A1135E1352994408A31417B1922233F845E21107E34C6ED92763403E3C277B18C8E0CD11F9CFEBFA64F62E12388DB7CBE3DAE1FA145ECE3FE8F512C873626E2D27D70EB971C30A2911E735924293B78AFA06504B030414000608080040917657F2237A32060100004F0300003400000036433346384338432D464633
311
452D343032392D394231442D3644343245423939353234312F536368656D61732F636E782E786D6CCD93BD4E042114855F85D00F3063B3D9306C616165A35676C8DC5DC90277C28FD1B717468ADDC44E8BEDE0F0859C73B8C8C3A777E40362B218663A32410904838B0DA799967C1C76941C948C88F902A324680F336D3255
311
F214B1AC5D5AE0A88B6BAAB3E1DCC57BF41EC3B37907AF29314EA734D3B46D992E19174867B6E8ACD9C822242CD140BD215B0FFD0613416758A89AC474378CE3304D2FE36E3F8ABD10AF923752C93744D7791B32445C89C1BA08D58E90BC1D2B59A2ED4CCB40D5A53756DB90BC124AA61C6B079DCC5F6B25F5BA3A6B74AE55
311
F10DFC6194E42DEA55E0070810ADB9CDC457E6FE2DF2138405E2637DA568B5BBCDE4BF79FC5B017C9BFD3A02ED2BA86F504B030414000608080040917657410A3D5871000000A40000002C00000036433346384338432D464633452D343032392D394231442D3644343245423939353234312F636E782E786D6C55CC4D0E82
311
301086E1AB34B31774E7A22D31F1069E60020334B633A63FC6E34B0909B07DDE2F9FEE7EC1AB2FC5E4840DDC9A2B28E25E06C7938192C7CB1D54677514C9871928C640062A83D55394F2D968A0118BAFEA1DBF377CA444F98919176EAB9FEAAB9F2960DA5BBB1E2ED3FA6FFF504B030414000608080040917657D6C5278B7E
311
000000A300000007000000636E782E786D6C4D8CD10A832018465F45FE7BB72C170A5A90E57BC4B290990E97638F3F1D5DECEA83C3778EE83FBB436F135F367809E4520132FE1E16EB3709E9583103D477228670FCDD00F97937120A864E6C31A4E78916B3CEC915EAAC7F9CB0558D668A29AC7533615AD51CF3818CB81D69
311
3D0D9CDF6A4AB2712D4A9E5F2F6FC9775F504B03041400060808004091765716E99B5DA600000035010000130000005B436F6E74656E745F54797065735D2E786D6C9590410E82301045AFD2740F4517C6180A0BF5065E60AC53688469D30E066F6F91AD9AB89CF9FFFD3F99BA9DC7413C3026E749CB4D59498164FCCD51A7
311
E5C4B6D84BD136F5E5193089ECA5A465CF1C0E4A25D3E308A9F401292BD6C711388FB15301CC1D3A54DBAADA29E38991B8E0254336F5092D4C038BF39CD76B6FC6A538AEBEA54A4B08617006389FA516557DE4AE8E7E70DE30729138228C5F021CD93F02D4FB0DCD0B504B0304140006080800409176573DEE336E64000000
311
790000001B0000006175746F6465736B2D64657369676E2D7061636B6167652E786D6C35CBC10E83200C00D05F21DCA56CA76D41FC96062B120735B69A7DBE268BB7777961F8D5AF396893C2ADB70FE7ADA196782C2DF776D7A97B5933C430F15651E5469C55D70F80A4992A3ADC954792C525AE70A1E4D6AD9816CC044FEF
311
DF01FE3FDE907802504B030414000608080040917657B2BA2F64F8000000960100003700000036433346384338432D464633452D343032392D394231442D3644343245423939353234312F4173736574446174612F636F72652E786D6C8550CB6E833010FC15B477836D1A029171541AF1053DF5661987580936F2A3EAE7D7
311
0E546A4F3DED6A76667677D8F96B79149FCA796D4D0FA4C4502823EDA4CDDC430C57D44271E6CC591B7ED1A03062513D6418389B9D8DEB0E496B8232193576523B28BC57010AF9484D0F5EDED4224A114362F87BB90A7917B32A49B9F1388B514FBB544FC94D5FB572C071433A72181B541FC701BDE011A3761C1A3476C31B
311
ED0E1D3ED20BABB298B3A0979FEDD22911D4049C625A234210A5EFA43D117CC2F8835599C9990F2EFDBC2FCDDF017FCD575F4410ACDAA67F5CE33AFDEF1AB50935DD5D3785074ED291CF0167554E29956784A9E644F937504B030414000608080040917657DF90ED21F6000000940100003500000036433346384338432D46
311
4633452D343032392D394231442D3644343245423939353234312F536368656D61732F636F72652E786D6C8550CB6E833010FC15B477836D1A029171245AF103EDA937CB38D44AB0911F553FBF3650A93DF5B4ABD999D9DD61D7AFE5517C2AE7B5353D901243A18CB49336730F31DC500BC59533676DF84583C28845F59061
311
E06C7636AE0724AD09CA64D4D8491DA0F05E0528E423353D78F9A116518A1812C3DFCB55C8BB985549CA9DC7598C7A3AA47A4A6EFAA695038E1BD291D3D8A0FA3C0EE8098F18B5E3D0A0B11B9E6977EAF099BEB02A8B390B7AF9D92E9D12414DC029A635220451FA46DA0BC1178CDF5995999CF9E0D2CFC7D2FC1DF0D7ED4E
311
CFAA7DF6C733AED3FF9E519B50D3C3735778E0249DB80D38AB7246A96C01A69AF3E4DF504B030414000608080040917657B886201302010000D70100002D00000036433346384338432D464633452D343032392D394231442D3644343245423939353234312F636F72652E786D6C9551416EC32010FC8AB5776C839DC88E30
311
91E2242FE8A9376A362E4A0C16E0AACF2FC4AED4DEDAD3A261667767961F3FA747F681CE6B6B3AA07909199AC12A6DC60E9670230D6447C19DB5E1070D322327EC20C120F8E8EC326FD0604D40935063156EA0F41E0364C3233E3AF0C33B4E32974B880C7FCF6739DCE58839CD579EE0414FDFD2C1A10CA840B092558452C2
311
D80B6D0EB43C94E52B2F1253F0459B50B16D184E6FA8323B876809C48E17EB6F642D5A6D1CADE28EFAA6D181D8F7D5B5E99B9E5CAFD585D4256B497BA267B23FD7EC726ADB1DAB696C12C582FBE062325B9394C15FE5ABF097B36556FF74B62A3C88B4CFD3B2E0458A3996E70D624D27115F504B0304140006080800409176
311
57F7CD918F06010000B201000008000000636F72652E786D6C8D504B6EC32014BC0A628F0DB871E20813C9AD7C82AEBAA386B82836587CA2F6F685984AEDAEAB8766E6BD19865D3ED705DC95F3DA9A1E920A43A0CC64A536730F63B8A2130417CE9CB5E1970C022356D5C30C43CE6667E356A0C99AA04C468D95AA80C27B15
311
209896F4E8A19F3ED42A2A114352F85BB589E9266655916AD77116F4FAB33A3925829290534C1B4408A2F4959CCE049F317E6375567216A396C54ACBE4AEAF5A39C8714B3A72185BD41CC7013DE111A3D338B468EC8667DA1D3A7CA42FACCECB9CF9E0D29FCB919433002FEED997D53BC5D9BBB54B11A4501258B37C251356
311
67E24FE8B8C97F84D62634B41CDC373CE424057A10C9383798C6A3DE3473DBFC1B504B0102140014000608080040917657889F533AD8000000200100004F000000000000000000000000000000000036433346384338432D464633452D343032392D394231442D3644343245423939353234312F4173736574446174612F44
311
6566696E6974696F6E4974657261746F7250726F706572746965732E62696E504B01021400140006080800409176578589D32C160100003002000045000000000000000000000000004501000036433346384338432D464633452D343032392D394231442D3644343245423939353234312F4173736574446174612F496E73
311
74616E636550726F706572746965732E62696E504B010214001400060808004091765728BB58AF800100009E0500003D00000000000000000000000000BE02000036433346384338432D464633452D343032392D394231442D3644343245423939353234312F536368656D61732F436F6D6D6F6E536368656D612E786D6C50
311
4B01021400140006080800409176572CCEBD668A040000E01200003E000000000000000000000000009904000036433346384338432D464633452D343032392D394231442D3644343245423939353234312F536368656D61732F47656E65726963536368656D612E786D6C504B01021400140006080800409176576180134D
311
5F0100006B03000045000000000000000000000000007F09000036433346384338432D464633452D343032392D394231442D3644343245423939353234312F536368656D61732F52656E6465724D6174657269616C536368656D612E786D6C504B0102140014000608080040917657CF6D8748510000005700000047000000
311
00000000000000000000410B000036433346384338432D464633452D343032392D394231442D3644343245423939353234312F4173736574446174612F41737365745461626C654F66436F6E74656E74732E62696E504B0102140014000608080040917657F865834058000000680000004500000000000000000000000000
311
F70B000036433346384338432D464633452D343032392D394231442D3644343245423939353234312F4173736574446174612F53747265616D56657273696F6E5461626C652E696E66504B01021400140006080800409176571E1688E9330100009A0400003600000000000000000000000000B20C00003643334638433843
311
2D464633452D343032392D394231442D3644343245423939353234312F4173736574446174612F636E782E786D6C504B0102140014000608080040917657F2237A32060100004F0300003400000000000000000000000000390E000036433346384338432D464633452D343032392D394231442D3644343245423939353234
311
312F536368656D61732F636E782E786D6C504B0102140014000608080040917657410A3D5871000000A40000002C00000000000000000000000000910F000036433346384338432D464633452D343032392D394231442D3644343245423939353234312F636E782E786D6C504B0102140014000608080040917657D6C5278B
311
7E000000A300000007000000000000000000000000004C100000636E782E786D6C504B010214001400060808004091765716E99B5DA6000000350100001300000000000000000000000000EF1000005B436F6E74656E745F54797065735D2E786D6C504B01021400140006080800409176573DEE336E64000000790000001B
311
00000000000000000000000000C61100006175746F6465736B2D64657369676E2D7061636B6167652E786D6C504B0102140014000608080040917657B2BA2F64F80000009601000037000000000000000000000000006312000036433346384338432D464633452D343032392D394231442D3644343245423939353234312F
311
4173736574446174612F636F72652E786D6C504B0102140014000608080040917657DF90ED21F6000000940100003500000000000000000000000000B013000036433346384338432D464633452D343032392D394231442D3644343245423939353234312F536368656D61732F636F72652E786D6C504B0102140014000608
311
080040917657B886201302010000D70100002D00000000000000000000000000F914000036433346384338432D464633452D343032392D394231442D3644343245423939353234312F636F72652E786D6C504B0102140014000608080040917657F7CD918F06010000B2010000080000000000000000000000000046160000
311
636F72652E786D6C504B050600000000110011005A060000721700000000
310
504B030414000608080040917657000000000000000000000000370000006662782F30324538354142412D374136372D344430362D424135352D4334324132373332453444382F617474726962757465732E62696E504B030414000608080040917657000000000000000000000000350000006662782F3032453835414241
310
2D374136372D344430362D424135352D4334324132373332453444382F76657274696365732E62696E504B030414000608080040917657F270F1330600000004000000360000006662782F30324538354142412D374136372D344430362D424135352D4334324132373332453444382F747269616E676C65732E62696E6366
310
60600000504B03041400060808004091765751464CB48900000043010000360000006662782F30324538354142412D374136372D344430362D424135352D4334324132373332453444382F6469726563746F72792E786D6C9D8F310EC2300C45AF127987122606C71DD918B841D4B851A43646695A717C52A85029031293A5
310
A76FBF6FACEF7DA7264E43906840EF0FA03836E242F406C6DCEE4EA06AC22492573150D1F66C60C640E8938CB705396EEDD86DE9B5042FE27813D640EA63BB001C722AF6E55CB61E4863F58284D5D3F53DD715CE1C3985E63FD7F1B7EBDD617E9F1E504B030414000608080040917657F4ABC66F3D070000201C0000340000
310
006662782F30324538354142412D374136372D344430362D424135352D4334324132373332453444382F6F626A656374732E786D6CDD595B6FE23814FE2B56F665F721248140CB88322A978ED0A833A341B3DAB7C80443BD752E729296EEAFDF63C70E711A209D8BB4DA562AA9B18FCFF9CEFD64F2FE1031F444784693F8C6
310
F27AAE85481C265B1AEF6FAC22DFD9D7167A3F45139E24796D9F85621C911B4B2C5BD3C99E2745AA96B664870BD65CBD9BFD85B290C4C44221C359766365E10389700F1779B225D9636F8B73DCDBEF0E3DAF576E34C9EE394E1F1A57A59893380756613D062A8A03CFFC174472A613476C30B60DBA6DEB9FD9E648C14D4669
310
9CE5380E5F71D5B8AE7F82ABC67503CF5F2CFBC3B13DF4FD81ED8FFA9E3DBB9B2D6CEF6AE0CE47F3F9F87639B6D074B2491256292025F116B4F8624DBD8923BEA9C45728B4F11D26714C428566DB862D517429C99A9818C07A52B49A424A596B0B838EC29FD8D609148325036D2D9CFEAC5B6FB2F91B40C8BA5829CF88B0F2
310
2CE7A06B857DE90FEEC429570DBDD00C4538279C628618DD70CC4141B0B554904146788B20850466528B9A5E9D5730ECCBBED4C6E5AE604CF8AF35959E16803F923C939CD17F083F725FBF0D7802690B1AE7D74AD8FC250512E3892317CBEF067DF5650924DA31BC076B0131C5A641BF81D75CC482D5C29A7EBCDB1CD6223E
310
B45F9EF224253C1796279D59F99DD660CDB4C0F83A8052E26AEAEE88CA5780FE13205FF18226A0394E0FFEC1D7B2731C67BB8447A01DE422DB853F2E128FAF9E264E75788A90112B4F610A6EFB933035C430EEAE413A9D3C81D1277CA0845B8798814DDFD358F839180A62092C41BCDF6D0ED67405C11416E11466203DFC4E
310
1CF188E0A3A403F1A6A1A1B6F0DB4151DA619A7E76D4D507B0194EC34A55868CA7F01DFE147C6F17EB8FEB82EF7048EE95632FC88EC6348764DACE9001BAE1F2DF569FA4477E60C906B3E369635308D7EC1311375AD4B2566A41522FC08948C3A566E4CA3D056F670CC7242932B5DE16A7C284253CD8BC04A50BB7DEF5A7B6
310
81F2326500ADB10C927BC8692A30B1A64A5B5520ECD504050BC35C59E0BED46AB029A234C05152C422D4BE36C5261F106784250255494D1BB6F65A4D764B77BB2283E0D54A726E00A9FC59132E2DDC8738D6C62F273B8E2189267140210783B3B4DE605C5081779EE78CB05D40192BA2604719E49120C2E909FA1D25A867AE
310
47F2F29CF06D2B41D3B2B44F6A1B12802B6035483A5B95315FE99493272ACA4C99CF74363076A83AD49AFA27D285C8142D806A639466BE1CCDBD2B7FB8B067B78B91ED5F0F66F6783CF4ED51DFF77C7F38ECF797CB269F3A5AD5F31DA852943986FFE50F45B4893165F085101B6FD377EF65F6BC7120343A436FE65E2FAF7C
310
FB6EE9FAB6EF0EEFECD972E4D9A3813BF6E16938F26E1D4EB2A4E021C99CBEE306DA24D3787F8A2BCDDDEB180A65CDE564A7F5D514E67F1C439B39C150E27F358856B1ABA520EC1A44C5D16608C5E1A348514108555FABFB348268938FB638F7C6B8ECF606AEFCF1BC71DF1DF7AFC7A3CAD8CF066A79CF0FC7B9360942E83B
310
8B3C48521CD2BC3DA13670E918A7DF945B7A036F88009DEA6F75C9F93CA32E096884F724D861D125B404C64B12B4E6B03D4BB28CC624935DDEABEAAF41D3ED413165E6DC1623A45910911C7F8FFDC9B6A161D3109B5900FD682E260217AB82CAA05507728AA2E87E21714BF95F820C47292B3BDD4B18787D0D81EE71DA2C4E
310
302DAE78027B0B701EB85B22071797A857ECEBFAA0556B4DEAE3EF267F021E5DD7FC4278F415DD4BA7DED01B8B9F6B082AA3A137B8D28AB88495BE2A177D1C2BA0F30C5F826742F70F9D0ACD6E3AA9956C65519D9308DA589C17BC93BF8E86EEAB8B545C683844EDA6371687B27FD31D1CA0271BB853E56DED1AA843690C73
310
AE4E82BC92A2D584A52EE44C4F8CAEDEE0D767955DA7FAC3F1F29757CC75E78BE4F0E7320E502D970158451FA3A66EADBA8D7A287BC6790881742D3FED1978C4966C8F8D9941AEAD44D7F5E9A5EA7925026A04135B2CE2ECBD78605F31A81ABAE7CCF950166D4EB9BE1289AD07C3E9231F06D326ADCF1FD60D2AB0D2F9F417
310
8111796E5050AB73D10D9F21F56D75ECF91B149444DF56678EFF273A0AADC0DA180DA6C159C2280CE5C916ED4902D91BC60E1DBA0D1E914C6665305E15A4F41B810EA79FCA996A8E374C9F0E1F300CA699EAC58A1086A290316F2CB58E7E8331A89844CAE154EF11DA3015C32C54707A6381C5E614BAADDE06C659727828A9
310
37C695E0D838DE8B7C5F9EAAFE3F1E13E840543ACA55EDE9828B92CC7026286C53F99E00AABEF28BE9E4FB45D7EC209CC3E3A6C82B618E0B47691408FA8540291C4CFD1E15BC072828CECBE5F5E41E03924E93F9B3765052B573CCF772BC5EC3FB76F1C51193F1D56794B2622FD479AEFB3528D9A2EB664539859A80612831
310
532C6AC8F93BE70B4FE0155384EE281801FAFD703DFAC399275194C4E59273AB5E54A1F503BC76DA3A7AE4076DBCEB0D1D39055063FD608333D2C3DBEC111640B59C8AD96809B161005534AD1980D688D0051C33F6AF1648D546B509493DEC0A78E44C1F8123897739C26DEA1B6A0348F005E04A7E797CD00B1387C3107CFA
310
2F504B0304140006080800409176571FB59D373D01000046050000300000006662782F30324538354142412D374136372D344430362D424135352D4334324132373332453444382F636E782E786D6CCD94C14EC3300C865FA5CABD4D532ED3946612079E8003E296A65E094BE32A71117B7B92D10D101AE23069BB45CE6FE9
310
FFEC5F969BF7D1156F10A245DF3251D5AC006FB0B77E68D94CDB72C58A8D920191BEC958E1F5082DCB65A6E410709E96520F5B3DBB5C75D6EF96A2260AB69B09222B8CD331B62C9A171875A567C21EE2AEEA35E94A540122CEC140EA273BC2D26F0268829EA9A66EEE4A21CAA67914ABB5A8D775FD2C79562AD921BA456F3D
310
41C0A930981E3E99A925CFDF4ACEC12E9A4CC0D497B3AAB35EF2F4AF644C6EFDB0E8683F65DD34396B34A531713404542611E851F24FB1923CF3FEA07EB87F3A3A287A1BC01086FD950620CE0DE064AC4A49F81FFF41F8373676AF09F75ADB3E0BBBD8BA18EA31AD31C5F5F7FE538AB41FDCED85FE64ECF2994FA784ACB93D
310
E4A3AF0B11F3C3C94B4BCF17507D00504B030414000608080040917657DB0F48207E000000A30000000B0000006662782F636E782E786D6C4D8C410EC2201405AF42FE1E4584C20268A8ED411A4B1B620B068BF1F882E9C2D54B266F46B59F6D456F975E3E060D971301E4C23D4E3E2C1AF23E6309A8352AC5B8FFDD008571
310
731A2A06A39614F3F340939BC7BC56BAFAF03820A183E4B6B358D84660D693067796737C63D45271A503EB6531CE5529F3EB95AD79F305504B030414000608080040917657A6D797065F0000008200000007000000636E782E786D6C4DCB3B0E80201045D1AD90E9FD7516806B51190811670C8A61F982B1B0BAC9C97B72CA
310
7B1037C6D3332918DA1E04D2CAC69353902EDB8C20262D23F3F59B81A079470595414B17391D1F19B4730A5583A7ED43BBE4025D9592775E5ADFFA01504B0304140006080800409176574FEB6A7CA0000000F4000000130000005B436F6E74656E745F54797065735D2E786D6C7D8F4B0EC2300C44AF1279DFA6B0400835ED
310
02B8011730C16D239A8F121795DB93D02D6269CFBC19BBED573B8B17C564BC53B0AB1B10E4B47F18372A5878A88E20FAAEBDBD032591BD2E299898C349CAA427B2986A1FC86565F0D122E7318E32A07EE24872DF3407A9BD63725C71C980AEBDD080CBCCE2BAE6F5D69B7110E7CD57AA146008B3D1C8F92C5954F993BB1BF7
310
87F39A89ABC491D09600F9FDA2FB00504B0304140006080800409176573DEE336E64000000790000001B0000006175746F6465736B2D64657369676E2D7061636B6167652E786D6C35CBC10E83200C00D05F21DCA56CA76D41FC96062B120735B69A7DBE268BB7777961F8D5AF396893C2ADB70FE7ADA196782C2DF776D7A9
310
7B5933C430F15651E5469C55D70F80A4992A3ADC954792C525AE70A1E4D6AD9816CC044FEFDF01FE3FDE907802504B0304140006080800409176574D0F5E84F8000000960100003B0000006662782F30324538354142412D374136372D344430362D424135352D4334324132373332453444382F7265736F75726365732F63
310
6F72652E786D6C8550CB6EC32010FC156BEFD8809D47234C94BEBEA0A7DE106C5C94182C1E553FBF90B8527BEA6957B333B3BB238E5FF3B5F9C410AD7723B09642834E7B63DD34424E67B287E62845F03EFDA241E3D48C235418A49882CFCB0A69EF12BA8A3A6F7005558C98A0D1D7D28C10F507CEAA55391546BCB48BD217
310
3561CBDA3B4F8A9CAD59A5D614377BB61840EEE8E376333CBF90CD8972320CBB2D399DD813A174E8D96BFFB0A31B2EBA2A9622D9F967BB0EA8121A909CF29E3046387F63FB03A3074ADF45579952C414CACFEBD2FA1DC880D1E7A0318AEE3EFDE39A17F3BF6BB62EF57C75BD2B2248568EBC0DA4E86A4AA5DC222CB5262ABF
310
01504B03041400060808004091765719D31077F2000000B1010000310000006662782F30324538354142412D374136372D344430362D424135352D4334324132373332453444382F636F72652E786D6C8D50CB6EC32010FC156BEFD880EDD88A3091D3E40F7AEA0D61E2A2C460F1A8FAF985D895DA5B4E8B666798D961A7EF
310
E5517C29E7B53503901243A18CB49336F30031DC500FC58933676DF84383C288450D9061E06C7636AE3B24AD09CA64D4D849EDA0F05E0528E4233D06F0F2532DA214312486BF97AB907731AB92941B8FB3A0975FA9744A043501A798D6881044E93BE98F041F31FE6055667216A39E762B3D25777DD3CA01C7F4DAB7E37944
310
DD78E85073C107741EDB16BD3574A45D4DAFCDA567551673E6834B37EF9FE4EB5E956FC27F99E33ABD90599B50D3DD705378E024E5792E38AB7281693CDB4D3397CD7F00504B030414000608080040917657EFD27ACE53010000DD0200000C0000006662782F636F72652E786D6C8D52CB6EC32010FC158B3B3660E7D10813
310
A5AF2FE8A93782898B628385C1CAE717FC909B43D3CA1246B3BB333B23E8F1D636C9206DAF8C2E014E1148A416A652BA2E817717B807C991516B8CFBD10612CD5B59820803466B6B7C3743C268277544B5A9E40CF2BE970E24A2099712F4E24BB63CE5DE858EFE9A765C5C792D539C4E7D8C7AAFAA795455814D5D94B480ED
310
D0F37653BCBEC1CD09115814BB2D3C9DF00B44A8C8F17BFEB4431B42B338CCA853EDA22EACE44E5680114472883124E403EF0F181D10FAA459EC64B47736789E45A33BC02EE71BCD26FC8ECF77D5DF7C5E699793996F9AE801C361BDB1C06816F309BF31BCFB0C8370C8CFF173B358B8066890C2195B844A65FC5A1A78E365
310
A046C9F8D16CAA06E691E0371EF280E73147088AEB3AACC65DB89EBD8BEAF73B75D2C2C1DD126D6CCB9B75B969C5F55C85EE2C2DE3C234C6FE677AB1BA8499C587C9BE01504B030414000608080040917657E89F19C006010000B201000008000000636F72652E786D6C8D50CB6EC32010FC15B4776CC076924698C87D7D41
310
4FBD51431C141B2C83A3F6EF0B3195DA5B4F8B66667786E1A7CF694437BD78E36C0BB42080B4ED9D327668610D677C0074127C712EFC9201B272D22D2418041F16B7CE19EA9D0DDA26D43AA53328BDD701503FC6470BBEBFE84916720D51E1AFC52CFBAB1C74418B4D277830D3CF6ABF6819B402C108AB30A598B1377A3852
310
7224E49D974929F8BA1A95AD8C8AEEE66CF402624F1E774DFDFC829B8E305CD7FB1DEE3AFA8409A92BFA5A3DEC49C378999605F761897FCE4762CE80BCBC255F5E6E94E01FCE8D59104329E4ECF80582F032117F42AFB3FA47686343C5F2C16DC383A031D09D88C6A9C138EEF5C699DA16DF504B0102140014000608080040
310
9176570000000000000000000000003700000000000000000000000000000000006662782F30324538354142412D374136372D344430362D424135352D4334324132373332453444382F617474726962757465732E62696E504B01021400140006080800409176570000000000000000000000003500000000000000000000
310
000000550000006662782F30324538354142412D374136372D344430362D424135352D4334324132373332453444382F76657274696365732E62696E504B0102140014000608080040917657F270F13306000000040000003600000000000000000000000000A80000006662782F30324538354142412D374136372D344430
310
362D424135352D4334324132373332453444382F747269616E676C65732E62696E504B010214001400060808004091765751464CB489000000430100003600000000000000000000000000020100006662782F30324538354142412D374136372D344430362D424135352D4334324132373332453444382F6469726563746F
310
72792E786D6C504B0102140014000608080040917657F4ABC66F3D070000201C00003400000000000000000000000000DF0100006662782F30324538354142412D374136372D344430362D424135352D4334324132373332453444382F6F626A656374732E786D6C504B01021400140006080800409176571FB59D373D0100
310
004605000030000000000000000000000000006E0900006662782F30324538354142412D374136372D344430362D424135352D4334324132373332453444382F636E782E786D6C504B0102140014000608080040917657DB0F48207E000000A30000000B00000000000000000000000000F90A00006662782F636E782E786D
310
6C504B0102140014000608080040917657A6D797065F000000820000000700000000000000000000000000A00B0000636E782E786D6C504B01021400140006080800409176574FEB6A7CA0000000F40000001300000000000000000000000000240C00005B436F6E74656E745F54797065735D2E786D6C504B010214001400
310
06080800409176573DEE336E64000000790000001B00000000000000000000000000F50C00006175746F6465736B2D64657369676E2D7061636B6167652E786D6C504B01021400140006080800409176574D0F5E84F8000000960100003B00000000000000000000000000920D00006662782F30324538354142412D374136
310
372D344430362D424135352D4334324132373332453444382F7265736F75726365732F636F72652E786D6C504B010214001400060808004091765719D31077F2000000B10100003100000000000000000000000000E30E00006662782F30324538354142412D374136372D344430362D424135352D43343241323733324534
310
44382F636F72652E786D6C504B0102140014000608080040917657EFD27ACE53010000DD0200000C00000000000000000000000000241000006662782F636F72652E786D6C504B0102140014000608080040917657E89F19C006010000B20100000800000000000000000000000000A1110000636F72652E786D6C504B0506
310
000000000E000E0080040000CD1200000000
  0
XRECORD
  5
81CD
102
{ACAD_REACTORS
330
81C8
102
}
330
81C8
100
AcDbXrecord
280
     1
270
     1
271
     1
  0
XRECORD
  5
81CC
102
{ACAD_REACTORS
330
81C8
102
}
330
81C8
100
AcDbXrecord
280
     1
270
     1
271
     1
  0
XRECORD
  5
81CE
102
{ACAD_REACTORS
330
81C8
102
}
330
81C8
100
AcDbXrecord
280
     1
270
     1
271
     1
  0
XRECORD
  5
81CB
102
{ACAD_REACTORS
330
81C8
102
}
330
81C8
100
AcDbXrecord
280
     1
270
     1
271
     1
  0
XRECORD
  5
8555
102
{ACAD_REACTORS
330
8554
102
}
330
8554
100
AcDbXrecord
280
     1
102
DISPLAYNAME
  1
Imperial24
102
FLAGS
 90
        0
  0
CELLSTYLEMAP
  5
851C
102
{ACAD_REACTORS
330
851B
102
}
330
851B
100
AcDbCellStyleMap
 90
        3
300
CELLSTYLE
  1
TABLEFORMAT_BEGIN
 90
        5
170
     1
 91
        0
 92
    32768
 62
   257
 93
        1
300
CONTENTFORMAT
  1
CONTENTFORMAT_BEGIN
 90
        0
 91
        0
 92
      512
 93
        0
300

 40
0.0
140
1.0
 94
        5
 62
     0
340
81FB
144
0.25
309
CONTENTFORMAT_END
171
     0
 94
        0
309
TABLEFORMAT_END
  1
CELLSTYLE_BEGIN
 90
        1
 91
        1
300
_TITLE
309
CELLSTYLE_END
300
CELLSTYLE
  1
TABLEFORMAT_BEGIN
 90
        5
170
     1
 91
        0
 92
        0
 62
   257
 93
        1
300
CONTENTFORMAT
  1
CONTENTFORMAT_BEGIN
 90
        0
 91
        0
 92
      512
 93
        0
300

 40
0.0
140
1.0
 94
        5
 62
     0
340
81FB
144
0.18
309
CONTENTFORMAT_END
171
     0
 94
        0
309
TABLEFORMAT_END
  1
CELLSTYLE_BEGIN
 90
        2
 91
        1
300
_HEADER
309
CELLSTYLE_END
300
CELLSTYLE
  1
TABLEFORMAT_BEGIN
 90
        5
170
     1
 91
        0
 92
        0
 62
   257
 93
        1
300
CONTENTFORMAT
  1
CONTENTFORMAT_BEGIN
 90
        0
 91
        0
 92
      512
 93
        0
300

 40
0.0
140
1.0
 94
        2
 62
     0
340
81FB
144
0.18
309
CONTENTFORMAT_END
171
     0
 94
        0
309
TABLEFORMAT_END
  1
CELLSTYLE_BEGIN
 90
        3
 91
        2
300
_DATA
309
CELLSTYLE_END
  0
XRECORD
  5
8552
102
{ACAD_REACTORS
330
851B
102
}
330
851B
100
AcDbXrecord
280
     1
102
ACAD_ROUNDTRIP_PRE2007_TABLESTYLE
 90
      512
 91
        0
  1

 92
      512
 93
        0
  2

 94
      512
 95
        0
  3

  0
XRECORD
  5
852D
102
{ACAD_REACTORS
330
852C
102
}
330
852C
100
AcDbXrecord
280
     1
102
RTVSPost2010Prop28
280
     1
102
RTVSPost2010PropOp28
 70
     1
102
RTVSPost2010Prop29
280
     1
102
RTVSPost2010PropOp29
 70
     1
102
RTVSPost2010Prop30
280
     0
102
RTVSPost2010PropOp30
 70
     1
102
RTVSPost2010Prop31
280
     0
102
RTVSPost2010PropOp31
 70
     1
102
RTVSPost2010Prop32
280
     0
102
RTVSPost2010PropOp32
 70
     1
102
RTVSPost2010Prop33
280
     0
102
RTVSPost2010PropOp33
 70
     1
102
RTVSPost2010Prop34
280
     0
102
RTVSPost2010PropOp34
 70
     1
102
RTVSPost2010Prop35
280
     0
102
RTVSPost2010PropOp35
 70
     1
102
RTVSPost2010Prop36
280
     0
102
RTVSPost2010PropOp36
 70
     1
102
RTVSPost2010Prop37
 90
       50
102
RTVSPost2010PropOp37
 70
     1
102
RTVSPost2010Prop38
140
0.0
102
RTVSPost2010PropOp38
 70
     1
102
RTVSPost2010Prop39
140
1.0
102
RTVSPost2010PropOp39
 70
     1
102
RTVSPost2010Prop40
 90
        0
102
RTVSPost2010PropOp40
 70
     1
102
RTVSPost2010Prop41ColorIndex
 90
       18
102
RTVSPost2010Prop41ColorRGB
 90
        0
102
RTVSPost2010PropOp41
 70
     1
102
RTVSPost2010Prop42
 90
       50
102
RTVSPost2010PropOp42
 70
     1
102
RTVSPost2010Prop43
 90
        3
102
RTVSPost2010PropOp43
 70
     1
102
RTVSPost2010Prop44ColorIndex
 90
        5
102
RTVSPost2010Prop44ColorRGB
 90
      255
102
RTVSPost2010PropOp44
 70
     1
102
RTVSPost2010Prop45
280
     0
102
RTVSPost2010PropOp45
 70
     1
102
RTVSPost2010Prop46
 90
       50
102
RTVSPost2010PropOp46
 70
     1
102
RTVSPost2010Prop47
 90
       50
102
RTVSPost2010PropOp47
 70
     1
102
RTVSPost2010Prop48
 90
       50
102
RTVSPost2010PropOp48
 70
     1
102
RTVSPost2010Prop49
280
     0
102
RTVSPost2010PropOp49
 70
     1
102
RTVSPost2010Prop50
 90
       50
102
RTVSPost2010PropOp50
 70
     1
102
RTVSPost2010Prop51ColorIndex
 90
      256
102
RTVSPost2010Prop51ColorRGB
 90
-16777216
102
RTVSPost2010PropOp51
 70
     0
102
RTVSPost2010Prop52
140
1.0
102
RTVSPost2010PropOp52
 70
     0
102
RTVSPost2010Prop53
 90
        2
102
RTVSPost2010PropOp53
 70
     1
102
RTVSPost2010Prop54
  1
strokes_ogs.tif
102
RTVSPost2010PropOp54
 70
     1
102
RTVSPost2010Prop55
280
     0
102
RTVSPost2010PropOp55
 70
     1
102
RTVSPost2010Prop56
140
1.0
102
RTVSPost2010PropOp56
 70
     1
102
RTVSPost2010Prop57
140
1.0
102
RTVSPost2010PropOp57
 70
     1
102
RTVSPropertyOp0
 70
     1
102
RTVSPropertyOp1
 70
     1
102
RTVSPropertyOp2
 70
     1
102
RTVSPropertyOp3
 70
     1
102
RTVSPropertyOp4
 70
     1
102
RTVSPropertyOp5
 70
     1
102
RTVSPropertyOp6
 70
     1
102
RTVSPropertyOp7
 70
     1
102
RTVSPropertyOp8
 70
     1
102
RTVSPropertyOp9
 70
     1
102
RTVSPropertyOp10
 70
     1
102
RTVSPropertyOp11
 70
     1
102
RTVSPropertyOp12
 70
     1
102
RTVSPropertyOp13
 70
     1
102
RTVSPropertyOp14
 70
     1
102
RTVSPropertyOp15
 70
     1
102
RTVSPropertyOp16
 70
     1
102
RTVSPropertyOp17
 70
     1
102
RTVSPropertyOp18
 70
     1
102
RTVSPropertyOp19
 70
     1
102
RTVSPropertyOp20
 70
     1
102
RTVSPropertyOp21
 70
     1
102
RTVSPropertyOp22
 70
     1
102
RTVSPropertyOp23
 70
     1
102
RTVSPropertyOp24
 70
     1
102
RTVSPropertyOp25
 70
     1
102
RTVSPropertyOp26
 70
     1
102
RTVSPropertyOp27
 70
     1
102
RTVSPropertyOp28
 70
     1
102
RTVSPropertyOp29
 70
     1
102
RTVSPropertyOp30
 70
     1
102
RTVSPropertyOp31
 70
     1
102
RTVSPropertyOp32
 70
     1
102
RTVSPropertyOp33
 70
     1
102
RTVSPropertyOp34
 70
     1
102
RTVSPropertyOp35
 70
     1
102
RTVSPropertyOp36
 70
     1
102
RTVSPropertyOp37
 70
     1
102
RTVSPropertyOp38
 70
     1
102
RTVSPropertyOp39
 70
     1
102
RTVSPropertyOp40
 70
     1
102
RTVSPropertyOp41
 70
     1
102
RTVSPropertyOp42
 70
     1
102
RTVSPropertyOp43
 70
     1
102
RTVSPropertyOp44
 70
     1
102
RTVSPropertyOp45
 70
     1
102
RTVSPropertyOp46
 70
     1
102
RTVSPropertyOp47
 70
     1
102
RTVSPropertyOp48
 70
     1
102
RTVSPropertyOp49
 70
     1
102
RTVSPropertyOp50
 70
     1
102
RTVSPropertyOp51
 70
     0
102
RTVSPropertyOp52
 70
     0
102
RTVSPropertyOp53
 70
     1
102
RTVSPropertyOp54
 70
     1
102
RTVSPropertyOp55
 70
     1
102
RTVSPropertyOp56
 70
     1
102
RTVSPropertyOp57
 70
     1
102
RTVSPropertyOp58
 70
     1
102
RTVSPropertyOp59
 70
     1
102
RTVSPropertyOp60
 70
     1
102
RTVSPropertyOp61
 70
     1
102
RTVSPropertyOp62
 70
     1
  0
XRECORD
  5
852B
102
{ACAD_REACTORS
330
852A
102
}
330
852A
100
AcDbXrecord
280
     1
102
RTVSPost2010Prop28
280
     0
102
RTVSPost2010PropOp28
 70
     1
102
RTVSPost2010Prop29
280
     1
102
RTVSPost2010PropOp29
 70
     1
102
RTVSPost2010Prop30
280
     1
102
RTVSPost2010PropOp30
 70
     1
102
RTVSPost2010Prop31
280
     0
102
RTVSPost2010PropOp31
 70
     1
102
RTVSPost2010Prop32
280
     0
102
RTVSPost2010PropOp32
 70
     1
102
RTVSPost2010Prop33
280
     0
102
RTVSPost2010PropOp33
 70
     1
102
RTVSPost2010Prop34
280
     0
102
RTVSPost2010PropOp34
 70
     1
102
RTVSPost2010Prop35
280
     0
102
RTVSPost2010PropOp35
 70
     1
102
RTVSPost2010Prop36
280
     0
102
RTVSPost2010PropOp36
 70
     1
102
RTVSPost2010Prop37
 90
       50
102
RTVSPost2010PropOp37
 70
     1
102
RTVSPost2010Prop38
140
0.0
102
RTVSPost2010PropOp38
 70
     1
102
RTVSPost2010Prop39
140
1.0
102
RTVSPost2010PropOp39
 70
     1
102
RTVSPost2010Prop40
 90
        0
102
RTVSPost2010PropOp40
 70
     1
102
RTVSPost2010Prop41ColorIndex
 90
       18
102
RTVSPost2010Prop41ColorRGB
 90
        0
102
RTVSPost2010PropOp41
 70
     1
102
RTVSPost2010Prop42
 90
       50
102
RTVSPost2010PropOp42
 70
     1
102
RTVSPost2010Prop43
 90
        3
102
RTVSPost2010PropOp43
 70
     1
102
RTVSPost2010Prop44ColorIndex
 90
        5
102
RTVSPost2010Prop44ColorRGB
 90
      255
102
RTVSPost2010PropOp44
 70
     1
102
RTVSPost2010Prop45
280
     0
102
RTVSPost2010PropOp45
 70
     1
102
RTVSPost2010Prop46
 90
       50
102
RTVSPost2010PropOp46
 70
     1
102
RTVSPost2010Prop47
 90
       50
102
RTVSPost2010PropOp47
 70
     1
102
RTVSPost2010Prop48
 90
       50
102
RTVSPost2010PropOp48
 70
     1
102
RTVSPost2010Prop49
280
     0
102
RTVSPost2010PropOp49
 70
     1
102
RTVSPost2010Prop50
 90
       50
102
RTVSPost2010PropOp50
 70
     1
102
RTVSPost2010Prop51ColorIndex
 90
      256
102
RTVSPost2010Prop51ColorRGB
 90
-16777216
102
RTVSPost2010PropOp51
 70
     0
102
RTVSPost2010Prop52
140
1.0
102
RTVSPost2010PropOp52
 70
     0
102
RTVSPost2010Prop53
 90
        2
102
RTVSPost2010PropOp53
 70
     1
102
RTVSPost2010Prop54
  1
strokes_ogs.tif
102
RTVSPost2010PropOp54
 70
     1
102
RTVSPost2010Prop55
280
     0
102
RTVSPost2010PropOp55
 70
     1
102
RTVSPost2010Prop56
140
1.0
102
RTVSPost2010PropOp56
 70
     1
102
RTVSPost2010Prop57
140
1.0
102
RTVSPost2010PropOp57
 70
     1
102
RTVSPropertyOp0
 70
     1
102
RTVSPropertyOp1
 70
     1
102
RTVSPropertyOp2
 70
     1
102
RTVSPropertyOp3
 70
     1
102
RTVSPropertyOp4
 70
     1
102
RTVSPropertyOp5
 70
     1
102
RTVSPropertyOp6
 70
     1
102
RTVSPropertyOp7
 70
     1
102
RTVSPropertyOp8
 70
     1
102
RTVSPropertyOp9
 70
     1
102
RTVSPropertyOp10
 70
     1
102
RTVSPropertyOp11
 70
     1
102
RTVSPropertyOp12
 70
     1
102
RTVSPropertyOp13
 70
     1
102
RTVSPropertyOp14
 70
     1
102
RTVSPropertyOp15
 70
     1
102
RTVSPropertyOp16
 70
     1
102
RTVSPropertyOp17
 70
     1
102
RTVSPropertyOp18
 70
     1
102
RTVSPropertyOp19
 70
     1
102
RTVSPropertyOp20
 70
     1
102
RTVSPropertyOp21
 70
     1
102
RTVSPropertyOp22
 70
     1
102
RTVSPropertyOp23
 70
     1
102
RTVSPropertyOp24
 70
     1
102
RTVSPropertyOp25
 70
     1
102
RTVSPropertyOp26
 70
     1
102
RTVSPropertyOp27
 70
     1
102
RTVSPropertyOp28
 70
     1
102
RTVSPropertyOp29
 70
     1
102
RTVSPropertyOp30
 70
     1
102
RTVSPropertyOp31
 70
     1
102
RTVSPropertyOp32
 70
     1
102
RTVSPropertyOp33
 70
     1
102
RTVSPropertyOp34
 70
     1
102
RTVSPropertyOp35
 70
     1
102
RTVSPropertyOp36
 70
     1
102
RTVSPropertyOp37
 70
     1
102
RTVSPropertyOp38
 70
     1
102
RTVSPropertyOp39
 70
     1
102
RTVSPropertyOp40
 70
     1
102
RTVSPropertyOp41
 70
     1
102
RTVSPropertyOp42
 70
     1
102
RTVSPropertyOp43
 70
     1
102
RTVSPropertyOp44
 70
     1
102
RTVSPropertyOp45
 70
     1
102
RTVSPropertyOp46
 70
     1
102
RTVSPropertyOp47
 70
     1
102
RTVSPropertyOp48
 70
     1
102
RTVSPropertyOp49
 70
     1
102
RTVSPropertyOp50
 70
     1
102
RTVSPropertyOp51
 70
     0
102
RTVSPropertyOp52
 70
     0
102
RTVSPropertyOp53
 70
     1
102
RTVSPropertyOp54
 70
     1
102
RTVSPropertyOp55
 70
     1
102
RTVSPropertyOp56
 70
     1
102
RTVSPropertyOp57
 70
     1
102
RTVSPropertyOp58
 70
     1
102
RTVSPropertyOp59
 70
     1
102
RTVSPropertyOp60
 70
     1
102
RTVSPropertyOp61
 70
     1
102
RTVSPropertyOp62
 70
     1
  0
XRECORD
  5
8539
102
{ACAD_REACTORS
330
8538
102
}
330
8538
100
AcDbXrecord
280
     1
102
RTVSPost2010Prop28
280
     0
102
RTVSPost2010PropOp28
 70
     1
102
RTVSPost2010Prop29
280
     1
102
RTVSPost2010PropOp29
 70
     1
102
RTVSPost2010Prop30
280
     1
102
RTVSPost2010PropOp30
 70
     1
102
RTVSPost2010Prop31
280
     0
102
RTVSPost2010PropOp31
 70
     1
102
RTVSPost2010Prop32
280
     0
102
RTVSPost2010PropOp32
 70
     1
102
RTVSPost2010Prop33
280
     0
102
RTVSPost2010PropOp33
 70
     1
102
RTVSPost2010Prop34
280
     0
102
RTVSPost2010PropOp34
 70
     1
102
RTVSPost2010Prop35
280
     0
102
RTVSPost2010PropOp35
 70
     1
102
RTVSPost2010Prop36
280
     0
102
RTVSPost2010PropOp36
 70
     1
102
RTVSPost2010Prop37
 90
       50
102
RTVSPost2010PropOp37
 70
     1
102
RTVSPost2010Prop38
140
0.0
102
RTVSPost2010PropOp38
 70
     1
102
RTVSPost2010Prop39
140
1.0
102
RTVSPost2010PropOp39
 70
     1
102
RTVSPost2010Prop40
 90
        0
102
RTVSPost2010PropOp40
 70
     1
102
RTVSPost2010Prop41ColorIndex
 90
       18
102
RTVSPost2010Prop41ColorRGB
 90
        0
102
RTVSPost2010PropOp41
 70
     1
102
RTVSPost2010Prop42
 90
       50
102
RTVSPost2010PropOp42
 70
     1
102
RTVSPost2010Prop43
 90
        3
102
RTVSPost2010PropOp43
 70
     1
102
RTVSPost2010Prop44ColorIndex
 90
        5
102
RTVSPost2010Prop44ColorRGB
 90
      255
102
RTVSPost2010PropOp44
 70
     1
102
RTVSPost2010Prop45
280
     0
102
RTVSPost2010PropOp45
 70
     1
102
RTVSPost2010Prop46
 90
       50
102
RTVSPost2010PropOp46
 70
     1
102
RTVSPost2010Prop47
 90
       50
102
RTVSPost2010PropOp47
 70
     1
102
RTVSPost2010Prop48
 90
       50
102
RTVSPost2010PropOp48
 70
     1
102
RTVSPost2010Prop49
280
     0
102
RTVSPost2010PropOp49
 70
     1
102
RTVSPost2010Prop50
 90
       50
102
RTVSPost2010PropOp50
 70
     1
102
RTVSPost2010Prop51ColorIndex
 90
      256
102
RTVSPost2010Prop51ColorRGB
 90
-16777216
102
RTVSPost2010PropOp51
 70
     0
102
RTVSPost2010Prop52
140
1.0
102
RTVSPost2010PropOp52
 70
     0
102
RTVSPost2010Prop53
 90
        2
102
RTVSPost2010PropOp53
 70
     1
102
RTVSPost2010Prop54
  1
strokes_ogs.tif
102
RTVSPost2010PropOp54
 70
     1
102
RTVSPost2010Prop55
280
     0
102
RTVSPost2010PropOp55
 70
     1
102
RTVSPost2010Prop56
140
1.0
102
RTVSPost2010PropOp56
 70
     1
102
RTVSPost2010Prop57
140
1.0
102
RTVSPost2010PropOp57
 70
     1
102
RTVSPropertyOp0
 70
     1
102
RTVSPropertyOp1
 70
     1
102
RTVSPropertyOp2
 70
     1
102
RTVSPropertyOp3
 70
     1
102
RTVSPropertyOp4
 70
     1
102
RTVSPropertyOp5
 70
     1
102
RTVSPropertyOp6
 70
     1
102
RTVSPropertyOp7
 70
     1
102
RTVSPropertyOp8
 70
     1
102
RTVSPropertyOp9
 70
     1
102
RTVSPropertyOp10
 70
     1
102
RTVSPropertyOp11
 70
     1
102
RTVSPropertyOp12
 70
     1
102
RTVSPropertyOp13
 70
     1
102
RTVSPropertyOp14
 70
     1
102
RTVSPropertyOp15
 70
     1
102
RTVSPropertyOp16
 70
     1
102
RTVSPropertyOp17
 70
     1
102
RTVSPropertyOp18
 70
     1
102
RTVSPropertyOp19
 70
     1
102
RTVSPropertyOp20
 70
     1
102
RTVSPropertyOp21
 70
     1
102
RTVSPropertyOp22
 70
     1
102
RTVSPropertyOp23
 70
     1
102
RTVSPropertyOp24
 70
     1
102
RTVSPropertyOp25
 70
     1
102
RTVSPropertyOp26
 70
     1
102
RTVSPropertyOp27
 70
     1
102
RTVSPropertyOp28
 70
     1
102
RTVSPropertyOp29
 70
     1
102
RTVSPropertyOp30
 70
     1
102
RTVSPropertyOp31
 70
     1
102
RTVSPropertyOp32
 70
     1
102
RTVSPropertyOp33
 70
     1
102
RTVSPropertyOp34
 70
     1
102
RTVSPropertyOp35
 70
     1
102
RTVSPropertyOp36
 70
     1
102
RTVSPropertyOp37
 70
     1
102
RTVSPropertyOp38
 70
     1
102
RTVSPropertyOp39
 70
     1
102
RTVSPropertyOp40
 70
     1
102
RTVSPropertyOp41
 70
     1
102
RTVSPropertyOp42
 70
     1
102
RTVSPropertyOp43
 70
     1
102
RTVSPropertyOp44
 70
     1
102
RTVSPropertyOp45
 70
     1
102
RTVSPropertyOp46
 70
     1
102
RTVSPropertyOp47
 70
     1
102
RTVSPropertyOp48
 70
     1
102
RTVSPropertyOp49
 70
     1
102
RTVSPropertyOp50
 70
     1
102
RTVSPropertyOp51
 70
     0
102
RTVSPropertyOp52
 70
     0
102
RTVSPropertyOp53
 70
     1
102
RTVSPropertyOp54
 70
     1
102
RTVSPropertyOp55
 70
     1
102
RTVSPropertyOp56
 70
     1
102
RTVSPropertyOp57
 70
     1
102
RTVSPropertyOp58
 70
     1
102
RTVSPropertyOp59
 70
     1
102
RTVSPropertyOp60
 70
     1
102
RTVSPropertyOp61
 70
     1
102
RTVSPropertyOp62
 70
     1
  0
XRECORD
  5
8541
102
{ACAD_REACTORS
330
8540
102
}
330
8540
100
AcDbXrecord
280
     1
102
RTVSPost2010Prop28
280
     0
102
RTVSPost2010PropOp28
 70
     1
102
RTVSPost2010Prop29
280
     1
102
RTVSPost2010PropOp29
 70
     1
102
RTVSPost2010Prop30
280
     1
102
RTVSPost2010PropOp30
 70
     1
102
RTVSPost2010Prop31
280
     0
102
RTVSPost2010PropOp31
 70
     1
102
RTVSPost2010Prop32
280
     0
102
RTVSPost2010PropOp32
 70
     1
102
RTVSPost2010Prop33
280
     0
102
RTVSPost2010PropOp33
 70
     1
102
RTVSPost2010Prop34
280
     0
102
RTVSPost2010PropOp34
 70
     1
102
RTVSPost2010Prop35
280
     0
102
RTVSPost2010PropOp35
 70
     1
102
RTVSPost2010Prop36
280
     0
102
RTVSPost2010PropOp36
 70
     1
102
RTVSPost2010Prop37
 90
       50
102
RTVSPost2010PropOp37
 70
     1
102
RTVSPost2010Prop38
140
0.0
102
RTVSPost2010PropOp38
 70
     1
102
RTVSPost2010Prop39
140
1.0
102
RTVSPost2010PropOp39
 70
     1
102
RTVSPost2010Prop40
 90
        0
102
RTVSPost2010PropOp40
 70
     1
102
RTVSPost2010Prop41ColorIndex
 90
       18
102
RTVSPost2010Prop41ColorRGB
 90
        0
102
RTVSPost2010PropOp41
 70
     1
102
RTVSPost2010Prop42
 90
       50
102
RTVSPost2010PropOp42
 70
     1
102
RTVSPost2010Prop43
 90
        3
102
RTVSPost2010PropOp43
 70
     1
102
RTVSPost2010Prop44ColorIndex
 90
        5
102
RTVSPost2010Prop44ColorRGB
 90
      255
102
RTVSPost2010PropOp44
 70
     1
102
RTVSPost2010Prop45
280
     0
102
RTVSPost2010PropOp45
 70
     1
102
RTVSPost2010Prop46
 90
       50
102
RTVSPost2010PropOp46
 70
     1
102
RTVSPost2010Prop47
 90
       50
102
RTVSPost2010PropOp47
 70
     1
102
RTVSPost2010Prop48
 90
       50
102
RTVSPost2010PropOp48
 70
     1
102
RTVSPost2010Prop49
280
     0
102
RTVSPost2010PropOp49
 70
     1
102
RTVSPost2010Prop50
 90
       50
102
RTVSPost2010PropOp50
 70
     1
102
RTVSPost2010Prop51ColorIndex
 90
      256
102
RTVSPost2010Prop51ColorRGB
 90
-16777216
102
RTVSPost2010PropOp51
 70
     0
102
RTVSPost2010Prop52
140
1.0
102
RTVSPost2010PropOp52
 70
     0
102
RTVSPost2010Prop53
 90
        2
102
RTVSPost2010PropOp53
 70
     1
102
RTVSPost2010Prop54
  1
strokes_ogs.tif
102
RTVSPost2010PropOp54
 70
     1
102
RTVSPost2010Prop55
280
     0
102
RTVSPost2010PropOp55
 70
     1
102
RTVSPost2010Prop56
140
1.0
102
RTVSPost2010PropOp56
 70
     1
102
RTVSPost2010Prop57
140
1.0
102
RTVSPost2010PropOp57
 70
     1
102
RTVSPropertyOp0
 70
     1
102
RTVSPropertyOp1
 70
     1
102
RTVSPropertyOp2
 70
     1
102
RTVSPropertyOp3
 70
     1
102
RTVSPropertyOp4
 70
     1
102
RTVSPropertyOp5
 70
     1
102
RTVSPropertyOp6
 70
     1
102
RTVSPropertyOp7
 70
     1
102
RTVSPropertyOp8
 70
     1
102
RTVSPropertyOp9
 70
     1
102
RTVSPropertyOp10
 70
     1
102
RTVSPropertyOp11
 70
     1
102
RTVSPropertyOp12
 70
     1
102
RTVSPropertyOp13
 70
     1
102
RTVSPropertyOp14
 70
     1
102
RTVSPropertyOp15
 70
     1
102
RTVSPropertyOp16
 70
     1
102
RTVSPropertyOp17
 70
     1
102
RTVSPropertyOp18
 70
     1
102
RTVSPropertyOp19
 70
     1
102
RTVSPropertyOp20
 70
     1
102
RTVSPropertyOp21
 70
     1
102
RTVSPropertyOp22
 70
     1
102
RTVSPropertyOp23
 70
     1
102
RTVSPropertyOp24
 70
     1
102
RTVSPropertyOp25
 70
     1
102
RTVSPropertyOp26
 70
     1
102
RTVSPropertyOp27
 70
     1
102
RTVSPropertyOp28
 70
     1
102
RTVSPropertyOp29
 70
     1
102
RTVSPropertyOp30
 70
     1
102
RTVSPropertyOp31
 70
     1
102
RTVSPropertyOp32
 70
     1
102
RTVSPropertyOp33
 70
     1
102
RTVSPropertyOp34
 70
     1
102
RTVSPropertyOp35
 70
     1
102
RTVSPropertyOp36
 70
     1
102
RTVSPropertyOp37
 70
     1
102
RTVSPropertyOp38
 70
     1
102
RTVSPropertyOp39
 70
     1
102
RTVSPropertyOp40
 70
     1
102
RTVSPropertyOp41
 70
     1
102
RTVSPropertyOp42
 70
     1
102
RTVSPropertyOp43
 70
     1
102
RTVSPropertyOp44
 70
     1
102
RTVSPropertyOp45
 70
     1
102
RTVSPropertyOp46
 70
     1
102
RTVSPropertyOp47
 70
     1
102
RTVSPropertyOp48
 70
     1
102
RTVSPropertyOp49
 70
     1
102
RTVSPropertyOp50
 70
     1
102
RTVSPropertyOp51
 70
     0
102
RTVSPropertyOp52
 70
     0
102
RTVSPropertyOp53
 70
     1
102
RTVSPropertyOp54
 70
     1
102
RTVSPropertyOp55
 70
     1
102
RTVSPropertyOp56
 70
     1
102
RTVSPropertyOp57
 70
     1
102
RTVSPropertyOp58
 70
     1
102
RTVSPropertyOp59
 70
     1
102
RTVSPropertyOp60
 70
     1
102
RTVSPropertyOp61
 70
     1
102
RTVSPropertyOp62
 70
     1
  0
XRECORD
  5
8533
102
{ACAD_REACTORS
330
8532
102
}
330
8532
100
AcDbXrecord
280
     1
102
RTVSPost2010Prop28
280
     0
102
RTVSPost2010PropOp28
 70
     1
102
RTVSPost2010Prop29
280
     1
102
RTVSPost2010PropOp29
 70
     1
102
RTVSPost2010Prop30
280
     1
102
RTVSPost2010PropOp30
 70
     1
102
RTVSPost2010Prop31
280
     0
102
RTVSPost2010PropOp31
 70
     1
102
RTVSPost2010Prop32
280
     0
102
RTVSPost2010PropOp32
 70
     1
102
RTVSPost2010Prop33
280
     0
102
RTVSPost2010PropOp33
 70
     1
102
RTVSPost2010Prop34
280
     0
102
RTVSPost2010PropOp34
 70
     1
102
RTVSPost2010Prop35
280
     0
102
RTVSPost2010PropOp35
 70
     1
102
RTVSPost2010Prop36
280
     0
102
RTVSPost2010PropOp36
 70
     1
102
RTVSPost2010Prop37
 90
       50
102
RTVSPost2010PropOp37
 70
     1
102
RTVSPost2010Prop38
140
0.0
102
RTVSPost2010PropOp38
 70
     1
102
RTVSPost2010Prop39
140
1.0
102
RTVSPost2010PropOp39
 70
     1
102
RTVSPost2010Prop40
 90
        0
102
RTVSPost2010PropOp40
 70
     1
102
RTVSPost2010Prop41ColorIndex
 90
       18
102
RTVSPost2010Prop41ColorRGB
 90
        0
102
RTVSPost2010PropOp41
 70
     1
102
RTVSPost2010Prop42
 90
       50
102
RTVSPost2010PropOp42
 70
     1
102
RTVSPost2010Prop43
 90
        3
102
RTVSPost2010PropOp43
 70
     1
102
RTVSPost2010Prop44ColorIndex
 90
        5
102
RTVSPost2010Prop44ColorRGB
 90
      255
102
RTVSPost2010PropOp44
 70
     1
102
RTVSPost2010Prop45
280
     0
102
RTVSPost2010PropOp45
 70
     1
102
RTVSPost2010Prop46
 90
       50
102
RTVSPost2010PropOp46
 70
     1
102
RTVSPost2010Prop47
 90
       50
102
RTVSPost2010PropOp47
 70
     1
102
RTVSPost2010Prop48
 90
       50
102
RTVSPost2010PropOp48
 70
     1
102
RTVSPost2010Prop49
280
     0
102
RTVSPost2010PropOp49
 70
     1
102
RTVSPost2010Prop50
 90
       50
102
RTVSPost2010PropOp50
 70
     1
102
RTVSPost2010Prop51ColorIndex
 90
      256
102
RTVSPost2010Prop51ColorRGB
 90
-16777216
102
RTVSPost2010PropOp51
 70
     0
102
RTVSPost2010Prop52
140
1.0
102
RTVSPost2010PropOp52
 70
     0
102
RTVSPost2010Prop53
 90
        2
102
RTVSPost2010PropOp53
 70
     1
102
RTVSPost2010Prop54
  1
strokes_ogs.tif
102
RTVSPost2010PropOp54
 70
     1
102
RTVSPost2010Prop55
280
     0
102
RTVSPost2010PropOp55
 70
     1
102
RTVSPost2010Prop56
140
1.0
102
RTVSPost2010PropOp56
 70
     1
102
RTVSPost2010Prop57
140
1.0
102
RTVSPost2010PropOp57
 70
     1
102
RTVSPropertyOp0
 70
     1
102
RTVSPropertyOp1
 70
     1
102
RTVSPropertyOp2
 70
     1
102
RTVSPropertyOp3
 70
     1
102
RTVSPropertyOp4
 70
     1
102
RTVSPropertyOp5
 70
     1
102
RTVSPropertyOp6
 70
     1
102
RTVSPropertyOp7
 70
     1
102
RTVSPropertyOp8
 70
     1
102
RTVSPropertyOp9
 70
     1
102
RTVSPropertyOp10
 70
     1
102
RTVSPropertyOp11
 70
     1
102
RTVSPropertyOp12
 70
     1
102
RTVSPropertyOp13
 70
     1
102
RTVSPropertyOp14
 70
     1
102
RTVSPropertyOp15
 70
     1
102
RTVSPropertyOp16
 70
     1
102
RTVSPropertyOp17
 70
     1
102
RTVSPropertyOp18
 70
     1
102
RTVSPropertyOp19
 70
     1
102
RTVSPropertyOp20
 70
     1
102
RTVSPropertyOp21
 70
     1
102
RTVSPropertyOp22
 70
     1
102
RTVSPropertyOp23
 70
     1
102
RTVSPropertyOp24
 70
     1
102
RTVSPropertyOp25
 70
     1
102
RTVSPropertyOp26
 70
     1
102
RTVSPropertyOp27
 70
     1
102
RTVSPropertyOp28
 70
     1
102
RTVSPropertyOp29
 70
     1
102
RTVSPropertyOp30
 70
     1
102
RTVSPropertyOp31
 70
     1
102
RTVSPropertyOp32
 70
     1
102
RTVSPropertyOp33
 70
     1
102
RTVSPropertyOp34
 70
     1
102
RTVSPropertyOp35
 70
     1
102
RTVSPropertyOp36
 70
     1
102
RTVSPropertyOp37
 70
     1
102
RTVSPropertyOp38
 70
     1
102
RTVSPropertyOp39
 70
     1
102
RTVSPropertyOp40
 70
     1
102
RTVSPropertyOp41
 70
     1
102
RTVSPropertyOp42
 70
     1
102
RTVSPropertyOp43
 70
     1
102
RTVSPropertyOp44
 70
     1
102
RTVSPropertyOp45
 70
     1
102
RTVSPropertyOp46
 70
     1
102
RTVSPropertyOp47
 70
     1
102
RTVSPropertyOp48
 70
     1
102
RTVSPropertyOp49
 70
     1
102
RTVSPropertyOp50
 70
     1
102
RTVSPropertyOp51
 70
     0
102
RTVSPropertyOp52
 70
     0
102
RTVSPropertyOp53
 70
     1
102
RTVSPropertyOp54
 70
     1
102
RTVSPropertyOp55
 70
     1
102
RTVSPropertyOp56
 70
     1
102
RTVSPropertyOp57
 70
     1
102
RTVSPropertyOp58
 70
     1
102
RTVSPropertyOp59
 70
     1
102
RTVSPropertyOp60
 70
     1
102
RTVSPropertyOp61
 70
     1
102
RTVSPropertyOp62
 70
     1
  0
XRECORD
  5
8537
102
{ACAD_REACTORS
330
8536
102
}
330
8536
100
AcDbXrecord
280
     1
102
RTVSPost2010Prop28
280
     0
102
RTVSPost2010PropOp28
 70
     1
102
RTVSPost2010Prop29
280
     1
102
RTVSPost2010PropOp29
 70
     1
102
RTVSPost2010Prop30
280
     1
102
RTVSPost2010PropOp30
 70
     1
102
RTVSPost2010Prop31
280
     0
102
RTVSPost2010PropOp31
 70
     1
102
RTVSPost2010Prop32
280
     0
102
RTVSPost2010PropOp32
 70
     1
102
RTVSPost2010Prop33
280
     0
102
RTVSPost2010PropOp33
 70
     1
102
RTVSPost2010Prop34
280
     0
102
RTVSPost2010PropOp34
 70
     1
102
RTVSPost2010Prop35
280
     0
102
RTVSPost2010PropOp35
 70
     1
102
RTVSPost2010Prop36
280
     0
102
RTVSPost2010PropOp36
 70
     1
102
RTVSPost2010Prop37
 90
       50
102
RTVSPost2010PropOp37
 70
     1
102
RTVSPost2010Prop38
140
0.0
102
RTVSPost2010PropOp38
 70
     1
102
RTVSPost2010Prop39
140
1.0
102
RTVSPost2010PropOp39
 70
     1
102
RTVSPost2010Prop40
 90
        0
102
RTVSPost2010PropOp40
 70
     1
102
RTVSPost2010Prop41ColorIndex
 90
       18
102
RTVSPost2010Prop41ColorRGB
 90
        0
102
RTVSPost2010PropOp41
 70
     1
102
RTVSPost2010Prop42
 90
       50
102
RTVSPost2010PropOp42
 70
     1
102
RTVSPost2010Prop43
 90
        3
102
RTVSPost2010PropOp43
 70
     1
102
RTVSPost2010Prop44ColorIndex
 90
        5
102
RTVSPost2010Prop44ColorRGB
 90
      255
102
RTVSPost2010PropOp44
 70
     1
102
RTVSPost2010Prop45
280
     0
102
RTVSPost2010PropOp45
 70
     1
102
RTVSPost2010Prop46
 90
       50
102
RTVSPost2010PropOp46
 70
     1
102
RTVSPost2010Prop47
 90
       50
102
RTVSPost2010PropOp47
 70
     1
102
RTVSPost2010Prop48
 90
       50
102
RTVSPost2010PropOp48
 70
     1
102
RTVSPost2010Prop49
280
     0
102
RTVSPost2010PropOp49
 70
     1
102
RTVSPost2010Prop50
 90
       50
102
RTVSPost2010PropOp50
 70
     1
102
RTVSPost2010Prop51ColorIndex
 90
      256
102
RTVSPost2010Prop51ColorRGB
 90
-16777216
102
RTVSPost2010PropOp51
 70
     0
102
RTVSPost2010Prop52
140
1.0
102
RTVSPost2010PropOp52
 70
     0
102
RTVSPost2010Prop53
 90
        2
102
RTVSPost2010PropOp53
 70
     1
102
RTVSPost2010Prop54
  1
strokes_ogs.tif
102
RTVSPost2010PropOp54
 70
     1
102
RTVSPost2010Prop55
280
     0
102
RTVSPost2010PropOp55
 70
     1
102
RTVSPost2010Prop56
140
1.0
102
RTVSPost2010PropOp56
 70
     1
102
RTVSPost2010Prop57
140
1.0
102
RTVSPost2010PropOp57
 70
     1
102
RTVSPropertyOp0
 70
     1
102
RTVSPropertyOp1
 70
     1
102
RTVSPropertyOp2
 70
     1
102
RTVSPropertyOp3
 70
     1
102
RTVSPropertyOp4
 70
     1
102
RTVSPropertyOp5
 70
     1
102
RTVSPropertyOp6
 70
     1
102
RTVSPropertyOp7
 70
     1
102
RTVSPropertyOp8
 70
     1
102
RTVSPropertyOp9
 70
     1
102
RTVSPropertyOp10
 70
     1
102
RTVSPropertyOp11
 70
     1
102
RTVSPropertyOp12
 70
     1
102
RTVSPropertyOp13
 70
     1
102
RTVSPropertyOp14
 70
     1
102
RTVSPropertyOp15
 70
     1
102
RTVSPropertyOp16
 70
     1
102
RTVSPropertyOp17
 70
     1
102
RTVSPropertyOp18
 70
     1
102
RTVSPropertyOp19
 70
     1
102
RTVSPropertyOp20
 70
     1
102
RTVSPropertyOp21
 70
     1
102
RTVSPropertyOp22
 70
     1
102
RTVSPropertyOp23
 70
     1
102
RTVSPropertyOp24
 70
     1
102
RTVSPropertyOp25
 70
     1
102
RTVSPropertyOp26
 70
     1
102
RTVSPropertyOp27
 70
     1
102
RTVSPropertyOp28
 70
     1
102
RTVSPropertyOp29
 70
     1
102
RTVSPropertyOp30
 70
     1
102
RTVSPropertyOp31
 70
     1
102
RTVSPropertyOp32
 70
     1
102
RTVSPropertyOp33
 70
     1
102
RTVSPropertyOp34
 70
     1
102
RTVSPropertyOp35
 70
     1
102
RTVSPropertyOp36
 70
     1
102
RTVSPropertyOp37
 70
     1
102
RTVSPropertyOp38
 70
     1
102
RTVSPropertyOp39
 70
     1
102
RTVSPropertyOp40
 70
     1
102
RTVSPropertyOp41
 70
     1
102
RTVSPropertyOp42
 70
     1
102
RTVSPropertyOp43
 70
     1
102
RTVSPropertyOp44
 70
     1
102
RTVSPropertyOp45
 70
     1
102
RTVSPropertyOp46
 70
     1
102
RTVSPropertyOp47
 70
     1
102
RTVSPropertyOp48
 70
     1
102
RTVSPropertyOp49
 70
     1
102
RTVSPropertyOp50
 70
     1
102
RTVSPropertyOp51
 70
     0
102
RTVSPropertyOp52
 70
     0
102
RTVSPropertyOp53
 70
     1
102
RTVSPropertyOp54
 70
     1
102
RTVSPropertyOp55
 70
     1
102
RTVSPropertyOp56
 70
     1
102
RTVSPropertyOp57
 70
     1
102
RTVSPropertyOp58
 70
     1
102
RTVSPropertyOp59
 70
     1
102
RTVSPropertyOp60
 70
     1
102
RTVSPropertyOp61
 70
     1
102
RTVSPropertyOp62
 70
     1
  0
XRECORD
  5
8551
102
{ACAD_REACTORS
330
8550
102
}
330
8550
100
AcDbXrecord
280
     1
102
RTVSPost2010Prop28
280
     0
102
RTVSPost2010PropOp28
 70
     1
102
RTVSPost2010Prop29
280
     1
102
RTVSPost2010PropOp29
 70
     1
102
RTVSPost2010Prop30
280
     1
102
RTVSPost2010PropOp30
 70
     1
102
RTVSPost2010Prop31
280
     0
102
RTVSPost2010PropOp31
 70
     1
102
RTVSPost2010Prop32
280
     0
102
RTVSPost2010PropOp32
 70
     1
102
RTVSPost2010Prop33
280
     0
102
RTVSPost2010PropOp33
 70
     1
102
RTVSPost2010Prop34
280
     0
102
RTVSPost2010PropOp34
 70
     1
102
RTVSPost2010Prop35
280
     0
102
RTVSPost2010PropOp35
 70
     1
102
RTVSPost2010Prop36
280
     0
102
RTVSPost2010PropOp36
 70
     1
102
RTVSPost2010Prop37
 90
       50
102
RTVSPost2010PropOp37
 70
     0
102
RTVSPost2010Prop38
140
0.0
102
RTVSPost2010PropOp38
 70
     0
102
RTVSPost2010Prop39
140
1.0
102
RTVSPost2010PropOp39
 70
     0
102
RTVSPost2010Prop40
 90
        0
102
RTVSPost2010PropOp40
 70
     0
102
RTVSPost2010Prop41ColorIndex
 90
       18
102
RTVSPost2010Prop41ColorRGB
 90
        0
102
RTVSPost2010PropOp41
 70
     0
102
RTVSPost2010Prop42
 90
       50
102
RTVSPost2010PropOp42
 70
     0
102
RTVSPost2010Prop43
 90
        3
102
RTVSPost2010PropOp43
 70
     0
102
RTVSPost2010Prop44ColorIndex
 90
        5
102
RTVSPost2010Prop44ColorRGB
 90
      255
102
RTVSPost2010PropOp44
 70
     0
102
RTVSPost2010Prop45
280
     0
102
RTVSPost2010PropOp45
 70
     1
102
RTVSPost2010Prop46
 90
       50
102
RTVSPost2010PropOp46
 70
     0
102
RTVSPost2010Prop47
 90
       50
102
RTVSPost2010PropOp47
 70
     0
102
RTVSPost2010Prop48
 90
       50
102
RTVSPost2010PropOp48
 70
     0
102
RTVSPost2010Prop49
280
     0
102
RTVSPost2010PropOp49
 70
     1
102
RTVSPost2010Prop50
 90
       50
102
RTVSPost2010PropOp50
 70
     0
102
RTVSPost2010Prop51ColorIndex
 90
      256
102
RTVSPost2010Prop51ColorRGB
 90
-16777216
102
RTVSPost2010PropOp51
 70
     0
102
RTVSPost2010Prop52
140
1.0
102
RTVSPost2010PropOp52
 70
     0
102
RTVSPost2010Prop53
 90
        2
102
RTVSPost2010PropOp53
 70
     0
102
RTVSPost2010Prop54
  1
strokes_ogs.tif
102
RTVSPost2010PropOp54
 70
     0
102
RTVSPost2010Prop55
280
     0
102
RTVSPost2010PropOp55
 70
     1
102
RTVSPost2010Prop56
140
1.0
102
RTVSPost2010PropOp56
 70
     0
102
RTVSPost2010Prop57
140
1.0
102
RTVSPost2010PropOp57
 70
     0
102
RTVSPropertyOp0
 70
     0
102
RTVSPropertyOp1
 70
     0
102
RTVSPropertyOp2
 70
     0
102
RTVSPropertyOp3
 70
     0
102
RTVSPropertyOp4
 70
     0
102
RTVSPropertyOp5
 70
     0
102
RTVSPropertyOp6
 70
     0
102
RTVSPropertyOp7
 70
     0
102
RTVSPropertyOp8
 70
     0
102
RTVSPropertyOp9
 70
     0
102
RTVSPropertyOp10
 70
     0
102
RTVSPropertyOp11
 70
     0
102
RTVSPropertyOp12
 70
     0
102
RTVSPropertyOp13
 70
     0
102
RTVSPropertyOp14
 70
     2
102
RTVSPropertyOp15
 70
     0
102
RTVSPropertyOp16
 70
     0
102
RTVSPropertyOp17
 70
     0
102
RTVSPropertyOp18
 70
     0
102
RTVSPropertyOp19
 70
     0
102
RTVSPropertyOp20
 70
     0
102
RTVSPropertyOp21
 70
     0
102
RTVSPropertyOp22
 70
     0
102
RTVSPropertyOp23
 70
     0
102
RTVSPropertyOp24
 70
     0
102
RTVSPropertyOp25
 70
     0
102
RTVSPropertyOp26
 70
     0
102
RTVSPropertyOp27
 70
     0
102
RTVSPropertyOp28
 70
     1
102
RTVSPropertyOp29
 70
     1
102
RTVSPropertyOp30
 70
     1
102
RTVSPropertyOp31
 70
     1
102
RTVSPropertyOp32
 70
     1
102
RTVSPropertyOp33
 70
     1
102
RTVSPropertyOp34
 70
     1
102
RTVSPropertyOp35
 70
     1
102
RTVSPropertyOp36
 70
     1
102
RTVSPropertyOp37
 70
     0
102
RTVSPropertyOp38
 70
     0
102
RTVSPropertyOp39
 70
     0
102
RTVSPropertyOp40
 70
     0
102
RTVSPropertyOp41
 70
     0
102
RTVSPropertyOp42
 70
     0
102
RTVSPropertyOp43
 70
     0
102
RTVSPropertyOp44
 70
     0
102
RTVSPropertyOp45
 70
     1
102
RTVSPropertyOp46
 70
     0
102
RTVSPropertyOp47
 70
     0
102
RTVSPropertyOp48
 70
     0
102
RTVSPropertyOp49
 70
     1
102
RTVSPropertyOp50
 70
     0
102
RTVSPropertyOp51
 70
     0
102
RTVSPropertyOp52
 70
     0
102
RTVSPropertyOp53
 70
     0
102
RTVSPropertyOp54
 70
     0
102
RTVSPropertyOp55
 70
     1
102
RTVSPropertyOp56
 70
     0
102
RTVSPropertyOp57
 70
     0
102
RTVSPropertyOp58
 70
     0
102
RTVSPropertyOp59
 70
     0
102
RTVSPropertyOp60
 70
     0
102
RTVSPropertyOp61
 70
     0
102
RTVSPropertyOp62
 70
     0
  0
XRECORD
  5
853F
102
{ACAD_REACTORS
330
853E
102
}
330
853E
100
AcDbXrecord
280
     1
102
RTVSPost2010Prop28
280
     0
102
RTVSPost2010PropOp28
 70
     1
102
RTVSPost2010Prop29
280
     1
102
RTVSPost2010PropOp29
 70
     1
102
RTVSPost2010Prop30
280
     1
102
RTVSPost2010PropOp30
 70
     1
102
RTVSPost2010Prop31
280
     0
102
RTVSPost2010PropOp31
 70
     1
102
RTVSPost2010Prop32
280
     0
102
RTVSPost2010PropOp32
 70
     1
102
RTVSPost2010Prop33
280
     0
102
RTVSPost2010PropOp33
 70
     1
102
RTVSPost2010Prop34
280
     0
102
RTVSPost2010PropOp34
 70
     1
102
RTVSPost2010Prop35
280
     0
102
RTVSPost2010PropOp35
 70
     1
102
RTVSPost2010Prop36
280
     0
102
RTVSPost2010PropOp36
 70
     1
102
RTVSPost2010Prop37
 90
       50
102
RTVSPost2010PropOp37
 70
     1
102
RTVSPost2010Prop38
140
0.0
102
RTVSPost2010PropOp38
 70
     1
102
RTVSPost2010Prop39
140
1.0
102
RTVSPost2010PropOp39
 70
     1
102
RTVSPost2010Prop40
 90
        0
102
RTVSPost2010PropOp40
 70
     1
102
RTVSPost2010Prop41ColorIndex
 90
       18
102
RTVSPost2010Prop41ColorRGB
 90
        0
102
RTVSPost2010PropOp41
 70
     1
102
RTVSPost2010Prop42
 90
       50
102
RTVSPost2010PropOp42
 70
     1
102
RTVSPost2010Prop43
 90
        3
102
RTVSPost2010PropOp43
 70
     1
102
RTVSPost2010Prop44ColorIndex
 90
        5
102
RTVSPost2010Prop44ColorRGB
 90
      255
102
RTVSPost2010PropOp44
 70
     1
102
RTVSPost2010Prop45
280
     0
102
RTVSPost2010PropOp45
 70
     1
102
RTVSPost2010Prop46
 90
       50
102
RTVSPost2010PropOp46
 70
     1
102
RTVSPost2010Prop47
 90
       50
102
RTVSPost2010PropOp47
 70
     1
102
RTVSPost2010Prop48
 90
       50
102
RTVSPost2010PropOp48
 70
     1
102
RTVSPost2010Prop49
280
     0
102
RTVSPost2010PropOp49
 70
     1
102
RTVSPost2010Prop50
 90
       50
102
RTVSPost2010PropOp50
 70
     1
102
RTVSPost2010Prop51ColorIndex
 90
      256
102
RTVSPost2010Prop51ColorRGB
 90
-16777216
102
RTVSPost2010PropOp51
 70
     0
102
RTVSPost2010Prop52
140
1.0
102
RTVSPost2010PropOp52
 70
     0
102
RTVSPost2010Prop53
 90
        2
102
RTVSPost2010PropOp53
 70
     1
102
RTVSPost2010Prop54
  1
strokes_ogs.tif
102
RTVSPost2010PropOp54
 70
     1
102
RTVSPost2010Prop55
280
     0
102
RTVSPost2010PropOp55
 70
     1
102
RTVSPost2010Prop56
140
1.0
102
RTVSPost2010PropOp56
 70
     1
102
RTVSPost2010Prop57
140
1.0
102
RTVSPost2010PropOp57
 70
     1
102
RTVSPropertyOp0
 70
     1
102
RTVSPropertyOp1
 70
     1
102
RTVSPropertyOp2
 70
     1
102
RTVSPropertyOp3
 70
     1
102
RTVSPropertyOp4
 70
     1
102
RTVSPropertyOp5
 70
     1
102
RTVSPropertyOp6
 70
     1
102
RTVSPropertyOp7
 70
     1
102
RTVSPropertyOp8
 70
     1
102
RTVSPropertyOp9
 70
     1
102
RTVSPropertyOp10
 70
     1
102
RTVSPropertyOp11
 70
     1
102
RTVSPropertyOp12
 70
     1
102
RTVSPropertyOp13
 70
     1
102
RTVSPropertyOp14
 70
     1
102
RTVSPropertyOp15
 70
     1
102
RTVSPropertyOp16
 70
     1
102
RTVSPropertyOp17
 70
     1
102
RTVSPropertyOp18
 70
     1
102
RTVSPropertyOp19
 70
     1
102
RTVSPropertyOp20
 70
     1
102
RTVSPropertyOp21
 70
     1
102
RTVSPropertyOp22
 70
     1
102
RTVSPropertyOp23
 70
     1
102
RTVSPropertyOp24
 70
     1
102
RTVSPropertyOp25
 70
     1
102
RTVSPropertyOp26
 70
     1
102
RTVSPropertyOp27
 70
     1
102
RTVSPropertyOp28
 70
     1
102
RTVSPropertyOp29
 70
     1
102
RTVSPropertyOp30
 70
     1
102
RTVSPropertyOp31
 70
     1
102
RTVSPropertyOp32
 70
     1
102
RTVSPropertyOp33
 70
     1
102
RTVSPropertyOp34
 70
     1
102
RTVSPropertyOp35
 70
     1
102
RTVSPropertyOp36
 70
     1
102
RTVSPropertyOp37
 70
     1
102
RTVSPropertyOp38
 70
     1
102
RTVSPropertyOp39
 70
     1
102
RTVSPropertyOp40
 70
     1
102
RTVSPropertyOp41
 70
     1
102
RTVSPropertyOp42
 70
     1
102
RTVSPropertyOp43
 70
     1
102
RTVSPropertyOp44
 70
     1
102
RTVSPropertyOp45
 70
     1
102
RTVSPropertyOp46
 70
     1
102
RTVSPropertyOp47
 70
     1
102
RTVSPropertyOp48
 70
     1
102
RTVSPropertyOp49
 70
     1
102
RTVSPropertyOp50
 70
     1
102
RTVSPropertyOp51
 70
     0
102
RTVSPropertyOp52
 70
     0
102
RTVSPropertyOp53
 70
     1
102
RTVSPropertyOp54
 70
     1
102
RTVSPropertyOp55
 70
     1
102
RTVSPropertyOp56
 70
     1
102
RTVSPropertyOp57
 70
     1
102
RTVSPropertyOp58
 70
     1
102
RTVSPropertyOp59
 70
     1
102
RTVSPropertyOp60
 70
     1
102
RTVSPropertyOp61
 70
     1
102
RTVSPropertyOp62
 70
     1
  0
XRECORD
  5
8523
102
{ACAD_REACTORS
330
8522
102
}
330
8522
100
AcDbXrecord
280
     1
102
RTVSPost2010Prop28
280
     0
102
RTVSPost2010PropOp28
 70
     1
102
RTVSPost2010Prop29
280
     1
102
RTVSPost2010PropOp29
 70
     1
102
RTVSPost2010Prop30
280
     1
102
RTVSPost2010PropOp30
 70
     1
102
RTVSPost2010Prop31
280
     0
102
RTVSPost2010PropOp31
 70
     1
102
RTVSPost2010Prop32
280
     0
102
RTVSPost2010PropOp32
 70
     1
102
RTVSPost2010Prop33
280
     0
102
RTVSPost2010PropOp33
 70
     1
102
RTVSPost2010Prop34
280
     0
102
RTVSPost2010PropOp34
 70
     1
102
RTVSPost2010Prop35
280
     0
102
RTVSPost2010PropOp35
 70
     1
102
RTVSPost2010Prop36
280
     0
102
RTVSPost2010PropOp36
 70
     1
102
RTVSPost2010Prop37
 90
       50
102
RTVSPost2010PropOp37
 70
     1
102
RTVSPost2010Prop38
140
0.0
102
RTVSPost2010PropOp38
 70
     1
102
RTVSPost2010Prop39
140
1.0
102
RTVSPost2010PropOp39
 70
     1
102
RTVSPost2010Prop40
 90
        0
102
RTVSPost2010PropOp40
 70
     1
102
RTVSPost2010Prop41ColorIndex
 90
       18
102
RTVSPost2010Prop41ColorRGB
 90
        0
102
RTVSPost2010PropOp41
 70
     1
102
RTVSPost2010Prop42
 90
       50
102
RTVSPost2010PropOp42
 70
     1
102
RTVSPost2010Prop43
 90
        3
102
RTVSPost2010PropOp43
 70
     1
102
RTVSPost2010Prop44ColorIndex
 90
        5
102
RTVSPost2010Prop44ColorRGB
 90
      255
102
RTVSPost2010PropOp44
 70
     1
102
RTVSPost2010Prop45
280
     0
102
RTVSPost2010PropOp45
 70
     1
102
RTVSPost2010Prop46
 90
       50
102
RTVSPost2010PropOp46
 70
     1
102
RTVSPost2010Prop47
 90
       50
102
RTVSPost2010PropOp47
 70
     1
102
RTVSPost2010Prop48
 90
       50
102
RTVSPost2010PropOp48
 70
     1
102
RTVSPost2010Prop49
280
     0
102
RTVSPost2010PropOp49
 70
     1
102
RTVSPost2010Prop50
 90
       50
102
RTVSPost2010PropOp50
 70
     1
102
RTVSPost2010Prop51ColorIndex
 90
      256
102
RTVSPost2010Prop51ColorRGB
 90
-16777216
102
RTVSPost2010PropOp51
 70
     0
102
RTVSPost2010Prop52
140
1.0
102
RTVSPost2010PropOp52
 70
     0
102
RTVSPost2010Prop53
 90
        2
102
RTVSPost2010PropOp53
 70
     1
102
RTVSPost2010Prop54
  1
strokes_ogs.tif
102
RTVSPost2010PropOp54
 70
     1
102
RTVSPost2010Prop55
280
     0
102
RTVSPost2010PropOp55
 70
     1
102
RTVSPost2010Prop56
140
1.0
102
RTVSPost2010PropOp56
 70
     1
102
RTVSPost2010Prop57
140
1.0
102
RTVSPost2010PropOp57
 70
     1
102
RTVSPropertyOp0
 70
     1
102
RTVSPropertyOp1
 70
     1
102
RTVSPropertyOp2
 70
     1
102
RTVSPropertyOp3
 70
     1
102
RTVSPropertyOp4
 70
     1
102
RTVSPropertyOp5
 70
     1
102
RTVSPropertyOp6
 70
     1
102
RTVSPropertyOp7
 70
     1
102
RTVSPropertyOp8
 70
     1
102
RTVSPropertyOp9
 70
     1
102
RTVSPropertyOp10
 70
     1
102
RTVSPropertyOp11
 70
     1
102
RTVSPropertyOp12
 70
     1
102
RTVSPropertyOp13
 70
     1
102
RTVSPropertyOp14
 70
     1
102
RTVSPropertyOp15
 70
     1
102
RTVSPropertyOp16
 70
     1
102
RTVSPropertyOp17
 70
     1
102
RTVSPropertyOp18
 70
     1
102
RTVSPropertyOp19
 70
     1
102
RTVSPropertyOp20
 70
     1
102
RTVSPropertyOp21
 70
     1
102
RTVSPropertyOp22
 70
     1
102
RTVSPropertyOp23
 70
     1
102
RTVSPropertyOp24
 70
     1
102
RTVSPropertyOp25
 70
     1
102
RTVSPropertyOp26
 70
     1
102
RTVSPropertyOp27
 70
     1
102
RTVSPropertyOp28
 70
     1
102
RTVSPropertyOp29
 70
     1
102
RTVSPropertyOp30
 70
     1
102
RTVSPropertyOp31
 70
     1
102
RTVSPropertyOp32
 70
     1
102
RTVSPropertyOp33
 70
     1
102
RTVSPropertyOp34
 70
     1
102
RTVSPropertyOp35
 70
     1
102
RTVSPropertyOp36
 70
     1
102
RTVSPropertyOp37
 70
     1
102
RTVSPropertyOp38
 70
     1
102
RTVSPropertyOp39
 70
     1
102
RTVSPropertyOp40
 70
     1
102
RTVSPropertyOp41
 70
     1
102
RTVSPropertyOp42
 70
     1
102
RTVSPropertyOp43
 70
     1
102
RTVSPropertyOp44
 70
     1
102
RTVSPropertyOp45
 70
     1
102
RTVSPropertyOp46
 70
     1
102
RTVSPropertyOp47
 70
     1
102
RTVSPropertyOp48
 70
     1
102
RTVSPropertyOp49
 70
     1
102
RTVSPropertyOp50
 70
     1
102
RTVSPropertyOp51
 70
     0
102
RTVSPropertyOp52
 70
     0
102
RTVSPropertyOp53
 70
     1
102
RTVSPropertyOp54
 70
     1
102
RTVSPropertyOp55
 70
     1
102
RTVSPropertyOp56
 70
     1
102
RTVSPropertyOp57
 70
     1
102
RTVSPropertyOp58
 70
     1
102
RTVSPropertyOp59
 70
     1
102
RTVSPropertyOp60
 70
     1
102
RTVSPropertyOp61
 70
     1
102
RTVSPropertyOp62
 70
     1
  0
XRECORD
  5
8525
102
{ACAD_REACTORS
330
8524
102
}
330
8524
100
AcDbXrecord
280
     1
102
RTVSPost2010Prop28
280
     0
102
RTVSPost2010PropOp28
 70
     1
102
RTVSPost2010Prop29
280
     1
102
RTVSPost2010PropOp29
 70
     1
102
RTVSPost2010Prop30
280
     1
102
RTVSPost2010PropOp30
 70
     1
102
RTVSPost2010Prop31
280
     0
102
RTVSPost2010PropOp31
 70
     1
102
RTVSPost2010Prop32
280
     0
102
RTVSPost2010PropOp32
 70
     1
102
RTVSPost2010Prop33
280
     0
102
RTVSPost2010PropOp33
 70
     1
102
RTVSPost2010Prop34
280
     0
102
RTVSPost2010PropOp34
 70
     1
102
RTVSPost2010Prop35
280
     0
102
RTVSPost2010PropOp35
 70
     1
102
RTVSPost2010Prop36
280
     0
102
RTVSPost2010PropOp36
 70
     1
102
RTVSPost2010Prop37
 90
       50
102
RTVSPost2010PropOp37
 70
     1
102
RTVSPost2010Prop38
140
0.0
102
RTVSPost2010PropOp38
 70
     1
102
RTVSPost2010Prop39
140
1.0
102
RTVSPost2010PropOp39
 70
     1
102
RTVSPost2010Prop40
 90
        0
102
RTVSPost2010PropOp40
 70
     1
102
RTVSPost2010Prop41ColorIndex
 90
       18
102
RTVSPost2010Prop41ColorRGB
 90
        0
102
RTVSPost2010PropOp41
 70
     1
102
RTVSPost2010Prop42
 90
       50
102
RTVSPost2010PropOp42
 70
     1
102
RTVSPost2010Prop43
 90
        3
102
RTVSPost2010PropOp43
 70
     1
102
RTVSPost2010Prop44ColorIndex
 90
        5
102
RTVSPost2010Prop44ColorRGB
 90
      255
102
RTVSPost2010PropOp44
 70
     1
102
RTVSPost2010Prop45
280
     0
102
RTVSPost2010PropOp45
 70
     1
102
RTVSPost2010Prop46
 90
       50
102
RTVSPost2010PropOp46
 70
     1
102
RTVSPost2010Prop47
 90
       50
102
RTVSPost2010PropOp47
 70
     1
102
RTVSPost2010Prop48
 90
       50
102
RTVSPost2010PropOp48
 70
     1
102
RTVSPost2010Prop49
280
     0
102
RTVSPost2010PropOp49
 70
     1
102
RTVSPost2010Prop50
 90
       50
102
RTVSPost2010PropOp50
 70
     1
102
RTVSPost2010Prop51ColorIndex
 90
      256
102
RTVSPost2010Prop51ColorRGB
 90
-16777216
102
RTVSPost2010PropOp51
 70
     0
102
RTVSPost2010Prop52
140
1.0
102
RTVSPost2010PropOp52
 70
     0
102
RTVSPost2010Prop53
 90
        2
102
RTVSPost2010PropOp53
 70
     1
102
RTVSPost2010Prop54
  1
strokes_ogs.tif
102
RTVSPost2010PropOp54
 70
     1
102
RTVSPost2010Prop55
280
     0
102
RTVSPost2010PropOp55
 70
     1
102
RTVSPost2010Prop56
140
1.0
102
RTVSPost2010PropOp56
 70
     1
102
RTVSPost2010Prop57
140
1.0
102
RTVSPost2010PropOp57
 70
     1
102
RTVSPropertyOp0
 70
     1
102
RTVSPropertyOp1
 70
     1
102
RTVSPropertyOp2
 70
     1
102
RTVSPropertyOp3
 70
     1
102
RTVSPropertyOp4
 70
     1
102
RTVSPropertyOp5
 70
     1
102
RTVSPropertyOp6
 70
     1
102
RTVSPropertyOp7
 70
     1
102
RTVSPropertyOp8
 70
     1
102
RTVSPropertyOp9
 70
     1
102
RTVSPropertyOp10
 70
     1
102
RTVSPropertyOp11
 70
     1
102
RTVSPropertyOp12
 70
     1
102
RTVSPropertyOp13
 70
     1
102
RTVSPropertyOp14
 70
     1
102
RTVSPropertyOp15
 70
     1
102
RTVSPropertyOp16
 70
     1
102
RTVSPropertyOp17
 70
     1
102
RTVSPropertyOp18
 70
     1
102
RTVSPropertyOp19
 70
     1
102
RTVSPropertyOp20
 70
     1
102
RTVSPropertyOp21
 70
     1
102
RTVSPropertyOp22
 70
     1
102
RTVSPropertyOp23
 70
     1
102
RTVSPropertyOp24
 70
     1
102
RTVSPropertyOp25
 70
     1
102
RTVSPropertyOp26
 70
     1
102
RTVSPropertyOp27
 70
     1
102
RTVSPropertyOp28
 70
     1
102
RTVSPropertyOp29
 70
     1
102
RTVSPropertyOp30
 70
     1
102
RTVSPropertyOp31
 70
     1
102
RTVSPropertyOp32
 70
     1
102
RTVSPropertyOp33
 70
     1
102
RTVSPropertyOp34
 70
     1
102
RTVSPropertyOp35
 70
     1
102
RTVSPropertyOp36
 70
     1
102
RTVSPropertyOp37
 70
     1
102
RTVSPropertyOp38
 70
     1
102
RTVSPropertyOp39
 70
     1
102
RTVSPropertyOp40
 70
     1
102
RTVSPropertyOp41
 70
     1
102
RTVSPropertyOp42
 70
     1
102
RTVSPropertyOp43
 70
     1
102
RTVSPropertyOp44
 70
     1
102
RTVSPropertyOp45
 70
     1
102
RTVSPropertyOp46
 70
     1
102
RTVSPropertyOp47
 70
     1
102
RTVSPropertyOp48
 70
     1
102
RTVSPropertyOp49
 70
     1
102
RTVSPropertyOp50
 70
     1
102
RTVSPropertyOp51
 70
     0
102
RTVSPropertyOp52
 70
     0
102
RTVSPropertyOp53
 70
     1
102
RTVSPropertyOp54
 70
     1
102
RTVSPropertyOp55
 70
     1
102
RTVSPropertyOp56
 70
     1
102
RTVSPropertyOp57
 70
     1
102
RTVSPropertyOp58
 70
     1
102
RTVSPropertyOp59
 70
     1
102
RTVSPropertyOp60
 70
     1
102
RTVSPropertyOp61
 70
     1
102
RTVSPropertyOp62
 70
     1
  0
XRECORD
  5
8527
102
{ACAD_REACTORS
330
8526
102
}
330
8526
100
AcDbXrecord
280
     1
102
RTVSPost2010Prop28
280
     0
102
RTVSPost2010PropOp28
 70
     1
102
RTVSPost2010Prop29
280
     1
102
RTVSPost2010PropOp29
 70
     1
102
RTVSPost2010Prop30
280
     1
102
RTVSPost2010PropOp30
 70
     1
102
RTVSPost2010Prop31
280
     0
102
RTVSPost2010PropOp31
 70
     1
102
RTVSPost2010Prop32
280
     0
102
RTVSPost2010PropOp32
 70
     1
102
RTVSPost2010Prop33
280
     0
102
RTVSPost2010PropOp33
 70
     1
102
RTVSPost2010Prop34
280
     0
102
RTVSPost2010PropOp34
 70
     1
102
RTVSPost2010Prop35
280
     0
102
RTVSPost2010PropOp35
 70
     1
102
RTVSPost2010Prop36
280
     0
102
RTVSPost2010PropOp36
 70
     1
102
RTVSPost2010Prop37
 90
       50
102
RTVSPost2010PropOp37
 70
     1
102
RTVSPost2010Prop38
140
0.0
102
RTVSPost2010PropOp38
 70
     1
102
RTVSPost2010Prop39
140
1.0
102
RTVSPost2010PropOp39
 70
     1
102
RTVSPost2010Prop40
 90
        0
102
RTVSPost2010PropOp40
 70
     1
102
RTVSPost2010Prop41ColorIndex
 90
       18
102
RTVSPost2010Prop41ColorRGB
 90
        0
102
RTVSPost2010PropOp41
 70
     1
102
RTVSPost2010Prop42
 90
       50
102
RTVSPost2010PropOp42
 70
     1
102
RTVSPost2010Prop43
 90
        3
102
RTVSPost2010PropOp43
 70
     1
102
RTVSPost2010Prop44ColorIndex
 90
        5
102
RTVSPost2010Prop44ColorRGB
 90
      255
102
RTVSPost2010PropOp44
 70
     1
102
RTVSPost2010Prop45
280
     0
102
RTVSPost2010PropOp45
 70
     1
102
RTVSPost2010Prop46
 90
       50
102
RTVSPost2010PropOp46
 70
     1
102
RTVSPost2010Prop47
 90
       50
102
RTVSPost2010PropOp47
 70
     1
102
RTVSPost2010Prop48
 90
       50
102
RTVSPost2010PropOp48
 70
     1
102
RTVSPost2010Prop49
280
     0
102
RTVSPost2010PropOp49
 70
     1
102
RTVSPost2010Prop50
 90
       50
102
RTVSPost2010PropOp50
 70
     1
102
RTVSPost2010Prop51ColorIndex
 90
      256
102
RTVSPost2010Prop51ColorRGB
 90
-16777216
102
RTVSPost2010PropOp51
 70
     0
102
RTVSPost2010Prop52
140
1.0
102
RTVSPost2010PropOp52
 70
     0
102
RTVSPost2010Prop53
 90
        2
102
RTVSPost2010PropOp53
 70
     1
102
RTVSPost2010Prop54
  1
strokes_ogs.tif
102
RTVSPost2010PropOp54
 70
     1
102
RTVSPost2010Prop55
280
     0
102
RTVSPost2010PropOp55
 70
     1
102
RTVSPost2010Prop56
140
1.0
102
RTVSPost2010PropOp56
 70
     1
102
RTVSPost2010Prop57
140
1.0
102
RTVSPost2010PropOp57
 70
     1
102
RTVSPropertyOp0
 70
     1
102
RTVSPropertyOp1
 70
     1
102
RTVSPropertyOp2
 70
     1
102
RTVSPropertyOp3
 70
     1
102
RTVSPropertyOp4
 70
     1
102
RTVSPropertyOp5
 70
     1
102
RTVSPropertyOp6
 70
     1
102
RTVSPropertyOp7
 70
     1
102
RTVSPropertyOp8
 70
     1
102
RTVSPropertyOp9
 70
     1
102
RTVSPropertyOp10
 70
     1
102
RTVSPropertyOp11
 70
     1
102
RTVSPropertyOp12
 70
     1
102
RTVSPropertyOp13
 70
     1
102
RTVSPropertyOp14
 70
     1
102
RTVSPropertyOp15
 70
     1
102
RTVSPropertyOp16
 70
     1
102
RTVSPropertyOp17
 70
     1
102
RTVSPropertyOp18
 70
     1
102
RTVSPropertyOp19
 70
     1
102
RTVSPropertyOp20
 70
     1
102
RTVSPropertyOp21
 70
     1
102
RTVSPropertyOp22
 70
     1
102
RTVSPropertyOp23
 70
     1
102
RTVSPropertyOp24
 70
     1
102
RTVSPropertyOp25
 70
     1
102
RTVSPropertyOp26
 70
     1
102
RTVSPropertyOp27
 70
     1
102
RTVSPropertyOp28
 70
     1
102
RTVSPropertyOp29
 70
     1
102
RTVSPropertyOp30
 70
     1
102
RTVSPropertyOp31
 70
     1
102
RTVSPropertyOp32
 70
     1
102
RTVSPropertyOp33
 70
     1
102
RTVSPropertyOp34
 70
     1
102
RTVSPropertyOp35
 70
     1
102
RTVSPropertyOp36
 70
     1
102
RTVSPropertyOp37
 70
     1
102
RTVSPropertyOp38
 70
     1
102
RTVSPropertyOp39
 70
     1
102
RTVSPropertyOp40
 70
     1
102
RTVSPropertyOp41
 70
     1
102
RTVSPropertyOp42
 70
     1
102
RTVSPropertyOp43
 70
     1
102
RTVSPropertyOp44
 70
     1
102
RTVSPropertyOp45
 70
     1
102
RTVSPropertyOp46
 70
     1
102
RTVSPropertyOp47
 70
     1
102
RTVSPropertyOp48
 70
     1
102
RTVSPropertyOp49
 70
     1
102
RTVSPropertyOp50
 70
     1
102
RTVSPropertyOp51
 70
     0
102
RTVSPropertyOp52
 70
     0
102
RTVSPropertyOp53
 70
     1
102
RTVSPropertyOp54
 70
     1
102
RTVSPropertyOp55
 70
     1
102
RTVSPropertyOp56
 70
     1
102
RTVSPropertyOp57
 70
     1
102
RTVSPropertyOp58
 70
     1
102
RTVSPropertyOp59
 70
     1
102
RTVSPropertyOp60
 70
     1
102
RTVSPropertyOp61
 70
     1
102
RTVSPropertyOp62
 70
     1
  0
XRECORD
  5
8529
102
{ACAD_REACTORS
330
8528
102
}
330
8528
100
AcDbXrecord
280
     1
102
RTVSPost2010Prop28
280
     0
102
RTVSPost2010PropOp28
 70
     1
102
RTVSPost2010Prop29
280
     1
102
RTVSPost2010PropOp29
 70
     1
102
RTVSPost2010Prop30
280
     1
102
RTVSPost2010PropOp30
 70
     1
102
RTVSPost2010Prop31
280
     0
102
RTVSPost2010PropOp31
 70
     1
102
RTVSPost2010Prop32
280
     0
102
RTVSPost2010PropOp32
 70
     1
102
RTVSPost2010Prop33
280
     0
102
RTVSPost2010PropOp33
 70
     1
102
RTVSPost2010Prop34
280
     0
102
RTVSPost2010PropOp34
 70
     1
102
RTVSPost2010Prop35
280
     0
102
RTVSPost2010PropOp35
 70
     1
102
RTVSPost2010Prop36
280
     0
102
RTVSPost2010PropOp36
 70
     1
102
RTVSPost2010Prop37
 90
       50
102
RTVSPost2010PropOp37
 70
     1
102
RTVSPost2010Prop38
140
0.0
102
RTVSPost2010PropOp38
 70
     1
102
RTVSPost2010Prop39
140
1.0
102
RTVSPost2010PropOp39
 70
     1
102
RTVSPost2010Prop40
 90
        0
102
RTVSPost2010PropOp40
 70
     1
102
RTVSPost2010Prop41ColorIndex
 90
       18
102
RTVSPost2010Prop41ColorRGB
 90
        0
102
RTVSPost2010PropOp41
 70
     1
102
RTVSPost2010Prop42
 90
       50
102
RTVSPost2010PropOp42
 70
     1
102
RTVSPost2010Prop43
 90
        3
102
RTVSPost2010PropOp43
 70
     1
102
RTVSPost2010Prop44ColorIndex
 90
        5
102
RTVSPost2010Prop44ColorRGB
 90
      255
102
RTVSPost2010PropOp44
 70
     1
102
RTVSPost2010Prop45
280
     0
102
RTVSPost2010PropOp45
 70
     1
102
RTVSPost2010Prop46
 90
       50
102
RTVSPost2010PropOp46
 70
     1
102
RTVSPost2010Prop47
 90
       50
102
RTVSPost2010PropOp47
 70
     1
102
RTVSPost2010Prop48
 90
       50
102
RTVSPost2010PropOp48
 70
     1
102
RTVSPost2010Prop49
280
     0
102
RTVSPost2010PropOp49
 70
     1
102
RTVSPost2010Prop50
 90
       50
102
RTVSPost2010PropOp50
 70
     1
102
RTVSPost2010Prop51ColorIndex
 90
      256
102
RTVSPost2010Prop51ColorRGB
 90
-16777216
102
RTVSPost2010PropOp51
 70
     0
102
RTVSPost2010Prop52
140
1.0
102
RTVSPost2010PropOp52
 70
     0
102
RTVSPost2010Prop53
 90
        2
102
RTVSPost2010PropOp53
 70
     1
102
RTVSPost2010Prop54
  1
strokes_ogs.tif
102
RTVSPost2010PropOp54
 70
     1
102
RTVSPost2010Prop55
280
     0
102
RTVSPost2010PropOp55
 70
     1
102
RTVSPost2010Prop56
140
1.0
102
RTVSPost2010PropOp56
 70
     1
102
RTVSPost2010Prop57
140
1.0
102
RTVSPost2010PropOp57
 70
     1
102
RTVSPropertyOp0
 70
     1
102
RTVSPropertyOp1
 70
     1
102
RTVSPropertyOp2
 70
     1
102
RTVSPropertyOp3
 70
     1
102
RTVSPropertyOp4
 70
     1
102
RTVSPropertyOp5
 70
     1
102
RTVSPropertyOp6
 70
     1
102
RTVSPropertyOp7
 70
     1
102
RTVSPropertyOp8
 70
     1
102
RTVSPropertyOp9
 70
     1
102
RTVSPropertyOp10
 70
     1
102
RTVSPropertyOp11
 70
     1
102
RTVSPropertyOp12
 70
     1
102
RTVSPropertyOp13
 70
     1
102
RTVSPropertyOp14
 70
     1
102
RTVSPropertyOp15
 70
     1
102
RTVSPropertyOp16
 70
     1
102
RTVSPropertyOp17
 70
     1
102
RTVSPropertyOp18
 70
     1
102
RTVSPropertyOp19
 70
     1
102
RTVSPropertyOp20
 70
     1
102
RTVSPropertyOp21
 70
     1
102
RTVSPropertyOp22
 70
     1
102
RTVSPropertyOp23
 70
     1
102
RTVSPropertyOp24
 70
     1
102
RTVSPropertyOp25
 70
     1
102
RTVSPropertyOp26
 70
     1
102
RTVSPropertyOp27
 70
     1
102
RTVSPropertyOp28
 70
     1
102
RTVSPropertyOp29
 70
     1
102
RTVSPropertyOp30
 70
     1
102
RTVSPropertyOp31
 70
     1
102
RTVSPropertyOp32
 70
     1
102
RTVSPropertyOp33
 70
     1
102
RTVSPropertyOp34
 70
     1
102
RTVSPropertyOp35
 70
     1
102
RTVSPropertyOp36
 70
     1
102
RTVSPropertyOp37
 70
     1
102
RTVSPropertyOp38
 70
     1
102
RTVSPropertyOp39
 70
     1
102
RTVSPropertyOp40
 70
     1
102
RTVSPropertyOp41
 70
     1
102
RTVSPropertyOp42
 70
     1
102
RTVSPropertyOp43
 70
     1
102
RTVSPropertyOp44
 70
     1
102
RTVSPropertyOp45
 70
     1
102
RTVSPropertyOp46
 70
     1
102
RTVSPropertyOp47
 70
     1
102
RTVSPropertyOp48
 70
     1
102
RTVSPropertyOp49
 70
     1
102
RTVSPropertyOp50
 70
     1
102
RTVSPropertyOp51
 70
     0
102
RTVSPropertyOp52
 70
     0
102
RTVSPropertyOp53
 70
     1
102
RTVSPropertyOp54
 70
     1
102
RTVSPropertyOp55
 70
     1
102
RTVSPropertyOp56
 70
     1
102
RTVSPropertyOp57
 70
     1
102
RTVSPropertyOp58
 70
     1
102
RTVSPropertyOp59
 70
     1
102
RTVSPropertyOp60
 70
     1
102
RTVSPropertyOp61
 70
     1
102
RTVSPropertyOp62
 70
     1
  0
XRECORD
  5
8531
102
{ACAD_REACTORS
330
8530
102
}
330
8530
100
AcDbXrecord
280
     1
102
RTVSPost2010Prop28
280
     0
102
RTVSPost2010PropOp28
 70
     1
102
RTVSPost2010Prop29
280
     1
102
RTVSPost2010PropOp29
 70
     1
102
RTVSPost2010Prop30
280
     1
102
RTVSPost2010PropOp30
 70
     1
102
RTVSPost2010Prop31
280
     0
102
RTVSPost2010PropOp31
 70
     1
102
RTVSPost2010Prop32
280
     0
102
RTVSPost2010PropOp32
 70
     1
102
RTVSPost2010Prop33
280
     0
102
RTVSPost2010PropOp33
 70
     1
102
RTVSPost2010Prop34
280
     0
102
RTVSPost2010PropOp34
 70
     1
102
RTVSPost2010Prop35
280
     0
102
RTVSPost2010PropOp35
 70
     1
102
RTVSPost2010Prop36
280
     0
102
RTVSPost2010PropOp36
 70
     1
102
RTVSPost2010Prop37
 90
       50
102
RTVSPost2010PropOp37
 70
     1
102
RTVSPost2010Prop38
140
0.0
102
RTVSPost2010PropOp38
 70
     1
102
RTVSPost2010Prop39
140
1.0
102
RTVSPost2010PropOp39
 70
     1
102
RTVSPost2010Prop40
 90
        0
102
RTVSPost2010PropOp40
 70
     1
102
RTVSPost2010Prop41ColorIndex
 90
       18
102
RTVSPost2010Prop41ColorRGB
 90
        0
102
RTVSPost2010PropOp41
 70
     1
102
RTVSPost2010Prop42
 90
       50
102
RTVSPost2010PropOp42
 70
     1
102
RTVSPost2010Prop43
 90
        3
102
RTVSPost2010PropOp43
 70
     1
102
RTVSPost2010Prop44ColorIndex
 90
        5
102
RTVSPost2010Prop44ColorRGB
 90
      255
102
RTVSPost2010PropOp44
 70
     1
102
RTVSPost2010Prop45
280
     0
102
RTVSPost2010PropOp45
 70
     1
102
RTVSPost2010Prop46
 90
       50
102
RTVSPost2010PropOp46
 70
     1
102
RTVSPost2010Prop47
 90
       50
102
RTVSPost2010PropOp47
 70
     1
102
RTVSPost2010Prop48
 90
       50
102
RTVSPost2010PropOp48
 70
     1
102
RTVSPost2010Prop49
280
     0
102
RTVSPost2010PropOp49
 70
     1
102
RTVSPost2010Prop50
 90
       50
102
RTVSPost2010PropOp50
 70
     1
102
RTVSPost2010Prop51ColorIndex
 90
      256
102
RTVSPost2010Prop51ColorRGB
 90
-16777216
102
RTVSPost2010PropOp51
 70
     0
102
RTVSPost2010Prop52
140
1.0
102
RTVSPost2010PropOp52
 70
     0
102
RTVSPost2010Prop53
 90
        2
102
RTVSPost2010PropOp53
 70
     1
102
RTVSPost2010Prop54
  1
strokes_ogs.tif
102
RTVSPost2010PropOp54
 70
     1
102
RTVSPost2010Prop55
280
     0
102
RTVSPost2010PropOp55
 70
     1
102
RTVSPost2010Prop56
140
1.0
102
RTVSPost2010PropOp56
 70
     1
102
RTVSPost2010Prop57
140
1.0
102
RTVSPost2010PropOp57
 70
     1
102
RTVSPropertyOp0
 70
     1
102
RTVSPropertyOp1
 70
     1
102
RTVSPropertyOp2
 70
     1
102
RTVSPropertyOp3
 70
     1
102
RTVSPropertyOp4
 70
     1
102
RTVSPropertyOp5
 70
     1
102
RTVSPropertyOp6
 70
     1
102
RTVSPropertyOp7
 70
     1
102
RTVSPropertyOp8
 70
     1
102
RTVSPropertyOp9
 70
     1
102
RTVSPropertyOp10
 70
     1
102
RTVSPropertyOp11
 70
     1
102
RTVSPropertyOp12
 70
     1
102
RTVSPropertyOp13
 70
     1
102
RTVSPropertyOp14
 70
     1
102
RTVSPropertyOp15
 70
     1
102
RTVSPropertyOp16
 70
     1
102
RTVSPropertyOp17
 70
     1
102
RTVSPropertyOp18
 70
     1
102
RTVSPropertyOp19
 70
     1
102
RTVSPropertyOp20
 70
     1
102
RTVSPropertyOp21
 70
     1
102
RTVSPropertyOp22
 70
     1
102
RTVSPropertyOp23
 70
     1
102
RTVSPropertyOp24
 70
     1
102
RTVSPropertyOp25
 70
     1
102
RTVSPropertyOp26
 70
     1
102
RTVSPropertyOp27
 70
     1
102
RTVSPropertyOp28
 70
     1
102
RTVSPropertyOp29
 70
     1
102
RTVSPropertyOp30
 70
     1
102
RTVSPropertyOp31
 70
     1
102
RTVSPropertyOp32
 70
     1
102
RTVSPropertyOp33
 70
     1
102
RTVSPropertyOp34
 70
     1
102
RTVSPropertyOp35
 70
     1
102
RTVSPropertyOp36
 70
     1
102
RTVSPropertyOp37
 70
     1
102
RTVSPropertyOp38
 70
     1
102
RTVSPropertyOp39
 70
     1
102
RTVSPropertyOp40
 70
     1
102
RTVSPropertyOp41
 70
     1
102
RTVSPropertyOp42
 70
     1
102
RTVSPropertyOp43
 70
     1
102
RTVSPropertyOp44
 70
     1
102
RTVSPropertyOp45
 70
     1
102
RTVSPropertyOp46
 70
     1
102
RTVSPropertyOp47
 70
     1
102
RTVSPropertyOp48
 70
     1
102
RTVSPropertyOp49
 70
     1
102
RTVSPropertyOp50
 70
     1
102
RTVSPropertyOp51
 70
     0
102
RTVSPropertyOp52
 70
     0
102
RTVSPropertyOp53
 70
     1
102
RTVSPropertyOp54
 70
     1
102
RTVSPropertyOp55
 70
     1
102
RTVSPropertyOp56
 70
     1
102
RTVSPropertyOp57
 70
     1
102
RTVSPropertyOp58
 70
     1
102
RTVSPropertyOp59
 70
     1
102
RTVSPropertyOp60
 70
     1
102
RTVSPropertyOp61
 70
     1
102
RTVSPropertyOp62
 70
     1
  0
XRECORD
  5
854D
102
{ACAD_REACTORS
330
854C
102
}
330
854C
100
AcDbXrecord
280
     1
102
RTVSPost2010Prop28
280
     0
102
RTVSPost2010PropOp28
 70
     1
102
RTVSPost2010Prop29
280
     1
102
RTVSPost2010PropOp29
 70
     1
102
RTVSPost2010Prop30
280
     1
102
RTVSPost2010PropOp30
 70
     1
102
RTVSPost2010Prop31
280
     0
102
RTVSPost2010PropOp31
 70
     1
102
RTVSPost2010Prop32
280
     0
102
RTVSPost2010PropOp32
 70
     1
102
RTVSPost2010Prop33
280
     0
102
RTVSPost2010PropOp33
 70
     1
102
RTVSPost2010Prop34
280
     0
102
RTVSPost2010PropOp34
 70
     1
102
RTVSPost2010Prop35
280
     0
102
RTVSPost2010PropOp35
 70
     1
102
RTVSPost2010Prop36
280
     0
102
RTVSPost2010PropOp36
 70
     1
102
RTVSPost2010Prop37
 90
       50
102
RTVSPost2010PropOp37
 70
     0
102
RTVSPost2010Prop38
140
0.0
102
RTVSPost2010PropOp38
 70
     0
102
RTVSPost2010Prop39
140
1.0
102
RTVSPost2010PropOp39
 70
     0
102
RTVSPost2010Prop40
 90
        0
102
RTVSPost2010PropOp40
 70
     0
102
RTVSPost2010Prop41ColorIndex
 90
       18
102
RTVSPost2010Prop41ColorRGB
 90
        0
102
RTVSPost2010PropOp41
 70
     0
102
RTVSPost2010Prop42
 90
       50
102
RTVSPost2010PropOp42
 70
     0
102
RTVSPost2010Prop43
 90
        3
102
RTVSPost2010PropOp43
 70
     0
102
RTVSPost2010Prop44ColorIndex
 90
        5
102
RTVSPost2010Prop44ColorRGB
 90
      255
102
RTVSPost2010PropOp44
 70
     0
102
RTVSPost2010Prop45
280
     0
102
RTVSPost2010PropOp45
 70
     1
102
RTVSPost2010Prop46
 90
       50
102
RTVSPost2010PropOp46
 70
     0
102
RTVSPost2010Prop47
 90
       50
102
RTVSPost2010PropOp47
 70
     0
102
RTVSPost2010Prop48
 90
       50
102
RTVSPost2010PropOp48
 70
     0
102
RTVSPost2010Prop49
280
     0
102
RTVSPost2010PropOp49
 70
     1
102
RTVSPost2010Prop50
 90
       50
102
RTVSPost2010PropOp50
 70
     0
102
RTVSPost2010Prop51ColorIndex
 90
      256
102
RTVSPost2010Prop51ColorRGB
 90
-16777216
102
RTVSPost2010PropOp51
 70
     0
102
RTVSPost2010Prop52
140
1.0
102
RTVSPost2010PropOp52
 70
     0
102
RTVSPost2010Prop53
 90
        2
102
RTVSPost2010PropOp53
 70
     0
102
RTVSPost2010Prop54
  1
strokes_ogs.tif
102
RTVSPost2010PropOp54
 70
     0
102
RTVSPost2010Prop55
280
     0
102
RTVSPost2010PropOp55
 70
     1
102
RTVSPost2010Prop56
140
1.0
102
RTVSPost2010PropOp56
 70
     0
102
RTVSPost2010Prop57
140
1.0
102
RTVSPost2010PropOp57
 70
     0
102
RTVSPropertyOp0
 70
     0
102
RTVSPropertyOp1
 70
     0
102
RTVSPropertyOp2
 70
     0
102
RTVSPropertyOp3
 70
     0
102
RTVSPropertyOp4
 70
     0
102
RTVSPropertyOp5
 70
     0
102
RTVSPropertyOp6
 70
     0
102
RTVSPropertyOp7
 70
     0
102
RTVSPropertyOp8
 70
     0
102
RTVSPropertyOp9
 70
     0
102
RTVSPropertyOp10
 70
     0
102
RTVSPropertyOp11
 70
     0
102
RTVSPropertyOp12
 70
     0
102
RTVSPropertyOp13
 70
     0
102
RTVSPropertyOp14
 70
     2
102
RTVSPropertyOp15
 70
     0
102
RTVSPropertyOp16
 70
     0
102
RTVSPropertyOp17
 70
     0
102
RTVSPropertyOp18
 70
     0
102
RTVSPropertyOp19
 70
     0
102
RTVSPropertyOp20
 70
     0
102
RTVSPropertyOp21
 70
     0
102
RTVSPropertyOp22
 70
     0
102
RTVSPropertyOp23
 70
     0
102
RTVSPropertyOp24
 70
     0
102
RTVSPropertyOp25
 70
     0
102
RTVSPropertyOp26
 70
     0
102
RTVSPropertyOp27
 70
     0
102
RTVSPropertyOp28
 70
     1
102
RTVSPropertyOp29
 70
     1
102
RTVSPropertyOp30
 70
     1
102
RTVSPropertyOp31
 70
     1
102
RTVSPropertyOp32
 70
     1
102
RTVSPropertyOp33
 70
     1
102
RTVSPropertyOp34
 70
     1
102
RTVSPropertyOp35
 70
     1
102
RTVSPropertyOp36
 70
     1
102
RTVSPropertyOp37
 70
     0
102
RTVSPropertyOp38
 70
     0
102
RTVSPropertyOp39
 70
     0
102
RTVSPropertyOp40
 70
     0
102
RTVSPropertyOp41
 70
     0
102
RTVSPropertyOp42
 70
     0
102
RTVSPropertyOp43
 70
     0
102
RTVSPropertyOp44
 70
     0
102
RTVSPropertyOp45
 70
     1
102
RTVSPropertyOp46
 70
     0
102
RTVSPropertyOp47
 70
     0
102
RTVSPropertyOp48
 70
     0
102
RTVSPropertyOp49
 70
     1
102
RTVSPropertyOp50
 70
     0
102
RTVSPropertyOp51
 70
     0
102
RTVSPropertyOp52
 70
     0
102
RTVSPropertyOp53
 70
     0
102
RTVSPropertyOp54
 70
     0
102
RTVSPropertyOp55
 70
     1
102
RTVSPropertyOp56
 70
     0
102
RTVSPropertyOp57
 70
     0
102
RTVSPropertyOp58
 70
     0
102
RTVSPropertyOp59
 70
     0
102
RTVSPropertyOp60
 70
     0
102
RTVSPropertyOp61
 70
     0
102
RTVSPropertyOp62
 70
     0
  0
XRECORD
  5
853D
102
{ACAD_REACTORS
330
853C
102
}
330
853C
100
AcDbXrecord
280
     1
102
RTVSPost2010Prop28
280
     0
102
RTVSPost2010PropOp28
 70
     1
102
RTVSPost2010Prop29
280
     1
102
RTVSPost2010PropOp29
 70
     1
102
RTVSPost2010Prop30
280
     1
102
RTVSPost2010PropOp30
 70
     1
102
RTVSPost2010Prop31
280
     0
102
RTVSPost2010PropOp31
 70
     1
102
RTVSPost2010Prop32
280
     0
102
RTVSPost2010PropOp32
 70
     1
102
RTVSPost2010Prop33
280
     0
102
RTVSPost2010PropOp33
 70
     1
102
RTVSPost2010Prop34
280
     0
102
RTVSPost2010PropOp34
 70
     1
102
RTVSPost2010Prop35
280
     0
102
RTVSPost2010PropOp35
 70
     1
102
RTVSPost2010Prop36
280
     0
102
RTVSPost2010PropOp36
 70
     1
102
RTVSPost2010Prop37
 90
       50
102
RTVSPost2010PropOp37
 70
     1
102
RTVSPost2010Prop38
140
0.0
102
RTVSPost2010PropOp38
 70
     1
102
RTVSPost2010Prop39
140
1.0
102
RTVSPost2010PropOp39
 70
     1
102
RTVSPost2010Prop40
 90
        0
102
RTVSPost2010PropOp40
 70
     1
102
RTVSPost2010Prop41ColorIndex
 90
       18
102
RTVSPost2010Prop41ColorRGB
 90
        0
102
RTVSPost2010PropOp41
 70
     1
102
RTVSPost2010Prop42
 90
       50
102
RTVSPost2010PropOp42
 70
     1
102
RTVSPost2010Prop43
 90
        3
102
RTVSPost2010PropOp43
 70
     1
102
RTVSPost2010Prop44ColorIndex
 90
        5
102
RTVSPost2010Prop44ColorRGB
 90
      255
102
RTVSPost2010PropOp44
 70
     1
102
RTVSPost2010Prop45
280
     0
102
RTVSPost2010PropOp45
 70
     1
102
RTVSPost2010Prop46
 90
       50
102
RTVSPost2010PropOp46
 70
     1
102
RTVSPost2010Prop47
 90
       50
102
RTVSPost2010PropOp47
 70
     1
102
RTVSPost2010Prop48
 90
       50
102
RTVSPost2010PropOp48
 70
     1
102
RTVSPost2010Prop49
280
     0
102
RTVSPost2010PropOp49
 70
     1
102
RTVSPost2010Prop50
 90
       50
102
RTVSPost2010PropOp50
 70
     1
102
RTVSPost2010Prop51ColorIndex
 90
      256
102
RTVSPost2010Prop51ColorRGB
 90
-16777216
102
RTVSPost2010PropOp51
 70
     0
102
RTVSPost2010Prop52
140
1.0
102
RTVSPost2010PropOp52
 70
     0
102
RTVSPost2010Prop53
 90
        2
102
RTVSPost2010PropOp53
 70
     1
102
RTVSPost2010Prop54
  1
strokes_ogs.tif
102
RTVSPost2010PropOp54
 70
     1
102
RTVSPost2010Prop55
280
     0
102
RTVSPost2010PropOp55
 70
     1
102
RTVSPost2010Prop56
140
1.0
102
RTVSPost2010PropOp56
 70
     1
102
RTVSPost2010Prop57
140
1.0
102
RTVSPost2010PropOp57
 70
     1
102
RTVSPropertyOp0
 70
     1
102
RTVSPropertyOp1
 70
     1
102
RTVSPropertyOp2
 70
     1
102
RTVSPropertyOp3
 70
     1
102
RTVSPropertyOp4
 70
     1
102
RTVSPropertyOp5
 70
     1
102
RTVSPropertyOp6
 70
     1
102
RTVSPropertyOp7
 70
     1
102
RTVSPropertyOp8
 70
     1
102
RTVSPropertyOp9
 70
     1
102
RTVSPropertyOp10
 70
     1
102
RTVSPropertyOp11
 70
     1
102
RTVSPropertyOp12
 70
     1
102
RTVSPropertyOp13
 70
     1
102
RTVSPropertyOp14
 70
     1
102
RTVSPropertyOp15
 70
     1
102
RTVSPropertyOp16
 70
     1
102
RTVSPropertyOp17
 70
     1
102
RTVSPropertyOp18
 70
     1
102
RTVSPropertyOp19
 70
     1
102
RTVSPropertyOp20
 70
     1
102
RTVSPropertyOp21
 70
     1
102
RTVSPropertyOp22
 70
     1
102
RTVSPropertyOp23
 70
     1
102
RTVSPropertyOp24
 70
     1
102
RTVSPropertyOp25
 70
     1
102
RTVSPropertyOp26
 70
     1
102
RTVSPropertyOp27
 70
     1
102
RTVSPropertyOp28
 70
     1
102
RTVSPropertyOp29
 70
     1
102
RTVSPropertyOp30
 70
     1
102
RTVSPropertyOp31
 70
     1
102
RTVSPropertyOp32
 70
     1
102
RTVSPropertyOp33
 70
     1
102
RTVSPropertyOp34
 70
     1
102
RTVSPropertyOp35
 70
     1
102
RTVSPropertyOp36
 70
     1
102
RTVSPropertyOp37
 70
     1
102
RTVSPropertyOp38
 70
     1
102
RTVSPropertyOp39
 70
     1
102
RTVSPropertyOp40
 70
     1
102
RTVSPropertyOp41
 70
     1
102
RTVSPropertyOp42
 70
     1
102
RTVSPropertyOp43
 70
     1
102
RTVSPropertyOp44
 70
     1
102
RTVSPropertyOp45
 70
     1
102
RTVSPropertyOp46
 70
     1
102
RTVSPropertyOp47
 70
     1
102
RTVSPropertyOp48
 70
     1
102
RTVSPropertyOp49
 70
     1
102
RTVSPropertyOp50
 70
     1
102
RTVSPropertyOp51
 70
     0
102
RTVSPropertyOp52
 70
     0
102
RTVSPropertyOp53
 70
     1
102
RTVSPropertyOp54
 70
     1
102
RTVSPropertyOp55
 70
     1
102
RTVSPropertyOp56
 70
     1
102
RTVSPropertyOp57
 70
     1
102
RTVSPropertyOp58
 70
     1
102
RTVSPropertyOp59
 70
     1
102
RTVSPropertyOp60
 70
     1
102
RTVSPropertyOp61
 70
     1
102
RTVSPropertyOp62
 70
     1
  0
XRECORD
  5
854F
102
{ACAD_REACTORS
330
854E
102
}
330
854E
100
AcDbXrecord
280
     1
102
RTVSPost2010Prop28
280
     0
102
RTVSPost2010PropOp28
 70
     1
102
RTVSPost2010Prop29
280
     1
102
RTVSPost2010PropOp29
 70
     1
102
RTVSPost2010Prop30
280
     1
102
RTVSPost2010PropOp30
 70
     1
102
RTVSPost2010Prop31
280
     0
102
RTVSPost2010PropOp31
 70
     1
102
RTVSPost2010Prop32
280
     0
102
RTVSPost2010PropOp32
 70
     1
102
RTVSPost2010Prop33
280
     0
102
RTVSPost2010PropOp33
 70
     1
102
RTVSPost2010Prop34
280
     0
102
RTVSPost2010PropOp34
 70
     1
102
RTVSPost2010Prop35
280
     0
102
RTVSPost2010PropOp35
 70
     1
102
RTVSPost2010Prop36
280
     0
102
RTVSPost2010PropOp36
 70
     1
102
RTVSPost2010Prop37
 90
       50
102
RTVSPost2010PropOp37
 70
     0
102
RTVSPost2010Prop38
140
0.0
102
RTVSPost2010PropOp38
 70
     0
102
RTVSPost2010Prop39
140
1.0
102
RTVSPost2010PropOp39
 70
     0
102
RTVSPost2010Prop40
 90
        0
102
RTVSPost2010PropOp40
 70
     0
102
RTVSPost2010Prop41ColorIndex
 90
       18
102
RTVSPost2010Prop41ColorRGB
 90
        0
102
RTVSPost2010PropOp41
 70
     0
102
RTVSPost2010Prop42
 90
       50
102
RTVSPost2010PropOp42
 70
     0
102
RTVSPost2010Prop43
 90
        3
102
RTVSPost2010PropOp43
 70
     0
102
RTVSPost2010Prop44ColorIndex
 90
        5
102
RTVSPost2010Prop44ColorRGB
 90
      255
102
RTVSPost2010PropOp44
 70
     0
102
RTVSPost2010Prop45
280
     0
102
RTVSPost2010PropOp45
 70
     1
102
RTVSPost2010Prop46
 90
       50
102
RTVSPost2010PropOp46
 70
     0
102
RTVSPost2010Prop47
 90
       50
102
RTVSPost2010PropOp47
 70
     0
102
RTVSPost2010Prop48
 90
       50
102
RTVSPost2010PropOp48
 70
     0
102
RTVSPost2010Prop49
280
     0
102
RTVSPost2010PropOp49
 70
     1
102
RTVSPost2010Prop50
 90
       50
102
RTVSPost2010PropOp50
 70
     0
102
RTVSPost2010Prop51ColorIndex
 90
      256
102
RTVSPost2010Prop51ColorRGB
 90
-16777216
102
RTVSPost2010PropOp51
 70
     0
102
RTVSPost2010Prop52
140
1.0
102
RTVSPost2010PropOp52
 70
     0
102
RTVSPost2010Prop53
 90
        2
102
RTVSPost2010PropOp53
 70
     0
102
RTVSPost2010Prop54
  1
strokes_ogs.tif
102
RTVSPost2010PropOp54
 70
     0
102
RTVSPost2010Prop55
280
     0
102
RTVSPost2010PropOp55
 70
     1
102
RTVSPost2010Prop56
140
1.0
102
RTVSPost2010PropOp56
 70
     0
102
RTVSPost2010Prop57
140
1.0
102
RTVSPost2010PropOp57
 70
     0
102
RTVSPropertyOp0
 70
     0
102
RTVSPropertyOp1
 70
     0
102
RTVSPropertyOp2
 70
     0
102
RTVSPropertyOp3
 70
     0
102
RTVSPropertyOp4
 70
     0
102
RTVSPropertyOp5
 70
     0
102
RTVSPropertyOp6
 70
     0
102
RTVSPropertyOp7
 70
     0
102
RTVSPropertyOp8
 70
     0
102
RTVSPropertyOp9
 70
     0
102
RTVSPropertyOp10
 70
     0
102
RTVSPropertyOp11
 70
     0
102
RTVSPropertyOp12
 70
     0
102
RTVSPropertyOp13
 70
     0
102
RTVSPropertyOp14
 70
     2
102
RTVSPropertyOp15
 70
     0
102
RTVSPropertyOp16
 70
     0
102
RTVSPropertyOp17
 70
     0
102
RTVSPropertyOp18
 70
     0
102
RTVSPropertyOp19
 70
     0
102
RTVSPropertyOp20
 70
     0
102
RTVSPropertyOp21
 70
     0
102
RTVSPropertyOp22
 70
     0
102
RTVSPropertyOp23
 70
     0
102
RTVSPropertyOp24
 70
     0
102
RTVSPropertyOp25
 70
     0
102
RTVSPropertyOp26
 70
     0
102
RTVSPropertyOp27
 70
     0
102
RTVSPropertyOp28
 70
     1
102
RTVSPropertyOp29
 70
     1
102
RTVSPropertyOp30
 70
     1
102
RTVSPropertyOp31
 70
     1
102
RTVSPropertyOp32
 70
     1
102
RTVSPropertyOp33
 70
     1
102
RTVSPropertyOp34
 70
     1
102
RTVSPropertyOp35
 70
     1
102
RTVSPropertyOp36
 70
     1
102
RTVSPropertyOp37
 70
     0
102
RTVSPropertyOp38
 70
     0
102
RTVSPropertyOp39
 70
     0
102
RTVSPropertyOp40
 70
     0
102
RTVSPropertyOp41
 70
     0
102
RTVSPropertyOp42
 70
     0
102
RTVSPropertyOp43
 70
     0
102
RTVSPropertyOp44
 70
     0
102
RTVSPropertyOp45
 70
     1
102
RTVSPropertyOp46
 70
     0
102
RTVSPropertyOp47
 70
     0
102
RTVSPropertyOp48
 70
     0
102
RTVSPropertyOp49
 70
     1
102
RTVSPropertyOp50
 70
     0
102
RTVSPropertyOp51
 70
     0
102
RTVSPropertyOp52
 70
     0
102
RTVSPropertyOp53
 70
     0
102
RTVSPropertyOp54
 70
     0
102
RTVSPropertyOp55
 70
     1
102
RTVSPropertyOp56
 70
     0
102
RTVSPropertyOp57
 70
     0
102
RTVSPropertyOp58
 70
     0
102
RTVSPropertyOp59
 70
     0
102
RTVSPropertyOp60
 70
     0
102
RTVSPropertyOp61
 70
     0
102
RTVSPropertyOp62
 70
     0
  0
XRECORD
  5
8535
102
{ACAD_REACTORS
330
8534
102
}
330
8534
100
AcDbXrecord
280
     1
102
RTVSPost2010Prop28
280
     0
102
RTVSPost2010PropOp28
 70
     1
102
RTVSPost2010Prop29
280
     1
102
RTVSPost2010PropOp29
 70
     1
102
RTVSPost2010Prop30
280
     1
102
RTVSPost2010PropOp30
 70
     1
102
RTVSPost2010Prop31
280
     0
102
RTVSPost2010PropOp31
 70
     1
102
RTVSPost2010Prop32
280
     0
102
RTVSPost2010PropOp32
 70
     1
102
RTVSPost2010Prop33
280
     0
102
RTVSPost2010PropOp33
 70
     1
102
RTVSPost2010Prop34
280
     0
102
RTVSPost2010PropOp34
 70
     1
102
RTVSPost2010Prop35
280
     0
102
RTVSPost2010PropOp35
 70
     1
102
RTVSPost2010Prop36
280
     0
102
RTVSPost2010PropOp36
 70
     1
102
RTVSPost2010Prop37
 90
       50
102
RTVSPost2010PropOp37
 70
     1
102
RTVSPost2010Prop38
140
0.0
102
RTVSPost2010PropOp38
 70
     1
102
RTVSPost2010Prop39
140
1.0
102
RTVSPost2010PropOp39
 70
     1
102
RTVSPost2010Prop40
 90
        0
102
RTVSPost2010PropOp40
 70
     1
102
RTVSPost2010Prop41ColorIndex
 90
       18
102
RTVSPost2010Prop41ColorRGB
 90
        0
102
RTVSPost2010PropOp41
 70
     1
102
RTVSPost2010Prop42
 90
       50
102
RTVSPost2010PropOp42
 70
     1
102
RTVSPost2010Prop43
 90
        3
102
RTVSPost2010PropOp43
 70
     1
102
RTVSPost2010Prop44ColorIndex
 90
        5
102
RTVSPost2010Prop44ColorRGB
 90
      255
102
RTVSPost2010PropOp44
 70
     1
102
RTVSPost2010Prop45
280
     0
102
RTVSPost2010PropOp45
 70
     1
102
RTVSPost2010Prop46
 90
       50
102
RTVSPost2010PropOp46
 70
     1
102
RTVSPost2010Prop47
 90
       50
102
RTVSPost2010PropOp47
 70
     1
102
RTVSPost2010Prop48
 90
       50
102
RTVSPost2010PropOp48
 70
     1
102
RTVSPost2010Prop49
280
     0
102
RTVSPost2010PropOp49
 70
     1
102
RTVSPost2010Prop50
 90
       50
102
RTVSPost2010PropOp50
 70
     1
102
RTVSPost2010Prop51ColorIndex
 90
      256
102
RTVSPost2010Prop51ColorRGB
 90
-16777216
102
RTVSPost2010PropOp51
 70
     0
102
RTVSPost2010Prop52
140
1.0
102
RTVSPost2010PropOp52
 70
     0
102
RTVSPost2010Prop53
 90
        2
102
RTVSPost2010PropOp53
 70
     1
102
RTVSPost2010Prop54
  1
strokes_ogs.tif
102
RTVSPost2010PropOp54
 70
     1
102
RTVSPost2010Prop55
280
     0
102
RTVSPost2010PropOp55
 70
     1
102
RTVSPost2010Prop56
140
1.0
102
RTVSPost2010PropOp56
 70
     1
102
RTVSPost2010Prop57
140
1.0
102
RTVSPost2010PropOp57
 70
     1
102
RTVSPropertyOp0
 70
     1
102
RTVSPropertyOp1
 70
     1
102
RTVSPropertyOp2
 70
     1
102
RTVSPropertyOp3
 70
     1
102
RTVSPropertyOp4
 70
     1
102
RTVSPropertyOp5
 70
     1
102
RTVSPropertyOp6
 70
     1
102
RTVSPropertyOp7
 70
     1
102
RTVSPropertyOp8
 70
     1
102
RTVSPropertyOp9
 70
     1
102
RTVSPropertyOp10
 70
     1
102
RTVSPropertyOp11
 70
     1
102
RTVSPropertyOp12
 70
     1
102
RTVSPropertyOp13
 70
     1
102
RTVSPropertyOp14
 70
     1
102
RTVSPropertyOp15
 70
     1
102
RTVSPropertyOp16
 70
     1
102
RTVSPropertyOp17
 70
     1
102
RTVSPropertyOp18
 70
     1
102
RTVSPropertyOp19
 70
     1
102
RTVSPropertyOp20
 70
     1
102
RTVSPropertyOp21
 70
     1
102
RTVSPropertyOp22
 70
     1
102
RTVSPropertyOp23
 70
     1
102
RTVSPropertyOp24
 70
     1
102
RTVSPropertyOp25
 70
     1
102
RTVSPropertyOp26
 70
     1
102
RTVSPropertyOp27
 70
     1
102
RTVSPropertyOp28
 70
     1
102
RTVSPropertyOp29
 70
     1
102
RTVSPropertyOp30
 70
     1
102
RTVSPropertyOp31
 70
     1
102
RTVSPropertyOp32
 70
     1
102
RTVSPropertyOp33
 70
     1
102
RTVSPropertyOp34
 70
     1
102
RTVSPropertyOp35
 70
     1
102
RTVSPropertyOp36
 70
     1
102
RTVSPropertyOp37
 70
     1
102
RTVSPropertyOp38
 70
     1
102
RTVSPropertyOp39
 70
     1
102
RTVSPropertyOp40
 70
     1
102
RTVSPropertyOp41
 70
     1
102
RTVSPropertyOp42
 70
     1
102
RTVSPropertyOp43
 70
     1
102
RTVSPropertyOp44
 70
     1
102
RTVSPropertyOp45
 70
     1
102
RTVSPropertyOp46
 70
     1
102
RTVSPropertyOp47
 70
     1
102
RTVSPropertyOp48
 70
     1
102
RTVSPropertyOp49
 70
     1
102
RTVSPropertyOp50
 70
     1
102
RTVSPropertyOp51
 70
     0
102
RTVSPropertyOp52
 70
     0
102
RTVSPropertyOp53
 70
     1
102
RTVSPropertyOp54
 70
     1
102
RTVSPropertyOp55
 70
     1
102
RTVSPropertyOp56
 70
     1
102
RTVSPropertyOp57
 70
     1
102
RTVSPropertyOp58
 70
     1
102
RTVSPropertyOp59
 70
     1
102
RTVSPropertyOp60
 70
     1
102
RTVSPropertyOp61
 70
     1
102
RTVSPropertyOp62
 70
     1
  0
XRECORD
  5
854B
102
{ACAD_REACTORS
330
854A
102
}
330
854A
100
AcDbXrecord
280
     1
102
RTVSPost2010Prop28
280
     0
102
RTVSPost2010PropOp28
 70
     1
102
RTVSPost2010Prop29
280
     1
102
RTVSPost2010PropOp29
 70
     1
102
RTVSPost2010Prop30
280
     1
102
RTVSPost2010PropOp30
 70
     1
102
RTVSPost2010Prop31
280
     0
102
RTVSPost2010PropOp31
 70
     1
102
RTVSPost2010Prop32
280
     0
102
RTVSPost2010PropOp32
 70
     1
102
RTVSPost2010Prop33
280
     0
102
RTVSPost2010PropOp33
 70
     1
102
RTVSPost2010Prop34
280
     0
102
RTVSPost2010PropOp34
 70
     1
102
RTVSPost2010Prop35
280
     0
102
RTVSPost2010PropOp35
 70
     1
102
RTVSPost2010Prop36
280
     0
102
RTVSPost2010PropOp36
 70
     1
102
RTVSPost2010Prop37
 90
       50
102
RTVSPost2010PropOp37
 70
     1
102
RTVSPost2010Prop38
140
0.0
102
RTVSPost2010PropOp38
 70
     1
102
RTVSPost2010Prop39
140
1.0
102
RTVSPost2010PropOp39
 70
     1
102
RTVSPost2010Prop40
 90
        0
102
RTVSPost2010PropOp40
 70
     1
102
RTVSPost2010Prop41ColorIndex
 90
       18
102
RTVSPost2010Prop41ColorRGB
 90
        0
102
RTVSPost2010PropOp41
 70
     1
102
RTVSPost2010Prop42
 90
       50
102
RTVSPost2010PropOp42
 70
     1
102
RTVSPost2010Prop43
 90
        3
102
RTVSPost2010PropOp43
 70
     1
102
RTVSPost2010Prop44ColorIndex
 90
        5
102
RTVSPost2010Prop44ColorRGB
 90
      255
102
RTVSPost2010PropOp44
 70
     1
102
RTVSPost2010Prop45
280
     0
102
RTVSPost2010PropOp45
 70
     1
102
RTVSPost2010Prop46
 90
       50
102
RTVSPost2010PropOp46
 70
     1
102
RTVSPost2010Prop47
 90
       50
102
RTVSPost2010PropOp47
 70
     1
102
RTVSPost2010Prop48
 90
       50
102
RTVSPost2010PropOp48
 70
     1
102
RTVSPost2010Prop49
280
     0
102
RTVSPost2010PropOp49
 70
     1
102
RTVSPost2010Prop50
 90
       50
102
RTVSPost2010PropOp50
 70
     1
102
RTVSPost2010Prop51ColorIndex
 90
      256
102
RTVSPost2010Prop51ColorRGB
 90
-16777216
102
RTVSPost2010PropOp51
 70
     0
102
RTVSPost2010Prop52
140
1.0
102
RTVSPost2010PropOp52
 70
     0
102
RTVSPost2010Prop53
 90
        2
102
RTVSPost2010PropOp53
 70
     1
102
RTVSPost2010Prop54
  1
strokes_ogs.tif
102
RTVSPost2010PropOp54
 70
     1
102
RTVSPost2010Prop55
280
     0
102
RTVSPost2010PropOp55
 70
     1
102
RTVSPost2010Prop56
140
1.0
102
RTVSPost2010PropOp56
 70
     1
102
RTVSPost2010Prop57
140
1.0
102
RTVSPost2010PropOp57
 70
     1
102
RTVSPropertyOp0
 70
     1
102
RTVSPropertyOp1
 70
     1
102
RTVSPropertyOp2
 70
     1
102
RTVSPropertyOp3
 70
     1
102
RTVSPropertyOp4
 70
     1
102
RTVSPropertyOp5
 70
     1
102
RTVSPropertyOp6
 70
     1
102
RTVSPropertyOp7
 70
     1
102
RTVSPropertyOp8
 70
     1
102
RTVSPropertyOp9
 70
     1
102
RTVSPropertyOp10
 70
     1
102
RTVSPropertyOp11
 70
     1
102
RTVSPropertyOp12
 70
     1
102
RTVSPropertyOp13
 70
     1
102
RTVSPropertyOp14
 70
     1
102
RTVSPropertyOp15
 70
     1
102
RTVSPropertyOp16
 70
     1
102
RTVSPropertyOp17
 70
     1
102
RTVSPropertyOp18
 70
     1
102
RTVSPropertyOp19
 70
     1
102
RTVSPropertyOp20
 70
     1
102
RTVSPropertyOp21
 70
     1
102
RTVSPropertyOp22
 70
     1
102
RTVSPropertyOp23
 70
     1
102
RTVSPropertyOp24
 70
     1
102
RTVSPropertyOp25
 70
     1
102
RTVSPropertyOp26
 70
     1
102
RTVSPropertyOp27
 70
     1
102
RTVSPropertyOp28
 70
     1
102
RTVSPropertyOp29
 70
     1
102
RTVSPropertyOp30
 70
     1
102
RTVSPropertyOp31
 70
     1
102
RTVSPropertyOp32
 70
     1
102
RTVSPropertyOp33
 70
     1
102
RTVSPropertyOp34
 70
     1
102
RTVSPropertyOp35
 70
     1
102
RTVSPropertyOp36
 70
     1
102
RTVSPropertyOp37
 70
     1
102
RTVSPropertyOp38
 70
     1
102
RTVSPropertyOp39
 70
     1
102
RTVSPropertyOp40
 70
     1
102
RTVSPropertyOp41
 70
     1
102
RTVSPropertyOp42
 70
     1
102
RTVSPropertyOp43
 70
     1
102
RTVSPropertyOp44
 70
     1
102
RTVSPropertyOp45
 70
     1
102
RTVSPropertyOp46
 70
     1
102
RTVSPropertyOp47
 70
     1
102
RTVSPropertyOp48
 70
     1
102
RTVSPropertyOp49
 70
     1
102
RTVSPropertyOp50
 70
     1
102
RTVSPropertyOp51
 70
     0
102
RTVSPropertyOp52
 70
     0
102
RTVSPropertyOp53
 70
     1
102
RTVSPropertyOp54
 70
     1
102
RTVSPropertyOp55
 70
     1
102
RTVSPropertyOp56
 70
     1
102
RTVSPropertyOp57
 70
     1
102
RTVSPropertyOp58
 70
     1
102
RTVSPropertyOp59
 70
     1
102
RTVSPropertyOp60
 70
     1
102
RTVSPropertyOp61
 70
     1
102
RTVSPropertyOp62
 70
     1
  0
XRECORD
  5
8549
102
{ACAD_REACTORS
330
8548
102
}
330
8548
100
AcDbXrecord
280
     1
102
RTVSPost2010Prop28
280
     0
102
RTVSPost2010PropOp28
 70
     1
102
RTVSPost2010Prop29
280
     1
102
RTVSPost2010PropOp29
 70
     1
102
RTVSPost2010Prop30
280
     1
102
RTVSPost2010PropOp30
 70
     1
102
RTVSPost2010Prop31
280
     0
102
RTVSPost2010PropOp31
 70
     1
102
RTVSPost2010Prop32
280
     0
102
RTVSPost2010PropOp32
 70
     1
102
RTVSPost2010Prop33
280
     0
102
RTVSPost2010PropOp33
 70
     1
102
RTVSPost2010Prop34
280
     0
102
RTVSPost2010PropOp34
 70
     1
102
RTVSPost2010Prop35
280
     0
102
RTVSPost2010PropOp35
 70
     1
102
RTVSPost2010Prop36
280
     0
102
RTVSPost2010PropOp36
 70
     1
102
RTVSPost2010Prop37
 90
       50
102
RTVSPost2010PropOp37
 70
     1
102
RTVSPost2010Prop38
140
0.0
102
RTVSPost2010PropOp38
 70
     1
102
RTVSPost2010Prop39
140
1.0
102
RTVSPost2010PropOp39
 70
     1
102
RTVSPost2010Prop40
 90
        0
102
RTVSPost2010PropOp40
 70
     1
102
RTVSPost2010Prop41ColorIndex
 90
       18
102
RTVSPost2010Prop41ColorRGB
 90
        0
102
RTVSPost2010PropOp41
 70
     1
102
RTVSPost2010Prop42
 90
       50
102
RTVSPost2010PropOp42
 70
     1
102
RTVSPost2010Prop43
 90
        3
102
RTVSPost2010PropOp43
 70
     1
102
RTVSPost2010Prop44ColorIndex
 90
        5
102
RTVSPost2010Prop44ColorRGB
 90
      255
102
RTVSPost2010PropOp44
 70
     1
102
RTVSPost2010Prop45
280
     0
102
RTVSPost2010PropOp45
 70
     1
102
RTVSPost2010Prop46
 90
       50
102
RTVSPost2010PropOp46
 70
     1
102
RTVSPost2010Prop47
 90
       50
102
RTVSPost2010PropOp47
 70
     1
102
RTVSPost2010Prop48
 90
       50
102
RTVSPost2010PropOp48
 70
     1
102
RTVSPost2010Prop49
280
     0
102
RTVSPost2010PropOp49
 70
     1
102
RTVSPost2010Prop50
 90
       50
102
RTVSPost2010PropOp50
 70
     1
102
RTVSPost2010Prop51ColorIndex
 90
      256
102
RTVSPost2010Prop51ColorRGB
 90
-16777216
102
RTVSPost2010PropOp51
 70
     0
102
RTVSPost2010Prop52
140
1.0
102
RTVSPost2010PropOp52
 70
     0
102
RTVSPost2010Prop53
 90
        2
102
RTVSPost2010PropOp53
 70
     1
102
RTVSPost2010Prop54
  1
strokes_ogs.tif
102
RTVSPost2010PropOp54
 70
     1
102
RTVSPost2010Prop55
280
     0
102
RTVSPost2010PropOp55
 70
     1
102
RTVSPost2010Prop56
140
1.0
102
RTVSPost2010PropOp56
 70
     1
102
RTVSPost2010Prop57
140
1.0
102
RTVSPost2010PropOp57
 70
     1
102
RTVSPropertyOp0
 70
     1
102
RTVSPropertyOp1
 70
     1
102
RTVSPropertyOp2
 70
     1
102
RTVSPropertyOp3
 70
     1
102
RTVSPropertyOp4
 70
     1
102
RTVSPropertyOp5
 70
     1
102
RTVSPropertyOp6
 70
     1
102
RTVSPropertyOp7
 70
     1
102
RTVSPropertyOp8
 70
     1
102
RTVSPropertyOp9
 70
     1
102
RTVSPropertyOp10
 70
     1
102
RTVSPropertyOp11
 70
     1
102
RTVSPropertyOp12
 70
     1
102
RTVSPropertyOp13
 70
     1
102
RTVSPropertyOp14
 70
     1
102
RTVSPropertyOp15
 70
     1
102
RTVSPropertyOp16
 70
     1
102
RTVSPropertyOp17
 70
     1
102
RTVSPropertyOp18
 70
     1
102
RTVSPropertyOp19
 70
     1
102
RTVSPropertyOp20
 70
     1
102
RTVSPropertyOp21
 70
     1
102
RTVSPropertyOp22
 70
     1
102
RTVSPropertyOp23
 70
     1
102
RTVSPropertyOp24
 70
     1
102
RTVSPropertyOp25
 70
     1
102
RTVSPropertyOp26
 70
     1
102
RTVSPropertyOp27
 70
     1
102
RTVSPropertyOp28
 70
     1
102
RTVSPropertyOp29
 70
     1
102
RTVSPropertyOp30
 70
     1
102
RTVSPropertyOp31
 70
     1
102
RTVSPropertyOp32
 70
     1
102
RTVSPropertyOp33
 70
     1
102
RTVSPropertyOp34
 70
     1
102
RTVSPropertyOp35
 70
     1
102
RTVSPropertyOp36
 70
     1
102
RTVSPropertyOp37
 70
     1
102
RTVSPropertyOp38
 70
     1
102
RTVSPropertyOp39
 70
     1
102
RTVSPropertyOp40
 70
     1
102
RTVSPropertyOp41
 70
     1
102
RTVSPropertyOp42
 70
     1
102
RTVSPropertyOp43
 70
     1
102
RTVSPropertyOp44
 70
     1
102
RTVSPropertyOp45
 70
     1
102
RTVSPropertyOp46
 70
     1
102
RTVSPropertyOp47
 70
     1
102
RTVSPropertyOp48
 70
     1
102
RTVSPropertyOp49
 70
     1
102
RTVSPropertyOp50
 70
     1
102
RTVSPropertyOp51
 70
     0
102
RTVSPropertyOp52
 70
     0
102
RTVSPropertyOp53
 70
     1
102
RTVSPropertyOp54
 70
     1
102
RTVSPropertyOp55
 70
     1
102
RTVSPropertyOp56
 70
     1
102
RTVSPropertyOp57
 70
     1
102
RTVSPropertyOp58
 70
     1
102
RTVSPropertyOp59
 70
     1
102
RTVSPropertyOp60
 70
     1
102
RTVSPropertyOp61
 70
     1
102
RTVSPropertyOp62
 70
     1
  0
XRECORD
  5
8543
102
{ACAD_REACTORS
330
8542
102
}
330
8542
100
AcDbXrecord
280
     1
102
RTVSPost2010Prop28
280
     0
102
RTVSPost2010PropOp28
 70
     1
102
RTVSPost2010Prop29
280
     1
102
RTVSPost2010PropOp29
 70
     1
102
RTVSPost2010Prop30
280
     1
102
RTVSPost2010PropOp30
 70
     1
102
RTVSPost2010Prop31
280
     0
102
RTVSPost2010PropOp31
 70
     1
102
RTVSPost2010Prop32
280
     0
102
RTVSPost2010PropOp32
 70
     1
102
RTVSPost2010Prop33
280
     0
102
RTVSPost2010PropOp33
 70
     1
102
RTVSPost2010Prop34
280
     0
102
RTVSPost2010PropOp34
 70
     1
102
RTVSPost2010Prop35
280
     0
102
RTVSPost2010PropOp35
 70
     1
102
RTVSPost2010Prop36
280
     0
102
RTVSPost2010PropOp36
 70
     1
102
RTVSPost2010Prop37
 90
       50
102
RTVSPost2010PropOp37
 70
     1
102
RTVSPost2010Prop38
140
0.0
102
RTVSPost2010PropOp38
 70
     1
102
RTVSPost2010Prop39
140
1.0
102
RTVSPost2010PropOp39
 70
     1
102
RTVSPost2010Prop40
 90
        0
102
RTVSPost2010PropOp40
 70
     1
102
RTVSPost2010Prop41ColorIndex
 90
       18
102
RTVSPost2010Prop41ColorRGB
 90
        0
102
RTVSPost2010PropOp41
 70
     1
102
RTVSPost2010Prop42
 90
       50
102
RTVSPost2010PropOp42
 70
     1
102
RTVSPost2010Prop43
 90
        3
102
RTVSPost2010PropOp43
 70
     1
102
RTVSPost2010Prop44ColorIndex
 90
        5
102
RTVSPost2010Prop44ColorRGB
 90
      255
102
RTVSPost2010PropOp44
 70
     1
102
RTVSPost2010Prop45
280
     0
102
RTVSPost2010PropOp45
 70
     1
102
RTVSPost2010Prop46
 90
       50
102
RTVSPost2010PropOp46
 70
     1
102
RTVSPost2010Prop47
 90
       50
102
RTVSPost2010PropOp47
 70
     1
102
RTVSPost2010Prop48
 90
       50
102
RTVSPost2010PropOp48
 70
     1
102
RTVSPost2010Prop49
280
     0
102
RTVSPost2010PropOp49
 70
     1
102
RTVSPost2010Prop50
 90
       50
102
RTVSPost2010PropOp50
 70
     1
102
RTVSPost2010Prop51ColorIndex
 90
      256
102
RTVSPost2010Prop51ColorRGB
 90
-16777216
102
RTVSPost2010PropOp51
 70
     0
102
RTVSPost2010Prop52
140
1.0
102
RTVSPost2010PropOp52
 70
     0
102
RTVSPost2010Prop53
 90
        2
102
RTVSPost2010PropOp53
 70
     1
102
RTVSPost2010Prop54
  1
strokes_ogs.tif
102
RTVSPost2010PropOp54
 70
     1
102
RTVSPost2010Prop55
280
     0
102
RTVSPost2010PropOp55
 70
     1
102
RTVSPost2010Prop56
140
1.0
102
RTVSPost2010PropOp56
 70
     1
102
RTVSPost2010Prop57
140
1.0
102
RTVSPost2010PropOp57
 70
     1
102
RTVSPropertyOp0
 70
     1
102
RTVSPropertyOp1
 70
     1
102
RTVSPropertyOp2
 70
     1
102
RTVSPropertyOp3
 70
     1
102
RTVSPropertyOp4
 70
     1
102
RTVSPropertyOp5
 70
     1
102
RTVSPropertyOp6
 70
     1
102
RTVSPropertyOp7
 70
     1
102
RTVSPropertyOp8
 70
     1
102
RTVSPropertyOp9
 70
     1
102
RTVSPropertyOp10
 70
     1
102
RTVSPropertyOp11
 70
     1
102
RTVSPropertyOp12
 70
     1
102
RTVSPropertyOp13
 70
     1
102
RTVSPropertyOp14
 70
     1
102
RTVSPropertyOp15
 70
     1
102
RTVSPropertyOp16
 70
     1
102
RTVSPropertyOp17
 70
     1
102
RTVSPropertyOp18
 70
     1
102
RTVSPropertyOp19
 70
     1
102
RTVSPropertyOp20
 70
     1
102
RTVSPropertyOp21
 70
     1
102
RTVSPropertyOp22
 70
     1
102
RTVSPropertyOp23
 70
     1
102
RTVSPropertyOp24
 70
     1
102
RTVSPropertyOp25
 70
     1
102
RTVSPropertyOp26
 70
     1
102
RTVSPropertyOp27
 70
     1
102
RTVSPropertyOp28
 70
     1
102
RTVSPropertyOp29
 70
     1
102
RTVSPropertyOp30
 70
     1
102
RTVSPropertyOp31
 70
     1
102
RTVSPropertyOp32
 70
     1
102
RTVSPropertyOp33
 70
     1
102
RTVSPropertyOp34
 70
     1
102
RTVSPropertyOp35
 70
     1
102
RTVSPropertyOp36
 70
     1
102
RTVSPropertyOp37
 70
     1
102
RTVSPropertyOp38
 70
     1
102
RTVSPropertyOp39
 70
     1
102
RTVSPropertyOp40
 70
     1
102
RTVSPropertyOp41
 70
     1
102
RTVSPropertyOp42
 70
     1
102
RTVSPropertyOp43
 70
     1
102
RTVSPropertyOp44
 70
     1
102
RTVSPropertyOp45
 70
     1
102
RTVSPropertyOp46
 70
     1
102
RTVSPropertyOp47
 70
     1
102
RTVSPropertyOp48
 70
     1
102
RTVSPropertyOp49
 70
     1
102
RTVSPropertyOp50
 70
     1
102
RTVSPropertyOp51
 70
     0
102
RTVSPropertyOp52
 70
     0
102
RTVSPropertyOp53
 70
     1
102
RTVSPropertyOp54
 70
     1
102
RTVSPropertyOp55
 70
     1
102
RTVSPropertyOp56
 70
     1
102
RTVSPropertyOp57
 70
     1
102
RTVSPropertyOp58
 70
     1
102
RTVSPropertyOp59
 70
     1
102
RTVSPropertyOp60
 70
     1
102
RTVSPropertyOp61
 70
     1
102
RTVSPropertyOp62
 70
     1
  0
XRECORD
  5
8545
102
{ACAD_REACTORS
330
8544
102
}
330
8544
100
AcDbXrecord
280
     1
102
RTVSPost2010Prop28
280
     0
102
RTVSPost2010PropOp28
 70
     1
102
RTVSPost2010Prop29
280
     1
102
RTVSPost2010PropOp29
 70
     1
102
RTVSPost2010Prop30
280
     1
102
RTVSPost2010PropOp30
 70
     1
102
RTVSPost2010Prop31
280
     0
102
RTVSPost2010PropOp31
 70
     1
102
RTVSPost2010Prop32
280
     0
102
RTVSPost2010PropOp32
 70
     1
102
RTVSPost2010Prop33
280
     0
102
RTVSPost2010PropOp33
 70
     1
102
RTVSPost2010Prop34
280
     0
102
RTVSPost2010PropOp34
 70
     1
102
RTVSPost2010Prop35
280
     0
102
RTVSPost2010PropOp35
 70
     1
102
RTVSPost2010Prop36
280
     0
102
RTVSPost2010PropOp36
 70
     1
102
RTVSPost2010Prop37
 90
       50
102
RTVSPost2010PropOp37
 70
     1
102
RTVSPost2010Prop38
140
0.0
102
RTVSPost2010PropOp38
 70
     1
102
RTVSPost2010Prop39
140
1.0
102
RTVSPost2010PropOp39
 70
     1
102
RTVSPost2010Prop40
 90
        0
102
RTVSPost2010PropOp40
 70
     1
102
RTVSPost2010Prop41ColorIndex
 90
       18
102
RTVSPost2010Prop41ColorRGB
 90
        0
102
RTVSPost2010PropOp41
 70
     1
102
RTVSPost2010Prop42
 90
       50
102
RTVSPost2010PropOp42
 70
     1
102
RTVSPost2010Prop43
 90
        3
102
RTVSPost2010PropOp43
 70
     1
102
RTVSPost2010Prop44ColorIndex
 90
        5
102
RTVSPost2010Prop44ColorRGB
 90
      255
102
RTVSPost2010PropOp44
 70
     1
102
RTVSPost2010Prop45
280
     0
102
RTVSPost2010PropOp45
 70
     1
102
RTVSPost2010Prop46
 90
       50
102
RTVSPost2010PropOp46
 70
     1
102
RTVSPost2010Prop47
 90
       50
102
RTVSPost2010PropOp47
 70
     1
102
RTVSPost2010Prop48
 90
       50
102
RTVSPost2010PropOp48
 70
     1
102
RTVSPost2010Prop49
280
     0
102
RTVSPost2010PropOp49
 70
     1
102
RTVSPost2010Prop50
 90
       50
102
RTVSPost2010PropOp50
 70
     1
102
RTVSPost2010Prop51ColorIndex
 90
      256
102
RTVSPost2010Prop51ColorRGB
 90
-16777216
102
RTVSPost2010PropOp51
 70
     0
102
RTVSPost2010Prop52
140
1.0
102
RTVSPost2010PropOp52
 70
     0
102
RTVSPost2010Prop53
 90
        2
102
RTVSPost2010PropOp53
 70
     1
102
RTVSPost2010Prop54
  1
strokes_ogs.tif
102
RTVSPost2010PropOp54
 70
     1
102
RTVSPost2010Prop55
280
     0
102
RTVSPost2010PropOp55
 70
     1
102
RTVSPost2010Prop56
140
1.0
102
RTVSPost2010PropOp56
 70
     1
102
RTVSPost2010Prop57
140
1.0
102
RTVSPost2010PropOp57
 70
     1
102
RTVSPropertyOp0
 70
     1
102
RTVSPropertyOp1
 70
     1
102
RTVSPropertyOp2
 70
     1
102
RTVSPropertyOp3
 70
     1
102
RTVSPropertyOp4
 70
     1
102
RTVSPropertyOp5
 70
     1
102
RTVSPropertyOp6
 70
     1
102
RTVSPropertyOp7
 70
     1
102
RTVSPropertyOp8
 70
     1
102
RTVSPropertyOp9
 70
     1
102
RTVSPropertyOp10
 70
     1
102
RTVSPropertyOp11
 70
     1
102
RTVSPropertyOp12
 70
     1
102
RTVSPropertyOp13
 70
     1
102
RTVSPropertyOp14
 70
     1
102
RTVSPropertyOp15
 70
     1
102
RTVSPropertyOp16
 70
     1
102
RTVSPropertyOp17
 70
     1
102
RTVSPropertyOp18
 70
     1
102
RTVSPropertyOp19
 70
     1
102
RTVSPropertyOp20
 70
     1
102
RTVSPropertyOp21
 70
     1
102
RTVSPropertyOp22
 70
     1
102
RTVSPropertyOp23
 70
     1
102
RTVSPropertyOp24
 70
     1
102
RTVSPropertyOp25
 70
     1
102
RTVSPropertyOp26
 70
     1
102
RTVSPropertyOp27
 70
     1
102
RTVSPropertyOp28
 70
     1
102
RTVSPropertyOp29
 70
     1
102
RTVSPropertyOp30
 70
     1
102
RTVSPropertyOp31
 70
     1
102
RTVSPropertyOp32
 70
     1
102
RTVSPropertyOp33
 70
     1
102
RTVSPropertyOp34
 70
     1
102
RTVSPropertyOp35
 70
     1
102
RTVSPropertyOp36
 70
     1
102
RTVSPropertyOp37
 70
     1
102
RTVSPropertyOp38
 70
     1
102
RTVSPropertyOp39
 70
     1
102
RTVSPropertyOp40
 70
     1
102
RTVSPropertyOp41
 70
     1
102
RTVSPropertyOp42
 70
     1
102
RTVSPropertyOp43
 70
     1
102
RTVSPropertyOp44
 70
     1
102
RTVSPropertyOp45
 70
     1
102
RTVSPropertyOp46
 70
     1
102
RTVSPropertyOp47
 70
     1
102
RTVSPropertyOp48
 70
     1
102
RTVSPropertyOp49
 70
     1
102
RTVSPropertyOp50
 70
     1
102
RTVSPropertyOp51
 70
     0
102
RTVSPropertyOp52
 70
     0
102
RTVSPropertyOp53
 70
     1
102
RTVSPropertyOp54
 70
     1
102
RTVSPropertyOp55
 70
     1
102
RTVSPropertyOp56
 70
     1
102
RTVSPropertyOp57
 70
     1
102
RTVSPropertyOp58
 70
     1
102
RTVSPropertyOp59
 70
     1
102
RTVSPropertyOp60
 70
     1
102
RTVSPropertyOp61
 70
     1
102
RTVSPropertyOp62
 70
     1
  0
XRECORD
  5
853B
102
{ACAD_REACTORS
330
853A
102
}
330
853A
100
AcDbXrecord
280
     1
102
RTVSPost2010Prop28
280
     0
102
RTVSPost2010PropOp28
 70
     1
102
RTVSPost2010Prop29
280
     1
102
RTVSPost2010PropOp29
 70
     1
102
RTVSPost2010Prop30
280
     1
102
RTVSPost2010PropOp30
 70
     1
102
RTVSPost2010Prop31
280
     0
102
RTVSPost2010PropOp31
 70
     1
102
RTVSPost2010Prop32
280
     0
102
RTVSPost2010PropOp32
 70
     1
102
RTVSPost2010Prop33
280
     0
102
RTVSPost2010PropOp33
 70
     1
102
RTVSPost2010Prop34
280
     0
102
RTVSPost2010PropOp34
 70
     1
102
RTVSPost2010Prop35
280
     0
102
RTVSPost2010PropOp35
 70
     1
102
RTVSPost2010Prop36
280
     0
102
RTVSPost2010PropOp36
 70
     1
102
RTVSPost2010Prop37
 90
       50
102
RTVSPost2010PropOp37
 70
     1
102
RTVSPost2010Prop38
140
0.0
102
RTVSPost2010PropOp38
 70
     1
102
RTVSPost2010Prop39
140
1.0
102
RTVSPost2010PropOp39
 70
     1
102
RTVSPost2010Prop40
 90
        0
102
RTVSPost2010PropOp40
 70
     1
102
RTVSPost2010Prop41ColorIndex
 90
       18
102
RTVSPost2010Prop41ColorRGB
 90
        0
102
RTVSPost2010PropOp41
 70
     1
102
RTVSPost2010Prop42
 90
       50
102
RTVSPost2010PropOp42
 70
     1
102
RTVSPost2010Prop43
 90
        3
102
RTVSPost2010PropOp43
 70
     1
102
RTVSPost2010Prop44ColorIndex
 90
        5
102
RTVSPost2010Prop44ColorRGB
 90
      255
102
RTVSPost2010PropOp44
 70
     1
102
RTVSPost2010Prop45
280
     0
102
RTVSPost2010PropOp45
 70
     1
102
RTVSPost2010Prop46
 90
       50
102
RTVSPost2010PropOp46
 70
     1
102
RTVSPost2010Prop47
 90
       50
102
RTVSPost2010PropOp47
 70
     1
102
RTVSPost2010Prop48
 90
       50
102
RTVSPost2010PropOp48
 70
     1
102
RTVSPost2010Prop49
280
     0
102
RTVSPost2010PropOp49
 70
     1
102
RTVSPost2010Prop50
 90
       50
102
RTVSPost2010PropOp50
 70
     1
102
RTVSPost2010Prop51ColorIndex
 90
      256
102
RTVSPost2010Prop51ColorRGB
 90
-16777216
102
RTVSPost2010PropOp51
 70
     0
102
RTVSPost2010Prop52
140
1.0
102
RTVSPost2010PropOp52
 70
     0
102
RTVSPost2010Prop53
 90
        2
102
RTVSPost2010PropOp53
 70
     1
102
RTVSPost2010Prop54
  1
strokes_ogs.tif
102
RTVSPost2010PropOp54
 70
     1
102
RTVSPost2010Prop55
280
     0
102
RTVSPost2010PropOp55
 70
     1
102
RTVSPost2010Prop56
140
1.0
102
RTVSPost2010PropOp56
 70
     1
102
RTVSPost2010Prop57
140
1.0
102
RTVSPost2010PropOp57
 70
     1
102
RTVSPropertyOp0
 70
     1
102
RTVSPropertyOp1
 70
     1
102
RTVSPropertyOp2
 70
     1
102
RTVSPropertyOp3
 70
     1
102
RTVSPropertyOp4
 70
     1
102
RTVSPropertyOp5
 70
     1
102
RTVSPropertyOp6
 70
     1
102
RTVSPropertyOp7
 70
     1
102
RTVSPropertyOp8
 70
     1
102
RTVSPropertyOp9
 70
     1
102
RTVSPropertyOp10
 70
     1
102
RTVSPropertyOp11
 70
     1
102
RTVSPropertyOp12
 70
     1
102
RTVSPropertyOp13
 70
     1
102
RTVSPropertyOp14
 70
     1
102
RTVSPropertyOp15
 70
     1
102
RTVSPropertyOp16
 70
     1
102
RTVSPropertyOp17
 70
     1
102
RTVSPropertyOp18
 70
     1
102
RTVSPropertyOp19
 70
     1
102
RTVSPropertyOp20
 70
     1
102
RTVSPropertyOp21
 70
     1
102
RTVSPropertyOp22
 70
     1
102
RTVSPropertyOp23
 70
     1
102
RTVSPropertyOp24
 70
     1
102
RTVSPropertyOp25
 70
     1
102
RTVSPropertyOp26
 70
     1
102
RTVSPropertyOp27
 70
     1
102
RTVSPropertyOp28
 70
     1
102
RTVSPropertyOp29
 70
     1
102
RTVSPropertyOp30
 70
     1
102
RTVSPropertyOp31
 70
     1
102
RTVSPropertyOp32
 70
     1
102
RTVSPropertyOp33
 70
     1
102
RTVSPropertyOp34
 70
     1
102
RTVSPropertyOp35
 70
     1
102
RTVSPropertyOp36
 70
     1
102
RTVSPropertyOp37
 70
     1
102
RTVSPropertyOp38
 70
     1
102
RTVSPropertyOp39
 70
     1
102
RTVSPropertyOp40
 70
     1
102
RTVSPropertyOp41
 70
     1
102
RTVSPropertyOp42
 70
     1
102
RTVSPropertyOp43
 70
     1
102
RTVSPropertyOp44
 70
     1
102
RTVSPropertyOp45
 70
     1
102
RTVSPropertyOp46
 70
     1
102
RTVSPropertyOp47
 70
     1
102
RTVSPropertyOp48
 70
     1
102
RTVSPropertyOp49
 70
     1
102
RTVSPropertyOp50
 70
     1
102
RTVSPropertyOp51
 70
     0
102
RTVSPropertyOp52
 70
     0
102
RTVSPropertyOp53
 70
     1
102
RTVSPropertyOp54
 70
     1
102
RTVSPropertyOp55
 70
     1
102
RTVSPropertyOp56
 70
     1
102
RTVSPropertyOp57
 70
     1
102
RTVSPropertyOp58
 70
     1
102
RTVSPropertyOp59
 70
     1
102
RTVSPropertyOp60
 70
     1
102
RTVSPropertyOp61
 70
     1
102
RTVSPropertyOp62
 70
     1
  0
XRECORD
  5
852F
102
{ACAD_REACTORS
330
852E
102
}
330
852E
100
AcDbXrecord
280
     1
102
RTVSPost2010Prop28
280
     0
102
RTVSPost2010PropOp28
 70
     1
102
RTVSPost2010Prop29
280
     1
102
RTVSPost2010PropOp29
 70
     1
102
RTVSPost2010Prop30
280
     1
102
RTVSPost2010PropOp30
 70
     1
102
RTVSPost2010Prop31
280
     0
102
RTVSPost2010PropOp31
 70
     1
102
RTVSPost2010Prop32
280
     0
102
RTVSPost2010PropOp32
 70
     1
102
RTVSPost2010Prop33
280
     0
102
RTVSPost2010PropOp33
 70
     1
102
RTVSPost2010Prop34
280
     0
102
RTVSPost2010PropOp34
 70
     1
102
RTVSPost2010Prop35
280
     0
102
RTVSPost2010PropOp35
 70
     1
102
RTVSPost2010Prop36
280
     0
102
RTVSPost2010PropOp36
 70
     1
102
RTVSPost2010Prop37
 90
       50
102
RTVSPost2010PropOp37
 70
     1
102
RTVSPost2010Prop38
140
0.0
102
RTVSPost2010PropOp38
 70
     1
102
RTVSPost2010Prop39
140
1.0
102
RTVSPost2010PropOp39
 70
     1
102
RTVSPost2010Prop40
 90
        0
102
RTVSPost2010PropOp40
 70
     1
102
RTVSPost2010Prop41ColorIndex
 90
       18
102
RTVSPost2010Prop41ColorRGB
 90
        0
102
RTVSPost2010PropOp41
 70
     1
102
RTVSPost2010Prop42
 90
       50
102
RTVSPost2010PropOp42
 70
     1
102
RTVSPost2010Prop43
 90
        3
102
RTVSPost2010PropOp43
 70
     1
102
RTVSPost2010Prop44ColorIndex
 90
        5
102
RTVSPost2010Prop44ColorRGB
 90
      255
102
RTVSPost2010PropOp44
 70
     1
102
RTVSPost2010Prop45
280
     0
102
RTVSPost2010PropOp45
 70
     1
102
RTVSPost2010Prop46
 90
       50
102
RTVSPost2010PropOp46
 70
     1
102
RTVSPost2010Prop47
 90
       50
102
RTVSPost2010PropOp47
 70
     1
102
RTVSPost2010Prop48
 90
       50
102
RTVSPost2010PropOp48
 70
     1
102
RTVSPost2010Prop49
280
     0
102
RTVSPost2010PropOp49
 70
     1
102
RTVSPost2010Prop50
 90
       50
102
RTVSPost2010PropOp50
 70
     1
102
RTVSPost2010Prop51ColorIndex
 90
      256
102
RTVSPost2010Prop51ColorRGB
 90
-16777216
102
RTVSPost2010PropOp51
 70
     0
102
RTVSPost2010Prop52
140
1.0
102
RTVSPost2010PropOp52
 70
     0
102
RTVSPost2010Prop53
 90
        2
102
RTVSPost2010PropOp53
 70
     1
102
RTVSPost2010Prop54
  1
strokes_ogs.tif
102
RTVSPost2010PropOp54
 70
     1
102
RTVSPost2010Prop55
280
     0
102
RTVSPost2010PropOp55
 70
     1
102
RTVSPost2010Prop56
140
1.0
102
RTVSPost2010PropOp56
 70
     1
102
RTVSPost2010Prop57
140
1.0
102
RTVSPost2010PropOp57
 70
     1
102
RTVSPropertyOp0
 70
     1
102
RTVSPropertyOp1
 70
     1
102
RTVSPropertyOp2
 70
     1
102
RTVSPropertyOp3
 70
     1
102
RTVSPropertyOp4
 70
     1
102
RTVSPropertyOp5
 70
     1
102
RTVSPropertyOp6
 70
     1
102
RTVSPropertyOp7
 70
     1
102
RTVSPropertyOp8
 70
     1
102
RTVSPropertyOp9
 70
     1
102
RTVSPropertyOp10
 70
     1
102
RTVSPropertyOp11
 70
     1
102
RTVSPropertyOp12
 70
     1
102
RTVSPropertyOp13
 70
     1
102
RTVSPropertyOp14
 70
     1
102
RTVSPropertyOp15
 70
     1
102
RTVSPropertyOp16
 70
     1
102
RTVSPropertyOp17
 70
     1
102
RTVSPropertyOp18
 70
     1
102
RTVSPropertyOp19
 70
     1
102
RTVSPropertyOp20
 70
     1
102
RTVSPropertyOp21
 70
     1
102
RTVSPropertyOp22
 70
     1
102
RTVSPropertyOp23
 70
     1
102
RTVSPropertyOp24
 70
     1
102
RTVSPropertyOp25
 70
     1
102
RTVSPropertyOp26
 70
     1
102
RTVSPropertyOp27
 70
     1
102
RTVSPropertyOp28
 70
     1
102
RTVSPropertyOp29
 70
     1
102
RTVSPropertyOp30
 70
     1
102
RTVSPropertyOp31
 70
     1
102
RTVSPropertyOp32
 70
     1
102
RTVSPropertyOp33
 70
     1
102
RTVSPropertyOp34
 70
     1
102
RTVSPropertyOp35
 70
     1
102
RTVSPropertyOp36
 70
     1
102
RTVSPropertyOp37
 70
     1
102
RTVSPropertyOp38
 70
     1
102
RTVSPropertyOp39
 70
     1
102
RTVSPropertyOp40
 70
     1
102
RTVSPropertyOp41
 70
     1
102
RTVSPropertyOp42
 70
     1
102
RTVSPropertyOp43
 70
     1
102
RTVSPropertyOp44
 70
     1
102
RTVSPropertyOp45
 70
     1
102
RTVSPropertyOp46
 70
     1
102
RTVSPropertyOp47
 70
     1
102
RTVSPropertyOp48
 70
     1
102
RTVSPropertyOp49
 70
     1
102
RTVSPropertyOp50
 70
     1
102
RTVSPropertyOp51
 70
     0
102
RTVSPropertyOp52
 70
     0
102
RTVSPropertyOp53
 70
     1
102
RTVSPropertyOp54
 70
     1
102
RTVSPropertyOp55
 70
     1
102
RTVSPropertyOp56
 70
     1
102
RTVSPropertyOp57
 70
     1
102
RTVSPropertyOp58
 70
     1
102
RTVSPropertyOp59
 70
     1
102
RTVSPropertyOp60
 70
     1
102
RTVSPropertyOp61
 70
     1
102
RTVSPropertyOp62
 70
     1
  0
XRECORD
  5
8547
102
{ACAD_REACTORS
330
8546
102
}
330
8546
100
AcDbXrecord
280
     1
102
RTVSPost2010Prop28
280
     0
102
RTVSPost2010PropOp28
 70
     1
102
RTVSPost2010Prop29
280
     1
102
RTVSPost2010PropOp29
 70
     1
102
RTVSPost2010Prop30
280
     1
102
RTVSPost2010PropOp30
 70
     1
102
RTVSPost2010Prop31
280
     0
102
RTVSPost2010PropOp31
 70
     1
102
RTVSPost2010Prop32
280
     0
102
RTVSPost2010PropOp32
 70
     1
102
RTVSPost2010Prop33
280
     0
102
RTVSPost2010PropOp33
 70
     1
102
RTVSPost2010Prop34
280
     0
102
RTVSPost2010PropOp34
 70
     1
102
RTVSPost2010Prop35
280
     0
102
RTVSPost2010PropOp35
 70
     1
102
RTVSPost2010Prop36
280
     0
102
RTVSPost2010PropOp36
 70
     1
102
RTVSPost2010Prop37
 90
       50
102
RTVSPost2010PropOp37
 70
     1
102
RTVSPost2010Prop38
140
0.0
102
RTVSPost2010PropOp38
 70
     1
102
RTVSPost2010Prop39
140
1.0
102
RTVSPost2010PropOp39
 70
     1
102
RTVSPost2010Prop40
 90
        0
102
RTVSPost2010PropOp40
 70
     1
102
RTVSPost2010Prop41ColorIndex
 90
       18
102
RTVSPost2010Prop41ColorRGB
 90
        0
102
RTVSPost2010PropOp41
 70
     1
102
RTVSPost2010Prop42
 90
       50
102
RTVSPost2010PropOp42
 70
     1
102
RTVSPost2010Prop43
 90
        3
102
RTVSPost2010PropOp43
 70
     1
102
RTVSPost2010Prop44ColorIndex
 90
        5
102
RTVSPost2010Prop44ColorRGB
 90
      255
102
RTVSPost2010PropOp44
 70
     1
102
RTVSPost2010Prop45
280
     0
102
RTVSPost2010PropOp45
 70
     1
102
RTVSPost2010Prop46
 90
       50
102
RTVSPost2010PropOp46
 70
     1
102
RTVSPost2010Prop47
 90
       50
102
RTVSPost2010PropOp47
 70
     1
102
RTVSPost2010Prop48
 90
       50
102
RTVSPost2010PropOp48
 70
     1
102
RTVSPost2010Prop49
280
     0
102
RTVSPost2010PropOp49
 70
     1
102
RTVSPost2010Prop50
 90
       50
102
RTVSPost2010PropOp50
 70
     1
102
RTVSPost2010Prop51ColorIndex
 90
      256
102
RTVSPost2010Prop51ColorRGB
 90
-16777216
102
RTVSPost2010PropOp51
 70
     0
102
RTVSPost2010Prop52
140
1.0
102
RTVSPost2010PropOp52
 70
     0
102
RTVSPost2010Prop53
 90
        2
102
RTVSPost2010PropOp53
 70
     1
102
RTVSPost2010Prop54
  1
strokes_ogs.tif
102
RTVSPost2010PropOp54
 70
     1
102
RTVSPost2010Prop55
280
     0
102
RTVSPost2010PropOp55
 70
     1
102
RTVSPost2010Prop56
140
1.0
102
RTVSPost2010PropOp56
 70
     1
102
RTVSPost2010Prop57
140
1.0
102
RTVSPost2010PropOp57
 70
     1
102
RTVSPropertyOp0
 70
     1
102
RTVSPropertyOp1
 70
     1
102
RTVSPropertyOp2
 70
     1
102
RTVSPropertyOp3
 70
     1
102
RTVSPropertyOp4
 70
     1
102
RTVSPropertyOp5
 70
     1
102
RTVSPropertyOp6
 70
     1
102
RTVSPropertyOp7
 70
     1
102
RTVSPropertyOp8
 70
     1
102
RTVSPropertyOp9
 70
     1
102
RTVSPropertyOp10
 70
     1
102
RTVSPropertyOp11
 70
     1
102
RTVSPropertyOp12
 70
     1
102
RTVSPropertyOp13
 70
     1
102
RTVSPropertyOp14
 70
     1
102
RTVSPropertyOp15
 70
     1
102
RTVSPropertyOp16
 70
     1
102
RTVSPropertyOp17
 70
     1
102
RTVSPropertyOp18
 70
     1
102
RTVSPropertyOp19
 70
     1
102
RTVSPropertyOp20
 70
     1
102
RTVSPropertyOp21
 70
     1
102
RTVSPropertyOp22
 70
     1
102
RTVSPropertyOp23
 70
     1
102
RTVSPropertyOp24
 70
     1
102
RTVSPropertyOp25
 70
     1
102
RTVSPropertyOp26
 70
     1
102
RTVSPropertyOp27
 70
     1
102
RTVSPropertyOp28
 70
     1
102
RTVSPropertyOp29
 70
     1
102
RTVSPropertyOp30
 70
     1
102
RTVSPropertyOp31
 70
     1
102
RTVSPropertyOp32
 70
     1
102
RTVSPropertyOp33
 70
     1
102
RTVSPropertyOp34
 70
     1
102
RTVSPropertyOp35
 70
     1
102
RTVSPropertyOp36
 70
     1
102
RTVSPropertyOp37
 70
     1
102
RTVSPropertyOp38
 70
     1
102
RTVSPropertyOp39
 70
     1
102
RTVSPropertyOp40
 70
     1
102
RTVSPropertyOp41
 70
     1
102
RTVSPropertyOp42
 70
     1
102
RTVSPropertyOp43
 70
     1
102
RTVSPropertyOp44
 70
     1
102
RTVSPropertyOp45
 70
     1
102
RTVSPropertyOp46
 70
     1
102
RTVSPropertyOp47
 70
     1
102
RTVSPropertyOp48
 70
     1
102
RTVSPropertyOp49
 70
     1
102
RTVSPropertyOp50
 70
     1
102
RTVSPropertyOp51
 70
     0
102
RTVSPropertyOp52
 70
     0
102
RTVSPropertyOp53
 70
     1
102
RTVSPropertyOp54
 70
     1
102
RTVSPropertyOp55
 70
     1
102
RTVSPropertyOp56
 70
     1
102
RTVSPropertyOp57
 70
     1
102
RTVSPropertyOp58
 70
     1
102
RTVSPropertyOp59
 70
     1
102
RTVSPropertyOp60
 70
     1
102
RTVSPropertyOp61
 70
     1
102
RTVSPropertyOp62
 70
     1
  0
ENDSEC
  0
EOF
