  0
SECTION
  2
HEADER
  9
$ACADVER
  1
AC1015
  9
$ACADMAINTVER
 70
    20
  9
$DWGCODEPAGE
  3
ANSI_932
  9
$INSBASE
 10
0.0
 20
0.0
 30
0.0
  9
$EXTMIN
 10
-0.1922460740788665
 20
-0.2700599612071528
 30
-0.0015258207003583
  9
$EXTMAX
 10
6300.192275410744
 20
8850.270101172235
 30
0.0000000349246037
  9
$LIMMIN
 10
0.0
 20
0.0
  9
$LIMMAX
 10
297.0
 20
210.0
  9
$ORTHOMODE
 70
     1
  9
$REGENMODE
 70
     1
  9
$FILLMODE
 70
     0
  9
$QTEXTMODE
 70
     0
  9
$MIRRTEXT
 70
     1
  9
$LTSCALE
 40
100.0
  9
$ATTMODE
 70
     1
  9
$TEXTSIZE
 40
180.0
  9
$TRACEWID
 40
0.05
  9
$TEXTSTYLE
  7
STANDARD
  9
$CLAYER
  8
3
  9
$CELTYPE
  6
ByLayer
  9
$CECOLOR
 62
   256
  9
$CELTSCALE
 40
1.0
  9
$DISPSILH
 70
     0
  9
$DIMSCALE
 40
30.0
  9
$DIMASZ
 40
2.0
  9
$DIMEXO
 40
1.0
  9
$DIMDLI
 40
10.0
  9
$DIMRND
 40
0.0
  9
$DIMDLE
 40
0.0
  9
$DIMEXE
 40
1.0
  9
$DIMTP
 40
1.0
  9
$DIMTM
 40
1.0
  9
$DIMTXT
 40
3.0
  9
$DIMCEN
 40
0.0
  9
$DIMTSZ
 40
0.0
  9
$DIMTOL
 70
     0
  9
$DIMLIM
 70
     0
  9
$DIMTIH
 70
     0
  9
$DIMTOH
 70
     0
  9
$DIMSE1
 70
     0
  9
$DIMSE2
 70
     0
  9
$DIMTAD
 70
     1
  9
$DIMZIN
 70
     8
  9
$DIMBLK
  1

  9
$DIMASO
 70
     1
  9
$DIMSHO
 70
     1
  9
$DIMPOST
  1

  9
$DIMAPOST
  1

  9
$DIMALT
 70
     0
  9
$DIMALTD
 70
     2
  9
$DIMALTF
 40
0.039
  9
$DIMLFAC
 40
1.0
  9
$DIMTOFL
 70
     1
  9
$DIMTVP
 40
0.0
  9
$DIMTIX
 70
     0
  9
$DIMSOXD
 70
     0
  9
$DIMSAH
 70
     1
  9
$DIMBLK1
  1
OPEN
  9
$DIMBLK2
  1
OPEN
  9
$DIMSTYLE
  2
IGA
  9
$DIMCLRD
 70
     0
  9
$DIMCLRE
 70
     0
  9
$DIMCLRT
 70
     0
  9
$DIMTFAC
 40
10.0
  9
$DIMGAP
 40
1.0
  9
$DIMJUST
 70
     0
  9
$DIMSD1
 70
     0
  9
$DIMSD2
 70
     0
  9
$DIMTOLJ
 70
     1
  9
$DIMTZIN
 70
     0
  9
$DIMALTZ
 70
     0
  9
$DIMALTTZ
 70
     0
  9
$DIMUPT
 70
     0
  9
$DIMDEC
 70
     4
  9
$DIMTDEC
 70
     4
  9
$DIMALTU
 70
     2
  9
$DIMALTTD
 70
     2
  9
$DIMTXSTY
  7
STANDARD
  9
$DIMAUNIT
 70
     0
  9
$DIMADEC
 70
     0
  9
$DIMALTRND
 40
0.0
  9
$DIMAZIN
 70
     0
  9
$DIMDSEP
 70
    46
  9
$DIMATFIT
 70
     3
  9
$DIMFRAC
 70
     0
  9
$DIMLDRBLK
  1
OPEN
  9
$DIMLUNIT
 70
     2
  9
$DIMLWD
 70
    -2
  9
$DIMLWE
 70
    -2
  9
$DIMTMOVE
 70
     0
  9
$LUNITS
 70
     2
  9
$LUPREC
 70
     3
  9
$SKETCHINC
 40
0.1
  9
$FILLETRAD
 40
50.0
  9
$AUNITS
 70
     0
  9
$AUPREC
 70
     0
  9
$MENU
  1
acad
  9
$ELEVATION
 40
0.0
  9
$PELEVATION
 40
0.0
  9
$THICKNESS
 40
0.0
  9
$LIMCHECK
 70
     0
  9
$CHAMFERA
 40
0.5
  9
$CHAMFERB
 40
0.5
  9
$CHAMFERC
 40
0.0
  9
$CHAMFERD
 40
0.0
  9
$SKPOLY
 70
     0
  9
$TDCREATE
 40
2451389.550088889
  9
$TDUCREATE
 40
2451389.175088889
  9
$TDUPDATE
 40
2460271.755320718
  9
$TDUUPDATE
 40
2460271.380320718
  9
$TDINDWG
 40
0.0319237500
  9
$TDUSRTIMER
 40
0.0319235069
  9
$USRTIMER
 70
     1
  9
$ANGBASE
 50
0.0
  9
$ANGDIR
 70
     0
  9
$PDMODE
 70
     0
  9
$PDSIZE
 40
0.0
  9
$PLINEWID
 40
0.0
  9
$SPLFRAME
 70
     0
  9
$SPLINETYPE
 70
     6
  9
$SPLINESEGS
 70
     8
  9
$HANDSEED
  5
8582
  9
$SURFTAB1
 70
     6
  9
$SURFTAB2
 70
     6
  9
$SURFTYPE
 70
     6
  9
$SURFU
 70
     6
  9
$SURFV
 70
     6
  9
$UCSBASE
  2

  9
$UCSNAME
  2

  9
$UCSORG
 10
0.0
 20
0.0
 30
0.0
  9
$UCSXDIR
 10
1.0
 20
0.0
 30
0.0
  9
$UCSYDIR
 10
0.0
 20
1.0
 30
0.0
  9
$UCSORTHOREF
  2

  9
$UCSORTHOVIEW
 70
     0
  9
$UCSORGTOP
 10
0.0
 20
0.0
 30
0.0
  9
$UCSORGBOTTOM
 10
0.0
 20
0.0
 30
0.0
  9
$UCSORGLEFT
 10
0.0
 20
0.0
 30
0.0
  9
$UCSORGRIGHT
 10
0.0
 20
0.0
 30
0.0
  9
$UCSORGFRONT
 10
0.0
 20
0.0
 30
0.0
  9
$UCSORGBACK
 10
0.0
 20
0.0
 30
0.0
  9
$PUCSBASE
  2

  9
$PUCSNAME
  2

  9
$PUCSORG
 10
0.0
 20
0.0
 30
0.0
  9
$PUCSXDIR
 10
1.0
 20
0.0
 30
0.0
  9
$PUCSYDIR
 10
0.0
 20
1.0
 30
0.0
  9
$PUCSORTHOREF
  2

  9
$PUCSORTHOVIEW
 70
     0
  9
$PUCSORGTOP
 10
0.0
 20
0.0
 30
0.0
  9
$PUCSORGBOTTOM
 10
0.0
 20
0.0
 30
0.0
  9
$PUCSORGLEFT
 10
0.0
 20
0.0
 30
0.0
  9
$PUCSORGRIGHT
 10
0.0
 20
0.0
 30
0.0
  9
$PUCSORGFRONT
 10
0.0
 20
0.0
 30
0.0
  9
$PUCSORGBACK
 10
0.0
 20
0.0
 30
0.0
  9
$USERI1
 70
     0
  9
$USERI2
 70
     0
  9
$USERI3
 70
     0
  9
$USERI4
 70
     0
  9
$USERI5
 70
     0
  9
$USERR1
 40
0.0
  9
$USERR2
 40
0.0
  9
$USERR3
 40
0.0
  9
$USERR4
 40
0.0
  9
$USERR5
 40
0.0
  9
$WORLDVIEW
 70
     1
  9
$SHADEDGE
 70
     3
  9
$SHADEDIF
 70
    70
  9
$TILEMODE
 70
     1
  9
$MAXACTVP
 70
    16
  9
$PINSBASE
 10
0.0
 20
0.0
 30
0.0
  9
$PLIMCHECK
 70
     0
  9
$PEXTMIN
 10
1.000000000000000E+20
 20
1.000000000000000E+20
 30
1.000000000000000E+20
  9
$PEXTMAX
 10
-1.000000000000000E+20
 20
-1.000000000000000E+20
 30
-1.000000000000000E+20
  9
$PLIMMIN
 10
0.0
 20
0.0
  9
$PLIMMAX
 10
12.0
 20
9.0
  9
$UNITMODE
 70
     0
  9
$VISRETAIN
 70
     0
  9
$PLINEGEN
 70
     0
  9
$PSLTSCALE
 70
     1
  9
$TREEDEPTH
 70
  3020
  9
$CMLSTYLE
  2
Standard
  9
$CMLJUST
 70
     0
  9
$CMLSCALE
 40
1.0
  9
$PROXYGRAPHICS
 70
     1
  9
$MEASUREMENT
 70
     0
  9
$CELWEIGHT
370
    -1
  9
$ENDCAPS
280
     0
  9
$JOINSTYLE
280
     0
  9
$LWDISPLAY
290
     0
  9
$INSUNITS
 70
     0
  9
$HYPERLINKBASE
  1

  9
$STYLESHEET
  1

  9
$XEDIT
290
     1
  9
$CEPSNTYPE
380
     0
  9
$PSTYLEMODE
290
     1
  9
$FINGERPRINTGUID
  2
{DF1F3196-0C9D-428C-9655-4291B404F920}
  9
$VERSIONGUID
  2
{828234DC-14EC-42CA-8D6C-53535AEDF719}
  9
$EXTNAMES
290
     1
  9
$PSVPSCALE
 40
0.0
  9
$OLESTARTUP
290
     0
  0
ENDSEC
  0
SECTION
  2
CLASSES
  0
CLASS
  1
ACDBDICTIONARYWDFLT
  2
AcDbDictionaryWithDefault
  3
ObjectDBX Classes
 90
        0
280
     0
281
     0
  0
CLASS
  1
MATERIAL
  2
AcDbMaterial
  3
ObjectDBX Classes
 90
     1153
280
     0
281
     0
  0
CLASS
  1
VISUALSTYLE
  2
AcDbVisualStyle
  3
ObjectDBX Classes
 90
     4095
280
     0
281
     0
  0
CLASS
  1
SCALE
  2
AcDbScale
  3
ObjectDBX Classes
 90
     1153
280
     0
281
     0
  0
CLASS
  1
TABLESTYLE
  2
AcDbTableStyle
  3
ObjectDBX Classes
 90
     4095
280
     0
281
     0
  0
CLASS
  1
MLEADERSTYLE
  2
AcDbMLeaderStyle
  3
ACDB_MLEADERSTYLE_CLASS
 90
     4095
280
     0
281
     0
  0
CLASS
  1
ACDBSECTIONVIEWSTYLE
  2
AcDbSectionViewStyle
  3
ObjectDBX Classes
 90
     1025
280
     0
281
     0
  0
CLASS
  1
ACDBDETAILVIEWSTYLE
  2
AcDbDetailViewStyle
  3
ObjectDBX Classes
 90
     1025
280
     0
281
     0
  0
CLASS
  1
DICTIONARYVAR
  2
AcDbDictionaryVar
  3
ObjectDBX Classes
 90
        0
280
     0
281
     0
  0
CLASS
  1
CELLSTYLEMAP
  2
AcDbCellStyleMap
  3
ObjectDBX Classes
 90
     1152
280
     0
281
     0
  0
CLASS
  1
ACDBPLACEHOLDER
  2
AcDbPlaceHolder
  3
ObjectDBX Classes
 90
        0
280
     0
281
     0
  0
CLASS
  1
LAYOUT
  2
AcDbLayout
  3
ObjectDBX Classes
 90
        0
280
     0
281
     0
  0
ENDSEC
  0
SECTION
  2
TABLES
  0
TABLE
  2
VPORT
  5
8203
330
0
100
AcDbSymbolTable
 70
     1
  0
VPORT
  5
826F
330
8203
100
AcDbSymbolTableRecord
100
AcDbViewportTableRecord
  2
*ACTIVE
 70
     0
 10
0.0
 20
0.0
 11
1.0
 21
1.0
 12
3150.000014668333
 22
4425.000020605514
 13
0.0
 23
0.0
 14
10.0
 24
10.0
 15
10.0
 25
10.0
 16
0.0
 26
0.0
 36
1.0
 17
0.0
 27
0.0
 37
0.0
 40
8907.213844128961
 41
2.050213675213675
 42
50.0
 43
0.0
 44
0.0
 50
0.0
 51
0.0
 71
     0
 72
   100
 73
     1
 74
     0
 75
     0
 76
     0
 77
     0
 78
     0
281
     0
 65
     1
110
0.0
120
0.0
130
0.0
111
1.0
121
0.0
131
0.0
112
0.0
122
1.0
132
0.0
 79
     0
146
0.0
1001
ACAD_NAV_VCDISPLAY
1070
     3
  0
ENDTAB
  0
TABLE
  2
LTYPE
  5
8200
330
0
100
AcDbSymbolTable
 70
     3
  0
LTYPE
  5
8255
330
8200
100
AcDbSymbolTableRecord
100
AcDbLinetypeTableRecord
  2
ByBlock
 70
     0
  3

 72
    65
 73
     0
 40
0.0
  0
LTYPE
  5
8256
330
8200
100
AcDbSymbolTableRecord
100
AcDbLinetypeTableRecord
  2
ByLayer
 70
     0
  3

 72
    65
 73
     0
 40
0.0
  0
LTYPE
  5
8257
330
8200
100
AcDbSymbolTableRecord
100
AcDbLinetypeTableRecord
  2
CONTINUOUS
 70
     0
  3
Solid line
 72
    65
 73
     0
 40
0.0
  0
LTYPE
  5
8270
330
8200
100
AcDbSymbolTableRecord
100
AcDbLinetypeTableRecord
  2
CENTER
 70
     0
  3
____ _ ____ _ ____ _ ____ _ ____ _ ____ _ ____ 
 72
    65
 73
     4
 40
2.0
 49
1.25
 74
     0
 49
-0.25
 74
     0
 49
0.25
 74
     0
 49
-0.25
 74
     0
  0
ENDTAB
  0
TABLE
  2
LAYER
  5
81FD
330
0
100
AcDbSymbolTable
 70
     6
  0
LAYER
  5
824F
102
{ACAD_XDICTIONARY
360
852C
102
}
330
81FD
100
AcDbSymbolTableRecord
100
AcDbLayerTableRecord
  2
0
 70
     0
 62
     7
  6
CONTINUOUS
370
    -3
390
820A
  0
LAYER
  5
826E
102
{ACAD_XDICTIONARY
360
852E
102
}
330
81FD
100
AcDbSymbolTableRecord
100
AcDbLayerTableRecord
  2
3
 70
     0
 62
     2
  6
CONTINUOUS
370
    -3
390
820A
  0
LAYER
  5
8271
102
{ACAD_XDICTIONARY
360
8530
102
}
330
81FD
100
AcDbSymbolTableRecord
100
AcDbLayerTableRecord
  2
2
 70
     0
 62
     3
  6
CENTER
370
    -3
390
820A
  0
LAYER
  5
8272
102
{ACAD_XDICTIONARY
360
8532
102
}
330
81FD
100
AcDbSymbolTableRecord
100
AcDbLayerTableRecord
  2
1
 70
     0
 62
     4
  6
CONTINUOUS
370
    -3
390
820A
  0
LAYER
  5
8273
102
{ACAD_XDICTIONARY
360
8534
102
}
330
81FD
100
AcDbSymbolTableRecord
100
AcDbLayerTableRecord
  2
4
 70
     0
 62
     7
  6
CONTINUOUS
370
    -3
390
820A
  0
LAYER
  5
8274
330
81FD
100
AcDbSymbolTableRecord
100
AcDbLayerTableRecord
  2
DEFPOINTS
 70
     0
 62
     7
  6
CONTINUOUS
290
     0
370
    -3
390
820A
  0
ENDTAB
  0
TABLE
  2
STYLE
  5
81FE
330
0
100
AcDbSymbolTable
 70
     2
  0
STYLE
  5
8250
330
81FE
100
AcDbSymbolTableRecord
100
AcDbTextStyleTableRecord
  2
STANDARD
 70
     0
 40
0.0
 41
1.0
 50
0.0
 71
     0
 42
180.0
  3
simplex.shx
  4
extfont.shx
  0
STYLE
  5
8254
330
81FE
100
AcDbSymbolTableRecord
100
AcDbTextStyleTableRecord
  2
Annotative
 70
     0
 40
0.0
 41
1.0
 50
0.0
 71
     0
 42
0.2
  3
txt
  4

1001
AcadAnnotative
1000
AnnotativeData
1002
{
1070
     1
1070
     1
1002
}
  0
ENDTAB
  0
TABLE
  2
VIEW
  5
8201
330
0
100
AcDbSymbolTable
 70
     0
  0
ENDTAB
  0
TABLE
  2
UCS
  5
8202
330
0
100
AcDbSymbolTable
 70
     0
  0
ENDTAB
  0
TABLE
  2
APPID
  5
8204
330
0
100
AcDbSymbolTable
 70
     8
  0
APPID
  5
8251
330
8204
100
AcDbSymbolTableRecord
100
AcDbRegAppTableRecord
  2
ACAD
 70
     0
  0
APPID
  5
8258
330
8204
100
AcDbSymbolTableRecord
100
AcDbRegAppTableRecord
  2
AcadAnnotative
 70
     0
  0
APPID
  5
835A
330
8204
100
AcDbSymbolTableRecord
100
AcDbRegAppTableRecord
  2
ACAD_DSTYLE_DIMJAG
 70
     0
  0
APPID
  5
835B
330
8204
100
AcDbSymbolTableRecord
100
AcDbRegAppTableRecord
  2
ACAD_DSTYLE_DIMTALN
 70
     0
  0
APPID
  5
83CC
330
8204
100
AcDbSymbolTableRecord
100
AcDbRegAppTableRecord
  2
AcadAnnoMonitorAlertIconDisabled
 70
     0
  0
APPID
  5
83CD
330
8204
100
AcDbSymbolTableRecord
100
AcDbRegAppTableRecord
  2
ACAD_EXEMPT_FROM_CAD_STANDARDS
 70
     0
  0
APPID
  5
8540
330
8204
100
AcDbSymbolTableRecord
100
AcDbRegAppTableRecord
  2
ACAD_NAV_VCDISPLAY
 70
     0
  0
APPID
  5
8579
330
8204
100
AcDbSymbolTableRecord
100
AcDbRegAppTableRecord
  2
ACAD_MLEADERVER
 70
     0
  0
ENDTAB
  0
TABLE
  2
DIMSTYLE
  5
8205
330
0
100
AcDbSymbolTable
 70
     4
100
AcDbDimStyleTable
 71
     1
340
8275
  0
DIMSTYLE
105
8252
102
{ACAD_REACTORS
330
7C7B
330
7C7C
330
7C80
330
7C81
330
7CC3
330
7CC5
330
7CC6
330
7CCA
330
7CCB
330
7CFA
330
7D08
102
}
330
8205
100
AcDbSymbolTableRecord
100
AcDbDimStyleTableRecord
  2
Standard
 70
     0
340
8250
  0
DIMSTYLE
105
8253
330
8205
100
AcDbSymbolTableRecord
100
AcDbDimStyleTableRecord
  2
Annotative
 70
     0
340
8250
1001
AcadAnnotative
1000
AnnotativeData
1002
{
1070
     1
1070
     1
1002
}
  0
DIMSTYLE
105
8275
102
{ACAD_REACTORS
330
82B5
330
82C2
330
835C
330
8369
330
8376
330
8383
330
8390
330
839D
330
83AF
330
8500
330
851F
102
}
330
8205
100
AcDbSymbolTableRecord
100
AcDbDimStyleTableRecord
  2
IGA
 70
     0
 40
2.0
 41
2.0
 42
0.5
 43
10.0
 44
1.0
 47
1.0
 48
1.0
 73
     0
 74
     0
 77
     1
 78
     8
140
3.0
141
0.0
143
0.03937
146
10.0
147
1.0
173
     1
271
     3
272
     3
279
     2
284
     8
285
     8
286
     8
340
8250
  0
DIMSTYLE
105
8276
330
8205
100
AcDbSymbolTableRecord
100
AcDbDimStyleTableRecord
  2
MATSU
 70
     0
 41
2.0
 42
1.0
 43
10.0
 44
1.0
 73
     0
 74
     0
 77
     1
 78
     8
140
3.0
141
0.0
143
0.03937
147
0.5
172
     1
173
     1
176
   256
177
   256
178
   256
271
     3
272
     3
279
     2
284
     8
285
     8
286
     8
340
8250
  0
ENDTAB
  0
TABLE
  2
BLOCK_RECORD
  5
81FC
330
0
100
AcDbSymbolTable
 70
    49
  0
BLOCK_RECORD
  5
826A
330
81FC
100
AcDbSymbolTableRecord
100
AcDbBlockTableRecord
  2
*Model_Space
340
826D
  0
BLOCK_RECORD
  5
8266
330
81FC
100
AcDbSymbolTableRecord
100
AcDbBlockTableRecord
  2
*Paper_Space
340
8269
  0
BLOCK_RECORD
  5
827A
330
81FC
100
AcDbSymbolTableRecord
100
AcDbBlockTableRecord
  2
$MODEL_SPACE
340
0
  0
BLOCK_RECORD
  5
827C
330
81FC
100
AcDbSymbolTableRecord
100
AcDbBlockTableRecord
  2
$PAPER_SPACE
340
0
  0
BLOCK_RECORD
  5
827E
330
81FC
100
AcDbSymbolTableRecord
100
AcDbBlockTableRecord
  2
_OPEN
340
0
102
{BLKREFS
331
8363
331
8364
331
8370
331
8371
331
837D
331
837E
331
838A
331
838B
331
7E37
331
7E38
331
7E42
331
7E43
331
81E1
331
81E2
331
7E58
331
7E59
331
7E63
331
7E64
331
7EB0
331
7EB1
331
7EBB
331
7EBC
331
7EC6
331
7EC7
331
7ED1
331
7ED2
331
805C
331
805D
331
80CA
331
80CB
331
7EF2
331
7EF3
331
7EFD
331
7EFE
331
7F2D
331
7F2E
331
7F38
331
7F39
331
81ED
331
80DE
331
80DF
331
80EB
331
80EC
331
80F8
331
80F9
331
8105
331
8106
331
8176
331
8177
331
82E4
331
82E5
331
82ED
331
82EE
331
83FC
331
83FD
331
84A2
331
84FC
331
8519
331
851A
331
8526
331
8527
102
}
  0
BLOCK_RECORD
  5
8280
330
81FC
100
AcDbSymbolTableRecord
100
AcDbBlockTableRecord
  2
YA_N
340
0
102
{BLKREFS
331
7C28
331
7C3E
331
7C79
331
7C9C
331
7CD3
331
7CD5
331
7CD7
331
7CD9
102
}
  0
BLOCK_RECORD
  5
8282
330
81FC
100
AcDbSymbolTableRecord
100
AcDbBlockTableRecord
  2
*D4
340
0
  0
BLOCK_RECORD
  5
8284
330
81FC
100
AcDbSymbolTableRecord
100
AcDbBlockTableRecord
  2
*D5
340
0
  0
BLOCK_RECORD
  5
8286
330
81FC
100
AcDbSymbolTableRecord
100
AcDbBlockTableRecord
  2
*D6
340
0
  0
BLOCK_RECORD
  5
8288
330
81FC
100
AcDbSymbolTableRecord
100
AcDbBlockTableRecord
  2
*D7
340
0
  0
BLOCK_RECORD
  5
828A
330
81FC
100
AcDbSymbolTableRecord
100
AcDbBlockTableRecord
  2
*D8
340
0
  0
BLOCK_RECORD
  5
828C
330
81FC
100
AcDbSymbolTableRecord
100
AcDbBlockTableRecord
  2
*D9
340
0
  0
BLOCK_RECORD
  5
828E
330
81FC
100
AcDbSymbolTableRecord
100
AcDbBlockTableRecord
  2
*D10
340
0
  0
BLOCK_RECORD
  5
8290
330
81FC
100
AcDbSymbolTableRecord
100
AcDbBlockTableRecord
  2
*D11
340
0
  0
BLOCK_RECORD
  5
8292
330
81FC
100
AcDbSymbolTableRecord
100
AcDbBlockTableRecord
  2
*D12
340
0
  0
BLOCK_RECORD
  5
8294
330
81FC
100
AcDbSymbolTableRecord
100
AcDbBlockTableRecord
  2
*D13
340
0
  0
BLOCK_RECORD
  5
8296
330
81FC
100
AcDbSymbolTableRecord
100
AcDbBlockTableRecord
  2
*U14
340
0
102
{BLKREFS
331
805E
102
}
  0
BLOCK_RECORD
  5
8297
330
81FC
100
AcDbSymbolTableRecord
100
AcDbBlockTableRecord
  2
*D15
340
0
  0
BLOCK_RECORD
  5
8299
330
81FC
100
AcDbSymbolTableRecord
100
AcDbBlockTableRecord
  2
*D16
340
0
  0
BLOCK_RECORD
  5
829B
330
81FC
100
AcDbSymbolTableRecord
100
AcDbBlockTableRecord
  2
*D17
340
0
  0
BLOCK_RECORD
  5
829D
330
81FC
100
AcDbSymbolTableRecord
100
AcDbBlockTableRecord
  2
*D18
340
0
  0
BLOCK_RECORD
  5
829F
330
81FC
100
AcDbSymbolTableRecord
100
AcDbBlockTableRecord
  2
*D19
340
0
  0
BLOCK_RECORD
  5
82A1
330
81FC
100
AcDbSymbolTableRecord
100
AcDbBlockTableRecord
  2
*D20
340
0
  0
BLOCK_RECORD
  5
82A3
330
81FC
100
AcDbSymbolTableRecord
100
AcDbBlockTableRecord
  2
_DOT
340
0
102
{BLKREFS
331
81EC
102
}
  0
BLOCK_RECORD
  5
82A5
330
81FC
100
AcDbSymbolTableRecord
100
AcDbBlockTableRecord
  2
*D22
340
0
  0
BLOCK_RECORD
  5
82A7
330
81FC
100
AcDbSymbolTableRecord
100
AcDbBlockTableRecord
  2
*D23
340
0
  0
BLOCK_RECORD
  5
82A9
330
81FC
100
AcDbSymbolTableRecord
100
AcDbBlockTableRecord
  2
*D24
340
0
  0
BLOCK_RECORD
  5
82AB
330
81FC
100
AcDbSymbolTableRecord
100
AcDbBlockTableRecord
  2
*D25
340
0
  0
BLOCK_RECORD
  5
82AD
330
81FC
100
AcDbSymbolTableRecord
100
AcDbBlockTableRecord
  2
_NONE
340
0
  0
BLOCK_RECORD
  5
82AF
330
81FC
100
AcDbSymbolTableRecord
100
AcDbBlockTableRecord
  2
*D27
340
0
  0
BLOCK_RECORD
  5
82B1
330
81FC
100
AcDbSymbolTableRecord
100
AcDbBlockTableRecord
  2
*D28
340
0
  0
BLOCK_RECORD
  5
82B6
330
81FC
100
AcDbSymbolTableRecord
100
AcDbBlockTableRecord
  2
*D29
340
0
  0
BLOCK_RECORD
  5
82C3
330
81FC
100
AcDbSymbolTableRecord
100
AcDbBlockTableRecord
  2
*D30
340
0
  0
BLOCK_RECORD
  5
82F3
330
81FC
100
AcDbSymbolTableRecord
100
AcDbBlockTableRecord
  2
*D31
340
0
  0
BLOCK_RECORD
  5
8300
330
81FC
100
AcDbSymbolTableRecord
100
AcDbBlockTableRecord
  2
*D32
340
0
  0
BLOCK_RECORD
  5
830D
330
81FC
100
AcDbSymbolTableRecord
100
AcDbBlockTableRecord
  2
*D33
340
0
  0
BLOCK_RECORD
  5
831A
330
81FC
100
AcDbSymbolTableRecord
100
AcDbBlockTableRecord
  2
*D34
340
0
  0
BLOCK_RECORD
  5
8327
330
81FC
100
AcDbSymbolTableRecord
100
AcDbBlockTableRecord
  2
*D35
340
0
  0
BLOCK_RECORD
  5
8334
330
81FC
100
AcDbSymbolTableRecord
100
AcDbBlockTableRecord
  2
*D36
340
0
  0
BLOCK_RECORD
  5
833F
330
81FC
100
AcDbSymbolTableRecord
100
AcDbBlockTableRecord
  2
*D37
340
0
  0
BLOCK_RECORD
  5
834C
330
81FC
100
AcDbSymbolTableRecord
100
AcDbBlockTableRecord
  2
*D38
340
0
  0
BLOCK_RECORD
  5
835D
330
81FC
100
AcDbSymbolTableRecord
100
AcDbBlockTableRecord
  2
*D39
340
0
  0
BLOCK_RECORD
  5
836A
330
81FC
100
AcDbSymbolTableRecord
100
AcDbBlockTableRecord
  2
*D40
340
0
  0
BLOCK_RECORD
  5
8377
330
81FC
100
AcDbSymbolTableRecord
100
AcDbBlockTableRecord
  2
*D41
340
0
  0
BLOCK_RECORD
  5
8384
330
81FC
100
AcDbSymbolTableRecord
100
AcDbBlockTableRecord
  2
*D42
340
0
  0
BLOCK_RECORD
  5
8391
330
81FC
100
AcDbSymbolTableRecord
100
AcDbBlockTableRecord
  2
*D43
340
0
  0
BLOCK_RECORD
  5
839E
330
81FC
100
AcDbSymbolTableRecord
100
AcDbBlockTableRecord
  2
*D44
340
0
  0
BLOCK_RECORD
  5
83B0
330
81FC
100
AcDbSymbolTableRecord
100
AcDbBlockTableRecord
  2
*D45
340
0
  0
BLOCK_RECORD
  5
8495
330
81FC
100
AcDbSymbolTableRecord
100
AcDbBlockTableRecord
  2
_DotSmall
340
0
102
{BLKREFS
331
84A3
331
84FB
102
}
  0
BLOCK_RECORD
  5
8501
330
81FC
100
AcDbSymbolTableRecord
100
AcDbBlockTableRecord
  2
*D47
340
0
  0
BLOCK_RECORD
  5
8520
330
81FC
100
AcDbSymbolTableRecord
100
AcDbBlockTableRecord
  2
*D48
340
0
  0
ENDTAB
  0
ENDSEC
  0
SECTION
  2
BLOCKS
  0
BLOCK
  5
826B
330
826A
100
AcDbEntity
  8
0
100
AcDbBlockBegin
  2
*Model_Space
 70
     0
 10
0.0
 20
0.0
 30
0.0
  3
*Model_Space
  1

  0
ENDBLK
  5
826C
330
826A
100
AcDbEntity
  8
0
100
AcDbBlockEnd
  0
BLOCK
  5
8267
330
8266
100
AcDbEntity
 67
     1
  8
0
100
AcDbBlockBegin
  2
*Paper_Space
 70
     0
 10
0.0
 20
0.0
 30
0.0
  3
*Paper_Space
  1

  0
ENDBLK
  5
8268
330
8266
100
AcDbEntity
 67
     1
  8
0
100
AcDbBlockEnd
  0
BLOCK
  5
827B
330
827A
100
AcDbEntity
  8
0
100
AcDbBlockBegin
  2
$MODEL_SPACE
 70
     0
 10
0.0
 20
0.0
 30
0.0
  3
$MODEL_SPACE
  1

  0
ENDBLK
  5
1B
330
827A
100
AcDbEntity
  8
0
100
AcDbBlockEnd
  0
BLOCK
  5
827D
330
827C
100
AcDbEntity
  8
0
100
AcDbBlockBegin
  2
$PAPER_SPACE
 70
     0
 10
0.0
 20
0.0
 30
0.0
  3
$PAPER_SPACE
  1

  0
ENDBLK
  5
18
330
827C
100
AcDbEntity
  8
0
100
AcDbBlockEnd
  0
BLOCK
  5
827F
330
827E
100
AcDbEntity
  8
0
100
AcDbBlockBegin
  2
_OPEN
 70
     0
 10
0.0
 20
0.0
 30
0.0
  3
_OPEN
  1

  0
LINE
  5
79FD
330
827E
100
AcDbEntity
  8
0
  6
ByBlock
 62
     0
100
AcDbLine
 10
-1.0
 20
0.1666666666666666
 30
0.0
 11
0.0
 21
0.0
 31
0.0
  0
LINE
  5
79FE
330
827E
100
AcDbEntity
  8
0
  6
ByBlock
 62
     0
100
AcDbLine
 10
0.0
 20
0.0
 30
0.0
 11
-1.0
 21
-0.1666666666666666
 31
0.0
  0
LINE
  5
79FF
330
827E
100
AcDbEntity
  8
0
  6
ByBlock
 62
     0
100
AcDbLine
 10
0.0
 20
0.0
 30
0.0
 11
-1.0
 21
0.0
 31
0.0
  0
ENDBLK
  5
7A01
330
827E
100
AcDbEntity
  8
0
100
AcDbBlockEnd
  0
BLOCK
  5
8281
330
8280
100
AcDbEntity
  8
0
100
AcDbBlockBegin
  2
YA_N
 70
     0
 10
0.0
 20
0.0
 30
0.0
  3
YA_N
  1

  0
ENDBLK
  5
7A04
330
8280
100
AcDbEntity
  8
0
100
AcDbBlockEnd
  0
BLOCK
  5
8283
330
8282
100
AcDbEntity
  8
0
100
AcDbBlockBegin
  2
*D4
 70
     1
 10
0.0
 20
0.0
 30
0.0
  3
*D4
  1

  0
LINE
  5
7E34
330
8282
100
AcDbEntity
  8
0
  6
ByBlock
100
AcDbLine
 10
2197.625114976839
 20
1702.060302835745
 30
0.0
 11
2398.785211970981
 21
1702.060302835745
 31
0.0
  0
LINE
  5
7E35
330
8282
100
AcDbEntity
  8
0
  6
ByBlock
100
AcDbLine
 10
2197.625114976839
 20
672.0603028357458
 30
0.0
 11
2398.785211970981
 21
672.0603028357458
 31
0.0
  0
LINE
  5
7E36
330
8282
100
AcDbEntity
  8
0
  6
ByBlock
100
AcDbLine
 10
2368.785211970982
 20
1642.060302835745
 30
0.0
 11
2368.785211970982
 21
732.0603028357457
 31
0.0
  0
INSERT
  5
7E37
330
8282
100
AcDbEntity
  8
0
  6
ByBlock
100
AcDbBlockReference
  2
_OPEN
 10
2368.785211970982
 20
1702.060302835745
 30
0.0
 41
60.0
 42
60.0
 43
60.0
 50
90.0
  0
INSERT
  5
7E38
330
8282
100
AcDbEntity
  8
0
  6
ByBlock
100
AcDbBlockReference
  2
_OPEN
 10
2368.785211970982
 20
672.0603028357458
 30
0.0
 41
60.0
 42
60.0
 43
60.0
 50
270.0
  0
TEXT
  5
7E39
330
8282
100
AcDbEntity
  8
3
100
AcDbText
 10
2353.785211970981
 20
1037.060302835745
 30
0.0
 40
90.0
  1
1030
 50
90.0
100
AcDbText
  0
POINT
  5
7E3A
330
8282
100
AcDbEntity
  8
DEFPOINTS
  6
ByBlock
 62
     0
100
AcDbPoint
 10
2167.625114976839
 20
1702.060302835745
 30
0.0
  0
POINT
  5
7E3B
330
8282
100
AcDbEntity
  8
DEFPOINTS
  6
ByBlock
 62
     0
100
AcDbPoint
 10
2167.625114976839
 20
672.0603028357458
 30
0.0
  0
POINT
  5
7E3C
330
8282
100
AcDbEntity
  8
DEFPOINTS
  6
ByBlock
 62
     0
100
AcDbPoint
 10
2368.785211970982
 20
672.0603028357458
 30
0.0
  0
ENDBLK
  5
7E3D
330
8282
100
AcDbEntity
  8
0
100
AcDbBlockEnd
  0
BLOCK
  5
8285
330
8284
100
AcDbEntity
  8
0
100
AcDbBlockBegin
  2
*D5
 70
     1
 10
0.0
 20
0.0
 30
0.0
  3
*D5
  1

  0
LINE
  5
7E3F
330
8284
100
AcDbEntity
  8
0
  6
ByBlock
100
AcDbLine
 10
2197.625114976839
 20
1702.060302835745
 30
0.0
 11
2599.587257430135
 21
1702.060302835745
 31
0.0
  0
LINE
  5
7E40
330
8284
100
AcDbEntity
  8
0
  6
ByBlock
100
AcDbLine
 10
2257.241097474467
 20
628.0603028357453
 30
0.0
 11
2599.587257430135
 21
628.0603028357453
 31
0.0
  0
LINE
  5
7E41
330
8284
100
AcDbEntity
  8
0
  6
ByBlock
100
AcDbLine
 10
2569.587257430136
 20
1642.060302835745
 30
0.0
 11
2569.587257430136
 21
688.0603028357453
 31
0.0
  0
INSERT
  5
7E42
330
8284
100
AcDbEntity
  8
0
  6
ByBlock
100
AcDbBlockReference
  2
_OPEN
 10
2569.587257430136
 20
1702.060302835745
 30
0.0
 41
60.0
 42
60.0
 43
60.0
 50
90.0
  0
INSERT
  5
7E43
330
8284
100
AcDbEntity
  8
0
  6
ByBlock
100
AcDbBlockReference
  2
_OPEN
 10
2569.587257430136
 20
628.0603028357453
 30
0.0
 41
60.0
 42
60.0
 43
60.0
 50
270.0
  0
TEXT
  5
7E44
330
8284
100
AcDbEntity
  8
3
100
AcDbText
 10
2554.587257430135
 20
1012.917445692888
 30
0.0
 40
90.0
  1
1074
 50
90.0
100
AcDbText
  0
POINT
  5
7E45
330
8284
100
AcDbEntity
  8
DEFPOINTS
  6
ByBlock
 62
     0
100
AcDbPoint
 10
2167.625114976839
 20
1702.060302835745
 30
0.0
  0
POINT
  5
7E46
330
8284
100
AcDbEntity
  8
DEFPOINTS
  6
ByBlock
 62
     0
100
AcDbPoint
 10
2227.241097474466
 20
628.0603028357453
 30
0.0
  0
POINT
  5
7E47
330
8284
100
AcDbEntity
  8
DEFPOINTS
  6
ByBlock
 62
     0
100
AcDbPoint
 10
2569.587257430136
 20
628.0603028357453
 30
0.0
  0
ENDBLK
  5
7E48
330
8284
100
AcDbEntity
  8
0
100
AcDbBlockEnd
  0
BLOCK
  5
8287
330
8286
100
AcDbEntity
  8
0
100
AcDbBlockBegin
  2
*D6
 70
     1
 10
0.0
 20
0.0
 30
0.0
  3
*D6
  1

  0
LINE
  5
81DE
330
8286
100
AcDbEntity
  8
3
 62
     0
100
AcDbLine
 10
3021.883246267807
 20
2938.588409321162
 30
0.0
 11
3379.229406223476
 21
2938.588409321162
 31
0.0
  0
LINE
  5
81DF
330
8286
100
AcDbEntity
  8
3
 62
     0
100
AcDbLine
 10
2907.267263770179
 20
2188.588409321164
 30
0.0
 11
3379.229406223476
 21
2188.588409321164
 31
0.0
  0
LINE
  5
81E0
330
8286
100
AcDbEntity
  8
3
 62
     0
100
AcDbLine
 10
3349.229406223476
 20
2878.588409321162
 30
0.0
 11
3349.229406223476
 21
2248.588409321163
 31
0.0
  0
INSERT
  5
81E1
330
8286
100
AcDbEntity
  8
3
 62
     0
100
AcDbBlockReference
  2
_OPEN
 10
3349.229406223476
 20
2938.588409321162
 30
0.0
 41
60.0
 42
60.0
 43
60.0
 50
90.0
  0
INSERT
  5
81E2
330
8286
100
AcDbEntity
  8
3
 62
     0
100
AcDbBlockReference
  2
_OPEN
 10
3349.229406223476
 20
2188.588409321164
 30
0.0
 41
60.0
 42
60.0
 43
60.0
 50
270.0
  0
TEXT
  5
81FA
330
8286
100
AcDbEntity
  8
3
 62
     0
100
AcDbText
 10
3094.23
 20
2404.29
 30
0.0
 40
90.0
  1
750
100
AcDbText
  0
POINT
  5
81E4
330
8286
100
AcDbEntity
  8
DEFPOINTS
 62
     0
100
AcDbPoint
 10
3006.883246267807
 20
2938.588409321162
 30
0.0
  0
POINT
  5
81E5
330
8286
100
AcDbEntity
  8
DEFPOINTS
 62
     0
100
AcDbPoint
 10
2892.267263770179
 20
2188.588409321164
 30
0.0
  0
POINT
  5
81E6
330
8286
100
AcDbEntity
  8
DEFPOINTS
 62
     0
100
AcDbPoint
 10
3349.229406223476
 20
2188.588409321164
 30
0.0
  0
ENDBLK
  5
7F68
330
8286
100
AcDbEntity
  8
0
100
AcDbBlockEnd
  0
BLOCK
  5
8289
330
8288
100
AcDbEntity
  8
0
100
AcDbBlockBegin
  2
*D7
 70
     1
 10
0.0
 20
0.0
 30
0.0
  3
*D7
  1

  0
LINE
  5
7E55
330
8288
100
AcDbEntity
  8
0
  6
ByBlock
100
AcDbLine
 10
2167.625114976839
 20
1785.060302835745
 30
0.0
 11
2167.625114976839
 21
1985.834976178721
 31
0.0
  0
LINE
  5
7E56
330
8288
100
AcDbEntity
  8
0
  6
ByBlock
100
AcDbLine
 10
1487.625114976837
 20
1822.976195176186
 30
0.0
 11
1487.625114976837
 21
1985.834976178721
 31
0.0
  0
LINE
  5
7E57
330
8288
100
AcDbEntity
  8
0
  6
ByBlock
100
AcDbLine
 10
2107.625114976839
 20
1955.834976178721
 30
0.0
 11
1547.625114976837
 21
1955.834976178721
 31
0.0
  0
INSERT
  5
7E58
330
8288
100
AcDbEntity
  8
0
  6
ByBlock
100
AcDbBlockReference
  2
_OPEN
 10
2167.625114976839
 20
1955.834976178721
 30
0.0
 41
60.0
 42
60.0
 43
60.0
  0
INSERT
  5
7E59
330
8288
100
AcDbEntity
  8
0
  6
ByBlock
100
AcDbBlockReference
  2
_OPEN
 10
1487.625114976837
 20
1955.834976178721
 30
0.0
 41
60.0
 42
60.0
 43
60.0
 50
180.0
  0
TEXT
  5
7E5A
330
8288
100
AcDbEntity
  8
3
100
AcDbText
 10
1711.910829262553
 20
1970.834976178721
 30
0.0
 40
90.0
  1
680
100
AcDbText
  0
POINT
  5
7E5B
330
8288
100
AcDbEntity
  8
DEFPOINTS
  6
ByBlock
 62
     0
100
AcDbPoint
 10
2167.625114976839
 20
1755.060302835746
 30
0.0
  0
POINT
  5
7E5C
330
8288
100
AcDbEntity
  8
DEFPOINTS
  6
ByBlock
 62
     0
100
AcDbPoint
 10
1487.625114976837
 20
1792.976195176187
 30
0.0
  0
POINT
  5
7E5D
330
8288
100
AcDbEntity
  8
DEFPOINTS
  6
ByBlock
 62
     0
100
AcDbPoint
 10
1487.625114976837
 20
1955.834976178721
 30
0.0
  0
ENDBLK
  5
7E5E
330
8288
100
AcDbEntity
  8
0
100
AcDbBlockEnd
  0
BLOCK
  5
828B
330
828A
100
AcDbEntity
  8
0
100
AcDbBlockBegin
  2
*D8
 70
     1
 10
0.0
 20
0.0
 30
0.0
  3
*D8
  1

  0
LINE
  5
7E60
330
828A
100
AcDbEntity
  8
0
  6
ByBlock
100
AcDbLine
 10
1487.625114976837
 20
1822.976195176186
 30
0.0
 11
1487.625114976837
 21
1985.377276243805
 31
0.0
  0
LINE
  5
7E61
330
828A
100
AcDbEntity
  8
0
  6
ByBlock
100
AcDbLine
 10
623.0809985608106
 20
658.0603028357444
 30
0.0
 11
623.0809985608106
 21
1985.377276243805
 31
0.0
  0
LINE
  5
7E62
330
828A
100
AcDbEntity
  8
0
  6
ByBlock
100
AcDbLine
 10
1427.625114976837
 20
1955.377276243805
 30
0.0
 11
683.0809985608108
 21
1955.377276243805
 31
0.0
  0
INSERT
  5
7E63
330
828A
100
AcDbEntity
  8
0
  6
ByBlock
100
AcDbBlockReference
  2
_OPEN
 10
1487.625114976837
 20
1955.377276243805
 30
0.0
 41
60.0
 42
60.0
 43
60.0
  0
INSERT
  5
7E64
330
828A
100
AcDbEntity
  8
0
  6
ByBlock
100
AcDbBlockReference
  2
_OPEN
 10
623.0809985608106
 20
1955.377276243805
 30
0.0
 41
60.0
 42
60.0
 43
60.0
 50
180.0
  0
TEXT
  5
7E65
330
828A
100
AcDbEntity
  8
3
100
AcDbText
 10
939.6387710545385
 20
1970.377276243805
 30
0.0
 40
90.0
  1
868
100
AcDbText
  0
POINT
  5
7E66
330
828A
100
AcDbEntity
  8
DEFPOINTS
  6
ByBlock
 62
     0
100
AcDbPoint
 10
1487.625114976837
 20
1792.976195176187
 30
0.0
  0
POINT
  5
7E67
330
828A
100
AcDbEntity
  8
DEFPOINTS
  6
ByBlock
 62
     0
100
AcDbPoint
 10
623.0809985608106
 20
628.0603028357444
 30
0.0
  0
POINT
  5
7E68
330
828A
100
AcDbEntity
  8
DEFPOINTS
  6
ByBlock
 62
     0
100
AcDbPoint
 10
623.0809985608106
 20
1955.377276243805
 30
0.0
  0
ENDBLK
  5
7E69
330
828A
100
AcDbEntity
  8
0
100
AcDbBlockEnd
  0
BLOCK
  5
828D
330
828C
100
AcDbEntity
  8
0
100
AcDbBlockBegin
  2
*D9
 70
     1
 10
0.0
 20
0.0
 30
0.0
  3
*D9
  1

  0
LINE
  5
7EAD
330
828C
100
AcDbEntity
  8
0
  6
ByBlock
100
AcDbLine
 10
862.6251149768394
 20
4406.031599361241
 30
0.0
 11
862.6251149768394
 21
4627.335536588958
 31
0.0
  0
LINE
  5
7EAE
330
828C
100
AcDbEntity
  8
0
  6
ByBlock
100
AcDbLine
 10
2112.625114976839
 20
4406.031599361237
 30
0.0
 11
2112.625114976839
 21
4627.335536588958
 31
0.0
  0
LINE
  5
7EAF
330
828C
100
AcDbEntity
  8
0
  6
ByBlock
100
AcDbLine
 10
922.6251149768396
 20
4597.335536588958
 30
0.0
 11
2052.625114976839
 21
4597.335536588958
 31
0.0
  0
INSERT
  5
7EB0
330
828C
100
AcDbEntity
  8
0
  6
ByBlock
100
AcDbBlockReference
  2
_OPEN
 10
862.6251149768394
 20
4597.335536588958
 30
0.0
 41
60.0
 42
60.0
 43
60.0
 50
180.0
  0
INSERT
  5
7EB1
330
828C
100
AcDbEntity
  8
0
  6
ByBlock
100
AcDbBlockReference
  2
_OPEN
 10
2112.625114976839
 20
4597.335536588958
 30
0.0
 41
60.0
 42
60.0
 43
60.0
  0
TEXT
  5
7EB2
330
828C
100
AcDbEntity
  8
3
100
AcDbText
 10
1337.625114976839
 20
4612.335536588958
 30
0.0
 40
90.0
  1
1250
100
AcDbText
  0
POINT
  5
7EB3
330
828C
100
AcDbEntity
  8
DEFPOINTS
  6
ByBlock
 62
     0
100
AcDbPoint
 10
862.6251149768394
 20
4376.031599361239
 30
0.0
  0
POINT
  5
7EB4
330
828C
100
AcDbEntity
  8
DEFPOINTS
  6
ByBlock
 62
     0
100
AcDbPoint
 10
2112.625114976839
 20
4376.031599361239
 30
0.0
  0
POINT
  5
7EB5
330
828C
100
AcDbEntity
  8
DEFPOINTS
  6
ByBlock
 62
     0
100
AcDbPoint
 10
2112.625114976839
 20
4597.335536588958
 30
0.0
  0
ENDBLK
  5
7EB6
330
828C
100
AcDbEntity
  8
0
100
AcDbBlockEnd
  0
BLOCK
  5
828F
330
828E
100
AcDbEntity
  8
0
100
AcDbBlockBegin
  2
*D10
 70
     1
 10
0.0
 20
0.0
 30
0.0
  3
*D10
  1

  0
LINE
  5
7EB8
330
828E
100
AcDbEntity
  8
0
  6
ByBlock
100
AcDbLine
 10
62.62511497683954
 20
2841.031599361241
 30
0.0
 11
62.62511497683954
 21
2552.481475534663
 31
0.0
  0
LINE
  5
7EB9
330
828E
100
AcDbEntity
  8
0
  6
ByBlock
100
AcDbLine
 10
2112.625114976839
 20
2841.031599361238
 30
0.0
 11
2112.625114976839
 21
2552.481475534663
 31
0.0
  0
LINE
  5
7EBA
330
828E
100
AcDbEntity
  8
0
  6
ByBlock
100
AcDbLine
 10
122.6251149768395
 20
2582.481475534663
 30
0.0
 11
2052.625114976839
 21
2582.481475534663
 31
0.0
  0
INSERT
  5
7EBB
330
828E
100
AcDbEntity
  8
0
  6
ByBlock
100
AcDbBlockReference
  2
_OPEN
 10
62.62511497683954
 20
2582.481475534663
 30
0.0
 41
60.0
 42
60.0
 43
60.0
 50
180.0
  0
INSERT
  5
7EBC
330
828E
100
AcDbEntity
  8
0
  6
ByBlock
100
AcDbBlockReference
  2
_OPEN
 10
2112.625114976839
 20
2582.481475534663
 30
0.0
 41
60.0
 42
60.0
 43
60.0
  0
TEXT
  5
7EBD
330
828E
100
AcDbEntity
  8
3
100
AcDbText
 10
929.0536864054109
 20
2597.481475534663
 30
0.0
 40
90.0
  1
2050
100
AcDbText
  0
POINT
  5
7EBE
330
828E
100
AcDbEntity
  8
DEFPOINTS
  6
ByBlock
 62
     0
100
AcDbPoint
 10
62.62511497683954
 20
2871.03159936124
 30
0.0
  0
POINT
  5
7EBF
330
828E
100
AcDbEntity
  8
DEFPOINTS
  6
ByBlock
 62
     0
100
AcDbPoint
 10
2112.625114976839
 20
2871.031599361238
 30
0.0
  0
POINT
  5
7EC0
330
828E
100
AcDbEntity
  8
DEFPOINTS
  6
ByBlock
 62
     0
100
AcDbPoint
 10
2112.625114976839
 20
2582.481475534663
 30
0.0
  0
ENDBLK
  5
7EC1
330
828E
100
AcDbEntity
  8
0
100
AcDbBlockEnd
  0
BLOCK
  5
8291
330
8290
100
AcDbEntity
  8
0
100
AcDbBlockBegin
  2
*D11
 70
     1
 10
0.0
 20
0.0
 30
0.0
  3
*D11
  1

  0
LINE
  5
7EC3
330
8290
100
AcDbEntity
  8
0
  6
ByBlock
100
AcDbLine
 10
32.62511497683954
 20
3721.031599361241
 30
0.0
 11
-189.4229525237715
 21
3721.031599361241
 31
0.0
  0
LINE
  5
7EC4
330
8290
100
AcDbEntity
  8
0
  6
ByBlock
100
AcDbLine
 10
32.62511497683954
 20
2871.03159936124
 30
0.0
 11
-189.4229525237715
 21
2871.03159936124
 31
0.0
  0
LINE
  5
7EC5
330
8290
100
AcDbEntity
  8
0
  6
ByBlock
100
AcDbLine
 10
-159.4229525237715
 20
3661.031599361241
 30
0.0
 11
-159.4229525237715
 21
2931.03159936124
 31
0.0
  0
INSERT
  5
7EC6
330
8290
100
AcDbEntity
  8
0
  6
ByBlock
100
AcDbBlockReference
  2
_OPEN
 10
-159.4229525237715
 20
3721.031599361241
 30
0.0
 41
60.0
 42
60.0
 43
60.0
 50
90.0
  0
INSERT
  5
7EC7
330
8290
100
AcDbEntity
  8
0
  6
ByBlock
100
AcDbBlockReference
  2
_OPEN
 10
-159.4229525237715
 20
2871.03159936124
 30
0.0
 41
60.0
 42
60.0
 43
60.0
 50
270.0
  0
TEXT
  5
7EC8
330
8290
100
AcDbEntity
  8
3
100
AcDbText
 10
-174.4229525237715
 20
3180.317313646954
 30
0.0
 40
90.0
  1
850
 50
90.0
100
AcDbText
  0
POINT
  5
7EC9
330
8290
100
AcDbEntity
  8
DEFPOINTS
  6
ByBlock
 62
     0
100
AcDbPoint
 10
62.62511497683954
 20
3721.031599361241
 30
0.0
  0
POINT
  5
7ECA
330
8290
100
AcDbEntity
  8
DEFPOINTS
  6
ByBlock
 62
     0
100
AcDbPoint
 10
62.62511497683954
 20
2871.03159936124
 30
0.0
  0
POINT
  5
7ECB
330
8290
100
AcDbEntity
  8
DEFPOINTS
  6
ByBlock
 62
     0
100
AcDbPoint
 10
-159.4229525237715
 20
2871.03159936124
 30
0.0
  0
ENDBLK
  5
7ECC
330
8290
100
AcDbEntity
  8
0
100
AcDbBlockEnd
  0
BLOCK
  5
8293
330
8292
100
AcDbEntity
  8
0
100
AcDbBlockBegin
  2
*D12
 70
     1
 10
0.0
 20
0.0
 30
0.0
  3
*D12
  1

  0
LINE
  5
7ECE
330
8292
100
AcDbEntity
  8
0
  6
ByBlock
100
AcDbLine
 10
2142.625114976839
 20
4376.031599361239
 30
0.0
 11
2541.269252985774
 21
4376.031599361239
 31
0.0
  0
LINE
  5
7ECF
330
8292
100
AcDbEntity
  8
0
  6
ByBlock
100
AcDbLine
 10
2142.625114976839
 20
2871.031599361238
 30
0.0
 11
2541.269252985774
 21
2871.031599361238
 31
0.0
  0
LINE
  5
7ED0
330
8292
100
AcDbEntity
  8
0
  6
ByBlock
100
AcDbLine
 10
2511.269252985774
 20
4316.031599361237
 30
0.0
 11
2511.269252985774
 21
2931.031599361238
 31
0.0
  0
INSERT
  5
7ED1
330
8292
100
AcDbEntity
  8
0
  6
ByBlock
100
AcDbBlockReference
  2
_OPEN
 10
2511.269252985774
 20
4376.031599361239
 30
0.0
 41
60.0
 42
60.0
 43
60.0
 50
90.0
  0
INSERT
  5
7ED2
330
8292
100
AcDbEntity
  8
0
  6
ByBlock
100
AcDbBlockReference
  2
_OPEN
 10
2511.269252985774
 20
2871.031599361238
 30
0.0
 41
60.0
 42
60.0
 43
60.0
 50
270.0
  0
TEXT
  5
7ED3
330
8292
100
AcDbEntity
  8
3
100
AcDbText
 10
2496.269252985774
 20
3473.531599361239
 30
0.0
 40
90.0
  1
1505
 50
90.0
100
AcDbText
  0
POINT
  5
7ED4
330
8292
100
AcDbEntity
  8
DEFPOINTS
  6
ByBlock
 62
     0
100
AcDbPoint
 10
2112.625114976839
 20
4376.031599361239
 30
0.0
  0
POINT
  5
7ED5
330
8292
100
AcDbEntity
  8
DEFPOINTS
  6
ByBlock
 62
     0
100
AcDbPoint
 10
2112.625114976839
 20
2871.031599361238
 30
0.0
  0
POINT
  5
7ED6
330
8292
100
AcDbEntity
  8
DEFPOINTS
  6
ByBlock
 62
     0
100
AcDbPoint
 10
2511.269252985774
 20
2871.031599361238
 30
0.0
  0
ENDBLK
  5
7ED7
330
8292
100
AcDbEntity
  8
0
100
AcDbBlockEnd
  0
BLOCK
  5
8295
330
8294
100
AcDbEntity
  8
0
100
AcDbBlockBegin
  2
*D13
 70
     1
 10
0.0
 20
0.0
 30
0.0
  3
*D13
  1

  0
LINE
  5
8059
330
8294
100
AcDbEntity
  8
0
  6
ByBlock
100
AcDbLine
 10
3793.292027154091
 20
3248.588409321162
 30
0.0
 11
3793.292027154091
 21
4496.111043789638
 31
0.0
  0
LINE
  5
805A
330
8294
100
AcDbEntity
  8
0
  6
ByBlock
100
AcDbLine
 10
4760.792027154096
 20
4433.056541435838
 30
0.0
 11
4760.792027154096
 21
4496.111043789638
 31
0.0
  0
LINE
  5
805B
330
8294
100
AcDbEntity
  8
0
  6
ByBlock
100
AcDbLine
 10
3853.292027154092
 20
4466.11104378964
 30
0.0
 11
4700.792027154096
 21
4466.11104378964
 31
0.0
  0
INSERT
  5
805C
330
8294
100
AcDbEntity
  8
0
  6
ByBlock
100
AcDbBlockReference
  2
_OPEN
 10
3793.292027154091
 20
4466.11104378964
 30
0.0
 41
60.0
 42
60.0
 43
60.0
 50
180.0
  0
INSERT
  5
805D
330
8294
100
AcDbEntity
  8
0
  6
ByBlock
100
AcDbBlockReference
  2
_OPEN
 10
4760.792027154096
 20
4466.11104378964
 30
0.0
 41
60.0
 42
60.0
 43
60.0
  0
INSERT
  5
805E
330
8294
100
AcDbEntity
  8
3
100
AcDbBlockReference
  2
*U14
 10
0.0
 20
0.0
 30
0.0
  0
POINT
  5
805F
330
8294
100
AcDbEntity
  8
DEFPOINTS
  6
ByBlock
 62
     0
100
AcDbPoint
 10
3793.292027154091
 20
3218.588409321163
 30
0.0
  0
POINT
  5
8060
330
8294
100
AcDbEntity
  8
DEFPOINTS
  6
ByBlock
 62
     0
100
AcDbPoint
 10
4760.792027154096
 20
4403.056541435839
 30
0.0
  0
POINT
  5
8061
330
8294
100
AcDbEntity
  8
DEFPOINTS
  6
ByBlock
 62
     0
100
AcDbPoint
 10
4760.792027154096
 20
4466.11104378964
 30
0.0
  0
ENDBLK
  5
8062
330
8294
100
AcDbEntity
  8
0
100
AcDbBlockEnd
  0
BLOCK
  5
82B3
330
8296
100
AcDbEntity
  8
0
100
AcDbBlockBegin
  2
*U14
 70
     1
 10
0.0
 20
0.0
 30
0.0
  3
*U14
  1

  0
TEXT
  5
81F6
330
8296
100
AcDbEntity
  8
3
100
AcDbText
 10
4148.470598582664
 20
4631.11104378964
 30
0.0
 40
90.0
  1
MAX
100
AcDbText
  0
TEXT
  5
81F7
330
8296
100
AcDbEntity
  8
3
100
AcDbText
 10
4127.042027154093
 20
4481.111043789637
 30
0.0
 40
90.0
  1
1020
100
AcDbText
  0
ENDBLK
  5
81F9
330
8296
100
AcDbEntity
  8
0
100
AcDbBlockEnd
  0
BLOCK
  5
8298
330
8297
100
AcDbEntity
  8
0
100
AcDbBlockBegin
  2
*D15
 70
     1
 10
0.0
 20
0.0
 30
0.0
  3
*D15
  1

  0
LINE
  5
80C7
330
8297
100
AcDbEntity
  8
0
  6
ByBlock
100
AcDbLine
 10
4760.792027154096
 20
4433.056541435838
 30
0.0
 11
4760.792027154096
 21
4496.111043789638
 31
0.0
  0
LINE
  5
80C8
330
8297
100
AcDbEntity
  8
0
  6
ByBlock
100
AcDbLine
 10
5528.7920271541
 20
2932.788409321163
 30
0.0
 11
5528.7920271541
 21
4496.111043789638
 31
0.0
  0
LINE
  5
80C9
330
8297
100
AcDbEntity
  8
0
  6
ByBlock
100
AcDbLine
 10
4820.792027154096
 20
4466.11104378964
 30
0.0
 11
5468.792027154098
 21
4466.11104378964
 31
0.0
  0
INSERT
  5
80CA
330
8297
100
AcDbEntity
  8
0
  6
ByBlock
100
AcDbBlockReference
  2
_OPEN
 10
4760.792027154096
 20
4466.11104378964
 30
0.0
 41
60.0
 42
60.0
 43
60.0
 50
180.0
  0
INSERT
  5
80CB
330
8297
100
AcDbEntity
  8
0
  6
ByBlock
100
AcDbBlockReference
  2
_OPEN
 10
5528.7920271541
 20
4466.11104378964
 30
0.0
 41
60.0
 42
60.0
 43
60.0
  0
TEXT
  5
80CC
330
8297
100
AcDbEntity
  8
3
100
AcDbText
 10
4971.220598582671
 20
4519.682472361068
 30
0.0
 40
90.0
  1
(780)
100
AcDbText
  0
POINT
  5
80CD
330
8297
100
AcDbEntity
  8
DEFPOINTS
  6
ByBlock
 62
     0
100
AcDbPoint
 10
4760.792027154096
 20
4403.056541435839
 30
0.0
  0
POINT
  5
80CE
330
8297
100
AcDbEntity
  8
DEFPOINTS
  6
ByBlock
 62
     0
100
AcDbPoint
 10
5528.7920271541
 20
2902.788409321163
 30
0.0
  0
POINT
  5
80CF
330
8297
100
AcDbEntity
  8
DEFPOINTS
  6
ByBlock
 62
     0
100
AcDbPoint
 10
5528.7920271541
 20
4466.11104378964
 30
0.0
  0
ENDBLK
  5
80D0
330
8297
100
AcDbEntity
  8
0
100
AcDbBlockEnd
  0
BLOCK
  5
829A
330
8299
100
AcDbEntity
  8
0
100
AcDbBlockBegin
  2
*D16
 70
     1
 10
0.0
 20
0.0
 30
0.0
  3
*D16
  1

  0
LINE
  5
7EEF
330
8299
100
AcDbEntity
  8
0
  6
ByBlock
100
AcDbLine
 10
4259.104621073492
 20
1706.374620489382
 30
0.0
 11
4259.104621073492
 21
1986.055054257675
 31
0.0
  0
LINE
  5
7EF0
330
8299
100
AcDbEntity
  8
0
  6
ByBlock
100
AcDbLine
 10
5509.104621073492
 20
1703.096068293924
 30
0.0
 11
5509.104621073492
 21
1986.055054257675
 31
0.0
  0
LINE
  5
7EF1
330
8299
100
AcDbEntity
  8
0
  6
ByBlock
100
AcDbLine
 10
4319.104621073492
 20
1956.055054257674
 30
0.0
 11
5449.104621073495
 21
1956.055054257674
 31
0.0
  0
INSERT
  5
7EF2
330
8299
100
AcDbEntity
  8
0
  6
ByBlock
100
AcDbBlockReference
  2
_OPEN
 10
4259.104621073492
 20
1956.055054257674
 30
0.0
 41
60.0
 42
60.0
 43
60.0
 50
180.0
  0
INSERT
  5
7EF3
330
8299
100
AcDbEntity
  8
0
  6
ByBlock
100
AcDbBlockReference
  2
_OPEN
 10
5509.104621073492
 20
1956.055054257674
 30
0.0
 41
60.0
 42
60.0
 43
60.0
  0
TEXT
  5
7EF4
330
8299
100
AcDbEntity
  8
3
100
AcDbText
 10
4734.104621073493
 20
1971.055054257674
 30
0.0
 40
90.0
  1
1250
100
AcDbText
  0
POINT
  5
7EF5
330
8299
100
AcDbEntity
  8
DEFPOINTS
  6
ByBlock
 62
     0
100
AcDbPoint
 10
4259.104621073492
 20
1676.374620489382
 30
0.0
  0
POINT
  5
7EF6
330
8299
100
AcDbEntity
  8
DEFPOINTS
  6
ByBlock
 62
     0
100
AcDbPoint
 10
5509.104621073492
 20
1673.096068293924
 30
0.0
  0
POINT
  5
7EF7
330
8299
100
AcDbEntity
  8
DEFPOINTS
  6
ByBlock
 62
     0
100
AcDbPoint
 10
5509.104621073492
 20
1956.055054257674
 30
0.0
  0
ENDBLK
  5
7EF8
330
8299
100
AcDbEntity
  8
0
100
AcDbBlockEnd
  0
BLOCK
  5
829C
330
829B
100
AcDbEntity
  8
0
100
AcDbBlockBegin
  2
*D17
 70
     1
 10
0.0
 20
0.0
 30
0.0
  3
*D17
  1

  0
LINE
  5
7EFA
330
829B
100
AcDbEntity
  8
0
  6
ByBlock
100
AcDbLine
 10
5544.604621073492
 20
98.06030283574637
 30
0.0
 11
5883.472841444802
 21
98.06030283574637
 31
0.0
  0
LINE
  5
7EFB
330
829B
100
AcDbEntity
  8
0
  6
ByBlock
100
AcDbLine
 10
5544.604621073492
 20
1158.060302835746
 30
0.0
 11
5883.472841444802
 21
1158.060302835746
 31
0.0
  0
LINE
  5
7EFC
330
829B
100
AcDbEntity
  8
0
  6
ByBlock
100
AcDbLine
 10
5853.472841444804
 20
158.0603028357463
 30
0.0
 11
5853.472841444804
 21
1098.060302835746
 31
0.0
  0
INSERT
  5
7EFD
330
829B
100
AcDbEntity
  8
0
  6
ByBlock
100
AcDbBlockReference
  2
_OPEN
 10
5853.472841444804
 20
98.06030283574637
 30
0.0
 41
60.0
 42
60.0
 43
60.0
 50
270.0
  0
INSERT
  5
7EFE
330
829B
100
AcDbEntity
  8
0
  6
ByBlock
100
AcDbBlockReference
  2
_OPEN
 10
5853.472841444804
 20
1158.060302835746
 30
0.0
 41
60.0
 42
60.0
 43
60.0
 50
90.0
  0
TEXT
  5
7EFF
330
829B
100
AcDbEntity
  8
3
100
AcDbText
 10
5838.472841444802
 20
433.0603028357463
 30
0.0
 40
90.0
  1
\U+03C61060
 50
90.0
100
AcDbText
  0
POINT
  5
7F00
330
829B
100
AcDbEntity
  8
DEFPOINTS
  6
ByBlock
 62
     0
100
AcDbPoint
 10
5514.604621073492
 20
98.06030283574637
 30
0.0
  0
POINT
  5
7F01
330
829B
100
AcDbEntity
  8
DEFPOINTS
  6
ByBlock
 62
     0
100
AcDbPoint
 10
5514.604621073492
 20
1158.060302835746
 30
0.0
  0
POINT
  5
7F02
330
829B
100
AcDbEntity
  8
DEFPOINTS
  6
ByBlock
 62
     0
100
AcDbPoint
 10
5853.472841444804
 20
1158.060302835746
 30
0.0
  0
ENDBLK
  5
7F03
330
829B
100
AcDbEntity
  8
0
100
AcDbBlockEnd
  0
BLOCK
  5
829E
330
829D
100
AcDbEntity
  8
0
100
AcDbBlockBegin
  2
*D18
 70
     1
 10
0.0
 20
0.0
 30
0.0
  3
*D18
  1

  0
LINE
  5
7F2A
330
829D
100
AcDbEntity
  8
0
  6
ByBlock
100
AcDbLine
 10
2167.625114976839
 20
1785.060302835745
 30
0.0
 11
2167.625114976839
 21
2165.221479554626
 31
0.0
  0
LINE
  5
7F2B
330
829D
100
AcDbEntity
  8
0
  6
ByBlock
100
AcDbLine
 10
62.62511497683954
 20
8.060302835745584
 30
0.0
 11
62.62511497683954
 21
2165.221479554626
 31
0.0
  0
LINE
  5
7F2C
330
829D
100
AcDbEntity
  8
0
  6
ByBlock
100
AcDbLine
 10
2107.625114976839
 20
2135.221479554626
 30
0.0
 11
122.6251149768395
 21
2135.221479554626
 31
0.0
  0
INSERT
  5
7F2D
330
829D
100
AcDbEntity
  8
0
  6
ByBlock
100
AcDbBlockReference
  2
_OPEN
 10
2167.625114976839
 20
2135.221479554626
 30
0.0
 41
60.0
 42
60.0
 43
60.0
  0
INSERT
  5
7F2E
330
829D
100
AcDbEntity
  8
0
  6
ByBlock
100
AcDbBlockReference
  2
_OPEN
 10
62.62511497683954
 20
2135.221479554626
 30
0.0
 41
60.0
 42
60.0
 43
60.0
 50
180.0
  0
TEXT
  5
7F2F
330
829D
100
AcDbEntity
  8
3
100
AcDbText
 10
965.1251149768397
 20
2150.221479554626
 30
0.0
 40
90.0
  1
2105
100
AcDbText
  0
POINT
  5
7F30
330
829D
100
AcDbEntity
  8
DEFPOINTS
  6
ByBlock
 62
     0
100
AcDbPoint
 10
2167.625114976839
 20
1755.060302835746
 30
0.0
  0
POINT
  5
7F31
330
829D
100
AcDbEntity
  8
DEFPOINTS
  6
ByBlock
 62
     0
100
AcDbPoint
 10
62.62511497683954
 20
-21.93969716425441
 30
0.0
  0
POINT
  5
7F32
330
829D
100
AcDbEntity
  8
DEFPOINTS
  6
ByBlock
 62
     0
100
AcDbPoint
 10
62.62511497683954
 20
2135.221479554626
 30
0.0
  0
ENDBLK
  5
7F33
330
829D
100
AcDbEntity
  8
0
100
AcDbBlockEnd
  0
BLOCK
  5
82A0
330
829F
100
AcDbEntity
  8
0
100
AcDbBlockBegin
  2
*D19
 70
     1
 10
0.0
 20
0.0
 30
0.0
  3
*D19
  1

  0
LINE
  5
7F35
330
829F
100
AcDbEntity
  8
0
  6
ByBlock
100
AcDbLine
 10
862.6251149768394
 20
4406.031599361241
 30
0.0
 11
862.6251149768394
 21
4627.335536588958
 31
0.0
  0
LINE
  5
7F36
330
829F
100
AcDbEntity
  8
0
  6
ByBlock
100
AcDbLine
 10
62.62511497683954
 20
3751.03159936124
 30
0.0
 11
62.62511497683954
 21
4627.335536588958
 31
0.0
  0
LINE
  5
7F37
330
829F
100
AcDbEntity
  8
0
  6
ByBlock
100
AcDbLine
 10
802.6251149768395
 20
4597.335536588958
 30
0.0
 11
122.6251149768395
 21
4597.335536588958
 31
0.0
  0
INSERT
  5
7F38
330
829F
100
AcDbEntity
  8
0
  6
ByBlock
100
AcDbBlockReference
  2
_OPEN
 10
862.6251149768394
 20
4597.335536588958
 30
0.0
 41
60.0
 42
60.0
 43
60.0
  0
INSERT
  5
7F39
330
829F
100
AcDbEntity
  8
0
  6
ByBlock
100
AcDbBlockReference
  2
_OPEN
 10
62.62511497683954
 20
4597.335536588958
 30
0.0
 41
60.0
 42
60.0
 43
60.0
 50
180.0
  0
TEXT
  5
7F3A
330
829F
100
AcDbEntity
  8
3
100
AcDbText
 10
346.9108292625538
 20
4612.335536588958
 30
0.0
 40
90.0
  1
800
100
AcDbText
  0
POINT
  5
7F3B
330
829F
100
AcDbEntity
  8
DEFPOINTS
  6
ByBlock
 62
     0
100
AcDbPoint
 10
862.6251149768394
 20
4376.031599361239
 30
0.0
  0
POINT
  5
7F3C
330
829F
100
AcDbEntity
  8
DEFPOINTS
  6
ByBlock
 62
     0
100
AcDbPoint
 10
62.62511497683954
 20
3721.031599361241
 30
0.0
  0
POINT
  5
7F3D
330
829F
100
AcDbEntity
  8
DEFPOINTS
  6
ByBlock
 62
     0
100
AcDbPoint
 10
62.62511497683954
 20
4597.335536588958
 30
0.0
  0
ENDBLK
  5
7F3E
330
829F
100
AcDbEntity
  8
0
100
AcDbBlockEnd
  0
BLOCK
  5
82A2
330
82A1
100
AcDbEntity
  8
0
100
AcDbBlockBegin
  2
*D20
 70
     1
 10
0.0
 20
0.0
 30
0.0
  3
*D20
  1

  0
LINE
  5
81E7
330
82A1
100
AcDbEntity
  8
3
 62
     0
100
AcDbLine
 10
2907.267263770179
 20
2073.588409321164
 30
0.0
 11
3379.229406223476
 21
2073.588409321164
 31
0.0
  0
LINE
  5
81E8
330
82A1
100
AcDbEntity
  8
3
 62
     0
100
AcDbLine
 10
2907.267263770179
 20
1973.588409321164
 30
0.0
 11
3379.229406223476
 21
1973.588409321164
 31
0.0
  0
LINE
  5
81E9
330
82A1
100
AcDbEntity
  8
3
 62
     0
100
AcDbLine
 10
3349.229406223476
 20
2133.588409321164
 30
0.0
 11
3349.229406223476
 21
2193.588409321164
 31
0.0
  0
LINE
  5
81EA
330
82A1
100
AcDbEntity
  8
3
 62
     0
100
AcDbLine
 10
3349.229406223476
 20
1913.588409321164
 30
0.0
 11
3349.229406223476
 21
1579.30269503545
 31
0.0
  0
LINE
  5
81EB
330
82A1
100
AcDbEntity
  8
3
 62
     0
100
AcDbLine
 10
3349.229406223476
 20
2073.588409321164
 30
0.0
 11
3349.229406223476
 21
1973.588409321164
 31
0.0
  0
INSERT
  5
81EC
330
82A1
100
AcDbEntity
  8
3
 62
     0
100
AcDbBlockReference
  2
_DOT
 10
3349.229406223476
 20
2073.588409321164
 30
0.0
 41
60.0
 42
60.0
 43
60.0
 50
270.0
  0
INSERT
  5
81ED
330
82A1
100
AcDbEntity
  8
3
 62
     0
100
AcDbBlockReference
  2
_OPEN
 10
3349.229406223476
 20
1973.588409321164
 30
0.0
 41
60.0
 42
60.0
 43
60.0
 50
90.0
  0
TEXT
  5
81FB
330
82A1
100
AcDbEntity
  8
3
 62
     0
100
AcDbText
 10
3094.23
 20
1557.15
 30
0.0
 40
90.0
  1
100
100
AcDbText
  0
POINT
  5
81EF
330
82A1
100
AcDbEntity
  8
DEFPOINTS
 62
     0
100
AcDbPoint
 10
2892.267263770179
 20
2073.588409321164
 30
0.0
  0
POINT
  5
81F0
330
82A1
100
AcDbEntity
  8
DEFPOINTS
 62
     0
100
AcDbPoint
 10
2892.267263770179
 20
1973.588409321164
 30
0.0
  0
POINT
  5
81F1
330
82A1
100
AcDbEntity
  8
DEFPOINTS
 62
     0
100
AcDbPoint
 10
3349.229406223476
 20
1973.588409321164
 30
0.0
  0
ENDBLK
  5
800D
330
82A1
100
AcDbEntity
  8
0
100
AcDbBlockEnd
  0
BLOCK
  5
82A4
330
82A3
100
AcDbEntity
  8
0
100
AcDbBlockBegin
  2
_DOT
 70
     0
 10
0.0
 20
0.0
 30
0.0
  3
_DOT
  1

  0
LWPOLYLINE
  5
8010
330
82A3
100
AcDbEntity
  8
0
  6
ByBlock
 62
     0
100
AcDbPolyline
 90
        2
 70
     1
 43
0.25
 10
-0.125
 20
0.0
 42
1.0
 10
0.125
 20
0.0
 42
1.0
  0
LINE
  5
8014
330
82A3
100
AcDbEntity
  8
0
  6
ByBlock
 62
     0
100
AcDbLine
 10
-0.25
 20
0.0
 30
0.0
 11
-1.0
 21
0.0
 31
0.0
  0
ENDBLK
  5
7FF3
330
82A3
100
AcDbEntity
  8
0
100
AcDbBlockEnd
  0
BLOCK
  5
82A6
330
82A5
100
AcDbEntity
  8
0
100
AcDbBlockBegin
  2
*D22
 70
     1
 10
0.0
 20
0.0
 30
0.0
  3
*D22
  1

  0
LINE
  5
80DB
330
82A5
100
AcDbEntity
  8
0
  6
ByBlock
 62
     0
100
AcDbLine
 10
842.2672637701799
 20
2031.588409321164
 30
0.0
 11
842.2672637701799
 21
1800.447614116535
 31
0.0
  0
LINE
  5
80DC
330
82A5
100
AcDbEntity
  8
0
  6
ByBlock
 62
     0
100
AcDbLine
 10
2267.267263770178
 20
2031.588409321164
 30
0.0
 11
2267.267263770178
 21
1800.447614116535
 31
0.0
  0
LINE
  5
80DD
330
82A5
100
AcDbEntity
  8
0
  6
ByBlock
 62
     0
100
AcDbLine
 10
902.2672637701798
 20
1830.447614116535
 30
0.0
 11
2207.267263770178
 21
1830.447614116535
 31
0.0
  0
INSERT
  5
80DE
330
82A5
100
AcDbEntity
  8
0
  6
ByBlock
 62
     0
100
AcDbBlockReference
  2
_OPEN
 10
842.2672637701799
 20
1830.447614116535
 30
0.0
 41
60.0
 42
60.0
 43
60.0
 50
180.0
  0
INSERT
  5
80DF
330
82A5
100
AcDbEntity
  8
0
  6
ByBlock
 62
     0
100
AcDbBlockReference
  2
_OPEN
 10
2267.267263770178
 20
1830.447614116535
 30
0.0
 41
60.0
 42
60.0
 43
60.0
  0
TEXT
  5
80E0
330
82A5
100
AcDbEntity
  8
3
 62
     0
100
AcDbText
 10
1404.767263770179
 20
1860.447614116536
 30
0.0
 40
90.0
  1
1425
100
AcDbText
  0
POINT
  5
80E1
330
82A5
100
AcDbEntity
  8
DEFPOINTS
  6
ByBlock
 62
     0
100
AcDbPoint
 10
842.2672637701799
 20
2061.588409321164
 30
0.0
  0
POINT
  5
80E2
330
82A5
100
AcDbEntity
  8
DEFPOINTS
  6
ByBlock
 62
     0
100
AcDbPoint
 10
2267.267263770178
 20
2061.588409321164
 30
0.0
  0
POINT
  5
80E3
330
82A5
100
AcDbEntity
  8
DEFPOINTS
  6
ByBlock
 62
     0
100
AcDbPoint
 10
2267.267263770178
 20
1830.447614116535
 30
0.0
  0
ENDBLK
  5
80E4
330
82A5
100
AcDbEntity
  8
0
100
AcDbBlockEnd
  0
BLOCK
  5
82A8
330
82A7
100
AcDbEntity
  8
0
100
AcDbBlockBegin
  2
*D23
 70
     1
 10
0.0
 20
0.0
 30
0.0
  3
*D23
  1

  0
LINE
  5
80E8
330
82A7
100
AcDbEntity
  8
0
  6
ByBlock
 62
     0
100
AcDbLine
 10
2267.267263770178
 20
2031.588409321164
 30
0.0
 11
2267.267263770178
 21
1800.447614116535
 31
0.0
  0
LINE
  5
80E9
330
82A7
100
AcDbEntity
  8
0
  6
ByBlock
 62
     0
100
AcDbLine
 10
2892.267263770179
 20
2031.588409321164
 30
0.0
 11
2892.267263770179
 21
1800.447614116535
 31
0.0
  0
LINE
  5
80EA
330
82A7
100
AcDbEntity
  8
0
  6
ByBlock
 62
     0
100
AcDbLine
 10
2327.267263770178
 20
1830.447614116535
 30
0.0
 11
2832.26726377018
 21
1830.447614116535
 31
0.0
  0
INSERT
  5
80EB
330
82A7
100
AcDbEntity
  8
0
  6
ByBlock
 62
     0
100
AcDbBlockReference
  2
_OPEN
 10
2267.267263770178
 20
1830.447614116535
 30
0.0
 41
60.0
 42
60.0
 43
60.0
 50
180.0
  0
INSERT
  5
80EC
330
82A7
100
AcDbEntity
  8
0
  6
ByBlock
 62
     0
100
AcDbBlockReference
  2
_OPEN
 10
2892.267263770179
 20
1830.447614116535
 30
0.0
 41
60.0
 42
60.0
 43
60.0
  0
TEXT
  5
80ED
330
82A7
100
AcDbEntity
  8
3
 62
     0
100
AcDbText
 10
2464.052978055893
 20
1860.447614116536
 30
0.0
 40
90.0
  1
625
100
AcDbText
  0
POINT
  5
80EE
330
82A7
100
AcDbEntity
  8
DEFPOINTS
  6
ByBlock
 62
     0
100
AcDbPoint
 10
2267.267263770178
 20
2061.588409321164
 30
0.0
  0
POINT
  5
80EF
330
82A7
100
AcDbEntity
  8
DEFPOINTS
  6
ByBlock
 62
     0
100
AcDbPoint
 10
2892.267263770179
 20
2061.588409321164
 30
0.0
  0
POINT
  5
80F0
330
82A7
100
AcDbEntity
  8
DEFPOINTS
  6
ByBlock
 62
     0
100
AcDbPoint
 10
2892.267263770179
 20
1830.447614116535
 30
0.0
  0
ENDBLK
  5
80F1
330
82A7
100
AcDbEntity
  8
0
100
AcDbBlockEnd
  0
BLOCK
  5
82AA
330
82A9
100
AcDbEntity
  8
0
100
AcDbBlockBegin
  2
*D24
 70
     1
 10
0.0
 20
0.0
 30
0.0
  3
*D24
  1

  0
LINE
  5
80F5
330
82A9
100
AcDbEntity
  8
0
  6
ByBlock
 62
     0
100
AcDbLine
 10
3933.792027154098
 20
2031.588409321163
 30
0.0
 11
3933.792027154098
 21
1800.447614116535
 31
0.0
  0
LINE
  5
80F6
330
82A9
100
AcDbEntity
  8
0
  6
ByBlock
 62
     0
100
AcDbLine
 10
4760.792027154096
 20
2031.588409321163
 30
0.0
 11
4760.792027154096
 21
1800.447614116535
 31
0.0
  0
LINE
  5
80F7
330
82A9
100
AcDbEntity
  8
0
  6
ByBlock
 62
     0
100
AcDbLine
 10
3993.792027154096
 20
1830.447614116535
 30
0.0
 11
4700.792027154096
 21
1830.447614116535
 31
0.0
  0
INSERT
  5
80F8
330
82A9
100
AcDbEntity
  8
0
  6
ByBlock
 62
     0
100
AcDbBlockReference
  2
_OPEN
 10
3933.792027154098
 20
1830.447614116535
 30
0.0
 41
60.0
 42
60.0
 43
60.0
 50
180.0
  0
INSERT
  5
80F9
330
82A9
100
AcDbEntity
  8
0
  6
ByBlock
 62
     0
100
AcDbBlockReference
  2
_OPEN
 10
4760.792027154096
 20
1830.447614116535
 30
0.0
 41
60.0
 42
60.0
 43
60.0
  0
TEXT
  5
80FA
330
82A9
100
AcDbEntity
  8
3
 62
     0
100
AcDbText
 10
4231.577741439812
 20
1860.447614116536
 30
0.0
 40
90.0
  1
827
100
AcDbText
  0
POINT
  5
80FB
330
82A9
100
AcDbEntity
  8
DEFPOINTS
  6
ByBlock
 62
     0
100
AcDbPoint
 10
3933.792027154098
 20
2061.588409321163
 30
0.0
  0
POINT
  5
80FC
330
82A9
100
AcDbEntity
  8
DEFPOINTS
  6
ByBlock
 62
     0
100
AcDbPoint
 10
4760.792027154096
 20
2061.588409321163
 30
0.0
  0
POINT
  5
80FD
330
82A9
100
AcDbEntity
  8
DEFPOINTS
  6
ByBlock
 62
     0
100
AcDbPoint
 10
4760.792027154096
 20
1830.447614116535
 30
0.0
  0
ENDBLK
  5
80FE
330
82A9
100
AcDbEntity
  8
0
100
AcDbBlockEnd
  0
BLOCK
  5
82AC
330
82AB
100
AcDbEntity
  8
0
100
AcDbBlockBegin
  2
*D25
 70
     1
 10
0.0
 20
0.0
 30
0.0
  3
*D25
  1

  0
LINE
  5
8102
330
82AB
100
AcDbEntity
  8
0
  6
ByBlock
 62
     0
100
AcDbLine
 10
4760.792027154096
 20
2031.588409321163
 30
0.0
 11
4760.792027154096
 21
1800.447614116535
 31
0.0
  0
LINE
  5
8103
330
82AB
100
AcDbEntity
  8
0
  6
ByBlock
 62
     0
100
AcDbLine
 10
5438.792027154097
 20
2031.588409321163
 30
0.0
 11
5438.792027154097
 21
1800.447614116535
 31
0.0
  0
LINE
  5
8104
330
82AB
100
AcDbEntity
  8
0
  6
ByBlock
 62
     0
100
AcDbLine
 10
4820.792027154096
 20
1830.447614116535
 30
0.0
 11
5378.792027154098
 21
1830.447614116535
 31
0.0
  0
INSERT
  5
8105
330
82AB
100
AcDbEntity
  8
0
  6
ByBlock
 62
     0
100
AcDbBlockReference
  2
_OPEN
 10
4760.792027154096
 20
1830.447614116535
 30
0.0
 41
60.0
 42
60.0
 43
60.0
 50
180.0
  0
INSERT
  5
8106
330
82AB
100
AcDbEntity
  8
0
  6
ByBlock
 62
     0
100
AcDbBlockReference
  2
_OPEN
 10
5438.792027154097
 20
1830.447614116535
 30
0.0
 41
60.0
 42
60.0
 43
60.0
  0
TEXT
  5
8107
330
82AB
100
AcDbEntity
  8
3
 62
     0
100
AcDbText
 10
4984.07774143981
 20
1860.447614116536
 30
0.0
 40
90.0
  1
678
100
AcDbText
  0
POINT
  5
8108
330
82AB
100
AcDbEntity
  8
DEFPOINTS
  6
ByBlock
 62
     0
100
AcDbPoint
 10
4760.792027154096
 20
2061.588409321163
 30
0.0
  0
POINT
  5
8109
330
82AB
100
AcDbEntity
  8
DEFPOINTS
  6
ByBlock
 62
     0
100
AcDbPoint
 10
5438.792027154097
 20
2061.588409321163
 30
0.0
  0
POINT
  5
810A
330
82AB
100
AcDbEntity
  8
DEFPOINTS
  6
ByBlock
 62
     0
100
AcDbPoint
 10
5438.792027154097
 20
1830.447614116535
 30
0.0
  0
ENDBLK
  5
810B
330
82AB
100
AcDbEntity
  8
0
100
AcDbBlockEnd
  0
BLOCK
  5
82AE
330
82AD
100
AcDbEntity
  8
0
100
AcDbBlockBegin
  2
_NONE
 70
     0
 10
0.0
 20
0.0
 30
0.0
  3
_NONE
  1

  0
CIRCLE
  5
810F
330
82AD
100
AcDbEntity
  8
0
  6
ByBlock
 62
     0
100
AcDbCircle
 10
0.0
 20
0.0
 30
0.0
 40
0.25
  0
ENDBLK
  5
8110
330
82AD
100
AcDbEntity
  8
0
100
AcDbBlockEnd
  0
BLOCK
  5
82B0
330
82AF
100
AcDbEntity
  8
0
100
AcDbBlockBegin
  2
*D27
 70
     1
 10
0.0
 20
0.0
 30
0.0
  3
*D27
  1

  0
LINE
  5
816A
330
82AF
100
AcDbEntity
  8
0
  6
ByBlock
 62
     0
100
AcDbLine
 10
3346.59959683767
 20
2073.588409321164
 30
0.0
 11
3346.59959683767
 21
2188.588409321164
 31
0.0
  0
TEXT
  5
816B
330
82AF
100
AcDbEntity
  8
3
 62
     0
100
AcDbText
 10
3520.171025409098
 20
1974.659837892592
 30
0.0
 40
90.0
  1
(115)
 50
90.0
100
AcDbText
  0
POINT
  5
816C
330
82AF
100
AcDbEntity
  8
DEFPOINTS
  6
ByBlock
 62
     0
100
AcDbPoint
 10
2892.267263770179
 20
2073.588409321164
 30
0.0
  0
POINT
  5
816D
330
82AF
100
AcDbEntity
  8
DEFPOINTS
  6
ByBlock
 62
     0
100
AcDbPoint
 10
2892.267263770179
 20
2188.588409321164
 30
0.0
  0
POINT
  5
816E
330
82AF
100
AcDbEntity
  8
DEFPOINTS
  6
ByBlock
 62
     0
100
AcDbPoint
 10
3346.59959683767
 20
2188.588409321164
 30
0.0
  0
ENDBLK
  5
816F
330
82AF
100
AcDbEntity
  8
0
100
AcDbBlockEnd
  0
BLOCK
  5
82B2
330
82B1
100
AcDbEntity
  8
0
100
AcDbBlockBegin
  2
*D28
 70
     1
 10
0.0
 20
0.0
 30
0.0
  3
*D28
  1

  0
LINE
  5
8173
330
82B1
100
AcDbEntity
  8
0
  6
ByBlock
 62
     0
100
AcDbLine
 10
2922.26726377018
 20
1973.588409321164
 30
0.0
 11
3631.038781095191
 21
1973.588409321164
 31
0.0
  0
LINE
  5
8174
330
82B1
100
AcDbEntity
  8
0
  6
ByBlock
 62
     0
100
AcDbLine
 10
2977.26726377018
 20
4012.588409321161
 30
0.0
 11
3631.038781095191
 21
4012.588409321161
 31
0.0
  0
LINE
  5
8175
330
82B1
100
AcDbEntity
  8
0
  6
ByBlock
 62
     0
100
AcDbLine
 10
3601.038781095191
 20
2033.588409321164
 30
0.0
 11
3601.038781095191
 21
3952.588409321162
 31
0.0
  0
INSERT
  5
8176
330
82B1
100
AcDbEntity
  8
0
  6
ByBlock
 62
     0
100
AcDbBlockReference
  2
_OPEN
 10
3601.038781095191
 20
1973.588409321164
 30
0.0
 41
60.0
 42
60.0
 43
60.0
 50
270.0
  0
INSERT
  5
8177
330
82B1
100
AcDbEntity
  8
0
  6
ByBlock
 62
     0
100
AcDbBlockReference
  2
_OPEN
 10
3601.038781095191
 20
4012.588409321161
 30
0.0
 41
60.0
 42
60.0
 43
60.0
 50
90.0
  0
TEXT
  5
8178
330
82B1
100
AcDbEntity
  8
3
 62
     0
100
AcDbText
 10
3532.467352523762
 20
2776.659837892593
 30
0.0
 40
90.0
  1
(2039)
 50
90.0
100
AcDbText
  0
POINT
  5
8179
330
82B1
100
AcDbEntity
  8
DEFPOINTS
  6
ByBlock
 62
     0
100
AcDbPoint
 10
2892.267263770179
 20
1973.588409321164
 30
0.0
  0
POINT
  5
817A
330
82B1
100
AcDbEntity
  8
DEFPOINTS
  6
ByBlock
 62
     0
100
AcDbPoint
 10
2947.26726377018
 20
4012.588409321161
 30
0.0
  0
POINT
  5
817B
330
82B1
100
AcDbEntity
  8
DEFPOINTS
  6
ByBlock
 62
     0
100
AcDbPoint
 10
3601.038781095191
 20
4012.588409321161
 30
0.0
  0
ENDBLK
  5
817C
330
82B1
100
AcDbEntity
  8
0
100
AcDbBlockEnd
  0
BLOCK
  5
82B7
330
82B6
100
AcDbEntity
  8
0
100
AcDbBlockBegin
  2
*D29
 70
     1
 10
0.0
 20
0.0
 30
0.0
  3
*D29
  1

  0
LINE
  5
82E1
330
82B6
100
AcDbEntity
  8
3
 62
     0
370
    -2
100
AcDbLine
 10
3700.792027154091
 20
3248.588409321162
 30
0.0
 11
3700.792027154091
 21
4507.964591014304
 31
0.0
  0
LINE
  5
82E2
330
82B6
100
AcDbEntity
  8
3
 62
     0
370
    -2
100
AcDbLine
 10
4760.792027154097
 20
4401.583160743091
 30
0.0
 11
4760.792027154097
 21
4507.964591014304
 31
0.0
  0
LINE
  5
82E3
330
82B6
100
AcDbEntity
  8
3
 62
     0
370
    -2
100
AcDbLine
 10
3760.792027154091
 20
4477.964591014305
 30
0.0
 11
4700.792027154096
 21
4477.964591014305
 31
0.0
  0
INSERT
  5
82E4
330
82B6
100
AcDbEntity
  8
3
 62
     0
370
    -2
100
AcDbBlockReference
  2
_OPEN
 10
3700.792027154091
 20
4477.964591014305
 30
0.0
 41
60.0
 42
60.0
 43
60.0
 50
180.0
  0
INSERT
  5
82E5
330
82B6
100
AcDbEntity
  8
3
 62
     0
370
    -2
100
AcDbBlockReference
  2
_OPEN
 10
4760.792027154097
 20
4477.964591014305
 30
0.0
 41
60.0
 42
60.0
 43
60.0
  0
MTEXT
  5
82E6
330
82B6
100
AcDbEntity
  8
3
 62
     0
100
AcDbMText
 10
4230.792027154094
 20
4576.536019585733
 30
0.0
 40
90.0
 41
0.0
 71
     5
 72
     1
  1
\A1;(1060)
 73
     1
 44
1.0
1001
ACAD
1000
MTEXTBEGIN
1070
    73
1070
     1
1070
    44
1040
1.0
1070
    74
1070
     0
1000
MTEXTEND
  0
POINT
  5
82E7
330
82B6
100
AcDbEntity
  8
DEFPOINTS
 62
     0
100
AcDbPoint
 10
3700.792027154091
 20
3218.588409321163
 30
0.0
  0
POINT
  5
82E8
330
82B6
100
AcDbEntity
  8
DEFPOINTS
 62
     0
100
AcDbPoint
 10
4760.792027154097
 20
4371.583160743091
 30
0.0
  0
POINT
  5
82E9
330
82B6
100
AcDbEntity
  8
DEFPOINTS
 62
     0
100
AcDbPoint
 10
4760.792027154097
 20
4477.964591014305
 30
0.0
  0
ENDBLK
  5
82B8
330
82B6
100
AcDbEntity
  8
0
100
AcDbBlockEnd
  0
BLOCK
  5
82C4
330
82C3
100
AcDbEntity
  8
0
100
AcDbBlockBegin
  2
*D30
 70
     1
 10
0.0
 20
0.0
 30
0.0
  3
*D30
  1

  0
LINE
  5
82EA
330
82C3
100
AcDbEntity
  8
3
 62
     0
370
    -2
100
AcDbLine
 10
4760.792027154097
 20
4401.583160743091
 30
0.0
 11
4760.792027154097
 21
4507.964591014304
 31
0.0
  0
LINE
  5
82EB
330
82C3
100
AcDbEntity
  8
3
 62
     0
370
    -2
100
AcDbLine
 10
5540.792027154095
 20
2932.788409321163
 30
0.0
 11
5540.792027154095
 21
4507.964591014304
 31
0.0
  0
LINE
  5
82EC
330
82C3
100
AcDbEntity
  8
3
 62
     0
370
    -2
100
AcDbLine
 10
4820.792027154097
 20
4477.964591014305
 30
0.0
 11
5480.792027154095
 21
4477.964591014305
 31
0.0
  0
INSERT
  5
82ED
330
82C3
100
AcDbEntity
  8
3
 62
     0
370
    -2
100
AcDbBlockReference
  2
_OPEN
 10
4760.792027154097
 20
4477.964591014305
 30
0.0
 41
60.0
 42
60.0
 43
60.0
 50
180.0
  0
INSERT
  5
82EE
330
82C3
100
AcDbEntity
  8
3
 62
     0
370
    -2
100
AcDbBlockReference
  2
_OPEN
 10
5540.792027154095
 20
4477.964591014305
 30
0.0
 41
60.0
 42
60.0
 43
60.0
  0
MTEXT
  5
82EF
330
82C3
100
AcDbEntity
  8
3
 62
     0
100
AcDbMText
 10
5150.792027154096
 20
4576.536019585733
 30
0.0
 40
90.0
 41
0.0
 71
     5
 72
     1
  1
\A1;(780)
 73
     1
 44
1.0
1001
ACAD
1000
MTEXTBEGIN
1070
    73
1070
     1
1070
    44
1040
1.0
1070
    74
1070
     0
1000
MTEXTEND
  0
POINT
  5
82F0
330
82C3
100
AcDbEntity
  8
DEFPOINTS
 62
     0
100
AcDbPoint
 10
4760.792027154097
 20
4371.583160743091
 30
0.0
  0
POINT
  5
82F1
330
82C3
100
AcDbEntity
  8
DEFPOINTS
 62
     0
100
AcDbPoint
 10
5540.792027154095
 20
2902.788409321163
 30
0.0
  0
POINT
  5
82F2
330
82C3
100
AcDbEntity
  8
DEFPOINTS
 62
     0
100
AcDbPoint
 10
5540.792027154095
 20
4477.964591014305
 30
0.0
  0
ENDBLK
  5
82C5
330
82C3
100
AcDbEntity
  8
0
100
AcDbBlockEnd
  0
BLOCK
  5
82F4
330
82F3
100
AcDbEntity
  8
0
100
AcDbBlockBegin
  2
*D31
 70
     1
 10
0.0
 20
0.0
 30
0.0
  3
*D31
  1

  0
LINE
  5
82F6
330
82F3
100
AcDbEntity
  8
3
 62
     0
370
    -2
100
AcDbLine
 10
842.2672637701799
 20
5021.366293846766
 30
0.0
 11
842.2672637701799
 21
4609.291170020189
 31
0.0
  0
LINE
  5
82F7
330
82F3
100
AcDbEntity
  8
3
 62
     0
370
    -2
100
AcDbLine
 10
2892.267263770179
 20
5021.366293846764
 30
0.0
 11
2892.267263770179
 21
4609.291170020189
 31
0.0
  0
LINE
  5
82F8
330
82F3
100
AcDbEntity
  8
3
 62
     0
370
    -2
100
AcDbLine
 10
847.6672637701797
 20
4614.691170020189
 30
0.0
 11
1843.481549484465
 21
4614.691170020189
 31
0.0
  0
LINE
  5
82F9
330
82F3
100
AcDbEntity
  8
3
 62
     0
370
    -2
100
AcDbLine
 10
2886.867263770179
 20
4614.691170020189
 30
0.0
 11
1891.052978055893
 21
4614.691170020189
 31
0.0
  0
SOLID
  5
82FA
330
82F3
100
AcDbEntity
  8
3
 62
     0
100
AcDbTrace
 10
847.6672637701797
 20
4615.591170020189
 30
0.0
 11
847.6672637701797
 21
4613.791170020189
 31
0.0
 12
842.2672637701799
 22
4614.691170020189
 32
0.0
 13
842.2672637701799
 23
4614.691170020189
 33
0.0
  0
SOLID
  5
82FB
330
82F3
100
AcDbEntity
  8
3
 62
     0
100
AcDbTrace
 10
2886.867263770179
 20
4615.591170020189
 30
0.0
 11
2886.867263770179
 21
4613.791170020189
 31
0.0
 12
2892.267263770179
 22
4614.691170020189
 32
0.0
 13
2892.267263770179
 23
4614.691170020189
 33
0.0
  0
MTEXT
  5
82FC
330
82F3
100
AcDbEntity
  8
3
 62
     0
100
AcDbMText
 10
1867.267263770179
 20
4614.691170020189
 30
0.0
 40
5.399999999999999
 41
0.0
 71
     5
 72
     1
  1
\A1;2050.0000
 73
     1
 44
1.0
1001
ACAD
1000
MTEXTBEGIN
1070
    73
1070
     1
1070
    44
1040
1.0
1070
    74
1070
     0
1000
MTEXTEND
  0
POINT
  5
82FD
330
82F3
100
AcDbEntity
  8
DEFPOINTS
 62
     0
100
AcDbPoint
 10
842.2672637701799
 20
5023.241293846766
 30
0.0
  0
POINT
  5
82FE
330
82F3
100
AcDbEntity
  8
DEFPOINTS
 62
     0
100
AcDbPoint
 10
2892.267263770179
 20
5023.241293846764
 30
0.0
  0
POINT
  5
82FF
330
82F3
100
AcDbEntity
  8
DEFPOINTS
 62
     0
100
AcDbPoint
 10
2892.267263770179
 20
4614.691170020189
 30
0.0
  0
ENDBLK
  5
82F5
330
82F3
100
AcDbEntity
  8
0
100
AcDbBlockEnd
  0
BLOCK
  5
8301
330
8300
100
AcDbEntity
  8
0
100
AcDbBlockBegin
  2
*D32
 70
     1
 10
0.0
 20
0.0
 30
0.0
  3
*D32
  1

  0
LINE
  5
8303
330
8300
100
AcDbEntity
  8
3
 62
     0
370
    -2
100
AcDbLine
 10
842.2672637701799
 20
1953.588409321164
 30
0.0
 11
842.2672637701799
 21
1747.047614116536
 31
0.0
  0
LINE
  5
8304
330
8300
100
AcDbEntity
  8
3
 62
     0
370
    -2
100
AcDbLine
 10
2267.267263770178
 20
1953.588409321164
 30
0.0
 11
2267.267263770178
 21
1747.047614116536
 31
0.0
  0
LINE
  5
8305
330
8300
100
AcDbEntity
  8
3
 62
     0
370
    -2
100
AcDbLine
 10
847.6672637701797
 20
1752.447614116536
 30
0.0
 11
1543.067263770179
 21
1752.447614116536
 31
0.0
  0
LINE
  5
8306
330
8300
100
AcDbEntity
  8
3
 62
     0
370
    -2
100
AcDbLine
 10
2261.867263770178
 20
1752.447614116536
 30
0.0
 11
1566.467263770179
 21
1752.447614116536
 31
0.0
  0
SOLID
  5
8307
330
8300
100
AcDbEntity
  8
3
 62
     0
100
AcDbTrace
 10
847.6672637701797
 20
1753.347614116536
 30
0.0
 11
847.6672637701797
 21
1751.547614116535
 31
0.0
 12
842.2672637701799
 22
1752.447614116536
 32
0.0
 13
842.2672637701799
 23
1752.447614116536
 33
0.0
  0
SOLID
  5
8308
330
8300
100
AcDbEntity
  8
3
 62
     0
100
AcDbTrace
 10
2261.867263770178
 20
1753.347614116536
 30
0.0
 11
2261.867263770178
 21
1751.547614116535
 31
0.0
 12
2267.267263770178
 22
1752.447614116536
 32
0.0
 13
2267.267263770178
 23
1752.447614116536
 33
0.0
  0
MTEXT
  5
8309
330
8300
100
AcDbEntity
  8
3
 62
     0
100
AcDbMText
 10
1554.767263770179
 20
1752.447614116536
 30
0.0
 40
5.399999999999999
 41
0.0
 71
     5
 72
     1
  1
\A1;1425
 73
     1
 44
1.0
1001
ACAD
1000
MTEXTBEGIN
1070
    73
1070
     1
1070
    44
1040
1.0
1070
    74
1070
     0
1000
MTEXTEND
  0
POINT
  5
830A
330
8300
100
AcDbEntity
  8
DEFPOINTS
 62
     0
100
AcDbPoint
 10
842.2672637701799
 20
1983.588409321164
 30
0.0
  0
POINT
  5
830B
330
8300
100
AcDbEntity
  8
DEFPOINTS
 62
     0
100
AcDbPoint
 10
2267.267263770178
 20
1983.588409321164
 30
0.0
  0
POINT
  5
830C
330
8300
100
AcDbEntity
  8
DEFPOINTS
 62
     0
100
AcDbPoint
 10
2267.267263770178
 20
1752.447614116536
 30
0.0
  0
ENDBLK
  5
8302
330
8300
100
AcDbEntity
  8
0
100
AcDbBlockEnd
  0
BLOCK
  5
830E
330
830D
100
AcDbEntity
  8
0
100
AcDbBlockBegin
  2
*D33
 70
     1
 10
0.0
 20
0.0
 30
0.0
  3
*D33
  1

  0
LINE
  5
8310
330
830D
100
AcDbEntity
  8
3
 62
     0
370
    -2
100
AcDbLine
 10
2267.267263770178
 20
1953.588409321164
 30
0.0
 11
2267.267263770178
 21
1747.047614116536
 31
0.0
  0
LINE
  5
8311
330
830D
100
AcDbEntity
  8
3
 62
     0
370
    -2
100
AcDbLine
 10
2892.267263770179
 20
1953.588409321164
 30
0.0
 11
2892.267263770179
 21
1747.047614116536
 31
0.0
  0
LINE
  5
8312
330
830D
100
AcDbEntity
  8
3
 62
     0
370
    -2
100
AcDbLine
 10
2272.667263770178
 20
1752.447614116536
 30
0.0
 11
2570.124406627321
 21
1752.447614116536
 31
0.0
  0
LINE
  5
8313
330
830D
100
AcDbEntity
  8
3
 62
     0
370
    -2
100
AcDbLine
 10
2886.867263770179
 20
1752.447614116536
 30
0.0
 11
2589.410120913036
 21
1752.447614116536
 31
0.0
  0
SOLID
  5
8314
330
830D
100
AcDbEntity
  8
3
 62
     0
100
AcDbTrace
 10
2272.667263770178
 20
1753.347614116536
 30
0.0
 11
2272.667263770178
 21
1751.547614116535
 31
0.0
 12
2267.267263770178
 22
1752.447614116536
 32
0.0
 13
2267.267263770178
 23
1752.447614116536
 33
0.0
  0
SOLID
  5
8315
330
830D
100
AcDbEntity
  8
3
 62
     0
100
AcDbTrace
 10
2886.867263770179
 20
1753.347614116536
 30
0.0
 11
2886.867263770179
 21
1751.547614116535
 31
0.0
 12
2892.267263770179
 22
1752.447614116536
 32
0.0
 13
2892.267263770179
 23
1752.447614116536
 33
0.0
  0
MTEXT
  5
8316
330
830D
100
AcDbEntity
  8
3
 62
     0
100
AcDbMText
 10
2579.767263770179
 20
1752.447614116536
 30
0.0
 40
5.399999999999999
 41
0.0
 71
     5
 72
     1
  1
\A1;625
 73
     1
 44
1.0
1001
ACAD
1000
MTEXTBEGIN
1070
    73
1070
     1
1070
    44
1040
1.0
1070
    74
1070
     0
1000
MTEXTEND
  0
POINT
  5
8317
330
830D
100
AcDbEntity
  8
DEFPOINTS
 62
     0
100
AcDbPoint
 10
2267.267263770178
 20
1983.588409321164
 30
0.0
  0
POINT
  5
8318
330
830D
100
AcDbEntity
  8
DEFPOINTS
 62
     0
100
AcDbPoint
 10
2892.267263770179
 20
1983.588409321164
 30
0.0
  0
POINT
  5
8319
330
830D
100
AcDbEntity
  8
DEFPOINTS
 62
     0
100
AcDbPoint
 10
2892.267263770179
 20
1752.447614116536
 30
0.0
  0
ENDBLK
  5
830F
330
830D
100
AcDbEntity
  8
0
100
AcDbBlockEnd
  0
BLOCK
  5
831B
330
831A
100
AcDbEntity
  8
0
100
AcDbBlockBegin
  2
*D34
 70
     1
 10
0.0
 20
0.0
 30
0.0
  3
*D34
  1

  0
LINE
  5
831D
330
831A
100
AcDbEntity
  8
3
 62
     0
370
    -2
100
AcDbLine
 10
3933.792027154098
 20
1953.588409321163
 30
0.0
 11
3933.792027154098
 21
1747.047614116536
 31
0.0
  0
LINE
  5
831E
330
831A
100
AcDbEntity
  8
3
 62
     0
370
    -2
100
AcDbLine
 10
4760.792027154096
 20
1953.588409321163
 30
0.0
 11
4760.792027154096
 21
1747.047614116536
 31
0.0
  0
LINE
  5
831F
330
831A
100
AcDbEntity
  8
3
 62
     0
370
    -2
100
AcDbLine
 10
3939.192027154098
 20
1752.447614116536
 30
0.0
 11
4337.64917001124
 21
1752.447614116536
 31
0.0
  0
LINE
  5
8320
330
831A
100
AcDbEntity
  8
3
 62
     0
370
    -2
100
AcDbLine
 10
4755.392027154097
 20
1752.447614116536
 30
0.0
 11
4356.934884296953
 21
1752.447614116536
 31
0.0
  0
SOLID
  5
8321
330
831A
100
AcDbEntity
  8
3
 62
     0
100
AcDbTrace
 10
3939.192027154098
 20
1753.347614116536
 30
0.0
 11
3939.192027154098
 21
1751.547614116535
 31
0.0
 12
3933.792027154098
 22
1752.447614116536
 32
0.0
 13
3933.792027154098
 23
1752.447614116536
 33
0.0
  0
SOLID
  5
8322
330
831A
100
AcDbEntity
  8
3
 62
     0
100
AcDbTrace
 10
4755.392027154097
 20
1753.347614116536
 30
0.0
 11
4755.392027154097
 21
1751.547614116535
 31
0.0
 12
4760.792027154096
 22
1752.447614116536
 32
0.0
 13
4760.792027154096
 23
1752.447614116536
 33
0.0
  0
MTEXT
  5
8323
330
831A
100
AcDbEntity
  8
3
 62
     0
100
AcDbMText
 10
4347.292027154097
 20
1752.447614116536
 30
0.0
 40
5.399999999999999
 41
0.0
 71
     5
 72
     1
  1
\A1;827
 73
     1
 44
1.0
1001
ACAD
1000
MTEXTBEGIN
1070
    73
1070
     1
1070
    44
1040
1.0
1070
    74
1070
     0
1000
MTEXTEND
  0
POINT
  5
8324
330
831A
100
AcDbEntity
  8
DEFPOINTS
 62
     0
100
AcDbPoint
 10
3933.792027154098
 20
1983.588409321163
 30
0.0
  0
POINT
  5
8325
330
831A
100
AcDbEntity
  8
DEFPOINTS
 62
     0
100
AcDbPoint
 10
4760.792027154096
 20
1983.588409321163
 30
0.0
  0
POINT
  5
8326
330
831A
100
AcDbEntity
  8
DEFPOINTS
 62
     0
100
AcDbPoint
 10
4760.792027154096
 20
1752.447614116536
 30
0.0
  0
ENDBLK
  5
831C
330
831A
100
AcDbEntity
  8
0
100
AcDbBlockEnd
  0
BLOCK
  5
8328
330
8327
100
AcDbEntity
  8
0
100
AcDbBlockBegin
  2
*D35
 70
     1
 10
0.0
 20
0.0
 30
0.0
  3
*D35
  1

  0
LINE
  5
832A
330
8327
100
AcDbEntity
  8
3
 62
     0
370
    -2
100
AcDbLine
 10
4760.792027154096
 20
1953.588409321163
 30
0.0
 11
4760.792027154096
 21
1747.047614116536
 31
0.0
  0
LINE
  5
832B
330
8327
100
AcDbEntity
  8
3
 62
     0
370
    -2
100
AcDbLine
 10
5438.792027154097
 20
1953.588409321163
 30
0.0
 11
5438.792027154097
 21
1747.047614116536
 31
0.0
  0
LINE
  5
832C
330
8327
100
AcDbEntity
  8
3
 62
     0
370
    -2
100
AcDbLine
 10
4766.192027154096
 20
1752.447614116536
 30
0.0
 11
5090.14917001124
 21
1752.447614116536
 31
0.0
  0
LINE
  5
832D
330
8327
100
AcDbEntity
  8
3
 62
     0
370
    -2
100
AcDbLine
 10
5433.392027154098
 20
1752.447614116536
 30
0.0
 11
5109.434884296954
 21
1752.447614116536
 31
0.0
  0
SOLID
  5
832E
330
8327
100
AcDbEntity
  8
3
 62
     0
100
AcDbTrace
 10
4766.192027154096
 20
1753.347614116536
 30
0.0
 11
4766.192027154096
 21
1751.547614116535
 31
0.0
 12
4760.792027154096
 22
1752.447614116536
 32
0.0
 13
4760.792027154096
 23
1752.447614116536
 33
0.0
  0
SOLID
  5
832F
330
8327
100
AcDbEntity
  8
3
 62
     0
100
AcDbTrace
 10
5433.392027154098
 20
1753.347614116536
 30
0.0
 11
5433.392027154098
 21
1751.547614116535
 31
0.0
 12
5438.792027154097
 22
1752.447614116536
 32
0.0
 13
5438.792027154097
 23
1752.447614116536
 33
0.0
  0
MTEXT
  5
8330
330
8327
100
AcDbEntity
  8
3
 62
     0
100
AcDbMText
 10
5099.792027154097
 20
1752.447614116536
 30
0.0
 40
5.399999999999999
 41
0.0
 71
     5
 72
     1
  1
\A1;678
 73
     1
 44
1.0
1001
ACAD
1000
MTEXTBEGIN
1070
    73
1070
     1
1070
    44
1040
1.0
1070
    74
1070
     0
1000
MTEXTEND
  0
POINT
  5
8331
330
8327
100
AcDbEntity
  8
DEFPOINTS
 62
     0
100
AcDbPoint
 10
4760.792027154096
 20
1983.588409321163
 30
0.0
  0
POINT
  5
8332
330
8327
100
AcDbEntity
  8
DEFPOINTS
 62
     0
100
AcDbPoint
 10
5438.792027154097
 20
1983.588409321163
 30
0.0
  0
POINT
  5
8333
330
8327
100
AcDbEntity
  8
DEFPOINTS
 62
     0
100
AcDbPoint
 10
5438.792027154097
 20
1752.447614116536
 30
0.0
  0
ENDBLK
  5
8329
330
8327
100
AcDbEntity
  8
0
100
AcDbBlockEnd
  0
BLOCK
  5
8335
330
8334
100
AcDbEntity
  8
0
100
AcDbBlockBegin
  2
*D36
 70
     1
 10
0.0
 20
0.0
 30
0.0
  3
*D36
  1

  0
LINE
  5
8337
330
8334
100
AcDbEntity
  8
3
 62
     0
370
    -2
100
AcDbLine
 10
3346.59959683767
 20
2088.988409321164
 30
0.0
 11
3346.59959683767
 21
2129.274123606878
 31
0.0
  0
LINE
  5
8338
330
8334
100
AcDbEntity
  8
3
 62
     0
370
    -2
100
AcDbLine
 10
3346.59959683767
 20
2183.188409321163
 30
0.0
 11
3346.59959683767
 21
2142.902695035449
 31
0.0
  0
SOLID
  5
8339
330
8334
100
AcDbEntity
  8
3
 62
     0
100
AcDbTrace
 10
3345.699596837671
 20
2088.988409321164
 30
0.0
 11
3347.49959683767
 21
2088.988409321164
 31
0.0
 12
3346.59959683767
 22
2083.588409321164
 32
0.0
 13
3346.59959683767
 23
2083.588409321164
 33
0.0
  0
SOLID
  5
833A
330
8334
100
AcDbEntity
  8
3
 62
     0
100
AcDbTrace
 10
3345.699596837671
 20
2183.188409321163
 30
0.0
 11
3347.49959683767
 21
2183.188409321163
 31
0.0
 12
3346.59959683767
 22
2188.588409321164
 32
0.0
 13
3346.59959683767
 23
2188.588409321164
 33
0.0
  0
MTEXT
  5
833B
330
8334
100
AcDbEntity
  8
3
 62
     0
100
AcDbMText
 10
3346.59959683767
 20
2136.088409321164
 30
0.0
 40
5.399999999999999
 41
0.0
 71
     5
 72
     1
  1
\A1;(105)
 73
     1
 44
1.0
1001
ACAD
1000
MTEXTBEGIN
1070
    73
1070
     1
1070
    44
1040
1.0
1070
    74
1070
     0
1000
MTEXTEND
  0
POINT
  5
833C
330
8334
100
AcDbEntity
  8
DEFPOINTS
 62
     0
100
AcDbPoint
 10
2892.267263770179
 20
2083.588409321164
 30
0.0
  0
POINT
  5
833D
330
8334
100
AcDbEntity
  8
DEFPOINTS
 62
     0
100
AcDbPoint
 10
2892.267263770179
 20
2188.588409321164
 30
0.0
  0
POINT
  5
833E
330
8334
100
AcDbEntity
  8
DEFPOINTS
 62
     0
100
AcDbPoint
 10
3346.59959683767
 20
2188.588409321164
 30
0.0
  0
ENDBLK
  5
8336
330
8334
100
AcDbEntity
  8
0
100
AcDbBlockEnd
  0
BLOCK
  5
8340
330
833F
100
AcDbEntity
  8
0
100
AcDbBlockBegin
  2
*D37
 70
     1
 10
0.0
 20
0.0
 30
0.0
  3
*D37
  1

  0
LINE
  5
8342
330
833F
100
AcDbEntity
  8
3
 62
     0
370
    -2
100
AcDbLine
 10
2922.267263770179
 20
1983.588409321164
 30
0.0
 11
3606.438781095191
 21
1983.588409321163
 31
0.0
  0
LINE
  5
8343
330
833F
100
AcDbEntity
  8
3
 62
     0
370
    -2
100
AcDbLine
 10
2977.26726377018
 20
4012.588409321161
 30
0.0
 11
3606.438781095191
 21
4012.588409321161
 31
0.0
  0
LINE
  5
8344
330
833F
100
AcDbEntity
  8
3
 62
     0
370
    -2
100
AcDbLine
 10
3601.038781095191
 20
1988.988409321164
 30
0.0
 11
3601.038781095191
 21
2991.274123606877
 31
0.0
  0
LINE
  5
8345
330
833F
100
AcDbEntity
  8
3
 62
     0
370
    -2
100
AcDbLine
 10
3601.038781095191
 20
4007.188409321162
 30
0.0
 11
3601.038781095191
 21
3004.902695035449
 31
0.0
  0
SOLID
  5
8346
330
833F
100
AcDbEntity
  8
3
 62
     0
100
AcDbTrace
 10
3600.138781095191
 20
1988.988409321164
 30
0.0
 11
3601.938781095191
 21
1988.988409321164
 31
0.0
 12
3601.038781095191
 22
1983.588409321163
 32
0.0
 13
3601.038781095191
 23
1983.588409321163
 33
0.0
  0
SOLID
  5
8347
330
833F
100
AcDbEntity
  8
3
 62
     0
100
AcDbTrace
 10
3600.138781095191
 20
4007.188409321162
 30
0.0
 11
3601.938781095191
 21
4007.188409321162
 31
0.0
 12
3601.038781095191
 22
4012.588409321161
 32
0.0
 13
3601.038781095191
 23
4012.588409321161
 33
0.0
  0
MTEXT
  5
8348
330
833F
100
AcDbEntity
  8
3
 62
     0
100
AcDbMText
 10
3601.03878109519
 20
2998.088409321164
 30
0.0
 40
5.399999999999999
 41
0.0
 71
     5
 72
     1
  1
\A1;(2029)
 73
     1
 44
1.0
1001
ACAD
1000
MTEXTBEGIN
1070
    73
1070
     1
1070
    44
1040
1.0
1070
    74
1070
     0
1000
MTEXTEND
  0
POINT
  5
8349
330
833F
100
AcDbEntity
  8
DEFPOINTS
 62
     0
100
AcDbPoint
 10
2892.267263770179
 20
1983.588409321164
 30
0.0
  0
POINT
  5
834A
330
833F
100
AcDbEntity
  8
DEFPOINTS
 62
     0
100
AcDbPoint
 10
2947.26726377018
 20
4012.588409321161
 30
0.0
  0
POINT
  5
834B
330
833F
100
AcDbEntity
  8
DEFPOINTS
 62
     0
100
AcDbPoint
 10
3601.038781095191
 20
4012.588409321161
 30
0.0
  0
ENDBLK
  5
8341
330
833F
100
AcDbEntity
  8
0
100
AcDbBlockEnd
  0
BLOCK
  5
834D
330
834C
100
AcDbEntity
  8
0
100
AcDbBlockBegin
  2
*D38
 70
     1
 10
0.0
 20
0.0
 30
0.0
  3
*D38
  1

  0
LINE
  5
834F
330
834C
100
AcDbEntity
  8
3
 62
     0
370
    -2
100
AcDbLine
 10
2894.142263770179
 20
2083.588409321164
 30
0.0
 11
3354.629406223477
 21
2083.588409321164
 31
0.0
  0
LINE
  5
8350
330
834C
100
AcDbEntity
  8
3
 62
     0
370
    -2
100
AcDbLine
 10
2894.142263770179
 20
1983.588409321164
 30
0.0
 11
3354.629406223477
 21
1983.588409321164
 31
0.0
  0
LINE
  5
8351
330
834C
100
AcDbEntity
  8
3
 62
     0
370
    -2
100
AcDbLine
 10
3349.229406223476
 20
2078.188409321163
 30
0.0
 11
3349.229406223476
 21
2038.988409321164
 31
0.0
  0
LINE
  5
8352
330
834C
100
AcDbEntity
  8
3
 62
     0
370
    -2
100
AcDbLine
 10
3349.229406223476
 20
1988.988409321164
 30
0.0
 11
3349.229406223476
 21
2028.188409321164
 31
0.0
  0
SOLID
  5
8353
330
834C
100
AcDbEntity
  8
3
 62
     0
100
AcDbTrace
 10
3348.329406223476
 20
2078.188409321163
 30
0.0
 11
3350.129406223476
 21
2078.188409321163
 31
0.0
 12
3349.229406223476
 22
2083.588409321164
 32
0.0
 13
3349.229406223476
 23
2083.588409321164
 33
0.0
  0
SOLID
  5
8354
330
834C
100
AcDbEntity
  8
3
 62
     0
100
AcDbTrace
 10
3348.329406223476
 20
1988.988409321164
 30
0.0
 11
3350.129406223476
 21
1988.988409321164
 31
0.0
 12
3349.229406223476
 22
1983.588409321164
 32
0.0
 13
3349.229406223476
 23
1983.588409321164
 33
0.0
  0
MTEXT
  5
8355
330
834C
100
AcDbEntity
  8
3
 62
     0
100
AcDbMText
 10
3349.229406223475
 20
2033.588409321164
 30
0.0
 40
5.399999999999999
 41
0.0
 71
     5
 72
     1
  1
\A1;100
 73
     1
 44
1.0
1001
ACAD
1000
MTEXTBEGIN
1070
    73
1070
     1
1070
    44
1040
1.0
1070
    74
1070
     0
1000
MTEXTEND
  0
POINT
  5
8356
330
834C
100
AcDbEntity
  8
DEFPOINTS
 62
     0
100
AcDbPoint
 10
2892.267263770179
 20
2083.588409321164
 30
0.0
  0
POINT
  5
8357
330
834C
100
AcDbEntity
  8
DEFPOINTS
 62
     0
100
AcDbPoint
 10
2892.267263770179
 20
1983.588409321164
 30
0.0
  0
POINT
  5
8358
330
834C
100
AcDbEntity
  8
DEFPOINTS
 62
     0
100
AcDbPoint
 10
3349.229406223476
 20
1983.588409321164
 30
0.0
  0
ENDBLK
  5
834E
330
834C
100
AcDbEntity
  8
0
100
AcDbBlockEnd
  0
BLOCK
  5
835E
330
835D
100
AcDbEntity
  8
0
100
AcDbBlockBegin
  2
*D39
 70
     1
 10
0.0
 20
0.0
 30
0.0
  3
*D39
  1

  0
LINE
  5
8360
330
835D
100
AcDbEntity
  8
3
 62
     0
370
    -2
100
AcDbLine
 10
3933.792027154098
 20
1953.588409321163
 30
0.0
 11
3933.792027154098
 21
1722.447614116536
 31
0.0
  0
LINE
  5
8361
330
835D
100
AcDbEntity
  8
3
 62
     0
370
    -2
100
AcDbLine
 10
4760.792027154096
 20
1953.588409321163
 30
0.0
 11
4760.792027154096
 21
1722.447614116536
 31
0.0
  0
LINE
  5
8362
330
835D
100
AcDbEntity
  8
3
 62
     0
370
    -2
100
AcDbLine
 10
3993.792027154098
 20
1752.447614116536
 30
0.0
 11
4700.792027154096
 21
1752.447614116536
 31
0.0
  0
INSERT
  5
8363
330
835D
100
AcDbEntity
  8
3
 62
     0
370
    -2
100
AcDbBlockReference
  2
_OPEN
 10
3933.792027154098
 20
1752.447614116536
 30
0.0
 41
60.0
 42
60.0
 43
60.0
 50
180.0
  0
INSERT
  5
8364
330
835D
100
AcDbEntity
  8
3
 62
     0
370
    -2
100
AcDbBlockReference
  2
_OPEN
 10
4760.792027154096
 20
1752.447614116536
 30
0.0
 41
60.0
 42
60.0
 43
60.0
  0
MTEXT
  5
8365
330
835D
100
AcDbEntity
  8
3
 62
     0
100
AcDbMText
 10
4347.292027154097
 20
1827.447614116536
 30
0.0
 40
90.0
 41
0.0
 71
     5
 72
     1
  1
\A1;827
 73
     1
 44
1.0
1001
ACAD
1000
MTEXTBEGIN
1070
    73
1070
     1
1070
    44
1040
1.0
1070
    74
1070
     0
1000
MTEXTEND
  0
POINT
  5
8366
330
835D
100
AcDbEntity
  8
DEFPOINTS
 62
     0
100
AcDbPoint
 10
3933.792027154098
 20
1983.588409321163
 30
0.0
  0
POINT
  5
8367
330
835D
100
AcDbEntity
  8
DEFPOINTS
 62
     0
100
AcDbPoint
 10
4760.792027154096
 20
1983.588409321163
 30
0.0
  0
POINT
  5
8368
330
835D
100
AcDbEntity
  8
DEFPOINTS
 62
     0
100
AcDbPoint
 10
4760.792027154096
 20
1752.447614116536
 30
0.0
  0
ENDBLK
  5
835F
330
835D
100
AcDbEntity
  8
0
100
AcDbBlockEnd
  0
BLOCK
  5
836B
330
836A
100
AcDbEntity
  8
0
100
AcDbBlockBegin
  2
*D40
 70
     1
 10
0.0
 20
0.0
 30
0.0
  3
*D40
  1

  0
LINE
  5
836D
330
836A
100
AcDbEntity
  8
3
 62
     0
370
    -2
100
AcDbLine
 10
4760.792027154096
 20
1953.588409321163
 30
0.0
 11
4760.792027154096
 21
1722.447614116536
 31
0.0
  0
LINE
  5
836E
330
836A
100
AcDbEntity
  8
3
 62
     0
370
    -2
100
AcDbLine
 10
5438.792027154097
 20
1953.588409321163
 30
0.0
 11
5438.792027154097
 21
1722.447614116536
 31
0.0
  0
LINE
  5
836F
330
836A
100
AcDbEntity
  8
3
 62
     0
370
    -2
100
AcDbLine
 10
4820.792027154096
 20
1752.447614116536
 30
0.0
 11
5378.792027154097
 21
1752.447614116536
 31
0.0
  0
INSERT
  5
8370
330
836A
100
AcDbEntity
  8
3
 62
     0
370
    -2
100
AcDbBlockReference
  2
_OPEN
 10
4760.792027154096
 20
1752.447614116536
 30
0.0
 41
60.0
 42
60.0
 43
60.0
 50
180.0
  0
INSERT
  5
8371
330
836A
100
AcDbEntity
  8
3
 62
     0
370
    -2
100
AcDbBlockReference
  2
_OPEN
 10
5438.792027154097
 20
1752.447614116536
 30
0.0
 41
60.0
 42
60.0
 43
60.0
  0
MTEXT
  5
8372
330
836A
100
AcDbEntity
  8
3
 62
     0
100
AcDbMText
 10
5099.792027154097
 20
1827.447614116536
 30
0.0
 40
90.0
 41
0.0
 71
     5
 72
     1
  1
\A1;678
 73
     1
 44
1.0
1001
ACAD
1000
MTEXTBEGIN
1070
    73
1070
     1
1070
    44
1040
1.0
1070
    74
1070
     0
1000
MTEXTEND
  0
POINT
  5
8373
330
836A
100
AcDbEntity
  8
DEFPOINTS
 62
     0
100
AcDbPoint
 10
4760.792027154096
 20
1983.588409321163
 30
0.0
  0
POINT
  5
8374
330
836A
100
AcDbEntity
  8
DEFPOINTS
 62
     0
100
AcDbPoint
 10
5438.792027154097
 20
1983.588409321163
 30
0.0
  0
POINT
  5
8375
330
836A
100
AcDbEntity
  8
DEFPOINTS
 62
     0
100
AcDbPoint
 10
5438.792027154097
 20
1752.447614116536
 30
0.0
  0
ENDBLK
  5
836C
330
836A
100
AcDbEntity
  8
0
100
AcDbBlockEnd
  0
BLOCK
  5
8378
330
8377
100
AcDbEntity
  8
0
100
AcDbBlockBegin
  2
*D41
 70
     1
 10
0.0
 20
0.0
 30
0.0
  3
*D41
  1

  0
LINE
  5
837A
330
8377
100
AcDbEntity
  8
3
 62
     0
370
    -2
100
AcDbLine
 10
842.2672637701799
 20
1953.588409321164
 30
0.0
 11
842.2672637701799
 21
1722.447614116536
 31
0.0
  0
LINE
  5
837B
330
8377
100
AcDbEntity
  8
3
 62
     0
370
    -2
100
AcDbLine
 10
2267.267263770178
 20
1953.588409321164
 30
0.0
 11
2267.267263770178
 21
1722.447614116536
 31
0.0
  0
LINE
  5
837C
330
8377
100
AcDbEntity
  8
3
 62
     0
370
    -2
100
AcDbLine
 10
902.2672637701798
 20
1752.447614116536
 30
0.0
 11
2207.267263770178
 21
1752.447614116536
 31
0.0
  0
INSERT
  5
837D
330
8377
100
AcDbEntity
  8
3
 62
     0
370
    -2
100
AcDbBlockReference
  2
_OPEN
 10
842.2672637701799
 20
1752.447614116536
 30
0.0
 41
60.0
 42
60.0
 43
60.0
 50
180.0
  0
INSERT
  5
837E
330
8377
100
AcDbEntity
  8
3
 62
     0
370
    -2
100
AcDbBlockReference
  2
_OPEN
 10
2267.267263770178
 20
1752.447614116536
 30
0.0
 41
60.0
 42
60.0
 43
60.0
  0
MTEXT
  5
837F
330
8377
100
AcDbEntity
  8
3
 62
     0
100
AcDbMText
 10
1554.767263770179
 20
1827.447614116536
 30
0.0
 40
90.0
 41
0.0
 71
     5
 72
     1
  1
\A1;1425
 73
     1
 44
1.0
1001
ACAD
1000
MTEXTBEGIN
1070
    73
1070
     1
1070
    44
1040
1.0
1070
    74
1070
     0
1000
MTEXTEND
  0
POINT
  5
8380
330
8377
100
AcDbEntity
  8
DEFPOINTS
 62
     0
100
AcDbPoint
 10
842.2672637701799
 20
1983.588409321164
 30
0.0
  0
POINT
  5
8381
330
8377
100
AcDbEntity
  8
DEFPOINTS
 62
     0
100
AcDbPoint
 10
2267.267263770178
 20
1983.588409321164
 30
0.0
  0
POINT
  5
8382
330
8377
100
AcDbEntity
  8
DEFPOINTS
 62
     0
100
AcDbPoint
 10
2267.267263770178
 20
1752.447614116536
 30
0.0
  0
ENDBLK
  5
8379
330
8377
100
AcDbEntity
  8
0
100
AcDbBlockEnd
  0
BLOCK
  5
8385
330
8384
100
AcDbEntity
  8
0
100
AcDbBlockBegin
  2
*D42
 70
     1
 10
0.0
 20
0.0
 30
0.0
  3
*D42
  1

  0
LINE
  5
8387
330
8384
100
AcDbEntity
  8
3
 62
     0
370
    -2
100
AcDbLine
 10
2267.267263770178
 20
1953.588409321164
 30
0.0
 11
2267.267263770178
 21
1722.447614116536
 31
0.0
  0
LINE
  5
8388
330
8384
100
AcDbEntity
  8
3
 62
     0
370
    -2
100
AcDbLine
 10
2892.267263770179
 20
1953.588409321164
 30
0.0
 11
2892.267263770179
 21
1722.447614116536
 31
0.0
  0
LINE
  5
8389
330
8384
100
AcDbEntity
  8
3
 62
     0
370
    -2
100
AcDbLine
 10
2327.267263770178
 20
1752.447614116536
 30
0.0
 11
2832.267263770179
 21
1752.447614116536
 31
0.0
  0
INSERT
  5
838A
330
8384
100
AcDbEntity
  8
3
 62
     0
370
    -2
100
AcDbBlockReference
  2
_OPEN
 10
2267.267263770178
 20
1752.447614116536
 30
0.0
 41
60.0
 42
60.0
 43
60.0
 50
180.0
  0
INSERT
  5
838B
330
8384
100
AcDbEntity
  8
3
 62
     0
370
    -2
100
AcDbBlockReference
  2
_OPEN
 10
2892.267263770179
 20
1752.447614116536
 30
0.0
 41
60.0
 42
60.0
 43
60.0
  0
MTEXT
  5
838C
330
8384
100
AcDbEntity
  8
3
 62
     0
100
AcDbMText
 10
2579.767263770179
 20
1827.447614116536
 30
0.0
 40
90.0
 41
0.0
 71
     5
 72
     1
  1
\A1;625
 73
     1
 44
1.0
1001
ACAD
1000
MTEXTBEGIN
1070
    73
1070
     1
1070
    44
1040
1.0
1070
    74
1070
     0
1000
MTEXTEND
  0
POINT
  5
838D
330
8384
100
AcDbEntity
  8
DEFPOINTS
 62
     0
100
AcDbPoint
 10
2267.267263770178
 20
1983.588409321164
 30
0.0
  0
POINT
  5
838E
330
8384
100
AcDbEntity
  8
DEFPOINTS
 62
     0
100
AcDbPoint
 10
2892.267263770179
 20
1983.588409321164
 30
0.0
  0
POINT
  5
838F
330
8384
100
AcDbEntity
  8
DEFPOINTS
 62
     0
100
AcDbPoint
 10
2892.267263770179
 20
1752.447614116536
 30
0.0
  0
ENDBLK
  5
8386
330
8384
100
AcDbEntity
  8
0
100
AcDbBlockEnd
  0
BLOCK
  5
8392
330
8391
100
AcDbEntity
  8
0
100
AcDbBlockBegin
  2
*D43
 70
     1
 10
0.0
 20
0.0
 30
0.0
  3
*D43
  1

  0
LINE
  5
83F9
330
8391
100
AcDbEntity
  8
3
 62
     0
370
    -2
100
AcDbLine
 10
3036.883246267807
 20
2938.588409321162
 30
0.0
 11
3379.229406223477
 21
2938.588409321162
 31
0.0
  0
LINE
  5
83FA
330
8391
100
AcDbEntity
  8
3
 62
     0
370
    -2
100
AcDbLine
 10
2922.267263770179
 20
2188.588409321164
 30
0.0
 11
3379.229406223477
 21
2188.588409321164
 31
0.0
  0
LINE
  5
83FB
330
8391
100
AcDbEntity
  8
3
 62
     0
370
    -2
100
AcDbLine
 10
3349.229406223476
 20
2878.588409321162
 30
0.0
 11
3349.229406223476
 21
2248.588409321163
 31
0.0
  0
INSERT
  5
83FC
330
8391
100
AcDbEntity
  8
3
 62
     0
370
    -2
100
AcDbBlockReference
  2
_OPEN
 10
3349.229406223476
 20
2938.588409321162
 30
0.0
 41
60.0
 42
60.0
 43
60.0
 50
90.0
  0
INSERT
  5
83FD
330
8391
100
AcDbEntity
  8
3
 62
     0
370
    -2
100
AcDbBlockReference
  2
_OPEN
 10
3349.229406223476
 20
2188.588409321164
 30
0.0
 41
60.0
 42
60.0
 43
60.0
 50
270.0
  0
MTEXT
  5
83FE
330
8391
100
AcDbEntity
  8
3
 62
     0
100
AcDbMText
 10
3274.229406223476
 20
2563.588409321164
 30
0.0
 40
90.0
 41
0.0
 71
     5
 72
     1
  1
\A1;750
 11
0.0000000000000001
 21
1.0
 31
0.0
 73
     1
 44
1.0
1001
ACAD
1000
MTEXTBEGIN
1070
    73
1070
     1
1070
    44
1040
1.0
1070
    74
1070
     0
1000
MTEXTEND
  0
POINT
  5
83FF
330
8391
100
AcDbEntity
  8
DEFPOINTS
 62
     0
100
AcDbPoint
 10
3006.883246267807
 20
2938.588409321162
 30
0.0
  0
POINT
  5
8400
330
8391
100
AcDbEntity
  8
DEFPOINTS
 62
     0
100
AcDbPoint
 10
2892.267263770179
 20
2188.588409321164
 30
0.0
  0
POINT
  5
8401
330
8391
100
AcDbEntity
  8
DEFPOINTS
 62
     0
100
AcDbPoint
 10
3349.229406223476
 20
2188.588409321164
 30
0.0
  0
ENDBLK
  5
8393
330
8391
100
AcDbEntity
  8
0
100
AcDbBlockEnd
  0
BLOCK
  5
839F
330
839E
100
AcDbEntity
  8
0
100
AcDbBlockBegin
  2
*D44
 70
     1
 10
0.0
 20
0.0
 30
0.0
  3
*D44
  1

  0
LINE
  5
8499
330
839E
100
AcDbEntity
  8
3
 62
     0
370
    -2
100
AcDbLine
 10
2922.267263770179
 20
2188.588409321164
 30
0.0
 11
3379.229406223477
 21
2188.588409321164
 31
0.0
  0
LINE
  5
849A
330
839E
100
AcDbEntity
  8
3
 62
     0
370
    -2
100
AcDbLine
 10
2922.267263770179
 20
2083.588409321164
 30
0.0
 11
3379.229406223477
 21
2083.588409321164
 31
0.0
  0
LINE
  5
849B
330
839E
100
AcDbEntity
  8
3
 62
     0
370
    -2
100
AcDbLine
 10
3349.229406223476
 20
2248.588409321163
 30
0.0
 11
3349.229406223476
 21
2308.588409321163
 31
0.0
  0
LINE
  5
849C
330
839E
100
AcDbEntity
  8
3
 62
     0
370
    -2
100
AcDbLine
 10
3349.229406223476
 20
2083.588409321164
 30
0.0
 11
3349.229406223476
 21
2023.588409321164
 31
0.0
  0
LINE
  5
849D
330
839E
100
AcDbEntity
  8
3
 62
     0
370
    -2
100
AcDbLine
 10
3349.229406223476
 20
2136.088409321164
 30
0.0
 11
3563.21894634414
 21
2174.734017608756
 31
0.0
  0
LINE
  5
849E
330
839E
100
AcDbEntity
  8
3
 62
     0
370
    -2
100
AcDbLine
 10
3563.21894634414
 20
2174.734017608756
 30
0.0
 11
3563.21894634414
 21
2564.734017608756
 31
0.0
  0
MTEXT
  5
849F
330
839E
100
AcDbEntity
  8
3
 62
     0
100
AcDbMText
 10
3464.647517772711
 20
2369.734017608756
 30
0.0
 40
90.0
 41
0.0
 71
     5
 72
     1
  1
\A1;(105)
 11
0.0000000000000001
 21
1.0
 31
0.0
 73
     1
 44
1.0
1001
ACAD
1000
MTEXTBEGIN
1070
    73
1070
     1
1070
    44
1040
1.0
1070
    74
1070
     0
1000
MTEXTEND
  0
LINE
  5
84A0
330
839E
100
AcDbEntity
  8
3
 62
     0
370
    -2
100
AcDbLine
 10
3349.229406223476
 20
2188.588409321164
 30
0.0
 11
3349.229406223476
 21
2083.588409321164
 31
0.0
  0
LINE
  5
84A1
330
839E
100
AcDbEntity
  8
3
 62
     0
370
    -2
100
AcDbLine
 10
3349.229406223476
 20
2188.588409321164
 30
0.0
 11
3349.229406223476
 21
2083.588409321164
 31
0.0
  0
INSERT
  5
84A2
330
839E
100
AcDbEntity
  8
3
 62
     0
370
    -2
100
AcDbBlockReference
  2
_OPEN
 10
3349.229406223476
 20
2188.588409321164
 30
0.0
 41
60.0
 42
60.0
 43
60.0
 50
270.0
  0
INSERT
  5
84A3
330
839E
100
AcDbEntity
  8
3
 62
     0
370
    -2
100
AcDbBlockReference
  2
_DotSmall
 10
3349.229406223476
 20
2083.588409321164
 30
0.0
 41
60.0
 42
60.0
 43
60.0
 50
90.0
  0
POINT
  5
84A4
330
839E
100
AcDbEntity
  8
DEFPOINTS
 62
     0
100
AcDbPoint
 10
2892.267263770179
 20
2188.588409321164
 30
0.0
  0
POINT
  5
84A5
330
839E
100
AcDbEntity
  8
DEFPOINTS
 62
     0
100
AcDbPoint
 10
2892.267263770179
 20
2083.588409321164
 30
0.0
  0
POINT
  5
84A6
330
839E
100
AcDbEntity
  8
DEFPOINTS
 62
     0
100
AcDbPoint
 10
3349.229406223476
 20
2083.588409321164
 30
0.0
  0
ENDBLK
  5
83A0
330
839E
100
AcDbEntity
  8
0
100
AcDbBlockEnd
  0
BLOCK
  5
83B1
330
83B0
100
AcDbEntity
  8
0
100
AcDbBlockBegin
  2
*D45
 70
     1
 10
0.0
 20
0.0
 30
0.0
  3
*D45
  1

  0
LINE
  5
84F5
330
83B0
100
AcDbEntity
  8
3
 62
     0
370
    -2
100
AcDbLine
 10
2922.267263770179
 20
2083.588409321164
 30
0.0
 11
3379.229406223477
 21
2083.588409321164
 31
0.0
  0
LINE
  5
84F6
330
83B0
100
AcDbEntity
  8
3
 62
     0
370
    -2
100
AcDbLine
 10
2922.267263770179
 20
1983.588409321164
 30
0.0
 11
3379.229406223477
 21
1983.588409321164
 31
0.0
  0
LINE
  5
84F7
330
83B0
100
AcDbEntity
  8
3
 62
     0
370
    -2
100
AcDbLine
 10
3349.229406223476
 20
2083.588409321164
 30
0.0
 11
3349.229406223476
 21
2143.588409321163
 31
0.0
  0
LINE
  5
84F8
330
83B0
100
AcDbEntity
  8
3
 62
     0
370
    -2
100
AcDbLine
 10
3349.229406223476
 20
1923.588409321164
 30
0.0
 11
3349.229406223476
 21
1863.588409321164
 31
0.0
  0
MTEXT
  5
84F9
330
83B0
100
AcDbEntity
  8
3
 62
     0
100
AcDbMText
 10
3270.899761041626
 20
1835.918046900351
 30
0.0
 40
90.0
 41
0.0
 71
     5
 72
     1
  1
\A1;100
 11
0.0000000000000001
 21
1.0
 31
0.0
 73
     1
 44
1.0
1001
ACAD
1000
MTEXTBEGIN
1070
    73
1070
     1
1070
    44
1040
1.0
1070
    74
1070
     0
1000
MTEXTEND
  0
LINE
  5
84FA
330
83B0
100
AcDbEntity
  8
3
 62
     0
370
    -2
100
AcDbLine
 10
3349.229406223476
 20
2083.588409321164
 30
0.0
 11
3349.229406223476
 21
1983.588409321164
 31
0.0
  0
INSERT
  5
84FB
330
83B0
100
AcDbEntity
  8
3
 62
     0
370
    -2
100
AcDbBlockReference
  2
_DotSmall
 10
3349.229406223476
 20
2083.588409321164
 30
0.0
 41
60.0
 42
60.0
 43
60.0
 50
270.0
  0
INSERT
  5
84FC
330
83B0
100
AcDbEntity
  8
3
 62
     0
370
    -2
100
AcDbBlockReference
  2
_OPEN
 10
3349.229406223476
 20
1983.588409321164
 30
0.0
 41
60.0
 42
60.0
 43
60.0
 50
90.0
  0
POINT
  5
84FD
330
83B0
100
AcDbEntity
  8
DEFPOINTS
 62
     0
100
AcDbPoint
 10
2892.267263770179
 20
2083.588409321164
 30
0.0
  0
POINT
  5
84FE
330
83B0
100
AcDbEntity
  8
DEFPOINTS
 62
     0
100
AcDbPoint
 10
2892.267263770179
 20
1983.588409321164
 30
0.0
  0
POINT
  5
84FF
330
83B0
100
AcDbEntity
  8
DEFPOINTS
 62
     0
100
AcDbPoint
 10
3349.229406223476
 20
1983.588409321164
 30
0.0
  0
ENDBLK
  5
83B2
330
83B0
100
AcDbEntity
  8
0
100
AcDbBlockEnd
  0
BLOCK
  5
8497
330
8495
100
AcDbEntity
  8
0
100
AcDbBlockBegin
  2
_DotSmall
 70
     0
 10
0.0
 20
0.0
 30
0.0
  3
_DotSmall
  1

  0
LWPOLYLINE
  5
8496
330
8495
100
AcDbEntity
  8
0
  6
ByBlock
 62
     0
100
AcDbPolyline
 90
        2
 70
     1
 43
0.5
 10
-0.0625
 20
0.0
 42
1.0
 10
0.0625
 20
0.0
 42
1.0
  0
ENDBLK
  5
8498
330
8495
100
AcDbEntity
  8
0
100
AcDbBlockEnd
  0
BLOCK
  5
8502
330
8501
100
AcDbEntity
  8
0
100
AcDbBlockBegin
  2
*D47
 70
     1
 10
0.0
 20
0.0
 30
0.0
  3
*D47
  1

  0
LINE
  5
8516
330
8501
100
AcDbEntity
  8
3
 62
     0
370
    -2
100
AcDbLine
 10
2977.26726377018
 20
4012.588409321161
 30
0.0
 11
3631.079733745508
 21
4012.588409321161
 31
0.0
  0
LINE
  5
8517
330
8501
100
AcDbEntity
  8
3
 62
     0
370
    -2
100
AcDbLine
 10
2922.267263770179
 20
1983.588409321164
 30
0.0
 11
3631.079733745508
 21
1983.588409321163
 31
0.0
  0
LINE
  5
8518
330
8501
100
AcDbEntity
  8
3
 62
     0
370
    -2
100
AcDbLine
 10
3601.079733745508
 20
3952.588409321162
 30
0.0
 11
3601.079733745508
 21
2043.588409321164
 31
0.0
  0
INSERT
  5
8519
330
8501
100
AcDbEntity
  8
3
 62
     0
370
    -2
100
AcDbBlockReference
  2
_OPEN
 10
3601.079733745508
 20
4012.588409321161
 30
0.0
 41
60.0
 42
60.0
 43
60.0
 50
90.0
  0
INSERT
  5
851A
330
8501
100
AcDbEntity
  8
3
 62
     0
370
    -2
100
AcDbBlockReference
  2
_OPEN
 10
3601.079733745508
 20
1983.588409321163
 30
0.0
 41
60.0
 42
60.0
 43
60.0
 50
270.0
  0
MTEXT
  5
851B
330
8501
100
AcDbEntity
  8
3
 62
     0
100
AcDbMText
 10
3502.508305174079
 20
2998.088409321164
 30
0.0
 40
90.0
 41
0.0
 71
     5
 72
     1
  1
\A1;(2029)
 11
0.0000000000000001
 21
1.0
 31
0.0
 73
     1
 44
1.0
1001
ACAD
1000
MTEXTBEGIN
1070
    73
1070
     1
1070
    44
1040
1.0
1070
    74
1070
     0
1000
MTEXTEND
  0
POINT
  5
851C
330
8501
100
AcDbEntity
  8
DEFPOINTS
 62
     0
100
AcDbPoint
 10
2947.26726377018
 20
4012.588409321161
 30
0.0
  0
POINT
  5
851D
330
8501
100
AcDbEntity
  8
DEFPOINTS
 62
     0
100
AcDbPoint
 10
2892.267263770179
 20
1983.588409321164
 30
0.0
  0
POINT
  5
851E
330
8501
100
AcDbEntity
  8
DEFPOINTS
 62
     0
100
AcDbPoint
 10
3601.079733745508
 20
1983.588409321163
 30
0.0
  0
ENDBLK
  5
8503
330
8501
100
AcDbEntity
  8
0
100
AcDbBlockEnd
  0
BLOCK
  5
8521
330
8520
100
AcDbEntity
  8
0
100
AcDbBlockBegin
  2
*D48
 70
     1
 10
0.0
 20
0.0
 30
0.0
  3
*D48
  1

  0
LINE
  5
8523
330
8520
100
AcDbEntity
  8
3
 62
     0
370
    -2
100
AcDbLine
 10
842.2672637701799
 20
4993.241293846766
 30
0.0
 11
842.2672637701799
 21
4574.026134943738
 31
0.0
  0
LINE
  5
8524
330
8520
100
AcDbEntity
  8
3
 62
     0
370
    -2
100
AcDbLine
 10
2892.267263770179
 20
4993.241293846764
 30
0.0
 11
2892.267263770179
 21
4574.026134943738
 31
0.0
  0
LINE
  5
8525
330
8520
100
AcDbEntity
  8
3
 62
     0
370
    -2
100
AcDbLine
 10
902.2672637701798
 20
4604.026134943739
 30
0.0
 11
2832.267263770179
 21
4604.026134943739
 31
0.0
  0
INSERT
  5
8526
330
8520
100
AcDbEntity
  8
3
 62
     0
370
    -2
100
AcDbBlockReference
  2
_OPEN
 10
842.2672637701799
 20
4604.026134943739
 30
0.0
 41
60.0
 42
60.0
 43
60.0
 50
180.0
  0
INSERT
  5
8527
330
8520
100
AcDbEntity
  8
3
 62
     0
370
    -2
100
AcDbBlockReference
  2
_OPEN
 10
2892.267263770179
 20
4604.026134943739
 30
0.0
 41
60.0
 42
60.0
 43
60.0
  0
MTEXT
  5
8528
330
8520
100
AcDbEntity
  8
3
 62
     0
100
AcDbMText
 10
1867.267263770179
 20
4679.026134943739
 30
0.0
 40
90.0
 41
0.0
 71
     5
 72
     1
  1
\A1;2050
 73
     1
 44
1.0
1001
ACAD
1000
MTEXTBEGIN
1070
    73
1070
     1
1070
    44
1040
1.0
1070
    74
1070
     0
1000
MTEXTEND
  0
POINT
  5
8529
330
8520
100
AcDbEntity
  8
DEFPOINTS
 62
     0
100
AcDbPoint
 10
842.2672637701799
 20
5023.241293846766
 30
0.0
  0
POINT
  5
852A
330
8520
100
AcDbEntity
  8
DEFPOINTS
 62
     0
100
AcDbPoint
 10
2892.267263770179
 20
5023.241293846764
 30
0.0
  0
POINT
  5
852B
330
8520
100
AcDbEntity
  8
DEFPOINTS
 62
     0
100
AcDbPoint
 10
2892.267263770179
 20
4604.026134943739
 30
0.0
  0
ENDBLK
  5
8522
330
8520
100
AcDbEntity
  8
0
100
AcDbBlockEnd
  0
ENDSEC
  0
SECTION
  2
ENTITIES
  0
INSERT
  5
7C28
330
826A
100
AcDbEntity
  8
0
100
AcDbBlockReference
  2
YA_N
 10
6.0
 20
5.0
 30
0.0
  0
ARC
  5
7C2A
330
826A
100
AcDbEntity
  8
1
100
AcDbCircle
 10
2341.26726377018
 20
3012.588409321162
 30
0.0
 40
942.0
100
AcDbArc
 50
94.50558452664441
 51
184.5055845266444
  0
ARC
  5
7C2B
330
826A
100
AcDbEntity
  8
1
100
AcDbCircle
 10
2193.267263770179
 20
3012.588409321162
 30
0.0
 40
794.0
100
AcDbArc
 50
185.3476697498386
 51
245.7607085709266
  0
ARC
  5
7C2C
330
826A
100
AcDbEntity
  8
1
100
AcDbCircle
 10
2206.76726377018
 20
2878.088409321162
 30
0.0
 40
659.4999999999998
100
AcDbArc
 50
296.6377560511194
 51
5.263495203066971
  0
LINE
  5
7C2D
330
826A
100
AcDbEntity
  8
1
100
AcDbLine
 10
2864.649051239465
 20
2982.588409321163
 30
0.0
 11
2947.26726377018
 21
2982.588409321163
 31
0.0
  0
LINE
  5
7C2E
330
826A
100
AcDbEntity
  8
1
100
AcDbLine
 10
2947.26726377018
 20
4065.588409321161
 30
0.0
 11
2947.26726377018
 21
2929.588409321162
 31
0.0
  0
LINE
  5
7C2F
330
826A
100
AcDbEntity
  8
1
100
AcDbLine
 10
2947.26726377018
 20
4012.588409321161
 30
0.0
 11
2267.267263770179
 21
3951.677329498586
 31
0.0
  0
LINE
  5
7C30
330
826A
100
AcDbEntity
  8
1
100
AcDbLine
 10
2943.267263770178
 20
4065.588409321161
 30
0.0
 11
2947.26726377018
 21
4065.588409321161
 31
0.0
  0
LINE
  5
7C31
330
826A
100
AcDbEntity
  8
1
100
AcDbLine
 10
2943.267263770181
 20
2929.588409321162
 30
0.0
 11
2947.26726377018
 21
2929.588409321162
 31
0.0
  0
LINE
  5
7C32
330
826A
100
AcDbEntity
  8
1
100
AcDbLine
 10
2897.26726377018
 20
4008.109653451855
 30
0.0
 11
2897.26726377018
 21
2982.588409321163
 31
0.0
  0
LINE
  5
7C33
330
826A
100
AcDbEntity
  8
1
100
AcDbLine
 10
2943.267263770178
 20
4065.588409321161
 30
0.0
 11
2943.267263770181
 21
2929.588409321162
 31
0.0
  0
LINE
  5
7C34
330
826A
100
AcDbEntity
  8
1
100
AcDbLine
 10
842.2672637701799
 20
2288.588409321162
 30
0.0
 11
2892.267263770179
 21
2288.588409321164
 31
0.0
  0
LINE
  5
7C35
330
826A
100
AcDbEntity
  8
1
100
AcDbLine
 10
2892.267263770179
 20
2288.588409321164
 30
0.0
 11
2892.267263770179
 21
2188.588409321164
 31
0.0
  0
LINE
  5
7C36
330
826A
100
AcDbEntity
  8
2
100
AcDbLine
 10
3675.792027154095
 20
2938.588409321163
 30
0.0
 11
5566.868658703398
 21
2938.588409321163
 31
0.0
  0
LINE
  5
7C37
330
826A
100
AcDbEntity
  8
2
100
AcDbLine
 10
4760.792027154097
 20
4243.637280669833
 30
0.0
 11
4760.792027154096
 21
1983.588409321163
 31
0.0
  0
LINE
  5
7C38
330
826A
100
AcDbEntity
  8
1
100
AcDbLine
 10
3933.792027154096
 20
2188.588409321163
 30
0.0
 11
5438.792027154097
 21
2188.588409321163
 31
0.0
1001
ACAD
1000
ASC_BOUNDS
1002
{
1070
    19
1005
0
1005
0
1002
}
  0
LINE
  5
7C39
330
826A
100
AcDbEntity
  8
1
100
AcDbLine
 10
3933.792027154098
 20
2288.588409321163
 30
0.0
 11
5438.792027154097
 21
2288.588409321163
 31
0.0
  0
LINE
  5
7C3A
330
826A
100
AcDbEntity
  8
1
100
AcDbLine
 10
5385.792027154098
 20
4012.588409321162
 30
0.0
 11
5385.792027154098
 21
2938.588409321163
 31
0.0
  0
LINE
  5
7C3B
330
826A
100
AcDbEntity
  8
2
100
AcDbLine
 10
2267.267263770178
 20
4103.504301661604
 30
0.0
 11
2267.267263770178
 21
1983.588409321164
 31
0.0
  0
LINE
  5
7C3C
330
826A
100
AcDbEntity
  8
2
100
AcDbLine
 10
3006.883246267807
 20
2938.588409321162
 30
0.0
 11
1334.752347713971
 21
2938.588409321163
 31
0.0
  0
LINE
  5
7C3D
330
826A
100
AcDbEntity
  8
1
100
AcDbLine
 10
842.2672637701799
 20
2188.588409321164
 30
0.0
 11
2892.267263770179
 21
2188.588409321164
 31
0.0
1001
ACAD
1000
ASC_BOUNDS
1002
{
1070
    19
1005
0
1002
}
  0
INSERT
  5
7C3E
330
826A
100
AcDbEntity
  8
0
100
AcDbBlockReference
  2
YA_N
 10
-1637.209838160516
 20
-1405.432827243363
 30
0.0
 41
25.0
 42
25.0
 43
25.0
  0
ARC
  5
7C40
330
826A
100
AcDbEntity
  8
1
100
AcDbCircle
 10
1117.267263770179
 20
2523.588409321163
 30
0.0
 40
185.0
100
AcDbArc
 50
287.9452509999999
 51
252.054749
  0
LINE
  5
7C41
330
826A
100
AcDbEntity
  8
2
100
AcDbLine
 10
1117.267263770179
 20
2787.404083321163
 30
0.0
 11
1117.267263770179
 21
1983.588409321164
 31
0.0
  0
LINE
  5
7C42
330
826A
100
AcDbEntity
  8
1
100
AcDbLine
 10
1174.267278770179
 20
2347.588409321163
 30
0.0
 11
1060.267263770178
 21
2347.588409321163
 31
0.0
  0
LINE
  5
7C43
330
826A
100
AcDbEntity
  8
1
100
AcDbLine
 10
1279.267278770179
 20
2418.847442321163
 30
0.0
 11
1279.267278770179
 21
2343.588409321163
 31
0.0
  0
LINE
  5
7C47
330
826A
100
AcDbEntity
  8
1
100
AcDbLine
 10
1219.767278770179
 20
2348.736968321163
 30
0.0
 11
1210.260564770179
 21
2363.659576321163
 31
0.0
  0
LINE
  5
7C48
330
826A
100
AcDbEntity
  8
1
100
AcDbLine
 10
1219.767278770179
 20
2360.588409321163
 30
0.0
 11
1219.767278770179
 21
2343.588409321163
 31
0.0
  0
LINE
  5
7C4A
330
826A
100
AcDbEntity
  8
1
100
AcDbLine
 10
1276.267278770179
 20
2363.588409321163
 30
0.0
 11
1222.767278770179
 21
2363.588409321163
 31
0.0
  0
ARC
  5
7C4C
330
826A
100
AcDbEntity
  8
1
100
AcDbCircle
 10
1276.267278770179
 20
2360.588409321163
 30
0.0
 40
3.0
100
AcDbArc
 50
0.0
 51
90.0
  0
LINE
  5
7C4E
330
826A
100
AcDbEntity
  8
1
100
AcDbLine
 10
1228.091192770179
 20
2363.588409321163
 30
0.0
 11
1222.911443770178
 21
2371.719009321163
 31
0.0
  0
ARC
  5
7C4F
330
826A
100
AcDbEntity
  8
1
100
AcDbCircle
 10
1222.767278770179
 20
2360.588409321163
 30
0.0
 40
3.0
100
AcDbArc
 50
90.0
 51
180.0
  0
LINE
  5
7C52
330
826A
100
AcDbEntity
  8
1
100
AcDbLine
 10
1279.267278770179
 20
2418.847442321163
 30
0.0
 11
1272.883306770179
 21
2423.545196321163
 31
0.0
  0
LINE
  5
7C55
330
826A
100
AcDbEntity
  8
1
100
AcDbLine
 10
955.2672637701787
 20
2418.847442321163
 30
0.0
 11
955.2672637701787
 21
2343.588409321163
 31
0.0
  0
LINE
  5
7C56
330
826A
100
AcDbEntity
  8
1
100
AcDbLine
 10
958.2672637701788
 20
2363.588409321163
 30
0.0
 11
1011.767263770178
 21
2363.588409321163
 31
0.0
  0
LINE
  5
7C57
330
826A
100
AcDbEntity
  8
1
100
AcDbLine
 10
1014.767263770179
 20
2348.736968321163
 30
0.0
 11
1024.273977770179
 21
2363.659576321163
 31
0.0
  0
LINE
  5
7C5A
330
826A
100
AcDbEntity
  8
1
100
AcDbLine
 10
1014.767263770179
 20
2343.588409321163
 30
0.0
 11
1014.767263770179
 21
2360.588409321163
 31
0.0
  0
LINE
  5
7C5D
330
826A
100
AcDbEntity
  8
1
100
AcDbLine
 10
1006.443349770179
 20
2363.588409321163
 30
0.0
 11
1011.623098770179
 21
2371.719009321163
 31
0.0
  0
ARC
  5
7C5E
330
826A
100
AcDbEntity
  8
1
100
AcDbCircle
 10
1011.767263770178
 20
2360.588409321163
 30
0.0
 40
3.0
100
AcDbArc
 50
0.0
 51
90.0
  0
ARC
  5
7C61
330
826A
100
AcDbEntity
  8
1
100
AcDbCircle
 10
958.2672637701788
 20
2360.588409321163
 30
0.0
 40
3.0
100
AcDbArc
 50
90.0
 51
180.0
  0
LINE
  5
7C62
330
826A
100
AcDbEntity
  8
1
100
AcDbLine
 10
955.2672637701787
 20
2418.847442321163
 30
0.0
 11
961.6512357701795
 21
2423.545196321163
 31
0.0
  0
LINE
  5
7C63
330
826A
100
AcDbEntity
  8
2
100
AcDbLine
 10
866.8408496446353
 20
2523.588409321163
 30
0.0
 11
1333.346796416135
 21
2523.588409321163
 31
0.0
  0
LINE
  5
7C64
330
826A
100
AcDbEntity
  8
1
100
AcDbLine
 10
906.8512507444138
 20
2343.588409321162
 30
0.0
 11
1047.267263770178
 21
2343.588409321162
 31
0.0
  0
LINE
  5
7C65
330
826A
100
AcDbEntity
  8
1
100
AcDbLine
 10
1342.267263770178
 20
2288.588409321162
 30
0.0
 11
1327.482514983845
 21
2343.588409321162
 31
0.0
  0
LINE
  5
7C66
330
826A
100
AcDbEntity
  8
1
100
AcDbLine
 10
892.267263770179
 20
2288.588409321162
 30
0.0
 11
906.8512507444138
 21
2343.588409321162
 31
0.0
  0
LINE
  5
7C68
330
826A
100
AcDbEntity
  8
1
100
AcDbLine
 10
1047.267263770178
 20
2333.588409321162
 30
0.0
 11
1187.267263770179
 21
2333.588409321162
 31
0.0
  0
LINE
  5
7C69
330
826A
100
AcDbEntity
  8
1
100
AcDbLine
 10
1047.267263770178
 20
2343.588409321162
 30
0.0
 11
1047.267263770178
 21
2333.588409321162
 31
0.0
  0
LINE
  5
7C6A
330
826A
100
AcDbEntity
  8
1
100
AcDbLine
 10
1187.26726377018
 20
2343.588409321162
 30
0.0
 11
1187.26726377018
 21
2333.588409321162
 31
0.0
  0
LINE
  5
7C6B
330
826A
100
AcDbEntity
  8
1
100
AcDbLine
 10
1187.267263770179
 20
2343.588409321162
 30
0.0
 11
1327.482514983845
 21
2343.588409321162
 31
0.0
  0
CIRCLE
  5
7C6E
330
826A
100
AcDbEntity
  8
1
100
AcDbCircle
 10
2267.267263770178
 20
2938.588409321162
 30
0.0
 40
165.0999999999999
  0
CIRCLE
  5
7C6F
330
826A
100
AcDbEntity
  8
1
100
AcDbCircle
 10
1117.267263770179
 20
2523.588409321163
 30
0.0
 40
114.3
  0
LINE
  5
7C70
330
826A
100
AcDbEntity
  8
1
100
AcDbLine
 10
842.2672637701799
 20
2083.588409321164
 30
0.0
 11
2892.267263770179
 21
2083.588409321164
 31
0.0
1001
ACAD
1000
ASC_BOUNDS
1002
{
1070
    19
1005
0
1002
}
  0
LINE
  5
7C71
330
826A
100
AcDbEntity
  8
1
100
AcDbLine
 10
842.2672637701799
 20
1983.588409321164
 30
0.0
 11
2892.267263770179
 21
1983.588409321164
 31
0.0
  0
LINE
  5
7C72
330
826A
100
AcDbEntity
  8
1
100
AcDbLine
 10
2892.267263770179
 20
2083.588409321164
 30
0.0
 11
2892.267263770179
 21
1983.588409321164
 31
0.0
  0
POINT
  5
7C73
330
826A
100
AcDbEntity
  8
1
100
AcDbPoint
 10
2892.267263770179
 20
2083.588409321164
 30
0.0
  0
POINT
  5
7C74
330
826A
100
AcDbEntity
  8
1
100
AcDbPoint
 10
2892.267263770179
 20
2083.588409321164
 30
0.0
  0
LINE
  5
7C75
330
826A
100
AcDbEntity
  8
1
100
AcDbLine
 10
3933.792027154096
 20
2083.588409321163
 30
0.0
 11
5438.792027154097
 21
2083.588409321163
 31
0.0
1001
ACAD
1000
ASC_BOUNDS
1002
{
1070
    19
1005
0
1005
0
1002
}
  0
POINT
  5
7C76
330
826A
100
AcDbEntity
  8
1
100
AcDbPoint
 10
2892.267263770179
 20
2083.588409321164
 30
0.0
  0
POINT
  5
7C77
330
826A
100
AcDbEntity
  8
1
100
AcDbPoint
 10
2892.267263770179
 20
2083.588409321164
 30
0.0
  0
LINE
  5
7C78
330
826A
100
AcDbEntity
  8
1
100
AcDbLine
 10
4760.792027154097
 20
4012.588409321162
 30
0.0
 11
5385.792027154098
 21
4012.588409321162
 31
0.0
  0
INSERT
  5
7C79
330
826A
100
AcDbEntity
  8
0
100
AcDbBlockReference
  2
YA_N
 10
-1144.893563079054
 20
-989.0222135336152
 30
0.0
 41
25.0
 42
25.0
 43
25.0
  0
DIMENSION
  5
7C7B
330
826A
100
AcDbEntity
  8
3
100
AcDbDimension
  2
*D4
 10
3148.427360764323
 20
2982.588409321163
 30
0.0
 11
3088.427360764323
 21
3497.588409321162
 31
0.0
 12
779.6421487933403
 22
2310.528106485417
 32
0.0
 71
     5
 42
-1.0
  3
Standard
100
AcDbAlignedDimension
 13
2947.26726377018
 23
4012.588409321161
 33
0.0
 14
2947.26726377018
 24
2982.588409321163
 34
0.0
 50
270.0
100
AcDbRotatedDimension
1001
ACAD
1000
DSTYLE
1002
{
1070
    40
1040
30.0
1002
}
  0
DIMENSION
  5
7C7C
330
826A
100
AcDbEntity
  8
3
100
AcDbDimension
  2
*D5
 10
3349.229406223476
 20
2938.588409321162
 30
0.0
 11
3289.229406223476
 21
3475.588409321162
 31
0.0
 12
779.6421487933403
 22
2310.528106485417
 32
0.0
 71
     5
 42
-1.0
  3
Standard
100
AcDbAlignedDimension
 13
2947.26726377018
 23
4012.588409321161
 33
0.0
 14
3006.883246267807
 24
2938.588409321162
 34
0.0
 50
270.0
100
AcDbRotatedDimension
1001
ACAD
1000
DSTYLE
1002
{
1070
    40
1040
30.0
1002
}
  0
POINT
  5
7C7E
330
826A
100
AcDbEntity
  8
1
100
AcDbPoint
 10
2892.267263770179
 20
2083.588409321164
 30
0.0
  0
POINT
  5
7C7F
330
826A
100
AcDbEntity
  8
1
100
AcDbPoint
 10
2892.267263770179
 20
2083.588409321164
 30
0.0
  0
DIMENSION
  5
7C80
330
826A
100
AcDbEntity
  8
3
100
AcDbDimension
  2
*D7
 10
2267.267263770178
 20
4266.363082664137
 30
0.0
 11
2607.267263770179
 21
4326.363082664137
 31
0.0
 12
779.6421487933403
 22
2310.528106485417
 32
0.0
 71
     5
 42
-1.0
  3
Standard
100
AcDbAlignedDimension
 13
2947.26726377018
 23
4065.588409321161
 33
0.0
 14
2267.267263770178
 24
4103.504301661604
 34
0.0
100
AcDbRotatedDimension
1001
ACAD
1000
DSTYLE
1002
{
1070
    40
1040
30.0
1002
}
  0
DIMENSION
  5
7C81
330
826A
100
AcDbEntity
  8
3
100
AcDbDimension
  2
*D8
 10
1402.72314735415
 20
4265.905382729221
 30
0.0
 11
1834.995205562164
 21
4325.905382729223
 31
0.0
 12
779.6421487933403
 22
2310.528106485417
 32
0.0
  1
868
 71
     5
 42
-1.0
  3
Standard
100
AcDbAlignedDimension
 13
2267.267263770178
 23
4103.504301661604
 33
0.0
 14
1402.72314735415
 24
2938.588409321161
 34
0.0
100
AcDbRotatedDimension
1001
ACAD
1000
DSTYLE
1002
{
1070
    40
1040
30.0
1002
}
  0
LINE
  5
7C82
330
826A
100
AcDbEntity
  8
1
100
AcDbLine
 10
5385.792027154098
 20
2938.588409321163
 30
0.0
 11
5385.792027154098
 21
2288.588409321163
 31
0.0
  0
LINE
  5
7C83
330
826A
100
AcDbEntity
  8
1
100
AcDbLine
 10
4135.792027154096
 20
4012.588409321163
 30
0.0
 11
4135.792027154096
 21
2938.588409321163
 31
0.0
  0
LINE
  5
7C84
330
826A
100
AcDbEntity
  8
1
100
AcDbLine
 10
4760.792027154097
 20
4012.588409321162
 30
0.0
 11
4135.792027154097
 21
4012.588409321162
 31
0.0
  0
LINE
  5
7C85
330
826A
100
AcDbEntity
  8
1
100
AcDbLine
 10
4135.792027154096
 20
2938.588409321163
 30
0.0
 11
4135.792027154096
 21
2288.588409321163
 31
0.0
  0
LINE
  5
7C86
330
826A
100
AcDbEntity
  8
1
100
AcDbLine
 10
5540.792027154095
 20
2902.788409321163
 30
0.0
 11
5540.792027154095
 21
2772.788409321163
 31
0.0
  0
LINE
  5
7C87
330
826A
100
AcDbEntity
  8
1
100
AcDbLine
 10
5403.792027154098
 20
2912.788409321163
 30
0.0
 11
5403.792027154096
 21
2762.788409321163
 31
0.0
  0
LINE
  5
7C88
330
826A
100
AcDbEntity
  8
1
100
AcDbLine
 10
5403.792027154096
 20
2912.788409321163
 30
0.0
 11
5453.092027154097
 21
2912.788409321163
 31
0.0
  0
LINE
  5
7C89
330
826A
100
AcDbEntity
  8
1
100
AcDbLine
 10
5403.792027154096
 20
2762.788409321163
 30
0.0
 11
5453.092027154097
 21
2762.788409321163
 31
0.0
  0
ARC
  5
7C8A
330
826A
100
AcDbEntity
  8
1
100
AcDbCircle
 10
5530.792027154098
 20
2902.788409321163
 30
0.0
 40
10.0
100
AcDbArc
 50
0.0000000000006514
 51
90.0
  0
ARC
  5
7C8B
330
826A
100
AcDbEntity
  8
1
100
AcDbCircle
 10
5530.792027154098
 20
2772.788409321163
 30
0.0
 40
10.0
100
AcDbArc
 50
270.0
 51
0.0000000000006514
  0
LINE
  5
7C8C
330
826A
100
AcDbEntity
  8
1
100
AcDbLine
 10
5453.092027154096
 20
2912.788409321163
 30
0.0
 11
5530.792027154095
 21
2912.788409321163
 31
0.0
  0
LINE
  5
7C8D
330
826A
100
AcDbEntity
  8
1
100
AcDbLine
 10
5453.092027154097
 20
2762.788409321163
 30
0.0
 11
5530.792027154098
 21
2762.788409321163
 31
0.0
  0
LINE
  5
7C8E
330
826A
100
AcDbEntity
  8
1
100
AcDbLine
 10
3837.792027154097
 20
3103.688409321163
 30
0.0
 11
3947.792027154097
 21
3103.688409321163
 31
0.0
  0
LINE
  5
7C8F
330
826A
100
AcDbEntity
  8
1
100
AcDbLine
 10
3837.792027154097
 20
2773.488409321163
 30
0.0
 11
3947.792027154097
 21
2773.488409321163
 31
0.0
  0
LINE
  5
7C90
330
826A
100
AcDbEntity
  8
1
100
AcDbLine
 10
3837.792027154097
 20
2637.888409321163
 30
0.0
 11
3947.792027154097
 21
2637.888409321163
 31
0.0
  0
LINE
  5
7C91
330
826A
100
AcDbEntity
  8
1
100
AcDbLine
 10
3837.792027154097
 20
2409.288409321163
 30
0.0
 11
3947.792027154097
 21
2409.288409321163
 31
0.0
  0
LINE
  5
7C92
330
826A
100
AcDbEntity
  8
1
100
AcDbLine
 10
3837.792027154097
 20
3103.688409321163
 30
0.0
 11
3837.792027154097
 21
2409.288409321163
 31
0.0
  0
LINE
  5
7C93
330
826A
100
AcDbEntity
  8
1
100
AcDbLine
 10
3947.792027154097
 20
3103.688409321163
 30
0.0
 11
3947.792027154097
 21
2409.288409321163
 31
0.0
  0
LINE
  5
7C94
330
826A
100
AcDbEntity
  8
1
100
AcDbLine
 10
3700.792027154091
 20
3218.588409321163
 30
0.0
 11
3700.792027154101
 21
2303.588409321163
 31
0.0
  0
LINE
  5
7C95
330
826A
100
AcDbEntity
  8
1
100
AcDbLine
 10
3700.792027154091
 20
3218.588409321163
 30
0.0
 11
3993.292027154092
 21
3218.588409321163
 31
0.0
  0
LINE
  5
7C96
330
826A
100
AcDbEntity
  8
1
100
AcDbLine
 10
3700.7920271541
 20
2303.588409321163
 30
0.0
 11
3993.292027154101
 21
2303.588409321163
 31
0.0
  0
LINE
  5
7C97
330
826A
100
AcDbEntity
  8
1
100
AcDbLine
 10
3993.292027154092
 20
3218.588409321166
 30
0.0
 11
3993.292027154092
 21
3198.588409321163
 31
0.0
  0
LINE
  5
7C98
330
826A
100
AcDbEntity
  8
1
100
AcDbLine
 10
3993.292027154101
 20
2323.588409321163
 30
0.0
 11
3993.292027154101
 21
2303.588409321166
 31
0.0
  0
POINT
  5
7C99
330
826A
100
AcDbEntity
  8
1
100
AcDbPoint
 10
5540.7920271541
 20
2902.788409321163
 30
0.0
  0
LINE
  5
7C9A
330
826A
100
AcDbEntity
  8
2
100
AcDbLine
 10
2267.267263770179
 20
6444.156855695948
 30
0.0
 11
2267.267263770179
 21
4756.169048125389
 31
0.0
  0
LINE
  5
7C9B
330
826A
100
AcDbEntity
  8
2
100
AcDbLine
 10
1781.6126981179
 20
5850.241293846765
 30
0.0
 11
2746.192454152766
 21
5850.241293846764
 31
0.0
  0
INSERT
  5
7C9C
330
826A
100
AcDbEntity
  8
0
100
AcDbBlockReference
  2
YA_N
 10
3439.312525519781
 20
-2261.498311600258
 30
0.0
  0
LINE
  5
7C9E
330
826A
100
AcDbEntity
  8
1
100
AcDbLine
 10
3933.792027154098
 20
1983.588409321163
 30
0.0
 11
5438.792027154097
 21
1983.588409321163
 31
0.0
1001
ACAD
1000
ASC_BOUNDS
1002
{
1070
    19
1002
}
  0
LINE
  5
7C9F
330
826A
100
AcDbEntity
  8
1
100
AcDbLine
 10
5438.792027154097
 20
2288.588409321163
 30
0.0
 11
5438.792027154097
 21
2188.588409321163
 31
0.0
  0
LINE
  5
7CA0
330
826A
100
AcDbEntity
  8
1
100
AcDbLine
 10
3933.792027154096
 20
2288.588409321163
 30
0.0
 11
3933.792027154096
 21
2188.588409321163
 31
0.0
  0
LINE
  5
7CA1
330
826A
100
AcDbEntity
  8
1
100
AcDbLine
 10
4068.492027154097
 20
2906.388409321163
 30
0.0
 11
4002.792027154097
 21
2906.388409321163
 31
0.0
  0
LINE
  5
7CA2
330
826A
100
AcDbEntity
  8
1
100
AcDbLine
 10
4068.492027154095
 20
2756.388409321163
 30
0.0
 11
4002.792027154095
 21
2756.388409321163
 31
0.0
  0
LINE
  5
7CA3
330
826A
100
AcDbEntity
  8
1
100
AcDbLine
 10
4117.792027154096
 20
2906.388409321163
 30
0.0
 11
4117.792027154097
 21
2756.388409321163
 31
0.0
  0
LINE
  5
7CA4
330
826A
100
AcDbEntity
  8
1
100
AcDbLine
 10
4117.792027154097
 20
2756.388409321163
 30
0.0
 11
4068.492027154095
 21
2756.388409321163
 31
0.0
  0
LINE
  5
7CA5
330
826A
100
AcDbEntity
  8
1
100
AcDbLine
 10
4117.792027154097
 20
2906.388409321163
 30
0.0
 11
4068.492027154095
 21
2906.388409321163
 31
0.0
  0
LINE
  5
7CA6
330
826A
100
AcDbEntity
  8
1
100
AcDbLine
 10
3992.792027154098
 20
2896.388409321163
 30
0.0
 11
3992.792027154098
 21
2766.388409321163
 31
0.0
  0
ARC
  5
7CA7
330
826A
100
AcDbEntity
  8
1
100
AcDbCircle
 10
4002.792027154095
 20
2766.388409321163
 30
0.0
 40
10.0
100
AcDbArc
 50
179.9999999999992
 51
270.0
  0
ARC
  5
7CA8
330
826A
100
AcDbEntity
  8
1
100
AcDbCircle
 10
4002.792027154094
 20
2896.388409321163
 30
0.0
 40
10.0
100
AcDbArc
 50
90.0
 51
179.9999999999992
  0
POINT
  5
7CA9
330
826A
100
AcDbEntity
  8
1
100
AcDbPoint
 10
3992.792027154094
 20
2896.388409321163
 30
0.0
  0
LINE
  5
7CAA
330
826A
100
AcDbEntity
  8
1
100
AcDbLine
 10
3957.792027154098
 20
2971.088409321162
 30
0.0
 11
4135.792027154096
 21
2971.088409321163
 31
0.0
  0
LINE
  5
7CAB
330
826A
100
AcDbEntity
  8
1
100
AcDbLine
 10
3957.792027154098
 20
2906.088409321163
 30
0.0
 11
4000.360977997865
 21
2906.088409321163
 31
0.0
  0
LINE
  5
7CAC
330
826A
100
AcDbEntity
  8
1
100
AcDbLine
 10
3957.792027154098
 20
2971.088409321162
 30
0.0
 11
3957.792027154098
 21
2906.088409321163
 31
0.0
  0
LINE
  5
7CAD
330
826A
100
AcDbEntity
  8
1
100
AcDbLine
 10
3947.792027154097
 20
2968.588409321163
 30
0.0
 11
3957.792027154098
 21
2968.588409321163
 31
0.0
  0
LINE
  5
7CAE
330
826A
100
AcDbEntity
  8
1
100
AcDbLine
 10
3947.792027154097
 20
2908.588409321163
 30
0.0
 11
3957.792027154098
 21
2908.588409321163
 31
0.0
  0
LINE
  5
7CB2
330
826A
100
AcDbEntity
  8
1
100
AcDbLine
 10
842.2672637701799
 20
2288.588409321164
 30
0.0
 11
842.2672637701799
 21
2188.588409321164
 31
0.0
  0
LINE
  5
7CB3
330
826A
100
AcDbEntity
  8
1
100
AcDbLine
 10
842.2672637701799
 20
2083.588409321164
 30
0.0
 11
842.2672637701799
 21
1983.588409321164
 31
0.0
  0
POINT
  5
7CB4
330
826A
100
AcDbEntity
  8
1
100
AcDbPoint
 10
2892.267263770179
 20
2083.588409321164
 30
0.0
  0
POINT
  5
7CB5
330
826A
100
AcDbEntity
  8
1
100
AcDbPoint
 10
2892.267263770179
 20
2188.588409321164
 30
0.0
  0
POINT
  5
7CB7
330
826A
100
AcDbEntity
  8
1
100
AcDbPoint
 10
2892.267263770179
 20
2083.588409321164
 30
0.0
  0
POINT
  5
7CB8
330
826A
100
AcDbEntity
  8
1
100
AcDbPoint
 10
3348.544987632922
 20
1983.588409321164
 30
0.0
  0
LINE
  5
7CBC
330
826A
100
AcDbEntity
  8
1
100
AcDbLine
 10
842.2672637701799
 20
5023.241293846766
 30
0.0
 11
2892.267263770179
 21
5023.241293846764
 31
0.0
  0
LINE
  5
7CBD
330
826A
100
AcDbEntity
  8
1
100
AcDbLine
 10
1642.267263770179
 20
6528.241293846765
 30
0.0
 11
2892.267263770179
 21
6528.241293846765
 31
0.0
  0
LINE
  5
7CBE
330
826A
100
AcDbEntity
  8
1
100
AcDbLine
 10
2892.267263770179
 20
6528.241293846765
 30
0.0
 11
2892.267263770179
 21
5023.241293846764
 31
0.0
  0
LINE
  5
7CBF
330
826A
100
AcDbEntity
  8
1
100
AcDbLine
 10
842.2672637701799
 20
5873.241293846768
 30
0.0
 11
842.2672637701799
 21
5023.241293846766
 31
0.0
  0
LINE
  5
7CC0
330
826A
100
AcDbEntity
  8
1
100
AcDbLine
 10
1642.267263770179
 20
6528.241293846765
 30
0.0
 11
1642.267263770179
 21
6475.241293846766
 31
0.0
  0
LINE
  5
7CC1
330
826A
100
AcDbEntity
  8
1
100
AcDbLine
 10
842.2672637701799
 20
5873.241293846766
 30
0.0
 11
1399.267263770179
 21
5873.241293846766
 31
0.0
  0
LINE
  5
7CC2
330
826A
100
AcDbEntity
  8
2
100
AcDbLine
 10
1117.267263770179
 20
5767.276657535138
 30
0.0
 11
1117.267263770179
 21
4758.543412756458
 31
0.0
  0
DIMENSION
  5
7CC3
330
826A
100
AcDbEntity
  8
3
100
AcDbDimension
  2
*D9
 10
2892.267263770179
 20
6749.545231074484
 30
0.0
 11
2267.267263770179
 21
6749.545231074484
 31
0.0
 12
779.6421487933403
 22
2152.209694485525
 32
0.0
 70
   128
 71
     5
 42
-1.0
  3
Standard
100
AcDbAlignedDimension
 13
1642.267263770179
 23
6528.241293846765
 33
0.0
 14
2892.267263770179
 24
6528.241293846765
 34
0.0
100
AcDbRotatedDimension
1001
ACAD
1000
DSTYLE
1002
{
1070
    40
1040
30.0
1002
}
  0
DIMENSION
  5
7CC5
330
826A
100
AcDbEntity
  8
3
100
AcDbDimension
  2
*D11
 10
620.2191962695687
 20
5023.241293846766
 30
0.0
 11
620.2191962695687
 21
5448.241293846766
 31
0.0
 12
779.6421487933403
 22
2152.209694485525
 32
0.0
 70
   128
 71
     5
 42
-1.0
  3
Standard
100
AcDbAlignedDimension
 13
842.2672637701799
 23
5873.241293846768
 33
0.0
 14
842.2672637701799
 24
5023.241293846766
 34
0.0
 50
90.0
100
AcDbRotatedDimension
1001
ACAD
1000
DSTYLE
1002
{
1070
    40
1040
30.0
1002
}
  0
DIMENSION
  5
7CC6
330
826A
100
AcDbEntity
  8
3
100
AcDbDimension
  2
*D12
 10
3290.911401779114
 20
5023.241293846764
 30
0.0
 11
3230.911401779114
 21
5775.741293846764
 31
0.0
 12
779.6421487933403
 22
2152.209694485525
 32
0.0
 71
     5
 42
-1.0
  3
Standard
100
AcDbAlignedDimension
 13
2892.267263770179
 23
6528.241293846765
 33
0.0
 14
2892.267263770179
 24
5023.241293846764
 34
0.0
 50
90.0
100
AcDbRotatedDimension
1001
ACAD
1000
DSTYLE
1002
{
1070
    40
1040
30.0
1002
}
  0
DIMENSION
  5
7CCA
330
826A
100
AcDbEntity
  8
3
100
AcDbDimension
  2
*D16
 10
5385.792027154098
 20
4266.583160743091
 30
0.0
 11
4760.792027154097
 21
4326.583160743092
 31
0.0
 12
-123.312593919396
 22
2310.528106485417
 32
0.0
 71
     5
 42
-1.0
  3
Standard
100
AcDbAlignedDimension
 13
4135.792027154096
 23
3986.9027269748
 33
0.0
 14
5385.792027154098
 24
3983.624174779342
 34
0.0
100
AcDbRotatedDimension
1001
ACAD
1000
DSTYLE
1002
{
1070
    40
1040
30.0
1002
}
  0
DIMENSION
  5
7CCB
330
826A
100
AcDbEntity
  8
3
100
AcDbDimension
  2
*D17
 10
5730.160247525407
 20
3468.588409321163
 30
0.0
 11
5670.160247525408
 21
2938.588409321163
 31
0.0
 12
-123.312593919396
 22
2310.528106485417
 32
0.0
  1
\U+03C6<>
 71
     5
 42
-1.0
  3
Standard
100
AcDbAlignedDimension
 13
5391.292027154097
 23
2408.588409321164
 33
0.0
 14
5391.292027154097
 24
3468.588409321163
 34
0.0
 50
90.0
100
AcDbRotatedDimension
1001
ACAD
1000
DSTYLE
1002
{
1070
    40
1040
30.0
1002
}
  0
LINE
  5
7CCC
330
826A
100
AcDbEntity
  8
2
100
AcDbLine
 10
3671.268115984322
 20
2523.588409321163
 30
0.0
 11
4276.162505125602
 21
2523.588409321163
 31
0.0
  0
ARC
  5
7CCD
330
826A
100
AcDbEntity
  8
1
100
AcDbCircle
 10
2267.267263770178
 20
2938.588409321162
 30
0.0
 40
280.0
100
AcDbArc
 50
287.0299834154885
 51
112.6559573314276
  0
ARC
  5
7CCE
330
826A
100
AcDbEntity
  8
1
100
AcDbCircle
 10
1117.267263770179
 20
2523.588409321163
 30
0.0
 40
220.0
100
AcDbArc
 50
112.6559573314276
 51
287.0299834154885
  0
LINE
  5
7CCF
330
826A
100
AcDbEntity
  8
1
100
AcDbLine
 10
2159.412164539489
 20
3196.982057791744
 30
0.0
 11
1032.523971517495
 21
2726.611990262334
 31
0.0
  0
LINE
  5
7CD0
330
826A
100
AcDbEntity
  8
1
100
AcDbLine
 10
2349.271453970776
 20
2670.865954548419
 30
0.0
 11
1181.69912749922
 21
2313.235051999722
 31
0.0
  0
LINE
  5
7CD1
330
826A
100
AcDbEntity
  8
1
100
AcDbLine
 10
2204.820760514075
 20
3091.423105091087
 30
0.0
 11
1074.035069208261
 21
2629.397044854188
 31
0.0
  0
LINE
  5
7CD2
330
826A
100
AcDbEntity
  8
1
100
AcDbLine
 10
2316.808193091276
 20
2781.096484696432
 30
0.0
 11
1151.564830223247
 21
2414.55553842712
 31
0.0
  0
INSERT
  5
7CD3
330
826A
100
AcDbEntity
  8
0
100
AcDbBlockReference
  2
YA_N
 10
742.6405419924267
 20
-7350.772430041375
 30
0.0
  0
INSERT
  5
7CD5
330
826A
100
AcDbEntity
  8
0
100
AcDbBlockReference
  2
YA_N
 10
2.995684825677016
 20
-7626.802696743742
 30
0.0
 41
20.0
 42
20.0
 43
20.0
  0
INSERT
  5
7CD7
330
826A
100
AcDbEntity
  8
0
100
AcDbBlockReference
  2
YA_N
 10
699.9059132844049
 20
-7054.118742438055
 30
0.0
 41
20.0
 42
20.0
 43
20.0
  0
INSERT
  5
7CD9
330
826A
100
AcDbEntity
  8
0
100
AcDbBlockReference
  2
YA_N
 10
814.1254386385663
 20
-7130.460452277301
 30
0.0
 41
20.0
 42
20.0
 43
20.0
  0
ARC
  5
7CDB
330
826A
100
AcDbEntity
  8
1
100
AcDbCircle
 10
2267.267263770178
 20
2938.588409321162
 30
0.0
 40
599.0
100
AcDbArc
 50
359.9999999999998
 51
4.212499077914481
  0
CIRCLE
  5
7CDC
330
826A
100
AcDbEntity
  8
1
100
AcDbCircle
 10
2267.267263770178
 20
2938.588409321162
 30
0.0
 40
530.0
  0
CIRCLE
  5
7CDD
330
826A
100
AcDbEntity
  8
1
100
AcDbCircle
 10
2267.267263770178
 20
2938.588409321162
 30
0.0
 40
580.0
  0
LINE
  5
7CDE
330
826A
100
AcDbEntity
  8
1
100
AcDbLine
 10
5438.792027154097
 20
2083.588409321163
 30
0.0
 11
5438.792027154097
 21
1983.588409321163
 31
0.0
  0
LINE
  5
7CDF
330
826A
100
AcDbEntity
  8
1
100
AcDbLine
 10
3933.792027154096
 20
2083.588409321163
 30
0.0
 11
3933.792027154098
 21
1983.588409321163
 31
0.0
  0
LINE
  5
7CE3
330
826A
100
AcDbEntity
  8
1
100
AcDbLine
 10
897.2672637701789
 20
4790.241293846766
 30
0.0
 11
2547.267263770178
 21
4790.241293846764
 31
0.0
  0
LINE
  5
7CE4
330
826A
100
AcDbEntity
  8
1
100
AcDbLine
 10
897.2672637701789
 20
5110.241293846765
 30
0.0
 11
2547.267263770178
 21
5110.241293846764
 31
0.0
  0
LINE
  5
7CE5
330
826A
100
AcDbEntity
  8
1
100
AcDbLine
 10
2547.267263770178
 20
4790.241293846764
 30
0.0
 11
2547.267263770178
 21
5110.241293846764
 31
0.0
  0
LINE
  5
7CE6
330
826A
100
AcDbEntity
  8
1
100
AcDbLine
 10
897.2672637701789
 20
4790.241293846766
 30
0.0
 11
897.2672637701789
 21
5110.241293846765
 31
0.0
  0
LINE
  5
7CE7
330
826A
100
AcDbEntity
  8
1
100
AcDbLine
 10
1002.967263770178
 20
4955.241293846766
 30
0.0
 11
1002.967263770178
 21
5065.241293846766
 31
0.0
  0
LINE
  5
7CE8
330
826A
100
AcDbEntity
  8
1
100
AcDbLine
 10
1231.567263770179
 20
4955.241293846764
 30
0.0
 11
1231.567263770179
 21
5065.241293846765
 31
0.0
  0
LINE
  5
7CE9
330
826A
100
AcDbEntity
  8
1
100
AcDbLine
 10
2432.367263770178
 20
4955.241293846764
 30
0.0
 11
2432.367263770178
 21
5065.241293846764
 31
0.0
  0
LINE
  5
7CEA
330
826A
100
AcDbEntity
  8
1
100
AcDbLine
 10
2102.167263770177
 20
4955.241293846764
 30
0.0
 11
2102.167263770177
 21
5065.241293846764
 31
0.0
  0
LINE
  5
7CEB
330
826A
100
AcDbEntity
  8
1
100
AcDbLine
 10
1002.967263770178
 20
5065.241293846766
 30
0.0
 11
1231.567263770179
 21
5065.241293846766
 31
0.0
  0
LINE
  5
7CEC
330
826A
100
AcDbEntity
  8
1
100
AcDbLine
 10
1002.967263770178
 20
4955.241293846766
 30
0.0
 11
1231.567263770179
 21
4955.241293846766
 31
0.0
  0
LINE
  5
7CED
330
826A
100
AcDbEntity
  8
1
100
AcDbLine
 10
2102.167263770177
 20
4955.241293846764
 30
0.0
 11
2432.367263770178
 21
4955.241293846764
 31
0.0
  0
LINE
  5
7CEE
330
826A
100
AcDbEntity
  8
1
100
AcDbLine
 10
2102.167263770177
 20
5065.241293846764
 30
0.0
 11
2432.367263770178
 21
5065.241293846764
 31
0.0
  0
LINE
  5
7CEF
330
826A
100
AcDbEntity
  8
1
100
AcDbLine
 10
1299.767263770179
 20
5631.741293846768
 30
0.0
 11
1299.767263770179
 21
5070.241293846766
 31
0.0
  0
LINE
  5
7CF0
330
826A
100
AcDbEntity
  8
1
100
AcDbLine
 10
934.7672637701789
 20
5631.741293846768
 30
0.0
 11
934.7672637701789
 21
5070.241293846766
 31
0.0
  0
LINE
  5
7CF1
330
826A
100
AcDbEntity
  8
1
100
AcDbLine
 10
934.7672637701789
 20
5631.741293846766
 30
0.0
 11
1299.767263770179
 21
5631.741293846766
 31
0.0
  0
LINE
  5
7CF2
330
826A
100
AcDbEntity
  8
1
100
AcDbLine
 10
934.7672637701789
 20
5070.241293846766
 30
0.0
 11
1299.767263770179
 21
5070.241293846766
 31
0.0
  0
LINE
  5
7CF3
330
826A
100
AcDbEntity
  8
1
100
AcDbLine
 10
1141.267263770178
 20
5070.241293846766
 30
0.0
 11
1141.267263770178
 21
5065.241293846766
 31
0.0
  0
LINE
  5
7CF4
330
826A
100
AcDbEntity
  8
1
100
AcDbLine
 10
1093.267263770179
 20
5070.241293846766
 30
0.0
 11
1093.267263770179
 21
5065.241293846766
 31
0.0
  0
LINE
  5
7CF5
330
826A
100
AcDbEntity
  8
1
100
AcDbLine
 10
4135.792027154096
 20
2706.088409321164
 30
0.0
 11
3952.792027154099
 21
2706.088409321164
 31
0.0
  0
LINE
  5
7CF6
330
826A
100
AcDbEntity
  8
1
100
AcDbLine
 10
4135.792027154096
 20
2341.088409321164
 30
0.0
 11
3952.792027154099
 21
2341.088409321164
 31
0.0
  0
LINE
  5
7CF7
330
826A
100
AcDbEntity
  8
1
100
AcDbLine
 10
3952.792027154098
 20
2706.088409321164
 30
0.0
 11
3952.792027154098
 21
2341.088409321164
 31
0.0
  0
LINE
  5
7CF8
330
826A
100
AcDbEntity
  8
1
100
AcDbLine
 10
3952.792027154099
 20
2547.588409321164
 30
0.0
 11
3947.792027154097
 21
2547.588409321164
 31
0.0
  0
LINE
  5
7CF9
330
826A
100
AcDbEntity
  8
1
100
AcDbLine
 10
3952.792027154099
 20
2499.588409321164
 30
0.0
 11
3947.792027154097
 21
2499.588409321164
 31
0.0
  0
DIMENSION
  5
7CFA
330
826A
100
AcDbEntity
  8
3
100
AcDbDimension
  2
*D18
 10
842.2672637701799
 20
4445.749586040043
 30
0.0
 11
1894.767263770179
 21
4505.749586040042
 31
0.0
 12
779.6421487933403
 22
2310.528106485417
 32
0.0
 71
     5
 42
-1.0
  3
Standard
100
AcDbAlignedDimension
 13
2947.26726377018
 23
4065.588409321161
 33
0.0
 14
842.2672637701799
 24
2288.588409321162
 34
0.0
100
AcDbRotatedDimension
1001
ACAD
1000
DSTYLE
1002
{
1070
    40
1040
30.0
1002
}
  0
LINE
  5
7CFB
330
826A
100
AcDbEntity
  8
1
100
AcDbLine
 10
2947.26726377018
 20
6525.241293846763
 30
0.0
 11
2947.26726377018
 21
5175.241293846764
 31
0.0
  0
LINE
  5
7CFC
330
826A
100
AcDbEntity
  8
1
100
AcDbLine
 10
1399.267263770179
 20
6475.241293846766
 30
0.0
 11
1399.267263770179
 21
5225.241293846764
 31
0.0
  0
LINE
  5
7CFD
330
826A
100
AcDbEntity
  8
1
100
AcDbLine
 10
1399.267263770179
 20
5225.241293846764
 30
0.0
 11
2947.26726377018
 21
5225.241293846764
 31
0.0
  0
LINE
  5
7CFE
330
826A
100
AcDbEntity
  8
1
100
AcDbLine
 10
1399.267263770179
 20
6475.241293846766
 30
0.0
 11
2947.26726377018
 21
6475.241293846763
 31
0.0
  0
LINE
  5
7CFF
330
826A
100
AcDbEntity
  8
1
100
AcDbLine
 10
2943.267263770179
 20
6525.241293846764
 30
0.0
 11
2947.26726377018
 21
6525.241293846763
 31
0.0
  0
LINE
  5
7D00
330
826A
100
AcDbEntity
  8
1
100
AcDbLine
 10
2943.267263770179
 20
5175.241293846764
 30
0.0
 11
2947.26726377018
 21
5175.241293846764
 31
0.0
  0
LINE
  5
7D01
330
826A
100
AcDbEntity
  8
1
100
AcDbLine
 10
2943.267263770179
 20
6525.241293846763
 30
0.0
 11
2943.267263770179
 21
5175.241293846764
 31
0.0
  0
LINE
  5
7D02
330
826A
100
AcDbEntity
  8
1
100
AcDbLine
 10
5385.792027154098
 20
2982.588409321163
 30
0.0
 11
4135.792027154097
 21
2982.588409321163
 31
0.0
  0
LINE
  5
7D03
330
826A
100
AcDbEntity
  8
1
100
AcDbLine
 10
5385.792027154098
 20
4012.588409321162
 30
0.0
 11
4135.792027154096
 21
2982.588409321163
 31
0.0
  0
LINE
  5
7D04
330
826A
100
AcDbEntity
  8
1
100
AcDbLine
 10
4135.792027154096
 20
4012.588409321162
 30
0.0
 11
5385.792027154098
 21
2982.588409321163
 31
0.0
  0
LINE
  5
7D05
330
826A
100
AcDbEntity
  8
1
100
AcDbLine
 10
2299.76726377018
 20
5225.241293846765
 30
0.0
 11
2299.76726377018
 21
5065.241293846765
 31
0.0
  0
LINE
  5
7D06
330
826A
100
AcDbEntity
  8
1
100
AcDbLine
 10
2234.76726377018
 20
5225.241293846765
 30
0.0
 11
2234.76726377018
 21
5065.241293846765
 31
0.0
  0
LINE
  5
7D07
330
826A
100
AcDbEntity
  8
1
100
AcDbLine
 10
4117.792027154096
 20
2906.088409321163
 30
0.0
 11
4135.792027154096
 21
2906.088409321163
 31
0.0
  0
DIMENSION
  5
7D08
330
826A
100
AcDbEntity
  8
3
100
AcDbDimension
  2
*D19
 10
842.2672637701799
 20
6749.545231074484
 30
0.0
 11
1242.267263770179
 21
6809.545231074484
 31
0.0
 12
779.6421487933403
 22
2152.209694485525
 32
0.0
 71
     5
 42
-1.0
  3
Standard
100
AcDbAlignedDimension
 13
1642.267263770179
 23
6528.241293846765
 33
0.0
 14
842.2672637701799
 24
5873.241293846766
 34
0.0
100
AcDbRotatedDimension
1001
ACAD
1000
DSTYLE
1002
{
1070
    40
1040
30.0
1002
}
  0
LINE
  5
7F3F
330
826A
100
AcDbEntity
  8
4
100
AcDbLine
 10
5550.0
 20
1193.063590389734
 30
0.0
 11
5550.0
 21
593.0635903897345
 31
0.0
  0
LINE
  5
7F40
330
826A
100
AcDbEntity
  8
4
100
AcDbLine
 10
3450.0
 20
1193.063590389734
 30
0.0
 11
3450.0
 21
593.0635903897345
 31
0.0
  0
LINE
  5
7F41
330
826A
100
AcDbEntity
  8
4
100
AcDbLine
 10
1950.0
 20
1193.063590389734
 30
0.0
 11
1950.0
 21
593.0635903897345
 31
0.0
  0
LINE
  5
7F44
330
826A
100
AcDbEntity
  8
4
100
AcDbLine
 10
1950.0
 20
593.0635903897345
 30
0.0
 11
5550.0
 21
593.0635903897345
 31
0.0
  0
LINE
  5
7F45
330
826A
100
AcDbEntity
  8
4
100
AcDbLine
 10
1950.0
 20
893.0635903897346
 30
0.0
 11
5550.0
 21
893.0635903897346
 31
0.0
  0
TEXT
  5
7F46
330
826A
100
AcDbEntity
  8
4
100
AcDbText
 10
2065.506242540704
 20
987.692667989573
 30
0.0
 40
150.0
  1
機器名称
100
AcDbText
  0
TEXT
  5
7F47
330
826A
100
AcDbEntity
  8
4
100
AcDbText
 10
2058.774318074392
 20
657.9990605857673
 30
0.0
 40
150.0
  1
機器型番
100
AcDbText
  0
TEXT
  5
7F48
330
826A
100
AcDbEntity
  8
4
100
AcDbText
 10
3533.036236462995
 20
960.7788972624403
 30
0.0
 40
150.0
  1
ミツヤ多翼送風機
100
AcDbText
  0
TEXT
  5
7F49
330
826A
100
AcDbEntity
  8
4
100
AcDbText
 10
3559.963486756442
 20
644.5423432295647
 30
0.0
 40
150.0
  1
MF#6-5
100
AcDbText
  0
TEXT
  5
7F4B
330
826A
100
AcDbEntity
  8
4
100
AcDbText
 10
2397.531064137263
 20
7150.286523997547
 30
0.0
 40
161.9999999999998
  1
床置防振ベット
100
AcDbText
  0
TEXT
  5
7F4C
330
826A
100
AcDbEntity
  8
4
100
AcDbText
 10
948.5027799883393
 20
7601.642928597894
 30
0.0
 40
216.0
  1
遠心式両吸込両持多翼ファン
100
AcDbText
  0
LINE
  5
7F4D
330
826A
100
AcDbEntity
  8
4
100
AcDbLine
 10
750.0
 20
7408.226262794413
 30
0.0
 11
5550.0
 21
7408.226262794413
 31
0.0
  0
LINE
  5
7F4E
330
826A
100
AcDbEntity
  8
4
100
AcDbLine
 10
750.0
 20
8008.226262794414
 30
0.0
 11
5550.0
 21
8008.226262794414
 31
0.0
  0
LINE
  5
7F4F
330
826A
100
AcDbEntity
  8
4
100
AcDbLine
 10
1950.0
 20
1193.063590389734
 30
0.0
 11
5550.0
 21
1193.063590389734
 31
0.0
  0
LINE
  5
7F50
330
826A
100
AcDbEntity
  8
4
100
AcDbLine
 10
750.0
 20
8008.226262794414
 30
0.0
 11
750.0
 21
7408.226262794413
 31
0.0
  0
TEXT
  5
7F51
330
826A
100
AcDbEntity
  8
4
100
AcDbText
 10
1089.954567409156
 20
7146.958432639029
 30
0.0
 40
161.9999999999998
  1
右回転右横向
100
AcDbText
  0
TEXT
  5
7F52
330
826A
100
AcDbEntity
  8
4
100
AcDbText
 10
4406.908677747869
 20
8118.183244485924
 30
0.0
 40
168.0
  1
No.
100
AcDbText
  0
TEXT
  5
7F53
330
826A
100
AcDbEntity
  8
4
100
AcDbText
 10
3933.888187800039
 20
7150.286523997547
 30
0.0
 40
161.9999999999998
  1
縮尺：1/30
100
AcDbText
  0
LINE
  5
7F54
330
826A
100
AcDbEntity
  8
4
100
AcDbLine
 10
5550.0
 20
8008.226262794414
 30
0.0
 11
5550.0
 21
7408.226262794413
 31
0.0
  0
LINE
  5
7F55
330
826A
100
AcDbEntity
  8
4
100
AcDbLine
 10
6300.0
 20
8850.0
 30
0.0
 11
6300.0
 21
8850.0
 31
0.0
  0
LINE
  5
7F56
330
826A
100
AcDbEntity
  8
4
100
AcDbLine
 10
4321.852267079594
 20
8043.790749376205
 30
0.0
 11
4321.852267079594
 21
8359.956784649257
 31
0.0
  0
LINE
  5
7F57
330
826A
100
AcDbEntity
  8
4
100
AcDbLine
 10
4321.852267079594
 20
8359.956784649257
 30
0.0
 11
5550.0
 21
8359.956784649257
 31
0.0
  0
LINE
  5
7F58
330
826A
100
AcDbEntity
  8
4
100
AcDbLine
 10
5550.0
 20
8359.956784649257
 30
0.0
 11
5550.0
 21
8043.790749376205
 31
0.0
  0
LINE
  5
7F59
330
826A
100
AcDbEntity
  8
4
100
AcDbLine
 10
5550.0
 20
8043.790749376205
 30
0.0
 11
4321.852267079594
 21
8043.790749376205
 31
0.0
  0
LINE
  5
7F5A
330
826A
100
AcDbEntity
  8
4
100
AcDbLine
 10
0.0
 20
0.0
 30
0.0
 11
0.0
 21
8850.0
 31
0.0
  0
LINE
  5
7F5B
330
826A
100
AcDbEntity
  8
4
100
AcDbLine
 10
0.0
 20
8850.0
 30
0.0
 11
6300.0
 21
8850.0
 31
0.0
  0
LINE
  5
7F5C
330
826A
100
AcDbEntity
  8
4
100
AcDbLine
 10
6300.0
 20
8850.0
 30
0.0
 11
6300.0
 21
0.0
 31
0.0
  0
LINE
  5
7F5D
330
826A
100
AcDbEntity
  8
4
100
AcDbLine
 10
6300.0
 20
0.0
 30
0.0
 11
0.0
 21
0.0
 31
0.0
  0
DIMENSION
  5
82B5
330
826A
100
AcDbEntity
  8
3
100
AcDbDimension
  2
*D29
 10
4760.792027154097
 20
4477.964591014305
 30
0.0
 11
4230.792027154094
 21
4576.536019585733
 31
0.0
 70
    32
 71
     5
 42
1060.000000000006
  3
IGA
100
AcDbAlignedDimension
 13
3700.792027154091
 23
3218.588409321163
 33
0.0
 14
4760.792027154097
 24
4371.583160743091
 34
0.0
100
AcDbRotatedDimension
1001
ACAD
1000
DSTYLE
1002
{
1070
     3
1000
(<>)
1070
    40
1040
30.0
1070
    42
1040
1.0
1070
   143
1040
0.039
1070
   172
1070
     1
1070
   271
1070
     4
1070
   272
1070
     4
1070
   279
1070
     0
1070
   284
1070
     0
1070
   285
1070
     0
1070
   286
1070
     0
1070
   341
1005
827E
1070
   343
1005
827E
1070
   344
1005
827E
1002
}
  0
DIMENSION
  5
82C2
330
826A
100
AcDbEntity
  8
3
100
AcDbDimension
  2
*D30
 10
5540.792027154095
 20
4477.964591014305
 30
0.0
 11
5150.792027154096
 21
4576.536019585733
 31
0.0
 70
    32
 71
     5
 42
779.9999999999982
  3
IGA
100
AcDbAlignedDimension
 13
4760.792027154097
 23
4371.583160743091
 33
0.0
 14
5540.792027154095
 24
2902.788409321163
 34
0.0
100
AcDbRotatedDimension
1001
ACAD
1000
DSTYLE
1002
{
1070
     3
1000
(<>)
1070
    40
1040
30.0
1070
    42
1040
1.0
1070
   143
1040
0.039
1070
   172
1070
     1
1070
   271
1070
     4
1070
   272
1070
     4
1070
   279
1070
     1
1070
   284
1070
     0
1070
   285
1070
     0
1070
   286
1070
     0
1070
   341
1005
827E
1070
   343
1005
827E
1070
   344
1005
827E
1002
}
  0
DIMENSION
  5
835C
330
826A
100
AcDbEntity
  8
3
100
AcDbDimension
  2
*D39
 10
4760.792027154096
 20
1752.447614116536
 30
0.0
 11
4347.292027154097
 21
1827.447614116536
 31
0.0
 70
    32
 71
     5
 42
826.9999999999987
  3
IGA
100
AcDbAlignedDimension
 13
3933.792027154098
 23
1983.588409321163
 33
0.0
 14
4760.792027154096
 24
1983.588409321163
 34
0.0
100
AcDbRotatedDimension
1001
ACAD
1000
DSTYLE
1002
{
1070
    40
1040
30.0
1070
    42
1040
1.0
1070
   143
1040
0.039
1070
   172
1070
     1
1070
   271
1070
     4
1070
   272
1070
     4
1070
   279
1070
     0
1070
   284
1070
     0
1070
   285
1070
     0
1070
   286
1070
     0
1070
   341
1005
827E
1070
   343
1005
827E
1070
   344
1005
827E
1002
}
  0
DIMENSION
  5
8369
330
826A
100
AcDbEntity
  8
3
100
AcDbDimension
  2
*D40
 10
5438.792027154097
 20
1752.447614116536
 30
0.0
 11
5099.792027154097
 21
1827.447614116536
 31
0.0
 70
    32
 71
     5
 42
678.0000000000009
  3
IGA
100
AcDbAlignedDimension
 13
4760.792027154096
 23
1983.588409321163
 33
0.0
 14
5438.792027154097
 24
1983.588409321163
 34
0.0
100
AcDbRotatedDimension
1001
ACAD
1000
DSTYLE
1002
{
1070
    40
1040
30.0
1070
    42
1040
1.0
1070
   143
1040
0.039
1070
   172
1070
     1
1070
   271
1070
     4
1070
   272
1070
     4
1070
   279
1070
     1
1070
   284
1070
     0
1070
   285
1070
     0
1070
   286
1070
     0
1070
   341
1005
827E
1070
   343
1005
827E
1070
   344
1005
827E
1002
}
  0
DIMENSION
  5
8376
330
826A
100
AcDbEntity
  8
3
100
AcDbDimension
  2
*D41
 10
2267.267263770178
 20
1752.447614116536
 30
0.0
 11
1554.767263770179
 21
1827.447614116536
 31
0.0
 70
    32
 71
     5
 42
1424.999999999998
  3
IGA
100
AcDbAlignedDimension
 13
842.2672637701799
 23
1983.588409321164
 33
0.0
 14
2267.267263770178
 24
1983.588409321164
 34
0.0
100
AcDbRotatedDimension
1001
ACAD
1000
DSTYLE
1002
{
1070
    40
1040
30.0
1070
    42
1040
1.0
1070
   143
1040
0.039
1070
   172
1070
     1
1070
   271
1070
     4
1070
   272
1070
     4
1070
   279
1070
     0
1070
   284
1070
     0
1070
   285
1070
     0
1070
   286
1070
     0
1070
   341
1005
827E
1070
   343
1005
827E
1070
   344
1005
827E
1002
}
  0
DIMENSION
  5
8383
330
826A
100
AcDbEntity
  8
3
100
AcDbDimension
  2
*D42
 10
2892.267263770179
 20
1752.447614116536
 30
0.0
 11
2579.767263770179
 21
1827.447614116536
 31
0.0
 70
    32
 71
     5
 42
625.0000000000008
  3
IGA
100
AcDbAlignedDimension
 13
2267.267263770178
 23
1983.588409321164
 33
0.0
 14
2892.267263770179
 24
1983.588409321164
 34
0.0
100
AcDbRotatedDimension
1001
ACAD
1000
DSTYLE
1002
{
1070
    40
1040
30.0
1070
    42
1040
1.0
1070
   143
1040
0.039
1070
   172
1070
     1
1070
   271
1070
     4
1070
   272
1070
     4
1070
   279
1070
     1
1070
   284
1070
     0
1070
   285
1070
     0
1070
   286
1070
     0
1070
   341
1005
827E
1070
   343
1005
827E
1070
   344
1005
827E
1002
}
  0
DIMENSION
  5
8390
330
826A
100
AcDbEntity
  8
3
100
AcDbDimension
  2
*D43
 10
3349.229406223476
 20
2188.588409321164
 30
0.0
 11
3274.229406223476
 21
2563.588409321164
 31
0.0
 70
    32
 71
     5
 42
749.9999999999982
  3
IGA
100
AcDbAlignedDimension
 13
3006.883246267807
 23
2938.588409321162
 33
0.0
 14
2892.267263770179
 24
2188.588409321164
 34
0.0
 50
90.0
100
AcDbRotatedDimension
1001
ACAD
1000
DSTYLE
1002
{
1070
    40
1040
30.0
1070
    42
1040
1.0
1070
   143
1040
0.039
1070
   172
1070
     1
1070
   271
1070
     4
1070
   272
1070
     4
1070
   279
1070
     0
1070
   284
1070
     0
1070
   285
1070
     0
1070
   286
1070
     0
1070
   341
1005
827E
1070
   343
1005
827E
1070
   344
1005
827E
1002
}
  0
DIMENSION
  5
839D
330
826A
100
AcDbEntity
  8
3
100
AcDbDimension
  2
*D44
 10
3349.229406223476
 20
2083.588409321164
 30
0.0
 11
3563.218946344139
 21
2204.734017608757
 31
0.0
 70
   160
  1
(<>)
 71
     5
 42
105.0
  3
IGA
100
AcDbAlignedDimension
 13
2892.267263770179
 23
2188.588409321164
 33
0.0
 14
2892.267263770179
 24
2083.588409321164
 34
0.0
 50
90.0
100
AcDbRotatedDimension
1001
ACAD
1000
DSTYLE
1002
{
1070
    40
1040
30.0
1070
    42
1040
1.0
1070
   143
1040
0.039
1070
   172
1070
     1
1070
   271
1070
     4
1070
   272
1070
     4
1070
   279
1070
     1
1070
   284
1070
     0
1070
   285
1070
     0
1070
   286
1070
     0
1070
   341
1005
827E
1070
   343
1005
827E
1070
   344
1005
8495
1002
}
  0
DIMENSION
  5
83AF
330
826A
100
AcDbEntity
  8
3
100
AcDbDimension
  2
*D45
 10
3349.229406223476
 20
1983.588409321164
 30
0.0
 11
3345.899761041626
 21
1835.918046900351
 31
0.0
 70
   160
 71
     5
 42
99.99999999999978
  3
IGA
100
AcDbAlignedDimension
 13
2892.267263770179
 23
2083.588409321164
 33
0.0
 14
2892.267263770179
 24
1983.588409321164
 34
0.0
 50
90.0
100
AcDbRotatedDimension
1001
ACAD
1000
DSTYLE
1002
{
1070
    40
1040
30.0
1070
    42
1040
1.0
1070
   143
1040
0.039
1070
   172
1070
     1
1070
   271
1070
     4
1070
   272
1070
     4
1070
   279
1070
     1
1070
   284
1070
     0
1070
   285
1070
     0
1070
   286
1070
     0
1070
   341
1005
827E
1070
   343
1005
8495
1070
   344
1005
827E
1002
}
  0
DIMENSION
  5
8500
330
826A
100
AcDbEntity
  8
3
100
AcDbDimension
  2
*D47
 10
3601.079733745508
 20
1983.588409321163
 30
0.0
 11
3502.508305174079
 21
2998.088409321164
 31
0.0
 70
    32
  1
(<>)
 71
     5
 42
2028.999999999998
  3
IGA
100
AcDbAlignedDimension
 13
2947.26726377018
 23
4012.588409321161
 33
0.0
 14
2892.267263770179
 24
1983.588409321164
 34
0.0
 50
90.0
100
AcDbRotatedDimension
1001
ACAD
1000
DSTYLE
1002
{
1070
    40
1040
30.0
1070
    42
1040
1.0
1070
   143
1040
0.039
1070
   172
1070
     1
1070
   271
1070
     4
1070
   272
1070
     4
1070
   279
1070
     0
1070
   284
1070
     0
1070
   285
1070
     0
1070
   286
1070
     0
1070
   341
1005
827E
1070
   343
1005
827E
1070
   344
1005
827E
1002
}
  0
DIMENSION
  5
851F
330
826A
100
AcDbEntity
  8
3
100
AcDbDimension
  2
*D48
 10
2892.267263770179
 20
4604.026134943739
 30
0.0
 11
1867.267263770179
 21
4679.026134943739
 31
0.0
 70
    32
 71
     5
 42
2049.999999999999
  3
IGA
100
AcDbAlignedDimension
 13
842.2672637701799
 23
5023.241293846766
 33
0.0
 14
2892.267263770179
 24
5023.241293846764
 34
0.0
100
AcDbRotatedDimension
1001
ACAD
1000
DSTYLE
1002
{
1070
    40
1040
30.0
1070
    42
1040
1.0
1070
   143
1040
0.039
1070
   172
1070
     1
1070
   271
1070
     4
1070
   272
1070
     4
1070
   279
1070
     0
1070
   284
1070
     0
1070
   285
1070
     0
1070
   286
1070
     0
1070
   341
1005
827E
1070
   343
1005
827E
1070
   344
1005
827E
1002
}
  0
ENDSEC
  0
SECTION
  2
OBJECTS
  0
DICTIONARY
  5
8207
330
0
100
AcDbDictionary
281
     1
  3
ACAD_CIP_PREVIOUS_PRODUCT_INFO
350
82B4
  3
ACAD_COLOR
350
825D
  3
ACAD_DETAILVIEWSTYLE
350
8264
  3
ACAD_GROUP
350
8208
  3
ACAD_LAYOUT
350
825C
  3
ACAD_MATERIAL
350
820B
  3
ACAD_MLEADERSTYLE
350
8260
  3
ACAD_MLINESTYLE
350
8259
  3
ACAD_PLOTSETTINGS
350
825B
  3
ACAD_PLOTSTYLENAME
350
8209
  3
ACAD_SCALELIST
350
823D
  3
ACAD_SECTIONVIEWSTYLE
350
8262
  3
ACAD_TABLESTYLE
350
825E
  3
ACAD_VISUALSTYLE
350
8224
  3
ACDB_RECOMPOSE_DATA
350
8543
  3
AcDbVariableDictionary
350
8536
  3
DWGPROPS
350
8544
  0
DICTIONARY
  5
852C
330
824F
100
AcDbDictionary
280
     1
281
     1
  3
ADSK_XREC_LAYER_RECONCILED
360
852D
  0
DICTIONARY
  5
852E
330
826E
100
AcDbDictionary
280
     1
281
     1
  3
ADSK_XREC_LAYER_RECONCILED
360
852F
  0
DICTIONARY
  5
8530
330
8271
100
AcDbDictionary
280
     1
281
     1
  3
ADSK_XREC_LAYER_RECONCILED
360
8531
  0
DICTIONARY
  5
8532
330
8272
100
AcDbDictionary
280
     1
281
     1
  3
ADSK_XREC_LAYER_RECONCILED
360
8533
  0
DICTIONARY
  5
8534
330
8273
100
AcDbDictionary
280
     1
281
     1
  3
ADSK_XREC_LAYER_RECONCILED
360
8535
  0
XRECORD
  5
82B4
102
{ACAD_REACTORS
330
8207
102
}
330
8207
100
AcDbXrecord
280
     1
300
ACDLT
300
2015
300
INVLTS_F_S
  0
DICTIONARY
  5
825D
102
{ACAD_REACTORS
330
8207
102
}
330
8207
100
AcDbDictionary
281
     1
  0
DICTIONARY
  5
8264
102
{ACAD_REACTORS
330
8207
102
}
330
8207
100
AcDbDictionary
281
     1
  3
Imperial24
350
8265
  0
DICTIONARY
  5
8208
102
{ACAD_REACTORS
330
8207
102
}
330
8207
100
AcDbDictionary
281
     1
  0
DICTIONARY
  5
825C
102
{ACAD_REACTORS
330
8207
102
}
330
8207
100
AcDbDictionary
281
     1
  3
Model
350
826D
  3
レイアウト1
350
8269
  0
DICTIONARY
  5
820B
102
{ACAD_REACTORS
330
8207
102
}
330
8207
100
AcDbDictionary
281
     1
  3
ByBlock
350
8214
  3
ByLayer
350
820C
  3
Global
350
821C
  0
DICTIONARY
  5
8260
102
{ACAD_REACTORS
330
8207
102
}
330
8207
100
AcDbDictionary
281
     1
  3
Standard
350
8261
  0
DICTIONARY
  5
8259
102
{ACAD_REACTORS
330
8207
102
}
330
8207
100
AcDbDictionary
281
     1
  3
Standard
350
825A
  0
DICTIONARY
  5
825B
102
{ACAD_REACTORS
330
8207
102
}
330
8207
100
AcDbDictionary
281
     1
  0
ACDBDICTIONARYWDFLT
  5
8209
102
{ACAD_REACTORS
330
8207
102
}
330
8207
100
AcDbDictionary
281
     1
  3
Normal
350
820A
100
AcDbDictionaryWithDefault
340
820A
  0
DICTIONARY
  5
823D
102
{ACAD_REACTORS
330
8207
102
}
330
8207
100
AcDbDictionary
281
     1
  3
A0
350
823E
  3
A1
350
823F
  3
A2
350
8240
  3
A3
350
8241
  3
A4
350
8242
  3
A5
350
8243
  3
A6
350
8244
  3
A7
350
8245
  3
A8
350
8246
  3
A9
350
8247
  3
B0
350
8248
  3
B1
350
8249
  3
B2
350
824A
  3
B3
350
824B
  3
B4
350
824C
  3
B5
350
824D
  3
B6
350
824E
  0
DICTIONARY
  5
8262
102
{ACAD_REACTORS
330
8207
102
}
330
8207
100
AcDbDictionary
281
     1
  3
Imperial24
350
8263
  0
DICTIONARY
  5
825E
102
{ACAD_REACTORS
330
8207
102
}
330
8207
100
AcDbDictionary
281
     1
  3
Standard
350
825F
  0
DICTIONARY
  5
8224
102
{ACAD_REACTORS
330
8207
102
}
330
8207
100
AcDbDictionary
281
     1
  3
2dWireframe
350
822A
  3
Basic
350
8229
  3
Brighten
350
8230
  3
ColorChange
350
8234
  3
Conceptual
350
822D
  3
Dim
350
822F
  3
EdgeColorOff
350
823C
  3
Facepattern
350
8233
  3
Flat
350
8225
  3
FlatWithEdges
350
8226
  3
Gouraud
350
8227
  3
GouraudWithEdges
350
8228
  3
Hidden
350
822C
  3
JitterOff
350
823A
  3
Linepattern
350
8232
  3
OverhangOff
350
823B
  3
Realistic
350
822E
  3
Shaded
350
8239
  3
Shaded with edges
350
8238
  3
Shades of Gray
350
8235
  3
Sketchy
350
8236
  3
Thicken
350
8231
  3
Wireframe
350
822B
  3
X-Ray
350
8237
  0
XRECORD
  5
8543
102
{ACAD_REACTORS
330
8207
102
}
330
8207
100
AcDbXrecord
280
     1
 90
        1
330
825F
  0
DICTIONARY
  5
8536
102
{ACAD_REACTORS
330
8207
102
}
330
8207
100
AcDbDictionary
281
     1
  3
CANNOSCALE
350
853B
  3
CMLEADERSTYLE
350
8538
  3
CTABLESTYLE
350
8537
  3
CVIEWDETAILSTYLE
350
8539
  3
CVIEWSECTIONSTYLE
350
853A
  3
DIMASSOC
350
853E
  3
INDEXCTL
350
853D
  3
SORTENTS
350
853C
  3
XCLIPFRAME
350
853F
  0
XRECORD
  5
8544
102
{ACAD_REACTORS
330
8207
102
}
330
8207
100
AcDbXrecord
280
     1
  1
DWGPROPS COOKIE
  2

  3

  4

  6

  7

  8
yasukiyo.ogawa
  9

300
=
301
=
302
=
303
=
304
=
305
=
306
=
307
=
308
=
309
=
 40
0.0319228819444445
 41
2451389.550088889
 42
2460271.755320718
  1

 90
        0
  0
XRECORD
  5
852D
102
{ACAD_REACTORS
330
852C
102
}
330
852C
100
AcDbXrecord
280
     1
290
     1
  0
XRECORD
  5
852F
102
{ACAD_REACTORS
330
852E
102
}
330
852E
100
AcDbXrecord
280
     1
290
     1
  0
XRECORD
  5
8531
102
{ACAD_REACTORS
330
8530
102
}
330
8530
100
AcDbXrecord
280
     1
290
     1
  0
XRECORD
  5
8533
102
{ACAD_REACTORS
330
8532
102
}
330
8532
100
AcDbXrecord
280
     1
290
     1
  0
XRECORD
  5
8535
102
{ACAD_REACTORS
330
8534
102
}
330
8534
100
AcDbXrecord
280
     1
290
     1
  0
ACDBDETAILVIEWSTYLE
  5
8265
102
{ACAD_XDICTIONARY
360
857C
102
}
102
{ACAD_REACTORS
330
8264
102
}
330
8264
100
AcDbModelDocViewStyle
 70
     0
  3
Imperial24
290
     0
100
AcDbDetailViewStyle
 70
     0
 71
     0
 90
        3
 71
     1
340
8250
 40
0.24
340
0
 40
0.24
300

 40
0.36
280
     3
 71
     2
340
8257
 90
       25
 71
     3
340
8250
 40
0.24
 90
        1
 40
0.75
 90
        1
300
%<\AcVar ViewType \f "%tc1">% %<\AcVar ViewDetailId>%\PSCALE %<\AcVar ViewScale \f "%sn">%
 71
     4
340
8257
 90
       25
340
8257
 90
       25
280
     0
  0
LAYOUT
  5
826D
102
{ACAD_XDICTIONARY
360
8580
102
}
102
{ACAD_REACTORS
330
825C
102
}
330
825C
100
AcDbPlotSettings
  1

  2
RICOH imagio MP W3600 RPCS
  4

  6

 40
0.0
 41
0.0
 42
0.0
 43
0.0
 44
0.0
 45
0.0
 46
0.0
 47
0.0
 48
0.0
 49
0.0
140
0.0
141
0.0
142
1.0
143
1.0
 70
  1712
 72
     0
 73
     0
 74
     0
  7

 75
     0
147
1.0
148
0.0
149
0.0
100
AcDbLayout
  1
Model
 70
     1
 71
     0
 10
0.0
 20
0.0
 11
12.0
 21
9.0
 12
0.0
 22
0.0
 32
0.0
 14
0.0
 24
0.0
 34
0.0
 15
0.0
 25
0.0
 35
0.0
146
0.0
 13
0.0
 23
0.0
 33
0.0
 16
1.0
 26
0.0
 36
0.0
 17
0.0
 27
1.0
 37
0.0
 76
     0
330
826A
331
826F
  0
LAYOUT
  5
8269
102
{ACAD_XDICTIONARY
360
857E
102
}
102
{ACAD_REACTORS
330
825C
102
}
330
825C
100
AcDbPlotSettings
  1

  2
RICOH imagio MP W3600 RPCS
  4

  6

 40
0.0
 41
0.0
 42
0.0
 43
0.0
 44
0.0
 45
0.0
 46
0.0
 47
0.0
 48
0.0
 49
0.0
140
0.0
141
0.0
142
1.0
143
1.0
 70
   688
 72
     0
 73
     0
 74
     5
  7

 75
    16
147
1.0
148
0.0
149
0.0
100
AcDbLayout
  1
レイアウト1
 70
     1
 71
     1
 10
0.0
 20
0.0
 11
12.0
 21
9.0
 12
0.0
 22
0.0
 32
0.0
 14
1.000000000000000E+20
 24
1.000000000000000E+20
 34
1.000000000000000E+20
 15
-1.000000000000000E+20
 25
-1.000000000000000E+20
 35
-1.000000000000000E+20
146
0.0
 13
0.0
 23
0.0
 33
0.0
 16
1.0
 26
0.0
 36
0.0
 17
0.0
 27
1.0
 37
0.0
 76
     0
330
8266
  0
MATERIAL
  5
8214
102
{ACAD_XDICTIONARY
360
8215
102
}
102
{ACAD_REACTORS
330
820B
102
}
330
820B
100
AcDbMaterial
  1
ByBlock
 72
     0
 43
0.0208333333333333
 43
0.0
 43
0.0
 43
0.0
 43
0.0
 43
0.0208333333333333
 43
0.0
 43
0.0
 43
0.0
 43
0.0
 43
1.0
 43
0.0
 43
0.0
 43
0.0
 43
0.0
 43
1.0
 77
     0
 47
0.0208333333333333
 47
0.0
 47
0.0
 47
0.0
 47
0.0
 47
0.0208333333333333
 47
0.0
 47
0.0
 47
0.0
 47
0.0
 47
1.0
 47
0.0
 47
0.0
 47
0.0
 47
0.0
 47
1.0
171
     0
 49
0.0208333333333333
 49
0.0
 49
0.0
 49
0.0
 49
0.0
 49
0.0208333333333333
 49
0.0
 49
0.0
 49
0.0
 49
0.0
 49
1.0
 49
0.0
 49
0.0
 49
0.0
 49
0.0
 49
1.0
175
     0
142
0.0208333333333333
142
0.0
142
0.0
142
0.0
142
0.0
142
0.0208333333333333
142
0.0
142
0.0
142
0.0
142
0.0
142
1.0
142
0.0
142
0.0
142
0.0
142
0.0
142
1.0
179
     0
144
0.0208333333333333
144
0.0
144
0.0
144
0.0
144
0.0
144
0.0208333333333333
144
0.0
144
0.0
144
0.0
144
0.0
144
1.0
144
0.0
144
0.0
144
0.0
144
0.0
144
1.0
147
0.0208333333333333
147
0.0
147
0.0
147
0.0
147
0.0
147
0.0208333333333333
147
0.0
147
0.0
147
0.0
147
0.0
147
1.0
147
0.0
147
0.0
147
0.0
147
0.0
147
1.0
  0
MATERIAL
  5
820C
102
{ACAD_XDICTIONARY
360
820D
102
}
102
{ACAD_REACTORS
330
820B
102
}
330
820B
100
AcDbMaterial
  1
ByLayer
 72
     0
 43
0.0208333333333333
 43
0.0
 43
0.0
 43
0.0
 43
0.0
 43
0.0208333333333333
 43
0.0
 43
0.0
 43
0.0
 43
0.0
 43
1.0
 43
0.0
 43
0.0
 43
0.0
 43
0.0
 43
1.0
 77
     0
 47
0.0208333333333333
 47
0.0
 47
0.0
 47
0.0
 47
0.0
 47
0.0208333333333333
 47
0.0
 47
0.0
 47
0.0
 47
0.0
 47
1.0
 47
0.0
 47
0.0
 47
0.0
 47
0.0
 47
1.0
171
     0
 49
0.0208333333333333
 49
0.0
 49
0.0
 49
0.0
 49
0.0
 49
0.0208333333333333
 49
0.0
 49
0.0
 49
0.0
 49
0.0
 49
1.0
 49
0.0
 49
0.0
 49
0.0
 49
0.0
 49
1.0
175
     0
142
0.0208333333333333
142
0.0
142
0.0
142
0.0
142
0.0
142
0.0208333333333333
142
0.0
142
0.0
142
0.0
142
0.0
142
1.0
142
0.0
142
0.0
142
0.0
142
0.0
142
1.0
179
     0
144
0.0208333333333333
144
0.0
144
0.0
144
0.0
144
0.0
144
0.0208333333333333
144
0.0
144
0.0
144
0.0
144
0.0
144
1.0
144
0.0
144
0.0
144
0.0
144
0.0
144
1.0
147
0.0208333333333333
147
0.0
147
0.0
147
0.0
147
0.0
147
0.0208333333333333
147
0.0
147
0.0
147
0.0
147
0.0
147
1.0
147
0.0
147
0.0
147
0.0
147
0.0
147
1.0
  0
MATERIAL
  5
821C
102
{ACAD_XDICTIONARY
360
821D
102
}
102
{ACAD_REACTORS
330
820B
102
}
330
820B
100
AcDbMaterial
  1
Global
 72
     0
 43
0.0208333333333333
 43
0.0
 43
0.0
 43
0.0
 43
0.0
 43
0.0208333333333333
 43
0.0
 43
0.0
 43
0.0
 43
0.0
 43
1.0
 43
0.0
 43
0.0
 43
0.0
 43
0.0
 43
1.0
 77
     0
 47
0.0208333333333333
 47
0.0
 47
0.0
 47
0.0
 47
0.0
 47
0.0208333333333333
 47
0.0
 47
0.0
 47
0.0
 47
0.0
 47
1.0
 47
0.0
 47
0.0
 47
0.0
 47
0.0
 47
1.0
171
     0
 49
0.0208333333333333
 49
0.0
 49
0.0
 49
0.0
 49
0.0
 49
0.0208333333333333
 49
0.0
 49
0.0
 49
0.0
 49
0.0
 49
1.0
 49
0.0
 49
0.0
 49
0.0
 49
0.0
 49
1.0
175
     0
142
0.0208333333333333
142
0.0
142
0.0
142
0.0
142
0.0
142
0.0208333333333333
142
0.0
142
0.0
142
0.0
142
0.0
142
1.0
142
0.0
142
0.0
142
0.0
142
0.0
142
1.0
179
     0
144
0.0208333333333333
144
0.0
144
0.0
144
0.0
144
0.0
144
0.0208333333333333
144
0.0
144
0.0
144
0.0
144
0.0
144
1.0
144
0.0
144
0.0
144
0.0
144
0.0
144
1.0
147
0.0208333333333333
147
0.0
147
0.0
147
0.0
147
0.0
147
0.0208333333333333
147
0.0
147
0.0
147
0.0
147
0.0
147
1.0
147
0.0
147
0.0
147
0.0
147
0.0
147
1.0
  0
MLEADERSTYLE
  5
8261
102
{ACAD_REACTORS
330
8260
102
}
330
8260
100
AcDbMLeaderStyle
170
     2
171
     1
172
     0
 90
        2
 40
0.0
 41
0.0
173
     1
 91
-1056964608
340
8255
 92
       -2
290
     1
 42
0.09
291
     1
 43
0.36
  3
Standard
 44
0.18
300

342
8250
174
     1
178
     6
175
     1
176
     0
 93
-1056964608
 45
0.18
292
     0
297
     0
 46
0.18
 94
-1056964608
 47
1.0
 49
1.0
140
1.0
293
     1
141
0.0
294
     1
177
     0
142
1.0
295
     0
296
     0
143
0.125
1001
ACAD_MLEADERVER
1070
     2
  0
MLINESTYLE
  5
825A
102
{ACAD_REACTORS
330
8259
102
}
330
8259
100
AcDbMlineStyle
  2
STANDARD
 70
     0
  3

 62
   256
 51
90.0
 52
90.0
 71
     2
 49
0.5
 62
   256
  6
BYLAYER
 49
-0.5
 62
   256
  6
BYLAYER
  0
ACDBPLACEHOLDER
  5
820A
102
{ACAD_REACTORS
330
8209
102
}
330
8209
  0
SCALE
  5
823E
102
{ACAD_REACTORS
330
823D
102
}
330
823D
100
AcDbScale
 70
     0
300
1:1
140
1.0
141
1.0
290
     1
  0
SCALE
  5
823F
102
{ACAD_REACTORS
330
823D
102
}
330
823D
100
AcDbScale
 70
     0
300
1/128" = 1'-0"
140
0.0078125
141
12.0
290
     0
  0
SCALE
  5
8240
102
{ACAD_REACTORS
330
823D
102
}
330
823D
100
AcDbScale
 70
     0
300
1/64" = 1'-0"
140
0.015625
141
12.0
290
     0
  0
SCALE
  5
8241
102
{ACAD_REACTORS
330
823D
102
}
330
823D
100
AcDbScale
 70
     0
300
1/32" = 1'-0"
140
0.03125
141
12.0
290
     0
  0
SCALE
  5
8242
102
{ACAD_REACTORS
330
823D
102
}
330
823D
100
AcDbScale
 70
     0
300
1/16" = 1'-0"
140
0.0625
141
12.0
290
     0
  0
SCALE
  5
8243
102
{ACAD_REACTORS
330
823D
102
}
330
823D
100
AcDbScale
 70
     0
300
3/32" = 1'-0"
140
0.09375
141
12.0
290
     0
  0
SCALE
  5
8244
102
{ACAD_REACTORS
330
823D
102
}
330
823D
100
AcDbScale
 70
     0
300
1/8" = 1'-0"
140
0.125
141
12.0
290
     0
  0
SCALE
  5
8245
102
{ACAD_REACTORS
330
823D
102
}
330
823D
100
AcDbScale
 70
     0
300
3/16" = 1'-0"
140
0.1875
141
12.0
290
     0
  0
SCALE
  5
8246
102
{ACAD_REACTORS
330
823D
102
}
330
823D
100
AcDbScale
 70
     0
300
1/4" = 1'-0"
140
0.25
141
12.0
290
     0
  0
SCALE
  5
8247
102
{ACAD_REACTORS
330
823D
102
}
330
823D
100
AcDbScale
 70
     0
300
3/8" = 1'-0"
140
0.375
141
12.0
290
     0
  0
SCALE
  5
8248
102
{ACAD_REACTORS
330
823D
102
}
330
823D
100
AcDbScale
 70
     0
300
1/2" = 1'-0"
140
0.5
141
12.0
290
     0
  0
SCALE
  5
8249
102
{ACAD_REACTORS
330
823D
102
}
330
823D
100
AcDbScale
 70
     0
300
3/4" = 1'-0"
140
0.75
141
12.0
290
     0
  0
SCALE
  5
824A
102
{ACAD_REACTORS
330
823D
102
}
330
823D
100
AcDbScale
 70
     0
300
1" = 1'-0"
140
1.0
141
12.0
290
     0
  0
SCALE
  5
824B
102
{ACAD_REACTORS
330
823D
102
}
330
823D
100
AcDbScale
 70
     0
300
1-1/2" = 1'-0"
140
1.5
141
12.0
290
     0
  0
SCALE
  5
824C
102
{ACAD_REACTORS
330
823D
102
}
330
823D
100
AcDbScale
 70
     0
300
3" = 1'-0"
140
3.0
141
12.0
290
     0
  0
SCALE
  5
824D
102
{ACAD_REACTORS
330
823D
102
}
330
823D
100
AcDbScale
 70
     0
300
6" = 1'-0"
140
6.0
141
12.0
290
     0
  0
SCALE
  5
824E
102
{ACAD_REACTORS
330
823D
102
}
330
823D
100
AcDbScale
 70
     0
300
1'-0" = 1'-0"
140
12.0
141
12.0
290
     0
  0
ACDBSECTIONVIEWSTYLE
  5
8263
102
{ACAD_XDICTIONARY
360
857A
102
}
102
{ACAD_REACTORS
330
8262
102
}
330
8262
100
AcDbModelDocViewStyle
 70
     0
  3
Imperial24
290
     0
100
AcDbSectionViewStyle
 70
     0
 71
     0
 90
       78
 71
     1
340
8250
 40
0.24
340
0
340
0
 40
0.24
300
I, O, Q, S, X, Z
 40
0.48
 90
        3
 40
0.18
 90
        1
 71
     2
340
8257
 90
       25
340
8257
 90
       50
 40
0.24
 40
0.0
 40
0.24
 71
     3
340
8250
 40
0.24
 90
        1
 40
0.75
 90
        1
300
%<\AcVar ViewType \f "%tc1">% %<\AcVar ViewSectionStartId>%-%<\AcVar ViewSectionEndId>%\PSCALE %<\AcVar ViewScale \f "%sn">%
 71
     4
300
ANSI31
 40
1.0
 90
        0
290
     0
290
     0
 90
        6
 40
0.0
 40
1.570796326794896
 40
0.2617993877991494
 40
1.308996938995747
 40
-0.2617993877991494
 40
1.832595714594046
  0
TABLESTYLE
  5
825F
102
{ACAD_XDICTIONARY
360
8541
102
}
102
{ACAD_REACTORS
330
825E
102
}
330
825E
100
AcDbTableStyle
  3
Standard
 70
     0
 71
     0
 40
0.06
 41
0.06
280
     0
281
     0
  7
STANDARD
140
0.18
170
     2
 62
     0
 63
     7
283
     0
274
    -2
284
     1
 64
     0
275
    -2
285
     1
 65
     0
276
    -2
286
     1
 66
     0
277
    -2
287
     1
 67
     0
278
    -2
288
     1
 68
     0
279
    -2
289
     1
 69
     0
  7
STANDARD
140
0.25
170
     5
 62
     0
 63
     7
283
     0
274
    -2
284
     1
 64
     0
275
    -2
285
     1
 65
     0
276
    -2
286
     1
 66
     0
277
    -2
287
     1
 67
     0
278
    -2
288
     1
 68
     0
279
    -2
289
     1
 69
     0
  7
STANDARD
140
0.18
170
     5
 62
     0
 63
     7
283
     0
274
    -2
284
     1
 64
     0
275
    -2
285
     1
 65
     0
276
    -2
286
     1
 66
     0
277
    -2
287
     1
 67
     0
278
    -2
288
     1
 68
     0
279
    -2
289
     1
 69
     0
  0
VISUALSTYLE
  5
822A
102
{ACAD_XDICTIONARY
360
8552
102
}
102
{ACAD_REACTORS
330
8224
102
}
330
8224
100
AcDbVisualStyle
  2
2dWireframe
 70
     4
 71
     0
 72
     2
 73
     0
 90
        0
 40
-0.6
 41
-30.0
 62
     5
 63
     7
 74
     1
 91
        4
 64
     7
 65
   257
 75
     1
175
     1
 42
1.0
 92
        0
 66
   257
 43
1.0
 76
     1
 77
     6
 78
     2
 67
     7
 79
     5
170
     0
171
     0
290
     0
174
     0
 93
        1
 44
0.0
173
     0
291
     0
 45
0.0
1001
ACAD
1000
AcDbSavedByObjectVersion
1070
     0
  0
VISUALSTYLE
  5
8229
102
{ACAD_XDICTIONARY
360
8550
102
}
102
{ACAD_REACTORS
330
8224
102
}
330
8224
100
AcDbVisualStyle
  2
Basic
 70
     7
 71
     1
 72
     0
 73
     1
 90
        0
 40
-0.6
 41
-30.0
 62
     5
 63
     7
 74
     0
 91
        4
 64
     7
 65
   257
 75
     1
175
     1
 42
1.0
 92
        8
 66
     7
 43
1.0
 76
     1
 77
     6
 78
     2
 67
     7
 79
     5
170
     0
171
     0
290
     0
174
     0
 93
        1
 44
0.0
173
     0
291
     1
 45
0.0
1001
ACAD
1000
AcDbSavedByObjectVersion
1070
     0
  0
VISUALSTYLE
  5
8230
102
{ACAD_XDICTIONARY
360
855E
102
}
102
{ACAD_REACTORS
330
8224
102
}
330
8224
100
AcDbVisualStyle
  2
Brighten
 70
    12
 71
     2
 72
     2
 73
     0
 90
        0
 40
-0.6
 41
-30.0
 62
     5
 63
     7
 74
     1
 91
        4
 64
     7
 65
   257
 75
     1
175
     1
 42
1.0
 92
        8
 66
     7
 43
1.0
 76
     1
 77
     6
 78
     2
 67
     7
 79
     5
170
     0
171
     0
290
     0
174
     0
 93
        1
 44
50.0
173
     0
291
     1
 45
0.0
1001
ACAD
1000
AcDbSavedByObjectVersion
1070
     0
  0
VISUALSTYLE
  5
8234
102
{ACAD_XDICTIONARY
360
8566
102
}
102
{ACAD_REACTORS
330
8224
102
}
330
8224
100
AcDbVisualStyle
  2
ColorChange
 70
    16
 71
     2
 72
     2
 73
     3
 90
        0
 40
-0.6
 41
-30.0
 62
     5
 63
     8
 74
     1
 91
        4
 64
     7
 65
   257
 75
     1
175
     1
 42
1.0
 92
        8
 66
     8
 43
1.0
 76
     1
 77
     6
 78
     2
 67
     7
 79
     5
170
     0
171
     0
290
     0
174
     0
 93
        1
 44
0.0
173
     0
291
     1
 45
0.0
1001
ACAD
1000
AcDbSavedByObjectVersion
1070
     0
  0
VISUALSTYLE
  5
822D
102
{ACAD_XDICTIONARY
360
8558
102
}
102
{ACAD_REACTORS
330
8224
102
}
330
8224
100
AcDbVisualStyle
  2
Conceptual
 70
     9
 71
     3
 72
     2
 73
     0
 90
        0
 40
-0.6
 41
-30.0
 62
     5
 63
     7
 74
     2
 91
        2
 64
     7
 65
   257
 75
     1
175
     1
 42
179.0
 92
        8
 66
     7
 43
1.0
 76
     1
 77
     6
 78
     2
 67
     7
 79
     3
170
     0
171
     0
290
     0
174
     0
 93
        1
 44
0.0
173
     0
291
     0
 45
0.0
1001
ACAD
1000
AcDbSavedByObjectVersion
1070
     0
  0
VISUALSTYLE
  5
822F
102
{ACAD_XDICTIONARY
360
855C
102
}
102
{ACAD_REACTORS
330
8224
102
}
330
8224
100
AcDbVisualStyle
  2
Dim
 70
    11
 71
     2
 72
     2
 73
     0
 90
        0
 40
-0.6
 41
-30.0
 62
     5
 63
     7
 74
     1
 91
        4
 64
     7
 65
   257
 75
     1
175
     1
 42
1.0
 92
        8
 66
     7
 43
1.0
 76
     1
 77
     6
 78
     2
 67
     7
 79
     5
170
     0
171
     0
290
     0
174
     0
 93
        1
 44
-50.0
173
     0
291
     1
 45
0.0
1001
ACAD
1000
AcDbSavedByObjectVersion
1070
     0
  0
VISUALSTYLE
  5
823C
102
{ACAD_XDICTIONARY
360
8576
102
}
102
{ACAD_REACTORS
330
8224
102
}
330
8224
100
AcDbVisualStyle
  2
EdgeColorOff
 70
    22
 71
     2
 72
     2
 73
     0
 90
        0
 40
-0.6
 41
-30.0
 62
     5
 63
     7
 74
     1
 91
        4
 64
     7
 65
   257
 75
     1
175
     1
 42
1.0
 92
        8
 66
     7
 43
1.0
 76
     1
 77
     6
 78
     2
 67
     7
 79
     5
170
     0
171
     0
290
     0
174
     0
 93
        1
 44
0.0
173
     0
291
     1
 45
0.0
1001
ACAD
1000
AcDbSavedByObjectVersion
1070
     0
  0
VISUALSTYLE
  5
8233
102
{ACAD_XDICTIONARY
360
8564
102
}
102
{ACAD_REACTORS
330
8224
102
}
330
8224
100
AcDbVisualStyle
  2
Facepattern
 70
    15
 71
     2
 72
     2
 73
     0
 90
        0
 40
-0.6
 41
-30.0
 62
     5
 63
     7
 74
     1
 91
        4
 64
     7
 65
   257
 75
     1
175
     1
 42
1.0
 92
        8
 66
     7
 43
1.0
 76
     1
 77
     6
 78
     2
 67
     7
 79
     5
170
     0
171
     0
290
     0
174
     0
 93
        1
 44
0.0
173
     0
291
     1
 45
0.0
1001
ACAD
1000
AcDbSavedByObjectVersion
1070
     0
  0
VISUALSTYLE
  5
8225
102
{ACAD_XDICTIONARY
360
8548
102
}
102
{ACAD_REACTORS
330
8224
102
}
330
8224
100
AcDbVisualStyle
  2
Flat
 70
     0
 71
     2
 72
     1
 73
     1
 90
        2
 40
-0.6
 41
30.0
 62
     5
 63
     7
 74
     0
 91
        0
 64
     7
 65
   257
 75
     1
175
     1
 42
1.0
 92
        8
 66
     7
 43
1.0
 76
     1
 77
     6
 78
     2
 67
     7
 79
     5
170
     0
171
     0
290
     0
174
     0
 93
       13
 44
0.0
173
     0
291
     1
 45
0.0
1001
ACAD
1000
AcDbSavedByObjectVersion
1070
     0
  0
VISUALSTYLE
  5
8226
102
{ACAD_XDICTIONARY
360
854A
102
}
102
{ACAD_REACTORS
330
8224
102
}
330
8224
100
AcDbVisualStyle
  2
FlatWithEdges
 70
     1
 71
     2
 72
     1
 73
     1
 90
        2
 40
-0.6
 41
30.0
 62
     5
 63
     7
 74
     1
 91
        0
 64
     7
 65
   257
 75
     1
175
     1
 42
1.0
 92
        0
 66
   257
 43
1.0
 76
     1
 77
     6
 78
     2
 67
     7
 79
     5
170
     0
171
     0
290
     0
174
     0
 93
       13
 44
0.0
173
     0
291
     1
 45
0.0
1001
ACAD
1000
AcDbSavedByObjectVersion
1070
     0
  0
VISUALSTYLE
  5
8227
102
{ACAD_XDICTIONARY
360
854C
102
}
102
{ACAD_REACTORS
330
8224
102
}
330
8224
100
AcDbVisualStyle
  2
Gouraud
 70
     2
 71
     2
 72
     2
 73
     1
 90
        2
 40
-0.6
 41
30.0
 62
     5
 63
     7
 74
     0
 91
        0
 64
     7
 65
   257
 75
     1
175
     1
 42
1.0
 92
        0
 66
     7
 43
1.0
 76
     1
 77
     6
 78
     2
 67
     7
 79
     5
170
     0
171
     0
290
     0
174
     0
 93
       13
 44
0.0
173
     0
291
     1
 45
0.0
1001
ACAD
1000
AcDbSavedByObjectVersion
1070
     0
  0
VISUALSTYLE
  5
8228
102
{ACAD_XDICTIONARY
360
854E
102
}
102
{ACAD_REACTORS
330
8224
102
}
330
8224
100
AcDbVisualStyle
  2
GouraudWithEdges
 70
     3
 71
     2
 72
     2
 73
     1
 90
        2
 40
-0.6
 41
30.0
 62
     5
 63
     7
 74
     1
 91
        0
 64
     7
 65
   257
 75
     1
175
     1
 42
1.0
 92
        0
 66
   257
 43
1.0
 76
     1
 77
     6
 78
     2
 67
     7
 79
     5
170
     0
171
     0
290
     0
174
     0
 93
       13
 44
0.0
173
     0
291
     1
 45
0.0
1001
ACAD
1000
AcDbSavedByObjectVersion
1070
     0
  0
VISUALSTYLE
  5
822C
102
{ACAD_XDICTIONARY
360
8556
102
}
102
{ACAD_REACTORS
330
8224
102
}
330
8224
100
AcDbVisualStyle
  2
Hidden
 70
     6
 71
     1
 72
     2
 73
     2
 90
        0
 40
-0.6
 41
-30.0
 62
     5
 63
     7
 74
     2
 91
        2
 64
     7
 65
   257
 75
     2
175
     1
 42
40.0
 92
        0
 66
   257
 43
1.0
 76
     1
 77
     6
 78
     2
 67
     7
 79
     3
170
     0
171
     0
290
     0
174
     0
 93
        1
 44
0.0
173
     0
291
     0
 45
0.0
1001
ACAD
1000
AcDbSavedByObjectVersion
1070
     0
  0
VISUALSTYLE
  5
823A
102
{ACAD_XDICTIONARY
360
8572
102
}
102
{ACAD_REACTORS
330
8224
102
}
330
8224
100
AcDbVisualStyle
  2
JitterOff
 70
    20
 71
     2
 72
     2
 73
     0
 90
        0
 40
-0.6
 41
-30.0
 62
     5
 63
     7
 74
     1
 91
        4
 64
     7
 65
   257
 75
     1
175
     1
 42
1.0
 92
       10
 66
     7
 43
1.0
 76
     1
 77
     6
 78
     2
 67
     7
 79
     5
170
     0
171
     0
290
     0
174
     0
 93
        1
 44
0.0
173
     0
291
     1
 45
0.0
1001
ACAD
1000
AcDbSavedByObjectVersion
1070
     0
  0
VISUALSTYLE
  5
8232
102
{ACAD_XDICTIONARY
360
8562
102
}
102
{ACAD_REACTORS
330
8224
102
}
330
8224
100
AcDbVisualStyle
  2
Linepattern
 70
    14
 71
     2
 72
     2
 73
     0
 90
        0
 40
-0.6
 41
-30.0
 62
     5
 63
     7
 74
     1
 91
        4
 64
     7
 65
   257
 75
     7
175
     7
 42
1.0
 92
        8
 66
     7
 43
1.0
 76
     1
 77
     6
 78
     2
 67
     7
 79
     5
170
     0
171
     0
290
     0
174
     0
 93
        1
 44
0.0
173
     0
291
     1
 45
0.0
1001
ACAD
1000
AcDbSavedByObjectVersion
1070
     0
  0
VISUALSTYLE
  5
823B
102
{ACAD_XDICTIONARY
360
8574
102
}
102
{ACAD_REACTORS
330
8224
102
}
330
8224
100
AcDbVisualStyle
  2
OverhangOff
 70
    21
 71
     2
 72
     2
 73
     0
 90
        0
 40
-0.6
 41
-30.0
 62
     5
 63
     7
 74
     1
 91
        4
 64
     7
 65
   257
 75
     1
175
     1
 42
1.0
 92
        9
 66
     7
 43
1.0
 76
     1
 77
     6
 78
     2
 67
     7
 79
     5
170
     0
171
     0
290
     0
174
     0
 93
        1
 44
0.0
173
     0
291
     1
 45
0.0
1001
ACAD
1000
AcDbSavedByObjectVersion
1070
     0
  0
VISUALSTYLE
  5
822E
102
{ACAD_XDICTIONARY
360
855A
102
}
102
{ACAD_REACTORS
330
8224
102
}
330
8224
100
AcDbVisualStyle
  2
Realistic
 70
     8
 71
     2
 72
     3
 73
     0
 90
        2
 40
-0.6
 41
30.0
 62
     5
 63
     7
 74
     0
 91
        0
 64
     7
 65
   257
 75
     1
175
     1
 42
1.0
 92
        8
 66
   257
 43
1.0
 76
     1
 77
     6
 78
     2
 67
     7
 79
     3
170
     0
171
     0
290
     0
174
     0
 93
       13
 44
0.0
173
     0
291
     0
 45
0.0
1001
ACAD
1000
AcDbSavedByObjectVersion
1070
     0
  0
VISUALSTYLE
  5
8239
102
{ACAD_XDICTIONARY
360
8570
102
}
102
{ACAD_REACTORS
330
8224
102
}
330
8224
100
AcDbVisualStyle
  2
Shaded
 70
    27
 71
     2
 72
     2
 73
     1
 90
        2
 40
-0.6
 41
30.0
 62
     5
 63
     7
 74
     0
 91
        4
 64
     7
 65
   257
 75
     1
175
     1
 42
1.0
 92
        8
 66
   257
 43
1.0
 76
     1
 77
     6
 78
     2
 67
     8
 79
     3
170
     0
171
     0
290
     0
174
     0
 93
        5
 44
0.0
173
     0
291
     0
 45
0.0
1001
ACAD
1000
AcDbSavedByObjectVersion
1070
     0
  0
VISUALSTYLE
  5
8238
102
{ACAD_XDICTIONARY
360
856E
102
}
102
{ACAD_REACTORS
330
8224
102
}
330
8224
100
AcDbVisualStyle
  2
Shaded with edges
 70
    26
 71
     2
 72
     2
 73
     1
 90
        2
 40
-0.6
 41
30.0
 62
     5
 63
     7
 74
     1
 91
       10
 64
     7
 65
   257
 75
     2
175
     1
 42
1.0
 92
        8
 66
   257
 43
1.0
 76
     1
 77
     6
 78
     2
 67
     7
 79
     3
170
     0
171
     0
290
     0
174
     0
 93
        5
 44
0.0
173
     0
291
     0
 45
0.0
1001
ACAD
1000
AcDbSavedByObjectVersion
1070
     0
  0
VISUALSTYLE
  5
8235
102
{ACAD_XDICTIONARY
360
8568
102
}
102
{ACAD_REACTORS
330
8224
102
}
330
8224
100
AcDbVisualStyle
  2
Shades of Gray
 70
    23
 71
     2
 72
     2
 73
     3
 90
        0
 40
-0.6
 41
-30.0
 62
     5
 63
     7
 74
     2
 91
        2
 64
     7
 65
     7
 75
     1
175
     1
 42
40.0
 92
        8
 66
     7
 43
1.0
 76
     1
 77
     6
 78
     2
 67
     7
 79
     3
170
     0
171
     0
290
     0
174
     0
 93
        1
 44
0.0
173
     0
291
     0
 45
0.0
1001
ACAD
1000
AcDbSavedByObjectVersion
1070
     0
  0
VISUALSTYLE
  5
8236
102
{ACAD_XDICTIONARY
360
856A
102
}
102
{ACAD_REACTORS
330
8224
102
}
330
8224
100
AcDbVisualStyle
  2
Sketchy
 70
    24
 71
     1
 72
     2
 73
     2
 90
        0
 40
-0.6
 41
-30.0
 62
     5
 63
     7
 74
     2
 91
        2
 64
     7
 65
     7
 75
     1
175
     1
 42
40.0
 92
       11
 66
     7
 43
1.0
 76
     1
 77
     6
 78
     2
 67
     7
 79
     6
170
     0
171
     0
290
     0
174
     0
 93
        1
 44
0.0
173
     0
291
     0
 45
0.0
1001
ACAD
1000
AcDbSavedByObjectVersion
1070
     0
  0
VISUALSTYLE
  5
8231
102
{ACAD_XDICTIONARY
360
8560
102
}
102
{ACAD_REACTORS
330
8224
102
}
330
8224
100
AcDbVisualStyle
  2
Thicken
 70
    13
 71
     2
 72
     2
 73
     0
 90
        0
 40
-0.6
 41
-30.0
 62
     5
 63
     7
 74
     1
 91
        4
 64
     7
 65
   257
 75
     1
175
     1
 42
1.0
 92
       12
 66
     7
 43
1.0
 76
     1
 77
     6
 78
     2
 67
     7
 79
     5
170
     0
171
     0
290
     0
174
     0
 93
        1
 44
0.0
173
     0
291
     1
 45
0.0
1001
ACAD
1000
AcDbSavedByObjectVersion
1070
     0
  0
VISUALSTYLE
  5
822B
102
{ACAD_XDICTIONARY
360
8554
102
}
102
{ACAD_REACTORS
330
8224
102
}
330
8224
100
AcDbVisualStyle
  2
Wireframe
 70
     5
 71
     0
 72
     2
 73
     0
 90
        0
 40
-0.6
 41
-30.0
 62
     5
 63
     7
 74
     1
 91
        4
 64
     7
 65
   257
 75
     1
175
     1
 42
1.0
 92
        0
 66
   257
 43
1.0
 76
     1
 77
     6
 78
     2
 67
     7
 79
     3
170
     0
171
     0
290
     0
174
     0
 93
        1
 44
0.0
173
     0
291
     0
 45
0.0
1001
ACAD
1000
AcDbSavedByObjectVersion
1070
     0
  0
VISUALSTYLE
  5
8237
102
{ACAD_XDICTIONARY
360
856C
102
}
102
{ACAD_REACTORS
330
8224
102
}
330
8224
100
AcDbVisualStyle
  2
X-Ray
 70
    25
 71
     2
 72
     2
 73
     1
 90
        1
 40
0.5
 41
-30.0
 62
     5
 63
     7
 74
     1
 91
        0
 64
     7
 65
   257
 75
     1
175
     1
 42
1.0
 92
        8
 66
     7
 43
1.0
 76
     1
 77
     6
 78
     2
 67
     7
 79
     3
170
     0
171
     0
290
     0
174
     0
 93
       13
 44
0.0
173
     0
291
     0
 45
0.0
1001
ACAD
1000
AcDbSavedByObjectVersion
1070
     0
  0
DICTIONARYVAR
  5
853B
102
{ACAD_REACTORS
330
8536
102
}
330
8536
100
DictionaryVariables
280
     0
  1
1:1
  0
DICTIONARYVAR
  5
8538
102
{ACAD_REACTORS
330
8536
102
}
330
8536
100
DictionaryVariables
280
     0
  1
STANDARD
  0
DICTIONARYVAR
  5
8537
102
{ACAD_REACTORS
330
8536
102
}
330
8536
100
DictionaryVariables
280
     0
  1
STANDARD
  0
DICTIONARYVAR
  5
8539
102
{ACAD_REACTORS
330
8536
102
}
330
8536
100
DictionaryVariables
280
     0
  1
Imperial24
  0
DICTIONARYVAR
  5
853A
102
{ACAD_REACTORS
330
8536
102
}
330
8536
100
DictionaryVariables
280
     0
  1
Imperial24
  0
DICTIONARYVAR
  5
853E
102
{ACAD_REACTORS
330
8536
102
}
330
8536
100
DictionaryVariables
280
     0
  1
1
  0
DICTIONARYVAR
  5
853D
102
{ACAD_REACTORS
330
8536
102
}
330
8536
100
DictionaryVariables
280
     0
  1
0
  0
DICTIONARYVAR
  5
853C
102
{ACAD_REACTORS
330
8536
102
}
330
8536
100
DictionaryVariables
280
     0
  1
127
  0
DICTIONARYVAR
  5
853F
102
{ACAD_REACTORS
330
8536
102
}
330
8536
100
DictionaryVariables
280
     0
  1
2
  0
DICTIONARY
  5
857C
330
8265
100
AcDbDictionary
280
     1
281
     1
  3
ACAD_XREC_ROUNDTRIP
360
857D
  0
DICTIONARY
  5
8580
330
826D
100
AcDbDictionary
280
     1
281
     1
  3
ACAD_XREC_ROUNDTRIP
360
8581
  0
DICTIONARY
  5
857E
330
8269
100
AcDbDictionary
280
     1
281
     1
  3
ACAD_XREC_ROUNDTRIP
360
857F
  0
DICTIONARY
  5
8215
330
8214
100
AcDbDictionary
280
     1
281
     1
  3
ACAD_XREC_ROUNDTRIP
360
8546
  3
BUMPTILE
360
8217
  3
DIFFUSETILE
360
8216
  3
OPACITYTILE
360
821A
  3
REFLECTIONTILE
360
8219
  3
REFRACTIONTILE
360
821B
  3
SPECULARTILE
360
8218
  0
DICTIONARY
  5
820D
330
820C
100
AcDbDictionary
280
     1
281
     1
  3
ACAD_XREC_ROUNDTRIP
360
8545
  3
BUMPTILE
360
820F
  3
DIFFUSETILE
360
820E
  3
OPACITYTILE
360
8212
  3
REFLECTIONTILE
360
8211
  3
REFRACTIONTILE
360
8213
  3
SPECULARTILE
360
8210
  0
DICTIONARY
  5
821D
330
821C
100
AcDbDictionary
280
     1
281
     1
  3
ACAD_XREC_ROUNDTRIP
360
8547
  3
BUMPTILE
360
821F
  3
DIFFUSETILE
360
821E
  3
FBXASSET
360
8359
  3
OPACITYTILE
360
8222
  3
REFLECTIONTILE
360
8221
  3
REFRACTIONTILE
360
8223
  3
SPECULARTILE
360
8220
  0
DICTIONARY
  5
857A
330
8263
100
AcDbDictionary
280
     1
281
     1
  3
ACAD_XREC_ROUNDTRIP
360
857B
  0
DICTIONARY
  5
8541
330
825F
100
AcDbDictionary
280
     1
281
     1
  3
ACAD_ROUNDTRIP_2008_TABLESTYLE_CELLSTYLEMAP
360
8542
  3
ACAD_XREC_ROUNDTRIP
360
8578
  0
DICTIONARY
  5
8552
330
822A
100
AcDbDictionary
280
     1
281
     1
  3
ACAD_XREC_ROUNDTRIP
360
8553
  0
DICTIONARY
  5
8550
330
8229
100
AcDbDictionary
280
     1
281
     1
  3
ACAD_XREC_ROUNDTRIP
360
8551
  0
DICTIONARY
  5
855E
330
8230
100
AcDbDictionary
280
     1
281
     1
  3
ACAD_XREC_ROUNDTRIP
360
855F
  0
DICTIONARY
  5
8566
330
8234
100
AcDbDictionary
280
     1
281
     1
  3
ACAD_XREC_ROUNDTRIP
360
8567
  0
DICTIONARY
  5
8558
330
822D
100
AcDbDictionary
280
     1
281
     1
  3
ACAD_XREC_ROUNDTRIP
360
8559
  0
DICTIONARY
  5
855C
330
822F
100
AcDbDictionary
280
     1
281
     1
  3
ACAD_XREC_ROUNDTRIP
360
855D
  0
DICTIONARY
  5
8576
330
823C
100
AcDbDictionary
280
     1
281
     1
  3
ACAD_XREC_ROUNDTRIP
360
8577
  0
DICTIONARY
  5
8564
330
8233
100
AcDbDictionary
280
     1
281
     1
  3
ACAD_XREC_ROUNDTRIP
360
8565
  0
DICTIONARY
  5
8548
330
8225
100
AcDbDictionary
280
     1
281
     1
  3
ACAD_XREC_ROUNDTRIP
360
8549
  0
DICTIONARY
  5
854A
330
8226
100
AcDbDictionary
280
     1
281
     1
  3
ACAD_XREC_ROUNDTRIP
360
854B
  0
DICTIONARY
  5
854C
330
8227
100
AcDbDictionary
280
     1
281
     1
  3
ACAD_XREC_ROUNDTRIP
360
854D
  0
DICTIONARY
  5
854E
330
8228
100
AcDbDictionary
280
     1
281
     1
  3
ACAD_XREC_ROUNDTRIP
360
854F
  0
DICTIONARY
  5
8556
330
822C
100
AcDbDictionary
280
     1
281
     1
  3
ACAD_XREC_ROUNDTRIP
360
8557
  0
DICTIONARY
  5
8572
330
823A
100
AcDbDictionary
280
     1
281
     1
  3
ACAD_XREC_ROUNDTRIP
360
8573
  0
DICTIONARY
  5
8562
330
8232
100
AcDbDictionary
280
     1
281
     1
  3
ACAD_XREC_ROUNDTRIP
360
8563
  0
DICTIONARY
  5
8574
330
823B
100
AcDbDictionary
280
     1
281
     1
  3
ACAD_XREC_ROUNDTRIP
360
8575
  0
DICTIONARY
  5
855A
330
822E
100
AcDbDictionary
280
     1
281
     1
  3
ACAD_XREC_ROUNDTRIP
360
855B
  0
DICTIONARY
  5
8570
330
8239
100
AcDbDictionary
280
     1
281
     1
  3
ACAD_XREC_ROUNDTRIP
360
8571
  0
DICTIONARY
  5
856E
330
8238
100
AcDbDictionary
280
     1
281
     1
  3
ACAD_XREC_ROUNDTRIP
360
856F
  0
DICTIONARY
  5
8568
330
8235
100
AcDbDictionary
280
     1
281
     1
  3
ACAD_XREC_ROUNDTRIP
360
8569
  0
DICTIONARY
  5
856A
330
8236
100
AcDbDictionary
280
     1
281
     1
  3
ACAD_XREC_ROUNDTRIP
360
856B
  0
DICTIONARY
  5
8560
330
8231
100
AcDbDictionary
280
     1
281
     1
  3
ACAD_XREC_ROUNDTRIP
360
8561
  0
DICTIONARY
  5
8554
330
822B
100
AcDbDictionary
280
     1
281
     1
  3
ACAD_XREC_ROUNDTRIP
360
8555
  0
DICTIONARY
  5
856C
330
8237
100
AcDbDictionary
280
     1
281
     1
  3
ACAD_XREC_ROUNDTRIP
360
856D
  0
XRECORD
  5
857D
102
{ACAD_REACTORS
330
857C
102
}
330
857C
100
AcDbXrecord
280
     1
102
DISPLAYNAME
  1
Imperial24
102
FLAGS
 90
        0
  0
XRECORD
  5
8581
102
{ACAD_REACTORS
330
8580
102
}
330
8580
100
AcDbXrecord
280
     1
102
SHADEPLOT
 70
     0
102
SHADEPLOTRESLEVEL
 70
     2
102
SHADEPLOTCUSTOMDPI
 70
   300
  0
XRECORD
  5
857F
102
{ACAD_REACTORS
330
857E
102
}
330
857E
100
AcDbXrecord
280
     1
102
SHADEPLOT
 70
     0
102
SHADEPLOTRESLEVEL
 70
     2
102
SHADEPLOTCUSTOMDPI
 70
   300
  0
XRECORD
  5
8546
102
{ACAD_REACTORS
330
8215
102
}
330
8215
100
AcDbXrecord
280
     1
102
MATERIAL
148
0.0
149
0.0
149
0.0
 93
        0
 94
      127
282
     0
 72
     0
 77
     0
171
     0
175
     0
179
     0
273
     0
  0
XRECORD
  5
8217
102
{ACAD_REACTORS
330
8215
102
}
330
8215
100
AcDbXrecord
280
     1
270
     1
271
     1
  0
XRECORD
  5
8216
102
{ACAD_REACTORS
330
8215
102
}
330
8215
100
AcDbXrecord
280
     1
270
     1
271
     1
  0
XRECORD
  5
821A
102
{ACAD_REACTORS
330
8215
102
}
330
8215
100
AcDbXrecord
280
     1
270
     1
271
     1
  0
XRECORD
  5
8219
102
{ACAD_REACTORS
330
8215
102
}
330
8215
100
AcDbXrecord
280
     1
270
     1
271
     1
  0
XRECORD
  5
821B
102
{ACAD_REACTORS
330
8215
102
}
330
8215
100
AcDbXrecord
280
     1
270
     1
271
     1
  0
XRECORD
  5
8218
102
{ACAD_REACTORS
330
8215
102
}
330
8215
100
AcDbXrecord
280
     1
270
     1
271
     1
  0
XRECORD
  5
8545
102
{ACAD_REACTORS
330
820D
102
}
330
820D
100
AcDbXrecord
280
     1
102
MATERIAL
148
0.0
149
0.0
149
0.0
 93
        0
 94
      127
282
     0
 72
     0
 77
     0
171
     0
175
     0
179
     0
273
     0
  0
XRECORD
  5
820F
102
{ACAD_REACTORS
330
820D
102
}
330
820D
100
AcDbXrecord
280
     1
270
     1
271
     1
  0
XRECORD
  5
820E
102
{ACAD_REACTORS
330
820D
102
}
330
820D
100
AcDbXrecord
280
     1
270
     1
271
     1
  0
XRECORD
  5
8212
102
{ACAD_REACTORS
330
820D
102
}
330
820D
100
AcDbXrecord
280
     1
270
     1
271
     1
  0
XRECORD
  5
8211
102
{ACAD_REACTORS
330
820D
102
}
330
820D
100
AcDbXrecord
280
     1
270
     1
271
     1
  0
XRECORD
  5
8213
102
{ACAD_REACTORS
330
820D
102
}
330
820D
100
AcDbXrecord
280
     1
270
     1
271
     1
  0
XRECORD
  5
8210
102
{ACAD_REACTORS
330
820D
102
}
330
820D
100
AcDbXrecord
280
     1
270
     1
271
     1
  0
XRECORD
  5
8547
102
{ACAD_REACTORS
330
821D
102
}
330
821D
100
AcDbXrecord
280
     1
102
MATERIAL
148
0.0
149
0.0
149
0.0
 93
        0
 94
      127
282
     0
 72
     0
 77
     0
171
     0
175
     0
179
     0
273
     0
  0
XRECORD
  5
821F
102
{ACAD_REACTORS
330
821D
102
}
330
821D
100
AcDbXrecord
280
     1
270
     1
271
     1
  0
XRECORD
  5
821E
102
{ACAD_REACTORS
330
821D
102
}
330
821D
100
AcDbXrecord
280
     1
270
     1
271
     1
  0
XRECORD
  5
8359
102
{ACAD_REACTORS
330
821D
102
}
330
821D
100
AcDbXrecord
280
     1
 70
     1
 90
1959938040
 71
     1
  1
E54DC94B-6E0A-427F-9A6E-BD26E247CD00
311
504B0304140006080800899076578C0F9261CB000000200100004F00000033313833443233422D424530322D344632462D423630342D4444344437423735394631392F4173736574446174612F446566696E6974696F6E4974657261746F7250726F706572746965732E62696EEB606060F80F0540260323103700495E20ED
311
9E9A975A94991C9C9C919A9BC8C00612C9C94F4ACC6147C831019920AE4B6A5A62694E0948976F6671726A4E4E625E6A7E69B12042A9426E6209D0B8C41C3D90264E20860914834C48875806B2DF0F88414E02D189290556F689C5C5A925B6FA694915FAA6864E0616AEE626BA6EAE0626BA2606A66EBA4EAE6686BA66C606
311
96264096A999A1A37E516A717E6951726AB1BE91BE413CD4E4F882BC740686109BE01807A003CEB84268177F08BD2702429B2441E835D9101A00504B030414000608080089907657AF6BE25CFE000000300200004500000033313833443233422D424530322D344632462D423630342D4444344437423735394631392F4173
311
736574446174612F496E7374616E636550726F706572746965732E62696EEB606060F80F0540260323103700495E20ED9E9A975A94991C9C9C919A9BA802147035357171B63471D235733570D435313277D3B5743473D5757231327335323177763130604768046931363471713532B5D435353131D635313332D475727372
311
D13534373670367376B67474B5042A03DBCBA019D37FE8ABC6157B20CD04146B0062181F4C03F940F0C11EA29A8141C08141002C0426541C106CAC2CA046088033B02A030AC2157C6006F21A8018AAF50194E6010A610250382264E08660284CD9E98021862280A91564B406929A0FF62C401E28B6F88038B83CB1243943D7
311
A928312F25350524430868375CBDDAA08D4555E82AA04DAB42B1C8808500504B03041400060808008990765728BB58AF800100009E0500003D00000033313833443233422D424530322D344632462D423630342D4444344437423735394631392F536368656D61732F436F6D6D6F6E536368656D612E786D6CBD544D4FC230
311
18BEFB2B96DE15493C78601010A34B880709DEDFB52FD0D8B54BD70DF6EFED3AC0B12E6442E2716BFB3CEFF3D18E26FB440405EA8C2B1992E1C323095052C5B8DC842437EBFB673219DF8DA659866649B798C078B48AE6410122242F2A4994AC7F93815DF85C049C8564CA0A901499DD886B2EB9B1E02448F358701A923588
311
0C49A0119892A20C89D1B9FD768815CAD268CB5E0355B40B1E47F3E37A2020464BED06AA57CE8FCC20C3C3446D46761A2632A8C1283D07031EFF2AE7CCB1BFEEE916E406DFAC8E36FFD99A9D60A6944090EEDC3B670C7DC13DE86B6B2C5C240D6E503BB85ACD579D513F1B9F9A69DC9CC22AFA80C426D40AF0B21EA1685591
311
56B6276F0F726A6BFF04DCD513A87A62CAD41FB24FCB2858B3952E3D852084DA25B9303C15687973CC8E8AAE11DF2836C38C6A9E765E8C1BA1BFB1DC29CDFE518C8B5A7655A4ED7E77291ABEB80DBD82EC866ADE1B8D05AF9E35CF09D7A061F38A986D9EC412B8F0F65E5D81534D9B231D1E5A8FE577A241F3A5FD01504B03
311
04140006080800899076572CCEBD668A040000E01200003E00000033313833443233422D424530322D344632462D423630342D4444344437423735394631392F536368656D61732F47656E65726963536368656D612E786D6CD5586D6FDB380CFE7EBF42F0F7A649B70E1B90744856B4970F450FCD7A5F05459613EDE41748
311
72DADCAF3F522F8ED3B88D2F1D06AC4050DBA2493EE4438AF2F8EB73AEC8466823CB62928C06C384888297A92C5693A4B6D9D9E7E4EBD51FE3A931C22EF85AE4EC6AFC38BF261BA626C9AD288496DC3F4FCEAFC63366845F7A10452AF41DB320C0D44EC26EAB20918735565582695670811A6A49643A49A6E9069FA4604A64
311
B29016DC4B48552F95E4932463CA888468C1D2B250DB4962750DF7CE273069CE8363F1FF4EDB00E0A21999574AE4A2B00C353B93F3BD4777B8A61ED8F604ABFEDD79CE56A2B7BDFBDBC50996E0ADDE16FED26223C5D30956C29BDF4A55EA686E5E58B112DA45CE67F76F4FA27EFA3FB672FD7372FC388FAECDCA5209E693CA
311
D167BADCD272F943701B3812F8A3D852008B1D2E32DB927B2F833C6EA95879925356D254582695095A3CE982924720BE5774A3CB9CDCDB350427D2DF20DA1B5532EBE2D5D6288D75D4F7E4FD9890A0EF8E3D93EBB8F8BA4758158EF6FB90A6F9520281C93DE7AAC6D24607DA296BB96018123F821A7D6A5C5884050C475DA4
311
865442732C8B95684A50165CBB3A32F25F783A4A480ED59AD7F924B968AEA50131F46303223E6A397B0E52976030DC1DCA81D7E7C1EDEEA42C19FF27635C505E2BD5198A599020DF50A2330FCB3AAF28CB0124108429553EF1B228802E2265D8F7CC2401042B155BCC7070F1E5C55F13B4A9577362CCCE46C32174E010C3C3
311
78C44841A4BDA00FE3A12006CE11EE6AEC59894D3526DDE1CD59D503ECC324017F8061B7F162162FA62EDD81AE3308617770796DCBDAD2B2625C5AE8A63DE20B2C8AA5E95E76E5730823955956E33E705425A2187C185D36489A1B44D3DCEC2172F6BA2105C3546287A7194B2331768EBBE64F6E70A9930ABE0ADEA89E9E2C
311
38523B810287AD67A54A039C1606EAFE68F8304610BB9093DBDDABC0B2AE4E290DCDA15376D7E39F72B556F0B32EAB5D3D498B4C41ABADEC3A1434C422D87E8025A84BDCB2B1417ED750FAE4DA8976863974C577C7F902D3F156AD354DEA3540DE6BEAE2BEA52F7A2EB4CA43802ECE5BF2CE2EDC9347179FFB023CE412E60B
311
E16DA0BE29B374988A553F561DC04615DD35F7D2C8979F60E5955CE93DF29DED8AFA1EE6642D53418086C03C47C377910F75F7E8F5EF665F70B60FFB22AEDF897D119E8423C773E819A3C1E55E550599EE6EDCA34D0C86FD72057DF2CD46F16A470682471C164E4346D5306BF12D7D12D82CFF673D41636C347443FEB51B50
311
D72EA171A8E4A58623A4A16E0FA2B8B10A0D23268D87C33896EE8FB73305A74BF224EDBADFA0BD674AB354D63DB7BD5D83426761C077DE767728235446A552754EB93B755891C3C4CC6CADE37CF0E912A7BB38DBA010F9DE1282EDF470CA69A9CDA482E334C4A6EA4107987980B17E72F31730EBF88BBD39E7C629F56797A3
311
C0009C2C5AE7951D9A05A02773440F02EEB4DE396A3B6A570C72CCFBCD823B0B8ED3F1D5CEDDFED772FA70236C83FB7D86C385D570B87107535572A60A96035F8F7C6A7192F13007246BBE0521855E6AC46F3E27689CEE7D186A6FD679D98CDCAD13333E04EBE7ED6F55FF01504B0304140006080800899076576180134D5F
311
0100006B0300004500000033313833443233422D424530322D344632462D423630342D4444344437423735394631392F536368656D61732F52656E6465724D6174657269616C536368656D612E786D6CA5934D6FC2300C86EFFB1551EEE343DBA41D1A103009551ADAD40EAE28A4A68D9426284961FCFBE5A340113B207174
311
6D3F765EBF4DC6BFB5407BD0862B49F0B037C0082453059725C18DDD3EBFE3F1E829991803366715D474942CD30FB4A782E00C64017A412D684E454CE3FE28995203B162A6EA5AC94B66997D225E109CD63B0135484BAD1B3C07E9080CA35DB3119C11BCA5C200461A68A1A438126C75E3E230D40FF81FB3F03C91D1E3A3A0
311
AF79FE28E25BC39EC3E17E4C2A2D94A0833A51AF55BCCA7D88572FCBAC529C4140B020FC3AAFA886621DCED7EAD7664CC86024E806DC297DA1BB393E4156543457A4537DB8817349A70F8ACBF09B3EEE2CB2F33E91B65D60786E4E3B39B77E3FEEEF5650424525DA657FB8B46BE6BF064646F0A0F7327C0BC1BC1B4CBBC1C4
311
19FA3CCB23500007872A2580CAAE5461865565294E4EDB4617B62FF579DF9A5B2F54E834076A597573A020912FED777F9B3F504B030414000608080089907657B3A0721751000000570000004700000033313833443233422D424530322D344632462D423630342D4444344437423735394631392F4173736574446174612F
311
41737365745461626C654F66436F6E74656E74732E62696E536160607035357171B63471D235733570D435313277D3B5743473D57572313273353231777631301002AACB4D2C492DCA4CCC492C28484D2C4ACC4B4E050A82012F90744FCD03CA26072767A4E6260200504B030414000608080089907657F865834058000000
311
680000004500000033313833443233422D424530322D344632462D423630342D4444344437423735394631392F4173736574446174612F53747265616D56657273696F6E5461626C652E696E66558CBD0A80300C06F73E4B117FB66E451741D041DC5BF98480A492E4FDD18EAEC7DD4555D89EF28DF51A0B1BD8340C4DE7DD
311
848B988C0ACF0649566493F2408C508DDEBB99D5129FF8F1AF8CF5B9503E20FAE5A16B5AF702504B030414000608080089907657966C0036340100009A0400003600000033313833443233422D424530322D344632462D423630342D4444344437423735394631392F4173736574446174612F636E782E786D6CCD94314FC3
311
301085FF4AE43D761218A2CA718560E904121503DBD5B9B4561D3BB22F08FE3D769B0154C4D4A1EBF9DDF9F993DFC9F5E7688B0F0CD178D7B19A57AC40A77D6FDCBE63330D65CB8AB592C17BFA21638583113B96CB4CC97DF0F3B4947A1C60B6B96A8D3B2EC5871891B6B0B3F83C3C7A47E828B2425B88B163511F70040E33
311
F91EE391F740C06B1E30FA39684C93C88CB84CD20181B067AAA99ABBB2AECBA6D9D6EDAABA5FD5EDBB1459A9E4CE7BBBE84DBA2CF8A9D0E75B99AAA4C8C74ACEC12C9AFC16A6FEF2C877C64991944A460A89C9D2415F53EA8069B246032574C26B422A93086194E22C56526406BF483CE1609CC92D9B640CC88797640F0319
311
BC3922FF79BD3E998D8B044EE3EDF2B874787D0AAFA71FF4760EE42931B796934B87DCB8E10A2911A735924293B78AFA06504B030414000608080089907657269B4BDC080100004F0300003400000033313833443233422D424530322D344632462D423630342D4444344437423735394631392F536368656D61732F636E78
311
2E786D6CCD93316FC3201085FF8AC56EB0DD0E5684C990A15397B653370A97140538EBC055FBEF0BAE8744EAD60ED9E0F109BDF738E4FE33F8E60328398C13EB79C71A8806AD8BA7892DF9D88EACD92B4988F902634DD401265665A6E489709937C9C2512FBEAADEC5F3261E30048CCFE61D82668DF13AA589A575CBF592D1
311
423A73ABB3E63D2748B8908172437601B61B0C81CE60991ABAE1AEEDFB76185EFA71D7DDEFFAF1558A4A2AF986E837DEC50C847363B02C62B1D349518F955CC86D4CCDC0D4A5375EDA90A2104AA64CA5838DCC5F7321F53C7B67742E558915FC61941435EA55E0078840CEDC66E22B73FF16F909A2057A2CAF444EFBDB4CFE
311
9BC7BF1520D6D92F2350BF82FA06504B030414000608080089907657410A3D5871000000A40000002C00000033313833443233422D424530322D344632462D423630342D4444344437423735394631392F636E782E786D6C55CC4D0E82301086E1AB34B31774E7A22D31F1069E60020334B633A63FC6E34B0909B07DDE2F9F
311
EE7EC1AB2FC5E4840DDC9A2B28E25E06C7938192C7CB1D54677514C9871928C640062A83D55394F2D968A0118BAFEA1DBF377CA444F98919176EAB9FEAAB9F2960DA5BBB1E2ED3FA6FFF504B0304140006080800899076571D924D7A7E000000A300000007000000636E782E786D6C4D8CD10AC22018465F45FE7BCBA9B50D
311
D48198EF319A1BD2A661337AFC3476D1D50787EF1C317CB615BD5D7AF91824342702C8857B9C7C5824E47DC61DA0418914E3FE770314C6CD49A818945852CCCF034D6E1EF35AE9EAC3E380ACE998A14C637D2314734B2DD657C2B131DCB4BABDF4B6E98B71AE4A995FAF6CCDAB2F504B03041400060808008990765716E99B
311
5DA600000035010000130000005B436F6E74656E745F54797065735D2E786D6C9590410E82301045AFD2740F4517C6180A0BF5065E60AC53688469D30E066F6F91AD9AB89CF9FFFD3F99BA9DC7413C3026E749CB4D59498164FCCD51A7E5C4B6D84BD136F5E5193089ECA5A465CF1C0E4A25D3E308A9F401292BD6C711388F
311
B15301CC1D3A54DBAADA29E38991B8E0254336F5092D4C038BF39CD76B6FC6A538AEBEA54A4B08617006389FA516557DE4AE8E7E70DE30729138228C5F021CD93F02D4FB0DCD0B504B0304140006080800899076573DEE336E64000000790000001B0000006175746F6465736B2D64657369676E2D7061636B6167652E786D
311
6C35CBC10E83200C00D05F21DCA56CA76D41FC96062B120735B69A7DBE268BB7777961F8D5AF396893C2ADB70FE7ADA196782C2DF776D7A97B5933C430F15651E5469C55D70F80A4992A3ADC954792C525AE70A1E4D6AD9816CC044FEFDF01FE3FDE907802504B0304140006080800899076571576950CF700000096010000
311
3700000033313833443233422D424530322D344632462D423630342D4444344437423735394631392F4173736574446174612F636F72652E786D6C8550CB6EC32010FC156BEFD8801D154598C8ADDD2FE8A93784898B1283C5A3EAE71762576A4F3DED6A76667677F8E56BBD579FDA07E36C0FA4C65069ABDC6CECD2438A57
311
C4A0BA08EE9D8BBF685059B9EA1E0A0C822FDEA5ED8094B351DB825A37EB039421E80895BAE7A687A03EF42A6B996266845BBD4975938BAE49BDF3044FC9CC87D4CCD9CD5C8DF6205E30A3DD802744C909A36E9A5AC4263222DCE2137E7E7A65D330F2A688058F66FDD9AEBC9651CF2028A62D220451FA46D8197767C2DE79
311
53988287E8F3CFC7D2F21D88A15C3DCA2879B34FFFB8A66DFEDF35191B5B7AB8EE8A0082E4231F03C19B92522E8F08732D898A6F504B030414000608080089907657D230DC5BF6000000940100003500000033313833443233422D424530322D344632462D423630342D4444344437423735394631392F536368656D61732F
311
636F72652E786D6C8550CB6EC32010FC156BEFD8801D154598286DDC1F684FBD214C1C94182C1E553FBF60BB527BEA6957B333B3BBC34F5FF3A3FAD43E18677B2035864A5BE54663A71E52BC2206D54970EF5CFC4583CACA59F75060107CF22E2D3BA49C8DDA16D4BA51EFA00C4147A8D423373D0475D3B3AC658A9911EEF5
311
22D55D4EBA26F5C6133C2533EE523366377335DA8378C18C76673C204A0E1875C3D02236900BC22D3EE0E7A757369C2FBC2962C1A3997FB62BAF65D423088A698B084194BE1376C4DD91B00FDE14A6E021FAFCF3BEB47C07E26DBD33F0669BFDF14CCBF8BF673236B674F7DC140104C927AE03C19B92512E6B80B9963CC537
311
504B030414000608080089907657379DDA0301010000D70100002D00000033313833443233422D424530322D344632462D423630342D4444344437423735394631392F636F72652E786D6C9591C16E842010865F85CC1D1574BBEE06D9C4589FA0A7DE28CC5AB22B18C1A68F5FAC366D6FED09F2F3FD33FC33E2F23EDEC91B
311
CEC17AD700CB0A20E8B437D60D0D2CF14A6B20172966EFE30F0C88532336B0CA20C530FB65DA25ED5D44B7AACE1BDC4515024620FA9E2E0D04FD8AA3CAD41213116ED9A4F44D0D98B16CE3A48876FCB2EA195544039217BCA48C51CE9F587D2EAA33AB9F45BE92522CD6C592EFCD707C4143FC1453249007916FAF895AACD9
311
196BD21FEDD5E20CB26475D9F1B2A5ED63C169D5F39EB60F4545BBAEEA8EEDF170EAD92915496629429CD364F622EB0CFE6ADF8CBF922D93F967B2CD1140B2EF50F93A6629F2CF1DA4735D89FC00504B0304140006080800899076571337E9C906010000B201000008000000636F72652E786D6C8D50416EC32010FC0ADA3B
311
366047B5224C9436EE0B7AEA8D1AE2A0D860018EDADF17122AB5B79E16CDCCEE0CC30F9FCB8C6EDA07E36C0FB42280B41D9D3276EA618B67DC013A08EE9D8BBF6480AC5C740F1906C127EFB6B540A3B351DB8C5AA7740165083A021AE7F4E8218C17BDC84A6E3129C2B55AE5789593AE68F5D0091ECDF2B33A7A2DA3562018
311
610DA61433F646BB3D69F7B47BE775560ABE6D46152BA392BB391BED41BC908EB5473260467704B7C3D0E06EA0274C1AB223CF4FAFDD703CF13A2F0B1EA24F7F2E4752CE8882BC655F5E3F28C13F9C9B8B208552C8D9F90B04E17526FE84DE56F58FD0C6C68695838F8D0082A640772219E706D3B8D79B666E5B7C03504B01
311
021400140006080800899076578C0F9261CB000000200100004F000000000000000000000000000000000033313833443233422D424530322D344632462D423630342D4444344437423735394631392F4173736574446174612F446566696E6974696F6E4974657261746F7250726F706572746965732E62696E504B010214
311
0014000608080089907657AF6BE25CFE0000003002000045000000000000000000000000003801000033313833443233422D424530322D344632462D423630342D4444344437423735394631392F4173736574446174612F496E7374616E636550726F706572746965732E62696E504B010214001400060808008990765728
311
BB58AF800100009E0500003D000000000000000000000000009902000033313833443233422D424530322D344632462D423630342D4444344437423735394631392F536368656D61732F436F6D6D6F6E536368656D612E786D6C504B01021400140006080800899076572CCEBD668A040000E01200003E0000000000000000
311
00000000007404000033313833443233422D424530322D344632462D423630342D4444344437423735394631392F536368656D61732F47656E65726963536368656D612E786D6C504B01021400140006080800899076576180134D5F0100006B03000045000000000000000000000000005A09000033313833443233422D42
311
4530322D344632462D423630342D4444344437423735394631392F536368656D61732F52656E6465724D6174657269616C536368656D612E786D6C504B0102140014000608080089907657B3A07217510000005700000047000000000000000000000000001C0B000033313833443233422D424530322D344632462D423630
311
342D4444344437423735394631392F4173736574446174612F41737365745461626C654F66436F6E74656E74732E62696E504B0102140014000608080089907657F865834058000000680000004500000000000000000000000000D20B000033313833443233422D424530322D344632462D423630342D4444344437423735
311
394631392F4173736574446174612F53747265616D56657273696F6E5461626C652E696E66504B0102140014000608080089907657966C0036340100009A04000036000000000000000000000000008D0C000033313833443233422D424530322D344632462D423630342D4444344437423735394631392F41737365744461
311
74612F636E782E786D6C504B0102140014000608080089907657269B4BDC080100004F0300003400000000000000000000000000150E000033313833443233422D424530322D344632462D423630342D4444344437423735394631392F536368656D61732F636E782E786D6C504B0102140014000608080089907657410A3D
311
5871000000A40000002C000000000000000000000000006F0F000033313833443233422D424530322D344632462D423630342D4444344437423735394631392F636E782E786D6C504B01021400140006080800899076571D924D7A7E000000A300000007000000000000000000000000002A100000636E782E786D6C504B01
311
0214001400060808008990765716E99B5DA6000000350100001300000000000000000000000000CD1000005B436F6E74656E745F54797065735D2E786D6C504B01021400140006080800899076573DEE336E64000000790000001B00000000000000000000000000A41100006175746F6465736B2D64657369676E2D706163
311
6B6167652E786D6C504B01021400140006080800899076571576950CF70000009601000037000000000000000000000000004112000033313833443233422D424530322D344632462D423630342D4444344437423735394631392F4173736574446174612F636F72652E786D6C504B0102140014000608080089907657D230
311
DC5BF60000009401000035000000000000000000000000008D13000033313833443233422D424530322D344632462D423630342D4444344437423735394631392F536368656D61732F636F72652E786D6C504B0102140014000608080089907657379DDA0301010000D70100002D00000000000000000000000000D6140000
311
33313833443233422D424530322D344632462D423630342D4444344437423735394631392F636F72652E786D6C504B01021400140006080800899076571337E9C906010000B2010000080000000000000000000000000022160000636F72652E786D6C504B050600000000110011005A0600004E1700000000
310
504B030414000608080089907657000000000000000000000000370000006662782F45463544313142422D313535412D343639382D383634342D3042393636313339433331432F617474726962757465732E62696E504B030414000608080089907657000000000000000000000000350000006662782F4546354431314242
310
2D313535412D343639382D383634342D3042393636313339433331432F76657274696365732E62696E504B030414000608080089907657F270F1330600000004000000360000006662782F45463544313142422D313535412D343639382D383634342D3042393636313339433331432F747269616E676C65732E62696E6366
310
60600000504B03041400060808008990765751464CB48900000043010000360000006662782F45463544313142422D313535412D343639382D383634342D3042393636313339433331432F6469726563746F72792E786D6C9D8F310EC2300C45AF127987122606C71DD918B841D4B851A43646695A717C52A85029031293A5
310
A76FBF6FACEF7DA7264E43906840EF0FA03836E242F406C6DCEE4EA06AC22492573150D1F66C60C640E8938CB705396EEDD86DE9B5042FE27813D640EA63BB001C722AF6E55CB61E4863F58284D5D3F53DD715CE1C3985E63FD7F1B7EBDD617E9F1E504B0304140006080800899076572A4267E937070000201C0000340000
310
006662782F45463544313142422D313535412D343639382D383634342D3042393636313339433331432F6F626A656374732E786D6CDD59596FDB3810FE2B84F665F74197AFC485E3223E521845DAA24617FB26D032ED70431DA0A4C4D95FBF438A944545B6951EC062132076287238F3CD3D9ABC3F440C3D119ED124BEB17C
310
C7B31089C3644BE3FD8D55E43BFBDA42EFA768C29324AFEDB3508C23726389656B3AD9F3A448D5D296EC70C19AAB77B3BF5016929858286438CB6EAC2C7C2011767091275B923D3A5B9C6367BF3B38BE536E34C9EE394E1F1A57A59893380756613D062A8A03DFFC174472A713576C30B6F5BB6DEB9DD9E64AC14D46699CE5
310
380E5F71D5B8AE7782ABC6757D7FB058F686637B3818F4EDC1A8E7DBB3BBD9C2F6AFFADE7C349F8F6F97630B4D279B2461950252126F418B2FD6D49FB8E24925BE42A18DEF308963122A34DB366C89A24B49D6C4C400D697A2D51452CA5A5BE87714FEC4B64EA0182C19686BE1F467DD7A93CDDF0042D6C54A794684956739
310
075D2BEC4B7FF0266EB96AE8856628C239E11433C4E886630E0A82ADA5820C32C25B04292430935AD4F4EABC82615FF6A5362E770563C27FADA9F4B400FC91E499E48CFE43F891FBFA6DC013485BD038BF56C2E62F2990184F5CB9583EEBF7D4C31248B463780FD602628A4DFD5E03AFB98805AB8535FD78B739AC457C68BF
310
3CE5494A782E2C4F3AB3F23BADC19A6981F17500A5C4D5D4DD1195AF00FD2740BEE2054D40739C1E068781969DE338DB253C02ED200FD91EFCF190F8FAEADBC4AD0E4F113262E5294CC16D7F12A68618C6DD3548A7932730FA84F79570EB1033B0E97B1A0B3F0743412C812588F7BBCDC19AAE2098C2229CC20CA487DF892B
310
BE22F828E940BC6968A82DFC7650947698A69F1D75F5016C86D3B0529521E3297C873F05DFDBC5FAE3BAE03B1C927BE5D80BB2A331CD2199B63364806EB8FCB7D527E9911F58B2C1EC78DAD814C235FB44C48D16B5AC955A90D40B7022D270A919B9724FC1DB19C331498A4CADB7C5A93061090F362F41E9C2AD77FDA96DA0
310
BC4C19406B2C83E41E729A0A4CACA9D25615089D9AA06061982B0BDC975A0D36459406384A8A5884DAD7A6D8E403E28CB044A02AA969C3D65EABC96EE96E576410BC5A49CE0D20953F6BC2A5850F208EB5F1CBC98E6348A2491C50C8C1E02CAD37181754E09DE739236C1750C68A28D85106792488707A827E4709EA99EB91
310
BC3C277CDB4AD0B42CED93DA8604E00A580D92CE5665CC573AE5E4898A3253E6339D0D8C1DAA0EB5A68313E942648A1640B5314A335F0E078BF97830B3474BEFD61EF4AEEEECF1ED6869CF16BDD1B237B89A2FBCA39548048ED1AA9EEF4095A2CC31FC2F7F28A24D8C298307426CBC4DDFBD97D9F3C685D0E80EFD9977BDBC
310
1AD8774B6F600FBCE19D3D5B8E7C7BD4F780A3E56838F26F5D4EB2A4E021C9DC9EEB05DA24D378DF44EF720C85B2E672B2D3FA6A0AF33F8EA1CD9C6028F1BF1A442BAB6C2908BB065171B4194271F82852541042D5D7EA3E8D20DAE4A32DCEBD312E7B4EDF933FBE3FEE79E3DEF5785419FBD9402DEFF9E138D72641087D67
310
9107498A439AB727D4062E1DE3F49B728BD3F78708D0A9FE56979CCF33EA928046784F821D165D424B60BC24416B0EDBB324CB684C32D9E5BDAAFE1A343D078A2933E7B61821CD8288E4F87BEC4FB60D0D9B86D8CC02E847733111B858155406AD3A90531445F70B895BCAFF1264384A59D9E95EC2C0EF6908748FD3667182
310
6971C513D85B80F3C0DB1239B8B844BD625FD707AD5A6B521F7F37F913F0E8BAE617C2A3AFE85E3A39437F2C7EAE21A88C867EFF4A2BE21256FAAA5CF471AC80CE337C099E09DD3F742A34BBE9A456B29545754E226863715EF04EFE3A1AD64A95B371B276D31B8B43D9BFE90E0ED0930DDCA9F2B6760DD4A1348639572741
310
BAC1257521677A6274F506BF3EABEC3AD51F8E97BFBC62AE3B5F24873F9771806AB90CC02AFA1835756BD56DD443D933CE4308A46BF969CFC023B6647B6CCC0C726D25BAAE532F55CF2B11502398D8621167EFC517F61583AAA17BCEDC0F65D1E696EB2B91D81C184E1FF9309836697DFEB06E508195CEA7BF088CC8738382
310
5A9D8B6EF80CA96FAB63CFDFA0A024FAB63A73FC3FD1516805D6C668300DCE124661284FB6684F12C8DE3076E8D06DF08864322B83F1AAACADDF087438FD54CE5473BC61FA74F8806130CD542F56843014858C7963A975F41B8C41C524520EA79C4768C3540CB350C1E98D05169B53E8B69C0D8CB3E4F050526F8C2BC1B171
310
BC17F9BE3C55FD7F3C26D081A87494ABDAD305172599E14C50D8A6F23D01547DE583E9E4FB45D7EC209CC3D74D9157C21C178ED22810F40B81523898FA3D2A780F50509C97CB77E41E03924E93F9B3765052B573CCF772BC5EC3FB76F1C51593F1D56794B2622FD479AEFB3528D9A2EB664539859A80612831532C6AC8F93B
310
F70B4FE0155384EE281801FAFD703DFAC39D275194C4E5927BAB5E54A1F503BC76DABA7AE4076DBCE70F5D39055063FD608333E2E06DF6080BA05A4EC56CB484D830802A9AD60C406B44E8028E19FB570BA46AA3DA84A41E76053C72A68FC091C4BB1CE136F50DB50124F80270251F1EBFE88589CB61083EFD17504B030414
310
000608080089907657B3F6A9F33E01000046050000300000006662782F45463544313142422D313535412D343639382D383634342D3042393636313339433331432F636E782E786D6CCD944D4EC3301085AF12791FE7071655E5B8120B4EC002B1739C6930753C913D46F4F6D8252D2054C4A252D959E337D2FB669E466CDE
310
265BBC820F065DC71A5EB3029CC6C1B8B16391B6E58A151B293C227D91B1C2A9093A96CB4C8AD1639C97D2005B156DAE5AE3764B511179D34782C00A6D55081D0BFA1926C555241C20ECF8A048F1867B0818BD86D44F6682A55F7B500403936DDDDE944D53B6ED43B35AD7B7EB66F524AAAC94A247B48BDE38028F73A1313D
310
5C32538B2A7F4B11BD59349980C94F67BC374E54E95F8A90DCBA71D1D17ECEBA79B6462B4A63AA5013509944A026517D88A5A832EF37EAFBBBC7A38362301E34A1DF5F6900CDB9019C8CF19484BFF11F84BF6363FF9270AFB5EDB3B08BAD8BA11ED31A525C7FEE3FA548B9D1FEBFD09F8C5D3EF3E99490D1FF0FF9E8EB42C4
310
D5E1E4A5A5E70B28DF01504B030414000608080089907657291777E27E000000A30000000B0000006662782F636E782E786D6C4D8CD10AC22018465F45FE7B6B32150575E4AAF718CD0D69D361337AFC3476D1D50787EF1CD57DD605BD5D7AF91834905303C885471C7D9835E47DC2025067548A71FFBB010AC3EA34540C46
310
CD29E6ED40A39B86BC54BAF8F03CE0EDCEAE84588B0963174CB91458704A716325E7A4957D4BFA629CAB52E6D72B5BF3E60B504B030414000608080089907657A6D797065F0000008200000007000000636E782E786D6C4DCB3B0E80201045D1AD90E9FD7516806B51190811670C8A61F982B1B0BAC9C97B72CA7B1037C6D3
310
332918DA1E04D2CAC69353902EDB8C20262D23F3F59B81A079470595414B17391D1F19B4730A5583A7ED43BBE4025D9592775E5ADFFA01504B0304140006080800899076574FEB6A7CA0000000F4000000130000005B436F6E74656E745F54797065735D2E786D6C7D8F4B0EC2300C44AF1279DFA6B0400835ED02B8011730
310
C16D239A8F121795DB93D02D6269CFBC19BBED573B8B17C564BC53B0AB1B10E4B47F18372A5878A88E20FAAEBDBD032591BD2E299898C349CAA427B2986A1FC86565F0D122E7318E32A07EE24872DF3407A9BD63725C71C980AEBDD080CBCCE2BAE6F5D69B7110E7CD57AA146008B3D1C8F92C5954F993BB1BF787F39A89AB
310
C491D09600F9FDA2FB00504B0304140006080800899076573DEE336E64000000790000001B0000006175746F6465736B2D64657369676E2D7061636B6167652E786D6C35CBC10E83200C00D05F21DCA56CA76D41FC96062B120735B69A7DBE268BB7777961F8D5AF396893C2ADB70FE7ADA196782C2DF776D7A97B5933C430
310
F15651E5469C55D70F80A4992A3ADC954792C525AE70A1E4D6AD9816CC044FEFDF01FE3FDE907802504B0304140006080800899076577CAEE8BAF7000000960100003B0000006662782F45463544313142422D313535412D343639382D383634342D3042393636313339433331432F7265736F75726365732F636F72652E78
310
6D6C8550CB6E833010FC15B477830D4440641CA1F2093DF566990DB5126CE447D4CFAF9D50A93DF5B4ABD999D9DDE197AFED5E3CD0796DCD08ACA450A05176D1661D21862BE9A1B808EEAC0DBF685018B9E1081906C15767E37E40CA9A8026A3C62E7880D27B0C50A87B6A46F0EA133759CA1812C3DFCA5DAA9B5CB164E58B
310
27788C7A39A47A496EFAAAD181181ACA3A76EAC8DB3CCDA4AD5B4A86A1EF49D7B5B49DBA799E4E9457592C78D0DBCF76E550065C40D4B46E0863A4AEDF597FA6ED99F51FBCCA4CC17D70E9E76369FE0E84436FA353E879F59AFE718DFBF2BF6BD42634F5E1FA5278102C1DF91C085EE594527946986A4E547C03504B030414
310
0006080800899076572CD601F6F2000000B1010000310000006662782F45463544313142422D313535412D343639382D383634342D3042393636313339433331432F636F72652E786D6C8D50CB6E833010FC15B47713969720328E4ADA7E414FBD59C62156828DFCA8FAF9B50395DA5B4E6BCDCE7866879EBE977BF625AD53
310
460F80790199D4C24C4ACF03047F211D642746AD31FE0F0D32CD1739408281D1D99AB0EE9030DA4B9D506D26B983DC39E92113F7F818C089AB5C78CE838F0C77CB572E6E7C9639E61B8F51AF965FA9B0927B39012B8BB22288A42C3FB03B16F511BB4F7A484C464350D36EA5A6E8AE2E4A5A606FEFCD2BE238126C9A1752B7
310
7D47BAB6AE4931F66D8B557FAEF04C0F49CCA8F336DEBC7F92AE7B56BE09FF650EEBF44466A57D55EE869BC201C398E7B160F4900A8CE3D16E9CA96CF603504B03041400060808008990765776F66E1151010000DD0200000C0000006662782F636F72652E786D6C8D52DB8E832014FC15C33B0AD646DB204DB37EC23EED1B
310
456A49150C82E9E72F7889EBC376372648E69C33736602B9BCBA361A8519A45625C0310291505CD752352570F60E0B105D28315ADB1F6D2052AC13250830A0A431DAF50BC4B5B2420554E95A2C201B066141C45B7F29C1C01FA2633173D6770CCFB867FCC91A11E378EEA3C439592FA3B2F66CF22E8501F4744038C7C71C7E
310
54D70A666986E0E9541430CF33945DF3AABA1E1149C230255676AB3A37825951039AA2F400318669FA898B33CACEB8F82249E8A464B0C67B5E44833B40EFB71749667CC7E7FAFA6F3E27953DA40BDF3C31008AFD7A53819224E4E37F5378FB0CBDB0CFCFB25BBB5A787A6814DC6A93F94AADDD561A59EB84A746D1F49164AE
310
7AE689E0379EF40DCF7B0E1F14538D5F8D597FBD391BD4F73BF5C2C0D1BE22A54DC7DA6DB979C5EDDC847696D671AE5B6DFE33BD5A5DC34CC2C3A4DF504B030414000608080089907657DA9C4E6C04010000B201000008000000636F72652E786D6C8D50CD6E8420107E15327714D08DBA4136A63E424FBD5160B764158CE0
310
A67DFBC26A93F6D6D3906FBE3F865F3EE7093DCC1AAC773DD08200324E796DDDAD872D5E710BE822F8EA7DFC4503E4E46C7AC830087E5BFDB61C90F22E1A9751E7B5394019828980D4941E3D04F5616659C82D2646B8178B54777933052D769EE0D1CE3F52B51A198D06C108AB30A598B157DA9E497DA6ED1B2F3353F06DB3
310
FA88B23AA5DBAB352B88AE22B4A1A706BF8CC3886B5613DC756D8B9BA626F5D08CE37022BCCC62C1435CD39F0F93D433A2201F399797FB4AF077EFA783904A69E4DDF4052239E4C59FD2DBA2FF51DABA58B1C37057041034157A2E5270BE601ACFF3A699AF2DBE01504B010214001400060808008990765700000000000000
310
00000000003700000000000000000000000000000000006662782F45463544313142422D313535412D343639382D383634342D3042393636313339433331432F617474726962757465732E62696E504B0102140014000608080089907657000000000000000000000000350000000000000000000000000055000000666278
310
2F45463544313142422D313535412D343639382D383634342D3042393636313339433331432F76657274696365732E62696E504B0102140014000608080089907657F270F13306000000040000003600000000000000000000000000A80000006662782F45463544313142422D313535412D343639382D383634342D304239
310
3636313339433331432F747269616E676C65732E62696E504B010214001400060808008990765751464CB489000000430100003600000000000000000000000000020100006662782F45463544313142422D313535412D343639382D383634342D3042393636313339433331432F6469726563746F72792E786D6C504B0102
310
1400140006080800899076572A4267E937070000201C00003400000000000000000000000000DF0100006662782F45463544313142422D313535412D343639382D383634342D3042393636313339433331432F6F626A656374732E786D6C504B0102140014000608080089907657B3F6A9F33E010000460500003000000000
310
000000000000000000680900006662782F45463544313142422D313535412D343639382D383634342D3042393636313339433331432F636E782E786D6C504B0102140014000608080089907657291777E27E000000A30000000B00000000000000000000000000F40A00006662782F636E782E786D6C504B01021400140006
310
08080089907657A6D797065F0000008200000007000000000000000000000000009B0B0000636E782E786D6C504B01021400140006080800899076574FEB6A7CA0000000F400000013000000000000000000000000001F0C00005B436F6E74656E745F54797065735D2E786D6C504B01021400140006080800899076573DEE
310
336E64000000790000001B00000000000000000000000000F00C00006175746F6465736B2D64657369676E2D7061636B6167652E786D6C504B01021400140006080800899076577CAEE8BAF7000000960100003B000000000000000000000000008D0D00006662782F45463544313142422D313535412D343639382D383634
310
342D3042393636313339433331432F7265736F75726365732F636F72652E786D6C504B01021400140006080800899076572CD601F6F2000000B10100003100000000000000000000000000DD0E00006662782F45463544313142422D313535412D343639382D383634342D3042393636313339433331432F636F72652E786D
310
6C504B010214001400060808008990765776F66E1151010000DD0200000C000000000000000000000000001E1000006662782F636F72652E786D6C504B0102140014000608080089907657DA9C4E6C04010000B2010000080000000000000000000000000099110000636F72652E786D6C504B0506000000000E000E008004
310
0000C31200000000
  0
XRECORD
  5
8222
102
{ACAD_REACTORS
330
821D
102
}
330
821D
100
AcDbXrecord
280
     1
270
     1
271
     1
  0
XRECORD
  5
8221
102
{ACAD_REACTORS
330
821D
102
}
330
821D
100
AcDbXrecord
280
     1
270
     1
271
     1
  0
XRECORD
  5
8223
102
{ACAD_REACTORS
330
821D
102
}
330
821D
100
AcDbXrecord
280
     1
270
     1
271
     1
  0
XRECORD
  5
8220
102
{ACAD_REACTORS
330
821D
102
}
330
821D
100
AcDbXrecord
280
     1
270
     1
271
     1
  0
XRECORD
  5
857B
102
{ACAD_REACTORS
330
857A
102
}
330
857A
100
AcDbXrecord
280
     1
102
DISPLAYNAME
  1
Imperial24
102
FLAGS
 90
        0
  0
CELLSTYLEMAP
  5
8542
102
{ACAD_REACTORS
330
8541
102
}
330
8541
100
AcDbCellStyleMap
 90
        3
300
CELLSTYLE
  1
TABLEFORMAT_BEGIN
 90
        5
170
     1
 91
        0
 92
    32768
 62
   257
 93
        1
300
CONTENTFORMAT
  1
CONTENTFORMAT_BEGIN
 90
        0
 91
        0
 92
      512
 93
        0
300

 40
0.0
140
1.0
 94
        5
 62
     0
340
8250
144
0.25
309
CONTENTFORMAT_END
171
     0
 94
        0
309
TABLEFORMAT_END
  1
CELLSTYLE_BEGIN
 90
        1
 91
        1
300
_TITLE
309
CELLSTYLE_END
300
CELLSTYLE
  1
TABLEFORMAT_BEGIN
 90
        5
170
     1
 91
        0
 92
        0
 62
   257
 93
        1
300
CONTENTFORMAT
  1
CONTENTFORMAT_BEGIN
 90
        0
 91
        0
 92
      512
 93
        0
300

 40
0.0
140
1.0
 94
        5
 62
     0
340
8250
144
0.18
309
CONTENTFORMAT_END
171
     0
 94
        0
309
TABLEFORMAT_END
  1
CELLSTYLE_BEGIN
 90
        2
 91
        1
300
_HEADER
309
CELLSTYLE_END
300
CELLSTYLE
  1
TABLEFORMAT_BEGIN
 90
        5
170
     1
 91
        0
 92
        0
 62
   257
 93
        1
300
CONTENTFORMAT
  1
CONTENTFORMAT_BEGIN
 90
        0
 91
        0
 92
      512
 93
        0
300

 40
0.0
140
1.0
 94
        2
 62
     0
340
8250
144
0.18
309
CONTENTFORMAT_END
171
     0
 94
        0
309
TABLEFORMAT_END
  1
CELLSTYLE_BEGIN
 90
        3
 91
        2
300
_DATA
309
CELLSTYLE_END
  0
XRECORD
  5
8578
102
{ACAD_REACTORS
330
8541
102
}
330
8541
100
AcDbXrecord
280
     1
102
ACAD_ROUNDTRIP_PRE2007_TABLESTYLE
 90
      512
 91
        0
  1

 92
      512
 93
        0
  2

 94
      512
 95
        0
  3

  0
XRECORD
  5
8553
102
{ACAD_REACTORS
330
8552
102
}
330
8552
100
AcDbXrecord
280
     1
102
RTVSPost2010Prop28
280
     1
102
RTVSPost2010PropOp28
 70
     1
102
RTVSPost2010Prop29
280
     1
102
RTVSPost2010PropOp29
 70
     1
102
RTVSPost2010Prop30
280
     0
102
RTVSPost2010PropOp30
 70
     1
102
RTVSPost2010Prop31
280
     0
102
RTVSPost2010PropOp31
 70
     1
102
RTVSPost2010Prop32
280
     0
102
RTVSPost2010PropOp32
 70
     1
102
RTVSPost2010Prop33
280
     0
102
RTVSPost2010PropOp33
 70
     1
102
RTVSPost2010Prop34
280
     0
102
RTVSPost2010PropOp34
 70
     1
102
RTVSPost2010Prop35
280
     0
102
RTVSPost2010PropOp35
 70
     1
102
RTVSPost2010Prop36
280
     0
102
RTVSPost2010PropOp36
 70
     1
102
RTVSPost2010Prop37
 90
       50
102
RTVSPost2010PropOp37
 70
     1
102
RTVSPost2010Prop38
140
0.0
102
RTVSPost2010PropOp38
 70
     1
102
RTVSPost2010Prop39
140
1.0
102
RTVSPost2010PropOp39
 70
     1
102
RTVSPost2010Prop40
 90
        0
102
RTVSPost2010PropOp40
 70
     1
102
RTVSPost2010Prop41ColorIndex
 90
       18
102
RTVSPost2010Prop41ColorRGB
 90
        0
102
RTVSPost2010PropOp41
 70
     1
102
RTVSPost2010Prop42
 90
       50
102
RTVSPost2010PropOp42
 70
     1
102
RTVSPost2010Prop43
 90
        3
102
RTVSPost2010PropOp43
 70
     1
102
RTVSPost2010Prop44ColorIndex
 90
        5
102
RTVSPost2010Prop44ColorRGB
 90
      255
102
RTVSPost2010PropOp44
 70
     1
102
RTVSPost2010Prop45
280
     0
102
RTVSPost2010PropOp45
 70
     1
102
RTVSPost2010Prop46
 90
       50
102
RTVSPost2010PropOp46
 70
     1
102
RTVSPost2010Prop47
 90
       50
102
RTVSPost2010PropOp47
 70
     1
102
RTVSPost2010Prop48
 90
       50
102
RTVSPost2010PropOp48
 70
     1
102
RTVSPost2010Prop49
280
     0
102
RTVSPost2010PropOp49
 70
     1
102
RTVSPost2010Prop50
 90
       50
102
RTVSPost2010PropOp50
 70
     1
102
RTVSPost2010Prop51ColorIndex
 90
      256
102
RTVSPost2010Prop51ColorRGB
 90
-16777216
102
RTVSPost2010PropOp51
 70
     0
102
RTVSPost2010Prop52
140
1.0
102
RTVSPost2010PropOp52
 70
     0
102
RTVSPost2010Prop53
 90
        2
102
RTVSPost2010PropOp53
 70
     1
102
RTVSPost2010Prop54
  1
strokes_ogs.tif
102
RTVSPost2010PropOp54
 70
     1
102
RTVSPost2010Prop55
280
     0
102
RTVSPost2010PropOp55
 70
     1
102
RTVSPost2010Prop56
140
1.0
102
RTVSPost2010PropOp56
 70
     1
102
RTVSPost2010Prop57
140
1.0
102
RTVSPost2010PropOp57
 70
     1
102
RTVSPropertyOp0
 70
     1
102
RTVSPropertyOp1
 70
     1
102
RTVSPropertyOp2
 70
     1
102
RTVSPropertyOp3
 70
     1
102
RTVSPropertyOp4
 70
     1
102
RTVSPropertyOp5
 70
     1
102
RTVSPropertyOp6
 70
     1
102
RTVSPropertyOp7
 70
     1
102
RTVSPropertyOp8
 70
     1
102
RTVSPropertyOp9
 70
     1
102
RTVSPropertyOp10
 70
     1
102
RTVSPropertyOp11
 70
     1
102
RTVSPropertyOp12
 70
     1
102
RTVSPropertyOp13
 70
     1
102
RTVSPropertyOp14
 70
     1
102
RTVSPropertyOp15
 70
     1
102
RTVSPropertyOp16
 70
     1
102
RTVSPropertyOp17
 70
     1
102
RTVSPropertyOp18
 70
     1
102
RTVSPropertyOp19
 70
     1
102
RTVSPropertyOp20
 70
     1
102
RTVSPropertyOp21
 70
     1
102
RTVSPropertyOp22
 70
     1
102
RTVSPropertyOp23
 70
     1
102
RTVSPropertyOp24
 70
     1
102
RTVSPropertyOp25
 70
     1
102
RTVSPropertyOp26
 70
     1
102
RTVSPropertyOp27
 70
     1
102
RTVSPropertyOp28
 70
     1
102
RTVSPropertyOp29
 70
     1
102
RTVSPropertyOp30
 70
     1
102
RTVSPropertyOp31
 70
     1
102
RTVSPropertyOp32
 70
     1
102
RTVSPropertyOp33
 70
     1
102
RTVSPropertyOp34
 70
     1
102
RTVSPropertyOp35
 70
     1
102
RTVSPropertyOp36
 70
     1
102
RTVSPropertyOp37
 70
     1
102
RTVSPropertyOp38
 70
     1
102
RTVSPropertyOp39
 70
     1
102
RTVSPropertyOp40
 70
     1
102
RTVSPropertyOp41
 70
     1
102
RTVSPropertyOp42
 70
     1
102
RTVSPropertyOp43
 70
     1
102
RTVSPropertyOp44
 70
     1
102
RTVSPropertyOp45
 70
     1
102
RTVSPropertyOp46
 70
     1
102
RTVSPropertyOp47
 70
     1
102
RTVSPropertyOp48
 70
     1
102
RTVSPropertyOp49
 70
     1
102
RTVSPropertyOp50
 70
     1
102
RTVSPropertyOp51
 70
     0
102
RTVSPropertyOp52
 70
     0
102
RTVSPropertyOp53
 70
     1
102
RTVSPropertyOp54
 70
     1
102
RTVSPropertyOp55
 70
     1
102
RTVSPropertyOp56
 70
     1
102
RTVSPropertyOp57
 70
     1
102
RTVSPropertyOp58
 70
     1
102
RTVSPropertyOp59
 70
     1
102
RTVSPropertyOp60
 70
     1
102
RTVSPropertyOp61
 70
     1
102
RTVSPropertyOp62
 70
     1
  0
XRECORD
  5
8551
102
{ACAD_REACTORS
330
8550
102
}
330
8550
100
AcDbXrecord
280
     1
102
RTVSPost2010Prop28
280
     0
102
RTVSPost2010PropOp28
 70
     1
102
RTVSPost2010Prop29
280
     1
102
RTVSPost2010PropOp29
 70
     1
102
RTVSPost2010Prop30
280
     1
102
RTVSPost2010PropOp30
 70
     1
102
RTVSPost2010Prop31
280
     0
102
RTVSPost2010PropOp31
 70
     1
102
RTVSPost2010Prop32
280
     0
102
RTVSPost2010PropOp32
 70
     1
102
RTVSPost2010Prop33
280
     0
102
RTVSPost2010PropOp33
 70
     1
102
RTVSPost2010Prop34
280
     0
102
RTVSPost2010PropOp34
 70
     1
102
RTVSPost2010Prop35
280
     0
102
RTVSPost2010PropOp35
 70
     1
102
RTVSPost2010Prop36
280
     0
102
RTVSPost2010PropOp36
 70
     1
102
RTVSPost2010Prop37
 90
       50
102
RTVSPost2010PropOp37
 70
     1
102
RTVSPost2010Prop38
140
0.0
102
RTVSPost2010PropOp38
 70
     1
102
RTVSPost2010Prop39
140
1.0
102
RTVSPost2010PropOp39
 70
     1
102
RTVSPost2010Prop40
 90
        0
102
RTVSPost2010PropOp40
 70
     1
102
RTVSPost2010Prop41ColorIndex
 90
       18
102
RTVSPost2010Prop41ColorRGB
 90
        0
102
RTVSPost2010PropOp41
 70
     1
102
RTVSPost2010Prop42
 90
       50
102
RTVSPost2010PropOp42
 70
     1
102
RTVSPost2010Prop43
 90
        3
102
RTVSPost2010PropOp43
 70
     1
102
RTVSPost2010Prop44ColorIndex
 90
        5
102
RTVSPost2010Prop44ColorRGB
 90
      255
102
RTVSPost2010PropOp44
 70
     1
102
RTVSPost2010Prop45
280
     0
102
RTVSPost2010PropOp45
 70
     1
102
RTVSPost2010Prop46
 90
       50
102
RTVSPost2010PropOp46
 70
     1
102
RTVSPost2010Prop47
 90
       50
102
RTVSPost2010PropOp47
 70
     1
102
RTVSPost2010Prop48
 90
       50
102
RTVSPost2010PropOp48
 70
     1
102
RTVSPost2010Prop49
280
     0
102
RTVSPost2010PropOp49
 70
     1
102
RTVSPost2010Prop50
 90
       50
102
RTVSPost2010PropOp50
 70
     1
102
RTVSPost2010Prop51ColorIndex
 90
      256
102
RTVSPost2010Prop51ColorRGB
 90
-16777216
102
RTVSPost2010PropOp51
 70
     0
102
RTVSPost2010Prop52
140
1.0
102
RTVSPost2010PropOp52
 70
     0
102
RTVSPost2010Prop53
 90
        2
102
RTVSPost2010PropOp53
 70
     1
102
RTVSPost2010Prop54
  1
strokes_ogs.tif
102
RTVSPost2010PropOp54
 70
     1
102
RTVSPost2010Prop55
280
     0
102
RTVSPost2010PropOp55
 70
     1
102
RTVSPost2010Prop56
140
1.0
102
RTVSPost2010PropOp56
 70
     1
102
RTVSPost2010Prop57
140
1.0
102
RTVSPost2010PropOp57
 70
     1
102
RTVSPropertyOp0
 70
     1
102
RTVSPropertyOp1
 70
     1
102
RTVSPropertyOp2
 70
     1
102
RTVSPropertyOp3
 70
     1
102
RTVSPropertyOp4
 70
     1
102
RTVSPropertyOp5
 70
     1
102
RTVSPropertyOp6
 70
     1
102
RTVSPropertyOp7
 70
     1
102
RTVSPropertyOp8
 70
     1
102
RTVSPropertyOp9
 70
     1
102
RTVSPropertyOp10
 70
     1
102
RTVSPropertyOp11
 70
     1
102
RTVSPropertyOp12
 70
     1
102
RTVSPropertyOp13
 70
     1
102
RTVSPropertyOp14
 70
     1
102
RTVSPropertyOp15
 70
     1
102
RTVSPropertyOp16
 70
     1
102
RTVSPropertyOp17
 70
     1
102
RTVSPropertyOp18
 70
     1
102
RTVSPropertyOp19
 70
     1
102
RTVSPropertyOp20
 70
     1
102
RTVSPropertyOp21
 70
     1
102
RTVSPropertyOp22
 70
     1
102
RTVSPropertyOp23
 70
     1
102
RTVSPropertyOp24
 70
     1
102
RTVSPropertyOp25
 70
     1
102
RTVSPropertyOp26
 70
     1
102
RTVSPropertyOp27
 70
     1
102
RTVSPropertyOp28
 70
     1
102
RTVSPropertyOp29
 70
     1
102
RTVSPropertyOp30
 70
     1
102
RTVSPropertyOp31
 70
     1
102
RTVSPropertyOp32
 70
     1
102
RTVSPropertyOp33
 70
     1
102
RTVSPropertyOp34
 70
     1
102
RTVSPropertyOp35
 70
     1
102
RTVSPropertyOp36
 70
     1
102
RTVSPropertyOp37
 70
     1
102
RTVSPropertyOp38
 70
     1
102
RTVSPropertyOp39
 70
     1
102
RTVSPropertyOp40
 70
     1
102
RTVSPropertyOp41
 70
     1
102
RTVSPropertyOp42
 70
     1
102
RTVSPropertyOp43
 70
     1
102
RTVSPropertyOp44
 70
     1
102
RTVSPropertyOp45
 70
     1
102
RTVSPropertyOp46
 70
     1
102
RTVSPropertyOp47
 70
     1
102
RTVSPropertyOp48
 70
     1
102
RTVSPropertyOp49
 70
     1
102
RTVSPropertyOp50
 70
     1
102
RTVSPropertyOp51
 70
     0
102
RTVSPropertyOp52
 70
     0
102
RTVSPropertyOp53
 70
     1
102
RTVSPropertyOp54
 70
     1
102
RTVSPropertyOp55
 70
     1
102
RTVSPropertyOp56
 70
     1
102
RTVSPropertyOp57
 70
     1
102
RTVSPropertyOp58
 70
     1
102
RTVSPropertyOp59
 70
     1
102
RTVSPropertyOp60
 70
     1
102
RTVSPropertyOp61
 70
     1
102
RTVSPropertyOp62
 70
     1
  0
XRECORD
  5
855F
102
{ACAD_REACTORS
330
855E
102
}
330
855E
100
AcDbXrecord
280
     1
102
RTVSPost2010Prop28
280
     0
102
RTVSPost2010PropOp28
 70
     1
102
RTVSPost2010Prop29
280
     1
102
RTVSPost2010PropOp29
 70
     1
102
RTVSPost2010Prop30
280
     1
102
RTVSPost2010PropOp30
 70
     1
102
RTVSPost2010Prop31
280
     0
102
RTVSPost2010PropOp31
 70
     1
102
RTVSPost2010Prop32
280
     0
102
RTVSPost2010PropOp32
 70
     1
102
RTVSPost2010Prop33
280
     0
102
RTVSPost2010PropOp33
 70
     1
102
RTVSPost2010Prop34
280
     0
102
RTVSPost2010PropOp34
 70
     1
102
RTVSPost2010Prop35
280
     0
102
RTVSPost2010PropOp35
 70
     1
102
RTVSPost2010Prop36
280
     0
102
RTVSPost2010PropOp36
 70
     1
102
RTVSPost2010Prop37
 90
       50
102
RTVSPost2010PropOp37
 70
     1
102
RTVSPost2010Prop38
140
0.0
102
RTVSPost2010PropOp38
 70
     1
102
RTVSPost2010Prop39
140
1.0
102
RTVSPost2010PropOp39
 70
     1
102
RTVSPost2010Prop40
 90
        0
102
RTVSPost2010PropOp40
 70
     1
102
RTVSPost2010Prop41ColorIndex
 90
       18
102
RTVSPost2010Prop41ColorRGB
 90
        0
102
RTVSPost2010PropOp41
 70
     1
102
RTVSPost2010Prop42
 90
       50
102
RTVSPost2010PropOp42
 70
     1
102
RTVSPost2010Prop43
 90
        3
102
RTVSPost2010PropOp43
 70
     1
102
RTVSPost2010Prop44ColorIndex
 90
        5
102
RTVSPost2010Prop44ColorRGB
 90
      255
102
RTVSPost2010PropOp44
 70
     1
102
RTVSPost2010Prop45
280
     0
102
RTVSPost2010PropOp45
 70
     1
102
RTVSPost2010Prop46
 90
       50
102
RTVSPost2010PropOp46
 70
     1
102
RTVSPost2010Prop47
 90
       50
102
RTVSPost2010PropOp47
 70
     1
102
RTVSPost2010Prop48
 90
       50
102
RTVSPost2010PropOp48
 70
     1
102
RTVSPost2010Prop49
280
     0
102
RTVSPost2010PropOp49
 70
     1
102
RTVSPost2010Prop50
 90
       50
102
RTVSPost2010PropOp50
 70
     1
102
RTVSPost2010Prop51ColorIndex
 90
      256
102
RTVSPost2010Prop51ColorRGB
 90
-16777216
102
RTVSPost2010PropOp51
 70
     0
102
RTVSPost2010Prop52
140
1.0
102
RTVSPost2010PropOp52
 70
     0
102
RTVSPost2010Prop53
 90
        2
102
RTVSPost2010PropOp53
 70
     1
102
RTVSPost2010Prop54
  1
strokes_ogs.tif
102
RTVSPost2010PropOp54
 70
     1
102
RTVSPost2010Prop55
280
     0
102
RTVSPost2010PropOp55
 70
     1
102
RTVSPost2010Prop56
140
1.0
102
RTVSPost2010PropOp56
 70
     1
102
RTVSPost2010Prop57
140
1.0
102
RTVSPost2010PropOp57
 70
     1
102
RTVSPropertyOp0
 70
     1
102
RTVSPropertyOp1
 70
     1
102
RTVSPropertyOp2
 70
     1
102
RTVSPropertyOp3
 70
     1
102
RTVSPropertyOp4
 70
     1
102
RTVSPropertyOp5
 70
     1
102
RTVSPropertyOp6
 70
     1
102
RTVSPropertyOp7
 70
     1
102
RTVSPropertyOp8
 70
     1
102
RTVSPropertyOp9
 70
     1
102
RTVSPropertyOp10
 70
     1
102
RTVSPropertyOp11
 70
     1
102
RTVSPropertyOp12
 70
     1
102
RTVSPropertyOp13
 70
     1
102
RTVSPropertyOp14
 70
     1
102
RTVSPropertyOp15
 70
     1
102
RTVSPropertyOp16
 70
     1
102
RTVSPropertyOp17
 70
     1
102
RTVSPropertyOp18
 70
     1
102
RTVSPropertyOp19
 70
     1
102
RTVSPropertyOp20
 70
     1
102
RTVSPropertyOp21
 70
     1
102
RTVSPropertyOp22
 70
     1
102
RTVSPropertyOp23
 70
     1
102
RTVSPropertyOp24
 70
     1
102
RTVSPropertyOp25
 70
     1
102
RTVSPropertyOp26
 70
     1
102
RTVSPropertyOp27
 70
     1
102
RTVSPropertyOp28
 70
     1
102
RTVSPropertyOp29
 70
     1
102
RTVSPropertyOp30
 70
     1
102
RTVSPropertyOp31
 70
     1
102
RTVSPropertyOp32
 70
     1
102
RTVSPropertyOp33
 70
     1
102
RTVSPropertyOp34
 70
     1
102
RTVSPropertyOp35
 70
     1
102
RTVSPropertyOp36
 70
     1
102
RTVSPropertyOp37
 70
     1
102
RTVSPropertyOp38
 70
     1
102
RTVSPropertyOp39
 70
     1
102
RTVSPropertyOp40
 70
     1
102
RTVSPropertyOp41
 70
     1
102
RTVSPropertyOp42
 70
     1
102
RTVSPropertyOp43
 70
     1
102
RTVSPropertyOp44
 70
     1
102
RTVSPropertyOp45
 70
     1
102
RTVSPropertyOp46
 70
     1
102
RTVSPropertyOp47
 70
     1
102
RTVSPropertyOp48
 70
     1
102
RTVSPropertyOp49
 70
     1
102
RTVSPropertyOp50
 70
     1
102
RTVSPropertyOp51
 70
     0
102
RTVSPropertyOp52
 70
     0
102
RTVSPropertyOp53
 70
     1
102
RTVSPropertyOp54
 70
     1
102
RTVSPropertyOp55
 70
     1
102
RTVSPropertyOp56
 70
     1
102
RTVSPropertyOp57
 70
     1
102
RTVSPropertyOp58
 70
     1
102
RTVSPropertyOp59
 70
     1
102
RTVSPropertyOp60
 70
     1
102
RTVSPropertyOp61
 70
     1
102
RTVSPropertyOp62
 70
     1
  0
XRECORD
  5
8567
102
{ACAD_REACTORS
330
8566
102
}
330
8566
100
AcDbXrecord
280
     1
102
RTVSPost2010Prop28
280
     0
102
RTVSPost2010PropOp28
 70
     1
102
RTVSPost2010Prop29
280
     1
102
RTVSPost2010PropOp29
 70
     1
102
RTVSPost2010Prop30
280
     1
102
RTVSPost2010PropOp30
 70
     1
102
RTVSPost2010Prop31
280
     0
102
RTVSPost2010PropOp31
 70
     1
102
RTVSPost2010Prop32
280
     0
102
RTVSPost2010PropOp32
 70
     1
102
RTVSPost2010Prop33
280
     0
102
RTVSPost2010PropOp33
 70
     1
102
RTVSPost2010Prop34
280
     0
102
RTVSPost2010PropOp34
 70
     1
102
RTVSPost2010Prop35
280
     0
102
RTVSPost2010PropOp35
 70
     1
102
RTVSPost2010Prop36
280
     0
102
RTVSPost2010PropOp36
 70
     1
102
RTVSPost2010Prop37
 90
       50
102
RTVSPost2010PropOp37
 70
     1
102
RTVSPost2010Prop38
140
0.0
102
RTVSPost2010PropOp38
 70
     1
102
RTVSPost2010Prop39
140
1.0
102
RTVSPost2010PropOp39
 70
     1
102
RTVSPost2010Prop40
 90
        0
102
RTVSPost2010PropOp40
 70
     1
102
RTVSPost2010Prop41ColorIndex
 90
       18
102
RTVSPost2010Prop41ColorRGB
 90
        0
102
RTVSPost2010PropOp41
 70
     1
102
RTVSPost2010Prop42
 90
       50
102
RTVSPost2010PropOp42
 70
     1
102
RTVSPost2010Prop43
 90
        3
102
RTVSPost2010PropOp43
 70
     1
102
RTVSPost2010Prop44ColorIndex
 90
        5
102
RTVSPost2010Prop44ColorRGB
 90
      255
102
RTVSPost2010PropOp44
 70
     1
102
RTVSPost2010Prop45
280
     0
102
RTVSPost2010PropOp45
 70
     1
102
RTVSPost2010Prop46
 90
       50
102
RTVSPost2010PropOp46
 70
     1
102
RTVSPost2010Prop47
 90
       50
102
RTVSPost2010PropOp47
 70
     1
102
RTVSPost2010Prop48
 90
       50
102
RTVSPost2010PropOp48
 70
     1
102
RTVSPost2010Prop49
280
     0
102
RTVSPost2010PropOp49
 70
     1
102
RTVSPost2010Prop50
 90
       50
102
RTVSPost2010PropOp50
 70
     1
102
RTVSPost2010Prop51ColorIndex
 90
      256
102
RTVSPost2010Prop51ColorRGB
 90
-16777216
102
RTVSPost2010PropOp51
 70
     0
102
RTVSPost2010Prop52
140
1.0
102
RTVSPost2010PropOp52
 70
     0
102
RTVSPost2010Prop53
 90
        2
102
RTVSPost2010PropOp53
 70
     1
102
RTVSPost2010Prop54
  1
strokes_ogs.tif
102
RTVSPost2010PropOp54
 70
     1
102
RTVSPost2010Prop55
280
     0
102
RTVSPost2010PropOp55
 70
     1
102
RTVSPost2010Prop56
140
1.0
102
RTVSPost2010PropOp56
 70
     1
102
RTVSPost2010Prop57
140
1.0
102
RTVSPost2010PropOp57
 70
     1
102
RTVSPropertyOp0
 70
     1
102
RTVSPropertyOp1
 70
     1
102
RTVSPropertyOp2
 70
     1
102
RTVSPropertyOp3
 70
     1
102
RTVSPropertyOp4
 70
     1
102
RTVSPropertyOp5
 70
     1
102
RTVSPropertyOp6
 70
     1
102
RTVSPropertyOp7
 70
     1
102
RTVSPropertyOp8
 70
     1
102
RTVSPropertyOp9
 70
     1
102
RTVSPropertyOp10
 70
     1
102
RTVSPropertyOp11
 70
     1
102
RTVSPropertyOp12
 70
     1
102
RTVSPropertyOp13
 70
     1
102
RTVSPropertyOp14
 70
     1
102
RTVSPropertyOp15
 70
     1
102
RTVSPropertyOp16
 70
     1
102
RTVSPropertyOp17
 70
     1
102
RTVSPropertyOp18
 70
     1
102
RTVSPropertyOp19
 70
     1
102
RTVSPropertyOp20
 70
     1
102
RTVSPropertyOp21
 70
     1
102
RTVSPropertyOp22
 70
     1
102
RTVSPropertyOp23
 70
     1
102
RTVSPropertyOp24
 70
     1
102
RTVSPropertyOp25
 70
     1
102
RTVSPropertyOp26
 70
     1
102
RTVSPropertyOp27
 70
     1
102
RTVSPropertyOp28
 70
     1
102
RTVSPropertyOp29
 70
     1
102
RTVSPropertyOp30
 70
     1
102
RTVSPropertyOp31
 70
     1
102
RTVSPropertyOp32
 70
     1
102
RTVSPropertyOp33
 70
     1
102
RTVSPropertyOp34
 70
     1
102
RTVSPropertyOp35
 70
     1
102
RTVSPropertyOp36
 70
     1
102
RTVSPropertyOp37
 70
     1
102
RTVSPropertyOp38
 70
     1
102
RTVSPropertyOp39
 70
     1
102
RTVSPropertyOp40
 70
     1
102
RTVSPropertyOp41
 70
     1
102
RTVSPropertyOp42
 70
     1
102
RTVSPropertyOp43
 70
     1
102
RTVSPropertyOp44
 70
     1
102
RTVSPropertyOp45
 70
     1
102
RTVSPropertyOp46
 70
     1
102
RTVSPropertyOp47
 70
     1
102
RTVSPropertyOp48
 70
     1
102
RTVSPropertyOp49
 70
     1
102
RTVSPropertyOp50
 70
     1
102
RTVSPropertyOp51
 70
     0
102
RTVSPropertyOp52
 70
     0
102
RTVSPropertyOp53
 70
     1
102
RTVSPropertyOp54
 70
     1
102
RTVSPropertyOp55
 70
     1
102
RTVSPropertyOp56
 70
     1
102
RTVSPropertyOp57
 70
     1
102
RTVSPropertyOp58
 70
     1
102
RTVSPropertyOp59
 70
     1
102
RTVSPropertyOp60
 70
     1
102
RTVSPropertyOp61
 70
     1
102
RTVSPropertyOp62
 70
     1
  0
XRECORD
  5
8559
102
{ACAD_REACTORS
330
8558
102
}
330
8558
100
AcDbXrecord
280
     1
102
RTVSPost2010Prop28
280
     0
102
RTVSPost2010PropOp28
 70
     1
102
RTVSPost2010Prop29
280
     1
102
RTVSPost2010PropOp29
 70
     1
102
RTVSPost2010Prop30
280
     1
102
RTVSPost2010PropOp30
 70
     1
102
RTVSPost2010Prop31
280
     0
102
RTVSPost2010PropOp31
 70
     1
102
RTVSPost2010Prop32
280
     0
102
RTVSPost2010PropOp32
 70
     1
102
RTVSPost2010Prop33
280
     0
102
RTVSPost2010PropOp33
 70
     1
102
RTVSPost2010Prop34
280
     0
102
RTVSPost2010PropOp34
 70
     1
102
RTVSPost2010Prop35
280
     0
102
RTVSPost2010PropOp35
 70
     1
102
RTVSPost2010Prop36
280
     0
102
RTVSPost2010PropOp36
 70
     1
102
RTVSPost2010Prop37
 90
       50
102
RTVSPost2010PropOp37
 70
     1
102
RTVSPost2010Prop38
140
0.0
102
RTVSPost2010PropOp38
 70
     1
102
RTVSPost2010Prop39
140
1.0
102
RTVSPost2010PropOp39
 70
     1
102
RTVSPost2010Prop40
 90
        0
102
RTVSPost2010PropOp40
 70
     1
102
RTVSPost2010Prop41ColorIndex
 90
       18
102
RTVSPost2010Prop41ColorRGB
 90
        0
102
RTVSPost2010PropOp41
 70
     1
102
RTVSPost2010Prop42
 90
       50
102
RTVSPost2010PropOp42
 70
     1
102
RTVSPost2010Prop43
 90
        3
102
RTVSPost2010PropOp43
 70
     1
102
RTVSPost2010Prop44ColorIndex
 90
        5
102
RTVSPost2010Prop44ColorRGB
 90
      255
102
RTVSPost2010PropOp44
 70
     1
102
RTVSPost2010Prop45
280
     0
102
RTVSPost2010PropOp45
 70
     1
102
RTVSPost2010Prop46
 90
       50
102
RTVSPost2010PropOp46
 70
     1
102
RTVSPost2010Prop47
 90
       50
102
RTVSPost2010PropOp47
 70
     1
102
RTVSPost2010Prop48
 90
       50
102
RTVSPost2010PropOp48
 70
     1
102
RTVSPost2010Prop49
280
     0
102
RTVSPost2010PropOp49
 70
     1
102
RTVSPost2010Prop50
 90
       50
102
RTVSPost2010PropOp50
 70
     1
102
RTVSPost2010Prop51ColorIndex
 90
      256
102
RTVSPost2010Prop51ColorRGB
 90
-16777216
102
RTVSPost2010PropOp51
 70
     0
102
RTVSPost2010Prop52
140
1.0
102
RTVSPost2010PropOp52
 70
     0
102
RTVSPost2010Prop53
 90
        2
102
RTVSPost2010PropOp53
 70
     1
102
RTVSPost2010Prop54
  1
strokes_ogs.tif
102
RTVSPost2010PropOp54
 70
     1
102
RTVSPost2010Prop55
280
     0
102
RTVSPost2010PropOp55
 70
     1
102
RTVSPost2010Prop56
140
1.0
102
RTVSPost2010PropOp56
 70
     1
102
RTVSPost2010Prop57
140
1.0
102
RTVSPost2010PropOp57
 70
     1
102
RTVSPropertyOp0
 70
     1
102
RTVSPropertyOp1
 70
     1
102
RTVSPropertyOp2
 70
     1
102
RTVSPropertyOp3
 70
     1
102
RTVSPropertyOp4
 70
     1
102
RTVSPropertyOp5
 70
     1
102
RTVSPropertyOp6
 70
     1
102
RTVSPropertyOp7
 70
     1
102
RTVSPropertyOp8
 70
     1
102
RTVSPropertyOp9
 70
     1
102
RTVSPropertyOp10
 70
     1
102
RTVSPropertyOp11
 70
     1
102
RTVSPropertyOp12
 70
     1
102
RTVSPropertyOp13
 70
     1
102
RTVSPropertyOp14
 70
     1
102
RTVSPropertyOp15
 70
     1
102
RTVSPropertyOp16
 70
     1
102
RTVSPropertyOp17
 70
     1
102
RTVSPropertyOp18
 70
     1
102
RTVSPropertyOp19
 70
     1
102
RTVSPropertyOp20
 70
     1
102
RTVSPropertyOp21
 70
     1
102
RTVSPropertyOp22
 70
     1
102
RTVSPropertyOp23
 70
     1
102
RTVSPropertyOp24
 70
     1
102
RTVSPropertyOp25
 70
     1
102
RTVSPropertyOp26
 70
     1
102
RTVSPropertyOp27
 70
     1
102
RTVSPropertyOp28
 70
     1
102
RTVSPropertyOp29
 70
     1
102
RTVSPropertyOp30
 70
     1
102
RTVSPropertyOp31
 70
     1
102
RTVSPropertyOp32
 70
     1
102
RTVSPropertyOp33
 70
     1
102
RTVSPropertyOp34
 70
     1
102
RTVSPropertyOp35
 70
     1
102
RTVSPropertyOp36
 70
     1
102
RTVSPropertyOp37
 70
     1
102
RTVSPropertyOp38
 70
     1
102
RTVSPropertyOp39
 70
     1
102
RTVSPropertyOp40
 70
     1
102
RTVSPropertyOp41
 70
     1
102
RTVSPropertyOp42
 70
     1
102
RTVSPropertyOp43
 70
     1
102
RTVSPropertyOp44
 70
     1
102
RTVSPropertyOp45
 70
     1
102
RTVSPropertyOp46
 70
     1
102
RTVSPropertyOp47
 70
     1
102
RTVSPropertyOp48
 70
     1
102
RTVSPropertyOp49
 70
     1
102
RTVSPropertyOp50
 70
     1
102
RTVSPropertyOp51
 70
     0
102
RTVSPropertyOp52
 70
     0
102
RTVSPropertyOp53
 70
     1
102
RTVSPropertyOp54
 70
     1
102
RTVSPropertyOp55
 70
     1
102
RTVSPropertyOp56
 70
     1
102
RTVSPropertyOp57
 70
     1
102
RTVSPropertyOp58
 70
     1
102
RTVSPropertyOp59
 70
     1
102
RTVSPropertyOp60
 70
     1
102
RTVSPropertyOp61
 70
     1
102
RTVSPropertyOp62
 70
     1
  0
XRECORD
  5
855D
102
{ACAD_REACTORS
330
855C
102
}
330
855C
100
AcDbXrecord
280
     1
102
RTVSPost2010Prop28
280
     0
102
RTVSPost2010PropOp28
 70
     1
102
RTVSPost2010Prop29
280
     1
102
RTVSPost2010PropOp29
 70
     1
102
RTVSPost2010Prop30
280
     1
102
RTVSPost2010PropOp30
 70
     1
102
RTVSPost2010Prop31
280
     0
102
RTVSPost2010PropOp31
 70
     1
102
RTVSPost2010Prop32
280
     0
102
RTVSPost2010PropOp32
 70
     1
102
RTVSPost2010Prop33
280
     0
102
RTVSPost2010PropOp33
 70
     1
102
RTVSPost2010Prop34
280
     0
102
RTVSPost2010PropOp34
 70
     1
102
RTVSPost2010Prop35
280
     0
102
RTVSPost2010PropOp35
 70
     1
102
RTVSPost2010Prop36
280
     0
102
RTVSPost2010PropOp36
 70
     1
102
RTVSPost2010Prop37
 90
       50
102
RTVSPost2010PropOp37
 70
     1
102
RTVSPost2010Prop38
140
0.0
102
RTVSPost2010PropOp38
 70
     1
102
RTVSPost2010Prop39
140
1.0
102
RTVSPost2010PropOp39
 70
     1
102
RTVSPost2010Prop40
 90
        0
102
RTVSPost2010PropOp40
 70
     1
102
RTVSPost2010Prop41ColorIndex
 90
       18
102
RTVSPost2010Prop41ColorRGB
 90
        0
102
RTVSPost2010PropOp41
 70
     1
102
RTVSPost2010Prop42
 90
       50
102
RTVSPost2010PropOp42
 70
     1
102
RTVSPost2010Prop43
 90
        3
102
RTVSPost2010PropOp43
 70
     1
102
RTVSPost2010Prop44ColorIndex
 90
        5
102
RTVSPost2010Prop44ColorRGB
 90
      255
102
RTVSPost2010PropOp44
 70
     1
102
RTVSPost2010Prop45
280
     0
102
RTVSPost2010PropOp45
 70
     1
102
RTVSPost2010Prop46
 90
       50
102
RTVSPost2010PropOp46
 70
     1
102
RTVSPost2010Prop47
 90
       50
102
RTVSPost2010PropOp47
 70
     1
102
RTVSPost2010Prop48
 90
       50
102
RTVSPost2010PropOp48
 70
     1
102
RTVSPost2010Prop49
280
     0
102
RTVSPost2010PropOp49
 70
     1
102
RTVSPost2010Prop50
 90
       50
102
RTVSPost2010PropOp50
 70
     1
102
RTVSPost2010Prop51ColorIndex
 90
      256
102
RTVSPost2010Prop51ColorRGB
 90
-16777216
102
RTVSPost2010PropOp51
 70
     0
102
RTVSPost2010Prop52
140
1.0
102
RTVSPost2010PropOp52
 70
     0
102
RTVSPost2010Prop53
 90
        2
102
RTVSPost2010PropOp53
 70
     1
102
RTVSPost2010Prop54
  1
strokes_ogs.tif
102
RTVSPost2010PropOp54
 70
     1
102
RTVSPost2010Prop55
280
     0
102
RTVSPost2010PropOp55
 70
     1
102
RTVSPost2010Prop56
140
1.0
102
RTVSPost2010PropOp56
 70
     1
102
RTVSPost2010Prop57
140
1.0
102
RTVSPost2010PropOp57
 70
     1
102
RTVSPropertyOp0
 70
     1
102
RTVSPropertyOp1
 70
     1
102
RTVSPropertyOp2
 70
     1
102
RTVSPropertyOp3
 70
     1
102
RTVSPropertyOp4
 70
     1
102
RTVSPropertyOp5
 70
     1
102
RTVSPropertyOp6
 70
     1
102
RTVSPropertyOp7
 70
     1
102
RTVSPropertyOp8
 70
     1
102
RTVSPropertyOp9
 70
     1
102
RTVSPropertyOp10
 70
     1
102
RTVSPropertyOp11
 70
     1
102
RTVSPropertyOp12
 70
     1
102
RTVSPropertyOp13
 70
     1
102
RTVSPropertyOp14
 70
     1
102
RTVSPropertyOp15
 70
     1
102
RTVSPropertyOp16
 70
     1
102
RTVSPropertyOp17
 70
     1
102
RTVSPropertyOp18
 70
     1
102
RTVSPropertyOp19
 70
     1
102
RTVSPropertyOp20
 70
     1
102
RTVSPropertyOp21
 70
     1
102
RTVSPropertyOp22
 70
     1
102
RTVSPropertyOp23
 70
     1
102
RTVSPropertyOp24
 70
     1
102
RTVSPropertyOp25
 70
     1
102
RTVSPropertyOp26
 70
     1
102
RTVSPropertyOp27
 70
     1
102
RTVSPropertyOp28
 70
     1
102
RTVSPropertyOp29
 70
     1
102
RTVSPropertyOp30
 70
     1
102
RTVSPropertyOp31
 70
     1
102
RTVSPropertyOp32
 70
     1
102
RTVSPropertyOp33
 70
     1
102
RTVSPropertyOp34
 70
     1
102
RTVSPropertyOp35
 70
     1
102
RTVSPropertyOp36
 70
     1
102
RTVSPropertyOp37
 70
     1
102
RTVSPropertyOp38
 70
     1
102
RTVSPropertyOp39
 70
     1
102
RTVSPropertyOp40
 70
     1
102
RTVSPropertyOp41
 70
     1
102
RTVSPropertyOp42
 70
     1
102
RTVSPropertyOp43
 70
     1
102
RTVSPropertyOp44
 70
     1
102
RTVSPropertyOp45
 70
     1
102
RTVSPropertyOp46
 70
     1
102
RTVSPropertyOp47
 70
     1
102
RTVSPropertyOp48
 70
     1
102
RTVSPropertyOp49
 70
     1
102
RTVSPropertyOp50
 70
     1
102
RTVSPropertyOp51
 70
     0
102
RTVSPropertyOp52
 70
     0
102
RTVSPropertyOp53
 70
     1
102
RTVSPropertyOp54
 70
     1
102
RTVSPropertyOp55
 70
     1
102
RTVSPropertyOp56
 70
     1
102
RTVSPropertyOp57
 70
     1
102
RTVSPropertyOp58
 70
     1
102
RTVSPropertyOp59
 70
     1
102
RTVSPropertyOp60
 70
     1
102
RTVSPropertyOp61
 70
     1
102
RTVSPropertyOp62
 70
     1
  0
XRECORD
  5
8577
102
{ACAD_REACTORS
330
8576
102
}
330
8576
100
AcDbXrecord
280
     1
102
RTVSPost2010Prop28
280
     0
102
RTVSPost2010PropOp28
 70
     1
102
RTVSPost2010Prop29
280
     1
102
RTVSPost2010PropOp29
 70
     1
102
RTVSPost2010Prop30
280
     1
102
RTVSPost2010PropOp30
 70
     1
102
RTVSPost2010Prop31
280
     0
102
RTVSPost2010PropOp31
 70
     1
102
RTVSPost2010Prop32
280
     0
102
RTVSPost2010PropOp32
 70
     1
102
RTVSPost2010Prop33
280
     0
102
RTVSPost2010PropOp33
 70
     1
102
RTVSPost2010Prop34
280
     0
102
RTVSPost2010PropOp34
 70
     1
102
RTVSPost2010Prop35
280
     0
102
RTVSPost2010PropOp35
 70
     1
102
RTVSPost2010Prop36
280
     0
102
RTVSPost2010PropOp36
 70
     1
102
RTVSPost2010Prop37
 90
       50
102
RTVSPost2010PropOp37
 70
     0
102
RTVSPost2010Prop38
140
0.0
102
RTVSPost2010PropOp38
 70
     0
102
RTVSPost2010Prop39
140
1.0
102
RTVSPost2010PropOp39
 70
     0
102
RTVSPost2010Prop40
 90
        0
102
RTVSPost2010PropOp40
 70
     0
102
RTVSPost2010Prop41ColorIndex
 90
       18
102
RTVSPost2010Prop41ColorRGB
 90
        0
102
RTVSPost2010PropOp41
 70
     0
102
RTVSPost2010Prop42
 90
       50
102
RTVSPost2010PropOp42
 70
     0
102
RTVSPost2010Prop43
 90
        3
102
RTVSPost2010PropOp43
 70
     0
102
RTVSPost2010Prop44ColorIndex
 90
        5
102
RTVSPost2010Prop44ColorRGB
 90
      255
102
RTVSPost2010PropOp44
 70
     0
102
RTVSPost2010Prop45
280
     0
102
RTVSPost2010PropOp45
 70
     1
102
RTVSPost2010Prop46
 90
       50
102
RTVSPost2010PropOp46
 70
     0
102
RTVSPost2010Prop47
 90
       50
102
RTVSPost2010PropOp47
 70
     0
102
RTVSPost2010Prop48
 90
       50
102
RTVSPost2010PropOp48
 70
     0
102
RTVSPost2010Prop49
280
     0
102
RTVSPost2010PropOp49
 70
     1
102
RTVSPost2010Prop50
 90
       50
102
RTVSPost2010PropOp50
 70
     0
102
RTVSPost2010Prop51ColorIndex
 90
      256
102
RTVSPost2010Prop51ColorRGB
 90
-16777216
102
RTVSPost2010PropOp51
 70
     0
102
RTVSPost2010Prop52
140
1.0
102
RTVSPost2010PropOp52
 70
     0
102
RTVSPost2010Prop53
 90
        2
102
RTVSPost2010PropOp53
 70
     0
102
RTVSPost2010Prop54
  1
strokes_ogs.tif
102
RTVSPost2010PropOp54
 70
     0
102
RTVSPost2010Prop55
280
     0
102
RTVSPost2010PropOp55
 70
     1
102
RTVSPost2010Prop56
140
1.0
102
RTVSPost2010PropOp56
 70
     0
102
RTVSPost2010Prop57
140
1.0
102
RTVSPost2010PropOp57
 70
     0
102
RTVSPropertyOp0
 70
     0
102
RTVSPropertyOp1
 70
     0
102
RTVSPropertyOp2
 70
     0
102
RTVSPropertyOp3
 70
     0
102
RTVSPropertyOp4
 70
     0
102
RTVSPropertyOp5
 70
     0
102
RTVSPropertyOp6
 70
     0
102
RTVSPropertyOp7
 70
     0
102
RTVSPropertyOp8
 70
     0
102
RTVSPropertyOp9
 70
     0
102
RTVSPropertyOp10
 70
     0
102
RTVSPropertyOp11
 70
     0
102
RTVSPropertyOp12
 70
     0
102
RTVSPropertyOp13
 70
     0
102
RTVSPropertyOp14
 70
     2
102
RTVSPropertyOp15
 70
     0
102
RTVSPropertyOp16
 70
     0
102
RTVSPropertyOp17
 70
     0
102
RTVSPropertyOp18
 70
     0
102
RTVSPropertyOp19
 70
     0
102
RTVSPropertyOp20
 70
     0
102
RTVSPropertyOp21
 70
     0
102
RTVSPropertyOp22
 70
     0
102
RTVSPropertyOp23
 70
     0
102
RTVSPropertyOp24
 70
     0
102
RTVSPropertyOp25
 70
     0
102
RTVSPropertyOp26
 70
     0
102
RTVSPropertyOp27
 70
     0
102
RTVSPropertyOp28
 70
     1
102
RTVSPropertyOp29
 70
     1
102
RTVSPropertyOp30
 70
     1
102
RTVSPropertyOp31
 70
     1
102
RTVSPropertyOp32
 70
     1
102
RTVSPropertyOp33
 70
     1
102
RTVSPropertyOp34
 70
     1
102
RTVSPropertyOp35
 70
     1
102
RTVSPropertyOp36
 70
     1
102
RTVSPropertyOp37
 70
     0
102
RTVSPropertyOp38
 70
     0
102
RTVSPropertyOp39
 70
     0
102
RTVSPropertyOp40
 70
     0
102
RTVSPropertyOp41
 70
     0
102
RTVSPropertyOp42
 70
     0
102
RTVSPropertyOp43
 70
     0
102
RTVSPropertyOp44
 70
     0
102
RTVSPropertyOp45
 70
     1
102
RTVSPropertyOp46
 70
     0
102
RTVSPropertyOp47
 70
     0
102
RTVSPropertyOp48
 70
     0
102
RTVSPropertyOp49
 70
     1
102
RTVSPropertyOp50
 70
     0
102
RTVSPropertyOp51
 70
     0
102
RTVSPropertyOp52
 70
     0
102
RTVSPropertyOp53
 70
     0
102
RTVSPropertyOp54
 70
     0
102
RTVSPropertyOp55
 70
     1
102
RTVSPropertyOp56
 70
     0
102
RTVSPropertyOp57
 70
     0
102
RTVSPropertyOp58
 70
     0
102
RTVSPropertyOp59
 70
     0
102
RTVSPropertyOp60
 70
     0
102
RTVSPropertyOp61
 70
     0
102
RTVSPropertyOp62
 70
     0
  0
XRECORD
  5
8565
102
{ACAD_REACTORS
330
8564
102
}
330
8564
100
AcDbXrecord
280
     1
102
RTVSPost2010Prop28
280
     0
102
RTVSPost2010PropOp28
 70
     1
102
RTVSPost2010Prop29
280
     1
102
RTVSPost2010PropOp29
 70
     1
102
RTVSPost2010Prop30
280
     1
102
RTVSPost2010PropOp30
 70
     1
102
RTVSPost2010Prop31
280
     0
102
RTVSPost2010PropOp31
 70
     1
102
RTVSPost2010Prop32
280
     0
102
RTVSPost2010PropOp32
 70
     1
102
RTVSPost2010Prop33
280
     0
102
RTVSPost2010PropOp33
 70
     1
102
RTVSPost2010Prop34
280
     0
102
RTVSPost2010PropOp34
 70
     1
102
RTVSPost2010Prop35
280
     0
102
RTVSPost2010PropOp35
 70
     1
102
RTVSPost2010Prop36
280
     0
102
RTVSPost2010PropOp36
 70
     1
102
RTVSPost2010Prop37
 90
       50
102
RTVSPost2010PropOp37
 70
     1
102
RTVSPost2010Prop38
140
0.0
102
RTVSPost2010PropOp38
 70
     1
102
RTVSPost2010Prop39
140
1.0
102
RTVSPost2010PropOp39
 70
     1
102
RTVSPost2010Prop40
 90
        0
102
RTVSPost2010PropOp40
 70
     1
102
RTVSPost2010Prop41ColorIndex
 90
       18
102
RTVSPost2010Prop41ColorRGB
 90
        0
102
RTVSPost2010PropOp41
 70
     1
102
RTVSPost2010Prop42
 90
       50
102
RTVSPost2010PropOp42
 70
     1
102
RTVSPost2010Prop43
 90
        3
102
RTVSPost2010PropOp43
 70
     1
102
RTVSPost2010Prop44ColorIndex
 90
        5
102
RTVSPost2010Prop44ColorRGB
 90
      255
102
RTVSPost2010PropOp44
 70
     1
102
RTVSPost2010Prop45
280
     0
102
RTVSPost2010PropOp45
 70
     1
102
RTVSPost2010Prop46
 90
       50
102
RTVSPost2010PropOp46
 70
     1
102
RTVSPost2010Prop47
 90
       50
102
RTVSPost2010PropOp47
 70
     1
102
RTVSPost2010Prop48
 90
       50
102
RTVSPost2010PropOp48
 70
     1
102
RTVSPost2010Prop49
280
     0
102
RTVSPost2010PropOp49
 70
     1
102
RTVSPost2010Prop50
 90
       50
102
RTVSPost2010PropOp50
 70
     1
102
RTVSPost2010Prop51ColorIndex
 90
      256
102
RTVSPost2010Prop51ColorRGB
 90
-16777216
102
RTVSPost2010PropOp51
 70
     0
102
RTVSPost2010Prop52
140
1.0
102
RTVSPost2010PropOp52
 70
     0
102
RTVSPost2010Prop53
 90
        2
102
RTVSPost2010PropOp53
 70
     1
102
RTVSPost2010Prop54
  1
strokes_ogs.tif
102
RTVSPost2010PropOp54
 70
     1
102
RTVSPost2010Prop55
280
     0
102
RTVSPost2010PropOp55
 70
     1
102
RTVSPost2010Prop56
140
1.0
102
RTVSPost2010PropOp56
 70
     1
102
RTVSPost2010Prop57
140
1.0
102
RTVSPost2010PropOp57
 70
     1
102
RTVSPropertyOp0
 70
     1
102
RTVSPropertyOp1
 70
     1
102
RTVSPropertyOp2
 70
     1
102
RTVSPropertyOp3
 70
     1
102
RTVSPropertyOp4
 70
     1
102
RTVSPropertyOp5
 70
     1
102
RTVSPropertyOp6
 70
     1
102
RTVSPropertyOp7
 70
     1
102
RTVSPropertyOp8
 70
     1
102
RTVSPropertyOp9
 70
     1
102
RTVSPropertyOp10
 70
     1
102
RTVSPropertyOp11
 70
     1
102
RTVSPropertyOp12
 70
     1
102
RTVSPropertyOp13
 70
     1
102
RTVSPropertyOp14
 70
     1
102
RTVSPropertyOp15
 70
     1
102
RTVSPropertyOp16
 70
     1
102
RTVSPropertyOp17
 70
     1
102
RTVSPropertyOp18
 70
     1
102
RTVSPropertyOp19
 70
     1
102
RTVSPropertyOp20
 70
     1
102
RTVSPropertyOp21
 70
     1
102
RTVSPropertyOp22
 70
     1
102
RTVSPropertyOp23
 70
     1
102
RTVSPropertyOp24
 70
     1
102
RTVSPropertyOp25
 70
     1
102
RTVSPropertyOp26
 70
     1
102
RTVSPropertyOp27
 70
     1
102
RTVSPropertyOp28
 70
     1
102
RTVSPropertyOp29
 70
     1
102
RTVSPropertyOp30
 70
     1
102
RTVSPropertyOp31
 70
     1
102
RTVSPropertyOp32
 70
     1
102
RTVSPropertyOp33
 70
     1
102
RTVSPropertyOp34
 70
     1
102
RTVSPropertyOp35
 70
     1
102
RTVSPropertyOp36
 70
     1
102
RTVSPropertyOp37
 70
     1
102
RTVSPropertyOp38
 70
     1
102
RTVSPropertyOp39
 70
     1
102
RTVSPropertyOp40
 70
     1
102
RTVSPropertyOp41
 70
     1
102
RTVSPropertyOp42
 70
     1
102
RTVSPropertyOp43
 70
     1
102
RTVSPropertyOp44
 70
     1
102
RTVSPropertyOp45
 70
     1
102
RTVSPropertyOp46
 70
     1
102
RTVSPropertyOp47
 70
     1
102
RTVSPropertyOp48
 70
     1
102
RTVSPropertyOp49
 70
     1
102
RTVSPropertyOp50
 70
     1
102
RTVSPropertyOp51
 70
     0
102
RTVSPropertyOp52
 70
     0
102
RTVSPropertyOp53
 70
     1
102
RTVSPropertyOp54
 70
     1
102
RTVSPropertyOp55
 70
     1
102
RTVSPropertyOp56
 70
     1
102
RTVSPropertyOp57
 70
     1
102
RTVSPropertyOp58
 70
     1
102
RTVSPropertyOp59
 70
     1
102
RTVSPropertyOp60
 70
     1
102
RTVSPropertyOp61
 70
     1
102
RTVSPropertyOp62
 70
     1
  0
XRECORD
  5
8549
102
{ACAD_REACTORS
330
8548
102
}
330
8548
100
AcDbXrecord
280
     1
102
RTVSPost2010Prop28
280
     0
102
RTVSPost2010PropOp28
 70
     1
102
RTVSPost2010Prop29
280
     1
102
RTVSPost2010PropOp29
 70
     1
102
RTVSPost2010Prop30
280
     1
102
RTVSPost2010PropOp30
 70
     1
102
RTVSPost2010Prop31
280
     0
102
RTVSPost2010PropOp31
 70
     1
102
RTVSPost2010Prop32
280
     0
102
RTVSPost2010PropOp32
 70
     1
102
RTVSPost2010Prop33
280
     0
102
RTVSPost2010PropOp33
 70
     1
102
RTVSPost2010Prop34
280
     0
102
RTVSPost2010PropOp34
 70
     1
102
RTVSPost2010Prop35
280
     0
102
RTVSPost2010PropOp35
 70
     1
102
RTVSPost2010Prop36
280
     0
102
RTVSPost2010PropOp36
 70
     1
102
RTVSPost2010Prop37
 90
       50
102
RTVSPost2010PropOp37
 70
     1
102
RTVSPost2010Prop38
140
0.0
102
RTVSPost2010PropOp38
 70
     1
102
RTVSPost2010Prop39
140
1.0
102
RTVSPost2010PropOp39
 70
     1
102
RTVSPost2010Prop40
 90
        0
102
RTVSPost2010PropOp40
 70
     1
102
RTVSPost2010Prop41ColorIndex
 90
       18
102
RTVSPost2010Prop41ColorRGB
 90
        0
102
RTVSPost2010PropOp41
 70
     1
102
RTVSPost2010Prop42
 90
       50
102
RTVSPost2010PropOp42
 70
     1
102
RTVSPost2010Prop43
 90
        3
102
RTVSPost2010PropOp43
 70
     1
102
RTVSPost2010Prop44ColorIndex
 90
        5
102
RTVSPost2010Prop44ColorRGB
 90
      255
102
RTVSPost2010PropOp44
 70
     1
102
RTVSPost2010Prop45
280
     0
102
RTVSPost2010PropOp45
 70
     1
102
RTVSPost2010Prop46
 90
       50
102
RTVSPost2010PropOp46
 70
     1
102
RTVSPost2010Prop47
 90
       50
102
RTVSPost2010PropOp47
 70
     1
102
RTVSPost2010Prop48
 90
       50
102
RTVSPost2010PropOp48
 70
     1
102
RTVSPost2010Prop49
280
     0
102
RTVSPost2010PropOp49
 70
     1
102
RTVSPost2010Prop50
 90
       50
102
RTVSPost2010PropOp50
 70
     1
102
RTVSPost2010Prop51ColorIndex
 90
      256
102
RTVSPost2010Prop51ColorRGB
 90
-16777216
102
RTVSPost2010PropOp51
 70
     0
102
RTVSPost2010Prop52
140
1.0
102
RTVSPost2010PropOp52
 70
     0
102
RTVSPost2010Prop53
 90
        2
102
RTVSPost2010PropOp53
 70
     1
102
RTVSPost2010Prop54
  1
strokes_ogs.tif
102
RTVSPost2010PropOp54
 70
     1
102
RTVSPost2010Prop55
280
     0
102
RTVSPost2010PropOp55
 70
     1
102
RTVSPost2010Prop56
140
1.0
102
RTVSPost2010PropOp56
 70
     1
102
RTVSPost2010Prop57
140
1.0
102
RTVSPost2010PropOp57
 70
     1
102
RTVSPropertyOp0
 70
     1
102
RTVSPropertyOp1
 70
     1
102
RTVSPropertyOp2
 70
     1
102
RTVSPropertyOp3
 70
     1
102
RTVSPropertyOp4
 70
     1
102
RTVSPropertyOp5
 70
     1
102
RTVSPropertyOp6
 70
     1
102
RTVSPropertyOp7
 70
     1
102
RTVSPropertyOp8
 70
     1
102
RTVSPropertyOp9
 70
     1
102
RTVSPropertyOp10
 70
     1
102
RTVSPropertyOp11
 70
     1
102
RTVSPropertyOp12
 70
     1
102
RTVSPropertyOp13
 70
     1
102
RTVSPropertyOp14
 70
     1
102
RTVSPropertyOp15
 70
     1
102
RTVSPropertyOp16
 70
     1
102
RTVSPropertyOp17
 70
     1
102
RTVSPropertyOp18
 70
     1
102
RTVSPropertyOp19
 70
     1
102
RTVSPropertyOp20
 70
     1
102
RTVSPropertyOp21
 70
     1
102
RTVSPropertyOp22
 70
     1
102
RTVSPropertyOp23
 70
     1
102
RTVSPropertyOp24
 70
     1
102
RTVSPropertyOp25
 70
     1
102
RTVSPropertyOp26
 70
     1
102
RTVSPropertyOp27
 70
     1
102
RTVSPropertyOp28
 70
     1
102
RTVSPropertyOp29
 70
     1
102
RTVSPropertyOp30
 70
     1
102
RTVSPropertyOp31
 70
     1
102
RTVSPropertyOp32
 70
     1
102
RTVSPropertyOp33
 70
     1
102
RTVSPropertyOp34
 70
     1
102
RTVSPropertyOp35
 70
     1
102
RTVSPropertyOp36
 70
     1
102
RTVSPropertyOp37
 70
     1
102
RTVSPropertyOp38
 70
     1
102
RTVSPropertyOp39
 70
     1
102
RTVSPropertyOp40
 70
     1
102
RTVSPropertyOp41
 70
     1
102
RTVSPropertyOp42
 70
     1
102
RTVSPropertyOp43
 70
     1
102
RTVSPropertyOp44
 70
     1
102
RTVSPropertyOp45
 70
     1
102
RTVSPropertyOp46
 70
     1
102
RTVSPropertyOp47
 70
     1
102
RTVSPropertyOp48
 70
     1
102
RTVSPropertyOp49
 70
     1
102
RTVSPropertyOp50
 70
     1
102
RTVSPropertyOp51
 70
     0
102
RTVSPropertyOp52
 70
     0
102
RTVSPropertyOp53
 70
     1
102
RTVSPropertyOp54
 70
     1
102
RTVSPropertyOp55
 70
     1
102
RTVSPropertyOp56
 70
     1
102
RTVSPropertyOp57
 70
     1
102
RTVSPropertyOp58
 70
     1
102
RTVSPropertyOp59
 70
     1
102
RTVSPropertyOp60
 70
     1
102
RTVSPropertyOp61
 70
     1
102
RTVSPropertyOp62
 70
     1
  0
XRECORD
  5
854B
102
{ACAD_REACTORS
330
854A
102
}
330
854A
100
AcDbXrecord
280
     1
102
RTVSPost2010Prop28
280
     0
102
RTVSPost2010PropOp28
 70
     1
102
RTVSPost2010Prop29
280
     1
102
RTVSPost2010PropOp29
 70
     1
102
RTVSPost2010Prop30
280
     1
102
RTVSPost2010PropOp30
 70
     1
102
RTVSPost2010Prop31
280
     0
102
RTVSPost2010PropOp31
 70
     1
102
RTVSPost2010Prop32
280
     0
102
RTVSPost2010PropOp32
 70
     1
102
RTVSPost2010Prop33
280
     0
102
RTVSPost2010PropOp33
 70
     1
102
RTVSPost2010Prop34
280
     0
102
RTVSPost2010PropOp34
 70
     1
102
RTVSPost2010Prop35
280
     0
102
RTVSPost2010PropOp35
 70
     1
102
RTVSPost2010Prop36
280
     0
102
RTVSPost2010PropOp36
 70
     1
102
RTVSPost2010Prop37
 90
       50
102
RTVSPost2010PropOp37
 70
     1
102
RTVSPost2010Prop38
140
0.0
102
RTVSPost2010PropOp38
 70
     1
102
RTVSPost2010Prop39
140
1.0
102
RTVSPost2010PropOp39
 70
     1
102
RTVSPost2010Prop40
 90
        0
102
RTVSPost2010PropOp40
 70
     1
102
RTVSPost2010Prop41ColorIndex
 90
       18
102
RTVSPost2010Prop41ColorRGB
 90
        0
102
RTVSPost2010PropOp41
 70
     1
102
RTVSPost2010Prop42
 90
       50
102
RTVSPost2010PropOp42
 70
     1
102
RTVSPost2010Prop43
 90
        3
102
RTVSPost2010PropOp43
 70
     1
102
RTVSPost2010Prop44ColorIndex
 90
        5
102
RTVSPost2010Prop44ColorRGB
 90
      255
102
RTVSPost2010PropOp44
 70
     1
102
RTVSPost2010Prop45
280
     0
102
RTVSPost2010PropOp45
 70
     1
102
RTVSPost2010Prop46
 90
       50
102
RTVSPost2010PropOp46
 70
     1
102
RTVSPost2010Prop47
 90
       50
102
RTVSPost2010PropOp47
 70
     1
102
RTVSPost2010Prop48
 90
       50
102
RTVSPost2010PropOp48
 70
     1
102
RTVSPost2010Prop49
280
     0
102
RTVSPost2010PropOp49
 70
     1
102
RTVSPost2010Prop50
 90
       50
102
RTVSPost2010PropOp50
 70
     1
102
RTVSPost2010Prop51ColorIndex
 90
      256
102
RTVSPost2010Prop51ColorRGB
 90
-16777216
102
RTVSPost2010PropOp51
 70
     0
102
RTVSPost2010Prop52
140
1.0
102
RTVSPost2010PropOp52
 70
     0
102
RTVSPost2010Prop53
 90
        2
102
RTVSPost2010PropOp53
 70
     1
102
RTVSPost2010Prop54
  1
strokes_ogs.tif
102
RTVSPost2010PropOp54
 70
     1
102
RTVSPost2010Prop55
280
     0
102
RTVSPost2010PropOp55
 70
     1
102
RTVSPost2010Prop56
140
1.0
102
RTVSPost2010PropOp56
 70
     1
102
RTVSPost2010Prop57
140
1.0
102
RTVSPost2010PropOp57
 70
     1
102
RTVSPropertyOp0
 70
     1
102
RTVSPropertyOp1
 70
     1
102
RTVSPropertyOp2
 70
     1
102
RTVSPropertyOp3
 70
     1
102
RTVSPropertyOp4
 70
     1
102
RTVSPropertyOp5
 70
     1
102
RTVSPropertyOp6
 70
     1
102
RTVSPropertyOp7
 70
     1
102
RTVSPropertyOp8
 70
     1
102
RTVSPropertyOp9
 70
     1
102
RTVSPropertyOp10
 70
     1
102
RTVSPropertyOp11
 70
     1
102
RTVSPropertyOp12
 70
     1
102
RTVSPropertyOp13
 70
     1
102
RTVSPropertyOp14
 70
     1
102
RTVSPropertyOp15
 70
     1
102
RTVSPropertyOp16
 70
     1
102
RTVSPropertyOp17
 70
     1
102
RTVSPropertyOp18
 70
     1
102
RTVSPropertyOp19
 70
     1
102
RTVSPropertyOp20
 70
     1
102
RTVSPropertyOp21
 70
     1
102
RTVSPropertyOp22
 70
     1
102
RTVSPropertyOp23
 70
     1
102
RTVSPropertyOp24
 70
     1
102
RTVSPropertyOp25
 70
     1
102
RTVSPropertyOp26
 70
     1
102
RTVSPropertyOp27
 70
     1
102
RTVSPropertyOp28
 70
     1
102
RTVSPropertyOp29
 70
     1
102
RTVSPropertyOp30
 70
     1
102
RTVSPropertyOp31
 70
     1
102
RTVSPropertyOp32
 70
     1
102
RTVSPropertyOp33
 70
     1
102
RTVSPropertyOp34
 70
     1
102
RTVSPropertyOp35
 70
     1
102
RTVSPropertyOp36
 70
     1
102
RTVSPropertyOp37
 70
     1
102
RTVSPropertyOp38
 70
     1
102
RTVSPropertyOp39
 70
     1
102
RTVSPropertyOp40
 70
     1
102
RTVSPropertyOp41
 70
     1
102
RTVSPropertyOp42
 70
     1
102
RTVSPropertyOp43
 70
     1
102
RTVSPropertyOp44
 70
     1
102
RTVSPropertyOp45
 70
     1
102
RTVSPropertyOp46
 70
     1
102
RTVSPropertyOp47
 70
     1
102
RTVSPropertyOp48
 70
     1
102
RTVSPropertyOp49
 70
     1
102
RTVSPropertyOp50
 70
     1
102
RTVSPropertyOp51
 70
     0
102
RTVSPropertyOp52
 70
     0
102
RTVSPropertyOp53
 70
     1
102
RTVSPropertyOp54
 70
     1
102
RTVSPropertyOp55
 70
     1
102
RTVSPropertyOp56
 70
     1
102
RTVSPropertyOp57
 70
     1
102
RTVSPropertyOp58
 70
     1
102
RTVSPropertyOp59
 70
     1
102
RTVSPropertyOp60
 70
     1
102
RTVSPropertyOp61
 70
     1
102
RTVSPropertyOp62
 70
     1
  0
XRECORD
  5
854D
102
{ACAD_REACTORS
330
854C
102
}
330
854C
100
AcDbXrecord
280
     1
102
RTVSPost2010Prop28
280
     0
102
RTVSPost2010PropOp28
 70
     1
102
RTVSPost2010Prop29
280
     1
102
RTVSPost2010PropOp29
 70
     1
102
RTVSPost2010Prop30
280
     1
102
RTVSPost2010PropOp30
 70
     1
102
RTVSPost2010Prop31
280
     0
102
RTVSPost2010PropOp31
 70
     1
102
RTVSPost2010Prop32
280
     0
102
RTVSPost2010PropOp32
 70
     1
102
RTVSPost2010Prop33
280
     0
102
RTVSPost2010PropOp33
 70
     1
102
RTVSPost2010Prop34
280
     0
102
RTVSPost2010PropOp34
 70
     1
102
RTVSPost2010Prop35
280
     0
102
RTVSPost2010PropOp35
 70
     1
102
RTVSPost2010Prop36
280
     0
102
RTVSPost2010PropOp36
 70
     1
102
RTVSPost2010Prop37
 90
       50
102
RTVSPost2010PropOp37
 70
     1
102
RTVSPost2010Prop38
140
0.0
102
RTVSPost2010PropOp38
 70
     1
102
RTVSPost2010Prop39
140
1.0
102
RTVSPost2010PropOp39
 70
     1
102
RTVSPost2010Prop40
 90
        0
102
RTVSPost2010PropOp40
 70
     1
102
RTVSPost2010Prop41ColorIndex
 90
       18
102
RTVSPost2010Prop41ColorRGB
 90
        0
102
RTVSPost2010PropOp41
 70
     1
102
RTVSPost2010Prop42
 90
       50
102
RTVSPost2010PropOp42
 70
     1
102
RTVSPost2010Prop43
 90
        3
102
RTVSPost2010PropOp43
 70
     1
102
RTVSPost2010Prop44ColorIndex
 90
        5
102
RTVSPost2010Prop44ColorRGB
 90
      255
102
RTVSPost2010PropOp44
 70
     1
102
RTVSPost2010Prop45
280
     0
102
RTVSPost2010PropOp45
 70
     1
102
RTVSPost2010Prop46
 90
       50
102
RTVSPost2010PropOp46
 70
     1
102
RTVSPost2010Prop47
 90
       50
102
RTVSPost2010PropOp47
 70
     1
102
RTVSPost2010Prop48
 90
       50
102
RTVSPost2010PropOp48
 70
     1
102
RTVSPost2010Prop49
280
     0
102
RTVSPost2010PropOp49
 70
     1
102
RTVSPost2010Prop50
 90
       50
102
RTVSPost2010PropOp50
 70
     1
102
RTVSPost2010Prop51ColorIndex
 90
      256
102
RTVSPost2010Prop51ColorRGB
 90
-16777216
102
RTVSPost2010PropOp51
 70
     0
102
RTVSPost2010Prop52
140
1.0
102
RTVSPost2010PropOp52
 70
     0
102
RTVSPost2010Prop53
 90
        2
102
RTVSPost2010PropOp53
 70
     1
102
RTVSPost2010Prop54
  1
strokes_ogs.tif
102
RTVSPost2010PropOp54
 70
     1
102
RTVSPost2010Prop55
280
     0
102
RTVSPost2010PropOp55
 70
     1
102
RTVSPost2010Prop56
140
1.0
102
RTVSPost2010PropOp56
 70
     1
102
RTVSPost2010Prop57
140
1.0
102
RTVSPost2010PropOp57
 70
     1
102
RTVSPropertyOp0
 70
     1
102
RTVSPropertyOp1
 70
     1
102
RTVSPropertyOp2
 70
     1
102
RTVSPropertyOp3
 70
     1
102
RTVSPropertyOp4
 70
     1
102
RTVSPropertyOp5
 70
     1
102
RTVSPropertyOp6
 70
     1
102
RTVSPropertyOp7
 70
     1
102
RTVSPropertyOp8
 70
     1
102
RTVSPropertyOp9
 70
     1
102
RTVSPropertyOp10
 70
     1
102
RTVSPropertyOp11
 70
     1
102
RTVSPropertyOp12
 70
     1
102
RTVSPropertyOp13
 70
     1
102
RTVSPropertyOp14
 70
     1
102
RTVSPropertyOp15
 70
     1
102
RTVSPropertyOp16
 70
     1
102
RTVSPropertyOp17
 70
     1
102
RTVSPropertyOp18
 70
     1
102
RTVSPropertyOp19
 70
     1
102
RTVSPropertyOp20
 70
     1
102
RTVSPropertyOp21
 70
     1
102
RTVSPropertyOp22
 70
     1
102
RTVSPropertyOp23
 70
     1
102
RTVSPropertyOp24
 70
     1
102
RTVSPropertyOp25
 70
     1
102
RTVSPropertyOp26
 70
     1
102
RTVSPropertyOp27
 70
     1
102
RTVSPropertyOp28
 70
     1
102
RTVSPropertyOp29
 70
     1
102
RTVSPropertyOp30
 70
     1
102
RTVSPropertyOp31
 70
     1
102
RTVSPropertyOp32
 70
     1
102
RTVSPropertyOp33
 70
     1
102
RTVSPropertyOp34
 70
     1
102
RTVSPropertyOp35
 70
     1
102
RTVSPropertyOp36
 70
     1
102
RTVSPropertyOp37
 70
     1
102
RTVSPropertyOp38
 70
     1
102
RTVSPropertyOp39
 70
     1
102
RTVSPropertyOp40
 70
     1
102
RTVSPropertyOp41
 70
     1
102
RTVSPropertyOp42
 70
     1
102
RTVSPropertyOp43
 70
     1
102
RTVSPropertyOp44
 70
     1
102
RTVSPropertyOp45
 70
     1
102
RTVSPropertyOp46
 70
     1
102
RTVSPropertyOp47
 70
     1
102
RTVSPropertyOp48
 70
     1
102
RTVSPropertyOp49
 70
     1
102
RTVSPropertyOp50
 70
     1
102
RTVSPropertyOp51
 70
     0
102
RTVSPropertyOp52
 70
     0
102
RTVSPropertyOp53
 70
     1
102
RTVSPropertyOp54
 70
     1
102
RTVSPropertyOp55
 70
     1
102
RTVSPropertyOp56
 70
     1
102
RTVSPropertyOp57
 70
     1
102
RTVSPropertyOp58
 70
     1
102
RTVSPropertyOp59
 70
     1
102
RTVSPropertyOp60
 70
     1
102
RTVSPropertyOp61
 70
     1
102
RTVSPropertyOp62
 70
     1
  0
XRECORD
  5
854F
102
{ACAD_REACTORS
330
854E
102
}
330
854E
100
AcDbXrecord
280
     1
102
RTVSPost2010Prop28
280
     0
102
RTVSPost2010PropOp28
 70
     1
102
RTVSPost2010Prop29
280
     1
102
RTVSPost2010PropOp29
 70
     1
102
RTVSPost2010Prop30
280
     1
102
RTVSPost2010PropOp30
 70
     1
102
RTVSPost2010Prop31
280
     0
102
RTVSPost2010PropOp31
 70
     1
102
RTVSPost2010Prop32
280
     0
102
RTVSPost2010PropOp32
 70
     1
102
RTVSPost2010Prop33
280
     0
102
RTVSPost2010PropOp33
 70
     1
102
RTVSPost2010Prop34
280
     0
102
RTVSPost2010PropOp34
 70
     1
102
RTVSPost2010Prop35
280
     0
102
RTVSPost2010PropOp35
 70
     1
102
RTVSPost2010Prop36
280
     0
102
RTVSPost2010PropOp36
 70
     1
102
RTVSPost2010Prop37
 90
       50
102
RTVSPost2010PropOp37
 70
     1
102
RTVSPost2010Prop38
140
0.0
102
RTVSPost2010PropOp38
 70
     1
102
RTVSPost2010Prop39
140
1.0
102
RTVSPost2010PropOp39
 70
     1
102
RTVSPost2010Prop40
 90
        0
102
RTVSPost2010PropOp40
 70
     1
102
RTVSPost2010Prop41ColorIndex
 90
       18
102
RTVSPost2010Prop41ColorRGB
 90
        0
102
RTVSPost2010PropOp41
 70
     1
102
RTVSPost2010Prop42
 90
       50
102
RTVSPost2010PropOp42
 70
     1
102
RTVSPost2010Prop43
 90
        3
102
RTVSPost2010PropOp43
 70
     1
102
RTVSPost2010Prop44ColorIndex
 90
        5
102
RTVSPost2010Prop44ColorRGB
 90
      255
102
RTVSPost2010PropOp44
 70
     1
102
RTVSPost2010Prop45
280
     0
102
RTVSPost2010PropOp45
 70
     1
102
RTVSPost2010Prop46
 90
       50
102
RTVSPost2010PropOp46
 70
     1
102
RTVSPost2010Prop47
 90
       50
102
RTVSPost2010PropOp47
 70
     1
102
RTVSPost2010Prop48
 90
       50
102
RTVSPost2010PropOp48
 70
     1
102
RTVSPost2010Prop49
280
     0
102
RTVSPost2010PropOp49
 70
     1
102
RTVSPost2010Prop50
 90
       50
102
RTVSPost2010PropOp50
 70
     1
102
RTVSPost2010Prop51ColorIndex
 90
      256
102
RTVSPost2010Prop51ColorRGB
 90
-16777216
102
RTVSPost2010PropOp51
 70
     0
102
RTVSPost2010Prop52
140
1.0
102
RTVSPost2010PropOp52
 70
     0
102
RTVSPost2010Prop53
 90
        2
102
RTVSPost2010PropOp53
 70
     1
102
RTVSPost2010Prop54
  1
strokes_ogs.tif
102
RTVSPost2010PropOp54
 70
     1
102
RTVSPost2010Prop55
280
     0
102
RTVSPost2010PropOp55
 70
     1
102
RTVSPost2010Prop56
140
1.0
102
RTVSPost2010PropOp56
 70
     1
102
RTVSPost2010Prop57
140
1.0
102
RTVSPost2010PropOp57
 70
     1
102
RTVSPropertyOp0
 70
     1
102
RTVSPropertyOp1
 70
     1
102
RTVSPropertyOp2
 70
     1
102
RTVSPropertyOp3
 70
     1
102
RTVSPropertyOp4
 70
     1
102
RTVSPropertyOp5
 70
     1
102
RTVSPropertyOp6
 70
     1
102
RTVSPropertyOp7
 70
     1
102
RTVSPropertyOp8
 70
     1
102
RTVSPropertyOp9
 70
     1
102
RTVSPropertyOp10
 70
     1
102
RTVSPropertyOp11
 70
     1
102
RTVSPropertyOp12
 70
     1
102
RTVSPropertyOp13
 70
     1
102
RTVSPropertyOp14
 70
     1
102
RTVSPropertyOp15
 70
     1
102
RTVSPropertyOp16
 70
     1
102
RTVSPropertyOp17
 70
     1
102
RTVSPropertyOp18
 70
     1
102
RTVSPropertyOp19
 70
     1
102
RTVSPropertyOp20
 70
     1
102
RTVSPropertyOp21
 70
     1
102
RTVSPropertyOp22
 70
     1
102
RTVSPropertyOp23
 70
     1
102
RTVSPropertyOp24
 70
     1
102
RTVSPropertyOp25
 70
     1
102
RTVSPropertyOp26
 70
     1
102
RTVSPropertyOp27
 70
     1
102
RTVSPropertyOp28
 70
     1
102
RTVSPropertyOp29
 70
     1
102
RTVSPropertyOp30
 70
     1
102
RTVSPropertyOp31
 70
     1
102
RTVSPropertyOp32
 70
     1
102
RTVSPropertyOp33
 70
     1
102
RTVSPropertyOp34
 70
     1
102
RTVSPropertyOp35
 70
     1
102
RTVSPropertyOp36
 70
     1
102
RTVSPropertyOp37
 70
     1
102
RTVSPropertyOp38
 70
     1
102
RTVSPropertyOp39
 70
     1
102
RTVSPropertyOp40
 70
     1
102
RTVSPropertyOp41
 70
     1
102
RTVSPropertyOp42
 70
     1
102
RTVSPropertyOp43
 70
     1
102
RTVSPropertyOp44
 70
     1
102
RTVSPropertyOp45
 70
     1
102
RTVSPropertyOp46
 70
     1
102
RTVSPropertyOp47
 70
     1
102
RTVSPropertyOp48
 70
     1
102
RTVSPropertyOp49
 70
     1
102
RTVSPropertyOp50
 70
     1
102
RTVSPropertyOp51
 70
     0
102
RTVSPropertyOp52
 70
     0
102
RTVSPropertyOp53
 70
     1
102
RTVSPropertyOp54
 70
     1
102
RTVSPropertyOp55
 70
     1
102
RTVSPropertyOp56
 70
     1
102
RTVSPropertyOp57
 70
     1
102
RTVSPropertyOp58
 70
     1
102
RTVSPropertyOp59
 70
     1
102
RTVSPropertyOp60
 70
     1
102
RTVSPropertyOp61
 70
     1
102
RTVSPropertyOp62
 70
     1
  0
XRECORD
  5
8557
102
{ACAD_REACTORS
330
8556
102
}
330
8556
100
AcDbXrecord
280
     1
102
RTVSPost2010Prop28
280
     0
102
RTVSPost2010PropOp28
 70
     1
102
RTVSPost2010Prop29
280
     1
102
RTVSPost2010PropOp29
 70
     1
102
RTVSPost2010Prop30
280
     1
102
RTVSPost2010PropOp30
 70
     1
102
RTVSPost2010Prop31
280
     0
102
RTVSPost2010PropOp31
 70
     1
102
RTVSPost2010Prop32
280
     0
102
RTVSPost2010PropOp32
 70
     1
102
RTVSPost2010Prop33
280
     0
102
RTVSPost2010PropOp33
 70
     1
102
RTVSPost2010Prop34
280
     0
102
RTVSPost2010PropOp34
 70
     1
102
RTVSPost2010Prop35
280
     0
102
RTVSPost2010PropOp35
 70
     1
102
RTVSPost2010Prop36
280
     0
102
RTVSPost2010PropOp36
 70
     1
102
RTVSPost2010Prop37
 90
       50
102
RTVSPost2010PropOp37
 70
     1
102
RTVSPost2010Prop38
140
0.0
102
RTVSPost2010PropOp38
 70
     1
102
RTVSPost2010Prop39
140
1.0
102
RTVSPost2010PropOp39
 70
     1
102
RTVSPost2010Prop40
 90
        0
102
RTVSPost2010PropOp40
 70
     1
102
RTVSPost2010Prop41ColorIndex
 90
       18
102
RTVSPost2010Prop41ColorRGB
 90
        0
102
RTVSPost2010PropOp41
 70
     1
102
RTVSPost2010Prop42
 90
       50
102
RTVSPost2010PropOp42
 70
     1
102
RTVSPost2010Prop43
 90
        3
102
RTVSPost2010PropOp43
 70
     1
102
RTVSPost2010Prop44ColorIndex
 90
        5
102
RTVSPost2010Prop44ColorRGB
 90
      255
102
RTVSPost2010PropOp44
 70
     1
102
RTVSPost2010Prop45
280
     0
102
RTVSPost2010PropOp45
 70
     1
102
RTVSPost2010Prop46
 90
       50
102
RTVSPost2010PropOp46
 70
     1
102
RTVSPost2010Prop47
 90
       50
102
RTVSPost2010PropOp47
 70
     1
102
RTVSPost2010Prop48
 90
       50
102
RTVSPost2010PropOp48
 70
     1
102
RTVSPost2010Prop49
280
     0
102
RTVSPost2010PropOp49
 70
     1
102
RTVSPost2010Prop50
 90
       50
102
RTVSPost2010PropOp50
 70
     1
102
RTVSPost2010Prop51ColorIndex
 90
      256
102
RTVSPost2010Prop51ColorRGB
 90
-16777216
102
RTVSPost2010PropOp51
 70
     0
102
RTVSPost2010Prop52
140
1.0
102
RTVSPost2010PropOp52
 70
     0
102
RTVSPost2010Prop53
 90
        2
102
RTVSPost2010PropOp53
 70
     1
102
RTVSPost2010Prop54
  1
strokes_ogs.tif
102
RTVSPost2010PropOp54
 70
     1
102
RTVSPost2010Prop55
280
     0
102
RTVSPost2010PropOp55
 70
     1
102
RTVSPost2010Prop56
140
1.0
102
RTVSPost2010PropOp56
 70
     1
102
RTVSPost2010Prop57
140
1.0
102
RTVSPost2010PropOp57
 70
     1
102
RTVSPropertyOp0
 70
     1
102
RTVSPropertyOp1
 70
     1
102
RTVSPropertyOp2
 70
     1
102
RTVSPropertyOp3
 70
     1
102
RTVSPropertyOp4
 70
     1
102
RTVSPropertyOp5
 70
     1
102
RTVSPropertyOp6
 70
     1
102
RTVSPropertyOp7
 70
     1
102
RTVSPropertyOp8
 70
     1
102
RTVSPropertyOp9
 70
     1
102
RTVSPropertyOp10
 70
     1
102
RTVSPropertyOp11
 70
     1
102
RTVSPropertyOp12
 70
     1
102
RTVSPropertyOp13
 70
     1
102
RTVSPropertyOp14
 70
     1
102
RTVSPropertyOp15
 70
     1
102
RTVSPropertyOp16
 70
     1
102
RTVSPropertyOp17
 70
     1
102
RTVSPropertyOp18
 70
     1
102
RTVSPropertyOp19
 70
     1
102
RTVSPropertyOp20
 70
     1
102
RTVSPropertyOp21
 70
     1
102
RTVSPropertyOp22
 70
     1
102
RTVSPropertyOp23
 70
     1
102
RTVSPropertyOp24
 70
     1
102
RTVSPropertyOp25
 70
     1
102
RTVSPropertyOp26
 70
     1
102
RTVSPropertyOp27
 70
     1
102
RTVSPropertyOp28
 70
     1
102
RTVSPropertyOp29
 70
     1
102
RTVSPropertyOp30
 70
     1
102
RTVSPropertyOp31
 70
     1
102
RTVSPropertyOp32
 70
     1
102
RTVSPropertyOp33
 70
     1
102
RTVSPropertyOp34
 70
     1
102
RTVSPropertyOp35
 70
     1
102
RTVSPropertyOp36
 70
     1
102
RTVSPropertyOp37
 70
     1
102
RTVSPropertyOp38
 70
     1
102
RTVSPropertyOp39
 70
     1
102
RTVSPropertyOp40
 70
     1
102
RTVSPropertyOp41
 70
     1
102
RTVSPropertyOp42
 70
     1
102
RTVSPropertyOp43
 70
     1
102
RTVSPropertyOp44
 70
     1
102
RTVSPropertyOp45
 70
     1
102
RTVSPropertyOp46
 70
     1
102
RTVSPropertyOp47
 70
     1
102
RTVSPropertyOp48
 70
     1
102
RTVSPropertyOp49
 70
     1
102
RTVSPropertyOp50
 70
     1
102
RTVSPropertyOp51
 70
     0
102
RTVSPropertyOp52
 70
     0
102
RTVSPropertyOp53
 70
     1
102
RTVSPropertyOp54
 70
     1
102
RTVSPropertyOp55
 70
     1
102
RTVSPropertyOp56
 70
     1
102
RTVSPropertyOp57
 70
     1
102
RTVSPropertyOp58
 70
     1
102
RTVSPropertyOp59
 70
     1
102
RTVSPropertyOp60
 70
     1
102
RTVSPropertyOp61
 70
     1
102
RTVSPropertyOp62
 70
     1
  0
XRECORD
  5
8573
102
{ACAD_REACTORS
330
8572
102
}
330
8572
100
AcDbXrecord
280
     1
102
RTVSPost2010Prop28
280
     0
102
RTVSPost2010PropOp28
 70
     1
102
RTVSPost2010Prop29
280
     1
102
RTVSPost2010PropOp29
 70
     1
102
RTVSPost2010Prop30
280
     1
102
RTVSPost2010PropOp30
 70
     1
102
RTVSPost2010Prop31
280
     0
102
RTVSPost2010PropOp31
 70
     1
102
RTVSPost2010Prop32
280
     0
102
RTVSPost2010PropOp32
 70
     1
102
RTVSPost2010Prop33
280
     0
102
RTVSPost2010PropOp33
 70
     1
102
RTVSPost2010Prop34
280
     0
102
RTVSPost2010PropOp34
 70
     1
102
RTVSPost2010Prop35
280
     0
102
RTVSPost2010PropOp35
 70
     1
102
RTVSPost2010Prop36
280
     0
102
RTVSPost2010PropOp36
 70
     1
102
RTVSPost2010Prop37
 90
       50
102
RTVSPost2010PropOp37
 70
     0
102
RTVSPost2010Prop38
140
0.0
102
RTVSPost2010PropOp38
 70
     0
102
RTVSPost2010Prop39
140
1.0
102
RTVSPost2010PropOp39
 70
     0
102
RTVSPost2010Prop40
 90
        0
102
RTVSPost2010PropOp40
 70
     0
102
RTVSPost2010Prop41ColorIndex
 90
       18
102
RTVSPost2010Prop41ColorRGB
 90
        0
102
RTVSPost2010PropOp41
 70
     0
102
RTVSPost2010Prop42
 90
       50
102
RTVSPost2010PropOp42
 70
     0
102
RTVSPost2010Prop43
 90
        3
102
RTVSPost2010PropOp43
 70
     0
102
RTVSPost2010Prop44ColorIndex
 90
        5
102
RTVSPost2010Prop44ColorRGB
 90
      255
102
RTVSPost2010PropOp44
 70
     0
102
RTVSPost2010Prop45
280
     0
102
RTVSPost2010PropOp45
 70
     1
102
RTVSPost2010Prop46
 90
       50
102
RTVSPost2010PropOp46
 70
     0
102
RTVSPost2010Prop47
 90
       50
102
RTVSPost2010PropOp47
 70
     0
102
RTVSPost2010Prop48
 90
       50
102
RTVSPost2010PropOp48
 70
     0
102
RTVSPost2010Prop49
280
     0
102
RTVSPost2010PropOp49
 70
     1
102
RTVSPost2010Prop50
 90
       50
102
RTVSPost2010PropOp50
 70
     0
102
RTVSPost2010Prop51ColorIndex
 90
      256
102
RTVSPost2010Prop51ColorRGB
 90
-16777216
102
RTVSPost2010PropOp51
 70
     0
102
RTVSPost2010Prop52
140
1.0
102
RTVSPost2010PropOp52
 70
     0
102
RTVSPost2010Prop53
 90
        2
102
RTVSPost2010PropOp53
 70
     0
102
RTVSPost2010Prop54
  1
strokes_ogs.tif
102
RTVSPost2010PropOp54
 70
     0
102
RTVSPost2010Prop55
280
     0
102
RTVSPost2010PropOp55
 70
     1
102
RTVSPost2010Prop56
140
1.0
102
RTVSPost2010PropOp56
 70
     0
102
RTVSPost2010Prop57
140
1.0
102
RTVSPost2010PropOp57
 70
     0
102
RTVSPropertyOp0
 70
     0
102
RTVSPropertyOp1
 70
     0
102
RTVSPropertyOp2
 70
     0
102
RTVSPropertyOp3
 70
     0
102
RTVSPropertyOp4
 70
     0
102
RTVSPropertyOp5
 70
     0
102
RTVSPropertyOp6
 70
     0
102
RTVSPropertyOp7
 70
     0
102
RTVSPropertyOp8
 70
     0
102
RTVSPropertyOp9
 70
     0
102
RTVSPropertyOp10
 70
     0
102
RTVSPropertyOp11
 70
     0
102
RTVSPropertyOp12
 70
     0
102
RTVSPropertyOp13
 70
     0
102
RTVSPropertyOp14
 70
     2
102
RTVSPropertyOp15
 70
     0
102
RTVSPropertyOp16
 70
     0
102
RTVSPropertyOp17
 70
     0
102
RTVSPropertyOp18
 70
     0
102
RTVSPropertyOp19
 70
     0
102
RTVSPropertyOp20
 70
     0
102
RTVSPropertyOp21
 70
     0
102
RTVSPropertyOp22
 70
     0
102
RTVSPropertyOp23
 70
     0
102
RTVSPropertyOp24
 70
     0
102
RTVSPropertyOp25
 70
     0
102
RTVSPropertyOp26
 70
     0
102
RTVSPropertyOp27
 70
     0
102
RTVSPropertyOp28
 70
     1
102
RTVSPropertyOp29
 70
     1
102
RTVSPropertyOp30
 70
     1
102
RTVSPropertyOp31
 70
     1
102
RTVSPropertyOp32
 70
     1
102
RTVSPropertyOp33
 70
     1
102
RTVSPropertyOp34
 70
     1
102
RTVSPropertyOp35
 70
     1
102
RTVSPropertyOp36
 70
     1
102
RTVSPropertyOp37
 70
     0
102
RTVSPropertyOp38
 70
     0
102
RTVSPropertyOp39
 70
     0
102
RTVSPropertyOp40
 70
     0
102
RTVSPropertyOp41
 70
     0
102
RTVSPropertyOp42
 70
     0
102
RTVSPropertyOp43
 70
     0
102
RTVSPropertyOp44
 70
     0
102
RTVSPropertyOp45
 70
     1
102
RTVSPropertyOp46
 70
     0
102
RTVSPropertyOp47
 70
     0
102
RTVSPropertyOp48
 70
     0
102
RTVSPropertyOp49
 70
     1
102
RTVSPropertyOp50
 70
     0
102
RTVSPropertyOp51
 70
     0
102
RTVSPropertyOp52
 70
     0
102
RTVSPropertyOp53
 70
     0
102
RTVSPropertyOp54
 70
     0
102
RTVSPropertyOp55
 70
     1
102
RTVSPropertyOp56
 70
     0
102
RTVSPropertyOp57
 70
     0
102
RTVSPropertyOp58
 70
     0
102
RTVSPropertyOp59
 70
     0
102
RTVSPropertyOp60
 70
     0
102
RTVSPropertyOp61
 70
     0
102
RTVSPropertyOp62
 70
     0
  0
XRECORD
  5
8563
102
{ACAD_REACTORS
330
8562
102
}
330
8562
100
AcDbXrecord
280
     1
102
RTVSPost2010Prop28
280
     0
102
RTVSPost2010PropOp28
 70
     1
102
RTVSPost2010Prop29
280
     1
102
RTVSPost2010PropOp29
 70
     1
102
RTVSPost2010Prop30
280
     1
102
RTVSPost2010PropOp30
 70
     1
102
RTVSPost2010Prop31
280
     0
102
RTVSPost2010PropOp31
 70
     1
102
RTVSPost2010Prop32
280
     0
102
RTVSPost2010PropOp32
 70
     1
102
RTVSPost2010Prop33
280
     0
102
RTVSPost2010PropOp33
 70
     1
102
RTVSPost2010Prop34
280
     0
102
RTVSPost2010PropOp34
 70
     1
102
RTVSPost2010Prop35
280
     0
102
RTVSPost2010PropOp35
 70
     1
102
RTVSPost2010Prop36
280
     0
102
RTVSPost2010PropOp36
 70
     1
102
RTVSPost2010Prop37
 90
       50
102
RTVSPost2010PropOp37
 70
     1
102
RTVSPost2010Prop38
140
0.0
102
RTVSPost2010PropOp38
 70
     1
102
RTVSPost2010Prop39
140
1.0
102
RTVSPost2010PropOp39
 70
     1
102
RTVSPost2010Prop40
 90
        0
102
RTVSPost2010PropOp40
 70
     1
102
RTVSPost2010Prop41ColorIndex
 90
       18
102
RTVSPost2010Prop41ColorRGB
 90
        0
102
RTVSPost2010PropOp41
 70
     1
102
RTVSPost2010Prop42
 90
       50
102
RTVSPost2010PropOp42
 70
     1
102
RTVSPost2010Prop43
 90
        3
102
RTVSPost2010PropOp43
 70
     1
102
RTVSPost2010Prop44ColorIndex
 90
        5
102
RTVSPost2010Prop44ColorRGB
 90
      255
102
RTVSPost2010PropOp44
 70
     1
102
RTVSPost2010Prop45
280
     0
102
RTVSPost2010PropOp45
 70
     1
102
RTVSPost2010Prop46
 90
       50
102
RTVSPost2010PropOp46
 70
     1
102
RTVSPost2010Prop47
 90
       50
102
RTVSPost2010PropOp47
 70
     1
102
RTVSPost2010Prop48
 90
       50
102
RTVSPost2010PropOp48
 70
     1
102
RTVSPost2010Prop49
280
     0
102
RTVSPost2010PropOp49
 70
     1
102
RTVSPost2010Prop50
 90
       50
102
RTVSPost2010PropOp50
 70
     1
102
RTVSPost2010Prop51ColorIndex
 90
      256
102
RTVSPost2010Prop51ColorRGB
 90
-16777216
102
RTVSPost2010PropOp51
 70
     0
102
RTVSPost2010Prop52
140
1.0
102
RTVSPost2010PropOp52
 70
     0
102
RTVSPost2010Prop53
 90
        2
102
RTVSPost2010PropOp53
 70
     1
102
RTVSPost2010Prop54
  1
strokes_ogs.tif
102
RTVSPost2010PropOp54
 70
     1
102
RTVSPost2010Prop55
280
     0
102
RTVSPost2010PropOp55
 70
     1
102
RTVSPost2010Prop56
140
1.0
102
RTVSPost2010PropOp56
 70
     1
102
RTVSPost2010Prop57
140
1.0
102
RTVSPost2010PropOp57
 70
     1
102
RTVSPropertyOp0
 70
     1
102
RTVSPropertyOp1
 70
     1
102
RTVSPropertyOp2
 70
     1
102
RTVSPropertyOp3
 70
     1
102
RTVSPropertyOp4
 70
     1
102
RTVSPropertyOp5
 70
     1
102
RTVSPropertyOp6
 70
     1
102
RTVSPropertyOp7
 70
     1
102
RTVSPropertyOp8
 70
     1
102
RTVSPropertyOp9
 70
     1
102
RTVSPropertyOp10
 70
     1
102
RTVSPropertyOp11
 70
     1
102
RTVSPropertyOp12
 70
     1
102
RTVSPropertyOp13
 70
     1
102
RTVSPropertyOp14
 70
     1
102
RTVSPropertyOp15
 70
     1
102
RTVSPropertyOp16
 70
     1
102
RTVSPropertyOp17
 70
     1
102
RTVSPropertyOp18
 70
     1
102
RTVSPropertyOp19
 70
     1
102
RTVSPropertyOp20
 70
     1
102
RTVSPropertyOp21
 70
     1
102
RTVSPropertyOp22
 70
     1
102
RTVSPropertyOp23
 70
     1
102
RTVSPropertyOp24
 70
     1
102
RTVSPropertyOp25
 70
     1
102
RTVSPropertyOp26
 70
     1
102
RTVSPropertyOp27
 70
     1
102
RTVSPropertyOp28
 70
     1
102
RTVSPropertyOp29
 70
     1
102
RTVSPropertyOp30
 70
     1
102
RTVSPropertyOp31
 70
     1
102
RTVSPropertyOp32
 70
     1
102
RTVSPropertyOp33
 70
     1
102
RTVSPropertyOp34
 70
     1
102
RTVSPropertyOp35
 70
     1
102
RTVSPropertyOp36
 70
     1
102
RTVSPropertyOp37
 70
     1
102
RTVSPropertyOp38
 70
     1
102
RTVSPropertyOp39
 70
     1
102
RTVSPropertyOp40
 70
     1
102
RTVSPropertyOp41
 70
     1
102
RTVSPropertyOp42
 70
     1
102
RTVSPropertyOp43
 70
     1
102
RTVSPropertyOp44
 70
     1
102
RTVSPropertyOp45
 70
     1
102
RTVSPropertyOp46
 70
     1
102
RTVSPropertyOp47
 70
     1
102
RTVSPropertyOp48
 70
     1
102
RTVSPropertyOp49
 70
     1
102
RTVSPropertyOp50
 70
     1
102
RTVSPropertyOp51
 70
     0
102
RTVSPropertyOp52
 70
     0
102
RTVSPropertyOp53
 70
     1
102
RTVSPropertyOp54
 70
     1
102
RTVSPropertyOp55
 70
     1
102
RTVSPropertyOp56
 70
     1
102
RTVSPropertyOp57
 70
     1
102
RTVSPropertyOp58
 70
     1
102
RTVSPropertyOp59
 70
     1
102
RTVSPropertyOp60
 70
     1
102
RTVSPropertyOp61
 70
     1
102
RTVSPropertyOp62
 70
     1
  0
XRECORD
  5
8575
102
{ACAD_REACTORS
330
8574
102
}
330
8574
100
AcDbXrecord
280
     1
102
RTVSPost2010Prop28
280
     0
102
RTVSPost2010PropOp28
 70
     1
102
RTVSPost2010Prop29
280
     1
102
RTVSPost2010PropOp29
 70
     1
102
RTVSPost2010Prop30
280
     1
102
RTVSPost2010PropOp30
 70
     1
102
RTVSPost2010Prop31
280
     0
102
RTVSPost2010PropOp31
 70
     1
102
RTVSPost2010Prop32
280
     0
102
RTVSPost2010PropOp32
 70
     1
102
RTVSPost2010Prop33
280
     0
102
RTVSPost2010PropOp33
 70
     1
102
RTVSPost2010Prop34
280
     0
102
RTVSPost2010PropOp34
 70
     1
102
RTVSPost2010Prop35
280
     0
102
RTVSPost2010PropOp35
 70
     1
102
RTVSPost2010Prop36
280
     0
102
RTVSPost2010PropOp36
 70
     1
102
RTVSPost2010Prop37
 90
       50
102
RTVSPost2010PropOp37
 70
     0
102
RTVSPost2010Prop38
140
0.0
102
RTVSPost2010PropOp38
 70
     0
102
RTVSPost2010Prop39
140
1.0
102
RTVSPost2010PropOp39
 70
     0
102
RTVSPost2010Prop40
 90
        0
102
RTVSPost2010PropOp40
 70
     0
102
RTVSPost2010Prop41ColorIndex
 90
       18
102
RTVSPost2010Prop41ColorRGB
 90
        0
102
RTVSPost2010PropOp41
 70
     0
102
RTVSPost2010Prop42
 90
       50
102
RTVSPost2010PropOp42
 70
     0
102
RTVSPost2010Prop43
 90
        3
102
RTVSPost2010PropOp43
 70
     0
102
RTVSPost2010Prop44ColorIndex
 90
        5
102
RTVSPost2010Prop44ColorRGB
 90
      255
102
RTVSPost2010PropOp44
 70
     0
102
RTVSPost2010Prop45
280
     0
102
RTVSPost2010PropOp45
 70
     1
102
RTVSPost2010Prop46
 90
       50
102
RTVSPost2010PropOp46
 70
     0
102
RTVSPost2010Prop47
 90
       50
102
RTVSPost2010PropOp47
 70
     0
102
RTVSPost2010Prop48
 90
       50
102
RTVSPost2010PropOp48
 70
     0
102
RTVSPost2010Prop49
280
     0
102
RTVSPost2010PropOp49
 70
     1
102
RTVSPost2010Prop50
 90
       50
102
RTVSPost2010PropOp50
 70
     0
102
RTVSPost2010Prop51ColorIndex
 90
      256
102
RTVSPost2010Prop51ColorRGB
 90
-16777216
102
RTVSPost2010PropOp51
 70
     0
102
RTVSPost2010Prop52
140
1.0
102
RTVSPost2010PropOp52
 70
     0
102
RTVSPost2010Prop53
 90
        2
102
RTVSPost2010PropOp53
 70
     0
102
RTVSPost2010Prop54
  1
strokes_ogs.tif
102
RTVSPost2010PropOp54
 70
     0
102
RTVSPost2010Prop55
280
     0
102
RTVSPost2010PropOp55
 70
     1
102
RTVSPost2010Prop56
140
1.0
102
RTVSPost2010PropOp56
 70
     0
102
RTVSPost2010Prop57
140
1.0
102
RTVSPost2010PropOp57
 70
     0
102
RTVSPropertyOp0
 70
     0
102
RTVSPropertyOp1
 70
     0
102
RTVSPropertyOp2
 70
     0
102
RTVSPropertyOp3
 70
     0
102
RTVSPropertyOp4
 70
     0
102
RTVSPropertyOp5
 70
     0
102
RTVSPropertyOp6
 70
     0
102
RTVSPropertyOp7
 70
     0
102
RTVSPropertyOp8
 70
     0
102
RTVSPropertyOp9
 70
     0
102
RTVSPropertyOp10
 70
     0
102
RTVSPropertyOp11
 70
     0
102
RTVSPropertyOp12
 70
     0
102
RTVSPropertyOp13
 70
     0
102
RTVSPropertyOp14
 70
     2
102
RTVSPropertyOp15
 70
     0
102
RTVSPropertyOp16
 70
     0
102
RTVSPropertyOp17
 70
     0
102
RTVSPropertyOp18
 70
     0
102
RTVSPropertyOp19
 70
     0
102
RTVSPropertyOp20
 70
     0
102
RTVSPropertyOp21
 70
     0
102
RTVSPropertyOp22
 70
     0
102
RTVSPropertyOp23
 70
     0
102
RTVSPropertyOp24
 70
     0
102
RTVSPropertyOp25
 70
     0
102
RTVSPropertyOp26
 70
     0
102
RTVSPropertyOp27
 70
     0
102
RTVSPropertyOp28
 70
     1
102
RTVSPropertyOp29
 70
     1
102
RTVSPropertyOp30
 70
     1
102
RTVSPropertyOp31
 70
     1
102
RTVSPropertyOp32
 70
     1
102
RTVSPropertyOp33
 70
     1
102
RTVSPropertyOp34
 70
     1
102
RTVSPropertyOp35
 70
     1
102
RTVSPropertyOp36
 70
     1
102
RTVSPropertyOp37
 70
     0
102
RTVSPropertyOp38
 70
     0
102
RTVSPropertyOp39
 70
     0
102
RTVSPropertyOp40
 70
     0
102
RTVSPropertyOp41
 70
     0
102
RTVSPropertyOp42
 70
     0
102
RTVSPropertyOp43
 70
     0
102
RTVSPropertyOp44
 70
     0
102
RTVSPropertyOp45
 70
     1
102
RTVSPropertyOp46
 70
     0
102
RTVSPropertyOp47
 70
     0
102
RTVSPropertyOp48
 70
     0
102
RTVSPropertyOp49
 70
     1
102
RTVSPropertyOp50
 70
     0
102
RTVSPropertyOp51
 70
     0
102
RTVSPropertyOp52
 70
     0
102
RTVSPropertyOp53
 70
     0
102
RTVSPropertyOp54
 70
     0
102
RTVSPropertyOp55
 70
     1
102
RTVSPropertyOp56
 70
     0
102
RTVSPropertyOp57
 70
     0
102
RTVSPropertyOp58
 70
     0
102
RTVSPropertyOp59
 70
     0
102
RTVSPropertyOp60
 70
     0
102
RTVSPropertyOp61
 70
     0
102
RTVSPropertyOp62
 70
     0
  0
XRECORD
  5
855B
102
{ACAD_REACTORS
330
855A
102
}
330
855A
100
AcDbXrecord
280
     1
102
RTVSPost2010Prop28
280
     0
102
RTVSPost2010PropOp28
 70
     1
102
RTVSPost2010Prop29
280
     1
102
RTVSPost2010PropOp29
 70
     1
102
RTVSPost2010Prop30
280
     1
102
RTVSPost2010PropOp30
 70
     1
102
RTVSPost2010Prop31
280
     0
102
RTVSPost2010PropOp31
 70
     1
102
RTVSPost2010Prop32
280
     0
102
RTVSPost2010PropOp32
 70
     1
102
RTVSPost2010Prop33
280
     0
102
RTVSPost2010PropOp33
 70
     1
102
RTVSPost2010Prop34
280
     0
102
RTVSPost2010PropOp34
 70
     1
102
RTVSPost2010Prop35
280
     0
102
RTVSPost2010PropOp35
 70
     1
102
RTVSPost2010Prop36
280
     0
102
RTVSPost2010PropOp36
 70
     1
102
RTVSPost2010Prop37
 90
       50
102
RTVSPost2010PropOp37
 70
     1
102
RTVSPost2010Prop38
140
0.0
102
RTVSPost2010PropOp38
 70
     1
102
RTVSPost2010Prop39
140
1.0
102
RTVSPost2010PropOp39
 70
     1
102
RTVSPost2010Prop40
 90
        0
102
RTVSPost2010PropOp40
 70
     1
102
RTVSPost2010Prop41ColorIndex
 90
       18
102
RTVSPost2010Prop41ColorRGB
 90
        0
102
RTVSPost2010PropOp41
 70
     1
102
RTVSPost2010Prop42
 90
       50
102
RTVSPost2010PropOp42
 70
     1
102
RTVSPost2010Prop43
 90
        3
102
RTVSPost2010PropOp43
 70
     1
102
RTVSPost2010Prop44ColorIndex
 90
        5
102
RTVSPost2010Prop44ColorRGB
 90
      255
102
RTVSPost2010PropOp44
 70
     1
102
RTVSPost2010Prop45
280
     0
102
RTVSPost2010PropOp45
 70
     1
102
RTVSPost2010Prop46
 90
       50
102
RTVSPost2010PropOp46
 70
     1
102
RTVSPost2010Prop47
 90
       50
102
RTVSPost2010PropOp47
 70
     1
102
RTVSPost2010Prop48
 90
       50
102
RTVSPost2010PropOp48
 70
     1
102
RTVSPost2010Prop49
280
     0
102
RTVSPost2010PropOp49
 70
     1
102
RTVSPost2010Prop50
 90
       50
102
RTVSPost2010PropOp50
 70
     1
102
RTVSPost2010Prop51ColorIndex
 90
      256
102
RTVSPost2010Prop51ColorRGB
 90
-16777216
102
RTVSPost2010PropOp51
 70
     0
102
RTVSPost2010Prop52
140
1.0
102
RTVSPost2010PropOp52
 70
     0
102
RTVSPost2010Prop53
 90
        2
102
RTVSPost2010PropOp53
 70
     1
102
RTVSPost2010Prop54
  1
strokes_ogs.tif
102
RTVSPost2010PropOp54
 70
     1
102
RTVSPost2010Prop55
280
     0
102
RTVSPost2010PropOp55
 70
     1
102
RTVSPost2010Prop56
140
1.0
102
RTVSPost2010PropOp56
 70
     1
102
RTVSPost2010Prop57
140
1.0
102
RTVSPost2010PropOp57
 70
     1
102
RTVSPropertyOp0
 70
     1
102
RTVSPropertyOp1
 70
     1
102
RTVSPropertyOp2
 70
     1
102
RTVSPropertyOp3
 70
     1
102
RTVSPropertyOp4
 70
     1
102
RTVSPropertyOp5
 70
     1
102
RTVSPropertyOp6
 70
     1
102
RTVSPropertyOp7
 70
     1
102
RTVSPropertyOp8
 70
     1
102
RTVSPropertyOp9
 70
     1
102
RTVSPropertyOp10
 70
     1
102
RTVSPropertyOp11
 70
     1
102
RTVSPropertyOp12
 70
     1
102
RTVSPropertyOp13
 70
     1
102
RTVSPropertyOp14
 70
     1
102
RTVSPropertyOp15
 70
     1
102
RTVSPropertyOp16
 70
     1
102
RTVSPropertyOp17
 70
     1
102
RTVSPropertyOp18
 70
     1
102
RTVSPropertyOp19
 70
     1
102
RTVSPropertyOp20
 70
     1
102
RTVSPropertyOp21
 70
     1
102
RTVSPropertyOp22
 70
     1
102
RTVSPropertyOp23
 70
     1
102
RTVSPropertyOp24
 70
     1
102
RTVSPropertyOp25
 70
     1
102
RTVSPropertyOp26
 70
     1
102
RTVSPropertyOp27
 70
     1
102
RTVSPropertyOp28
 70
     1
102
RTVSPropertyOp29
 70
     1
102
RTVSPropertyOp30
 70
     1
102
RTVSPropertyOp31
 70
     1
102
RTVSPropertyOp32
 70
     1
102
RTVSPropertyOp33
 70
     1
102
RTVSPropertyOp34
 70
     1
102
RTVSPropertyOp35
 70
     1
102
RTVSPropertyOp36
 70
     1
102
RTVSPropertyOp37
 70
     1
102
RTVSPropertyOp38
 70
     1
102
RTVSPropertyOp39
 70
     1
102
RTVSPropertyOp40
 70
     1
102
RTVSPropertyOp41
 70
     1
102
RTVSPropertyOp42
 70
     1
102
RTVSPropertyOp43
 70
     1
102
RTVSPropertyOp44
 70
     1
102
RTVSPropertyOp45
 70
     1
102
RTVSPropertyOp46
 70
     1
102
RTVSPropertyOp47
 70
     1
102
RTVSPropertyOp48
 70
     1
102
RTVSPropertyOp49
 70
     1
102
RTVSPropertyOp50
 70
     1
102
RTVSPropertyOp51
 70
     0
102
RTVSPropertyOp52
 70
     0
102
RTVSPropertyOp53
 70
     1
102
RTVSPropertyOp54
 70
     1
102
RTVSPropertyOp55
 70
     1
102
RTVSPropertyOp56
 70
     1
102
RTVSPropertyOp57
 70
     1
102
RTVSPropertyOp58
 70
     1
102
RTVSPropertyOp59
 70
     1
102
RTVSPropertyOp60
 70
     1
102
RTVSPropertyOp61
 70
     1
102
RTVSPropertyOp62
 70
     1
  0
XRECORD
  5
8571
102
{ACAD_REACTORS
330
8570
102
}
330
8570
100
AcDbXrecord
280
     1
102
RTVSPost2010Prop28
280
     0
102
RTVSPost2010PropOp28
 70
     1
102
RTVSPost2010Prop29
280
     1
102
RTVSPost2010PropOp29
 70
     1
102
RTVSPost2010Prop30
280
     1
102
RTVSPost2010PropOp30
 70
     1
102
RTVSPost2010Prop31
280
     0
102
RTVSPost2010PropOp31
 70
     1
102
RTVSPost2010Prop32
280
     0
102
RTVSPost2010PropOp32
 70
     1
102
RTVSPost2010Prop33
280
     0
102
RTVSPost2010PropOp33
 70
     1
102
RTVSPost2010Prop34
280
     0
102
RTVSPost2010PropOp34
 70
     1
102
RTVSPost2010Prop35
280
     0
102
RTVSPost2010PropOp35
 70
     1
102
RTVSPost2010Prop36
280
     0
102
RTVSPost2010PropOp36
 70
     1
102
RTVSPost2010Prop37
 90
       50
102
RTVSPost2010PropOp37
 70
     1
102
RTVSPost2010Prop38
140
0.0
102
RTVSPost2010PropOp38
 70
     1
102
RTVSPost2010Prop39
140
1.0
102
RTVSPost2010PropOp39
 70
     1
102
RTVSPost2010Prop40
 90
        0
102
RTVSPost2010PropOp40
 70
     1
102
RTVSPost2010Prop41ColorIndex
 90
       18
102
RTVSPost2010Prop41ColorRGB
 90
        0
102
RTVSPost2010PropOp41
 70
     1
102
RTVSPost2010Prop42
 90
       50
102
RTVSPost2010PropOp42
 70
     1
102
RTVSPost2010Prop43
 90
        3
102
RTVSPost2010PropOp43
 70
     1
102
RTVSPost2010Prop44ColorIndex
 90
        5
102
RTVSPost2010Prop44ColorRGB
 90
      255
102
RTVSPost2010PropOp44
 70
     1
102
RTVSPost2010Prop45
280
     0
102
RTVSPost2010PropOp45
 70
     1
102
RTVSPost2010Prop46
 90
       50
102
RTVSPost2010PropOp46
 70
     1
102
RTVSPost2010Prop47
 90
       50
102
RTVSPost2010PropOp47
 70
     1
102
RTVSPost2010Prop48
 90
       50
102
RTVSPost2010PropOp48
 70
     1
102
RTVSPost2010Prop49
280
     0
102
RTVSPost2010PropOp49
 70
     1
102
RTVSPost2010Prop50
 90
       50
102
RTVSPost2010PropOp50
 70
     1
102
RTVSPost2010Prop51ColorIndex
 90
      256
102
RTVSPost2010Prop51ColorRGB
 90
-16777216
102
RTVSPost2010PropOp51
 70
     0
102
RTVSPost2010Prop52
140
1.0
102
RTVSPost2010PropOp52
 70
     0
102
RTVSPost2010Prop53
 90
        2
102
RTVSPost2010PropOp53
 70
     1
102
RTVSPost2010Prop54
  1
strokes_ogs.tif
102
RTVSPost2010PropOp54
 70
     1
102
RTVSPost2010Prop55
280
     0
102
RTVSPost2010PropOp55
 70
     1
102
RTVSPost2010Prop56
140
1.0
102
RTVSPost2010PropOp56
 70
     1
102
RTVSPost2010Prop57
140
1.0
102
RTVSPost2010PropOp57
 70
     1
102
RTVSPropertyOp0
 70
     1
102
RTVSPropertyOp1
 70
     1
102
RTVSPropertyOp2
 70
     1
102
RTVSPropertyOp3
 70
     1
102
RTVSPropertyOp4
 70
     1
102
RTVSPropertyOp5
 70
     1
102
RTVSPropertyOp6
 70
     1
102
RTVSPropertyOp7
 70
     1
102
RTVSPropertyOp8
 70
     1
102
RTVSPropertyOp9
 70
     1
102
RTVSPropertyOp10
 70
     1
102
RTVSPropertyOp11
 70
     1
102
RTVSPropertyOp12
 70
     1
102
RTVSPropertyOp13
 70
     1
102
RTVSPropertyOp14
 70
     1
102
RTVSPropertyOp15
 70
     1
102
RTVSPropertyOp16
 70
     1
102
RTVSPropertyOp17
 70
     1
102
RTVSPropertyOp18
 70
     1
102
RTVSPropertyOp19
 70
     1
102
RTVSPropertyOp20
 70
     1
102
RTVSPropertyOp21
 70
     1
102
RTVSPropertyOp22
 70
     1
102
RTVSPropertyOp23
 70
     1
102
RTVSPropertyOp24
 70
     1
102
RTVSPropertyOp25
 70
     1
102
RTVSPropertyOp26
 70
     1
102
RTVSPropertyOp27
 70
     1
102
RTVSPropertyOp28
 70
     1
102
RTVSPropertyOp29
 70
     1
102
RTVSPropertyOp30
 70
     1
102
RTVSPropertyOp31
 70
     1
102
RTVSPropertyOp32
 70
     1
102
RTVSPropertyOp33
 70
     1
102
RTVSPropertyOp34
 70
     1
102
RTVSPropertyOp35
 70
     1
102
RTVSPropertyOp36
 70
     1
102
RTVSPropertyOp37
 70
     1
102
RTVSPropertyOp38
 70
     1
102
RTVSPropertyOp39
 70
     1
102
RTVSPropertyOp40
 70
     1
102
RTVSPropertyOp41
 70
     1
102
RTVSPropertyOp42
 70
     1
102
RTVSPropertyOp43
 70
     1
102
RTVSPropertyOp44
 70
     1
102
RTVSPropertyOp45
 70
     1
102
RTVSPropertyOp46
 70
     1
102
RTVSPropertyOp47
 70
     1
102
RTVSPropertyOp48
 70
     1
102
RTVSPropertyOp49
 70
     1
102
RTVSPropertyOp50
 70
     1
102
RTVSPropertyOp51
 70
     0
102
RTVSPropertyOp52
 70
     0
102
RTVSPropertyOp53
 70
     1
102
RTVSPropertyOp54
 70
     1
102
RTVSPropertyOp55
 70
     1
102
RTVSPropertyOp56
 70
     1
102
RTVSPropertyOp57
 70
     1
102
RTVSPropertyOp58
 70
     1
102
RTVSPropertyOp59
 70
     1
102
RTVSPropertyOp60
 70
     1
102
RTVSPropertyOp61
 70
     1
102
RTVSPropertyOp62
 70
     1
  0
XRECORD
  5
856F
102
{ACAD_REACTORS
330
856E
102
}
330
856E
100
AcDbXrecord
280
     1
102
RTVSPost2010Prop28
280
     0
102
RTVSPost2010PropOp28
 70
     1
102
RTVSPost2010Prop29
280
     1
102
RTVSPost2010PropOp29
 70
     1
102
RTVSPost2010Prop30
280
     1
102
RTVSPost2010PropOp30
 70
     1
102
RTVSPost2010Prop31
280
     0
102
RTVSPost2010PropOp31
 70
     1
102
RTVSPost2010Prop32
280
     0
102
RTVSPost2010PropOp32
 70
     1
102
RTVSPost2010Prop33
280
     0
102
RTVSPost2010PropOp33
 70
     1
102
RTVSPost2010Prop34
280
     0
102
RTVSPost2010PropOp34
 70
     1
102
RTVSPost2010Prop35
280
     0
102
RTVSPost2010PropOp35
 70
     1
102
RTVSPost2010Prop36
280
     0
102
RTVSPost2010PropOp36
 70
     1
102
RTVSPost2010Prop37
 90
       50
102
RTVSPost2010PropOp37
 70
     1
102
RTVSPost2010Prop38
140
0.0
102
RTVSPost2010PropOp38
 70
     1
102
RTVSPost2010Prop39
140
1.0
102
RTVSPost2010PropOp39
 70
     1
102
RTVSPost2010Prop40
 90
        0
102
RTVSPost2010PropOp40
 70
     1
102
RTVSPost2010Prop41ColorIndex
 90
       18
102
RTVSPost2010Prop41ColorRGB
 90
        0
102
RTVSPost2010PropOp41
 70
     1
102
RTVSPost2010Prop42
 90
       50
102
RTVSPost2010PropOp42
 70
     1
102
RTVSPost2010Prop43
 90
        3
102
RTVSPost2010PropOp43
 70
     1
102
RTVSPost2010Prop44ColorIndex
 90
        5
102
RTVSPost2010Prop44ColorRGB
 90
      255
102
RTVSPost2010PropOp44
 70
     1
102
RTVSPost2010Prop45
280
     0
102
RTVSPost2010PropOp45
 70
     1
102
RTVSPost2010Prop46
 90
       50
102
RTVSPost2010PropOp46
 70
     1
102
RTVSPost2010Prop47
 90
       50
102
RTVSPost2010PropOp47
 70
     1
102
RTVSPost2010Prop48
 90
       50
102
RTVSPost2010PropOp48
 70
     1
102
RTVSPost2010Prop49
280
     0
102
RTVSPost2010PropOp49
 70
     1
102
RTVSPost2010Prop50
 90
       50
102
RTVSPost2010PropOp50
 70
     1
102
RTVSPost2010Prop51ColorIndex
 90
      256
102
RTVSPost2010Prop51ColorRGB
 90
-16777216
102
RTVSPost2010PropOp51
 70
     0
102
RTVSPost2010Prop52
140
1.0
102
RTVSPost2010PropOp52
 70
     0
102
RTVSPost2010Prop53
 90
        2
102
RTVSPost2010PropOp53
 70
     1
102
RTVSPost2010Prop54
  1
strokes_ogs.tif
102
RTVSPost2010PropOp54
 70
     1
102
RTVSPost2010Prop55
280
     0
102
RTVSPost2010PropOp55
 70
     1
102
RTVSPost2010Prop56
140
1.0
102
RTVSPost2010PropOp56
 70
     1
102
RTVSPost2010Prop57
140
1.0
102
RTVSPost2010PropOp57
 70
     1
102
RTVSPropertyOp0
 70
     1
102
RTVSPropertyOp1
 70
     1
102
RTVSPropertyOp2
 70
     1
102
RTVSPropertyOp3
 70
     1
102
RTVSPropertyOp4
 70
     1
102
RTVSPropertyOp5
 70
     1
102
RTVSPropertyOp6
 70
     1
102
RTVSPropertyOp7
 70
     1
102
RTVSPropertyOp8
 70
     1
102
RTVSPropertyOp9
 70
     1
102
RTVSPropertyOp10
 70
     1
102
RTVSPropertyOp11
 70
     1
102
RTVSPropertyOp12
 70
     1
102
RTVSPropertyOp13
 70
     1
102
RTVSPropertyOp14
 70
     1
102
RTVSPropertyOp15
 70
     1
102
RTVSPropertyOp16
 70
     1
102
RTVSPropertyOp17
 70
     1
102
RTVSPropertyOp18
 70
     1
102
RTVSPropertyOp19
 70
     1
102
RTVSPropertyOp20
 70
     1
102
RTVSPropertyOp21
 70
     1
102
RTVSPropertyOp22
 70
     1
102
RTVSPropertyOp23
 70
     1
102
RTVSPropertyOp24
 70
     1
102
RTVSPropertyOp25
 70
     1
102
RTVSPropertyOp26
 70
     1
102
RTVSPropertyOp27
 70
     1
102
RTVSPropertyOp28
 70
     1
102
RTVSPropertyOp29
 70
     1
102
RTVSPropertyOp30
 70
     1
102
RTVSPropertyOp31
 70
     1
102
RTVSPropertyOp32
 70
     1
102
RTVSPropertyOp33
 70
     1
102
RTVSPropertyOp34
 70
     1
102
RTVSPropertyOp35
 70
     1
102
RTVSPropertyOp36
 70
     1
102
RTVSPropertyOp37
 70
     1
102
RTVSPropertyOp38
 70
     1
102
RTVSPropertyOp39
 70
     1
102
RTVSPropertyOp40
 70
     1
102
RTVSPropertyOp41
 70
     1
102
RTVSPropertyOp42
 70
     1
102
RTVSPropertyOp43
 70
     1
102
RTVSPropertyOp44
 70
     1
102
RTVSPropertyOp45
 70
     1
102
RTVSPropertyOp46
 70
     1
102
RTVSPropertyOp47
 70
     1
102
RTVSPropertyOp48
 70
     1
102
RTVSPropertyOp49
 70
     1
102
RTVSPropertyOp50
 70
     1
102
RTVSPropertyOp51
 70
     0
102
RTVSPropertyOp52
 70
     0
102
RTVSPropertyOp53
 70
     1
102
RTVSPropertyOp54
 70
     1
102
RTVSPropertyOp55
 70
     1
102
RTVSPropertyOp56
 70
     1
102
RTVSPropertyOp57
 70
     1
102
RTVSPropertyOp58
 70
     1
102
RTVSPropertyOp59
 70
     1
102
RTVSPropertyOp60
 70
     1
102
RTVSPropertyOp61
 70
     1
102
RTVSPropertyOp62
 70
     1
  0
XRECORD
  5
8569
102
{ACAD_REACTORS
330
8568
102
}
330
8568
100
AcDbXrecord
280
     1
102
RTVSPost2010Prop28
280
     0
102
RTVSPost2010PropOp28
 70
     1
102
RTVSPost2010Prop29
280
     1
102
RTVSPost2010PropOp29
 70
     1
102
RTVSPost2010Prop30
280
     1
102
RTVSPost2010PropOp30
 70
     1
102
RTVSPost2010Prop31
280
     0
102
RTVSPost2010PropOp31
 70
     1
102
RTVSPost2010Prop32
280
     0
102
RTVSPost2010PropOp32
 70
     1
102
RTVSPost2010Prop33
280
     0
102
RTVSPost2010PropOp33
 70
     1
102
RTVSPost2010Prop34
280
     0
102
RTVSPost2010PropOp34
 70
     1
102
RTVSPost2010Prop35
280
     0
102
RTVSPost2010PropOp35
 70
     1
102
RTVSPost2010Prop36
280
     0
102
RTVSPost2010PropOp36
 70
     1
102
RTVSPost2010Prop37
 90
       50
102
RTVSPost2010PropOp37
 70
     1
102
RTVSPost2010Prop38
140
0.0
102
RTVSPost2010PropOp38
 70
     1
102
RTVSPost2010Prop39
140
1.0
102
RTVSPost2010PropOp39
 70
     1
102
RTVSPost2010Prop40
 90
        0
102
RTVSPost2010PropOp40
 70
     1
102
RTVSPost2010Prop41ColorIndex
 90
       18
102
RTVSPost2010Prop41ColorRGB
 90
        0
102
RTVSPost2010PropOp41
 70
     1
102
RTVSPost2010Prop42
 90
       50
102
RTVSPost2010PropOp42
 70
     1
102
RTVSPost2010Prop43
 90
        3
102
RTVSPost2010PropOp43
 70
     1
102
RTVSPost2010Prop44ColorIndex
 90
        5
102
RTVSPost2010Prop44ColorRGB
 90
      255
102
RTVSPost2010PropOp44
 70
     1
102
RTVSPost2010Prop45
280
     0
102
RTVSPost2010PropOp45
 70
     1
102
RTVSPost2010Prop46
 90
       50
102
RTVSPost2010PropOp46
 70
     1
102
RTVSPost2010Prop47
 90
       50
102
RTVSPost2010PropOp47
 70
     1
102
RTVSPost2010Prop48
 90
       50
102
RTVSPost2010PropOp48
 70
     1
102
RTVSPost2010Prop49
280
     0
102
RTVSPost2010PropOp49
 70
     1
102
RTVSPost2010Prop50
 90
       50
102
RTVSPost2010PropOp50
 70
     1
102
RTVSPost2010Prop51ColorIndex
 90
      256
102
RTVSPost2010Prop51ColorRGB
 90
-16777216
102
RTVSPost2010PropOp51
 70
     0
102
RTVSPost2010Prop52
140
1.0
102
RTVSPost2010PropOp52
 70
     0
102
RTVSPost2010Prop53
 90
        2
102
RTVSPost2010PropOp53
 70
     1
102
RTVSPost2010Prop54
  1
strokes_ogs.tif
102
RTVSPost2010PropOp54
 70
     1
102
RTVSPost2010Prop55
280
     0
102
RTVSPost2010PropOp55
 70
     1
102
RTVSPost2010Prop56
140
1.0
102
RTVSPost2010PropOp56
 70
     1
102
RTVSPost2010Prop57
140
1.0
102
RTVSPost2010PropOp57
 70
     1
102
RTVSPropertyOp0
 70
     1
102
RTVSPropertyOp1
 70
     1
102
RTVSPropertyOp2
 70
     1
102
RTVSPropertyOp3
 70
     1
102
RTVSPropertyOp4
 70
     1
102
RTVSPropertyOp5
 70
     1
102
RTVSPropertyOp6
 70
     1
102
RTVSPropertyOp7
 70
     1
102
RTVSPropertyOp8
 70
     1
102
RTVSPropertyOp9
 70
     1
102
RTVSPropertyOp10
 70
     1
102
RTVSPropertyOp11
 70
     1
102
RTVSPropertyOp12
 70
     1
102
RTVSPropertyOp13
 70
     1
102
RTVSPropertyOp14
 70
     1
102
RTVSPropertyOp15
 70
     1
102
RTVSPropertyOp16
 70
     1
102
RTVSPropertyOp17
 70
     1
102
RTVSPropertyOp18
 70
     1
102
RTVSPropertyOp19
 70
     1
102
RTVSPropertyOp20
 70
     1
102
RTVSPropertyOp21
 70
     1
102
RTVSPropertyOp22
 70
     1
102
RTVSPropertyOp23
 70
     1
102
RTVSPropertyOp24
 70
     1
102
RTVSPropertyOp25
 70
     1
102
RTVSPropertyOp26
 70
     1
102
RTVSPropertyOp27
 70
     1
102
RTVSPropertyOp28
 70
     1
102
RTVSPropertyOp29
 70
     1
102
RTVSPropertyOp30
 70
     1
102
RTVSPropertyOp31
 70
     1
102
RTVSPropertyOp32
 70
     1
102
RTVSPropertyOp33
 70
     1
102
RTVSPropertyOp34
 70
     1
102
RTVSPropertyOp35
 70
     1
102
RTVSPropertyOp36
 70
     1
102
RTVSPropertyOp37
 70
     1
102
RTVSPropertyOp38
 70
     1
102
RTVSPropertyOp39
 70
     1
102
RTVSPropertyOp40
 70
     1
102
RTVSPropertyOp41
 70
     1
102
RTVSPropertyOp42
 70
     1
102
RTVSPropertyOp43
 70
     1
102
RTVSPropertyOp44
 70
     1
102
RTVSPropertyOp45
 70
     1
102
RTVSPropertyOp46
 70
     1
102
RTVSPropertyOp47
 70
     1
102
RTVSPropertyOp48
 70
     1
102
RTVSPropertyOp49
 70
     1
102
RTVSPropertyOp50
 70
     1
102
RTVSPropertyOp51
 70
     0
102
RTVSPropertyOp52
 70
     0
102
RTVSPropertyOp53
 70
     1
102
RTVSPropertyOp54
 70
     1
102
RTVSPropertyOp55
 70
     1
102
RTVSPropertyOp56
 70
     1
102
RTVSPropertyOp57
 70
     1
102
RTVSPropertyOp58
 70
     1
102
RTVSPropertyOp59
 70
     1
102
RTVSPropertyOp60
 70
     1
102
RTVSPropertyOp61
 70
     1
102
RTVSPropertyOp62
 70
     1
  0
XRECORD
  5
856B
102
{ACAD_REACTORS
330
856A
102
}
330
856A
100
AcDbXrecord
280
     1
102
RTVSPost2010Prop28
280
     0
102
RTVSPost2010PropOp28
 70
     1
102
RTVSPost2010Prop29
280
     1
102
RTVSPost2010PropOp29
 70
     1
102
RTVSPost2010Prop30
280
     1
102
RTVSPost2010PropOp30
 70
     1
102
RTVSPost2010Prop31
280
     0
102
RTVSPost2010PropOp31
 70
     1
102
RTVSPost2010Prop32
280
     0
102
RTVSPost2010PropOp32
 70
     1
102
RTVSPost2010Prop33
280
     0
102
RTVSPost2010PropOp33
 70
     1
102
RTVSPost2010Prop34
280
     0
102
RTVSPost2010PropOp34
 70
     1
102
RTVSPost2010Prop35
280
     0
102
RTVSPost2010PropOp35
 70
     1
102
RTVSPost2010Prop36
280
     0
102
RTVSPost2010PropOp36
 70
     1
102
RTVSPost2010Prop37
 90
       50
102
RTVSPost2010PropOp37
 70
     1
102
RTVSPost2010Prop38
140
0.0
102
RTVSPost2010PropOp38
 70
     1
102
RTVSPost2010Prop39
140
1.0
102
RTVSPost2010PropOp39
 70
     1
102
RTVSPost2010Prop40
 90
        0
102
RTVSPost2010PropOp40
 70
     1
102
RTVSPost2010Prop41ColorIndex
 90
       18
102
RTVSPost2010Prop41ColorRGB
 90
        0
102
RTVSPost2010PropOp41
 70
     1
102
RTVSPost2010Prop42
 90
       50
102
RTVSPost2010PropOp42
 70
     1
102
RTVSPost2010Prop43
 90
        3
102
RTVSPost2010PropOp43
 70
     1
102
RTVSPost2010Prop44ColorIndex
 90
        5
102
RTVSPost2010Prop44ColorRGB
 90
      255
102
RTVSPost2010PropOp44
 70
     1
102
RTVSPost2010Prop45
280
     0
102
RTVSPost2010PropOp45
 70
     1
102
RTVSPost2010Prop46
 90
       50
102
RTVSPost2010PropOp46
 70
     1
102
RTVSPost2010Prop47
 90
       50
102
RTVSPost2010PropOp47
 70
     1
102
RTVSPost2010Prop48
 90
       50
102
RTVSPost2010PropOp48
 70
     1
102
RTVSPost2010Prop49
280
     0
102
RTVSPost2010PropOp49
 70
     1
102
RTVSPost2010Prop50
 90
       50
102
RTVSPost2010PropOp50
 70
     1
102
RTVSPost2010Prop51ColorIndex
 90
      256
102
RTVSPost2010Prop51ColorRGB
 90
-16777216
102
RTVSPost2010PropOp51
 70
     0
102
RTVSPost2010Prop52
140
1.0
102
RTVSPost2010PropOp52
 70
     0
102
RTVSPost2010Prop53
 90
        2
102
RTVSPost2010PropOp53
 70
     1
102
RTVSPost2010Prop54
  1
strokes_ogs.tif
102
RTVSPost2010PropOp54
 70
     1
102
RTVSPost2010Prop55
280
     0
102
RTVSPost2010PropOp55
 70
     1
102
RTVSPost2010Prop56
140
1.0
102
RTVSPost2010PropOp56
 70
     1
102
RTVSPost2010Prop57
140
1.0
102
RTVSPost2010PropOp57
 70
     1
102
RTVSPropertyOp0
 70
     1
102
RTVSPropertyOp1
 70
     1
102
RTVSPropertyOp2
 70
     1
102
RTVSPropertyOp3
 70
     1
102
RTVSPropertyOp4
 70
     1
102
RTVSPropertyOp5
 70
     1
102
RTVSPropertyOp6
 70
     1
102
RTVSPropertyOp7
 70
     1
102
RTVSPropertyOp8
 70
     1
102
RTVSPropertyOp9
 70
     1
102
RTVSPropertyOp10
 70
     1
102
RTVSPropertyOp11
 70
     1
102
RTVSPropertyOp12
 70
     1
102
RTVSPropertyOp13
 70
     1
102
RTVSPropertyOp14
 70
     1
102
RTVSPropertyOp15
 70
     1
102
RTVSPropertyOp16
 70
     1
102
RTVSPropertyOp17
 70
     1
102
RTVSPropertyOp18
 70
     1
102
RTVSPropertyOp19
 70
     1
102
RTVSPropertyOp20
 70
     1
102
RTVSPropertyOp21
 70
     1
102
RTVSPropertyOp22
 70
     1
102
RTVSPropertyOp23
 70
     1
102
RTVSPropertyOp24
 70
     1
102
RTVSPropertyOp25
 70
     1
102
RTVSPropertyOp26
 70
     1
102
RTVSPropertyOp27
 70
     1
102
RTVSPropertyOp28
 70
     1
102
RTVSPropertyOp29
 70
     1
102
RTVSPropertyOp30
 70
     1
102
RTVSPropertyOp31
 70
     1
102
RTVSPropertyOp32
 70
     1
102
RTVSPropertyOp33
 70
     1
102
RTVSPropertyOp34
 70
     1
102
RTVSPropertyOp35
 70
     1
102
RTVSPropertyOp36
 70
     1
102
RTVSPropertyOp37
 70
     1
102
RTVSPropertyOp38
 70
     1
102
RTVSPropertyOp39
 70
     1
102
RTVSPropertyOp40
 70
     1
102
RTVSPropertyOp41
 70
     1
102
RTVSPropertyOp42
 70
     1
102
RTVSPropertyOp43
 70
     1
102
RTVSPropertyOp44
 70
     1
102
RTVSPropertyOp45
 70
     1
102
RTVSPropertyOp46
 70
     1
102
RTVSPropertyOp47
 70
     1
102
RTVSPropertyOp48
 70
     1
102
RTVSPropertyOp49
 70
     1
102
RTVSPropertyOp50
 70
     1
102
RTVSPropertyOp51
 70
     0
102
RTVSPropertyOp52
 70
     0
102
RTVSPropertyOp53
 70
     1
102
RTVSPropertyOp54
 70
     1
102
RTVSPropertyOp55
 70
     1
102
RTVSPropertyOp56
 70
     1
102
RTVSPropertyOp57
 70
     1
102
RTVSPropertyOp58
 70
     1
102
RTVSPropertyOp59
 70
     1
102
RTVSPropertyOp60
 70
     1
102
RTVSPropertyOp61
 70
     1
102
RTVSPropertyOp62
 70
     1
  0
XRECORD
  5
8561
102
{ACAD_REACTORS
330
8560
102
}
330
8560
100
AcDbXrecord
280
     1
102
RTVSPost2010Prop28
280
     0
102
RTVSPost2010PropOp28
 70
     1
102
RTVSPost2010Prop29
280
     1
102
RTVSPost2010PropOp29
 70
     1
102
RTVSPost2010Prop30
280
     1
102
RTVSPost2010PropOp30
 70
     1
102
RTVSPost2010Prop31
280
     0
102
RTVSPost2010PropOp31
 70
     1
102
RTVSPost2010Prop32
280
     0
102
RTVSPost2010PropOp32
 70
     1
102
RTVSPost2010Prop33
280
     0
102
RTVSPost2010PropOp33
 70
     1
102
RTVSPost2010Prop34
280
     0
102
RTVSPost2010PropOp34
 70
     1
102
RTVSPost2010Prop35
280
     0
102
RTVSPost2010PropOp35
 70
     1
102
RTVSPost2010Prop36
280
     0
102
RTVSPost2010PropOp36
 70
     1
102
RTVSPost2010Prop37
 90
       50
102
RTVSPost2010PropOp37
 70
     1
102
RTVSPost2010Prop38
140
0.0
102
RTVSPost2010PropOp38
 70
     1
102
RTVSPost2010Prop39
140
1.0
102
RTVSPost2010PropOp39
 70
     1
102
RTVSPost2010Prop40
 90
        0
102
RTVSPost2010PropOp40
 70
     1
102
RTVSPost2010Prop41ColorIndex
 90
       18
102
RTVSPost2010Prop41ColorRGB
 90
        0
102
RTVSPost2010PropOp41
 70
     1
102
RTVSPost2010Prop42
 90
       50
102
RTVSPost2010PropOp42
 70
     1
102
RTVSPost2010Prop43
 90
        3
102
RTVSPost2010PropOp43
 70
     1
102
RTVSPost2010Prop44ColorIndex
 90
        5
102
RTVSPost2010Prop44ColorRGB
 90
      255
102
RTVSPost2010PropOp44
 70
     1
102
RTVSPost2010Prop45
280
     0
102
RTVSPost2010PropOp45
 70
     1
102
RTVSPost2010Prop46
 90
       50
102
RTVSPost2010PropOp46
 70
     1
102
RTVSPost2010Prop47
 90
       50
102
RTVSPost2010PropOp47
 70
     1
102
RTVSPost2010Prop48
 90
       50
102
RTVSPost2010PropOp48
 70
     1
102
RTVSPost2010Prop49
280
     0
102
RTVSPost2010PropOp49
 70
     1
102
RTVSPost2010Prop50
 90
       50
102
RTVSPost2010PropOp50
 70
     1
102
RTVSPost2010Prop51ColorIndex
 90
      256
102
RTVSPost2010Prop51ColorRGB
 90
-16777216
102
RTVSPost2010PropOp51
 70
     0
102
RTVSPost2010Prop52
140
1.0
102
RTVSPost2010PropOp52
 70
     0
102
RTVSPost2010Prop53
 90
        2
102
RTVSPost2010PropOp53
 70
     1
102
RTVSPost2010Prop54
  1
strokes_ogs.tif
102
RTVSPost2010PropOp54
 70
     1
102
RTVSPost2010Prop55
280
     0
102
RTVSPost2010PropOp55
 70
     1
102
RTVSPost2010Prop56
140
1.0
102
RTVSPost2010PropOp56
 70
     1
102
RTVSPost2010Prop57
140
1.0
102
RTVSPost2010PropOp57
 70
     1
102
RTVSPropertyOp0
 70
     1
102
RTVSPropertyOp1
 70
     1
102
RTVSPropertyOp2
 70
     1
102
RTVSPropertyOp3
 70
     1
102
RTVSPropertyOp4
 70
     1
102
RTVSPropertyOp5
 70
     1
102
RTVSPropertyOp6
 70
     1
102
RTVSPropertyOp7
 70
     1
102
RTVSPropertyOp8
 70
     1
102
RTVSPropertyOp9
 70
     1
102
RTVSPropertyOp10
 70
     1
102
RTVSPropertyOp11
 70
     1
102
RTVSPropertyOp12
 70
     1
102
RTVSPropertyOp13
 70
     1
102
RTVSPropertyOp14
 70
     1
102
RTVSPropertyOp15
 70
     1
102
RTVSPropertyOp16
 70
     1
102
RTVSPropertyOp17
 70
     1
102
RTVSPropertyOp18
 70
     1
102
RTVSPropertyOp19
 70
     1
102
RTVSPropertyOp20
 70
     1
102
RTVSPropertyOp21
 70
     1
102
RTVSPropertyOp22
 70
     1
102
RTVSPropertyOp23
 70
     1
102
RTVSPropertyOp24
 70
     1
102
RTVSPropertyOp25
 70
     1
102
RTVSPropertyOp26
 70
     1
102
RTVSPropertyOp27
 70
     1
102
RTVSPropertyOp28
 70
     1
102
RTVSPropertyOp29
 70
     1
102
RTVSPropertyOp30
 70
     1
102
RTVSPropertyOp31
 70
     1
102
RTVSPropertyOp32
 70
     1
102
RTVSPropertyOp33
 70
     1
102
RTVSPropertyOp34
 70
     1
102
RTVSPropertyOp35
 70
     1
102
RTVSPropertyOp36
 70
     1
102
RTVSPropertyOp37
 70
     1
102
RTVSPropertyOp38
 70
     1
102
RTVSPropertyOp39
 70
     1
102
RTVSPropertyOp40
 70
     1
102
RTVSPropertyOp41
 70
     1
102
RTVSPropertyOp42
 70
     1
102
RTVSPropertyOp43
 70
     1
102
RTVSPropertyOp44
 70
     1
102
RTVSPropertyOp45
 70
     1
102
RTVSPropertyOp46
 70
     1
102
RTVSPropertyOp47
 70
     1
102
RTVSPropertyOp48
 70
     1
102
RTVSPropertyOp49
 70
     1
102
RTVSPropertyOp50
 70
     1
102
RTVSPropertyOp51
 70
     0
102
RTVSPropertyOp52
 70
     0
102
RTVSPropertyOp53
 70
     1
102
RTVSPropertyOp54
 70
     1
102
RTVSPropertyOp55
 70
     1
102
RTVSPropertyOp56
 70
     1
102
RTVSPropertyOp57
 70
     1
102
RTVSPropertyOp58
 70
     1
102
RTVSPropertyOp59
 70
     1
102
RTVSPropertyOp60
 70
     1
102
RTVSPropertyOp61
 70
     1
102
RTVSPropertyOp62
 70
     1
  0
XRECORD
  5
8555
102
{ACAD_REACTORS
330
8554
102
}
330
8554
100
AcDbXrecord
280
     1
102
RTVSPost2010Prop28
280
     0
102
RTVSPost2010PropOp28
 70
     1
102
RTVSPost2010Prop29
280
     1
102
RTVSPost2010PropOp29
 70
     1
102
RTVSPost2010Prop30
280
     1
102
RTVSPost2010PropOp30
 70
     1
102
RTVSPost2010Prop31
280
     0
102
RTVSPost2010PropOp31
 70
     1
102
RTVSPost2010Prop32
280
     0
102
RTVSPost2010PropOp32
 70
     1
102
RTVSPost2010Prop33
280
     0
102
RTVSPost2010PropOp33
 70
     1
102
RTVSPost2010Prop34
280
     0
102
RTVSPost2010PropOp34
 70
     1
102
RTVSPost2010Prop35
280
     0
102
RTVSPost2010PropOp35
 70
     1
102
RTVSPost2010Prop36
280
     0
102
RTVSPost2010PropOp36
 70
     1
102
RTVSPost2010Prop37
 90
       50
102
RTVSPost2010PropOp37
 70
     1
102
RTVSPost2010Prop38
140
0.0
102
RTVSPost2010PropOp38
 70
     1
102
RTVSPost2010Prop39
140
1.0
102
RTVSPost2010PropOp39
 70
     1
102
RTVSPost2010Prop40
 90
        0
102
RTVSPost2010PropOp40
 70
     1
102
RTVSPost2010Prop41ColorIndex
 90
       18
102
RTVSPost2010Prop41ColorRGB
 90
        0
102
RTVSPost2010PropOp41
 70
     1
102
RTVSPost2010Prop42
 90
       50
102
RTVSPost2010PropOp42
 70
     1
102
RTVSPost2010Prop43
 90
        3
102
RTVSPost2010PropOp43
 70
     1
102
RTVSPost2010Prop44ColorIndex
 90
        5
102
RTVSPost2010Prop44ColorRGB
 90
      255
102
RTVSPost2010PropOp44
 70
     1
102
RTVSPost2010Prop45
280
     0
102
RTVSPost2010PropOp45
 70
     1
102
RTVSPost2010Prop46
 90
       50
102
RTVSPost2010PropOp46
 70
     1
102
RTVSPost2010Prop47
 90
       50
102
RTVSPost2010PropOp47
 70
     1
102
RTVSPost2010Prop48
 90
       50
102
RTVSPost2010PropOp48
 70
     1
102
RTVSPost2010Prop49
280
     0
102
RTVSPost2010PropOp49
 70
     1
102
RTVSPost2010Prop50
 90
       50
102
RTVSPost2010PropOp50
 70
     1
102
RTVSPost2010Prop51ColorIndex
 90
      256
102
RTVSPost2010Prop51ColorRGB
 90
-16777216
102
RTVSPost2010PropOp51
 70
     0
102
RTVSPost2010Prop52
140
1.0
102
RTVSPost2010PropOp52
 70
     0
102
RTVSPost2010Prop53
 90
        2
102
RTVSPost2010PropOp53
 70
     1
102
RTVSPost2010Prop54
  1
strokes_ogs.tif
102
RTVSPost2010PropOp54
 70
     1
102
RTVSPost2010Prop55
280
     0
102
RTVSPost2010PropOp55
 70
     1
102
RTVSPost2010Prop56
140
1.0
102
RTVSPost2010PropOp56
 70
     1
102
RTVSPost2010Prop57
140
1.0
102
RTVSPost2010PropOp57
 70
     1
102
RTVSPropertyOp0
 70
     1
102
RTVSPropertyOp1
 70
     1
102
RTVSPropertyOp2
 70
     1
102
RTVSPropertyOp3
 70
     1
102
RTVSPropertyOp4
 70
     1
102
RTVSPropertyOp5
 70
     1
102
RTVSPropertyOp6
 70
     1
102
RTVSPropertyOp7
 70
     1
102
RTVSPropertyOp8
 70
     1
102
RTVSPropertyOp9
 70
     1
102
RTVSPropertyOp10
 70
     1
102
RTVSPropertyOp11
 70
     1
102
RTVSPropertyOp12
 70
     1
102
RTVSPropertyOp13
 70
     1
102
RTVSPropertyOp14
 70
     1
102
RTVSPropertyOp15
 70
     1
102
RTVSPropertyOp16
 70
     1
102
RTVSPropertyOp17
 70
     1
102
RTVSPropertyOp18
 70
     1
102
RTVSPropertyOp19
 70
     1
102
RTVSPropertyOp20
 70
     1
102
RTVSPropertyOp21
 70
     1
102
RTVSPropertyOp22
 70
     1
102
RTVSPropertyOp23
 70
     1
102
RTVSPropertyOp24
 70
     1
102
RTVSPropertyOp25
 70
     1
102
RTVSPropertyOp26
 70
     1
102
RTVSPropertyOp27
 70
     1
102
RTVSPropertyOp28
 70
     1
102
RTVSPropertyOp29
 70
     1
102
RTVSPropertyOp30
 70
     1
102
RTVSPropertyOp31
 70
     1
102
RTVSPropertyOp32
 70
     1
102
RTVSPropertyOp33
 70
     1
102
RTVSPropertyOp34
 70
     1
102
RTVSPropertyOp35
 70
     1
102
RTVSPropertyOp36
 70
     1
102
RTVSPropertyOp37
 70
     1
102
RTVSPropertyOp38
 70
     1
102
RTVSPropertyOp39
 70
     1
102
RTVSPropertyOp40
 70
     1
102
RTVSPropertyOp41
 70
     1
102
RTVSPropertyOp42
 70
     1
102
RTVSPropertyOp43
 70
     1
102
RTVSPropertyOp44
 70
     1
102
RTVSPropertyOp45
 70
     1
102
RTVSPropertyOp46
 70
     1
102
RTVSPropertyOp47
 70
     1
102
RTVSPropertyOp48
 70
     1
102
RTVSPropertyOp49
 70
     1
102
RTVSPropertyOp50
 70
     1
102
RTVSPropertyOp51
 70
     0
102
RTVSPropertyOp52
 70
     0
102
RTVSPropertyOp53
 70
     1
102
RTVSPropertyOp54
 70
     1
102
RTVSPropertyOp55
 70
     1
102
RTVSPropertyOp56
 70
     1
102
RTVSPropertyOp57
 70
     1
102
RTVSPropertyOp58
 70
     1
102
RTVSPropertyOp59
 70
     1
102
RTVSPropertyOp60
 70
     1
102
RTVSPropertyOp61
 70
     1
102
RTVSPropertyOp62
 70
     1
  0
XRECORD
  5
856D
102
{ACAD_REACTORS
330
856C
102
}
330
856C
100
AcDbXrecord
280
     1
102
RTVSPost2010Prop28
280
     0
102
RTVSPost2010PropOp28
 70
     1
102
RTVSPost2010Prop29
280
     1
102
RTVSPost2010PropOp29
 70
     1
102
RTVSPost2010Prop30
280
     1
102
RTVSPost2010PropOp30
 70
     1
102
RTVSPost2010Prop31
280
     0
102
RTVSPost2010PropOp31
 70
     1
102
RTVSPost2010Prop32
280
     0
102
RTVSPost2010PropOp32
 70
     1
102
RTVSPost2010Prop33
280
     0
102
RTVSPost2010PropOp33
 70
     1
102
RTVSPost2010Prop34
280
     0
102
RTVSPost2010PropOp34
 70
     1
102
RTVSPost2010Prop35
280
     0
102
RTVSPost2010PropOp35
 70
     1
102
RTVSPost2010Prop36
280
     0
102
RTVSPost2010PropOp36
 70
     1
102
RTVSPost2010Prop37
 90
       50
102
RTVSPost2010PropOp37
 70
     1
102
RTVSPost2010Prop38
140
0.0
102
RTVSPost2010PropOp38
 70
     1
102
RTVSPost2010Prop39
140
1.0
102
RTVSPost2010PropOp39
 70
     1
102
RTVSPost2010Prop40
 90
        0
102
RTVSPost2010PropOp40
 70
     1
102
RTVSPost2010Prop41ColorIndex
 90
       18
102
RTVSPost2010Prop41ColorRGB
 90
        0
102
RTVSPost2010PropOp41
 70
     1
102
RTVSPost2010Prop42
 90
       50
102
RTVSPost2010PropOp42
 70
     1
102
RTVSPost2010Prop43
 90
        3
102
RTVSPost2010PropOp43
 70
     1
102
RTVSPost2010Prop44ColorIndex
 90
        5
102
RTVSPost2010Prop44ColorRGB
 90
      255
102
RTVSPost2010PropOp44
 70
     1
102
RTVSPost2010Prop45
280
     0
102
RTVSPost2010PropOp45
 70
     1
102
RTVSPost2010Prop46
 90
       50
102
RTVSPost2010PropOp46
 70
     1
102
RTVSPost2010Prop47
 90
       50
102
RTVSPost2010PropOp47
 70
     1
102
RTVSPost2010Prop48
 90
       50
102
RTVSPost2010PropOp48
 70
     1
102
RTVSPost2010Prop49
280
     0
102
RTVSPost2010PropOp49
 70
     1
102
RTVSPost2010Prop50
 90
       50
102
RTVSPost2010PropOp50
 70
     1
102
RTVSPost2010Prop51ColorIndex
 90
      256
102
RTVSPost2010Prop51ColorRGB
 90
-16777216
102
RTVSPost2010PropOp51
 70
     0
102
RTVSPost2010Prop52
140
1.0
102
RTVSPost2010PropOp52
 70
     0
102
RTVSPost2010Prop53
 90
        2
102
RTVSPost2010PropOp53
 70
     1
102
RTVSPost2010Prop54
  1
strokes_ogs.tif
102
RTVSPost2010PropOp54
 70
     1
102
RTVSPost2010Prop55
280
     0
102
RTVSPost2010PropOp55
 70
     1
102
RTVSPost2010Prop56
140
1.0
102
RTVSPost2010PropOp56
 70
     1
102
RTVSPost2010Prop57
140
1.0
102
RTVSPost2010PropOp57
 70
     1
102
RTVSPropertyOp0
 70
     1
102
RTVSPropertyOp1
 70
     1
102
RTVSPropertyOp2
 70
     1
102
RTVSPropertyOp3
 70
     1
102
RTVSPropertyOp4
 70
     1
102
RTVSPropertyOp5
 70
     1
102
RTVSPropertyOp6
 70
     1
102
RTVSPropertyOp7
 70
     1
102
RTVSPropertyOp8
 70
     1
102
RTVSPropertyOp9
 70
     1
102
RTVSPropertyOp10
 70
     1
102
RTVSPropertyOp11
 70
     1
102
RTVSPropertyOp12
 70
     1
102
RTVSPropertyOp13
 70
     1
102
RTVSPropertyOp14
 70
     1
102
RTVSPropertyOp15
 70
     1
102
RTVSPropertyOp16
 70
     1
102
RTVSPropertyOp17
 70
     1
102
RTVSPropertyOp18
 70
     1
102
RTVSPropertyOp19
 70
     1
102
RTVSPropertyOp20
 70
     1
102
RTVSPropertyOp21
 70
     1
102
RTVSPropertyOp22
 70
     1
102
RTVSPropertyOp23
 70
     1
102
RTVSPropertyOp24
 70
     1
102
RTVSPropertyOp25
 70
     1
102
RTVSPropertyOp26
 70
     1
102
RTVSPropertyOp27
 70
     1
102
RTVSPropertyOp28
 70
     1
102
RTVSPropertyOp29
 70
     1
102
RTVSPropertyOp30
 70
     1
102
RTVSPropertyOp31
 70
     1
102
RTVSPropertyOp32
 70
     1
102
RTVSPropertyOp33
 70
     1
102
RTVSPropertyOp34
 70
     1
102
RTVSPropertyOp35
 70
     1
102
RTVSPropertyOp36
 70
     1
102
RTVSPropertyOp37
 70
     1
102
RTVSPropertyOp38
 70
     1
102
RTVSPropertyOp39
 70
     1
102
RTVSPropertyOp40
 70
     1
102
RTVSPropertyOp41
 70
     1
102
RTVSPropertyOp42
 70
     1
102
RTVSPropertyOp43
 70
     1
102
RTVSPropertyOp44
 70
     1
102
RTVSPropertyOp45
 70
     1
102
RTVSPropertyOp46
 70
     1
102
RTVSPropertyOp47
 70
     1
102
RTVSPropertyOp48
 70
     1
102
RTVSPropertyOp49
 70
     1
102
RTVSPropertyOp50
 70
     1
102
RTVSPropertyOp51
 70
     0
102
RTVSPropertyOp52
 70
     0
102
RTVSPropertyOp53
 70
     1
102
RTVSPropertyOp54
 70
     1
102
RTVSPropertyOp55
 70
     1
102
RTVSPropertyOp56
 70
     1
102
RTVSPropertyOp57
 70
     1
102
RTVSPropertyOp58
 70
     1
102
RTVSPropertyOp59
 70
     1
102
RTVSPropertyOp60
 70
     1
102
RTVSPropertyOp61
 70
     1
102
RTVSPropertyOp62
 70
     1
  0
ENDSEC
  0
EOF
