  0
SECTION
  2
HEADER
  9
$ACADVER
  1
AC1015
  9
$ACADMAINTVER
 70
    20
  9
$DWGCODEPAGE
  3
ANSI_932
  9
$INSBASE
 10
0.0
 20
0.0
 30
0.0
  9
$EXTMIN
 10
-0.1922460740788665
 20
-0.2700599612071528
 30
-0.0015258207003583
  9
$EXTMAX
 10
6300.192275410744
 20
8850.270101172235
 30
0.0000000349246037
  9
$LIMMIN
 10
0.0
 20
0.0
  9
$LIMMAX
 10
297.0
 20
210.0
  9
$ORTHOMODE
 70
     1
  9
$REGENMODE
 70
     1
  9
$FILLMODE
 70
     0
  9
$QTEXTMODE
 70
     0
  9
$MIRRTEXT
 70
     1
  9
$LTSCALE
 40
100.0
  9
$ATTMODE
 70
     1
  9
$TEXTSIZE
 40
180.0
  9
$TRACEWID
 40
0.05
  9
$TEXTSTYLE
  7
STANDARD
  9
$CLAYER
  8
3
  9
$CELTYPE
  6
ByLayer
  9
$CECOLOR
 62
   256
  9
$CELTSCALE
 40
1.0
  9
$DISPSILH
 70
     0
  9
$DIMSCALE
 40
30.0
  9
$DIMASZ
 40
2.0
  9
$DIMEXO
 40
1.0
  9
$DIMDLI
 40
10.0
  9
$DIMRND
 40
0.0
  9
$DIMDLE
 40
0.0
  9
$DIMEXE
 40
1.0
  9
$DIMTP
 40
1.0
  9
$DIMTM
 40
1.0
  9
$DIMTXT
 40
3.0
  9
$DIMCEN
 40
0.0
  9
$DIMTSZ
 40
0.0
  9
$DIMTOL
 70
     0
  9
$DIMLIM
 70
     0
  9
$DIMTIH
 70
     0
  9
$DIMTOH
 70
     0
  9
$DIMSE1
 70
     0
  9
$DIMSE2
 70
     0
  9
$DIMTAD
 70
     1
  9
$DIMZIN
 70
     8
  9
$DIMBLK
  1

  9
$DIMASO
 70
     1
  9
$DIMSHO
 70
     1
  9
$DIMPOST
  1

  9
$DIMAPOST
  1

  9
$DIMALT
 70
     0
  9
$DIMALTD
 70
     2
  9
$DIMALTF
 40
0.039
  9
$DIMLFAC
 40
1.0
  9
$DIMTOFL
 70
     1
  9
$DIMTVP
 40
0.0
  9
$DIMTIX
 70
     0
  9
$DIMSOXD
 70
     0
  9
$DIMSAH
 70
     1
  9
$DIMBLK1
  1
OPEN
  9
$DIMBLK2
  1
OPEN
  9
$DIMSTYLE
  2
IGA
  9
$DIMCLRD
 70
     0
  9
$DIMCLRE
 70
     0
  9
$DIMCLRT
 70
     0
  9
$DIMTFAC
 40
10.0
  9
$DIMGAP
 40
1.0
  9
$DIMJUST
 70
     0
  9
$DIMSD1
 70
     0
  9
$DIMSD2
 70
     0
  9
$DIMTOLJ
 70
     1
  9
$DIMTZIN
 70
     0
  9
$DIMALTZ
 70
     0
  9
$DIMALTTZ
 70
     0
  9
$DIMUPT
 70
     0
  9
$DIMDEC
 70
     4
  9
$DIMTDEC
 70
     4
  9
$DIMALTU
 70
     2
  9
$DIMALTTD
 70
     2
  9
$DIMTXSTY
  7
STANDARD
  9
$DIMAUNIT
 70
     0
  9
$DIMADEC
 70
     0
  9
$DIMALTRND
 40
0.0
  9
$DIMAZIN
 70
     0
  9
$DIMDSEP
 70
    46
  9
$DIMATFIT
 70
     3
  9
$DIMFRAC
 70
     0
  9
$DIMLDRBLK
  1
OPEN
  9
$DIMLUNIT
 70
     2
  9
$DIMLWD
 70
    -2
  9
$DIMLWE
 70
    -2
  9
$DIMTMOVE
 70
     0
  9
$LUNITS
 70
     2
  9
$LUPREC
 70
     3
  9
$SKETCHINC
 40
0.1
  9
$FILLETRAD
 40
50.0
  9
$AUNITS
 70
     0
  9
$AUPREC
 70
     0
  9
$MENU
  1
acad
  9
$ELEVATION
 40
0.0
  9
$PELEVATION
 40
0.0
  9
$THICKNESS
 40
0.0
  9
$LIMCHECK
 70
     0
  9
$CHAMFERA
 40
0.5
  9
$CHAMFERB
 40
0.5
  9
$CHAMFERC
 40
0.0
  9
$CHAMFERD
 40
0.0
  9
$SKPOLY
 70
     0
  9
$TDCREATE
 40
2451389.585626505
  9
$TDUCREATE
 40
2451389.210626505
  9
$TDUPDATE
 40
2460271.751297257
  9
$TDUUPDATE
 40
2460271.376297257
  9
$TDINDWG
 40
0.0978120602
  9
$TDUSRTIMER
 40
0.0978118056
  9
$USRTIMER
 70
     1
  9
$ANGBASE
 50
0.0
  9
$ANGDIR
 70
     0
  9
$PDMODE
 70
     0
  9
$PDSIZE
 40
0.0
  9
$PLINEWID
 40
0.0
  9
$SPLFRAME
 70
     0
  9
$SPLINETYPE
 70
     6
  9
$SPLINESEGS
 70
     8
  9
$HANDSEED
  5
852D
  9
$SURFTAB1
 70
     6
  9
$SURFTAB2
 70
     6
  9
$SURFTYPE
 70
     6
  9
$SURFU
 70
     6
  9
$SURFV
 70
     6
  9
$UCSBASE
  2

  9
$UCSNAME
  2

  9
$UCSORG
 10
0.0
 20
0.0
 30
0.0
  9
$UCSXDIR
 10
1.0
 20
0.0
 30
0.0
  9
$UCSYDIR
 10
0.0
 20
1.0
 30
0.0
  9
$UCSORTHOREF
  2

  9
$UCSORTHOVIEW
 70
     0
  9
$UCSORGTOP
 10
0.0
 20
0.0
 30
0.0
  9
$UCSORGBOTTOM
 10
0.0
 20
0.0
 30
0.0
  9
$UCSORGLEFT
 10
0.0
 20
0.0
 30
0.0
  9
$UCSORGRIGHT
 10
0.0
 20
0.0
 30
0.0
  9
$UCSORGFRONT
 10
0.0
 20
0.0
 30
0.0
  9
$UCSORGBACK
 10
0.0
 20
0.0
 30
0.0
  9
$PUCSBASE
  2

  9
$PUCSNAME
  2

  9
$PUCSORG
 10
0.0
 20
0.0
 30
0.0
  9
$PUCSXDIR
 10
1.0
 20
0.0
 30
0.0
  9
$PUCSYDIR
 10
0.0
 20
1.0
 30
0.0
  9
$PUCSORTHOREF
  2

  9
$PUCSORTHOVIEW
 70
     0
  9
$PUCSORGTOP
 10
0.0
 20
0.0
 30
0.0
  9
$PUCSORGBOTTOM
 10
0.0
 20
0.0
 30
0.0
  9
$PUCSORGLEFT
 10
0.0
 20
0.0
 30
0.0
  9
$PUCSORGRIGHT
 10
0.0
 20
0.0
 30
0.0
  9
$PUCSORGFRONT
 10
0.0
 20
0.0
 30
0.0
  9
$PUCSORGBACK
 10
0.0
 20
0.0
 30
0.0
  9
$USERI1
 70
     0
  9
$USERI2
 70
     0
  9
$USERI3
 70
     0
  9
$USERI4
 70
     0
  9
$USERI5
 70
     0
  9
$USERR1
 40
0.0
  9
$USERR2
 40
0.0
  9
$USERR3
 40
0.0
  9
$USERR4
 40
0.0
  9
$USERR5
 40
0.0
  9
$WORLDVIEW
 70
     1
  9
$SHADEDGE
 70
     3
  9
$SHADEDIF
 70
    70
  9
$TILEMODE
 70
     1
  9
$MAXACTVP
 70
    16
  9
$PINSBASE
 10
0.0
 20
0.0
 30
0.0
  9
$PLIMCHECK
 70
     0
  9
$PEXTMIN
 10
1.000000000000000E+20
 20
1.000000000000000E+20
 30
1.000000000000000E+20
  9
$PEXTMAX
 10
-1.000000000000000E+20
 20
-1.000000000000000E+20
 30
-1.000000000000000E+20
  9
$PLIMMIN
 10
0.0
 20
0.0
  9
$PLIMMAX
 10
12.0
 20
9.0
  9
$UNITMODE
 70
     0
  9
$VISRETAIN
 70
     0
  9
$PLINEGEN
 70
     0
  9
$PSLTSCALE
 70
     1
  9
$TREEDEPTH
 70
  3020
  9
$CMLSTYLE
  2
Standard
  9
$CMLJUST
 70
     0
  9
$CMLSCALE
 40
1.0
  9
$PROXYGRAPHICS
 70
     1
  9
$MEASUREMENT
 70
     0
  9
$CELWEIGHT
370
    -1
  9
$ENDCAPS
280
     0
  9
$JOINSTYLE
280
     0
  9
$LWDISPLAY
290
     0
  9
$INSUNITS
 70
     0
  9
$HYPERLINKBASE
  1

  9
$STYLESHEET
  1

  9
$XEDIT
290
     1
  9
$CEPSNTYPE
380
     0
  9
$PSTYLEMODE
290
     1
  9
$FINGERPRINTGUID
  2
{34465B10-057A-4D9B-9788-1EDED2766EE8}
  9
$VERSIONGUID
  2
{ECE22D60-2BB1-4F57-A70D-B4F95B678018}
  9
$EXTNAMES
290
     1
  9
$PSVPSCALE
 40
0.0
  9
$OLESTARTUP
290
     0
  0
ENDSEC
  0
SECTION
  2
CLASSES
  0
CLASS
  1
ACDBDICTIONARYWDFLT
  2
AcDbDictionaryWithDefault
  3
ObjectDBX Classes
 90
        0
280
     0
281
     0
  0
CLASS
  1
MATERIAL
  2
AcDbMaterial
  3
ObjectDBX Classes
 90
     1153
280
     0
281
     0
  0
CLASS
  1
VISUALSTYLE
  2
AcDbVisualStyle
  3
ObjectDBX Classes
 90
     4095
280
     0
281
     0
  0
CLASS
  1
SCALE
  2
AcDbScale
  3
ObjectDBX Classes
 90
     1153
280
     0
281
     0
  0
CLASS
  1
TABLESTYLE
  2
AcDbTableStyle
  3
ObjectDBX Classes
 90
     4095
280
     0
281
     0
  0
CLASS
  1
MLEADERSTYLE
  2
AcDbMLeaderStyle
  3
ACDB_MLEADERSTYLE_CLASS
 90
     4095
280
     0
281
     0
  0
CLASS
  1
ACDBSECTIONVIEWSTYLE
  2
AcDbSectionViewStyle
  3
ObjectDBX Classes
 90
     1025
280
     0
281
     0
  0
CLASS
  1
ACDBDETAILVIEWSTYLE
  2
AcDbDetailViewStyle
  3
ObjectDBX Classes
 90
     1025
280
     0
281
     0
  0
CLASS
  1
DICTIONARYVAR
  2
AcDbDictionaryVar
  3
ObjectDBX Classes
 90
        0
280
     0
281
     0
  0
CLASS
  1
CELLSTYLEMAP
  2
AcDbCellStyleMap
  3
ObjectDBX Classes
 90
     1152
280
     0
281
     0
  0
CLASS
  1
ACDBPLACEHOLDER
  2
AcDbPlaceHolder
  3
ObjectDBX Classes
 90
        0
280
     0
281
     0
  0
CLASS
  1
LAYOUT
  2
AcDbLayout
  3
ObjectDBX Classes
 90
        0
280
     0
281
     0
  0
ENDSEC
  0
SECTION
  2
TABLES
  0
TABLE
  2
VPORT
  5
818B
330
0
100
AcDbSymbolTable
 70
     1
  0
VPORT
  5
81F7
330
818B
100
AcDbSymbolTableRecord
100
AcDbViewportTableRecord
  2
*ACTIVE
 70
     0
 10
0.0
 20
0.0
 11
1.0
 21
1.0
 12
3150.000014668333
 22
4425.000020605514
 13
0.0
 23
0.0
 14
10.0
 24
10.0
 15
10.0
 25
10.0
 16
0.0
 26
0.0
 36
1.0
 17
0.0
 27
0.0
 37
0.0
 40
8907.213844128961
 41
2.050213675213675
 42
50.0
 43
0.0
 44
0.0
 50
0.0
 51
0.0
 71
     0
 72
   100
 73
     1
 74
     0
 75
     0
 76
     0
 77
     0
 78
     0
281
     0
 65
     1
110
0.0
120
0.0
130
0.0
111
1.0
121
0.0
131
0.0
112
0.0
122
1.0
132
0.0
 79
     0
146
0.0
1001
ACAD_NAV_VCDISPLAY
1070
     3
  0
ENDTAB
  0
TABLE
  2
LTYPE
  5
8188
330
0
100
AcDbSymbolTable
 70
     3
  0
LTYPE
  5
81DD
330
8188
100
AcDbSymbolTableRecord
100
AcDbLinetypeTableRecord
  2
ByBlock
 70
     0
  3

 72
    65
 73
     0
 40
0.0
  0
LTYPE
  5
81DE
330
8188
100
AcDbSymbolTableRecord
100
AcDbLinetypeTableRecord
  2
ByLayer
 70
     0
  3

 72
    65
 73
     0
 40
0.0
  0
LTYPE
  5
81DF
330
8188
100
AcDbSymbolTableRecord
100
AcDbLinetypeTableRecord
  2
CONTINUOUS
 70
     0
  3
Solid line
 72
    65
 73
     0
 40
0.0
  0
LTYPE
  5
81F8
330
8188
100
AcDbSymbolTableRecord
100
AcDbLinetypeTableRecord
  2
CENTER
 70
     0
  3
____ _ ____ _ ____ _ ____ _ ____ _ ____ _ ____ 
 72
    65
 73
     4
 40
2.0
 49
1.25
 74
     0
 49
-0.25
 74
     0
 49
0.25
 74
     0
 49
-0.25
 74
     0
  0
ENDTAB
  0
TABLE
  2
LAYER
  5
8185
330
0
100
AcDbSymbolTable
 70
     6
  0
LAYER
  5
81D7
102
{ACAD_XDICTIONARY
360
84D7
102
}
330
8185
100
AcDbSymbolTableRecord
100
AcDbLayerTableRecord
  2
0
 70
     0
 62
     7
  6
CONTINUOUS
370
    -3
390
8192
  0
LAYER
  5
81F6
102
{ACAD_XDICTIONARY
360
84D9
102
}
330
8185
100
AcDbSymbolTableRecord
100
AcDbLayerTableRecord
  2
3
 70
     0
 62
     2
  6
CONTINUOUS
370
    -3
390
8192
  0
LAYER
  5
81F9
102
{ACAD_XDICTIONARY
360
84DB
102
}
330
8185
100
AcDbSymbolTableRecord
100
AcDbLayerTableRecord
  2
2
 70
     0
 62
     3
  6
CENTER
370
    -3
390
8192
  0
LAYER
  5
81FA
102
{ACAD_XDICTIONARY
360
84DD
102
}
330
8185
100
AcDbSymbolTableRecord
100
AcDbLayerTableRecord
  2
1
 70
     0
 62
     4
  6
CONTINUOUS
370
    -3
390
8192
  0
LAYER
  5
81FB
102
{ACAD_XDICTIONARY
360
84DF
102
}
330
8185
100
AcDbSymbolTableRecord
100
AcDbLayerTableRecord
  2
4
 70
     0
 62
     7
  6
CONTINUOUS
370
    -3
390
8192
  0
LAYER
  5
81FC
330
8185
100
AcDbSymbolTableRecord
100
AcDbLayerTableRecord
  2
DEFPOINTS
 70
     0
 62
     7
  6
CONTINUOUS
290
     0
370
    -3
390
8192
  0
ENDTAB
  0
TABLE
  2
STYLE
  5
8186
330
0
100
AcDbSymbolTable
 70
     2
  0
STYLE
  5
81D8
330
8186
100
AcDbSymbolTableRecord
100
AcDbTextStyleTableRecord
  2
STANDARD
 70
     0
 40
0.0
 41
1.0
 50
0.0
 71
     0
 42
180.0
  3
simplex.shx
  4
extfont.shx
  0
STYLE
  5
81DC
330
8186
100
AcDbSymbolTableRecord
100
AcDbTextStyleTableRecord
  2
Annotative
 70
     0
 40
0.0
 41
1.0
 50
0.0
 71
     0
 42
0.2
  3
txt
  4

1001
AcadAnnotative
1000
AnnotativeData
1002
{
1070
     1
1070
     1
1002
}
  0
ENDTAB
  0
TABLE
  2
VIEW
  5
8189
330
0
100
AcDbSymbolTable
 70
     0
  0
ENDTAB
  0
TABLE
  2
UCS
  5
818A
330
0
100
AcDbSymbolTable
 70
     0
  0
ENDTAB
  0
TABLE
  2
APPID
  5
818C
330
0
100
AcDbSymbolTable
 70
     8
  0
APPID
  5
81D9
330
818C
100
AcDbSymbolTableRecord
100
AcDbRegAppTableRecord
  2
ACAD
 70
     0
  0
APPID
  5
81E0
330
818C
100
AcDbSymbolTableRecord
100
AcDbRegAppTableRecord
  2
AcadAnnotative
 70
     0
  0
APPID
  5
82E4
330
818C
100
AcDbSymbolTableRecord
100
AcDbRegAppTableRecord
  2
ACAD_DSTYLE_DIMJAG
 70
     0
  0
APPID
  5
82E5
330
818C
100
AcDbSymbolTableRecord
100
AcDbRegAppTableRecord
  2
ACAD_DSTYLE_DIMTALN
 70
     0
  0
APPID
  5
8363
330
818C
100
AcDbSymbolTableRecord
100
AcDbRegAppTableRecord
  2
AcadAnnoMonitorAlertIconDisabled
 70
     0
  0
APPID
  5
8364
330
818C
100
AcDbSymbolTableRecord
100
AcDbRegAppTableRecord
  2
ACAD_EXEMPT_FROM_CAD_STANDARDS
 70
     0
  0
APPID
  5
84EB
330
818C
100
AcDbSymbolTableRecord
100
AcDbRegAppTableRecord
  2
ACAD_NAV_VCDISPLAY
 70
     0
  0
APPID
  5
8524
330
818C
100
AcDbSymbolTableRecord
100
AcDbRegAppTableRecord
  2
ACAD_MLEADERVER
 70
     0
  0
ENDTAB
  0
TABLE
  2
DIMSTYLE
  5
818D
330
0
100
AcDbSymbolTable
 70
     4
100
AcDbDimStyleTable
 71
     1
340
81FD
  0
DIMSTYLE
105
81DA
102
{ACAD_REACTORS
330
7C7B
330
7C7C
330
7C7F
330
7C80
330
7CBF
330
7CC1
330
7CC2
330
7CC6
330
7CC7
330
7CF3
330
7CFE
330
7D0A
102
}
330
818D
100
AcDbSymbolTableRecord
100
AcDbDimStyleTableRecord
  2
Standard
 70
     0
340
81D8
  0
DIMSTYLE
105
81DB
330
818D
100
AcDbSymbolTableRecord
100
AcDbDimStyleTableRecord
  2
Annotative
 70
     0
340
81D8
1001
AcadAnnotative
1000
AnnotativeData
1002
{
1070
     1
1070
     1
1002
}
  0
DIMSTYLE
105
81FD
102
{ACAD_REACTORS
330
823F
330
824C
330
82E6
330
82F3
330
8300
330
830D
330
831A
330
8327
330
8334
330
8346
330
84B8
102
}
330
818D
100
AcDbSymbolTableRecord
100
AcDbDimStyleTableRecord
  2
IGA
 70
     0
 40
2.0
 41
2.0
 42
0.5
 43
10.0
 44
1.0
 47
1.0
 48
1.0
 73
     0
 74
     0
 77
     1
 78
     8
140
3.0
141
0.0
143
0.03937
146
10.0
147
1.0
173
     1
271
     3
272
     3
279
     2
284
     8
285
     8
286
     8
340
81D8
  0
DIMSTYLE
105
81FE
330
818D
100
AcDbSymbolTableRecord
100
AcDbDimStyleTableRecord
  2
MATSU
 70
     0
 41
2.0
 42
1.0
 43
10.0
 44
1.0
 73
     0
 74
     0
 77
     1
 78
     8
140
3.0
141
0.0
143
0.03937
147
0.5
172
     1
173
     1
176
   256
177
   256
178
   256
271
     3
272
     3
279
     2
284
     8
285
     8
286
     8
340
81D8
  0
ENDTAB
  0
TABLE
  2
BLOCK_RECORD
  5
8184
330
0
100
AcDbSymbolTable
 70
    50
  0
BLOCK_RECORD
  5
81F2
330
8184
100
AcDbSymbolTableRecord
100
AcDbBlockTableRecord
  2
*Model_Space
340
81F5
  0
BLOCK_RECORD
  5
81EE
330
8184
100
AcDbSymbolTableRecord
100
AcDbBlockTableRecord
  2
*Paper_Space
340
81F1
  0
BLOCK_RECORD
  5
8202
330
8184
100
AcDbSymbolTableRecord
100
AcDbBlockTableRecord
  2
$MODEL_SPACE
340
0
  0
BLOCK_RECORD
  5
8204
330
8184
100
AcDbSymbolTableRecord
100
AcDbBlockTableRecord
  2
$PAPER_SPACE
340
0
  0
BLOCK_RECORD
  5
8206
330
8184
100
AcDbSymbolTableRecord
100
AcDbBlockTableRecord
  2
_OPEN
340
0
102
{BLKREFS
331
82ED
331
82EE
331
82FA
331
82FB
331
8307
331
8308
331
8314
331
8315
331
7E41
331
7E42
331
7E4C
331
7E4D
331
7E57
331
7E58
331
7E62
331
7E63
331
7EAF
331
7EB0
331
7EBA
331
7EBB
331
7FCA
331
7FCB
331
7ED0
331
7ED1
331
801B
331
801C
331
8026
331
8027
331
7EF1
331
7EF2
331
7EFC
331
7EFD
331
7F07
331
7F08
331
7F12
331
7F13
331
7F1D
331
7F1E
331
8175
331
8176
331
7F99
331
803E
331
803F
331
804B
331
804C
331
8058
331
8059
331
8065
331
8066
331
80D9
331
80DA
331
826E
331
826F
331
8277
331
8278
331
8321
331
8322
331
8480
331
8481
331
84A6
331
84B3
331
84D1
331
84D2
102
}
  0
BLOCK_RECORD
  5
8208
330
8184
100
AcDbSymbolTableRecord
100
AcDbBlockTableRecord
  2
YA_N
340
0
102
{BLKREFS
331
7C29
331
7C3F
331
7C79
331
7C9A
331
7CCF
331
7CD1
331
7CD3
331
7CD5
102
}
  0
BLOCK_RECORD
  5
820A
330
8184
100
AcDbSymbolTableRecord
100
AcDbBlockTableRecord
  2
*D4
340
0
  0
BLOCK_RECORD
  5
820C
330
8184
100
AcDbSymbolTableRecord
100
AcDbBlockTableRecord
  2
*D5
340
0
  0
BLOCK_RECORD
  5
820E
330
8184
100
AcDbSymbolTableRecord
100
AcDbBlockTableRecord
  2
*D6
340
0
  0
BLOCK_RECORD
  5
8210
330
8184
100
AcDbSymbolTableRecord
100
AcDbBlockTableRecord
  2
*D7
340
0
  0
BLOCK_RECORD
  5
8212
330
8184
100
AcDbSymbolTableRecord
100
AcDbBlockTableRecord
  2
*D8
340
0
  0
BLOCK_RECORD
  5
8214
330
8184
100
AcDbSymbolTableRecord
100
AcDbBlockTableRecord
  2
*D9
340
0
  0
BLOCK_RECORD
  5
8216
330
8184
100
AcDbSymbolTableRecord
100
AcDbBlockTableRecord
  2
*D10
340
0
  0
BLOCK_RECORD
  5
8218
330
8184
100
AcDbSymbolTableRecord
100
AcDbBlockTableRecord
  2
*D11
340
0
  0
BLOCK_RECORD
  5
821A
330
8184
100
AcDbSymbolTableRecord
100
AcDbBlockTableRecord
  2
*D12
340
0
  0
BLOCK_RECORD
  5
821C
330
8184
100
AcDbSymbolTableRecord
100
AcDbBlockTableRecord
  2
*U13
340
0
102
{BLKREFS
331
801D
102
}
  0
BLOCK_RECORD
  5
821D
330
8184
100
AcDbSymbolTableRecord
100
AcDbBlockTableRecord
  2
*D14
340
0
  0
BLOCK_RECORD
  5
821F
330
8184
100
AcDbSymbolTableRecord
100
AcDbBlockTableRecord
  2
*D15
340
0
  0
BLOCK_RECORD
  5
8221
330
8184
100
AcDbSymbolTableRecord
100
AcDbBlockTableRecord
  2
*D16
340
0
  0
BLOCK_RECORD
  5
8223
330
8184
100
AcDbSymbolTableRecord
100
AcDbBlockTableRecord
  2
*D17
340
0
  0
BLOCK_RECORD
  5
8225
330
8184
100
AcDbSymbolTableRecord
100
AcDbBlockTableRecord
  2
*D18
340
0
  0
BLOCK_RECORD
  5
8227
330
8184
100
AcDbSymbolTableRecord
100
AcDbBlockTableRecord
  2
*D19
340
0
  0
BLOCK_RECORD
  5
8229
330
8184
100
AcDbSymbolTableRecord
100
AcDbBlockTableRecord
  2
*D20
340
0
  0
BLOCK_RECORD
  5
822B
330
8184
100
AcDbSymbolTableRecord
100
AcDbBlockTableRecord
  2
*D21
340
0
  0
BLOCK_RECORD
  5
822D
330
8184
100
AcDbSymbolTableRecord
100
AcDbBlockTableRecord
  2
_DOT
340
0
102
{BLKREFS
331
7F98
102
}
  0
BLOCK_RECORD
  5
822F
330
8184
100
AcDbSymbolTableRecord
100
AcDbBlockTableRecord
  2
*D23
340
0
  0
BLOCK_RECORD
  5
8231
330
8184
100
AcDbSymbolTableRecord
100
AcDbBlockTableRecord
  2
*D24
340
0
  0
BLOCK_RECORD
  5
8233
330
8184
100
AcDbSymbolTableRecord
100
AcDbBlockTableRecord
  2
*D25
340
0
  0
BLOCK_RECORD
  5
8235
330
8184
100
AcDbSymbolTableRecord
100
AcDbBlockTableRecord
  2
*D26
340
0
  0
BLOCK_RECORD
  5
8237
330
8184
100
AcDbSymbolTableRecord
100
AcDbBlockTableRecord
  2
_NONE
340
0
  0
BLOCK_RECORD
  5
8239
330
8184
100
AcDbSymbolTableRecord
100
AcDbBlockTableRecord
  2
*D28
340
0
  0
BLOCK_RECORD
  5
823B
330
8184
100
AcDbSymbolTableRecord
100
AcDbBlockTableRecord
  2
*D29
340
0
  0
BLOCK_RECORD
  5
8240
330
8184
100
AcDbSymbolTableRecord
100
AcDbBlockTableRecord
  2
*D30
340
0
  0
BLOCK_RECORD
  5
824D
330
8184
100
AcDbSymbolTableRecord
100
AcDbBlockTableRecord
  2
*D31
340
0
  0
BLOCK_RECORD
  5
827D
330
8184
100
AcDbSymbolTableRecord
100
AcDbBlockTableRecord
  2
*D32
340
0
  0
BLOCK_RECORD
  5
828A
330
8184
100
AcDbSymbolTableRecord
100
AcDbBlockTableRecord
  2
*D33
340
0
  0
BLOCK_RECORD
  5
8297
330
8184
100
AcDbSymbolTableRecord
100
AcDbBlockTableRecord
  2
*D34
340
0
  0
BLOCK_RECORD
  5
82A4
330
8184
100
AcDbSymbolTableRecord
100
AcDbBlockTableRecord
  2
*D35
340
0
  0
BLOCK_RECORD
  5
82B1
330
8184
100
AcDbSymbolTableRecord
100
AcDbBlockTableRecord
  2
*D36
340
0
  0
BLOCK_RECORD
  5
82BC
330
8184
100
AcDbSymbolTableRecord
100
AcDbBlockTableRecord
  2
*D37
340
0
  0
BLOCK_RECORD
  5
82C9
330
8184
100
AcDbSymbolTableRecord
100
AcDbBlockTableRecord
  2
*D38
340
0
  0
BLOCK_RECORD
  5
82D6
330
8184
100
AcDbSymbolTableRecord
100
AcDbBlockTableRecord
  2
*D39
340
0
  0
BLOCK_RECORD
  5
82E7
330
8184
100
AcDbSymbolTableRecord
100
AcDbBlockTableRecord
  2
*D40
340
0
  0
BLOCK_RECORD
  5
82F4
330
8184
100
AcDbSymbolTableRecord
100
AcDbBlockTableRecord
  2
*D41
340
0
  0
BLOCK_RECORD
  5
8301
330
8184
100
AcDbSymbolTableRecord
100
AcDbBlockTableRecord
  2
*D42
340
0
  0
BLOCK_RECORD
  5
830E
330
8184
100
AcDbSymbolTableRecord
100
AcDbBlockTableRecord
  2
*D43
340
0
  0
BLOCK_RECORD
  5
831B
330
8184
100
AcDbSymbolTableRecord
100
AcDbBlockTableRecord
  2
*D44
340
0
  0
BLOCK_RECORD
  5
8328
330
8184
100
AcDbSymbolTableRecord
100
AcDbBlockTableRecord
  2
*D45
340
0
  0
BLOCK_RECORD
  5
8335
330
8184
100
AcDbSymbolTableRecord
100
AcDbBlockTableRecord
  2
*D46
340
0
  0
BLOCK_RECORD
  5
8347
330
8184
100
AcDbSymbolTableRecord
100
AcDbBlockTableRecord
  2
*D47
340
0
  0
BLOCK_RECORD
  5
8412
330
8184
100
AcDbSymbolTableRecord
100
AcDbBlockTableRecord
  2
_DotSmall
340
0
102
{BLKREFS
331
84A5
331
84B4
102
}
  0
BLOCK_RECORD
  5
84B9
330
8184
100
AcDbSymbolTableRecord
100
AcDbBlockTableRecord
  2
*D49
340
0
  0
ENDTAB
  0
ENDSEC
  0
SECTION
  2
BLOCKS
  0
BLOCK
  5
81F3
330
81F2
100
AcDbEntity
  8
0
100
AcDbBlockBegin
  2
*Model_Space
 70
     0
 10
0.0
 20
0.0
 30
0.0
  3
*Model_Space
  1

  0
ENDBLK
  5
81F4
330
81F2
100
AcDbEntity
  8
0
100
AcDbBlockEnd
  0
BLOCK
  5
81EF
330
81EE
100
AcDbEntity
 67
     1
  8
0
100
AcDbBlockBegin
  2
*Paper_Space
 70
     0
 10
0.0
 20
0.0
 30
0.0
  3
*Paper_Space
  1

  0
ENDBLK
  5
81F0
330
81EE
100
AcDbEntity
 67
     1
  8
0
100
AcDbBlockEnd
  0
BLOCK
  5
8203
330
8202
100
AcDbEntity
  8
0
100
AcDbBlockBegin
  2
$MODEL_SPACE
 70
     0
 10
0.0
 20
0.0
 30
0.0
  3
$MODEL_SPACE
  1

  0
ENDBLK
  5
1B
330
8202
100
AcDbEntity
  8
0
100
AcDbBlockEnd
  0
BLOCK
  5
8205
330
8204
100
AcDbEntity
  8
0
100
AcDbBlockBegin
  2
$PAPER_SPACE
 70
     0
 10
0.0
 20
0.0
 30
0.0
  3
$PAPER_SPACE
  1

  0
ENDBLK
  5
18
330
8204
100
AcDbEntity
  8
0
100
AcDbBlockEnd
  0
BLOCK
  5
8207
330
8206
100
AcDbEntity
  8
0
100
AcDbBlockBegin
  2
_OPEN
 70
     0
 10
0.0
 20
0.0
 30
0.0
  3
_OPEN
  1

  0
LINE
  5
79FD
330
8206
100
AcDbEntity
  8
0
  6
ByBlock
 62
     0
100
AcDbLine
 10
-1.0
 20
0.1666666666666666
 30
0.0
 11
0.0
 21
0.0
 31
0.0
  0
LINE
  5
79FE
330
8206
100
AcDbEntity
  8
0
  6
ByBlock
 62
     0
100
AcDbLine
 10
0.0
 20
0.0
 30
0.0
 11
-1.0
 21
-0.1666666666666666
 31
0.0
  0
LINE
  5
79FF
330
8206
100
AcDbEntity
  8
0
  6
ByBlock
 62
     0
100
AcDbLine
 10
0.0
 20
0.0
 30
0.0
 11
-1.0
 21
0.0
 31
0.0
  0
ENDBLK
  5
7A01
330
8206
100
AcDbEntity
  8
0
100
AcDbBlockEnd
  0
BLOCK
  5
8209
330
8208
100
AcDbEntity
  8
0
100
AcDbBlockBegin
  2
YA_N
 70
     0
 10
0.0
 20
0.0
 30
0.0
  3
YA_N
  1

  0
ENDBLK
  5
7A04
330
8208
100
AcDbEntity
  8
0
100
AcDbBlockEnd
  0
BLOCK
  5
820B
330
820A
100
AcDbEntity
  8
0
100
AcDbBlockBegin
  2
*D4
 70
     1
 10
0.0
 20
0.0
 30
0.0
  3
*D4
  1

  0
LINE
  5
7E3E
330
820A
100
AcDbEntity
  8
0
  6
ByBlock
100
AcDbLine
 10
2197.625114976839
 20
-445.9396971642539
 30
0.0
 11
2398.785211970981
 21
-445.9396971642539
 31
0.0
  0
LINE
  5
7E3F
330
820A
100
AcDbEntity
  8
0
  6
ByBlock
100
AcDbLine
 10
2197.625114976839
 20
584.0603028357447
 30
0.0
 11
2398.785211970981
 21
584.0603028357447
 31
0.0
  0
LINE
  5
7E40
330
820A
100
AcDbEntity
  8
0
  6
ByBlock
100
AcDbLine
 10
2368.785211970982
 20
-385.939697164254
 30
0.0
 11
2368.785211970982
 21
524.0603028357448
 31
0.0
  0
INSERT
  5
7E41
330
820A
100
AcDbEntity
  8
0
  6
ByBlock
100
AcDbBlockReference
  2
_OPEN
 10
2368.785211970982
 20
-445.9396971642539
 30
0.0
 41
60.0
 42
60.0
 43
60.0
 50
270.0
  0
INSERT
  5
7E42
330
820A
100
AcDbEntity
  8
0
  6
ByBlock
100
AcDbBlockReference
  2
_OPEN
 10
2368.785211970982
 20
584.0603028357447
 30
0.0
 41
60.0
 42
60.0
 43
60.0
 50
90.0
  0
TEXT
  5
7E43
330
820A
100
AcDbEntity
  8
3
100
AcDbText
 10
2353.785211970981
 20
-80.93969716425453
 30
0.0
 40
90.0
  1
1030
 50
90.0
100
AcDbText
  0
POINT
  5
7E44
330
820A
100
AcDbEntity
  8
DEFPOINTS
  6
ByBlock
 62
     0
100
AcDbPoint
 10
2167.625114976838
 20
-445.9396971642539
 30
0.0
  0
POINT
  5
7E45
330
820A
100
AcDbEntity
  8
DEFPOINTS
  6
ByBlock
 62
     0
100
AcDbPoint
 10
2167.625114976839
 20
584.0603028357447
 30
0.0
  0
POINT
  5
7E46
330
820A
100
AcDbEntity
  8
DEFPOINTS
  6
ByBlock
 62
     0
100
AcDbPoint
 10
2368.785211970982
 20
584.0603028357447
 30
0.0
  0
ENDBLK
  5
7E47
330
820A
100
AcDbEntity
  8
0
100
AcDbBlockEnd
  0
BLOCK
  5
820D
330
820C
100
AcDbEntity
  8
0
100
AcDbBlockBegin
  2
*D5
 70
     1
 10
0.0
 20
0.0
 30
0.0
  3
*D5
  1

  0
LINE
  5
7E49
330
820C
100
AcDbEntity
  8
0
  6
ByBlock
100
AcDbLine
 10
2197.625114976839
 20
-445.9396971642539
 30
0.0
 11
2599.587257430135
 21
-445.9396971642539
 31
0.0
  0
LINE
  5
7E4A
330
820C
100
AcDbEntity
  8
0
  6
ByBlock
100
AcDbLine
 10
2257.241097474467
 20
628.0603028357453
 30
0.0
 11
2599.587257430135
 21
628.0603028357453
 31
0.0
  0
LINE
  5
7E4B
330
820C
100
AcDbEntity
  8
0
  6
ByBlock
100
AcDbLine
 10
2569.587257430136
 20
-385.939697164254
 30
0.0
 11
2569.587257430136
 21
568.0603028357453
 31
0.0
  0
INSERT
  5
7E4C
330
820C
100
AcDbEntity
  8
0
  6
ByBlock
100
AcDbBlockReference
  2
_OPEN
 10
2569.587257430136
 20
-445.9396971642539
 30
0.0
 41
60.0
 42
60.0
 43
60.0
 50
270.0
  0
INSERT
  5
7E4D
330
820C
100
AcDbEntity
  8
0
  6
ByBlock
100
AcDbBlockReference
  2
_OPEN
 10
2569.587257430136
 20
628.0603028357453
 30
0.0
 41
60.0
 42
60.0
 43
60.0
 50
90.0
  0
TEXT
  5
7E4E
330
820C
100
AcDbEntity
  8
3
100
AcDbText
 10
2554.587257430135
 20
-61.08255430711147
 30
0.0
 40
90.0
  1
1074
 50
90.0
100
AcDbText
  0
POINT
  5
7E4F
330
820C
100
AcDbEntity
  8
DEFPOINTS
  6
ByBlock
 62
     0
100
AcDbPoint
 10
2167.625114976838
 20
-445.9396971642539
 30
0.0
  0
POINT
  5
7E50
330
820C
100
AcDbEntity
  8
DEFPOINTS
  6
ByBlock
 62
     0
100
AcDbPoint
 10
2227.241097474466
 20
628.0603028357453
 30
0.0
  0
POINT
  5
7E51
330
820C
100
AcDbEntity
  8
DEFPOINTS
  6
ByBlock
 62
     0
100
AcDbPoint
 10
2569.587257430136
 20
628.0603028357453
 30
0.0
  0
ENDBLK
  5
7E52
330
820C
100
AcDbEntity
  8
0
100
AcDbBlockEnd
  0
BLOCK
  5
820F
330
820E
100
AcDbEntity
  8
0
100
AcDbBlockBegin
  2
*D6
 70
     1
 10
0.0
 20
0.0
 30
0.0
  3
*D6
  1

  0
LINE
  5
7E54
330
820E
100
AcDbEntity
  8
0
  6
ByBlock
100
AcDbLine
 10
2167.625114976839
 20
633.9398566882286
 30
0.0
 11
2167.625114976839
 21
1583.964519529796
 31
0.0
  0
LINE
  5
7E55
330
820E
100
AcDbEntity
  8
0
  6
ByBlock
100
AcDbLine
 10
1487.625114976837
 20
1421.105738527262
 30
0.0
 11
1487.625114976837
 21
1583.964519529796
 31
0.0
  0
LINE
  5
7E56
330
820E
100
AcDbEntity
  8
0
  6
ByBlock
100
AcDbLine
 10
2107.625114976839
 20
1553.964519529796
 30
0.0
 11
1547.625114976837
 21
1553.964519529796
 31
0.0
  0
INSERT
  5
7E57
330
820E
100
AcDbEntity
  8
0
  6
ByBlock
100
AcDbBlockReference
  2
_OPEN
 10
2167.625114976839
 20
1553.964519529796
 30
0.0
 41
60.0
 42
60.0
 43
60.0
  0
INSERT
  5
7E58
330
820E
100
AcDbEntity
  8
0
  6
ByBlock
100
AcDbBlockReference
  2
_OPEN
 10
1487.625114976837
 20
1553.964519529796
 30
0.0
 41
60.0
 42
60.0
 43
60.0
 50
180.0
  0
TEXT
  5
7E59
330
820E
100
AcDbEntity
  8
3
100
AcDbText
 10
1711.910829262553
 20
1568.964519529796
 30
0.0
 40
90.0
  1
680
100
AcDbText
  0
POINT
  5
7E5A
330
820E
100
AcDbEntity
  8
DEFPOINTS
  6
ByBlock
 62
     0
100
AcDbPoint
 10
2167.625114976839
 20
603.9398566882288
 30
0.0
  0
POINT
  5
7E5B
330
820E
100
AcDbEntity
  8
DEFPOINTS
  6
ByBlock
 62
     0
100
AcDbPoint
 10
1487.625114976837
 20
1391.105738527262
 30
0.0
  0
POINT
  5
7E5C
330
820E
100
AcDbEntity
  8
DEFPOINTS
  6
ByBlock
 62
     0
100
AcDbPoint
 10
1487.625114976837
 20
1553.964519529796
 30
0.0
  0
ENDBLK
  5
7E5D
330
820E
100
AcDbEntity
  8
0
100
AcDbBlockEnd
  0
BLOCK
  5
8211
330
8210
100
AcDbEntity
  8
0
100
AcDbBlockBegin
  2
*D7
 70
     1
 10
0.0
 20
0.0
 30
0.0
  3
*D7
  1

  0
LINE
  5
7E5F
330
8210
100
AcDbEntity
  8
0
  6
ByBlock
100
AcDbLine
 10
1487.625114976837
 20
1421.105738527262
 30
0.0
 11
1487.625114976837
 21
1583.50681959488
 31
0.0
  0
LINE
  5
7E60
330
8210
100
AcDbEntity
  8
0
  6
ByBlock
100
AcDbLine
 10
623.0809985608106
 20
658.0603028357444
 30
0.0
 11
623.0809985608106
 21
1583.50681959488
 31
0.0
  0
LINE
  5
7E61
330
8210
100
AcDbEntity
  8
0
  6
ByBlock
100
AcDbLine
 10
1427.625114976837
 20
1553.50681959488
 30
0.0
 11
683.0809985608108
 21
1553.50681959488
 31
0.0
  0
INSERT
  5
7E62
330
8210
100
AcDbEntity
  8
0
  6
ByBlock
100
AcDbBlockReference
  2
_OPEN
 10
1487.625114976837
 20
1553.50681959488
 30
0.0
 41
60.0
 42
60.0
 43
60.0
  0
INSERT
  5
7E63
330
8210
100
AcDbEntity
  8
0
  6
ByBlock
100
AcDbBlockReference
  2
_OPEN
 10
623.0809985608106
 20
1553.50681959488
 30
0.0
 41
60.0
 42
60.0
 43
60.0
 50
180.0
  0
TEXT
  5
7E64
330
8210
100
AcDbEntity
  8
3
100
AcDbText
 10
939.6387710545385
 20
1568.50681959488
 30
0.0
 40
90.0
  1
868
100
AcDbText
  0
POINT
  5
7E65
330
8210
100
AcDbEntity
  8
DEFPOINTS
  6
ByBlock
 62
     0
100
AcDbPoint
 10
1487.625114976837
 20
1391.105738527262
 30
0.0
  0
POINT
  5
7E66
330
8210
100
AcDbEntity
  8
DEFPOINTS
  6
ByBlock
 62
     0
100
AcDbPoint
 10
623.0809985608106
 20
628.0603028357444
 30
0.0
  0
POINT
  5
7E67
330
8210
100
AcDbEntity
  8
DEFPOINTS
  6
ByBlock
 62
     0
100
AcDbPoint
 10
623.0809985608106
 20
1553.50681959488
 30
0.0
  0
ENDBLK
  5
7E68
330
8210
100
AcDbEntity
  8
0
100
AcDbBlockEnd
  0
BLOCK
  5
8213
330
8212
100
AcDbEntity
  8
0
100
AcDbBlockBegin
  2
*D8
 70
     1
 10
0.0
 20
0.0
 30
0.0
  3
*D8
  1

  0
LINE
  5
7EAC
330
8212
100
AcDbEntity
  8
0
  6
ByBlock
100
AcDbLine
 10
862.6251149768394
 20
4406.031599361241
 30
0.0
 11
862.6251149768394
 21
4627.335536588958
 31
0.0
  0
LINE
  5
7EAD
330
8212
100
AcDbEntity
  8
0
  6
ByBlock
100
AcDbLine
 10
2112.625114976839
 20
4406.031599361237
 30
0.0
 11
2112.625114976839
 21
4627.335536588958
 31
0.0
  0
LINE
  5
7EAE
330
8212
100
AcDbEntity
  8
0
  6
ByBlock
100
AcDbLine
 10
922.6251149768396
 20
4597.335536588958
 30
0.0
 11
2052.625114976839
 21
4597.335536588958
 31
0.0
  0
INSERT
  5
7EAF
330
8212
100
AcDbEntity
  8
0
  6
ByBlock
100
AcDbBlockReference
  2
_OPEN
 10
862.6251149768394
 20
4597.335536588958
 30
0.0
 41
60.0
 42
60.0
 43
60.0
 50
180.0
  0
INSERT
  5
7EB0
330
8212
100
AcDbEntity
  8
0
  6
ByBlock
100
AcDbBlockReference
  2
_OPEN
 10
2112.625114976839
 20
4597.335536588958
 30
0.0
 41
60.0
 42
60.0
 43
60.0
  0
TEXT
  5
7EB1
330
8212
100
AcDbEntity
  8
3
100
AcDbText
 10
1337.625114976839
 20
4612.335536588958
 30
0.0
 40
90.0
  1
1250
100
AcDbText
  0
POINT
  5
7EB2
330
8212
100
AcDbEntity
  8
DEFPOINTS
  6
ByBlock
 62
     0
100
AcDbPoint
 10
862.6251149768394
 20
4376.031599361239
 30
0.0
  0
POINT
  5
7EB3
330
8212
100
AcDbEntity
  8
DEFPOINTS
  6
ByBlock
 62
     0
100
AcDbPoint
 10
2112.625114976839
 20
4376.031599361239
 30
0.0
  0
POINT
  5
7EB4
330
8212
100
AcDbEntity
  8
DEFPOINTS
  6
ByBlock
 62
     0
100
AcDbPoint
 10
2112.625114976839
 20
4597.335536588958
 30
0.0
  0
ENDBLK
  5
7EB5
330
8212
100
AcDbEntity
  8
0
100
AcDbBlockEnd
  0
BLOCK
  5
8215
330
8214
100
AcDbEntity
  8
0
100
AcDbBlockBegin
  2
*D9
 70
     1
 10
0.0
 20
0.0
 30
0.0
  3
*D9
  1

  0
LINE
  5
7EB7
330
8214
100
AcDbEntity
  8
0
  6
ByBlock
100
AcDbLine
 10
62.62511497683954
 20
2841.031599361241
 30
0.0
 11
62.62511497683954
 21
2552.481475534663
 31
0.0
  0
LINE
  5
7EB8
330
8214
100
AcDbEntity
  8
0
  6
ByBlock
100
AcDbLine
 10
2112.625114976839
 20
2841.031599361238
 30
0.0
 11
2112.625114976839
 21
2552.481475534663
 31
0.0
  0
LINE
  5
7EB9
330
8214
100
AcDbEntity
  8
0
  6
ByBlock
100
AcDbLine
 10
122.6251149768395
 20
2582.481475534663
 30
0.0
 11
2052.625114976839
 21
2582.481475534663
 31
0.0
  0
INSERT
  5
7EBA
330
8214
100
AcDbEntity
  8
0
  6
ByBlock
100
AcDbBlockReference
  2
_OPEN
 10
62.62511497683954
 20
2582.481475534663
 30
0.0
 41
60.0
 42
60.0
 43
60.0
 50
180.0
  0
INSERT
  5
7EBB
330
8214
100
AcDbEntity
  8
0
  6
ByBlock
100
AcDbBlockReference
  2
_OPEN
 10
2112.625114976839
 20
2582.481475534663
 30
0.0
 41
60.0
 42
60.0
 43
60.0
  0
TEXT
  5
7EBC
330
8214
100
AcDbEntity
  8
3
100
AcDbText
 10
929.0536864054109
 20
2597.481475534663
 30
0.0
 40
90.0
  1
2050
100
AcDbText
  0
POINT
  5
7EBD
330
8214
100
AcDbEntity
  8
DEFPOINTS
  6
ByBlock
 62
     0
100
AcDbPoint
 10
62.62511497683954
 20
2871.03159936124
 30
0.0
  0
POINT
  5
7EBE
330
8214
100
AcDbEntity
  8
DEFPOINTS
  6
ByBlock
 62
     0
100
AcDbPoint
 10
2112.625114976839
 20
2871.031599361238
 30
0.0
  0
POINT
  5
7EBF
330
8214
100
AcDbEntity
  8
DEFPOINTS
  6
ByBlock
 62
     0
100
AcDbPoint
 10
2112.625114976839
 20
2582.481475534663
 30
0.0
  0
ENDBLK
  5
7EC0
330
8214
100
AcDbEntity
  8
0
100
AcDbBlockEnd
  0
BLOCK
  5
8217
330
8216
100
AcDbEntity
  8
0
100
AcDbBlockBegin
  2
*D10
 70
     1
 10
0.0
 20
0.0
 30
0.0
  3
*D10
  1

  0
LINE
  5
7FC7
330
8216
100
AcDbEntity
  8
0
  6
ByBlock
100
AcDbLine
 10
640.1508127990999
 20
5948.670042865877
 30
0.0
 11
481.4679841412834
 21
5948.670042865877
 31
0.0
  0
LINE
  5
7FC8
330
8216
100
AcDbEntity
  8
0
  6
ByBlock
100
AcDbLine
 10
640.1508127990999
 20
5098.670042865875
 30
0.0
 11
481.4679841412834
 21
5098.670042865875
 31
0.0
  0
LINE
  5
7FC9
330
8216
100
AcDbEntity
  8
0
  6
ByBlock
100
AcDbLine
 10
511.4679841412835
 20
5888.670042865877
 30
0.0
 11
511.4679841412835
 21
5158.670042865875
 31
0.0
  0
INSERT
  5
7FCA
330
8216
100
AcDbEntity
  8
0
  6
ByBlock
100
AcDbBlockReference
  2
_OPEN
 10
511.4679841412835
 20
5948.670042865877
 30
0.0
 41
60.0
 42
60.0
 43
60.0
 50
90.0
  0
INSERT
  5
7FCB
330
8216
100
AcDbEntity
  8
0
  6
ByBlock
100
AcDbBlockReference
  2
_OPEN
 10
511.4679841412835
 20
5098.670042865875
 30
0.0
 41
60.0
 42
60.0
 43
60.0
 50
270.0
  0
TEXT
  5
7FCC
330
8216
100
AcDbEntity
  8
3
100
AcDbText
 10
496.4679841412834
 20
5407.95575715159
 30
0.0
 40
90.0
  1
850
 50
90.0
100
AcDbText
  0
POINT
  5
7FCD
330
8216
100
AcDbEntity
  8
DEFPOINTS
  6
ByBlock
 62
     0
100
AcDbPoint
 10
670.1508127991001
 20
5948.670042865877
 30
0.0
  0
POINT
  5
7FCE
330
8216
100
AcDbEntity
  8
DEFPOINTS
  6
ByBlock
 62
     0
100
AcDbPoint
 10
670.1508127991001
 20
5098.670042865875
 30
0.0
  0
POINT
  5
7FCF
330
8216
100
AcDbEntity
  8
DEFPOINTS
  6
ByBlock
 62
     0
100
AcDbPoint
 10
511.4679841412835
 20
5098.670042865875
 30
0.0
  0
ENDBLK
  5
7FD0
330
8216
100
AcDbEntity
  8
0
100
AcDbBlockEnd
  0
BLOCK
  5
8219
330
8218
100
AcDbEntity
  8
0
100
AcDbBlockBegin
  2
*D11
 70
     1
 10
0.0
 20
0.0
 30
0.0
  3
*D11
  1

  0
LINE
  5
7ECD
330
8218
100
AcDbEntity
  8
0
  6
ByBlock
100
AcDbLine
 10
2142.625114976839
 20
4376.031599361239
 30
0.0
 11
2541.269252985774
 21
4376.031599361239
 31
0.0
  0
LINE
  5
7ECE
330
8218
100
AcDbEntity
  8
0
  6
ByBlock
100
AcDbLine
 10
2142.625114976839
 20
2871.031599361238
 30
0.0
 11
2541.269252985774
 21
2871.031599361238
 31
0.0
  0
LINE
  5
7ECF
330
8218
100
AcDbEntity
  8
0
  6
ByBlock
100
AcDbLine
 10
2511.269252985774
 20
4316.031599361237
 30
0.0
 11
2511.269252985774
 21
2931.031599361238
 31
0.0
  0
INSERT
  5
7ED0
330
8218
100
AcDbEntity
  8
0
  6
ByBlock
100
AcDbBlockReference
  2
_OPEN
 10
2511.269252985774
 20
4376.031599361239
 30
0.0
 41
60.0
 42
60.0
 43
60.0
 50
90.0
  0
INSERT
  5
7ED1
330
8218
100
AcDbEntity
  8
0
  6
ByBlock
100
AcDbBlockReference
  2
_OPEN
 10
2511.269252985774
 20
2871.031599361238
 30
0.0
 41
60.0
 42
60.0
 43
60.0
 50
270.0
  0
TEXT
  5
7ED2
330
8218
100
AcDbEntity
  8
3
100
AcDbText
 10
2496.269252985774
 20
3473.531599361239
 30
0.0
 40
90.0
  1
1505
 50
90.0
100
AcDbText
  0
POINT
  5
7ED3
330
8218
100
AcDbEntity
  8
DEFPOINTS
  6
ByBlock
 62
     0
100
AcDbPoint
 10
2112.625114976839
 20
4376.031599361239
 30
0.0
  0
POINT
  5
7ED4
330
8218
100
AcDbEntity
  8
DEFPOINTS
  6
ByBlock
 62
     0
100
AcDbPoint
 10
2112.625114976839
 20
2871.031599361238
 30
0.0
  0
POINT
  5
7ED5
330
8218
100
AcDbEntity
  8
DEFPOINTS
  6
ByBlock
 62
     0
100
AcDbPoint
 10
2511.269252985774
 20
2871.031599361238
 30
0.0
  0
ENDBLK
  5
7ED6
330
8218
100
AcDbEntity
  8
0
100
AcDbBlockEnd
  0
BLOCK
  5
821B
330
821A
100
AcDbEntity
  8
0
100
AcDbBlockBegin
  2
*D12
 70
     1
 10
0.0
 20
0.0
 30
0.0
  3
*D12
  1

  0
LINE
  5
8018
330
821A
100
AcDbEntity
  8
0
  6
ByBlock
100
AcDbLine
 10
3953.843106282491
 20
3688.149543488601
 30
0.0
 11
3953.843106282491
 21
4581.672177957076
 31
0.0
  0
LINE
  5
8019
330
821A
100
AcDbEntity
  8
0
  6
ByBlock
100
AcDbLine
 10
4921.343106282495
 20
4509.943146563347
 30
0.0
 11
4921.343106282495
 21
4581.672177957076
 31
0.0
  0
LINE
  5
801A
330
821A
100
AcDbEntity
  8
0
  6
ByBlock
100
AcDbLine
 10
4013.84310628249
 20
4551.672177957076
 30
0.0
 11
4861.343106282496
 21
4551.672177957076
 31
0.0
  0
INSERT
  5
801B
330
821A
100
AcDbEntity
  8
0
  6
ByBlock
100
AcDbBlockReference
  2
_OPEN
 10
3953.843106282491
 20
4551.672177957076
 30
0.0
 41
60.0
 42
60.0
 43
60.0
 50
180.0
  0
INSERT
  5
801C
330
821A
100
AcDbEntity
  8
0
  6
ByBlock
100
AcDbBlockReference
  2
_OPEN
 10
4921.343106282495
 20
4551.672177957076
 30
0.0
 41
60.0
 42
60.0
 43
60.0
  0
INSERT
  5
801D
330
821A
100
AcDbEntity
  8
3
100
AcDbBlockReference
  2
*U13
 10
0.0
 20
0.0
 30
0.0
  0
POINT
  5
801E
330
821A
100
AcDbEntity
  8
DEFPOINTS
  6
ByBlock
 62
     0
100
AcDbPoint
 10
3953.843106282491
 20
3658.149543488601
 30
0.0
  0
POINT
  5
801F
330
821A
100
AcDbEntity
  8
DEFPOINTS
  6
ByBlock
 62
     0
100
AcDbPoint
 10
4921.343106282495
 20
4479.943146563345
 30
0.0
  0
POINT
  5
8020
330
821A
100
AcDbEntity
  8
DEFPOINTS
  6
ByBlock
 62
     0
100
AcDbPoint
 10
4921.343106282495
 20
4551.672177957076
 30
0.0
  0
ENDBLK
  5
8021
330
821A
100
AcDbEntity
  8
0
100
AcDbBlockEnd
  0
BLOCK
  5
823D
330
821C
100
AcDbEntity
  8
0
100
AcDbBlockBegin
  2
*U13
 70
     1
 10
0.0
 20
0.0
 30
0.0
  3
*U13
  1

  0
TEXT
  5
817F
330
821C
100
AcDbEntity
  8
3
100
AcDbText
 10
4309.021677711063
 20
4716.672177957076
 30
0.0
 40
90.0
  1
MAX
100
AcDbText
  0
TEXT
  5
8180
330
821C
100
AcDbEntity
  8
3
100
AcDbText
 10
4287.593106282493
 20
4566.672177957076
 30
0.0
 40
90.0
  1
1020
100
AcDbText
  0
ENDBLK
  5
8182
330
821C
100
AcDbEntity
  8
0
100
AcDbBlockEnd
  0
BLOCK
  5
821E
330
821D
100
AcDbEntity
  8
0
100
AcDbBlockBegin
  2
*D14
 70
     1
 10
0.0
 20
0.0
 30
0.0
  3
*D14
  1

  0
LINE
  5
8023
330
821D
100
AcDbEntity
  8
0
  6
ByBlock
100
AcDbLine
 10
4921.343106282495
 20
4509.943146563347
 30
0.0
 11
4921.343106282495
 21
4581.672177957076
 31
0.0
  0
LINE
  5
8024
330
821D
100
AcDbEntity
  8
0
  6
ByBlock
100
AcDbLine
 10
5689.3431062825
 20
3372.349543488601
 30
0.0
 11
5689.3431062825
 21
4581.672177957076
 31
0.0
  0
LINE
  5
8025
330
821D
100
AcDbEntity
  8
0
  6
ByBlock
100
AcDbLine
 10
4981.343106282496
 20
4551.672177957076
 30
0.0
 11
5629.343106282498
 21
4551.672177957076
 31
0.0
  0
INSERT
  5
8026
330
821D
100
AcDbEntity
  8
0
  6
ByBlock
100
AcDbBlockReference
  2
_OPEN
 10
4921.343106282495
 20
4551.672177957076
 30
0.0
 41
60.0
 42
60.0
 43
60.0
 50
180.0
  0
INSERT
  5
8027
330
821D
100
AcDbEntity
  8
0
  6
ByBlock
100
AcDbBlockReference
  2
_OPEN
 10
5689.3431062825
 20
4551.672177957076
 30
0.0
 41
60.0
 42
60.0
 43
60.0
  0
TEXT
  5
8028
330
821D
100
AcDbEntity
  8
3
100
AcDbText
 10
5131.771677711069
 20
4605.243606528506
 30
0.0
 40
90.0
  1
(780)
100
AcDbText
  0
POINT
  5
8029
330
821D
100
AcDbEntity
  8
DEFPOINTS
  6
ByBlock
 62
     0
100
AcDbPoint
 10
4921.343106282495
 20
4479.943146563345
 30
0.0
  0
POINT
  5
802A
330
821D
100
AcDbEntity
  8
DEFPOINTS
  6
ByBlock
 62
     0
100
AcDbPoint
 10
5689.3431062825
 20
3342.349543488602
 30
0.0
  0
POINT
  5
802B
330
821D
100
AcDbEntity
  8
DEFPOINTS
  6
ByBlock
 62
     0
100
AcDbPoint
 10
5689.3431062825
 20
4551.672177957076
 30
0.0
  0
ENDBLK
  5
802C
330
821D
100
AcDbEntity
  8
0
100
AcDbBlockEnd
  0
BLOCK
  5
8220
330
821F
100
AcDbEntity
  8
0
100
AcDbBlockBegin
  2
*D15
 70
     1
 10
0.0
 20
0.0
 30
0.0
  3
*D15
  1

  0
LINE
  5
7EEE
330
821F
100
AcDbEntity
  8
0
  6
ByBlock
100
AcDbLine
 10
4259.104621073492
 20
1352.374620489381
 30
0.0
 11
4259.104621073492
 21
1632.055054257674
 31
0.0
  0
LINE
  5
7EEF
330
821F
100
AcDbEntity
  8
0
  6
ByBlock
100
AcDbLine
 10
5509.104621073492
 20
1349.096068293924
 30
0.0
 11
5509.104621073492
 21
1632.055054257674
 31
0.0
  0
LINE
  5
7EF0
330
821F
100
AcDbEntity
  8
0
  6
ByBlock
100
AcDbLine
 10
4319.104621073492
 20
1602.055054257674
 30
0.0
 11
5449.104621073495
 21
1602.055054257674
 31
0.0
  0
INSERT
  5
7EF1
330
821F
100
AcDbEntity
  8
0
  6
ByBlock
100
AcDbBlockReference
  2
_OPEN
 10
4259.104621073492
 20
1602.055054257674
 30
0.0
 41
60.0
 42
60.0
 43
60.0
 50
180.0
  0
INSERT
  5
7EF2
330
821F
100
AcDbEntity
  8
0
  6
ByBlock
100
AcDbBlockReference
  2
_OPEN
 10
5509.104621073492
 20
1602.055054257674
 30
0.0
 41
60.0
 42
60.0
 43
60.0
  0
TEXT
  5
7EF3
330
821F
100
AcDbEntity
  8
3
100
AcDbText
 10
4734.104621073493
 20
1617.055054257674
 30
0.0
 40
90.0
  1
1250
100
AcDbText
  0
POINT
  5
7EF4
330
821F
100
AcDbEntity
  8
DEFPOINTS
  6
ByBlock
 62
     0
100
AcDbPoint
 10
4259.104621073492
 20
1322.374620489382
 30
0.0
  0
POINT
  5
7EF5
330
821F
100
AcDbEntity
  8
DEFPOINTS
  6
ByBlock
 62
     0
100
AcDbPoint
 10
5509.104621073492
 20
1319.096068293924
 30
0.0
  0
POINT
  5
7EF6
330
821F
100
AcDbEntity
  8
DEFPOINTS
  6
ByBlock
 62
     0
100
AcDbPoint
 10
5509.104621073492
 20
1602.055054257674
 30
0.0
  0
ENDBLK
  5
7EF7
330
821F
100
AcDbEntity
  8
0
100
AcDbBlockEnd
  0
BLOCK
  5
8222
330
8221
100
AcDbEntity
  8
0
100
AcDbBlockBegin
  2
*D16
 70
     1
 10
0.0
 20
0.0
 30
0.0
  3
*D16
  1

  0
LINE
  5
7EF9
330
8221
100
AcDbEntity
  8
0
  6
ByBlock
100
AcDbLine
 10
5544.604621073492
 20
98.06030283574637
 30
0.0
 11
5883.472841444802
 21
98.06030283574637
 31
0.0
  0
LINE
  5
7EFA
330
8221
100
AcDbEntity
  8
0
  6
ByBlock
100
AcDbLine
 10
5544.604621073492
 20
1158.060302835746
 30
0.0
 11
5883.472841444802
 21
1158.060302835746
 31
0.0
  0
LINE
  5
7EFB
330
8221
100
AcDbEntity
  8
0
  6
ByBlock
100
AcDbLine
 10
5853.472841444804
 20
158.0603028357463
 30
0.0
 11
5853.472841444804
 21
1098.060302835746
 31
0.0
  0
INSERT
  5
7EFC
330
8221
100
AcDbEntity
  8
0
  6
ByBlock
100
AcDbBlockReference
  2
_OPEN
 10
5853.472841444804
 20
98.06030283574637
 30
0.0
 41
60.0
 42
60.0
 43
60.0
 50
270.0
  0
INSERT
  5
7EFD
330
8221
100
AcDbEntity
  8
0
  6
ByBlock
100
AcDbBlockReference
  2
_OPEN
 10
5853.472841444804
 20
1158.060302835746
 30
0.0
 41
60.0
 42
60.0
 43
60.0
 50
90.0
  0
TEXT
  5
7EFE
330
8221
100
AcDbEntity
  8
3
100
AcDbText
 10
5838.472841444802
 20
433.0603028357463
 30
0.0
 40
90.0
  1
\U+03C61060
 50
90.0
100
AcDbText
  0
POINT
  5
7EFF
330
8221
100
AcDbEntity
  8
DEFPOINTS
  6
ByBlock
 62
     0
100
AcDbPoint
 10
5514.604621073492
 20
98.06030283574637
 30
0.0
  0
POINT
  5
7F00
330
8221
100
AcDbEntity
  8
DEFPOINTS
  6
ByBlock
 62
     0
100
AcDbPoint
 10
5514.604621073492
 20
1158.060302835746
 30
0.0
  0
POINT
  5
7F01
330
8221
100
AcDbEntity
  8
DEFPOINTS
  6
ByBlock
 62
     0
100
AcDbPoint
 10
5853.472841444804
 20
1158.060302835746
 30
0.0
  0
ENDBLK
  5
7F02
330
8221
100
AcDbEntity
  8
0
100
AcDbBlockEnd
  0
BLOCK
  5
8224
330
8223
100
AcDbEntity
  8
0
100
AcDbBlockBegin
  2
*D17
 70
     1
 10
0.0
 20
0.0
 30
0.0
  3
*D17
  1

  0
LINE
  5
7F04
330
8223
100
AcDbEntity
  8
0
  6
ByBlock
100
AcDbLine
 10
2167.625114976839
 20
633.9398566882286
 30
0.0
 11
2167.625114976839
 21
1763.351022905701
 31
0.0
  0
LINE
  5
7F05
330
8223
100
AcDbEntity
  8
0
  6
ByBlock
100
AcDbLine
 10
62.62511497683928
 20
-451.9396971642548
 30
0.0
 11
62.62511497683928
 21
1763.351022905701
 31
0.0
  0
LINE
  5
7F06
330
8223
100
AcDbEntity
  8
0
  6
ByBlock
100
AcDbLine
 10
2107.625114976839
 20
1733.351022905701
 30
0.0
 11
122.6251149768392
 21
1733.351022905701
 31
0.0
  0
INSERT
  5
7F07
330
8223
100
AcDbEntity
  8
0
  6
ByBlock
100
AcDbBlockReference
  2
_OPEN
 10
2167.625114976839
 20
1733.351022905701
 30
0.0
 41
60.0
 42
60.0
 43
60.0
  0
INSERT
  5
7F08
330
8223
100
AcDbEntity
  8
0
  6
ByBlock
100
AcDbBlockReference
  2
_OPEN
 10
62.62511497683928
 20
1733.351022905701
 30
0.0
 41
60.0
 42
60.0
 43
60.0
 50
180.0
  0
TEXT
  5
7F09
330
8223
100
AcDbEntity
  8
3
100
AcDbText
 10
965.1251149768393
 20
1748.351022905701
 30
0.0
 40
90.0
  1
2105
100
AcDbText
  0
POINT
  5
7F0A
330
8223
100
AcDbEntity
  8
DEFPOINTS
  6
ByBlock
 62
     0
100
AcDbPoint
 10
2167.625114976839
 20
603.9398566882288
 30
0.0
  0
POINT
  5
7F0B
330
8223
100
AcDbEntity
  8
DEFPOINTS
  6
ByBlock
 62
     0
100
AcDbPoint
 10
62.62511497683928
 20
-481.9396971642547
 30
0.0
  0
POINT
  5
7F0C
330
8223
100
AcDbEntity
  8
DEFPOINTS
  6
ByBlock
 62
     0
100
AcDbPoint
 10
62.62511497683928
 20
1733.351022905701
 30
0.0
  0
ENDBLK
  5
7F0D
330
8223
100
AcDbEntity
  8
0
100
AcDbBlockEnd
  0
BLOCK
  5
8226
330
8225
100
AcDbEntity
  8
0
100
AcDbBlockBegin
  2
*D18
 70
     1
 10
0.0
 20
0.0
 30
0.0
  3
*D18
  1

  0
LINE
  5
7F0F
330
8225
100
AcDbEntity
  8
0
  6
ByBlock
100
AcDbLine
 10
862.6251149768394
 20
4406.031599361241
 30
0.0
 11
862.6251149768394
 21
4627.335536588958
 31
0.0
  0
LINE
  5
7F10
330
8225
100
AcDbEntity
  8
0
  6
ByBlock
100
AcDbLine
 10
62.62511497683954
 20
3751.03159936124
 30
0.0
 11
62.62511497683954
 21
4627.335536588958
 31
0.0
  0
LINE
  5
7F11
330
8225
100
AcDbEntity
  8
0
  6
ByBlock
100
AcDbLine
 10
802.6251149768395
 20
4597.335536588958
 30
0.0
 11
122.6251149768395
 21
4597.335536588958
 31
0.0
  0
INSERT
  5
7F12
330
8225
100
AcDbEntity
  8
0
  6
ByBlock
100
AcDbBlockReference
  2
_OPEN
 10
862.6251149768394
 20
4597.335536588958
 30
0.0
 41
60.0
 42
60.0
 43
60.0
  0
INSERT
  5
7F13
330
8225
100
AcDbEntity
  8
0
  6
ByBlock
100
AcDbBlockReference
  2
_OPEN
 10
62.62511497683954
 20
4597.335536588958
 30
0.0
 41
60.0
 42
60.0
 43
60.0
 50
180.0
  0
TEXT
  5
7F14
330
8225
100
AcDbEntity
  8
3
100
AcDbText
 10
346.9108292625538
 20
4612.335536588958
 30
0.0
 40
90.0
  1
800
100
AcDbText
  0
POINT
  5
7F15
330
8225
100
AcDbEntity
  8
DEFPOINTS
  6
ByBlock
 62
     0
100
AcDbPoint
 10
862.6251149768394
 20
4376.031599361239
 30
0.0
  0
POINT
  5
7F16
330
8225
100
AcDbEntity
  8
DEFPOINTS
  6
ByBlock
 62
     0
100
AcDbPoint
 10
62.62511497683954
 20
3721.031599361241
 30
0.0
  0
POINT
  5
7F17
330
8225
100
AcDbEntity
  8
DEFPOINTS
  6
ByBlock
 62
     0
100
AcDbPoint
 10
62.62511497683954
 20
4597.335536588958
 30
0.0
  0
ENDBLK
  5
7F18
330
8225
100
AcDbEntity
  8
0
100
AcDbBlockEnd
  0
BLOCK
  5
8228
330
8227
100
AcDbEntity
  8
0
100
AcDbBlockBegin
  2
*D19
 70
     1
 10
0.0
 20
0.0
 30
0.0
  3
*D19
  1

  0
LINE
  5
7F1A
330
8227
100
AcDbEntity
  8
0
  6
ByBlock
100
AcDbLine
 10
1443.625114976839
 20
1348.060302835746
 30
0.0
 11
2838.796582735678
 21
1348.060302835746
 31
0.0
  0
LINE
  5
7F1B
330
8227
100
AcDbEntity
  8
0
  6
ByBlock
100
AcDbLine
 10
2257.241097474467
 20
628.0603028357453
 30
0.0
 11
2838.796582735678
 21
628.0603028357453
 31
0.0
  0
LINE
  5
7F1C
330
8227
100
AcDbEntity
  8
0
  6
ByBlock
100
AcDbLine
 10
2808.796582735677
 20
1288.060302835746
 30
0.0
 11
2808.796582735677
 21
688.0603028357453
 31
0.0
  0
INSERT
  5
7F1D
330
8227
100
AcDbEntity
  8
0
  6
ByBlock
100
AcDbBlockReference
  2
_OPEN
 10
2808.796582735677
 20
1348.060302835746
 30
0.0
 41
60.0
 42
60.0
 43
60.0
 50
90.0
  0
INSERT
  5
7F1E
330
8227
100
AcDbEntity
  8
0
  6
ByBlock
100
AcDbBlockReference
  2
_OPEN
 10
2808.796582735677
 20
628.0603028357453
 30
0.0
 41
60.0
 42
60.0
 43
60.0
 50
270.0
  0
TEXT
  5
7F1F
330
8227
100
AcDbEntity
  8
3
100
AcDbText
 10
2793.796582735678
 20
872.3460171214604
 30
0.0
 40
90.0
  1
720
 50
90.0
100
AcDbText
  0
POINT
  5
7F20
330
8227
100
AcDbEntity
  8
DEFPOINTS
  6
ByBlock
 62
     0
100
AcDbPoint
 10
1413.62511497684
 20
1348.060302835746
 30
0.0
  0
POINT
  5
7F21
330
8227
100
AcDbEntity
  8
DEFPOINTS
  6
ByBlock
 62
     0
100
AcDbPoint
 10
2227.241097474466
 20
628.0603028357453
 30
0.0
  0
POINT
  5
7F22
330
8227
100
AcDbEntity
  8
DEFPOINTS
  6
ByBlock
 62
     0
100
AcDbPoint
 10
2808.796582735677
 20
628.0603028357453
 30
0.0
  0
ENDBLK
  5
7F23
330
8227
100
AcDbEntity
  8
0
100
AcDbBlockEnd
  0
BLOCK
  5
822A
330
8229
100
AcDbEntity
  8
0
100
AcDbBlockBegin
  2
*D20
 70
     1
 10
0.0
 20
0.0
 30
0.0
  3
*D20
  1

  0
LINE
  5
8173
330
8229
100
AcDbEntity
  8
3
100
AcDbLine
 10
2750.1508127991
 20
2168.149543488601
 30
0.0
 11
3446.322280557939
 21
2168.1495434886
 31
0.0
  0
LINE
  5
8174
330
8229
100
AcDbEntity
  8
3
100
AcDbLine
 10
3416.322280557939
 20
3318.1495434886
 30
0.0
 11
3416.322280557938
 21
2228.149543488601
 31
0.0
  0
INSERT
  5
8175
330
8229
100
AcDbEntity
  8
3
100
AcDbBlockReference
  2
_OPEN
 10
3416.322280557939
 20
3378.149543488599
 30
0.0
 41
60.0
 42
60.0
 43
60.0
 50
90.0
  0
INSERT
  5
8176
330
8229
100
AcDbEntity
  8
3
100
AcDbBlockReference
  2
_OPEN
 10
3416.322280557938
 20
2168.1495434886
 30
0.0
 41
60.0
 42
60.0
 43
60.0
 50
270.0
  0
TEXT
  5
8183
330
8229
100
AcDbEntity
  8
3
100
AcDbText
 10
3176.32
 20
2613.85
 30
0.0
 40
90.0
  1
1210
100
AcDbText
  0
POINT
  5
8178
330
8229
100
AcDbEntity
  8
DEFPOINTS
 62
     0
100
AcDbPoint
 10
2834.766795296728
 20
3378.1495434886
 30
0.0
  0
POINT
  5
8179
330
8229
100
AcDbEntity
  8
DEFPOINTS
 62
     0
100
AcDbPoint
 10
2720.150812799099
 20
2168.149543488601
 30
0.0
  0
POINT
  5
817A
330
8229
100
AcDbEntity
  8
DEFPOINTS
 62
     0
100
AcDbPoint
 10
3416.322280557938
 20
2168.1495434886
 30
0.0
  0
ENDBLK
  5
7F2D
330
8229
100
AcDbEntity
  8
0
100
AcDbBlockEnd
  0
BLOCK
  5
822C
330
822B
100
AcDbEntity
  8
0
100
AcDbBlockBegin
  2
*D21
 70
     1
 10
0.0
 20
0.0
 30
0.0
  3
*D21
  1

  0
LINE
  5
7F93
330
822B
100
AcDbEntity
  8
0
  6
ByBlock
100
AcDbLine
 10
2750.1508127991
 20
2149.149543488601
 30
0.0
 11
3446.322280557939
 21
2149.149543488601
 31
0.0
  0
LINE
  5
7F94
330
822B
100
AcDbEntity
  8
0
  6
ByBlock
100
AcDbLine
 10
2750.1508127991
 20
2049.149543488601
 30
0.0
 11
3446.322280557939
 21
2049.149543488601
 31
0.0
  0
LINE
  5
7F95
330
822B
100
AcDbEntity
  8
0
  6
ByBlock
100
AcDbLine
 10
3416.322280557938
 20
2209.149543488601
 30
0.0
 11
3416.322280557938
 21
2269.149543488601
 31
0.0
  0
LINE
  5
7F96
330
822B
100
AcDbEntity
  8
0
  6
ByBlock
100
AcDbLine
 10
3416.322280557938
 20
1989.149543488601
 30
0.0
 11
3416.322280557938
 21
1684.863829202887
 31
0.0
  0
LINE
  5
7F97
330
822B
100
AcDbEntity
  8
0
  6
ByBlock
100
AcDbLine
 10
3416.322280557938
 20
2149.149543488601
 30
0.0
 11
3416.322280557938
 21
2049.149543488601
 31
0.0
  0
INSERT
  5
7F98
330
822B
100
AcDbEntity
  8
0
  6
ByBlock
100
AcDbBlockReference
  2
_DOT
 10
3416.322280557938
 20
2149.149543488601
 30
0.0
 41
60.0
 42
60.0
 43
60.0
 50
270.0
  0
INSERT
  5
7F99
330
822B
100
AcDbEntity
  8
0
  6
ByBlock
100
AcDbBlockReference
  2
_OPEN
 10
3416.322280557938
 20
2049.149543488601
 30
0.0
 41
60.0
 42
60.0
 43
60.0
 50
90.0
  0
TEXT
  5
7F9A
330
822B
100
AcDbEntity
  8
3
100
AcDbText
 10
3401.322280557939
 20
1699.863829202887
 30
0.0
 40
90.0
  1
100
 50
90.0
100
AcDbText
  0
POINT
  5
7F9B
330
822B
100
AcDbEntity
  8
DEFPOINTS
  6
ByBlock
 62
     0
100
AcDbPoint
 10
2720.150812799099
 20
2149.149543488601
 30
0.0
  0
POINT
  5
7F9C
330
822B
100
AcDbEntity
  8
DEFPOINTS
  6
ByBlock
 62
     0
100
AcDbPoint
 10
2720.150812799099
 20
2049.149543488601
 30
0.0
  0
POINT
  5
7F9D
330
822B
100
AcDbEntity
  8
DEFPOINTS
  6
ByBlock
 62
     0
100
AcDbPoint
 10
3416.322280557938
 20
2049.149543488601
 30
0.0
  0
ENDBLK
  5
7F9E
330
822B
100
AcDbEntity
  8
0
100
AcDbBlockEnd
  0
BLOCK
  5
822E
330
822D
100
AcDbEntity
  8
0
100
AcDbBlockBegin
  2
_DOT
 70
     0
 10
0.0
 20
0.0
 30
0.0
  3
_DOT
  1

  0
LWPOLYLINE
  5
7FB9
330
822D
100
AcDbEntity
  8
0
  6
ByBlock
 62
     0
100
AcDbPolyline
 90
        2
 70
     1
 43
0.25
 10
-0.125
 20
0.0
 42
1.0
 10
0.125
 20
0.0
 42
1.0
  0
LINE
  5
7FBD
330
822D
100
AcDbEntity
  8
0
  6
ByBlock
 62
     0
100
AcDbLine
 10
-0.25
 20
0.0
 30
0.0
 11
-1.0
 21
0.0
 31
0.0
  0
ENDBLK
  5
7F85
330
822D
100
AcDbEntity
  8
0
100
AcDbBlockEnd
  0
BLOCK
  5
8230
330
822F
100
AcDbEntity
  8
0
100
AcDbBlockBegin
  2
*D23
 70
     1
 10
0.0
 20
0.0
 30
0.0
  3
*D23
  1

  0
LINE
  5
803B
330
822F
100
AcDbEntity
  8
0
  6
ByBlock
 62
     0
100
AcDbLine
 10
670.1508127991001
 20
2011.149543488601
 30
0.0
 11
670.1508127991001
 21
1797.532675969436
 31
0.0
  0
LINE
  5
803C
330
822F
100
AcDbEntity
  8
0
  6
ByBlock
 62
     0
100
AcDbLine
 10
2095.150812799098
 20
2011.149543488601
 30
0.0
 11
2095.150812799098
 21
1797.532675969436
 31
0.0
  0
LINE
  5
803D
330
822F
100
AcDbEntity
  8
0
  6
ByBlock
 62
     0
100
AcDbLine
 10
730.1508127991001
 20
1827.532675969436
 30
0.0
 11
2035.150812799098
 21
1827.532675969436
 31
0.0
  0
INSERT
  5
803E
330
822F
100
AcDbEntity
  8
0
  6
ByBlock
 62
     0
100
AcDbBlockReference
  2
_OPEN
 10
670.1508127991001
 20
1827.532675969436
 30
0.0
 41
60.0
 42
60.0
 43
60.0
 50
180.0
  0
INSERT
  5
803F
330
822F
100
AcDbEntity
  8
0
  6
ByBlock
 62
     0
100
AcDbBlockReference
  2
_OPEN
 10
2095.150812799098
 20
1827.532675969436
 30
0.0
 41
60.0
 42
60.0
 43
60.0
  0
TEXT
  5
8040
330
822F
100
AcDbEntity
  8
3
 62
     0
100
AcDbText
 10
1232.650812799099
 20
1857.532675969436
 30
0.0
 40
90.0
  1
1425
100
AcDbText
  0
POINT
  5
8041
330
822F
100
AcDbEntity
  8
DEFPOINTS
  6
ByBlock
 62
     0
100
AcDbPoint
 10
670.1508127991001
 20
2041.149543488601
 30
0.0
  0
POINT
  5
8042
330
822F
100
AcDbEntity
  8
DEFPOINTS
  6
ByBlock
 62
     0
100
AcDbPoint
 10
2095.150812799098
 20
2041.149543488601
 30
0.0
  0
POINT
  5
8043
330
822F
100
AcDbEntity
  8
DEFPOINTS
  6
ByBlock
 62
     0
100
AcDbPoint
 10
2095.150812799098
 20
1827.532675969436
 30
0.0
  0
ENDBLK
  5
8044
330
822F
100
AcDbEntity
  8
0
100
AcDbBlockEnd
  0
BLOCK
  5
8232
330
8231
100
AcDbEntity
  8
0
100
AcDbBlockBegin
  2
*D24
 70
     1
 10
0.0
 20
0.0
 30
0.0
  3
*D24
  1

  0
LINE
  5
8048
330
8231
100
AcDbEntity
  8
0
  6
ByBlock
 62
     0
100
AcDbLine
 10
2095.150812799098
 20
2011.149543488601
 30
0.0
 11
2095.150812799098
 21
1797.532675969436
 31
0.0
  0
LINE
  5
8049
330
8231
100
AcDbEntity
  8
0
  6
ByBlock
 62
     0
100
AcDbLine
 10
2720.150812799099
 20
2011.149543488601
 30
0.0
 11
2720.150812799099
 21
1797.532675969436
 31
0.0
  0
LINE
  5
804A
330
8231
100
AcDbEntity
  8
0
  6
ByBlock
 62
     0
100
AcDbLine
 10
2155.150812799096
 20
1827.532675969436
 30
0.0
 11
2660.150812799099
 21
1827.532675969436
 31
0.0
  0
INSERT
  5
804B
330
8231
100
AcDbEntity
  8
0
  6
ByBlock
 62
     0
100
AcDbBlockReference
  2
_OPEN
 10
2095.150812799098
 20
1827.532675969436
 30
0.0
 41
60.0
 42
60.0
 43
60.0
 50
180.0
  0
INSERT
  5
804C
330
8231
100
AcDbEntity
  8
0
  6
ByBlock
 62
     0
100
AcDbBlockReference
  2
_OPEN
 10
2720.150812799099
 20
1827.532675969436
 30
0.0
 41
60.0
 42
60.0
 43
60.0
  0
TEXT
  5
804D
330
8231
100
AcDbEntity
  8
3
 62
     0
100
AcDbText
 10
2291.936527084812
 20
1857.532675969436
 30
0.0
 40
90.0
  1
625
100
AcDbText
  0
POINT
  5
804E
330
8231
100
AcDbEntity
  8
DEFPOINTS
  6
ByBlock
 62
     0
100
AcDbPoint
 10
2095.150812799098
 20
2041.149543488601
 30
0.0
  0
POINT
  5
804F
330
8231
100
AcDbEntity
  8
DEFPOINTS
  6
ByBlock
 62
     0
100
AcDbPoint
 10
2720.150812799099
 20
2041.149543488601
 30
0.0
  0
POINT
  5
8050
330
8231
100
AcDbEntity
  8
DEFPOINTS
  6
ByBlock
 62
     0
100
AcDbPoint
 10
2720.150812799099
 20
1827.532675969436
 30
0.0
  0
ENDBLK
  5
8051
330
8231
100
AcDbEntity
  8
0
100
AcDbBlockEnd
  0
BLOCK
  5
8234
330
8233
100
AcDbEntity
  8
0
100
AcDbBlockBegin
  2
*D25
 70
     1
 10
0.0
 20
0.0
 30
0.0
  3
*D25
  1

  0
LINE
  5
8055
330
8233
100
AcDbEntity
  8
0
  6
ByBlock
 62
     0
100
AcDbLine
 10
4094.343106282495
 20
2011.1495434886
 30
0.0
 11
4094.343106282495
 21
1797.532675969436
 31
0.0
  0
LINE
  5
8056
330
8233
100
AcDbEntity
  8
0
  6
ByBlock
 62
     0
100
AcDbLine
 10
4921.343106282495
 20
2011.1495434886
 30
0.0
 11
4921.343106282495
 21
1797.532675969436
 31
0.0
  0
LINE
  5
8057
330
8233
100
AcDbEntity
  8
0
  6
ByBlock
 62
     0
100
AcDbLine
 10
4154.343106282495
 20
1827.532675969436
 30
0.0
 11
4861.343106282496
 21
1827.532675969436
 31
0.0
  0
INSERT
  5
8058
330
8233
100
AcDbEntity
  8
0
  6
ByBlock
 62
     0
100
AcDbBlockReference
  2
_OPEN
 10
4094.343106282495
 20
1827.532675969436
 30
0.0
 41
60.0
 42
60.0
 43
60.0
 50
180.0
  0
INSERT
  5
8059
330
8233
100
AcDbEntity
  8
0
  6
ByBlock
 62
     0
100
AcDbBlockReference
  2
_OPEN
 10
4921.343106282495
 20
1827.532675969436
 30
0.0
 41
60.0
 42
60.0
 43
60.0
  0
TEXT
  5
805A
330
8233
100
AcDbEntity
  8
3
 62
     0
100
AcDbText
 10
4392.128820568211
 20
1857.532675969436
 30
0.0
 40
90.0
  1
827
100
AcDbText
  0
POINT
  5
805B
330
8233
100
AcDbEntity
  8
DEFPOINTS
  6
ByBlock
 62
     0
100
AcDbPoint
 10
4094.343106282495
 20
2041.149543488601
 30
0.0
  0
POINT
  5
805C
330
8233
100
AcDbEntity
  8
DEFPOINTS
  6
ByBlock
 62
     0
100
AcDbPoint
 10
4921.343106282495
 20
2041.149543488601
 30
0.0
  0
POINT
  5
805D
330
8233
100
AcDbEntity
  8
DEFPOINTS
  6
ByBlock
 62
     0
100
AcDbPoint
 10
4921.343106282495
 20
1827.532675969436
 30
0.0
  0
ENDBLK
  5
805E
330
8233
100
AcDbEntity
  8
0
100
AcDbBlockEnd
  0
BLOCK
  5
8236
330
8235
100
AcDbEntity
  8
0
100
AcDbBlockBegin
  2
*D26
 70
     1
 10
0.0
 20
0.0
 30
0.0
  3
*D26
  1

  0
LINE
  5
8062
330
8235
100
AcDbEntity
  8
0
  6
ByBlock
 62
     0
100
AcDbLine
 10
4921.343106282495
 20
2011.1495434886
 30
0.0
 11
4921.343106282495
 21
1797.532675969436
 31
0.0
  0
LINE
  5
8063
330
8235
100
AcDbEntity
  8
0
  6
ByBlock
 62
     0
100
AcDbLine
 10
5599.343106282496
 20
2011.1495434886
 30
0.0
 11
5599.343106282496
 21
1797.532675969436
 31
0.0
  0
LINE
  5
8064
330
8235
100
AcDbEntity
  8
0
  6
ByBlock
 62
     0
100
AcDbLine
 10
4981.343106282496
 20
1827.532675969436
 30
0.0
 11
5539.343106282498
 21
1827.532675969436
 31
0.0
  0
INSERT
  5
8065
330
8235
100
AcDbEntity
  8
0
  6
ByBlock
 62
     0
100
AcDbBlockReference
  2
_OPEN
 10
4921.343106282495
 20
1827.532675969436
 30
0.0
 41
60.0
 42
60.0
 43
60.0
 50
180.0
  0
INSERT
  5
8066
330
8235
100
AcDbEntity
  8
0
  6
ByBlock
 62
     0
100
AcDbBlockReference
  2
_OPEN
 10
5599.343106282496
 20
1827.532675969436
 30
0.0
 41
60.0
 42
60.0
 43
60.0
  0
TEXT
  5
8067
330
8235
100
AcDbEntity
  8
3
 62
     0
100
AcDbText
 10
5144.628820568211
 20
1857.532675969436
 30
0.0
 40
90.0
  1
678
100
AcDbText
  0
POINT
  5
8068
330
8235
100
AcDbEntity
  8
DEFPOINTS
  6
ByBlock
 62
     0
100
AcDbPoint
 10
4921.343106282495
 20
2041.149543488601
 30
0.0
  0
POINT
  5
8069
330
8235
100
AcDbEntity
  8
DEFPOINTS
  6
ByBlock
 62
     0
100
AcDbPoint
 10
5599.343106282496
 20
2041.149543488601
 30
0.0
  0
POINT
  5
806A
330
8235
100
AcDbEntity
  8
DEFPOINTS
  6
ByBlock
 62
     0
100
AcDbPoint
 10
5599.343106282496
 20
1827.532675969436
 30
0.0
  0
ENDBLK
  5
806B
330
8235
100
AcDbEntity
  8
0
100
AcDbBlockEnd
  0
BLOCK
  5
8238
330
8237
100
AcDbEntity
  8
0
100
AcDbBlockBegin
  2
_NONE
 70
     0
 10
0.0
 20
0.0
 30
0.0
  3
_NONE
  1

  0
CIRCLE
  5
806F
330
8237
100
AcDbEntity
  8
0
  6
ByBlock
 62
     0
100
AcDbCircle
 10
0.0
 20
0.0
 30
0.0
 40
0.25
  0
ENDBLK
  5
8070
330
8237
100
AcDbEntity
  8
0
100
AcDbBlockEnd
  0
BLOCK
  5
823A
330
8239
100
AcDbEntity
  8
0
100
AcDbBlockBegin
  2
*D28
 70
     1
 10
0.0
 20
0.0
 30
0.0
  3
*D28
  1

  0
LINE
  5
80CD
330
8239
100
AcDbEntity
  8
0
  6
ByBlock
 62
     0
100
AcDbLine
 10
3414.031525748415
 20
2053.149543488601
 30
0.0
 11
3414.031525748415
 21
2168.149543488601
 31
0.0
  0
TEXT
  5
80CE
330
8239
100
AcDbEntity
  8
3
 62
     0
100
AcDbText
 10
3587.602954319843
 20
1954.22097206003
 30
0.0
 40
90.0
  1
(115)
 50
90.0
100
AcDbText
  0
POINT
  5
80CF
330
8239
100
AcDbEntity
  8
DEFPOINTS
  6
ByBlock
 62
     0
100
AcDbPoint
 10
2720.150812799099
 20
2053.149543488601
 30
0.0
  0
POINT
  5
80D0
330
8239
100
AcDbEntity
  8
DEFPOINTS
  6
ByBlock
 62
     0
100
AcDbPoint
 10
2720.150812799099
 20
2168.149543488601
 30
0.0
  0
POINT
  5
80D1
330
8239
100
AcDbEntity
  8
DEFPOINTS
  6
ByBlock
 62
     0
100
AcDbPoint
 10
3414.031525748415
 20
2168.149543488601
 30
0.0
  0
ENDBLK
  5
80D2
330
8239
100
AcDbEntity
  8
0
100
AcDbBlockEnd
  0
BLOCK
  5
823C
330
823B
100
AcDbEntity
  8
0
100
AcDbBlockBegin
  2
*D29
 70
     1
 10
0.0
 20
0.0
 30
0.0
  3
*D29
  1

  0
LINE
  5
80D6
330
823B
100
AcDbEntity
  8
0
  6
ByBlock
 62
     0
100
AcDbLine
 10
2750.1508127991
 20
1953.149543488601
 30
0.0
 11
3691.476224017559
 21
1953.149543488601
 31
0.0
  0
LINE
  5
80D7
330
823B
100
AcDbEntity
  8
0
  6
ByBlock
 62
     0
100
AcDbLine
 10
2081.1508127991
 20
4098.149543488601
 30
0.0
 11
3691.476224017559
 21
4098.149543488601
 31
0.0
  0
LINE
  5
80D8
330
823B
100
AcDbEntity
  8
0
  6
ByBlock
 62
     0
100
AcDbLine
 10
3661.476224017557
 20
2013.149543488601
 30
0.0
 11
3661.476224017557
 21
4038.149543488601
 31
0.0
  0
INSERT
  5
80D9
330
823B
100
AcDbEntity
  8
0
  6
ByBlock
 62
     0
100
AcDbBlockReference
  2
_OPEN
 10
3661.476224017557
 20
1953.149543488601
 30
0.0
 41
60.0
 42
60.0
 43
60.0
 50
270.0
  0
INSERT
  5
80DA
330
823B
100
AcDbEntity
  8
0
  6
ByBlock
 62
     0
100
AcDbBlockReference
  2
_OPEN
 10
3661.476224017557
 20
4098.149543488601
 30
0.0
 41
60.0
 42
60.0
 43
60.0
 50
90.0
  0
TEXT
  5
80DB
330
823B
100
AcDbEntity
  8
3
 62
     0
100
AcDbText
 10
3592.90479544613
 20
2817.792400631457
 30
0.0
 40
90.0
  1
(2145)
 50
90.0
100
AcDbText
  0
POINT
  5
80DC
330
823B
100
AcDbEntity
  8
DEFPOINTS
  6
ByBlock
 62
     0
100
AcDbPoint
 10
2720.150812799099
 20
1953.149543488601
 30
0.0
  0
POINT
  5
80DD
330
823B
100
AcDbEntity
  8
DEFPOINTS
  6
ByBlock
 62
     0
100
AcDbPoint
 10
2051.1508127991
 20
4098.149543488601
 30
0.0
  0
POINT
  5
80DE
330
823B
100
AcDbEntity
  8
DEFPOINTS
  6
ByBlock
 62
     0
100
AcDbPoint
 10
3661.476224017557
 20
4098.149543488601
 30
0.0
  0
ENDBLK
  5
80DF
330
823B
100
AcDbEntity
  8
0
100
AcDbBlockEnd
  0
BLOCK
  5
8241
330
8240
100
AcDbEntity
  8
0
100
AcDbBlockBegin
  2
*D30
 70
     1
 10
0.0
 20
0.0
 30
0.0
  3
*D30
  1

  0
LINE
  5
826B
330
8240
100
AcDbEntity
  8
3
 62
     0
370
    -2
100
AcDbLine
 10
3861.343106282491
 20
3688.149543488601
 30
0.0
 11
3861.343106282491
 21
4612.234491469076
 31
0.0
  0
LINE
  5
826C
330
8240
100
AcDbEntity
  8
3
 62
     0
370
    -2
100
AcDbLine
 10
4921.343106282495
 20
4487.144294910528
 30
0.0
 11
4921.343106282495
 21
4612.234491469076
 31
0.0
  0
LINE
  5
826D
330
8240
100
AcDbEntity
  8
3
 62
     0
370
    -2
100
AcDbLine
 10
3921.343106282491
 20
4582.234491469076
 30
0.0
 11
4861.343106282496
 21
4582.234491469076
 31
0.0
  0
INSERT
  5
826E
330
8240
100
AcDbEntity
  8
3
 62
     0
370
    -2
100
AcDbBlockReference
  2
_OPEN
 10
3861.343106282491
 20
4582.234491469076
 30
0.0
 41
60.0
 42
60.0
 43
60.0
 50
180.0
  0
INSERT
  5
826F
330
8240
100
AcDbEntity
  8
3
 62
     0
370
    -2
100
AcDbBlockReference
  2
_OPEN
 10
4921.343106282495
 20
4582.234491469076
 30
0.0
 41
60.0
 42
60.0
 43
60.0
  0
MTEXT
  5
8270
330
8240
100
AcDbEntity
  8
3
 62
     0
100
AcDbMText
 10
4391.343106282493
 20
4680.805920040505
 30
0.0
 40
90.0
 41
0.0
 71
     5
 72
     1
  1
\A1;(1060)
 73
     1
 44
1.0
1001
ACAD
1000
MTEXTBEGIN
1070
    73
1070
     1
1070
    44
1040
1.0
1070
    74
1070
     0
1000
MTEXTEND
  0
POINT
  5
8271
330
8240
100
AcDbEntity
  8
DEFPOINTS
 62
     0
100
AcDbPoint
 10
3861.343106282491
 20
3658.149543488601
 30
0.0
  0
POINT
  5
8272
330
8240
100
AcDbEntity
  8
DEFPOINTS
 62
     0
100
AcDbPoint
 10
4921.343106282495
 20
4457.144294910528
 30
0.0
  0
POINT
  5
8273
330
8240
100
AcDbEntity
  8
DEFPOINTS
 62
     0
100
AcDbPoint
 10
4921.343106282495
 20
4582.234491469076
 30
0.0
  0
ENDBLK
  5
8242
330
8240
100
AcDbEntity
  8
0
100
AcDbBlockEnd
  0
BLOCK
  5
824E
330
824D
100
AcDbEntity
  8
0
100
AcDbBlockBegin
  2
*D31
 70
     1
 10
0.0
 20
0.0
 30
0.0
  3
*D31
  1

  0
LINE
  5
8274
330
824D
100
AcDbEntity
  8
3
 62
     0
370
    -2
100
AcDbLine
 10
4921.343106282495
 20
4487.144294910528
 30
0.0
 11
4921.343106282495
 21
4612.234491469076
 31
0.0
  0
LINE
  5
8275
330
824D
100
AcDbEntity
  8
3
 62
     0
370
    -2
100
AcDbLine
 10
5701.343106282497
 20
3372.349543488601
 30
0.0
 11
5701.343106282497
 21
4612.234491469076
 31
0.0
  0
LINE
  5
8276
330
824D
100
AcDbEntity
  8
3
 62
     0
370
    -2
100
AcDbLine
 10
4981.343106282496
 20
4582.234491469076
 30
0.0
 11
5641.343106282497
 21
4582.234491469076
 31
0.0
  0
INSERT
  5
8277
330
824D
100
AcDbEntity
  8
3
 62
     0
370
    -2
100
AcDbBlockReference
  2
_OPEN
 10
4921.343106282495
 20
4582.234491469076
 30
0.0
 41
60.0
 42
60.0
 43
60.0
 50
180.0
  0
INSERT
  5
8278
330
824D
100
AcDbEntity
  8
3
 62
     0
370
    -2
100
AcDbBlockReference
  2
_OPEN
 10
5701.343106282497
 20
4582.234491469076
 30
0.0
 41
60.0
 42
60.0
 43
60.0
  0
MTEXT
  5
8279
330
824D
100
AcDbEntity
  8
3
 62
     0
100
AcDbMText
 10
5311.343106282496
 20
4680.805920040505
 30
0.0
 40
90.0
 41
0.0
 71
     5
 72
     1
  1
\A1;(780)
 73
     1
 44
1.0
1001
ACAD
1000
MTEXTBEGIN
1070
    73
1070
     1
1070
    44
1040
1.0
1070
    74
1070
     0
1000
MTEXTEND
  0
POINT
  5
827A
330
824D
100
AcDbEntity
  8
DEFPOINTS
 62
     0
100
AcDbPoint
 10
4921.343106282495
 20
4457.144294910528
 30
0.0
  0
POINT
  5
827B
330
824D
100
AcDbEntity
  8
DEFPOINTS
 62
     0
100
AcDbPoint
 10
5701.343106282497
 20
3342.349543488602
 30
0.0
  0
POINT
  5
827C
330
824D
100
AcDbEntity
  8
DEFPOINTS
 62
     0
100
AcDbPoint
 10
5701.343106282497
 20
4582.234491469076
 30
0.0
  0
ENDBLK
  5
824F
330
824D
100
AcDbEntity
  8
0
100
AcDbBlockEnd
  0
BLOCK
  5
827E
330
827D
100
AcDbEntity
  8
0
100
AcDbBlockBegin
  2
*D32
 70
     1
 10
0.0
 20
0.0
 30
0.0
  3
*D32
  1

  0
LINE
  5
8280
330
827D
100
AcDbEntity
  8
3
 62
     0
370
    -2
100
AcDbLine
 10
670.1508127991001
 20
1933.149543488601
 30
0.0
 11
670.1508127991001
 21
1744.132675969436
 31
0.0
  0
LINE
  5
8281
330
827D
100
AcDbEntity
  8
3
 62
     0
370
    -2
100
AcDbLine
 10
2095.150812799098
 20
1933.149543488601
 30
0.0
 11
2095.150812799098
 21
1744.132675969436
 31
0.0
  0
LINE
  5
8282
330
827D
100
AcDbEntity
  8
3
 62
     0
370
    -2
100
AcDbLine
 10
675.5508127991
 20
1749.532675969436
 30
0.0
 11
1370.950812799099
 21
1749.532675969436
 31
0.0
  0
LINE
  5
8283
330
827D
100
AcDbEntity
  8
3
 62
     0
370
    -2
100
AcDbLine
 10
2089.750812799098
 20
1749.532675969436
 30
0.0
 11
1394.350812799099
 21
1749.532675969436
 31
0.0
  0
SOLID
  5
8284
330
827D
100
AcDbEntity
  8
3
 62
     0
100
AcDbTrace
 10
675.5508127991
 20
1750.432675969436
 30
0.0
 11
675.5508127991
 21
1748.632675969436
 31
0.0
 12
670.1508127991001
 22
1749.532675969436
 32
0.0
 13
670.1508127991001
 23
1749.532675969436
 33
0.0
  0
SOLID
  5
8285
330
827D
100
AcDbEntity
  8
3
 62
     0
100
AcDbTrace
 10
2089.750812799098
 20
1750.432675969436
 30
0.0
 11
2089.750812799098
 21
1748.632675969436
 31
0.0
 12
2095.150812799098
 22
1749.532675969436
 32
0.0
 13
2095.150812799098
 23
1749.532675969436
 33
0.0
  0
MTEXT
  5
8286
330
827D
100
AcDbEntity
  8
3
 62
     0
100
AcDbMText
 10
1382.650812799099
 20
1749.532675969436
 30
0.0
 40
5.399999999999999
 41
0.0
 71
     5
 72
     1
  1
\A1;1425
 73
     1
 44
1.0
1001
ACAD
1000
MTEXTBEGIN
1070
    73
1070
     1
1070
    44
1040
1.0
1070
    74
1070
     0
1000
MTEXTEND
  0
POINT
  5
8287
330
827D
100
AcDbEntity
  8
DEFPOINTS
 62
     0
100
AcDbPoint
 10
670.1508127991001
 20
1963.149543488601
 30
0.0
  0
POINT
  5
8288
330
827D
100
AcDbEntity
  8
DEFPOINTS
 62
     0
100
AcDbPoint
 10
2095.150812799098
 20
1963.149543488601
 30
0.0
  0
POINT
  5
8289
330
827D
100
AcDbEntity
  8
DEFPOINTS
 62
     0
100
AcDbPoint
 10
2095.150812799098
 20
1749.532675969436
 30
0.0
  0
ENDBLK
  5
827F
330
827D
100
AcDbEntity
  8
0
100
AcDbBlockEnd
  0
BLOCK
  5
828B
330
828A
100
AcDbEntity
  8
0
100
AcDbBlockBegin
  2
*D33
 70
     1
 10
0.0
 20
0.0
 30
0.0
  3
*D33
  1

  0
LINE
  5
828D
330
828A
100
AcDbEntity
  8
3
 62
     0
370
    -2
100
AcDbLine
 10
2095.150812799098
 20
1933.149543488601
 30
0.0
 11
2095.150812799098
 21
1744.132675969436
 31
0.0
  0
LINE
  5
828E
330
828A
100
AcDbEntity
  8
3
 62
     0
370
    -2
100
AcDbLine
 10
2720.150812799099
 20
1933.149543488601
 30
0.0
 11
2720.150812799099
 21
1744.132675969436
 31
0.0
  0
LINE
  5
828F
330
828A
100
AcDbEntity
  8
3
 62
     0
370
    -2
100
AcDbLine
 10
2100.550812799098
 20
1749.532675969436
 30
0.0
 11
2398.007955656241
 21
1749.532675969436
 31
0.0
  0
LINE
  5
8290
330
828A
100
AcDbEntity
  8
3
 62
     0
370
    -2
100
AcDbLine
 10
2714.7508127991
 20
1749.532675969436
 30
0.0
 11
2417.293669941956
 21
1749.532675969436
 31
0.0
  0
SOLID
  5
8291
330
828A
100
AcDbEntity
  8
3
 62
     0
100
AcDbTrace
 10
2100.550812799098
 20
1750.432675969436
 30
0.0
 11
2100.550812799098
 21
1748.632675969436
 31
0.0
 12
2095.150812799098
 22
1749.532675969436
 32
0.0
 13
2095.150812799098
 23
1749.532675969436
 33
0.0
  0
SOLID
  5
8292
330
828A
100
AcDbEntity
  8
3
 62
     0
100
AcDbTrace
 10
2714.7508127991
 20
1750.432675969436
 30
0.0
 11
2714.7508127991
 21
1748.632675969436
 31
0.0
 12
2720.150812799099
 22
1749.532675969436
 32
0.0
 13
2720.150812799099
 23
1749.532675969436
 33
0.0
  0
MTEXT
  5
8293
330
828A
100
AcDbEntity
  8
3
 62
     0
100
AcDbMText
 10
2407.650812799098
 20
1749.532675969436
 30
0.0
 40
5.399999999999999
 41
0.0
 71
     5
 72
     1
  1
\A1;625
 73
     1
 44
1.0
1001
ACAD
1000
MTEXTBEGIN
1070
    73
1070
     1
1070
    44
1040
1.0
1070
    74
1070
     0
1000
MTEXTEND
  0
POINT
  5
8294
330
828A
100
AcDbEntity
  8
DEFPOINTS
 62
     0
100
AcDbPoint
 10
2095.150812799098
 20
1963.149543488601
 30
0.0
  0
POINT
  5
8295
330
828A
100
AcDbEntity
  8
DEFPOINTS
 62
     0
100
AcDbPoint
 10
2720.150812799099
 20
1963.149543488601
 30
0.0
  0
POINT
  5
8296
330
828A
100
AcDbEntity
  8
DEFPOINTS
 62
     0
100
AcDbPoint
 10
2720.150812799099
 20
1749.532675969436
 30
0.0
  0
ENDBLK
  5
828C
330
828A
100
AcDbEntity
  8
0
100
AcDbBlockEnd
  0
BLOCK
  5
8298
330
8297
100
AcDbEntity
  8
0
100
AcDbBlockBegin
  2
*D34
 70
     1
 10
0.0
 20
0.0
 30
0.0
  3
*D34
  1

  0
LINE
  5
829A
330
8297
100
AcDbEntity
  8
3
 62
     0
370
    -2
100
AcDbLine
 10
4094.343106282495
 20
1933.149543488601
 30
0.0
 11
4094.343106282495
 21
1744.132675969436
 31
0.0
  0
LINE
  5
829B
330
8297
100
AcDbEntity
  8
3
 62
     0
370
    -2
100
AcDbLine
 10
4921.343106282495
 20
1933.149543488601
 30
0.0
 11
4921.343106282495
 21
1744.132675969436
 31
0.0
  0
LINE
  5
829C
330
8297
100
AcDbEntity
  8
3
 62
     0
370
    -2
100
AcDbLine
 10
4099.743106282494
 20
1749.532675969436
 30
0.0
 11
4498.200249139638
 21
1749.532675969436
 31
0.0
  0
LINE
  5
829D
330
8297
100
AcDbEntity
  8
3
 62
     0
370
    -2
100
AcDbLine
 10
4915.943106282495
 20
1749.532675969436
 30
0.0
 11
4517.485963425351
 21
1749.532675969436
 31
0.0
  0
SOLID
  5
829E
330
8297
100
AcDbEntity
  8
3
 62
     0
100
AcDbTrace
 10
4099.743106282494
 20
1750.432675969436
 30
0.0
 11
4099.743106282494
 21
1748.632675969436
 31
0.0
 12
4094.343106282495
 22
1749.532675969436
 32
0.0
 13
4094.343106282495
 23
1749.532675969436
 33
0.0
  0
SOLID
  5
829F
330
8297
100
AcDbEntity
  8
3
 62
     0
100
AcDbTrace
 10
4915.943106282495
 20
1750.432675969436
 30
0.0
 11
4915.943106282495
 21
1748.632675969436
 31
0.0
 12
4921.343106282495
 22
1749.532675969436
 32
0.0
 13
4921.343106282495
 23
1749.532675969436
 33
0.0
  0
MTEXT
  5
82A0
330
8297
100
AcDbEntity
  8
3
 62
     0
100
AcDbMText
 10
4507.843106282495
 20
1749.532675969436
 30
0.0
 40
5.399999999999999
 41
0.0
 71
     5
 72
     1
  1
\A1;827
 73
     1
 44
1.0
1001
ACAD
1000
MTEXTBEGIN
1070
    73
1070
     1
1070
    44
1040
1.0
1070
    74
1070
     0
1000
MTEXTEND
  0
POINT
  5
82A1
330
8297
100
AcDbEntity
  8
DEFPOINTS
 62
     0
100
AcDbPoint
 10
4094.343106282495
 20
1963.149543488601
 30
0.0
  0
POINT
  5
82A2
330
8297
100
AcDbEntity
  8
DEFPOINTS
 62
     0
100
AcDbPoint
 10
4921.343106282495
 20
1963.149543488601
 30
0.0
  0
POINT
  5
82A3
330
8297
100
AcDbEntity
  8
DEFPOINTS
 62
     0
100
AcDbPoint
 10
4921.343106282495
 20
1749.532675969436
 30
0.0
  0
ENDBLK
  5
8299
330
8297
100
AcDbEntity
  8
0
100
AcDbBlockEnd
  0
BLOCK
  5
82A5
330
82A4
100
AcDbEntity
  8
0
100
AcDbBlockBegin
  2
*D35
 70
     1
 10
0.0
 20
0.0
 30
0.0
  3
*D35
  1

  0
LINE
  5
82A7
330
82A4
100
AcDbEntity
  8
3
 62
     0
370
    -2
100
AcDbLine
 10
4921.343106282495
 20
1933.149543488601
 30
0.0
 11
4921.343106282495
 21
1744.132675969436
 31
0.0
  0
LINE
  5
82A8
330
82A4
100
AcDbEntity
  8
3
 62
     0
370
    -2
100
AcDbLine
 10
5599.343106282496
 20
1933.149543488601
 30
0.0
 11
5599.343106282496
 21
1744.132675969436
 31
0.0
  0
LINE
  5
82A9
330
82A4
100
AcDbEntity
  8
3
 62
     0
370
    -2
100
AcDbLine
 10
4926.743106282494
 20
1749.532675969436
 30
0.0
 11
5250.700249139639
 21
1749.532675969436
 31
0.0
  0
LINE
  5
82AA
330
82A4
100
AcDbEntity
  8
3
 62
     0
370
    -2
100
AcDbLine
 10
5593.943106282497
 20
1749.532675969436
 30
0.0
 11
5269.985963425352
 21
1749.532675969436
 31
0.0
  0
SOLID
  5
82AB
330
82A4
100
AcDbEntity
  8
3
 62
     0
100
AcDbTrace
 10
4926.743106282494
 20
1750.432675969436
 30
0.0
 11
4926.743106282494
 21
1748.632675969436
 31
0.0
 12
4921.343106282495
 22
1749.532675969436
 32
0.0
 13
4921.343106282495
 23
1749.532675969436
 33
0.0
  0
SOLID
  5
82AC
330
82A4
100
AcDbEntity
  8
3
 62
     0
100
AcDbTrace
 10
5593.943106282497
 20
1750.432675969436
 30
0.0
 11
5593.943106282497
 21
1748.632675969436
 31
0.0
 12
5599.343106282496
 22
1749.532675969436
 32
0.0
 13
5599.343106282496
 23
1749.532675969436
 33
0.0
  0
MTEXT
  5
82AD
330
82A4
100
AcDbEntity
  8
3
 62
     0
100
AcDbMText
 10
5260.343106282496
 20
1749.532675969436
 30
0.0
 40
5.399999999999999
 41
0.0
 71
     5
 72
     1
  1
\A1;678
 73
     1
 44
1.0
1001
ACAD
1000
MTEXTBEGIN
1070
    73
1070
     1
1070
    44
1040
1.0
1070
    74
1070
     0
1000
MTEXTEND
  0
POINT
  5
82AE
330
82A4
100
AcDbEntity
  8
DEFPOINTS
 62
     0
100
AcDbPoint
 10
4921.343106282495
 20
1963.149543488601
 30
0.0
  0
POINT
  5
82AF
330
82A4
100
AcDbEntity
  8
DEFPOINTS
 62
     0
100
AcDbPoint
 10
5599.343106282496
 20
1963.149543488601
 30
0.0
  0
POINT
  5
82B0
330
82A4
100
AcDbEntity
  8
DEFPOINTS
 62
     0
100
AcDbPoint
 10
5599.343106282496
 20
1749.532675969436
 30
0.0
  0
ENDBLK
  5
82A6
330
82A4
100
AcDbEntity
  8
0
100
AcDbBlockEnd
  0
BLOCK
  5
82B2
330
82B1
100
AcDbEntity
  8
0
100
AcDbBlockBegin
  2
*D36
 70
     1
 10
0.0
 20
0.0
 30
0.0
  3
*D36
  1

  0
LINE
  5
82B4
330
82B1
100
AcDbEntity
  8
3
 62
     0
370
    -2
100
AcDbLine
 10
3414.031525748415
 20
2068.549543488601
 30
0.0
 11
3414.031525748415
 21
2108.835257774315
 31
0.0
  0
LINE
  5
82B5
330
82B1
100
AcDbEntity
  8
3
 62
     0
370
    -2
100
AcDbLine
 10
3414.031525748415
 20
2162.749543488601
 30
0.0
 11
3414.031525748415
 21
2122.463829202887
 31
0.0
  0
SOLID
  5
82B6
330
82B1
100
AcDbEntity
  8
3
 62
     0
100
AcDbTrace
 10
3413.131525748415
 20
2068.549543488601
 30
0.0
 11
3414.931525748415
 21
2068.549543488601
 31
0.0
 12
3414.031525748415
 22
2063.1495434886
 32
0.0
 13
3414.031525748415
 23
2063.1495434886
 33
0.0
  0
SOLID
  5
82B7
330
82B1
100
AcDbEntity
  8
3
 62
     0
100
AcDbTrace
 10
3413.131525748415
 20
2162.749543488601
 30
0.0
 11
3414.931525748415
 21
2162.749543488601
 31
0.0
 12
3414.031525748415
 22
2168.149543488601
 32
0.0
 13
3414.031525748415
 23
2168.149543488601
 33
0.0
  0
MTEXT
  5
82B8
330
82B1
100
AcDbEntity
  8
3
 62
     0
100
AcDbMText
 10
3414.031525748415
 20
2115.649543488602
 30
0.0
 40
5.399999999999999
 41
0.0
 71
     5
 72
     1
  1
\A1;(105)
 73
     1
 44
1.0
1001
ACAD
1000
MTEXTBEGIN
1070
    73
1070
     1
1070
    44
1040
1.0
1070
    74
1070
     0
1000
MTEXTEND
  0
POINT
  5
82B9
330
82B1
100
AcDbEntity
  8
DEFPOINTS
 62
     0
100
AcDbPoint
 10
2720.150812799099
 20
2063.149543488601
 30
0.0
  0
POINT
  5
82BA
330
82B1
100
AcDbEntity
  8
DEFPOINTS
 62
     0
100
AcDbPoint
 10
2720.150812799099
 20
2168.149543488601
 30
0.0
  0
POINT
  5
82BB
330
82B1
100
AcDbEntity
  8
DEFPOINTS
 62
     0
100
AcDbPoint
 10
3414.031525748415
 20
2168.149543488601
 30
0.0
  0
ENDBLK
  5
82B3
330
82B1
100
AcDbEntity
  8
0
100
AcDbBlockEnd
  0
BLOCK
  5
82BD
330
82BC
100
AcDbEntity
  8
0
100
AcDbBlockBegin
  2
*D37
 70
     1
 10
0.0
 20
0.0
 30
0.0
  3
*D37
  1

  0
LINE
  5
82BF
330
82BC
100
AcDbEntity
  8
3
 62
     0
370
    -2
100
AcDbLine
 10
2722.025812799099
 20
2063.149543488601
 30
0.0
 11
3421.722280557939
 21
2063.1495434886
 31
0.0
  0
LINE
  5
82C0
330
82BC
100
AcDbEntity
  8
3
 62
     0
370
    -2
100
AcDbLine
 10
2722.025812799099
 20
1963.149543488601
 30
0.0
 11
3421.722280557939
 21
1963.149543488601
 31
0.0
  0
LINE
  5
82C1
330
82BC
100
AcDbEntity
  8
3
 62
     0
370
    -2
100
AcDbLine
 10
3416.322280557938
 20
2057.749543488601
 30
0.0
 11
3416.322280557938
 21
2018.549543488601
 31
0.0
  0
LINE
  5
82C2
330
82BC
100
AcDbEntity
  8
3
 62
     0
370
    -2
100
AcDbLine
 10
3416.322280557938
 20
1968.549543488601
 30
0.0
 11
3416.322280557938
 21
2007.749543488601
 31
0.0
  0
SOLID
  5
82C3
330
82BC
100
AcDbEntity
  8
3
 62
     0
100
AcDbTrace
 10
3415.422280557938
 20
2057.749543488601
 30
0.0
 11
3417.222280557938
 21
2057.749543488601
 31
0.0
 12
3416.322280557938
 22
2063.1495434886
 32
0.0
 13
3416.322280557938
 23
2063.1495434886
 33
0.0
  0
SOLID
  5
82C4
330
82BC
100
AcDbEntity
  8
3
 62
     0
100
AcDbTrace
 10
3415.422280557938
 20
1968.549543488601
 30
0.0
 11
3417.222280557938
 21
1968.549543488601
 31
0.0
 12
3416.322280557938
 22
1963.149543488601
 32
0.0
 13
3416.322280557938
 23
1963.149543488601
 33
0.0
  0
MTEXT
  5
82C5
330
82BC
100
AcDbEntity
  8
3
 62
     0
100
AcDbMText
 10
3416.322280557937
 20
2013.149543488601
 30
0.0
 40
5.399999999999999
 41
0.0
 71
     5
 72
     1
  1
\A1;100.0000
 73
     1
 44
1.0
1001
ACAD
1000
MTEXTBEGIN
1070
    73
1070
     1
1070
    44
1040
1.0
1070
    74
1070
     0
1000
MTEXTEND
  0
POINT
  5
82C6
330
82BC
100
AcDbEntity
  8
DEFPOINTS
 62
     0
100
AcDbPoint
 10
2720.150812799099
 20
2063.149543488601
 30
0.0
  0
POINT
  5
82C7
330
82BC
100
AcDbEntity
  8
DEFPOINTS
 62
     0
100
AcDbPoint
 10
2720.150812799099
 20
1963.149543488601
 30
0.0
  0
POINT
  5
82C8
330
82BC
100
AcDbEntity
  8
DEFPOINTS
 62
     0
100
AcDbPoint
 10
3416.322280557938
 20
1963.149543488601
 30
0.0
  0
ENDBLK
  5
82BE
330
82BC
100
AcDbEntity
  8
0
100
AcDbBlockEnd
  0
BLOCK
  5
82CA
330
82C9
100
AcDbEntity
  8
0
100
AcDbBlockBegin
  2
*D38
 70
     1
 10
0.0
 20
0.0
 30
0.0
  3
*D38
  1

  0
LINE
  5
82CC
330
82C9
100
AcDbEntity
  8
3
 62
     0
370
    -2
100
AcDbLine
 10
2750.150812799099
 20
1963.149543488601
 30
0.0
 11
3666.876224017557
 21
1963.149543488601
 31
0.0
  0
LINE
  5
82CD
330
82C9
100
AcDbEntity
  8
3
 62
     0
370
    -2
100
AcDbLine
 10
2081.1508127991
 20
4098.149543488601
 30
0.0
 11
3666.876224017558
 21
4098.149543488601
 31
0.0
  0
LINE
  5
82CE
330
82C9
100
AcDbEntity
  8
3
 62
     0
370
    -2
100
AcDbLine
 10
3661.476224017557
 20
1968.549543488601
 30
0.0
 11
3661.476224017557
 21
3023.835257774316
 31
0.0
  0
LINE
  5
82CF
330
82C9
100
AcDbEntity
  8
3
 62
     0
370
    -2
100
AcDbLine
 10
3661.476224017557
 20
4092.749543488601
 30
0.0
 11
3661.476224017557
 21
3037.463829202887
 31
0.0
  0
SOLID
  5
82D0
330
82C9
100
AcDbEntity
  8
3
 62
     0
100
AcDbTrace
 10
3660.576224017557
 20
1968.549543488601
 30
0.0
 11
3662.376224017557
 21
1968.549543488601
 31
0.0
 12
3661.476224017557
 22
1963.149543488601
 32
0.0
 13
3661.476224017557
 23
1963.149543488601
 33
0.0
  0
SOLID
  5
82D1
330
82C9
100
AcDbEntity
  8
3
 62
     0
100
AcDbTrace
 10
3660.576224017557
 20
4092.749543488601
 30
0.0
 11
3662.376224017557
 21
4092.749543488601
 31
0.0
 12
3661.476224017557
 22
4098.149543488601
 32
0.0
 13
3661.476224017557
 23
4098.149543488601
 33
0.0
  0
MTEXT
  5
82D2
330
82C9
100
AcDbEntity
  8
3
 62
     0
100
AcDbMText
 10
3661.476224017557
 20
3030.649543488602
 30
0.0
 40
5.399999999999999
 41
0.0
 71
     5
 72
     1
  1
\A1;(2135)
 73
     1
 44
1.0
1001
ACAD
1000
MTEXTBEGIN
1070
    73
1070
     1
1070
    44
1040
1.0
1070
    74
1070
     0
1000
MTEXTEND
  0
POINT
  5
82D3
330
82C9
100
AcDbEntity
  8
DEFPOINTS
 62
     0
100
AcDbPoint
 10
2720.150812799099
 20
1963.149543488601
 30
0.0
  0
POINT
  5
82D4
330
82C9
100
AcDbEntity
  8
DEFPOINTS
 62
     0
100
AcDbPoint
 10
2051.1508127991
 20
4098.149543488601
 30
0.0
  0
POINT
  5
82D5
330
82C9
100
AcDbEntity
  8
DEFPOINTS
 62
     0
100
AcDbPoint
 10
3661.476224017557
 20
4098.149543488601
 30
0.0
  0
ENDBLK
  5
82CB
330
82C9
100
AcDbEntity
  8
0
100
AcDbBlockEnd
  0
BLOCK
  5
82D7
330
82D6
100
AcDbEntity
  8
0
100
AcDbBlockBegin
  2
*D39
 70
     1
 10
0.0
 20
0.0
 30
0.0
  3
*D39
  1

  0
LINE
  5
82D9
330
82D6
100
AcDbEntity
  8
3
 62
     0
370
    -2
100
AcDbLine
 10
670.1508127991001
 20
5096.795042865875
 30
0.0
 11
670.1508127991001
 21
4684.719919039298
 31
0.0
  0
LINE
  5
82DA
330
82D6
100
AcDbEntity
  8
3
 62
     0
370
    -2
100
AcDbLine
 10
2720.1508127991
 20
5096.795042865873
 30
0.0
 11
2720.1508127991
 21
4684.719919039298
 31
0.0
  0
LINE
  5
82DB
330
82D6
100
AcDbEntity
  8
3
 62
     0
370
    -2
100
AcDbLine
 10
675.5508127991
 20
4690.119919039298
 30
0.0
 11
1671.365098513386
 21
4690.119919039298
 31
0.0
  0
LINE
  5
82DC
330
82D6
100
AcDbEntity
  8
3
 62
     0
370
    -2
100
AcDbLine
 10
2714.7508127991
 20
4690.119919039298
 30
0.0
 11
1718.936527084814
 21
4690.119919039298
 31
0.0
  0
SOLID
  5
82DD
330
82D6
100
AcDbEntity
  8
3
 62
     0
100
AcDbTrace
 10
675.5508127991
 20
4691.019919039297
 30
0.0
 11
675.5508127991
 21
4689.219919039298
 31
0.0
 12
670.1508127991001
 22
4690.119919039298
 32
0.0
 13
670.1508127991001
 23
4690.119919039298
 33
0.0
  0
SOLID
  5
82DE
330
82D6
100
AcDbEntity
  8
3
 62
     0
100
AcDbTrace
 10
2714.7508127991
 20
4691.019919039297
 30
0.0
 11
2714.7508127991
 21
4689.219919039298
 31
0.0
 12
2720.1508127991
 22
4690.119919039298
 32
0.0
 13
2720.1508127991
 23
4690.119919039298
 33
0.0
  0
MTEXT
  5
82DF
330
82D6
100
AcDbEntity
  8
3
 62
     0
100
AcDbMText
 10
1695.1508127991
 20
4690.119919039298
 30
0.0
 40
5.399999999999999
 41
0.0
 71
     5
 72
     1
  1
\A1;2050.0000
 73
     1
 44
1.0
1001
ACAD
1000
MTEXTBEGIN
1070
    73
1070
     1
1070
    44
1040
1.0
1070
    74
1070
     0
1000
MTEXTEND
  0
POINT
  5
82E0
330
82D6
100
AcDbEntity
  8
DEFPOINTS
 62
     0
100
AcDbPoint
 10
670.1508127991001
 20
5098.670042865875
 30
0.0
  0
POINT
  5
82E1
330
82D6
100
AcDbEntity
  8
DEFPOINTS
 62
     0
100
AcDbPoint
 10
2720.1508127991
 20
5098.670042865873
 30
0.0
  0
POINT
  5
82E2
330
82D6
100
AcDbEntity
  8
DEFPOINTS
 62
     0
100
AcDbPoint
 10
2720.1508127991
 20
4690.119919039298
 30
0.0
  0
ENDBLK
  5
82D8
330
82D6
100
AcDbEntity
  8
0
100
AcDbBlockEnd
  0
BLOCK
  5
82E8
330
82E7
100
AcDbEntity
  8
0
100
AcDbBlockBegin
  2
*D40
 70
     1
 10
0.0
 20
0.0
 30
0.0
  3
*D40
  1

  0
LINE
  5
82EA
330
82E7
100
AcDbEntity
  8
3
 62
     0
370
    -2
100
AcDbLine
 10
670.1508127991001
 20
5068.670042865875
 30
0.0
 11
670.1508127991001
 21
4636.394972240178
 31
0.0
  0
LINE
  5
82EB
330
82E7
100
AcDbEntity
  8
3
 62
     0
370
    -2
100
AcDbLine
 10
2720.1508127991
 20
5068.670042865873
 30
0.0
 11
2720.1508127991
 21
4636.394972240178
 31
0.0
  0
LINE
  5
82EC
330
82E7
100
AcDbEntity
  8
3
 62
     0
370
    -2
100
AcDbLine
 10
730.1508127991001
 20
4666.394972240177
 30
0.0
 11
2660.1508127991
 21
4666.394972240177
 31
0.0
  0
INSERT
  5
82ED
330
82E7
100
AcDbEntity
  8
3
 62
     0
370
    -2
100
AcDbBlockReference
  2
_OPEN
 10
670.1508127991001
 20
4666.394972240177
 30
0.0
 41
60.0
 42
60.0
 43
60.0
 50
180.0
  0
INSERT
  5
82EE
330
82E7
100
AcDbEntity
  8
3
 62
     0
370
    -2
100
AcDbBlockReference
  2
_OPEN
 10
2720.1508127991
 20
4666.394972240177
 30
0.0
 41
60.0
 42
60.0
 43
60.0
  0
MTEXT
  5
82EF
330
82E7
100
AcDbEntity
  8
3
 62
     0
100
AcDbMText
 10
1695.1508127991
 20
4741.394972240177
 30
0.0
 40
90.0
 41
0.0
 71
     5
 72
     1
  1
\A1;2050
 73
     1
 44
1.0
1001
ACAD
1000
MTEXTBEGIN
1070
    73
1070
     1
1070
    44
1040
1.0
1070
    74
1070
     0
1000
MTEXTEND
  0
POINT
  5
82F0
330
82E7
100
AcDbEntity
  8
DEFPOINTS
 62
     0
100
AcDbPoint
 10
670.1508127991001
 20
5098.670042865875
 30
0.0
  0
POINT
  5
82F1
330
82E7
100
AcDbEntity
  8
DEFPOINTS
 62
     0
100
AcDbPoint
 10
2720.1508127991
 20
5098.670042865873
 30
0.0
  0
POINT
  5
82F2
330
82E7
100
AcDbEntity
  8
DEFPOINTS
 62
     0
100
AcDbPoint
 10
2720.1508127991
 20
4666.394972240177
 30
0.0
  0
ENDBLK
  5
82E9
330
82E7
100
AcDbEntity
  8
0
100
AcDbBlockEnd
  0
BLOCK
  5
82F5
330
82F4
100
AcDbEntity
  8
0
100
AcDbBlockBegin
  2
*D41
 70
     1
 10
0.0
 20
0.0
 30
0.0
  3
*D41
  1

  0
LINE
  5
82F7
330
82F4
100
AcDbEntity
  8
3
 62
     0
370
    -2
100
AcDbLine
 10
4094.343106282495
 20
1933.149543488601
 30
0.0
 11
4094.343106282495
 21
1719.532675969436
 31
0.0
  0
LINE
  5
82F8
330
82F4
100
AcDbEntity
  8
3
 62
     0
370
    -2
100
AcDbLine
 10
4921.343106282494
 20
1933.149543488601
 30
0.0
 11
4921.343106282494
 21
1719.532675969436
 31
0.0
  0
LINE
  5
82F9
330
82F4
100
AcDbEntity
  8
3
 62
     0
370
    -2
100
AcDbLine
 10
4154.343106282495
 20
1749.532675969436
 30
0.0
 11
4861.343106282493
 21
1749.532675969436
 31
0.0
  0
INSERT
  5
82FA
330
82F4
100
AcDbEntity
  8
3
 62
     0
370
    -2
100
AcDbBlockReference
  2
_OPEN
 10
4094.343106282495
 20
1749.532675969436
 30
0.0
 41
60.0
 42
60.0
 43
60.0
 50
180.0
  0
INSERT
  5
82FB
330
82F4
100
AcDbEntity
  8
3
 62
     0
370
    -2
100
AcDbBlockReference
  2
_OPEN
 10
4921.343106282494
 20
1749.532675969436
 30
0.0
 41
60.0
 42
60.0
 43
60.0
  0
MTEXT
  5
82FC
330
82F4
100
AcDbEntity
  8
3
 62
     0
100
AcDbMText
 10
4507.843106282495
 20
1824.532675969436
 30
0.0
 40
90.0
 41
0.0
 71
     5
 72
     1
  1
\A1;827
 73
     1
 44
1.0
1001
ACAD
1000
MTEXTBEGIN
1070
    73
1070
     1
1070
    44
1040
1.0
1070
    74
1070
     0
1000
MTEXTEND
  0
POINT
  5
82FD
330
82F4
100
AcDbEntity
  8
DEFPOINTS
 62
     0
100
AcDbPoint
 10
4094.343106282495
 20
1963.149543488601
 30
0.0
  0
POINT
  5
82FE
330
82F4
100
AcDbEntity
  8
DEFPOINTS
 62
     0
100
AcDbPoint
 10
4921.343106282494
 20
1963.149543488601
 30
0.0
  0
POINT
  5
82FF
330
82F4
100
AcDbEntity
  8
DEFPOINTS
 62
     0
100
AcDbPoint
 10
4921.343106282494
 20
1749.532675969436
 30
0.0
  0
ENDBLK
  5
82F6
330
82F4
100
AcDbEntity
  8
0
100
AcDbBlockEnd
  0
BLOCK
  5
8302
330
8301
100
AcDbEntity
  8
0
100
AcDbBlockBegin
  2
*D42
 70
     1
 10
0.0
 20
0.0
 30
0.0
  3
*D42
  1

  0
LINE
  5
8304
330
8301
100
AcDbEntity
  8
3
 62
     0
370
    -2
100
AcDbLine
 10
4921.343106282494
 20
1933.149543488601
 30
0.0
 11
4921.343106282494
 21
1719.532675969436
 31
0.0
  0
LINE
  5
8305
330
8301
100
AcDbEntity
  8
3
 62
     0
370
    -2
100
AcDbLine
 10
5599.343106282496
 20
1933.149543488601
 30
0.0
 11
5599.343106282496
 21
1719.532675969436
 31
0.0
  0
LINE
  5
8306
330
8301
100
AcDbEntity
  8
3
 62
     0
370
    -2
100
AcDbLine
 10
4981.343106282494
 20
1749.532675969436
 30
0.0
 11
5539.343106282497
 21
1749.532675969436
 31
0.0
  0
INSERT
  5
8307
330
8301
100
AcDbEntity
  8
3
 62
     0
370
    -2
100
AcDbBlockReference
  2
_OPEN
 10
4921.343106282494
 20
1749.532675969436
 30
0.0
 41
60.0
 42
60.0
 43
60.0
 50
180.0
  0
INSERT
  5
8308
330
8301
100
AcDbEntity
  8
3
 62
     0
370
    -2
100
AcDbBlockReference
  2
_OPEN
 10
5599.343106282496
 20
1749.532675969436
 30
0.0
 41
60.0
 42
60.0
 43
60.0
  0
MTEXT
  5
8309
330
8301
100
AcDbEntity
  8
3
 62
     0
100
AcDbMText
 10
5260.343106282494
 20
1824.532675969436
 30
0.0
 40
90.0
 41
0.0
 71
     5
 72
     1
  1
\A1;678
 73
     1
 44
1.0
1001
ACAD
1000
MTEXTBEGIN
1070
    73
1070
     1
1070
    44
1040
1.0
1070
    74
1070
     0
1000
MTEXTEND
  0
POINT
  5
830A
330
8301
100
AcDbEntity
  8
DEFPOINTS
 62
     0
100
AcDbPoint
 10
4921.343106282494
 20
1963.149543488601
 30
0.0
  0
POINT
  5
830B
330
8301
100
AcDbEntity
  8
DEFPOINTS
 62
     0
100
AcDbPoint
 10
5599.343106282496
 20
1963.149543488601
 30
0.0
  0
POINT
  5
830C
330
8301
100
AcDbEntity
  8
DEFPOINTS
 62
     0
100
AcDbPoint
 10
5599.343106282496
 20
1749.532675969436
 30
0.0
  0
ENDBLK
  5
8303
330
8301
100
AcDbEntity
  8
0
100
AcDbBlockEnd
  0
BLOCK
  5
830F
330
830E
100
AcDbEntity
  8
0
100
AcDbBlockBegin
  2
*D43
 70
     1
 10
0.0
 20
0.0
 30
0.0
  3
*D43
  1

  0
LINE
  5
8311
330
830E
100
AcDbEntity
  8
3
 62
     0
370
    -2
100
AcDbLine
 10
670.1508127991001
 20
1933.149543488601
 30
0.0
 11
670.1508127991001
 21
1719.532675969436
 31
0.0
  0
LINE
  5
8312
330
830E
100
AcDbEntity
  8
3
 62
     0
370
    -2
100
AcDbLine
 10
2095.150812799097
 20
1933.149543488601
 30
0.0
 11
2095.150812799097
 21
1719.532675969436
 31
0.0
  0
LINE
  5
8313
330
830E
100
AcDbEntity
  8
3
 62
     0
370
    -2
100
AcDbLine
 10
730.1508127991001
 20
1749.532675969436
 30
0.0
 11
2035.150812799097
 21
1749.532675969436
 31
0.0
  0
INSERT
  5
8314
330
830E
100
AcDbEntity
  8
3
 62
     0
370
    -2
100
AcDbBlockReference
  2
_OPEN
 10
670.1508127991001
 20
1749.532675969436
 30
0.0
 41
60.0
 42
60.0
 43
60.0
 50
180.0
  0
INSERT
  5
8315
330
830E
100
AcDbEntity
  8
3
 62
     0
370
    -2
100
AcDbBlockReference
  2
_OPEN
 10
2095.150812799097
 20
1749.532675969436
 30
0.0
 41
60.0
 42
60.0
 43
60.0
  0
MTEXT
  5
8316
330
830E
100
AcDbEntity
  8
3
 62
     0
100
AcDbMText
 10
1382.650812799098
 20
1824.532675969436
 30
0.0
 40
90.0
 41
0.0
 71
     5
 72
     1
  1
\A1;1425
 73
     1
 44
1.0
1001
ACAD
1000
MTEXTBEGIN
1070
    73
1070
     1
1070
    44
1040
1.0
1070
    74
1070
     0
1000
MTEXTEND
  0
POINT
  5
8317
330
830E
100
AcDbEntity
  8
DEFPOINTS
 62
     0
100
AcDbPoint
 10
670.1508127991001
 20
1963.149543488601
 30
0.0
  0
POINT
  5
8318
330
830E
100
AcDbEntity
  8
DEFPOINTS
 62
     0
100
AcDbPoint
 10
2095.150812799097
 20
1963.149543488601
 30
0.0
  0
POINT
  5
8319
330
830E
100
AcDbEntity
  8
DEFPOINTS
 62
     0
100
AcDbPoint
 10
2095.150812799097
 20
1749.532675969436
 30
0.0
  0
ENDBLK
  5
8310
330
830E
100
AcDbEntity
  8
0
100
AcDbBlockEnd
  0
BLOCK
  5
831C
330
831B
100
AcDbEntity
  8
0
100
AcDbBlockBegin
  2
*D44
 70
     1
 10
0.0
 20
0.0
 30
0.0
  3
*D44
  1

  0
LINE
  5
831E
330
831B
100
AcDbEntity
  8
3
 62
     0
370
    -2
100
AcDbLine
 10
2095.150812799097
 20
1933.149543488601
 30
0.0
 11
2095.150812799097
 21
1719.532675969436
 31
0.0
  0
LINE
  5
831F
330
831B
100
AcDbEntity
  8
3
 62
     0
370
    -2
100
AcDbLine
 10
2720.150812799099
 20
1933.149543488601
 30
0.0
 11
2720.150812799099
 21
1719.532675969436
 31
0.0
  0
LINE
  5
8320
330
831B
100
AcDbEntity
  8
3
 62
     0
370
    -2
100
AcDbLine
 10
2155.150812799096
 20
1749.532675969436
 30
0.0
 11
2660.150812799099
 21
1749.532675969436
 31
0.0
  0
INSERT
  5
8321
330
831B
100
AcDbEntity
  8
3
 62
     0
370
    -2
100
AcDbBlockReference
  2
_OPEN
 10
2095.150812799097
 20
1749.532675969436
 30
0.0
 41
60.0
 42
60.0
 43
60.0
 50
180.0
  0
INSERT
  5
8322
330
831B
100
AcDbEntity
  8
3
 62
     0
370
    -2
100
AcDbBlockReference
  2
_OPEN
 10
2720.150812799099
 20
1749.532675969436
 30
0.0
 41
60.0
 42
60.0
 43
60.0
  0
MTEXT
  5
8323
330
831B
100
AcDbEntity
  8
3
 62
     0
100
AcDbMText
 10
2407.650812799098
 20
1824.532675969436
 30
0.0
 40
90.0
 41
0.0
 71
     5
 72
     1
  1
\A1;625
 73
     1
 44
1.0
1001
ACAD
1000
MTEXTBEGIN
1070
    73
1070
     1
1070
    44
1040
1.0
1070
    74
1070
     0
1000
MTEXTEND
  0
POINT
  5
8324
330
831B
100
AcDbEntity
  8
DEFPOINTS
 62
     0
100
AcDbPoint
 10
2095.150812799097
 20
1963.149543488601
 30
0.0
  0
POINT
  5
8325
330
831B
100
AcDbEntity
  8
DEFPOINTS
 62
     0
100
AcDbPoint
 10
2720.150812799099
 20
1963.149543488601
 30
0.0
  0
POINT
  5
8326
330
831B
100
AcDbEntity
  8
DEFPOINTS
 62
     0
100
AcDbPoint
 10
2720.150812799099
 20
1749.532675969436
 30
0.0
  0
ENDBLK
  5
831D
330
831B
100
AcDbEntity
  8
0
100
AcDbBlockEnd
  0
BLOCK
  5
8329
330
8328
100
AcDbEntity
  8
0
100
AcDbBlockBegin
  2
*D45
 70
     1
 10
0.0
 20
0.0
 30
0.0
  3
*D45
  1

  0
LINE
  5
847D
330
8328
100
AcDbEntity
  8
3
 62
     0
370
    -2
100
AcDbLine
 10
2864.766795296728
 20
3378.1495434886
 30
0.0
 11
3446.322280557938
 21
3378.149543488599
 31
0.0
  0
LINE
  5
847E
330
8328
100
AcDbEntity
  8
3
 62
     0
370
    -2
100
AcDbLine
 10
2750.150812799099
 20
2168.149543488601
 30
0.0
 11
3446.322280557938
 21
2168.149543488601
 31
0.0
  0
LINE
  5
847F
330
8328
100
AcDbEntity
  8
3
 62
     0
370
    -2
100
AcDbLine
 10
3416.322280557939
 20
3318.1495434886
 30
0.0
 11
3416.322280557938
 21
2228.149543488601
 31
0.0
  0
INSERT
  5
8480
330
8328
100
AcDbEntity
  8
3
 62
     0
370
    -2
100
AcDbBlockReference
  2
_OPEN
 10
3416.322280557939
 20
3378.149543488599
 30
0.0
 41
60.0
 42
60.0
 43
60.0
 50
90.0
  0
INSERT
  5
8481
330
8328
100
AcDbEntity
  8
3
 62
     0
370
    -2
100
AcDbBlockReference
  2
_OPEN
 10
3416.322280557938
 20
2168.149543488601
 30
0.0
 41
60.0
 42
60.0
 43
60.0
 50
270.0
  0
MTEXT
  5
8482
330
8328
100
AcDbEntity
  8
3
 62
     0
100
AcDbMText
 10
3341.322280557938
 20
2773.149543488601
 30
0.0
 40
90.0
 41
0.0
 71
     5
 72
     1
  1
\A1;1210
 11
0.0000000000000001
 21
1.0
 31
0.0
 73
     1
 44
1.0
1001
ACAD
1000
MTEXTBEGIN
1070
    73
1070
     1
1070
    44
1040
1.0
1070
    74
1070
     0
1000
MTEXTEND
  0
POINT
  5
8483
330
8328
100
AcDbEntity
  8
DEFPOINTS
 62
     0
100
AcDbPoint
 10
2834.766795296728
 20
3378.1495434886
 30
0.0
  0
POINT
  5
8484
330
8328
100
AcDbEntity
  8
DEFPOINTS
 62
     0
100
AcDbPoint
 10
2720.150812799099
 20
2168.149543488601
 30
0.0
  0
POINT
  5
8485
330
8328
100
AcDbEntity
  8
DEFPOINTS
 62
     0
100
AcDbPoint
 10
3416.322280557938
 20
2168.149543488601
 30
0.0
  0
ENDBLK
  5
832A
330
8328
100
AcDbEntity
  8
0
100
AcDbBlockEnd
  0
BLOCK
  5
8336
330
8335
100
AcDbEntity
  8
0
100
AcDbBlockBegin
  2
*D46
 70
     1
 10
0.0
 20
0.0
 30
0.0
  3
*D46
  1

  0
LINE
  5
84AA
330
8335
100
AcDbEntity
  8
3
 62
     0
370
    -2
100
AcDbLine
 10
2750.150812799099
 20
2168.149543488601
 30
0.0
 11
3446.322280557938
 21
2168.149543488601
 31
0.0
  0
LINE
  5
84AB
330
8335
100
AcDbEntity
  8
3
 62
     0
370
    -2
100
AcDbLine
 10
2750.150812799099
 20
2063.149543488601
 30
0.0
 11
3446.322280557938
 21
2063.1495434886
 31
0.0
  0
LINE
  5
84AC
330
8335
100
AcDbEntity
  8
3
 62
     0
370
    -2
100
AcDbLine
 10
3416.322280557938
 20
2228.149543488601
 30
0.0
 11
3416.322280557938
 21
2288.149543488601
 31
0.0
  0
LINE
  5
84AD
330
8335
100
AcDbEntity
  8
3
 62
     0
370
    -2
100
AcDbLine
 10
3416.322280557938
 20
2063.1495434886
 30
0.0
 11
3416.322280557938
 21
2003.149543488601
 31
0.0
  0
LINE
  5
84AE
330
8335
100
AcDbEntity
  8
3
 62
     0
370
    -2
100
AcDbLine
 10
3416.322280557938
 20
2115.649543488601
 30
0.0
 11
3631.444942567199
 21
2199.863829202886
 31
0.0
  0
LINE
  5
84AF
330
8335
100
AcDbEntity
  8
3
 62
     0
370
    -2
100
AcDbLine
 10
3631.444942567199
 20
2199.863829202886
 30
0.0
 11
3631.444942567199
 21
2589.863829202887
 31
0.0
  0
MTEXT
  5
84B0
330
8335
100
AcDbEntity
  8
3
 62
     0
100
AcDbMText
 10
3532.873513995771
 20
2394.863829202888
 30
0.0
 40
90.0
 41
0.0
 71
     5
 72
     1
  1
\A1;(105)
 11
0.0000000000000001
 21
1.0
 31
0.0
 73
     1
 44
1.0
1001
ACAD
1000
MTEXTBEGIN
1070
    73
1070
     1
1070
    44
1040
1.0
1070
    74
1070
     0
1000
MTEXTEND
  0
LINE
  5
84B1
330
8335
100
AcDbEntity
  8
3
 62
     0
370
    -2
100
AcDbLine
 10
3416.322280557938
 20
2168.149543488601
 30
0.0
 11
3416.322280557938
 21
2063.1495434886
 31
0.0
  0
LINE
  5
84B2
330
8335
100
AcDbEntity
  8
3
 62
     0
370
    -2
100
AcDbLine
 10
3416.322280557938
 20
2168.149543488601
 30
0.0
 11
3416.322280557938
 21
2063.1495434886
 31
0.0
  0
INSERT
  5
84B3
330
8335
100
AcDbEntity
  8
3
 62
     0
370
    -2
100
AcDbBlockReference
  2
_OPEN
 10
3416.322280557938
 20
2168.149543488601
 30
0.0
 41
60.0
 42
60.0
 43
60.0
 50
270.0
  0
INSERT
  5
84B4
330
8335
100
AcDbEntity
  8
3
 62
     0
370
    -2
100
AcDbBlockReference
  2
_DotSmall
 10
3416.322280557938
 20
2063.1495434886
 30
0.0
 41
60.0
 42
60.0
 43
60.0
 50
90.0
  0
POINT
  5
84B5
330
8335
100
AcDbEntity
  8
DEFPOINTS
 62
     0
100
AcDbPoint
 10
2720.150812799099
 20
2168.149543488601
 30
0.0
  0
POINT
  5
84B6
330
8335
100
AcDbEntity
  8
DEFPOINTS
 62
     0
100
AcDbPoint
 10
2720.150812799099
 20
2063.149543488601
 30
0.0
  0
POINT
  5
84B7
330
8335
100
AcDbEntity
  8
DEFPOINTS
 62
     0
100
AcDbPoint
 10
3416.322280557938
 20
2063.1495434886
 30
0.0
  0
ENDBLK
  5
8337
330
8335
100
AcDbEntity
  8
0
100
AcDbBlockEnd
  0
BLOCK
  5
8348
330
8347
100
AcDbEntity
  8
0
100
AcDbBlockBegin
  2
*D47
 70
     1
 10
0.0
 20
0.0
 30
0.0
  3
*D47
  1

  0
LINE
  5
849F
330
8347
100
AcDbEntity
  8
3
 62
     0
370
    -2
100
AcDbLine
 10
2750.150812799099
 20
2063.149543488601
 30
0.0
 11
3446.322280557938
 21
2063.1495434886
 31
0.0
  0
LINE
  5
84A0
330
8347
100
AcDbEntity
  8
3
 62
     0
370
    -2
100
AcDbLine
 10
2750.150812799099
 20
1963.149543488601
 30
0.0
 11
3446.322280557938
 21
1963.149543488601
 31
0.0
  0
LINE
  5
84A1
330
8347
100
AcDbEntity
  8
3
 62
     0
370
    -2
100
AcDbLine
 10
3416.322280557938
 20
2063.1495434886
 30
0.0
 11
3416.322280557938
 21
2123.149543488601
 31
0.0
  0
LINE
  5
84A2
330
8347
100
AcDbEntity
  8
3
 62
     0
370
    -2
100
AcDbLine
 10
3416.322280557938
 20
1903.149543488601
 30
0.0
 11
3416.322280557938
 21
1843.149543488601
 31
0.0
  0
MTEXT
  5
84A3
330
8347
100
AcDbEntity
  8
3
 62
     0
100
AcDbMText
 10
3334.284630960051
 20
1800.390769503592
 30
0.0
 40
90.0
 41
0.0
 71
     5
 72
     1
  1
\A1;100
 11
0.0000000000000001
 21
1.0
 31
0.0
 73
     1
 44
1.0
1001
ACAD
1000
MTEXTBEGIN
1070
    73
1070
     1
1070
    44
1040
1.0
1070
    74
1070
     0
1000
MTEXTEND
  0
LINE
  5
84A4
330
8347
100
AcDbEntity
  8
3
 62
     0
370
    -2
100
AcDbLine
 10
3416.322280557938
 20
2063.1495434886
 30
0.0
 11
3416.322280557938
 21
1963.149543488601
 31
0.0
  0
INSERT
  5
84A5
330
8347
100
AcDbEntity
  8
3
 62
     0
370
    -2
100
AcDbBlockReference
  2
_DotSmall
 10
3416.322280557938
 20
2063.1495434886
 30
0.0
 41
60.0
 42
60.0
 43
60.0
 50
270.0
  0
INSERT
  5
84A6
330
8347
100
AcDbEntity
  8
3
 62
     0
370
    -2
100
AcDbBlockReference
  2
_OPEN
 10
3416.322280557938
 20
1963.149543488601
 30
0.0
 41
60.0
 42
60.0
 43
60.0
 50
90.0
  0
POINT
  5
84A7
330
8347
100
AcDbEntity
  8
DEFPOINTS
 62
     0
100
AcDbPoint
 10
2720.150812799099
 20
2063.149543488601
 30
0.0
  0
POINT
  5
84A8
330
8347
100
AcDbEntity
  8
DEFPOINTS
 62
     0
100
AcDbPoint
 10
2720.150812799099
 20
1963.149543488601
 30
0.0
  0
POINT
  5
84A9
330
8347
100
AcDbEntity
  8
DEFPOINTS
 62
     0
100
AcDbPoint
 10
3416.322280557938
 20
1963.149543488601
 30
0.0
  0
ENDBLK
  5
8349
330
8347
100
AcDbEntity
  8
0
100
AcDbBlockEnd
  0
BLOCK
  5
8414
330
8412
100
AcDbEntity
  8
0
100
AcDbBlockBegin
  2
_DotSmall
 70
     0
 10
0.0
 20
0.0
 30
0.0
  3
_DotSmall
  1

  0
LWPOLYLINE
  5
8413
330
8412
100
AcDbEntity
  8
0
  6
ByBlock
 62
     0
100
AcDbPolyline
 90
        2
 70
     1
 43
0.5
 10
-0.0625
 20
0.0
 42
1.0
 10
0.0625
 20
0.0
 42
1.0
  0
ENDBLK
  5
8415
330
8412
100
AcDbEntity
  8
0
100
AcDbBlockEnd
  0
BLOCK
  5
84BA
330
84B9
100
AcDbEntity
  8
0
100
AcDbBlockBegin
  2
*D49
 70
     1
 10
0.0
 20
0.0
 30
0.0
  3
*D49
  1

  0
LINE
  5
84CE
330
84B9
100
AcDbEntity
  8
3
 62
     0
370
    -2
100
AcDbLine
 10
2750.150812799099
 20
1963.149543488601
 30
0.0
 11
3742.68768862995
 21
1963.149543488601
 31
0.0
  0
LINE
  5
84CF
330
84B9
100
AcDbEntity
  8
3
 62
     0
370
    -2
100
AcDbLine
 10
2051.1508127991
 20
4098.1495434886
 30
0.0
 11
3742.68768862995
 21
4098.1495434886
 31
0.0
  0
LINE
  5
84D0
330
84B9
100
AcDbEntity
  8
3
 62
     0
370
    -2
100
AcDbLine
 10
3712.68768862995
 20
2023.149543488601
 30
0.0
 11
3712.687688629951
 21
4038.149543488599
 31
0.0
  0
INSERT
  5
84D1
330
84B9
100
AcDbEntity
  8
3
 62
     0
370
    -2
100
AcDbBlockReference
  2
_OPEN
 10
3712.68768862995
 20
1963.149543488601
 30
0.0
 41
60.0
 42
60.0
 43
60.0
 50
270.0
  0
INSERT
  5
84D2
330
84B9
100
AcDbEntity
  8
3
 62
     0
370
    -2
100
AcDbBlockReference
  2
_OPEN
 10
3712.687688629951
 20
4098.1495434886
 30
0.0
 41
60.0
 42
60.0
 43
60.0
 50
90.0
  0
MTEXT
  5
84D3
330
84B9
100
AcDbEntity
  8
3
 62
     0
100
AcDbMText
 10
3614.116260058521
 20
3030.649543488602
 30
0.0
 40
90.0
 41
0.0
 71
     5
 72
     1
  1
\A1;(2135)
 11
0.0000000000000001
 21
1.0
 31
0.0
 73
     1
 44
1.0
1001
ACAD
1000
MTEXTBEGIN
1070
    73
1070
     1
1070
    44
1040
1.0
1070
    74
1070
     0
1000
MTEXTEND
  0
POINT
  5
84D4
330
84B9
100
AcDbEntity
  8
DEFPOINTS
 62
     0
100
AcDbPoint
 10
2720.150812799099
 20
1963.149543488601
 30
0.0
  0
POINT
  5
84D5
330
84B9
100
AcDbEntity
  8
DEFPOINTS
 62
     0
100
AcDbPoint
 10
2021.1508127991
 20
4098.149543488601
 30
0.0
  0
POINT
  5
84D6
330
84B9
100
AcDbEntity
  8
DEFPOINTS
 62
     0
100
AcDbPoint
 10
3712.687688629951
 20
4098.1495434886
 30
0.0
  0
ENDBLK
  5
84BB
330
84B9
100
AcDbEntity
  8
0
100
AcDbBlockEnd
  0
ENDSEC
  0
SECTION
  2
ENTITIES
  0
INSERT
  5
7C29
330
81F2
100
AcDbEntity
  8
0
100
AcDbBlockReference
  2
YA_N
 10
6.0
 20
5.0
 30
0.0
  0
ARC
  5
7C2B
330
81F2
100
AcDbEntity
  8
1
100
AcDbCircle
 10
2169.1508127991
 20
3304.149543488601
 30
0.0
 40
942.0
100
AcDbArc
 50
175.4944154733554
 51
265.4944154733555
  0
ARC
  5
7C2C
330
81F2
100
AcDbEntity
  8
1
100
AcDbCircle
 10
2021.1508127991
 20
3304.149543488601
 30
0.0
 40
794.0
100
AcDbArc
 50
84.65233025016116
 51
174.6523302501611
  0
ARC
  5
7C2D
330
81F2
100
AcDbEntity
  8
1
100
AcDbCircle
 10
2034.6508127991
 20
3438.649543488601
 30
0.0
 40
659.4999999999998
100
AcDbArc
 50
354.7365047969329
 51
84.73650479693297
  0
LINE
  5
7C2E
330
81F2
100
AcDbEntity
  8
1
100
AcDbLine
 10
2692.532600268385
 20
3334.149543488599
 30
0.0
 11
2775.1508127991
 21
3334.149543488599
 31
0.0
  0
LINE
  5
7C2F
330
81F2
100
AcDbEntity
  8
1
100
AcDbLine
 10
2775.150812799099
 20
2251.149543488599
 30
0.0
 11
2775.1508127991
 21
3387.1495434886
 31
0.0
  0
LINE
  5
7C30
330
81F2
100
AcDbEntity
  8
1
100
AcDbLine
 10
2775.150812799099
 20
2304.1495434886
 30
0.0
 11
2095.150812799098
 21
2365.060623311177
 31
0.0
  0
LINE
  5
7C31
330
81F2
100
AcDbEntity
  8
1
100
AcDbLine
 10
2771.150812799098
 20
2251.1495434886
 30
0.0
 11
2775.150812799099
 21
2251.149543488599
 31
0.0
  0
LINE
  5
7C32
330
81F2
100
AcDbEntity
  8
1
100
AcDbLine
 10
2771.150812799101
 20
3387.1495434886
 30
0.0
 11
2775.1508127991
 21
3387.1495434886
 31
0.0
  0
LINE
  5
7C33
330
81F2
100
AcDbEntity
  8
1
100
AcDbLine
 10
2725.150812799099
 20
2308.628299357907
 30
0.0
 11
2725.1508127991
 21
3334.149543488599
 31
0.0
  0
LINE
  5
7C34
330
81F2
100
AcDbEntity
  8
1
100
AcDbLine
 10
2771.150812799098
 20
2251.149543488599
 30
0.0
 11
2771.150812799101
 21
3387.1495434886
 31
0.0
  0
LINE
  5
7C35
330
81F2
100
AcDbEntity
  8
1
100
AcDbLine
 10
670.1508127990997
 20
2268.149543488599
 30
0.0
 11
2720.150812799099
 21
2268.149543488601
 31
0.0
  0
LINE
  5
7C36
330
81F2
100
AcDbEntity
  8
1
100
AcDbLine
 10
2720.150812799099
 20
2268.149543488601
 30
0.0
 11
2720.150812799099
 21
2168.149543488601
 31
0.0
  0
LINE
  5
7C37
330
81F2
100
AcDbEntity
  8
2
100
AcDbLine
 10
3836.343106282494
 20
3378.149543488601
 30
0.0
 11
5727.419737831798
 21
3378.149543488601
 31
0.0
  0
LINE
  5
7C38
330
81F2
100
AcDbEntity
  8
2
100
AcDbLine
 10
4921.343106282495
 20
4329.198414837271
 30
0.0
 11
4921.343106282494
 21
1963.149543488601
 31
0.0
  0
LINE
  5
7C39
330
81F2
100
AcDbEntity
  8
1
100
AcDbLine
 10
4094.343106282495
 20
2168.1495434886
 30
0.0
 11
5599.343106282496
 21
2168.1495434886
 31
0.0
1001
ACAD
1000
ASC_BOUNDS
1002
{
1070
    19
1005
0
1005
0
1002
}
  0
LINE
  5
7C3A
330
81F2
100
AcDbEntity
  8
1
100
AcDbLine
 10
4094.343106282495
 20
2268.1495434886
 30
0.0
 11
5599.343106282497
 21
2268.1495434886
 31
0.0
  0
LINE
  5
7C3B
330
81F2
100
AcDbEntity
  8
1
100
AcDbLine
 10
5546.343106282497
 20
4098.1495434886
 30
0.0
 11
5546.343106282499
 21
3378.149543488601
 31
0.0
  0
LINE
  5
7C3C
330
81F2
100
AcDbEntity
  8
2
100
AcDbLine
 10
2095.150812799098
 20
4141.194979180116
 30
0.0
 11
2095.150812799097
 21
1963.149543488601
 31
0.0
  0
LINE
  5
7C3D
330
81F2
100
AcDbEntity
  8
2
100
AcDbLine
 10
2834.766795296728
 20
3378.1495434886
 30
0.0
 11
1162.635896742891
 21
3378.149543488601
 31
0.0
  0
LINE
  5
7C3E
330
81F2
100
AcDbEntity
  8
1
100
AcDbLine
 10
670.1508127990997
 20
2168.149543488601
 30
0.0
 11
2720.150812799099
 21
2168.149543488601
 31
0.0
1001
ACAD
1000
ASC_BOUNDS
1002
{
1070
    19
1005
0
1002
}
  0
INSERT
  5
7C3F
330
81F2
100
AcDbEntity
  8
0
100
AcDbBlockReference
  2
YA_N
 10
-1637.209838160516
 20
-1405.432827243363
 30
0.0
 41
25.0
 42
25.0
 43
25.0
  0
ARC
  5
7C41
330
81F2
100
AcDbEntity
  8
1
100
AcDbCircle
 10
945.1508127990994
 20
2503.1495434886
 30
0.0
 40
185.0
100
AcDbArc
 50
287.9452509999999
 51
252.054749
  0
LINE
  5
7C42
330
81F2
100
AcDbEntity
  8
2
100
AcDbLine
 10
945.1508127990994
 20
2766.965217488601
 30
0.0
 11
945.1508127990988
 21
1963.149543488601
 31
0.0
  0
LINE
  5
7C43
330
81F2
100
AcDbEntity
  8
1
100
AcDbLine
 10
1002.1508277991
 20
2327.1495434886
 30
0.0
 11
888.1508127990993
 21
2327.1495434886
 31
0.0
  0
LINE
  5
7C44
330
81F2
100
AcDbEntity
  8
1
100
AcDbLine
 10
1107.1508277991
 20
2398.4085764886
 30
0.0
 11
1107.1508277991
 21
2323.1495434886
 31
0.0
  0
LINE
  5
7C48
330
81F2
100
AcDbEntity
  8
1
100
AcDbLine
 10
1047.6508277991
 20
2328.2981024886
 30
0.0
 11
1038.1441137991
 21
2343.2207104886
 31
0.0
  0
LINE
  5
7C49
330
81F2
100
AcDbEntity
  8
1
100
AcDbLine
 10
1047.6508277991
 20
2340.1495434886
 30
0.0
 11
1047.6508277991
 21
2323.1495434886
 31
0.0
  0
LINE
  5
7C4B
330
81F2
100
AcDbEntity
  8
1
100
AcDbLine
 10
1104.1508277991
 20
2343.1495434886
 30
0.0
 11
1050.6508277991
 21
2343.1495434886
 31
0.0
  0
ARC
  5
7C4D
330
81F2
100
AcDbEntity
  8
1
100
AcDbCircle
 10
1104.1508277991
 20
2340.1495434886
 30
0.0
 40
3.0
100
AcDbArc
 50
0.0
 51
90.0
  0
LINE
  5
7C4F
330
81F2
100
AcDbEntity
  8
1
100
AcDbLine
 10
1055.974741799099
 20
2343.1495434886
 30
0.0
 11
1050.7949927991
 21
2351.2801434886
 31
0.0
  0
ARC
  5
7C50
330
81F2
100
AcDbEntity
  8
1
100
AcDbCircle
 10
1050.6508277991
 20
2340.1495434886
 30
0.0
 40
3.0
100
AcDbArc
 50
90.0
 51
180.0
  0
LINE
  5
7C53
330
81F2
100
AcDbEntity
  8
1
100
AcDbLine
 10
1107.1508277991
 20
2398.4085764886
 30
0.0
 11
1100.766855799099
 21
2403.106330488601
 31
0.0
  0
LINE
  5
7C56
330
81F2
100
AcDbEntity
  8
1
100
AcDbLine
 10
783.1508127990994
 20
2398.4085764886
 30
0.0
 11
783.1508127990994
 21
2323.1495434886
 31
0.0
  0
LINE
  5
7C57
330
81F2
100
AcDbEntity
  8
1
100
AcDbLine
 10
786.1508127990994
 20
2343.1495434886
 30
0.0
 11
839.6508127990994
 21
2343.1495434886
 31
0.0
  0
LINE
  5
7C58
330
81F2
100
AcDbEntity
  8
1
100
AcDbLine
 10
842.6508127990993
 20
2328.2981024886
 30
0.0
 11
852.1575267990993
 21
2343.2207104886
 31
0.0
  0
LINE
  5
7C5B
330
81F2
100
AcDbEntity
  8
1
100
AcDbLine
 10
842.6508127990993
 20
2323.1495434886
 30
0.0
 11
842.6508127990993
 21
2340.1495434886
 31
0.0
  0
LINE
  5
7C5E
330
81F2
100
AcDbEntity
  8
1
100
AcDbLine
 10
834.3268987991001
 20
2343.1495434886
 30
0.0
 11
839.5066477990999
 21
2351.2801434886
 31
0.0
  0
ARC
  5
7C5F
330
81F2
100
AcDbEntity
  8
1
100
AcDbCircle
 10
839.6508127990994
 20
2340.1495434886
 30
0.0
 40
3.0
100
AcDbArc
 50
0.0
 51
90.0
  0
ARC
  5
7C62
330
81F2
100
AcDbEntity
  8
1
100
AcDbCircle
 10
786.1508127990994
 20
2340.1495434886
 30
0.0
 40
3.0
100
AcDbArc
 50
90.0
 51
180.0
  0
LINE
  5
7C63
330
81F2
100
AcDbEntity
  8
1
100
AcDbLine
 10
783.1508127990994
 20
2398.4085764886
 30
0.0
 11
789.5347847991001
 21
2403.106330488601
 31
0.0
  0
LINE
  5
7C64
330
81F2
100
AcDbEntity
  8
2
100
AcDbLine
 10
694.724398673556
 20
2503.1495434886
 30
0.0
 11
1161.230345445056
 21
2503.1495434886
 31
0.0
  0
LINE
  5
7C65
330
81F2
100
AcDbEntity
  8
1
100
AcDbLine
 10
734.7347997733343
 20
2323.149543488599
 30
0.0
 11
875.1508127990994
 21
2323.149543488599
 31
0.0
  0
LINE
  5
7C66
330
81F2
100
AcDbEntity
  8
1
100
AcDbLine
 10
1170.150812799099
 20
2268.149543488599
 30
0.0
 11
1155.366064012766
 21
2323.149543488599
 31
0.0
  0
LINE
  5
7C67
330
81F2
100
AcDbEntity
  8
1
100
AcDbLine
 10
720.1508127990994
 20
2268.149543488599
 30
0.0
 11
734.7347997733343
 21
2323.149543488599
 31
0.0
  0
LINE
  5
7C69
330
81F2
100
AcDbEntity
  8
1
100
AcDbLine
 10
875.1508127990994
 20
2313.1495434886
 30
0.0
 11
1015.150812799099
 21
2313.1495434886
 31
0.0
  0
LINE
  5
7C6A
330
81F2
100
AcDbEntity
  8
1
100
AcDbLine
 10
875.1508127990994
 20
2323.149543488599
 30
0.0
 11
875.1508127990994
 21
2313.1495434886
 31
0.0
  0
LINE
  5
7C6B
330
81F2
100
AcDbEntity
  8
1
100
AcDbLine
 10
1015.1508127991
 20
2323.149543488599
 30
0.0
 11
1015.1508127991
 21
2313.1495434886
 31
0.0
  0
LINE
  5
7C6C
330
81F2
100
AcDbEntity
  8
1
100
AcDbLine
 10
1015.150812799099
 20
2323.149543488599
 30
0.0
 11
1155.366064012766
 21
2323.149543488599
 31
0.0
  0
CIRCLE
  5
7C6F
330
81F2
100
AcDbEntity
  8
1
100
AcDbCircle
 10
2095.150812799098
 20
3378.1495434886
 30
0.0
 40
165.0999999999999
  0
CIRCLE
  5
7C70
330
81F2
100
AcDbEntity
  8
1
100
AcDbCircle
 10
945.1508127990994
 20
2503.1495434886
 30
0.0
 40
114.3
  0
LINE
  5
7C71
330
81F2
100
AcDbEntity
  8
1
100
AcDbLine
 10
670.1508127991001
 20
2063.149543488601
 30
0.0
 11
2720.150812799099
 21
2063.149543488601
 31
0.0
1001
ACAD
1000
ASC_BOUNDS
1002
{
1070
    19
1005
0
1002
}
  0
LINE
  5
7C72
330
81F2
100
AcDbEntity
  8
1
100
AcDbLine
 10
670.1508127991001
 20
1963.149543488601
 30
0.0
 11
2720.150812799099
 21
1963.149543488601
 31
0.0
  0
LINE
  5
7C73
330
81F2
100
AcDbEntity
  8
1
100
AcDbLine
 10
2720.150812799099
 20
2063.149543488601
 30
0.0
 11
2720.150812799099
 21
1963.149543488601
 31
0.0
  0
POINT
  5
7C74
330
81F2
100
AcDbEntity
  8
1
100
AcDbPoint
 10
2720.150812799099
 20
2063.149543488601
 30
0.0
  0
POINT
  5
7C75
330
81F2
100
AcDbEntity
  8
1
100
AcDbPoint
 10
2720.150812799099
 20
2063.149543488601
 30
0.0
  0
LINE
  5
7C76
330
81F2
100
AcDbEntity
  8
1
100
AcDbLine
 10
4094.343106282495
 20
2063.149543488601
 30
0.0
 11
5599.343106282496
 21
2063.149543488601
 31
0.0
1001
ACAD
1000
ASC_BOUNDS
1002
{
1070
    19
1005
0
1005
0
1002
}
  0
POINT
  5
7C77
330
81F2
100
AcDbEntity
  8
1
100
AcDbPoint
 10
2720.150812799099
 20
2063.149543488601
 30
0.0
  0
POINT
  5
7C78
330
81F2
100
AcDbEntity
  8
1
100
AcDbPoint
 10
2720.150812799099
 20
2063.149543488601
 30
0.0
  0
INSERT
  5
7C79
330
81F2
100
AcDbEntity
  8
0
100
AcDbBlockReference
  2
YA_N
 10
-1144.893563079054
 20
-989.0222135336152
 30
0.0
 41
25.0
 42
25.0
 43
25.0
  0
DIMENSION
  5
7C7B
330
81F2
100
AcDbEntity
  8
3
100
AcDbDimension
  2
*D4
 10
2976.310909793243
 20
3334.149543488599
 30
0.0
 11
2916.310909793243
 21
2819.1495434886
 31
0.0
 12
607.5256978222605
 22
2750.089240652855
 32
0.0
 71
     5
 42
-1.0
  3
Standard
100
AcDbAlignedDimension
 13
2775.150812799099
 23
2304.1495434886
 33
0.0
 14
2775.1508127991
 24
3334.149543488599
 34
0.0
 50
269.9999999999999
100
AcDbRotatedDimension
1001
ACAD
1000
DSTYLE
1002
{
1070
    40
1040
30.0
1002
}
  0
DIMENSION
  5
7C7C
330
81F2
100
AcDbEntity
  8
3
100
AcDbDimension
  2
*D5
 10
3177.112955252396
 20
3378.1495434886
 30
0.0
 11
3117.112955252396
 21
2841.149543488599
 31
0.0
 12
607.5256978222605
 22
2750.089240652855
 32
0.0
 71
     5
 42
-1.0
  3
Standard
100
AcDbAlignedDimension
 13
2775.150812799099
 23
2304.1495434886
 33
0.0
 14
2834.766795296728
 24
3378.1495434886
 34
0.0
 50
269.9999999999999
100
AcDbRotatedDimension
1001
ACAD
1000
DSTYLE
1002
{
1070
    40
1040
30.0
1002
}
  0
POINT
  5
7C7D
330
81F2
100
AcDbEntity
  8
1
100
AcDbPoint
 10
2720.150812799099
 20
2063.149543488601
 30
0.0
  0
POINT
  5
7C7E
330
81F2
100
AcDbEntity
  8
1
100
AcDbPoint
 10
2720.150812799099
 20
2063.149543488601
 30
0.0
  0
DIMENSION
  5
7C7F
330
81F2
100
AcDbEntity
  8
3
100
AcDbDimension
  2
*D6
 10
2095.150812799098
 20
4304.053760182649
 30
0.0
 11
2435.150812799099
 21
4364.053760182651
 31
0.0
 12
607.5256978222605
 22
2750.089240652855
 32
0.0
 71
     5
 42
-1.0
  3
Standard
100
AcDbAlignedDimension
 13
2775.1508127991
 23
3354.029097341083
 33
0.0
 14
2095.150812799098
 24
4141.194979180116
 34
0.0
100
AcDbRotatedDimension
1001
ACAD
1000
DSTYLE
1002
{
1070
    40
1040
30.0
1002
}
  0
DIMENSION
  5
7C80
330
81F2
100
AcDbEntity
  8
3
100
AcDbDimension
  2
*D7
 10
1230.606696383071
 20
4303.596060247735
 30
0.0
 11
1662.878754591084
 21
4363.596060247735
 31
0.0
 12
607.5256978222605
 22
2750.089240652855
 32
0.0
  1
868
 71
     5
 42
-1.0
  3
Standard
100
AcDbAlignedDimension
 13
2095.150812799098
 23
4141.194979180116
 33
0.0
 14
1230.606696383071
 24
3378.149543488599
 34
0.0
100
AcDbRotatedDimension
1001
ACAD
1000
DSTYLE
1002
{
1070
    40
1040
30.0
1002
}
  0
LINE
  5
7C81
330
81F2
100
AcDbEntity
  8
1
100
AcDbLine
 10
5546.343106282497
 20
3378.149543488601
 30
0.0
 11
5546.343106282496
 21
2304.149543488601
 31
0.0
  0
LINE
  5
7C82
330
81F2
100
AcDbEntity
  8
1
100
AcDbLine
 10
4296.343106282495
 20
4098.149543488601
 30
0.0
 11
4296.343106282495
 21
3378.149543488601
 31
0.0
  0
LINE
  5
7C83
330
81F2
100
AcDbEntity
  8
1
100
AcDbLine
 10
4296.343106282495
 20
3378.149543488601
 30
0.0
 11
4296.343106282495
 21
2304.149543488601
 31
0.0
  0
LINE
  5
7C84
330
81F2
100
AcDbEntity
  8
1
100
AcDbLine
 10
5701.343106282497
 20
3342.349543488602
 30
0.0
 11
5701.343106282497
 21
3212.349543488601
 31
0.0
  0
LINE
  5
7C85
330
81F2
100
AcDbEntity
  8
1
100
AcDbLine
 10
5564.343106282497
 20
3352.349543488602
 30
0.0
 11
5564.343106282496
 21
3202.349543488602
 31
0.0
  0
LINE
  5
7C86
330
81F2
100
AcDbEntity
  8
1
100
AcDbLine
 10
5564.343106282496
 20
3352.349543488602
 30
0.0
 11
5613.643106282498
 21
3352.349543488602
 31
0.0
  0
LINE
  5
7C87
330
81F2
100
AcDbEntity
  8
1
100
AcDbLine
 10
5564.343106282496
 20
3202.349543488602
 30
0.0
 11
5613.643106282498
 21
3202.349543488602
 31
0.0
  0
ARC
  5
7C88
330
81F2
100
AcDbEntity
  8
1
100
AcDbCircle
 10
5691.343106282499
 20
3342.349543488602
 30
0.0
 40
10.0
100
AcDbArc
 50
0.0000000000006514
 51
90.0
  0
ARC
  5
7C89
330
81F2
100
AcDbEntity
  8
1
100
AcDbCircle
 10
5691.343106282498
 20
3212.349543488601
 30
0.0
 40
10.0
100
AcDbArc
 50
270.0
 51
0.0000000000006514
  0
LINE
  5
7C8A
330
81F2
100
AcDbEntity
  8
1
100
AcDbLine
 10
5613.643106282497
 20
3352.349543488602
 30
0.0
 11
5691.343106282495
 21
3352.349543488602
 31
0.0
  0
LINE
  5
7C8B
330
81F2
100
AcDbEntity
  8
1
100
AcDbLine
 10
5613.643106282498
 20
3202.349543488602
 30
0.0
 11
5691.343106282498
 21
3202.349543488602
 31
0.0
  0
LINE
  5
7C8C
330
81F2
100
AcDbEntity
  8
1
100
AcDbLine
 10
3998.343106282497
 20
3543.249543488601
 30
0.0
 11
4108.343106282496
 21
3543.249543488601
 31
0.0
  0
LINE
  5
7C8D
330
81F2
100
AcDbEntity
  8
1
100
AcDbLine
 10
3998.343106282497
 20
3213.049543488601
 30
0.0
 11
4108.343106282496
 21
3213.049543488601
 31
0.0
  0
LINE
  5
7C8E
330
81F2
100
AcDbEntity
  8
1
100
AcDbLine
 10
3998.343106282497
 20
2617.4495434886
 30
0.0
 11
4108.343106282496
 21
2617.4495434886
 31
0.0
  0
LINE
  5
7C8F
330
81F2
100
AcDbEntity
  8
1
100
AcDbLine
 10
3998.343106282497
 20
2388.8495434886
 30
0.0
 11
4108.343106282496
 21
2388.8495434886
 31
0.0
  0
LINE
  5
7C90
330
81F2
100
AcDbEntity
  8
1
100
AcDbLine
 10
3998.343106282497
 20
3543.249543488601
 30
0.0
 11
3998.343106282497
 21
2388.8495434886
 31
0.0
  0
LINE
  5
7C91
330
81F2
100
AcDbEntity
  8
1
100
AcDbLine
 10
4108.343106282496
 20
3543.249543488601
 30
0.0
 11
4108.343106282495
 21
2388.8495434886
 31
0.0
  0
LINE
  5
7C92
330
81F2
100
AcDbEntity
  8
1
100
AcDbLine
 10
3861.343106282491
 20
3658.149543488601
 30
0.0
 11
3861.343106282506
 21
2283.1495434886
 31
0.0
  0
LINE
  5
7C93
330
81F2
100
AcDbEntity
  8
1
100
AcDbLine
 10
3861.343106282491
 20
3658.149543488601
 30
0.0
 11
4153.843106282491
 21
3658.149543488601
 31
0.0
  0
LINE
  5
7C94
330
81F2
100
AcDbEntity
  8
1
100
AcDbLine
 10
3861.3431062825
 20
2283.1495434886
 30
0.0
 11
4153.8431062825
 21
2283.1495434886
 31
0.0
  0
LINE
  5
7C95
330
81F2
100
AcDbEntity
  8
1
100
AcDbLine
 10
4153.843106282491
 20
3658.149543488602
 30
0.0
 11
4153.843106282491
 21
3638.149543488601
 31
0.0
  0
LINE
  5
7C96
330
81F2
100
AcDbEntity
  8
1
100
AcDbLine
 10
4153.8431062825
 20
2303.1495434886
 30
0.0
 11
4153.8431062825
 21
2283.149543488601
 31
0.0
  0
POINT
  5
7C97
330
81F2
100
AcDbEntity
  8
1
100
AcDbPoint
 10
5701.3431062825
 20
3342.349543488602
 30
0.0
  0
LINE
  5
7C98
330
81F2
100
AcDbEntity
  8
2
100
AcDbLine
 10
2095.1508127991
 20
6519.585604715054
 30
0.0
 11
2095.1508127991
 21
4831.5977971445
 31
0.0
  0
LINE
  5
7C99
330
81F2
100
AcDbEntity
  8
2
100
AcDbLine
 10
1609.49624714682
 20
5925.670042865874
 30
0.0
 11
2574.076003181686
 21
5925.670042865873
 31
0.0
  0
INSERT
  5
7C9A
330
81F2
100
AcDbEntity
  8
0
100
AcDbBlockReference
  2
YA_N
 10
3439.312525519781
 20
-2261.498311600258
 30
0.0
  0
LINE
  5
7C9C
330
81F2
100
AcDbEntity
  8
1
100
AcDbLine
 10
4094.343106282495
 20
1963.149543488601
 30
0.0
 11
5599.343106282497
 21
1963.149543488601
 31
0.0
1001
ACAD
1000
ASC_BOUNDS
1002
{
1070
    19
1002
}
  0
LINE
  5
7C9D
330
81F2
100
AcDbEntity
  8
1
100
AcDbLine
 10
5599.343106282497
 20
2268.1495434886
 30
0.0
 11
5599.343106282496
 21
2168.1495434886
 31
0.0
  0
LINE
  5
7C9E
330
81F2
100
AcDbEntity
  8
1
100
AcDbLine
 10
4094.343106282495
 20
2268.1495434886
 30
0.0
 11
4094.343106282495
 21
2168.1495434886
 31
0.0
  0
LINE
  5
7C9F
330
81F2
100
AcDbEntity
  8
1
100
AcDbLine
 10
4229.043106282497
 20
3345.949543488602
 30
0.0
 11
4163.343106282496
 21
3345.949543488602
 31
0.0
  0
LINE
  5
7CA0
330
81F2
100
AcDbEntity
  8
1
100
AcDbLine
 10
4229.043106282495
 20
3195.949543488601
 30
0.0
 11
4163.343106282495
 21
3195.949543488601
 31
0.0
  0
LINE
  5
7CA1
330
81F2
100
AcDbEntity
  8
1
100
AcDbLine
 10
4278.343106282496
 20
3345.949543488602
 30
0.0
 11
4278.343106282497
 21
3195.949543488601
 31
0.0
  0
LINE
  5
7CA2
330
81F2
100
AcDbEntity
  8
1
100
AcDbLine
 10
4278.343106282497
 20
3195.949543488601
 30
0.0
 11
4229.043106282495
 21
3195.949543488601
 31
0.0
  0
LINE
  5
7CA3
330
81F2
100
AcDbEntity
  8
1
100
AcDbLine
 10
4278.343106282497
 20
3345.9495434886
 30
0.0
 11
4229.043106282495
 21
3345.949543488602
 31
0.0
  0
LINE
  5
7CA4
330
81F2
100
AcDbEntity
  8
1
100
AcDbLine
 10
4153.343106282497
 20
3335.949543488601
 30
0.0
 11
4153.343106282497
 21
3205.949543488601
 31
0.0
  0
ARC
  5
7CA5
330
81F2
100
AcDbEntity
  8
1
100
AcDbCircle
 10
4163.343106282495
 20
3205.949543488601
 30
0.0
 40
10.0
100
AcDbArc
 50
179.9999999999992
 51
270.0
  0
ARC
  5
7CA6
330
81F2
100
AcDbEntity
  8
1
100
AcDbCircle
 10
4163.343106282493
 20
3335.949543488601
 30
0.0
 40
10.0
100
AcDbArc
 50
90.0
 51
179.9999999999992
  0
POINT
  5
7CA7
330
81F2
100
AcDbEntity
  8
1
100
AcDbPoint
 10
4153.343106282493
 20
3335.949543488601
 30
0.0
  0
LINE
  5
7CA8
330
81F2
100
AcDbEntity
  8
1
100
AcDbLine
 10
4118.343106282496
 20
3410.649543488601
 30
0.0
 11
4296.343106282495
 21
3410.649543488601
 31
0.0
  0
LINE
  5
7CA9
330
81F2
100
AcDbEntity
  8
1
100
AcDbLine
 10
4118.343106282496
 20
3345.649543488601
 30
0.0
 11
4160.912057126266
 21
3345.649543488601
 31
0.0
  0
LINE
  5
7CAA
330
81F2
100
AcDbEntity
  8
1
100
AcDbLine
 10
4118.343106282496
 20
3410.649543488601
 30
0.0
 11
4118.343106282496
 21
3345.649543488601
 31
0.0
  0
LINE
  5
7CAB
330
81F2
100
AcDbEntity
  8
1
100
AcDbLine
 10
4108.343106282496
 20
3408.149543488601
 30
0.0
 11
4118.343106282496
 21
3408.149543488601
 31
0.0
  0
LINE
  5
7CAC
330
81F2
100
AcDbEntity
  8
1
100
AcDbLine
 10
4108.343106282496
 20
3348.149543488601
 30
0.0
 11
4118.343106282496
 21
3348.149543488601
 31
0.0
  0
LINE
  5
7CB0
330
81F2
100
AcDbEntity
  8
1
100
AcDbLine
 10
670.1508127990997
 20
2268.149543488601
 30
0.0
 11
670.1508127990997
 21
2168.149543488601
 31
0.0
  0
LINE
  5
7CB1
330
81F2
100
AcDbEntity
  8
1
100
AcDbLine
 10
670.1508127991001
 20
2063.149543488601
 30
0.0
 11
670.1508127991001
 21
1963.149543488601
 31
0.0
  0
POINT
  5
7CB2
330
81F2
100
AcDbEntity
  8
1
100
AcDbPoint
 10
2720.150812799099
 20
2063.149543488601
 30
0.0
  0
POINT
  5
7CB3
330
81F2
100
AcDbEntity
  8
1
100
AcDbPoint
 10
2720.150812799099
 20
2168.149543488601
 30
0.0
  0
POINT
  5
7CB4
330
81F2
100
AcDbEntity
  8
1
100
AcDbPoint
 10
2720.150812799099
 20
2063.149543488601
 30
0.0
  0
LINE
  5
7CB8
330
81F2
100
AcDbEntity
  8
1
100
AcDbLine
 10
670.1508127991001
 20
5098.670042865875
 30
0.0
 11
2720.1508127991
 21
5098.670042865873
 31
0.0
  0
LINE
  5
7CB9
330
81F2
100
AcDbEntity
  8
1
100
AcDbLine
 10
1470.1508127991
 20
6603.670042865875
 30
0.0
 11
2720.1508127991
 21
6603.670042865873
 31
0.0
  0
LINE
  5
7CBA
330
81F2
100
AcDbEntity
  8
1
100
AcDbLine
 10
2720.1508127991
 20
6603.670042865873
 30
0.0
 11
2720.1508127991
 21
5098.670042865873
 31
0.0
  0
LINE
  5
7CBB
330
81F2
100
AcDbEntity
  8
1
100
AcDbLine
 10
670.1508127991001
 20
5948.670042865877
 30
0.0
 11
670.1508127991001
 21
5098.670042865875
 31
0.0
  0
LINE
  5
7CBC
330
81F2
100
AcDbEntity
  8
1
100
AcDbLine
 10
1470.1508127991
 20
6603.670042865875
 30
0.0
 11
1470.1508127991
 21
6550.670042865874
 31
0.0
  0
LINE
  5
7CBD
330
81F2
100
AcDbEntity
  8
1
100
AcDbLine
 10
670.1508127991001
 20
5948.670042865875
 30
0.0
 11
1227.1508127991
 21
5948.670042865875
 31
0.0
  0
LINE
  5
7CBE
330
81F2
100
AcDbEntity
  8
2
100
AcDbLine
 10
945.1508127990994
 20
5842.705406554247
 30
0.0
 11
945.1508127990994
 21
4833.972161775567
 31
0.0
  0
DIMENSION
  5
7CBF
330
81F2
100
AcDbEntity
  8
3
100
AcDbDimension
  2
*D8
 10
2720.1508127991
 20
6824.973980093592
 30
0.0
 11
2095.1508127991
 21
6824.973980093592
 31
0.0
 12
607.5256978222605
 22
2227.638443504635
 32
0.0
 70
   128
 71
     5
 42
-1.0
  3
Standard
100
AcDbAlignedDimension
 13
1470.1508127991
 23
6603.670042865875
 33
0.0
 14
2720.1508127991
 24
6603.670042865873
 34
0.0
100
AcDbRotatedDimension
1001
ACAD
1000
DSTYLE
1002
{
1070
    40
1040
30.0
1002
}
  0
DIMENSION
  5
7CC1
330
81F2
100
AcDbEntity
  8
3
100
AcDbDimension
  2
*D10
 10
511.4679841412835
 20
5098.670042865875
 30
0.0
 11
511.4679841412835
 21
5523.670042865875
 31
0.0
 70
   128
 71
     5
 42
-1.0
  3
Standard
100
AcDbAlignedDimension
 13
670.1508127991001
 23
5948.670042865877
 33
0.0
 14
670.1508127991001
 24
5098.670042865875
 34
0.0
 50
90.0
100
AcDbRotatedDimension
1001
ACAD
1000
DSTYLE
1002
{
1070
    40
1040
30.0
1002
}
  0
DIMENSION
  5
7CC2
330
81F2
100
AcDbEntity
  8
3
100
AcDbDimension
  2
*D11
 10
3118.794950808035
 20
5098.670042865873
 30
0.0
 11
3058.794950808035
 21
5851.170042865874
 31
0.0
 12
607.5256978222605
 22
2227.638443504635
 32
0.0
 71
     5
 42
-1.0
  3
Standard
100
AcDbAlignedDimension
 13
2720.1508127991
 23
6603.670042865873
 33
0.0
 14
2720.1508127991
 24
5098.670042865873
 34
0.0
 50
90.0
100
AcDbRotatedDimension
1001
ACAD
1000
DSTYLE
1002
{
1070
    40
1040
30.0
1002
}
  0
DIMENSION
  5
7CC6
330
81F2
100
AcDbEntity
  8
3
100
AcDbDimension
  2
*D15
 10
5546.343106282497
 20
4352.144294910529
 30
0.0
 11
4921.343106282495
 21
4412.144294910529
 31
0.0
 12
37.23848520900356
 22
2750.089240652855
 32
0.0
 71
     5
 42
-1.0
  3
Standard
100
AcDbAlignedDimension
 13
4296.343106282495
 23
4072.463861142235
 33
0.0
 14
5546.343106282497
 24
4069.185308946779
 34
0.0
100
AcDbRotatedDimension
1001
ACAD
1000
DSTYLE
1002
{
1070
    40
1040
30.0
1002
}
  0
DIMENSION
  5
7CC7
330
81F2
100
AcDbEntity
  8
3
100
AcDbDimension
  2
*D16
 10
5890.711326653807
 20
3908.149543488601
 30
0.0
 11
5830.711326653807
 21
3378.149543488601
 31
0.0
 12
37.23848520900356
 22
2750.089240652855
 32
0.0
  1
\U+03C6<>
 71
     5
 42
-1.0
  3
Standard
100
AcDbAlignedDimension
 13
5551.843106282497
 23
2848.149543488601
 33
0.0
 14
5551.843106282497
 24
3908.149543488601
 34
0.0
 50
90.0
100
AcDbRotatedDimension
1001
ACAD
1000
DSTYLE
1002
{
1070
    40
1040
30.0
1002
}
  0
LINE
  5
7CC8
330
81F2
100
AcDbEntity
  8
2
100
AcDbLine
 10
3831.819195112722
 20
2503.1495434886
 30
0.0
 11
4436.713584253999
 21
2503.1495434886
 31
0.0
  0
ARC
  5
7CC9
330
81F2
100
AcDbEntity
  8
1
100
AcDbCircle
 10
2095.150812799098
 20
3378.1495434886
 30
0.0
 40
280.0
100
AcDbArc
 50
287.0299834154885
 51
112.6559573314276
  0
ARC
  5
7CCA
330
81F2
100
AcDbEntity
  8
1
100
AcDbCircle
 10
945.1508127990994
 20
2503.1495434886
 30
0.0
 40
220.0
100
AcDbArc
 50
112.6559573314276
 51
287.0299834154885
  0
LINE
  5
7CCB
330
81F2
100
AcDbEntity
  8
1
100
AcDbLine
 10
1987.29571356841
 20
3636.543191959182
 30
0.0
 11
860.4075205464162
 21
2706.173124429771
 31
0.0
  0
LINE
  5
7CCC
330
81F2
100
AcDbEntity
  8
1
100
AcDbLine
 10
2177.155002999696
 20
3110.427088715856
 30
0.0
 11
1009.582676528141
 21
2292.796186167157
 31
0.0
  0
LINE
  5
7CCD
330
81F2
100
AcDbEntity
  8
1
100
AcDbLine
 10
2032.704309542995
 20
3530.984239258525
 30
0.0
 11
901.9186182371822
 21
2608.958179021625
 31
0.0
  0
LINE
  5
7CCE
330
81F2
100
AcDbEntity
  8
1
100
AcDbLine
 10
2144.691742120197
 20
3220.65761886387
 30
0.0
 11
979.4483792521678
 21
2394.116672594555
 31
0.0
  0
INSERT
  5
7CCF
330
81F2
100
AcDbEntity
  8
0
100
AcDbBlockReference
  2
YA_N
 10
742.6405419924267
 20
-7350.772430041375
 30
0.0
  0
INSERT
  5
7CD1
330
81F2
100
AcDbEntity
  8
0
100
AcDbBlockReference
  2
YA_N
 10
2.995684825677016
 20
-7626.802696743742
 30
0.0
 41
20.0
 42
20.0
 43
20.0
  0
INSERT
  5
7CD3
330
81F2
100
AcDbEntity
  8
0
100
AcDbBlockReference
  2
YA_N
 10
699.9059132844049
 20
-7054.118742438055
 30
0.0
 41
20.0
 42
20.0
 43
20.0
  0
INSERT
  5
7CD5
330
81F2
100
AcDbEntity
  8
0
100
AcDbBlockReference
  2
YA_N
 10
814.1254386385663
 20
-7130.460452277301
 30
0.0
 41
20.0
 42
20.0
 43
20.0
  0
ARC
  5
7CD7
330
81F2
100
AcDbEntity
  8
1
100
AcDbCircle
 10
2095.150812799098
 20
3378.1495434886
 30
0.0
 40
599.0
100
AcDbArc
 50
355.7875009220854
 51
0.0
  0
CIRCLE
  5
7CD8
330
81F2
100
AcDbEntity
  8
1
100
AcDbCircle
 10
2095.150812799098
 20
3378.1495434886
 30
0.0
 40
530.0
  0
CIRCLE
  5
7CD9
330
81F2
100
AcDbEntity
  8
1
100
AcDbCircle
 10
2095.150812799098
 20
3378.1495434886
 30
0.0
 40
580.0
  0
LINE
  5
7CDA
330
81F2
100
AcDbEntity
  8
1
100
AcDbLine
 10
5599.343106282496
 20
2063.149543488601
 30
0.0
 11
5599.343106282496
 21
1963.149543488601
 31
0.0
  0
LINE
  5
7CDB
330
81F2
100
AcDbEntity
  8
1
100
AcDbLine
 10
4094.343106282495
 20
2063.149543488601
 30
0.0
 11
4094.343106282495
 21
1963.149543488601
 31
0.0
  0
LINE
  5
7CDC
330
81F2
100
AcDbEntity
  8
1
100
AcDbLine
 10
725.1508127990993
 20
4865.670042865875
 30
0.0
 11
2375.150812799098
 21
4865.670042865873
 31
0.0
  0
LINE
  5
7CDD
330
81F2
100
AcDbEntity
  8
1
100
AcDbLine
 10
725.1508127990993
 20
5185.670042865876
 30
0.0
 11
2375.150812799098
 21
5185.670042865873
 31
0.0
  0
LINE
  5
7CDE
330
81F2
100
AcDbEntity
  8
1
100
AcDbLine
 10
2375.150812799098
 20
4865.670042865873
 30
0.0
 11
2375.150812799098
 21
5185.670042865873
 31
0.0
  0
LINE
  5
7CDF
330
81F2
100
AcDbEntity
  8
1
100
AcDbLine
 10
725.1508127990993
 20
4865.670042865875
 30
0.0
 11
725.1508127990993
 21
5185.670042865876
 31
0.0
  0
LINE
  5
7CE0
330
81F2
100
AcDbEntity
  8
1
100
AcDbLine
 10
830.850812799099
 20
5030.670042865875
 30
0.0
 11
830.850812799099
 21
5140.670042865875
 31
0.0
  0
LINE
  5
7CE1
330
81F2
100
AcDbEntity
  8
1
100
AcDbLine
 10
1059.450812799099
 20
5030.670042865875
 30
0.0
 11
1059.450812799099
 21
5140.670042865874
 31
0.0
  0
LINE
  5
7CE2
330
81F2
100
AcDbEntity
  8
1
100
AcDbLine
 10
2260.250812799099
 20
5030.670042865875
 30
0.0
 11
2260.250812799099
 21
5140.670042865873
 31
0.0
  0
LINE
  5
7CE3
330
81F2
100
AcDbEntity
  8
1
100
AcDbLine
 10
1930.050812799098
 20
5030.670042865875
 30
0.0
 11
1930.050812799098
 21
5140.670042865873
 31
0.0
  0
LINE
  5
7CE4
330
81F2
100
AcDbEntity
  8
1
100
AcDbLine
 10
830.850812799099
 20
5140.670042865875
 30
0.0
 11
1059.450812799099
 21
5140.670042865875
 31
0.0
  0
LINE
  5
7CE5
330
81F2
100
AcDbEntity
  8
1
100
AcDbLine
 10
830.850812799099
 20
5030.670042865875
 30
0.0
 11
1059.450812799099
 21
5030.670042865875
 31
0.0
  0
LINE
  5
7CE6
330
81F2
100
AcDbEntity
  8
1
100
AcDbLine
 10
1930.050812799098
 20
5030.670042865875
 30
0.0
 11
2260.250812799099
 21
5030.670042865875
 31
0.0
  0
LINE
  5
7CE7
330
81F2
100
AcDbEntity
  8
1
100
AcDbLine
 10
1930.050812799098
 20
5140.670042865873
 30
0.0
 11
2260.250812799099
 21
5140.670042865873
 31
0.0
  0
LINE
  5
7CE8
330
81F2
100
AcDbEntity
  8
1
100
AcDbLine
 10
1127.650812799099
 20
5707.170042865875
 30
0.0
 11
1127.650812799099
 21
5145.670042865875
 31
0.0
  0
LINE
  5
7CE9
330
81F2
100
AcDbEntity
  8
1
100
AcDbLine
 10
762.6508127990993
 20
5707.170042865875
 30
0.0
 11
762.6508127990993
 21
5145.670042865875
 31
0.0
  0
LINE
  5
7CEA
330
81F2
100
AcDbEntity
  8
1
100
AcDbLine
 10
762.6508127990993
 20
5707.170042865875
 30
0.0
 11
1127.650812799099
 21
5707.170042865875
 31
0.0
  0
LINE
  5
7CEB
330
81F2
100
AcDbEntity
  8
1
100
AcDbLine
 10
762.6508127990993
 20
5145.670042865875
 30
0.0
 11
1127.650812799099
 21
5145.670042865875
 31
0.0
  0
LINE
  5
7CEC
330
81F2
100
AcDbEntity
  8
1
100
AcDbLine
 10
969.1508127990994
 20
5145.670042865875
 30
0.0
 11
969.1508127990994
 21
5140.670042865875
 31
0.0
  0
LINE
  5
7CED
330
81F2
100
AcDbEntity
  8
1
100
AcDbLine
 10
921.1508127990994
 20
5145.670042865875
 30
0.0
 11
921.1508127990994
 21
5140.670042865875
 31
0.0
  0
LINE
  5
7CEE
330
81F2
100
AcDbEntity
  8
1
100
AcDbLine
 10
4296.343106282495
 20
2685.649543488601
 30
0.0
 11
4113.343106282497
 21
2685.649543488601
 31
0.0
  0
LINE
  5
7CEF
330
81F2
100
AcDbEntity
  8
1
100
AcDbLine
 10
4296.343106282495
 20
2320.649543488601
 30
0.0
 11
4113.343106282497
 21
2320.649543488601
 31
0.0
  0
LINE
  5
7CF0
330
81F2
100
AcDbEntity
  8
1
100
AcDbLine
 10
4113.343106282496
 20
2685.649543488601
 30
0.0
 11
4113.343106282496
 21
2320.649543488601
 31
0.0
  0
LINE
  5
7CF1
330
81F2
100
AcDbEntity
  8
1
100
AcDbLine
 10
4113.343106282497
 20
2527.149543488601
 30
0.0
 11
4108.343106282496
 21
2527.149543488601
 31
0.0
  0
LINE
  5
7CF2
330
81F2
100
AcDbEntity
  8
1
100
AcDbLine
 10
4113.343106282497
 20
2479.149543488601
 30
0.0
 11
4108.343106282496
 21
2479.149543488601
 31
0.0
  0
DIMENSION
  5
7CF3
330
81F2
100
AcDbEntity
  8
3
100
AcDbDimension
  2
*D17
 10
670.1508127990997
 20
4483.440263558555
 30
0.0
 11
1722.650812799099
 21
4543.440263558554
 31
0.0
 12
607.5256978222605
 22
2750.089240652855
 32
0.0
 71
     5
 42
-1.0
  3
Standard
100
AcDbAlignedDimension
 13
2775.1508127991
 23
3354.029097341083
 33
0.0
 14
670.1508127990997
 24
2268.149543488599
 34
0.0
100
AcDbRotatedDimension
1001
ACAD
1000
DSTYLE
1002
{
1070
    40
1040
30.0
1002
}
  0
LINE
  5
7CF4
330
81F2
100
AcDbEntity
  8
1
100
AcDbLine
 10
2775.1508127991
 20
6600.670042865871
 30
0.0
 11
2775.1508127991
 21
5250.670042865873
 31
0.0
  0
LINE
  5
7CF5
330
81F2
100
AcDbEntity
  8
1
100
AcDbLine
 10
1227.1508127991
 20
6550.670042865874
 30
0.0
 11
1227.1508127991
 21
5300.670042865873
 31
0.0
  0
LINE
  5
7CF6
330
81F2
100
AcDbEntity
  8
1
100
AcDbLine
 10
1227.1508127991
 20
5300.670042865873
 30
0.0
 11
2775.1508127991
 21
5300.670042865873
 31
0.0
  0
LINE
  5
7CF7
330
81F2
100
AcDbEntity
  8
1
100
AcDbLine
 10
1227.1508127991
 20
6550.670042865874
 30
0.0
 11
2775.1508127991
 21
6550.670042865871
 31
0.0
  0
LINE
  5
7CF8
330
81F2
100
AcDbEntity
  8
1
100
AcDbLine
 10
2771.1508127991
 20
6600.670042865873
 30
0.0
 11
2775.1508127991
 21
6600.670042865871
 31
0.0
  0
LINE
  5
7CF9
330
81F2
100
AcDbEntity
  8
1
100
AcDbLine
 10
2771.1508127991
 20
5250.670042865873
 30
0.0
 11
2775.1508127991
 21
5250.670042865873
 31
0.0
  0
LINE
  5
7CFA
330
81F2
100
AcDbEntity
  8
1
100
AcDbLine
 10
2771.1508127991
 20
6600.670042865871
 30
0.0
 11
2771.1508127991
 21
5250.670042865873
 31
0.0
  0
LINE
  5
7CFB
330
81F2
100
AcDbEntity
  8
1
100
AcDbLine
 10
2127.6508127991
 20
5300.670042865874
 30
0.0
 11
2127.6508127991
 21
5140.670042865874
 31
0.0
  0
LINE
  5
7CFC
330
81F2
100
AcDbEntity
  8
1
100
AcDbLine
 10
2062.6508127991
 20
5300.670042865874
 30
0.0
 11
2062.6508127991
 21
5140.670042865874
 31
0.0
  0
LINE
  5
7CFD
330
81F2
100
AcDbEntity
  8
1
100
AcDbLine
 10
4278.343106282496
 20
3345.649543488601
 30
0.0
 11
4296.343106282495
 21
3345.649543488601
 31
0.0
  0
DIMENSION
  5
7CFE
330
81F2
100
AcDbEntity
  8
3
100
AcDbDimension
  2
*D18
 10
670.1508127991001
 20
6824.973980093592
 30
0.0
 11
1070.1508127991
 21
6884.973980093594
 31
0.0
 12
607.5256978222605
 22
2227.638443504635
 32
0.0
 71
     5
 42
-1.0
  3
Standard
100
AcDbAlignedDimension
 13
1470.1508127991
 23
6603.670042865875
 33
0.0
 14
670.1508127991001
 24
5948.670042865875
 34
0.0
100
AcDbRotatedDimension
1001
ACAD
1000
DSTYLE
1002
{
1070
    40
1040
30.0
1002
}
  0
LINE
  5
7D05
330
81F2
100
AcDbEntity
  8
1
100
AcDbLine
 10
4296.343106282495
 20
4098.149543488601
 30
0.0
 11
5546.343106282497
 21
4098.149543488601
 31
0.0
  0
LINE
  5
7D06
330
81F2
100
AcDbEntity
  8
1
100
AcDbLine
 10
4296.343106282495
 20
2304.149543488601
 30
0.0
 11
5546.343106282497
 21
2304.149543488601
 31
0.0
  0
LINE
  5
7D07
330
81F2
100
AcDbEntity
  8
1
100
AcDbLine
 10
4296.343106282495
 20
3334.149543488602
 30
0.0
 11
5546.343106282497
 21
3334.149543488602
 31
0.0
  0
LINE
  5
7D08
330
81F2
100
AcDbEntity
  8
1
100
AcDbLine
 10
5546.343106282497
 20
3334.149543488602
 30
0.0
 11
4296.343106282495
 21
2304.149543488601
 31
0.0
  0
LINE
  5
7D09
330
81F2
100
AcDbEntity
  8
1
100
AcDbLine
 10
4296.343106282495
 20
3334.149543488602
 30
0.0
 11
5546.343106282496
 21
2304.149543488601
 31
0.0
  0
DIMENSION
  5
7D0A
330
81F2
100
AcDbEntity
  8
3
100
AcDbDimension
  2
*D19
 10
3416.322280557938
 20
3378.1495434886
 30
0.0
 11
3356.32228055794
 21
3738.1495434886
 31
0.0
 12
607.5256978222605
 22
2750.089240652855
 32
0.0
 71
     5
 42
-1.0
  3
Standard
100
AcDbAlignedDimension
 13
2021.1508127991
 23
4098.149543488601
 33
0.0
 14
2834.766795296728
 24
3378.1495434886
 34
0.0
 50
90.0
100
AcDbRotatedDimension
1001
ACAD
1000
DSTYLE
1002
{
1070
    40
1040
30.0
1002
}
  0
LINE
  5
7F53
330
81F2
100
AcDbEntity
  8
4
100
AcDbLine
 10
5550.0
 20
1210.115599408851
 30
0.0
 11
5550.0
 21
610.1155994088513
 31
0.0
  0
LINE
  5
7F54
330
81F2
100
AcDbEntity
  8
4
100
AcDbLine
 10
3450.0
 20
1210.115599408851
 30
0.0
 11
3450.0
 21
610.1155994088513
 31
0.0
  0
LINE
  5
7F55
330
81F2
100
AcDbEntity
  8
4
100
AcDbLine
 10
1950.0
 20
1210.115599408851
 30
0.0
 11
1950.0
 21
610.1155994088513
 31
0.0
  0
LINE
  5
7F58
330
81F2
100
AcDbEntity
  8
4
100
AcDbLine
 10
1950.0
 20
610.1155994088513
 30
0.0
 11
5550.0
 21
610.1155994088513
 31
0.0
  0
LINE
  5
7F59
330
81F2
100
AcDbEntity
  8
4
100
AcDbLine
 10
1950.0
 20
910.1155994088513
 30
0.0
 11
5550.0
 21
910.1155994088513
 31
0.0
  0
TEXT
  5
7F5A
330
81F2
100
AcDbEntity
  8
4
100
AcDbText
 10
2065.506242540704
 20
1004.74467700869
 30
0.0
 40
150.0
  1
機器名称
100
AcDbText
  0
TEXT
  5
7F5B
330
81F2
100
AcDbEntity
  8
4
100
AcDbText
 10
2058.774318074392
 20
675.0510696048841
 30
0.0
 40
150.0
  1
機器型番
100
AcDbText
  0
TEXT
  5
7F5C
330
81F2
100
AcDbEntity
  8
4
100
AcDbText
 10
3533.036236462995
 20
977.8309062815567
 30
0.0
 40
150.0
  1
ミツヤ多翼送風機
100
AcDbText
  0
TEXT
  5
7F5D
330
81F2
100
AcDbEntity
  8
4
100
AcDbText
 10
3559.963486756442
 20
661.5943522486814
 30
0.0
 40
150.0
  1
MF#6-5
100
AcDbText
  0
TEXT
  5
7F5F
330
81F2
100
AcDbEntity
  8
4
100
AcDbText
 10
2397.53107104676
 20
7150.286523997547
 30
0.0
 40
161.9999999999998
  1
床置防振ベット
100
AcDbText
  0
TEXT
  5
7F60
330
81F2
100
AcDbEntity
  8
4
100
AcDbText
 10
948.5027799883393
 20
7601.642928597894
 30
0.0
 40
216.0
  1
遠心式両吸込両持多翼ファン
100
AcDbText
  0
LINE
  5
7F61
330
81F2
100
AcDbEntity
  8
4
100
AcDbLine
 10
750.0
 20
7408.226262794413
 30
0.0
 11
5550.0
 21
7408.226262794413
 31
0.0
  0
LINE
  5
7F62
330
81F2
100
AcDbEntity
  8
4
100
AcDbLine
 10
750.0
 20
8008.226262794414
 30
0.0
 11
5550.0
 21
8008.226262794414
 31
0.0
  0
LINE
  5
7F63
330
81F2
100
AcDbEntity
  8
4
100
AcDbLine
 10
1950.0
 20
1210.115599408851
 30
0.0
 11
5550.0
 21
1210.115599408851
 31
0.0
  0
LINE
  5
7F64
330
81F2
100
AcDbEntity
  8
4
100
AcDbLine
 10
750.0
 20
8008.226262794414
 30
0.0
 11
750.0
 21
7408.226262794413
 31
0.0
  0
TEXT
  5
7F65
330
81F2
100
AcDbEntity
  8
4
100
AcDbText
 10
1089.954574318652
 20
7146.958432639029
 30
0.0
 40
161.9999999999998
  1
左回転右横向
100
AcDbText
  0
TEXT
  5
7F66
330
81F2
100
AcDbEntity
  8
4
100
AcDbText
 10
4406.908677747869
 20
8118.183244485924
 30
0.0
 40
168.0
  1
No.
100
AcDbText
  0
TEXT
  5
7F67
330
81F2
100
AcDbEntity
  8
4
100
AcDbText
 10
3933.888187800039
 20
7150.286523997547
 30
0.0
 40
161.9999999999998
  1
縮尺：1/30
100
AcDbText
  0
LINE
  5
7F68
330
81F2
100
AcDbEntity
  8
4
100
AcDbLine
 10
5550.0
 20
8008.226262794414
 30
0.0
 11
5550.0
 21
7408.226262794413
 31
0.0
  0
LINE
  5
7F69
330
81F2
100
AcDbEntity
  8
4
100
AcDbLine
 10
6300.0
 20
8850.0
 30
0.0
 11
6300.0
 21
8850.0
 31
0.0
  0
LINE
  5
7F6A
330
81F2
100
AcDbEntity
  8
4
100
AcDbLine
 10
4321.852267079594
 20
8043.790749376205
 30
0.0
 11
4321.852267079594
 21
8359.956784649257
 31
0.0
  0
LINE
  5
7F6B
330
81F2
100
AcDbEntity
  8
4
100
AcDbLine
 10
4321.852267079594
 20
8359.956784649257
 30
0.0
 11
5550.0
 21
8359.956784649257
 31
0.0
  0
LINE
  5
7F6C
330
81F2
100
AcDbEntity
  8
4
100
AcDbLine
 10
5550.0
 20
8359.956784649257
 30
0.0
 11
5550.0
 21
8043.790749376205
 31
0.0
  0
LINE
  5
7F6D
330
81F2
100
AcDbEntity
  8
4
100
AcDbLine
 10
5550.0
 20
8043.790749376205
 30
0.0
 11
4321.852267079594
 21
8043.790749376205
 31
0.0
  0
LINE
  5
7F6E
330
81F2
100
AcDbEntity
  8
4
100
AcDbLine
 10
0.0
 20
0.0
 30
0.0
 11
0.0
 21
8850.0
 31
0.0
  0
LINE
  5
7F6F
330
81F2
100
AcDbEntity
  8
4
100
AcDbLine
 10
0.0
 20
8850.0
 30
0.0
 11
6300.0
 21
8850.0
 31
0.0
  0
LINE
  5
7F70
330
81F2
100
AcDbEntity
  8
4
100
AcDbLine
 10
6300.0
 20
8850.0
 30
0.0
 11
6300.0
 21
0.0
 31
0.0
  0
LINE
  5
7F71
330
81F2
100
AcDbEntity
  8
4
100
AcDbLine
 10
6300.0
 20
0.0
 30
0.0
 11
0.0
 21
0.0
 31
0.0
  0
DIMENSION
  5
823F
330
81F2
100
AcDbEntity
  8
3
100
AcDbDimension
  2
*D30
 10
4921.343106282495
 20
4582.234491469076
 30
0.0
 11
4391.343106282493
 21
4680.805920040505
 31
0.0
 70
    32
 71
     5
 42
1060.000000000005
  3
IGA
100
AcDbAlignedDimension
 13
3861.343106282491
 23
3658.149543488601
 33
0.0
 14
4921.343106282495
 24
4457.144294910528
 34
0.0
100
AcDbRotatedDimension
1001
ACAD
1000
DSTYLE
1002
{
1070
     3
1000
(<>)
1070
    40
1040
30.0
1070
    42
1040
1.0
1070
   143
1040
0.039
1070
   172
1070
     1
1070
   271
1070
     4
1070
   272
1070
     4
1070
   279
1070
     0
1070
   284
1070
     0
1070
   285
1070
     0
1070
   286
1070
     0
1070
   341
1005
8206
1070
   343
1005
8206
1070
   344
1005
8206
1002
}
  0
DIMENSION
  5
824C
330
81F2
100
AcDbEntity
  8
3
100
AcDbDimension
  2
*D31
 10
5701.343106282497
 20
4582.234491469076
 30
0.0
 11
5311.343106282496
 21
4680.805920040505
 31
0.0
 70
    32
 71
     5
 42
780.0000000000009
  3
IGA
100
AcDbAlignedDimension
 13
4921.343106282495
 23
4457.144294910528
 33
0.0
 14
5701.343106282497
 24
3342.349543488602
 34
0.0
100
AcDbRotatedDimension
1001
ACAD
1000
DSTYLE
1002
{
1070
     3
1000
(<>)
1070
    40
1040
30.0
1070
    42
1040
1.0
1070
   143
1040
0.039
1070
   172
1070
     1
1070
   271
1070
     4
1070
   272
1070
     4
1070
   279
1070
     1
1070
   284
1070
     0
1070
   285
1070
     0
1070
   286
1070
     0
1070
   341
1005
8206
1070
   343
1005
8206
1070
   344
1005
8206
1002
}
  0
DIMENSION
  5
82E6
330
81F2
100
AcDbEntity
  8
3
100
AcDbDimension
  2
*D40
 10
2720.1508127991
 20
4666.394972240177
 30
0.0
 11
1695.1508127991
 21
4741.394972240177
 31
0.0
 70
    32
 71
     5
 42
2050.0
  3
IGA
100
AcDbAlignedDimension
 13
670.1508127991001
 23
5098.670042865875
 33
0.0
 14
2720.1508127991
 24
5098.670042865873
 34
0.0
100
AcDbRotatedDimension
1001
ACAD
1000
DSTYLE
1002
{
1070
    40
1040
30.0
1070
    42
1040
1.0
1070
   143
1040
0.039
1070
   172
1070
     1
1070
   271
1070
     4
1070
   272
1070
     4
1070
   279
1070
     0
1070
   284
1070
     0
1070
   285
1070
     0
1070
   286
1070
     0
1070
   341
1005
8206
1070
   343
1005
8206
1070
   344
1005
8206
1002
}
  0
DIMENSION
  5
82F3
330
81F2
100
AcDbEntity
  8
3
100
AcDbDimension
  2
*D41
 10
4921.343106282494
 20
1749.532675969436
 30
0.0
 11
4507.843106282495
 21
1824.532675969436
 31
0.0
 70
    32
 71
     5
 42
826.9999999999981
  3
IGA
100
AcDbAlignedDimension
 13
4094.343106282495
 23
1963.149543488601
 33
0.0
 14
4921.343106282494
 24
1963.149543488601
 34
0.0
100
AcDbRotatedDimension
1001
ACAD
1000
DSTYLE
1002
{
1070
    40
1040
30.0
1070
    42
1040
1.0
1070
   143
1040
0.039
1070
   172
1070
     1
1070
   271
1070
     4
1070
   272
1070
     4
1070
   279
1070
     0
1070
   284
1070
     0
1070
   285
1070
     0
1070
   286
1070
     0
1070
   341
1005
8206
1070
   343
1005
8206
1070
   344
1005
8206
1002
}
  0
DIMENSION
  5
8300
330
81F2
100
AcDbEntity
  8
3
100
AcDbDimension
  2
*D42
 10
5599.343106282496
 20
1749.532675969436
 30
0.0
 11
5260.343106282494
 21
1824.532675969436
 31
0.0
 70
    32
 71
     5
 42
678.0000000000027
  3
IGA
100
AcDbAlignedDimension
 13
4921.343106282494
 23
1963.149543488601
 33
0.0
 14
5599.343106282496
 24
1963.149543488601
 34
0.0
100
AcDbRotatedDimension
1001
ACAD
1000
DSTYLE
1002
{
1070
    40
1040
30.0
1070
    42
1040
1.0
1070
   143
1040
0.039
1070
   172
1070
     1
1070
   271
1070
     4
1070
   272
1070
     4
1070
   279
1070
     1
1070
   284
1070
     0
1070
   285
1070
     0
1070
   286
1070
     0
1070
   341
1005
8206
1070
   343
1005
8206
1070
   344
1005
8206
1002
}
  0
DIMENSION
  5
830D
330
81F2
100
AcDbEntity
  8
3
100
AcDbDimension
  2
*D43
 10
2095.150812799097
 20
1749.532675969436
 30
0.0
 11
1382.650812799098
 21
1824.532675969436
 31
0.0
 70
    32
 71
     5
 42
1424.999999999996
  3
IGA
100
AcDbAlignedDimension
 13
670.1508127991001
 23
1963.149543488601
 33
0.0
 14
2095.150812799097
 24
1963.149543488601
 34
0.0
100
AcDbRotatedDimension
1001
ACAD
1000
DSTYLE
1002
{
1070
    40
1040
30.0
1070
    42
1040
1.0
1070
   143
1040
0.039
1070
   172
1070
     1
1070
   271
1070
     4
1070
   272
1070
     4
1070
   279
1070
     0
1070
   284
1070
     0
1070
   285
1070
     0
1070
   286
1070
     0
1070
   341
1005
8206
1070
   343
1005
8206
1070
   344
1005
8206
1002
}
  0
DIMENSION
  5
831A
330
81F2
100
AcDbEntity
  8
3
100
AcDbDimension
  2
*D44
 10
2720.150812799099
 20
1749.532675969436
 30
0.0
 11
2407.650812799098
 21
1824.532675969436
 31
0.0
 70
    32
 71
     5
 42
625.0000000000027
  3
IGA
100
AcDbAlignedDimension
 13
2095.150812799097
 23
1963.149543488601
 33
0.0
 14
2720.150812799099
 24
1963.149543488601
 34
0.0
100
AcDbRotatedDimension
1001
ACAD
1000
DSTYLE
1002
{
1070
    40
1040
30.0
1070
    42
1040
1.0
1070
   143
1040
0.039
1070
   172
1070
     1
1070
   271
1070
     4
1070
   272
1070
     4
1070
   279
1070
     1
1070
   284
1070
     0
1070
   285
1070
     0
1070
   286
1070
     0
1070
   341
1005
8206
1070
   343
1005
8206
1070
   344
1005
8206
1002
}
  0
DIMENSION
  5
8327
330
81F2
100
AcDbEntity
  8
3
100
AcDbDimension
  2
*D45
 10
3416.322280557938
 20
2168.149543488601
 30
0.0
 11
3341.322280557938
 21
2773.149543488601
 31
0.0
 70
    32
 71
     5
 42
1209.999999999999
  3
IGA
100
AcDbAlignedDimension
 13
2834.766795296728
 23
3378.1495434886
 33
0.0
 14
2720.150812799099
 24
2168.149543488601
 34
0.0
 50
90.0
100
AcDbRotatedDimension
1001
ACAD
1000
DSTYLE
1002
{
1070
    40
1040
30.0
1070
    42
1040
1.0
1070
   143
1040
0.039
1070
   172
1070
     1
1070
   271
1070
     4
1070
   272
1070
     4
1070
   279
1070
     0
1070
   284
1070
     0
1070
   285
1070
     0
1070
   286
1070
     0
1070
   341
1005
8206
1070
   343
1005
8206
1070
   344
1005
8206
1002
}
  0
DIMENSION
  5
8334
330
81F2
100
AcDbEntity
  8
3
100
AcDbDimension
  2
*D46
 10
3416.322280557938
 20
2063.1495434886
 30
0.0
 11
3631.444942567199
 21
2229.863829202887
 31
0.0
 70
   160
  1
(<>)
 71
     5
 42
105.0
  3
IGA
100
AcDbAlignedDimension
 13
2720.150812799099
 23
2168.149543488601
 33
0.0
 14
2720.150812799099
 24
2063.149543488601
 34
0.0
 50
90.0
100
AcDbRotatedDimension
1001
ACAD
1000
DSTYLE
1002
{
1070
    40
1040
30.0
1070
    42
1040
1.0
1070
   143
1040
0.039
1070
   172
1070
     1
1070
   271
1070
     4
1070
   272
1070
     4
1070
   279
1070
     1
1070
   284
1070
     0
1070
   285
1070
     0
1070
   286
1070
     0
1070
   341
1005
8206
1070
   343
1005
8206
1070
   344
1005
8412
1002
}
  0
DIMENSION
  5
8346
330
81F2
100
AcDbEntity
  8
3
100
AcDbDimension
  2
*D47
 10
3416.322280557938
 20
1963.149543488601
 30
0.0
 11
3409.28463096005
 21
1800.390769503592
 31
0.0
 70
   160
 71
     5
 42
99.99999999999978
  3
IGA
100
AcDbAlignedDimension
 13
2720.150812799099
 23
2063.149543488601
 33
0.0
 14
2720.150812799099
 24
1963.149543488601
 34
0.0
 50
90.0
100
AcDbRotatedDimension
1001
ACAD
1000
DSTYLE
1002
{
1070
    40
1040
30.0
1070
    42
1040
1.0
1070
   143
1040
0.039
1070
   172
1070
     1
1070
   271
1070
     4
1070
   272
1070
     4
1070
   279
1070
     1
1070
   284
1070
     0
1070
   285
1070
     0
1070
   286
1070
     0
1070
   341
1005
8206
1070
   343
1005
8412
1070
   344
1005
8206
1002
}
  0
DIMENSION
  5
84B8
330
81F2
100
AcDbEntity
  8
3
100
AcDbDimension
  2
*D49
 10
3712.687688629951
 20
4098.1495434886
 30
0.0
 11
3614.116260058521
 21
3030.649543488602
 31
0.0
 70
    32
  1
(<>)
 71
     5
 42
2134.999999999999
  3
IGA
100
AcDbAlignedDimension
 13
2720.150812799099
 23
1963.149543488601
 33
0.0
 14
2021.1508127991
 24
4098.149543488601
 34
0.0
 50
90.0
100
AcDbRotatedDimension
1001
ACAD
1000
DSTYLE
1002
{
1070
    40
1040
30.0
1070
    42
1040
1.0
1070
   143
1040
0.039
1070
   172
1070
     1
1070
   271
1070
     4
1070
   272
1070
     4
1070
   279
1070
     0
1070
   284
1070
     0
1070
   285
1070
     0
1070
   286
1070
     0
1070
   341
1005
8206
1070
   343
1005
8206
1070
   344
1005
8206
1002
}
  0
ENDSEC
  0
SECTION
  2
OBJECTS
  0
DICTIONARY
  5
818F
330
0
100
AcDbDictionary
281
     1
  3
ACAD_CIP_PREVIOUS_PRODUCT_INFO
350
823E
  3
ACAD_COLOR
350
81E5
  3
ACAD_DETAILVIEWSTYLE
350
81EC
  3
ACAD_GROUP
350
8190
  3
ACAD_LAYOUT
350
81E4
  3
ACAD_MATERIAL
350
8193
  3
ACAD_MLEADERSTYLE
350
81E8
  3
ACAD_MLINESTYLE
350
81E1
  3
ACAD_PLOTSETTINGS
350
81E3
  3
ACAD_PLOTSTYLENAME
350
8191
  3
ACAD_SCALELIST
350
81C5
  3
ACAD_SECTIONVIEWSTYLE
350
81EA
  3
ACAD_TABLESTYLE
350
81E6
  3
ACAD_VISUALSTYLE
350
81AC
  3
ACDB_RECOMPOSE_DATA
350
84EE
  3
AcDbVariableDictionary
350
84E1
  3
DWGPROPS
350
84EF
  0
DICTIONARY
  5
84D7
330
81D7
100
AcDbDictionary
280
     1
281
     1
  3
ADSK_XREC_LAYER_RECONCILED
360
84D8
  0
DICTIONARY
  5
84D9
330
81F6
100
AcDbDictionary
280
     1
281
     1
  3
ADSK_XREC_LAYER_RECONCILED
360
84DA
  0
DICTIONARY
  5
84DB
330
81F9
100
AcDbDictionary
280
     1
281
     1
  3
ADSK_XREC_LAYER_RECONCILED
360
84DC
  0
DICTIONARY
  5
84DD
330
81FA
100
AcDbDictionary
280
     1
281
     1
  3
ADSK_XREC_LAYER_RECONCILED
360
84DE
  0
DICTIONARY
  5
84DF
330
81FB
100
AcDbDictionary
280
     1
281
     1
  3
ADSK_XREC_LAYER_RECONCILED
360
84E0
  0
XRECORD
  5
823E
102
{ACAD_REACTORS
330
818F
102
}
330
818F
100
AcDbXrecord
280
     1
300
ACDLT
300
2015
300
INVLTS_F_S
  0
DICTIONARY
  5
81E5
102
{ACAD_REACTORS
330
818F
102
}
330
818F
100
AcDbDictionary
281
     1
  0
DICTIONARY
  5
81EC
102
{ACAD_REACTORS
330
818F
102
}
330
818F
100
AcDbDictionary
281
     1
  3
Imperial24
350
81ED
  0
DICTIONARY
  5
8190
102
{ACAD_REACTORS
330
818F
102
}
330
818F
100
AcDbDictionary
281
     1
  0
DICTIONARY
  5
81E4
102
{ACAD_REACTORS
330
818F
102
}
330
818F
100
AcDbDictionary
281
     1
  3
Model
350
81F5
  3
レイアウト1
350
81F1
  0
DICTIONARY
  5
8193
102
{ACAD_REACTORS
330
818F
102
}
330
818F
100
AcDbDictionary
281
     1
  3
ByBlock
350
819C
  3
ByLayer
350
8194
  3
Global
350
81A4
  0
DICTIONARY
  5
81E8
102
{ACAD_REACTORS
330
818F
102
}
330
818F
100
AcDbDictionary
281
     1
  3
Standard
350
81E9
  0
DICTIONARY
  5
81E1
102
{ACAD_REACTORS
330
818F
102
}
330
818F
100
AcDbDictionary
281
     1
  3
Standard
350
81E2
  0
DICTIONARY
  5
81E3
102
{ACAD_REACTORS
330
818F
102
}
330
818F
100
AcDbDictionary
281
     1
  0
ACDBDICTIONARYWDFLT
  5
8191
102
{ACAD_REACTORS
330
818F
102
}
330
818F
100
AcDbDictionary
281
     1
  3
Normal
350
8192
100
AcDbDictionaryWithDefault
340
8192
  0
DICTIONARY
  5
81C5
102
{ACAD_REACTORS
330
818F
102
}
330
818F
100
AcDbDictionary
281
     1
  3
A0
350
81C6
  3
A1
350
81C7
  3
A2
350
81C8
  3
A3
350
81C9
  3
A4
350
81CA
  3
A5
350
81CB
  3
A6
350
81CC
  3
A7
350
81CD
  3
A8
350
81CE
  3
A9
350
81CF
  3
B0
350
81D0
  3
B1
350
81D1
  3
B2
350
81D2
  3
B3
350
81D3
  3
B4
350
81D4
  3
B5
350
81D5
  3
B6
350
81D6
  0
DICTIONARY
  5
81EA
102
{ACAD_REACTORS
330
818F
102
}
330
818F
100
AcDbDictionary
281
     1
  3
Imperial24
350
81EB
  0
DICTIONARY
  5
81E6
102
{ACAD_REACTORS
330
818F
102
}
330
818F
100
AcDbDictionary
281
     1
  3
Standard
350
81E7
  0
DICTIONARY
  5
81AC
102
{ACAD_REACTORS
330
818F
102
}
330
818F
100
AcDbDictionary
281
     1
  3
2dWireframe
350
81B2
  3
Basic
350
81B1
  3
Brighten
350
81B8
  3
ColorChange
350
81BC
  3
Conceptual
350
81B5
  3
Dim
350
81B7
  3
EdgeColorOff
350
81C4
  3
Facepattern
350
81BB
  3
Flat
350
81AD
  3
FlatWithEdges
350
81AE
  3
Gouraud
350
81AF
  3
GouraudWithEdges
350
81B0
  3
Hidden
350
81B4
  3
JitterOff
350
81C2
  3
Linepattern
350
81BA
  3
OverhangOff
350
81C3
  3
Realistic
350
81B6
  3
Shaded
350
81C1
  3
Shaded with edges
350
81C0
  3
Shades of Gray
350
81BD
  3
Sketchy
350
81BE
  3
Thicken
350
81B9
  3
Wireframe
350
81B3
  3
X-Ray
350
81BF
  0
XRECORD
  5
84EE
102
{ACAD_REACTORS
330
818F
102
}
330
818F
100
AcDbXrecord
280
     1
 90
        1
330
81E7
  0
DICTIONARY
  5
84E1
102
{ACAD_REACTORS
330
818F
102
}
330
818F
100
AcDbDictionary
281
     1
  3
CANNOSCALE
350
84E6
  3
CMLEADERSTYLE
350
84E3
  3
CTABLESTYLE
350
84E2
  3
CVIEWDETAILSTYLE
350
84E4
  3
CVIEWSECTIONSTYLE
350
84E5
  3
DIMASSOC
350
84E9
  3
INDEXCTL
350
84E8
  3
SORTENTS
350
84E7
  3
XCLIPFRAME
350
84EA
  0
XRECORD
  5
84EF
102
{ACAD_REACTORS
330
818F
102
}
330
818F
100
AcDbXrecord
280
     1
  1
DWGPROPS COOKIE
  2

  3

  4

  6

  7

  8
yasukiyo.ogawa
  9

300
=
301
=
302
=
303
=
304
=
305
=
306
=
307
=
308
=
309
=
 40
0.0978111574074074
 41
2451389.585626505
 42
2460271.751297257
  1

 90
        0
  0
XRECORD
  5
84D8
102
{ACAD_REACTORS
330
84D7
102
}
330
84D7
100
AcDbXrecord
280
     1
290
     1
  0
XRECORD
  5
84DA
102
{ACAD_REACTORS
330
84D9
102
}
330
84D9
100
AcDbXrecord
280
     1
290
     1
  0
XRECORD
  5
84DC
102
{ACAD_REACTORS
330
84DB
102
}
330
84DB
100
AcDbXrecord
280
     1
290
     1
  0
XRECORD
  5
84DE
102
{ACAD_REACTORS
330
84DD
102
}
330
84DD
100
AcDbXrecord
280
     1
290
     1
  0
XRECORD
  5
84E0
102
{ACAD_REACTORS
330
84DF
102
}
330
84DF
100
AcDbXrecord
280
     1
290
     1
  0
ACDBDETAILVIEWSTYLE
  5
81ED
102
{ACAD_XDICTIONARY
360
8527
102
}
102
{ACAD_REACTORS
330
81EC
102
}
330
81EC
100
AcDbModelDocViewStyle
 70
     0
  3
Imperial24
290
     0
100
AcDbDetailViewStyle
 70
     0
 71
     0
 90
        3
 71
     1
340
81D8
 40
0.24
340
0
 40
0.24
300

 40
0.36
280
     3
 71
     2
340
81DF
 90
       25
 71
     3
340
81D8
 40
0.24
 90
        1
 40
0.75
 90
        1
300
%<\AcVar ViewType \f "%tc1">% %<\AcVar ViewDetailId>%\PSCALE %<\AcVar ViewScale \f "%sn">%
 71
     4
340
81DF
 90
       25
340
81DF
 90
       25
280
     0
  0
LAYOUT
  5
81F5
102
{ACAD_XDICTIONARY
360
852B
102
}
102
{ACAD_REACTORS
330
81E4
102
}
330
81E4
100
AcDbPlotSettings
  1

  2
RICOH imagio MP W3600 RPCS
  4

  6

 40
0.0
 41
0.0
 42
0.0
 43
0.0
 44
0.0
 45
0.0
 46
0.0
 47
0.0
 48
0.0
 49
0.0
140
0.0
141
0.0
142
1.0
143
1.0
 70
  1712
 72
     0
 73
     0
 74
     0
  7

 75
     0
147
1.0
148
0.0
149
0.0
100
AcDbLayout
  1
Model
 70
     1
 71
     0
 10
0.0
 20
0.0
 11
12.0
 21
9.0
 12
0.0
 22
0.0
 32
0.0
 14
0.0
 24
0.0
 34
0.0
 15
0.0
 25
0.0
 35
0.0
146
0.0
 13
0.0
 23
0.0
 33
0.0
 16
1.0
 26
0.0
 36
0.0
 17
0.0
 27
1.0
 37
0.0
 76
     0
330
81F2
331
81F7
  0
LAYOUT
  5
81F1
102
{ACAD_XDICTIONARY
360
8529
102
}
102
{ACAD_REACTORS
330
81E4
102
}
330
81E4
100
AcDbPlotSettings
  1

  2
RICOH imagio MP W3600 RPCS
  4

  6

 40
0.0
 41
0.0
 42
0.0
 43
0.0
 44
0.0
 45
0.0
 46
0.0
 47
0.0
 48
0.0
 49
0.0
140
0.0
141
0.0
142
1.0
143
1.0
 70
   688
 72
     0
 73
     0
 74
     5
  7

 75
    16
147
1.0
148
0.0
149
0.0
100
AcDbLayout
  1
レイアウト1
 70
     1
 71
     1
 10
0.0
 20
0.0
 11
12.0
 21
9.0
 12
0.0
 22
0.0
 32
0.0
 14
1.000000000000000E+20
 24
1.000000000000000E+20
 34
1.000000000000000E+20
 15
-1.000000000000000E+20
 25
-1.000000000000000E+20
 35
-1.000000000000000E+20
146
0.0
 13
0.0
 23
0.0
 33
0.0
 16
1.0
 26
0.0
 36
0.0
 17
0.0
 27
1.0
 37
0.0
 76
     0
330
81EE
  0
MATERIAL
  5
819C
102
{ACAD_XDICTIONARY
360
819D
102
}
102
{ACAD_REACTORS
330
8193
102
}
330
8193
100
AcDbMaterial
  1
ByBlock
 72
     0
 43
0.0208333333333333
 43
0.0
 43
0.0
 43
0.0
 43
0.0
 43
0.0208333333333333
 43
0.0
 43
0.0
 43
0.0
 43
0.0
 43
1.0
 43
0.0
 43
0.0
 43
0.0
 43
0.0
 43
1.0
 77
     0
 47
0.0208333333333333
 47
0.0
 47
0.0
 47
0.0
 47
0.0
 47
0.0208333333333333
 47
0.0
 47
0.0
 47
0.0
 47
0.0
 47
1.0
 47
0.0
 47
0.0
 47
0.0
 47
0.0
 47
1.0
171
     0
 49
0.0208333333333333
 49
0.0
 49
0.0
 49
0.0
 49
0.0
 49
0.0208333333333333
 49
0.0
 49
0.0
 49
0.0
 49
0.0
 49
1.0
 49
0.0
 49
0.0
 49
0.0
 49
0.0
 49
1.0
175
     0
142
0.0208333333333333
142
0.0
142
0.0
142
0.0
142
0.0
142
0.0208333333333333
142
0.0
142
0.0
142
0.0
142
0.0
142
1.0
142
0.0
142
0.0
142
0.0
142
0.0
142
1.0
179
     0
144
0.0208333333333333
144
0.0
144
0.0
144
0.0
144
0.0
144
0.0208333333333333
144
0.0
144
0.0
144
0.0
144
0.0
144
1.0
144
0.0
144
0.0
144
0.0
144
0.0
144
1.0
147
0.0208333333333333
147
0.0
147
0.0
147
0.0
147
0.0
147
0.0208333333333333
147
0.0
147
0.0
147
0.0
147
0.0
147
1.0
147
0.0
147
0.0
147
0.0
147
0.0
147
1.0
  0
MATERIAL
  5
8194
102
{ACAD_XDICTIONARY
360
8195
102
}
102
{ACAD_REACTORS
330
8193
102
}
330
8193
100
AcDbMaterial
  1
ByLayer
 72
     0
 43
0.0208333333333333
 43
0.0
 43
0.0
 43
0.0
 43
0.0
 43
0.0208333333333333
 43
0.0
 43
0.0
 43
0.0
 43
0.0
 43
1.0
 43
0.0
 43
0.0
 43
0.0
 43
0.0
 43
1.0
 77
     0
 47
0.0208333333333333
 47
0.0
 47
0.0
 47
0.0
 47
0.0
 47
0.0208333333333333
 47
0.0
 47
0.0
 47
0.0
 47
0.0
 47
1.0
 47
0.0
 47
0.0
 47
0.0
 47
0.0
 47
1.0
171
     0
 49
0.0208333333333333
 49
0.0
 49
0.0
 49
0.0
 49
0.0
 49
0.0208333333333333
 49
0.0
 49
0.0
 49
0.0
 49
0.0
 49
1.0
 49
0.0
 49
0.0
 49
0.0
 49
0.0
 49
1.0
175
     0
142
0.0208333333333333
142
0.0
142
0.0
142
0.0
142
0.0
142
0.0208333333333333
142
0.0
142
0.0
142
0.0
142
0.0
142
1.0
142
0.0
142
0.0
142
0.0
142
0.0
142
1.0
179
     0
144
0.0208333333333333
144
0.0
144
0.0
144
0.0
144
0.0
144
0.0208333333333333
144
0.0
144
0.0
144
0.0
144
0.0
144
1.0
144
0.0
144
0.0
144
0.0
144
0.0
144
1.0
147
0.0208333333333333
147
0.0
147
0.0
147
0.0
147
0.0
147
0.0208333333333333
147
0.0
147
0.0
147
0.0
147
0.0
147
1.0
147
0.0
147
0.0
147
0.0
147
0.0
147
1.0
  0
MATERIAL
  5
81A4
102
{ACAD_XDICTIONARY
360
81A5
102
}
102
{ACAD_REACTORS
330
8193
102
}
330
8193
100
AcDbMaterial
  1
Global
 72
     0
 43
0.0208333333333333
 43
0.0
 43
0.0
 43
0.0
 43
0.0
 43
0.0208333333333333
 43
0.0
 43
0.0
 43
0.0
 43
0.0
 43
1.0
 43
0.0
 43
0.0
 43
0.0
 43
0.0
 43
1.0
 77
     0
 47
0.0208333333333333
 47
0.0
 47
0.0
 47
0.0
 47
0.0
 47
0.0208333333333333
 47
0.0
 47
0.0
 47
0.0
 47
0.0
 47
1.0
 47
0.0
 47
0.0
 47
0.0
 47
0.0
 47
1.0
171
     0
 49
0.0208333333333333
 49
0.0
 49
0.0
 49
0.0
 49
0.0
 49
0.0208333333333333
 49
0.0
 49
0.0
 49
0.0
 49
0.0
 49
1.0
 49
0.0
 49
0.0
 49
0.0
 49
0.0
 49
1.0
175
     0
142
0.0208333333333333
142
0.0
142
0.0
142
0.0
142
0.0
142
0.0208333333333333
142
0.0
142
0.0
142
0.0
142
0.0
142
1.0
142
0.0
142
0.0
142
0.0
142
0.0
142
1.0
179
     0
144
0.0208333333333333
144
0.0
144
0.0
144
0.0
144
0.0
144
0.0208333333333333
144
0.0
144
0.0
144
0.0
144
0.0
144
1.0
144
0.0
144
0.0
144
0.0
144
0.0
144
1.0
147
0.0208333333333333
147
0.0
147
0.0
147
0.0
147
0.0
147
0.0208333333333333
147
0.0
147
0.0
147
0.0
147
0.0
147
1.0
147
0.0
147
0.0
147
0.0
147
0.0
147
1.0
  0
MLEADERSTYLE
  5
81E9
102
{ACAD_REACTORS
330
81E8
102
}
330
81E8
100
AcDbMLeaderStyle
170
     2
171
     1
172
     0
 90
        2
 40
0.0
 41
0.0
173
     1
 91
-1056964608
340
81DD
 92
       -2
290
     1
 42
0.09
291
     1
 43
0.36
  3
Standard
 44
0.18
300

342
81D8
174
     1
178
     6
175
     1
176
     0
 93
-1056964608
 45
0.18
292
     0
297
     0
 46
0.18
 94
-1056964608
 47
1.0
 49
1.0
140
1.0
293
     1
141
0.0
294
     1
177
     0
142
1.0
295
     0
296
     0
143
0.125
1001
ACAD_MLEADERVER
1070
     2
  0
MLINESTYLE
  5
81E2
102
{ACAD_REACTORS
330
81E1
102
}
330
81E1
100
AcDbMlineStyle
  2
STANDARD
 70
     0
  3

 62
   256
 51
90.0
 52
90.0
 71
     2
 49
0.5
 62
   256
  6
BYLAYER
 49
-0.5
 62
   256
  6
BYLAYER
  0
ACDBPLACEHOLDER
  5
8192
102
{ACAD_REACTORS
330
8191
102
}
330
8191
  0
SCALE
  5
81C6
102
{ACAD_REACTORS
330
81C5
102
}
330
81C5
100
AcDbScale
 70
     0
300
1:1
140
1.0
141
1.0
290
     1
  0
SCALE
  5
81C7
102
{ACAD_REACTORS
330
81C5
102
}
330
81C5
100
AcDbScale
 70
     0
300
1/128" = 1'-0"
140
0.0078125
141
12.0
290
     0
  0
SCALE
  5
81C8
102
{ACAD_REACTORS
330
81C5
102
}
330
81C5
100
AcDbScale
 70
     0
300
1/64" = 1'-0"
140
0.015625
141
12.0
290
     0
  0
SCALE
  5
81C9
102
{ACAD_REACTORS
330
81C5
102
}
330
81C5
100
AcDbScale
 70
     0
300
1/32" = 1'-0"
140
0.03125
141
12.0
290
     0
  0
SCALE
  5
81CA
102
{ACAD_REACTORS
330
81C5
102
}
330
81C5
100
AcDbScale
 70
     0
300
1/16" = 1'-0"
140
0.0625
141
12.0
290
     0
  0
SCALE
  5
81CB
102
{ACAD_REACTORS
330
81C5
102
}
330
81C5
100
AcDbScale
 70
     0
300
3/32" = 1'-0"
140
0.09375
141
12.0
290
     0
  0
SCALE
  5
81CC
102
{ACAD_REACTORS
330
81C5
102
}
330
81C5
100
AcDbScale
 70
     0
300
1/8" = 1'-0"
140
0.125
141
12.0
290
     0
  0
SCALE
  5
81CD
102
{ACAD_REACTORS
330
81C5
102
}
330
81C5
100
AcDbScale
 70
     0
300
3/16" = 1'-0"
140
0.1875
141
12.0
290
     0
  0
SCALE
  5
81CE
102
{ACAD_REACTORS
330
81C5
102
}
330
81C5
100
AcDbScale
 70
     0
300
1/4" = 1'-0"
140
0.25
141
12.0
290
     0
  0
SCALE
  5
81CF
102
{ACAD_REACTORS
330
81C5
102
}
330
81C5
100
AcDbScale
 70
     0
300
3/8" = 1'-0"
140
0.375
141
12.0
290
     0
  0
SCALE
  5
81D0
102
{ACAD_REACTORS
330
81C5
102
}
330
81C5
100
AcDbScale
 70
     0
300
1/2" = 1'-0"
140
0.5
141
12.0
290
     0
  0
SCALE
  5
81D1
102
{ACAD_REACTORS
330
81C5
102
}
330
81C5
100
AcDbScale
 70
     0
300
3/4" = 1'-0"
140
0.75
141
12.0
290
     0
  0
SCALE
  5
81D2
102
{ACAD_REACTORS
330
81C5
102
}
330
81C5
100
AcDbScale
 70
     0
300
1" = 1'-0"
140
1.0
141
12.0
290
     0
  0
SCALE
  5
81D3
102
{ACAD_REACTORS
330
81C5
102
}
330
81C5
100
AcDbScale
 70
     0
300
1-1/2" = 1'-0"
140
1.5
141
12.0
290
     0
  0
SCALE
  5
81D4
102
{ACAD_REACTORS
330
81C5
102
}
330
81C5
100
AcDbScale
 70
     0
300
3" = 1'-0"
140
3.0
141
12.0
290
     0
  0
SCALE
  5
81D5
102
{ACAD_REACTORS
330
81C5
102
}
330
81C5
100
AcDbScale
 70
     0
300
6" = 1'-0"
140
6.0
141
12.0
290
     0
  0
SCALE
  5
81D6
102
{ACAD_REACTORS
330
81C5
102
}
330
81C5
100
AcDbScale
 70
     0
300
1'-0" = 1'-0"
140
12.0
141
12.0
290
     0
  0
ACDBSECTIONVIEWSTYLE
  5
81EB
102
{ACAD_XDICTIONARY
360
8525
102
}
102
{ACAD_REACTORS
330
81EA
102
}
330
81EA
100
AcDbModelDocViewStyle
 70
     0
  3
Imperial24
290
     0
100
AcDbSectionViewStyle
 70
     0
 71
     0
 90
       78
 71
     1
340
81D8
 40
0.24
340
0
340
0
 40
0.24
300
I, O, Q, S, X, Z
 40
0.48
 90
        3
 40
0.18
 90
        1
 71
     2
340
81DF
 90
       25
340
81DF
 90
       50
 40
0.24
 40
0.0
 40
0.24
 71
     3
340
81D8
 40
0.24
 90
        1
 40
0.75
 90
        1
300
%<\AcVar ViewType \f "%tc1">% %<\AcVar ViewSectionStartId>%-%<\AcVar ViewSectionEndId>%\PSCALE %<\AcVar ViewScale \f "%sn">%
 71
     4
300
ANSI31
 40
1.0
 90
        0
290
     0
290
     0
 90
        6
 40
0.0
 40
1.570796326794896
 40
0.2617993877991494
 40
1.308996938995747
 40
-0.2617993877991494
 40
1.832595714594046
  0
TABLESTYLE
  5
81E7
102
{ACAD_XDICTIONARY
360
84EC
102
}
102
{ACAD_REACTORS
330
81E6
102
}
330
81E6
100
AcDbTableStyle
  3
Standard
 70
     0
 71
     0
 40
0.06
 41
0.06
280
     0
281
     0
  7
STANDARD
140
0.18
170
     2
 62
     0
 63
     7
283
     0
274
    -2
284
     1
 64
     0
275
    -2
285
     1
 65
     0
276
    -2
286
     1
 66
     0
277
    -2
287
     1
 67
     0
278
    -2
288
     1
 68
     0
279
    -2
289
     1
 69
     0
  7
STANDARD
140
0.25
170
     5
 62
     0
 63
     7
283
     0
274
    -2
284
     1
 64
     0
275
    -2
285
     1
 65
     0
276
    -2
286
     1
 66
     0
277
    -2
287
     1
 67
     0
278
    -2
288
     1
 68
     0
279
    -2
289
     1
 69
     0
  7
STANDARD
140
0.18
170
     5
 62
     0
 63
     7
283
     0
274
    -2
284
     1
 64
     0
275
    -2
285
     1
 65
     0
276
    -2
286
     1
 66
     0
277
    -2
287
     1
 67
     0
278
    -2
288
     1
 68
     0
279
    -2
289
     1
 69
     0
  0
VISUALSTYLE
  5
81B2
102
{ACAD_XDICTIONARY
360
84FD
102
}
102
{ACAD_REACTORS
330
81AC
102
}
330
81AC
100
AcDbVisualStyle
  2
2dWireframe
 70
     4
 71
     0
 72
     2
 73
     0
 90
        0
 40
-0.6
 41
-30.0
 62
     5
 63
     7
 74
     1
 91
        4
 64
     7
 65
   257
 75
     1
175
     1
 42
1.0
 92
        0
 66
   257
 43
1.0
 76
     1
 77
     6
 78
     2
 67
     7
 79
     5
170
     0
171
     0
290
     0
174
     0
 93
        1
 44
0.0
173
     0
291
     0
 45
0.0
1001
ACAD
1000
AcDbSavedByObjectVersion
1070
     0
  0
VISUALSTYLE
  5
81B1
102
{ACAD_XDICTIONARY
360
84FB
102
}
102
{ACAD_REACTORS
330
81AC
102
}
330
81AC
100
AcDbVisualStyle
  2
Basic
 70
     7
 71
     1
 72
     0
 73
     1
 90
        0
 40
-0.6
 41
-30.0
 62
     5
 63
     7
 74
     0
 91
        4
 64
     7
 65
   257
 75
     1
175
     1
 42
1.0
 92
        8
 66
     7
 43
1.0
 76
     1
 77
     6
 78
     2
 67
     7
 79
     5
170
     0
171
     0
290
     0
174
     0
 93
        1
 44
0.0
173
     0
291
     1
 45
0.0
1001
ACAD
1000
AcDbSavedByObjectVersion
1070
     0
  0
VISUALSTYLE
  5
81B8
102
{ACAD_XDICTIONARY
360
8509
102
}
102
{ACAD_REACTORS
330
81AC
102
}
330
81AC
100
AcDbVisualStyle
  2
Brighten
 70
    12
 71
     2
 72
     2
 73
     0
 90
        0
 40
-0.6
 41
-30.0
 62
     5
 63
     7
 74
     1
 91
        4
 64
     7
 65
   257
 75
     1
175
     1
 42
1.0
 92
        8
 66
     7
 43
1.0
 76
     1
 77
     6
 78
     2
 67
     7
 79
     5
170
     0
171
     0
290
     0
174
     0
 93
        1
 44
50.0
173
     0
291
     1
 45
0.0
1001
ACAD
1000
AcDbSavedByObjectVersion
1070
     0
  0
VISUALSTYLE
  5
81BC
102
{ACAD_XDICTIONARY
360
8511
102
}
102
{ACAD_REACTORS
330
81AC
102
}
330
81AC
100
AcDbVisualStyle
  2
ColorChange
 70
    16
 71
     2
 72
     2
 73
     3
 90
        0
 40
-0.6
 41
-30.0
 62
     5
 63
     8
 74
     1
 91
        4
 64
     7
 65
   257
 75
     1
175
     1
 42
1.0
 92
        8
 66
     8
 43
1.0
 76
     1
 77
     6
 78
     2
 67
     7
 79
     5
170
     0
171
     0
290
     0
174
     0
 93
        1
 44
0.0
173
     0
291
     1
 45
0.0
1001
ACAD
1000
AcDbSavedByObjectVersion
1070
     0
  0
VISUALSTYLE
  5
81B5
102
{ACAD_XDICTIONARY
360
8503
102
}
102
{ACAD_REACTORS
330
81AC
102
}
330
81AC
100
AcDbVisualStyle
  2
Conceptual
 70
     9
 71
     3
 72
     2
 73
     0
 90
        0
 40
-0.6
 41
-30.0
 62
     5
 63
     7
 74
     2
 91
        2
 64
     7
 65
   257
 75
     1
175
     1
 42
179.0
 92
        8
 66
     7
 43
1.0
 76
     1
 77
     6
 78
     2
 67
     7
 79
     3
170
     0
171
     0
290
     0
174
     0
 93
        1
 44
0.0
173
     0
291
     0
 45
0.0
1001
ACAD
1000
AcDbSavedByObjectVersion
1070
     0
  0
VISUALSTYLE
  5
81B7
102
{ACAD_XDICTIONARY
360
8507
102
}
102
{ACAD_REACTORS
330
81AC
102
}
330
81AC
100
AcDbVisualStyle
  2
Dim
 70
    11
 71
     2
 72
     2
 73
     0
 90
        0
 40
-0.6
 41
-30.0
 62
     5
 63
     7
 74
     1
 91
        4
 64
     7
 65
   257
 75
     1
175
     1
 42
1.0
 92
        8
 66
     7
 43
1.0
 76
     1
 77
     6
 78
     2
 67
     7
 79
     5
170
     0
171
     0
290
     0
174
     0
 93
        1
 44
-50.0
173
     0
291
     1
 45
0.0
1001
ACAD
1000
AcDbSavedByObjectVersion
1070
     0
  0
VISUALSTYLE
  5
81C4
102
{ACAD_XDICTIONARY
360
8521
102
}
102
{ACAD_REACTORS
330
81AC
102
}
330
81AC
100
AcDbVisualStyle
  2
EdgeColorOff
 70
    22
 71
     2
 72
     2
 73
     0
 90
        0
 40
-0.6
 41
-30.0
 62
     5
 63
     7
 74
     1
 91
        4
 64
     7
 65
   257
 75
     1
175
     1
 42
1.0
 92
        8
 66
     7
 43
1.0
 76
     1
 77
     6
 78
     2
 67
     7
 79
     5
170
     0
171
     0
290
     0
174
     0
 93
        1
 44
0.0
173
     0
291
     1
 45
0.0
1001
ACAD
1000
AcDbSavedByObjectVersion
1070
     0
  0
VISUALSTYLE
  5
81BB
102
{ACAD_XDICTIONARY
360
850F
102
}
102
{ACAD_REACTORS
330
81AC
102
}
330
81AC
100
AcDbVisualStyle
  2
Facepattern
 70
    15
 71
     2
 72
     2
 73
     0
 90
        0
 40
-0.6
 41
-30.0
 62
     5
 63
     7
 74
     1
 91
        4
 64
     7
 65
   257
 75
     1
175
     1
 42
1.0
 92
        8
 66
     7
 43
1.0
 76
     1
 77
     6
 78
     2
 67
     7
 79
     5
170
     0
171
     0
290
     0
174
     0
 93
        1
 44
0.0
173
     0
291
     1
 45
0.0
1001
ACAD
1000
AcDbSavedByObjectVersion
1070
     0
  0
VISUALSTYLE
  5
81AD
102
{ACAD_XDICTIONARY
360
84F3
102
}
102
{ACAD_REACTORS
330
81AC
102
}
330
81AC
100
AcDbVisualStyle
  2
Flat
 70
     0
 71
     2
 72
     1
 73
     1
 90
        2
 40
-0.6
 41
30.0
 62
     5
 63
     7
 74
     0
 91
        0
 64
     7
 65
   257
 75
     1
175
     1
 42
1.0
 92
        8
 66
     7
 43
1.0
 76
     1
 77
     6
 78
     2
 67
     7
 79
     5
170
     0
171
     0
290
     0
174
     0
 93
       13
 44
0.0
173
     0
291
     1
 45
0.0
1001
ACAD
1000
AcDbSavedByObjectVersion
1070
     0
  0
VISUALSTYLE
  5
81AE
102
{ACAD_XDICTIONARY
360
84F5
102
}
102
{ACAD_REACTORS
330
81AC
102
}
330
81AC
100
AcDbVisualStyle
  2
FlatWithEdges
 70
     1
 71
     2
 72
     1
 73
     1
 90
        2
 40
-0.6
 41
30.0
 62
     5
 63
     7
 74
     1
 91
        0
 64
     7
 65
   257
 75
     1
175
     1
 42
1.0
 92
        0
 66
   257
 43
1.0
 76
     1
 77
     6
 78
     2
 67
     7
 79
     5
170
     0
171
     0
290
     0
174
     0
 93
       13
 44
0.0
173
     0
291
     1
 45
0.0
1001
ACAD
1000
AcDbSavedByObjectVersion
1070
     0
  0
VISUALSTYLE
  5
81AF
102
{ACAD_XDICTIONARY
360
84F7
102
}
102
{ACAD_REACTORS
330
81AC
102
}
330
81AC
100
AcDbVisualStyle
  2
Gouraud
 70
     2
 71
     2
 72
     2
 73
     1
 90
        2
 40
-0.6
 41
30.0
 62
     5
 63
     7
 74
     0
 91
        0
 64
     7
 65
   257
 75
     1
175
     1
 42
1.0
 92
        0
 66
     7
 43
1.0
 76
     1
 77
     6
 78
     2
 67
     7
 79
     5
170
     0
171
     0
290
     0
174
     0
 93
       13
 44
0.0
173
     0
291
     1
 45
0.0
1001
ACAD
1000
AcDbSavedByObjectVersion
1070
     0
  0
VISUALSTYLE
  5
81B0
102
{ACAD_XDICTIONARY
360
84F9
102
}
102
{ACAD_REACTORS
330
81AC
102
}
330
81AC
100
AcDbVisualStyle
  2
GouraudWithEdges
 70
     3
 71
     2
 72
     2
 73
     1
 90
        2
 40
-0.6
 41
30.0
 62
     5
 63
     7
 74
     1
 91
        0
 64
     7
 65
   257
 75
     1
175
     1
 42
1.0
 92
        0
 66
   257
 43
1.0
 76
     1
 77
     6
 78
     2
 67
     7
 79
     5
170
     0
171
     0
290
     0
174
     0
 93
       13
 44
0.0
173
     0
291
     1
 45
0.0
1001
ACAD
1000
AcDbSavedByObjectVersion
1070
     0
  0
VISUALSTYLE
  5
81B4
102
{ACAD_XDICTIONARY
360
8501
102
}
102
{ACAD_REACTORS
330
81AC
102
}
330
81AC
100
AcDbVisualStyle
  2
Hidden
 70
     6
 71
     1
 72
     2
 73
     2
 90
        0
 40
-0.6
 41
-30.0
 62
     5
 63
     7
 74
     2
 91
        2
 64
     7
 65
   257
 75
     2
175
     1
 42
40.0
 92
        0
 66
   257
 43
1.0
 76
     1
 77
     6
 78
     2
 67
     7
 79
     3
170
     0
171
     0
290
     0
174
     0
 93
        1
 44
0.0
173
     0
291
     0
 45
0.0
1001
ACAD
1000
AcDbSavedByObjectVersion
1070
     0
  0
VISUALSTYLE
  5
81C2
102
{ACAD_XDICTIONARY
360
851D
102
}
102
{ACAD_REACTORS
330
81AC
102
}
330
81AC
100
AcDbVisualStyle
  2
JitterOff
 70
    20
 71
     2
 72
     2
 73
     0
 90
        0
 40
-0.6
 41
-30.0
 62
     5
 63
     7
 74
     1
 91
        4
 64
     7
 65
   257
 75
     1
175
     1
 42
1.0
 92
       10
 66
     7
 43
1.0
 76
     1
 77
     6
 78
     2
 67
     7
 79
     5
170
     0
171
     0
290
     0
174
     0
 93
        1
 44
0.0
173
     0
291
     1
 45
0.0
1001
ACAD
1000
AcDbSavedByObjectVersion
1070
     0
  0
VISUALSTYLE
  5
81BA
102
{ACAD_XDICTIONARY
360
850D
102
}
102
{ACAD_REACTORS
330
81AC
102
}
330
81AC
100
AcDbVisualStyle
  2
Linepattern
 70
    14
 71
     2
 72
     2
 73
     0
 90
        0
 40
-0.6
 41
-30.0
 62
     5
 63
     7
 74
     1
 91
        4
 64
     7
 65
   257
 75
     7
175
     7
 42
1.0
 92
        8
 66
     7
 43
1.0
 76
     1
 77
     6
 78
     2
 67
     7
 79
     5
170
     0
171
     0
290
     0
174
     0
 93
        1
 44
0.0
173
     0
291
     1
 45
0.0
1001
ACAD
1000
AcDbSavedByObjectVersion
1070
     0
  0
VISUALSTYLE
  5
81C3
102
{ACAD_XDICTIONARY
360
851F
102
}
102
{ACAD_REACTORS
330
81AC
102
}
330
81AC
100
AcDbVisualStyle
  2
OverhangOff
 70
    21
 71
     2
 72
     2
 73
     0
 90
        0
 40
-0.6
 41
-30.0
 62
     5
 63
     7
 74
     1
 91
        4
 64
     7
 65
   257
 75
     1
175
     1
 42
1.0
 92
        9
 66
     7
 43
1.0
 76
     1
 77
     6
 78
     2
 67
     7
 79
     5
170
     0
171
     0
290
     0
174
     0
 93
        1
 44
0.0
173
     0
291
     1
 45
0.0
1001
ACAD
1000
AcDbSavedByObjectVersion
1070
     0
  0
VISUALSTYLE
  5
81B6
102
{ACAD_XDICTIONARY
360
8505
102
}
102
{ACAD_REACTORS
330
81AC
102
}
330
81AC
100
AcDbVisualStyle
  2
Realistic
 70
     8
 71
     2
 72
     3
 73
     0
 90
        2
 40
-0.6
 41
30.0
 62
     5
 63
     7
 74
     0
 91
        0
 64
     7
 65
   257
 75
     1
175
     1
 42
1.0
 92
        8
 66
   257
 43
1.0
 76
     1
 77
     6
 78
     2
 67
     7
 79
     3
170
     0
171
     0
290
     0
174
     0
 93
       13
 44
0.0
173
     0
291
     0
 45
0.0
1001
ACAD
1000
AcDbSavedByObjectVersion
1070
     0
  0
VISUALSTYLE
  5
81C1
102
{ACAD_XDICTIONARY
360
851B
102
}
102
{ACAD_REACTORS
330
81AC
102
}
330
81AC
100
AcDbVisualStyle
  2
Shaded
 70
    27
 71
     2
 72
     2
 73
     1
 90
        2
 40
-0.6
 41
30.0
 62
     5
 63
     7
 74
     0
 91
        4
 64
     7
 65
   257
 75
     1
175
     1
 42
1.0
 92
        8
 66
   257
 43
1.0
 76
     1
 77
     6
 78
     2
 67
     8
 79
     3
170
     0
171
     0
290
     0
174
     0
 93
        5
 44
0.0
173
     0
291
     0
 45
0.0
1001
ACAD
1000
AcDbSavedByObjectVersion
1070
     0
  0
VISUALSTYLE
  5
81C0
102
{ACAD_XDICTIONARY
360
8519
102
}
102
{ACAD_REACTORS
330
81AC
102
}
330
81AC
100
AcDbVisualStyle
  2
Shaded with edges
 70
    26
 71
     2
 72
     2
 73
     1
 90
        2
 40
-0.6
 41
30.0
 62
     5
 63
     7
 74
     1
 91
       10
 64
     7
 65
   257
 75
     2
175
     1
 42
1.0
 92
        8
 66
   257
 43
1.0
 76
     1
 77
     6
 78
     2
 67
     7
 79
     3
170
     0
171
     0
290
     0
174
     0
 93
        5
 44
0.0
173
     0
291
     0
 45
0.0
1001
ACAD
1000
AcDbSavedByObjectVersion
1070
     0
  0
VISUALSTYLE
  5
81BD
102
{ACAD_XDICTIONARY
360
8513
102
}
102
{ACAD_REACTORS
330
81AC
102
}
330
81AC
100
AcDbVisualStyle
  2
Shades of Gray
 70
    23
 71
     2
 72
     2
 73
     3
 90
        0
 40
-0.6
 41
-30.0
 62
     5
 63
     7
 74
     2
 91
        2
 64
     7
 65
     7
 75
     1
175
     1
 42
40.0
 92
        8
 66
     7
 43
1.0
 76
     1
 77
     6
 78
     2
 67
     7
 79
     3
170
     0
171
     0
290
     0
174
     0
 93
        1
 44
0.0
173
     0
291
     0
 45
0.0
1001
ACAD
1000
AcDbSavedByObjectVersion
1070
     0
  0
VISUALSTYLE
  5
81BE
102
{ACAD_XDICTIONARY
360
8515
102
}
102
{ACAD_REACTORS
330
81AC
102
}
330
81AC
100
AcDbVisualStyle
  2
Sketchy
 70
    24
 71
     1
 72
     2
 73
     2
 90
        0
 40
-0.6
 41
-30.0
 62
     5
 63
     7
 74
     2
 91
        2
 64
     7
 65
     7
 75
     1
175
     1
 42
40.0
 92
       11
 66
     7
 43
1.0
 76
     1
 77
     6
 78
     2
 67
     7
 79
     6
170
     0
171
     0
290
     0
174
     0
 93
        1
 44
0.0
173
     0
291
     0
 45
0.0
1001
ACAD
1000
AcDbSavedByObjectVersion
1070
     0
  0
VISUALSTYLE
  5
81B9
102
{ACAD_XDICTIONARY
360
850B
102
}
102
{ACAD_REACTORS
330
81AC
102
}
330
81AC
100
AcDbVisualStyle
  2
Thicken
 70
    13
 71
     2
 72
     2
 73
     0
 90
        0
 40
-0.6
 41
-30.0
 62
     5
 63
     7
 74
     1
 91
        4
 64
     7
 65
   257
 75
     1
175
     1
 42
1.0
 92
       12
 66
     7
 43
1.0
 76
     1
 77
     6
 78
     2
 67
     7
 79
     5
170
     0
171
     0
290
     0
174
     0
 93
        1
 44
0.0
173
     0
291
     1
 45
0.0
1001
ACAD
1000
AcDbSavedByObjectVersion
1070
     0
  0
VISUALSTYLE
  5
81B3
102
{ACAD_XDICTIONARY
360
84FF
102
}
102
{ACAD_REACTORS
330
81AC
102
}
330
81AC
100
AcDbVisualStyle
  2
Wireframe
 70
     5
 71
     0
 72
     2
 73
     0
 90
        0
 40
-0.6
 41
-30.0
 62
     5
 63
     7
 74
     1
 91
        4
 64
     7
 65
   257
 75
     1
175
     1
 42
1.0
 92
        0
 66
   257
 43
1.0
 76
     1
 77
     6
 78
     2
 67
     7
 79
     3
170
     0
171
     0
290
     0
174
     0
 93
        1
 44
0.0
173
     0
291
     0
 45
0.0
1001
ACAD
1000
AcDbSavedByObjectVersion
1070
     0
  0
VISUALSTYLE
  5
81BF
102
{ACAD_XDICTIONARY
360
8517
102
}
102
{ACAD_REACTORS
330
81AC
102
}
330
81AC
100
AcDbVisualStyle
  2
X-Ray
 70
    25
 71
     2
 72
     2
 73
     1
 90
        1
 40
0.5
 41
-30.0
 62
     5
 63
     7
 74
     1
 91
        0
 64
     7
 65
   257
 75
     1
175
     1
 42
1.0
 92
        8
 66
     7
 43
1.0
 76
     1
 77
     6
 78
     2
 67
     7
 79
     3
170
     0
171
     0
290
     0
174
     0
 93
       13
 44
0.0
173
     0
291
     0
 45
0.0
1001
ACAD
1000
AcDbSavedByObjectVersion
1070
     0
  0
DICTIONARYVAR
  5
84E6
102
{ACAD_REACTORS
330
84E1
102
}
330
84E1
100
DictionaryVariables
280
     0
  1
1:1
  0
DICTIONARYVAR
  5
84E3
102
{ACAD_REACTORS
330
84E1
102
}
330
84E1
100
DictionaryVariables
280
     0
  1
STANDARD
  0
DICTIONARYVAR
  5
84E2
102
{ACAD_REACTORS
330
84E1
102
}
330
84E1
100
DictionaryVariables
280
     0
  1
STANDARD
  0
DICTIONARYVAR
  5
84E4
102
{ACAD_REACTORS
330
84E1
102
}
330
84E1
100
DictionaryVariables
280
     0
  1
Imperial24
  0
DICTIONARYVAR
  5
84E5
102
{ACAD_REACTORS
330
84E1
102
}
330
84E1
100
DictionaryVariables
280
     0
  1
Imperial24
  0
DICTIONARYVAR
  5
84E9
102
{ACAD_REACTORS
330
84E1
102
}
330
84E1
100
DictionaryVariables
280
     0
  1
1
  0
DICTIONARYVAR
  5
84E8
102
{ACAD_REACTORS
330
84E1
102
}
330
84E1
100
DictionaryVariables
280
     0
  1
0
  0
DICTIONARYVAR
  5
84E7
102
{ACAD_REACTORS
330
84E1
102
}
330
84E1
100
DictionaryVariables
280
     0
  1
127
  0
DICTIONARYVAR
  5
84EA
102
{ACAD_REACTORS
330
84E1
102
}
330
84E1
100
DictionaryVariables
280
     0
  1
2
  0
DICTIONARY
  5
8527
330
81ED
100
AcDbDictionary
280
     1
281
     1
  3
ACAD_XREC_ROUNDTRIP
360
8528
  0
DICTIONARY
  5
852B
330
81F5
100
AcDbDictionary
280
     1
281
     1
  3
ACAD_XREC_ROUNDTRIP
360
852C
  0
DICTIONARY
  5
8529
330
81F1
100
AcDbDictionary
280
     1
281
     1
  3
ACAD_XREC_ROUNDTRIP
360
852A
  0
DICTIONARY
  5
819D
330
819C
100
AcDbDictionary
280
     1
281
     1
  3
ACAD_XREC_ROUNDTRIP
360
84F1
  3
BUMPTILE
360
819F
  3
DIFFUSETILE
360
819E
  3
OPACITYTILE
360
81A2
  3
REFLECTIONTILE
360
81A1
  3
REFRACTIONTILE
360
81A3
  3
SPECULARTILE
360
81A0
  0
DICTIONARY
  5
8195
330
8194
100
AcDbDictionary
280
     1
281
     1
  3
ACAD_XREC_ROUNDTRIP
360
84F0
  3
BUMPTILE
360
8197
  3
DIFFUSETILE
360
8196
  3
OPACITYTILE
360
819A
  3
REFLECTIONTILE
360
8199
  3
REFRACTIONTILE
360
819B
  3
SPECULARTILE
360
8198
  0
DICTIONARY
  5
81A5
330
81A4
100
AcDbDictionary
280
     1
281
     1
  3
ACAD_XREC_ROUNDTRIP
360
84F2
  3
BUMPTILE
360
81A7
  3
DIFFUSETILE
360
81A6
  3
FBXASSET
360
82E3
  3
OPACITYTILE
360
81AA
  3
REFLECTIONTILE
360
81A9
  3
REFRACTIONTILE
360
81AB
  3
SPECULARTILE
360
81A8
  0
DICTIONARY
  5
8525
330
81EB
100
AcDbDictionary
280
     1
281
     1
  3
ACAD_XREC_ROUNDTRIP
360
8526
  0
DICTIONARY
  5
84EC
330
81E7
100
AcDbDictionary
280
     1
281
     1
  3
ACAD_ROUNDTRIP_2008_TABLESTYLE_CELLSTYLEMAP
360
84ED
  3
ACAD_XREC_ROUNDTRIP
360
8523
  0
DICTIONARY
  5
84FD
330
81B2
100
AcDbDictionary
280
     1
281
     1
  3
ACAD_XREC_ROUNDTRIP
360
84FE
  0
DICTIONARY
  5
84FB
330
81B1
100
AcDbDictionary
280
     1
281
     1
  3
ACAD_XREC_ROUNDTRIP
360
84FC
  0
DICTIONARY
  5
8509
330
81B8
100
AcDbDictionary
280
     1
281
     1
  3
ACAD_XREC_ROUNDTRIP
360
850A
  0
DICTIONARY
  5
8511
330
81BC
100
AcDbDictionary
280
     1
281
     1
  3
ACAD_XREC_ROUNDTRIP
360
8512
  0
DICTIONARY
  5
8503
330
81B5
100
AcDbDictionary
280
     1
281
     1
  3
ACAD_XREC_ROUNDTRIP
360
8504
  0
DICTIONARY
  5
8507
330
81B7
100
AcDbDictionary
280
     1
281
     1
  3
ACAD_XREC_ROUNDTRIP
360
8508
  0
DICTIONARY
  5
8521
330
81C4
100
AcDbDictionary
280
     1
281
     1
  3
ACAD_XREC_ROUNDTRIP
360
8522
  0
DICTIONARY
  5
850F
330
81BB
100
AcDbDictionary
280
     1
281
     1
  3
ACAD_XREC_ROUNDTRIP
360
8510
  0
DICTIONARY
  5
84F3
330
81AD
100
AcDbDictionary
280
     1
281
     1
  3
ACAD_XREC_ROUNDTRIP
360
84F4
  0
DICTIONARY
  5
84F5
330
81AE
100
AcDbDictionary
280
     1
281
     1
  3
ACAD_XREC_ROUNDTRIP
360
84F6
  0
DICTIONARY
  5
84F7
330
81AF
100
AcDbDictionary
280
     1
281
     1
  3
ACAD_XREC_ROUNDTRIP
360
84F8
  0
DICTIONARY
  5
84F9
330
81B0
100
AcDbDictionary
280
     1
281
     1
  3
ACAD_XREC_ROUNDTRIP
360
84FA
  0
DICTIONARY
  5
8501
330
81B4
100
AcDbDictionary
280
     1
281
     1
  3
ACAD_XREC_ROUNDTRIP
360
8502
  0
DICTIONARY
  5
851D
330
81C2
100
AcDbDictionary
280
     1
281
     1
  3
ACAD_XREC_ROUNDTRIP
360
851E
  0
DICTIONARY
  5
850D
330
81BA
100
AcDbDictionary
280
     1
281
     1
  3
ACAD_XREC_ROUNDTRIP
360
850E
  0
DICTIONARY
  5
851F
330
81C3
100
AcDbDictionary
280
     1
281
     1
  3
ACAD_XREC_ROUNDTRIP
360
8520
  0
DICTIONARY
  5
8505
330
81B6
100
AcDbDictionary
280
     1
281
     1
  3
ACAD_XREC_ROUNDTRIP
360
8506
  0
DICTIONARY
  5
851B
330
81C1
100
AcDbDictionary
280
     1
281
     1
  3
ACAD_XREC_ROUNDTRIP
360
851C
  0
DICTIONARY
  5
8519
330
81C0
100
AcDbDictionary
280
     1
281
     1
  3
ACAD_XREC_ROUNDTRIP
360
851A
  0
DICTIONARY
  5
8513
330
81BD
100
AcDbDictionary
280
     1
281
     1
  3
ACAD_XREC_ROUNDTRIP
360
8514
  0
DICTIONARY
  5
8515
330
81BE
100
AcDbDictionary
280
     1
281
     1
  3
ACAD_XREC_ROUNDTRIP
360
8516
  0
DICTIONARY
  5
850B
330
81B9
100
AcDbDictionary
280
     1
281
     1
  3
ACAD_XREC_ROUNDTRIP
360
850C
  0
DICTIONARY
  5
84FF
330
81B3
100
AcDbDictionary
280
     1
281
     1
  3
ACAD_XREC_ROUNDTRIP
360
8500
  0
DICTIONARY
  5
8517
330
81BF
100
AcDbDictionary
280
     1
281
     1
  3
ACAD_XREC_ROUNDTRIP
360
8518
  0
XRECORD
  5
8528
102
{ACAD_REACTORS
330
8527
102
}
330
8527
100
AcDbXrecord
280
     1
102
DISPLAYNAME
  1
Imperial24
102
FLAGS
 90
        0
  0
XRECORD
  5
852C
102
{ACAD_REACTORS
330
852B
102
}
330
852B
100
AcDbXrecord
280
     1
102
SHADEPLOT
 70
     0
102
SHADEPLOTRESLEVEL
 70
     2
102
SHADEPLOTCUSTOMDPI
 70
   300
  0
XRECORD
  5
852A
102
{ACAD_REACTORS
330
8529
102
}
330
8529
100
AcDbXrecord
280
     1
102
SHADEPLOT
 70
     0
102
SHADEPLOTRESLEVEL
 70
     2
102
SHADEPLOTCUSTOMDPI
 70
   300
  0
XRECORD
  5
84F1
102
{ACAD_REACTORS
330
819D
102
}
330
819D
100
AcDbXrecord
280
     1
102
MATERIAL
148
0.0
149
0.0
149
0.0
 93
        0
 94
      127
282
     0
 72
     0
 77
     0
171
     0
175
     0
179
     0
273
     0
  0
XRECORD
  5
819F
102
{ACAD_REACTORS
330
819D
102
}
330
819D
100
AcDbXrecord
280
     1
270
     1
271
     1
  0
XRECORD
  5
819E
102
{ACAD_REACTORS
330
819D
102
}
330
819D
100
AcDbXrecord
280
     1
270
     1
271
     1
  0
XRECORD
  5
81A2
102
{ACAD_REACTORS
330
819D
102
}
330
819D
100
AcDbXrecord
280
     1
270
     1
271
     1
  0
XRECORD
  5
81A1
102
{ACAD_REACTORS
330
819D
102
}
330
819D
100
AcDbXrecord
280
     1
270
     1
271
     1
  0
XRECORD
  5
81A3
102
{ACAD_REACTORS
330
819D
102
}
330
819D
100
AcDbXrecord
280
     1
270
     1
271
     1
  0
XRECORD
  5
81A0
102
{ACAD_REACTORS
330
819D
102
}
330
819D
100
AcDbXrecord
280
     1
270
     1
271
     1
  0
XRECORD
  5
84F0
102
{ACAD_REACTORS
330
8195
102
}
330
8195
100
AcDbXrecord
280
     1
102
MATERIAL
148
0.0
149
0.0
149
0.0
 93
        0
 94
      127
282
     0
 72
     0
 77
     0
171
     0
175
     0
179
     0
273
     0
  0
XRECORD
  5
8197
102
{ACAD_REACTORS
330
8195
102
}
330
8195
100
AcDbXrecord
280
     1
270
     1
271
     1
  0
XRECORD
  5
8196
102
{ACAD_REACTORS
330
8195
102
}
330
8195
100
AcDbXrecord
280
     1
270
     1
271
     1
  0
XRECORD
  5
819A
102
{ACAD_REACTORS
330
8195
102
}
330
8195
100
AcDbXrecord
280
     1
270
     1
271
     1
  0
XRECORD
  5
8199
102
{ACAD_REACTORS
330
8195
102
}
330
8195
100
AcDbXrecord
280
     1
270
     1
271
     1
  0
XRECORD
  5
819B
102
{ACAD_REACTORS
330
8195
102
}
330
8195
100
AcDbXrecord
280
     1
270
     1
271
     1
  0
XRECORD
  5
8198
102
{ACAD_REACTORS
330
8195
102
}
330
8195
100
AcDbXrecord
280
     1
270
     1
271
     1
  0
XRECORD
  5
84F2
102
{ACAD_REACTORS
330
81A5
102
}
330
81A5
100
AcDbXrecord
280
     1
102
MATERIAL
148
0.0
149
0.0
149
0.0
 93
        0
 94
      127
282
     0
 72
     0
 77
     0
171
     0
175
     0
179
     0
273
     0
  0
XRECORD
  5
81A7
102
{ACAD_REACTORS
330
81A5
102
}
330
81A5
100
AcDbXrecord
280
     1
270
     1
271
     1
  0
XRECORD
  5
81A6
102
{ACAD_REACTORS
330
81A5
102
}
330
81A5
100
AcDbXrecord
280
     1
270
     1
271
     1
  0
XRECORD
  5
82E3
102
{ACAD_REACTORS
330
81A5
102
}
330
81A5
100
AcDbXrecord
280
     1
 70
     1
 90
1959938040
 71
     1
  1
72280CB4-49B0-442E-AE59-7511FE64DE10
311
504B0304140006080800538F7657E4E2F69AD6000000200100004F00000036413536433732412D334336422D344534382D414142302D3145323239443841464642442F4173736574446174612F446566696E6974696F6E4974657261746F7250726F706572746965732E62696EEB606060F80F0540260323103700495E20ED
311
9E9A975A94991C9C9C919A9BC8C00612C9C94F4ACC6147C831019920AE4B6A5A62694E0948976F6671726A4E4E625E6A7E69B12042A9426E6209D0B8C41C3D90264E20860914834C48875806B2DF0F88414E02D189290556F689C5C5A925B6FA694915FAA6864E0616AEE626BA6EAE0626BA2606A66EBA4EAE6686BA66C606
311
96264096A999A1A37E516A717E6951726AB1BE91BE413CD4E4F882BCF4A048C73A43068620A0F52C0CEFF79D0CDBE95A16FEC34A0F68914B7A73CC4E83999B804C24B00F00504B0304140006080800538F76574F37BDE716010000300200004500000036413536433732412D334336422D344534382D414142302D31453232
311
39443841464642442F4173736574446174612F496E7374616E636550726F706572746965732E62696EEB606060F80F0540260323103700495E20ED9E9A975A94991C9C9C919A9BA80214303732B230707632D135B17432D035313172D5757435B5D435373534747335337171353460476804693136048A1A01D5989A9818EB
311
9A981919EA3AB939B9E81A9A1B1B389B393B5B3ABA5A029581ED65D08CE93FF455E38A3D9066028A3500318C0FA6817C20F8600F51CDC020E0C020001602132A0E08365616502304C01958950105E10A3E3003790D400CD5FA004AF300853001281C113270433014A6EC74C0104311C0D40A325A0349CD077B16200F145B7C
311
401C5C9E58929CA1EB54949897929A029291D81E12E3000CC49043107AC259087DE60684E67802A15DDE43E8865F107A0F6B2858DF0F01086D2203A10BD4213400504B0304140006080800538F765728BB58AF800100009E0500003D00000036413536433732412D334336422D344534382D414142302D3145323239443841
311
464642442F536368656D61732F436F6D6D6F6E536368656D612E786D6CBD544D4FC23018BEFB2B96DE15493C78601010A34B880709DEDFB52FD0D8B54BD70DF6EFED3AC0B12E6442E2716BFB3CEFF3D18E26FB440405EA8C2B1992E1C323095052C5B8DC842437EBFB673219DF8DA659866649B798C078B48AE6410122242F
311
2A4994AC7F93815DF85C049C8564CA0A901499DD886B2EB9B1E02448F358701A9235880C49A0119892A20C89D1B9FD768815CAD268CB5E0355B40B1E47F3E37A2020464BED06AA57CE8FCC20C3C3446D46761A2632A8C1283D07031EFF2AE7CCB1BFEEE916E406DFAC8E36FFD99A9D60A6944090EEDC3B670C7DC13DE86B6B
311
2C5C240D6E503BB85ACD579D513F1B9F9A69DC9CC22AFA80C426D40AF0B21EA168559156B6276F0F726A6BFF04DCD513A87A62CAD41FB24FCB2858B3952E3D852084DA25B9303C15687973CC8E8AAE11DF2836C38C6A9E765E8C1BA1BFB1DC29CDFE518C8B5A7655A4ED7E77291ABEB80DBD82EC866ADE1B8D05AF9E35CF09
311
D7A061F38A986D9EC412B8F0F65E5D81534D9B231D1E5A8FE577A241F3A5FD01504B0304140006080800538F76572CCEBD668A040000E01200003E00000036413536433732412D334336422D344534382D414142302D3145323239443841464642442F536368656D61732F47656E65726963536368656D612E786D6CD5586D
311
6FDB380CFE7EBF42F0F7A649B70E1B90744856B4970F450FCD7A5F05459613EDE4174872DADCAF3F522F8ED3B88D2F1D06AC4050DBA2493EE4438AF2F8EB73AEC8466823CB62928C06C384888297A92C5693A4B6D9D9E7E4EBD51FE3A931C22EF85AE4EC6AFC38BF261BA626C9AD288496DC3F4FCEAFC63366845F7A10452A
311
F41DB320C0D44EC26EAB20918735565582695670811A6A49643A49A6E9069FA4604A64B29016DC4B48552F95E4932463CA888468C1D2B250DB4962750DF7CE273069CE8363F1FF4EDB00E0A21999574AE4A2B00C353B93F3BD4777B8A61ED8F604ABFEDD79CE56A2B7BDFBDBC50996E0ADDE16FED26223C5D30956C29BDF4A
311
55EA686E5E58B112DA45CE67F76F4FA27EFA3FB672FD7372FC388FAECDCA5209E693CAD167BADCD272F943701B3812F8A3D852008B1D2E32DB927B2F833C6EA95879925356D254582695095A3CE982924720BE5774A3CB9CDCDB350427D2DF20DA1B5532EBE2D5D6288D75D4F7E4FD9890A0EF8E3D93EBB8F8BA4758158EF6
311
FB90A6F9520281C93DE7AAC6D24607DA296BB96018123F821A7D6A5C5884050C475DA4865442732C8B95684A50165CBB3A32F25F783A4A480ED59AD7F924B968AEA50131F46303223E6A397B0E52976030DC1DCA81D7E7C1EDEEA42C19FF27635C505E2BD5198A599020DF50A2330FCB3AAF28CB0124108429553EF1B22880
311
2E2265D8F7CC2401042B155BCC7070F1E5C55F13B4A9577362CCCE46C32174E010C3C378C44841A4BDA00FE3A12006CE11EE6AEC59894D3526DDE1CD59D503ECC324017F8061B7F162162FA62EDD81AE3308617770796DCBDAD2B2625C5AE8A63DE20B2C8AA5E95E76E5730823955956E33E705425A2187C185D36489A1B44
311
D3DCEC2172F6BA2105C3546287A7194B2331768EBBE64F6E70A9930ABE0ADEA89E9E2C38523B810287AD67A54A039C1606EAFE68F8304610BB9093DBDDABC0B2AE4E290DCDA15376D7E39F72B556F0B32EAB5D3D498B4C41ABADEC3A1434C422D87E8025A84BDCB2B1417ED750FAE4DA8976863974C577C7F902D3F156AD35
311
4DEA3540DE6BEAE2BEA52F7A2EB4CA43802ECE5BF2CE2EDC9347179FFB023CE412E60BE16DA0BE29B374988A553F561DC04615DD35F7D2C8979F60E5955CE93DF29DED8AFA1EE6642D53418086C03C47C377910F75F7E8F5EF665F70B60FFB22AEDF897D119E8423C773E819A3C1E55E550599EE6EDCA34D0C86FD72057DF2
311
CD46F16A470682471C164E4346D5306BF12D7D12D82CFF673D41636C347443FEB51B50D72EA171A8E4A58623A4A16E0FA2B8B10A0D23268D87C33896EE8FB73305A74BF224EDBADFA0BD674AB354D63DB7BD5D83426761C077DE767728235446A552754EB93B755891C3C4CC6CADE37CF0E912A7BB38DBA010F9DE1282EDF4
311
70CA69A9CDA482E334C4A6EA4107987980B17E72F31730EBF88BBD39E7C629F56797A3C0009C2C5AE7951D9A05A02773440F02EEB4DE396A3B6A570C72CCFBCD823B0B8ED3F1D5CEDDFED772FA70236C83FB7D86C385D570B87107535572A60A96035F8F7C6A7192F13007246BBE0521855E6AC46F3E27689CEE7D186A6FD6
311
79D98CDCAD13333E04EBE7ED6F55FF01504B0304140006080800538F76576180134D5F0100006B0300004500000036413536433732412D334336422D344534382D414142302D3145323239443841464642442F536368656D61732F52656E6465724D6174657269616C536368656D612E786D6CA5934D6FC2300C86EFFB1551
311
EEE343DBA41D1A103009551ADAD40EAE28A4A68D9426284961FCFBE5A340113B2071746D3F765EBF4DC6BFB5407BD0862B49F0B037C0082453059725C18DDD3EBFE3F1E829991803366715D474942CD30FB4A782E00C64017A412D684E454CE3FE28995203B162A6EA5AC94B66997D225E109CD63B0135484BAD1B3C07E908
311
0CA35DB3119C11BCA5C200461A68A1A438126C75E3E230D40FF81FB3F03C91D1E3A3A0AF79FE28E25BC39EC3E17E4C2A2D94A0833A51AF55BCCA7D88572FCBAC529C4140B020FC3AAFA886621DCED7EAD7664CC86024E806DC297DA1BB393E4156543457A4537DB8817349A70F8ACBF09B3EEE2CB2F33E91B65D60786E4E3B
311
39B77E3FEEEF5650424525DA657FB8B46BE6BF064646F0A0F7327C0BC1BC1B4CBBC1C419FA3CCB23500007872A2580CAAE5461865565294E4EDB4617B62FF579DF9A5B2F54E834076A597573A020912FED777F9B3F504B0304140006080800538F765784069C5851000000570000004700000036413536433732412D334336
311
422D344534382D414142302D3145323239443841464642442F4173736574446174612F41737365745461626C654F66436F6E74656E74732E62696E53616060303732B230707632D135B17432D035313172D5757435B5D43537353474733533717135341002AACB4D2C492DCA4CCC492C28484D2C4ACC4B4E050A82012F9074
311
4FCD03CA26072767A4E6260200504B0304140006080800538F7657F865834058000000680000004500000036413536433732412D334336422D344534382D414142302D3145323239443841464642442F4173736574446174612F53747265616D56657273696F6E5461626C652E696E66558CBD0A80300C06F73E4B117FB66E
311
451741D041DC5BF98480A492E4FDD18EAEC7DD4555D89EF28DF51A0B1BD8340C4DE7DD848B988C0ACF0649566493F2408C508DDEBB99D5129FF8F1AF8CF5B9503E20FAE5A16B5AF702504B0304140006080800538F765792144CC4350100009A0400003600000036413536433732412D334336422D344534382D414142302D
311
3145323239443841464642442F4173736574446174612F636E782E786D6CCD94314FC3301085FF4AE43D76930A512AC71582A51348540C6C57E752AC3A76645F10FC7BEC2603A888A943D7F3BBF3F327BF939BCFDE161F18A2F1AE61155FB0029DF6AD7187868DD4952B566C940CDED30F192B1CF4D8B05C664A1E821F87B9
311
D46207A3CD556BDC712EDEC788B483BDC5A7EEC13B42479115DA428C0D8BFA1D7BE030926F311E790B04BCE201A31F83C634894C8FF3241D10085BA6EA45BD2CABAAACEB5D75BBBE59AD97776F5264A5927BEFEDAC37E9B2E087424FB732B590221F2B3906336BF25B98FACB23DF1B2745522A1929242673077D0DA90386C1
311
1A0D94D009AF09A94C22845E8A49ACA4C80C7E9178C4CE38935BB6C918900FCFC91E0632787544FEF37A79325B17099CC6EBE571EEF0F2145E4E3FE8750AE42931D796937387DCB8EE022911A735924293B78AFA06504B0304140006080800538F7657B6AD61B1090100004F0300003400000036413536433732412D334336
311
422D344534382D414142302D3145323239443841464642442F536368656D61732F636E782E786D6CCD93BD4E042114855F65423F30331BE3BA61D8C2C2CA46ADEC10EEAE64813BE1C7E8DB0B23C56E62A7C57670F842CE395CF8FED3D9EE034234E86732D28174E0156AE38F33C9E9D06F49B7173C20A6338C745E3A984995
311
89E0C7807969928683CCB6AAD6F85313EFD139F4CFEA1D9C249DB232C699C4754B654EA8219EA89649D29106889883827243320EDA0D2A804CA089988669D38F633F4D2FE3EDEE66BBDBDCBD725649C1DF106DE38D4F1070E91496852F7606CEEAB1E03998C6D40C449C7BA3A50DCE0A21784CA174D0C8F4B514522E8B354A
311
A652155BC11F467056A35E047E000FC1A8EB4C7C61EEDF223F81D7101ECB2B0523ED7526FFCDE3DF0A60EBEC9711A85F417C03504B0304140006080800538F7657410A3D5871000000A40000002C00000036413536433732412D334336422D344534382D414142302D3145323239443841464642442F636E782E786D6C55CC
311
4D0E82301086E1AB34B31774E7A22D31F1069E60020334B633A63FC6E34B0909B07DDE2F9FEE7EC1AB2FC5E4840DDC9A2B28E25E06C7938192C7CB1D54677514C9871928C640062A83D55394F2D968A0118BAFEA1DBF377CA444F98919176EAB9FEAAB9F2960DA5BBB1E2ED3FA6FFF504B0304140006080800538F76579B43
311
BB757F000000A300000007000000636E782E786D6C4D8CDF0E82201C465F85FDEE292523DA0007FE790F97E89C088DA4F5F841F3A2AB6F3BFBCEE1F567B3E86DC26BF14E40792A0019F7F0E3E26601719F3003544B1EBCDFFF6E80DCB019011983E473F0F179A0D14C43B499DAC5AD07A4EA4A9B1B51F8D2508DABAE625829
311
5DE0B223E4DE32D5F7BA4DC6392B697EBDB4392FBF504B0304140006080800538F765716E99B5DA600000035010000130000005B436F6E74656E745F54797065735D2E786D6C9590410E82301045AFD2740F4517C6180A0BF5065E60AC53688469D30E066F6F91AD9AB89CF9FFFD3F99BA9DC7413C3026E749CB4D59498164
311
FCCD51A7E5C4B6D84BD136F5E5193089ECA5A465CF1C0E4A25D3E308A9F401292BD6C711388FB15301CC1D3A54DBAADA29E38991B8E0254336F5092D4C038BF39CD76B6FC6A538AEBEA54A4B08617006389FA516557DE4AE8E7E70DE30729138228C5F021CD93F02D4FB0DCD0B504B0304140006080800538F76573DEE336E
311
64000000790000001B0000006175746F6465736B2D64657369676E2D7061636B6167652E786D6C35CBC10E83200C00D05F21DCA56CA76D41FC96062B120735B69A7DBE268BB7777961F8D5AF396893C2ADB70FE7ADA196782C2DF776D7A97B5933C430F15651E5469C55D70F80A4992A3ADC954792C525AE70A1E4D6AD9816
311
CC044FEFDF01FE3FDE907802504B0304140006080800538F765738DAEA9BF8000000960100003700000036413536433732412D334336422D344534382D414142302D3145323239443841464642442F4173736574446174612F636F72652E786D6C8550CB6E833010FC15B4770336492191714449FA053DF566D90EB1126CE4
311
47D5CFAF1DA8D49E7ADAD5ECCCECEED0D3D7FC283E95F3DA9A1E705943A18CB0529BA98718AEA883E2C4A8B336FCA24161F8AC7AC830303A391B970D12D60465326AAC541BC8BD57010AF1484D0F5EDCD4CC4B1E4362F87BB97071E7932A71B9F2188D51CB4DAA6572D357AD1C304270BBDB8F2F087707827663F386864BEA
311
CE635B37F5A51B865742AB2C6634E8F967BB708A072593BE260DC21811F28EDBE3BE3B36870F5A6526A33EB8F4F3B6347F076CC8579F79E0B45AA77F5CE322FF778DDA84866CAEABC203C3E9C8E780D12AA794CA33C25473A2EC1B504B0304140006080800538F76575F2D4543F70000009401000035000000364135364337
311
32412D334336422D344534382D414142302D3145323239443841464642442F536368656D61732F636F72652E786D6C8550CB6E833010FC15B4770336494322E388D2F407DA536F96ED102BC1467E54FDFCDA40A5F6D4D3AE66676677879EBFA647F1A99CD7D67480CB1A0A658495DA8C1DC470452D1467469DB5E1170D0AC3
311
27D5418681D1D1D9386F90B02628935163A5DA40EEBD0A5088476A3AF0E2A6265EF21812C3DFCB998B3B1F5589CB95C7688C5A6E522D939BBE6AE58011820FBBFDF084707B24683734AFA8BFA4EE6538D44D7D69FBFE99D02A8B190D7AFAD92E9CE241C9A4AF4983304684BCE3C369DF9E9AE307AD3293511F5CFA795B9ABF
311
03F6B6DCE969B5CEFE78C659FEEF19B5090DD93C57850786D389CB80D12A6794CA1260AA394FF60D504B0304140006080800538F765772F336D703010000D70100002D00000036413536433732412D334336422D344534382D414142302D3145323239443841464642442F636F72652E786D6C9591DD72832010855FC5D97B
311
346034268364343F4FD0ABDE51D95826111CC04E1FBF58EDB4BD6BAF600EDFD9E5ECF2E3FBF048DED0796D4D0D34DD4082A6B34A9BBE8629DC4805C95170676DF8814162E48035CC3208DE3B3B8DABD45913D0CCAAB10A57517A8F0192EE112F35F8EE150799CA2944C2DFD3517677D9634AD385133CE8E1CBDA3994011508
311
B66139A19430F6447787A23AE4FB679ECDA4E0933621676B331C5E5025760C3112888267CB6BA426AD5646ABF8477DD3E840944D519E76AC21F9A96CC9F6B2AD48D3B41B422F8CEDCF5573BDB6E758249A05F7C1C5C9AC45E619FCD5BE187F259B46F5CF648BC383A0DFA1B279CC82679F3B88E7BC12F101504B0304140006
311
080800538F7657AD9E7BFC07010000B201000008000000636F72652E786D6C8D50CB6EC32010FC15C41DDBE0A476224CE4BAE917F4D41B35C441B1C1E211B57F5F88A9D4DE7ADAD5ECCCCEECD2D3E73283BBB44E19DD415C5410483D1AA1F4D4C1E02FA885E0C4A835C6FFA241A0F9223B9860C8E8644D5833341AEDA54EA8
311
364266903B273D04E31C9B0EBAF12A175EF0E023C3DD8A958F373EC902171B8F51AF961FE96825F75240462A52238C11216FB839EEDB637D78A76562321A8212D94A89E8AE2E4ADA2821B8D9ED872784DB0341BBA17E45FD39762F4353D5D5B9EDFB6742CB2466D4791B6FCE4B624E0F1CBF275F5A6E23463F8C9933218612
311
C0E8F90BB28A9669F0277458C53F422BED6B92176E0A07198E811E83689C3E18CBE3BDB1A66FB36F504B01021400140006080800538F7657E4E2F69AD6000000200100004F000000000000000000000000000000000036413536433732412D334336422D344534382D414142302D3145323239443841464642442F41737365
311
74446174612F446566696E6974696F6E4974657261746F7250726F706572746965732E62696E504B01021400140006080800538F76574F37BDE7160100003002000045000000000000000000000000004301000036413536433732412D334336422D344534382D414142302D3145323239443841464642442F417373657444
311
6174612F496E7374616E636550726F706572746965732E62696E504B01021400140006080800538F765728BB58AF800100009E0500003D00000000000000000000000000BC02000036413536433732412D334336422D344534382D414142302D3145323239443841464642442F536368656D61732F436F6D6D6F6E53636865
311
6D612E786D6C504B01021400140006080800538F76572CCEBD668A040000E01200003E000000000000000000000000009704000036413536433732412D334336422D344534382D414142302D3145323239443841464642442F536368656D61732F47656E65726963536368656D612E786D6C504B0102140014000608080053
311
8F76576180134D5F0100006B03000045000000000000000000000000007D09000036413536433732412D334336422D344534382D414142302D3145323239443841464642442F536368656D61732F52656E6465724D6174657269616C536368656D612E786D6C504B01021400140006080800538F765784069C585100000057
311
00000047000000000000000000000000003F0B000036413536433732412D334336422D344534382D414142302D3145323239443841464642442F4173736574446174612F41737365745461626C654F66436F6E74656E74732E62696E504B01021400140006080800538F7657F8658340580000006800000045000000000000
311
00000000000000F50B000036413536433732412D334336422D344534382D414142302D3145323239443841464642442F4173736574446174612F53747265616D56657273696F6E5461626C652E696E66504B01021400140006080800538F765792144CC4350100009A0400003600000000000000000000000000B00C000036
311
413536433732412D334336422D344534382D414142302D3145323239443841464642442F4173736574446174612F636E782E786D6C504B01021400140006080800538F7657B6AD61B1090100004F0300003400000000000000000000000000390E000036413536433732412D334336422D344534382D414142302D31453232
311
39443841464642442F536368656D61732F636E782E786D6C504B01021400140006080800538F7657410A3D5871000000A40000002C00000000000000000000000000940F000036413536433732412D334336422D344534382D414142302D3145323239443841464642442F636E782E786D6C504B0102140014000608080053
311
8F76579B43BB757F000000A300000007000000000000000000000000004F100000636E782E786D6C504B01021400140006080800538F765716E99B5DA6000000350100001300000000000000000000000000F31000005B436F6E74656E745F54797065735D2E786D6C504B01021400140006080800538F76573DEE336E6400
311
0000790000001B00000000000000000000000000CA1100006175746F6465736B2D64657369676E2D7061636B6167652E786D6C504B01021400140006080800538F765738DAEA9BF80000009601000037000000000000000000000000006712000036413536433732412D334336422D344534382D414142302D314532323944
311
3841464642442F4173736574446174612F636F72652E786D6C504B01021400140006080800538F76575F2D4543F7000000940100003500000000000000000000000000B413000036413536433732412D334336422D344534382D414142302D3145323239443841464642442F536368656D61732F636F72652E786D6C504B01
311
021400140006080800538F765772F336D703010000D70100002D00000000000000000000000000FE14000036413536433732412D334336422D344534382D414142302D3145323239443841464642442F636F72652E786D6C504B01021400140006080800538F7657AD9E7BFC07010000B20100000800000000000000000000
311
0000004C160000636F72652E786D6C504B050600000000110011005A060000791700000000
310
504B0304140006080800538F7657000000000000000000000000370000006662782F44444342343342312D334536312D343234332D393330332D4538454144384246344142302F617474726962757465732E62696E504B0304140006080800538F7657000000000000000000000000350000006662782F4444434234334231
310
2D334536312D343234332D393330332D4538454144384246344142302F76657274696365732E62696E504B0304140006080800538F7657F270F1330600000004000000360000006662782F44444342343342312D334536312D343234332D393330332D4538454144384246344142302F747269616E676C65732E62696E6366
310
60600000504B0304140006080800538F765751464CB48900000043010000360000006662782F44444342343342312D334536312D343234332D393330332D4538454144384246344142302F6469726563746F72792E786D6C9D8F310EC2300C45AF127987122606C71DD918B841D4B851A43646695A717C52A85029031293A5
310
A76FBF6FACEF7DA7264E43906840EF0FA03836E242F406C6DCEE4EA06AC22492573150D1F66C60C640E8938CB705396EEDD86DE9B5042FE27813D640EA63BB001C722AF6E55CB61E4863F58284D5D3F53DD715CE1C3985E63FD7F1B7EBDD617E9F1E504B0304140006080800538F7657E617812F3A070000201C0000340000
310
006662782F44444342343342312D334536312D343234332D393330332D4538454144384246344142302F6F626A656374732E786D6CDD59596FDB3810FE2B84F665F7C13A7C252E1417B1E3044691B6A8D1C5BE09B44C3BDC5007282971FAEB774891B2A8C8B6D2032836016285268733DFDC23FFFD3E62E889F08C26F195E5
310
D9AE85481C261B1AEFAEAC22DFF62E2DF47E8A7C9E24796D9F85621C912B4B2C5B537FC79322554B1BB2C5056BAEDECEFE4159486262A190E12CBBB2B2F08144D8C6459E6C48F6686F708EEDDD766F7B76B9D124BBE3387D685C95624EE21C5885F518A8280E3CF35F10C999FA8ED8606C1B74DBD63FB1CD91829B8CD238CB
310
711CBEE2AA715DFF08578DEB06DEF066D11F4D7AA3E170D01B8EFB5E6F763BBBE9791703773E9ECF27D78B8985A6FE3A4958A58094C41BD0E28B35F57C477C5389AF5068E33B4CE298840ACDB60D1BA2E8529235313180F5A468358594B2D616061D853FB2AD1328064B06DA5A38FD59B7DE64FD2F809075B1529E1161E559
310
CE41D70AFBD21F5CDF29570DBDD00C4538279C6286185D73CC4141B0B554904146788B20850466528B9A5E9D5730ECF3BED4C6E5B6604CF8AF35959E16803F923C939CD16F841FB8AFDF063C81B4058DF34B256CFE92028989EFC8C5F2BB415F7D590289B60CEFC05A404CB169D06FE03517B16079634D3FDCAEF72B111FDA
310
2F4F7992129E0BCB93CEACFC4E6BB0665A607C1D40297135757740E50B40FF1190AF78413E688ED3FD703FD4B2731C67DB8447A01DE4A29E0B7F5C241E5F3DF94E75788A90112B8F610A6EFB933035C430EEAE413AF59FC0E8133E50C2AD42CCC0A6EF692CFC1C0C05B1049620DE6FD77B6BBA84600A8B700A33901E7E7D47
310
3C22F828E940BC6968A82DFC7650947698A69F1D74750736C36958A9CA90F118BEA39F82EFF5CDEAC3AAE05B1C927BE5D837644B639A43326D67C800DD70F9AFCB8FD223EF58B2C6EC70DAD814C235BB44C48D16B5AC945A90D40B7022D270A919B9724FC1DB19C331498A4CADB7C5A93061090FD62F41E9C2AD77FDAD6DA0
310
BC4C19406B2C83E41E729A0A4CACA9D2561508ED9AA06061982B0BDC955A0DD6459406384A8A5884DAD7A6D8E403E28CB044A02AA969C3D65EABC96EE8765B6410BC5A49CE0D20953F6BC2A5850F218EB5F1CBC9966348A2491C50C8C1E02CAD37181754E09DE639236C1B50C68A28D85206792488707A847E4709EA99EB91
310
BC3C277CD34AD0B42CED93DA8604E00A580D92CE5665CC573AE5E4898A3253E6339D0D8C1DAA0EB5A6C323E942648A1640B5314A33BFE8F72FDDF96CD81B4E666E6F38EC2F7AD70B28A02E469E77BB184339E51DAC4422708856F57C07AA14658EE17FF94311AD634C197C21C4C69BF4DD7B993DAF1C088DCEC89BB9978B8B
310
61EF76E10203EEE8B6375B8CBDDE78E04E86F0341A7BD70E275952F090644EDF71036D9269BC6BA2773E864259733ED9697D3585F91FC7D0664E3094F8BB06D1CA2A5B0AC2AE41541C6D86501C3E8A14158450F5B5BA4F238836F9688B736F8CCBAE3D70E58FE74DFAEEA47F391957C67E3250CB7B7E38CEB5491042DF59E4
310
4192E290E6ED09B5814BC738FDA6DC620FBC110274AABFD525A7F38CBA24A011DE91608B4597D01218CF49D09AC3762CC9321A934C7679AFAABF064DD78662CACCB92D4648B3202239FE1EFB936D43C3A62136B300FAD15C4C04CE56059541AB0EE41845D1FD42E296F2BF04198E525676BAE730F0FA1A02DDE3B4599C605A
310
5CF104F616E03C7037440E2ECE51AFD8D7F541ABD69AD427DF4DFE083CBAAEF985F0E82BBA974EF6C89B889F4B082AE39137B8D08A388795BE2A177D1C2BA0F30C5F826742770F9D0ACD6E3AA9956C65519D9308DA589C17BC93BF8E47EEAB8B545C683844EDA6371687B27FD31D1CA0271BB863E56DED1AA843690C73AE4E
310
82BC92A2D584A52EE44C4F8CAEDEE0D727955DA7FAC3F1F29757CC75E78BE4F0E73C0E502D970158451FA3A66EADBA8D7A287BC679088174253F7B33F0880DD91C1A33835C5B89AEEBD473D5F35204D40826B658C4D97BF1C0BE60503574CF997357166D4EB9BE1489CD86E1F4810F836993D6A7BB55830AAC743EFD596044
310
9E1B14D4EA5C74C327487D5D1E7AFE060525D1D7E589E3BF4547A115581BA3C134384B1885A13CD9A01D49207BC3D8A143B7C12392C9AC0CC6AB82947E23D0E1F4533953CDF19AE9D3E10386C13453BD5811C2501432E695A5D6D11F3006159348399CB21FA10D5331CC4205A75716586C4EA1DBB2D730CE92C34349BD31AE
310
04C7C6F14EE4FBF254F5FFE1984007A2D241AE6A4F175C9464863341619BCAF70450F5955F4CFDEF175DB383700E8FEB22AF84392C1CA45120E81702A57030F57B54F0EEA1A0382D9767CB3D06249D26F327EDA0A4DACB31DFC9F17A0DEFEB9BCF8E988C2F3FA194153BA1CE53DDAF41A927BA6E569453281F0C4389996251
310
43CEDF399F7902AF9822744BC108D09FFBCBF15FCE3C89A2242E979C6BF5A20AAD1EE0B5D3C6D1233F68E35D6FE4C829801AEB076B9C111B6FB2475800D5722A66A325C4860154D1B466005A23421770CCD8BFBC41AA36AA4D48EA6157C02367FA081C49BCCB116E53DF501B40822F0057F2CBC3835EF01D0E43F0E97F504B
310
0304140006080800538F7657F5C830153F01000046050000300000006662782F44444342343342312D334536312D343234332D393330332D4538454144384246344142302F636E782E786D6CCD94414EC3301045AF62799FB849852895E34A2C38010BC4CE71A6C134B1237B8CE8EDB18B5340A88845A576678DFF48FFCD7C
310
0DDFBC8F037903E7B5350DADCA05256094EDB4E91B1A705BAC28D908EEACC56F324A8C1CA1A1A94C05EF9D0D532E75B0956148D5419B5D2E4A44A7DB80E0295183F4BEA15EBDC0284B19D076E0776527519655E9C0DBE014C47ED423E47EE540227454D48B7A59545551D78FD5EDFA66B55EDE3D73969482B7D60E59AF0D82
310
B31351363E4C34B3E02C7D0B1E9CCE9A4440C597B3B2D586B3F82FB88F6E4D9F75B89F926E9A06AD24C63131AB10B088229023679F62C159E2FD41FD70FF343B209D76A0D0BAFD8506509D1AC0D1581993F03FFE83F06F6CDBBE46DC4B6DFB246CB67536D439AD3EC6F5F7FE638AA4E987EB0BFDD1D8F9331F4F096A757DC8
310
B3AF3311B3C3C98B4B4F17507C00504B0304140006080800538F765735B5CB137D000000A30000000B0000006662782F636E782E786D6C4D8CD10AC22018465F45FE7BCBA584813A66DA7B8CE686E4346C468F9FC62EBAFAE0F09D23FACF1AD0DBE5974F51427720805CBCA7C9C74542D966CC01F54AE494B6BF1BA038AE4E
310
42C3A0C4925379EE6872F35842A3C1C7C70E8DB96A467587A93D77989D18C5174A28B6DC0E86EB1B1B34A9C6B129757EBDBA2DAFBE504B0304140006080800538F7657A6D797065F0000008200000007000000636E782E786D6C4DCB3B0E80201045D1AD90E9FD7516806B51190811670C8A61F982B1B0BAC9C97B72CA7B10
310
37C6D3332918DA1E04D2CAC69353902EDB8C20262D23F3F59B81A079470595414B17391D1F19B4730A5583A7ED43BBE4025D9592775E5ADFFA01504B0304140006080800538F76574FEB6A7CA0000000F4000000130000005B436F6E74656E745F54797065735D2E786D6C7D8F4B0EC2300C44AF1279DFA6B0400835ED02B8
310
011730C16D239A8F121795DB93D02D6269CFBC19BBED573B8B17C564BC53B0AB1B10E4B47F18372A5878A88E20FAAEBDBD032591BD2E299898C349CAA427B2986A1FC86565F0D122E7318E32A07EE24872DF3407A9BD63725C71C980AEBDD080CBCCE2BAE6F5D69B7110E7CD57AA146008B3D1C8F92C5954F993BB1BF787F3
310
9A89ABC491D09600F9FDA2FB00504B0304140006080800538F76573DEE336E64000000790000001B0000006175746F6465736B2D64657369676E2D7061636B6167652E786D6C35CBC10E83200C00D05F21DCA56CA76D41FC96062B120735B69A7DBE268BB7777961F8D5AF396893C2ADB70FE7ADA196782C2DF776D7A97B59
310
33C430F15651E5469C55D70F80A4992A3ADC954792C525AE70A1E4D6AD9816CC044FEFDF01FE3FDE907802504B0304140006080800538F7657FDC3D7C0F9000000960100003B0000006662782F44444342343342312D334536312D343234332D393330332D4538454144384246344142302F7265736F75726365732F636F72
310
652E786D6C8550CB6E833010FC15B47703860648641C95D07E414FBD596643AD041BF951F5F36B072AB5A79E76353B33BB3BECFCB5DCB34FB44E19DD03CD4BC8504B33293DF710FC9574909D39B3C6F85F34C8B458B087040367B33561DD2169B4479D506D26DC41E11C7AC8E43D363D38F9818BC845F091E16EF92AE44DCC
310
98D37CE37116829A76A99AA29BBA2AB4C0C74B35D4CFB425CD6B3990A7F17220C797A6214337D26E6CEAB2698FAC4862CEBC5A7EB64B8BC2E304BC2AAB9A504AAAEA8DB6A74377AA8FEFAC484CCE9CB7F1E77D69FA0EB845678295E858B14DFFB88675FADF3528EDEB6A77DD140E388D473E069C1529A5581E11C69A12E5DF
310
504B0304140006080800538F7657767687DCF3000000B1010000310000006662782F44444342343342312D334536312D343234332D393330332D4538454144384246344142302F636F72652E786D6C8D50CB6EC32010FC156BEFD806DCD68930515CBB5FD0536F08131725068B47D5CF2FC4AED4DE725A343BC3CC0E3B7D2F
310
B7E24B39AFADE900973514CA483B69337710C305B5509C3873D6863F34288C5854071906CE6667E3BA43D29AA04C468D9DD40E0AEF558042DED2A3032F3FD5224A114362F86BB90A7915B32A71B9F1380B7AF9954AA74450137052138A304684BCE397E3537BA4870F5665266731EA69B7D25372D717AD1CF06178ED1BDA63
310
44C7678C1AD25074A03545633B9E87B67F6BCE7DCDAA2CE6CC07976EDE3FC9D73D2ADF84FF32C7757A20B3368192DD705378E038E5B92F38AB728169DCDB4D3397CD7F00504B0304140006080800538F76577E08CCFE55010000DD0200000C0000006662782F636F72652E786D6C8D52DB8E832014FC15C33B2ADA5ADB20CD
310
B6EE7EC13EED1B45EA922A1804D3CF5FF012D787BDC404C99C7366CE4CC0E767DB0403D7BD50B200288C41C0255395907501ACB9C31C046782B552E65B1B08246D79013C0C08AEB5B2DD0C31250D971E95AAE23348FB9E1B10B0C65D0AD0B34FDED2905AE33AFA47D851F6A0350F5138F5116CADA8E65151393671175C0352
310
5E934BFA820E307B8B2F70575EF7F0F89A65F09297282FB334CE0E471CF961828D681775A63935BC0224899314220493E41D1D4EFBFC941E3F70E43B09EE8D769E6751EF0E90FBED89A309DFF0D9AEFA9BCF0A69D264E69B267A40905B6F2C101CF97CDC6F0C6F9BA11376F9197A6B160B0F070D9C19A577AE5229BB9606DA
310
58EEA8E360FC7034551DF348F0134FF20BCFEF1C2E282A6BB71A35EE7AB3C6AB6F77EAB88683790652E99636EB72D38AEBB90A6D2C2DE34C354AFF677AB1BA8419F98749BE00504B0304140006080800538F765762FE894D09010000B201000008000000636F72652E786D6C8D50CB6EC32010FC15B4776C831B3F224C54C7
310
ED17F4D41B35C441B1C132386AFFBE10BB527BEB69D1CCECCE30ECF4398DE8AE16A7AD6980241920657A2BB5191A58FD0557804E9C2DD6FA5F3240464CAA81080367C362D779877A6BBC32113556AA1D14CE290FA81FC3A301D75FD52412B1FAA070B76416FD4D0C2A21C9A6E3CCEBE967B55F94F04A02A719CD312198D237
310
521E0FD531AFDF591A959CADAB96BB9596C15D5FB45A807767DAE6CFA4C4C56BD6E2A7EE7CC0F54B51E0B6EA48D515795694354BE33267CE2FE1CFFB9190D32327EED197A51BC5D987B5E32E08A124B266FC029EB134127F42AFB3FC47686D7C4EF783DB86034E42A007118C6383613CEA0D33B6CDBF01504B010214001400
310
06080800538F76570000000000000000000000003700000000000000000000000000000000006662782F44444342343342312D334536312D343234332D393330332D4538454144384246344142302F617474726962757465732E62696E504B01021400140006080800538F7657000000000000000000000000350000000000
310
0000000000000000550000006662782F44444342343342312D334536312D343234332D393330332D4538454144384246344142302F76657274696365732E62696E504B01021400140006080800538F7657F270F13306000000040000003600000000000000000000000000A80000006662782F44444342343342312D334536
310
312D343234332D393330332D4538454144384246344142302F747269616E676C65732E62696E504B01021400140006080800538F765751464CB489000000430100003600000000000000000000000000020100006662782F44444342343342312D334536312D343234332D393330332D4538454144384246344142302F6469
310
726563746F72792E786D6C504B01021400140006080800538F7657E617812F3A070000201C00003400000000000000000000000000DF0100006662782F44444342343342312D334536312D343234332D393330332D4538454144384246344142302F6F626A656374732E786D6C504B01021400140006080800538F7657F5C8
310
30153F0100004605000030000000000000000000000000006B0900006662782F44444342343342312D334536312D343234332D393330332D4538454144384246344142302F636E782E786D6C504B01021400140006080800538F765735B5CB137D000000A30000000B00000000000000000000000000F80A00006662782F63
310
6E782E786D6C504B01021400140006080800538F7657A6D797065F0000008200000007000000000000000000000000009E0B0000636E782E786D6C504B01021400140006080800538F76574FEB6A7CA0000000F40000001300000000000000000000000000220C00005B436F6E74656E745F54797065735D2E786D6C504B01
310
021400140006080800538F76573DEE336E64000000790000001B00000000000000000000000000F30C00006175746F6465736B2D64657369676E2D7061636B6167652E786D6C504B01021400140006080800538F7657FDC3D7C0F9000000960100003B00000000000000000000000000900D00006662782F44444342343342
310
312D334536312D343234332D393330332D4538454144384246344142302F7265736F75726365732F636F72652E786D6C504B01021400140006080800538F7657767687DCF3000000B10100003100000000000000000000000000E20E00006662782F44444342343342312D334536312D343234332D393330332D4538454144
310
384246344142302F636F72652E786D6C504B01021400140006080800538F76577E08CCFE55010000DD0200000C00000000000000000000000000241000006662782F636F72652E786D6C504B01021400140006080800538F765762FE894D09010000B20100000800000000000000000000000000A3110000636F72652E786D
310
6C504B0506000000000E000E0080040000D21200000000
  0
XRECORD
  5
81AA
102
{ACAD_REACTORS
330
81A5
102
}
330
81A5
100
AcDbXrecord
280
     1
270
     1
271
     1
  0
XRECORD
  5
81A9
102
{ACAD_REACTORS
330
81A5
102
}
330
81A5
100
AcDbXrecord
280
     1
270
     1
271
     1
  0
XRECORD
  5
81AB
102
{ACAD_REACTORS
330
81A5
102
}
330
81A5
100
AcDbXrecord
280
     1
270
     1
271
     1
  0
XRECORD
  5
81A8
102
{ACAD_REACTORS
330
81A5
102
}
330
81A5
100
AcDbXrecord
280
     1
270
     1
271
     1
  0
XRECORD
  5
8526
102
{ACAD_REACTORS
330
8525
102
}
330
8525
100
AcDbXrecord
280
     1
102
DISPLAYNAME
  1
Imperial24
102
FLAGS
 90
        0
  0
CELLSTYLEMAP
  5
84ED
102
{ACAD_REACTORS
330
84EC
102
}
330
84EC
100
AcDbCellStyleMap
 90
        3
300
CELLSTYLE
  1
TABLEFORMAT_BEGIN
 90
        5
170
     1
 91
        0
 92
    32768
 62
   257
 93
        1
300
CONTENTFORMAT
  1
CONTENTFORMAT_BEGIN
 90
        0
 91
        0
 92
      512
 93
        0
300

 40
0.0
140
1.0
 94
        5
 62
     0
340
81D8
144
0.25
309
CONTENTFORMAT_END
171
     0
 94
        0
309
TABLEFORMAT_END
  1
CELLSTYLE_BEGIN
 90
        1
 91
        1
300
_TITLE
309
CELLSTYLE_END
300
CELLSTYLE
  1
TABLEFORMAT_BEGIN
 90
        5
170
     1
 91
        0
 92
        0
 62
   257
 93
        1
300
CONTENTFORMAT
  1
CONTENTFORMAT_BEGIN
 90
        0
 91
        0
 92
      512
 93
        0
300

 40
0.0
140
1.0
 94
        5
 62
     0
340
81D8
144
0.18
309
CONTENTFORMAT_END
171
     0
 94
        0
309
TABLEFORMAT_END
  1
CELLSTYLE_BEGIN
 90
        2
 91
        1
300
_HEADER
309
CELLSTYLE_END
300
CELLSTYLE
  1
TABLEFORMAT_BEGIN
 90
        5
170
     1
 91
        0
 92
        0
 62
   257
 93
        1
300
CONTENTFORMAT
  1
CONTENTFORMAT_BEGIN
 90
        0
 91
        0
 92
      512
 93
        0
300

 40
0.0
140
1.0
 94
        2
 62
     0
340
81D8
144
0.18
309
CONTENTFORMAT_END
171
     0
 94
        0
309
TABLEFORMAT_END
  1
CELLSTYLE_BEGIN
 90
        3
 91
        2
300
_DATA
309
CELLSTYLE_END
  0
XRECORD
  5
8523
102
{ACAD_REACTORS
330
84EC
102
}
330
84EC
100
AcDbXrecord
280
     1
102
ACAD_ROUNDTRIP_PRE2007_TABLESTYLE
 90
      512
 91
        0
  1

 92
      512
 93
        0
  2

 94
      512
 95
        0
  3

  0
XRECORD
  5
84FE
102
{ACAD_REACTORS
330
84FD
102
}
330
84FD
100
AcDbXrecord
280
     1
102
RTVSPost2010Prop28
280
     1
102
RTVSPost2010PropOp28
 70
     1
102
RTVSPost2010Prop29
280
     1
102
RTVSPost2010PropOp29
 70
     1
102
RTVSPost2010Prop30
280
     0
102
RTVSPost2010PropOp30
 70
     1
102
RTVSPost2010Prop31
280
     0
102
RTVSPost2010PropOp31
 70
     1
102
RTVSPost2010Prop32
280
     0
102
RTVSPost2010PropOp32
 70
     1
102
RTVSPost2010Prop33
280
     0
102
RTVSPost2010PropOp33
 70
     1
102
RTVSPost2010Prop34
280
     0
102
RTVSPost2010PropOp34
 70
     1
102
RTVSPost2010Prop35
280
     0
102
RTVSPost2010PropOp35
 70
     1
102
RTVSPost2010Prop36
280
     0
102
RTVSPost2010PropOp36
 70
     1
102
RTVSPost2010Prop37
 90
       50
102
RTVSPost2010PropOp37
 70
     1
102
RTVSPost2010Prop38
140
0.0
102
RTVSPost2010PropOp38
 70
     1
102
RTVSPost2010Prop39
140
1.0
102
RTVSPost2010PropOp39
 70
     1
102
RTVSPost2010Prop40
 90
        0
102
RTVSPost2010PropOp40
 70
     1
102
RTVSPost2010Prop41ColorIndex
 90
       18
102
RTVSPost2010Prop41ColorRGB
 90
        0
102
RTVSPost2010PropOp41
 70
     1
102
RTVSPost2010Prop42
 90
       50
102
RTVSPost2010PropOp42
 70
     1
102
RTVSPost2010Prop43
 90
        3
102
RTVSPost2010PropOp43
 70
     1
102
RTVSPost2010Prop44ColorIndex
 90
        5
102
RTVSPost2010Prop44ColorRGB
 90
      255
102
RTVSPost2010PropOp44
 70
     1
102
RTVSPost2010Prop45
280
     0
102
RTVSPost2010PropOp45
 70
     1
102
RTVSPost2010Prop46
 90
       50
102
RTVSPost2010PropOp46
 70
     1
102
RTVSPost2010Prop47
 90
       50
102
RTVSPost2010PropOp47
 70
     1
102
RTVSPost2010Prop48
 90
       50
102
RTVSPost2010PropOp48
 70
     1
102
RTVSPost2010Prop49
280
     0
102
RTVSPost2010PropOp49
 70
     1
102
RTVSPost2010Prop50
 90
       50
102
RTVSPost2010PropOp50
 70
     1
102
RTVSPost2010Prop51ColorIndex
 90
      256
102
RTVSPost2010Prop51ColorRGB
 90
-16777216
102
RTVSPost2010PropOp51
 70
     0
102
RTVSPost2010Prop52
140
1.0
102
RTVSPost2010PropOp52
 70
     0
102
RTVSPost2010Prop53
 90
        2
102
RTVSPost2010PropOp53
 70
     1
102
RTVSPost2010Prop54
  1
strokes_ogs.tif
102
RTVSPost2010PropOp54
 70
     1
102
RTVSPost2010Prop55
280
     0
102
RTVSPost2010PropOp55
 70
     1
102
RTVSPost2010Prop56
140
1.0
102
RTVSPost2010PropOp56
 70
     1
102
RTVSPost2010Prop57
140
1.0
102
RTVSPost2010PropOp57
 70
     1
102
RTVSPropertyOp0
 70
     1
102
RTVSPropertyOp1
 70
     1
102
RTVSPropertyOp2
 70
     1
102
RTVSPropertyOp3
 70
     1
102
RTVSPropertyOp4
 70
     1
102
RTVSPropertyOp5
 70
     1
102
RTVSPropertyOp6
 70
     1
102
RTVSPropertyOp7
 70
     1
102
RTVSPropertyOp8
 70
     1
102
RTVSPropertyOp9
 70
     1
102
RTVSPropertyOp10
 70
     1
102
RTVSPropertyOp11
 70
     1
102
RTVSPropertyOp12
 70
     1
102
RTVSPropertyOp13
 70
     1
102
RTVSPropertyOp14
 70
     1
102
RTVSPropertyOp15
 70
     1
102
RTVSPropertyOp16
 70
     1
102
RTVSPropertyOp17
 70
     1
102
RTVSPropertyOp18
 70
     1
102
RTVSPropertyOp19
 70
     1
102
RTVSPropertyOp20
 70
     1
102
RTVSPropertyOp21
 70
     1
102
RTVSPropertyOp22
 70
     1
102
RTVSPropertyOp23
 70
     1
102
RTVSPropertyOp24
 70
     1
102
RTVSPropertyOp25
 70
     1
102
RTVSPropertyOp26
 70
     1
102
RTVSPropertyOp27
 70
     1
102
RTVSPropertyOp28
 70
     1
102
RTVSPropertyOp29
 70
     1
102
RTVSPropertyOp30
 70
     1
102
RTVSPropertyOp31
 70
     1
102
RTVSPropertyOp32
 70
     1
102
RTVSPropertyOp33
 70
     1
102
RTVSPropertyOp34
 70
     1
102
RTVSPropertyOp35
 70
     1
102
RTVSPropertyOp36
 70
     1
102
RTVSPropertyOp37
 70
     1
102
RTVSPropertyOp38
 70
     1
102
RTVSPropertyOp39
 70
     1
102
RTVSPropertyOp40
 70
     1
102
RTVSPropertyOp41
 70
     1
102
RTVSPropertyOp42
 70
     1
102
RTVSPropertyOp43
 70
     1
102
RTVSPropertyOp44
 70
     1
102
RTVSPropertyOp45
 70
     1
102
RTVSPropertyOp46
 70
     1
102
RTVSPropertyOp47
 70
     1
102
RTVSPropertyOp48
 70
     1
102
RTVSPropertyOp49
 70
     1
102
RTVSPropertyOp50
 70
     1
102
RTVSPropertyOp51
 70
     0
102
RTVSPropertyOp52
 70
     0
102
RTVSPropertyOp53
 70
     1
102
RTVSPropertyOp54
 70
     1
102
RTVSPropertyOp55
 70
     1
102
RTVSPropertyOp56
 70
     1
102
RTVSPropertyOp57
 70
     1
102
RTVSPropertyOp58
 70
     1
102
RTVSPropertyOp59
 70
     1
102
RTVSPropertyOp60
 70
     1
102
RTVSPropertyOp61
 70
     1
102
RTVSPropertyOp62
 70
     1
  0
XRECORD
  5
84FC
102
{ACAD_REACTORS
330
84FB
102
}
330
84FB
100
AcDbXrecord
280
     1
102
RTVSPost2010Prop28
280
     0
102
RTVSPost2010PropOp28
 70
     1
102
RTVSPost2010Prop29
280
     1
102
RTVSPost2010PropOp29
 70
     1
102
RTVSPost2010Prop30
280
     1
102
RTVSPost2010PropOp30
 70
     1
102
RTVSPost2010Prop31
280
     0
102
RTVSPost2010PropOp31
 70
     1
102
RTVSPost2010Prop32
280
     0
102
RTVSPost2010PropOp32
 70
     1
102
RTVSPost2010Prop33
280
     0
102
RTVSPost2010PropOp33
 70
     1
102
RTVSPost2010Prop34
280
     0
102
RTVSPost2010PropOp34
 70
     1
102
RTVSPost2010Prop35
280
     0
102
RTVSPost2010PropOp35
 70
     1
102
RTVSPost2010Prop36
280
     0
102
RTVSPost2010PropOp36
 70
     1
102
RTVSPost2010Prop37
 90
       50
102
RTVSPost2010PropOp37
 70
     1
102
RTVSPost2010Prop38
140
0.0
102
RTVSPost2010PropOp38
 70
     1
102
RTVSPost2010Prop39
140
1.0
102
RTVSPost2010PropOp39
 70
     1
102
RTVSPost2010Prop40
 90
        0
102
RTVSPost2010PropOp40
 70
     1
102
RTVSPost2010Prop41ColorIndex
 90
       18
102
RTVSPost2010Prop41ColorRGB
 90
        0
102
RTVSPost2010PropOp41
 70
     1
102
RTVSPost2010Prop42
 90
       50
102
RTVSPost2010PropOp42
 70
     1
102
RTVSPost2010Prop43
 90
        3
102
RTVSPost2010PropOp43
 70
     1
102
RTVSPost2010Prop44ColorIndex
 90
        5
102
RTVSPost2010Prop44ColorRGB
 90
      255
102
RTVSPost2010PropOp44
 70
     1
102
RTVSPost2010Prop45
280
     0
102
RTVSPost2010PropOp45
 70
     1
102
RTVSPost2010Prop46
 90
       50
102
RTVSPost2010PropOp46
 70
     1
102
RTVSPost2010Prop47
 90
       50
102
RTVSPost2010PropOp47
 70
     1
102
RTVSPost2010Prop48
 90
       50
102
RTVSPost2010PropOp48
 70
     1
102
RTVSPost2010Prop49
280
     0
102
RTVSPost2010PropOp49
 70
     1
102
RTVSPost2010Prop50
 90
       50
102
RTVSPost2010PropOp50
 70
     1
102
RTVSPost2010Prop51ColorIndex
 90
      256
102
RTVSPost2010Prop51ColorRGB
 90
-16777216
102
RTVSPost2010PropOp51
 70
     0
102
RTVSPost2010Prop52
140
1.0
102
RTVSPost2010PropOp52
 70
     0
102
RTVSPost2010Prop53
 90
        2
102
RTVSPost2010PropOp53
 70
     1
102
RTVSPost2010Prop54
  1
strokes_ogs.tif
102
RTVSPost2010PropOp54
 70
     1
102
RTVSPost2010Prop55
280
     0
102
RTVSPost2010PropOp55
 70
     1
102
RTVSPost2010Prop56
140
1.0
102
RTVSPost2010PropOp56
 70
     1
102
RTVSPost2010Prop57
140
1.0
102
RTVSPost2010PropOp57
 70
     1
102
RTVSPropertyOp0
 70
     1
102
RTVSPropertyOp1
 70
     1
102
RTVSPropertyOp2
 70
     1
102
RTVSPropertyOp3
 70
     1
102
RTVSPropertyOp4
 70
     1
102
RTVSPropertyOp5
 70
     1
102
RTVSPropertyOp6
 70
     1
102
RTVSPropertyOp7
 70
     1
102
RTVSPropertyOp8
 70
     1
102
RTVSPropertyOp9
 70
     1
102
RTVSPropertyOp10
 70
     1
102
RTVSPropertyOp11
 70
     1
102
RTVSPropertyOp12
 70
     1
102
RTVSPropertyOp13
 70
     1
102
RTVSPropertyOp14
 70
     1
102
RTVSPropertyOp15
 70
     1
102
RTVSPropertyOp16
 70
     1
102
RTVSPropertyOp17
 70
     1
102
RTVSPropertyOp18
 70
     1
102
RTVSPropertyOp19
 70
     1
102
RTVSPropertyOp20
 70
     1
102
RTVSPropertyOp21
 70
     1
102
RTVSPropertyOp22
 70
     1
102
RTVSPropertyOp23
 70
     1
102
RTVSPropertyOp24
 70
     1
102
RTVSPropertyOp25
 70
     1
102
RTVSPropertyOp26
 70
     1
102
RTVSPropertyOp27
 70
     1
102
RTVSPropertyOp28
 70
     1
102
RTVSPropertyOp29
 70
     1
102
RTVSPropertyOp30
 70
     1
102
RTVSPropertyOp31
 70
     1
102
RTVSPropertyOp32
 70
     1
102
RTVSPropertyOp33
 70
     1
102
RTVSPropertyOp34
 70
     1
102
RTVSPropertyOp35
 70
     1
102
RTVSPropertyOp36
 70
     1
102
RTVSPropertyOp37
 70
     1
102
RTVSPropertyOp38
 70
     1
102
RTVSPropertyOp39
 70
     1
102
RTVSPropertyOp40
 70
     1
102
RTVSPropertyOp41
 70
     1
102
RTVSPropertyOp42
 70
     1
102
RTVSPropertyOp43
 70
     1
102
RTVSPropertyOp44
 70
     1
102
RTVSPropertyOp45
 70
     1
102
RTVSPropertyOp46
 70
     1
102
RTVSPropertyOp47
 70
     1
102
RTVSPropertyOp48
 70
     1
102
RTVSPropertyOp49
 70
     1
102
RTVSPropertyOp50
 70
     1
102
RTVSPropertyOp51
 70
     0
102
RTVSPropertyOp52
 70
     0
102
RTVSPropertyOp53
 70
     1
102
RTVSPropertyOp54
 70
     1
102
RTVSPropertyOp55
 70
     1
102
RTVSPropertyOp56
 70
     1
102
RTVSPropertyOp57
 70
     1
102
RTVSPropertyOp58
 70
     1
102
RTVSPropertyOp59
 70
     1
102
RTVSPropertyOp60
 70
     1
102
RTVSPropertyOp61
 70
     1
102
RTVSPropertyOp62
 70
     1
  0
XRECORD
  5
850A
102
{ACAD_REACTORS
330
8509
102
}
330
8509
100
AcDbXrecord
280
     1
102
RTVSPost2010Prop28
280
     0
102
RTVSPost2010PropOp28
 70
     1
102
RTVSPost2010Prop29
280
     1
102
RTVSPost2010PropOp29
 70
     1
102
RTVSPost2010Prop30
280
     1
102
RTVSPost2010PropOp30
 70
     1
102
RTVSPost2010Prop31
280
     0
102
RTVSPost2010PropOp31
 70
     1
102
RTVSPost2010Prop32
280
     0
102
RTVSPost2010PropOp32
 70
     1
102
RTVSPost2010Prop33
280
     0
102
RTVSPost2010PropOp33
 70
     1
102
RTVSPost2010Prop34
280
     0
102
RTVSPost2010PropOp34
 70
     1
102
RTVSPost2010Prop35
280
     0
102
RTVSPost2010PropOp35
 70
     1
102
RTVSPost2010Prop36
280
     0
102
RTVSPost2010PropOp36
 70
     1
102
RTVSPost2010Prop37
 90
       50
102
RTVSPost2010PropOp37
 70
     1
102
RTVSPost2010Prop38
140
0.0
102
RTVSPost2010PropOp38
 70
     1
102
RTVSPost2010Prop39
140
1.0
102
RTVSPost2010PropOp39
 70
     1
102
RTVSPost2010Prop40
 90
        0
102
RTVSPost2010PropOp40
 70
     1
102
RTVSPost2010Prop41ColorIndex
 90
       18
102
RTVSPost2010Prop41ColorRGB
 90
        0
102
RTVSPost2010PropOp41
 70
     1
102
RTVSPost2010Prop42
 90
       50
102
RTVSPost2010PropOp42
 70
     1
102
RTVSPost2010Prop43
 90
        3
102
RTVSPost2010PropOp43
 70
     1
102
RTVSPost2010Prop44ColorIndex
 90
        5
102
RTVSPost2010Prop44ColorRGB
 90
      255
102
RTVSPost2010PropOp44
 70
     1
102
RTVSPost2010Prop45
280
     0
102
RTVSPost2010PropOp45
 70
     1
102
RTVSPost2010Prop46
 90
       50
102
RTVSPost2010PropOp46
 70
     1
102
RTVSPost2010Prop47
 90
       50
102
RTVSPost2010PropOp47
 70
     1
102
RTVSPost2010Prop48
 90
       50
102
RTVSPost2010PropOp48
 70
     1
102
RTVSPost2010Prop49
280
     0
102
RTVSPost2010PropOp49
 70
     1
102
RTVSPost2010Prop50
 90
       50
102
RTVSPost2010PropOp50
 70
     1
102
RTVSPost2010Prop51ColorIndex
 90
      256
102
RTVSPost2010Prop51ColorRGB
 90
-16777216
102
RTVSPost2010PropOp51
 70
     0
102
RTVSPost2010Prop52
140
1.0
102
RTVSPost2010PropOp52
 70
     0
102
RTVSPost2010Prop53
 90
        2
102
RTVSPost2010PropOp53
 70
     1
102
RTVSPost2010Prop54
  1
strokes_ogs.tif
102
RTVSPost2010PropOp54
 70
     1
102
RTVSPost2010Prop55
280
     0
102
RTVSPost2010PropOp55
 70
     1
102
RTVSPost2010Prop56
140
1.0
102
RTVSPost2010PropOp56
 70
     1
102
RTVSPost2010Prop57
140
1.0
102
RTVSPost2010PropOp57
 70
     1
102
RTVSPropertyOp0
 70
     1
102
RTVSPropertyOp1
 70
     1
102
RTVSPropertyOp2
 70
     1
102
RTVSPropertyOp3
 70
     1
102
RTVSPropertyOp4
 70
     1
102
RTVSPropertyOp5
 70
     1
102
RTVSPropertyOp6
 70
     1
102
RTVSPropertyOp7
 70
     1
102
RTVSPropertyOp8
 70
     1
102
RTVSPropertyOp9
 70
     1
102
RTVSPropertyOp10
 70
     1
102
RTVSPropertyOp11
 70
     1
102
RTVSPropertyOp12
 70
     1
102
RTVSPropertyOp13
 70
     1
102
RTVSPropertyOp14
 70
     1
102
RTVSPropertyOp15
 70
     1
102
RTVSPropertyOp16
 70
     1
102
RTVSPropertyOp17
 70
     1
102
RTVSPropertyOp18
 70
     1
102
RTVSPropertyOp19
 70
     1
102
RTVSPropertyOp20
 70
     1
102
RTVSPropertyOp21
 70
     1
102
RTVSPropertyOp22
 70
     1
102
RTVSPropertyOp23
 70
     1
102
RTVSPropertyOp24
 70
     1
102
RTVSPropertyOp25
 70
     1
102
RTVSPropertyOp26
 70
     1
102
RTVSPropertyOp27
 70
     1
102
RTVSPropertyOp28
 70
     1
102
RTVSPropertyOp29
 70
     1
102
RTVSPropertyOp30
 70
     1
102
RTVSPropertyOp31
 70
     1
102
RTVSPropertyOp32
 70
     1
102
RTVSPropertyOp33
 70
     1
102
RTVSPropertyOp34
 70
     1
102
RTVSPropertyOp35
 70
     1
102
RTVSPropertyOp36
 70
     1
102
RTVSPropertyOp37
 70
     1
102
RTVSPropertyOp38
 70
     1
102
RTVSPropertyOp39
 70
     1
102
RTVSPropertyOp40
 70
     1
102
RTVSPropertyOp41
 70
     1
102
RTVSPropertyOp42
 70
     1
102
RTVSPropertyOp43
 70
     1
102
RTVSPropertyOp44
 70
     1
102
RTVSPropertyOp45
 70
     1
102
RTVSPropertyOp46
 70
     1
102
RTVSPropertyOp47
 70
     1
102
RTVSPropertyOp48
 70
     1
102
RTVSPropertyOp49
 70
     1
102
RTVSPropertyOp50
 70
     1
102
RTVSPropertyOp51
 70
     0
102
RTVSPropertyOp52
 70
     0
102
RTVSPropertyOp53
 70
     1
102
RTVSPropertyOp54
 70
     1
102
RTVSPropertyOp55
 70
     1
102
RTVSPropertyOp56
 70
     1
102
RTVSPropertyOp57
 70
     1
102
RTVSPropertyOp58
 70
     1
102
RTVSPropertyOp59
 70
     1
102
RTVSPropertyOp60
 70
     1
102
RTVSPropertyOp61
 70
     1
102
RTVSPropertyOp62
 70
     1
  0
XRECORD
  5
8512
102
{ACAD_REACTORS
330
8511
102
}
330
8511
100
AcDbXrecord
280
     1
102
RTVSPost2010Prop28
280
     0
102
RTVSPost2010PropOp28
 70
     1
102
RTVSPost2010Prop29
280
     1
102
RTVSPost2010PropOp29
 70
     1
102
RTVSPost2010Prop30
280
     1
102
RTVSPost2010PropOp30
 70
     1
102
RTVSPost2010Prop31
280
     0
102
RTVSPost2010PropOp31
 70
     1
102
RTVSPost2010Prop32
280
     0
102
RTVSPost2010PropOp32
 70
     1
102
RTVSPost2010Prop33
280
     0
102
RTVSPost2010PropOp33
 70
     1
102
RTVSPost2010Prop34
280
     0
102
RTVSPost2010PropOp34
 70
     1
102
RTVSPost2010Prop35
280
     0
102
RTVSPost2010PropOp35
 70
     1
102
RTVSPost2010Prop36
280
     0
102
RTVSPost2010PropOp36
 70
     1
102
RTVSPost2010Prop37
 90
       50
102
RTVSPost2010PropOp37
 70
     1
102
RTVSPost2010Prop38
140
0.0
102
RTVSPost2010PropOp38
 70
     1
102
RTVSPost2010Prop39
140
1.0
102
RTVSPost2010PropOp39
 70
     1
102
RTVSPost2010Prop40
 90
        0
102
RTVSPost2010PropOp40
 70
     1
102
RTVSPost2010Prop41ColorIndex
 90
       18
102
RTVSPost2010Prop41ColorRGB
 90
        0
102
RTVSPost2010PropOp41
 70
     1
102
RTVSPost2010Prop42
 90
       50
102
RTVSPost2010PropOp42
 70
     1
102
RTVSPost2010Prop43
 90
        3
102
RTVSPost2010PropOp43
 70
     1
102
RTVSPost2010Prop44ColorIndex
 90
        5
102
RTVSPost2010Prop44ColorRGB
 90
      255
102
RTVSPost2010PropOp44
 70
     1
102
RTVSPost2010Prop45
280
     0
102
RTVSPost2010PropOp45
 70
     1
102
RTVSPost2010Prop46
 90
       50
102
RTVSPost2010PropOp46
 70
     1
102
RTVSPost2010Prop47
 90
       50
102
RTVSPost2010PropOp47
 70
     1
102
RTVSPost2010Prop48
 90
       50
102
RTVSPost2010PropOp48
 70
     1
102
RTVSPost2010Prop49
280
     0
102
RTVSPost2010PropOp49
 70
     1
102
RTVSPost2010Prop50
 90
       50
102
RTVSPost2010PropOp50
 70
     1
102
RTVSPost2010Prop51ColorIndex
 90
      256
102
RTVSPost2010Prop51ColorRGB
 90
-16777216
102
RTVSPost2010PropOp51
 70
     0
102
RTVSPost2010Prop52
140
1.0
102
RTVSPost2010PropOp52
 70
     0
102
RTVSPost2010Prop53
 90
        2
102
RTVSPost2010PropOp53
 70
     1
102
RTVSPost2010Prop54
  1
strokes_ogs.tif
102
RTVSPost2010PropOp54
 70
     1
102
RTVSPost2010Prop55
280
     0
102
RTVSPost2010PropOp55
 70
     1
102
RTVSPost2010Prop56
140
1.0
102
RTVSPost2010PropOp56
 70
     1
102
RTVSPost2010Prop57
140
1.0
102
RTVSPost2010PropOp57
 70
     1
102
RTVSPropertyOp0
 70
     1
102
RTVSPropertyOp1
 70
     1
102
RTVSPropertyOp2
 70
     1
102
RTVSPropertyOp3
 70
     1
102
RTVSPropertyOp4
 70
     1
102
RTVSPropertyOp5
 70
     1
102
RTVSPropertyOp6
 70
     1
102
RTVSPropertyOp7
 70
     1
102
RTVSPropertyOp8
 70
     1
102
RTVSPropertyOp9
 70
     1
102
RTVSPropertyOp10
 70
     1
102
RTVSPropertyOp11
 70
     1
102
RTVSPropertyOp12
 70
     1
102
RTVSPropertyOp13
 70
     1
102
RTVSPropertyOp14
 70
     1
102
RTVSPropertyOp15
 70
     1
102
RTVSPropertyOp16
 70
     1
102
RTVSPropertyOp17
 70
     1
102
RTVSPropertyOp18
 70
     1
102
RTVSPropertyOp19
 70
     1
102
RTVSPropertyOp20
 70
     1
102
RTVSPropertyOp21
 70
     1
102
RTVSPropertyOp22
 70
     1
102
RTVSPropertyOp23
 70
     1
102
RTVSPropertyOp24
 70
     1
102
RTVSPropertyOp25
 70
     1
102
RTVSPropertyOp26
 70
     1
102
RTVSPropertyOp27
 70
     1
102
RTVSPropertyOp28
 70
     1
102
RTVSPropertyOp29
 70
     1
102
RTVSPropertyOp30
 70
     1
102
RTVSPropertyOp31
 70
     1
102
RTVSPropertyOp32
 70
     1
102
RTVSPropertyOp33
 70
     1
102
RTVSPropertyOp34
 70
     1
102
RTVSPropertyOp35
 70
     1
102
RTVSPropertyOp36
 70
     1
102
RTVSPropertyOp37
 70
     1
102
RTVSPropertyOp38
 70
     1
102
RTVSPropertyOp39
 70
     1
102
RTVSPropertyOp40
 70
     1
102
RTVSPropertyOp41
 70
     1
102
RTVSPropertyOp42
 70
     1
102
RTVSPropertyOp43
 70
     1
102
RTVSPropertyOp44
 70
     1
102
RTVSPropertyOp45
 70
     1
102
RTVSPropertyOp46
 70
     1
102
RTVSPropertyOp47
 70
     1
102
RTVSPropertyOp48
 70
     1
102
RTVSPropertyOp49
 70
     1
102
RTVSPropertyOp50
 70
     1
102
RTVSPropertyOp51
 70
     0
102
RTVSPropertyOp52
 70
     0
102
RTVSPropertyOp53
 70
     1
102
RTVSPropertyOp54
 70
     1
102
RTVSPropertyOp55
 70
     1
102
RTVSPropertyOp56
 70
     1
102
RTVSPropertyOp57
 70
     1
102
RTVSPropertyOp58
 70
     1
102
RTVSPropertyOp59
 70
     1
102
RTVSPropertyOp60
 70
     1
102
RTVSPropertyOp61
 70
     1
102
RTVSPropertyOp62
 70
     1
  0
XRECORD
  5
8504
102
{ACAD_REACTORS
330
8503
102
}
330
8503
100
AcDbXrecord
280
     1
102
RTVSPost2010Prop28
280
     0
102
RTVSPost2010PropOp28
 70
     1
102
RTVSPost2010Prop29
280
     1
102
RTVSPost2010PropOp29
 70
     1
102
RTVSPost2010Prop30
280
     1
102
RTVSPost2010PropOp30
 70
     1
102
RTVSPost2010Prop31
280
     0
102
RTVSPost2010PropOp31
 70
     1
102
RTVSPost2010Prop32
280
     0
102
RTVSPost2010PropOp32
 70
     1
102
RTVSPost2010Prop33
280
     0
102
RTVSPost2010PropOp33
 70
     1
102
RTVSPost2010Prop34
280
     0
102
RTVSPost2010PropOp34
 70
     1
102
RTVSPost2010Prop35
280
     0
102
RTVSPost2010PropOp35
 70
     1
102
RTVSPost2010Prop36
280
     0
102
RTVSPost2010PropOp36
 70
     1
102
RTVSPost2010Prop37
 90
       50
102
RTVSPost2010PropOp37
 70
     1
102
RTVSPost2010Prop38
140
0.0
102
RTVSPost2010PropOp38
 70
     1
102
RTVSPost2010Prop39
140
1.0
102
RTVSPost2010PropOp39
 70
     1
102
RTVSPost2010Prop40
 90
        0
102
RTVSPost2010PropOp40
 70
     1
102
RTVSPost2010Prop41ColorIndex
 90
       18
102
RTVSPost2010Prop41ColorRGB
 90
        0
102
RTVSPost2010PropOp41
 70
     1
102
RTVSPost2010Prop42
 90
       50
102
RTVSPost2010PropOp42
 70
     1
102
RTVSPost2010Prop43
 90
        3
102
RTVSPost2010PropOp43
 70
     1
102
RTVSPost2010Prop44ColorIndex
 90
        5
102
RTVSPost2010Prop44ColorRGB
 90
      255
102
RTVSPost2010PropOp44
 70
     1
102
RTVSPost2010Prop45
280
     0
102
RTVSPost2010PropOp45
 70
     1
102
RTVSPost2010Prop46
 90
       50
102
RTVSPost2010PropOp46
 70
     1
102
RTVSPost2010Prop47
 90
       50
102
RTVSPost2010PropOp47
 70
     1
102
RTVSPost2010Prop48
 90
       50
102
RTVSPost2010PropOp48
 70
     1
102
RTVSPost2010Prop49
280
     0
102
RTVSPost2010PropOp49
 70
     1
102
RTVSPost2010Prop50
 90
       50
102
RTVSPost2010PropOp50
 70
     1
102
RTVSPost2010Prop51ColorIndex
 90
      256
102
RTVSPost2010Prop51ColorRGB
 90
-16777216
102
RTVSPost2010PropOp51
 70
     0
102
RTVSPost2010Prop52
140
1.0
102
RTVSPost2010PropOp52
 70
     0
102
RTVSPost2010Prop53
 90
        2
102
RTVSPost2010PropOp53
 70
     1
102
RTVSPost2010Prop54
  1
strokes_ogs.tif
102
RTVSPost2010PropOp54
 70
     1
102
RTVSPost2010Prop55
280
     0
102
RTVSPost2010PropOp55
 70
     1
102
RTVSPost2010Prop56
140
1.0
102
RTVSPost2010PropOp56
 70
     1
102
RTVSPost2010Prop57
140
1.0
102
RTVSPost2010PropOp57
 70
     1
102
RTVSPropertyOp0
 70
     1
102
RTVSPropertyOp1
 70
     1
102
RTVSPropertyOp2
 70
     1
102
RTVSPropertyOp3
 70
     1
102
RTVSPropertyOp4
 70
     1
102
RTVSPropertyOp5
 70
     1
102
RTVSPropertyOp6
 70
     1
102
RTVSPropertyOp7
 70
     1
102
RTVSPropertyOp8
 70
     1
102
RTVSPropertyOp9
 70
     1
102
RTVSPropertyOp10
 70
     1
102
RTVSPropertyOp11
 70
     1
102
RTVSPropertyOp12
 70
     1
102
RTVSPropertyOp13
 70
     1
102
RTVSPropertyOp14
 70
     1
102
RTVSPropertyOp15
 70
     1
102
RTVSPropertyOp16
 70
     1
102
RTVSPropertyOp17
 70
     1
102
RTVSPropertyOp18
 70
     1
102
RTVSPropertyOp19
 70
     1
102
RTVSPropertyOp20
 70
     1
102
RTVSPropertyOp21
 70
     1
102
RTVSPropertyOp22
 70
     1
102
RTVSPropertyOp23
 70
     1
102
RTVSPropertyOp24
 70
     1
102
RTVSPropertyOp25
 70
     1
102
RTVSPropertyOp26
 70
     1
102
RTVSPropertyOp27
 70
     1
102
RTVSPropertyOp28
 70
     1
102
RTVSPropertyOp29
 70
     1
102
RTVSPropertyOp30
 70
     1
102
RTVSPropertyOp31
 70
     1
102
RTVSPropertyOp32
 70
     1
102
RTVSPropertyOp33
 70
     1
102
RTVSPropertyOp34
 70
     1
102
RTVSPropertyOp35
 70
     1
102
RTVSPropertyOp36
 70
     1
102
RTVSPropertyOp37
 70
     1
102
RTVSPropertyOp38
 70
     1
102
RTVSPropertyOp39
 70
     1
102
RTVSPropertyOp40
 70
     1
102
RTVSPropertyOp41
 70
     1
102
RTVSPropertyOp42
 70
     1
102
RTVSPropertyOp43
 70
     1
102
RTVSPropertyOp44
 70
     1
102
RTVSPropertyOp45
 70
     1
102
RTVSPropertyOp46
 70
     1
102
RTVSPropertyOp47
 70
     1
102
RTVSPropertyOp48
 70
     1
102
RTVSPropertyOp49
 70
     1
102
RTVSPropertyOp50
 70
     1
102
RTVSPropertyOp51
 70
     0
102
RTVSPropertyOp52
 70
     0
102
RTVSPropertyOp53
 70
     1
102
RTVSPropertyOp54
 70
     1
102
RTVSPropertyOp55
 70
     1
102
RTVSPropertyOp56
 70
     1
102
RTVSPropertyOp57
 70
     1
102
RTVSPropertyOp58
 70
     1
102
RTVSPropertyOp59
 70
     1
102
RTVSPropertyOp60
 70
     1
102
RTVSPropertyOp61
 70
     1
102
RTVSPropertyOp62
 70
     1
  0
XRECORD
  5
8508
102
{ACAD_REACTORS
330
8507
102
}
330
8507
100
AcDbXrecord
280
     1
102
RTVSPost2010Prop28
280
     0
102
RTVSPost2010PropOp28
 70
     1
102
RTVSPost2010Prop29
280
     1
102
RTVSPost2010PropOp29
 70
     1
102
RTVSPost2010Prop30
280
     1
102
RTVSPost2010PropOp30
 70
     1
102
RTVSPost2010Prop31
280
     0
102
RTVSPost2010PropOp31
 70
     1
102
RTVSPost2010Prop32
280
     0
102
RTVSPost2010PropOp32
 70
     1
102
RTVSPost2010Prop33
280
     0
102
RTVSPost2010PropOp33
 70
     1
102
RTVSPost2010Prop34
280
     0
102
RTVSPost2010PropOp34
 70
     1
102
RTVSPost2010Prop35
280
     0
102
RTVSPost2010PropOp35
 70
     1
102
RTVSPost2010Prop36
280
     0
102
RTVSPost2010PropOp36
 70
     1
102
RTVSPost2010Prop37
 90
       50
102
RTVSPost2010PropOp37
 70
     1
102
RTVSPost2010Prop38
140
0.0
102
RTVSPost2010PropOp38
 70
     1
102
RTVSPost2010Prop39
140
1.0
102
RTVSPost2010PropOp39
 70
     1
102
RTVSPost2010Prop40
 90
        0
102
RTVSPost2010PropOp40
 70
     1
102
RTVSPost2010Prop41ColorIndex
 90
       18
102
RTVSPost2010Prop41ColorRGB
 90
        0
102
RTVSPost2010PropOp41
 70
     1
102
RTVSPost2010Prop42
 90
       50
102
RTVSPost2010PropOp42
 70
     1
102
RTVSPost2010Prop43
 90
        3
102
RTVSPost2010PropOp43
 70
     1
102
RTVSPost2010Prop44ColorIndex
 90
        5
102
RTVSPost2010Prop44ColorRGB
 90
      255
102
RTVSPost2010PropOp44
 70
     1
102
RTVSPost2010Prop45
280
     0
102
RTVSPost2010PropOp45
 70
     1
102
RTVSPost2010Prop46
 90
       50
102
RTVSPost2010PropOp46
 70
     1
102
RTVSPost2010Prop47
 90
       50
102
RTVSPost2010PropOp47
 70
     1
102
RTVSPost2010Prop48
 90
       50
102
RTVSPost2010PropOp48
 70
     1
102
RTVSPost2010Prop49
280
     0
102
RTVSPost2010PropOp49
 70
     1
102
RTVSPost2010Prop50
 90
       50
102
RTVSPost2010PropOp50
 70
     1
102
RTVSPost2010Prop51ColorIndex
 90
      256
102
RTVSPost2010Prop51ColorRGB
 90
-16777216
102
RTVSPost2010PropOp51
 70
     0
102
RTVSPost2010Prop52
140
1.0
102
RTVSPost2010PropOp52
 70
     0
102
RTVSPost2010Prop53
 90
        2
102
RTVSPost2010PropOp53
 70
     1
102
RTVSPost2010Prop54
  1
strokes_ogs.tif
102
RTVSPost2010PropOp54
 70
     1
102
RTVSPost2010Prop55
280
     0
102
RTVSPost2010PropOp55
 70
     1
102
RTVSPost2010Prop56
140
1.0
102
RTVSPost2010PropOp56
 70
     1
102
RTVSPost2010Prop57
140
1.0
102
RTVSPost2010PropOp57
 70
     1
102
RTVSPropertyOp0
 70
     1
102
RTVSPropertyOp1
 70
     1
102
RTVSPropertyOp2
 70
     1
102
RTVSPropertyOp3
 70
     1
102
RTVSPropertyOp4
 70
     1
102
RTVSPropertyOp5
 70
     1
102
RTVSPropertyOp6
 70
     1
102
RTVSPropertyOp7
 70
     1
102
RTVSPropertyOp8
 70
     1
102
RTVSPropertyOp9
 70
     1
102
RTVSPropertyOp10
 70
     1
102
RTVSPropertyOp11
 70
     1
102
RTVSPropertyOp12
 70
     1
102
RTVSPropertyOp13
 70
     1
102
RTVSPropertyOp14
 70
     1
102
RTVSPropertyOp15
 70
     1
102
RTVSPropertyOp16
 70
     1
102
RTVSPropertyOp17
 70
     1
102
RTVSPropertyOp18
 70
     1
102
RTVSPropertyOp19
 70
     1
102
RTVSPropertyOp20
 70
     1
102
RTVSPropertyOp21
 70
     1
102
RTVSPropertyOp22
 70
     1
102
RTVSPropertyOp23
 70
     1
102
RTVSPropertyOp24
 70
     1
102
RTVSPropertyOp25
 70
     1
102
RTVSPropertyOp26
 70
     1
102
RTVSPropertyOp27
 70
     1
102
RTVSPropertyOp28
 70
     1
102
RTVSPropertyOp29
 70
     1
102
RTVSPropertyOp30
 70
     1
102
RTVSPropertyOp31
 70
     1
102
RTVSPropertyOp32
 70
     1
102
RTVSPropertyOp33
 70
     1
102
RTVSPropertyOp34
 70
     1
102
RTVSPropertyOp35
 70
     1
102
RTVSPropertyOp36
 70
     1
102
RTVSPropertyOp37
 70
     1
102
RTVSPropertyOp38
 70
     1
102
RTVSPropertyOp39
 70
     1
102
RTVSPropertyOp40
 70
     1
102
RTVSPropertyOp41
 70
     1
102
RTVSPropertyOp42
 70
     1
102
RTVSPropertyOp43
 70
     1
102
RTVSPropertyOp44
 70
     1
102
RTVSPropertyOp45
 70
     1
102
RTVSPropertyOp46
 70
     1
102
RTVSPropertyOp47
 70
     1
102
RTVSPropertyOp48
 70
     1
102
RTVSPropertyOp49
 70
     1
102
RTVSPropertyOp50
 70
     1
102
RTVSPropertyOp51
 70
     0
102
RTVSPropertyOp52
 70
     0
102
RTVSPropertyOp53
 70
     1
102
RTVSPropertyOp54
 70
     1
102
RTVSPropertyOp55
 70
     1
102
RTVSPropertyOp56
 70
     1
102
RTVSPropertyOp57
 70
     1
102
RTVSPropertyOp58
 70
     1
102
RTVSPropertyOp59
 70
     1
102
RTVSPropertyOp60
 70
     1
102
RTVSPropertyOp61
 70
     1
102
RTVSPropertyOp62
 70
     1
  0
XRECORD
  5
8522
102
{ACAD_REACTORS
330
8521
102
}
330
8521
100
AcDbXrecord
280
     1
102
RTVSPost2010Prop28
280
     0
102
RTVSPost2010PropOp28
 70
     1
102
RTVSPost2010Prop29
280
     1
102
RTVSPost2010PropOp29
 70
     1
102
RTVSPost2010Prop30
280
     1
102
RTVSPost2010PropOp30
 70
     1
102
RTVSPost2010Prop31
280
     0
102
RTVSPost2010PropOp31
 70
     1
102
RTVSPost2010Prop32
280
     0
102
RTVSPost2010PropOp32
 70
     1
102
RTVSPost2010Prop33
280
     0
102
RTVSPost2010PropOp33
 70
     1
102
RTVSPost2010Prop34
280
     0
102
RTVSPost2010PropOp34
 70
     1
102
RTVSPost2010Prop35
280
     0
102
RTVSPost2010PropOp35
 70
     1
102
RTVSPost2010Prop36
280
     0
102
RTVSPost2010PropOp36
 70
     1
102
RTVSPost2010Prop37
 90
       50
102
RTVSPost2010PropOp37
 70
     0
102
RTVSPost2010Prop38
140
0.0
102
RTVSPost2010PropOp38
 70
     0
102
RTVSPost2010Prop39
140
1.0
102
RTVSPost2010PropOp39
 70
     0
102
RTVSPost2010Prop40
 90
        0
102
RTVSPost2010PropOp40
 70
     0
102
RTVSPost2010Prop41ColorIndex
 90
       18
102
RTVSPost2010Prop41ColorRGB
 90
        0
102
RTVSPost2010PropOp41
 70
     0
102
RTVSPost2010Prop42
 90
       50
102
RTVSPost2010PropOp42
 70
     0
102
RTVSPost2010Prop43
 90
        3
102
RTVSPost2010PropOp43
 70
     0
102
RTVSPost2010Prop44ColorIndex
 90
        5
102
RTVSPost2010Prop44ColorRGB
 90
      255
102
RTVSPost2010PropOp44
 70
     0
102
RTVSPost2010Prop45
280
     0
102
RTVSPost2010PropOp45
 70
     1
102
RTVSPost2010Prop46
 90
       50
102
RTVSPost2010PropOp46
 70
     0
102
RTVSPost2010Prop47
 90
       50
102
RTVSPost2010PropOp47
 70
     0
102
RTVSPost2010Prop48
 90
       50
102
RTVSPost2010PropOp48
 70
     0
102
RTVSPost2010Prop49
280
     0
102
RTVSPost2010PropOp49
 70
     1
102
RTVSPost2010Prop50
 90
       50
102
RTVSPost2010PropOp50
 70
     0
102
RTVSPost2010Prop51ColorIndex
 90
      256
102
RTVSPost2010Prop51ColorRGB
 90
-16777216
102
RTVSPost2010PropOp51
 70
     0
102
RTVSPost2010Prop52
140
1.0
102
RTVSPost2010PropOp52
 70
     0
102
RTVSPost2010Prop53
 90
        2
102
RTVSPost2010PropOp53
 70
     0
102
RTVSPost2010Prop54
  1
strokes_ogs.tif
102
RTVSPost2010PropOp54
 70
     0
102
RTVSPost2010Prop55
280
     0
102
RTVSPost2010PropOp55
 70
     1
102
RTVSPost2010Prop56
140
1.0
102
RTVSPost2010PropOp56
 70
     0
102
RTVSPost2010Prop57
140
1.0
102
RTVSPost2010PropOp57
 70
     0
102
RTVSPropertyOp0
 70
     0
102
RTVSPropertyOp1
 70
     0
102
RTVSPropertyOp2
 70
     0
102
RTVSPropertyOp3
 70
     0
102
RTVSPropertyOp4
 70
     0
102
RTVSPropertyOp5
 70
     0
102
RTVSPropertyOp6
 70
     0
102
RTVSPropertyOp7
 70
     0
102
RTVSPropertyOp8
 70
     0
102
RTVSPropertyOp9
 70
     0
102
RTVSPropertyOp10
 70
     0
102
RTVSPropertyOp11
 70
     0
102
RTVSPropertyOp12
 70
     0
102
RTVSPropertyOp13
 70
     0
102
RTVSPropertyOp14
 70
     2
102
RTVSPropertyOp15
 70
     0
102
RTVSPropertyOp16
 70
     0
102
RTVSPropertyOp17
 70
     0
102
RTVSPropertyOp18
 70
     0
102
RTVSPropertyOp19
 70
     0
102
RTVSPropertyOp20
 70
     0
102
RTVSPropertyOp21
 70
     0
102
RTVSPropertyOp22
 70
     0
102
RTVSPropertyOp23
 70
     0
102
RTVSPropertyOp24
 70
     0
102
RTVSPropertyOp25
 70
     0
102
RTVSPropertyOp26
 70
     0
102
RTVSPropertyOp27
 70
     0
102
RTVSPropertyOp28
 70
     1
102
RTVSPropertyOp29
 70
     1
102
RTVSPropertyOp30
 70
     1
102
RTVSPropertyOp31
 70
     1
102
RTVSPropertyOp32
 70
     1
102
RTVSPropertyOp33
 70
     1
102
RTVSPropertyOp34
 70
     1
102
RTVSPropertyOp35
 70
     1
102
RTVSPropertyOp36
 70
     1
102
RTVSPropertyOp37
 70
     0
102
RTVSPropertyOp38
 70
     0
102
RTVSPropertyOp39
 70
     0
102
RTVSPropertyOp40
 70
     0
102
RTVSPropertyOp41
 70
     0
102
RTVSPropertyOp42
 70
     0
102
RTVSPropertyOp43
 70
     0
102
RTVSPropertyOp44
 70
     0
102
RTVSPropertyOp45
 70
     1
102
RTVSPropertyOp46
 70
     0
102
RTVSPropertyOp47
 70
     0
102
RTVSPropertyOp48
 70
     0
102
RTVSPropertyOp49
 70
     1
102
RTVSPropertyOp50
 70
     0
102
RTVSPropertyOp51
 70
     0
102
RTVSPropertyOp52
 70
     0
102
RTVSPropertyOp53
 70
     0
102
RTVSPropertyOp54
 70
     0
102
RTVSPropertyOp55
 70
     1
102
RTVSPropertyOp56
 70
     0
102
RTVSPropertyOp57
 70
     0
102
RTVSPropertyOp58
 70
     0
102
RTVSPropertyOp59
 70
     0
102
RTVSPropertyOp60
 70
     0
102
RTVSPropertyOp61
 70
     0
102
RTVSPropertyOp62
 70
     0
  0
XRECORD
  5
8510
102
{ACAD_REACTORS
330
850F
102
}
330
850F
100
AcDbXrecord
280
     1
102
RTVSPost2010Prop28
280
     0
102
RTVSPost2010PropOp28
 70
     1
102
RTVSPost2010Prop29
280
     1
102
RTVSPost2010PropOp29
 70
     1
102
RTVSPost2010Prop30
280
     1
102
RTVSPost2010PropOp30
 70
     1
102
RTVSPost2010Prop31
280
     0
102
RTVSPost2010PropOp31
 70
     1
102
RTVSPost2010Prop32
280
     0
102
RTVSPost2010PropOp32
 70
     1
102
RTVSPost2010Prop33
280
     0
102
RTVSPost2010PropOp33
 70
     1
102
RTVSPost2010Prop34
280
     0
102
RTVSPost2010PropOp34
 70
     1
102
RTVSPost2010Prop35
280
     0
102
RTVSPost2010PropOp35
 70
     1
102
RTVSPost2010Prop36
280
     0
102
RTVSPost2010PropOp36
 70
     1
102
RTVSPost2010Prop37
 90
       50
102
RTVSPost2010PropOp37
 70
     1
102
RTVSPost2010Prop38
140
0.0
102
RTVSPost2010PropOp38
 70
     1
102
RTVSPost2010Prop39
140
1.0
102
RTVSPost2010PropOp39
 70
     1
102
RTVSPost2010Prop40
 90
        0
102
RTVSPost2010PropOp40
 70
     1
102
RTVSPost2010Prop41ColorIndex
 90
       18
102
RTVSPost2010Prop41ColorRGB
 90
        0
102
RTVSPost2010PropOp41
 70
     1
102
RTVSPost2010Prop42
 90
       50
102
RTVSPost2010PropOp42
 70
     1
102
RTVSPost2010Prop43
 90
        3
102
RTVSPost2010PropOp43
 70
     1
102
RTVSPost2010Prop44ColorIndex
 90
        5
102
RTVSPost2010Prop44ColorRGB
 90
      255
102
RTVSPost2010PropOp44
 70
     1
102
RTVSPost2010Prop45
280
     0
102
RTVSPost2010PropOp45
 70
     1
102
RTVSPost2010Prop46
 90
       50
102
RTVSPost2010PropOp46
 70
     1
102
RTVSPost2010Prop47
 90
       50
102
RTVSPost2010PropOp47
 70
     1
102
RTVSPost2010Prop48
 90
       50
102
RTVSPost2010PropOp48
 70
     1
102
RTVSPost2010Prop49
280
     0
102
RTVSPost2010PropOp49
 70
     1
102
RTVSPost2010Prop50
 90
       50
102
RTVSPost2010PropOp50
 70
     1
102
RTVSPost2010Prop51ColorIndex
 90
      256
102
RTVSPost2010Prop51ColorRGB
 90
-16777216
102
RTVSPost2010PropOp51
 70
     0
102
RTVSPost2010Prop52
140
1.0
102
RTVSPost2010PropOp52
 70
     0
102
RTVSPost2010Prop53
 90
        2
102
RTVSPost2010PropOp53
 70
     1
102
RTVSPost2010Prop54
  1
strokes_ogs.tif
102
RTVSPost2010PropOp54
 70
     1
102
RTVSPost2010Prop55
280
     0
102
RTVSPost2010PropOp55
 70
     1
102
RTVSPost2010Prop56
140
1.0
102
RTVSPost2010PropOp56
 70
     1
102
RTVSPost2010Prop57
140
1.0
102
RTVSPost2010PropOp57
 70
     1
102
RTVSPropertyOp0
 70
     1
102
RTVSPropertyOp1
 70
     1
102
RTVSPropertyOp2
 70
     1
102
RTVSPropertyOp3
 70
     1
102
RTVSPropertyOp4
 70
     1
102
RTVSPropertyOp5
 70
     1
102
RTVSPropertyOp6
 70
     1
102
RTVSPropertyOp7
 70
     1
102
RTVSPropertyOp8
 70
     1
102
RTVSPropertyOp9
 70
     1
102
RTVSPropertyOp10
 70
     1
102
RTVSPropertyOp11
 70
     1
102
RTVSPropertyOp12
 70
     1
102
RTVSPropertyOp13
 70
     1
102
RTVSPropertyOp14
 70
     1
102
RTVSPropertyOp15
 70
     1
102
RTVSPropertyOp16
 70
     1
102
RTVSPropertyOp17
 70
     1
102
RTVSPropertyOp18
 70
     1
102
RTVSPropertyOp19
 70
     1
102
RTVSPropertyOp20
 70
     1
102
RTVSPropertyOp21
 70
     1
102
RTVSPropertyOp22
 70
     1
102
RTVSPropertyOp23
 70
     1
102
RTVSPropertyOp24
 70
     1
102
RTVSPropertyOp25
 70
     1
102
RTVSPropertyOp26
 70
     1
102
RTVSPropertyOp27
 70
     1
102
RTVSPropertyOp28
 70
     1
102
RTVSPropertyOp29
 70
     1
102
RTVSPropertyOp30
 70
     1
102
RTVSPropertyOp31
 70
     1
102
RTVSPropertyOp32
 70
     1
102
RTVSPropertyOp33
 70
     1
102
RTVSPropertyOp34
 70
     1
102
RTVSPropertyOp35
 70
     1
102
RTVSPropertyOp36
 70
     1
102
RTVSPropertyOp37
 70
     1
102
RTVSPropertyOp38
 70
     1
102
RTVSPropertyOp39
 70
     1
102
RTVSPropertyOp40
 70
     1
102
RTVSPropertyOp41
 70
     1
102
RTVSPropertyOp42
 70
     1
102
RTVSPropertyOp43
 70
     1
102
RTVSPropertyOp44
 70
     1
102
RTVSPropertyOp45
 70
     1
102
RTVSPropertyOp46
 70
     1
102
RTVSPropertyOp47
 70
     1
102
RTVSPropertyOp48
 70
     1
102
RTVSPropertyOp49
 70
     1
102
RTVSPropertyOp50
 70
     1
102
RTVSPropertyOp51
 70
     0
102
RTVSPropertyOp52
 70
     0
102
RTVSPropertyOp53
 70
     1
102
RTVSPropertyOp54
 70
     1
102
RTVSPropertyOp55
 70
     1
102
RTVSPropertyOp56
 70
     1
102
RTVSPropertyOp57
 70
     1
102
RTVSPropertyOp58
 70
     1
102
RTVSPropertyOp59
 70
     1
102
RTVSPropertyOp60
 70
     1
102
RTVSPropertyOp61
 70
     1
102
RTVSPropertyOp62
 70
     1
  0
XRECORD
  5
84F4
102
{ACAD_REACTORS
330
84F3
102
}
330
84F3
100
AcDbXrecord
280
     1
102
RTVSPost2010Prop28
280
     0
102
RTVSPost2010PropOp28
 70
     1
102
RTVSPost2010Prop29
280
     1
102
RTVSPost2010PropOp29
 70
     1
102
RTVSPost2010Prop30
280
     1
102
RTVSPost2010PropOp30
 70
     1
102
RTVSPost2010Prop31
280
     0
102
RTVSPost2010PropOp31
 70
     1
102
RTVSPost2010Prop32
280
     0
102
RTVSPost2010PropOp32
 70
     1
102
RTVSPost2010Prop33
280
     0
102
RTVSPost2010PropOp33
 70
     1
102
RTVSPost2010Prop34
280
     0
102
RTVSPost2010PropOp34
 70
     1
102
RTVSPost2010Prop35
280
     0
102
RTVSPost2010PropOp35
 70
     1
102
RTVSPost2010Prop36
280
     0
102
RTVSPost2010PropOp36
 70
     1
102
RTVSPost2010Prop37
 90
       50
102
RTVSPost2010PropOp37
 70
     1
102
RTVSPost2010Prop38
140
0.0
102
RTVSPost2010PropOp38
 70
     1
102
RTVSPost2010Prop39
140
1.0
102
RTVSPost2010PropOp39
 70
     1
102
RTVSPost2010Prop40
 90
        0
102
RTVSPost2010PropOp40
 70
     1
102
RTVSPost2010Prop41ColorIndex
 90
       18
102
RTVSPost2010Prop41ColorRGB
 90
        0
102
RTVSPost2010PropOp41
 70
     1
102
RTVSPost2010Prop42
 90
       50
102
RTVSPost2010PropOp42
 70
     1
102
RTVSPost2010Prop43
 90
        3
102
RTVSPost2010PropOp43
 70
     1
102
RTVSPost2010Prop44ColorIndex
 90
        5
102
RTVSPost2010Prop44ColorRGB
 90
      255
102
RTVSPost2010PropOp44
 70
     1
102
RTVSPost2010Prop45
280
     0
102
RTVSPost2010PropOp45
 70
     1
102
RTVSPost2010Prop46
 90
       50
102
RTVSPost2010PropOp46
 70
     1
102
RTVSPost2010Prop47
 90
       50
102
RTVSPost2010PropOp47
 70
     1
102
RTVSPost2010Prop48
 90
       50
102
RTVSPost2010PropOp48
 70
     1
102
RTVSPost2010Prop49
280
     0
102
RTVSPost2010PropOp49
 70
     1
102
RTVSPost2010Prop50
 90
       50
102
RTVSPost2010PropOp50
 70
     1
102
RTVSPost2010Prop51ColorIndex
 90
      256
102
RTVSPost2010Prop51ColorRGB
 90
-16777216
102
RTVSPost2010PropOp51
 70
     0
102
RTVSPost2010Prop52
140
1.0
102
RTVSPost2010PropOp52
 70
     0
102
RTVSPost2010Prop53
 90
        2
102
RTVSPost2010PropOp53
 70
     1
102
RTVSPost2010Prop54
  1
strokes_ogs.tif
102
RTVSPost2010PropOp54
 70
     1
102
RTVSPost2010Prop55
280
     0
102
RTVSPost2010PropOp55
 70
     1
102
RTVSPost2010Prop56
140
1.0
102
RTVSPost2010PropOp56
 70
     1
102
RTVSPost2010Prop57
140
1.0
102
RTVSPost2010PropOp57
 70
     1
102
RTVSPropertyOp0
 70
     1
102
RTVSPropertyOp1
 70
     1
102
RTVSPropertyOp2
 70
     1
102
RTVSPropertyOp3
 70
     1
102
RTVSPropertyOp4
 70
     1
102
RTVSPropertyOp5
 70
     1
102
RTVSPropertyOp6
 70
     1
102
RTVSPropertyOp7
 70
     1
102
RTVSPropertyOp8
 70
     1
102
RTVSPropertyOp9
 70
     1
102
RTVSPropertyOp10
 70
     1
102
RTVSPropertyOp11
 70
     1
102
RTVSPropertyOp12
 70
     1
102
RTVSPropertyOp13
 70
     1
102
RTVSPropertyOp14
 70
     1
102
RTVSPropertyOp15
 70
     1
102
RTVSPropertyOp16
 70
     1
102
RTVSPropertyOp17
 70
     1
102
RTVSPropertyOp18
 70
     1
102
RTVSPropertyOp19
 70
     1
102
RTVSPropertyOp20
 70
     1
102
RTVSPropertyOp21
 70
     1
102
RTVSPropertyOp22
 70
     1
102
RTVSPropertyOp23
 70
     1
102
RTVSPropertyOp24
 70
     1
102
RTVSPropertyOp25
 70
     1
102
RTVSPropertyOp26
 70
     1
102
RTVSPropertyOp27
 70
     1
102
RTVSPropertyOp28
 70
     1
102
RTVSPropertyOp29
 70
     1
102
RTVSPropertyOp30
 70
     1
102
RTVSPropertyOp31
 70
     1
102
RTVSPropertyOp32
 70
     1
102
RTVSPropertyOp33
 70
     1
102
RTVSPropertyOp34
 70
     1
102
RTVSPropertyOp35
 70
     1
102
RTVSPropertyOp36
 70
     1
102
RTVSPropertyOp37
 70
     1
102
RTVSPropertyOp38
 70
     1
102
RTVSPropertyOp39
 70
     1
102
RTVSPropertyOp40
 70
     1
102
RTVSPropertyOp41
 70
     1
102
RTVSPropertyOp42
 70
     1
102
RTVSPropertyOp43
 70
     1
102
RTVSPropertyOp44
 70
     1
102
RTVSPropertyOp45
 70
     1
102
RTVSPropertyOp46
 70
     1
102
RTVSPropertyOp47
 70
     1
102
RTVSPropertyOp48
 70
     1
102
RTVSPropertyOp49
 70
     1
102
RTVSPropertyOp50
 70
     1
102
RTVSPropertyOp51
 70
     0
102
RTVSPropertyOp52
 70
     0
102
RTVSPropertyOp53
 70
     1
102
RTVSPropertyOp54
 70
     1
102
RTVSPropertyOp55
 70
     1
102
RTVSPropertyOp56
 70
     1
102
RTVSPropertyOp57
 70
     1
102
RTVSPropertyOp58
 70
     1
102
RTVSPropertyOp59
 70
     1
102
RTVSPropertyOp60
 70
     1
102
RTVSPropertyOp61
 70
     1
102
RTVSPropertyOp62
 70
     1
  0
XRECORD
  5
84F6
102
{ACAD_REACTORS
330
84F5
102
}
330
84F5
100
AcDbXrecord
280
     1
102
RTVSPost2010Prop28
280
     0
102
RTVSPost2010PropOp28
 70
     1
102
RTVSPost2010Prop29
280
     1
102
RTVSPost2010PropOp29
 70
     1
102
RTVSPost2010Prop30
280
     1
102
RTVSPost2010PropOp30
 70
     1
102
RTVSPost2010Prop31
280
     0
102
RTVSPost2010PropOp31
 70
     1
102
RTVSPost2010Prop32
280
     0
102
RTVSPost2010PropOp32
 70
     1
102
RTVSPost2010Prop33
280
     0
102
RTVSPost2010PropOp33
 70
     1
102
RTVSPost2010Prop34
280
     0
102
RTVSPost2010PropOp34
 70
     1
102
RTVSPost2010Prop35
280
     0
102
RTVSPost2010PropOp35
 70
     1
102
RTVSPost2010Prop36
280
     0
102
RTVSPost2010PropOp36
 70
     1
102
RTVSPost2010Prop37
 90
       50
102
RTVSPost2010PropOp37
 70
     1
102
RTVSPost2010Prop38
140
0.0
102
RTVSPost2010PropOp38
 70
     1
102
RTVSPost2010Prop39
140
1.0
102
RTVSPost2010PropOp39
 70
     1
102
RTVSPost2010Prop40
 90
        0
102
RTVSPost2010PropOp40
 70
     1
102
RTVSPost2010Prop41ColorIndex
 90
       18
102
RTVSPost2010Prop41ColorRGB
 90
        0
102
RTVSPost2010PropOp41
 70
     1
102
RTVSPost2010Prop42
 90
       50
102
RTVSPost2010PropOp42
 70
     1
102
RTVSPost2010Prop43
 90
        3
102
RTVSPost2010PropOp43
 70
     1
102
RTVSPost2010Prop44ColorIndex
 90
        5
102
RTVSPost2010Prop44ColorRGB
 90
      255
102
RTVSPost2010PropOp44
 70
     1
102
RTVSPost2010Prop45
280
     0
102
RTVSPost2010PropOp45
 70
     1
102
RTVSPost2010Prop46
 90
       50
102
RTVSPost2010PropOp46
 70
     1
102
RTVSPost2010Prop47
 90
       50
102
RTVSPost2010PropOp47
 70
     1
102
RTVSPost2010Prop48
 90
       50
102
RTVSPost2010PropOp48
 70
     1
102
RTVSPost2010Prop49
280
     0
102
RTVSPost2010PropOp49
 70
     1
102
RTVSPost2010Prop50
 90
       50
102
RTVSPost2010PropOp50
 70
     1
102
RTVSPost2010Prop51ColorIndex
 90
      256
102
RTVSPost2010Prop51ColorRGB
 90
-16777216
102
RTVSPost2010PropOp51
 70
     0
102
RTVSPost2010Prop52
140
1.0
102
RTVSPost2010PropOp52
 70
     0
102
RTVSPost2010Prop53
 90
        2
102
RTVSPost2010PropOp53
 70
     1
102
RTVSPost2010Prop54
  1
strokes_ogs.tif
102
RTVSPost2010PropOp54
 70
     1
102
RTVSPost2010Prop55
280
     0
102
RTVSPost2010PropOp55
 70
     1
102
RTVSPost2010Prop56
140
1.0
102
RTVSPost2010PropOp56
 70
     1
102
RTVSPost2010Prop57
140
1.0
102
RTVSPost2010PropOp57
 70
     1
102
RTVSPropertyOp0
 70
     1
102
RTVSPropertyOp1
 70
     1
102
RTVSPropertyOp2
 70
     1
102
RTVSPropertyOp3
 70
     1
102
RTVSPropertyOp4
 70
     1
102
RTVSPropertyOp5
 70
     1
102
RTVSPropertyOp6
 70
     1
102
RTVSPropertyOp7
 70
     1
102
RTVSPropertyOp8
 70
     1
102
RTVSPropertyOp9
 70
     1
102
RTVSPropertyOp10
 70
     1
102
RTVSPropertyOp11
 70
     1
102
RTVSPropertyOp12
 70
     1
102
RTVSPropertyOp13
 70
     1
102
RTVSPropertyOp14
 70
     1
102
RTVSPropertyOp15
 70
     1
102
RTVSPropertyOp16
 70
     1
102
RTVSPropertyOp17
 70
     1
102
RTVSPropertyOp18
 70
     1
102
RTVSPropertyOp19
 70
     1
102
RTVSPropertyOp20
 70
     1
102
RTVSPropertyOp21
 70
     1
102
RTVSPropertyOp22
 70
     1
102
RTVSPropertyOp23
 70
     1
102
RTVSPropertyOp24
 70
     1
102
RTVSPropertyOp25
 70
     1
102
RTVSPropertyOp26
 70
     1
102
RTVSPropertyOp27
 70
     1
102
RTVSPropertyOp28
 70
     1
102
RTVSPropertyOp29
 70
     1
102
RTVSPropertyOp30
 70
     1
102
RTVSPropertyOp31
 70
     1
102
RTVSPropertyOp32
 70
     1
102
RTVSPropertyOp33
 70
     1
102
RTVSPropertyOp34
 70
     1
102
RTVSPropertyOp35
 70
     1
102
RTVSPropertyOp36
 70
     1
102
RTVSPropertyOp37
 70
     1
102
RTVSPropertyOp38
 70
     1
102
RTVSPropertyOp39
 70
     1
102
RTVSPropertyOp40
 70
     1
102
RTVSPropertyOp41
 70
     1
102
RTVSPropertyOp42
 70
     1
102
RTVSPropertyOp43
 70
     1
102
RTVSPropertyOp44
 70
     1
102
RTVSPropertyOp45
 70
     1
102
RTVSPropertyOp46
 70
     1
102
RTVSPropertyOp47
 70
     1
102
RTVSPropertyOp48
 70
     1
102
RTVSPropertyOp49
 70
     1
102
RTVSPropertyOp50
 70
     1
102
RTVSPropertyOp51
 70
     0
102
RTVSPropertyOp52
 70
     0
102
RTVSPropertyOp53
 70
     1
102
RTVSPropertyOp54
 70
     1
102
RTVSPropertyOp55
 70
     1
102
RTVSPropertyOp56
 70
     1
102
RTVSPropertyOp57
 70
     1
102
RTVSPropertyOp58
 70
     1
102
RTVSPropertyOp59
 70
     1
102
RTVSPropertyOp60
 70
     1
102
RTVSPropertyOp61
 70
     1
102
RTVSPropertyOp62
 70
     1
  0
XRECORD
  5
84F8
102
{ACAD_REACTORS
330
84F7
102
}
330
84F7
100
AcDbXrecord
280
     1
102
RTVSPost2010Prop28
280
     0
102
RTVSPost2010PropOp28
 70
     1
102
RTVSPost2010Prop29
280
     1
102
RTVSPost2010PropOp29
 70
     1
102
RTVSPost2010Prop30
280
     1
102
RTVSPost2010PropOp30
 70
     1
102
RTVSPost2010Prop31
280
     0
102
RTVSPost2010PropOp31
 70
     1
102
RTVSPost2010Prop32
280
     0
102
RTVSPost2010PropOp32
 70
     1
102
RTVSPost2010Prop33
280
     0
102
RTVSPost2010PropOp33
 70
     1
102
RTVSPost2010Prop34
280
     0
102
RTVSPost2010PropOp34
 70
     1
102
RTVSPost2010Prop35
280
     0
102
RTVSPost2010PropOp35
 70
     1
102
RTVSPost2010Prop36
280
     0
102
RTVSPost2010PropOp36
 70
     1
102
RTVSPost2010Prop37
 90
       50
102
RTVSPost2010PropOp37
 70
     1
102
RTVSPost2010Prop38
140
0.0
102
RTVSPost2010PropOp38
 70
     1
102
RTVSPost2010Prop39
140
1.0
102
RTVSPost2010PropOp39
 70
     1
102
RTVSPost2010Prop40
 90
        0
102
RTVSPost2010PropOp40
 70
     1
102
RTVSPost2010Prop41ColorIndex
 90
       18
102
RTVSPost2010Prop41ColorRGB
 90
        0
102
RTVSPost2010PropOp41
 70
     1
102
RTVSPost2010Prop42
 90
       50
102
RTVSPost2010PropOp42
 70
     1
102
RTVSPost2010Prop43
 90
        3
102
RTVSPost2010PropOp43
 70
     1
102
RTVSPost2010Prop44ColorIndex
 90
        5
102
RTVSPost2010Prop44ColorRGB
 90
      255
102
RTVSPost2010PropOp44
 70
     1
102
RTVSPost2010Prop45
280
     0
102
RTVSPost2010PropOp45
 70
     1
102
RTVSPost2010Prop46
 90
       50
102
RTVSPost2010PropOp46
 70
     1
102
RTVSPost2010Prop47
 90
       50
102
RTVSPost2010PropOp47
 70
     1
102
RTVSPost2010Prop48
 90
       50
102
RTVSPost2010PropOp48
 70
     1
102
RTVSPost2010Prop49
280
     0
102
RTVSPost2010PropOp49
 70
     1
102
RTVSPost2010Prop50
 90
       50
102
RTVSPost2010PropOp50
 70
     1
102
RTVSPost2010Prop51ColorIndex
 90
      256
102
RTVSPost2010Prop51ColorRGB
 90
-16777216
102
RTVSPost2010PropOp51
 70
     0
102
RTVSPost2010Prop52
140
1.0
102
RTVSPost2010PropOp52
 70
     0
102
RTVSPost2010Prop53
 90
        2
102
RTVSPost2010PropOp53
 70
     1
102
RTVSPost2010Prop54
  1
strokes_ogs.tif
102
RTVSPost2010PropOp54
 70
     1
102
RTVSPost2010Prop55
280
     0
102
RTVSPost2010PropOp55
 70
     1
102
RTVSPost2010Prop56
140
1.0
102
RTVSPost2010PropOp56
 70
     1
102
RTVSPost2010Prop57
140
1.0
102
RTVSPost2010PropOp57
 70
     1
102
RTVSPropertyOp0
 70
     1
102
RTVSPropertyOp1
 70
     1
102
RTVSPropertyOp2
 70
     1
102
RTVSPropertyOp3
 70
     1
102
RTVSPropertyOp4
 70
     1
102
RTVSPropertyOp5
 70
     1
102
RTVSPropertyOp6
 70
     1
102
RTVSPropertyOp7
 70
     1
102
RTVSPropertyOp8
 70
     1
102
RTVSPropertyOp9
 70
     1
102
RTVSPropertyOp10
 70
     1
102
RTVSPropertyOp11
 70
     1
102
RTVSPropertyOp12
 70
     1
102
RTVSPropertyOp13
 70
     1
102
RTVSPropertyOp14
 70
     1
102
RTVSPropertyOp15
 70
     1
102
RTVSPropertyOp16
 70
     1
102
RTVSPropertyOp17
 70
     1
102
RTVSPropertyOp18
 70
     1
102
RTVSPropertyOp19
 70
     1
102
RTVSPropertyOp20
 70
     1
102
RTVSPropertyOp21
 70
     1
102
RTVSPropertyOp22
 70
     1
102
RTVSPropertyOp23
 70
     1
102
RTVSPropertyOp24
 70
     1
102
RTVSPropertyOp25
 70
     1
102
RTVSPropertyOp26
 70
     1
102
RTVSPropertyOp27
 70
     1
102
RTVSPropertyOp28
 70
     1
102
RTVSPropertyOp29
 70
     1
102
RTVSPropertyOp30
 70
     1
102
RTVSPropertyOp31
 70
     1
102
RTVSPropertyOp32
 70
     1
102
RTVSPropertyOp33
 70
     1
102
RTVSPropertyOp34
 70
     1
102
RTVSPropertyOp35
 70
     1
102
RTVSPropertyOp36
 70
     1
102
RTVSPropertyOp37
 70
     1
102
RTVSPropertyOp38
 70
     1
102
RTVSPropertyOp39
 70
     1
102
RTVSPropertyOp40
 70
     1
102
RTVSPropertyOp41
 70
     1
102
RTVSPropertyOp42
 70
     1
102
RTVSPropertyOp43
 70
     1
102
RTVSPropertyOp44
 70
     1
102
RTVSPropertyOp45
 70
     1
102
RTVSPropertyOp46
 70
     1
102
RTVSPropertyOp47
 70
     1
102
RTVSPropertyOp48
 70
     1
102
RTVSPropertyOp49
 70
     1
102
RTVSPropertyOp50
 70
     1
102
RTVSPropertyOp51
 70
     0
102
RTVSPropertyOp52
 70
     0
102
RTVSPropertyOp53
 70
     1
102
RTVSPropertyOp54
 70
     1
102
RTVSPropertyOp55
 70
     1
102
RTVSPropertyOp56
 70
     1
102
RTVSPropertyOp57
 70
     1
102
RTVSPropertyOp58
 70
     1
102
RTVSPropertyOp59
 70
     1
102
RTVSPropertyOp60
 70
     1
102
RTVSPropertyOp61
 70
     1
102
RTVSPropertyOp62
 70
     1
  0
XRECORD
  5
84FA
102
{ACAD_REACTORS
330
84F9
102
}
330
84F9
100
AcDbXrecord
280
     1
102
RTVSPost2010Prop28
280
     0
102
RTVSPost2010PropOp28
 70
     1
102
RTVSPost2010Prop29
280
     1
102
RTVSPost2010PropOp29
 70
     1
102
RTVSPost2010Prop30
280
     1
102
RTVSPost2010PropOp30
 70
     1
102
RTVSPost2010Prop31
280
     0
102
RTVSPost2010PropOp31
 70
     1
102
RTVSPost2010Prop32
280
     0
102
RTVSPost2010PropOp32
 70
     1
102
RTVSPost2010Prop33
280
     0
102
RTVSPost2010PropOp33
 70
     1
102
RTVSPost2010Prop34
280
     0
102
RTVSPost2010PropOp34
 70
     1
102
RTVSPost2010Prop35
280
     0
102
RTVSPost2010PropOp35
 70
     1
102
RTVSPost2010Prop36
280
     0
102
RTVSPost2010PropOp36
 70
     1
102
RTVSPost2010Prop37
 90
       50
102
RTVSPost2010PropOp37
 70
     1
102
RTVSPost2010Prop38
140
0.0
102
RTVSPost2010PropOp38
 70
     1
102
RTVSPost2010Prop39
140
1.0
102
RTVSPost2010PropOp39
 70
     1
102
RTVSPost2010Prop40
 90
        0
102
RTVSPost2010PropOp40
 70
     1
102
RTVSPost2010Prop41ColorIndex
 90
       18
102
RTVSPost2010Prop41ColorRGB
 90
        0
102
RTVSPost2010PropOp41
 70
     1
102
RTVSPost2010Prop42
 90
       50
102
RTVSPost2010PropOp42
 70
     1
102
RTVSPost2010Prop43
 90
        3
102
RTVSPost2010PropOp43
 70
     1
102
RTVSPost2010Prop44ColorIndex
 90
        5
102
RTVSPost2010Prop44ColorRGB
 90
      255
102
RTVSPost2010PropOp44
 70
     1
102
RTVSPost2010Prop45
280
     0
102
RTVSPost2010PropOp45
 70
     1
102
RTVSPost2010Prop46
 90
       50
102
RTVSPost2010PropOp46
 70
     1
102
RTVSPost2010Prop47
 90
       50
102
RTVSPost2010PropOp47
 70
     1
102
RTVSPost2010Prop48
 90
       50
102
RTVSPost2010PropOp48
 70
     1
102
RTVSPost2010Prop49
280
     0
102
RTVSPost2010PropOp49
 70
     1
102
RTVSPost2010Prop50
 90
       50
102
RTVSPost2010PropOp50
 70
     1
102
RTVSPost2010Prop51ColorIndex
 90
      256
102
RTVSPost2010Prop51ColorRGB
 90
-16777216
102
RTVSPost2010PropOp51
 70
     0
102
RTVSPost2010Prop52
140
1.0
102
RTVSPost2010PropOp52
 70
     0
102
RTVSPost2010Prop53
 90
        2
102
RTVSPost2010PropOp53
 70
     1
102
RTVSPost2010Prop54
  1
strokes_ogs.tif
102
RTVSPost2010PropOp54
 70
     1
102
RTVSPost2010Prop55
280
     0
102
RTVSPost2010PropOp55
 70
     1
102
RTVSPost2010Prop56
140
1.0
102
RTVSPost2010PropOp56
 70
     1
102
RTVSPost2010Prop57
140
1.0
102
RTVSPost2010PropOp57
 70
     1
102
RTVSPropertyOp0
 70
     1
102
RTVSPropertyOp1
 70
     1
102
RTVSPropertyOp2
 70
     1
102
RTVSPropertyOp3
 70
     1
102
RTVSPropertyOp4
 70
     1
102
RTVSPropertyOp5
 70
     1
102
RTVSPropertyOp6
 70
     1
102
RTVSPropertyOp7
 70
     1
102
RTVSPropertyOp8
 70
     1
102
RTVSPropertyOp9
 70
     1
102
RTVSPropertyOp10
 70
     1
102
RTVSPropertyOp11
 70
     1
102
RTVSPropertyOp12
 70
     1
102
RTVSPropertyOp13
 70
     1
102
RTVSPropertyOp14
 70
     1
102
RTVSPropertyOp15
 70
     1
102
RTVSPropertyOp16
 70
     1
102
RTVSPropertyOp17
 70
     1
102
RTVSPropertyOp18
 70
     1
102
RTVSPropertyOp19
 70
     1
102
RTVSPropertyOp20
 70
     1
102
RTVSPropertyOp21
 70
     1
102
RTVSPropertyOp22
 70
     1
102
RTVSPropertyOp23
 70
     1
102
RTVSPropertyOp24
 70
     1
102
RTVSPropertyOp25
 70
     1
102
RTVSPropertyOp26
 70
     1
102
RTVSPropertyOp27
 70
     1
102
RTVSPropertyOp28
 70
     1
102
RTVSPropertyOp29
 70
     1
102
RTVSPropertyOp30
 70
     1
102
RTVSPropertyOp31
 70
     1
102
RTVSPropertyOp32
 70
     1
102
RTVSPropertyOp33
 70
     1
102
RTVSPropertyOp34
 70
     1
102
RTVSPropertyOp35
 70
     1
102
RTVSPropertyOp36
 70
     1
102
RTVSPropertyOp37
 70
     1
102
RTVSPropertyOp38
 70
     1
102
RTVSPropertyOp39
 70
     1
102
RTVSPropertyOp40
 70
     1
102
RTVSPropertyOp41
 70
     1
102
RTVSPropertyOp42
 70
     1
102
RTVSPropertyOp43
 70
     1
102
RTVSPropertyOp44
 70
     1
102
RTVSPropertyOp45
 70
     1
102
RTVSPropertyOp46
 70
     1
102
RTVSPropertyOp47
 70
     1
102
RTVSPropertyOp48
 70
     1
102
RTVSPropertyOp49
 70
     1
102
RTVSPropertyOp50
 70
     1
102
RTVSPropertyOp51
 70
     0
102
RTVSPropertyOp52
 70
     0
102
RTVSPropertyOp53
 70
     1
102
RTVSPropertyOp54
 70
     1
102
RTVSPropertyOp55
 70
     1
102
RTVSPropertyOp56
 70
     1
102
RTVSPropertyOp57
 70
     1
102
RTVSPropertyOp58
 70
     1
102
RTVSPropertyOp59
 70
     1
102
RTVSPropertyOp60
 70
     1
102
RTVSPropertyOp61
 70
     1
102
RTVSPropertyOp62
 70
     1
  0
XRECORD
  5
8502
102
{ACAD_REACTORS
330
8501
102
}
330
8501
100
AcDbXrecord
280
     1
102
RTVSPost2010Prop28
280
     0
102
RTVSPost2010PropOp28
 70
     1
102
RTVSPost2010Prop29
280
     1
102
RTVSPost2010PropOp29
 70
     1
102
RTVSPost2010Prop30
280
     1
102
RTVSPost2010PropOp30
 70
     1
102
RTVSPost2010Prop31
280
     0
102
RTVSPost2010PropOp31
 70
     1
102
RTVSPost2010Prop32
280
     0
102
RTVSPost2010PropOp32
 70
     1
102
RTVSPost2010Prop33
280
     0
102
RTVSPost2010PropOp33
 70
     1
102
RTVSPost2010Prop34
280
     0
102
RTVSPost2010PropOp34
 70
     1
102
RTVSPost2010Prop35
280
     0
102
RTVSPost2010PropOp35
 70
     1
102
RTVSPost2010Prop36
280
     0
102
RTVSPost2010PropOp36
 70
     1
102
RTVSPost2010Prop37
 90
       50
102
RTVSPost2010PropOp37
 70
     1
102
RTVSPost2010Prop38
140
0.0
102
RTVSPost2010PropOp38
 70
     1
102
RTVSPost2010Prop39
140
1.0
102
RTVSPost2010PropOp39
 70
     1
102
RTVSPost2010Prop40
 90
        0
102
RTVSPost2010PropOp40
 70
     1
102
RTVSPost2010Prop41ColorIndex
 90
       18
102
RTVSPost2010Prop41ColorRGB
 90
        0
102
RTVSPost2010PropOp41
 70
     1
102
RTVSPost2010Prop42
 90
       50
102
RTVSPost2010PropOp42
 70
     1
102
RTVSPost2010Prop43
 90
        3
102
RTVSPost2010PropOp43
 70
     1
102
RTVSPost2010Prop44ColorIndex
 90
        5
102
RTVSPost2010Prop44ColorRGB
 90
      255
102
RTVSPost2010PropOp44
 70
     1
102
RTVSPost2010Prop45
280
     0
102
RTVSPost2010PropOp45
 70
     1
102
RTVSPost2010Prop46
 90
       50
102
RTVSPost2010PropOp46
 70
     1
102
RTVSPost2010Prop47
 90
       50
102
RTVSPost2010PropOp47
 70
     1
102
RTVSPost2010Prop48
 90
       50
102
RTVSPost2010PropOp48
 70
     1
102
RTVSPost2010Prop49
280
     0
102
RTVSPost2010PropOp49
 70
     1
102
RTVSPost2010Prop50
 90
       50
102
RTVSPost2010PropOp50
 70
     1
102
RTVSPost2010Prop51ColorIndex
 90
      256
102
RTVSPost2010Prop51ColorRGB
 90
-16777216
102
RTVSPost2010PropOp51
 70
     0
102
RTVSPost2010Prop52
140
1.0
102
RTVSPost2010PropOp52
 70
     0
102
RTVSPost2010Prop53
 90
        2
102
RTVSPost2010PropOp53
 70
     1
102
RTVSPost2010Prop54
  1
strokes_ogs.tif
102
RTVSPost2010PropOp54
 70
     1
102
RTVSPost2010Prop55
280
     0
102
RTVSPost2010PropOp55
 70
     1
102
RTVSPost2010Prop56
140
1.0
102
RTVSPost2010PropOp56
 70
     1
102
RTVSPost2010Prop57
140
1.0
102
RTVSPost2010PropOp57
 70
     1
102
RTVSPropertyOp0
 70
     1
102
RTVSPropertyOp1
 70
     1
102
RTVSPropertyOp2
 70
     1
102
RTVSPropertyOp3
 70
     1
102
RTVSPropertyOp4
 70
     1
102
RTVSPropertyOp5
 70
     1
102
RTVSPropertyOp6
 70
     1
102
RTVSPropertyOp7
 70
     1
102
RTVSPropertyOp8
 70
     1
102
RTVSPropertyOp9
 70
     1
102
RTVSPropertyOp10
 70
     1
102
RTVSPropertyOp11
 70
     1
102
RTVSPropertyOp12
 70
     1
102
RTVSPropertyOp13
 70
     1
102
RTVSPropertyOp14
 70
     1
102
RTVSPropertyOp15
 70
     1
102
RTVSPropertyOp16
 70
     1
102
RTVSPropertyOp17
 70
     1
102
RTVSPropertyOp18
 70
     1
102
RTVSPropertyOp19
 70
     1
102
RTVSPropertyOp20
 70
     1
102
RTVSPropertyOp21
 70
     1
102
RTVSPropertyOp22
 70
     1
102
RTVSPropertyOp23
 70
     1
102
RTVSPropertyOp24
 70
     1
102
RTVSPropertyOp25
 70
     1
102
RTVSPropertyOp26
 70
     1
102
RTVSPropertyOp27
 70
     1
102
RTVSPropertyOp28
 70
     1
102
RTVSPropertyOp29
 70
     1
102
RTVSPropertyOp30
 70
     1
102
RTVSPropertyOp31
 70
     1
102
RTVSPropertyOp32
 70
     1
102
RTVSPropertyOp33
 70
     1
102
RTVSPropertyOp34
 70
     1
102
RTVSPropertyOp35
 70
     1
102
RTVSPropertyOp36
 70
     1
102
RTVSPropertyOp37
 70
     1
102
RTVSPropertyOp38
 70
     1
102
RTVSPropertyOp39
 70
     1
102
RTVSPropertyOp40
 70
     1
102
RTVSPropertyOp41
 70
     1
102
RTVSPropertyOp42
 70
     1
102
RTVSPropertyOp43
 70
     1
102
RTVSPropertyOp44
 70
     1
102
RTVSPropertyOp45
 70
     1
102
RTVSPropertyOp46
 70
     1
102
RTVSPropertyOp47
 70
     1
102
RTVSPropertyOp48
 70
     1
102
RTVSPropertyOp49
 70
     1
102
RTVSPropertyOp50
 70
     1
102
RTVSPropertyOp51
 70
     0
102
RTVSPropertyOp52
 70
     0
102
RTVSPropertyOp53
 70
     1
102
RTVSPropertyOp54
 70
     1
102
RTVSPropertyOp55
 70
     1
102
RTVSPropertyOp56
 70
     1
102
RTVSPropertyOp57
 70
     1
102
RTVSPropertyOp58
 70
     1
102
RTVSPropertyOp59
 70
     1
102
RTVSPropertyOp60
 70
     1
102
RTVSPropertyOp61
 70
     1
102
RTVSPropertyOp62
 70
     1
  0
XRECORD
  5
851E
102
{ACAD_REACTORS
330
851D
102
}
330
851D
100
AcDbXrecord
280
     1
102
RTVSPost2010Prop28
280
     0
102
RTVSPost2010PropOp28
 70
     1
102
RTVSPost2010Prop29
280
     1
102
RTVSPost2010PropOp29
 70
     1
102
RTVSPost2010Prop30
280
     1
102
RTVSPost2010PropOp30
 70
     1
102
RTVSPost2010Prop31
280
     0
102
RTVSPost2010PropOp31
 70
     1
102
RTVSPost2010Prop32
280
     0
102
RTVSPost2010PropOp32
 70
     1
102
RTVSPost2010Prop33
280
     0
102
RTVSPost2010PropOp33
 70
     1
102
RTVSPost2010Prop34
280
     0
102
RTVSPost2010PropOp34
 70
     1
102
RTVSPost2010Prop35
280
     0
102
RTVSPost2010PropOp35
 70
     1
102
RTVSPost2010Prop36
280
     0
102
RTVSPost2010PropOp36
 70
     1
102
RTVSPost2010Prop37
 90
       50
102
RTVSPost2010PropOp37
 70
     0
102
RTVSPost2010Prop38
140
0.0
102
RTVSPost2010PropOp38
 70
     0
102
RTVSPost2010Prop39
140
1.0
102
RTVSPost2010PropOp39
 70
     0
102
RTVSPost2010Prop40
 90
        0
102
RTVSPost2010PropOp40
 70
     0
102
RTVSPost2010Prop41ColorIndex
 90
       18
102
RTVSPost2010Prop41ColorRGB
 90
        0
102
RTVSPost2010PropOp41
 70
     0
102
RTVSPost2010Prop42
 90
       50
102
RTVSPost2010PropOp42
 70
     0
102
RTVSPost2010Prop43
 90
        3
102
RTVSPost2010PropOp43
 70
     0
102
RTVSPost2010Prop44ColorIndex
 90
        5
102
RTVSPost2010Prop44ColorRGB
 90
      255
102
RTVSPost2010PropOp44
 70
     0
102
RTVSPost2010Prop45
280
     0
102
RTVSPost2010PropOp45
 70
     1
102
RTVSPost2010Prop46
 90
       50
102
RTVSPost2010PropOp46
 70
     0
102
RTVSPost2010Prop47
 90
       50
102
RTVSPost2010PropOp47
 70
     0
102
RTVSPost2010Prop48
 90
       50
102
RTVSPost2010PropOp48
 70
     0
102
RTVSPost2010Prop49
280
     0
102
RTVSPost2010PropOp49
 70
     1
102
RTVSPost2010Prop50
 90
       50
102
RTVSPost2010PropOp50
 70
     0
102
RTVSPost2010Prop51ColorIndex
 90
      256
102
RTVSPost2010Prop51ColorRGB
 90
-16777216
102
RTVSPost2010PropOp51
 70
     0
102
RTVSPost2010Prop52
140
1.0
102
RTVSPost2010PropOp52
 70
     0
102
RTVSPost2010Prop53
 90
        2
102
RTVSPost2010PropOp53
 70
     0
102
RTVSPost2010Prop54
  1
strokes_ogs.tif
102
RTVSPost2010PropOp54
 70
     0
102
RTVSPost2010Prop55
280
     0
102
RTVSPost2010PropOp55
 70
     1
102
RTVSPost2010Prop56
140
1.0
102
RTVSPost2010PropOp56
 70
     0
102
RTVSPost2010Prop57
140
1.0
102
RTVSPost2010PropOp57
 70
     0
102
RTVSPropertyOp0
 70
     0
102
RTVSPropertyOp1
 70
     0
102
RTVSPropertyOp2
 70
     0
102
RTVSPropertyOp3
 70
     0
102
RTVSPropertyOp4
 70
     0
102
RTVSPropertyOp5
 70
     0
102
RTVSPropertyOp6
 70
     0
102
RTVSPropertyOp7
 70
     0
102
RTVSPropertyOp8
 70
     0
102
RTVSPropertyOp9
 70
     0
102
RTVSPropertyOp10
 70
     0
102
RTVSPropertyOp11
 70
     0
102
RTVSPropertyOp12
 70
     0
102
RTVSPropertyOp13
 70
     0
102
RTVSPropertyOp14
 70
     2
102
RTVSPropertyOp15
 70
     0
102
RTVSPropertyOp16
 70
     0
102
RTVSPropertyOp17
 70
     0
102
RTVSPropertyOp18
 70
     0
102
RTVSPropertyOp19
 70
     0
102
RTVSPropertyOp20
 70
     0
102
RTVSPropertyOp21
 70
     0
102
RTVSPropertyOp22
 70
     0
102
RTVSPropertyOp23
 70
     0
102
RTVSPropertyOp24
 70
     0
102
RTVSPropertyOp25
 70
     0
102
RTVSPropertyOp26
 70
     0
102
RTVSPropertyOp27
 70
     0
102
RTVSPropertyOp28
 70
     1
102
RTVSPropertyOp29
 70
     1
102
RTVSPropertyOp30
 70
     1
102
RTVSPropertyOp31
 70
     1
102
RTVSPropertyOp32
 70
     1
102
RTVSPropertyOp33
 70
     1
102
RTVSPropertyOp34
 70
     1
102
RTVSPropertyOp35
 70
     1
102
RTVSPropertyOp36
 70
     1
102
RTVSPropertyOp37
 70
     0
102
RTVSPropertyOp38
 70
     0
102
RTVSPropertyOp39
 70
     0
102
RTVSPropertyOp40
 70
     0
102
RTVSPropertyOp41
 70
     0
102
RTVSPropertyOp42
 70
     0
102
RTVSPropertyOp43
 70
     0
102
RTVSPropertyOp44
 70
     0
102
RTVSPropertyOp45
 70
     1
102
RTVSPropertyOp46
 70
     0
102
RTVSPropertyOp47
 70
     0
102
RTVSPropertyOp48
 70
     0
102
RTVSPropertyOp49
 70
     1
102
RTVSPropertyOp50
 70
     0
102
RTVSPropertyOp51
 70
     0
102
RTVSPropertyOp52
 70
     0
102
RTVSPropertyOp53
 70
     0
102
RTVSPropertyOp54
 70
     0
102
RTVSPropertyOp55
 70
     1
102
RTVSPropertyOp56
 70
     0
102
RTVSPropertyOp57
 70
     0
102
RTVSPropertyOp58
 70
     0
102
RTVSPropertyOp59
 70
     0
102
RTVSPropertyOp60
 70
     0
102
RTVSPropertyOp61
 70
     0
102
RTVSPropertyOp62
 70
     0
  0
XRECORD
  5
850E
102
{ACAD_REACTORS
330
850D
102
}
330
850D
100
AcDbXrecord
280
     1
102
RTVSPost2010Prop28
280
     0
102
RTVSPost2010PropOp28
 70
     1
102
RTVSPost2010Prop29
280
     1
102
RTVSPost2010PropOp29
 70
     1
102
RTVSPost2010Prop30
280
     1
102
RTVSPost2010PropOp30
 70
     1
102
RTVSPost2010Prop31
280
     0
102
RTVSPost2010PropOp31
 70
     1
102
RTVSPost2010Prop32
280
     0
102
RTVSPost2010PropOp32
 70
     1
102
RTVSPost2010Prop33
280
     0
102
RTVSPost2010PropOp33
 70
     1
102
RTVSPost2010Prop34
280
     0
102
RTVSPost2010PropOp34
 70
     1
102
RTVSPost2010Prop35
280
     0
102
RTVSPost2010PropOp35
 70
     1
102
RTVSPost2010Prop36
280
     0
102
RTVSPost2010PropOp36
 70
     1
102
RTVSPost2010Prop37
 90
       50
102
RTVSPost2010PropOp37
 70
     1
102
RTVSPost2010Prop38
140
0.0
102
RTVSPost2010PropOp38
 70
     1
102
RTVSPost2010Prop39
140
1.0
102
RTVSPost2010PropOp39
 70
     1
102
RTVSPost2010Prop40
 90
        0
102
RTVSPost2010PropOp40
 70
     1
102
RTVSPost2010Prop41ColorIndex
 90
       18
102
RTVSPost2010Prop41ColorRGB
 90
        0
102
RTVSPost2010PropOp41
 70
     1
102
RTVSPost2010Prop42
 90
       50
102
RTVSPost2010PropOp42
 70
     1
102
RTVSPost2010Prop43
 90
        3
102
RTVSPost2010PropOp43
 70
     1
102
RTVSPost2010Prop44ColorIndex
 90
        5
102
RTVSPost2010Prop44ColorRGB
 90
      255
102
RTVSPost2010PropOp44
 70
     1
102
RTVSPost2010Prop45
280
     0
102
RTVSPost2010PropOp45
 70
     1
102
RTVSPost2010Prop46
 90
       50
102
RTVSPost2010PropOp46
 70
     1
102
RTVSPost2010Prop47
 90
       50
102
RTVSPost2010PropOp47
 70
     1
102
RTVSPost2010Prop48
 90
       50
102
RTVSPost2010PropOp48
 70
     1
102
RTVSPost2010Prop49
280
     0
102
RTVSPost2010PropOp49
 70
     1
102
RTVSPost2010Prop50
 90
       50
102
RTVSPost2010PropOp50
 70
     1
102
RTVSPost2010Prop51ColorIndex
 90
      256
102
RTVSPost2010Prop51ColorRGB
 90
-16777216
102
RTVSPost2010PropOp51
 70
     0
102
RTVSPost2010Prop52
140
1.0
102
RTVSPost2010PropOp52
 70
     0
102
RTVSPost2010Prop53
 90
        2
102
RTVSPost2010PropOp53
 70
     1
102
RTVSPost2010Prop54
  1
strokes_ogs.tif
102
RTVSPost2010PropOp54
 70
     1
102
RTVSPost2010Prop55
280
     0
102
RTVSPost2010PropOp55
 70
     1
102
RTVSPost2010Prop56
140
1.0
102
RTVSPost2010PropOp56
 70
     1
102
RTVSPost2010Prop57
140
1.0
102
RTVSPost2010PropOp57
 70
     1
102
RTVSPropertyOp0
 70
     1
102
RTVSPropertyOp1
 70
     1
102
RTVSPropertyOp2
 70
     1
102
RTVSPropertyOp3
 70
     1
102
RTVSPropertyOp4
 70
     1
102
RTVSPropertyOp5
 70
     1
102
RTVSPropertyOp6
 70
     1
102
RTVSPropertyOp7
 70
     1
102
RTVSPropertyOp8
 70
     1
102
RTVSPropertyOp9
 70
     1
102
RTVSPropertyOp10
 70
     1
102
RTVSPropertyOp11
 70
     1
102
RTVSPropertyOp12
 70
     1
102
RTVSPropertyOp13
 70
     1
102
RTVSPropertyOp14
 70
     1
102
RTVSPropertyOp15
 70
     1
102
RTVSPropertyOp16
 70
     1
102
RTVSPropertyOp17
 70
     1
102
RTVSPropertyOp18
 70
     1
102
RTVSPropertyOp19
 70
     1
102
RTVSPropertyOp20
 70
     1
102
RTVSPropertyOp21
 70
     1
102
RTVSPropertyOp22
 70
     1
102
RTVSPropertyOp23
 70
     1
102
RTVSPropertyOp24
 70
     1
102
RTVSPropertyOp25
 70
     1
102
RTVSPropertyOp26
 70
     1
102
RTVSPropertyOp27
 70
     1
102
RTVSPropertyOp28
 70
     1
102
RTVSPropertyOp29
 70
     1
102
RTVSPropertyOp30
 70
     1
102
RTVSPropertyOp31
 70
     1
102
RTVSPropertyOp32
 70
     1
102
RTVSPropertyOp33
 70
     1
102
RTVSPropertyOp34
 70
     1
102
RTVSPropertyOp35
 70
     1
102
RTVSPropertyOp36
 70
     1
102
RTVSPropertyOp37
 70
     1
102
RTVSPropertyOp38
 70
     1
102
RTVSPropertyOp39
 70
     1
102
RTVSPropertyOp40
 70
     1
102
RTVSPropertyOp41
 70
     1
102
RTVSPropertyOp42
 70
     1
102
RTVSPropertyOp43
 70
     1
102
RTVSPropertyOp44
 70
     1
102
RTVSPropertyOp45
 70
     1
102
RTVSPropertyOp46
 70
     1
102
RTVSPropertyOp47
 70
     1
102
RTVSPropertyOp48
 70
     1
102
RTVSPropertyOp49
 70
     1
102
RTVSPropertyOp50
 70
     1
102
RTVSPropertyOp51
 70
     0
102
RTVSPropertyOp52
 70
     0
102
RTVSPropertyOp53
 70
     1
102
RTVSPropertyOp54
 70
     1
102
RTVSPropertyOp55
 70
     1
102
RTVSPropertyOp56
 70
     1
102
RTVSPropertyOp57
 70
     1
102
RTVSPropertyOp58
 70
     1
102
RTVSPropertyOp59
 70
     1
102
RTVSPropertyOp60
 70
     1
102
RTVSPropertyOp61
 70
     1
102
RTVSPropertyOp62
 70
     1
  0
XRECORD
  5
8520
102
{ACAD_REACTORS
330
851F
102
}
330
851F
100
AcDbXrecord
280
     1
102
RTVSPost2010Prop28
280
     0
102
RTVSPost2010PropOp28
 70
     1
102
RTVSPost2010Prop29
280
     1
102
RTVSPost2010PropOp29
 70
     1
102
RTVSPost2010Prop30
280
     1
102
RTVSPost2010PropOp30
 70
     1
102
RTVSPost2010Prop31
280
     0
102
RTVSPost2010PropOp31
 70
     1
102
RTVSPost2010Prop32
280
     0
102
RTVSPost2010PropOp32
 70
     1
102
RTVSPost2010Prop33
280
     0
102
RTVSPost2010PropOp33
 70
     1
102
RTVSPost2010Prop34
280
     0
102
RTVSPost2010PropOp34
 70
     1
102
RTVSPost2010Prop35
280
     0
102
RTVSPost2010PropOp35
 70
     1
102
RTVSPost2010Prop36
280
     0
102
RTVSPost2010PropOp36
 70
     1
102
RTVSPost2010Prop37
 90
       50
102
RTVSPost2010PropOp37
 70
     0
102
RTVSPost2010Prop38
140
0.0
102
RTVSPost2010PropOp38
 70
     0
102
RTVSPost2010Prop39
140
1.0
102
RTVSPost2010PropOp39
 70
     0
102
RTVSPost2010Prop40
 90
        0
102
RTVSPost2010PropOp40
 70
     0
102
RTVSPost2010Prop41ColorIndex
 90
       18
102
RTVSPost2010Prop41ColorRGB
 90
        0
102
RTVSPost2010PropOp41
 70
     0
102
RTVSPost2010Prop42
 90
       50
102
RTVSPost2010PropOp42
 70
     0
102
RTVSPost2010Prop43
 90
        3
102
RTVSPost2010PropOp43
 70
     0
102
RTVSPost2010Prop44ColorIndex
 90
        5
102
RTVSPost2010Prop44ColorRGB
 90
      255
102
RTVSPost2010PropOp44
 70
     0
102
RTVSPost2010Prop45
280
     0
102
RTVSPost2010PropOp45
 70
     1
102
RTVSPost2010Prop46
 90
       50
102
RTVSPost2010PropOp46
 70
     0
102
RTVSPost2010Prop47
 90
       50
102
RTVSPost2010PropOp47
 70
     0
102
RTVSPost2010Prop48
 90
       50
102
RTVSPost2010PropOp48
 70
     0
102
RTVSPost2010Prop49
280
     0
102
RTVSPost2010PropOp49
 70
     1
102
RTVSPost2010Prop50
 90
       50
102
RTVSPost2010PropOp50
 70
     0
102
RTVSPost2010Prop51ColorIndex
 90
      256
102
RTVSPost2010Prop51ColorRGB
 90
-16777216
102
RTVSPost2010PropOp51
 70
     0
102
RTVSPost2010Prop52
140
1.0
102
RTVSPost2010PropOp52
 70
     0
102
RTVSPost2010Prop53
 90
        2
102
RTVSPost2010PropOp53
 70
     0
102
RTVSPost2010Prop54
  1
strokes_ogs.tif
102
RTVSPost2010PropOp54
 70
     0
102
RTVSPost2010Prop55
280
     0
102
RTVSPost2010PropOp55
 70
     1
102
RTVSPost2010Prop56
140
1.0
102
RTVSPost2010PropOp56
 70
     0
102
RTVSPost2010Prop57
140
1.0
102
RTVSPost2010PropOp57
 70
     0
102
RTVSPropertyOp0
 70
     0
102
RTVSPropertyOp1
 70
     0
102
RTVSPropertyOp2
 70
     0
102
RTVSPropertyOp3
 70
     0
102
RTVSPropertyOp4
 70
     0
102
RTVSPropertyOp5
 70
     0
102
RTVSPropertyOp6
 70
     0
102
RTVSPropertyOp7
 70
     0
102
RTVSPropertyOp8
 70
     0
102
RTVSPropertyOp9
 70
     0
102
RTVSPropertyOp10
 70
     0
102
RTVSPropertyOp11
 70
     0
102
RTVSPropertyOp12
 70
     0
102
RTVSPropertyOp13
 70
     0
102
RTVSPropertyOp14
 70
     2
102
RTVSPropertyOp15
 70
     0
102
RTVSPropertyOp16
 70
     0
102
RTVSPropertyOp17
 70
     0
102
RTVSPropertyOp18
 70
     0
102
RTVSPropertyOp19
 70
     0
102
RTVSPropertyOp20
 70
     0
102
RTVSPropertyOp21
 70
     0
102
RTVSPropertyOp22
 70
     0
102
RTVSPropertyOp23
 70
     0
102
RTVSPropertyOp24
 70
     0
102
RTVSPropertyOp25
 70
     0
102
RTVSPropertyOp26
 70
     0
102
RTVSPropertyOp27
 70
     0
102
RTVSPropertyOp28
 70
     1
102
RTVSPropertyOp29
 70
     1
102
RTVSPropertyOp30
 70
     1
102
RTVSPropertyOp31
 70
     1
102
RTVSPropertyOp32
 70
     1
102
RTVSPropertyOp33
 70
     1
102
RTVSPropertyOp34
 70
     1
102
RTVSPropertyOp35
 70
     1
102
RTVSPropertyOp36
 70
     1
102
RTVSPropertyOp37
 70
     0
102
RTVSPropertyOp38
 70
     0
102
RTVSPropertyOp39
 70
     0
102
RTVSPropertyOp40
 70
     0
102
RTVSPropertyOp41
 70
     0
102
RTVSPropertyOp42
 70
     0
102
RTVSPropertyOp43
 70
     0
102
RTVSPropertyOp44
 70
     0
102
RTVSPropertyOp45
 70
     1
102
RTVSPropertyOp46
 70
     0
102
RTVSPropertyOp47
 70
     0
102
RTVSPropertyOp48
 70
     0
102
RTVSPropertyOp49
 70
     1
102
RTVSPropertyOp50
 70
     0
102
RTVSPropertyOp51
 70
     0
102
RTVSPropertyOp52
 70
     0
102
RTVSPropertyOp53
 70
     0
102
RTVSPropertyOp54
 70
     0
102
RTVSPropertyOp55
 70
     1
102
RTVSPropertyOp56
 70
     0
102
RTVSPropertyOp57
 70
     0
102
RTVSPropertyOp58
 70
     0
102
RTVSPropertyOp59
 70
     0
102
RTVSPropertyOp60
 70
     0
102
RTVSPropertyOp61
 70
     0
102
RTVSPropertyOp62
 70
     0
  0
XRECORD
  5
8506
102
{ACAD_REACTORS
330
8505
102
}
330
8505
100
AcDbXrecord
280
     1
102
RTVSPost2010Prop28
280
     0
102
RTVSPost2010PropOp28
 70
     1
102
RTVSPost2010Prop29
280
     1
102
RTVSPost2010PropOp29
 70
     1
102
RTVSPost2010Prop30
280
     1
102
RTVSPost2010PropOp30
 70
     1
102
RTVSPost2010Prop31
280
     0
102
RTVSPost2010PropOp31
 70
     1
102
RTVSPost2010Prop32
280
     0
102
RTVSPost2010PropOp32
 70
     1
102
RTVSPost2010Prop33
280
     0
102
RTVSPost2010PropOp33
 70
     1
102
RTVSPost2010Prop34
280
     0
102
RTVSPost2010PropOp34
 70
     1
102
RTVSPost2010Prop35
280
     0
102
RTVSPost2010PropOp35
 70
     1
102
RTVSPost2010Prop36
280
     0
102
RTVSPost2010PropOp36
 70
     1
102
RTVSPost2010Prop37
 90
       50
102
RTVSPost2010PropOp37
 70
     1
102
RTVSPost2010Prop38
140
0.0
102
RTVSPost2010PropOp38
 70
     1
102
RTVSPost2010Prop39
140
1.0
102
RTVSPost2010PropOp39
 70
     1
102
RTVSPost2010Prop40
 90
        0
102
RTVSPost2010PropOp40
 70
     1
102
RTVSPost2010Prop41ColorIndex
 90
       18
102
RTVSPost2010Prop41ColorRGB
 90
        0
102
RTVSPost2010PropOp41
 70
     1
102
RTVSPost2010Prop42
 90
       50
102
RTVSPost2010PropOp42
 70
     1
102
RTVSPost2010Prop43
 90
        3
102
RTVSPost2010PropOp43
 70
     1
102
RTVSPost2010Prop44ColorIndex
 90
        5
102
RTVSPost2010Prop44ColorRGB
 90
      255
102
RTVSPost2010PropOp44
 70
     1
102
RTVSPost2010Prop45
280
     0
102
RTVSPost2010PropOp45
 70
     1
102
RTVSPost2010Prop46
 90
       50
102
RTVSPost2010PropOp46
 70
     1
102
RTVSPost2010Prop47
 90
       50
102
RTVSPost2010PropOp47
 70
     1
102
RTVSPost2010Prop48
 90
       50
102
RTVSPost2010PropOp48
 70
     1
102
RTVSPost2010Prop49
280
     0
102
RTVSPost2010PropOp49
 70
     1
102
RTVSPost2010Prop50
 90
       50
102
RTVSPost2010PropOp50
 70
     1
102
RTVSPost2010Prop51ColorIndex
 90
      256
102
RTVSPost2010Prop51ColorRGB
 90
-16777216
102
RTVSPost2010PropOp51
 70
     0
102
RTVSPost2010Prop52
140
1.0
102
RTVSPost2010PropOp52
 70
     0
102
RTVSPost2010Prop53
 90
        2
102
RTVSPost2010PropOp53
 70
     1
102
RTVSPost2010Prop54
  1
strokes_ogs.tif
102
RTVSPost2010PropOp54
 70
     1
102
RTVSPost2010Prop55
280
     0
102
RTVSPost2010PropOp55
 70
     1
102
RTVSPost2010Prop56
140
1.0
102
RTVSPost2010PropOp56
 70
     1
102
RTVSPost2010Prop57
140
1.0
102
RTVSPost2010PropOp57
 70
     1
102
RTVSPropertyOp0
 70
     1
102
RTVSPropertyOp1
 70
     1
102
RTVSPropertyOp2
 70
     1
102
RTVSPropertyOp3
 70
     1
102
RTVSPropertyOp4
 70
     1
102
RTVSPropertyOp5
 70
     1
102
RTVSPropertyOp6
 70
     1
102
RTVSPropertyOp7
 70
     1
102
RTVSPropertyOp8
 70
     1
102
RTVSPropertyOp9
 70
     1
102
RTVSPropertyOp10
 70
     1
102
RTVSPropertyOp11
 70
     1
102
RTVSPropertyOp12
 70
     1
102
RTVSPropertyOp13
 70
     1
102
RTVSPropertyOp14
 70
     1
102
RTVSPropertyOp15
 70
     1
102
RTVSPropertyOp16
 70
     1
102
RTVSPropertyOp17
 70
     1
102
RTVSPropertyOp18
 70
     1
102
RTVSPropertyOp19
 70
     1
102
RTVSPropertyOp20
 70
     1
102
RTVSPropertyOp21
 70
     1
102
RTVSPropertyOp22
 70
     1
102
RTVSPropertyOp23
 70
     1
102
RTVSPropertyOp24
 70
     1
102
RTVSPropertyOp25
 70
     1
102
RTVSPropertyOp26
 70
     1
102
RTVSPropertyOp27
 70
     1
102
RTVSPropertyOp28
 70
     1
102
RTVSPropertyOp29
 70
     1
102
RTVSPropertyOp30
 70
     1
102
RTVSPropertyOp31
 70
     1
102
RTVSPropertyOp32
 70
     1
102
RTVSPropertyOp33
 70
     1
102
RTVSPropertyOp34
 70
     1
102
RTVSPropertyOp35
 70
     1
102
RTVSPropertyOp36
 70
     1
102
RTVSPropertyOp37
 70
     1
102
RTVSPropertyOp38
 70
     1
102
RTVSPropertyOp39
 70
     1
102
RTVSPropertyOp40
 70
     1
102
RTVSPropertyOp41
 70
     1
102
RTVSPropertyOp42
 70
     1
102
RTVSPropertyOp43
 70
     1
102
RTVSPropertyOp44
 70
     1
102
RTVSPropertyOp45
 70
     1
102
RTVSPropertyOp46
 70
     1
102
RTVSPropertyOp47
 70
     1
102
RTVSPropertyOp48
 70
     1
102
RTVSPropertyOp49
 70
     1
102
RTVSPropertyOp50
 70
     1
102
RTVSPropertyOp51
 70
     0
102
RTVSPropertyOp52
 70
     0
102
RTVSPropertyOp53
 70
     1
102
RTVSPropertyOp54
 70
     1
102
RTVSPropertyOp55
 70
     1
102
RTVSPropertyOp56
 70
     1
102
RTVSPropertyOp57
 70
     1
102
RTVSPropertyOp58
 70
     1
102
RTVSPropertyOp59
 70
     1
102
RTVSPropertyOp60
 70
     1
102
RTVSPropertyOp61
 70
     1
102
RTVSPropertyOp62
 70
     1
  0
XRECORD
  5
851C
102
{ACAD_REACTORS
330
851B
102
}
330
851B
100
AcDbXrecord
280
     1
102
RTVSPost2010Prop28
280
     0
102
RTVSPost2010PropOp28
 70
     1
102
RTVSPost2010Prop29
280
     1
102
RTVSPost2010PropOp29
 70
     1
102
RTVSPost2010Prop30
280
     1
102
RTVSPost2010PropOp30
 70
     1
102
RTVSPost2010Prop31
280
     0
102
RTVSPost2010PropOp31
 70
     1
102
RTVSPost2010Prop32
280
     0
102
RTVSPost2010PropOp32
 70
     1
102
RTVSPost2010Prop33
280
     0
102
RTVSPost2010PropOp33
 70
     1
102
RTVSPost2010Prop34
280
     0
102
RTVSPost2010PropOp34
 70
     1
102
RTVSPost2010Prop35
280
     0
102
RTVSPost2010PropOp35
 70
     1
102
RTVSPost2010Prop36
280
     0
102
RTVSPost2010PropOp36
 70
     1
102
RTVSPost2010Prop37
 90
       50
102
RTVSPost2010PropOp37
 70
     1
102
RTVSPost2010Prop38
140
0.0
102
RTVSPost2010PropOp38
 70
     1
102
RTVSPost2010Prop39
140
1.0
102
RTVSPost2010PropOp39
 70
     1
102
RTVSPost2010Prop40
 90
        0
102
RTVSPost2010PropOp40
 70
     1
102
RTVSPost2010Prop41ColorIndex
 90
       18
102
RTVSPost2010Prop41ColorRGB
 90
        0
102
RTVSPost2010PropOp41
 70
     1
102
RTVSPost2010Prop42
 90
       50
102
RTVSPost2010PropOp42
 70
     1
102
RTVSPost2010Prop43
 90
        3
102
RTVSPost2010PropOp43
 70
     1
102
RTVSPost2010Prop44ColorIndex
 90
        5
102
RTVSPost2010Prop44ColorRGB
 90
      255
102
RTVSPost2010PropOp44
 70
     1
102
RTVSPost2010Prop45
280
     0
102
RTVSPost2010PropOp45
 70
     1
102
RTVSPost2010Prop46
 90
       50
102
RTVSPost2010PropOp46
 70
     1
102
RTVSPost2010Prop47
 90
       50
102
RTVSPost2010PropOp47
 70
     1
102
RTVSPost2010Prop48
 90
       50
102
RTVSPost2010PropOp48
 70
     1
102
RTVSPost2010Prop49
280
     0
102
RTVSPost2010PropOp49
 70
     1
102
RTVSPost2010Prop50
 90
       50
102
RTVSPost2010PropOp50
 70
     1
102
RTVSPost2010Prop51ColorIndex
 90
      256
102
RTVSPost2010Prop51ColorRGB
 90
-16777216
102
RTVSPost2010PropOp51
 70
     0
102
RTVSPost2010Prop52
140
1.0
102
RTVSPost2010PropOp52
 70
     0
102
RTVSPost2010Prop53
 90
        2
102
RTVSPost2010PropOp53
 70
     1
102
RTVSPost2010Prop54
  1
strokes_ogs.tif
102
RTVSPost2010PropOp54
 70
     1
102
RTVSPost2010Prop55
280
     0
102
RTVSPost2010PropOp55
 70
     1
102
RTVSPost2010Prop56
140
1.0
102
RTVSPost2010PropOp56
 70
     1
102
RTVSPost2010Prop57
140
1.0
102
RTVSPost2010PropOp57
 70
     1
102
RTVSPropertyOp0
 70
     1
102
RTVSPropertyOp1
 70
     1
102
RTVSPropertyOp2
 70
     1
102
RTVSPropertyOp3
 70
     1
102
RTVSPropertyOp4
 70
     1
102
RTVSPropertyOp5
 70
     1
102
RTVSPropertyOp6
 70
     1
102
RTVSPropertyOp7
 70
     1
102
RTVSPropertyOp8
 70
     1
102
RTVSPropertyOp9
 70
     1
102
RTVSPropertyOp10
 70
     1
102
RTVSPropertyOp11
 70
     1
102
RTVSPropertyOp12
 70
     1
102
RTVSPropertyOp13
 70
     1
102
RTVSPropertyOp14
 70
     1
102
RTVSPropertyOp15
 70
     1
102
RTVSPropertyOp16
 70
     1
102
RTVSPropertyOp17
 70
     1
102
RTVSPropertyOp18
 70
     1
102
RTVSPropertyOp19
 70
     1
102
RTVSPropertyOp20
 70
     1
102
RTVSPropertyOp21
 70
     1
102
RTVSPropertyOp22
 70
     1
102
RTVSPropertyOp23
 70
     1
102
RTVSPropertyOp24
 70
     1
102
RTVSPropertyOp25
 70
     1
102
RTVSPropertyOp26
 70
     1
102
RTVSPropertyOp27
 70
     1
102
RTVSPropertyOp28
 70
     1
102
RTVSPropertyOp29
 70
     1
102
RTVSPropertyOp30
 70
     1
102
RTVSPropertyOp31
 70
     1
102
RTVSPropertyOp32
 70
     1
102
RTVSPropertyOp33
 70
     1
102
RTVSPropertyOp34
 70
     1
102
RTVSPropertyOp35
 70
     1
102
RTVSPropertyOp36
 70
     1
102
RTVSPropertyOp37
 70
     1
102
RTVSPropertyOp38
 70
     1
102
RTVSPropertyOp39
 70
     1
102
RTVSPropertyOp40
 70
     1
102
RTVSPropertyOp41
 70
     1
102
RTVSPropertyOp42
 70
     1
102
RTVSPropertyOp43
 70
     1
102
RTVSPropertyOp44
 70
     1
102
RTVSPropertyOp45
 70
     1
102
RTVSPropertyOp46
 70
     1
102
RTVSPropertyOp47
 70
     1
102
RTVSPropertyOp48
 70
     1
102
RTVSPropertyOp49
 70
     1
102
RTVSPropertyOp50
 70
     1
102
RTVSPropertyOp51
 70
     0
102
RTVSPropertyOp52
 70
     0
102
RTVSPropertyOp53
 70
     1
102
RTVSPropertyOp54
 70
     1
102
RTVSPropertyOp55
 70
     1
102
RTVSPropertyOp56
 70
     1
102
RTVSPropertyOp57
 70
     1
102
RTVSPropertyOp58
 70
     1
102
RTVSPropertyOp59
 70
     1
102
RTVSPropertyOp60
 70
     1
102
RTVSPropertyOp61
 70
     1
102
RTVSPropertyOp62
 70
     1
  0
XRECORD
  5
851A
102
{ACAD_REACTORS
330
8519
102
}
330
8519
100
AcDbXrecord
280
     1
102
RTVSPost2010Prop28
280
     0
102
RTVSPost2010PropOp28
 70
     1
102
RTVSPost2010Prop29
280
     1
102
RTVSPost2010PropOp29
 70
     1
102
RTVSPost2010Prop30
280
     1
102
RTVSPost2010PropOp30
 70
     1
102
RTVSPost2010Prop31
280
     0
102
RTVSPost2010PropOp31
 70
     1
102
RTVSPost2010Prop32
280
     0
102
RTVSPost2010PropOp32
 70
     1
102
RTVSPost2010Prop33
280
     0
102
RTVSPost2010PropOp33
 70
     1
102
RTVSPost2010Prop34
280
     0
102
RTVSPost2010PropOp34
 70
     1
102
RTVSPost2010Prop35
280
     0
102
RTVSPost2010PropOp35
 70
     1
102
RTVSPost2010Prop36
280
     0
102
RTVSPost2010PropOp36
 70
     1
102
RTVSPost2010Prop37
 90
       50
102
RTVSPost2010PropOp37
 70
     1
102
RTVSPost2010Prop38
140
0.0
102
RTVSPost2010PropOp38
 70
     1
102
RTVSPost2010Prop39
140
1.0
102
RTVSPost2010PropOp39
 70
     1
102
RTVSPost2010Prop40
 90
        0
102
RTVSPost2010PropOp40
 70
     1
102
RTVSPost2010Prop41ColorIndex
 90
       18
102
RTVSPost2010Prop41ColorRGB
 90
        0
102
RTVSPost2010PropOp41
 70
     1
102
RTVSPost2010Prop42
 90
       50
102
RTVSPost2010PropOp42
 70
     1
102
RTVSPost2010Prop43
 90
        3
102
RTVSPost2010PropOp43
 70
     1
102
RTVSPost2010Prop44ColorIndex
 90
        5
102
RTVSPost2010Prop44ColorRGB
 90
      255
102
RTVSPost2010PropOp44
 70
     1
102
RTVSPost2010Prop45
280
     0
102
RTVSPost2010PropOp45
 70
     1
102
RTVSPost2010Prop46
 90
       50
102
RTVSPost2010PropOp46
 70
     1
102
RTVSPost2010Prop47
 90
       50
102
RTVSPost2010PropOp47
 70
     1
102
RTVSPost2010Prop48
 90
       50
102
RTVSPost2010PropOp48
 70
     1
102
RTVSPost2010Prop49
280
     0
102
RTVSPost2010PropOp49
 70
     1
102
RTVSPost2010Prop50
 90
       50
102
RTVSPost2010PropOp50
 70
     1
102
RTVSPost2010Prop51ColorIndex
 90
      256
102
RTVSPost2010Prop51ColorRGB
 90
-16777216
102
RTVSPost2010PropOp51
 70
     0
102
RTVSPost2010Prop52
140
1.0
102
RTVSPost2010PropOp52
 70
     0
102
RTVSPost2010Prop53
 90
        2
102
RTVSPost2010PropOp53
 70
     1
102
RTVSPost2010Prop54
  1
strokes_ogs.tif
102
RTVSPost2010PropOp54
 70
     1
102
RTVSPost2010Prop55
280
     0
102
RTVSPost2010PropOp55
 70
     1
102
RTVSPost2010Prop56
140
1.0
102
RTVSPost2010PropOp56
 70
     1
102
RTVSPost2010Prop57
140
1.0
102
RTVSPost2010PropOp57
 70
     1
102
RTVSPropertyOp0
 70
     1
102
RTVSPropertyOp1
 70
     1
102
RTVSPropertyOp2
 70
     1
102
RTVSPropertyOp3
 70
     1
102
RTVSPropertyOp4
 70
     1
102
RTVSPropertyOp5
 70
     1
102
RTVSPropertyOp6
 70
     1
102
RTVSPropertyOp7
 70
     1
102
RTVSPropertyOp8
 70
     1
102
RTVSPropertyOp9
 70
     1
102
RTVSPropertyOp10
 70
     1
102
RTVSPropertyOp11
 70
     1
102
RTVSPropertyOp12
 70
     1
102
RTVSPropertyOp13
 70
     1
102
RTVSPropertyOp14
 70
     1
102
RTVSPropertyOp15
 70
     1
102
RTVSPropertyOp16
 70
     1
102
RTVSPropertyOp17
 70
     1
102
RTVSPropertyOp18
 70
     1
102
RTVSPropertyOp19
 70
     1
102
RTVSPropertyOp20
 70
     1
102
RTVSPropertyOp21
 70
     1
102
RTVSPropertyOp22
 70
     1
102
RTVSPropertyOp23
 70
     1
102
RTVSPropertyOp24
 70
     1
102
RTVSPropertyOp25
 70
     1
102
RTVSPropertyOp26
 70
     1
102
RTVSPropertyOp27
 70
     1
102
RTVSPropertyOp28
 70
     1
102
RTVSPropertyOp29
 70
     1
102
RTVSPropertyOp30
 70
     1
102
RTVSPropertyOp31
 70
     1
102
RTVSPropertyOp32
 70
     1
102
RTVSPropertyOp33
 70
     1
102
RTVSPropertyOp34
 70
     1
102
RTVSPropertyOp35
 70
     1
102
RTVSPropertyOp36
 70
     1
102
RTVSPropertyOp37
 70
     1
102
RTVSPropertyOp38
 70
     1
102
RTVSPropertyOp39
 70
     1
102
RTVSPropertyOp40
 70
     1
102
RTVSPropertyOp41
 70
     1
102
RTVSPropertyOp42
 70
     1
102
RTVSPropertyOp43
 70
     1
102
RTVSPropertyOp44
 70
     1
102
RTVSPropertyOp45
 70
     1
102
RTVSPropertyOp46
 70
     1
102
RTVSPropertyOp47
 70
     1
102
RTVSPropertyOp48
 70
     1
102
RTVSPropertyOp49
 70
     1
102
RTVSPropertyOp50
 70
     1
102
RTVSPropertyOp51
 70
     0
102
RTVSPropertyOp52
 70
     0
102
RTVSPropertyOp53
 70
     1
102
RTVSPropertyOp54
 70
     1
102
RTVSPropertyOp55
 70
     1
102
RTVSPropertyOp56
 70
     1
102
RTVSPropertyOp57
 70
     1
102
RTVSPropertyOp58
 70
     1
102
RTVSPropertyOp59
 70
     1
102
RTVSPropertyOp60
 70
     1
102
RTVSPropertyOp61
 70
     1
102
RTVSPropertyOp62
 70
     1
  0
XRECORD
  5
8514
102
{ACAD_REACTORS
330
8513
102
}
330
8513
100
AcDbXrecord
280
     1
102
RTVSPost2010Prop28
280
     0
102
RTVSPost2010PropOp28
 70
     1
102
RTVSPost2010Prop29
280
     1
102
RTVSPost2010PropOp29
 70
     1
102
RTVSPost2010Prop30
280
     1
102
RTVSPost2010PropOp30
 70
     1
102
RTVSPost2010Prop31
280
     0
102
RTVSPost2010PropOp31
 70
     1
102
RTVSPost2010Prop32
280
     0
102
RTVSPost2010PropOp32
 70
     1
102
RTVSPost2010Prop33
280
     0
102
RTVSPost2010PropOp33
 70
     1
102
RTVSPost2010Prop34
280
     0
102
RTVSPost2010PropOp34
 70
     1
102
RTVSPost2010Prop35
280
     0
102
RTVSPost2010PropOp35
 70
     1
102
RTVSPost2010Prop36
280
     0
102
RTVSPost2010PropOp36
 70
     1
102
RTVSPost2010Prop37
 90
       50
102
RTVSPost2010PropOp37
 70
     1
102
RTVSPost2010Prop38
140
0.0
102
RTVSPost2010PropOp38
 70
     1
102
RTVSPost2010Prop39
140
1.0
102
RTVSPost2010PropOp39
 70
     1
102
RTVSPost2010Prop40
 90
        0
102
RTVSPost2010PropOp40
 70
     1
102
RTVSPost2010Prop41ColorIndex
 90
       18
102
RTVSPost2010Prop41ColorRGB
 90
        0
102
RTVSPost2010PropOp41
 70
     1
102
RTVSPost2010Prop42
 90
       50
102
RTVSPost2010PropOp42
 70
     1
102
RTVSPost2010Prop43
 90
        3
102
RTVSPost2010PropOp43
 70
     1
102
RTVSPost2010Prop44ColorIndex
 90
        5
102
RTVSPost2010Prop44ColorRGB
 90
      255
102
RTVSPost2010PropOp44
 70
     1
102
RTVSPost2010Prop45
280
     0
102
RTVSPost2010PropOp45
 70
     1
102
RTVSPost2010Prop46
 90
       50
102
RTVSPost2010PropOp46
 70
     1
102
RTVSPost2010Prop47
 90
       50
102
RTVSPost2010PropOp47
 70
     1
102
RTVSPost2010Prop48
 90
       50
102
RTVSPost2010PropOp48
 70
     1
102
RTVSPost2010Prop49
280
     0
102
RTVSPost2010PropOp49
 70
     1
102
RTVSPost2010Prop50
 90
       50
102
RTVSPost2010PropOp50
 70
     1
102
RTVSPost2010Prop51ColorIndex
 90
      256
102
RTVSPost2010Prop51ColorRGB
 90
-16777216
102
RTVSPost2010PropOp51
 70
     0
102
RTVSPost2010Prop52
140
1.0
102
RTVSPost2010PropOp52
 70
     0
102
RTVSPost2010Prop53
 90
        2
102
RTVSPost2010PropOp53
 70
     1
102
RTVSPost2010Prop54
  1
strokes_ogs.tif
102
RTVSPost2010PropOp54
 70
     1
102
RTVSPost2010Prop55
280
     0
102
RTVSPost2010PropOp55
 70
     1
102
RTVSPost2010Prop56
140
1.0
102
RTVSPost2010PropOp56
 70
     1
102
RTVSPost2010Prop57
140
1.0
102
RTVSPost2010PropOp57
 70
     1
102
RTVSPropertyOp0
 70
     1
102
RTVSPropertyOp1
 70
     1
102
RTVSPropertyOp2
 70
     1
102
RTVSPropertyOp3
 70
     1
102
RTVSPropertyOp4
 70
     1
102
RTVSPropertyOp5
 70
     1
102
RTVSPropertyOp6
 70
     1
102
RTVSPropertyOp7
 70
     1
102
RTVSPropertyOp8
 70
     1
102
RTVSPropertyOp9
 70
     1
102
RTVSPropertyOp10
 70
     1
102
RTVSPropertyOp11
 70
     1
102
RTVSPropertyOp12
 70
     1
102
RTVSPropertyOp13
 70
     1
102
RTVSPropertyOp14
 70
     1
102
RTVSPropertyOp15
 70
     1
102
RTVSPropertyOp16
 70
     1
102
RTVSPropertyOp17
 70
     1
102
RTVSPropertyOp18
 70
     1
102
RTVSPropertyOp19
 70
     1
102
RTVSPropertyOp20
 70
     1
102
RTVSPropertyOp21
 70
     1
102
RTVSPropertyOp22
 70
     1
102
RTVSPropertyOp23
 70
     1
102
RTVSPropertyOp24
 70
     1
102
RTVSPropertyOp25
 70
     1
102
RTVSPropertyOp26
 70
     1
102
RTVSPropertyOp27
 70
     1
102
RTVSPropertyOp28
 70
     1
102
RTVSPropertyOp29
 70
     1
102
RTVSPropertyOp30
 70
     1
102
RTVSPropertyOp31
 70
     1
102
RTVSPropertyOp32
 70
     1
102
RTVSPropertyOp33
 70
     1
102
RTVSPropertyOp34
 70
     1
102
RTVSPropertyOp35
 70
     1
102
RTVSPropertyOp36
 70
     1
102
RTVSPropertyOp37
 70
     1
102
RTVSPropertyOp38
 70
     1
102
RTVSPropertyOp39
 70
     1
102
RTVSPropertyOp40
 70
     1
102
RTVSPropertyOp41
 70
     1
102
RTVSPropertyOp42
 70
     1
102
RTVSPropertyOp43
 70
     1
102
RTVSPropertyOp44
 70
     1
102
RTVSPropertyOp45
 70
     1
102
RTVSPropertyOp46
 70
     1
102
RTVSPropertyOp47
 70
     1
102
RTVSPropertyOp48
 70
     1
102
RTVSPropertyOp49
 70
     1
102
RTVSPropertyOp50
 70
     1
102
RTVSPropertyOp51
 70
     0
102
RTVSPropertyOp52
 70
     0
102
RTVSPropertyOp53
 70
     1
102
RTVSPropertyOp54
 70
     1
102
RTVSPropertyOp55
 70
     1
102
RTVSPropertyOp56
 70
     1
102
RTVSPropertyOp57
 70
     1
102
RTVSPropertyOp58
 70
     1
102
RTVSPropertyOp59
 70
     1
102
RTVSPropertyOp60
 70
     1
102
RTVSPropertyOp61
 70
     1
102
RTVSPropertyOp62
 70
     1
  0
XRECORD
  5
8516
102
{ACAD_REACTORS
330
8515
102
}
330
8515
100
AcDbXrecord
280
     1
102
RTVSPost2010Prop28
280
     0
102
RTVSPost2010PropOp28
 70
     1
102
RTVSPost2010Prop29
280
     1
102
RTVSPost2010PropOp29
 70
     1
102
RTVSPost2010Prop30
280
     1
102
RTVSPost2010PropOp30
 70
     1
102
RTVSPost2010Prop31
280
     0
102
RTVSPost2010PropOp31
 70
     1
102
RTVSPost2010Prop32
280
     0
102
RTVSPost2010PropOp32
 70
     1
102
RTVSPost2010Prop33
280
     0
102
RTVSPost2010PropOp33
 70
     1
102
RTVSPost2010Prop34
280
     0
102
RTVSPost2010PropOp34
 70
     1
102
RTVSPost2010Prop35
280
     0
102
RTVSPost2010PropOp35
 70
     1
102
RTVSPost2010Prop36
280
     0
102
RTVSPost2010PropOp36
 70
     1
102
RTVSPost2010Prop37
 90
       50
102
RTVSPost2010PropOp37
 70
     1
102
RTVSPost2010Prop38
140
0.0
102
RTVSPost2010PropOp38
 70
     1
102
RTVSPost2010Prop39
140
1.0
102
RTVSPost2010PropOp39
 70
     1
102
RTVSPost2010Prop40
 90
        0
102
RTVSPost2010PropOp40
 70
     1
102
RTVSPost2010Prop41ColorIndex
 90
       18
102
RTVSPost2010Prop41ColorRGB
 90
        0
102
RTVSPost2010PropOp41
 70
     1
102
RTVSPost2010Prop42
 90
       50
102
RTVSPost2010PropOp42
 70
     1
102
RTVSPost2010Prop43
 90
        3
102
RTVSPost2010PropOp43
 70
     1
102
RTVSPost2010Prop44ColorIndex
 90
        5
102
RTVSPost2010Prop44ColorRGB
 90
      255
102
RTVSPost2010PropOp44
 70
     1
102
RTVSPost2010Prop45
280
     0
102
RTVSPost2010PropOp45
 70
     1
102
RTVSPost2010Prop46
 90
       50
102
RTVSPost2010PropOp46
 70
     1
102
RTVSPost2010Prop47
 90
       50
102
RTVSPost2010PropOp47
 70
     1
102
RTVSPost2010Prop48
 90
       50
102
RTVSPost2010PropOp48
 70
     1
102
RTVSPost2010Prop49
280
     0
102
RTVSPost2010PropOp49
 70
     1
102
RTVSPost2010Prop50
 90
       50
102
RTVSPost2010PropOp50
 70
     1
102
RTVSPost2010Prop51ColorIndex
 90
      256
102
RTVSPost2010Prop51ColorRGB
 90
-16777216
102
RTVSPost2010PropOp51
 70
     0
102
RTVSPost2010Prop52
140
1.0
102
RTVSPost2010PropOp52
 70
     0
102
RTVSPost2010Prop53
 90
        2
102
RTVSPost2010PropOp53
 70
     1
102
RTVSPost2010Prop54
  1
strokes_ogs.tif
102
RTVSPost2010PropOp54
 70
     1
102
RTVSPost2010Prop55
280
     0
102
RTVSPost2010PropOp55
 70
     1
102
RTVSPost2010Prop56
140
1.0
102
RTVSPost2010PropOp56
 70
     1
102
RTVSPost2010Prop57
140
1.0
102
RTVSPost2010PropOp57
 70
     1
102
RTVSPropertyOp0
 70
     1
102
RTVSPropertyOp1
 70
     1
102
RTVSPropertyOp2
 70
     1
102
RTVSPropertyOp3
 70
     1
102
RTVSPropertyOp4
 70
     1
102
RTVSPropertyOp5
 70
     1
102
RTVSPropertyOp6
 70
     1
102
RTVSPropertyOp7
 70
     1
102
RTVSPropertyOp8
 70
     1
102
RTVSPropertyOp9
 70
     1
102
RTVSPropertyOp10
 70
     1
102
RTVSPropertyOp11
 70
     1
102
RTVSPropertyOp12
 70
     1
102
RTVSPropertyOp13
 70
     1
102
RTVSPropertyOp14
 70
     1
102
RTVSPropertyOp15
 70
     1
102
RTVSPropertyOp16
 70
     1
102
RTVSPropertyOp17
 70
     1
102
RTVSPropertyOp18
 70
     1
102
RTVSPropertyOp19
 70
     1
102
RTVSPropertyOp20
 70
     1
102
RTVSPropertyOp21
 70
     1
102
RTVSPropertyOp22
 70
     1
102
RTVSPropertyOp23
 70
     1
102
RTVSPropertyOp24
 70
     1
102
RTVSPropertyOp25
 70
     1
102
RTVSPropertyOp26
 70
     1
102
RTVSPropertyOp27
 70
     1
102
RTVSPropertyOp28
 70
     1
102
RTVSPropertyOp29
 70
     1
102
RTVSPropertyOp30
 70
     1
102
RTVSPropertyOp31
 70
     1
102
RTVSPropertyOp32
 70
     1
102
RTVSPropertyOp33
 70
     1
102
RTVSPropertyOp34
 70
     1
102
RTVSPropertyOp35
 70
     1
102
RTVSPropertyOp36
 70
     1
102
RTVSPropertyOp37
 70
     1
102
RTVSPropertyOp38
 70
     1
102
RTVSPropertyOp39
 70
     1
102
RTVSPropertyOp40
 70
     1
102
RTVSPropertyOp41
 70
     1
102
RTVSPropertyOp42
 70
     1
102
RTVSPropertyOp43
 70
     1
102
RTVSPropertyOp44
 70
     1
102
RTVSPropertyOp45
 70
     1
102
RTVSPropertyOp46
 70
     1
102
RTVSPropertyOp47
 70
     1
102
RTVSPropertyOp48
 70
     1
102
RTVSPropertyOp49
 70
     1
102
RTVSPropertyOp50
 70
     1
102
RTVSPropertyOp51
 70
     0
102
RTVSPropertyOp52
 70
     0
102
RTVSPropertyOp53
 70
     1
102
RTVSPropertyOp54
 70
     1
102
RTVSPropertyOp55
 70
     1
102
RTVSPropertyOp56
 70
     1
102
RTVSPropertyOp57
 70
     1
102
RTVSPropertyOp58
 70
     1
102
RTVSPropertyOp59
 70
     1
102
RTVSPropertyOp60
 70
     1
102
RTVSPropertyOp61
 70
     1
102
RTVSPropertyOp62
 70
     1
  0
XRECORD
  5
850C
102
{ACAD_REACTORS
330
850B
102
}
330
850B
100
AcDbXrecord
280
     1
102
RTVSPost2010Prop28
280
     0
102
RTVSPost2010PropOp28
 70
     1
102
RTVSPost2010Prop29
280
     1
102
RTVSPost2010PropOp29
 70
     1
102
RTVSPost2010Prop30
280
     1
102
RTVSPost2010PropOp30
 70
     1
102
RTVSPost2010Prop31
280
     0
102
RTVSPost2010PropOp31
 70
     1
102
RTVSPost2010Prop32
280
     0
102
RTVSPost2010PropOp32
 70
     1
102
RTVSPost2010Prop33
280
     0
102
RTVSPost2010PropOp33
 70
     1
102
RTVSPost2010Prop34
280
     0
102
RTVSPost2010PropOp34
 70
     1
102
RTVSPost2010Prop35
280
     0
102
RTVSPost2010PropOp35
 70
     1
102
RTVSPost2010Prop36
280
     0
102
RTVSPost2010PropOp36
 70
     1
102
RTVSPost2010Prop37
 90
       50
102
RTVSPost2010PropOp37
 70
     1
102
RTVSPost2010Prop38
140
0.0
102
RTVSPost2010PropOp38
 70
     1
102
RTVSPost2010Prop39
140
1.0
102
RTVSPost2010PropOp39
 70
     1
102
RTVSPost2010Prop40
 90
        0
102
RTVSPost2010PropOp40
 70
     1
102
RTVSPost2010Prop41ColorIndex
 90
       18
102
RTVSPost2010Prop41ColorRGB
 90
        0
102
RTVSPost2010PropOp41
 70
     1
102
RTVSPost2010Prop42
 90
       50
102
RTVSPost2010PropOp42
 70
     1
102
RTVSPost2010Prop43
 90
        3
102
RTVSPost2010PropOp43
 70
     1
102
RTVSPost2010Prop44ColorIndex
 90
        5
102
RTVSPost2010Prop44ColorRGB
 90
      255
102
RTVSPost2010PropOp44
 70
     1
102
RTVSPost2010Prop45
280
     0
102
RTVSPost2010PropOp45
 70
     1
102
RTVSPost2010Prop46
 90
       50
102
RTVSPost2010PropOp46
 70
     1
102
RTVSPost2010Prop47
 90
       50
102
RTVSPost2010PropOp47
 70
     1
102
RTVSPost2010Prop48
 90
       50
102
RTVSPost2010PropOp48
 70
     1
102
RTVSPost2010Prop49
280
     0
102
RTVSPost2010PropOp49
 70
     1
102
RTVSPost2010Prop50
 90
       50
102
RTVSPost2010PropOp50
 70
     1
102
RTVSPost2010Prop51ColorIndex
 90
      256
102
RTVSPost2010Prop51ColorRGB
 90
-16777216
102
RTVSPost2010PropOp51
 70
     0
102
RTVSPost2010Prop52
140
1.0
102
RTVSPost2010PropOp52
 70
     0
102
RTVSPost2010Prop53
 90
        2
102
RTVSPost2010PropOp53
 70
     1
102
RTVSPost2010Prop54
  1
strokes_ogs.tif
102
RTVSPost2010PropOp54
 70
     1
102
RTVSPost2010Prop55
280
     0
102
RTVSPost2010PropOp55
 70
     1
102
RTVSPost2010Prop56
140
1.0
102
RTVSPost2010PropOp56
 70
     1
102
RTVSPost2010Prop57
140
1.0
102
RTVSPost2010PropOp57
 70
     1
102
RTVSPropertyOp0
 70
     1
102
RTVSPropertyOp1
 70
     1
102
RTVSPropertyOp2
 70
     1
102
RTVSPropertyOp3
 70
     1
102
RTVSPropertyOp4
 70
     1
102
RTVSPropertyOp5
 70
     1
102
RTVSPropertyOp6
 70
     1
102
RTVSPropertyOp7
 70
     1
102
RTVSPropertyOp8
 70
     1
102
RTVSPropertyOp9
 70
     1
102
RTVSPropertyOp10
 70
     1
102
RTVSPropertyOp11
 70
     1
102
RTVSPropertyOp12
 70
     1
102
RTVSPropertyOp13
 70
     1
102
RTVSPropertyOp14
 70
     1
102
RTVSPropertyOp15
 70
     1
102
RTVSPropertyOp16
 70
     1
102
RTVSPropertyOp17
 70
     1
102
RTVSPropertyOp18
 70
     1
102
RTVSPropertyOp19
 70
     1
102
RTVSPropertyOp20
 70
     1
102
RTVSPropertyOp21
 70
     1
102
RTVSPropertyOp22
 70
     1
102
RTVSPropertyOp23
 70
     1
102
RTVSPropertyOp24
 70
     1
102
RTVSPropertyOp25
 70
     1
102
RTVSPropertyOp26
 70
     1
102
RTVSPropertyOp27
 70
     1
102
RTVSPropertyOp28
 70
     1
102
RTVSPropertyOp29
 70
     1
102
RTVSPropertyOp30
 70
     1
102
RTVSPropertyOp31
 70
     1
102
RTVSPropertyOp32
 70
     1
102
RTVSPropertyOp33
 70
     1
102
RTVSPropertyOp34
 70
     1
102
RTVSPropertyOp35
 70
     1
102
RTVSPropertyOp36
 70
     1
102
RTVSPropertyOp37
 70
     1
102
RTVSPropertyOp38
 70
     1
102
RTVSPropertyOp39
 70
     1
102
RTVSPropertyOp40
 70
     1
102
RTVSPropertyOp41
 70
     1
102
RTVSPropertyOp42
 70
     1
102
RTVSPropertyOp43
 70
     1
102
RTVSPropertyOp44
 70
     1
102
RTVSPropertyOp45
 70
     1
102
RTVSPropertyOp46
 70
     1
102
RTVSPropertyOp47
 70
     1
102
RTVSPropertyOp48
 70
     1
102
RTVSPropertyOp49
 70
     1
102
RTVSPropertyOp50
 70
     1
102
RTVSPropertyOp51
 70
     0
102
RTVSPropertyOp52
 70
     0
102
RTVSPropertyOp53
 70
     1
102
RTVSPropertyOp54
 70
     1
102
RTVSPropertyOp55
 70
     1
102
RTVSPropertyOp56
 70
     1
102
RTVSPropertyOp57
 70
     1
102
RTVSPropertyOp58
 70
     1
102
RTVSPropertyOp59
 70
     1
102
RTVSPropertyOp60
 70
     1
102
RTVSPropertyOp61
 70
     1
102
RTVSPropertyOp62
 70
     1
  0
XRECORD
  5
8500
102
{ACAD_REACTORS
330
84FF
102
}
330
84FF
100
AcDbXrecord
280
     1
102
RTVSPost2010Prop28
280
     0
102
RTVSPost2010PropOp28
 70
     1
102
RTVSPost2010Prop29
280
     1
102
RTVSPost2010PropOp29
 70
     1
102
RTVSPost2010Prop30
280
     1
102
RTVSPost2010PropOp30
 70
     1
102
RTVSPost2010Prop31
280
     0
102
RTVSPost2010PropOp31
 70
     1
102
RTVSPost2010Prop32
280
     0
102
RTVSPost2010PropOp32
 70
     1
102
RTVSPost2010Prop33
280
     0
102
RTVSPost2010PropOp33
 70
     1
102
RTVSPost2010Prop34
280
     0
102
RTVSPost2010PropOp34
 70
     1
102
RTVSPost2010Prop35
280
     0
102
RTVSPost2010PropOp35
 70
     1
102
RTVSPost2010Prop36
280
     0
102
RTVSPost2010PropOp36
 70
     1
102
RTVSPost2010Prop37
 90
       50
102
RTVSPost2010PropOp37
 70
     1
102
RTVSPost2010Prop38
140
0.0
102
RTVSPost2010PropOp38
 70
     1
102
RTVSPost2010Prop39
140
1.0
102
RTVSPost2010PropOp39
 70
     1
102
RTVSPost2010Prop40
 90
        0
102
RTVSPost2010PropOp40
 70
     1
102
RTVSPost2010Prop41ColorIndex
 90
       18
102
RTVSPost2010Prop41ColorRGB
 90
        0
102
RTVSPost2010PropOp41
 70
     1
102
RTVSPost2010Prop42
 90
       50
102
RTVSPost2010PropOp42
 70
     1
102
RTVSPost2010Prop43
 90
        3
102
RTVSPost2010PropOp43
 70
     1
102
RTVSPost2010Prop44ColorIndex
 90
        5
102
RTVSPost2010Prop44ColorRGB
 90
      255
102
RTVSPost2010PropOp44
 70
     1
102
RTVSPost2010Prop45
280
     0
102
RTVSPost2010PropOp45
 70
     1
102
RTVSPost2010Prop46
 90
       50
102
RTVSPost2010PropOp46
 70
     1
102
RTVSPost2010Prop47
 90
       50
102
RTVSPost2010PropOp47
 70
     1
102
RTVSPost2010Prop48
 90
       50
102
RTVSPost2010PropOp48
 70
     1
102
RTVSPost2010Prop49
280
     0
102
RTVSPost2010PropOp49
 70
     1
102
RTVSPost2010Prop50
 90
       50
102
RTVSPost2010PropOp50
 70
     1
102
RTVSPost2010Prop51ColorIndex
 90
      256
102
RTVSPost2010Prop51ColorRGB
 90
-16777216
102
RTVSPost2010PropOp51
 70
     0
102
RTVSPost2010Prop52
140
1.0
102
RTVSPost2010PropOp52
 70
     0
102
RTVSPost2010Prop53
 90
        2
102
RTVSPost2010PropOp53
 70
     1
102
RTVSPost2010Prop54
  1
strokes_ogs.tif
102
RTVSPost2010PropOp54
 70
     1
102
RTVSPost2010Prop55
280
     0
102
RTVSPost2010PropOp55
 70
     1
102
RTVSPost2010Prop56
140
1.0
102
RTVSPost2010PropOp56
 70
     1
102
RTVSPost2010Prop57
140
1.0
102
RTVSPost2010PropOp57
 70
     1
102
RTVSPropertyOp0
 70
     1
102
RTVSPropertyOp1
 70
     1
102
RTVSPropertyOp2
 70
     1
102
RTVSPropertyOp3
 70
     1
102
RTVSPropertyOp4
 70
     1
102
RTVSPropertyOp5
 70
     1
102
RTVSPropertyOp6
 70
     1
102
RTVSPropertyOp7
 70
     1
102
RTVSPropertyOp8
 70
     1
102
RTVSPropertyOp9
 70
     1
102
RTVSPropertyOp10
 70
     1
102
RTVSPropertyOp11
 70
     1
102
RTVSPropertyOp12
 70
     1
102
RTVSPropertyOp13
 70
     1
102
RTVSPropertyOp14
 70
     1
102
RTVSPropertyOp15
 70
     1
102
RTVSPropertyOp16
 70
     1
102
RTVSPropertyOp17
 70
     1
102
RTVSPropertyOp18
 70
     1
102
RTVSPropertyOp19
 70
     1
102
RTVSPropertyOp20
 70
     1
102
RTVSPropertyOp21
 70
     1
102
RTVSPropertyOp22
 70
     1
102
RTVSPropertyOp23
 70
     1
102
RTVSPropertyOp24
 70
     1
102
RTVSPropertyOp25
 70
     1
102
RTVSPropertyOp26
 70
     1
102
RTVSPropertyOp27
 70
     1
102
RTVSPropertyOp28
 70
     1
102
RTVSPropertyOp29
 70
     1
102
RTVSPropertyOp30
 70
     1
102
RTVSPropertyOp31
 70
     1
102
RTVSPropertyOp32
 70
     1
102
RTVSPropertyOp33
 70
     1
102
RTVSPropertyOp34
 70
     1
102
RTVSPropertyOp35
 70
     1
102
RTVSPropertyOp36
 70
     1
102
RTVSPropertyOp37
 70
     1
102
RTVSPropertyOp38
 70
     1
102
RTVSPropertyOp39
 70
     1
102
RTVSPropertyOp40
 70
     1
102
RTVSPropertyOp41
 70
     1
102
RTVSPropertyOp42
 70
     1
102
RTVSPropertyOp43
 70
     1
102
RTVSPropertyOp44
 70
     1
102
RTVSPropertyOp45
 70
     1
102
RTVSPropertyOp46
 70
     1
102
RTVSPropertyOp47
 70
     1
102
RTVSPropertyOp48
 70
     1
102
RTVSPropertyOp49
 70
     1
102
RTVSPropertyOp50
 70
     1
102
RTVSPropertyOp51
 70
     0
102
RTVSPropertyOp52
 70
     0
102
RTVSPropertyOp53
 70
     1
102
RTVSPropertyOp54
 70
     1
102
RTVSPropertyOp55
 70
     1
102
RTVSPropertyOp56
 70
     1
102
RTVSPropertyOp57
 70
     1
102
RTVSPropertyOp58
 70
     1
102
RTVSPropertyOp59
 70
     1
102
RTVSPropertyOp60
 70
     1
102
RTVSPropertyOp61
 70
     1
102
RTVSPropertyOp62
 70
     1
  0
XRECORD
  5
8518
102
{ACAD_REACTORS
330
8517
102
}
330
8517
100
AcDbXrecord
280
     1
102
RTVSPost2010Prop28
280
     0
102
RTVSPost2010PropOp28
 70
     1
102
RTVSPost2010Prop29
280
     1
102
RTVSPost2010PropOp29
 70
     1
102
RTVSPost2010Prop30
280
     1
102
RTVSPost2010PropOp30
 70
     1
102
RTVSPost2010Prop31
280
     0
102
RTVSPost2010PropOp31
 70
     1
102
RTVSPost2010Prop32
280
     0
102
RTVSPost2010PropOp32
 70
     1
102
RTVSPost2010Prop33
280
     0
102
RTVSPost2010PropOp33
 70
     1
102
RTVSPost2010Prop34
280
     0
102
RTVSPost2010PropOp34
 70
     1
102
RTVSPost2010Prop35
280
     0
102
RTVSPost2010PropOp35
 70
     1
102
RTVSPost2010Prop36
280
     0
102
RTVSPost2010PropOp36
 70
     1
102
RTVSPost2010Prop37
 90
       50
102
RTVSPost2010PropOp37
 70
     1
102
RTVSPost2010Prop38
140
0.0
102
RTVSPost2010PropOp38
 70
     1
102
RTVSPost2010Prop39
140
1.0
102
RTVSPost2010PropOp39
 70
     1
102
RTVSPost2010Prop40
 90
        0
102
RTVSPost2010PropOp40
 70
     1
102
RTVSPost2010Prop41ColorIndex
 90
       18
102
RTVSPost2010Prop41ColorRGB
 90
        0
102
RTVSPost2010PropOp41
 70
     1
102
RTVSPost2010Prop42
 90
       50
102
RTVSPost2010PropOp42
 70
     1
102
RTVSPost2010Prop43
 90
        3
102
RTVSPost2010PropOp43
 70
     1
102
RTVSPost2010Prop44ColorIndex
 90
        5
102
RTVSPost2010Prop44ColorRGB
 90
      255
102
RTVSPost2010PropOp44
 70
     1
102
RTVSPost2010Prop45
280
     0
102
RTVSPost2010PropOp45
 70
     1
102
RTVSPost2010Prop46
 90
       50
102
RTVSPost2010PropOp46
 70
     1
102
RTVSPost2010Prop47
 90
       50
102
RTVSPost2010PropOp47
 70
     1
102
RTVSPost2010Prop48
 90
       50
102
RTVSPost2010PropOp48
 70
     1
102
RTVSPost2010Prop49
280
     0
102
RTVSPost2010PropOp49
 70
     1
102
RTVSPost2010Prop50
 90
       50
102
RTVSPost2010PropOp50
 70
     1
102
RTVSPost2010Prop51ColorIndex
 90
      256
102
RTVSPost2010Prop51ColorRGB
 90
-16777216
102
RTVSPost2010PropOp51
 70
     0
102
RTVSPost2010Prop52
140
1.0
102
RTVSPost2010PropOp52
 70
     0
102
RTVSPost2010Prop53
 90
        2
102
RTVSPost2010PropOp53
 70
     1
102
RTVSPost2010Prop54
  1
strokes_ogs.tif
102
RTVSPost2010PropOp54
 70
     1
102
RTVSPost2010Prop55
280
     0
102
RTVSPost2010PropOp55
 70
     1
102
RTVSPost2010Prop56
140
1.0
102
RTVSPost2010PropOp56
 70
     1
102
RTVSPost2010Prop57
140
1.0
102
RTVSPost2010PropOp57
 70
     1
102
RTVSPropertyOp0
 70
     1
102
RTVSPropertyOp1
 70
     1
102
RTVSPropertyOp2
 70
     1
102
RTVSPropertyOp3
 70
     1
102
RTVSPropertyOp4
 70
     1
102
RTVSPropertyOp5
 70
     1
102
RTVSPropertyOp6
 70
     1
102
RTVSPropertyOp7
 70
     1
102
RTVSPropertyOp8
 70
     1
102
RTVSPropertyOp9
 70
     1
102
RTVSPropertyOp10
 70
     1
102
RTVSPropertyOp11
 70
     1
102
RTVSPropertyOp12
 70
     1
102
RTVSPropertyOp13
 70
     1
102
RTVSPropertyOp14
 70
     1
102
RTVSPropertyOp15
 70
     1
102
RTVSPropertyOp16
 70
     1
102
RTVSPropertyOp17
 70
     1
102
RTVSPropertyOp18
 70
     1
102
RTVSPropertyOp19
 70
     1
102
RTVSPropertyOp20
 70
     1
102
RTVSPropertyOp21
 70
     1
102
RTVSPropertyOp22
 70
     1
102
RTVSPropertyOp23
 70
     1
102
RTVSPropertyOp24
 70
     1
102
RTVSPropertyOp25
 70
     1
102
RTVSPropertyOp26
 70
     1
102
RTVSPropertyOp27
 70
     1
102
RTVSPropertyOp28
 70
     1
102
RTVSPropertyOp29
 70
     1
102
RTVSPropertyOp30
 70
     1
102
RTVSPropertyOp31
 70
     1
102
RTVSPropertyOp32
 70
     1
102
RTVSPropertyOp33
 70
     1
102
RTVSPropertyOp34
 70
     1
102
RTVSPropertyOp35
 70
     1
102
RTVSPropertyOp36
 70
     1
102
RTVSPropertyOp37
 70
     1
102
RTVSPropertyOp38
 70
     1
102
RTVSPropertyOp39
 70
     1
102
RTVSPropertyOp40
 70
     1
102
RTVSPropertyOp41
 70
     1
102
RTVSPropertyOp42
 70
     1
102
RTVSPropertyOp43
 70
     1
102
RTVSPropertyOp44
 70
     1
102
RTVSPropertyOp45
 70
     1
102
RTVSPropertyOp46
 70
     1
102
RTVSPropertyOp47
 70
     1
102
RTVSPropertyOp48
 70
     1
102
RTVSPropertyOp49
 70
     1
102
RTVSPropertyOp50
 70
     1
102
RTVSPropertyOp51
 70
     0
102
RTVSPropertyOp52
 70
     0
102
RTVSPropertyOp53
 70
     1
102
RTVSPropertyOp54
 70
     1
102
RTVSPropertyOp55
 70
     1
102
RTVSPropertyOp56
 70
     1
102
RTVSPropertyOp57
 70
     1
102
RTVSPropertyOp58
 70
     1
102
RTVSPropertyOp59
 70
     1
102
RTVSPropertyOp60
 70
     1
102
RTVSPropertyOp61
 70
     1
102
RTVSPropertyOp62
 70
     1
  0
ENDSEC
  0
EOF
