  0
SECTION
  2
HEADER
  9
$ACADVER
  1
AC1015
  9
$ACADMAINTVER
 70
    20
  9
$DWGCODEPAGE
  3
ANSI_932
  9
$INSBASE
 10
0.0
 20
0.0
 30
0.0
  9
$EXTMIN
 10
-0.1922460740788665
 20
-0.2700599612071528
 30
-0.0015258207003583
  9
$EXTMAX
 10
6300.192275410744
 20
8850.270101172235
 30
0.0000000349246037
  9
$LIMMIN
 10
0.0
 20
0.0
  9
$LIMMAX
 10
297.0
 20
210.0
  9
$ORTHOMODE
 70
     1
  9
$REGENMODE
 70
     1
  9
$FILLMODE
 70
     0
  9
$QTEXTMODE
 70
     0
  9
$MIRRTEXT
 70
     1
  9
$LTSCALE
 40
100.0
  9
$ATTMODE
 70
     1
  9
$TEXTSIZE
 40
180.0
  9
$TRACEWID
 40
0.05
  9
$TEXTSTYLE
  7
STANDARD
  9
$CLAYER
  8
3
  9
$CELTYPE
  6
ByLayer
  9
$CECOLOR
 62
   256
  9
$CELTSCALE
 40
1.0
  9
$DISPSILH
 70
     0
  9
$DIMSCALE
 40
30.0
  9
$DIMASZ
 40
2.0
  9
$DIMEXO
 40
1.0
  9
$DIMDLI
 40
10.0
  9
$DIMRND
 40
0.0
  9
$DIMDLE
 40
0.0
  9
$DIMEXE
 40
1.0
  9
$DIMTP
 40
1.0
  9
$DIMTM
 40
1.0
  9
$DIMTXT
 40
3.0
  9
$DIMCEN
 40
0.0
  9
$DIMTSZ
 40
0.0
  9
$DIMTOL
 70
     0
  9
$DIMLIM
 70
     0
  9
$DIMTIH
 70
     0
  9
$DIMTOH
 70
     0
  9
$DIMSE1
 70
     0
  9
$DIMSE2
 70
     0
  9
$DIMTAD
 70
     1
  9
$DIMZIN
 70
     8
  9
$DIMBLK
  1

  9
$DIMASO
 70
     1
  9
$DIMSHO
 70
     1
  9
$DIMPOST
  1

  9
$DIMAPOST
  1

  9
$DIMALT
 70
     0
  9
$DIMALTD
 70
     2
  9
$DIMALTF
 40
0.039
  9
$DIMLFAC
 40
1.0
  9
$DIMTOFL
 70
     1
  9
$DIMTVP
 40
0.0
  9
$DIMTIX
 70
     0
  9
$DIMSOXD
 70
     0
  9
$DIMSAH
 70
     1
  9
$DIMBLK1
  1
OPEN
  9
$DIMBLK2
  1
OPEN
  9
$DIMSTYLE
  2
IGA
  9
$DIMCLRD
 70
     0
  9
$DIMCLRE
 70
     0
  9
$DIMCLRT
 70
     0
  9
$DIMTFAC
 40
10.0
  9
$DIMGAP
 40
1.0
  9
$DIMJUST
 70
     0
  9
$DIMSD1
 70
     0
  9
$DIMSD2
 70
     0
  9
$DIMTOLJ
 70
     1
  9
$DIMTZIN
 70
     0
  9
$DIMALTZ
 70
     0
  9
$DIMALTTZ
 70
     0
  9
$DIMUPT
 70
     0
  9
$DIMDEC
 70
     4
  9
$DIMTDEC
 70
     4
  9
$DIMALTU
 70
     2
  9
$DIMALTTD
 70
     2
  9
$DIMTXSTY
  7
STANDARD
  9
$DIMAUNIT
 70
     0
  9
$DIMADEC
 70
     0
  9
$DIMALTRND
 40
0.0
  9
$DIMAZIN
 70
     0
  9
$DIMDSEP
 70
    46
  9
$DIMATFIT
 70
     3
  9
$DIMFRAC
 70
     0
  9
$DIMLDRBLK
  1
OPEN
  9
$DIMLUNIT
 70
     2
  9
$DIMLWD
 70
    -2
  9
$DIMLWE
 70
    -2
  9
$DIMTMOVE
 70
     0
  9
$LUNITS
 70
     2
  9
$LUPREC
 70
     3
  9
$SKETCHINC
 40
0.1
  9
$FILLETRAD
 40
50.0
  9
$AUNITS
 70
     0
  9
$AUPREC
 70
     0
  9
$MENU
  1
acad
  9
$ELEVATION
 40
0.0
  9
$PELEVATION
 40
0.0
  9
$THICKNESS
 40
0.0
  9
$LIMCHECK
 70
     0
  9
$CHAMFERA
 40
0.5
  9
$CHAMFERB
 40
0.5
  9
$CHAMFERC
 40
0.0
  9
$CHAMFERD
 40
0.0
  9
$SKPOLY
 70
     0
  9
$TDCREATE
 40
2451389.575190046
  9
$TDUCREATE
 40
2451389.200190047
  9
$TDUPDATE
 40
2460271.747853148
  9
$TDUUPDATE
 40
2460271.372853148
  9
$TDINDWG
 40
0.0246835532
  9
$TDUSRTIMER
 40
0.0246835417
  9
$USRTIMER
 70
     1
  9
$ANGBASE
 50
0.0
  9
$ANGDIR
 70
     0
  9
$PDMODE
 70
     0
  9
$PDSIZE
 40
0.0
  9
$PLINEWID
 40
0.0
  9
$SPLFRAME
 70
     0
  9
$SPLINETYPE
 70
     6
  9
$SPLINESEGS
 70
     8
  9
$HANDSEED
  5
8502
  9
$SURFTAB1
 70
     6
  9
$SURFTAB2
 70
     6
  9
$SURFTYPE
 70
     6
  9
$SURFU
 70
     6
  9
$SURFV
 70
     6
  9
$UCSBASE
  2

  9
$UCSNAME
  2

  9
$UCSORG
 10
0.0
 20
0.0
 30
0.0
  9
$UCSXDIR
 10
1.0
 20
0.0
 30
0.0
  9
$UCSYDIR
 10
0.0
 20
1.0
 30
0.0
  9
$UCSORTHOREF
  2

  9
$UCSORTHOVIEW
 70
     0
  9
$UCSORGTOP
 10
0.0
 20
0.0
 30
0.0
  9
$UCSORGBOTTOM
 10
0.0
 20
0.0
 30
0.0
  9
$UCSORGLEFT
 10
0.0
 20
0.0
 30
0.0
  9
$UCSORGRIGHT
 10
0.0
 20
0.0
 30
0.0
  9
$UCSORGFRONT
 10
0.0
 20
0.0
 30
0.0
  9
$UCSORGBACK
 10
0.0
 20
0.0
 30
0.0
  9
$PUCSBASE
  2

  9
$PUCSNAME
  2

  9
$PUCSORG
 10
0.0
 20
0.0
 30
0.0
  9
$PUCSXDIR
 10
1.0
 20
0.0
 30
0.0
  9
$PUCSYDIR
 10
0.0
 20
1.0
 30
0.0
  9
$PUCSORTHOREF
  2

  9
$PUCSORTHOVIEW
 70
     0
  9
$PUCSORGTOP
 10
0.0
 20
0.0
 30
0.0
  9
$PUCSORGBOTTOM
 10
0.0
 20
0.0
 30
0.0
  9
$PUCSORGLEFT
 10
0.0
 20
0.0
 30
0.0
  9
$PUCSORGRIGHT
 10
0.0
 20
0.0
 30
0.0
  9
$PUCSORGFRONT
 10
0.0
 20
0.0
 30
0.0
  9
$PUCSORGBACK
 10
0.0
 20
0.0
 30
0.0
  9
$USERI1
 70
     0
  9
$USERI2
 70
     0
  9
$USERI3
 70
     0
  9
$USERI4
 70
     0
  9
$USERI5
 70
     0
  9
$USERR1
 40
0.0
  9
$USERR2
 40
0.0
  9
$USERR3
 40
0.0
  9
$USERR4
 40
0.0
  9
$USERR5
 40
0.0
  9
$WORLDVIEW
 70
     1
  9
$SHADEDGE
 70
     3
  9
$SHADEDIF
 70
    70
  9
$TILEMODE
 70
     1
  9
$MAXACTVP
 70
    16
  9
$PINSBASE
 10
0.0
 20
0.0
 30
0.0
  9
$PLIMCHECK
 70
     0
  9
$PEXTMIN
 10
1.000000000000000E+20
 20
1.000000000000000E+20
 30
1.000000000000000E+20
  9
$PEXTMAX
 10
-1.000000000000000E+20
 20
-1.000000000000000E+20
 30
-1.000000000000000E+20
  9
$PLIMMIN
 10
0.0
 20
0.0
  9
$PLIMMAX
 10
12.0
 20
9.0
  9
$UNITMODE
 70
     0
  9
$VISRETAIN
 70
     0
  9
$PLINEGEN
 70
     0
  9
$PSLTSCALE
 70
     1
  9
$TREEDEPTH
 70
  3020
  9
$CMLSTYLE
  2
Standard
  9
$CMLJUST
 70
     0
  9
$CMLSCALE
 40
1.0
  9
$PROXYGRAPHICS
 70
     1
  9
$MEASUREMENT
 70
     0
  9
$CELWEIGHT
370
    -1
  9
$ENDCAPS
280
     0
  9
$JOINSTYLE
280
     0
  9
$LWDISPLAY
290
     0
  9
$INSUNITS
 70
     0
  9
$HYPERLINKBASE
  1

  9
$STYLESHEET
  1

  9
$XEDIT
290
     1
  9
$CEPSNTYPE
380
     0
  9
$PSTYLEMODE
290
     1
  9
$FINGERPRINTGUID
  2
{90A07897-05A8-4D90-89B1-2ED703D32C42}
  9
$VERSIONGUID
  2
{0685FD15-A3F2-49A1-A25F-C1E539902BF9}
  9
$EXTNAMES
290
     1
  9
$PSVPSCALE
 40
0.0
  9
$OLESTARTUP
290
     0
  0
ENDSEC
  0
SECTION
  2
CLASSES
  0
CLASS
  1
ACDBDICTIONARYWDFLT
  2
AcDbDictionaryWithDefault
  3
ObjectDBX Classes
 90
        0
280
     0
281
     0
  0
CLASS
  1
MATERIAL
  2
AcDbMaterial
  3
ObjectDBX Classes
 90
     1153
280
     0
281
     0
  0
CLASS
  1
VISUALSTYLE
  2
AcDbVisualStyle
  3
ObjectDBX Classes
 90
     4095
280
     0
281
     0
  0
CLASS
  1
SCALE
  2
AcDbScale
  3
ObjectDBX Classes
 90
     1153
280
     0
281
     0
  0
CLASS
  1
TABLESTYLE
  2
AcDbTableStyle
  3
ObjectDBX Classes
 90
     4095
280
     0
281
     0
  0
CLASS
  1
MLEADERSTYLE
  2
AcDbMLeaderStyle
  3
ACDB_MLEADERSTYLE_CLASS
 90
     4095
280
     0
281
     0
  0
CLASS
  1
ACDBSECTIONVIEWSTYLE
  2
AcDbSectionViewStyle
  3
ObjectDBX Classes
 90
     1025
280
     0
281
     0
  0
CLASS
  1
ACDBDETAILVIEWSTYLE
  2
AcDbDetailViewStyle
  3
ObjectDBX Classes
 90
     1025
280
     0
281
     0
  0
CLASS
  1
SORTENTSTABLE
  2
AcDbSortentsTable
  3
ObjectDBX Classes
 90
        0
280
     0
281
     0
  0
CLASS
  1
DICTIONARYVAR
  2
AcDbDictionaryVar
  3
ObjectDBX Classes
 90
        0
280
     0
281
     0
  0
CLASS
  1
CELLSTYLEMAP
  2
AcDbCellStyleMap
  3
ObjectDBX Classes
 90
     1152
280
     0
281
     0
  0
CLASS
  1
ACDBPLACEHOLDER
  2
AcDbPlaceHolder
  3
ObjectDBX Classes
 90
        0
280
     0
281
     0
  0
CLASS
  1
LAYOUT
  2
AcDbLayout
  3
ObjectDBX Classes
 90
        0
280
     0
281
     0
  0
ENDSEC
  0
SECTION
  2
TABLES
  0
TABLE
  2
VPORT
  5
8183
330
0
100
AcDbSymbolTable
 70
     1
  0
VPORT
  5
81EF
330
8183
100
AcDbSymbolTableRecord
100
AcDbViewportTableRecord
  2
*ACTIVE
 70
     0
 10
0.0
 20
0.0
 11
1.0
 21
1.0
 12
3150.000014668333
 22
4425.000020605514
 13
0.0
 23
0.0
 14
10.0
 24
10.0
 15
10.0
 25
10.0
 16
0.0
 26
0.0
 36
1.0
 17
0.0
 27
0.0
 37
0.0
 40
8907.213844128961
 41
2.050213675213675
 42
50.0
 43
0.0
 44
0.0
 50
0.0
 51
0.0
 71
     0
 72
   100
 73
     1
 74
     0
 75
     0
 76
     0
 77
     0
 78
     0
281
     0
 65
     1
110
0.0
120
0.0
130
0.0
111
1.0
121
0.0
131
0.0
112
0.0
122
1.0
132
0.0
 79
     0
146
0.0
1001
ACAD_NAV_VCDISPLAY
1070
     3
  0
ENDTAB
  0
TABLE
  2
LTYPE
  5
8180
330
0
100
AcDbSymbolTable
 70
     3
  0
LTYPE
  5
81D5
330
8180
100
AcDbSymbolTableRecord
100
AcDbLinetypeTableRecord
  2
ByBlock
 70
     0
  3

 72
    65
 73
     0
 40
0.0
  0
LTYPE
  5
81D6
330
8180
100
AcDbSymbolTableRecord
100
AcDbLinetypeTableRecord
  2
ByLayer
 70
     0
  3

 72
    65
 73
     0
 40
0.0
  0
LTYPE
  5
81D7
330
8180
100
AcDbSymbolTableRecord
100
AcDbLinetypeTableRecord
  2
CONTINUOUS
 70
     0
  3
Solid line
 72
    65
 73
     0
 40
0.0
  0
LTYPE
  5
81F0
330
8180
100
AcDbSymbolTableRecord
100
AcDbLinetypeTableRecord
  2
CENTER
 70
     0
  3
____ _ ____ _ ____ _ ____ _ ____ _ ____ _ ____ 
 72
    65
 73
     4
 40
2.0
 49
1.25
 74
     0
 49
-0.25
 74
     0
 49
0.25
 74
     0
 49
-0.25
 74
     0
  0
ENDTAB
  0
TABLE
  2
LAYER
  5
817D
330
0
100
AcDbSymbolTable
 70
     6
  0
LAYER
  5
81CF
102
{ACAD_XDICTIONARY
360
84AC
102
}
330
817D
100
AcDbSymbolTableRecord
100
AcDbLayerTableRecord
  2
0
 70
     0
 62
     7
  6
CONTINUOUS
370
    -3
390
818A
  0
LAYER
  5
81EE
102
{ACAD_XDICTIONARY
360
84AE
102
}
330
817D
100
AcDbSymbolTableRecord
100
AcDbLayerTableRecord
  2
3
 70
     0
 62
     2
  6
CONTINUOUS
370
    -3
390
818A
  0
LAYER
  5
81F1
102
{ACAD_XDICTIONARY
360
84B0
102
}
330
817D
100
AcDbSymbolTableRecord
100
AcDbLayerTableRecord
  2
2
 70
     0
 62
     3
  6
CENTER
370
    -3
390
818A
  0
LAYER
  5
81F2
102
{ACAD_XDICTIONARY
360
84B2
102
}
330
817D
100
AcDbSymbolTableRecord
100
AcDbLayerTableRecord
  2
1
 70
     0
 62
     4
  6
CONTINUOUS
370
    -3
390
818A
  0
LAYER
  5
81F3
102
{ACAD_XDICTIONARY
360
84B4
102
}
330
817D
100
AcDbSymbolTableRecord
100
AcDbLayerTableRecord
  2
4
 70
     0
 62
     7
  6
CONTINUOUS
370
    -3
390
818A
  0
LAYER
  5
81F4
330
817D
100
AcDbSymbolTableRecord
100
AcDbLayerTableRecord
  2
DEFPOINTS
 70
     0
 62
     7
  6
CONTINUOUS
290
     0
370
    -3
390
818A
  0
ENDTAB
  0
TABLE
  2
STYLE
  5
817E
330
0
100
AcDbSymbolTable
 70
     2
  0
STYLE
  5
81D0
330
817E
100
AcDbSymbolTableRecord
100
AcDbTextStyleTableRecord
  2
STANDARD
 70
     0
 40
0.0
 41
1.0
 50
0.0
 71
     0
 42
180.0
  3
simplex.shx
  4
extfont.shx
  0
STYLE
  5
81D4
330
817E
100
AcDbSymbolTableRecord
100
AcDbTextStyleTableRecord
  2
Annotative
 70
     0
 40
0.0
 41
1.0
 50
0.0
 71
     0
 42
0.2
  3
txt
  4

1001
AcadAnnotative
1000
AnnotativeData
1002
{
1070
     1
1070
     1
1002
}
  0
ENDTAB
  0
TABLE
  2
VIEW
  5
8181
330
0
100
AcDbSymbolTable
 70
     0
  0
ENDTAB
  0
TABLE
  2
UCS
  5
8182
330
0
100
AcDbSymbolTable
 70
     0
  0
ENDTAB
  0
TABLE
  2
APPID
  5
8184
330
0
100
AcDbSymbolTable
 70
     8
  0
APPID
  5
81D1
330
8184
100
AcDbSymbolTableRecord
100
AcDbRegAppTableRecord
  2
ACAD
 70
     0
  0
APPID
  5
81D8
330
8184
100
AcDbSymbolTableRecord
100
AcDbRegAppTableRecord
  2
AcadAnnotative
 70
     0
  0
APPID
  5
8281
330
8184
100
AcDbSymbolTableRecord
100
AcDbRegAppTableRecord
  2
ACAD_DSTYLE_DIMJAG
 70
     0
  0
APPID
  5
8282
330
8184
100
AcDbSymbolTableRecord
100
AcDbRegAppTableRecord
  2
ACAD_DSTYLE_DIMTALN
 70
     0
  0
APPID
  5
8372
330
8184
100
AcDbSymbolTableRecord
100
AcDbRegAppTableRecord
  2
AcadAnnoMonitorAlertIconDisabled
 70
     0
  0
APPID
  5
8373
330
8184
100
AcDbSymbolTableRecord
100
AcDbRegAppTableRecord
  2
ACAD_EXEMPT_FROM_CAD_STANDARDS
 70
     0
  0
APPID
  5
84C0
330
8184
100
AcDbSymbolTableRecord
100
AcDbRegAppTableRecord
  2
ACAD_NAV_VCDISPLAY
 70
     0
  0
APPID
  5
84F9
330
8184
100
AcDbSymbolTableRecord
100
AcDbRegAppTableRecord
  2
ACAD_MLEADERVER
 70
     0
  0
ENDTAB
  0
TABLE
  2
DIMSTYLE
  5
8185
330
0
100
AcDbSymbolTable
 70
     4
100
AcDbDimStyleTable
 71
     1
340
81F5
  0
DIMSTYLE
105
81D2
102
{ACAD_REACTORS
330
7C7A
330
7C7B
330
7CBD
330
7CBF
330
7CC0
330
7CC4
330
7CC5
330
7CFB
330
7D03
330
7D08
102
}
330
8185
100
AcDbSymbolTableRecord
100
AcDbDimStyleTableRecord
  2
Standard
 70
     0
340
81D0
  0
DIMSTYLE
105
81D3
330
8185
100
AcDbSymbolTableRecord
100
AcDbDimStyleTableRecord
  2
Annotative
 70
     0
340
81D0
1001
AcadAnnotative
1000
AnnotativeData
1002
{
1070
     1
1070
     1
1002
}
  0
DIMSTYLE
105
81F5
102
{ACAD_REACTORS
330
8235
330
8242
330
8283
330
8290
330
82FF
330
830C
330
8319
330
8326
330
8336
330
8343
330
8355
330
8391
102
}
330
8185
100
AcDbSymbolTableRecord
100
AcDbDimStyleTableRecord
  2
IGA
 70
     0
 40
2.0
 41
2.0
 42
0.5
 43
10.0
 44
1.0
 47
1.0
 48
1.0
 73
     0
 74
     0
 77
     1
 78
     8
140
3.0
141
0.0
143
0.03937
146
10.0
147
1.0
173
     1
271
     3
272
     3
279
     2
284
     8
285
     8
286
     8
340
81D0
  0
DIMSTYLE
105
81F6
330
8185
100
AcDbSymbolTableRecord
100
AcDbDimStyleTableRecord
  2
MATSU
 70
     0
 41
2.0
 42
1.0
 43
10.0
 44
1.0
 73
     0
 74
     0
 77
     1
 78
     8
140
3.0
141
0.0
143
0.03937
147
0.5
172
     1
173
     1
176
   256
177
   256
178
   256
271
     3
272
     3
279
     2
284
     8
285
     8
286
     8
340
81D0
  0
ENDTAB
  0
TABLE
  2
BLOCK_RECORD
  5
817C
330
0
100
AcDbSymbolTable
 70
    50
  0
BLOCK_RECORD
  5
81EA
102
{ACAD_XDICTIONARY
360
8334
102
}
330
817C
100
AcDbSymbolTableRecord
100
AcDbBlockTableRecord
  2
*Model_Space
340
81ED
  0
BLOCK_RECORD
  5
81E6
330
817C
100
AcDbSymbolTableRecord
100
AcDbBlockTableRecord
  2
*Paper_Space
340
81E9
  0
BLOCK_RECORD
  5
81FA
330
817C
100
AcDbSymbolTableRecord
100
AcDbBlockTableRecord
  2
$MODEL_SPACE
340
0
  0
BLOCK_RECORD
  5
81FC
330
817C
100
AcDbSymbolTableRecord
100
AcDbBlockTableRecord
  2
$PAPER_SPACE
340
0
  0
BLOCK_RECORD
  5
81FE
330
817C
100
AcDbSymbolTableRecord
100
AcDbBlockTableRecord
  2
_OPEN
340
0
102
{BLKREFS
331
83A1
331
83A2
331
7E35
331
7E36
331
7E40
331
7E41
331
7E8D
331
7E8E
331
7E98
331
7E99
331
7EA3
331
7EA4
331
7EAE
331
7EAF
331
801D
331
801E
331
8033
331
8034
331
8306
331
8307
331
8313
331
8314
331
8320
331
8321
331
832D
331
832E
331
7ECF
331
7ED0
331
7EDA
331
7EDB
331
7EE5
331
7EE6
331
8158
331
8159
331
7EFA
331
7EFB
331
8160
331
8161
331
816C
331
828A
331
828B
331
82A0
331
82A1
331
7F33
331
7F34
331
804D
331
804E
331
805A
331
805B
331
8067
331
8068
331
8074
331
8075
331
80DD
331
80DE
331
8271
331
8272
331
827A
331
827B
331
843C
331
8496
331
84A6
331
84A7
102
}
  0
BLOCK_RECORD
  5
8200
330
817C
100
AcDbSymbolTableRecord
100
AcDbBlockTableRecord
  2
YA_N
340
0
102
{BLKREFS
331
7C27
331
7C3D
331
7C78
331
7C98
331
7CCD
331
7CCF
331
7CD1
331
7CD3
102
}
  0
BLOCK_RECORD
  5
8202
330
817C
100
AcDbSymbolTableRecord
100
AcDbBlockTableRecord
  2
*D4
340
0
  0
BLOCK_RECORD
  5
8204
330
817C
100
AcDbSymbolTableRecord
100
AcDbBlockTableRecord
  2
*D5
340
0
  0
BLOCK_RECORD
  5
8206
330
817C
100
AcDbSymbolTableRecord
100
AcDbBlockTableRecord
  2
*D6
340
0
  0
BLOCK_RECORD
  5
8208
330
817C
100
AcDbSymbolTableRecord
100
AcDbBlockTableRecord
  2
*D7
340
0
  0
BLOCK_RECORD
  5
820A
330
817C
100
AcDbSymbolTableRecord
100
AcDbBlockTableRecord
  2
*D8
340
0
  0
BLOCK_RECORD
  5
820C
330
817C
100
AcDbSymbolTableRecord
100
AcDbBlockTableRecord
  2
*D9
340
0
  0
BLOCK_RECORD
  5
820E
330
817C
100
AcDbSymbolTableRecord
100
AcDbBlockTableRecord
  2
*D10
340
0
  0
BLOCK_RECORD
  5
8210
330
817C
100
AcDbSymbolTableRecord
100
AcDbBlockTableRecord
  2
*U11
340
0
102
{BLKREFS
331
801F
102
}
  0
BLOCK_RECORD
  5
8211
330
817C
100
AcDbSymbolTableRecord
100
AcDbBlockTableRecord
  2
*D12
340
0
  0
BLOCK_RECORD
  5
8213
330
817C
100
AcDbSymbolTableRecord
100
AcDbBlockTableRecord
  2
*D13
340
0
  0
BLOCK_RECORD
  5
8215
330
817C
100
AcDbSymbolTableRecord
100
AcDbBlockTableRecord
  2
*D14
340
0
  0
BLOCK_RECORD
  5
8217
330
817C
100
AcDbSymbolTableRecord
100
AcDbBlockTableRecord
  2
*D15
340
0
  0
BLOCK_RECORD
  5
8219
330
817C
100
AcDbSymbolTableRecord
100
AcDbBlockTableRecord
  2
*D16
340
0
  0
BLOCK_RECORD
  5
821B
330
817C
100
AcDbSymbolTableRecord
100
AcDbBlockTableRecord
  2
*D17
340
0
  0
BLOCK_RECORD
  5
821D
330
817C
100
AcDbSymbolTableRecord
100
AcDbBlockTableRecord
  2
*D18
340
0
  0
BLOCK_RECORD
  5
821F
330
817C
100
AcDbSymbolTableRecord
100
AcDbBlockTableRecord
  2
*D19
340
0
  0
BLOCK_RECORD
  5
8221
330
817C
100
AcDbSymbolTableRecord
100
AcDbBlockTableRecord
  2
_DOT
340
0
102
{BLKREFS
331
816B
102
}
  0
BLOCK_RECORD
  5
8222
330
817C
100
AcDbSymbolTableRecord
100
AcDbBlockTableRecord
  2
*D21
340
0
  0
BLOCK_RECORD
  5
8225
330
817C
100
AcDbSymbolTableRecord
100
AcDbBlockTableRecord
  2
*D22
340
0
  0
BLOCK_RECORD
  5
8227
330
817C
100
AcDbSymbolTableRecord
100
AcDbBlockTableRecord
  2
*D23
340
0
  0
BLOCK_RECORD
  5
8229
330
817C
100
AcDbSymbolTableRecord
100
AcDbBlockTableRecord
  2
*D24
340
0
  0
BLOCK_RECORD
  5
822B
330
817C
100
AcDbSymbolTableRecord
100
AcDbBlockTableRecord
  2
*D25
340
0
  0
BLOCK_RECORD
  5
822D
330
817C
100
AcDbSymbolTableRecord
100
AcDbBlockTableRecord
  2
_NONE
340
0
  0
BLOCK_RECORD
  5
822F
330
817C
100
AcDbSymbolTableRecord
100
AcDbBlockTableRecord
  2
*D27
340
0
  0
BLOCK_RECORD
  5
8231
330
817C
100
AcDbSymbolTableRecord
100
AcDbBlockTableRecord
  2
*D28
340
0
  0
BLOCK_RECORD
  5
8236
330
817C
100
AcDbSymbolTableRecord
100
AcDbBlockTableRecord
  2
*D29
340
0
  0
BLOCK_RECORD
  5
8243
330
817C
100
AcDbSymbolTableRecord
100
AcDbBlockTableRecord
  2
*D30
340
0
  0
BLOCK_RECORD
  5
8261
330
817C
100
AcDbSymbolTableRecord
100
AcDbBlockTableRecord
  2
*D31
340
0
  0
BLOCK_RECORD
  5
8284
330
817C
100
AcDbSymbolTableRecord
100
AcDbBlockTableRecord
  2
*D32
340
0
  0
BLOCK_RECORD
  5
8291
330
817C
100
AcDbSymbolTableRecord
100
AcDbBlockTableRecord
  2
*D33
340
0
  0
BLOCK_RECORD
  5
82A6
330
817C
100
AcDbSymbolTableRecord
100
AcDbBlockTableRecord
  2
*D34
340
0
  0
BLOCK_RECORD
  5
82B3
330
817C
100
AcDbSymbolTableRecord
100
AcDbBlockTableRecord
  2
*D35
340
0
  0
BLOCK_RECORD
  5
82C0
330
817C
100
AcDbSymbolTableRecord
100
AcDbBlockTableRecord
  2
*D36
340
0
  0
BLOCK_RECORD
  5
82CD
330
817C
100
AcDbSymbolTableRecord
100
AcDbBlockTableRecord
  2
*D37
340
0
  0
BLOCK_RECORD
  5
82DA
330
817C
100
AcDbSymbolTableRecord
100
AcDbBlockTableRecord
  2
*D38
340
0
  0
BLOCK_RECORD
  5
82E7
330
817C
100
AcDbSymbolTableRecord
100
AcDbBlockTableRecord
  2
*D39
340
0
  0
BLOCK_RECORD
  5
82F4
330
817C
100
AcDbSymbolTableRecord
100
AcDbBlockTableRecord
  2
*D40
340
0
  0
BLOCK_RECORD
  5
8300
330
817C
100
AcDbSymbolTableRecord
100
AcDbBlockTableRecord
  2
*D41
340
0
  0
BLOCK_RECORD
  5
830D
330
817C
100
AcDbSymbolTableRecord
100
AcDbBlockTableRecord
  2
*D42
340
0
  0
BLOCK_RECORD
  5
831A
330
817C
100
AcDbSymbolTableRecord
100
AcDbBlockTableRecord
  2
*D43
340
0
  0
BLOCK_RECORD
  5
8327
330
817C
100
AcDbSymbolTableRecord
100
AcDbBlockTableRecord
  2
*D44
340
0
  0
BLOCK_RECORD
  5
8337
330
817C
100
AcDbSymbolTableRecord
100
AcDbBlockTableRecord
  2
*D45
340
0
  0
BLOCK_RECORD
  5
8344
330
817C
100
AcDbSymbolTableRecord
100
AcDbBlockTableRecord
  2
*D46
340
0
  0
BLOCK_RECORD
  5
8356
330
817C
100
AcDbSymbolTableRecord
100
AcDbBlockTableRecord
  2
*D47
340
0
  0
BLOCK_RECORD
  5
8392
330
817C
100
AcDbSymbolTableRecord
100
AcDbBlockTableRecord
  2
*D48
340
0
  0
BLOCK_RECORD
  5
842F
330
817C
100
AcDbSymbolTableRecord
100
AcDbBlockTableRecord
  2
_DotSmall
340
0
102
{BLKREFS
331
843D
331
8495
102
}
  0
ENDTAB
  0
ENDSEC
  0
SECTION
  2
BLOCKS
  0
BLOCK
  5
81EB
330
81EA
100
AcDbEntity
  8
0
100
AcDbBlockBegin
  2
*Model_Space
 70
     0
 10
0.0
 20
0.0
 30
0.0
  3
*Model_Space
  1

  0
ENDBLK
  5
81EC
330
81EA
100
AcDbEntity
  8
0
100
AcDbBlockEnd
  0
BLOCK
  5
81E7
330
81E6
100
AcDbEntity
 67
     1
  8
0
100
AcDbBlockBegin
  2
*Paper_Space
 70
     0
 10
0.0
 20
0.0
 30
0.0
  3
*Paper_Space
  1

  0
ENDBLK
  5
81E8
330
81E6
100
AcDbEntity
 67
     1
  8
0
100
AcDbBlockEnd
  0
BLOCK
  5
81FB
330
81FA
100
AcDbEntity
  8
0
100
AcDbBlockBegin
  2
$MODEL_SPACE
 70
     0
 10
0.0
 20
0.0
 30
0.0
  3
$MODEL_SPACE
  1

  0
ENDBLK
  5
1B
330
81FA
100
AcDbEntity
  8
0
100
AcDbBlockEnd
  0
BLOCK
  5
81FD
330
81FC
100
AcDbEntity
  8
0
100
AcDbBlockBegin
  2
$PAPER_SPACE
 70
     0
 10
0.0
 20
0.0
 30
0.0
  3
$PAPER_SPACE
  1

  0
ENDBLK
  5
18
330
81FC
100
AcDbEntity
  8
0
100
AcDbBlockEnd
  0
BLOCK
  5
81FF
330
81FE
100
AcDbEntity
  8
0
100
AcDbBlockBegin
  2
_OPEN
 70
     0
 10
0.0
 20
0.0
 30
0.0
  3
_OPEN
  1

  0
LINE
  5
79FD
330
81FE
100
AcDbEntity
  8
0
  6
ByBlock
 62
     0
100
AcDbLine
 10
-1.0
 20
0.1666666666666666
 30
0.0
 11
0.0
 21
0.0
 31
0.0
  0
LINE
  5
79FE
330
81FE
100
AcDbEntity
  8
0
  6
ByBlock
 62
     0
100
AcDbLine
 10
0.0
 20
0.0
 30
0.0
 11
-1.0
 21
-0.1666666666666666
 31
0.0
  0
LINE
  5
79FF
330
81FE
100
AcDbEntity
  8
0
  6
ByBlock
 62
     0
100
AcDbLine
 10
0.0
 20
0.0
 30
0.0
 11
-1.0
 21
0.0
 31
0.0
  0
ENDBLK
  5
7A01
330
81FE
100
AcDbEntity
  8
0
100
AcDbBlockEnd
  0
BLOCK
  5
8201
330
8200
100
AcDbEntity
  8
0
100
AcDbBlockBegin
  2
YA_N
 70
     0
 10
0.0
 20
0.0
 30
0.0
  3
YA_N
  1

  0
ENDBLK
  5
7A04
330
8200
100
AcDbEntity
  8
0
100
AcDbBlockEnd
  0
BLOCK
  5
8203
330
8202
100
AcDbEntity
  8
0
100
AcDbBlockBegin
  2
*D4
 70
     1
 10
0.0
 20
0.0
 30
0.0
  3
*D4
  1

  0
LINE
  5
7E32
330
8202
100
AcDbEntity
  8
0
  6
ByBlock
100
AcDbLine
 10
2234.165690591193
 20
1338.060302835747
 30
0.0
 11
2234.165690591193
 21
1539.22039982989
 31
0.0
  0
LINE
  5
7E33
330
8202
100
AcDbEntity
  8
0
  6
ByBlock
100
AcDbLine
 10
1204.165690591195
 20
1338.060302835747
 30
0.0
 11
1204.165690591195
 21
1539.22039982989
 31
0.0
  0
LINE
  5
7E34
330
8202
100
AcDbEntity
  8
0
  6
ByBlock
100
AcDbLine
 10
2174.165690591194
 20
1509.22039982989
 30
0.0
 11
1264.165690591195
 21
1509.22039982989
 31
0.0
  0
INSERT
  5
7E35
330
8202
100
AcDbEntity
  8
0
  6
ByBlock
100
AcDbBlockReference
  2
_OPEN
 10
2234.165690591193
 20
1509.22039982989
 30
0.0
 41
60.0
 42
60.0
 43
60.0
  0
INSERT
  5
7E36
330
8202
100
AcDbEntity
  8
0
  6
ByBlock
100
AcDbBlockReference
  2
_OPEN
 10
1204.165690591195
 20
1509.22039982989
 30
0.0
 41
60.0
 42
60.0
 43
60.0
 50
180.0
  0
TEXT
  5
7E37
330
8202
100
AcDbEntity
  8
3
100
AcDbText
 10
1569.165690591194
 20
1524.22039982989
 30
0.0
 40
90.0
  1
1030
100
AcDbText
  0
POINT
  5
7E38
330
8202
100
AcDbEntity
  8
DEFPOINTS
  6
ByBlock
 62
     0
100
AcDbPoint
 10
2234.165690591193
 20
1308.060302835747
 30
0.0
  0
POINT
  5
7E39
330
8202
100
AcDbEntity
  8
DEFPOINTS
  6
ByBlock
 62
     0
100
AcDbPoint
 10
1204.165690591195
 20
1308.060302835747
 30
0.0
  0
POINT
  5
7E3A
330
8202
100
AcDbEntity
  8
DEFPOINTS
  6
ByBlock
 62
     0
100
AcDbPoint
 10
1204.165690591195
 20
1509.22039982989
 30
0.0
  0
ENDBLK
  5
7E3B
330
8202
100
AcDbEntity
  8
0
100
AcDbBlockEnd
  0
BLOCK
  5
8205
330
8204
100
AcDbEntity
  8
0
100
AcDbBlockBegin
  2
*D5
 70
     1
 10
0.0
 20
0.0
 30
0.0
  3
*D5
  1

  0
LINE
  5
7E3D
330
8204
100
AcDbEntity
  8
0
  6
ByBlock
100
AcDbLine
 10
2234.165690591193
 20
1338.060302835747
 30
0.0
 11
2234.165690591193
 21
1740.022445289042
 31
0.0
  0
LINE
  5
7E3E
330
8204
100
AcDbEntity
  8
0
  6
ByBlock
100
AcDbLine
 10
1160.165690591194
 20
1397.676285333375
 30
0.0
 11
1160.165690591194
 21
1740.022445289042
 31
0.0
  0
LINE
  5
7E3F
330
8204
100
AcDbEntity
  8
0
  6
ByBlock
100
AcDbLine
 10
2174.165690591194
 20
1710.022445289044
 30
0.0
 11
1220.165690591194
 21
1710.022445289044
 31
0.0
  0
INSERT
  5
7E40
330
8204
100
AcDbEntity
  8
0
  6
ByBlock
100
AcDbBlockReference
  2
_OPEN
 10
2234.165690591193
 20
1710.022445289044
 30
0.0
 41
60.0
 42
60.0
 43
60.0
  0
INSERT
  5
7E41
330
8204
100
AcDbEntity
  8
0
  6
ByBlock
100
AcDbBlockReference
  2
_OPEN
 10
1160.165690591194
 20
1710.022445289044
 30
0.0
 41
60.0
 42
60.0
 43
60.0
 50
180.0
  0
TEXT
  5
7E42
330
8204
100
AcDbEntity
  8
3
100
AcDbText
 10
1545.022833448337
 20
1725.022445289043
 30
0.0
 40
90.0
  1
1074
100
AcDbText
  0
POINT
  5
7E43
330
8204
100
AcDbEntity
  8
DEFPOINTS
  6
ByBlock
 62
     0
100
AcDbPoint
 10
2234.165690591193
 20
1308.060302835747
 30
0.0
  0
POINT
  5
7E44
330
8204
100
AcDbEntity
  8
DEFPOINTS
  6
ByBlock
 62
     0
100
AcDbPoint
 10
1160.165690591194
 20
1367.676285333375
 30
0.0
  0
POINT
  5
7E45
330
8204
100
AcDbEntity
  8
DEFPOINTS
  6
ByBlock
 62
     0
100
AcDbPoint
 10
1160.165690591194
 20
1710.022445289044
 30
0.0
  0
ENDBLK
  5
7E46
330
8204
100
AcDbEntity
  8
0
100
AcDbBlockEnd
  0
BLOCK
  5
8207
330
8206
100
AcDbEntity
  8
0
100
AcDbBlockBegin
  2
*D6
 70
     1
 10
0.0
 20
0.0
 30
0.0
  3
*D6
  1

  0
LINE
  5
7E8A
330
8206
100
AcDbEntity
  8
0
  6
ByBlock
100
AcDbLine
 10
1785.165690591193
 20
4406.031599361241
 30
0.0
 11
1785.165690591193
 21
4627.335536588958
 31
0.0
  0
LINE
  5
7E8B
330
8206
100
AcDbEntity
  8
0
  6
ByBlock
100
AcDbLine
 10
535.1656905911932
 20
4406.031599361237
 30
0.0
 11
535.1656905911932
 21
4627.335536588958
 31
0.0
  0
LINE
  5
7E8C
330
8206
100
AcDbEntity
  8
0
  6
ByBlock
100
AcDbLine
 10
1725.165690591193
 20
4597.335536588958
 30
0.0
 11
595.165690591193
 21
4597.335536588958
 31
0.0
  0
INSERT
  5
7E8D
330
8206
100
AcDbEntity
  8
0
  6
ByBlock
100
AcDbBlockReference
  2
_OPEN
 10
1785.165690591193
 20
4597.335536588958
 30
0.0
 41
60.0
 42
60.0
 43
60.0
  0
INSERT
  5
7E8E
330
8206
100
AcDbEntity
  8
0
  6
ByBlock
100
AcDbBlockReference
  2
_OPEN
 10
535.1656905911932
 20
4597.335536588958
 30
0.0
 41
60.0
 42
60.0
 43
60.0
 50
180.0
  0
TEXT
  5
7E8F
330
8206
100
AcDbEntity
  8
3
100
AcDbText
 10
1010.165690591193
 20
4612.335536588958
 30
0.0
 40
90.0
  1
1250
100
AcDbText
  0
POINT
  5
7E90
330
8206
100
AcDbEntity
  8
DEFPOINTS
  6
ByBlock
 62
     0
100
AcDbPoint
 10
1785.165690591193
 20
4376.031599361239
 30
0.0
  0
POINT
  5
7E91
330
8206
100
AcDbEntity
  8
DEFPOINTS
  6
ByBlock
 62
     0
100
AcDbPoint
 10
535.1656905911932
 20
4376.031599361239
 30
0.0
  0
POINT
  5
7E92
330
8206
100
AcDbEntity
  8
DEFPOINTS
  6
ByBlock
 62
     0
100
AcDbPoint
 10
535.1656905911932
 20
4597.335536588958
 30
0.0
  0
ENDBLK
  5
7E93
330
8206
100
AcDbEntity
  8
0
100
AcDbBlockEnd
  0
BLOCK
  5
8209
330
8208
100
AcDbEntity
  8
0
100
AcDbBlockBegin
  2
*D7
 70
     1
 10
0.0
 20
0.0
 30
0.0
  3
*D7
  1

  0
LINE
  5
7E95
330
8208
100
AcDbEntity
  8
0
  6
ByBlock
100
AcDbLine
 10
2585.165690591193
 20
2841.031599361241
 30
0.0
 11
2585.165690591193
 21
2552.481475534663
 31
0.0
  0
LINE
  5
7E96
330
8208
100
AcDbEntity
  8
0
  6
ByBlock
100
AcDbLine
 10
535.1656905911932
 20
2841.031599361238
 30
0.0
 11
535.1656905911932
 21
2552.481475534663
 31
0.0
  0
LINE
  5
7E97
330
8208
100
AcDbEntity
  8
0
  6
ByBlock
100
AcDbLine
 10
2525.165690591193
 20
2582.481475534663
 30
0.0
 11
595.165690591193
 21
2582.481475534663
 31
0.0
  0
INSERT
  5
7E98
330
8208
100
AcDbEntity
  8
0
  6
ByBlock
100
AcDbBlockReference
  2
_OPEN
 10
2585.165690591193
 20
2582.481475534663
 30
0.0
 41
60.0
 42
60.0
 43
60.0
  0
INSERT
  5
7E99
330
8208
100
AcDbEntity
  8
0
  6
ByBlock
100
AcDbBlockReference
  2
_OPEN
 10
535.1656905911932
 20
2582.481475534663
 30
0.0
 41
60.0
 42
60.0
 43
60.0
 50
180.0
  0
TEXT
  5
7E9A
330
8208
100
AcDbEntity
  8
3
100
AcDbText
 10
1401.594262019765
 20
2597.481475534663
 30
0.0
 40
90.0
  1
2050
100
AcDbText
  0
POINT
  5
7E9B
330
8208
100
AcDbEntity
  8
DEFPOINTS
  6
ByBlock
 62
     0
100
AcDbPoint
 10
2585.165690591193
 20
2871.03159936124
 30
0.0
  0
POINT
  5
7E9C
330
8208
100
AcDbEntity
  8
DEFPOINTS
  6
ByBlock
 62
     0
100
AcDbPoint
 10
535.1656905911932
 20
2871.031599361238
 30
0.0
  0
POINT
  5
7E9D
330
8208
100
AcDbEntity
  8
DEFPOINTS
  6
ByBlock
 62
     0
100
AcDbPoint
 10
535.1656905911932
 20
2582.481475534663
 30
0.0
  0
ENDBLK
  5
7E9E
330
8208
100
AcDbEntity
  8
0
100
AcDbBlockEnd
  0
BLOCK
  5
820B
330
820A
100
AcDbEntity
  8
0
100
AcDbBlockBegin
  2
*D8
 70
     1
 10
0.0
 20
0.0
 30
0.0
  3
*D8
  1

  0
LINE
  5
7EA0
330
820A
100
AcDbEntity
  8
0
  6
ByBlock
100
AcDbLine
 10
2615.165690591193
 20
3721.031599361241
 30
0.0
 11
2837.213758091805
 21
3721.031599361241
 31
0.0
  0
LINE
  5
7EA1
330
820A
100
AcDbEntity
  8
0
  6
ByBlock
100
AcDbLine
 10
2615.165690591193
 20
2871.03159936124
 30
0.0
 11
2837.213758091805
 21
2871.03159936124
 31
0.0
  0
LINE
  5
7EA2
330
820A
100
AcDbEntity
  8
0
  6
ByBlock
100
AcDbLine
 10
2807.213758091804
 20
3661.031599361241
 30
0.0
 11
2807.213758091804
 21
2931.03159936124
 31
0.0
  0
INSERT
  5
7EA3
330
820A
100
AcDbEntity
  8
0
  6
ByBlock
100
AcDbBlockReference
  2
_OPEN
 10
2807.213758091804
 20
3721.031599361241
 30
0.0
 41
60.0
 42
60.0
 43
60.0
 50
90.0
  0
INSERT
  5
7EA4
330
820A
100
AcDbEntity
  8
0
  6
ByBlock
100
AcDbBlockReference
  2
_OPEN
 10
2807.213758091804
 20
2871.03159936124
 30
0.0
 41
60.0
 42
60.0
 43
60.0
 50
270.0
  0
TEXT
  5
7EA5
330
820A
100
AcDbEntity
  8
3
100
AcDbText
 10
2792.213758091805
 20
3180.317313646954
 30
0.0
 40
90.0
  1
850
 50
90.0
100
AcDbText
  0
POINT
  5
7EA6
330
820A
100
AcDbEntity
  8
DEFPOINTS
  6
ByBlock
 62
     0
100
AcDbPoint
 10
2585.165690591193
 20
3721.031599361241
 30
0.0
  0
POINT
  5
7EA7
330
820A
100
AcDbEntity
  8
DEFPOINTS
  6
ByBlock
 62
     0
100
AcDbPoint
 10
2585.165690591193
 20
2871.03159936124
 30
0.0
  0
POINT
  5
7EA8
330
820A
100
AcDbEntity
  8
DEFPOINTS
  6
ByBlock
 62
     0
100
AcDbPoint
 10
2807.213758091804
 20
2871.03159936124
 30
0.0
  0
ENDBLK
  5
7EA9
330
820A
100
AcDbEntity
  8
0
100
AcDbBlockEnd
  0
BLOCK
  5
820D
330
820C
100
AcDbEntity
  8
0
100
AcDbBlockBegin
  2
*D9
 70
     1
 10
0.0
 20
0.0
 30
0.0
  3
*D9
  1

  0
LINE
  5
7EAB
330
820C
100
AcDbEntity
  8
0
  6
ByBlock
100
AcDbLine
 10
505.1656905911931
 20
4376.031599361239
 30
0.0
 11
106.5215525822586
 21
4376.031599361239
 31
0.0
  0
LINE
  5
7EAC
330
820C
100
AcDbEntity
  8
0
  6
ByBlock
100
AcDbLine
 10
505.1656905911931
 20
2871.031599361238
 30
0.0
 11
106.5215525822586
 21
2871.031599361238
 31
0.0
  0
LINE
  5
7EAD
330
820C
100
AcDbEntity
  8
0
  6
ByBlock
100
AcDbLine
 10
136.5215525822585
 20
4316.031599361237
 30
0.0
 11
136.5215525822585
 21
2931.031599361238
 31
0.0
  0
INSERT
  5
7EAE
330
820C
100
AcDbEntity
  8
0
  6
ByBlock
100
AcDbBlockReference
  2
_OPEN
 10
136.5215525822585
 20
4376.031599361239
 30
0.0
 41
60.0
 42
60.0
 43
60.0
 50
90.0
  0
INSERT
  5
7EAF
330
820C
100
AcDbEntity
  8
0
  6
ByBlock
100
AcDbBlockReference
  2
_OPEN
 10
136.5215525822585
 20
2871.031599361238
 30
0.0
 41
60.0
 42
60.0
 43
60.0
 50
270.0
  0
TEXT
  5
7EB0
330
820C
100
AcDbEntity
  8
3
100
AcDbText
 10
121.5215525822586
 20
3473.531599361239
 30
0.0
 40
90.0
  1
1505
 50
90.0
100
AcDbText
  0
POINT
  5
7EB1
330
820C
100
AcDbEntity
  8
DEFPOINTS
  6
ByBlock
 62
     0
100
AcDbPoint
 10
535.1656905911932
 20
4376.031599361239
 30
0.0
  0
POINT
  5
7EB2
330
820C
100
AcDbEntity
  8
DEFPOINTS
  6
ByBlock
 62
     0
100
AcDbPoint
 10
535.1656905911932
 20
2871.031599361238
 30
0.0
  0
POINT
  5
7EB3
330
820C
100
AcDbEntity
  8
DEFPOINTS
  6
ByBlock
 62
     0
100
AcDbPoint
 10
136.5215525822585
 20
2871.031599361238
 30
0.0
  0
ENDBLK
  5
7EB4
330
820C
100
AcDbEntity
  8
0
100
AcDbBlockEnd
  0
BLOCK
  5
820F
330
820E
100
AcDbEntity
  8
0
100
AcDbBlockBegin
  2
*D10
 70
     1
 10
0.0
 20
0.0
 30
0.0
  3
*D10
  1

  0
LINE
  5
801A
330
820E
100
AcDbEntity
  8
0
  6
ByBlock
100
AcDbLine
 10
3836.583739525316
 20
3324.169466167079
 30
0.0
 11
3836.583739525316
 21
4177.692100635555
 31
0.0
  0
LINE
  5
801B
330
820E
100
AcDbEntity
  8
0
  6
ByBlock
100
AcDbLine
 10
4804.083739525321
 20
4149.688192329445
 30
0.0
 11
4804.083739525321
 21
4177.692100635555
 31
0.0
  0
LINE
  5
801C
330
820E
100
AcDbEntity
  8
0
  6
ByBlock
100
AcDbLine
 10
3896.583739525317
 20
4147.692100635555
 30
0.0
 11
4744.083739525321
 21
4147.692100635555
 31
0.0
  0
INSERT
  5
801D
330
820E
100
AcDbEntity
  8
0
  6
ByBlock
100
AcDbBlockReference
  2
_OPEN
 10
3836.583739525316
 20
4147.692100635555
 30
0.0
 41
60.0
 42
60.0
 43
60.0
 50
180.0
  0
INSERT
  5
801E
330
820E
100
AcDbEntity
  8
0
  6
ByBlock
100
AcDbBlockReference
  2
_OPEN
 10
4804.083739525321
 20
4147.692100635555
 30
0.0
 41
60.0
 42
60.0
 43
60.0
  0
INSERT
  5
801F
330
820E
100
AcDbEntity
  8
3
100
AcDbBlockReference
  2
*U11
 10
0.0
 20
0.0
 30
0.0
  0
POINT
  5
8020
330
820E
100
AcDbEntity
  8
DEFPOINTS
  6
ByBlock
 62
     0
100
AcDbPoint
 10
3836.583739525316
 20
3294.16946616708
 30
0.0
  0
POINT
  5
8021
330
820E
100
AcDbEntity
  8
DEFPOINTS
  6
ByBlock
 62
     0
100
AcDbPoint
 10
4804.083739525321
 20
4119.688192329446
 30
0.0
  0
POINT
  5
8022
330
820E
100
AcDbEntity
  8
DEFPOINTS
  6
ByBlock
 62
     0
100
AcDbPoint
 10
4804.083739525321
 20
4147.692100635555
 30
0.0
  0
ENDBLK
  5
8023
330
820E
100
AcDbEntity
  8
0
100
AcDbBlockEnd
  0
BLOCK
  5
8233
330
8210
100
AcDbEntity
  8
0
100
AcDbBlockBegin
  2
*U11
 70
     1
 10
0.0
 20
0.0
 30
0.0
  3
*U11
  1

  0
TEXT
  5
8175
330
8210
100
AcDbEntity
  8
3
100
AcDbText
 10
4191.762310953889
 20
4312.692100635555
 30
0.0
 40
90.0
  1
MAX
100
AcDbText
  0
TEXT
  5
8176
330
8210
100
AcDbEntity
  8
3
100
AcDbText
 10
4170.333739525318
 20
4162.692100635555
 30
0.0
 40
90.0
  1
1020
100
AcDbText
  0
ENDBLK
  5
8178
330
8210
100
AcDbEntity
  8
0
100
AcDbBlockEnd
  0
BLOCK
  5
8212
330
8211
100
AcDbEntity
  8
0
100
AcDbBlockBegin
  2
*D12
 70
     1
 10
0.0
 20
0.0
 30
0.0
  3
*D12
  1

  0
LINE
  5
8030
330
8211
100
AcDbEntity
  8
0
  6
ByBlock
100
AcDbLine
 10
4804.083739525321
 20
4093.269258384377
 30
0.0
 11
4804.083739525321
 21
4177.692100635555
 31
0.0
  0
LINE
  5
8031
330
8211
100
AcDbEntity
  8
0
  6
ByBlock
100
AcDbLine
 10
5572.083739525325
 20
3008.36946616708
 30
0.0
 11
5572.083739525325
 21
4177.692100635555
 31
0.0
  0
LINE
  5
8032
330
8211
100
AcDbEntity
  8
0
  6
ByBlock
100
AcDbLine
 10
4864.083739525321
 20
4147.692100635555
 30
0.0
 11
5512.083739525325
 21
4147.692100635555
 31
0.0
  0
INSERT
  5
8033
330
8211
100
AcDbEntity
  8
0
  6
ByBlock
100
AcDbBlockReference
  2
_OPEN
 10
4804.083739525321
 20
4147.692100635555
 30
0.0
 41
60.0
 42
60.0
 43
60.0
 50
180.0
  0
INSERT
  5
8034
330
8211
100
AcDbEntity
  8
0
  6
ByBlock
100
AcDbBlockReference
  2
_OPEN
 10
5572.083739525325
 20
4147.692100635555
 30
0.0
 41
60.0
 42
60.0
 43
60.0
  0
TEXT
  5
8035
330
8211
100
AcDbEntity
  8
3
100
AcDbText
 10
5014.512310953894
 20
4201.263529206982
 30
0.0
 40
90.0
  1
(780)
100
AcDbText
  0
POINT
  5
8036
330
8211
100
AcDbEntity
  8
DEFPOINTS
  6
ByBlock
 62
     0
100
AcDbPoint
 10
4804.083739525321
 20
4063.269258384377
 30
0.0
  0
POINT
  5
8037
330
8211
100
AcDbEntity
  8
DEFPOINTS
  6
ByBlock
 62
     0
100
AcDbPoint
 10
5572.083739525325
 20
2978.369466167081
 30
0.0
  0
POINT
  5
8038
330
8211
100
AcDbEntity
  8
DEFPOINTS
  6
ByBlock
 62
     0
100
AcDbPoint
 10
5572.083739525325
 20
4147.692100635555
 30
0.0
  0
ENDBLK
  5
8039
330
8211
100
AcDbEntity
  8
0
100
AcDbBlockEnd
  0
BLOCK
  5
8214
330
8213
100
AcDbEntity
  8
0
100
AcDbBlockBegin
  2
*D13
 70
     1
 10
0.0
 20
0.0
 30
0.0
  3
*D13
  1

  0
LINE
  5
7ECC
330
8213
100
AcDbEntity
  8
0
  6
ByBlock
100
AcDbLine
 10
4259.104621073492
 20
1312.374620489382
 30
0.0
 11
4259.104621073492
 21
1592.055054257674
 31
0.0
  0
LINE
  5
7ECD
330
8213
100
AcDbEntity
  8
0
  6
ByBlock
100
AcDbLine
 10
5509.104621073492
 20
1309.096068293924
 30
0.0
 11
5509.104621073492
 21
1592.055054257674
 31
0.0
  0
LINE
  5
7ECE
330
8213
100
AcDbEntity
  8
0
  6
ByBlock
100
AcDbLine
 10
4319.104621073492
 20
1562.055054257674
 30
0.0
 11
5449.104621073495
 21
1562.055054257674
 31
0.0
  0
INSERT
  5
7ECF
330
8213
100
AcDbEntity
  8
0
  6
ByBlock
100
AcDbBlockReference
  2
_OPEN
 10
4259.104621073492
 20
1562.055054257674
 30
0.0
 41
60.0
 42
60.0
 43
60.0
 50
180.0
  0
INSERT
  5
7ED0
330
8213
100
AcDbEntity
  8
0
  6
ByBlock
100
AcDbBlockReference
  2
_OPEN
 10
5509.104621073492
 20
1562.055054257674
 30
0.0
 41
60.0
 42
60.0
 43
60.0
  0
TEXT
  5
7ED1
330
8213
100
AcDbEntity
  8
3
100
AcDbText
 10
4734.104621073493
 20
1577.055054257674
 30
0.0
 40
90.0
  1
1250
100
AcDbText
  0
POINT
  5
7ED2
330
8213
100
AcDbEntity
  8
DEFPOINTS
  6
ByBlock
 62
     0
100
AcDbPoint
 10
4259.104621073492
 20
1282.374620489382
 30
0.0
  0
POINT
  5
7ED3
330
8213
100
AcDbEntity
  8
DEFPOINTS
  6
ByBlock
 62
     0
100
AcDbPoint
 10
5509.104621073492
 20
1279.096068293924
 30
0.0
  0
POINT
  5
7ED4
330
8213
100
AcDbEntity
  8
DEFPOINTS
  6
ByBlock
 62
     0
100
AcDbPoint
 10
5509.104621073492
 20
1562.055054257674
 30
0.0
  0
ENDBLK
  5
7ED5
330
8213
100
AcDbEntity
  8
0
100
AcDbBlockEnd
  0
BLOCK
  5
8216
330
8215
100
AcDbEntity
  8
0
100
AcDbBlockBegin
  2
*D14
 70
     1
 10
0.0
 20
0.0
 30
0.0
  3
*D14
  1

  0
LINE
  5
7ED7
330
8215
100
AcDbEntity
  8
0
  6
ByBlock
100
AcDbLine
 10
5544.604621073492
 20
98.06030283574637
 30
0.0
 11
5883.472841444802
 21
98.06030283574637
 31
0.0
  0
LINE
  5
7ED8
330
8215
100
AcDbEntity
  8
0
  6
ByBlock
100
AcDbLine
 10
5544.604621073492
 20
1158.060302835746
 30
0.0
 11
5883.472841444802
 21
1158.060302835746
 31
0.0
  0
LINE
  5
7ED9
330
8215
100
AcDbEntity
  8
0
  6
ByBlock
100
AcDbLine
 10
5853.472841444804
 20
158.0603028357463
 30
0.0
 11
5853.472841444804
 21
1098.060302835746
 31
0.0
  0
INSERT
  5
7EDA
330
8215
100
AcDbEntity
  8
0
  6
ByBlock
100
AcDbBlockReference
  2
_OPEN
 10
5853.472841444804
 20
98.06030283574637
 30
0.0
 41
60.0
 42
60.0
 43
60.0
 50
270.0
  0
INSERT
  5
7EDB
330
8215
100
AcDbEntity
  8
0
  6
ByBlock
100
AcDbBlockReference
  2
_OPEN
 10
5853.472841444804
 20
1158.060302835746
 30
0.0
 41
60.0
 42
60.0
 43
60.0
 50
90.0
  0
TEXT
  5
7EDC
330
8215
100
AcDbEntity
  8
3
100
AcDbText
 10
5838.472841444802
 20
433.0603028357463
 30
0.0
 40
90.0
  1
\U+03C61060
 50
90.0
100
AcDbText
  0
POINT
  5
7EDD
330
8215
100
AcDbEntity
  8
DEFPOINTS
  6
ByBlock
 62
     0
100
AcDbPoint
 10
5514.604621073492
 20
98.06030283574637
 30
0.0
  0
POINT
  5
7EDE
330
8215
100
AcDbEntity
  8
DEFPOINTS
  6
ByBlock
 62
     0
100
AcDbPoint
 10
5514.604621073492
 20
1158.060302835746
 30
0.0
  0
POINT
  5
7EDF
330
8215
100
AcDbEntity
  8
DEFPOINTS
  6
ByBlock
 62
     0
100
AcDbPoint
 10
5853.472841444804
 20
1158.060302835746
 30
0.0
  0
ENDBLK
  5
7EE0
330
8215
100
AcDbEntity
  8
0
100
AcDbBlockEnd
  0
BLOCK
  5
8218
330
8217
100
AcDbEntity
  8
0
100
AcDbBlockBegin
  2
*D15
 70
     1
 10
0.0
 20
0.0
 30
0.0
  3
*D15
  1

  0
LINE
  5
7EE2
330
8217
100
AcDbEntity
  8
0
  6
ByBlock
100
AcDbLine
 10
1785.165690591193
 20
4406.031599361241
 30
0.0
 11
1785.165690591193
 21
4627.335536588958
 31
0.0
  0
LINE
  5
7EE3
330
8217
100
AcDbEntity
  8
0
  6
ByBlock
100
AcDbLine
 10
2585.165690591193
 20
3751.03159936124
 30
0.0
 11
2585.165690591193
 21
4627.335536588958
 31
0.0
  0
LINE
  5
7EE4
330
8217
100
AcDbEntity
  8
0
  6
ByBlock
100
AcDbLine
 10
1845.165690591193
 20
4597.335536588958
 30
0.0
 11
2525.165690591193
 21
4597.335536588958
 31
0.0
  0
INSERT
  5
7EE5
330
8217
100
AcDbEntity
  8
0
  6
ByBlock
100
AcDbBlockReference
  2
_OPEN
 10
1785.165690591193
 20
4597.335536588958
 30
0.0
 41
60.0
 42
60.0
 43
60.0
 50
180.0
  0
INSERT
  5
7EE6
330
8217
100
AcDbEntity
  8
0
  6
ByBlock
100
AcDbBlockReference
  2
_OPEN
 10
2585.165690591193
 20
4597.335536588958
 30
0.0
 41
60.0
 42
60.0
 43
60.0
  0
TEXT
  5
7EE7
330
8217
100
AcDbEntity
  8
3
100
AcDbText
 10
2069.451404876907
 20
4612.335536588958
 30
0.0
 40
90.0
  1
800
100
AcDbText
  0
POINT
  5
7EE8
330
8217
100
AcDbEntity
  8
DEFPOINTS
  6
ByBlock
 62
     0
100
AcDbPoint
 10
1785.165690591193
 20
4376.031599361239
 30
0.0
  0
POINT
  5
7EE9
330
8217
100
AcDbEntity
  8
DEFPOINTS
  6
ByBlock
 62
     0
100
AcDbPoint
 10
2585.165690591193
 20
3721.031599361241
 30
0.0
  0
POINT
  5
7EEA
330
8217
100
AcDbEntity
  8
DEFPOINTS
  6
ByBlock
 62
     0
100
AcDbPoint
 10
2585.165690591193
 20
4597.335536588958
 30
0.0
  0
ENDBLK
  5
7EEB
330
8217
100
AcDbEntity
  8
0
100
AcDbBlockEnd
  0
BLOCK
  5
821A
330
8219
100
AcDbEntity
  8
0
100
AcDbBlockBegin
  2
*D16
 70
     1
 10
0.0
 20
0.0
 30
0.0
  3
*D16
  1

  0
LINE
  5
8156
330
8219
100
AcDbEntity
  8
3
100
AcDbLine
 10
1168.497639781776
 20
2970.169466167082
 30
0.0
 11
1168.497639781776
 21
4126.131608620377
 31
0.0
  0
LINE
  5
8157
330
8219
100
AcDbEntity
  8
3
100
AcDbLine
 10
1828.497639781776
 20
4096.131608620377
 30
0.0
 11
1228.497639781776
 21
4096.131608620377
 31
0.0
  0
INSERT
  5
8158
330
8219
100
AcDbEntity
  8
3
100
AcDbBlockReference
  2
_OPEN
 10
1888.497639781776
 20
4096.131608620377
 30
0.0
 41
60.0
 42
60.0
 43
60.0
  0
INSERT
  5
8159
330
8219
100
AcDbEntity
  8
3
100
AcDbBlockReference
  2
_OPEN
 10
1168.497639781776
 20
4096.131608620377
 30
0.0
 41
60.0
 42
60.0
 43
60.0
 50
180.0
  0
TEXT
  5
8179
330
8219
100
AcDbEntity
  8
3
100
AcDbText
 10
1348.5
 20
3996.83
 30
0.0
 40
90.0
  1
720
100
AcDbText
  0
POINT
  5
815B
330
8219
100
AcDbEntity
  8
DEFPOINTS
 62
     0
100
AcDbPoint
 10
1888.497639781776
 20
3753.785448664709
 30
0.0
  0
POINT
  5
815C
330
8219
100
AcDbEntity
  8
DEFPOINTS
 62
     0
100
AcDbPoint
 10
1168.497639781776
 20
2940.169466167081
 30
0.0
  0
POINT
  5
815D
330
8219
100
AcDbEntity
  8
DEFPOINTS
 62
     0
100
AcDbPoint
 10
1168.497639781776
 20
4096.131608620377
 30
0.0
  0
ENDBLK
  5
7EF5
330
8219
100
AcDbEntity
  8
0
100
AcDbBlockEnd
  0
BLOCK
  5
821C
330
821B
100
AcDbEntity
  8
0
100
AcDbBlockBegin
  2
*D17
 70
     1
 10
0.0
 20
0.0
 30
0.0
  3
*D17
  1

  0
LINE
  5
7EF7
330
821B
100
AcDbEntity
  8
0
  6
ByBlock
100
AcDbLine
 10
1130.165690591195
 20
1308.060302835747
 30
0.0
 11
143.471821917903
 21
1308.060302835747
 31
0.0
  0
LINE
  5
7EF8
330
821B
100
AcDbEntity
  8
0
  6
ByBlock
100
AcDbLine
 10
390.5497080935656
 20
628.0603028357453
 30
0.0
 11
143.471821917903
 21
628.0603028357453
 31
0.0
  0
LINE
  5
7EF9
330
821B
100
AcDbEntity
  8
0
  6
ByBlock
100
AcDbLine
 10
173.471821917903
 20
1248.060302835747
 30
0.0
 11
173.471821917903
 21
688.0603028357453
 31
0.0
  0
INSERT
  5
7EFA
330
821B
100
AcDbEntity
  8
0
  6
ByBlock
100
AcDbBlockReference
  2
_OPEN
 10
173.471821917903
 20
1308.060302835747
 30
0.0
 41
60.0
 42
60.0
 43
60.0
 50
90.0
  0
INSERT
  5
7EFB
330
821B
100
AcDbEntity
  8
0
  6
ByBlock
100
AcDbBlockReference
  2
_OPEN
 10
173.471821917903
 20
628.0603028357453
 30
0.0
 41
60.0
 42
60.0
 43
60.0
 50
270.0
  0
TEXT
  5
7EFC
330
821B
100
AcDbEntity
  8
3
100
AcDbText
 10
158.471821917903
 20
852.3460171214606
 30
0.0
 40
90.0
  1
680
 50
90.0
100
AcDbText
  0
POINT
  5
7EFD
330
821B
100
AcDbEntity
  8
DEFPOINTS
  6
ByBlock
 62
     0
100
AcDbPoint
 10
1160.165690591195
 20
1308.060302835747
 30
0.0
  0
POINT
  5
7EFE
330
821B
100
AcDbEntity
  8
DEFPOINTS
  6
ByBlock
 62
     0
100
AcDbPoint
 10
420.5497080935655
 20
628.0603028357453
 30
0.0
  0
POINT
  5
7EFF
330
821B
100
AcDbEntity
  8
DEFPOINTS
  6
ByBlock
 62
     0
100
AcDbPoint
 10
173.471821917903
 20
628.0603028357453
 30
0.0
  0
ENDBLK
  5
7F00
330
821B
100
AcDbEntity
  8
0
100
AcDbBlockEnd
  0
BLOCK
  5
821E
330
821D
100
AcDbEntity
  8
0
100
AcDbBlockBegin
  2
*D18
 70
     1
 10
0.0
 20
0.0
 30
0.0
  3
*D18
  1

  0
LINE
  5
815E
330
821D
100
AcDbEntity
  8
3
100
AcDbLine
 10
1233.497639781775
 20
2118.972316392661
 30
0.0
 11
871.8037711084853
 21
2118.972316392661
 31
0.0
  0
LINE
  5
815F
330
821D
100
AcDbEntity
  8
3
100
AcDbLine
 10
901.8037711084856
 20
2954.169466167079
 30
0.0
 11
901.8037711084852
 21
2178.972316392661
 31
0.0
  0
INSERT
  5
8160
330
821D
100
AcDbEntity
  8
3
100
AcDbBlockReference
  2
_OPEN
 10
901.8037711084856
 20
3014.169466167079
 30
0.0
 41
60.0
 42
60.0
 43
60.0
 50
90.0
  0
INSERT
  5
8161
330
821D
100
AcDbEntity
  8
3
100
AcDbBlockReference
  2
_OPEN
 10
901.8037711084852
 20
2118.972316392661
 30
0.0
 41
60.0
 42
60.0
 43
60.0
 50
270.0
  0
TEXT
  5
817A
330
821D
100
AcDbEntity
  8
3
100
AcDbText
 10
661.8039999999999
 20
2407.27
 30
0.0
 40
90.0
  1
895
100
AcDbText
  0
POINT
  5
8163
330
821D
100
AcDbEntity
  8
DEFPOINTS
 62
     0
100
AcDbPoint
 10
1148.881657284148
 20
3014.169466167079
 30
0.0
  0
POINT
  5
8164
330
821D
100
AcDbEntity
  8
DEFPOINTS
 62
     0
100
AcDbPoint
 10
1263.497639781775
 20
2118.972316392661
 30
0.0
  0
POINT
  5
8165
330
821D
100
AcDbEntity
  8
DEFPOINTS
 62
     0
100
AcDbPoint
 10
901.8037711084852
 20
2118.972316392661
 30
0.0
  0
ENDBLK
  5
7F0A
330
821D
100
AcDbEntity
  8
0
100
AcDbBlockEnd
  0
BLOCK
  5
8220
330
821F
100
AcDbEntity
  8
0
100
AcDbBlockBegin
  2
*D19
 70
     1
 10
0.0
 20
0.0
 30
0.0
  3
*D19
  1

  0
LINE
  5
8166
330
821F
100
AcDbEntity
  8
3
 62
     0
100
AcDbLine
 10
1248.497639781775
 20
2003.972316392661
 30
0.0
 11
871.8037711084853
 21
2003.972316392661
 31
0.0
  0
LINE
  5
8167
330
821F
100
AcDbEntity
  8
3
 62
     0
100
AcDbLine
 10
1248.497639781775
 20
1903.97231639266
 30
0.0
 11
871.8037711084853
 21
1903.97231639266
 31
0.0
  0
LINE
  5
8168
330
821F
100
AcDbEntity
  8
3
 62
     0
100
AcDbLine
 10
901.8037711084852
 20
2063.972316392661
 30
0.0
 11
901.8037711084852
 21
2123.972316392661
 31
0.0
  0
LINE
  5
8169
330
821F
100
AcDbEntity
  8
3
 62
     0
100
AcDbLine
 10
901.8037711084852
 20
1843.972316392661
 30
0.0
 11
901.8037711084852
 21
1509.686602106946
 31
0.0
  0
LINE
  5
816A
330
821F
100
AcDbEntity
  8
3
 62
     0
100
AcDbLine
 10
901.8037711084852
 20
2003.972316392661
 30
0.0
 11
901.8037711084852
 21
1903.97231639266
 31
0.0
  0
INSERT
  5
816B
330
821F
100
AcDbEntity
  8
3
 62
     0
100
AcDbBlockReference
  2
_DOT
 10
901.8037711084852
 20
2003.972316392661
 30
0.0
 41
60.0
 42
60.0
 43
60.0
 50
270.0
  0
INSERT
  5
816C
330
821F
100
AcDbEntity
  8
3
 62
     0
100
AcDbBlockReference
  2
_OPEN
 10
901.8037711084852
 20
1903.97231639266
 30
0.0
 41
60.0
 42
60.0
 43
60.0
 50
90.0
  0
TEXT
  5
817B
330
821F
100
AcDbEntity
  8
3
 62
     0
100
AcDbText
 10
646.804
 20
1487.53
 30
0.0
 40
90.0
  1
100
100
AcDbText
  0
POINT
  5
816E
330
821F
100
AcDbEntity
  8
DEFPOINTS
 62
     0
100
AcDbPoint
 10
1263.497639781775
 20
2003.972316392661
 30
0.0
  0
POINT
  5
816F
330
821F
100
AcDbEntity
  8
DEFPOINTS
 62
     0
100
AcDbPoint
 10
1263.497639781775
 20
1903.97231639266
 30
0.0
  0
POINT
  5
8170
330
821F
100
AcDbEntity
  8
DEFPOINTS
 62
     0
100
AcDbPoint
 10
901.8037711084852
 20
1903.97231639266
 30
0.0
  0
ENDBLK
  5
7FD0
330
821F
100
AcDbEntity
  8
0
100
AcDbBlockEnd
  0
BLOCK
  5
8224
330
8221
100
AcDbEntity
  8
0
100
AcDbBlockBegin
  2
_DOT
 70
     0
 10
0.0
 20
0.0
 30
0.0
  3
_DOT
  1

  0
LWPOLYLINE
  5
7FE0
330
8221
100
AcDbEntity
  8
0
  6
ByBlock
 62
     0
100
AcDbPolyline
 90
        2
 70
     1
 43
0.25
 10
-0.125
 20
0.0
 42
1.0
 10
0.125
 20
0.0
 42
1.0
  0
LINE
  5
7FE4
330
8221
100
AcDbEntity
  8
0
  6
ByBlock
 62
     0
100
AcDbLine
 10
-0.25
 20
0.0
 30
0.0
 11
-1.0
 21
0.0
 31
0.0
  0
ENDBLK
  5
7FC3
330
8221
100
AcDbEntity
  8
0
100
AcDbBlockEnd
  0
BLOCK
  5
8223
330
8222
100
AcDbEntity
  8
0
100
AcDbBlockBegin
  2
*D21
 70
     1
 10
0.0
 20
0.0
 30
0.0
  3
*D21
  1

  0
LINE
  5
7F30
330
8222
100
AcDbEntity
  8
0
  6
ByBlock
100
AcDbLine
 10
440.1656905911941
 20
584.0603028357476
 30
0.0
 11
440.1656905911941
 21
1915.071285267736
 31
0.0
  0
LINE
  5
7F31
330
8222
100
AcDbEntity
  8
0
  6
ByBlock
100
AcDbLine
 10
2585.165690591193
 20
-137.1368469386743
 30
0.0
 11
2585.165690591193
 21
1915.071285267736
 31
0.0
  0
LINE
  5
7F32
330
8222
100
AcDbEntity
  8
0
  6
ByBlock
100
AcDbLine
 10
500.165690591194
 20
1885.071285267737
 30
0.0
 11
2525.165690591193
 21
1885.071285267737
 31
0.0
  0
INSERT
  5
7F33
330
8222
100
AcDbEntity
  8
0
  6
ByBlock
100
AcDbBlockReference
  2
_OPEN
 10
440.1656905911941
 20
1885.071285267737
 30
0.0
 41
60.0
 42
60.0
 43
60.0
 50
180.0
  0
INSERT
  5
7F34
330
8222
100
AcDbEntity
  8
0
  6
ByBlock
100
AcDbBlockReference
  2
_OPEN
 10
2585.165690591193
 20
1885.071285267737
 30
0.0
 41
60.0
 42
60.0
 43
60.0
  0
TEXT
  5
7F35
330
8222
100
AcDbEntity
  8
3
100
AcDbText
 10
1362.665690591193
 20
1900.071285267737
 30
0.0
 40
90.0
  1
2145
100
AcDbText
  0
POINT
  5
7F36
330
8222
100
AcDbEntity
  8
DEFPOINTS
  6
ByBlock
 62
     0
100
AcDbPoint
 10
440.1656905911941
 20
554.0603028357477
 30
0.0
  0
POINT
  5
7F37
330
8222
100
AcDbEntity
  8
DEFPOINTS
  6
ByBlock
 62
     0
100
AcDbPoint
 10
2585.165690591193
 20
-167.1368469386743
 30
0.0
  0
POINT
  5
7F38
330
8222
100
AcDbEntity
  8
DEFPOINTS
  6
ByBlock
 62
     0
100
AcDbPoint
 10
2585.165690591193
 20
1885.071285267737
 30
0.0
  0
ENDBLK
  5
7F39
330
8222
100
AcDbEntity
  8
0
100
AcDbBlockEnd
  0
BLOCK
  5
8226
330
8225
100
AcDbEntity
  8
0
100
AcDbBlockBegin
  2
*D22
 70
     1
 10
0.0
 20
0.0
 30
0.0
  3
*D22
  1

  0
LINE
  5
804A
330
8225
100
AcDbEntity
  8
0
  6
ByBlock
 62
     0
100
AcDbLine
 10
1263.497639781775
 20
1961.972316392661
 30
0.0
 11
1263.497639781775
 21
1746.026870346177
 31
0.0
  0
LINE
  5
804B
330
8225
100
AcDbEntity
  8
0
  6
ByBlock
 62
     0
100
AcDbLine
 10
1888.497639781777
 20
1961.972316392661
 30
0.0
 11
1888.497639781777
 21
1746.026870346177
 31
0.0
  0
LINE
  5
804C
330
8225
100
AcDbEntity
  8
0
  6
ByBlock
 62
     0
100
AcDbLine
 10
1323.497639781775
 20
1776.026870346177
 30
0.0
 11
1828.497639781777
 21
1776.026870346177
 31
0.0
  0
INSERT
  5
804D
330
8225
100
AcDbEntity
  8
0
  6
ByBlock
 62
     0
100
AcDbBlockReference
  2
_OPEN
 10
1263.497639781775
 20
1776.026870346177
 30
0.0
 41
60.0
 42
60.0
 43
60.0
 50
180.0
  0
INSERT
  5
804E
330
8225
100
AcDbEntity
  8
0
  6
ByBlock
 62
     0
100
AcDbBlockReference
  2
_OPEN
 10
1888.497639781777
 20
1776.026870346177
 30
0.0
 41
60.0
 42
60.0
 43
60.0
  0
TEXT
  5
804F
330
8225
100
AcDbEntity
  8
3
 62
     0
100
AcDbText
 10
1460.28335406749
 20
1806.026870346176
 30
0.0
 40
90.0
  1
625
100
AcDbText
  0
POINT
  5
8050
330
8225
100
AcDbEntity
  8
DEFPOINTS
  6
ByBlock
 62
     0
100
AcDbPoint
 10
1263.497639781775
 20
1991.972316392661
 30
0.0
  0
POINT
  5
8051
330
8225
100
AcDbEntity
  8
DEFPOINTS
  6
ByBlock
 62
     0
100
AcDbPoint
 10
1888.497639781777
 20
1991.972316392661
 30
0.0
  0
POINT
  5
8052
330
8225
100
AcDbEntity
  8
DEFPOINTS
  6
ByBlock
 62
     0
100
AcDbPoint
 10
1888.497639781777
 20
1776.026870346177
 30
0.0
  0
ENDBLK
  5
8053
330
8225
100
AcDbEntity
  8
0
100
AcDbBlockEnd
  0
BLOCK
  5
8228
330
8227
100
AcDbEntity
  8
0
100
AcDbBlockBegin
  2
*D23
 70
     1
 10
0.0
 20
0.0
 30
0.0
  3
*D23
  1

  0
LINE
  5
8057
330
8227
100
AcDbEntity
  8
0
  6
ByBlock
 62
     0
100
AcDbLine
 10
1888.497639781777
 20
1961.972316392661
 30
0.0
 11
1888.497639781777
 21
1746.026870346177
 31
0.0
  0
LINE
  5
8058
330
8227
100
AcDbEntity
  8
0
  6
ByBlock
 62
     0
100
AcDbLine
 10
3313.497639781775
 20
1961.972316392661
 30
0.0
 11
3313.497639781775
 21
1746.026870346177
 31
0.0
  0
LINE
  5
8059
330
8227
100
AcDbEntity
  8
0
  6
ByBlock
 62
     0
100
AcDbLine
 10
1948.497639781777
 20
1776.026870346177
 30
0.0
 11
3253.497639781775
 21
1776.026870346177
 31
0.0
  0
INSERT
  5
805A
330
8227
100
AcDbEntity
  8
0
  6
ByBlock
 62
     0
100
AcDbBlockReference
  2
_OPEN
 10
1888.497639781777
 20
1776.026870346177
 30
0.0
 41
60.0
 42
60.0
 43
60.0
 50
180.0
  0
INSERT
  5
805B
330
8227
100
AcDbEntity
  8
0
  6
ByBlock
 62
     0
100
AcDbBlockReference
  2
_OPEN
 10
3313.497639781775
 20
1776.026870346177
 30
0.0
 41
60.0
 42
60.0
 43
60.0
  0
TEXT
  5
805C
330
8227
100
AcDbEntity
  8
3
 62
     0
100
AcDbText
 10
2450.997639781776
 20
1806.026870346176
 30
0.0
 40
90.0
  1
1425
100
AcDbText
  0
POINT
  5
805D
330
8227
100
AcDbEntity
  8
DEFPOINTS
  6
ByBlock
 62
     0
100
AcDbPoint
 10
1888.497639781777
 20
1991.972316392661
 30
0.0
  0
POINT
  5
805E
330
8227
100
AcDbEntity
  8
DEFPOINTS
  6
ByBlock
 62
     0
100
AcDbPoint
 10
3313.497639781775
 20
1991.972316392661
 30
0.0
  0
POINT
  5
805F
330
8227
100
AcDbEntity
  8
DEFPOINTS
  6
ByBlock
 62
     0
100
AcDbPoint
 10
3313.497639781775
 20
1776.026870346177
 30
0.0
  0
ENDBLK
  5
8060
330
8227
100
AcDbEntity
  8
0
100
AcDbBlockEnd
  0
BLOCK
  5
822A
330
8229
100
AcDbEntity
  8
0
100
AcDbBlockBegin
  2
*D24
 70
     1
 10
0.0
 20
0.0
 30
0.0
  3
*D24
  1

  0
LINE
  5
8064
330
8229
100
AcDbEntity
  8
0
  6
ByBlock
 62
     0
100
AcDbLine
 10
3977.083739525323
 20
1962.169466167079
 30
0.0
 11
3977.083739525323
 21
1746.026870346177
 31
0.0
  0
LINE
  5
8065
330
8229
100
AcDbEntity
  8
0
  6
ByBlock
 62
     0
100
AcDbLine
 10
4804.083739525321
 20
1962.169466167079
 30
0.0
 11
4804.083739525321
 21
1746.026870346177
 31
0.0
  0
LINE
  5
8066
330
8229
100
AcDbEntity
  8
0
  6
ByBlock
 62
     0
100
AcDbLine
 10
4037.08373952532
 20
1776.026870346177
 30
0.0
 11
4744.083739525321
 21
1776.026870346177
 31
0.0
  0
INSERT
  5
8067
330
8229
100
AcDbEntity
  8
0
  6
ByBlock
 62
     0
100
AcDbBlockReference
  2
_OPEN
 10
3977.083739525323
 20
1776.026870346177
 30
0.0
 41
60.0
 42
60.0
 43
60.0
 50
180.0
  0
INSERT
  5
8068
330
8229
100
AcDbEntity
  8
0
  6
ByBlock
 62
     0
100
AcDbBlockReference
  2
_OPEN
 10
4804.083739525321
 20
1776.026870346177
 30
0.0
 41
60.0
 42
60.0
 43
60.0
  0
TEXT
  5
8069
330
8229
100
AcDbEntity
  8
3
 62
     0
100
AcDbText
 10
4274.869453811037
 20
1806.026870346176
 30
0.0
 40
90.0
  1
827
100
AcDbText
  0
POINT
  5
806A
330
8229
100
AcDbEntity
  8
DEFPOINTS
  6
ByBlock
 62
     0
100
AcDbPoint
 10
3977.083739525323
 20
1992.169466167078
 30
0.0
  0
POINT
  5
806B
330
8229
100
AcDbEntity
  8
DEFPOINTS
  6
ByBlock
 62
     0
100
AcDbPoint
 10
4804.083739525321
 20
1992.169466167078
 30
0.0
  0
POINT
  5
806C
330
8229
100
AcDbEntity
  8
DEFPOINTS
  6
ByBlock
 62
     0
100
AcDbPoint
 10
4804.083739525321
 20
1776.026870346177
 30
0.0
  0
ENDBLK
  5
806D
330
8229
100
AcDbEntity
  8
0
100
AcDbBlockEnd
  0
BLOCK
  5
822C
330
822B
100
AcDbEntity
  8
0
100
AcDbBlockBegin
  2
*D25
 70
     1
 10
0.0
 20
0.0
 30
0.0
  3
*D25
  1

  0
LINE
  5
8071
330
822B
100
AcDbEntity
  8
0
  6
ByBlock
 62
     0
100
AcDbLine
 10
4804.083739525321
 20
1962.169466167079
 30
0.0
 11
4804.083739525321
 21
1746.026870346177
 31
0.0
  0
LINE
  5
8072
330
822B
100
AcDbEntity
  8
0
  6
ByBlock
 62
     0
100
AcDbLine
 10
5482.083739525322
 20
1962.169466167079
 30
0.0
 11
5482.083739525322
 21
1746.026870346177
 31
0.0
  0
LINE
  5
8073
330
822B
100
AcDbEntity
  8
0
  6
ByBlock
 62
     0
100
AcDbLine
 10
4864.083739525321
 20
1776.026870346177
 30
0.0
 11
5422.083739525322
 21
1776.026870346177
 31
0.0
  0
INSERT
  5
8074
330
822B
100
AcDbEntity
  8
0
  6
ByBlock
 62
     0
100
AcDbBlockReference
  2
_OPEN
 10
4804.083739525321
 20
1776.026870346177
 30
0.0
 41
60.0
 42
60.0
 43
60.0
 50
180.0
  0
INSERT
  5
8075
330
822B
100
AcDbEntity
  8
0
  6
ByBlock
 62
     0
100
AcDbBlockReference
  2
_OPEN
 10
5482.083739525322
 20
1776.026870346177
 30
0.0
 41
60.0
 42
60.0
 43
60.0
  0
TEXT
  5
8076
330
822B
100
AcDbEntity
  8
3
 62
     0
100
AcDbText
 10
5027.369453811036
 20
1806.026870346176
 30
0.0
 40
90.0
  1
678
100
AcDbText
  0
POINT
  5
8077
330
822B
100
AcDbEntity
  8
DEFPOINTS
  6
ByBlock
 62
     0
100
AcDbPoint
 10
4804.083739525321
 20
1992.169466167078
 30
0.0
  0
POINT
  5
8078
330
822B
100
AcDbEntity
  8
DEFPOINTS
  6
ByBlock
 62
     0
100
AcDbPoint
 10
5482.083739525322
 20
1992.169466167078
 30
0.0
  0
POINT
  5
8079
330
822B
100
AcDbEntity
  8
DEFPOINTS
  6
ByBlock
 62
     0
100
AcDbPoint
 10
5482.083739525322
 20
1776.026870346177
 30
0.0
  0
ENDBLK
  5
807A
330
822B
100
AcDbEntity
  8
0
100
AcDbBlockEnd
  0
BLOCK
  5
822E
330
822D
100
AcDbEntity
  8
0
100
AcDbBlockBegin
  2
_NONE
 70
     0
 10
0.0
 20
0.0
 30
0.0
  3
_NONE
  1

  0
CIRCLE
  5
807E
330
822D
100
AcDbEntity
  8
0
  6
ByBlock
 62
     0
100
AcDbCircle
 10
0.0
 20
0.0
 30
0.0
 40
0.25
  0
ENDBLK
  5
807F
330
822D
100
AcDbEntity
  8
0
100
AcDbBlockEnd
  0
BLOCK
  5
8230
330
822F
100
AcDbEntity
  8
0
100
AcDbBlockBegin
  2
*D27
 70
     1
 10
0.0
 20
0.0
 30
0.0
  3
*D27
  1

  0
LINE
  5
80D1
330
822F
100
AcDbEntity
  8
0
  6
ByBlock
 62
     0
100
AcDbLine
 10
900.9142323413508
 20
2003.972316392661
 30
0.0
 11
900.9142323413508
 21
2118.972316392661
 31
0.0
  0
TEXT
  5
80D2
330
822F
100
AcDbEntity
  8
3
 62
     0
100
AcDbText
 10
787.3428037699222
 20
1905.043744964089
 30
0.0
 40
90.0
  1
(115)
 50
90.0
100
AcDbText
  0
POINT
  5
80D3
330
822F
100
AcDbEntity
  8
DEFPOINTS
  6
ByBlock
 62
     0
100
AcDbPoint
 10
1263.497639781775
 20
2003.972316392661
 30
0.0
  0
POINT
  5
80D4
330
822F
100
AcDbEntity
  8
DEFPOINTS
  6
ByBlock
 62
     0
100
AcDbPoint
 10
1263.497639781775
 20
2118.972316392661
 30
0.0
  0
POINT
  5
80D5
330
822F
100
AcDbEntity
  8
DEFPOINTS
  6
ByBlock
 62
     0
100
AcDbPoint
 10
900.9142323413508
 20
2118.972316392661
 30
0.0
  0
ENDBLK
  5
80D6
330
822F
100
AcDbEntity
  8
0
100
AcDbBlockEnd
  0
BLOCK
  5
8232
330
8231
100
AcDbEntity
  8
0
100
AcDbBlockBegin
  2
*D28
 70
     1
 10
0.0
 20
0.0
 30
0.0
  3
*D28
  1

  0
LINE
  5
80DA
330
8231
100
AcDbEntity
  8
0
  6
ByBlock
 62
     0
100
AcDbLine
 10
1233.497639781775
 20
1903.97231639266
 30
0.0
 11
610.4169545267541
 21
1903.97231639266
 31
0.0
  0
LINE
  5
80DB
330
8231
100
AcDbEntity
  8
0
  6
ByBlock
 62
     0
100
AcDbLine
 10
1849.497639781776
 20
3694.169466167082
 30
0.0
 11
610.4169545267541
 21
3694.169466167082
 31
0.0
  0
LINE
  5
80DC
330
8231
100
AcDbEntity
  8
0
  6
ByBlock
 62
     0
100
AcDbLine
 10
640.4169545267541
 20
1963.972316392661
 30
0.0
 11
640.4169545267541
 21
3634.169466167082
 31
0.0
  0
INSERT
  5
80DD
330
8231
100
AcDbEntity
  8
0
  6
ByBlock
 62
     0
100
AcDbBlockReference
  2
_OPEN
 10
640.4169545267541
 20
1903.97231639266
 30
0.0
 41
60.0
 42
60.0
 43
60.0
 50
270.0
  0
INSERT
  5
80DE
330
8231
100
AcDbEntity
  8
0
  6
ByBlock
 62
     0
100
AcDbBlockReference
  2
_OPEN
 10
640.4169545267541
 20
3694.169466167082
 30
0.0
 41
60.0
 42
60.0
 43
60.0
 50
90.0
  0
TEXT
  5
80DF
330
8231
100
AcDbEntity
  8
3
 62
     0
100
AcDbText
 10
571.8455259553254
 20
2591.213748422728
 30
0.0
 40
90.0
  1
(1790)
 50
90.0
100
AcDbText
  0
POINT
  5
80E0
330
8231
100
AcDbEntity
  8
DEFPOINTS
  6
ByBlock
 62
     0
100
AcDbPoint
 10
1263.497639781775
 20
1903.97231639266
 30
0.0
  0
POINT
  5
80E1
330
8231
100
AcDbEntity
  8
DEFPOINTS
  6
ByBlock
 62
     0
100
AcDbPoint
 10
1879.497639781776
 20
3694.169466167082
 30
0.0
  0
POINT
  5
80E2
330
8231
100
AcDbEntity
  8
DEFPOINTS
  6
ByBlock
 62
     0
100
AcDbPoint
 10
640.4169545267541
 20
3694.169466167082
 30
0.0
  0
ENDBLK
  5
80E3
330
8231
100
AcDbEntity
  8
0
100
AcDbBlockEnd
  0
BLOCK
  5
8237
330
8236
100
AcDbEntity
  8
0
100
AcDbBlockBegin
  2
*D29
 70
     1
 10
0.0
 20
0.0
 30
0.0
  3
*D29
  1

  0
LINE
  5
826E
330
8236
100
AcDbEntity
  8
3
 62
     0
370
    -2
100
AcDbLine
 10
3744.083739525316
 20
3324.16946616708
 30
0.0
 11
3744.083739525316
 21
4284.133992964042
 31
0.0
  0
LINE
  5
826F
330
8236
100
AcDbEntity
  8
3
 62
     0
370
    -2
100
AcDbLine
 10
4804.083739525322
 20
4083.164217589007
 30
0.0
 11
4804.083739525322
 21
4284.133992964042
 31
0.0
  0
LINE
  5
8270
330
8236
100
AcDbEntity
  8
3
 62
     0
370
    -2
100
AcDbLine
 10
3804.083739525316
 20
4254.133992964042
 30
0.0
 11
4744.083739525321
 21
4254.133992964042
 31
0.0
  0
INSERT
  5
8271
330
8236
100
AcDbEntity
  8
3
 62
     0
370
    -2
100
AcDbBlockReference
  2
_OPEN
 10
3744.083739525316
 20
4254.133992964042
 30
0.0
 41
60.0
 42
60.0
 43
60.0
 50
180.0
  0
INSERT
  5
8272
330
8236
100
AcDbEntity
  8
3
 62
     0
370
    -2
100
AcDbBlockReference
  2
_OPEN
 10
4804.083739525322
 20
4254.133992964042
 30
0.0
 41
60.0
 42
60.0
 43
60.0
  0
MTEXT
  5
8273
330
8236
100
AcDbEntity
  8
3
 62
     0
100
AcDbMText
 10
4274.083739525319
 20
4352.70542153547
 30
0.0
 40
90.0
 41
0.0
 71
     5
 72
     1
  1
\A1;(1060)
 73
     1
 44
1.0
1001
ACAD
1000
MTEXTBEGIN
1070
    73
1070
     1
1070
    44
1040
1.0
1070
    74
1070
     0
1000
MTEXTEND
  0
POINT
  5
8274
330
8236
100
AcDbEntity
  8
DEFPOINTS
 62
     0
100
AcDbPoint
 10
3744.083739525316
 20
3294.16946616708
 30
0.0
  0
POINT
  5
8275
330
8236
100
AcDbEntity
  8
DEFPOINTS
 62
     0
100
AcDbPoint
 10
4804.083739525322
 20
4053.164217589007
 30
0.0
  0
POINT
  5
8276
330
8236
100
AcDbEntity
  8
DEFPOINTS
 62
     0
100
AcDbPoint
 10
4804.083739525322
 20
4254.133992964042
 30
0.0
  0
ENDBLK
  5
8238
330
8236
100
AcDbEntity
  8
0
100
AcDbBlockEnd
  0
BLOCK
  5
8244
330
8243
100
AcDbEntity
  8
0
100
AcDbBlockBegin
  2
*D30
 70
     1
 10
0.0
 20
0.0
 30
0.0
  3
*D30
  1

  0
LINE
  5
8277
330
8243
100
AcDbEntity
  8
3
 62
     0
370
    -2
100
AcDbLine
 10
4804.083739525322
 20
4083.164217589007
 30
0.0
 11
4804.083739525322
 21
4284.133992964042
 31
0.0
  0
LINE
  5
8278
330
8243
100
AcDbEntity
  8
3
 62
     0
370
    -2
100
AcDbLine
 10
5584.083739525324
 20
3008.36946616708
 30
0.0
 11
5584.083739525324
 21
4284.133992964042
 31
0.0
  0
LINE
  5
8279
330
8243
100
AcDbEntity
  8
3
 62
     0
370
    -2
100
AcDbLine
 10
4864.083739525322
 20
4254.133992964042
 30
0.0
 11
5524.083739525323
 21
4254.133992964042
 31
0.0
  0
INSERT
  5
827A
330
8243
100
AcDbEntity
  8
3
 62
     0
370
    -2
100
AcDbBlockReference
  2
_OPEN
 10
4804.083739525322
 20
4254.133992964042
 30
0.0
 41
60.0
 42
60.0
 43
60.0
 50
180.0
  0
INSERT
  5
827B
330
8243
100
AcDbEntity
  8
3
 62
     0
370
    -2
100
AcDbBlockReference
  2
_OPEN
 10
5584.083739525324
 20
4254.133992964042
 30
0.0
 41
60.0
 42
60.0
 43
60.0
  0
MTEXT
  5
827C
330
8243
100
AcDbEntity
  8
3
 62
     0
100
AcDbMText
 10
5194.083739525323
 20
4352.70542153547
 30
0.0
 40
90.0
 41
0.0
 71
     5
 72
     1
  1
\A1;(780)
 73
     1
 44
1.0
1001
ACAD
1000
MTEXTBEGIN
1070
    73
1070
     1
1070
    44
1040
1.0
1070
    74
1070
     0
1000
MTEXTEND
  0
POINT
  5
827D
330
8243
100
AcDbEntity
  8
DEFPOINTS
 62
     0
100
AcDbPoint
 10
4804.083739525322
 20
4053.164217589007
 30
0.0
  0
POINT
  5
827E
330
8243
100
AcDbEntity
  8
DEFPOINTS
 62
     0
100
AcDbPoint
 10
5584.083739525324
 20
2978.369466167081
 30
0.0
  0
POINT
  5
827F
330
8243
100
AcDbEntity
  8
DEFPOINTS
 62
     0
100
AcDbPoint
 10
5584.083739525324
 20
4254.133992964042
 30
0.0
  0
ENDBLK
  5
8245
330
8243
100
AcDbEntity
  8
0
100
AcDbBlockEnd
  0
BLOCK
  5
8262
330
8261
100
AcDbEntity
  8
0
100
AcDbBlockBegin
  2
*D31
 70
     1
 10
0.0
 20
0.0
 30
0.0
  3
*D31
  1

  0
LINE
  5
8264
330
8261
100
AcDbEntity
  8
3
 62
     0
370
    -2
100
AcDbLine
 10
3313.497639781775
 20
4954.460754123926
 30
0.0
 11
3313.497639781775
 21
4542.385630297348
 31
0.0
  0
LINE
  5
8265
330
8261
100
AcDbEntity
  8
3
 62
     0
370
    -2
100
AcDbLine
 10
1263.497639781775
 20
4954.460754123924
 30
0.0
 11
1263.497639781775
 21
4542.385630297348
 31
0.0
  0
LINE
  5
8266
330
8261
100
AcDbEntity
  8
3
 62
     0
370
    -2
100
AcDbLine
 10
3308.097639781775
 20
4547.785630297347
 30
0.0
 11
2312.283354067489
 21
4547.785630297347
 31
0.0
  0
LINE
  5
8267
330
8261
100
AcDbEntity
  8
3
 62
     0
370
    -2
100
AcDbLine
 10
1268.897639781775
 20
4547.785630297347
 30
0.0
 11
2264.711925496061
 21
4547.785630297347
 31
0.0
  0
SOLID
  5
8268
330
8261
100
AcDbEntity
  8
3
 62
     0
100
AcDbTrace
 10
3308.097639781775
 20
4548.685630297347
 30
0.0
 11
3308.097639781775
 21
4546.885630297349
 31
0.0
 12
3313.497639781775
 22
4547.785630297347
 32
0.0
 13
3313.497639781775
 23
4547.785630297347
 33
0.0
  0
SOLID
  5
8269
330
8261
100
AcDbEntity
  8
3
 62
     0
100
AcDbTrace
 10
1268.897639781775
 20
4548.685630297347
 30
0.0
 11
1268.897639781775
 21
4546.885630297349
 31
0.0
 12
1263.497639781775
 22
4547.785630297347
 32
0.0
 13
1263.497639781775
 23
4547.785630297347
 33
0.0
  0
MTEXT
  5
826A
330
8261
100
AcDbEntity
  8
3
 62
     0
100
AcDbMText
 10
2288.497639781775
 20
4547.785630297347
 30
0.0
 40
5.399999999999999
 41
0.0
 71
     5
 72
     1
  1
\A1;2050.0000
 73
     1
 44
1.0
1001
ACAD
1000
MTEXTBEGIN
1070
    73
1070
     1
1070
    44
1040
1.0
1070
    74
1070
     0
1000
MTEXTEND
  0
POINT
  5
826B
330
8261
100
AcDbEntity
  8
DEFPOINTS
 62
     0
100
AcDbPoint
 10
3313.497639781775
 20
4956.335754123926
 30
0.0
  0
POINT
  5
826C
330
8261
100
AcDbEntity
  8
DEFPOINTS
 62
     0
100
AcDbPoint
 10
1263.497639781775
 20
4956.335754123924
 30
0.0
  0
POINT
  5
826D
330
8261
100
AcDbEntity
  8
DEFPOINTS
 62
     0
100
AcDbPoint
 10
1263.497639781775
 20
4547.785630297347
 30
0.0
  0
ENDBLK
  5
8263
330
8261
100
AcDbEntity
  8
0
100
AcDbBlockEnd
  0
BLOCK
  5
8285
330
8284
100
AcDbEntity
  8
0
100
AcDbBlockBegin
  2
*D32
 70
     1
 10
0.0
 20
0.0
 30
0.0
  3
*D32
  1

  0
LINE
  5
8287
330
8284
100
AcDbEntity
  8
3
 62
     0
370
    -2
100
AcDbLine
 10
1263.497639781775
 20
4926.335754123924
 30
0.0
 11
1263.497639781775
 21
4501.558611755321
 31
0.0
  0
LINE
  5
8288
330
8284
100
AcDbEntity
  8
3
 62
     0
370
    -2
100
AcDbLine
 10
3313.497639781775
 20
4926.335754123925
 30
0.0
 11
3313.497639781775
 21
4501.558611755321
 31
0.0
  0
LINE
  5
8289
330
8284
100
AcDbEntity
  8
3
 62
     0
370
    -2
100
AcDbLine
 10
1323.497639781775
 20
4531.558611755321
 30
0.0
 11
3253.497639781775
 21
4531.558611755321
 31
0.0
  0
INSERT
  5
828A
330
8284
100
AcDbEntity
  8
3
 62
     0
370
    -2
100
AcDbBlockReference
  2
_OPEN
 10
1263.497639781775
 20
4531.558611755321
 30
0.0
 41
60.0
 42
60.0
 43
60.0
 50
180.0
  0
INSERT
  5
828B
330
8284
100
AcDbEntity
  8
3
 62
     0
370
    -2
100
AcDbBlockReference
  2
_OPEN
 10
3313.497639781775
 20
4531.558611755321
 30
0.0
 41
60.0
 42
60.0
 43
60.0
  0
MTEXT
  5
828C
330
8284
100
AcDbEntity
  8
3
 62
     0
100
AcDbMText
 10
2288.497639781775
 20
4606.55861175532
 30
0.0
 40
90.0
 41
0.0
 71
     5
 72
     1
  1
\A1;2050
 73
     1
 44
1.0
1001
ACAD
1000
MTEXTBEGIN
1070
    73
1070
     1
1070
    44
1040
1.0
1070
    74
1070
     0
1000
MTEXTEND
  0
POINT
  5
828D
330
8284
100
AcDbEntity
  8
DEFPOINTS
 62
     0
100
AcDbPoint
 10
1263.497639781775
 20
4956.335754123924
 30
0.0
  0
POINT
  5
828E
330
8284
100
AcDbEntity
  8
DEFPOINTS
 62
     0
100
AcDbPoint
 10
3313.497639781775
 20
4956.335754123926
 30
0.0
  0
POINT
  5
828F
330
8284
100
AcDbEntity
  8
DEFPOINTS
 62
     0
100
AcDbPoint
 10
3313.497639781775
 20
4531.558611755321
 30
0.0
  0
ENDBLK
  5
8286
330
8284
100
AcDbEntity
  8
0
100
AcDbBlockEnd
  0
BLOCK
  5
8292
330
8291
100
AcDbEntity
  8
0
100
AcDbBlockBegin
  2
*D33
 70
     1
 10
0.0
 20
0.0
 30
0.0
  3
*D33
  1

  0
LINE
  5
829D
330
8291
100
AcDbEntity
  8
3
 62
     0
370
    -2
100
AcDbLine
 10
1888.497639781777
 20
3763.82600011631
 30
0.0
 11
1888.497639781777
 21
4126.131608620377
 31
0.0
  0
LINE
  5
829E
330
8291
100
AcDbEntity
  8
3
 62
     0
370
    -2
100
AcDbLine
 10
1168.497639781776
 20
2970.169466167082
 30
0.0
 11
1168.497639781776
 21
4126.131608620377
 31
0.0
  0
LINE
  5
829F
330
8291
100
AcDbEntity
  8
3
 62
     0
370
    -2
100
AcDbLine
 10
1828.497639781777
 20
4096.131608620377
 30
0.0
 11
1228.497639781776
 21
4096.131608620377
 31
0.0
  0
INSERT
  5
82A0
330
8291
100
AcDbEntity
  8
3
 62
     0
370
    -2
100
AcDbBlockReference
  2
_OPEN
 10
1888.497639781777
 20
4096.131608620377
 30
0.0
 41
60.0
 42
60.0
 43
60.0
  0
INSERT
  5
82A1
330
8291
100
AcDbEntity
  8
3
 62
     0
370
    -2
100
AcDbBlockReference
  2
_OPEN
 10
1168.497639781776
 20
4096.131608620377
 30
0.0
 41
60.0
 42
60.0
 43
60.0
 50
180.0
  0
MTEXT
  5
82A2
330
8291
100
AcDbEntity
  8
3
 62
     0
100
AcDbMText
 10
1528.497639781776
 20
4171.131608620377
 30
0.0
 40
90.0
 41
0.0
 71
     5
 72
     1
  1
\A1;720
 73
     1
 44
1.0
1001
ACAD
1000
MTEXTBEGIN
1070
    73
1070
     1
1070
    44
1040
1.0
1070
    74
1070
     0
1000
MTEXTEND
  0
POINT
  5
82A3
330
8291
100
AcDbEntity
  8
DEFPOINTS
 62
     0
100
AcDbPoint
 10
1888.497639781777
 20
3733.826000116309
 30
0.0
  0
POINT
  5
82A4
330
8291
100
AcDbEntity
  8
DEFPOINTS
 62
     0
100
AcDbPoint
 10
1168.497639781776
 20
2940.169466167081
 30
0.0
  0
POINT
  5
82A5
330
8291
100
AcDbEntity
  8
DEFPOINTS
 62
     0
100
AcDbPoint
 10
1168.497639781776
 20
4096.131608620377
 30
0.0
  0
ENDBLK
  5
8293
330
8291
100
AcDbEntity
  8
0
100
AcDbBlockEnd
  0
BLOCK
  5
82A7
330
82A6
100
AcDbEntity
  8
0
100
AcDbBlockBegin
  2
*D34
 70
     1
 10
0.0
 20
0.0
 30
0.0
  3
*D34
  1

  0
LINE
  5
82A9
330
82A6
100
AcDbEntity
  8
3
 62
     0
370
    -2
100
AcDbLine
 10
1261.622639781775
 20
2013.972316392662
 30
0.0
 11
896.4037711084854
 21
2013.972316392662
 31
0.0
  0
LINE
  5
82AA
330
82A6
100
AcDbEntity
  8
3
 62
     0
370
    -2
100
AcDbLine
 10
1261.622639781775
 20
1913.97231639266
 30
0.0
 11
896.4037711084854
 21
1913.97231639266
 31
0.0
  0
LINE
  5
82AB
330
82A6
100
AcDbEntity
  8
3
 62
     0
370
    -2
100
AcDbLine
 10
901.8037711084852
 20
2008.572316392661
 30
0.0
 11
901.8037711084852
 21
1969.37231639266
 31
0.0
  0
LINE
  5
82AC
330
82A6
100
AcDbEntity
  8
3
 62
     0
370
    -2
100
AcDbLine
 10
901.8037711084852
 20
1919.37231639266
 30
0.0
 11
901.8037711084852
 21
1958.57231639266
 31
0.0
  0
SOLID
  5
82AD
330
82A6
100
AcDbEntity
  8
3
 62
     0
100
AcDbTrace
 10
900.9037711084854
 20
2008.572316392661
 30
0.0
 11
902.7037711084853
 21
2008.572316392661
 31
0.0
 12
901.8037711084852
 22
2013.972316392662
 32
0.0
 13
901.8037711084852
 23
2013.972316392662
 33
0.0
  0
SOLID
  5
82AE
330
82A6
100
AcDbEntity
  8
3
 62
     0
100
AcDbTrace
 10
900.9037711084854
 20
1919.37231639266
 30
0.0
 11
902.7037711084853
 21
1919.37231639266
 31
0.0
 12
901.8037711084852
 22
1913.97231639266
 32
0.0
 13
901.8037711084852
 23
1913.97231639266
 33
0.0
  0
MTEXT
  5
82AF
330
82A6
100
AcDbEntity
  8
3
 62
     0
100
AcDbMText
 10
901.8037711084849
 20
1963.972316392661
 30
0.0
 40
5.399999999999999
 41
0.0
 71
     5
 72
     1
  1
\A1;100
 73
     1
 44
1.0
1001
ACAD
1000
MTEXTBEGIN
1070
    73
1070
     1
1070
    44
1040
1.0
1070
    74
1070
     0
1000
MTEXTEND
  0
POINT
  5
82B0
330
82A6
100
AcDbEntity
  8
DEFPOINTS
 62
     0
100
AcDbPoint
 10
1263.497639781775
 20
2013.972316392662
 30
0.0
  0
POINT
  5
82B1
330
82A6
100
AcDbEntity
  8
DEFPOINTS
 62
     0
100
AcDbPoint
 10
1263.497639781775
 20
1913.97231639266
 30
0.0
  0
POINT
  5
82B2
330
82A6
100
AcDbEntity
  8
DEFPOINTS
 62
     0
100
AcDbPoint
 10
901.8037711084852
 20
1913.97231639266
 30
0.0
  0
ENDBLK
  5
82A8
330
82A6
100
AcDbEntity
  8
0
100
AcDbBlockEnd
  0
BLOCK
  5
82B4
330
82B3
100
AcDbEntity
  8
0
100
AcDbBlockBegin
  2
*D35
 70
     1
 10
0.0
 20
0.0
 30
0.0
  3
*D35
  1

  0
LINE
  5
82B6
330
82B3
100
AcDbEntity
  8
3
 62
     0
370
    -2
100
AcDbLine
 10
1233.497639781775
 20
1913.97231639266
 30
0.0
 11
635.0169545267537
 21
1913.97231639266
 31
0.0
  0
LINE
  5
82B7
330
82B3
100
AcDbEntity
  8
3
 62
     0
370
    -2
100
AcDbLine
 10
1849.497639781776
 20
3694.169466167082
 30
0.0
 11
635.0169545267541
 21
3694.169466167082
 31
0.0
  0
LINE
  5
82B8
330
82B3
100
AcDbEntity
  8
3
 62
     0
370
    -2
100
AcDbLine
 10
640.4169545267538
 20
1919.37231639266
 30
0.0
 11
640.4169545267539
 21
2797.256605565586
 31
0.0
  0
LINE
  5
82B9
330
82B3
100
AcDbEntity
  8
3
 62
     0
370
    -2
100
AcDbLine
 10
640.4169545267541
 20
3688.769466167082
 30
0.0
 11
640.4169545267539
 21
2810.885176994157
 31
0.0
  0
SOLID
  5
82BA
330
82B3
100
AcDbEntity
  8
3
 62
     0
100
AcDbTrace
 10
639.5169545267537
 20
1919.37231639266
 30
0.0
 11
641.3169545267537
 21
1919.37231639266
 31
0.0
 12
640.4169545267538
 22
1913.97231639266
 32
0.0
 13
640.4169545267538
 23
1913.97231639266
 33
0.0
  0
SOLID
  5
82BB
330
82B3
100
AcDbEntity
  8
3
 62
     0
100
AcDbTrace
 10
639.5169545267541
 20
3688.769466167082
 30
0.0
 11
641.3169545267541
 21
3688.769466167082
 31
0.0
 12
640.4169545267541
 22
3694.169466167082
 32
0.0
 13
640.4169545267541
 23
3694.169466167082
 33
0.0
  0
MTEXT
  5
82BC
330
82B3
100
AcDbEntity
  8
3
 62
     0
100
AcDbMText
 10
640.4169545267535
 20
2804.070891279871
 30
0.0
 40
5.399999999999999
 41
0.0
 71
     5
 72
     1
  1
\A1;(1780)
 73
     1
 44
1.0
1001
ACAD
1000
MTEXTBEGIN
1070
    73
1070
     1
1070
    44
1040
1.0
1070
    74
1070
     0
1000
MTEXTEND
  0
POINT
  5
82BD
330
82B3
100
AcDbEntity
  8
DEFPOINTS
 62
     0
100
AcDbPoint
 10
1263.497639781775
 20
1913.97231639266
 30
0.0
  0
POINT
  5
82BE
330
82B3
100
AcDbEntity
  8
DEFPOINTS
 62
     0
100
AcDbPoint
 10
1879.497639781776
 20
3694.169466167082
 30
0.0
  0
POINT
  5
82BF
330
82B3
100
AcDbEntity
  8
DEFPOINTS
 62
     0
100
AcDbPoint
 10
640.4169545267541
 20
3694.169466167082
 30
0.0
  0
ENDBLK
  5
82B5
330
82B3
100
AcDbEntity
  8
0
100
AcDbBlockEnd
  0
BLOCK
  5
82C1
330
82C0
100
AcDbEntity
  8
0
100
AcDbBlockBegin
  2
*D36
 70
     1
 10
0.0
 20
0.0
 30
0.0
  3
*D36
  1

  0
LINE
  5
82C3
330
82C0
100
AcDbEntity
  8
3
 62
     0
370
    -2
100
AcDbLine
 10
1263.497639781775
 20
1883.97231639266
 30
0.0
 11
1263.497639781775
 21
1692.626870346177
 31
0.0
  0
LINE
  5
82C4
330
82C0
100
AcDbEntity
  8
3
 62
     0
370
    -2
100
AcDbLine
 10
1888.497639781777
 20
1883.972316392661
 30
0.0
 11
1888.497639781777
 21
1692.626870346177
 31
0.0
  0
LINE
  5
82C5
330
82C0
100
AcDbEntity
  8
3
 62
     0
370
    -2
100
AcDbLine
 10
1268.897639781775
 20
1698.026870346177
 30
0.0
 11
1566.354782638919
 21
1698.026870346177
 31
0.0
  0
LINE
  5
82C6
330
82C0
100
AcDbEntity
  8
3
 62
     0
370
    -2
100
AcDbLine
 10
1883.097639781777
 20
1698.026870346177
 30
0.0
 11
1585.640496924633
 21
1698.026870346177
 31
0.0
  0
SOLID
  5
82C7
330
82C0
100
AcDbEntity
  8
3
 62
     0
100
AcDbTrace
 10
1268.897639781775
 20
1698.926870346177
 30
0.0
 11
1268.897639781775
 21
1697.126870346177
 31
0.0
 12
1263.497639781775
 22
1698.026870346177
 32
0.0
 13
1263.497639781775
 23
1698.026870346177
 33
0.0
  0
SOLID
  5
82C8
330
82C0
100
AcDbEntity
  8
3
 62
     0
100
AcDbTrace
 10
1883.097639781777
 20
1698.926870346177
 30
0.0
 11
1883.097639781777
 21
1697.126870346177
 31
0.0
 12
1888.497639781777
 22
1698.026870346177
 32
0.0
 13
1888.497639781777
 23
1698.026870346177
 33
0.0
  0
MTEXT
  5
82C9
330
82C0
100
AcDbEntity
  8
3
 62
     0
100
AcDbMText
 10
1575.997639781776
 20
1698.026870346177
 30
0.0
 40
5.399999999999999
 41
0.0
 71
     5
 72
     1
  1
\A1;625
 73
     1
 44
1.0
1001
ACAD
1000
MTEXTBEGIN
1070
    73
1070
     1
1070
    44
1040
1.0
1070
    74
1070
     0
1000
MTEXTEND
  0
POINT
  5
82CA
330
82C0
100
AcDbEntity
  8
DEFPOINTS
 62
     0
100
AcDbPoint
 10
1263.497639781775
 20
1913.97231639266
 30
0.0
  0
POINT
  5
82CB
330
82C0
100
AcDbEntity
  8
DEFPOINTS
 62
     0
100
AcDbPoint
 10
1888.497639781777
 20
1913.972316392661
 30
0.0
  0
POINT
  5
82CC
330
82C0
100
AcDbEntity
  8
DEFPOINTS
 62
     0
100
AcDbPoint
 10
1888.497639781777
 20
1698.026870346177
 30
0.0
  0
ENDBLK
  5
82C2
330
82C0
100
AcDbEntity
  8
0
100
AcDbBlockEnd
  0
BLOCK
  5
82CE
330
82CD
100
AcDbEntity
  8
0
100
AcDbBlockBegin
  2
*D37
 70
     1
 10
0.0
 20
0.0
 30
0.0
  3
*D37
  1

  0
LINE
  5
82D0
330
82CD
100
AcDbEntity
  8
3
 62
     0
370
    -2
100
AcDbLine
 10
1888.497639781777
 20
1883.972316392661
 30
0.0
 11
1888.497639781777
 21
1692.626870346177
 31
0.0
  0
LINE
  5
82D1
330
82CD
100
AcDbEntity
  8
3
 62
     0
370
    -2
100
AcDbLine
 10
3313.497639781775
 20
1883.97231639266
 30
0.0
 11
3313.497639781775
 21
1692.626870346177
 31
0.0
  0
LINE
  5
82D2
330
82CD
100
AcDbEntity
  8
3
 62
     0
370
    -2
100
AcDbLine
 10
1893.897639781777
 20
1698.026870346177
 30
0.0
 11
2589.297639781776
 21
1698.026870346177
 31
0.0
  0
LINE
  5
82D3
330
82CD
100
AcDbEntity
  8
3
 62
     0
370
    -2
100
AcDbLine
 10
3308.097639781775
 20
1698.026870346177
 30
0.0
 11
2612.697639781776
 21
1698.026870346177
 31
0.0
  0
SOLID
  5
82D4
330
82CD
100
AcDbEntity
  8
3
 62
     0
100
AcDbTrace
 10
1893.897639781777
 20
1698.926870346177
 30
0.0
 11
1893.897639781777
 21
1697.126870346177
 31
0.0
 12
1888.497639781777
 22
1698.026870346177
 32
0.0
 13
1888.497639781777
 23
1698.026870346177
 33
0.0
  0
SOLID
  5
82D5
330
82CD
100
AcDbEntity
  8
3
 62
     0
100
AcDbTrace
 10
3308.097639781775
 20
1698.926870346177
 30
0.0
 11
3308.097639781775
 21
1697.126870346177
 31
0.0
 12
3313.497639781775
 22
1698.026870346177
 32
0.0
 13
3313.497639781775
 23
1698.026870346177
 33
0.0
  0
MTEXT
  5
82D6
330
82CD
100
AcDbEntity
  8
3
 62
     0
100
AcDbMText
 10
2600.997639781776
 20
1698.026870346177
 30
0.0
 40
5.399999999999999
 41
0.0
 71
     5
 72
     1
  1
\A1;1425
 73
     1
 44
1.0
1001
ACAD
1000
MTEXTBEGIN
1070
    73
1070
     1
1070
    44
1040
1.0
1070
    74
1070
     0
1000
MTEXTEND
  0
POINT
  5
82D7
330
82CD
100
AcDbEntity
  8
DEFPOINTS
 62
     0
100
AcDbPoint
 10
1888.497639781777
 20
1913.972316392661
 30
0.0
  0
POINT
  5
82D8
330
82CD
100
AcDbEntity
  8
DEFPOINTS
 62
     0
100
AcDbPoint
 10
3313.497639781775
 20
1913.97231639266
 30
0.0
  0
POINT
  5
82D9
330
82CD
100
AcDbEntity
  8
DEFPOINTS
 62
     0
100
AcDbPoint
 10
3313.497639781775
 20
1698.026870346177
 30
0.0
  0
ENDBLK
  5
82CF
330
82CD
100
AcDbEntity
  8
0
100
AcDbBlockEnd
  0
BLOCK
  5
82DB
330
82DA
100
AcDbEntity
  8
0
100
AcDbBlockBegin
  2
*D38
 70
     1
 10
0.0
 20
0.0
 30
0.0
  3
*D38
  1

  0
LINE
  5
82DD
330
82DA
100
AcDbEntity
  8
3
 62
     0
370
    -2
100
AcDbLine
 10
3977.083739525323
 20
1884.169466167079
 30
0.0
 11
3977.083739525323
 21
1692.626870346177
 31
0.0
  0
LINE
  5
82DE
330
82DA
100
AcDbEntity
  8
3
 62
     0
370
    -2
100
AcDbLine
 10
4804.083739525321
 20
1884.169466167079
 30
0.0
 11
4804.083739525321
 21
1692.626870346177
 31
0.0
  0
LINE
  5
82DF
330
82DA
100
AcDbEntity
  8
3
 62
     0
370
    -2
100
AcDbLine
 10
3982.483739525323
 20
1698.026870346177
 30
0.0
 11
4380.940882382465
 21
1698.026870346177
 31
0.0
  0
LINE
  5
82E0
330
82DA
100
AcDbEntity
  8
3
 62
     0
370
    -2
100
AcDbLine
 10
4798.683739525322
 20
1698.026870346177
 30
0.0
 11
4400.226596668178
 21
1698.026870346177
 31
0.0
  0
SOLID
  5
82E1
330
82DA
100
AcDbEntity
  8
3
 62
     0
100
AcDbTrace
 10
3982.483739525323
 20
1698.926870346177
 30
0.0
 11
3982.483739525323
 21
1697.126870346177
 31
0.0
 12
3977.083739525323
 22
1698.026870346177
 32
0.0
 13
3977.083739525323
 23
1698.026870346177
 33
0.0
  0
SOLID
  5
82E2
330
82DA
100
AcDbEntity
  8
3
 62
     0
100
AcDbTrace
 10
4798.683739525322
 20
1698.926870346177
 30
0.0
 11
4798.683739525322
 21
1697.126870346177
 31
0.0
 12
4804.083739525321
 22
1698.026870346177
 32
0.0
 13
4804.083739525321
 23
1698.026870346177
 33
0.0
  0
MTEXT
  5
82E3
330
82DA
100
AcDbEntity
  8
3
 62
     0
100
AcDbMText
 10
4390.583739525322
 20
1698.026870346177
 30
0.0
 40
5.399999999999999
 41
0.0
 71
     5
 72
     1
  1
\A1;827
 73
     1
 44
1.0
1001
ACAD
1000
MTEXTBEGIN
1070
    73
1070
     1
1070
    44
1040
1.0
1070
    74
1070
     0
1000
MTEXTEND
  0
POINT
  5
82E4
330
82DA
100
AcDbEntity
  8
DEFPOINTS
 62
     0
100
AcDbPoint
 10
3977.083739525323
 20
1914.169466167079
 30
0.0
  0
POINT
  5
82E5
330
82DA
100
AcDbEntity
  8
DEFPOINTS
 62
     0
100
AcDbPoint
 10
4804.083739525321
 20
1914.169466167079
 30
0.0
  0
POINT
  5
82E6
330
82DA
100
AcDbEntity
  8
DEFPOINTS
 62
     0
100
AcDbPoint
 10
4804.083739525321
 20
1698.026870346177
 30
0.0
  0
ENDBLK
  5
82DC
330
82DA
100
AcDbEntity
  8
0
100
AcDbBlockEnd
  0
BLOCK
  5
82E8
330
82E7
100
AcDbEntity
  8
0
100
AcDbBlockBegin
  2
*D39
 70
     1
 10
0.0
 20
0.0
 30
0.0
  3
*D39
  1

  0
LINE
  5
82EA
330
82E7
100
AcDbEntity
  8
3
 62
     0
370
    -2
100
AcDbLine
 10
4804.083739525321
 20
1884.169466167079
 30
0.0
 11
4804.083739525321
 21
1692.626870346177
 31
0.0
  0
LINE
  5
82EB
330
82E7
100
AcDbEntity
  8
3
 62
     0
370
    -2
100
AcDbLine
 10
5482.083739525322
 20
1884.169466167079
 30
0.0
 11
5482.083739525322
 21
1692.626870346177
 31
0.0
  0
LINE
  5
82EC
330
82E7
100
AcDbEntity
  8
3
 62
     0
370
    -2
100
AcDbLine
 10
4809.483739525321
 20
1698.026870346177
 30
0.0
 11
5133.440882382465
 21
1698.026870346177
 31
0.0
  0
LINE
  5
82ED
330
82E7
100
AcDbEntity
  8
3
 62
     0
370
    -2
100
AcDbLine
 10
5476.683739525323
 20
1698.026870346177
 30
0.0
 11
5152.726596668179
 21
1698.026870346177
 31
0.0
  0
SOLID
  5
82EE
330
82E7
100
AcDbEntity
  8
3
 62
     0
100
AcDbTrace
 10
4809.483739525321
 20
1698.926870346177
 30
0.0
 11
4809.483739525321
 21
1697.126870346177
 31
0.0
 12
4804.083739525321
 22
1698.026870346177
 32
0.0
 13
4804.083739525321
 23
1698.026870346177
 33
0.0
  0
SOLID
  5
82EF
330
82E7
100
AcDbEntity
  8
3
 62
     0
100
AcDbTrace
 10
5476.683739525323
 20
1698.926870346177
 30
0.0
 11
5476.683739525323
 21
1697.126870346177
 31
0.0
 12
5482.083739525322
 22
1698.026870346177
 32
0.0
 13
5482.083739525322
 23
1698.026870346177
 33
0.0
  0
MTEXT
  5
82F0
330
82E7
100
AcDbEntity
  8
3
 62
     0
100
AcDbMText
 10
5143.083739525322
 20
1698.026870346177
 30
0.0
 40
5.399999999999999
 41
0.0
 71
     5
 72
     1
  1
\A1;678
 73
     1
 44
1.0
1001
ACAD
1000
MTEXTBEGIN
1070
    73
1070
     1
1070
    44
1040
1.0
1070
    74
1070
     0
1000
MTEXTEND
  0
POINT
  5
82F1
330
82E7
100
AcDbEntity
  8
DEFPOINTS
 62
     0
100
AcDbPoint
 10
4804.083739525321
 20
1914.169466167079
 30
0.0
  0
POINT
  5
82F2
330
82E7
100
AcDbEntity
  8
DEFPOINTS
 62
     0
100
AcDbPoint
 10
5482.083739525322
 20
1914.169466167079
 30
0.0
  0
POINT
  5
82F3
330
82E7
100
AcDbEntity
  8
DEFPOINTS
 62
     0
100
AcDbPoint
 10
5482.083739525322
 20
1698.026870346177
 30
0.0
  0
ENDBLK
  5
82E9
330
82E7
100
AcDbEntity
  8
0
100
AcDbBlockEnd
  0
BLOCK
  5
82F5
330
82F4
100
AcDbEntity
  8
0
100
AcDbBlockBegin
  2
*D40
 70
     1
 10
0.0
 20
0.0
 30
0.0
  3
*D40
  1

  0
LINE
  5
82F7
330
82F4
100
AcDbEntity
  8
3
 62
     0
370
    -2
100
AcDbLine
 10
900.9142323413508
 20
2019.372316392662
 30
0.0
 11
900.9142323413508
 21
2059.658030678376
 31
0.0
  0
LINE
  5
82F8
330
82F4
100
AcDbEntity
  8
3
 62
     0
370
    -2
100
AcDbLine
 10
900.9142323413508
 20
2113.572316392661
 30
0.0
 11
900.9142323413508
 21
2073.286602106947
 31
0.0
  0
SOLID
  5
82F9
330
82F4
100
AcDbEntity
  8
3
 62
     0
100
AcDbTrace
 10
900.0142323413507
 20
2019.372316392662
 30
0.0
 11
901.8142323413506
 21
2019.372316392662
 31
0.0
 12
900.9142323413508
 22
2013.972316392662
 32
0.0
 13
900.9142323413508
 23
2013.972316392662
 33
0.0
  0
SOLID
  5
82FA
330
82F4
100
AcDbEntity
  8
3
 62
     0
100
AcDbTrace
 10
900.0142323413507
 20
2113.572316392661
 30
0.0
 11
901.8142323413506
 21
2113.572316392661
 31
0.0
 12
900.9142323413508
 22
2118.972316392662
 32
0.0
 13
900.9142323413508
 23
2118.972316392662
 33
0.0
  0
MTEXT
  5
82FB
330
82F4
100
AcDbEntity
  8
3
 62
     0
100
AcDbMText
 10
900.9142323413504
 20
2066.472316392662
 30
0.0
 40
5.399999999999999
 41
0.0
 71
     5
 72
     1
  1
\A1;(105)
 73
     1
 44
1.0
1001
ACAD
1000
MTEXTBEGIN
1070
    73
1070
     1
1070
    44
1040
1.0
1070
    74
1070
     0
1000
MTEXTEND
  0
POINT
  5
82FC
330
82F4
100
AcDbEntity
  8
DEFPOINTS
 62
     0
100
AcDbPoint
 10
1263.497639781775
 20
2013.972316392662
 30
0.0
  0
POINT
  5
82FD
330
82F4
100
AcDbEntity
  8
DEFPOINTS
 62
     0
100
AcDbPoint
 10
1263.497639781775
 20
2118.972316392661
 30
0.0
  0
POINT
  5
82FE
330
82F4
100
AcDbEntity
  8
DEFPOINTS
 62
     0
100
AcDbPoint
 10
900.9142323413508
 20
2118.972316392662
 30
0.0
  0
ENDBLK
  5
82F6
330
82F4
100
AcDbEntity
  8
0
100
AcDbBlockEnd
  0
BLOCK
  5
8301
330
8300
100
AcDbEntity
  8
0
100
AcDbBlockBegin
  2
*D41
 70
     1
 10
0.0
 20
0.0
 30
0.0
  3
*D41
  1

  0
LINE
  5
8303
330
8300
100
AcDbEntity
  8
3
 62
     0
370
    -2
100
AcDbLine
 10
3977.083739525323
 20
1884.169466167079
 30
0.0
 11
3977.083739525323
 21
1668.026870346177
 31
0.0
  0
LINE
  5
8304
330
8300
100
AcDbEntity
  8
3
 62
     0
370
    -2
100
AcDbLine
 10
4804.083739525321
 20
1884.169466167079
 30
0.0
 11
4804.083739525321
 21
1668.026870346177
 31
0.0
  0
LINE
  5
8305
330
8300
100
AcDbEntity
  8
3
 62
     0
370
    -2
100
AcDbLine
 10
4037.083739525322
 20
1698.026870346177
 30
0.0
 11
4744.083739525321
 21
1698.026870346177
 31
0.0
  0
INSERT
  5
8306
330
8300
100
AcDbEntity
  8
3
 62
     0
370
    -2
100
AcDbBlockReference
  2
_OPEN
 10
3977.083739525323
 20
1698.026870346177
 30
0.0
 41
60.0
 42
60.0
 43
60.0
 50
180.0
  0
INSERT
  5
8307
330
8300
100
AcDbEntity
  8
3
 62
     0
370
    -2
100
AcDbBlockReference
  2
_OPEN
 10
4804.083739525321
 20
1698.026870346177
 30
0.0
 41
60.0
 42
60.0
 43
60.0
  0
MTEXT
  5
8308
330
8300
100
AcDbEntity
  8
3
 62
     0
100
AcDbMText
 10
4390.583739525322
 20
1773.026870346177
 30
0.0
 40
90.0
 41
0.0
 71
     5
 72
     1
  1
\A1;827
 73
     1
 44
1.0
1001
ACAD
1000
MTEXTBEGIN
1070
    73
1070
     1
1070
    44
1040
1.0
1070
    74
1070
     0
1000
MTEXTEND
  0
POINT
  5
8309
330
8300
100
AcDbEntity
  8
DEFPOINTS
 62
     0
100
AcDbPoint
 10
3977.083739525323
 20
1914.169466167079
 30
0.0
  0
POINT
  5
830A
330
8300
100
AcDbEntity
  8
DEFPOINTS
 62
     0
100
AcDbPoint
 10
4804.083739525321
 20
1914.169466167079
 30
0.0
  0
POINT
  5
830B
330
8300
100
AcDbEntity
  8
DEFPOINTS
 62
     0
100
AcDbPoint
 10
4804.083739525321
 20
1698.026870346177
 30
0.0
  0
ENDBLK
  5
8302
330
8300
100
AcDbEntity
  8
0
100
AcDbBlockEnd
  0
BLOCK
  5
830E
330
830D
100
AcDbEntity
  8
0
100
AcDbBlockBegin
  2
*D42
 70
     1
 10
0.0
 20
0.0
 30
0.0
  3
*D42
  1

  0
LINE
  5
8310
330
830D
100
AcDbEntity
  8
3
 62
     0
370
    -2
100
AcDbLine
 10
4804.083739525321
 20
1884.169466167079
 30
0.0
 11
4804.083739525321
 21
1668.026870346177
 31
0.0
  0
LINE
  5
8311
330
830D
100
AcDbEntity
  8
3
 62
     0
370
    -2
100
AcDbLine
 10
5482.083739525322
 20
1884.169466167079
 30
0.0
 11
5482.083739525322
 21
1668.026870346177
 31
0.0
  0
LINE
  5
8312
330
830D
100
AcDbEntity
  8
3
 62
     0
370
    -2
100
AcDbLine
 10
4864.083739525321
 20
1698.026870346177
 30
0.0
 11
5422.083739525322
 21
1698.026870346177
 31
0.0
  0
INSERT
  5
8313
330
830D
100
AcDbEntity
  8
3
 62
     0
370
    -2
100
AcDbBlockReference
  2
_OPEN
 10
4804.083739525321
 20
1698.026870346177
 30
0.0
 41
60.0
 42
60.0
 43
60.0
 50
180.0
  0
INSERT
  5
8314
330
830D
100
AcDbEntity
  8
3
 62
     0
370
    -2
100
AcDbBlockReference
  2
_OPEN
 10
5482.083739525322
 20
1698.026870346177
 30
0.0
 41
60.0
 42
60.0
 43
60.0
  0
MTEXT
  5
8315
330
830D
100
AcDbEntity
  8
3
 62
     0
100
AcDbMText
 10
5143.083739525322
 20
1773.026870346177
 30
0.0
 40
90.0
 41
0.0
 71
     5
 72
     1
  1
\A1;678
 73
     1
 44
1.0
1001
ACAD
1000
MTEXTBEGIN
1070
    73
1070
     1
1070
    44
1040
1.0
1070
    74
1070
     0
1000
MTEXTEND
  0
POINT
  5
8316
330
830D
100
AcDbEntity
  8
DEFPOINTS
 62
     0
100
AcDbPoint
 10
4804.083739525321
 20
1914.169466167079
 30
0.0
  0
POINT
  5
8317
330
830D
100
AcDbEntity
  8
DEFPOINTS
 62
     0
100
AcDbPoint
 10
5482.083739525322
 20
1914.169466167079
 30
0.0
  0
POINT
  5
8318
330
830D
100
AcDbEntity
  8
DEFPOINTS
 62
     0
100
AcDbPoint
 10
5482.083739525322
 20
1698.026870346177
 30
0.0
  0
ENDBLK
  5
830F
330
830D
100
AcDbEntity
  8
0
100
AcDbBlockEnd
  0
BLOCK
  5
831B
330
831A
100
AcDbEntity
  8
0
100
AcDbBlockBegin
  2
*D43
 70
     1
 10
0.0
 20
0.0
 30
0.0
  3
*D43
  1

  0
LINE
  5
831D
330
831A
100
AcDbEntity
  8
3
 62
     0
370
    -2
100
AcDbLine
 10
1263.497639781775
 20
1883.97231639266
 30
0.0
 11
1263.497639781775
 21
1667.962743805572
 31
0.0
  0
LINE
  5
831E
330
831A
100
AcDbEntity
  8
3
 62
     0
370
    -2
100
AcDbLine
 10
1888.497639781776
 20
1883.97231639266
 30
0.0
 11
1888.497639781776
 21
1667.962743805572
 31
0.0
  0
LINE
  5
831F
330
831A
100
AcDbEntity
  8
3
 62
     0
370
    -2
100
AcDbLine
 10
1323.497639781775
 20
1697.962743805572
 30
0.0
 11
1828.497639781776
 21
1697.962743805572
 31
0.0
  0
INSERT
  5
8320
330
831A
100
AcDbEntity
  8
3
 62
     0
370
    -2
100
AcDbBlockReference
  2
_OPEN
 10
1263.497639781775
 20
1697.962743805572
 30
0.0
 41
60.0
 42
60.0
 43
60.0
 50
180.0
  0
INSERT
  5
8321
330
831A
100
AcDbEntity
  8
3
 62
     0
370
    -2
100
AcDbBlockReference
  2
_OPEN
 10
1888.497639781776
 20
1697.962743805572
 30
0.0
 41
60.0
 42
60.0
 43
60.0
  0
MTEXT
  5
8322
330
831A
100
AcDbEntity
  8
3
 62
     0
100
AcDbMText
 10
1575.997639781775
 20
1772.962743805572
 30
0.0
 40
90.0
 41
0.0
 71
     5
 72
     1
  1
\A1;625
 73
     1
 44
1.0
1001
ACAD
1000
MTEXTBEGIN
1070
    73
1070
     1
1070
    44
1040
1.0
1070
    74
1070
     0
1000
MTEXTEND
  0
POINT
  5
8323
330
831A
100
AcDbEntity
  8
DEFPOINTS
 62
     0
100
AcDbPoint
 10
1263.497639781775
 20
1913.97231639266
 30
0.0
  0
POINT
  5
8324
330
831A
100
AcDbEntity
  8
DEFPOINTS
 62
     0
100
AcDbPoint
 10
1888.497639781776
 20
1913.97231639266
 30
0.0
  0
POINT
  5
8325
330
831A
100
AcDbEntity
  8
DEFPOINTS
 62
     0
100
AcDbPoint
 10
1888.497639781776
 20
1697.962743805572
 30
0.0
  0
ENDBLK
  5
831C
330
831A
100
AcDbEntity
  8
0
100
AcDbBlockEnd
  0
BLOCK
  5
8328
330
8327
100
AcDbEntity
  8
0
100
AcDbBlockBegin
  2
*D44
 70
     1
 10
0.0
 20
0.0
 30
0.0
  3
*D44
  1

  0
LINE
  5
832A
330
8327
100
AcDbEntity
  8
3
 62
     0
370
    -2
100
AcDbLine
 10
1888.497639781776
 20
1883.97231639266
 30
0.0
 11
1888.497639781776
 21
1667.962743805572
 31
0.0
  0
LINE
  5
832B
330
8327
100
AcDbEntity
  8
3
 62
     0
370
    -2
100
AcDbLine
 10
3313.497639781775
 20
1883.97231639266
 30
0.0
 11
3313.497639781775
 21
1667.962743805572
 31
0.0
  0
LINE
  5
832C
330
8327
100
AcDbEntity
  8
3
 62
     0
370
    -2
100
AcDbLine
 10
1948.497639781776
 20
1697.962743805572
 30
0.0
 11
3253.497639781775
 21
1697.962743805572
 31
0.0
  0
INSERT
  5
832D
330
8327
100
AcDbEntity
  8
3
 62
     0
370
    -2
100
AcDbBlockReference
  2
_OPEN
 10
1888.497639781776
 20
1697.962743805572
 30
0.0
 41
60.0
 42
60.0
 43
60.0
 50
180.0
  0
INSERT
  5
832E
330
8327
100
AcDbEntity
  8
3
 62
     0
370
    -2
100
AcDbBlockReference
  2
_OPEN
 10
3313.497639781775
 20
1697.962743805572
 30
0.0
 41
60.0
 42
60.0
 43
60.0
  0
MTEXT
  5
832F
330
8327
100
AcDbEntity
  8
3
 62
     0
100
AcDbMText
 10
2600.997639781776
 20
1772.962743805572
 30
0.0
 40
90.0
 41
0.0
 71
     5
 72
     1
  1
\A1;1425
 73
     1
 44
1.0
1001
ACAD
1000
MTEXTBEGIN
1070
    73
1070
     1
1070
    44
1040
1.0
1070
    74
1070
     0
1000
MTEXTEND
  0
POINT
  5
8330
330
8327
100
AcDbEntity
  8
DEFPOINTS
 62
     0
100
AcDbPoint
 10
1888.497639781776
 20
1913.97231639266
 30
0.0
  0
POINT
  5
8331
330
8327
100
AcDbEntity
  8
DEFPOINTS
 62
     0
100
AcDbPoint
 10
3313.497639781775
 20
1913.97231639266
 30
0.0
  0
POINT
  5
8332
330
8327
100
AcDbEntity
  8
DEFPOINTS
 62
     0
100
AcDbPoint
 10
3313.497639781775
 20
1697.962743805572
 30
0.0
  0
ENDBLK
  5
8329
330
8327
100
AcDbEntity
  8
0
100
AcDbBlockEnd
  0
BLOCK
  5
8338
330
8337
100
AcDbEntity
  8
0
100
AcDbBlockBegin
  2
*D45
 70
     1
 10
0.0
 20
0.0
 30
0.0
  3
*D45
  1

  0
LINE
  5
839E
330
8337
100
AcDbEntity
  8
3
 62
     0
370
    -2
100
AcDbLine
 10
1118.881657284148
 20
3014.169466167079
 30
0.0
 11
871.8037711084853
 21
3014.169466167079
 31
0.0
  0
LINE
  5
839F
330
8337
100
AcDbEntity
  8
3
 62
     0
370
    -2
100
AcDbLine
 10
1233.497639781775
 20
2119.169466167079
 30
0.0
 11
871.8037711084852
 21
2119.169466167079
 31
0.0
  0
LINE
  5
83A0
330
8337
100
AcDbEntity
  8
3
 62
     0
370
    -2
100
AcDbLine
 10
901.8037711084854
 20
2954.16946616708
 30
0.0
 11
901.8037711084852
 21
2179.169466167079
 31
0.0
  0
INSERT
  5
83A1
330
8337
100
AcDbEntity
  8
3
 62
     0
370
    -2
100
AcDbBlockReference
  2
_OPEN
 10
901.8037711084854
 20
3014.169466167079
 30
0.0
 41
60.0
 42
60.0
 43
60.0
 50
90.0
  0
INSERT
  5
83A2
330
8337
100
AcDbEntity
  8
3
 62
     0
370
    -2
100
AcDbBlockReference
  2
_OPEN
 10
901.8037711084852
 20
2119.169466167079
 30
0.0
 41
60.0
 42
60.0
 43
60.0
 50
270.0
  0
MTEXT
  5
83A3
330
8337
100
AcDbEntity
  8
3
 62
     0
100
AcDbMText
 10
826.8037711084849
 20
2566.66946616708
 30
0.0
 40
90.0
 41
0.0
 71
     5
 72
     1
  1
\A1;895
 11
0.0000000000000001
 21
1.0
 31
0.0
 73
     1
 44
1.0
1001
ACAD
1000
MTEXTBEGIN
1070
    73
1070
     1
1070
    44
1040
1.0
1070
    74
1070
     0
1000
MTEXTEND
  0
POINT
  5
83A4
330
8337
100
AcDbEntity
  8
DEFPOINTS
 62
     0
100
AcDbPoint
 10
1148.881657284148
 20
3014.169466167079
 30
0.0
  0
POINT
  5
83A5
330
8337
100
AcDbEntity
  8
DEFPOINTS
 62
     0
100
AcDbPoint
 10
1263.497639781775
 20
2119.169466167079
 30
0.0
  0
POINT
  5
83A6
330
8337
100
AcDbEntity
  8
DEFPOINTS
 62
     0
100
AcDbPoint
 10
901.8037711084852
 20
2119.169466167079
 30
0.0
  0
ENDBLK
  5
8339
330
8337
100
AcDbEntity
  8
0
100
AcDbBlockEnd
  0
BLOCK
  5
8345
330
8344
100
AcDbEntity
  8
0
100
AcDbBlockBegin
  2
*D46
 70
     1
 10
0.0
 20
0.0
 30
0.0
  3
*D46
  1

  0
LINE
  5
8433
330
8344
100
AcDbEntity
  8
3
 62
     0
370
    -2
100
AcDbLine
 10
1233.497639781775
 20
2119.169466167079
 30
0.0
 11
871.8037711084852
 21
2119.169466167079
 31
0.0
  0
LINE
  5
8434
330
8344
100
AcDbEntity
  8
3
 62
     0
370
    -2
100
AcDbLine
 10
1233.497639781775
 20
2014.169466167079
 30
0.0
 11
871.8037711084852
 21
2014.169466167079
 31
0.0
  0
LINE
  5
8435
330
8344
100
AcDbEntity
  8
3
 62
     0
370
    -2
100
AcDbLine
 10
901.8037711084852
 20
2179.169466167079
 30
0.0
 11
901.8037711084852
 21
2239.16946616708
 31
0.0
  0
LINE
  5
8436
330
8344
100
AcDbEntity
  8
3
 62
     0
370
    -2
100
AcDbLine
 10
901.8037711084852
 20
2014.169466167079
 30
0.0
 11
901.8037711084852
 21
1954.169466167079
 31
0.0
  0
LINE
  5
8437
330
8344
100
AcDbEntity
  8
3
 62
     0
370
    -2
100
AcDbLine
 10
901.8037711084852
 20
2066.66946616708
 30
0.0
 11
718.1028738066165
 21
2109.740894738508
 31
0.0
  0
LINE
  5
8438
330
8344
100
AcDbEntity
  8
3
 62
     0
370
    -2
100
AcDbLine
 10
718.1028738066165
 20
2109.740894738508
 30
0.0
 11
718.1028738066165
 21
2499.740894738508
 31
0.0
  0
MTEXT
  5
8439
330
8344
100
AcDbEntity
  8
3
 62
     0
100
AcDbMText
 10
619.5314452351875
 20
2304.740894738508
 30
0.0
 40
90.0
 41
0.0
 71
     5
 72
     1
  1
\A1;(105)
 11
0.0000000000000001
 21
1.0
 31
0.0
 73
     1
 44
1.0
1001
ACAD
1000
MTEXTBEGIN
1070
    73
1070
     1
1070
    44
1040
1.0
1070
    74
1070
     0
1000
MTEXTEND
  0
LINE
  5
843A
330
8344
100
AcDbEntity
  8
3
 62
     0
370
    -2
100
AcDbLine
 10
901.8037711084852
 20
2119.169466167079
 30
0.0
 11
901.8037711084852
 21
2014.169466167079
 31
0.0
  0
LINE
  5
843B
330
8344
100
AcDbEntity
  8
3
 62
     0
370
    -2
100
AcDbLine
 10
901.8037711084852
 20
2119.169466167079
 30
0.0
 11
901.8037711084852
 21
2014.169466167079
 31
0.0
  0
INSERT
  5
843C
330
8344
100
AcDbEntity
  8
3
 62
     0
370
    -2
100
AcDbBlockReference
  2
_OPEN
 10
901.8037711084852
 20
2119.169466167079
 30
0.0
 41
60.0
 42
60.0
 43
60.0
 50
270.0
  0
INSERT
  5
843D
330
8344
100
AcDbEntity
  8
3
 62
     0
370
    -2
100
AcDbBlockReference
  2
_DotSmall
 10
901.8037711084852
 20
2014.169466167079
 30
0.0
 41
60.0
 42
60.0
 43
60.0
 50
90.0
  0
POINT
  5
843E
330
8344
100
AcDbEntity
  8
DEFPOINTS
 62
     0
100
AcDbPoint
 10
1263.497639781775
 20
2119.169466167079
 30
0.0
  0
POINT
  5
843F
330
8344
100
AcDbEntity
  8
DEFPOINTS
 62
     0
100
AcDbPoint
 10
1263.497639781775
 20
2014.169466167079
 30
0.0
  0
POINT
  5
8440
330
8344
100
AcDbEntity
  8
DEFPOINTS
 62
     0
100
AcDbPoint
 10
901.8037711084852
 20
2014.169466167079
 30
0.0
  0
ENDBLK
  5
8346
330
8344
100
AcDbEntity
  8
0
100
AcDbBlockEnd
  0
BLOCK
  5
8357
330
8356
100
AcDbEntity
  8
0
100
AcDbBlockBegin
  2
*D47
 70
     1
 10
0.0
 20
0.0
 30
0.0
  3
*D47
  1

  0
LINE
  5
848F
330
8356
100
AcDbEntity
  8
3
 62
     0
370
    -2
100
AcDbLine
 10
1233.497639781775
 20
2014.169466167079
 30
0.0
 11
871.8037711084852
 21
2014.169466167079
 31
0.0
  0
LINE
  5
8490
330
8356
100
AcDbEntity
  8
3
 62
     0
370
    -2
100
AcDbLine
 10
1233.497639781775
 20
1914.169466167078
 30
0.0
 11
871.8037711084852
 21
1914.169466167078
 31
0.0
  0
LINE
  5
8491
330
8356
100
AcDbEntity
  8
3
 62
     0
370
    -2
100
AcDbLine
 10
901.8037711084852
 20
2014.169466167079
 30
0.0
 11
901.8037711084852
 21
2074.169466167079
 31
0.0
  0
LINE
  5
8492
330
8356
100
AcDbEntity
  8
3
 62
     0
370
    -2
100
AcDbLine
 10
901.8037711084852
 20
1854.169466167078
 30
0.0
 11
901.8037711084852
 21
1794.169466167078
 31
0.0
  0
MTEXT
  5
8493
330
8356
100
AcDbEntity
  8
3
 62
     0
100
AcDbMText
 10
849.4014537096081
 20
1769.150597504267
 30
0.0
 40
90.0
 41
0.0
 71
     5
 72
     1
  1
\A1;100
 11
0.0000000000000001
 21
1.0
 31
0.0
 73
     1
 44
1.0
1001
ACAD
1000
MTEXTBEGIN
1070
    73
1070
     1
1070
    44
1040
1.0
1070
    74
1070
     0
1000
MTEXTEND
  0
LINE
  5
8494
330
8356
100
AcDbEntity
  8
3
 62
     0
370
    -2
100
AcDbLine
 10
901.8037711084852
 20
2014.169466167079
 30
0.0
 11
901.8037711084852
 21
1914.169466167078
 31
0.0
  0
INSERT
  5
8495
330
8356
100
AcDbEntity
  8
3
 62
     0
370
    -2
100
AcDbBlockReference
  2
_DotSmall
 10
901.8037711084852
 20
2014.169466167079
 30
0.0
 41
60.0
 42
60.0
 43
60.0
 50
270.0
  0
INSERT
  5
8496
330
8356
100
AcDbEntity
  8
3
 62
     0
370
    -2
100
AcDbBlockReference
  2
_OPEN
 10
901.8037711084852
 20
1914.169466167078
 30
0.0
 41
60.0
 42
60.0
 43
60.0
 50
90.0
  0
POINT
  5
8497
330
8356
100
AcDbEntity
  8
DEFPOINTS
 62
     0
100
AcDbPoint
 10
1263.497639781775
 20
2014.169466167079
 30
0.0
  0
POINT
  5
8498
330
8356
100
AcDbEntity
  8
DEFPOINTS
 62
     0
100
AcDbPoint
 10
1263.497639781775
 20
1914.169466167078
 30
0.0
  0
POINT
  5
8499
330
8356
100
AcDbEntity
  8
DEFPOINTS
 62
     0
100
AcDbPoint
 10
901.8037711084852
 20
1914.169466167078
 30
0.0
  0
ENDBLK
  5
8358
330
8356
100
AcDbEntity
  8
0
100
AcDbBlockEnd
  0
BLOCK
  5
8393
330
8392
100
AcDbEntity
  8
0
100
AcDbBlockBegin
  2
*D48
 70
     1
 10
0.0
 20
0.0
 30
0.0
  3
*D48
  1

  0
LINE
  5
84A3
330
8392
100
AcDbEntity
  8
3
 62
     0
370
    -2
100
AcDbLine
 10
1233.497639781775
 20
1914.169466167078
 30
0.0
 11
469.7291227121893
 21
1914.169466167078
 31
0.0
  0
LINE
  5
84A4
330
8392
100
AcDbEntity
  8
3
 62
     0
370
    -2
100
AcDbLine
 10
1849.497639781776
 20
3694.169466167082
 30
0.0
 11
469.7291227121897
 21
3694.169466167082
 31
0.0
  0
LINE
  5
84A5
330
8392
100
AcDbEntity
  8
3
 62
     0
370
    -2
100
AcDbLine
 10
499.7291227121894
 20
1974.169466167078
 30
0.0
 11
499.7291227121897
 21
3634.169466167082
 31
0.0
  0
INSERT
  5
84A6
330
8392
100
AcDbEntity
  8
3
 62
     0
370
    -2
100
AcDbBlockReference
  2
_OPEN
 10
499.7291227121894
 20
1914.169466167078
 30
0.0
 41
60.0
 42
60.0
 43
60.0
 50
270.0
  0
INSERT
  5
84A7
330
8392
100
AcDbEntity
  8
3
 62
     0
370
    -2
100
AcDbBlockReference
  2
_OPEN
 10
499.7291227121897
 20
3694.169466167082
 30
0.0
 41
60.0
 42
60.0
 43
60.0
 50
90.0
  0
MTEXT
  5
84A8
330
8392
100
AcDbEntity
  8
3
 62
     0
100
AcDbMText
 10
401.1576941407605
 20
2804.16946616708
 30
0.0
 40
90.0
 41
0.0
 71
     5
 72
     1
  1
\A1;(1780)
 11
0.0000000000000001
 21
1.0
 31
0.0
 73
     1
 44
1.0
1001
ACAD
1000
MTEXTBEGIN
1070
    73
1070
     1
1070
    44
1040
1.0
1070
    74
1070
     0
1000
MTEXTEND
  0
POINT
  5
84A9
330
8392
100
AcDbEntity
  8
DEFPOINTS
 62
     0
100
AcDbPoint
 10
1263.497639781775
 20
1914.169466167078
 30
0.0
  0
POINT
  5
84AA
330
8392
100
AcDbEntity
  8
DEFPOINTS
 62
     0
100
AcDbPoint
 10
1879.497639781776
 20
3694.169466167082
 30
0.0
  0
POINT
  5
84AB
330
8392
100
AcDbEntity
  8
DEFPOINTS
 62
     0
100
AcDbPoint
 10
499.7291227121897
 20
3694.169466167082
 30
0.0
  0
ENDBLK
  5
8394
330
8392
100
AcDbEntity
  8
0
100
AcDbBlockEnd
  0
BLOCK
  5
8431
330
842F
100
AcDbEntity
  8
0
100
AcDbBlockBegin
  2
_DotSmall
 70
     0
 10
0.0
 20
0.0
 30
0.0
  3
_DotSmall
  1

  0
LWPOLYLINE
  5
8430
330
842F
100
AcDbEntity
  8
0
  6
ByBlock
 62
     0
100
AcDbPolyline
 90
        2
 70
     1
 43
0.5
 10
-0.0625
 20
0.0
 42
1.0
 10
0.0625
 20
0.0
 42
1.0
  0
ENDBLK
  5
8432
330
842F
100
AcDbEntity
  8
0
100
AcDbBlockEnd
  0
ENDSEC
  0
SECTION
  2
ENTITIES
  0
INSERT
  5
7C27
330
81EA
100
AcDbEntity
  8
0
100
AcDbBlockReference
  2
YA_N
 10
6.0
 20
5.0
 30
0.0
  0
ARC
  5
7C29
330
81EA
100
AcDbEntity
  8
1
100
AcDbCircle
 10
1962.497639781776
 20
3088.169466167081
 30
0.0
 40
942.0
100
AcDbArc
 50
292.6737795343462
 51
355.4944154733556
  0
ARC
  5
7C2A
330
81EA
100
AcDbEntity
  8
1
100
AcDbCircle
 10
1962.497639781776
 20
2940.169466167081
 30
0.0
 40
794.0
100
AcDbArc
 50
174.6523302501611
 51
245.2726700885535
  0
ARC
  5
7C2B
330
81EA
100
AcDbEntity
  8
1
100
AcDbCircle
 10
1827.997639781776
 20
2953.669466167081
 30
0.0
 40
659.4999999999998
100
AcDbArc
 50
84.73650479693301
 51
174.736504796933
  0
LINE
  5
7C2C
330
81EA
100
AcDbEntity
  8
1
100
AcDbLine
 10
1932.497639781776
 20
3611.551253636366
 30
0.0
 11
1932.497639781777
 21
3694.169466167082
 31
0.0
  0
LINE
  5
7C2D
330
81EA
100
AcDbEntity
  8
1
100
AcDbLine
 10
3015.497639781777
 20
3694.169466167082
 30
0.0
 11
1879.497639781776
 21
3694.169466167082
 31
0.0
  0
LINE
  5
7C2E
330
81EA
100
AcDbEntity
  8
1
100
AcDbLine
 10
2962.497639781777
 20
3694.169466167082
 30
0.0
 11
2901.5865599592
 21
3014.169466167081
 31
0.0
  0
LINE
  5
7C2F
330
81EA
100
AcDbEntity
  8
1
100
AcDbLine
 10
3015.497639781777
 20
3690.16946616708
 30
0.0
 11
3015.497639781777
 21
3694.169466167082
 31
0.0
  0
LINE
  5
7C30
330
81EA
100
AcDbEntity
  8
1
100
AcDbLine
 10
1879.497639781776
 20
3690.169466167083
 30
0.0
 11
1879.497639781776
 21
3694.169466167082
 31
0.0
  0
LINE
  5
7C31
330
81EA
100
AcDbEntity
  8
1
100
AcDbLine
 10
2958.018883912469
 20
3644.169466167082
 30
0.0
 11
1932.497639781776
 21
3644.169466167082
 31
0.0
  0
LINE
  5
7C32
330
81EA
100
AcDbEntity
  8
1
100
AcDbLine
 10
3015.497639781777
 20
3690.169466167079
 30
0.0
 11
1879.497639781776
 21
3690.169466167083
 31
0.0
  0
LINE
  5
7C33
330
81EA
100
AcDbEntity
  8
1
100
AcDbLine
 10
3313.497639781775
 20
2219.169466167077
 30
0.0
 11
1263.497639781775
 21
2219.169466167079
 31
0.0
  0
LINE
  5
7C34
330
81EA
100
AcDbEntity
  8
1
100
AcDbLine
 10
1263.497639781775
 20
2219.169466167079
 30
0.0
 11
1263.497639781775
 21
2119.169466167079
 31
0.0
  0
LINE
  5
7C35
330
81EA
100
AcDbEntity
  8
2
100
AcDbLine
 10
3719.08373952532
 20
3014.16946616708
 30
0.0
 11
5610.160371074623
 21
3014.16946616708
 31
0.0
  0
LINE
  5
7C36
330
81EA
100
AcDbEntity
  8
2
100
AcDbLine
 10
4804.083739525322
 20
3925.218337515751
 30
0.0
 11
4804.083739525321
 21
1914.169466167079
 31
0.0
  0
LINE
  5
7C37
330
81EA
100
AcDbEntity
  8
1
100
AcDbLine
 10
3977.083739525321
 20
2119.169466167079
 30
0.0
 11
5482.083739525322
 21
2119.169466167079
 31
0.0
1001
ACAD
1000
ASC_BOUNDS
1002
{
1070
    19
1005
0
1005
0
1002
}
  0
LINE
  5
7C38
330
81EA
100
AcDbEntity
  8
1
100
AcDbLine
 10
3977.083739525323
 20
2219.169466167079
 30
0.0
 11
5482.083739525322
 21
2219.169466167079
 31
0.0
  0
LINE
  5
7C39
330
81EA
100
AcDbEntity
  8
1
100
AcDbLine
 10
5429.083739525322
 20
3694.16946616708
 30
0.0
 11
5429.083739525324
 21
3014.16946616708
 31
0.0
  0
LINE
  5
7C3A
330
81EA
100
AcDbEntity
  8
2
100
AcDbLine
 10
1888.497639781777
 20
3733.826000116309
 30
0.0
 11
1888.497639781776
 21
1913.97231639266
 31
0.0
  0
LINE
  5
7C3B
330
81EA
100
AcDbEntity
  8
2
100
AcDbLine
 10
1148.881657284148
 20
3014.169466167079
 30
0.0
 11
2961.673410288387
 21
3014.16946616708
 31
0.0
  0
LINE
  5
7C3C
330
81EA
100
AcDbEntity
  8
1
100
AcDbLine
 10
3313.497639781775
 20
2119.169466167079
 30
0.0
 11
1263.497639781775
 21
2119.169466167079
 31
0.0
1001
ACAD
1000
ASC_BOUNDS
1002
{
1070
    19
1005
0
1002
}
  0
INSERT
  5
7C3D
330
81EA
100
AcDbEntity
  8
0
100
AcDbBlockReference
  2
YA_N
 10
-1637.209838160516
 20
-1405.432827243363
 30
0.0
 41
25.0
 42
25.0
 43
25.0
  0
ARC
  5
7C3F
330
81EA
100
AcDbEntity
  8
1
100
AcDbCircle
 10
3038.497639781776
 20
2454.169466167078
 30
0.0
 40
185.0
100
AcDbArc
 50
287.9452509999999
 51
252.054749
  0
LINE
  5
7C40
330
81EA
100
AcDbEntity
  8
2
100
AcDbLine
 10
3038.497639781776
 20
2717.985140167078
 30
0.0
 11
3038.497639781777
 21
1914.169466167078
 31
0.0
  0
LINE
  5
7C41
330
81EA
100
AcDbEntity
  8
1
100
AcDbLine
 10
2981.497624781775
 20
2278.169466167078
 30
0.0
 11
3095.497639781776
 21
2278.169466167078
 31
0.0
  0
LINE
  5
7C42
330
81EA
100
AcDbEntity
  8
1
100
AcDbLine
 10
2876.497624781777
 20
2349.428499167077
 30
0.0
 11
2876.497624781777
 21
2274.169466167078
 31
0.0
  0
LINE
  5
7C46
330
81EA
100
AcDbEntity
  8
1
100
AcDbLine
 10
2935.997624781776
 20
2279.318025167078
 30
0.0
 11
2945.504338781775
 21
2294.240633167078
 31
0.0
  0
LINE
  5
7C47
330
81EA
100
AcDbEntity
  8
1
100
AcDbLine
 10
2935.997624781776
 20
2291.169466167078
 30
0.0
 11
2935.997624781776
 21
2274.169466167078
 31
0.0
  0
LINE
  5
7C49
330
81EA
100
AcDbEntity
  8
1
100
AcDbLine
 10
2879.497624781775
 20
2294.169466167078
 30
0.0
 11
2932.997624781775
 21
2294.169466167078
 31
0.0
  0
ARC
  5
7C4B
330
81EA
100
AcDbEntity
  8
1
100
AcDbCircle
 10
2879.497624781775
 20
2291.169466167078
 30
0.0
 40
3.0
100
AcDbArc
 50
90.0
 51
180.0
  0
LINE
  5
7C4D
330
81EA
100
AcDbEntity
  8
1
100
AcDbLine
 10
2927.673710781776
 20
2294.169466167078
 30
0.0
 11
2932.853459781776
 21
2302.300066167077
 31
0.0
  0
ARC
  5
7C4E
330
81EA
100
AcDbEntity
  8
1
100
AcDbCircle
 10
2932.997624781775
 20
2291.169466167078
 30
0.0
 40
3.0
100
AcDbArc
 50
0.0
 51
90.0
  0
LINE
  5
7C51
330
81EA
100
AcDbEntity
  8
1
100
AcDbLine
 10
2876.497624781777
 20
2349.428499167077
 30
0.0
 11
2882.881596781776
 21
2354.126253167078
 31
0.0
  0
LINE
  5
7C54
330
81EA
100
AcDbEntity
  8
1
100
AcDbLine
 10
3200.497639781776
 20
2349.428499167077
 30
0.0
 11
3200.497639781776
 21
2274.169466167078
 31
0.0
  0
LINE
  5
7C55
330
81EA
100
AcDbEntity
  8
1
100
AcDbLine
 10
3197.497639781776
 20
2294.169466167078
 30
0.0
 11
3143.997639781777
 21
2294.169466167078
 31
0.0
  0
LINE
  5
7C56
330
81EA
100
AcDbEntity
  8
1
100
AcDbLine
 10
3140.997639781776
 20
2279.318025167078
 30
0.0
 11
3131.490925781776
 21
2294.240633167078
 31
0.0
  0
LINE
  5
7C59
330
81EA
100
AcDbEntity
  8
1
100
AcDbLine
 10
3140.997639781776
 20
2274.169466167078
 30
0.0
 11
3140.997639781776
 21
2291.169466167078
 31
0.0
  0
LINE
  5
7C5C
330
81EA
100
AcDbEntity
  8
1
100
AcDbLine
 10
3149.321553781776
 20
2294.169466167078
 30
0.0
 11
3144.141804781777
 21
2302.300066167077
 31
0.0
  0
ARC
  5
7C5D
330
81EA
100
AcDbEntity
  8
1
100
AcDbCircle
 10
3143.997639781777
 20
2291.169466167078
 30
0.0
 40
3.0
100
AcDbArc
 50
90.0
 51
180.0
  0
ARC
  5
7C60
330
81EA
100
AcDbEntity
  8
1
100
AcDbCircle
 10
3197.497639781776
 20
2291.169466167078
 30
0.0
 40
3.0
100
AcDbArc
 50
0.0
 51
90.0
  0
LINE
  5
7C61
330
81EA
100
AcDbEntity
  8
1
100
AcDbLine
 10
3200.497639781776
 20
2349.428499167077
 30
0.0
 11
3194.113667781776
 21
2354.126253167078
 31
0.0
  0
LINE
  5
7C62
330
81EA
100
AcDbEntity
  8
2
100
AcDbLine
 10
3288.92405390732
 20
2454.169466167078
 30
0.0
 11
2822.41810713582
 21
2454.169466167078
 31
0.0
  0
LINE
  5
7C63
330
81EA
100
AcDbEntity
  8
1
100
AcDbLine
 10
3248.913652807541
 20
2274.169466167077
 30
0.0
 11
3108.497639781777
 21
2274.169466167077
 31
0.0
  0
LINE
  5
7C64
330
81EA
100
AcDbEntity
  8
1
100
AcDbLine
 10
2813.497639781776
 20
2219.169466167077
 30
0.0
 11
2828.282388568111
 21
2274.169466167077
 31
0.0
  0
LINE
  5
7C65
330
81EA
100
AcDbEntity
  8
1
100
AcDbLine
 10
3263.497639781777
 20
2219.169466167077
 30
0.0
 11
3248.913652807541
 21
2274.169466167077
 31
0.0
  0
LINE
  5
7C67
330
81EA
100
AcDbEntity
  8
1
100
AcDbLine
 10
3108.497639781777
 20
2264.169466167077
 30
0.0
 11
2968.497639781777
 21
2264.169466167077
 31
0.0
  0
LINE
  5
7C68
330
81EA
100
AcDbEntity
  8
1
100
AcDbLine
 10
3108.497639781777
 20
2274.169466167077
 30
0.0
 11
3108.497639781777
 21
2264.169466167077
 31
0.0
  0
LINE
  5
7C69
330
81EA
100
AcDbEntity
  8
1
100
AcDbLine
 10
2968.497639781775
 20
2274.169466167077
 30
0.0
 11
2968.497639781775
 21
2264.169466167077
 31
0.0
  0
LINE
  5
7C6A
330
81EA
100
AcDbEntity
  8
1
100
AcDbLine
 10
2968.497639781777
 20
2274.169466167077
 30
0.0
 11
2828.282388568111
 21
2274.169466167077
 31
0.0
  0
CIRCLE
  5
7C6D
330
81EA
100
AcDbEntity
  8
1
100
AcDbCircle
 10
1888.497639781777
 20
3014.169466167079
 30
0.0
 40
165.0999999999999
  0
CIRCLE
  5
7C6E
330
81EA
100
AcDbEntity
  8
1
100
AcDbCircle
 10
3038.497639781776
 20
2454.169466167078
 30
0.0
 40
114.3
  0
LINE
  5
7C6F
330
81EA
100
AcDbEntity
  8
1
100
AcDbLine
 10
3313.497639781775
 20
2014.169466167079
 30
0.0
 11
1263.497639781775
 21
2014.169466167079
 31
0.0
1001
ACAD
1000
ASC_BOUNDS
1002
{
1070
    19
1005
0
1002
}
  0
LINE
  5
7C70
330
81EA
100
AcDbEntity
  8
1
100
AcDbLine
 10
3313.497639781775
 20
1914.169466167078
 30
0.0
 11
1263.497639781775
 21
1914.169466167078
 31
0.0
  0
LINE
  5
7C71
330
81EA
100
AcDbEntity
  8
1
100
AcDbLine
 10
1263.497639781775
 20
2014.169466167079
 30
0.0
 11
1263.497639781775
 21
1914.169466167078
 31
0.0
  0
POINT
  5
7C72
330
81EA
100
AcDbEntity
  8
1
100
AcDbPoint
 10
1263.497639781775
 20
2014.169466167079
 30
0.0
  0
POINT
  5
7C73
330
81EA
100
AcDbEntity
  8
1
100
AcDbPoint
 10
1263.497639781775
 20
2014.169466167079
 30
0.0
  0
LINE
  5
7C74
330
81EA
100
AcDbEntity
  8
1
100
AcDbLine
 10
3977.083739525321
 20
2014.16946616708
 30
0.0
 11
5482.083739525322
 21
2014.16946616708
 31
0.0
1001
ACAD
1000
ASC_BOUNDS
1002
{
1070
    19
1005
0
1005
0
1002
}
  0
POINT
  5
7C75
330
81EA
100
AcDbEntity
  8
1
100
AcDbPoint
 10
1263.497639781775
 20
2014.169466167079
 30
0.0
  0
POINT
  5
7C76
330
81EA
100
AcDbEntity
  8
1
100
AcDbPoint
 10
1263.497639781775
 20
2014.169466167079
 30
0.0
  0
LINE
  5
7C77
330
81EA
100
AcDbEntity
  8
1
100
AcDbLine
 10
4804.083739525322
 20
3694.16946616708
 30
0.0
 11
5469.083739525324
 21
3694.16946616708
 31
0.0
  0
INSERT
  5
7C78
330
81EA
100
AcDbEntity
  8
0
100
AcDbBlockReference
  2
YA_N
 10
-1144.893563079054
 20
-989.0222135336152
 30
0.0
 41
25.0
 42
25.0
 43
25.0
  0
DIMENSION
  5
7C7A
330
81EA
100
AcDbEntity
  8
3
100
AcDbDimension
  2
*D4
 10
1932.497639781777
 20
3895.329563161224
 30
0.0
 11
2447.497639781778
 21
3955.329563161224
 31
0.0
 12
728.3319491905822
 22
2386.109163331333
 32
0.0
 71
     5
 42
-1.0
  3
Standard
100
AcDbAlignedDimension
 13
2962.497639781777
 23
3694.169466167082
 33
0.0
 14
1932.497639781777
 24
3694.169466167082
 34
0.0
100
AcDbRotatedDimension
1001
ACAD
1000
DSTYLE
1002
{
1070
    40
1040
30.0
1002
}
  0
DIMENSION
  5
7C7B
330
81EA
100
AcDbEntity
  8
3
100
AcDbDimension
  2
*D5
 10
1888.497639781776
 20
4096.131608620377
 30
0.0
 11
2425.497639781776
 21
4156.131608620376
 31
0.0
 12
728.3319491905822
 22
2386.109163331333
 32
0.0
 71
     5
 42
-1.0
  3
Standard
100
AcDbAlignedDimension
 13
2962.497639781777
 23
3694.169466167082
 33
0.0
 14
1888.497639781776
 24
3753.785448664709
 34
0.0
100
AcDbRotatedDimension
1001
ACAD
1000
DSTYLE
1002
{
1070
    40
1040
30.0
1002
}
  0
POINT
  5
7C7C
330
81EA
100
AcDbEntity
  8
1
100
AcDbPoint
 10
1263.497639781775
 20
2014.169466167079
 30
0.0
  0
POINT
  5
7C7D
330
81EA
100
AcDbEntity
  8
1
100
AcDbPoint
 10
1263.497639781775
 20
2014.169466167079
 30
0.0
  0
LINE
  5
7C7E
330
81EA
100
AcDbEntity
  8
1
100
AcDbLine
 10
5429.083739525322
 20
3014.16946616708
 30
0.0
 11
5429.083739525322
 21
2219.169466167079
 31
0.0
  0
LINE
  5
7C7F
330
81EA
100
AcDbEntity
  8
1
100
AcDbLine
 10
4179.083739525321
 20
3694.16946616708
 30
0.0
 11
4179.083739525321
 21
3014.16946616708
 31
0.0
  0
LINE
  5
7C80
330
81EA
100
AcDbEntity
  8
1
100
AcDbLine
 10
4804.083739525322
 20
3694.16946616708
 30
0.0
 11
4139.083739525321
 21
3694.16946616708
 31
0.0
  0
LINE
  5
7C81
330
81EA
100
AcDbEntity
  8
1
100
AcDbLine
 10
4179.083739525321
 20
3014.16946616708
 30
0.0
 11
4179.083739525321
 21
2636.47231639266
 31
0.0
  0
LINE
  5
7C82
330
81EA
100
AcDbEntity
  8
1
100
AcDbLine
 10
5584.083739525321
 20
2978.369466167081
 30
0.0
 11
5584.083739525321
 21
2848.36946616708
 31
0.0
  0
LINE
  5
7C83
330
81EA
100
AcDbEntity
  8
1
100
AcDbLine
 10
5447.083739525321
 20
2988.36946616708
 30
0.0
 11
5447.083739525321
 21
2838.36946616708
 31
0.0
  0
LINE
  5
7C84
330
81EA
100
AcDbEntity
  8
1
100
AcDbLine
 10
5447.083739525321
 20
2988.36946616708
 30
0.0
 11
5496.383739525322
 21
2988.36946616708
 31
0.0
  0
LINE
  5
7C85
330
81EA
100
AcDbEntity
  8
1
100
AcDbLine
 10
5447.083739525321
 20
2838.36946616708
 30
0.0
 11
5496.383739525322
 21
2838.36946616708
 31
0.0
  0
ARC
  5
7C86
330
81EA
100
AcDbEntity
  8
1
100
AcDbCircle
 10
5574.083739525324
 20
2978.369466167081
 30
0.0
 40
10.0
100
AcDbArc
 50
0.0000000000006514
 51
90.0
  0
ARC
  5
7C87
330
81EA
100
AcDbEntity
  8
1
100
AcDbCircle
 10
5574.083739525322
 20
2848.36946616708
 30
0.0
 40
10.0
100
AcDbArc
 50
270.0
 51
0.0000000000006514
  0
LINE
  5
7C88
330
81EA
100
AcDbEntity
  8
1
100
AcDbLine
 10
5496.383739525321
 20
2988.36946616708
 30
0.0
 11
5574.08373952532
 21
2988.36946616708
 31
0.0
  0
LINE
  5
7C89
330
81EA
100
AcDbEntity
  8
1
100
AcDbLine
 10
5496.383739525322
 20
2838.36946616708
 30
0.0
 11
5574.083739525322
 21
2838.36946616708
 31
0.0
  0
LINE
  5
7C8A
330
81EA
100
AcDbEntity
  8
1
100
AcDbLine
 10
3881.083739525323
 20
3179.269466167079
 30
0.0
 11
3991.083739525322
 21
3179.269466167079
 31
0.0
  0
LINE
  5
7C8B
330
81EA
100
AcDbEntity
  8
1
100
AcDbLine
 10
3881.083739525323
 20
2849.06946616708
 30
0.0
 11
3991.083739525322
 21
2849.06946616708
 31
0.0
  0
LINE
  5
7C8C
330
81EA
100
AcDbEntity
  8
1
100
AcDbLine
 10
3881.083739525323
 20
2568.27231639266
 30
0.0
 11
3991.083739525322
 21
2568.27231639266
 31
0.0
  0
LINE
  5
7C8D
330
81EA
100
AcDbEntity
  8
1
100
AcDbLine
 10
3881.083739525323
 20
2339.672316392659
 30
0.0
 11
3991.083739525322
 21
2339.672316392659
 31
0.0
  0
LINE
  5
7C8E
330
81EA
100
AcDbEntity
  8
1
100
AcDbLine
 10
3881.083739525323
 20
3179.269466167079
 30
0.0
 11
3881.083739525323
 21
2339.672316392659
 31
0.0
  0
LINE
  5
7C8F
330
81EA
100
AcDbEntity
  8
1
100
AcDbLine
 10
3991.083739525322
 20
3179.269466167079
 30
0.0
 11
3991.083739525321
 21
2339.672316392659
 31
0.0
  0
LINE
  5
7C90
330
81EA
100
AcDbEntity
  8
1
100
AcDbLine
 10
3744.083739525316
 20
3294.16946616708
 30
0.0
 11
3744.083739525329
 21
2233.972316392661
 31
0.0
  0
LINE
  5
7C91
330
81EA
100
AcDbEntity
  8
1
100
AcDbLine
 10
3744.083739525316
 20
3294.16946616708
 30
0.0
 11
4036.583739525315
 21
3294.16946616708
 31
0.0
  0
LINE
  5
7C92
330
81EA
100
AcDbEntity
  8
1
100
AcDbLine
 10
3744.083739525325
 20
2233.972316392661
 30
0.0
 11
4036.583739525325
 21
2233.972316392661
 31
0.0
  0
LINE
  5
7C93
330
81EA
100
AcDbEntity
  8
1
100
AcDbLine
 10
4036.583739525315
 20
3294.169466167082
 30
0.0
 11
4036.583739525315
 21
3274.16946616708
 31
0.0
  0
LINE
  5
7C94
330
81EA
100
AcDbEntity
  8
1
100
AcDbLine
 10
4036.583739525325
 20
2253.97231639266
 30
0.0
 11
4036.583739525325
 21
2233.972316392661
 31
0.0
  0
POINT
  5
7C95
330
81EA
100
AcDbEntity
  8
1
100
AcDbPoint
 10
5584.083739525325
 20
2978.369466167081
 30
0.0
  0
LINE
  5
7C96
330
81EA
100
AcDbEntity
  8
2
100
AcDbLine
 10
1888.497639781775
 20
6377.251315973105
 30
0.0
 11
1888.497639781775
 21
4689.263508402548
 31
0.0
  0
LINE
  5
7C97
330
81EA
100
AcDbEntity
  8
2
100
AcDbLine
 10
2962.497639781777
 20
5783.335754123926
 30
0.0
 11
1126.81742701428
 21
5783.335754123925
 31
0.0
  0
INSERT
  5
7C98
330
81EA
100
AcDbEntity
  8
0
100
AcDbBlockReference
  2
YA_N
 10
3439.312525519781
 20
-2261.498311600258
 30
0.0
  0
LINE
  5
7C9A
330
81EA
100
AcDbEntity
  8
1
100
AcDbLine
 10
3977.083739525323
 20
1914.169466167079
 30
0.0
 11
5482.083739525322
 21
1914.169466167079
 31
0.0
1001
ACAD
1000
ASC_BOUNDS
1002
{
1070
    19
1002
}
  0
LINE
  5
7C9B
330
81EA
100
AcDbEntity
  8
1
100
AcDbLine
 10
5482.083739525322
 20
2219.169466167079
 30
0.0
 11
5482.083739525322
 21
2119.169466167079
 31
0.0
  0
LINE
  5
7C9C
330
81EA
100
AcDbEntity
  8
1
100
AcDbLine
 10
3977.083739525321
 20
2219.169466167079
 30
0.0
 11
3977.083739525321
 21
2119.169466167079
 31
0.0
  0
LINE
  5
7C9D
330
81EA
100
AcDbEntity
  8
1
100
AcDbLine
 10
4111.783739525321
 20
2981.96946616708
 30
0.0
 11
4046.083739525323
 21
2981.96946616708
 31
0.0
  0
LINE
  5
7C9E
330
81EA
100
AcDbEntity
  8
1
100
AcDbLine
 10
4111.78373952532
 20
2831.96946616708
 30
0.0
 11
4046.08373952532
 21
2831.96946616708
 31
0.0
  0
LINE
  5
7C9F
330
81EA
100
AcDbEntity
  8
1
100
AcDbLine
 10
4161.083739525321
 20
2981.96946616708
 30
0.0
 11
4161.083739525322
 21
2831.96946616708
 31
0.0
  0
LINE
  5
7CA0
330
81EA
100
AcDbEntity
  8
1
100
AcDbLine
 10
4161.083739525322
 20
2831.96946616708
 30
0.0
 11
4111.78373952532
 21
2831.96946616708
 31
0.0
  0
LINE
  5
7CA1
330
81EA
100
AcDbEntity
  8
1
100
AcDbLine
 10
4161.083739525322
 20
2981.969466167079
 30
0.0
 11
4111.78373952532
 21
2981.96946616708
 31
0.0
  0
LINE
  5
7CA2
330
81EA
100
AcDbEntity
  8
1
100
AcDbLine
 10
4036.083739525323
 20
2971.96946616708
 30
0.0
 11
4036.083739525323
 21
2841.969466167081
 31
0.0
  0
ARC
  5
7CA3
330
81EA
100
AcDbEntity
  8
1
100
AcDbCircle
 10
4046.08373952532
 20
2841.969466167081
 30
0.0
 40
10.0
100
AcDbArc
 50
179.9999999999992
 51
270.0
  0
ARC
  5
7CA4
330
81EA
100
AcDbEntity
  8
1
100
AcDbCircle
 10
4046.083739525319
 20
2971.96946616708
 30
0.0
 40
10.0
100
AcDbArc
 50
90.0
 51
179.9999999999992
  0
POINT
  5
7CA5
330
81EA
100
AcDbEntity
  8
1
100
AcDbPoint
 10
4036.083739525319
 20
2971.96946616708
 30
0.0
  0
LINE
  5
7CA6
330
81EA
100
AcDbEntity
  8
1
100
AcDbLine
 10
4001.083739525323
 20
3046.669466167079
 30
0.0
 11
4179.083739525321
 21
3046.66946616708
 31
0.0
  0
LINE
  5
7CA7
330
81EA
100
AcDbEntity
  8
1
100
AcDbLine
 10
4001.083739525323
 20
2981.66946616708
 30
0.0
 11
4043.652690369088
 21
2981.66946616708
 31
0.0
  0
LINE
  5
7CA8
330
81EA
100
AcDbEntity
  8
1
100
AcDbLine
 10
4001.083739525323
 20
3046.669466167079
 30
0.0
 11
4001.083739525323
 21
2981.66946616708
 31
0.0
  0
LINE
  5
7CA9
330
81EA
100
AcDbEntity
  8
1
100
AcDbLine
 10
3991.083739525322
 20
3044.16946616708
 30
0.0
 11
4001.083739525323
 21
3044.16946616708
 31
0.0
  0
LINE
  5
7CAA
330
81EA
100
AcDbEntity
  8
1
100
AcDbLine
 10
3991.083739525322
 20
2984.16946616708
 30
0.0
 11
4001.083739525323
 21
2984.16946616708
 31
0.0
  0
LINE
  5
7CAE
330
81EA
100
AcDbEntity
  8
1
100
AcDbLine
 10
3313.497639781775
 20
2219.169466167079
 30
0.0
 11
3313.497639781775
 21
2119.169466167079
 31
0.0
  0
LINE
  5
7CAF
330
81EA
100
AcDbEntity
  8
1
100
AcDbLine
 10
3313.497639781775
 20
2014.169466167079
 30
0.0
 11
3313.497639781775
 21
1914.169466167078
 31
0.0
  0
POINT
  5
7CB0
330
81EA
100
AcDbEntity
  8
1
100
AcDbPoint
 10
1263.497639781775
 20
2014.169466167079
 30
0.0
  0
POINT
  5
7CB1
330
81EA
100
AcDbEntity
  8
1
100
AcDbPoint
 10
1263.497639781775
 20
2119.169466167079
 30
0.0
  0
POINT
  5
7CB2
330
81EA
100
AcDbEntity
  8
1
100
AcDbPoint
 10
1263.497639781775
 20
2014.169466167079
 30
0.0
  0
LINE
  5
7CB6
330
81EA
100
AcDbEntity
  8
1
100
AcDbLine
 10
3313.497639781775
 20
4956.335754123926
 30
0.0
 11
1263.497639781775
 21
4956.335754123924
 31
0.0
  0
LINE
  5
7CB7
330
81EA
100
AcDbEntity
  8
1
100
AcDbLine
 10
2513.497639781775
 20
6461.335754123926
 30
0.0
 11
1263.497639781775
 21
6461.335754123926
 31
0.0
  0
LINE
  5
7CB8
330
81EA
100
AcDbEntity
  8
1
100
AcDbLine
 10
1263.497639781775
 20
6461.335754123926
 30
0.0
 11
1263.497639781775
 21
6408.335754123922
 31
0.0
  0
LINE
  5
7CB9
330
81EA
100
AcDbEntity
  8
1
100
AcDbLine
 10
3313.497639781775
 20
5806.335754123927
 30
0.0
 11
3313.497639781775
 21
4956.335754123926
 31
0.0
  0
LINE
  5
7CBA
330
81EA
100
AcDbEntity
  8
1
100
AcDbLine
 10
2513.497639781775
 20
6461.335754123926
 30
0.0
 11
2513.497639781775
 21
6408.335754123925
 31
0.0
  0
LINE
  5
7CBB
330
81EA
100
AcDbEntity
  8
1
100
AcDbLine
 10
3313.497639781775
 20
5806.335754123924
 30
0.0
 11
2962.497639781777
 21
5806.335754123924
 31
0.0
  0
LINE
  5
7CBC
330
81EA
100
AcDbEntity
  8
2
100
AcDbLine
 10
3038.497639781776
 20
5700.371117812299
 30
0.0
 11
3038.497639781776
 21
4691.637873033618
 31
0.0
  0
DIMENSION
  5
7CBD
330
81EA
100
AcDbEntity
  8
3
100
AcDbDimension
  2
*D6
 10
1263.497639781775
 20
6682.639691351642
 30
0.0
 11
1888.497639781775
 21
6682.639691351642
 31
0.0
 12
728.3319491905822
 22
2085.304154762685
 32
0.0
 70
   128
 71
     5
 42
-1.0
  3
Standard
100
AcDbAlignedDimension
 13
2513.497639781775
 23
6461.335754123926
 33
0.0
 14
1263.497639781775
 24
6461.335754123926
 34
0.0
100
AcDbRotatedDimension
1001
ACAD
1000
DSTYLE
1002
{
1070
    40
1040
30.0
1002
}
  0
DIMENSION
  5
7CBF
330
81EA
100
AcDbEntity
  8
3
100
AcDbDimension
  2
*D8
 10
3535.545707282386
 20
4956.335754123926
 30
0.0
 11
3535.545707282386
 21
5381.335754123925
 31
0.0
 12
728.3319491905822
 22
2085.304154762685
 32
0.0
 70
   128
 71
     5
 42
-1.0
  3
Standard
100
AcDbAlignedDimension
 13
3313.497639781775
 23
5806.335754123927
 33
0.0
 14
3313.497639781775
 24
4956.335754123926
 34
0.0
 50
270.0
100
AcDbRotatedDimension
1001
ACAD
1000
DSTYLE
1002
{
1070
    40
1040
30.0
1002
}
  0
DIMENSION
  5
7CC0
330
81EA
100
AcDbEntity
  8
3
100
AcDbDimension
  2
*D9
 10
864.8535017728409
 20
4956.335754123924
 30
0.0
 11
804.8535017728406
 21
5708.835754123924
 31
0.0
 12
728.3319491905822
 22
2085.304154762685
 32
0.0
 71
     5
 42
-1.0
  3
Standard
100
AcDbAlignedDimension
 13
1263.497639781775
 23
6461.335754123926
 33
0.0
 14
1263.497639781775
 24
4956.335754123924
 34
0.0
 50
270.0
100
AcDbRotatedDimension
1001
ACAD
1000
DSTYLE
1002
{
1070
    40
1040
30.0
1002
}
  0
DIMENSION
  5
7CC4
330
81EA
100
AcDbEntity
  8
3
100
AcDbDimension
  2
*D13
 10
5429.083739525322
 20
3948.164217589009
 30
0.0
 11
4804.083739525322
 21
4008.164217589007
 31
0.0
 12
-80.02088154817101
 22
2386.109163331333
 32
0.0
 71
     5
 42
-1.0
  3
Standard
100
AcDbAlignedDimension
 13
4179.083739525321
 23
3668.483783820716
 33
0.0
 14
5429.083739525322
 24
3665.205231625258
 34
0.0
100
AcDbRotatedDimension
1001
ACAD
1000
DSTYLE
1002
{
1070
    40
1040
30.0
1002
}
  0
DIMENSION
  5
7CC5
330
81EA
100
AcDbEntity
  8
3
100
AcDbDimension
  2
*D14
 10
5773.451959896632
 20
3544.16946616708
 30
0.0
 11
5713.451959896634
 21
3014.16946616708
 31
0.0
 12
-80.02088154817101
 22
2386.109163331333
 32
0.0
  1
\U+03C6<>
 71
     5
 42
-1.0
  3
Standard
100
AcDbAlignedDimension
 13
5434.583739525322
 23
2484.16946616708
 33
0.0
 14
5434.583739525322
 24
3544.16946616708
 34
0.0
 50
90.0
100
AcDbRotatedDimension
1001
ACAD
1000
DSTYLE
1002
{
1070
    40
1040
30.0
1002
}
  0
LINE
  5
7CC6
330
81EA
100
AcDbEntity
  8
2
100
AcDbLine
 10
3714.559828355549
 20
2453.97231639266
 30
0.0
 11
4655.765138191367
 21
2453.97231639266
 31
0.0
  0
ARC
  5
7CC7
330
81EA
100
AcDbEntity
  8
1
100
AcDbCircle
 10
1888.497639781777
 20
3014.169466167079
 30
0.0
 40
280.0
100
AcDbArc
 50
67.34404266857237
 51
252.9700165845115
  0
ARC
  5
7CC8
330
81EA
100
AcDbEntity
  8
1
100
AcDbCircle
 10
3038.497639781776
 20
2454.169466167078
 30
0.0
 40
220.0
100
AcDbArc
 50
252.9700165845115
 51
67.34404266857237
  0
LINE
  5
7CC9
330
81EA
100
AcDbEntity
  8
1
100
AcDbLine
 10
1996.352739012465
 20
3272.563114637661
 30
0.0
 11
3123.240932034459
 21
2656.995897333831
 31
0.0
  0
LINE
  5
7CCA
330
81EA
100
AcDbEntity
  8
1
100
AcDbLine
 10
1806.493449581178
 20
2746.447011394335
 30
0.0
 11
2974.065776052734
 21
2243.618959071218
 31
0.0
  0
LINE
  5
7CCB
330
81EA
100
AcDbEntity
  8
1
100
AcDbLine
 10
1950.94414303788
 20
3167.004161937004
 30
0.0
 11
3081.729834343694
 21
2559.780951925685
 31
0.0
  0
LINE
  5
7CCC
330
81EA
100
AcDbEntity
  8
1
100
AcDbLine
 10
1838.956710460678
 20
2856.677541542348
 30
0.0
 11
3004.200073328707
 21
2344.939445498615
 31
0.0
  0
INSERT
  5
7CCD
330
81EA
100
AcDbEntity
  8
0
100
AcDbBlockReference
  2
YA_N
 10
742.6405419924267
 20
-7350.772430041375
 30
0.0
  0
INSERT
  5
7CCF
330
81EA
100
AcDbEntity
  8
0
100
AcDbBlockReference
  2
YA_N
 10
2.995684825677016
 20
-7626.802696743742
 30
0.0
 41
20.0
 42
20.0
 43
20.0
  0
INSERT
  5
7CD1
330
81EA
100
AcDbEntity
  8
0
100
AcDbBlockReference
  2
YA_N
 10
699.9059132844049
 20
-7054.118742438055
 30
0.0
 41
20.0
 42
20.0
 43
20.0
  0
INSERT
  5
7CD3
330
81EA
100
AcDbEntity
  8
0
100
AcDbBlockReference
  2
YA_N
 10
814.1254386385663
 20
-7130.460452277301
 30
0.0
 41
20.0
 42
20.0
 43
20.0
  0
ARC
  5
7CD5
330
81EA
100
AcDbEntity
  8
1
100
AcDbCircle
 10
1888.497639781777
 20
3014.169466167079
 30
0.0
 40
599.0
100
AcDbArc
 50
85.78750092208547
 51
90.00000000000005
  0
CIRCLE
  5
7CD6
330
81EA
100
AcDbEntity
  8
1
100
AcDbCircle
 10
1888.497639781777
 20
3014.169466167079
 30
0.0
 40
530.0
  0
CIRCLE
  5
7CD7
330
81EA
100
AcDbEntity
  8
1
100
AcDbCircle
 10
1888.497639781777
 20
3014.169466167079
 30
0.0
 40
580.0
  0
LINE
  5
7CD8
330
81EA
100
AcDbEntity
  8
1
100
AcDbLine
 10
5482.083739525322
 20
2014.16946616708
 30
0.0
 11
5482.083739525322
 21
1914.169466167079
 31
0.0
  0
LINE
  5
7CD9
330
81EA
100
AcDbEntity
  8
1
100
AcDbLine
 10
3977.083739525321
 20
2014.16946616708
 30
0.0
 11
3977.083739525323
 21
1914.169466167079
 31
0.0
  0
LINE
  5
7CDA
330
81EA
100
AcDbEntity
  8
1
100
AcDbLine
 10
3258.497639781776
 20
4723.335754123925
 30
0.0
 11
1608.497639781777
 21
4723.335754123922
 31
0.0
  0
LINE
  5
7CDB
330
81EA
100
AcDbEntity
  8
1
100
AcDbLine
 10
3258.497639781776
 20
5043.335754123926
 30
0.0
 11
1608.497639781777
 21
5043.335754123924
 31
0.0
  0
LINE
  5
7CDC
330
81EA
100
AcDbEntity
  8
1
100
AcDbLine
 10
1608.497639781777
 20
4723.335754123922
 30
0.0
 11
1608.497639781777
 21
5043.335754123924
 31
0.0
  0
LINE
  5
7CDD
330
81EA
100
AcDbEntity
  8
1
100
AcDbLine
 10
3258.497639781776
 20
4723.335754123925
 30
0.0
 11
3258.497639781776
 21
5043.335754123926
 31
0.0
  0
LINE
  5
7CDE
330
81EA
100
AcDbEntity
  8
1
100
AcDbLine
 10
3152.797639781776
 20
4888.335754123925
 30
0.0
 11
3152.797639781776
 21
4998.335754123925
 31
0.0
  0
LINE
  5
7CDF
330
81EA
100
AcDbEntity
  8
1
100
AcDbLine
 10
2924.197639781776
 20
4888.335754123924
 30
0.0
 11
2924.197639781776
 21
4998.335754123925
 31
0.0
  0
LINE
  5
7CE0
330
81EA
100
AcDbEntity
  8
1
100
AcDbLine
 10
1723.397639781777
 20
4888.335754123924
 30
0.0
 11
1723.397639781777
 21
4998.335754123924
 31
0.0
  0
LINE
  5
7CE1
330
81EA
100
AcDbEntity
  8
1
100
AcDbLine
 10
2053.597639781777
 20
4888.335754123924
 30
0.0
 11
2053.597639781777
 21
4998.335754123924
 31
0.0
  0
LINE
  5
7CE2
330
81EA
100
AcDbEntity
  8
1
100
AcDbLine
 10
3152.797639781776
 20
4998.335754123925
 30
0.0
 11
2924.197639781776
 21
4998.335754123925
 31
0.0
  0
LINE
  5
7CE3
330
81EA
100
AcDbEntity
  8
1
100
AcDbLine
 10
3152.797639781776
 20
4888.335754123925
 30
0.0
 11
2924.197639781776
 21
4888.335754123925
 31
0.0
  0
LINE
  5
7CE4
330
81EA
100
AcDbEntity
  8
1
100
AcDbLine
 10
2053.597639781777
 20
4888.335754123924
 30
0.0
 11
1723.397639781777
 21
4888.335754123924
 31
0.0
  0
LINE
  5
7CE5
330
81EA
100
AcDbEntity
  8
1
100
AcDbLine
 10
2053.597639781777
 20
4998.335754123924
 30
0.0
 11
1723.397639781777
 21
4998.335754123924
 31
0.0
  0
LINE
  5
7CE6
330
81EA
100
AcDbEntity
  8
1
100
AcDbLine
 10
2855.997639781776
 20
5158.335754123924
 30
0.0
 11
2855.997639781776
 21
5003.335754123924
 31
0.0
  0
LINE
  5
7CE7
330
81EA
100
AcDbEntity
  8
1
100
AcDbLine
 10
3220.997639781776
 20
5564.835754123926
 30
0.0
 11
3220.997639781776
 21
5003.335754123924
 31
0.0
  0
LINE
  5
7CE8
330
81EA
100
AcDbEntity
  8
1
100
AcDbLine
 10
3220.997639781776
 20
5564.835754123926
 30
0.0
 11
2962.497639781777
 21
5564.835754123926
 31
0.0
  0
LINE
  5
7CE9
330
81EA
100
AcDbEntity
  8
1
100
AcDbLine
 10
3220.997639781776
 20
5003.335754123924
 30
0.0
 11
2855.997639781776
 21
5003.335754123924
 31
0.0
  0
LINE
  5
7CEA
330
81EA
100
AcDbEntity
  8
1
100
AcDbLine
 10
3014.497639781776
 20
5003.335754123924
 30
0.0
 11
3014.497639781776
 21
4998.335754123925
 31
0.0
  0
LINE
  5
7CEB
330
81EA
100
AcDbEntity
  8
1
100
AcDbLine
 10
3062.497639781776
 20
5003.335754123924
 30
0.0
 11
3062.497639781776
 21
4998.335754123925
 31
0.0
  0
LINE
  5
7CEC
330
81EA
100
AcDbEntity
  8
1
100
AcDbLine
 10
4557.583739525322
 20
2636.47231639266
 30
0.0
 11
3996.083739525323
 21
2636.47231639266
 31
0.0
  0
LINE
  5
7CED
330
81EA
100
AcDbEntity
  8
1
100
AcDbLine
 10
4557.583739525322
 20
2271.47231639266
 30
0.0
 11
3996.083739525323
 21
2271.47231639266
 31
0.0
  0
LINE
  5
7CEE
330
81EA
100
AcDbEntity
  8
1
100
AcDbLine
 10
3996.083739525323
 20
2636.47231639266
 30
0.0
 11
3996.083739525323
 21
2271.47231639266
 31
0.0
  0
LINE
  5
7CEF
330
81EA
100
AcDbEntity
  8
1
100
AcDbLine
 10
3996.083739525323
 20
2477.97231639266
 30
0.0
 11
3991.083739525322
 21
2477.97231639266
 31
0.0
  0
LINE
  5
7CF0
330
81EA
100
AcDbEntity
  8
1
100
AcDbLine
 10
3996.083739525323
 20
2429.97231639266
 30
0.0
 11
3991.083739525322
 21
2429.97231639266
 31
0.0
  0
LINE
  5
7CF3
330
81EA
100
AcDbEntity
  8
1
100
AcDbLine
 10
2962.497639781777
 20
5158.335754123922
 30
0.0
 11
1168.497639781776
 21
5158.335754123922
 31
0.0
  0
LINE
  5
7CF4
330
81EA
100
AcDbEntity
  8
1
100
AcDbLine
 10
2962.497639781777
 20
6408.335754123925
 30
0.0
 11
1168.497639781776
 21
6408.335754123925
 31
0.0
  0
LINE
  5
7CF8
330
81EA
100
AcDbEntity
  8
1
100
AcDbLine
 10
1855.997639781775
 20
5158.335754123925
 30
0.0
 11
1855.997639781775
 21
4998.335754123925
 31
0.0
  0
LINE
  5
7CF9
330
81EA
100
AcDbEntity
  8
1
100
AcDbLine
 10
1920.997639781775
 20
5158.335754123925
 30
0.0
 11
1920.997639781775
 21
4998.335754123925
 31
0.0
  0
LINE
  5
7CFA
330
81EA
100
AcDbEntity
  8
1
100
AcDbLine
 10
4161.083739525321
 20
2981.66946616708
 30
0.0
 11
4179.083739525321
 21
2981.66946616708
 31
0.0
  0
DIMENSION
  5
7CFB
330
81EA
100
AcDbEntity
  8
3
100
AcDbDimension
  2
*D15
 10
3313.497639781775
 20
6682.639691351642
 30
0.0
 11
2913.497639781775
 21
6742.639691351644
 31
0.0
 12
728.3319491905822
 22
2085.304154762685
 32
0.0
 71
     5
 42
-1.0
  3
Standard
100
AcDbAlignedDimension
 13
2513.497639781775
 23
6461.335754123926
 33
0.0
 14
3313.497639781775
 24
5806.335754123924
 34
0.0
100
AcDbRotatedDimension
1001
ACAD
1000
DSTYLE
1002
{
1070
    40
1040
30.0
1002
}
  0
DIMENSION
  5
7D03
330
81EA
100
AcDbEntity
  8
3
100
AcDbDimension
  2
*D17
 10
901.8037711084852
 20
3014.169466167079
 30
0.0
 11
841.8037711084853
 21
3354.169466167081
 31
0.0
 12
728.3319491905822
 22
2386.109163331333
 32
0.0
 71
     5
 42
-1.0
  3
Standard
100
AcDbAlignedDimension
 13
1888.497639781777
 23
3694.169466167082
 33
0.0
 14
1148.881657284148
 24
3014.169466167079
 34
0.0
 50
270.0
100
AcDbRotatedDimension
1001
ACAD
1000
DSTYLE
1002
{
1070
    40
1040
30.0
1002
}
  0
DIMENSION
  5
7D08
330
81EA
100
AcDbEntity
  8
3
100
AcDbDimension
  2
*D21
 10
3313.497639781775
 20
4271.180448599069
 30
0.0
 11
2240.997639781775
 21
4331.180448599069
 31
0.0
 12
728.3319491905822
 22
2386.109163331333
 32
0.0
 71
     5
 42
-1.0
  3
Standard
100
AcDbAlignedDimension
 13
1168.497639781776
 23
2940.169466167081
 33
0.0
 14
3313.497639781775
 24
2218.97231639266
 34
0.0
100
AcDbRotatedDimension
1001
ACAD
1000
DSTYLE
1002
{
1070
    40
1040
30.0
1002
}
  0
LINE
  5
7D09
330
81EA
100
AcDbEntity
  8
1
100
AcDbLine
 10
4804.083739525322
 20
3690.16946616708
 30
0.0
 11
4139.083739525321
 21
3690.16946616708
 31
0.0
  0
LINE
  5
7D0A
330
81EA
100
AcDbEntity
  8
1
100
AcDbLine
 10
4804.083739525322
 20
3690.16946616708
 30
0.0
 11
5469.083739525324
 21
3690.16946616708
 31
0.0
  0
LINE
  5
7D0B
330
81EA
100
AcDbEntity
  8
1
100
AcDbLine
 10
4139.083739525321
 20
3694.16946616708
 30
0.0
 11
4139.083739525321
 21
3690.16946616708
 31
0.0
  0
LINE
  5
7D0C
330
81EA
100
AcDbEntity
  8
1
100
AcDbLine
 10
5469.083739525324
 20
3694.16946616708
 30
0.0
 11
5469.083739525322
 21
3690.169466167079
 31
0.0
  0
LINE
  5
7D0D
330
81EA
100
AcDbEntity
  8
1
100
AcDbLine
 10
4557.583739525322
 20
2636.47231639266
 30
0.0
 11
4557.583739525322
 21
2271.47231639266
 31
0.0
  0
LINE
  5
7D0E
330
81EA
100
AcDbEntity
  8
1
100
AcDbLine
 10
4485.783470339291
 20
2271.47231639266
 30
0.0
 11
4485.783470339291
 21
2219.169466167079
 31
0.0
  0
LINE
  5
7D0F
330
81EA
100
AcDbEntity
  8
1
100
AcDbLine
 10
4080.093704145837
 20
2271.47231639266
 30
0.0
 11
4080.093704145837
 21
2219.169466167079
 31
0.0
  0
LINE
  5
7F3A
330
81EA
100
AcDbEntity
  8
4
100
AcDbLine
 10
5550.0
 20
1210.115599408851
 30
0.0
 11
5550.0
 21
610.1155994088513
 31
0.0
  0
LINE
  5
7F3B
330
81EA
100
AcDbEntity
  8
4
100
AcDbLine
 10
3450.0
 20
1210.115599408851
 30
0.0
 11
3450.0
 21
610.1155994088513
 31
0.0
  0
LINE
  5
7F3C
330
81EA
100
AcDbEntity
  8
4
100
AcDbLine
 10
1950.0
 20
1210.115599408851
 30
0.0
 11
1950.0
 21
610.1155994088513
 31
0.0
  0
LINE
  5
7F3F
330
81EA
100
AcDbEntity
  8
4
100
AcDbLine
 10
1950.0
 20
610.1155994088513
 30
0.0
 11
5550.0
 21
610.1155994088513
 31
0.0
  0
LINE
  5
7F40
330
81EA
100
AcDbEntity
  8
4
100
AcDbLine
 10
1950.0
 20
910.1155994088513
 30
0.0
 11
5550.0
 21
910.1155994088513
 31
0.0
  0
TEXT
  5
7F41
330
81EA
100
AcDbEntity
  8
4
100
AcDbText
 10
2065.506242540704
 20
1004.74467700869
 30
0.0
 40
150.0
  1
機器名称
100
AcDbText
  0
TEXT
  5
7F42
330
81EA
100
AcDbEntity
  8
4
100
AcDbText
 10
2058.774318074392
 20
675.0510696048841
 30
0.0
 40
150.0
  1
機器型番
100
AcDbText
  0
TEXT
  5
7F43
330
81EA
100
AcDbEntity
  8
4
100
AcDbText
 10
3533.036236462995
 20
977.8309062815567
 30
0.0
 40
150.0
  1
ミツヤ多翼送風機
100
AcDbText
  0
TEXT
  5
7F44
330
81EA
100
AcDbEntity
  8
4
100
AcDbText
 10
3559.963486756442
 20
661.5943522486814
 30
0.0
 40
150.0
  1
MF#6-5
100
AcDbText
  0
TEXT
  5
7F46
330
81EA
100
AcDbEntity
  8
4
100
AcDbText
 10
2334.165810534461
 20
7150.286523997547
 30
0.0
 40
161.9999999999998
  1
床置防振ベット
100
AcDbText
  0
TEXT
  5
7F47
330
81EA
100
AcDbEntity
  8
4
100
AcDbText
 10
948.5027799883393
 20
7601.642928597894
 30
0.0
 40
216.0
  1
遠心式両吸込両持多翼ファン
100
AcDbText
  0
LINE
  5
7F48
330
81EA
100
AcDbEntity
  8
4
100
AcDbLine
 10
750.0
 20
7408.226262794413
 30
0.0
 11
5550.0
 21
7408.226262794413
 31
0.0
  0
LINE
  5
7F49
330
81EA
100
AcDbEntity
  8
4
100
AcDbLine
 10
750.0
 20
8008.226262794414
 30
0.0
 11
5550.0
 21
8008.226262794414
 31
0.0
  0
LINE
  5
7F4A
330
81EA
100
AcDbEntity
  8
4
100
AcDbLine
 10
1950.0
 20
1210.115599408851
 30
0.0
 11
5550.0
 21
1210.115599408851
 31
0.0
  0
LINE
  5
7F4B
330
81EA
100
AcDbEntity
  8
4
100
AcDbLine
 10
750.0
 20
8008.226262794414
 30
0.0
 11
750.0
 21
7408.226262794413
 31
0.0
  0
TEXT
  5
7F4C
330
81EA
100
AcDbEntity
  8
4
100
AcDbText
 10
1026.589313806354
 20
7146.958432639029
 30
0.0
 40
161.9999999999998
  1
左回転上向
100
AcDbText
  0
TEXT
  5
7F4D
330
81EA
100
AcDbEntity
  8
4
100
AcDbText
 10
4406.908677747869
 20
8118.183244485924
 30
0.0
 40
168.0
  1
No.
100
AcDbText
  0
TEXT
  5
7F4E
330
81EA
100
AcDbEntity
  8
4
100
AcDbText
 10
3933.888187800039
 20
7150.286523997547
 30
0.0
 40
161.9999999999998
  1
縮尺：1/30
100
AcDbText
  0
LINE
  5
7F4F
330
81EA
100
AcDbEntity
  8
4
100
AcDbLine
 10
5550.0
 20
8008.226262794414
 30
0.0
 11
5550.0
 21
7408.226262794413
 31
0.0
  0
LINE
  5
7F50
330
81EA
100
AcDbEntity
  8
4
100
AcDbLine
 10
6300.0
 20
8850.0
 30
0.0
 11
6300.0
 21
8850.0
 31
0.0
  0
LINE
  5
7F51
330
81EA
100
AcDbEntity
  8
4
100
AcDbLine
 10
4321.852267079594
 20
8043.790749376205
 30
0.0
 11
4321.852267079594
 21
8359.956784649257
 31
0.0
  0
LINE
  5
7F52
330
81EA
100
AcDbEntity
  8
4
100
AcDbLine
 10
4321.852267079594
 20
8359.956784649257
 30
0.0
 11
5550.0
 21
8359.956784649257
 31
0.0
  0
LINE
  5
7F53
330
81EA
100
AcDbEntity
  8
4
100
AcDbLine
 10
5550.0
 20
8359.956784649257
 30
0.0
 11
5550.0
 21
8043.790749376205
 31
0.0
  0
LINE
  5
7F54
330
81EA
100
AcDbEntity
  8
4
100
AcDbLine
 10
5550.0
 20
8043.790749376205
 30
0.0
 11
4321.852267079594
 21
8043.790749376205
 31
0.0
  0
LINE
  5
7F55
330
81EA
100
AcDbEntity
  8
4
100
AcDbLine
 10
0.0
 20
0.0
 30
0.0
 11
0.0
 21
8850.0
 31
0.0
  0
LINE
  5
7F56
330
81EA
100
AcDbEntity
  8
4
100
AcDbLine
 10
0.0
 20
8850.0
 30
0.0
 11
6300.0
 21
8850.0
 31
0.0
  0
LINE
  5
7F57
330
81EA
100
AcDbEntity
  8
4
100
AcDbLine
 10
6300.0
 20
8850.0
 30
0.0
 11
6300.0
 21
0.0
 31
0.0
  0
LINE
  5
7F58
330
81EA
100
AcDbEntity
  8
4
100
AcDbLine
 10
6300.0
 20
0.0
 30
0.0
 11
0.0
 21
0.0
 31
0.0
  0
LINE
  5
80E9
330
81EA
100
AcDbEntity
  8
1
100
AcDbLine
 10
2962.497639781777
 20
5158.335754123922
 30
0.0
 11
2962.497639781777
 21
6408.335754123925
 31
0.0
  0
LINE
  5
80EA
330
81EA
100
AcDbEntity
  8
1
100
AcDbLine
 10
1932.497639781777
 20
5158.335754123924
 30
0.0
 11
1932.497639781777
 21
6408.335754123925
 31
0.0
  0
LINE
  5
80EB
330
81EA
100
AcDbEntity
  8
1
100
AcDbLine
 10
1168.497639781776
 20
5158.335754123924
 30
0.0
 11
1168.497639781776
 21
6408.335754123925
 31
0.0
  0
LINE
  5
80EC
330
81EA
100
AcDbEntity
  8
1
100
AcDbLine
 10
1263.497639781775
 20
5158.335754123924
 30
0.0
 11
1263.497639781775
 21
4956.335754123924
 31
0.0
  0
LINE
  5
80ED
330
81EA
100
AcDbEntity
  8
1
100
AcDbLine
 10
1932.497639781777
 20
5158.335754123924
 30
0.0
 11
2962.497639781777
 21
6408.335754123925
 31
0.0
  0
LINE
  5
80EE
330
81EA
100
AcDbEntity
  8
1
100
AcDbLine
 10
1932.497639781777
 20
6408.335754123925
 30
0.0
 11
2962.497639781777
 21
5158.335754123922
 31
0.0
  0
DIMENSION
  5
8235
330
81EA
100
AcDbEntity
  8
3
100
AcDbDimension
  2
*D29
 10
4804.083739525322
 20
4254.133992964042
 30
0.0
 11
4274.083739525319
 21
4352.70542153547
 31
0.0
 70
    32
 71
     5
 42
1060.000000000006
  3
IGA
100
AcDbAlignedDimension
 13
3744.083739525316
 23
3294.16946616708
 33
0.0
 14
4804.083739525322
 24
4053.164217589007
 34
0.0
100
AcDbRotatedDimension
1001
ACAD
1000
DSTYLE
1002
{
1070
     3
1000
(<>)
1070
    40
1040
30.0
1070
    42
1040
1.0
1070
   143
1040
0.039
1070
   172
1070
     1
1070
   271
1070
     4
1070
   272
1070
     4
1070
   279
1070
     0
1070
   284
1070
     0
1070
   285
1070
     0
1070
   286
1070
     0
1070
   341
1005
81FE
1070
   343
1005
81FE
1070
   344
1005
81FE
1002
}
  0
DIMENSION
  5
8242
330
81EA
100
AcDbEntity
  8
3
100
AcDbDimension
  2
*D30
 10
5584.083739525324
 20
4254.133992964042
 30
0.0
 11
5194.083739525323
 21
4352.70542153547
 31
0.0
 70
    32
 71
     5
 42
780.0000000000018
  3
IGA
100
AcDbAlignedDimension
 13
4804.083739525322
 23
4053.164217589007
 33
0.0
 14
5584.083739525324
 24
2978.369466167081
 34
0.0
100
AcDbRotatedDimension
1001
ACAD
1000
DSTYLE
1002
{
1070
     3
1000
(<>)
1070
    40
1040
30.0
1070
    42
1040
1.0
1070
   143
1040
0.039
1070
   172
1070
     1
1070
   271
1070
     4
1070
   272
1070
     4
1070
   279
1070
     1
1070
   284
1070
     0
1070
   285
1070
     0
1070
   286
1070
     0
1070
   341
1005
81FE
1070
   343
1005
81FE
1070
   344
1005
81FE
1002
}
  0
DIMENSION
  5
8283
330
81EA
100
AcDbEntity
  8
3
100
AcDbDimension
  2
*D32
 10
3313.497639781775
 20
4531.558611755321
 30
0.0
 11
2288.497639781775
 21
4606.55861175532
 31
0.0
 70
    32
 71
     5
 42
2050.0
  3
IGA
100
AcDbAlignedDimension
 13
1263.497639781775
 23
4956.335754123924
 33
0.0
 14
3313.497639781775
 24
4956.335754123926
 34
0.0
100
AcDbRotatedDimension
1001
ACAD
1000
DSTYLE
1002
{
1070
    40
1040
30.0
1070
    42
1040
1.0
1070
   143
1040
0.039
1070
   172
1070
     1
1070
   271
1070
     4
1070
   272
1070
     4
1070
   279
1070
     0
1070
   284
1070
     0
1070
   285
1070
     0
1070
   286
1070
     0
1070
   341
1005
81FE
1070
   343
1005
81FE
1070
   344
1005
81FE
1002
}
  0
DIMENSION
  5
8290
330
81EA
100
AcDbEntity
  8
3
100
AcDbDimension
  2
*D33
 10
1168.497639781776
 20
4096.131608620377
 30
0.0
 11
1528.497639781776
 21
4171.131608620377
 31
0.0
 70
    32
 71
     5
 42
720.0000000000009
  3
IGA
100
AcDbAlignedDimension
 13
1888.497639781777
 23
3733.826000116309
 33
0.0
 14
1168.497639781776
 24
2940.169466167081
 34
0.0
100
AcDbRotatedDimension
1001
ACAD
1000
DSTYLE
1002
{
1070
    40
1040
30.0
1070
    42
1040
1.0
1070
   143
1040
0.039
1070
   172
1070
     1
1070
   271
1070
     4
1070
   272
1070
     4
1070
   279
1070
     0
1070
   284
1070
     0
1070
   285
1070
     0
1070
   286
1070
     0
1070
   341
1005
81FE
1070
   343
1005
81FE
1070
   344
1005
81FE
1002
}
  0
DIMENSION
  5
82FF
330
81EA
100
AcDbEntity
  8
3
100
AcDbDimension
  2
*D41
 10
4804.083739525321
 20
1698.026870346177
 30
0.0
 11
4390.583739525322
 21
1773.026870346177
 31
0.0
 70
    32
 71
     5
 42
826.9999999999987
  3
IGA
100
AcDbAlignedDimension
 13
3977.083739525323
 23
1914.169466167079
 33
0.0
 14
4804.083739525321
 24
1914.169466167079
 34
0.0
100
AcDbRotatedDimension
1001
ACAD
1000
DSTYLE
1002
{
1070
    40
1040
30.0
1070
    42
1040
1.0
1070
   143
1040
0.039
1070
   172
1070
     1
1070
   271
1070
     4
1070
   272
1070
     4
1070
   279
1070
     0
1070
   284
1070
     0
1070
   285
1070
     0
1070
   286
1070
     0
1070
   341
1005
81FE
1070
   343
1005
81FE
1070
   344
1005
81FE
1002
}
  0
DIMENSION
  5
830C
330
81EA
100
AcDbEntity
  8
3
100
AcDbDimension
  2
*D42
 10
5482.083739525322
 20
1698.026870346177
 30
0.0
 11
5143.083739525322
 21
1773.026870346177
 31
0.0
 70
    32
 71
     5
 42
678.0000000000009
  3
IGA
100
AcDbAlignedDimension
 13
4804.083739525321
 23
1914.169466167079
 33
0.0
 14
5482.083739525322
 24
1914.169466167079
 34
0.0
100
AcDbRotatedDimension
1001
ACAD
1000
DSTYLE
1002
{
1070
    40
1040
30.0
1070
    42
1040
1.0
1070
   143
1040
0.039
1070
   172
1070
     1
1070
   271
1070
     4
1070
   272
1070
     4
1070
   279
1070
     1
1070
   284
1070
     0
1070
   285
1070
     0
1070
   286
1070
     0
1070
   341
1005
81FE
1070
   343
1005
81FE
1070
   344
1005
81FE
1002
}
  0
DIMENSION
  5
8319
330
81EA
100
AcDbEntity
  8
3
100
AcDbDimension
  2
*D43
 10
1888.497639781776
 20
1697.962743805572
 30
0.0
 11
1575.997639781775
 21
1772.962743805572
 31
0.0
 70
    32
 71
     5
 42
625.0000000000011
  3
IGA
100
AcDbAlignedDimension
 13
1263.497639781775
 23
1913.97231639266
 33
0.0
 14
1888.497639781776
 24
1913.97231639266
 34
0.0
100
AcDbRotatedDimension
1001
ACAD
1000
DSTYLE
1002
{
1070
    40
1040
30.0
1070
    42
1040
1.0
1070
   143
1040
0.039
1070
   172
1070
     1
1070
   271
1070
     4
1070
   272
1070
     4
1070
   279
1070
     0
1070
   284
1070
     0
1070
   285
1070
     0
1070
   286
1070
     0
1070
   341
1005
81FE
1070
   343
1005
81FE
1070
   344
1005
81FE
1002
}
  0
DIMENSION
  5
8326
330
81EA
100
AcDbEntity
  8
3
100
AcDbDimension
  2
*D44
 10
3313.497639781775
 20
1697.962743805572
 30
0.0
 11
2600.997639781776
 21
1772.962743805572
 31
0.0
 70
    32
 71
     5
 42
1424.999999999999
  3
IGA
100
AcDbAlignedDimension
 13
1888.497639781776
 23
1913.97231639266
 33
0.0
 14
3313.497639781775
 24
1913.97231639266
 34
0.0
100
AcDbRotatedDimension
1001
ACAD
1000
DSTYLE
1002
{
1070
    40
1040
30.0
1070
    42
1040
1.0
1070
   143
1040
0.039
1070
   172
1070
     1
1070
   271
1070
     4
1070
   272
1070
     4
1070
   279
1070
     1
1070
   284
1070
     0
1070
   285
1070
     0
1070
   286
1070
     0
1070
   341
1005
81FE
1070
   343
1005
81FE
1070
   344
1005
81FE
1002
}
  0
DIMENSION
  5
8336
330
81EA
100
AcDbEntity
  8
3
100
AcDbDimension
  2
*D45
 10
901.8037711084852
 20
2119.169466167079
 30
0.0
 11
826.8037711084849
 21
2566.66946616708
 31
0.0
 70
    32
 71
     5
 42
895.0
  3
IGA
100
AcDbAlignedDimension
 13
1148.881657284148
 23
3014.169466167079
 33
0.0
 14
1263.497639781775
 24
2119.169466167079
 34
0.0
 50
90.0
100
AcDbRotatedDimension
1001
ACAD
1000
DSTYLE
1002
{
1070
    40
1040
30.0
1070
    42
1040
1.0
1070
   143
1040
0.039
1070
   172
1070
     1
1070
   271
1070
     4
1070
   272
1070
     4
1070
   279
1070
     0
1070
   284
1070
     0
1070
   285
1070
     0
1070
   286
1070
     0
1070
   341
1005
81FE
1070
   343
1005
81FE
1070
   344
1005
81FE
1002
}
  0
DIMENSION
  5
8343
330
81EA
100
AcDbEntity
  8
3
100
AcDbDimension
  2
*D46
 10
901.8037711084852
 20
2014.169466167079
 30
0.0
 11
718.1028738066161
 21
2139.740894738508
 31
0.0
 70
   160
  1
(<>)
 71
     5
 42
105.0
  3
IGA
100
AcDbAlignedDimension
 13
1263.497639781775
 23
2119.169466167079
 33
0.0
 14
1263.497639781775
 24
2014.169466167079
 34
0.0
 50
90.0
100
AcDbRotatedDimension
1001
ACAD
1000
DSTYLE
1002
{
1070
    40
1040
30.0
1070
    42
1040
1.0
1070
   143
1040
0.039
1070
   172
1070
     1
1070
   271
1070
     4
1070
   272
1070
     4
1070
   279
1070
     1
1070
   284
1070
     0
1070
   285
1070
     0
1070
   286
1070
     0
1070
   341
1005
81FE
1070
   343
1005
81FE
1070
   344
1005
842F
1002
}
  0
DIMENSION
  5
8355
330
81EA
100
AcDbEntity
  8
3
100
AcDbDimension
  2
*D47
 10
901.8037711084852
 20
1914.169466167078
 30
0.0
 11
924.4014537096081
 21
1769.150597504267
 31
0.0
 70
   160
 71
     5
 42
100.0000000000013
  3
IGA
100
AcDbAlignedDimension
 13
1263.497639781775
 23
2014.169466167079
 33
0.0
 14
1263.497639781775
 24
1914.169466167078
 34
0.0
 50
90.0
100
AcDbRotatedDimension
1001
ACAD
1000
DSTYLE
1002
{
1070
    40
1040
30.0
1070
    42
1040
1.0
1070
   143
1040
0.039
1070
   172
1070
     1
1070
   271
1070
     4
1070
   272
1070
     4
1070
   279
1070
     1
1070
   284
1070
     0
1070
   285
1070
     0
1070
   286
1070
     0
1070
   341
1005
81FE
1070
   343
1005
842F
1070
   344
1005
81FE
1002
}
  0
DIMENSION
  5
8391
330
81EA
100
AcDbEntity
  8
3
100
AcDbDimension
  2
*D48
 10
499.7291227121897
 20
3694.169466167082
 30
0.0
 11
401.1576941407605
 21
2804.16946616708
 31
0.0
 70
    32
  1
(<>)
 71
     5
 42
1780.000000000003
  3
IGA
100
AcDbAlignedDimension
 13
1263.497639781775
 23
1914.169466167078
 33
0.0
 14
1879.497639781776
 24
3694.169466167082
 34
0.0
 50
90.0
100
AcDbRotatedDimension
1001
ACAD
1000
DSTYLE
1002
{
1070
    40
1040
30.0
1070
    42
1040
1.0
1070
   143
1040
0.039
1070
   172
1070
     1
1070
   271
1070
     4
1070
   272
1070
     4
1070
   279
1070
     0
1070
   284
1070
     0
1070
   285
1070
     0
1070
   286
1070
     0
1070
   341
1005
81FE
1070
   343
1005
81FE
1070
   344
1005
81FE
1002
}
  0
ENDSEC
  0
SECTION
  2
OBJECTS
  0
DICTIONARY
  5
8187
330
0
100
AcDbDictionary
281
     1
  3
ACAD_CIP_PREVIOUS_PRODUCT_INFO
350
8234
  3
ACAD_COLOR
350
81DD
  3
ACAD_DETAILVIEWSTYLE
350
81E4
  3
ACAD_GROUP
350
8188
  3
ACAD_LAYOUT
350
81DC
  3
ACAD_MATERIAL
350
818B
  3
ACAD_MLEADERSTYLE
350
81E0
  3
ACAD_MLINESTYLE
350
81D9
  3
ACAD_PLOTSETTINGS
350
81DB
  3
ACAD_PLOTSTYLENAME
350
8189
  3
ACAD_SCALELIST
350
81BD
  3
ACAD_SECTIONVIEWSTYLE
350
81E2
  3
ACAD_TABLESTYLE
350
81DE
  3
ACAD_VISUALSTYLE
350
81A4
  3
ACDB_RECOMPOSE_DATA
350
84C3
  3
AcDbVariableDictionary
350
84B6
  3
DWGPROPS
350
84C4
  0
DICTIONARY
  5
84AC
330
81CF
100
AcDbDictionary
280
     1
281
     1
  3
ADSK_XREC_LAYER_RECONCILED
360
84AD
  0
DICTIONARY
  5
84AE
330
81EE
100
AcDbDictionary
280
     1
281
     1
  3
ADSK_XREC_LAYER_RECONCILED
360
84AF
  0
DICTIONARY
  5
84B0
330
81F1
100
AcDbDictionary
280
     1
281
     1
  3
ADSK_XREC_LAYER_RECONCILED
360
84B1
  0
DICTIONARY
  5
84B2
330
81F2
100
AcDbDictionary
280
     1
281
     1
  3
ADSK_XREC_LAYER_RECONCILED
360
84B3
  0
DICTIONARY
  5
84B4
330
81F3
100
AcDbDictionary
280
     1
281
     1
  3
ADSK_XREC_LAYER_RECONCILED
360
84B5
  0
DICTIONARY
  5
8334
330
81EA
100
AcDbDictionary
280
     1
281
     1
  3
ACAD_SORTENTS
360
8335
  0
XRECORD
  5
8234
102
{ACAD_REACTORS
330
8187
102
}
330
8187
100
AcDbXrecord
280
     1
300
ACDLT
300
2015
300
INVLTS_F_S
  0
DICTIONARY
  5
81DD
102
{ACAD_REACTORS
330
8187
102
}
330
8187
100
AcDbDictionary
281
     1
  0
DICTIONARY
  5
81E4
102
{ACAD_REACTORS
330
8187
102
}
330
8187
100
AcDbDictionary
281
     1
  3
Imperial24
350
81E5
  0
DICTIONARY
  5
8188
102
{ACAD_REACTORS
330
8187
102
}
330
8187
100
AcDbDictionary
281
     1
  0
DICTIONARY
  5
81DC
102
{ACAD_REACTORS
330
8187
102
}
330
8187
100
AcDbDictionary
281
     1
  3
Model
350
81ED
  3
レイアウト1
350
81E9
  0
DICTIONARY
  5
818B
102
{ACAD_REACTORS
330
8187
102
}
330
8187
100
AcDbDictionary
281
     1
  3
ByBlock
350
8194
  3
ByLayer
350
818C
  3
Global
350
819C
  0
DICTIONARY
  5
81E0
102
{ACAD_REACTORS
330
8187
102
}
330
8187
100
AcDbDictionary
281
     1
  3
Standard
350
81E1
  0
DICTIONARY
  5
81D9
102
{ACAD_REACTORS
330
8187
102
}
330
8187
100
AcDbDictionary
281
     1
  3
Standard
350
81DA
  0
DICTIONARY
  5
81DB
102
{ACAD_REACTORS
330
8187
102
}
330
8187
100
AcDbDictionary
281
     1
  0
ACDBDICTIONARYWDFLT
  5
8189
102
{ACAD_REACTORS
330
8187
102
}
330
8187
100
AcDbDictionary
281
     1
  3
Normal
350
818A
100
AcDbDictionaryWithDefault
340
818A
  0
DICTIONARY
  5
81BD
102
{ACAD_REACTORS
330
8187
102
}
330
8187
100
AcDbDictionary
281
     1
  3
A0
350
81BE
  3
A1
350
81BF
  3
A2
350
81C0
  3
A3
350
81C1
  3
A4
350
81C2
  3
A5
350
81C3
  3
A6
350
81C4
  3
A7
350
81C5
  3
A8
350
81C6
  3
A9
350
81C7
  3
B0
350
81C8
  3
B1
350
81C9
  3
B2
350
81CA
  3
B3
350
81CB
  3
B4
350
81CC
  3
B5
350
81CD
  3
B6
350
81CE
  0
DICTIONARY
  5
81E2
102
{ACAD_REACTORS
330
8187
102
}
330
8187
100
AcDbDictionary
281
     1
  3
Imperial24
350
81E3
  0
DICTIONARY
  5
81DE
102
{ACAD_REACTORS
330
8187
102
}
330
8187
100
AcDbDictionary
281
     1
  3
Standard
350
81DF
  0
DICTIONARY
  5
81A4
102
{ACAD_REACTORS
330
8187
102
}
330
8187
100
AcDbDictionary
281
     1
  3
2dWireframe
350
81AA
  3
Basic
350
81A9
  3
Brighten
350
81B0
  3
ColorChange
350
81B4
  3
Conceptual
350
81AD
  3
Dim
350
81AF
  3
EdgeColorOff
350
81BC
  3
Facepattern
350
81B3
  3
Flat
350
81A5
  3
FlatWithEdges
350
81A6
  3
Gouraud
350
81A7
  3
GouraudWithEdges
350
81A8
  3
Hidden
350
81AC
  3
JitterOff
350
81BA
  3
Linepattern
350
81B2
  3
OverhangOff
350
81BB
  3
Realistic
350
81AE
  3
Shaded
350
81B9
  3
Shaded with edges
350
81B8
  3
Shades of Gray
350
81B5
  3
Sketchy
350
81B6
  3
Thicken
350
81B1
  3
Wireframe
350
81AB
  3
X-Ray
350
81B7
  0
XRECORD
  5
84C3
102
{ACAD_REACTORS
330
8187
102
}
330
8187
100
AcDbXrecord
280
     1
 90
        1
330
81DF
  0
DICTIONARY
  5
84B6
102
{ACAD_REACTORS
330
8187
102
}
330
8187
100
AcDbDictionary
281
     1
  3
CANNOSCALE
350
84BB
  3
CMLEADERSTYLE
350
84B8
  3
CTABLESTYLE
350
84B7
  3
CVIEWDETAILSTYLE
350
84B9
  3
CVIEWSECTIONSTYLE
350
84BA
  3
DIMASSOC
350
84BE
  3
INDEXCTL
350
84BD
  3
SORTENTS
350
84BC
  3
XCLIPFRAME
350
84BF
  0
XRECORD
  5
84C4
102
{ACAD_REACTORS
330
8187
102
}
330
8187
100
AcDbXrecord
280
     1
  1
DWGPROPS COOKIE
  2

  3

  4

  6

  7

  8
yasukiyo.ogawa
  9

300
=
301
=
302
=
303
=
304
=
305
=
306
=
307
=
308
=
309
=
 40
0.0246826041666667
 41
2451389.575190046
 42
2460271.747853148
  1

 90
        0
  0
XRECORD
  5
84AD
102
{ACAD_REACTORS
330
84AC
102
}
330
84AC
100
AcDbXrecord
280
     1
290
     1
  0
XRECORD
  5
84AF
102
{ACAD_REACTORS
330
84AE
102
}
330
84AE
100
AcDbXrecord
280
     1
290
     1
  0
XRECORD
  5
84B1
102
{ACAD_REACTORS
330
84B0
102
}
330
84B0
100
AcDbXrecord
280
     1
290
     1
  0
XRECORD
  5
84B3
102
{ACAD_REACTORS
330
84B2
102
}
330
84B2
100
AcDbXrecord
280
     1
290
     1
  0
XRECORD
  5
84B5
102
{ACAD_REACTORS
330
84B4
102
}
330
84B4
100
AcDbXrecord
280
     1
290
     1
  0
SORTENTSTABLE
  5
8335
102
{ACAD_REACTORS
330
8334
102
}
330
8334
100
AcDbSortentsTable
330
81EA
331
8283
  5
8290
331
7C42
  5
7C46
331
7F4D
  5
7F4E
331
7CE4
  5
7CE5
331
7CD3
  5
7CD5
331
7CB1
  5
7CB2
331
7CA0
  5
7CA1
331
7C97
  5
7C98
331
7C86
  5
7C87
331
7C75
  5
7C76
331
7C64
  5
7C65
331
7C31
  5
7C31
331
7F3A
  5
7F3B
331
7CA1
  5
7CA2
331
7C87
  5
7C88
331
7C76
  5
7C77
331
7C65
  5
7C67
331
7C54
  5
7C55
331
7F4E
  5
7F4F
331
7CE5
  5
7CE6
331
7CB2
  5
7CB6
331
7C32
  5
7C32
331
7D08
  5
7D09
331
7F3B
  5
7F3C
331
7CA2
  5
7CA3
331
7C88
  5
7C89
331
7C77
  5
7C78
331
7C55
  5
7C56
331
7F4F
  5
7F50
331
7CE6
  5
7CE7
331
7CD5
  5
7CD6
331
7CC4
  5
7CC5
331
7C33
  5
7C33
331
7F50
  5
7F51
331
80E9
  5
80EA
331
7CF8
  5
7CF9
331
8242
  5
8283
331
7D09
  5
7D0A
331
830C
  5
8319
331
7CA3
  5
7CA4
331
7C89
  5
7C8A
331
7C78
  5
7C7A
331
7C67
  5
7C68
331
7C56
  5
7C59
331
7CE7
  5
7CE8
331
7CD6
  5
7CD7
331
7CC5
  5
7CC6
331
7F3C
  5
7F3F
331
7C34
  5
7C34
331
7F40
  5
7F41
331
7F51
  5
7F52
331
7CE8
  5
7CE9
331
80EA
  5
80EB
331
7D0A
  5
7D0B
331
7CF9
  5
7CFA
331
7CD7
  5
7CD8
331
7CC6
  5
7CC7
331
7CA4
  5
7CA5
331
7C8A
  5
7C8B
331
7C68
  5
7C69
331
7C46
  5
7C47
331
7C35
  5
7C35
331
7F41
  5
7F42
331
7CD8
  5
7CD9
331
7F52
  5
7F53
331
7CE9
  5
7CEA
331
80EB
  5
80EC
331
7D0B
  5
7D0C
331
7CFA
  5
7CFB
331
7CC7
  5
7CC8
331
7CB6
  5
7CB7
331
7CA5
  5
7CA6
331
7C8B
  5
7C8C
331
7C7A
  5
7C7B
331
7C69
  5
7C6A
331
7C47
  5
7C49
331
7C36
  5
7C36
331
7F42
  5
7F43
331
7CD9
  5
7CDA
331
7CC8
  5
7CC9
331
7F53
  5
7F54
331
80EC
  5
80ED
331
7CFB
  5
7D03
331
7D0C
  5
7D0D
331
7CEA
  5
7CEB
331
8290
  5
82FF
331
7F3F
  5
7F40
331
7CA6
  5
7CA7
331
7C8C
  5
7C8D
331
7C7B
  5
7C7C
331
7C6A
  5
7C6D
331
7C59
  5
7C5C
331
7CB7
  5
7CB8
331
7C37
  5
7C37
331
7F43
  5
7F44
331
7CDA
  5
7CDB
331
7CC9
  5
7CCA
331
7CB8
  5
7CB9
331
8235
  5
8242
331
80ED
  5
80EE
331
7F54
  5
7F55
331
7D0D
  5
7D0E
331
7CEB
  5
7CEC
331
82FF
  5
830C
331
7C8D
  5
7C8E
331
7C7C
  5
7C7D
331
7C49
  5
7C4B
331
7CA7
  5
7CA8
331
7C38
  5
7C38
331
7C27
  5
7C27
331
7CCA
  5
7CCB
331
7CB9
  5
7CBA
331
7CA8
  5
7CA9
331
7F44
  5
7F46
331
7CDB
  5
7CDC
331
80EE
  5
8235
331
7F55
  5
7F56
331
7CEC
  5
7CED
331
7D0E
  5
7D0F
331
7C8E
  5
7C8F
331
7C7D
  5
7C7E
331
7C39
  5
7C39
331
7F56
  5
7F57
331
7CED
  5
7CEE
331
7CDC
  5
7CDD
331
7CCB
  5
7CCC
331
7CBA
  5
7CBB
331
7CA9
  5
7CAA
331
7C98
  5
7C9A
331
7D0F
  5
7F3A
331
7C8F
  5
7C90
331
7C7E
  5
7C7F
331
7C6D
  5
7C6E
331
7C5C
  5
7C5D
331
7C4B
  5
7C4D
331
7C3A
  5
7C3A
331
7C29
  5
7C29
331
7F46
  5
7F47
331
7CDD
  5
7CDE
331
7CCC
  5
7CCD
331
7CBB
  5
7CBC
331
7CAA
  5
7CAE
331
7C90
  5
7C91
331
7F57
  5
7F58
331
7CEE
  5
7CEF
331
7C7F
  5
7C80
331
7C6E
  5
7C6F
331
7C5D
  5
7C60
331
7C3B
  5
7C3B
331
7C2A
  5
7C2A
331
7F47
  5
7F48
331
7CDE
  5
7CDF
331
7CCD
  5
7CCF
331
7CBC
  5
7CBD
331
7C9A
  5
7C9B
331
7C91
  5
7C92
331
7C80
  5
7C81
331
7F58
  5
80E4
331
7CEF
  5
7CF0
331
7C6F
  5
7C70
331
7C4D
  5
7C4E
331
7C3C
  5
7C3D
331
7C2B
  5
7C2B
331
8326
  5
8333
331
7CBD
  5
7CBF
331
7C9B
  5
7C9C
331
7C92
  5
7C93
331
7C81
  5
7C82
331
7C70
  5
7C71
331
7F48
  5
7F49
331
7CF0
  5
7CF3
331
7CDF
  5
7CE0
331
7C4E
  5
7C51
331
7C3D
  5
7C3F
331
7C2C
  5
7C2C
331
7F49
  5
7F4A
331
7CE0
  5
7CE1
331
7CCF
  5
7CD1
331
7C9C
  5
7C9D
331
7C93
  5
7C94
331
7C82
  5
7C83
331
7C71
  5
7C72
331
7C60
  5
7C61
331
7C2D
  5
7C2D
331
7F4A
  5
7F4B
331
7CE1
  5
7CE2
331
7CBF
  5
7CC0
331
7CAE
  5
7CAF
331
7C9D
  5
7C9E
331
7C94
  5
7C95
331
7C83
  5
7C84
331
7C72
  5
7C73
331
7C61
  5
7C62
331
7D03
  5
7D08
331
7C3F
  5
7C40
331
7C2E
  5
7C2E
331
7F4B
  5
7F4C
331
7CE2
  5
7CE3
331
7CD1
  5
7CD3
331
7CC0
  5
7CC4
331
7CAF
  5
7CB0
331
7C9E
  5
7C9F
331
7C95
  5
7C96
331
7C84
  5
7C85
331
7C73
  5
7C74
331
7C62
  5
7C63
331
7C51
  5
7C54
331
7C40
  5
7C41
331
7CF3
  5
7CF4
331
7C2F
  5
7C2F
331
8319
  5
8326
331
7CB0
  5
7CB1
331
7C9F
  5
7CA0
331
7C96
  5
7C97
331
7C85
  5
7C86
331
7C74
  5
7C75
331
7C63
  5
7C64
331
7C41
  5
7C42
331
7F4C
  5
7F4D
331
7CF4
  5
7CF8
331
7CE3
  5
7CE4
331
7C30
  5
7C30
  0
ACDBDETAILVIEWSTYLE
  5
81E5
102
{ACAD_XDICTIONARY
360
84FC
102
}
102
{ACAD_REACTORS
330
81E4
102
}
330
81E4
100
AcDbModelDocViewStyle
 70
     0
  3
Imperial24
290
     0
100
AcDbDetailViewStyle
 70
     0
 71
     0
 90
        3
 71
     1
340
81D0
 40
0.24
340
0
 40
0.24
300

 40
0.36
280
     3
 71
     2
340
81D7
 90
       25
 71
     3
340
81D0
 40
0.24
 90
        1
 40
0.75
 90
        1
300
%<\AcVar ViewType \f "%tc1">% %<\AcVar ViewDetailId>%\PSCALE %<\AcVar ViewScale \f "%sn">%
 71
     4
340
81D7
 90
       25
340
81D7
 90
       25
280
     0
  0
LAYOUT
  5
81ED
102
{ACAD_XDICTIONARY
360
8500
102
}
102
{ACAD_REACTORS
330
81DC
102
}
330
81DC
100
AcDbPlotSettings
  1

  2
RICOH imagio MP W3600 RPCS
  4

  6

 40
0.0
 41
0.0
 42
0.0
 43
0.0
 44
0.0
 45
0.0
 46
0.0
 47
0.0
 48
0.0
 49
0.0
140
0.0
141
0.0
142
1.0
143
1.0
 70
  1712
 72
     0
 73
     0
 74
     0
  7

 75
     0
147
1.0
148
0.0
149
0.0
100
AcDbLayout
  1
Model
 70
     1
 71
     0
 10
0.0
 20
0.0
 11
12.0
 21
9.0
 12
0.0
 22
0.0
 32
0.0
 14
0.0
 24
0.0
 34
0.0
 15
0.0
 25
0.0
 35
0.0
146
0.0
 13
0.0
 23
0.0
 33
0.0
 16
1.0
 26
0.0
 36
0.0
 17
0.0
 27
1.0
 37
0.0
 76
     0
330
81EA
331
81EF
  0
LAYOUT
  5
81E9
102
{ACAD_XDICTIONARY
360
84FE
102
}
102
{ACAD_REACTORS
330
81DC
102
}
330
81DC
100
AcDbPlotSettings
  1

  2
RICOH imagio MP W3600 RPCS
  4

  6

 40
0.0
 41
0.0
 42
0.0
 43
0.0
 44
0.0
 45
0.0
 46
0.0
 47
0.0
 48
0.0
 49
0.0
140
0.0
141
0.0
142
1.0
143
1.0
 70
   688
 72
     0
 73
     0
 74
     5
  7

 75
    16
147
1.0
148
0.0
149
0.0
100
AcDbLayout
  1
レイアウト1
 70
     1
 71
     1
 10
0.0
 20
0.0
 11
12.0
 21
9.0
 12
0.0
 22
0.0
 32
0.0
 14
1.000000000000000E+20
 24
1.000000000000000E+20
 34
1.000000000000000E+20
 15
-1.000000000000000E+20
 25
-1.000000000000000E+20
 35
-1.000000000000000E+20
146
0.0
 13
0.0
 23
0.0
 33
0.0
 16
1.0
 26
0.0
 36
0.0
 17
0.0
 27
1.0
 37
0.0
 76
     0
330
81E6
  0
MATERIAL
  5
8194
102
{ACAD_XDICTIONARY
360
8195
102
}
102
{ACAD_REACTORS
330
818B
102
}
330
818B
100
AcDbMaterial
  1
ByBlock
 72
     0
 43
0.0208333333333333
 43
0.0
 43
0.0
 43
0.0
 43
0.0
 43
0.0208333333333333
 43
0.0
 43
0.0
 43
0.0
 43
0.0
 43
1.0
 43
0.0
 43
0.0
 43
0.0
 43
0.0
 43
1.0
 77
     0
 47
0.0208333333333333
 47
0.0
 47
0.0
 47
0.0
 47
0.0
 47
0.0208333333333333
 47
0.0
 47
0.0
 47
0.0
 47
0.0
 47
1.0
 47
0.0
 47
0.0
 47
0.0
 47
0.0
 47
1.0
171
     0
 49
0.0208333333333333
 49
0.0
 49
0.0
 49
0.0
 49
0.0
 49
0.0208333333333333
 49
0.0
 49
0.0
 49
0.0
 49
0.0
 49
1.0
 49
0.0
 49
0.0
 49
0.0
 49
0.0
 49
1.0
175
     0
142
0.0208333333333333
142
0.0
142
0.0
142
0.0
142
0.0
142
0.0208333333333333
142
0.0
142
0.0
142
0.0
142
0.0
142
1.0
142
0.0
142
0.0
142
0.0
142
0.0
142
1.0
179
     0
144
0.0208333333333333
144
0.0
144
0.0
144
0.0
144
0.0
144
0.0208333333333333
144
0.0
144
0.0
144
0.0
144
0.0
144
1.0
144
0.0
144
0.0
144
0.0
144
0.0
144
1.0
147
0.0208333333333333
147
0.0
147
0.0
147
0.0
147
0.0
147
0.0208333333333333
147
0.0
147
0.0
147
0.0
147
0.0
147
1.0
147
0.0
147
0.0
147
0.0
147
0.0
147
1.0
  0
MATERIAL
  5
818C
102
{ACAD_XDICTIONARY
360
818D
102
}
102
{ACAD_REACTORS
330
818B
102
}
330
818B
100
AcDbMaterial
  1
ByLayer
 72
     0
 43
0.0208333333333333
 43
0.0
 43
0.0
 43
0.0
 43
0.0
 43
0.0208333333333333
 43
0.0
 43
0.0
 43
0.0
 43
0.0
 43
1.0
 43
0.0
 43
0.0
 43
0.0
 43
0.0
 43
1.0
 77
     0
 47
0.0208333333333333
 47
0.0
 47
0.0
 47
0.0
 47
0.0
 47
0.0208333333333333
 47
0.0
 47
0.0
 47
0.0
 47
0.0
 47
1.0
 47
0.0
 47
0.0
 47
0.0
 47
0.0
 47
1.0
171
     0
 49
0.0208333333333333
 49
0.0
 49
0.0
 49
0.0
 49
0.0
 49
0.0208333333333333
 49
0.0
 49
0.0
 49
0.0
 49
0.0
 49
1.0
 49
0.0
 49
0.0
 49
0.0
 49
0.0
 49
1.0
175
     0
142
0.0208333333333333
142
0.0
142
0.0
142
0.0
142
0.0
142
0.0208333333333333
142
0.0
142
0.0
142
0.0
142
0.0
142
1.0
142
0.0
142
0.0
142
0.0
142
0.0
142
1.0
179
     0
144
0.0208333333333333
144
0.0
144
0.0
144
0.0
144
0.0
144
0.0208333333333333
144
0.0
144
0.0
144
0.0
144
0.0
144
1.0
144
0.0
144
0.0
144
0.0
144
0.0
144
1.0
147
0.0208333333333333
147
0.0
147
0.0
147
0.0
147
0.0
147
0.0208333333333333
147
0.0
147
0.0
147
0.0
147
0.0
147
1.0
147
0.0
147
0.0
147
0.0
147
0.0
147
1.0
  0
MATERIAL
  5
819C
102
{ACAD_XDICTIONARY
360
819D
102
}
102
{ACAD_REACTORS
330
818B
102
}
330
818B
100
AcDbMaterial
  1
Global
 72
     0
 43
0.0208333333333333
 43
0.0
 43
0.0
 43
0.0
 43
0.0
 43
0.0208333333333333
 43
0.0
 43
0.0
 43
0.0
 43
0.0
 43
1.0
 43
0.0
 43
0.0
 43
0.0
 43
0.0
 43
1.0
 77
     0
 47
0.0208333333333333
 47
0.0
 47
0.0
 47
0.0
 47
0.0
 47
0.0208333333333333
 47
0.0
 47
0.0
 47
0.0
 47
0.0
 47
1.0
 47
0.0
 47
0.0
 47
0.0
 47
0.0
 47
1.0
171
     0
 49
0.0208333333333333
 49
0.0
 49
0.0
 49
0.0
 49
0.0
 49
0.0208333333333333
 49
0.0
 49
0.0
 49
0.0
 49
0.0
 49
1.0
 49
0.0
 49
0.0
 49
0.0
 49
0.0
 49
1.0
175
     0
142
0.0208333333333333
142
0.0
142
0.0
142
0.0
142
0.0
142
0.0208333333333333
142
0.0
142
0.0
142
0.0
142
0.0
142
1.0
142
0.0
142
0.0
142
0.0
142
0.0
142
1.0
179
     0
144
0.0208333333333333
144
0.0
144
0.0
144
0.0
144
0.0
144
0.0208333333333333
144
0.0
144
0.0
144
0.0
144
0.0
144
1.0
144
0.0
144
0.0
144
0.0
144
0.0
144
1.0
147
0.0208333333333333
147
0.0
147
0.0
147
0.0
147
0.0
147
0.0208333333333333
147
0.0
147
0.0
147
0.0
147
0.0
147
1.0
147
0.0
147
0.0
147
0.0
147
0.0
147
1.0
  0
MLEADERSTYLE
  5
81E1
102
{ACAD_REACTORS
330
81E0
102
}
330
81E0
100
AcDbMLeaderStyle
170
     2
171
     1
172
     0
 90
        2
 40
0.0
 41
0.0
173
     1
 91
-1056964608
340
81D5
 92
       -2
290
     1
 42
0.09
291
     1
 43
0.36
  3
Standard
 44
0.18
300

342
81D0
174
     1
178
     6
175
     1
176
     0
 93
-1056964608
 45
0.18
292
     0
297
     0
 46
0.18
 94
-1056964608
 47
1.0
 49
1.0
140
1.0
293
     1
141
0.0
294
     1
177
     0
142
1.0
295
     0
296
     0
143
0.125
1001
ACAD_MLEADERVER
1070
     2
  0
MLINESTYLE
  5
81DA
102
{ACAD_REACTORS
330
81D9
102
}
330
81D9
100
AcDbMlineStyle
  2
STANDARD
 70
     0
  3

 62
   256
 51
90.0
 52
90.0
 71
     2
 49
0.5
 62
   256
  6
BYLAYER
 49
-0.5
 62
   256
  6
BYLAYER
  0
ACDBPLACEHOLDER
  5
818A
102
{ACAD_REACTORS
330
8189
102
}
330
8189
  0
SCALE
  5
81BE
102
{ACAD_REACTORS
330
81BD
102
}
330
81BD
100
AcDbScale
 70
     0
300
1:1
140
1.0
141
1.0
290
     1
  0
SCALE
  5
81BF
102
{ACAD_REACTORS
330
81BD
102
}
330
81BD
100
AcDbScale
 70
     0
300
1/128" = 1'-0"
140
0.0078125
141
12.0
290
     0
  0
SCALE
  5
81C0
102
{ACAD_REACTORS
330
81BD
102
}
330
81BD
100
AcDbScale
 70
     0
300
1/64" = 1'-0"
140
0.015625
141
12.0
290
     0
  0
SCALE
  5
81C1
102
{ACAD_REACTORS
330
81BD
102
}
330
81BD
100
AcDbScale
 70
     0
300
1/32" = 1'-0"
140
0.03125
141
12.0
290
     0
  0
SCALE
  5
81C2
102
{ACAD_REACTORS
330
81BD
102
}
330
81BD
100
AcDbScale
 70
     0
300
1/16" = 1'-0"
140
0.0625
141
12.0
290
     0
  0
SCALE
  5
81C3
102
{ACAD_REACTORS
330
81BD
102
}
330
81BD
100
AcDbScale
 70
     0
300
3/32" = 1'-0"
140
0.09375
141
12.0
290
     0
  0
SCALE
  5
81C4
102
{ACAD_REACTORS
330
81BD
102
}
330
81BD
100
AcDbScale
 70
     0
300
1/8" = 1'-0"
140
0.125
141
12.0
290
     0
  0
SCALE
  5
81C5
102
{ACAD_REACTORS
330
81BD
102
}
330
81BD
100
AcDbScale
 70
     0
300
3/16" = 1'-0"
140
0.1875
141
12.0
290
     0
  0
SCALE
  5
81C6
102
{ACAD_REACTORS
330
81BD
102
}
330
81BD
100
AcDbScale
 70
     0
300
1/4" = 1'-0"
140
0.25
141
12.0
290
     0
  0
SCALE
  5
81C7
102
{ACAD_REACTORS
330
81BD
102
}
330
81BD
100
AcDbScale
 70
     0
300
3/8" = 1'-0"
140
0.375
141
12.0
290
     0
  0
SCALE
  5
81C8
102
{ACAD_REACTORS
330
81BD
102
}
330
81BD
100
AcDbScale
 70
     0
300
1/2" = 1'-0"
140
0.5
141
12.0
290
     0
  0
SCALE
  5
81C9
102
{ACAD_REACTORS
330
81BD
102
}
330
81BD
100
AcDbScale
 70
     0
300
3/4" = 1'-0"
140
0.75
141
12.0
290
     0
  0
SCALE
  5
81CA
102
{ACAD_REACTORS
330
81BD
102
}
330
81BD
100
AcDbScale
 70
     0
300
1" = 1'-0"
140
1.0
141
12.0
290
     0
  0
SCALE
  5
81CB
102
{ACAD_REACTORS
330
81BD
102
}
330
81BD
100
AcDbScale
 70
     0
300
1-1/2" = 1'-0"
140
1.5
141
12.0
290
     0
  0
SCALE
  5
81CC
102
{ACAD_REACTORS
330
81BD
102
}
330
81BD
100
AcDbScale
 70
     0
300
3" = 1'-0"
140
3.0
141
12.0
290
     0
  0
SCALE
  5
81CD
102
{ACAD_REACTORS
330
81BD
102
}
330
81BD
100
AcDbScale
 70
     0
300
6" = 1'-0"
140
6.0
141
12.0
290
     0
  0
SCALE
  5
81CE
102
{ACAD_REACTORS
330
81BD
102
}
330
81BD
100
AcDbScale
 70
     0
300
1'-0" = 1'-0"
140
12.0
141
12.0
290
     0
  0
ACDBSECTIONVIEWSTYLE
  5
81E3
102
{ACAD_XDICTIONARY
360
84FA
102
}
102
{ACAD_REACTORS
330
81E2
102
}
330
81E2
100
AcDbModelDocViewStyle
 70
     0
  3
Imperial24
290
     0
100
AcDbSectionViewStyle
 70
     0
 71
     0
 90
       78
 71
     1
340
81D0
 40
0.24
340
0
340
0
 40
0.24
300
I, O, Q, S, X, Z
 40
0.48
 90
        3
 40
0.18
 90
        1
 71
     2
340
81D7
 90
       25
340
81D7
 90
       50
 40
0.24
 40
0.0
 40
0.24
 71
     3
340
81D0
 40
0.24
 90
        1
 40
0.75
 90
        1
300
%<\AcVar ViewType \f "%tc1">% %<\AcVar ViewSectionStartId>%-%<\AcVar ViewSectionEndId>%\PSCALE %<\AcVar ViewScale \f "%sn">%
 71
     4
300
ANSI31
 40
1.0
 90
        0
290
     0
290
     0
 90
        6
 40
0.0
 40
1.570796326794896
 40
0.2617993877991494
 40
1.308996938995747
 40
-0.2617993877991494
 40
1.832595714594046
  0
TABLESTYLE
  5
81DF
102
{ACAD_XDICTIONARY
360
84C1
102
}
102
{ACAD_REACTORS
330
81DE
102
}
330
81DE
100
AcDbTableStyle
  3
Standard
 70
     0
 71
     0
 40
0.06
 41
0.06
280
     0
281
     0
  7
STANDARD
140
0.18
170
     2
 62
     0
 63
     7
283
     0
274
    -2
284
     1
 64
     0
275
    -2
285
     1
 65
     0
276
    -2
286
     1
 66
     0
277
    -2
287
     1
 67
     0
278
    -2
288
     1
 68
     0
279
    -2
289
     1
 69
     0
  7
STANDARD
140
0.25
170
     5
 62
     0
 63
     7
283
     0
274
    -2
284
     1
 64
     0
275
    -2
285
     1
 65
     0
276
    -2
286
     1
 66
     0
277
    -2
287
     1
 67
     0
278
    -2
288
     1
 68
     0
279
    -2
289
     1
 69
     0
  7
STANDARD
140
0.18
170
     5
 62
     0
 63
     7
283
     0
274
    -2
284
     1
 64
     0
275
    -2
285
     1
 65
     0
276
    -2
286
     1
 66
     0
277
    -2
287
     1
 67
     0
278
    -2
288
     1
 68
     0
279
    -2
289
     1
 69
     0
  0
VISUALSTYLE
  5
81AA
102
{ACAD_XDICTIONARY
360
84D2
102
}
102
{ACAD_REACTORS
330
81A4
102
}
330
81A4
100
AcDbVisualStyle
  2
2dWireframe
 70
     4
 71
     0
 72
     2
 73
     0
 90
        0
 40
-0.6
 41
-30.0
 62
     5
 63
     7
 74
     1
 91
        4
 64
     7
 65
   257
 75
     1
175
     1
 42
1.0
 92
        0
 66
   257
 43
1.0
 76
     1
 77
     6
 78
     2
 67
     7
 79
     5
170
     0
171
     0
290
     0
174
     0
 93
        1
 44
0.0
173
     0
291
     0
 45
0.0
1001
ACAD
1000
AcDbSavedByObjectVersion
1070
     0
  0
VISUALSTYLE
  5
81A9
102
{ACAD_XDICTIONARY
360
84D0
102
}
102
{ACAD_REACTORS
330
81A4
102
}
330
81A4
100
AcDbVisualStyle
  2
Basic
 70
     7
 71
     1
 72
     0
 73
     1
 90
        0
 40
-0.6
 41
-30.0
 62
     5
 63
     7
 74
     0
 91
        4
 64
     7
 65
   257
 75
     1
175
     1
 42
1.0
 92
        8
 66
     7
 43
1.0
 76
     1
 77
     6
 78
     2
 67
     7
 79
     5
170
     0
171
     0
290
     0
174
     0
 93
        1
 44
0.0
173
     0
291
     1
 45
0.0
1001
ACAD
1000
AcDbSavedByObjectVersion
1070
     0
  0
VISUALSTYLE
  5
81B0
102
{ACAD_XDICTIONARY
360
84DE
102
}
102
{ACAD_REACTORS
330
81A4
102
}
330
81A4
100
AcDbVisualStyle
  2
Brighten
 70
    12
 71
     2
 72
     2
 73
     0
 90
        0
 40
-0.6
 41
-30.0
 62
     5
 63
     7
 74
     1
 91
        4
 64
     7
 65
   257
 75
     1
175
     1
 42
1.0
 92
        8
 66
     7
 43
1.0
 76
     1
 77
     6
 78
     2
 67
     7
 79
     5
170
     0
171
     0
290
     0
174
     0
 93
        1
 44
50.0
173
     0
291
     1
 45
0.0
1001
ACAD
1000
AcDbSavedByObjectVersion
1070
     0
  0
VISUALSTYLE
  5
81B4
102
{ACAD_XDICTIONARY
360
84E6
102
}
102
{ACAD_REACTORS
330
81A4
102
}
330
81A4
100
AcDbVisualStyle
  2
ColorChange
 70
    16
 71
     2
 72
     2
 73
     3
 90
        0
 40
-0.6
 41
-30.0
 62
     5
 63
     8
 74
     1
 91
        4
 64
     7
 65
   257
 75
     1
175
     1
 42
1.0
 92
        8
 66
     8
 43
1.0
 76
     1
 77
     6
 78
     2
 67
     7
 79
     5
170
     0
171
     0
290
     0
174
     0
 93
        1
 44
0.0
173
     0
291
     1
 45
0.0
1001
ACAD
1000
AcDbSavedByObjectVersion
1070
     0
  0
VISUALSTYLE
  5
81AD
102
{ACAD_XDICTIONARY
360
84D8
102
}
102
{ACAD_REACTORS
330
81A4
102
}
330
81A4
100
AcDbVisualStyle
  2
Conceptual
 70
     9
 71
     3
 72
     2
 73
     0
 90
        0
 40
-0.6
 41
-30.0
 62
     5
 63
     7
 74
     2
 91
        2
 64
     7
 65
   257
 75
     1
175
     1
 42
179.0
 92
        8
 66
     7
 43
1.0
 76
     1
 77
     6
 78
     2
 67
     7
 79
     3
170
     0
171
     0
290
     0
174
     0
 93
        1
 44
0.0
173
     0
291
     0
 45
0.0
1001
ACAD
1000
AcDbSavedByObjectVersion
1070
     0
  0
VISUALSTYLE
  5
81AF
102
{ACAD_XDICTIONARY
360
84DC
102
}
102
{ACAD_REACTORS
330
81A4
102
}
330
81A4
100
AcDbVisualStyle
  2
Dim
 70
    11
 71
     2
 72
     2
 73
     0
 90
        0
 40
-0.6
 41
-30.0
 62
     5
 63
     7
 74
     1
 91
        4
 64
     7
 65
   257
 75
     1
175
     1
 42
1.0
 92
        8
 66
     7
 43
1.0
 76
     1
 77
     6
 78
     2
 67
     7
 79
     5
170
     0
171
     0
290
     0
174
     0
 93
        1
 44
-50.0
173
     0
291
     1
 45
0.0
1001
ACAD
1000
AcDbSavedByObjectVersion
1070
     0
  0
VISUALSTYLE
  5
81BC
102
{ACAD_XDICTIONARY
360
84F6
102
}
102
{ACAD_REACTORS
330
81A4
102
}
330
81A4
100
AcDbVisualStyle
  2
EdgeColorOff
 70
    22
 71
     2
 72
     2
 73
     0
 90
        0
 40
-0.6
 41
-30.0
 62
     5
 63
     7
 74
     1
 91
        4
 64
     7
 65
   257
 75
     1
175
     1
 42
1.0
 92
        8
 66
     7
 43
1.0
 76
     1
 77
     6
 78
     2
 67
     7
 79
     5
170
     0
171
     0
290
     0
174
     0
 93
        1
 44
0.0
173
     0
291
     1
 45
0.0
1001
ACAD
1000
AcDbSavedByObjectVersion
1070
     0
  0
VISUALSTYLE
  5
81B3
102
{ACAD_XDICTIONARY
360
84E4
102
}
102
{ACAD_REACTORS
330
81A4
102
}
330
81A4
100
AcDbVisualStyle
  2
Facepattern
 70
    15
 71
     2
 72
     2
 73
     0
 90
        0
 40
-0.6
 41
-30.0
 62
     5
 63
     7
 74
     1
 91
        4
 64
     7
 65
   257
 75
     1
175
     1
 42
1.0
 92
        8
 66
     7
 43
1.0
 76
     1
 77
     6
 78
     2
 67
     7
 79
     5
170
     0
171
     0
290
     0
174
     0
 93
        1
 44
0.0
173
     0
291
     1
 45
0.0
1001
ACAD
1000
AcDbSavedByObjectVersion
1070
     0
  0
VISUALSTYLE
  5
81A5
102
{ACAD_XDICTIONARY
360
84C8
102
}
102
{ACAD_REACTORS
330
81A4
102
}
330
81A4
100
AcDbVisualStyle
  2
Flat
 70
     0
 71
     2
 72
     1
 73
     1
 90
        2
 40
-0.6
 41
30.0
 62
     5
 63
     7
 74
     0
 91
        0
 64
     7
 65
   257
 75
     1
175
     1
 42
1.0
 92
        8
 66
     7
 43
1.0
 76
     1
 77
     6
 78
     2
 67
     7
 79
     5
170
     0
171
     0
290
     0
174
     0
 93
       13
 44
0.0
173
     0
291
     1
 45
0.0
1001
ACAD
1000
AcDbSavedByObjectVersion
1070
     0
  0
VISUALSTYLE
  5
81A6
102
{ACAD_XDICTIONARY
360
84CA
102
}
102
{ACAD_REACTORS
330
81A4
102
}
330
81A4
100
AcDbVisualStyle
  2
FlatWithEdges
 70
     1
 71
     2
 72
     1
 73
     1
 90
        2
 40
-0.6
 41
30.0
 62
     5
 63
     7
 74
     1
 91
        0
 64
     7
 65
   257
 75
     1
175
     1
 42
1.0
 92
        0
 66
   257
 43
1.0
 76
     1
 77
     6
 78
     2
 67
     7
 79
     5
170
     0
171
     0
290
     0
174
     0
 93
       13
 44
0.0
173
     0
291
     1
 45
0.0
1001
ACAD
1000
AcDbSavedByObjectVersion
1070
     0
  0
VISUALSTYLE
  5
81A7
102
{ACAD_XDICTIONARY
360
84CC
102
}
102
{ACAD_REACTORS
330
81A4
102
}
330
81A4
100
AcDbVisualStyle
  2
Gouraud
 70
     2
 71
     2
 72
     2
 73
     1
 90
        2
 40
-0.6
 41
30.0
 62
     5
 63
     7
 74
     0
 91
        0
 64
     7
 65
   257
 75
     1
175
     1
 42
1.0
 92
        0
 66
     7
 43
1.0
 76
     1
 77
     6
 78
     2
 67
     7
 79
     5
170
     0
171
     0
290
     0
174
     0
 93
       13
 44
0.0
173
     0
291
     1
 45
0.0
1001
ACAD
1000
AcDbSavedByObjectVersion
1070
     0
  0
VISUALSTYLE
  5
81A8
102
{ACAD_XDICTIONARY
360
84CE
102
}
102
{ACAD_REACTORS
330
81A4
102
}
330
81A4
100
AcDbVisualStyle
  2
GouraudWithEdges
 70
     3
 71
     2
 72
     2
 73
     1
 90
        2
 40
-0.6
 41
30.0
 62
     5
 63
     7
 74
     1
 91
        0
 64
     7
 65
   257
 75
     1
175
     1
 42
1.0
 92
        0
 66
   257
 43
1.0
 76
     1
 77
     6
 78
     2
 67
     7
 79
     5
170
     0
171
     0
290
     0
174
     0
 93
       13
 44
0.0
173
     0
291
     1
 45
0.0
1001
ACAD
1000
AcDbSavedByObjectVersion
1070
     0
  0
VISUALSTYLE
  5
81AC
102
{ACAD_XDICTIONARY
360
84D6
102
}
102
{ACAD_REACTORS
330
81A4
102
}
330
81A4
100
AcDbVisualStyle
  2
Hidden
 70
     6
 71
     1
 72
     2
 73
     2
 90
        0
 40
-0.6
 41
-30.0
 62
     5
 63
     7
 74
     2
 91
        2
 64
     7
 65
   257
 75
     2
175
     1
 42
40.0
 92
        0
 66
   257
 43
1.0
 76
     1
 77
     6
 78
     2
 67
     7
 79
     3
170
     0
171
     0
290
     0
174
     0
 93
        1
 44
0.0
173
     0
291
     0
 45
0.0
1001
ACAD
1000
AcDbSavedByObjectVersion
1070
     0
  0
VISUALSTYLE
  5
81BA
102
{ACAD_XDICTIONARY
360
84F2
102
}
102
{ACAD_REACTORS
330
81A4
102
}
330
81A4
100
AcDbVisualStyle
  2
JitterOff
 70
    20
 71
     2
 72
     2
 73
     0
 90
        0
 40
-0.6
 41
-30.0
 62
     5
 63
     7
 74
     1
 91
        4
 64
     7
 65
   257
 75
     1
175
     1
 42
1.0
 92
       10
 66
     7
 43
1.0
 76
     1
 77
     6
 78
     2
 67
     7
 79
     5
170
     0
171
     0
290
     0
174
     0
 93
        1
 44
0.0
173
     0
291
     1
 45
0.0
1001
ACAD
1000
AcDbSavedByObjectVersion
1070
     0
  0
VISUALSTYLE
  5
81B2
102
{ACAD_XDICTIONARY
360
84E2
102
}
102
{ACAD_REACTORS
330
81A4
102
}
330
81A4
100
AcDbVisualStyle
  2
Linepattern
 70
    14
 71
     2
 72
     2
 73
     0
 90
        0
 40
-0.6
 41
-30.0
 62
     5
 63
     7
 74
     1
 91
        4
 64
     7
 65
   257
 75
     7
175
     7
 42
1.0
 92
        8
 66
     7
 43
1.0
 76
     1
 77
     6
 78
     2
 67
     7
 79
     5
170
     0
171
     0
290
     0
174
     0
 93
        1
 44
0.0
173
     0
291
     1
 45
0.0
1001
ACAD
1000
AcDbSavedByObjectVersion
1070
     0
  0
VISUALSTYLE
  5
81BB
102
{ACAD_XDICTIONARY
360
84F4
102
}
102
{ACAD_REACTORS
330
81A4
102
}
330
81A4
100
AcDbVisualStyle
  2
OverhangOff
 70
    21
 71
     2
 72
     2
 73
     0
 90
        0
 40
-0.6
 41
-30.0
 62
     5
 63
     7
 74
     1
 91
        4
 64
     7
 65
   257
 75
     1
175
     1
 42
1.0
 92
        9
 66
     7
 43
1.0
 76
     1
 77
     6
 78
     2
 67
     7
 79
     5
170
     0
171
     0
290
     0
174
     0
 93
        1
 44
0.0
173
     0
291
     1
 45
0.0
1001
ACAD
1000
AcDbSavedByObjectVersion
1070
     0
  0
VISUALSTYLE
  5
81AE
102
{ACAD_XDICTIONARY
360
84DA
102
}
102
{ACAD_REACTORS
330
81A4
102
}
330
81A4
100
AcDbVisualStyle
  2
Realistic
 70
     8
 71
     2
 72
     3
 73
     0
 90
        2
 40
-0.6
 41
30.0
 62
     5
 63
     7
 74
     0
 91
        0
 64
     7
 65
   257
 75
     1
175
     1
 42
1.0
 92
        8
 66
   257
 43
1.0
 76
     1
 77
     6
 78
     2
 67
     7
 79
     3
170
     0
171
     0
290
     0
174
     0
 93
       13
 44
0.0
173
     0
291
     0
 45
0.0
1001
ACAD
1000
AcDbSavedByObjectVersion
1070
     0
  0
VISUALSTYLE
  5
81B9
102
{ACAD_XDICTIONARY
360
84F0
102
}
102
{ACAD_REACTORS
330
81A4
102
}
330
81A4
100
AcDbVisualStyle
  2
Shaded
 70
    27
 71
     2
 72
     2
 73
     1
 90
        2
 40
-0.6
 41
30.0
 62
     5
 63
     7
 74
     0
 91
        4
 64
     7
 65
   257
 75
     1
175
     1
 42
1.0
 92
        8
 66
   257
 43
1.0
 76
     1
 77
     6
 78
     2
 67
     8
 79
     3
170
     0
171
     0
290
     0
174
     0
 93
        5
 44
0.0
173
     0
291
     0
 45
0.0
1001
ACAD
1000
AcDbSavedByObjectVersion
1070
     0
  0
VISUALSTYLE
  5
81B8
102
{ACAD_XDICTIONARY
360
84EE
102
}
102
{ACAD_REACTORS
330
81A4
102
}
330
81A4
100
AcDbVisualStyle
  2
Shaded with edges
 70
    26
 71
     2
 72
     2
 73
     1
 90
        2
 40
-0.6
 41
30.0
 62
     5
 63
     7
 74
     1
 91
       10
 64
     7
 65
   257
 75
     2
175
     1
 42
1.0
 92
        8
 66
   257
 43
1.0
 76
     1
 77
     6
 78
     2
 67
     7
 79
     3
170
     0
171
     0
290
     0
174
     0
 93
        5
 44
0.0
173
     0
291
     0
 45
0.0
1001
ACAD
1000
AcDbSavedByObjectVersion
1070
     0
  0
VISUALSTYLE
  5
81B5
102
{ACAD_XDICTIONARY
360
84E8
102
}
102
{ACAD_REACTORS
330
81A4
102
}
330
81A4
100
AcDbVisualStyle
  2
Shades of Gray
 70
    23
 71
     2
 72
     2
 73
     3
 90
        0
 40
-0.6
 41
-30.0
 62
     5
 63
     7
 74
     2
 91
        2
 64
     7
 65
     7
 75
     1
175
     1
 42
40.0
 92
        8
 66
     7
 43
1.0
 76
     1
 77
     6
 78
     2
 67
     7
 79
     3
170
     0
171
     0
290
     0
174
     0
 93
        1
 44
0.0
173
     0
291
     0
 45
0.0
1001
ACAD
1000
AcDbSavedByObjectVersion
1070
     0
  0
VISUALSTYLE
  5
81B6
102
{ACAD_XDICTIONARY
360
84EA
102
}
102
{ACAD_REACTORS
330
81A4
102
}
330
81A4
100
AcDbVisualStyle
  2
Sketchy
 70
    24
 71
     1
 72
     2
 73
     2
 90
        0
 40
-0.6
 41
-30.0
 62
     5
 63
     7
 74
     2
 91
        2
 64
     7
 65
     7
 75
     1
175
     1
 42
40.0
 92
       11
 66
     7
 43
1.0
 76
     1
 77
     6
 78
     2
 67
     7
 79
     6
170
     0
171
     0
290
     0
174
     0
 93
        1
 44
0.0
173
     0
291
     0
 45
0.0
1001
ACAD
1000
AcDbSavedByObjectVersion
1070
     0
  0
VISUALSTYLE
  5
81B1
102
{ACAD_XDICTIONARY
360
84E0
102
}
102
{ACAD_REACTORS
330
81A4
102
}
330
81A4
100
AcDbVisualStyle
  2
Thicken
 70
    13
 71
     2
 72
     2
 73
     0
 90
        0
 40
-0.6
 41
-30.0
 62
     5
 63
     7
 74
     1
 91
        4
 64
     7
 65
   257
 75
     1
175
     1
 42
1.0
 92
       12
 66
     7
 43
1.0
 76
     1
 77
     6
 78
     2
 67
     7
 79
     5
170
     0
171
     0
290
     0
174
     0
 93
        1
 44
0.0
173
     0
291
     1
 45
0.0
1001
ACAD
1000
AcDbSavedByObjectVersion
1070
     0
  0
VISUALSTYLE
  5
81AB
102
{ACAD_XDICTIONARY
360
84D4
102
}
102
{ACAD_REACTORS
330
81A4
102
}
330
81A4
100
AcDbVisualStyle
  2
Wireframe
 70
     5
 71
     0
 72
     2
 73
     0
 90
        0
 40
-0.6
 41
-30.0
 62
     5
 63
     7
 74
     1
 91
        4
 64
     7
 65
   257
 75
     1
175
     1
 42
1.0
 92
        0
 66
   257
 43
1.0
 76
     1
 77
     6
 78
     2
 67
     7
 79
     3
170
     0
171
     0
290
     0
174
     0
 93
        1
 44
0.0
173
     0
291
     0
 45
0.0
1001
ACAD
1000
AcDbSavedByObjectVersion
1070
     0
  0
VISUALSTYLE
  5
81B7
102
{ACAD_XDICTIONARY
360
84EC
102
}
102
{ACAD_REACTORS
330
81A4
102
}
330
81A4
100
AcDbVisualStyle
  2
X-Ray
 70
    25
 71
     2
 72
     2
 73
     1
 90
        1
 40
0.5
 41
-30.0
 62
     5
 63
     7
 74
     1
 91
        0
 64
     7
 65
   257
 75
     1
175
     1
 42
1.0
 92
        8
 66
     7
 43
1.0
 76
     1
 77
     6
 78
     2
 67
     7
 79
     3
170
     0
171
     0
290
     0
174
     0
 93
       13
 44
0.0
173
     0
291
     0
 45
0.0
1001
ACAD
1000
AcDbSavedByObjectVersion
1070
     0
  0
DICTIONARYVAR
  5
84BB
102
{ACAD_REACTORS
330
84B6
102
}
330
84B6
100
DictionaryVariables
280
     0
  1
1:1
  0
DICTIONARYVAR
  5
84B8
102
{ACAD_REACTORS
330
84B6
102
}
330
84B6
100
DictionaryVariables
280
     0
  1
STANDARD
  0
DICTIONARYVAR
  5
84B7
102
{ACAD_REACTORS
330
84B6
102
}
330
84B6
100
DictionaryVariables
280
     0
  1
STANDARD
  0
DICTIONARYVAR
  5
84B9
102
{ACAD_REACTORS
330
84B6
102
}
330
84B6
100
DictionaryVariables
280
     0
  1
Imperial24
  0
DICTIONARYVAR
  5
84BA
102
{ACAD_REACTORS
330
84B6
102
}
330
84B6
100
DictionaryVariables
280
     0
  1
Imperial24
  0
DICTIONARYVAR
  5
84BE
102
{ACAD_REACTORS
330
84B6
102
}
330
84B6
100
DictionaryVariables
280
     0
  1
1
  0
DICTIONARYVAR
  5
84BD
102
{ACAD_REACTORS
330
84B6
102
}
330
84B6
100
DictionaryVariables
280
     0
  1
0
  0
DICTIONARYVAR
  5
84BC
102
{ACAD_REACTORS
330
84B6
102
}
330
84B6
100
DictionaryVariables
280
     0
  1
127
  0
DICTIONARYVAR
  5
84BF
102
{ACAD_REACTORS
330
84B6
102
}
330
84B6
100
DictionaryVariables
280
     0
  1
2
  0
DICTIONARY
  5
84FC
330
81E5
100
AcDbDictionary
280
     1
281
     1
  3
ACAD_XREC_ROUNDTRIP
360
84FD
  0
DICTIONARY
  5
8500
330
81ED
100
AcDbDictionary
280
     1
281
     1
  3
ACAD_XREC_ROUNDTRIP
360
8501
  0
DICTIONARY
  5
84FE
330
81E9
100
AcDbDictionary
280
     1
281
     1
  3
ACAD_XREC_ROUNDTRIP
360
84FF
  0
DICTIONARY
  5
8195
330
8194
100
AcDbDictionary
280
     1
281
     1
  3
ACAD_XREC_ROUNDTRIP
360
84C6
  3
BUMPTILE
360
8197
  3
DIFFUSETILE
360
8196
  3
OPACITYTILE
360
819A
  3
REFLECTIONTILE
360
8199
  3
REFRACTIONTILE
360
819B
  3
SPECULARTILE
360
8198
  0
DICTIONARY
  5
818D
330
818C
100
AcDbDictionary
280
     1
281
     1
  3
ACAD_XREC_ROUNDTRIP
360
84C5
  3
BUMPTILE
360
818F
  3
DIFFUSETILE
360
818E
  3
OPACITYTILE
360
8192
  3
REFLECTIONTILE
360
8191
  3
REFRACTIONTILE
360
8193
  3
SPECULARTILE
360
8190
  0
DICTIONARY
  5
819D
330
819C
100
AcDbDictionary
280
     1
281
     1
  3
ACAD_XREC_ROUNDTRIP
360
84C7
  3
BUMPTILE
360
819F
  3
DIFFUSETILE
360
819E
  3
FBXASSET
360
8280
  3
OPACITYTILE
360
81A2
  3
REFLECTIONTILE
360
81A1
  3
REFRACTIONTILE
360
81A3
  3
SPECULARTILE
360
81A0
  0
DICTIONARY
  5
84FA
330
81E3
100
AcDbDictionary
280
     1
281
     1
  3
ACAD_XREC_ROUNDTRIP
360
84FB
  0
DICTIONARY
  5
84C1
330
81DF
100
AcDbDictionary
280
     1
281
     1
  3
ACAD_ROUNDTRIP_2008_TABLESTYLE_CELLSTYLEMAP
360
84C2
  3
ACAD_XREC_ROUNDTRIP
360
84F8
  0
DICTIONARY
  5
84D2
330
81AA
100
AcDbDictionary
280
     1
281
     1
  3
ACAD_XREC_ROUNDTRIP
360
84D3
  0
DICTIONARY
  5
84D0
330
81A9
100
AcDbDictionary
280
     1
281
     1
  3
ACAD_XREC_ROUNDTRIP
360
84D1
  0
DICTIONARY
  5
84DE
330
81B0
100
AcDbDictionary
280
     1
281
     1
  3
ACAD_XREC_ROUNDTRIP
360
84DF
  0
DICTIONARY
  5
84E6
330
81B4
100
AcDbDictionary
280
     1
281
     1
  3
ACAD_XREC_ROUNDTRIP
360
84E7
  0
DICTIONARY
  5
84D8
330
81AD
100
AcDbDictionary
280
     1
281
     1
  3
ACAD_XREC_ROUNDTRIP
360
84D9
  0
DICTIONARY
  5
84DC
330
81AF
100
AcDbDictionary
280
     1
281
     1
  3
ACAD_XREC_ROUNDTRIP
360
84DD
  0
DICTIONARY
  5
84F6
330
81BC
100
AcDbDictionary
280
     1
281
     1
  3
ACAD_XREC_ROUNDTRIP
360
84F7
  0
DICTIONARY
  5
84E4
330
81B3
100
AcDbDictionary
280
     1
281
     1
  3
ACAD_XREC_ROUNDTRIP
360
84E5
  0
DICTIONARY
  5
84C8
330
81A5
100
AcDbDictionary
280
     1
281
     1
  3
ACAD_XREC_ROUNDTRIP
360
84C9
  0
DICTIONARY
  5
84CA
330
81A6
100
AcDbDictionary
280
     1
281
     1
  3
ACAD_XREC_ROUNDTRIP
360
84CB
  0
DICTIONARY
  5
84CC
330
81A7
100
AcDbDictionary
280
     1
281
     1
  3
ACAD_XREC_ROUNDTRIP
360
84CD
  0
DICTIONARY
  5
84CE
330
81A8
100
AcDbDictionary
280
     1
281
     1
  3
ACAD_XREC_ROUNDTRIP
360
84CF
  0
DICTIONARY
  5
84D6
330
81AC
100
AcDbDictionary
280
     1
281
     1
  3
ACAD_XREC_ROUNDTRIP
360
84D7
  0
DICTIONARY
  5
84F2
330
81BA
100
AcDbDictionary
280
     1
281
     1
  3
ACAD_XREC_ROUNDTRIP
360
84F3
  0
DICTIONARY
  5
84E2
330
81B2
100
AcDbDictionary
280
     1
281
     1
  3
ACAD_XREC_ROUNDTRIP
360
84E3
  0
DICTIONARY
  5
84F4
330
81BB
100
AcDbDictionary
280
     1
281
     1
  3
ACAD_XREC_ROUNDTRIP
360
84F5
  0
DICTIONARY
  5
84DA
330
81AE
100
AcDbDictionary
280
     1
281
     1
  3
ACAD_XREC_ROUNDTRIP
360
84DB
  0
DICTIONARY
  5
84F0
330
81B9
100
AcDbDictionary
280
     1
281
     1
  3
ACAD_XREC_ROUNDTRIP
360
84F1
  0
DICTIONARY
  5
84EE
330
81B8
100
AcDbDictionary
280
     1
281
     1
  3
ACAD_XREC_ROUNDTRIP
360
84EF
  0
DICTIONARY
  5
84E8
330
81B5
100
AcDbDictionary
280
     1
281
     1
  3
ACAD_XREC_ROUNDTRIP
360
84E9
  0
DICTIONARY
  5
84EA
330
81B6
100
AcDbDictionary
280
     1
281
     1
  3
ACAD_XREC_ROUNDTRIP
360
84EB
  0
DICTIONARY
  5
84E0
330
81B1
100
AcDbDictionary
280
     1
281
     1
  3
ACAD_XREC_ROUNDTRIP
360
84E1
  0
DICTIONARY
  5
84D4
330
81AB
100
AcDbDictionary
280
     1
281
     1
  3
ACAD_XREC_ROUNDTRIP
360
84D5
  0
DICTIONARY
  5
84EC
330
81B7
100
AcDbDictionary
280
     1
281
     1
  3
ACAD_XREC_ROUNDTRIP
360
84ED
  0
XRECORD
  5
84FD
102
{ACAD_REACTORS
330
84FC
102
}
330
84FC
100
AcDbXrecord
280
     1
102
DISPLAYNAME
  1
Imperial24
102
FLAGS
 90
        0
  0
XRECORD
  5
8501
102
{ACAD_REACTORS
330
8500
102
}
330
8500
100
AcDbXrecord
280
     1
102
SHADEPLOT
 70
     0
102
SHADEPLOTRESLEVEL
 70
     2
102
SHADEPLOTCUSTOMDPI
 70
   300
  0
XRECORD
  5
84FF
102
{ACAD_REACTORS
330
84FE
102
}
330
84FE
100
AcDbXrecord
280
     1
102
SHADEPLOT
 70
     0
102
SHADEPLOTRESLEVEL
 70
     2
102
SHADEPLOTCUSTOMDPI
 70
   300
  0
XRECORD
  5
84C6
102
{ACAD_REACTORS
330
8195
102
}
330
8195
100
AcDbXrecord
280
     1
102
MATERIAL
148
0.0
149
0.0
149
0.0
 93
        0
 94
      127
282
     0
 72
     0
 77
     0
171
     0
175
     0
179
     0
273
     0
  0
XRECORD
  5
8197
102
{ACAD_REACTORS
330
8195
102
}
330
8195
100
AcDbXrecord
280
     1
270
     1
271
     1
  0
XRECORD
  5
8196
102
{ACAD_REACTORS
330
8195
102
}
330
8195
100
AcDbXrecord
280
     1
270
     1
271
     1
  0
XRECORD
  5
819A
102
{ACAD_REACTORS
330
8195
102
}
330
8195
100
AcDbXrecord
280
     1
270
     1
271
     1
  0
XRECORD
  5
8199
102
{ACAD_REACTORS
330
8195
102
}
330
8195
100
AcDbXrecord
280
     1
270
     1
271
     1
  0
XRECORD
  5
819B
102
{ACAD_REACTORS
330
8195
102
}
330
8195
100
AcDbXrecord
280
     1
270
     1
271
     1
  0
XRECORD
  5
8198
102
{ACAD_REACTORS
330
8195
102
}
330
8195
100
AcDbXrecord
280
     1
270
     1
271
     1
  0
XRECORD
  5
84C5
102
{ACAD_REACTORS
330
818D
102
}
330
818D
100
AcDbXrecord
280
     1
102
MATERIAL
148
0.0
149
0.0
149
0.0
 93
        0
 94
      127
282
     0
 72
     0
 77
     0
171
     0
175
     0
179
     0
273
     0
  0
XRECORD
  5
818F
102
{ACAD_REACTORS
330
818D
102
}
330
818D
100
AcDbXrecord
280
     1
270
     1
271
     1
  0
XRECORD
  5
818E
102
{ACAD_REACTORS
330
818D
102
}
330
818D
100
AcDbXrecord
280
     1
270
     1
271
     1
  0
XRECORD
  5
8192
102
{ACAD_REACTORS
330
818D
102
}
330
818D
100
AcDbXrecord
280
     1
270
     1
271
     1
  0
XRECORD
  5
8191
102
{ACAD_REACTORS
330
818D
102
}
330
818D
100
AcDbXrecord
280
     1
270
     1
271
     1
  0
XRECORD
  5
8193
102
{ACAD_REACTORS
330
818D
102
}
330
818D
100
AcDbXrecord
280
     1
270
     1
271
     1
  0
XRECORD
  5
8190
102
{ACAD_REACTORS
330
818D
102
}
330
818D
100
AcDbXrecord
280
     1
270
     1
271
     1
  0
XRECORD
  5
84C7
102
{ACAD_REACTORS
330
819D
102
}
330
819D
100
AcDbXrecord
280
     1
102
MATERIAL
148
0.0
149
0.0
149
0.0
 93
        0
 94
      127
282
     0
 72
     0
 77
     0
171
     0
175
     0
179
     0
273
     0
  0
XRECORD
  5
819F
102
{ACAD_REACTORS
330
819D
102
}
330
819D
100
AcDbXrecord
280
     1
270
     1
271
     1
  0
XRECORD
  5
819E
102
{ACAD_REACTORS
330
819D
102
}
330
819D
100
AcDbXrecord
280
     1
270
     1
271
     1
  0
XRECORD
  5
8280
102
{ACAD_REACTORS
330
819D
102
}
330
819D
100
AcDbXrecord
280
     1
 70
     1
 90
1959938040
 71
     1
  1
29ABA4E0-BD11-48A2-BCD6-8AF9E7AB9C5A
311
504B0304140006080800918E765758A3E870CB000000200100004F00000036334235343836392D444334462D343438372D423731372D3038353232443136423239432F4173736574446174612F446566696E6974696F6E4974657261746F7250726F706572746965732E62696EEB606060F80F0540260323103700495E20ED
311
9E9A975A94991C9C9C919A9BC8C00612C9C94F4ACC6147C831019920AE4B6A5A62694E0948976F6671726A4E4E625E6A7E69B12042A9426E6209D0B8C41C3D90264E20860914834C48875806B2DF0F88414E02D189290556F689C5C5A925B6FA694915FAA6864E0616AEE626BA6EAE0626BA2606A66EBA4EAE6686BA66C606
311
96264096A999A1A37E516A717E6951726AB1BE91BE413CD4E4F882BC7406069EC8A01807A003A6844168991008BD241042EBF843E82D3E101A00504B0304140006080800918E7657744432E0F0000000300200004500000036334235343836392D444334462D343438372D423731372D3038353232443136423239432F4173
311
736574446174612F496E7374616E636550726F706572746965732E62696EEB606060F80F0540260323103700495E20ED9E9A975A94991C9C9C919A9BA8021430B2747472347135D075723134D435B17034D275727631D3B57074B374357774B2743675644768046931363471713532B5D435353131D635313332D475727372
311
D13534373670367376B67474B5042A03DBCBA019D37FE8ABC6157B20CD04146B0062181F4C03F940F0C11EA29A8141C08141002C0426541C106CAC2CA046088033B02A030AC2157C6006F21A8018AAF50194E6010A610250382264E08660284CD9E98021862280A91564B406929A0FF62C401E28B6F88038B83CB1243943D7
311
A928312F25350524131B1BFB9F161800504B0304140006080800918E765728BB58AF800100009E0500003D00000036334235343836392D444334462D343438372D423731372D3038353232443136423239432F536368656D61732F436F6D6D6F6E536368656D612E786D6CBD544D4FC23018BEFB2B96DE15493C78601010A3
311
4B880709DEDFB52FD0D8B54BD70DF6EFED3AC0B12E6442E2716BFB3CEFF3D18E26FB440405EA8C2B1992E1C323095052C5B8DC842437EBFB673219DF8DA659866649B798C078B48AE6410122242F2A4994AC7F93815DF85C049C8564CA0A901499DD886B2EB9B1E02448F358701A9235880C49A0119892A20C89D1B9FD7688
311
15CAD268CB5E0355B40B1E47F3E37A2020464BED06AA57CE8FCC20C3C3446D46761A2632A8C1283D07031EFF2AE7CCB1BFEEE916E406DFAC8E36FFD99A9D60A6944090EEDC3B670C7DC13DE86B6B2C5C240D6E503BB85ACD579D513F1B9F9A69DC9CC22AFA80C426D40AF0B21EA168559156B6276F0F726A6BFF04DCD513A8
311
7A62CAD41FB24FCB2858B3952E3D852084DA25B9303C15687973CC8E8AAE11DF2836C38C6A9E765E8C1BA1BFB1DC29CDFE518C8B5A7655A4ED7E77291ABEB80DBD82EC866ADE1B8D05AF9E35CF09D7A061F38A986D9EC412B8F0F65E5D81534D9B231D1E5A8FE577A241F3A5FD01504B0304140006080800918E76572CCEBD
311
668A040000E01200003E00000036334235343836392D444334462D343438372D423731372D3038353232443136423239432F536368656D61732F47656E65726963536368656D612E786D6CD5586D6FDB380CFE7EBF42F0F7A649B70E1B90744856B4970F450FCD7A5F05459613EDE4174872DADCAF3F522F8ED3B88D2F1D06
311
AC4050DBA2493EE4438AF2F8EB73AEC8466823CB62928C06C384888297A92C5693A4B6D9D9E7E4EBD51FE3A931C22EF85AE4EC6AFC38BF261BA626C9AD288496DC3F4FCEAFC63366845F7A10452AF41DB320C0D44EC26EAB20918735565582695670811A6A49643A49A6E9069FA4604A64B29016DC4B48552F95E4932463CA
311
888468C1D2B250DB4962750DF7CE273069CE8363F1FF4EDB00E0A21999574AE4A2B00C353B93F3BD4777B8A61ED8F604ABFEDD79CE56A2B7BDFBDBC50996E0ADDE16FED26223C5D30956C29BDF4A55EA686E5E58B112DA45CE67F76F4FA27EFA3FB672FD7372FC388FAECDCA5209E693CAD167BADCD272F943701B3812F8A3
311
D852008B1D2E32DB927B2F833C6EA95879925356D254582695095A3CE982924720BE5774A3CB9CDCDB350427D2DF20DA1B5532EBE2D5D6288D75D4F7E4FD9890A0EF8E3D93EBB8F8BA4758158EF6FB90A6F9520281C93DE7AAC6D24607DA296BB96018123F821A7D6A5C5884050C475DA4865442732C8B95684A50165CBB3A
311
32F25F783A4A480ED59AD7F924B968AEA50131F46303223E6A397B0E52976030DC1DCA81D7E7C1EDEEA42C19FF27635C505E2BD5198A599020DF50A2330FCB3AAF28CB0124108429553EF1B228802E2265D8F7CC2401042B155BCC7070F1E5C55F13B4A9577362CCCE46C32174E010C3C378C44841A4BDA00FE3A12006CE11
311
EE6AEC59894D3526DDE1CD59D503ECC324017F8061B7F162162FA62EDD81AE3308617770796DCBDAD2B2625C5AE8A63DE20B2C8AA5E95E76E5730823955956E33E705425A2187C185D36489A1B44D3DCEC2172F6BA2105C3546287A7194B2331768EBBE64F6E70A9930ABE0ADEA89E9E2C38523B810287AD67A54A039C1606
311
EAFE68F8304610BB9093DBDDABC0B2AE4E290DCDA15376D7E39F72B556F0B32EAB5D3D498B4C41ABADEC3A1434C422D87E8025A84BDCB2B1417ED750FAE4DA8976863974C577C7F902D3F156AD354DEA3540DE6BEAE2BEA52F7A2EB4CA43802ECE5BF2CE2EDC9347179FFB023CE412E60BE16DA0BE29B374988A553F561DC0
311
4615DD35F7D2C8979F60E5955CE93DF29DED8AFA1EE6642D53418086C03C47C377910F75F7E8F5EF665F70B60FFB22AEDF897D119E8423C773E819A3C1E55E550599EE6EDCA34D0C86FD72057DF2CD46F16A470682471C164E4346D5306BF12D7D12D82CFF673D41636C347443FEB51B50D72EA171A8E4A58623A4A16E0FA2
311
B8B10A0D23268D87C33896EE8FB73305A74BF224EDBADFA0BD674AB354D63DB7BD5D83426761C077DE767728235446A552754EB93B755891C3C4CC6CADE37CF0E912A7BB38DBA010F9DE1282EDF470CA69A9CDA482E334C4A6EA4107987980B17E72F31730EBF88BBD39E7C629F56797A3C0009C2C5AE7951D9A05A0277344
311
0F02EEB4DE396A3B6A570C72CCFBCD823B0B8ED3F1D5CEDDFED772FA70236C83FB7D86C385D570B87107535572A60A96035F8F7C6A7192F13007246BBE0521855E6AC46F3E27689CEE7D186A6FD679D98CDCAD13333E04EBE7ED6F55FF01504B0304140006080800918E76576180134D5F0100006B03000045000000363342
311
35343836392D444334462D343438372D423731372D3038353232443136423239432F536368656D61732F52656E6465724D6174657269616C536368656D612E786D6CA5934D6FC2300C86EFFB1551EEE343DBA41D1A103009551ADAD40EAE28A4A68D9426284961FCFBE5A340113B2071746D3F765EBF4DC6BFB5407BD0862B
311
49F0B037C0082453059725C18DDD3EBFE3F1E829991803366715D474942CD30FB4A782E00C64017A412D684E454CE3FE28995203B162A6EA5AC94B66997D225E109CD63B0135484BAD1B3C07E9080CA35DB3119C11BCA5C200461A68A1A438126C75E3E230D40FF81FB3F03C91D1E3A3A0AF79FE28E25BC39EC3E17E4C2A2D
311
94A0833A51AF55BCCA7D88572FCBAC529C4140B020FC3AAFA886621DCED7EAD7664CC86024E806DC297DA1BB393E4156543457A4537DB8817349A70F8ACBF09B3EEE2CB2F33E91B65D60786E4E3B39B77E3FEEEF5650424525DA657FB8B46BE6BF064646F0A0F7327C0BC1BC1B4CBBC1C419FA3CCB23500007872A2580CAAE
311
5461865565294E4EDB4617B62FF579DF9A5B2F54E834076A597573A020912FED777F9B3F504B0304140006080800918E7657D96802FE51000000570000004700000036334235343836392D444334462D343438372D423731372D3038353232443136423239432F4173736574446174612F41737365745461626C654F66436F
311
6E74656E74732E62696E5361606030B2747472347135D075723134D435B17034D275727631D3B57074B374357774B27436751402AACB4D2C492DCA4CCC492C28484D2C4ACC4B4E050A82012F90744FCD03CA26072767A4E6260200504B0304140006080800918E7657F8658340580000006800000045000000363342353438
311
36392D444334462D343438372D423731372D3038353232443136423239432F4173736574446174612F53747265616D56657273696F6E5461626C652E696E66558CBD0A80300C06F73E4B117FB66E451741D041DC5BF98480A492E4FDD18EAEC7DD4555D89EF28DF51A0B1BD8340C4DE7DD848B988C0ACF0649566493F2408C
311
508DDEBB99D5129FF8F1AF8CF5B9503E20FAE5A16B5AF702504B0304140006080800918E765769F55E37350100009A0400003600000036334235343836392D444334462D343438372D423731372D3038353232443136423239432F4173736574446174612F636E782E786D6CCD94314FC3301085FF4AE43D7693824095E30A
311
C1D209242A06B6AB7369AD3A76645F10FC7BEC3403A888A943D7F3BBF3F327BF93EBCFDE161F18A2F1AE61155FB0029DF6AD71FB868DD495F7AC582B19BCA71F325638E8B161B9CC94DC073F0E73A9C50E469BABD6B8E35C7C8811690B3B8BCFDDA377848E222BB485181B16F5017BE030926F311E790B04BCE201A31F83C6
311
34894C8FF3241D10085BA6EA45BD2CABAAACEB6D75B7BAAD57CB9B7729B252C99DF776D69B7459F043A14FB732B590221F2B3906336BF25B98FACB23DF192745522A1929242673077D0DA90386C11A0D94D009AF09A94C22845E8A9358499119FC22F1849D7126B76C9231201F5E923D0C64F0EA88FCE7F5F264362E12388D
311
D7CBE3DCE1E529BC4E3FE8ED14C82931D796937387DCB8EE022911D31A49A1C95B457D03504B0304140006080800918E7657B9A0313B090100004F0300003400000036334235343836392D444334462D343438372D423731372D3038353232443136423239432F536368656D61732F636E782E786D6CCD93BD4E042114855F
311
65423F3033ABD16C18B6B0B0B2512B3B84BBBB64813BE1C7E8DB0B23C56E62A7C57670F842CE395CF8EED3D9EE034234E86732D28174E0156AE30F33C969DFDF936E2778404C6718E9BC7430932A13C10F01F3D2240D7B996D55ADF1A7263EA073E85FD4119C249DB232C699C4754B654EA8219EA89649D291068898838272
311
43320EDA0D2A804CA089988669D38F633F4DAFE3DDF676DA6E6EDE38ABA4E0EF88B6F1C62708B8740ACBC2173B0367F558F01C4C636A0622CEBDD1D2066785103CA6503A6864FA5A0A2997C51A2553A98AADE00F2338AB512F023F828760D47526BE30F76F919FC16B084FE5958291F63A93FFE6F16F05B075F6CB08D4AF20
311
BE01504B0304140006080800918E7657410A3D5871000000A40000002C00000036334235343836392D444334462D343438372D423731372D3038353232443136423239432F636E782E786D6C55CC4D0E82301086E1AB34B31774E7A22D31F1069E60020334B633A63FC6E34B0909B07DDE2F9FEE7EC1AB2FC5E4840DDC9A2B
311
28E25E06C7938192C7CB1D54677514C9871928C640062A83D55394F2D968A0118BAFEA1DBF377CA444F98919176EAB9FEAAB9F2960DA5BBB1E2ED3FA6FFF504B0304140006080800918E7657DF65F3217E000000A300000007000000636E782E786D6C4D8CD10A832018465F45FE7BB774A6066A60B1F7886511330D57638F
311
3F1D5DECEA83C3778E6A3FAB476F975E4B0C1AC8A502E4C2238E4B98351CFB8425A0D6A814E3FE77031486D56928188C9A533CB6138D6E1A0E5FA85FC2F384FC666B267983FB8EDD316352602B88C095AC29ED09B7B4E9B2712D4A9E5F2F6FC99B2F504B0304140006080800918E765716E99B5DA600000035010000130000
311
005B436F6E74656E745F54797065735D2E786D6C9590410E82301045AFD2740F4517C6180A0BF5065E60AC53688469D30E066F6F91AD9AB89CF9FFFD3F99BA9DC7413C3026E749CB4D59498164FCCD51A7E5C4B6D84BD136F5E5193089ECA5A465CF1C0E4A25D3E308A9F401292BD6C711388FB15301CC1D3A54DBAADA29E3
311
8991B8E0254336F5092D4C038BF39CD76B6FC6A538AEBEA54A4B08617006389FA516557DE4AE8E7E70DE30729138228C5F021CD93F02D4FB0DCD0B504B0304140006080800918E76573DEE336E64000000790000001B0000006175746F6465736B2D64657369676E2D7061636B6167652E786D6C35CBC10E83200C00D05F21
311
DCA56CA76D41FC96062B120735B69A7DBE268BB7777961F8D5AF396893C2ADB70FE7ADA196782C2DF776D7A97B5933C430F15651E5469C55D70F80A4992A3ADC954792C525AE70A1E4D6AD9816CC044FEFDF01FE3FDE907802504B0304140006080800918E7657E0D52221F700000096010000370000003633423534383639
311
2D444334462D343438372D423731372D3038353232443136423239432F4173736574446174612F636F72652E786D6C8550CB6EC32010FC156BEFD880EDC4893051DCE60F7AEA0D01715162B07854FDFC42E24AEDA9A75DCDCECCEE0E3B7D2DF7EA53FB609C1D81D4182A6DA553C6CE23A47845035427CEBC73F1170D2A2B16
311
3D428181B3D9BBB46E9074366A5B50EB94DE4011828E50C97B6E4608F2432FA216296646B8D5AB903731EB9AD44F1E672919B5498DCA6EE66AB4073E5D5E8676D84DA8A3FD0175986074E8773D9A2E7820189FA76E4F5853C49C45B3FC6C975E8BA815708A698B084194BE91FDB1A7C7B67B674D617216A2CF3F6F4BCB77C0
311
CFE5EA5711056B9ED33FAE6955FFBB2663634B37D7A722002F473E069C3525A55C1E11E65A12E5DF504B0304140006080800918E76571CE54774F6000000940100003500000036334235343836392D444334462D343438372D423731372D3038353232443136423239432F536368656D61732F636F72652E786D6C8550CB6E
311
833010FC15B477836D2021917154AA7C417BEACD320EB1126CE447D5CFAF0D546A4F3DED6A76667677D8E56B7E169FCA796D4D0FA4C4502823EDA8CDD4430C37D44171E1CC591B7ED1A03062563D6418389B9C8DCB0E496B8232193576543B28BC57010AF94C4D0F5EDED52C4A114362F847B908F910932A49B9F1388B518F
311
BB548FC94DDFB472C087EB6B5777870135B43DA106138C4EEDA145C3157704E397A139125665316741CF3FDBA55322A81138C5B44684204ADFC9F1DCD273DD7CB02A3339F3C1A59FF7A5F93BE06FEB9D9E55DBEC8F675CC6FF3DA336A1A6BBE7A6F0C0F389EB80B32A6794CA1A60AA394FFE0D504B0304140006080800918E
311
76579054069501010000D70100002D00000036334235343836392D444334462D343438372D423731372D3038353232443136423239432F636F72652E786D6C95914D6EC3201085AF62CD1EDBE0DF4498484ED41374D51D3513072506CBE0AAC72FD4AEDAEEDA15E8F1BD19DE0C3FBD4F8FE40D17A7ADE980A639246806ABB4
311
193B58FD95B4909C045FACF53F30488C9CB0832883E0E362D77997066B3C9AA81AAB7017A573E821191EE1D2811B6E38C954AE3E10EE9ECE72B8CB11539A6E9CE05E4F5FD66141E9518160392B08A584B167DA1C2B762CCA179E4552F0551B5FB0BD194EAFA8123BFB100944C5B3ED3550AB563BA355F8A3BE6A5C40D4455F
311
956D7D209773F944CAB26D48DFD086E46DC5D885D63D3B9C43916016DCF9254C662F1267F057FB66FC956C9DD53F936D0E07827E87CAE29805CF3E7710CEB812F101504B0304140006080800918E76577C7473F106010000B201000008000000636F72652E786D6C8D50416EC32010FC0ADA3B36603B71224C5457F9414FBD
311
51431C141B2C0351FBFB42E24AEDADA74533B33BC3F0D3E73CA1BB5EBD71B6035A1040DA0E4E193B7610C305B7804E82AFCE855F324056CEBA830C83E0E3EAE2B24183B341DB8C5AA7F4064AEF7500344CE9D1811FAE7A96858C2129FCAD58E47093A32E68F1D4091ECCFCB33AAC5A06AD4030C22A4C2966EC8DEE8F0D3B56
311
F53B2FB352F0188DDAAC8C4AEEE662F40AA23FBFB655BBEB71CD9A03AE0925F8D0EC1ADC9F494B0979E9EB3DE5655E16DC8735FD793B927206E4E53DFBF2F24909FEE1DCB4095228859C9DBE40105E66E24FE8B8A87F843636546C3BF8DCF02072A007918C7383693CEA4D33B72DBE01504B01021400140006080800918E76
311
5758A3E870CB000000200100004F000000000000000000000000000000000036334235343836392D444334462D343438372D423731372D3038353232443136423239432F4173736574446174612F446566696E6974696F6E4974657261746F7250726F706572746965732E62696E504B01021400140006080800918E765774
311
4432E0F00000003002000045000000000000000000000000003801000036334235343836392D444334462D343438372D423731372D3038353232443136423239432F4173736574446174612F496E7374616E636550726F706572746965732E62696E504B01021400140006080800918E765728BB58AF800100009E0500003D
311
000000000000000000000000008B02000036334235343836392D444334462D343438372D423731372D3038353232443136423239432F536368656D61732F436F6D6D6F6E536368656D612E786D6C504B01021400140006080800918E76572CCEBD668A040000E01200003E0000000000000000000000000066040000363342
311
35343836392D444334462D343438372D423731372D3038353232443136423239432F536368656D61732F47656E65726963536368656D612E786D6C504B01021400140006080800918E76576180134D5F0100006B03000045000000000000000000000000004C09000036334235343836392D444334462D343438372D423731
311
372D3038353232443136423239432F536368656D61732F52656E6465724D6174657269616C536368656D612E786D6C504B01021400140006080800918E7657D96802FE510000005700000047000000000000000000000000000E0B000036334235343836392D444334462D343438372D423731372D30383532324431364232
311
39432F4173736574446174612F41737365745461626C654F66436F6E74656E74732E62696E504B01021400140006080800918E7657F865834058000000680000004500000000000000000000000000C40B000036334235343836392D444334462D343438372D423731372D3038353232443136423239432F41737365744461
311
74612F53747265616D56657273696F6E5461626C652E696E66504B01021400140006080800918E765769F55E37350100009A04000036000000000000000000000000007F0C000036334235343836392D444334462D343438372D423731372D3038353232443136423239432F4173736574446174612F636E782E786D6C504B
311
01021400140006080800918E7657B9A0313B090100004F0300003400000000000000000000000000080E000036334235343836392D444334462D343438372D423731372D3038353232443136423239432F536368656D61732F636E782E786D6C504B01021400140006080800918E7657410A3D5871000000A40000002C0000
311
0000000000000000000000630F000036334235343836392D444334462D343438372D423731372D3038353232443136423239432F636E782E786D6C504B01021400140006080800918E7657DF65F3217E000000A300000007000000000000000000000000001E100000636E782E786D6C504B01021400140006080800918E76
311
5716E99B5DA6000000350100001300000000000000000000000000C11000005B436F6E74656E745F54797065735D2E786D6C504B01021400140006080800918E76573DEE336E64000000790000001B00000000000000000000000000981100006175746F6465736B2D64657369676E2D7061636B6167652E786D6C504B0102
311
1400140006080800918E7657E0D52221F70000009601000037000000000000000000000000003512000036334235343836392D444334462D343438372D423731372D3038353232443136423239432F4173736574446174612F636F72652E786D6C504B01021400140006080800918E76571CE54774F6000000940100003500
311
0000000000000000000000008113000036334235343836392D444334462D343438372D423731372D3038353232443136423239432F536368656D61732F636F72652E786D6C504B01021400140006080800918E76579054069501010000D70100002D00000000000000000000000000CA14000036334235343836392D444334
311
462D343438372D423731372D3038353232443136423239432F636F72652E786D6C504B01021400140006080800918E76577C7473F106010000B2010000080000000000000000000000000016160000636F72652E786D6C504B050600000000110011005A060000421700000000
310
504B0304140006080800918E7657000000000000000000000000370000006662782F35414630333432392D464437302D344246352D393638372D3433454445463234363537442F617474726962757465732E62696E504B0304140006080800918E7657000000000000000000000000350000006662782F3541463033343239
310
2D464437302D344246352D393638372D3433454445463234363537442F76657274696365732E62696E504B0304140006080800918E7657F270F1330600000004000000360000006662782F35414630333432392D464437302D344246352D393638372D3433454445463234363537442F747269616E676C65732E62696E6366
310
60600000504B0304140006080800918E765751464CB48900000043010000360000006662782F35414630333432392D464437302D344246352D393638372D3433454445463234363537442F6469726563746F72792E786D6C9D8F310EC2300C45AF127987122606C71DD918B841D4B851A43646695A717C52A85029031293A5
310
A76FBF6FACEF7DA7264E43906840EF0FA03836E242F406C6DCEE4EA06AC22492573150D1F66C60C640E8938CB705396EEDD86DE9B5042FE27813D640EA63BB001C722AF6E55CB61E4863F58284D5D3F53DD715CE1C3985E63FD7F1B7EBDD617E9F1E504B0304140006080800918E76574305BB4B35070000201C0000340000
310
006662782F35414630333432392D464437302D344246352D393638372D3433454445463234363537442F6F626A656374732E786D6CDD59596FDB3810FE2B84F665F74197AFD885E2C247521845DAA24617FB26D032ED70A30BA49438FBEB774891B224CBB6D26D8162132056687238F3CD3DF2DE1FA2103D13C66912DF1AAE
310
E51888C441B2A5F1FED6C8B39D3936D0FB29F2589264957D068A71446E0DB16C4CBD3D4BF2542D6DC90EE76173F57EFE17E2018989818210737E6BF0E09144D8C279966C097FB2B638C3D67E77B05CABD85827BB67387D6C5C956246E20C5885F518A8280EDCFABF20923DF56CB1A1B6ADD76D5BFFC2365B0A5E6794C63CC3
310
7170C255834EAF1B577D77B0BCEB0D27E67030E89B8351CF35E7F7F3A5E9DEF49DC568B198CCEE26069A7A9B24094B05A424DE82165F8DA9EBD9E29B527C85421BDF4112C7245068B66DD812459712DEC4A406AC2B45AB28A490B5B2D0EF28FC996D9D40A9B154435B0BA73FABD69B6CFE061078172B659C082BE719035D2B
310
EC0B7F703CBB58ADE9857214E18C308A4314D20DC30C14045B0B05D5C8086F11A490C04C6A51D3ABF20A867DDD97DAB8DCE56128FCD7984A4FF3C11F49C62567F41FC28EDC576F039E40DA9CC6D958099BBDA64062E2D972B1F8AEDF535F1640A25D88F7602D20A6D8D4EF35F05A8858B05A1AD38FF79BC35AC487F6CB5396
310
A48465C2F2A4332BBFD31AAC9816185F07500A5CEBBA3BA2F215A0FF04C897BC200F34C7E861701868D9198EF92E6111680739C874E08F83C4E3C993679787A708D562E5394CC16D7F10A635316A7757209D7ACF60F409EB2BE1D6010EC1A61F682CFC1C0C0585092C41BCDF6D0EC67405C11416E1140E417AF8F56CF188E0
310
A3A003F1A6A1A1B6F0DB4151DA619A7E76D4D507B019468352553519CFE13BFC21F8CE96EB8FEB9CED70401E94632FC98EC6348364DACE500DF49ACB7F5B7D921E79224F6D5700F7EC1311385AF4B2567A415231C08AC8C3856AE4CA0305770F431C9324E76ABD2D50054998307FF3EA173EDC7AD79FDA088ACBC0BF8505B4
310
0633C8EE01A3A900C5982AF1CA48681D7112715019E0BE50AABFC1C19380D70F20627D0F1F60B5983589E651EAE328C96311BE4FCDBB299AD577E48FEB4E7ACEA4379E8CB4B05C92D7DEA34343C9BCB827C2E9994B16356DA9A8A129177E348068D926410035539EF9498A039AB5DB424308E5A100F64596B774B7CB3904F5
310
56581A1C5B7D77889CCADFF292CBDCAB4B7C1AE13DF1775864B8D6FB6A0095C4B504ADC8ECC384731A132E2B9493C8D540C5B120101476ABA9B61821E57E4432FC3DF627535EC3FC18D9853ED45299A866AF5B9F665065CF731445E596C4BE94FFD5E7384AC3A24ABB8681DB6BDCD08AAB605A5CF10CF6E6E3CC77B64416DD
310
D7A8977141E3DB89FAE4BBC99F8187E19F0E8FBE8242E90D39F2BA665D6BE84EC4CF1882CA68E8F66FB422AE61A5AFCA440D12E6503505AFFE0BA1FBC76E01ADD33D9C843B9F86611EF9453EC848042518CE72D6C95F4743E744F92A2E341CA272D38E865020770E9AB2F6D0D50748258B8F7341B3720D084563E8D13A0972
310
2245AB094B5DC87E54B45DD7B5FF76AAFF395E56FB9427F2FA92B06D2BA7F532425760BA6010E15265B8D28E24E5A95775BE48362ED7711868222ABE155D82B210469EA9184CC80EA8B57FE02F380B2090AEE5A739078FD892EDB1A6A89153630E630A976A6ABA4EAD763A10EC44FAA8155E2B11502398366011671FC443F8
310
1583AAA1F2E3B6AA6AEC627D25129B058395231F17687DFEB06E508195CEA7BF088CC84B83825A5D8842EE02A96FAB63BDDAA0A024FAB6BA703C7BCCA34D8CA9C88CC22CF0367DF75EF692B736340AF6D09D3BE3BB9B81797FE70CCC8133BC37E77723D71CF59DC9009E8623776633C2939C0584DB3DDBF175ED94C67B6D18
310
05745D3A0A982A5C6FFDB43D3715FC3FEE28C26483CFD9E2AFDA5094E59E28C81ABED8B5A1680DD49BB755FFEE49A06E4F626FAA9C8B598136F0CB690B8291CEF7DD4B0B4D5A5712ED3C5732E21B13EFD96EE5A7E7985A406FCD0FB51D6D21BF1E8B61F6D492A574772BE35A6F329BCF06778E395FBAAE3918CF7AE67CB11C
310
99E3D9FDE4EE66369F2C86B31271950BBBE6955F22866A662B63349806F324A43094275BB4270974403075E8105F5944B8EC6CA00050695CBF11E870FAB998A9667813EAD3C12386C174A832721EC05014BA8E5B43ADA3DF600C2A26917238653D41E251D66EA09CD15B034C20A3905FAC0D8CB3E4F050526F8C2B416D38DE
310
8B9EA93855FE7F3C26D0015B39CA55EEE9828B92AC669D301C48E57B028876BA20F97ED1353B0867F0B8C9B35298E3C2511A05827E2150080753BF2705EF0102CF65B95C4BEEA941D269327FD10E0AAA6686D95E8ED72B78CF965F6C31195F7D466998EF853A2FE5FB1A2553D419615E0CA13C300C25668A451FBE78677F61
310
09BC628AD03D052340BF1FC6A33FEC451245495C2CD933F5A20AAD1FE1B5D3D6D6233F285C1C7768CBBA478DF5616EC58985B7FC091640B58C8AD9680171CD00CAF0543100AD11A10B3856DBBF5A2295042A256CB57415F0C8993E024712EF7284DB5437540690E00BC05531A72D1FF482673318824FFF05504B0304140006
310
080800918E7657DCC1CCA33E01000046050000300000006662782F35414630333432392D464437302D344246352D393638372D3433454445463234363537442F636E782E786D6CCD94C14E032110865F65C37DA1BBD5681A96261E7C020FC61BCB4E572C0B1B188C7D7BA1D2AA31351E9AD81B19FE49FE6FE6CFF0F5DB64AA
310
57F0413BDB91862E480556B941DBB1231137F52DA9D6827BE7F08B8C54564ED0915C26828FDEC5B99406D8C86872D568BB2D4589E8751F1102A99491217424A86798249511DD00614B07899236D44370D12B48FDA82728FDCA834418886817EDB26E9ABA6D1F9A9BD575BB5A5E3D71969582F7CE99A2D716C1BBB9522E3D6C
310
32B3E02C7F0B1EBD2E9A4C40C4A733DA6BCB59FA173C24B7762C3ADCCD5937CF462B89694CCC2904AC9308E4C4D98758709679BF51DFDF3D1E1C5483F6A0D0F9DD3F0DA0393580A3319A92F037FEBDF0776CD7BF24DCFFDAF649D862EB6CA887B48614D79FFB4F299276349717FAA3B1F3673E9D12D4EAF2900FBECE44CCF6
310
272F2D3D5F40F10E504B0304140006080800918E7657CB1EAA2E7F000000A30000000B0000006662782F636E782E786D6C4D8CD10E822018465F85FDF71429886E82AB21EFE1121D0BA191B41E3F685E74F56D67DF39FDF0D91C7A9BF8B2C10BB89C0820E3EF61B67E1590F605B78006D9C710F6BF1B203F6D4640C120FB35
310
86F43CD06C9629B9429DF58F03B2AB2635AD3AAC152798DE34C35DD3724CEB518DBAA20DE32A1BE7A2E4F9F5F296BCFC02504B0304140006080800918E7657A6D797065F0000008200000007000000636E782E786D6C4DCB3B0E80201045D1AD90E9FD7516806B51190811670C8A61F982B1B0BAC9C97B72CA7B1037C6D333
310
2918DA1E04D2CAC69353902EDB8C20262D23F3F59B81A079470595414B17391D1F19B4730A5583A7ED43BBE4025D9592775E5ADFFA01504B0304140006080800918E76574FEB6A7CA0000000F4000000130000005B436F6E74656E745F54797065735D2E786D6C7D8F4B0EC2300C44AF1279DFA6B0400835ED02B8011730C1
310
6D239A8F121795DB93D02D6269CFBC19BBED573B8B17C564BC53B0AB1B10E4B47F18372A5878A88E20FAAEBDBD032591BD2E299898C349CAA427B2986A1FC86565F0D122E7318E32A07EE24872DF3407A9BD63725C71C980AEBDD080CBCCE2BAE6F5D69B7110E7CD57AA146008B3D1C8F92C5954F993BB1BF787F39A89ABC4
310
91D09600F9FDA2FB00504B0304140006080800918E76573DEE336E64000000790000001B0000006175746F6465736B2D64657369676E2D7061636B6167652E786D6C35CBC10E83200C00D05F21DCA56CA76D41FC96062B120735B69A7DBE268BB7777961F8D5AF396893C2ADB70FE7ADA196782C2DF776D7A97B5933C430F1
310
5651E5469C55D70F80A4992A3ADC954792C525AE70A1E4D6AD9816CC044FEFDF01FE3FDE907802504B0304140006080800918E765769659C7CF9000000960100003B0000006662782F35414630333432392D464437302D344246352D393638372D3433454445463234363537442F7265736F75726365732F636F72652E786D
310
6C8550CB4EC33010FC9568EF4E623B4DA1725C95005FC0899BE56C83D5C68EFC407C3E761B243871DAD5ECCCECEE88E3D772AD3ED107E3EC00B46EA142ABDD64EC3C408A67F200D5510AEF5CFC4583CAAA0507283048317B97D60DD2CE46B405B56EC20D542160844A5F733340D01FB8A85AA59819E152AF4A5FD48C35ADEF
310
3C295232D3263553763367831EE469646DDF724E4E2F3D25DD48F7E4E9753F92E796B3FEB1EBF9AEEF4453C45244B3FC6CD71E55C409246B19279412C6DEE8FEB06307DEBD8BA630A508D1E79FB7A5E53B901E834B5E6310CD7DFAC735ADD3FFAEC9D8C8D9E67A570490341F791B48D1949472B945986B49547E03504B0304
310
140006080800918E76579F6EDB01F3000000B1010000310000006662782F35414630333432392D464437302D344246352D393638372D3433454445463234363537442F636F72652E786D6C8D50CB6EC32010FC156BEFD806DB711261A2568EBFA0A7DE10100725068B47D5CF2F24AED4DE725A343BC3CC0E3D7D2FF7E24B39
310
AFAD1900973514CA082BB5990788E182F6509C1875D6863F34280C5FD4001906466767E3BA41C29AA04C468D956A03B9F72A4021EEE931801757B5F092C79018FE56AE5CDCF8AC4A5C3E798C06BDFC4A85533C28098CD4A4411823423E707FECC8B1693F6995998CC6A8E566A56572D717AD1CB0EE6DAA9B961CD034F6356A
310
DFA70E1D76FB1EB5CD793C4FA4DD75FD48AB2C66D407976EDE3EC9D7BD2A7F0AFF658EAB7C21B336A1219BE153E181E194E7B160B4CA05A6F16837CD5C36FB01504B0304140006080800918E7657E8C942BE54010000DD0200000C0000006662782F636F72652E786D6C8D525D6F832014FD2B867754D0DAAD419AAEDB7EC1
310
9EF646913A52058360FAF3077EC4F9B06E314172EEBDE7DC730239DEDB261A84E9A5562540710A22A1B8AEA4AA4BE0EC153E81E84889D1DAFE68039162AD2841800125B5D1AE9B21AE95152AA04A57620659DF0B0B22DEF84B097AFE255A1633677D477F8B3BC66FAC16318AA73E4A9C93D53C2A2BCF26AF5218404F679C16
310
6996C1D35B81607E467BF8F2BE3FC3D734C3C5735E64BB22274918A6C4CA7651E746302B2A40718A338810C4F803ED0F3B7CC8F24F92844E4A7A6BBCE75934B803F47AB99364C2377CAEABFEE67352D90CCF7CD3440F28F2EB8D054A92908FFF8DE16D33F4C23E3FCB2ECD62E1E6A14170AB4DEE2B95766B69608D139E3A8D
310
C68F2453D5338F04BFF1E0073C8F397C504CD57E3566FDF5E26C50DFEED40903077B8F94362D6BD6E5A615D77315DA585AC6B96EB4F9CFF462750933090F937E03504B0304140006080800918E7657DFCBE78407010000B201000008000000636F72652E786D6C8D50416EC32010FC0ADA3BB601C769234C94BAED0B7AEA8D
310
1AE2A0D860191CB5BF2FC4546A6F3D2D9A99DD19861F3FA711DDF4E28DB32D90A202A46DEF94B1430B6B38E3074047C117E7C22F19202B27DD428241F06171EB9CA1DED9A06D42AD533A83D27B1D00F5637CB4E0FB8B9E6421D71015FE5ACCB2BFCA4117A4D874820733FDACF68B96412B10B4A20C1382297D23FBC38E1E58
310
FDCECBA4147C5D8DCA5646457773367A0171EA68D5548CE1D34B4370DD913D7E7ADD77F8B962B479AC1BB66B6A5EA665C17D58E29FF3919833202F6FC997971B25F887736316C4500A393B7E81A87899883FA1D759FD23B4B181D17C70DBF020480C7427A2716A308E7BBD71A6B6C537504B01021400140006080800918E76
310
570000000000000000000000003700000000000000000000000000000000006662782F35414630333432392D464437302D344246352D393638372D3433454445463234363537442F617474726962757465732E62696E504B01021400140006080800918E765700000000000000000000000035000000000000000000000000
310
00550000006662782F35414630333432392D464437302D344246352D393638372D3433454445463234363537442F76657274696365732E62696E504B01021400140006080800918E7657F270F13306000000040000003600000000000000000000000000A80000006662782F35414630333432392D464437302D344246352D
310
393638372D3433454445463234363537442F747269616E676C65732E62696E504B01021400140006080800918E765751464CB489000000430100003600000000000000000000000000020100006662782F35414630333432392D464437302D344246352D393638372D3433454445463234363537442F6469726563746F7279
310
2E786D6C504B01021400140006080800918E76574305BB4B35070000201C00003400000000000000000000000000DF0100006662782F35414630333432392D464437302D344246352D393638372D3433454445463234363537442F6F626A656374732E786D6C504B01021400140006080800918E7657DCC1CCA33E01000046
310
0500003000000000000000000000000000660900006662782F35414630333432392D464437302D344246352D393638372D3433454445463234363537442F636E782E786D6C504B01021400140006080800918E7657CB1EAA2E7F000000A30000000B00000000000000000000000000F20A00006662782F636E782E786D6C50
310
4B01021400140006080800918E7657A6D797065F0000008200000007000000000000000000000000009A0B0000636E782E786D6C504B01021400140006080800918E76574FEB6A7CA0000000F400000013000000000000000000000000001E0C00005B436F6E74656E745F54797065735D2E786D6C504B0102140014000608
310
0800918E76573DEE336E64000000790000001B00000000000000000000000000EF0C00006175746F6465736B2D64657369676E2D7061636B6167652E786D6C504B01021400140006080800918E765769659C7CF9000000960100003B000000000000000000000000008C0D00006662782F35414630333432392D464437302D
310
344246352D393638372D3433454445463234363537442F7265736F75726365732F636F72652E786D6C504B01021400140006080800918E76579F6EDB01F3000000B10100003100000000000000000000000000DE0E00006662782F35414630333432392D464437302D344246352D393638372D343345444546323436353744
310
2F636F72652E786D6C504B01021400140006080800918E7657E8C942BE54010000DD0200000C00000000000000000000000000201000006662782F636F72652E786D6C504B01021400140006080800918E7657DFCBE78407010000B201000008000000000000000000000000009E110000636F72652E786D6C504B05060000
310
00000E000E0080040000CB1200000000
  0
XRECORD
  5
81A2
102
{ACAD_REACTORS
330
819D
102
}
330
819D
100
AcDbXrecord
280
     1
270
     1
271
     1
  0
XRECORD
  5
81A1
102
{ACAD_REACTORS
330
819D
102
}
330
819D
100
AcDbXrecord
280
     1
270
     1
271
     1
  0
XRECORD
  5
81A3
102
{ACAD_REACTORS
330
819D
102
}
330
819D
100
AcDbXrecord
280
     1
270
     1
271
     1
  0
XRECORD
  5
81A0
102
{ACAD_REACTORS
330
819D
102
}
330
819D
100
AcDbXrecord
280
     1
270
     1
271
     1
  0
XRECORD
  5
84FB
102
{ACAD_REACTORS
330
84FA
102
}
330
84FA
100
AcDbXrecord
280
     1
102
DISPLAYNAME
  1
Imperial24
102
FLAGS
 90
        0
  0
CELLSTYLEMAP
  5
84C2
102
{ACAD_REACTORS
330
84C1
102
}
330
84C1
100
AcDbCellStyleMap
 90
        3
300
CELLSTYLE
  1
TABLEFORMAT_BEGIN
 90
        5
170
     1
 91
        0
 92
    32768
 62
   257
 93
        1
300
CONTENTFORMAT
  1
CONTENTFORMAT_BEGIN
 90
        0
 91
        0
 92
      512
 93
        0
300

 40
0.0
140
1.0
 94
        5
 62
     0
340
81D0
144
0.25
309
CONTENTFORMAT_END
171
     0
 94
        0
309
TABLEFORMAT_END
  1
CELLSTYLE_BEGIN
 90
        1
 91
        1
300
_TITLE
309
CELLSTYLE_END
300
CELLSTYLE
  1
TABLEFORMAT_BEGIN
 90
        5
170
     1
 91
        0
 92
        0
 62
   257
 93
        1
300
CONTENTFORMAT
  1
CONTENTFORMAT_BEGIN
 90
        0
 91
        0
 92
      512
 93
        0
300

 40
0.0
140
1.0
 94
        5
 62
     0
340
81D0
144
0.18
309
CONTENTFORMAT_END
171
     0
 94
        0
309
TABLEFORMAT_END
  1
CELLSTYLE_BEGIN
 90
        2
 91
        1
300
_HEADER
309
CELLSTYLE_END
300
CELLSTYLE
  1
TABLEFORMAT_BEGIN
 90
        5
170
     1
 91
        0
 92
        0
 62
   257
 93
        1
300
CONTENTFORMAT
  1
CONTENTFORMAT_BEGIN
 90
        0
 91
        0
 92
      512
 93
        0
300

 40
0.0
140
1.0
 94
        2
 62
     0
340
81D0
144
0.18
309
CONTENTFORMAT_END
171
     0
 94
        0
309
TABLEFORMAT_END
  1
CELLSTYLE_BEGIN
 90
        3
 91
        2
300
_DATA
309
CELLSTYLE_END
  0
XRECORD
  5
84F8
102
{ACAD_REACTORS
330
84C1
102
}
330
84C1
100
AcDbXrecord
280
     1
102
ACAD_ROUNDTRIP_PRE2007_TABLESTYLE
 90
      512
 91
        0
  1

 92
      512
 93
        0
  2

 94
      512
 95
        0
  3

  0
XRECORD
  5
84D3
102
{ACAD_REACTORS
330
84D2
102
}
330
84D2
100
AcDbXrecord
280
     1
102
RTVSPost2010Prop28
280
     1
102
RTVSPost2010PropOp28
 70
     1
102
RTVSPost2010Prop29
280
     1
102
RTVSPost2010PropOp29
 70
     1
102
RTVSPost2010Prop30
280
     0
102
RTVSPost2010PropOp30
 70
     1
102
RTVSPost2010Prop31
280
     0
102
RTVSPost2010PropOp31
 70
     1
102
RTVSPost2010Prop32
280
     0
102
RTVSPost2010PropOp32
 70
     1
102
RTVSPost2010Prop33
280
     0
102
RTVSPost2010PropOp33
 70
     1
102
RTVSPost2010Prop34
280
     0
102
RTVSPost2010PropOp34
 70
     1
102
RTVSPost2010Prop35
280
     0
102
RTVSPost2010PropOp35
 70
     1
102
RTVSPost2010Prop36
280
     0
102
RTVSPost2010PropOp36
 70
     1
102
RTVSPost2010Prop37
 90
       50
102
RTVSPost2010PropOp37
 70
     1
102
RTVSPost2010Prop38
140
0.0
102
RTVSPost2010PropOp38
 70
     1
102
RTVSPost2010Prop39
140
1.0
102
RTVSPost2010PropOp39
 70
     1
102
RTVSPost2010Prop40
 90
        0
102
RTVSPost2010PropOp40
 70
     1
102
RTVSPost2010Prop41ColorIndex
 90
       18
102
RTVSPost2010Prop41ColorRGB
 90
        0
102
RTVSPost2010PropOp41
 70
     1
102
RTVSPost2010Prop42
 90
       50
102
RTVSPost2010PropOp42
 70
     1
102
RTVSPost2010Prop43
 90
        3
102
RTVSPost2010PropOp43
 70
     1
102
RTVSPost2010Prop44ColorIndex
 90
        5
102
RTVSPost2010Prop44ColorRGB
 90
      255
102
RTVSPost2010PropOp44
 70
     1
102
RTVSPost2010Prop45
280
     0
102
RTVSPost2010PropOp45
 70
     1
102
RTVSPost2010Prop46
 90
       50
102
RTVSPost2010PropOp46
 70
     1
102
RTVSPost2010Prop47
 90
       50
102
RTVSPost2010PropOp47
 70
     1
102
RTVSPost2010Prop48
 90
       50
102
RTVSPost2010PropOp48
 70
     1
102
RTVSPost2010Prop49
280
     0
102
RTVSPost2010PropOp49
 70
     1
102
RTVSPost2010Prop50
 90
       50
102
RTVSPost2010PropOp50
 70
     1
102
RTVSPost2010Prop51ColorIndex
 90
      256
102
RTVSPost2010Prop51ColorRGB
 90
-16777216
102
RTVSPost2010PropOp51
 70
     0
102
RTVSPost2010Prop52
140
1.0
102
RTVSPost2010PropOp52
 70
     0
102
RTVSPost2010Prop53
 90
        2
102
RTVSPost2010PropOp53
 70
     1
102
RTVSPost2010Prop54
  1
strokes_ogs.tif
102
RTVSPost2010PropOp54
 70
     1
102
RTVSPost2010Prop55
280
     0
102
RTVSPost2010PropOp55
 70
     1
102
RTVSPost2010Prop56
140
1.0
102
RTVSPost2010PropOp56
 70
     1
102
RTVSPost2010Prop57
140
1.0
102
RTVSPost2010PropOp57
 70
     1
102
RTVSPropertyOp0
 70
     1
102
RTVSPropertyOp1
 70
     1
102
RTVSPropertyOp2
 70
     1
102
RTVSPropertyOp3
 70
     1
102
RTVSPropertyOp4
 70
     1
102
RTVSPropertyOp5
 70
     1
102
RTVSPropertyOp6
 70
     1
102
RTVSPropertyOp7
 70
     1
102
RTVSPropertyOp8
 70
     1
102
RTVSPropertyOp9
 70
     1
102
RTVSPropertyOp10
 70
     1
102
RTVSPropertyOp11
 70
     1
102
RTVSPropertyOp12
 70
     1
102
RTVSPropertyOp13
 70
     1
102
RTVSPropertyOp14
 70
     1
102
RTVSPropertyOp15
 70
     1
102
RTVSPropertyOp16
 70
     1
102
RTVSPropertyOp17
 70
     1
102
RTVSPropertyOp18
 70
     1
102
RTVSPropertyOp19
 70
     1
102
RTVSPropertyOp20
 70
     1
102
RTVSPropertyOp21
 70
     1
102
RTVSPropertyOp22
 70
     1
102
RTVSPropertyOp23
 70
     1
102
RTVSPropertyOp24
 70
     1
102
RTVSPropertyOp25
 70
     1
102
RTVSPropertyOp26
 70
     1
102
RTVSPropertyOp27
 70
     1
102
RTVSPropertyOp28
 70
     1
102
RTVSPropertyOp29
 70
     1
102
RTVSPropertyOp30
 70
     1
102
RTVSPropertyOp31
 70
     1
102
RTVSPropertyOp32
 70
     1
102
RTVSPropertyOp33
 70
     1
102
RTVSPropertyOp34
 70
     1
102
RTVSPropertyOp35
 70
     1
102
RTVSPropertyOp36
 70
     1
102
RTVSPropertyOp37
 70
     1
102
RTVSPropertyOp38
 70
     1
102
RTVSPropertyOp39
 70
     1
102
RTVSPropertyOp40
 70
     1
102
RTVSPropertyOp41
 70
     1
102
RTVSPropertyOp42
 70
     1
102
RTVSPropertyOp43
 70
     1
102
RTVSPropertyOp44
 70
     1
102
RTVSPropertyOp45
 70
     1
102
RTVSPropertyOp46
 70
     1
102
RTVSPropertyOp47
 70
     1
102
RTVSPropertyOp48
 70
     1
102
RTVSPropertyOp49
 70
     1
102
RTVSPropertyOp50
 70
     1
102
RTVSPropertyOp51
 70
     0
102
RTVSPropertyOp52
 70
     0
102
RTVSPropertyOp53
 70
     1
102
RTVSPropertyOp54
 70
     1
102
RTVSPropertyOp55
 70
     1
102
RTVSPropertyOp56
 70
     1
102
RTVSPropertyOp57
 70
     1
102
RTVSPropertyOp58
 70
     1
102
RTVSPropertyOp59
 70
     1
102
RTVSPropertyOp60
 70
     1
102
RTVSPropertyOp61
 70
     1
102
RTVSPropertyOp62
 70
     1
  0
XRECORD
  5
84D1
102
{ACAD_REACTORS
330
84D0
102
}
330
84D0
100
AcDbXrecord
280
     1
102
RTVSPost2010Prop28
280
     0
102
RTVSPost2010PropOp28
 70
     1
102
RTVSPost2010Prop29
280
     1
102
RTVSPost2010PropOp29
 70
     1
102
RTVSPost2010Prop30
280
     1
102
RTVSPost2010PropOp30
 70
     1
102
RTVSPost2010Prop31
280
     0
102
RTVSPost2010PropOp31
 70
     1
102
RTVSPost2010Prop32
280
     0
102
RTVSPost2010PropOp32
 70
     1
102
RTVSPost2010Prop33
280
     0
102
RTVSPost2010PropOp33
 70
     1
102
RTVSPost2010Prop34
280
     0
102
RTVSPost2010PropOp34
 70
     1
102
RTVSPost2010Prop35
280
     0
102
RTVSPost2010PropOp35
 70
     1
102
RTVSPost2010Prop36
280
     0
102
RTVSPost2010PropOp36
 70
     1
102
RTVSPost2010Prop37
 90
       50
102
RTVSPost2010PropOp37
 70
     1
102
RTVSPost2010Prop38
140
0.0
102
RTVSPost2010PropOp38
 70
     1
102
RTVSPost2010Prop39
140
1.0
102
RTVSPost2010PropOp39
 70
     1
102
RTVSPost2010Prop40
 90
        0
102
RTVSPost2010PropOp40
 70
     1
102
RTVSPost2010Prop41ColorIndex
 90
       18
102
RTVSPost2010Prop41ColorRGB
 90
        0
102
RTVSPost2010PropOp41
 70
     1
102
RTVSPost2010Prop42
 90
       50
102
RTVSPost2010PropOp42
 70
     1
102
RTVSPost2010Prop43
 90
        3
102
RTVSPost2010PropOp43
 70
     1
102
RTVSPost2010Prop44ColorIndex
 90
        5
102
RTVSPost2010Prop44ColorRGB
 90
      255
102
RTVSPost2010PropOp44
 70
     1
102
RTVSPost2010Prop45
280
     0
102
RTVSPost2010PropOp45
 70
     1
102
RTVSPost2010Prop46
 90
       50
102
RTVSPost2010PropOp46
 70
     1
102
RTVSPost2010Prop47
 90
       50
102
RTVSPost2010PropOp47
 70
     1
102
RTVSPost2010Prop48
 90
       50
102
RTVSPost2010PropOp48
 70
     1
102
RTVSPost2010Prop49
280
     0
102
RTVSPost2010PropOp49
 70
     1
102
RTVSPost2010Prop50
 90
       50
102
RTVSPost2010PropOp50
 70
     1
102
RTVSPost2010Prop51ColorIndex
 90
      256
102
RTVSPost2010Prop51ColorRGB
 90
-16777216
102
RTVSPost2010PropOp51
 70
     0
102
RTVSPost2010Prop52
140
1.0
102
RTVSPost2010PropOp52
 70
     0
102
RTVSPost2010Prop53
 90
        2
102
RTVSPost2010PropOp53
 70
     1
102
RTVSPost2010Prop54
  1
strokes_ogs.tif
102
RTVSPost2010PropOp54
 70
     1
102
RTVSPost2010Prop55
280
     0
102
RTVSPost2010PropOp55
 70
     1
102
RTVSPost2010Prop56
140
1.0
102
RTVSPost2010PropOp56
 70
     1
102
RTVSPost2010Prop57
140
1.0
102
RTVSPost2010PropOp57
 70
     1
102
RTVSPropertyOp0
 70
     1
102
RTVSPropertyOp1
 70
     1
102
RTVSPropertyOp2
 70
     1
102
RTVSPropertyOp3
 70
     1
102
RTVSPropertyOp4
 70
     1
102
RTVSPropertyOp5
 70
     1
102
RTVSPropertyOp6
 70
     1
102
RTVSPropertyOp7
 70
     1
102
RTVSPropertyOp8
 70
     1
102
RTVSPropertyOp9
 70
     1
102
RTVSPropertyOp10
 70
     1
102
RTVSPropertyOp11
 70
     1
102
RTVSPropertyOp12
 70
     1
102
RTVSPropertyOp13
 70
     1
102
RTVSPropertyOp14
 70
     1
102
RTVSPropertyOp15
 70
     1
102
RTVSPropertyOp16
 70
     1
102
RTVSPropertyOp17
 70
     1
102
RTVSPropertyOp18
 70
     1
102
RTVSPropertyOp19
 70
     1
102
RTVSPropertyOp20
 70
     1
102
RTVSPropertyOp21
 70
     1
102
RTVSPropertyOp22
 70
     1
102
RTVSPropertyOp23
 70
     1
102
RTVSPropertyOp24
 70
     1
102
RTVSPropertyOp25
 70
     1
102
RTVSPropertyOp26
 70
     1
102
RTVSPropertyOp27
 70
     1
102
RTVSPropertyOp28
 70
     1
102
RTVSPropertyOp29
 70
     1
102
RTVSPropertyOp30
 70
     1
102
RTVSPropertyOp31
 70
     1
102
RTVSPropertyOp32
 70
     1
102
RTVSPropertyOp33
 70
     1
102
RTVSPropertyOp34
 70
     1
102
RTVSPropertyOp35
 70
     1
102
RTVSPropertyOp36
 70
     1
102
RTVSPropertyOp37
 70
     1
102
RTVSPropertyOp38
 70
     1
102
RTVSPropertyOp39
 70
     1
102
RTVSPropertyOp40
 70
     1
102
RTVSPropertyOp41
 70
     1
102
RTVSPropertyOp42
 70
     1
102
RTVSPropertyOp43
 70
     1
102
RTVSPropertyOp44
 70
     1
102
RTVSPropertyOp45
 70
     1
102
RTVSPropertyOp46
 70
     1
102
RTVSPropertyOp47
 70
     1
102
RTVSPropertyOp48
 70
     1
102
RTVSPropertyOp49
 70
     1
102
RTVSPropertyOp50
 70
     1
102
RTVSPropertyOp51
 70
     0
102
RTVSPropertyOp52
 70
     0
102
RTVSPropertyOp53
 70
     1
102
RTVSPropertyOp54
 70
     1
102
RTVSPropertyOp55
 70
     1
102
RTVSPropertyOp56
 70
     1
102
RTVSPropertyOp57
 70
     1
102
RTVSPropertyOp58
 70
     1
102
RTVSPropertyOp59
 70
     1
102
RTVSPropertyOp60
 70
     1
102
RTVSPropertyOp61
 70
     1
102
RTVSPropertyOp62
 70
     1
  0
XRECORD
  5
84DF
102
{ACAD_REACTORS
330
84DE
102
}
330
84DE
100
AcDbXrecord
280
     1
102
RTVSPost2010Prop28
280
     0
102
RTVSPost2010PropOp28
 70
     1
102
RTVSPost2010Prop29
280
     1
102
RTVSPost2010PropOp29
 70
     1
102
RTVSPost2010Prop30
280
     1
102
RTVSPost2010PropOp30
 70
     1
102
RTVSPost2010Prop31
280
     0
102
RTVSPost2010PropOp31
 70
     1
102
RTVSPost2010Prop32
280
     0
102
RTVSPost2010PropOp32
 70
     1
102
RTVSPost2010Prop33
280
     0
102
RTVSPost2010PropOp33
 70
     1
102
RTVSPost2010Prop34
280
     0
102
RTVSPost2010PropOp34
 70
     1
102
RTVSPost2010Prop35
280
     0
102
RTVSPost2010PropOp35
 70
     1
102
RTVSPost2010Prop36
280
     0
102
RTVSPost2010PropOp36
 70
     1
102
RTVSPost2010Prop37
 90
       50
102
RTVSPost2010PropOp37
 70
     1
102
RTVSPost2010Prop38
140
0.0
102
RTVSPost2010PropOp38
 70
     1
102
RTVSPost2010Prop39
140
1.0
102
RTVSPost2010PropOp39
 70
     1
102
RTVSPost2010Prop40
 90
        0
102
RTVSPost2010PropOp40
 70
     1
102
RTVSPost2010Prop41ColorIndex
 90
       18
102
RTVSPost2010Prop41ColorRGB
 90
        0
102
RTVSPost2010PropOp41
 70
     1
102
RTVSPost2010Prop42
 90
       50
102
RTVSPost2010PropOp42
 70
     1
102
RTVSPost2010Prop43
 90
        3
102
RTVSPost2010PropOp43
 70
     1
102
RTVSPost2010Prop44ColorIndex
 90
        5
102
RTVSPost2010Prop44ColorRGB
 90
      255
102
RTVSPost2010PropOp44
 70
     1
102
RTVSPost2010Prop45
280
     0
102
RTVSPost2010PropOp45
 70
     1
102
RTVSPost2010Prop46
 90
       50
102
RTVSPost2010PropOp46
 70
     1
102
RTVSPost2010Prop47
 90
       50
102
RTVSPost2010PropOp47
 70
     1
102
RTVSPost2010Prop48
 90
       50
102
RTVSPost2010PropOp48
 70
     1
102
RTVSPost2010Prop49
280
     0
102
RTVSPost2010PropOp49
 70
     1
102
RTVSPost2010Prop50
 90
       50
102
RTVSPost2010PropOp50
 70
     1
102
RTVSPost2010Prop51ColorIndex
 90
      256
102
RTVSPost2010Prop51ColorRGB
 90
-16777216
102
RTVSPost2010PropOp51
 70
     0
102
RTVSPost2010Prop52
140
1.0
102
RTVSPost2010PropOp52
 70
     0
102
RTVSPost2010Prop53
 90
        2
102
RTVSPost2010PropOp53
 70
     1
102
RTVSPost2010Prop54
  1
strokes_ogs.tif
102
RTVSPost2010PropOp54
 70
     1
102
RTVSPost2010Prop55
280
     0
102
RTVSPost2010PropOp55
 70
     1
102
RTVSPost2010Prop56
140
1.0
102
RTVSPost2010PropOp56
 70
     1
102
RTVSPost2010Prop57
140
1.0
102
RTVSPost2010PropOp57
 70
     1
102
RTVSPropertyOp0
 70
     1
102
RTVSPropertyOp1
 70
     1
102
RTVSPropertyOp2
 70
     1
102
RTVSPropertyOp3
 70
     1
102
RTVSPropertyOp4
 70
     1
102
RTVSPropertyOp5
 70
     1
102
RTVSPropertyOp6
 70
     1
102
RTVSPropertyOp7
 70
     1
102
RTVSPropertyOp8
 70
     1
102
RTVSPropertyOp9
 70
     1
102
RTVSPropertyOp10
 70
     1
102
RTVSPropertyOp11
 70
     1
102
RTVSPropertyOp12
 70
     1
102
RTVSPropertyOp13
 70
     1
102
RTVSPropertyOp14
 70
     1
102
RTVSPropertyOp15
 70
     1
102
RTVSPropertyOp16
 70
     1
102
RTVSPropertyOp17
 70
     1
102
RTVSPropertyOp18
 70
     1
102
RTVSPropertyOp19
 70
     1
102
RTVSPropertyOp20
 70
     1
102
RTVSPropertyOp21
 70
     1
102
RTVSPropertyOp22
 70
     1
102
RTVSPropertyOp23
 70
     1
102
RTVSPropertyOp24
 70
     1
102
RTVSPropertyOp25
 70
     1
102
RTVSPropertyOp26
 70
     1
102
RTVSPropertyOp27
 70
     1
102
RTVSPropertyOp28
 70
     1
102
RTVSPropertyOp29
 70
     1
102
RTVSPropertyOp30
 70
     1
102
RTVSPropertyOp31
 70
     1
102
RTVSPropertyOp32
 70
     1
102
RTVSPropertyOp33
 70
     1
102
RTVSPropertyOp34
 70
     1
102
RTVSPropertyOp35
 70
     1
102
RTVSPropertyOp36
 70
     1
102
RTVSPropertyOp37
 70
     1
102
RTVSPropertyOp38
 70
     1
102
RTVSPropertyOp39
 70
     1
102
RTVSPropertyOp40
 70
     1
102
RTVSPropertyOp41
 70
     1
102
RTVSPropertyOp42
 70
     1
102
RTVSPropertyOp43
 70
     1
102
RTVSPropertyOp44
 70
     1
102
RTVSPropertyOp45
 70
     1
102
RTVSPropertyOp46
 70
     1
102
RTVSPropertyOp47
 70
     1
102
RTVSPropertyOp48
 70
     1
102
RTVSPropertyOp49
 70
     1
102
RTVSPropertyOp50
 70
     1
102
RTVSPropertyOp51
 70
     0
102
RTVSPropertyOp52
 70
     0
102
RTVSPropertyOp53
 70
     1
102
RTVSPropertyOp54
 70
     1
102
RTVSPropertyOp55
 70
     1
102
RTVSPropertyOp56
 70
     1
102
RTVSPropertyOp57
 70
     1
102
RTVSPropertyOp58
 70
     1
102
RTVSPropertyOp59
 70
     1
102
RTVSPropertyOp60
 70
     1
102
RTVSPropertyOp61
 70
     1
102
RTVSPropertyOp62
 70
     1
  0
XRECORD
  5
84E7
102
{ACAD_REACTORS
330
84E6
102
}
330
84E6
100
AcDbXrecord
280
     1
102
RTVSPost2010Prop28
280
     0
102
RTVSPost2010PropOp28
 70
     1
102
RTVSPost2010Prop29
280
     1
102
RTVSPost2010PropOp29
 70
     1
102
RTVSPost2010Prop30
280
     1
102
RTVSPost2010PropOp30
 70
     1
102
RTVSPost2010Prop31
280
     0
102
RTVSPost2010PropOp31
 70
     1
102
RTVSPost2010Prop32
280
     0
102
RTVSPost2010PropOp32
 70
     1
102
RTVSPost2010Prop33
280
     0
102
RTVSPost2010PropOp33
 70
     1
102
RTVSPost2010Prop34
280
     0
102
RTVSPost2010PropOp34
 70
     1
102
RTVSPost2010Prop35
280
     0
102
RTVSPost2010PropOp35
 70
     1
102
RTVSPost2010Prop36
280
     0
102
RTVSPost2010PropOp36
 70
     1
102
RTVSPost2010Prop37
 90
       50
102
RTVSPost2010PropOp37
 70
     1
102
RTVSPost2010Prop38
140
0.0
102
RTVSPost2010PropOp38
 70
     1
102
RTVSPost2010Prop39
140
1.0
102
RTVSPost2010PropOp39
 70
     1
102
RTVSPost2010Prop40
 90
        0
102
RTVSPost2010PropOp40
 70
     1
102
RTVSPost2010Prop41ColorIndex
 90
       18
102
RTVSPost2010Prop41ColorRGB
 90
        0
102
RTVSPost2010PropOp41
 70
     1
102
RTVSPost2010Prop42
 90
       50
102
RTVSPost2010PropOp42
 70
     1
102
RTVSPost2010Prop43
 90
        3
102
RTVSPost2010PropOp43
 70
     1
102
RTVSPost2010Prop44ColorIndex
 90
        5
102
RTVSPost2010Prop44ColorRGB
 90
      255
102
RTVSPost2010PropOp44
 70
     1
102
RTVSPost2010Prop45
280
     0
102
RTVSPost2010PropOp45
 70
     1
102
RTVSPost2010Prop46
 90
       50
102
RTVSPost2010PropOp46
 70
     1
102
RTVSPost2010Prop47
 90
       50
102
RTVSPost2010PropOp47
 70
     1
102
RTVSPost2010Prop48
 90
       50
102
RTVSPost2010PropOp48
 70
     1
102
RTVSPost2010Prop49
280
     0
102
RTVSPost2010PropOp49
 70
     1
102
RTVSPost2010Prop50
 90
       50
102
RTVSPost2010PropOp50
 70
     1
102
RTVSPost2010Prop51ColorIndex
 90
      256
102
RTVSPost2010Prop51ColorRGB
 90
-16777216
102
RTVSPost2010PropOp51
 70
     0
102
RTVSPost2010Prop52
140
1.0
102
RTVSPost2010PropOp52
 70
     0
102
RTVSPost2010Prop53
 90
        2
102
RTVSPost2010PropOp53
 70
     1
102
RTVSPost2010Prop54
  1
strokes_ogs.tif
102
RTVSPost2010PropOp54
 70
     1
102
RTVSPost2010Prop55
280
     0
102
RTVSPost2010PropOp55
 70
     1
102
RTVSPost2010Prop56
140
1.0
102
RTVSPost2010PropOp56
 70
     1
102
RTVSPost2010Prop57
140
1.0
102
RTVSPost2010PropOp57
 70
     1
102
RTVSPropertyOp0
 70
     1
102
RTVSPropertyOp1
 70
     1
102
RTVSPropertyOp2
 70
     1
102
RTVSPropertyOp3
 70
     1
102
RTVSPropertyOp4
 70
     1
102
RTVSPropertyOp5
 70
     1
102
RTVSPropertyOp6
 70
     1
102
RTVSPropertyOp7
 70
     1
102
RTVSPropertyOp8
 70
     1
102
RTVSPropertyOp9
 70
     1
102
RTVSPropertyOp10
 70
     1
102
RTVSPropertyOp11
 70
     1
102
RTVSPropertyOp12
 70
     1
102
RTVSPropertyOp13
 70
     1
102
RTVSPropertyOp14
 70
     1
102
RTVSPropertyOp15
 70
     1
102
RTVSPropertyOp16
 70
     1
102
RTVSPropertyOp17
 70
     1
102
RTVSPropertyOp18
 70
     1
102
RTVSPropertyOp19
 70
     1
102
RTVSPropertyOp20
 70
     1
102
RTVSPropertyOp21
 70
     1
102
RTVSPropertyOp22
 70
     1
102
RTVSPropertyOp23
 70
     1
102
RTVSPropertyOp24
 70
     1
102
RTVSPropertyOp25
 70
     1
102
RTVSPropertyOp26
 70
     1
102
RTVSPropertyOp27
 70
     1
102
RTVSPropertyOp28
 70
     1
102
RTVSPropertyOp29
 70
     1
102
RTVSPropertyOp30
 70
     1
102
RTVSPropertyOp31
 70
     1
102
RTVSPropertyOp32
 70
     1
102
RTVSPropertyOp33
 70
     1
102
RTVSPropertyOp34
 70
     1
102
RTVSPropertyOp35
 70
     1
102
RTVSPropertyOp36
 70
     1
102
RTVSPropertyOp37
 70
     1
102
RTVSPropertyOp38
 70
     1
102
RTVSPropertyOp39
 70
     1
102
RTVSPropertyOp40
 70
     1
102
RTVSPropertyOp41
 70
     1
102
RTVSPropertyOp42
 70
     1
102
RTVSPropertyOp43
 70
     1
102
RTVSPropertyOp44
 70
     1
102
RTVSPropertyOp45
 70
     1
102
RTVSPropertyOp46
 70
     1
102
RTVSPropertyOp47
 70
     1
102
RTVSPropertyOp48
 70
     1
102
RTVSPropertyOp49
 70
     1
102
RTVSPropertyOp50
 70
     1
102
RTVSPropertyOp51
 70
     0
102
RTVSPropertyOp52
 70
     0
102
RTVSPropertyOp53
 70
     1
102
RTVSPropertyOp54
 70
     1
102
RTVSPropertyOp55
 70
     1
102
RTVSPropertyOp56
 70
     1
102
RTVSPropertyOp57
 70
     1
102
RTVSPropertyOp58
 70
     1
102
RTVSPropertyOp59
 70
     1
102
RTVSPropertyOp60
 70
     1
102
RTVSPropertyOp61
 70
     1
102
RTVSPropertyOp62
 70
     1
  0
XRECORD
  5
84D9
102
{ACAD_REACTORS
330
84D8
102
}
330
84D8
100
AcDbXrecord
280
     1
102
RTVSPost2010Prop28
280
     0
102
RTVSPost2010PropOp28
 70
     1
102
RTVSPost2010Prop29
280
     1
102
RTVSPost2010PropOp29
 70
     1
102
RTVSPost2010Prop30
280
     1
102
RTVSPost2010PropOp30
 70
     1
102
RTVSPost2010Prop31
280
     0
102
RTVSPost2010PropOp31
 70
     1
102
RTVSPost2010Prop32
280
     0
102
RTVSPost2010PropOp32
 70
     1
102
RTVSPost2010Prop33
280
     0
102
RTVSPost2010PropOp33
 70
     1
102
RTVSPost2010Prop34
280
     0
102
RTVSPost2010PropOp34
 70
     1
102
RTVSPost2010Prop35
280
     0
102
RTVSPost2010PropOp35
 70
     1
102
RTVSPost2010Prop36
280
     0
102
RTVSPost2010PropOp36
 70
     1
102
RTVSPost2010Prop37
 90
       50
102
RTVSPost2010PropOp37
 70
     1
102
RTVSPost2010Prop38
140
0.0
102
RTVSPost2010PropOp38
 70
     1
102
RTVSPost2010Prop39
140
1.0
102
RTVSPost2010PropOp39
 70
     1
102
RTVSPost2010Prop40
 90
        0
102
RTVSPost2010PropOp40
 70
     1
102
RTVSPost2010Prop41ColorIndex
 90
       18
102
RTVSPost2010Prop41ColorRGB
 90
        0
102
RTVSPost2010PropOp41
 70
     1
102
RTVSPost2010Prop42
 90
       50
102
RTVSPost2010PropOp42
 70
     1
102
RTVSPost2010Prop43
 90
        3
102
RTVSPost2010PropOp43
 70
     1
102
RTVSPost2010Prop44ColorIndex
 90
        5
102
RTVSPost2010Prop44ColorRGB
 90
      255
102
RTVSPost2010PropOp44
 70
     1
102
RTVSPost2010Prop45
280
     0
102
RTVSPost2010PropOp45
 70
     1
102
RTVSPost2010Prop46
 90
       50
102
RTVSPost2010PropOp46
 70
     1
102
RTVSPost2010Prop47
 90
       50
102
RTVSPost2010PropOp47
 70
     1
102
RTVSPost2010Prop48
 90
       50
102
RTVSPost2010PropOp48
 70
     1
102
RTVSPost2010Prop49
280
     0
102
RTVSPost2010PropOp49
 70
     1
102
RTVSPost2010Prop50
 90
       50
102
RTVSPost2010PropOp50
 70
     1
102
RTVSPost2010Prop51ColorIndex
 90
      256
102
RTVSPost2010Prop51ColorRGB
 90
-16777216
102
RTVSPost2010PropOp51
 70
     0
102
RTVSPost2010Prop52
140
1.0
102
RTVSPost2010PropOp52
 70
     0
102
RTVSPost2010Prop53
 90
        2
102
RTVSPost2010PropOp53
 70
     1
102
RTVSPost2010Prop54
  1
strokes_ogs.tif
102
RTVSPost2010PropOp54
 70
     1
102
RTVSPost2010Prop55
280
     0
102
RTVSPost2010PropOp55
 70
     1
102
RTVSPost2010Prop56
140
1.0
102
RTVSPost2010PropOp56
 70
     1
102
RTVSPost2010Prop57
140
1.0
102
RTVSPost2010PropOp57
 70
     1
102
RTVSPropertyOp0
 70
     1
102
RTVSPropertyOp1
 70
     1
102
RTVSPropertyOp2
 70
     1
102
RTVSPropertyOp3
 70
     1
102
RTVSPropertyOp4
 70
     1
102
RTVSPropertyOp5
 70
     1
102
RTVSPropertyOp6
 70
     1
102
RTVSPropertyOp7
 70
     1
102
RTVSPropertyOp8
 70
     1
102
RTVSPropertyOp9
 70
     1
102
RTVSPropertyOp10
 70
     1
102
RTVSPropertyOp11
 70
     1
102
RTVSPropertyOp12
 70
     1
102
RTVSPropertyOp13
 70
     1
102
RTVSPropertyOp14
 70
     1
102
RTVSPropertyOp15
 70
     1
102
RTVSPropertyOp16
 70
     1
102
RTVSPropertyOp17
 70
     1
102
RTVSPropertyOp18
 70
     1
102
RTVSPropertyOp19
 70
     1
102
RTVSPropertyOp20
 70
     1
102
RTVSPropertyOp21
 70
     1
102
RTVSPropertyOp22
 70
     1
102
RTVSPropertyOp23
 70
     1
102
RTVSPropertyOp24
 70
     1
102
RTVSPropertyOp25
 70
     1
102
RTVSPropertyOp26
 70
     1
102
RTVSPropertyOp27
 70
     1
102
RTVSPropertyOp28
 70
     1
102
RTVSPropertyOp29
 70
     1
102
RTVSPropertyOp30
 70
     1
102
RTVSPropertyOp31
 70
     1
102
RTVSPropertyOp32
 70
     1
102
RTVSPropertyOp33
 70
     1
102
RTVSPropertyOp34
 70
     1
102
RTVSPropertyOp35
 70
     1
102
RTVSPropertyOp36
 70
     1
102
RTVSPropertyOp37
 70
     1
102
RTVSPropertyOp38
 70
     1
102
RTVSPropertyOp39
 70
     1
102
RTVSPropertyOp40
 70
     1
102
RTVSPropertyOp41
 70
     1
102
RTVSPropertyOp42
 70
     1
102
RTVSPropertyOp43
 70
     1
102
RTVSPropertyOp44
 70
     1
102
RTVSPropertyOp45
 70
     1
102
RTVSPropertyOp46
 70
     1
102
RTVSPropertyOp47
 70
     1
102
RTVSPropertyOp48
 70
     1
102
RTVSPropertyOp49
 70
     1
102
RTVSPropertyOp50
 70
     1
102
RTVSPropertyOp51
 70
     0
102
RTVSPropertyOp52
 70
     0
102
RTVSPropertyOp53
 70
     1
102
RTVSPropertyOp54
 70
     1
102
RTVSPropertyOp55
 70
     1
102
RTVSPropertyOp56
 70
     1
102
RTVSPropertyOp57
 70
     1
102
RTVSPropertyOp58
 70
     1
102
RTVSPropertyOp59
 70
     1
102
RTVSPropertyOp60
 70
     1
102
RTVSPropertyOp61
 70
     1
102
RTVSPropertyOp62
 70
     1
  0
XRECORD
  5
84DD
102
{ACAD_REACTORS
330
84DC
102
}
330
84DC
100
AcDbXrecord
280
     1
102
RTVSPost2010Prop28
280
     0
102
RTVSPost2010PropOp28
 70
     1
102
RTVSPost2010Prop29
280
     1
102
RTVSPost2010PropOp29
 70
     1
102
RTVSPost2010Prop30
280
     1
102
RTVSPost2010PropOp30
 70
     1
102
RTVSPost2010Prop31
280
     0
102
RTVSPost2010PropOp31
 70
     1
102
RTVSPost2010Prop32
280
     0
102
RTVSPost2010PropOp32
 70
     1
102
RTVSPost2010Prop33
280
     0
102
RTVSPost2010PropOp33
 70
     1
102
RTVSPost2010Prop34
280
     0
102
RTVSPost2010PropOp34
 70
     1
102
RTVSPost2010Prop35
280
     0
102
RTVSPost2010PropOp35
 70
     1
102
RTVSPost2010Prop36
280
     0
102
RTVSPost2010PropOp36
 70
     1
102
RTVSPost2010Prop37
 90
       50
102
RTVSPost2010PropOp37
 70
     1
102
RTVSPost2010Prop38
140
0.0
102
RTVSPost2010PropOp38
 70
     1
102
RTVSPost2010Prop39
140
1.0
102
RTVSPost2010PropOp39
 70
     1
102
RTVSPost2010Prop40
 90
        0
102
RTVSPost2010PropOp40
 70
     1
102
RTVSPost2010Prop41ColorIndex
 90
       18
102
RTVSPost2010Prop41ColorRGB
 90
        0
102
RTVSPost2010PropOp41
 70
     1
102
RTVSPost2010Prop42
 90
       50
102
RTVSPost2010PropOp42
 70
     1
102
RTVSPost2010Prop43
 90
        3
102
RTVSPost2010PropOp43
 70
     1
102
RTVSPost2010Prop44ColorIndex
 90
        5
102
RTVSPost2010Prop44ColorRGB
 90
      255
102
RTVSPost2010PropOp44
 70
     1
102
RTVSPost2010Prop45
280
     0
102
RTVSPost2010PropOp45
 70
     1
102
RTVSPost2010Prop46
 90
       50
102
RTVSPost2010PropOp46
 70
     1
102
RTVSPost2010Prop47
 90
       50
102
RTVSPost2010PropOp47
 70
     1
102
RTVSPost2010Prop48
 90
       50
102
RTVSPost2010PropOp48
 70
     1
102
RTVSPost2010Prop49
280
     0
102
RTVSPost2010PropOp49
 70
     1
102
RTVSPost2010Prop50
 90
       50
102
RTVSPost2010PropOp50
 70
     1
102
RTVSPost2010Prop51ColorIndex
 90
      256
102
RTVSPost2010Prop51ColorRGB
 90
-16777216
102
RTVSPost2010PropOp51
 70
     0
102
RTVSPost2010Prop52
140
1.0
102
RTVSPost2010PropOp52
 70
     0
102
RTVSPost2010Prop53
 90
        2
102
RTVSPost2010PropOp53
 70
     1
102
RTVSPost2010Prop54
  1
strokes_ogs.tif
102
RTVSPost2010PropOp54
 70
     1
102
RTVSPost2010Prop55
280
     0
102
RTVSPost2010PropOp55
 70
     1
102
RTVSPost2010Prop56
140
1.0
102
RTVSPost2010PropOp56
 70
     1
102
RTVSPost2010Prop57
140
1.0
102
RTVSPost2010PropOp57
 70
     1
102
RTVSPropertyOp0
 70
     1
102
RTVSPropertyOp1
 70
     1
102
RTVSPropertyOp2
 70
     1
102
RTVSPropertyOp3
 70
     1
102
RTVSPropertyOp4
 70
     1
102
RTVSPropertyOp5
 70
     1
102
RTVSPropertyOp6
 70
     1
102
RTVSPropertyOp7
 70
     1
102
RTVSPropertyOp8
 70
     1
102
RTVSPropertyOp9
 70
     1
102
RTVSPropertyOp10
 70
     1
102
RTVSPropertyOp11
 70
     1
102
RTVSPropertyOp12
 70
     1
102
RTVSPropertyOp13
 70
     1
102
RTVSPropertyOp14
 70
     1
102
RTVSPropertyOp15
 70
     1
102
RTVSPropertyOp16
 70
     1
102
RTVSPropertyOp17
 70
     1
102
RTVSPropertyOp18
 70
     1
102
RTVSPropertyOp19
 70
     1
102
RTVSPropertyOp20
 70
     1
102
RTVSPropertyOp21
 70
     1
102
RTVSPropertyOp22
 70
     1
102
RTVSPropertyOp23
 70
     1
102
RTVSPropertyOp24
 70
     1
102
RTVSPropertyOp25
 70
     1
102
RTVSPropertyOp26
 70
     1
102
RTVSPropertyOp27
 70
     1
102
RTVSPropertyOp28
 70
     1
102
RTVSPropertyOp29
 70
     1
102
RTVSPropertyOp30
 70
     1
102
RTVSPropertyOp31
 70
     1
102
RTVSPropertyOp32
 70
     1
102
RTVSPropertyOp33
 70
     1
102
RTVSPropertyOp34
 70
     1
102
RTVSPropertyOp35
 70
     1
102
RTVSPropertyOp36
 70
     1
102
RTVSPropertyOp37
 70
     1
102
RTVSPropertyOp38
 70
     1
102
RTVSPropertyOp39
 70
     1
102
RTVSPropertyOp40
 70
     1
102
RTVSPropertyOp41
 70
     1
102
RTVSPropertyOp42
 70
     1
102
RTVSPropertyOp43
 70
     1
102
RTVSPropertyOp44
 70
     1
102
RTVSPropertyOp45
 70
     1
102
RTVSPropertyOp46
 70
     1
102
RTVSPropertyOp47
 70
     1
102
RTVSPropertyOp48
 70
     1
102
RTVSPropertyOp49
 70
     1
102
RTVSPropertyOp50
 70
     1
102
RTVSPropertyOp51
 70
     0
102
RTVSPropertyOp52
 70
     0
102
RTVSPropertyOp53
 70
     1
102
RTVSPropertyOp54
 70
     1
102
RTVSPropertyOp55
 70
     1
102
RTVSPropertyOp56
 70
     1
102
RTVSPropertyOp57
 70
     1
102
RTVSPropertyOp58
 70
     1
102
RTVSPropertyOp59
 70
     1
102
RTVSPropertyOp60
 70
     1
102
RTVSPropertyOp61
 70
     1
102
RTVSPropertyOp62
 70
     1
  0
XRECORD
  5
84F7
102
{ACAD_REACTORS
330
84F6
102
}
330
84F6
100
AcDbXrecord
280
     1
102
RTVSPost2010Prop28
280
     0
102
RTVSPost2010PropOp28
 70
     1
102
RTVSPost2010Prop29
280
     1
102
RTVSPost2010PropOp29
 70
     1
102
RTVSPost2010Prop30
280
     1
102
RTVSPost2010PropOp30
 70
     1
102
RTVSPost2010Prop31
280
     0
102
RTVSPost2010PropOp31
 70
     1
102
RTVSPost2010Prop32
280
     0
102
RTVSPost2010PropOp32
 70
     1
102
RTVSPost2010Prop33
280
     0
102
RTVSPost2010PropOp33
 70
     1
102
RTVSPost2010Prop34
280
     0
102
RTVSPost2010PropOp34
 70
     1
102
RTVSPost2010Prop35
280
     0
102
RTVSPost2010PropOp35
 70
     1
102
RTVSPost2010Prop36
280
     0
102
RTVSPost2010PropOp36
 70
     1
102
RTVSPost2010Prop37
 90
       50
102
RTVSPost2010PropOp37
 70
     0
102
RTVSPost2010Prop38
140
0.0
102
RTVSPost2010PropOp38
 70
     0
102
RTVSPost2010Prop39
140
1.0
102
RTVSPost2010PropOp39
 70
     0
102
RTVSPost2010Prop40
 90
        0
102
RTVSPost2010PropOp40
 70
     0
102
RTVSPost2010Prop41ColorIndex
 90
       18
102
RTVSPost2010Prop41ColorRGB
 90
        0
102
RTVSPost2010PropOp41
 70
     0
102
RTVSPost2010Prop42
 90
       50
102
RTVSPost2010PropOp42
 70
     0
102
RTVSPost2010Prop43
 90
        3
102
RTVSPost2010PropOp43
 70
     0
102
RTVSPost2010Prop44ColorIndex
 90
        5
102
RTVSPost2010Prop44ColorRGB
 90
      255
102
RTVSPost2010PropOp44
 70
     0
102
RTVSPost2010Prop45
280
     0
102
RTVSPost2010PropOp45
 70
     1
102
RTVSPost2010Prop46
 90
       50
102
RTVSPost2010PropOp46
 70
     0
102
RTVSPost2010Prop47
 90
       50
102
RTVSPost2010PropOp47
 70
     0
102
RTVSPost2010Prop48
 90
       50
102
RTVSPost2010PropOp48
 70
     0
102
RTVSPost2010Prop49
280
     0
102
RTVSPost2010PropOp49
 70
     1
102
RTVSPost2010Prop50
 90
       50
102
RTVSPost2010PropOp50
 70
     0
102
RTVSPost2010Prop51ColorIndex
 90
      256
102
RTVSPost2010Prop51ColorRGB
 90
-16777216
102
RTVSPost2010PropOp51
 70
     0
102
RTVSPost2010Prop52
140
1.0
102
RTVSPost2010PropOp52
 70
     0
102
RTVSPost2010Prop53
 90
        2
102
RTVSPost2010PropOp53
 70
     0
102
RTVSPost2010Prop54
  1
strokes_ogs.tif
102
RTVSPost2010PropOp54
 70
     0
102
RTVSPost2010Prop55
280
     0
102
RTVSPost2010PropOp55
 70
     1
102
RTVSPost2010Prop56
140
1.0
102
RTVSPost2010PropOp56
 70
     0
102
RTVSPost2010Prop57
140
1.0
102
RTVSPost2010PropOp57
 70
     0
102
RTVSPropertyOp0
 70
     0
102
RTVSPropertyOp1
 70
     0
102
RTVSPropertyOp2
 70
     0
102
RTVSPropertyOp3
 70
     0
102
RTVSPropertyOp4
 70
     0
102
RTVSPropertyOp5
 70
     0
102
RTVSPropertyOp6
 70
     0
102
RTVSPropertyOp7
 70
     0
102
RTVSPropertyOp8
 70
     0
102
RTVSPropertyOp9
 70
     0
102
RTVSPropertyOp10
 70
     0
102
RTVSPropertyOp11
 70
     0
102
RTVSPropertyOp12
 70
     0
102
RTVSPropertyOp13
 70
     0
102
RTVSPropertyOp14
 70
     2
102
RTVSPropertyOp15
 70
     0
102
RTVSPropertyOp16
 70
     0
102
RTVSPropertyOp17
 70
     0
102
RTVSPropertyOp18
 70
     0
102
RTVSPropertyOp19
 70
     0
102
RTVSPropertyOp20
 70
     0
102
RTVSPropertyOp21
 70
     0
102
RTVSPropertyOp22
 70
     0
102
RTVSPropertyOp23
 70
     0
102
RTVSPropertyOp24
 70
     0
102
RTVSPropertyOp25
 70
     0
102
RTVSPropertyOp26
 70
     0
102
RTVSPropertyOp27
 70
     0
102
RTVSPropertyOp28
 70
     1
102
RTVSPropertyOp29
 70
     1
102
RTVSPropertyOp30
 70
     1
102
RTVSPropertyOp31
 70
     1
102
RTVSPropertyOp32
 70
     1
102
RTVSPropertyOp33
 70
     1
102
RTVSPropertyOp34
 70
     1
102
RTVSPropertyOp35
 70
     1
102
RTVSPropertyOp36
 70
     1
102
RTVSPropertyOp37
 70
     0
102
RTVSPropertyOp38
 70
     0
102
RTVSPropertyOp39
 70
     0
102
RTVSPropertyOp40
 70
     0
102
RTVSPropertyOp41
 70
     0
102
RTVSPropertyOp42
 70
     0
102
RTVSPropertyOp43
 70
     0
102
RTVSPropertyOp44
 70
     0
102
RTVSPropertyOp45
 70
     1
102
RTVSPropertyOp46
 70
     0
102
RTVSPropertyOp47
 70
     0
102
RTVSPropertyOp48
 70
     0
102
RTVSPropertyOp49
 70
     1
102
RTVSPropertyOp50
 70
     0
102
RTVSPropertyOp51
 70
     0
102
RTVSPropertyOp52
 70
     0
102
RTVSPropertyOp53
 70
     0
102
RTVSPropertyOp54
 70
     0
102
RTVSPropertyOp55
 70
     1
102
RTVSPropertyOp56
 70
     0
102
RTVSPropertyOp57
 70
     0
102
RTVSPropertyOp58
 70
     0
102
RTVSPropertyOp59
 70
     0
102
RTVSPropertyOp60
 70
     0
102
RTVSPropertyOp61
 70
     0
102
RTVSPropertyOp62
 70
     0
  0
XRECORD
  5
84E5
102
{ACAD_REACTORS
330
84E4
102
}
330
84E4
100
AcDbXrecord
280
     1
102
RTVSPost2010Prop28
280
     0
102
RTVSPost2010PropOp28
 70
     1
102
RTVSPost2010Prop29
280
     1
102
RTVSPost2010PropOp29
 70
     1
102
RTVSPost2010Prop30
280
     1
102
RTVSPost2010PropOp30
 70
     1
102
RTVSPost2010Prop31
280
     0
102
RTVSPost2010PropOp31
 70
     1
102
RTVSPost2010Prop32
280
     0
102
RTVSPost2010PropOp32
 70
     1
102
RTVSPost2010Prop33
280
     0
102
RTVSPost2010PropOp33
 70
     1
102
RTVSPost2010Prop34
280
     0
102
RTVSPost2010PropOp34
 70
     1
102
RTVSPost2010Prop35
280
     0
102
RTVSPost2010PropOp35
 70
     1
102
RTVSPost2010Prop36
280
     0
102
RTVSPost2010PropOp36
 70
     1
102
RTVSPost2010Prop37
 90
       50
102
RTVSPost2010PropOp37
 70
     1
102
RTVSPost2010Prop38
140
0.0
102
RTVSPost2010PropOp38
 70
     1
102
RTVSPost2010Prop39
140
1.0
102
RTVSPost2010PropOp39
 70
     1
102
RTVSPost2010Prop40
 90
        0
102
RTVSPost2010PropOp40
 70
     1
102
RTVSPost2010Prop41ColorIndex
 90
       18
102
RTVSPost2010Prop41ColorRGB
 90
        0
102
RTVSPost2010PropOp41
 70
     1
102
RTVSPost2010Prop42
 90
       50
102
RTVSPost2010PropOp42
 70
     1
102
RTVSPost2010Prop43
 90
        3
102
RTVSPost2010PropOp43
 70
     1
102
RTVSPost2010Prop44ColorIndex
 90
        5
102
RTVSPost2010Prop44ColorRGB
 90
      255
102
RTVSPost2010PropOp44
 70
     1
102
RTVSPost2010Prop45
280
     0
102
RTVSPost2010PropOp45
 70
     1
102
RTVSPost2010Prop46
 90
       50
102
RTVSPost2010PropOp46
 70
     1
102
RTVSPost2010Prop47
 90
       50
102
RTVSPost2010PropOp47
 70
     1
102
RTVSPost2010Prop48
 90
       50
102
RTVSPost2010PropOp48
 70
     1
102
RTVSPost2010Prop49
280
     0
102
RTVSPost2010PropOp49
 70
     1
102
RTVSPost2010Prop50
 90
       50
102
RTVSPost2010PropOp50
 70
     1
102
RTVSPost2010Prop51ColorIndex
 90
      256
102
RTVSPost2010Prop51ColorRGB
 90
-16777216
102
RTVSPost2010PropOp51
 70
     0
102
RTVSPost2010Prop52
140
1.0
102
RTVSPost2010PropOp52
 70
     0
102
RTVSPost2010Prop53
 90
        2
102
RTVSPost2010PropOp53
 70
     1
102
RTVSPost2010Prop54
  1
strokes_ogs.tif
102
RTVSPost2010PropOp54
 70
     1
102
RTVSPost2010Prop55
280
     0
102
RTVSPost2010PropOp55
 70
     1
102
RTVSPost2010Prop56
140
1.0
102
RTVSPost2010PropOp56
 70
     1
102
RTVSPost2010Prop57
140
1.0
102
RTVSPost2010PropOp57
 70
     1
102
RTVSPropertyOp0
 70
     1
102
RTVSPropertyOp1
 70
     1
102
RTVSPropertyOp2
 70
     1
102
RTVSPropertyOp3
 70
     1
102
RTVSPropertyOp4
 70
     1
102
RTVSPropertyOp5
 70
     1
102
RTVSPropertyOp6
 70
     1
102
RTVSPropertyOp7
 70
     1
102
RTVSPropertyOp8
 70
     1
102
RTVSPropertyOp9
 70
     1
102
RTVSPropertyOp10
 70
     1
102
RTVSPropertyOp11
 70
     1
102
RTVSPropertyOp12
 70
     1
102
RTVSPropertyOp13
 70
     1
102
RTVSPropertyOp14
 70
     1
102
RTVSPropertyOp15
 70
     1
102
RTVSPropertyOp16
 70
     1
102
RTVSPropertyOp17
 70
     1
102
RTVSPropertyOp18
 70
     1
102
RTVSPropertyOp19
 70
     1
102
RTVSPropertyOp20
 70
     1
102
RTVSPropertyOp21
 70
     1
102
RTVSPropertyOp22
 70
     1
102
RTVSPropertyOp23
 70
     1
102
RTVSPropertyOp24
 70
     1
102
RTVSPropertyOp25
 70
     1
102
RTVSPropertyOp26
 70
     1
102
RTVSPropertyOp27
 70
     1
102
RTVSPropertyOp28
 70
     1
102
RTVSPropertyOp29
 70
     1
102
RTVSPropertyOp30
 70
     1
102
RTVSPropertyOp31
 70
     1
102
RTVSPropertyOp32
 70
     1
102
RTVSPropertyOp33
 70
     1
102
RTVSPropertyOp34
 70
     1
102
RTVSPropertyOp35
 70
     1
102
RTVSPropertyOp36
 70
     1
102
RTVSPropertyOp37
 70
     1
102
RTVSPropertyOp38
 70
     1
102
RTVSPropertyOp39
 70
     1
102
RTVSPropertyOp40
 70
     1
102
RTVSPropertyOp41
 70
     1
102
RTVSPropertyOp42
 70
     1
102
RTVSPropertyOp43
 70
     1
102
RTVSPropertyOp44
 70
     1
102
RTVSPropertyOp45
 70
     1
102
RTVSPropertyOp46
 70
     1
102
RTVSPropertyOp47
 70
     1
102
RTVSPropertyOp48
 70
     1
102
RTVSPropertyOp49
 70
     1
102
RTVSPropertyOp50
 70
     1
102
RTVSPropertyOp51
 70
     0
102
RTVSPropertyOp52
 70
     0
102
RTVSPropertyOp53
 70
     1
102
RTVSPropertyOp54
 70
     1
102
RTVSPropertyOp55
 70
     1
102
RTVSPropertyOp56
 70
     1
102
RTVSPropertyOp57
 70
     1
102
RTVSPropertyOp58
 70
     1
102
RTVSPropertyOp59
 70
     1
102
RTVSPropertyOp60
 70
     1
102
RTVSPropertyOp61
 70
     1
102
RTVSPropertyOp62
 70
     1
  0
XRECORD
  5
84C9
102
{ACAD_REACTORS
330
84C8
102
}
330
84C8
100
AcDbXrecord
280
     1
102
RTVSPost2010Prop28
280
     0
102
RTVSPost2010PropOp28
 70
     1
102
RTVSPost2010Prop29
280
     1
102
RTVSPost2010PropOp29
 70
     1
102
RTVSPost2010Prop30
280
     1
102
RTVSPost2010PropOp30
 70
     1
102
RTVSPost2010Prop31
280
     0
102
RTVSPost2010PropOp31
 70
     1
102
RTVSPost2010Prop32
280
     0
102
RTVSPost2010PropOp32
 70
     1
102
RTVSPost2010Prop33
280
     0
102
RTVSPost2010PropOp33
 70
     1
102
RTVSPost2010Prop34
280
     0
102
RTVSPost2010PropOp34
 70
     1
102
RTVSPost2010Prop35
280
     0
102
RTVSPost2010PropOp35
 70
     1
102
RTVSPost2010Prop36
280
     0
102
RTVSPost2010PropOp36
 70
     1
102
RTVSPost2010Prop37
 90
       50
102
RTVSPost2010PropOp37
 70
     1
102
RTVSPost2010Prop38
140
0.0
102
RTVSPost2010PropOp38
 70
     1
102
RTVSPost2010Prop39
140
1.0
102
RTVSPost2010PropOp39
 70
     1
102
RTVSPost2010Prop40
 90
        0
102
RTVSPost2010PropOp40
 70
     1
102
RTVSPost2010Prop41ColorIndex
 90
       18
102
RTVSPost2010Prop41ColorRGB
 90
        0
102
RTVSPost2010PropOp41
 70
     1
102
RTVSPost2010Prop42
 90
       50
102
RTVSPost2010PropOp42
 70
     1
102
RTVSPost2010Prop43
 90
        3
102
RTVSPost2010PropOp43
 70
     1
102
RTVSPost2010Prop44ColorIndex
 90
        5
102
RTVSPost2010Prop44ColorRGB
 90
      255
102
RTVSPost2010PropOp44
 70
     1
102
RTVSPost2010Prop45
280
     0
102
RTVSPost2010PropOp45
 70
     1
102
RTVSPost2010Prop46
 90
       50
102
RTVSPost2010PropOp46
 70
     1
102
RTVSPost2010Prop47
 90
       50
102
RTVSPost2010PropOp47
 70
     1
102
RTVSPost2010Prop48
 90
       50
102
RTVSPost2010PropOp48
 70
     1
102
RTVSPost2010Prop49
280
     0
102
RTVSPost2010PropOp49
 70
     1
102
RTVSPost2010Prop50
 90
       50
102
RTVSPost2010PropOp50
 70
     1
102
RTVSPost2010Prop51ColorIndex
 90
      256
102
RTVSPost2010Prop51ColorRGB
 90
-16777216
102
RTVSPost2010PropOp51
 70
     0
102
RTVSPost2010Prop52
140
1.0
102
RTVSPost2010PropOp52
 70
     0
102
RTVSPost2010Prop53
 90
        2
102
RTVSPost2010PropOp53
 70
     1
102
RTVSPost2010Prop54
  1
strokes_ogs.tif
102
RTVSPost2010PropOp54
 70
     1
102
RTVSPost2010Prop55
280
     0
102
RTVSPost2010PropOp55
 70
     1
102
RTVSPost2010Prop56
140
1.0
102
RTVSPost2010PropOp56
 70
     1
102
RTVSPost2010Prop57
140
1.0
102
RTVSPost2010PropOp57
 70
     1
102
RTVSPropertyOp0
 70
     1
102
RTVSPropertyOp1
 70
     1
102
RTVSPropertyOp2
 70
     1
102
RTVSPropertyOp3
 70
     1
102
RTVSPropertyOp4
 70
     1
102
RTVSPropertyOp5
 70
     1
102
RTVSPropertyOp6
 70
     1
102
RTVSPropertyOp7
 70
     1
102
RTVSPropertyOp8
 70
     1
102
RTVSPropertyOp9
 70
     1
102
RTVSPropertyOp10
 70
     1
102
RTVSPropertyOp11
 70
     1
102
RTVSPropertyOp12
 70
     1
102
RTVSPropertyOp13
 70
     1
102
RTVSPropertyOp14
 70
     1
102
RTVSPropertyOp15
 70
     1
102
RTVSPropertyOp16
 70
     1
102
RTVSPropertyOp17
 70
     1
102
RTVSPropertyOp18
 70
     1
102
RTVSPropertyOp19
 70
     1
102
RTVSPropertyOp20
 70
     1
102
RTVSPropertyOp21
 70
     1
102
RTVSPropertyOp22
 70
     1
102
RTVSPropertyOp23
 70
     1
102
RTVSPropertyOp24
 70
     1
102
RTVSPropertyOp25
 70
     1
102
RTVSPropertyOp26
 70
     1
102
RTVSPropertyOp27
 70
     1
102
RTVSPropertyOp28
 70
     1
102
RTVSPropertyOp29
 70
     1
102
RTVSPropertyOp30
 70
     1
102
RTVSPropertyOp31
 70
     1
102
RTVSPropertyOp32
 70
     1
102
RTVSPropertyOp33
 70
     1
102
RTVSPropertyOp34
 70
     1
102
RTVSPropertyOp35
 70
     1
102
RTVSPropertyOp36
 70
     1
102
RTVSPropertyOp37
 70
     1
102
RTVSPropertyOp38
 70
     1
102
RTVSPropertyOp39
 70
     1
102
RTVSPropertyOp40
 70
     1
102
RTVSPropertyOp41
 70
     1
102
RTVSPropertyOp42
 70
     1
102
RTVSPropertyOp43
 70
     1
102
RTVSPropertyOp44
 70
     1
102
RTVSPropertyOp45
 70
     1
102
RTVSPropertyOp46
 70
     1
102
RTVSPropertyOp47
 70
     1
102
RTVSPropertyOp48
 70
     1
102
RTVSPropertyOp49
 70
     1
102
RTVSPropertyOp50
 70
     1
102
RTVSPropertyOp51
 70
     0
102
RTVSPropertyOp52
 70
     0
102
RTVSPropertyOp53
 70
     1
102
RTVSPropertyOp54
 70
     1
102
RTVSPropertyOp55
 70
     1
102
RTVSPropertyOp56
 70
     1
102
RTVSPropertyOp57
 70
     1
102
RTVSPropertyOp58
 70
     1
102
RTVSPropertyOp59
 70
     1
102
RTVSPropertyOp60
 70
     1
102
RTVSPropertyOp61
 70
     1
102
RTVSPropertyOp62
 70
     1
  0
XRECORD
  5
84CB
102
{ACAD_REACTORS
330
84CA
102
}
330
84CA
100
AcDbXrecord
280
     1
102
RTVSPost2010Prop28
280
     0
102
RTVSPost2010PropOp28
 70
     1
102
RTVSPost2010Prop29
280
     1
102
RTVSPost2010PropOp29
 70
     1
102
RTVSPost2010Prop30
280
     1
102
RTVSPost2010PropOp30
 70
     1
102
RTVSPost2010Prop31
280
     0
102
RTVSPost2010PropOp31
 70
     1
102
RTVSPost2010Prop32
280
     0
102
RTVSPost2010PropOp32
 70
     1
102
RTVSPost2010Prop33
280
     0
102
RTVSPost2010PropOp33
 70
     1
102
RTVSPost2010Prop34
280
     0
102
RTVSPost2010PropOp34
 70
     1
102
RTVSPost2010Prop35
280
     0
102
RTVSPost2010PropOp35
 70
     1
102
RTVSPost2010Prop36
280
     0
102
RTVSPost2010PropOp36
 70
     1
102
RTVSPost2010Prop37
 90
       50
102
RTVSPost2010PropOp37
 70
     1
102
RTVSPost2010Prop38
140
0.0
102
RTVSPost2010PropOp38
 70
     1
102
RTVSPost2010Prop39
140
1.0
102
RTVSPost2010PropOp39
 70
     1
102
RTVSPost2010Prop40
 90
        0
102
RTVSPost2010PropOp40
 70
     1
102
RTVSPost2010Prop41ColorIndex
 90
       18
102
RTVSPost2010Prop41ColorRGB
 90
        0
102
RTVSPost2010PropOp41
 70
     1
102
RTVSPost2010Prop42
 90
       50
102
RTVSPost2010PropOp42
 70
     1
102
RTVSPost2010Prop43
 90
        3
102
RTVSPost2010PropOp43
 70
     1
102
RTVSPost2010Prop44ColorIndex
 90
        5
102
RTVSPost2010Prop44ColorRGB
 90
      255
102
RTVSPost2010PropOp44
 70
     1
102
RTVSPost2010Prop45
280
     0
102
RTVSPost2010PropOp45
 70
     1
102
RTVSPost2010Prop46
 90
       50
102
RTVSPost2010PropOp46
 70
     1
102
RTVSPost2010Prop47
 90
       50
102
RTVSPost2010PropOp47
 70
     1
102
RTVSPost2010Prop48
 90
       50
102
RTVSPost2010PropOp48
 70
     1
102
RTVSPost2010Prop49
280
     0
102
RTVSPost2010PropOp49
 70
     1
102
RTVSPost2010Prop50
 90
       50
102
RTVSPost2010PropOp50
 70
     1
102
RTVSPost2010Prop51ColorIndex
 90
      256
102
RTVSPost2010Prop51ColorRGB
 90
-16777216
102
RTVSPost2010PropOp51
 70
     0
102
RTVSPost2010Prop52
140
1.0
102
RTVSPost2010PropOp52
 70
     0
102
RTVSPost2010Prop53
 90
        2
102
RTVSPost2010PropOp53
 70
     1
102
RTVSPost2010Prop54
  1
strokes_ogs.tif
102
RTVSPost2010PropOp54
 70
     1
102
RTVSPost2010Prop55
280
     0
102
RTVSPost2010PropOp55
 70
     1
102
RTVSPost2010Prop56
140
1.0
102
RTVSPost2010PropOp56
 70
     1
102
RTVSPost2010Prop57
140
1.0
102
RTVSPost2010PropOp57
 70
     1
102
RTVSPropertyOp0
 70
     1
102
RTVSPropertyOp1
 70
     1
102
RTVSPropertyOp2
 70
     1
102
RTVSPropertyOp3
 70
     1
102
RTVSPropertyOp4
 70
     1
102
RTVSPropertyOp5
 70
     1
102
RTVSPropertyOp6
 70
     1
102
RTVSPropertyOp7
 70
     1
102
RTVSPropertyOp8
 70
     1
102
RTVSPropertyOp9
 70
     1
102
RTVSPropertyOp10
 70
     1
102
RTVSPropertyOp11
 70
     1
102
RTVSPropertyOp12
 70
     1
102
RTVSPropertyOp13
 70
     1
102
RTVSPropertyOp14
 70
     1
102
RTVSPropertyOp15
 70
     1
102
RTVSPropertyOp16
 70
     1
102
RTVSPropertyOp17
 70
     1
102
RTVSPropertyOp18
 70
     1
102
RTVSPropertyOp19
 70
     1
102
RTVSPropertyOp20
 70
     1
102
RTVSPropertyOp21
 70
     1
102
RTVSPropertyOp22
 70
     1
102
RTVSPropertyOp23
 70
     1
102
RTVSPropertyOp24
 70
     1
102
RTVSPropertyOp25
 70
     1
102
RTVSPropertyOp26
 70
     1
102
RTVSPropertyOp27
 70
     1
102
RTVSPropertyOp28
 70
     1
102
RTVSPropertyOp29
 70
     1
102
RTVSPropertyOp30
 70
     1
102
RTVSPropertyOp31
 70
     1
102
RTVSPropertyOp32
 70
     1
102
RTVSPropertyOp33
 70
     1
102
RTVSPropertyOp34
 70
     1
102
RTVSPropertyOp35
 70
     1
102
RTVSPropertyOp36
 70
     1
102
RTVSPropertyOp37
 70
     1
102
RTVSPropertyOp38
 70
     1
102
RTVSPropertyOp39
 70
     1
102
RTVSPropertyOp40
 70
     1
102
RTVSPropertyOp41
 70
     1
102
RTVSPropertyOp42
 70
     1
102
RTVSPropertyOp43
 70
     1
102
RTVSPropertyOp44
 70
     1
102
RTVSPropertyOp45
 70
     1
102
RTVSPropertyOp46
 70
     1
102
RTVSPropertyOp47
 70
     1
102
RTVSPropertyOp48
 70
     1
102
RTVSPropertyOp49
 70
     1
102
RTVSPropertyOp50
 70
     1
102
RTVSPropertyOp51
 70
     0
102
RTVSPropertyOp52
 70
     0
102
RTVSPropertyOp53
 70
     1
102
RTVSPropertyOp54
 70
     1
102
RTVSPropertyOp55
 70
     1
102
RTVSPropertyOp56
 70
     1
102
RTVSPropertyOp57
 70
     1
102
RTVSPropertyOp58
 70
     1
102
RTVSPropertyOp59
 70
     1
102
RTVSPropertyOp60
 70
     1
102
RTVSPropertyOp61
 70
     1
102
RTVSPropertyOp62
 70
     1
  0
XRECORD
  5
84CD
102
{ACAD_REACTORS
330
84CC
102
}
330
84CC
100
AcDbXrecord
280
     1
102
RTVSPost2010Prop28
280
     0
102
RTVSPost2010PropOp28
 70
     1
102
RTVSPost2010Prop29
280
     1
102
RTVSPost2010PropOp29
 70
     1
102
RTVSPost2010Prop30
280
     1
102
RTVSPost2010PropOp30
 70
     1
102
RTVSPost2010Prop31
280
     0
102
RTVSPost2010PropOp31
 70
     1
102
RTVSPost2010Prop32
280
     0
102
RTVSPost2010PropOp32
 70
     1
102
RTVSPost2010Prop33
280
     0
102
RTVSPost2010PropOp33
 70
     1
102
RTVSPost2010Prop34
280
     0
102
RTVSPost2010PropOp34
 70
     1
102
RTVSPost2010Prop35
280
     0
102
RTVSPost2010PropOp35
 70
     1
102
RTVSPost2010Prop36
280
     0
102
RTVSPost2010PropOp36
 70
     1
102
RTVSPost2010Prop37
 90
       50
102
RTVSPost2010PropOp37
 70
     1
102
RTVSPost2010Prop38
140
0.0
102
RTVSPost2010PropOp38
 70
     1
102
RTVSPost2010Prop39
140
1.0
102
RTVSPost2010PropOp39
 70
     1
102
RTVSPost2010Prop40
 90
        0
102
RTVSPost2010PropOp40
 70
     1
102
RTVSPost2010Prop41ColorIndex
 90
       18
102
RTVSPost2010Prop41ColorRGB
 90
        0
102
RTVSPost2010PropOp41
 70
     1
102
RTVSPost2010Prop42
 90
       50
102
RTVSPost2010PropOp42
 70
     1
102
RTVSPost2010Prop43
 90
        3
102
RTVSPost2010PropOp43
 70
     1
102
RTVSPost2010Prop44ColorIndex
 90
        5
102
RTVSPost2010Prop44ColorRGB
 90
      255
102
RTVSPost2010PropOp44
 70
     1
102
RTVSPost2010Prop45
280
     0
102
RTVSPost2010PropOp45
 70
     1
102
RTVSPost2010Prop46
 90
       50
102
RTVSPost2010PropOp46
 70
     1
102
RTVSPost2010Prop47
 90
       50
102
RTVSPost2010PropOp47
 70
     1
102
RTVSPost2010Prop48
 90
       50
102
RTVSPost2010PropOp48
 70
     1
102
RTVSPost2010Prop49
280
     0
102
RTVSPost2010PropOp49
 70
     1
102
RTVSPost2010Prop50
 90
       50
102
RTVSPost2010PropOp50
 70
     1
102
RTVSPost2010Prop51ColorIndex
 90
      256
102
RTVSPost2010Prop51ColorRGB
 90
-16777216
102
RTVSPost2010PropOp51
 70
     0
102
RTVSPost2010Prop52
140
1.0
102
RTVSPost2010PropOp52
 70
     0
102
RTVSPost2010Prop53
 90
        2
102
RTVSPost2010PropOp53
 70
     1
102
RTVSPost2010Prop54
  1
strokes_ogs.tif
102
RTVSPost2010PropOp54
 70
     1
102
RTVSPost2010Prop55
280
     0
102
RTVSPost2010PropOp55
 70
     1
102
RTVSPost2010Prop56
140
1.0
102
RTVSPost2010PropOp56
 70
     1
102
RTVSPost2010Prop57
140
1.0
102
RTVSPost2010PropOp57
 70
     1
102
RTVSPropertyOp0
 70
     1
102
RTVSPropertyOp1
 70
     1
102
RTVSPropertyOp2
 70
     1
102
RTVSPropertyOp3
 70
     1
102
RTVSPropertyOp4
 70
     1
102
RTVSPropertyOp5
 70
     1
102
RTVSPropertyOp6
 70
     1
102
RTVSPropertyOp7
 70
     1
102
RTVSPropertyOp8
 70
     1
102
RTVSPropertyOp9
 70
     1
102
RTVSPropertyOp10
 70
     1
102
RTVSPropertyOp11
 70
     1
102
RTVSPropertyOp12
 70
     1
102
RTVSPropertyOp13
 70
     1
102
RTVSPropertyOp14
 70
     1
102
RTVSPropertyOp15
 70
     1
102
RTVSPropertyOp16
 70
     1
102
RTVSPropertyOp17
 70
     1
102
RTVSPropertyOp18
 70
     1
102
RTVSPropertyOp19
 70
     1
102
RTVSPropertyOp20
 70
     1
102
RTVSPropertyOp21
 70
     1
102
RTVSPropertyOp22
 70
     1
102
RTVSPropertyOp23
 70
     1
102
RTVSPropertyOp24
 70
     1
102
RTVSPropertyOp25
 70
     1
102
RTVSPropertyOp26
 70
     1
102
RTVSPropertyOp27
 70
     1
102
RTVSPropertyOp28
 70
     1
102
RTVSPropertyOp29
 70
     1
102
RTVSPropertyOp30
 70
     1
102
RTVSPropertyOp31
 70
     1
102
RTVSPropertyOp32
 70
     1
102
RTVSPropertyOp33
 70
     1
102
RTVSPropertyOp34
 70
     1
102
RTVSPropertyOp35
 70
     1
102
RTVSPropertyOp36
 70
     1
102
RTVSPropertyOp37
 70
     1
102
RTVSPropertyOp38
 70
     1
102
RTVSPropertyOp39
 70
     1
102
RTVSPropertyOp40
 70
     1
102
RTVSPropertyOp41
 70
     1
102
RTVSPropertyOp42
 70
     1
102
RTVSPropertyOp43
 70
     1
102
RTVSPropertyOp44
 70
     1
102
RTVSPropertyOp45
 70
     1
102
RTVSPropertyOp46
 70
     1
102
RTVSPropertyOp47
 70
     1
102
RTVSPropertyOp48
 70
     1
102
RTVSPropertyOp49
 70
     1
102
RTVSPropertyOp50
 70
     1
102
RTVSPropertyOp51
 70
     0
102
RTVSPropertyOp52
 70
     0
102
RTVSPropertyOp53
 70
     1
102
RTVSPropertyOp54
 70
     1
102
RTVSPropertyOp55
 70
     1
102
RTVSPropertyOp56
 70
     1
102
RTVSPropertyOp57
 70
     1
102
RTVSPropertyOp58
 70
     1
102
RTVSPropertyOp59
 70
     1
102
RTVSPropertyOp60
 70
     1
102
RTVSPropertyOp61
 70
     1
102
RTVSPropertyOp62
 70
     1
  0
XRECORD
  5
84CF
102
{ACAD_REACTORS
330
84CE
102
}
330
84CE
100
AcDbXrecord
280
     1
102
RTVSPost2010Prop28
280
     0
102
RTVSPost2010PropOp28
 70
     1
102
RTVSPost2010Prop29
280
     1
102
RTVSPost2010PropOp29
 70
     1
102
RTVSPost2010Prop30
280
     1
102
RTVSPost2010PropOp30
 70
     1
102
RTVSPost2010Prop31
280
     0
102
RTVSPost2010PropOp31
 70
     1
102
RTVSPost2010Prop32
280
     0
102
RTVSPost2010PropOp32
 70
     1
102
RTVSPost2010Prop33
280
     0
102
RTVSPost2010PropOp33
 70
     1
102
RTVSPost2010Prop34
280
     0
102
RTVSPost2010PropOp34
 70
     1
102
RTVSPost2010Prop35
280
     0
102
RTVSPost2010PropOp35
 70
     1
102
RTVSPost2010Prop36
280
     0
102
RTVSPost2010PropOp36
 70
     1
102
RTVSPost2010Prop37
 90
       50
102
RTVSPost2010PropOp37
 70
     1
102
RTVSPost2010Prop38
140
0.0
102
RTVSPost2010PropOp38
 70
     1
102
RTVSPost2010Prop39
140
1.0
102
RTVSPost2010PropOp39
 70
     1
102
RTVSPost2010Prop40
 90
        0
102
RTVSPost2010PropOp40
 70
     1
102
RTVSPost2010Prop41ColorIndex
 90
       18
102
RTVSPost2010Prop41ColorRGB
 90
        0
102
RTVSPost2010PropOp41
 70
     1
102
RTVSPost2010Prop42
 90
       50
102
RTVSPost2010PropOp42
 70
     1
102
RTVSPost2010Prop43
 90
        3
102
RTVSPost2010PropOp43
 70
     1
102
RTVSPost2010Prop44ColorIndex
 90
        5
102
RTVSPost2010Prop44ColorRGB
 90
      255
102
RTVSPost2010PropOp44
 70
     1
102
RTVSPost2010Prop45
280
     0
102
RTVSPost2010PropOp45
 70
     1
102
RTVSPost2010Prop46
 90
       50
102
RTVSPost2010PropOp46
 70
     1
102
RTVSPost2010Prop47
 90
       50
102
RTVSPost2010PropOp47
 70
     1
102
RTVSPost2010Prop48
 90
       50
102
RTVSPost2010PropOp48
 70
     1
102
RTVSPost2010Prop49
280
     0
102
RTVSPost2010PropOp49
 70
     1
102
RTVSPost2010Prop50
 90
       50
102
RTVSPost2010PropOp50
 70
     1
102
RTVSPost2010Prop51ColorIndex
 90
      256
102
RTVSPost2010Prop51ColorRGB
 90
-16777216
102
RTVSPost2010PropOp51
 70
     0
102
RTVSPost2010Prop52
140
1.0
102
RTVSPost2010PropOp52
 70
     0
102
RTVSPost2010Prop53
 90
        2
102
RTVSPost2010PropOp53
 70
     1
102
RTVSPost2010Prop54
  1
strokes_ogs.tif
102
RTVSPost2010PropOp54
 70
     1
102
RTVSPost2010Prop55
280
     0
102
RTVSPost2010PropOp55
 70
     1
102
RTVSPost2010Prop56
140
1.0
102
RTVSPost2010PropOp56
 70
     1
102
RTVSPost2010Prop57
140
1.0
102
RTVSPost2010PropOp57
 70
     1
102
RTVSPropertyOp0
 70
     1
102
RTVSPropertyOp1
 70
     1
102
RTVSPropertyOp2
 70
     1
102
RTVSPropertyOp3
 70
     1
102
RTVSPropertyOp4
 70
     1
102
RTVSPropertyOp5
 70
     1
102
RTVSPropertyOp6
 70
     1
102
RTVSPropertyOp7
 70
     1
102
RTVSPropertyOp8
 70
     1
102
RTVSPropertyOp9
 70
     1
102
RTVSPropertyOp10
 70
     1
102
RTVSPropertyOp11
 70
     1
102
RTVSPropertyOp12
 70
     1
102
RTVSPropertyOp13
 70
     1
102
RTVSPropertyOp14
 70
     1
102
RTVSPropertyOp15
 70
     1
102
RTVSPropertyOp16
 70
     1
102
RTVSPropertyOp17
 70
     1
102
RTVSPropertyOp18
 70
     1
102
RTVSPropertyOp19
 70
     1
102
RTVSPropertyOp20
 70
     1
102
RTVSPropertyOp21
 70
     1
102
RTVSPropertyOp22
 70
     1
102
RTVSPropertyOp23
 70
     1
102
RTVSPropertyOp24
 70
     1
102
RTVSPropertyOp25
 70
     1
102
RTVSPropertyOp26
 70
     1
102
RTVSPropertyOp27
 70
     1
102
RTVSPropertyOp28
 70
     1
102
RTVSPropertyOp29
 70
     1
102
RTVSPropertyOp30
 70
     1
102
RTVSPropertyOp31
 70
     1
102
RTVSPropertyOp32
 70
     1
102
RTVSPropertyOp33
 70
     1
102
RTVSPropertyOp34
 70
     1
102
RTVSPropertyOp35
 70
     1
102
RTVSPropertyOp36
 70
     1
102
RTVSPropertyOp37
 70
     1
102
RTVSPropertyOp38
 70
     1
102
RTVSPropertyOp39
 70
     1
102
RTVSPropertyOp40
 70
     1
102
RTVSPropertyOp41
 70
     1
102
RTVSPropertyOp42
 70
     1
102
RTVSPropertyOp43
 70
     1
102
RTVSPropertyOp44
 70
     1
102
RTVSPropertyOp45
 70
     1
102
RTVSPropertyOp46
 70
     1
102
RTVSPropertyOp47
 70
     1
102
RTVSPropertyOp48
 70
     1
102
RTVSPropertyOp49
 70
     1
102
RTVSPropertyOp50
 70
     1
102
RTVSPropertyOp51
 70
     0
102
RTVSPropertyOp52
 70
     0
102
RTVSPropertyOp53
 70
     1
102
RTVSPropertyOp54
 70
     1
102
RTVSPropertyOp55
 70
     1
102
RTVSPropertyOp56
 70
     1
102
RTVSPropertyOp57
 70
     1
102
RTVSPropertyOp58
 70
     1
102
RTVSPropertyOp59
 70
     1
102
RTVSPropertyOp60
 70
     1
102
RTVSPropertyOp61
 70
     1
102
RTVSPropertyOp62
 70
     1
  0
XRECORD
  5
84D7
102
{ACAD_REACTORS
330
84D6
102
}
330
84D6
100
AcDbXrecord
280
     1
102
RTVSPost2010Prop28
280
     0
102
RTVSPost2010PropOp28
 70
     1
102
RTVSPost2010Prop29
280
     1
102
RTVSPost2010PropOp29
 70
     1
102
RTVSPost2010Prop30
280
     1
102
RTVSPost2010PropOp30
 70
     1
102
RTVSPost2010Prop31
280
     0
102
RTVSPost2010PropOp31
 70
     1
102
RTVSPost2010Prop32
280
     0
102
RTVSPost2010PropOp32
 70
     1
102
RTVSPost2010Prop33
280
     0
102
RTVSPost2010PropOp33
 70
     1
102
RTVSPost2010Prop34
280
     0
102
RTVSPost2010PropOp34
 70
     1
102
RTVSPost2010Prop35
280
     0
102
RTVSPost2010PropOp35
 70
     1
102
RTVSPost2010Prop36
280
     0
102
RTVSPost2010PropOp36
 70
     1
102
RTVSPost2010Prop37
 90
       50
102
RTVSPost2010PropOp37
 70
     1
102
RTVSPost2010Prop38
140
0.0
102
RTVSPost2010PropOp38
 70
     1
102
RTVSPost2010Prop39
140
1.0
102
RTVSPost2010PropOp39
 70
     1
102
RTVSPost2010Prop40
 90
        0
102
RTVSPost2010PropOp40
 70
     1
102
RTVSPost2010Prop41ColorIndex
 90
       18
102
RTVSPost2010Prop41ColorRGB
 90
        0
102
RTVSPost2010PropOp41
 70
     1
102
RTVSPost2010Prop42
 90
       50
102
RTVSPost2010PropOp42
 70
     1
102
RTVSPost2010Prop43
 90
        3
102
RTVSPost2010PropOp43
 70
     1
102
RTVSPost2010Prop44ColorIndex
 90
        5
102
RTVSPost2010Prop44ColorRGB
 90
      255
102
RTVSPost2010PropOp44
 70
     1
102
RTVSPost2010Prop45
280
     0
102
RTVSPost2010PropOp45
 70
     1
102
RTVSPost2010Prop46
 90
       50
102
RTVSPost2010PropOp46
 70
     1
102
RTVSPost2010Prop47
 90
       50
102
RTVSPost2010PropOp47
 70
     1
102
RTVSPost2010Prop48
 90
       50
102
RTVSPost2010PropOp48
 70
     1
102
RTVSPost2010Prop49
280
     0
102
RTVSPost2010PropOp49
 70
     1
102
RTVSPost2010Prop50
 90
       50
102
RTVSPost2010PropOp50
 70
     1
102
RTVSPost2010Prop51ColorIndex
 90
      256
102
RTVSPost2010Prop51ColorRGB
 90
-16777216
102
RTVSPost2010PropOp51
 70
     0
102
RTVSPost2010Prop52
140
1.0
102
RTVSPost2010PropOp52
 70
     0
102
RTVSPost2010Prop53
 90
        2
102
RTVSPost2010PropOp53
 70
     1
102
RTVSPost2010Prop54
  1
strokes_ogs.tif
102
RTVSPost2010PropOp54
 70
     1
102
RTVSPost2010Prop55
280
     0
102
RTVSPost2010PropOp55
 70
     1
102
RTVSPost2010Prop56
140
1.0
102
RTVSPost2010PropOp56
 70
     1
102
RTVSPost2010Prop57
140
1.0
102
RTVSPost2010PropOp57
 70
     1
102
RTVSPropertyOp0
 70
     1
102
RTVSPropertyOp1
 70
     1
102
RTVSPropertyOp2
 70
     1
102
RTVSPropertyOp3
 70
     1
102
RTVSPropertyOp4
 70
     1
102
RTVSPropertyOp5
 70
     1
102
RTVSPropertyOp6
 70
     1
102
RTVSPropertyOp7
 70
     1
102
RTVSPropertyOp8
 70
     1
102
RTVSPropertyOp9
 70
     1
102
RTVSPropertyOp10
 70
     1
102
RTVSPropertyOp11
 70
     1
102
RTVSPropertyOp12
 70
     1
102
RTVSPropertyOp13
 70
     1
102
RTVSPropertyOp14
 70
     1
102
RTVSPropertyOp15
 70
     1
102
RTVSPropertyOp16
 70
     1
102
RTVSPropertyOp17
 70
     1
102
RTVSPropertyOp18
 70
     1
102
RTVSPropertyOp19
 70
     1
102
RTVSPropertyOp20
 70
     1
102
RTVSPropertyOp21
 70
     1
102
RTVSPropertyOp22
 70
     1
102
RTVSPropertyOp23
 70
     1
102
RTVSPropertyOp24
 70
     1
102
RTVSPropertyOp25
 70
     1
102
RTVSPropertyOp26
 70
     1
102
RTVSPropertyOp27
 70
     1
102
RTVSPropertyOp28
 70
     1
102
RTVSPropertyOp29
 70
     1
102
RTVSPropertyOp30
 70
     1
102
RTVSPropertyOp31
 70
     1
102
RTVSPropertyOp32
 70
     1
102
RTVSPropertyOp33
 70
     1
102
RTVSPropertyOp34
 70
     1
102
RTVSPropertyOp35
 70
     1
102
RTVSPropertyOp36
 70
     1
102
RTVSPropertyOp37
 70
     1
102
RTVSPropertyOp38
 70
     1
102
RTVSPropertyOp39
 70
     1
102
RTVSPropertyOp40
 70
     1
102
RTVSPropertyOp41
 70
     1
102
RTVSPropertyOp42
 70
     1
102
RTVSPropertyOp43
 70
     1
102
RTVSPropertyOp44
 70
     1
102
RTVSPropertyOp45
 70
     1
102
RTVSPropertyOp46
 70
     1
102
RTVSPropertyOp47
 70
     1
102
RTVSPropertyOp48
 70
     1
102
RTVSPropertyOp49
 70
     1
102
RTVSPropertyOp50
 70
     1
102
RTVSPropertyOp51
 70
     0
102
RTVSPropertyOp52
 70
     0
102
RTVSPropertyOp53
 70
     1
102
RTVSPropertyOp54
 70
     1
102
RTVSPropertyOp55
 70
     1
102
RTVSPropertyOp56
 70
     1
102
RTVSPropertyOp57
 70
     1
102
RTVSPropertyOp58
 70
     1
102
RTVSPropertyOp59
 70
     1
102
RTVSPropertyOp60
 70
     1
102
RTVSPropertyOp61
 70
     1
102
RTVSPropertyOp62
 70
     1
  0
XRECORD
  5
84F3
102
{ACAD_REACTORS
330
84F2
102
}
330
84F2
100
AcDbXrecord
280
     1
102
RTVSPost2010Prop28
280
     0
102
RTVSPost2010PropOp28
 70
     1
102
RTVSPost2010Prop29
280
     1
102
RTVSPost2010PropOp29
 70
     1
102
RTVSPost2010Prop30
280
     1
102
RTVSPost2010PropOp30
 70
     1
102
RTVSPost2010Prop31
280
     0
102
RTVSPost2010PropOp31
 70
     1
102
RTVSPost2010Prop32
280
     0
102
RTVSPost2010PropOp32
 70
     1
102
RTVSPost2010Prop33
280
     0
102
RTVSPost2010PropOp33
 70
     1
102
RTVSPost2010Prop34
280
     0
102
RTVSPost2010PropOp34
 70
     1
102
RTVSPost2010Prop35
280
     0
102
RTVSPost2010PropOp35
 70
     1
102
RTVSPost2010Prop36
280
     0
102
RTVSPost2010PropOp36
 70
     1
102
RTVSPost2010Prop37
 90
       50
102
RTVSPost2010PropOp37
 70
     0
102
RTVSPost2010Prop38
140
0.0
102
RTVSPost2010PropOp38
 70
     0
102
RTVSPost2010Prop39
140
1.0
102
RTVSPost2010PropOp39
 70
     0
102
RTVSPost2010Prop40
 90
        0
102
RTVSPost2010PropOp40
 70
     0
102
RTVSPost2010Prop41ColorIndex
 90
       18
102
RTVSPost2010Prop41ColorRGB
 90
        0
102
RTVSPost2010PropOp41
 70
     0
102
RTVSPost2010Prop42
 90
       50
102
RTVSPost2010PropOp42
 70
     0
102
RTVSPost2010Prop43
 90
        3
102
RTVSPost2010PropOp43
 70
     0
102
RTVSPost2010Prop44ColorIndex
 90
        5
102
RTVSPost2010Prop44ColorRGB
 90
      255
102
RTVSPost2010PropOp44
 70
     0
102
RTVSPost2010Prop45
280
     0
102
RTVSPost2010PropOp45
 70
     1
102
RTVSPost2010Prop46
 90
       50
102
RTVSPost2010PropOp46
 70
     0
102
RTVSPost2010Prop47
 90
       50
102
RTVSPost2010PropOp47
 70
     0
102
RTVSPost2010Prop48
 90
       50
102
RTVSPost2010PropOp48
 70
     0
102
RTVSPost2010Prop49
280
     0
102
RTVSPost2010PropOp49
 70
     1
102
RTVSPost2010Prop50
 90
       50
102
RTVSPost2010PropOp50
 70
     0
102
RTVSPost2010Prop51ColorIndex
 90
      256
102
RTVSPost2010Prop51ColorRGB
 90
-16777216
102
RTVSPost2010PropOp51
 70
     0
102
RTVSPost2010Prop52
140
1.0
102
RTVSPost2010PropOp52
 70
     0
102
RTVSPost2010Prop53
 90
        2
102
RTVSPost2010PropOp53
 70
     0
102
RTVSPost2010Prop54
  1
strokes_ogs.tif
102
RTVSPost2010PropOp54
 70
     0
102
RTVSPost2010Prop55
280
     0
102
RTVSPost2010PropOp55
 70
     1
102
RTVSPost2010Prop56
140
1.0
102
RTVSPost2010PropOp56
 70
     0
102
RTVSPost2010Prop57
140
1.0
102
RTVSPost2010PropOp57
 70
     0
102
RTVSPropertyOp0
 70
     0
102
RTVSPropertyOp1
 70
     0
102
RTVSPropertyOp2
 70
     0
102
RTVSPropertyOp3
 70
     0
102
RTVSPropertyOp4
 70
     0
102
RTVSPropertyOp5
 70
     0
102
RTVSPropertyOp6
 70
     0
102
RTVSPropertyOp7
 70
     0
102
RTVSPropertyOp8
 70
     0
102
RTVSPropertyOp9
 70
     0
102
RTVSPropertyOp10
 70
     0
102
RTVSPropertyOp11
 70
     0
102
RTVSPropertyOp12
 70
     0
102
RTVSPropertyOp13
 70
     0
102
RTVSPropertyOp14
 70
     2
102
RTVSPropertyOp15
 70
     0
102
RTVSPropertyOp16
 70
     0
102
RTVSPropertyOp17
 70
     0
102
RTVSPropertyOp18
 70
     0
102
RTVSPropertyOp19
 70
     0
102
RTVSPropertyOp20
 70
     0
102
RTVSPropertyOp21
 70
     0
102
RTVSPropertyOp22
 70
     0
102
RTVSPropertyOp23
 70
     0
102
RTVSPropertyOp24
 70
     0
102
RTVSPropertyOp25
 70
     0
102
RTVSPropertyOp26
 70
     0
102
RTVSPropertyOp27
 70
     0
102
RTVSPropertyOp28
 70
     1
102
RTVSPropertyOp29
 70
     1
102
RTVSPropertyOp30
 70
     1
102
RTVSPropertyOp31
 70
     1
102
RTVSPropertyOp32
 70
     1
102
RTVSPropertyOp33
 70
     1
102
RTVSPropertyOp34
 70
     1
102
RTVSPropertyOp35
 70
     1
102
RTVSPropertyOp36
 70
     1
102
RTVSPropertyOp37
 70
     0
102
RTVSPropertyOp38
 70
     0
102
RTVSPropertyOp39
 70
     0
102
RTVSPropertyOp40
 70
     0
102
RTVSPropertyOp41
 70
     0
102
RTVSPropertyOp42
 70
     0
102
RTVSPropertyOp43
 70
     0
102
RTVSPropertyOp44
 70
     0
102
RTVSPropertyOp45
 70
     1
102
RTVSPropertyOp46
 70
     0
102
RTVSPropertyOp47
 70
     0
102
RTVSPropertyOp48
 70
     0
102
RTVSPropertyOp49
 70
     1
102
RTVSPropertyOp50
 70
     0
102
RTVSPropertyOp51
 70
     0
102
RTVSPropertyOp52
 70
     0
102
RTVSPropertyOp53
 70
     0
102
RTVSPropertyOp54
 70
     0
102
RTVSPropertyOp55
 70
     1
102
RTVSPropertyOp56
 70
     0
102
RTVSPropertyOp57
 70
     0
102
RTVSPropertyOp58
 70
     0
102
RTVSPropertyOp59
 70
     0
102
RTVSPropertyOp60
 70
     0
102
RTVSPropertyOp61
 70
     0
102
RTVSPropertyOp62
 70
     0
  0
XRECORD
  5
84E3
102
{ACAD_REACTORS
330
84E2
102
}
330
84E2
100
AcDbXrecord
280
     1
102
RTVSPost2010Prop28
280
     0
102
RTVSPost2010PropOp28
 70
     1
102
RTVSPost2010Prop29
280
     1
102
RTVSPost2010PropOp29
 70
     1
102
RTVSPost2010Prop30
280
     1
102
RTVSPost2010PropOp30
 70
     1
102
RTVSPost2010Prop31
280
     0
102
RTVSPost2010PropOp31
 70
     1
102
RTVSPost2010Prop32
280
     0
102
RTVSPost2010PropOp32
 70
     1
102
RTVSPost2010Prop33
280
     0
102
RTVSPost2010PropOp33
 70
     1
102
RTVSPost2010Prop34
280
     0
102
RTVSPost2010PropOp34
 70
     1
102
RTVSPost2010Prop35
280
     0
102
RTVSPost2010PropOp35
 70
     1
102
RTVSPost2010Prop36
280
     0
102
RTVSPost2010PropOp36
 70
     1
102
RTVSPost2010Prop37
 90
       50
102
RTVSPost2010PropOp37
 70
     1
102
RTVSPost2010Prop38
140
0.0
102
RTVSPost2010PropOp38
 70
     1
102
RTVSPost2010Prop39
140
1.0
102
RTVSPost2010PropOp39
 70
     1
102
RTVSPost2010Prop40
 90
        0
102
RTVSPost2010PropOp40
 70
     1
102
RTVSPost2010Prop41ColorIndex
 90
       18
102
RTVSPost2010Prop41ColorRGB
 90
        0
102
RTVSPost2010PropOp41
 70
     1
102
RTVSPost2010Prop42
 90
       50
102
RTVSPost2010PropOp42
 70
     1
102
RTVSPost2010Prop43
 90
        3
102
RTVSPost2010PropOp43
 70
     1
102
RTVSPost2010Prop44ColorIndex
 90
        5
102
RTVSPost2010Prop44ColorRGB
 90
      255
102
RTVSPost2010PropOp44
 70
     1
102
RTVSPost2010Prop45
280
     0
102
RTVSPost2010PropOp45
 70
     1
102
RTVSPost2010Prop46
 90
       50
102
RTVSPost2010PropOp46
 70
     1
102
RTVSPost2010Prop47
 90
       50
102
RTVSPost2010PropOp47
 70
     1
102
RTVSPost2010Prop48
 90
       50
102
RTVSPost2010PropOp48
 70
     1
102
RTVSPost2010Prop49
280
     0
102
RTVSPost2010PropOp49
 70
     1
102
RTVSPost2010Prop50
 90
       50
102
RTVSPost2010PropOp50
 70
     1
102
RTVSPost2010Prop51ColorIndex
 90
      256
102
RTVSPost2010Prop51ColorRGB
 90
-16777216
102
RTVSPost2010PropOp51
 70
     0
102
RTVSPost2010Prop52
140
1.0
102
RTVSPost2010PropOp52
 70
     0
102
RTVSPost2010Prop53
 90
        2
102
RTVSPost2010PropOp53
 70
     1
102
RTVSPost2010Prop54
  1
strokes_ogs.tif
102
RTVSPost2010PropOp54
 70
     1
102
RTVSPost2010Prop55
280
     0
102
RTVSPost2010PropOp55
 70
     1
102
RTVSPost2010Prop56
140
1.0
102
RTVSPost2010PropOp56
 70
     1
102
RTVSPost2010Prop57
140
1.0
102
RTVSPost2010PropOp57
 70
     1
102
RTVSPropertyOp0
 70
     1
102
RTVSPropertyOp1
 70
     1
102
RTVSPropertyOp2
 70
     1
102
RTVSPropertyOp3
 70
     1
102
RTVSPropertyOp4
 70
     1
102
RTVSPropertyOp5
 70
     1
102
RTVSPropertyOp6
 70
     1
102
RTVSPropertyOp7
 70
     1
102
RTVSPropertyOp8
 70
     1
102
RTVSPropertyOp9
 70
     1
102
RTVSPropertyOp10
 70
     1
102
RTVSPropertyOp11
 70
     1
102
RTVSPropertyOp12
 70
     1
102
RTVSPropertyOp13
 70
     1
102
RTVSPropertyOp14
 70
     1
102
RTVSPropertyOp15
 70
     1
102
RTVSPropertyOp16
 70
     1
102
RTVSPropertyOp17
 70
     1
102
RTVSPropertyOp18
 70
     1
102
RTVSPropertyOp19
 70
     1
102
RTVSPropertyOp20
 70
     1
102
RTVSPropertyOp21
 70
     1
102
RTVSPropertyOp22
 70
     1
102
RTVSPropertyOp23
 70
     1
102
RTVSPropertyOp24
 70
     1
102
RTVSPropertyOp25
 70
     1
102
RTVSPropertyOp26
 70
     1
102
RTVSPropertyOp27
 70
     1
102
RTVSPropertyOp28
 70
     1
102
RTVSPropertyOp29
 70
     1
102
RTVSPropertyOp30
 70
     1
102
RTVSPropertyOp31
 70
     1
102
RTVSPropertyOp32
 70
     1
102
RTVSPropertyOp33
 70
     1
102
RTVSPropertyOp34
 70
     1
102
RTVSPropertyOp35
 70
     1
102
RTVSPropertyOp36
 70
     1
102
RTVSPropertyOp37
 70
     1
102
RTVSPropertyOp38
 70
     1
102
RTVSPropertyOp39
 70
     1
102
RTVSPropertyOp40
 70
     1
102
RTVSPropertyOp41
 70
     1
102
RTVSPropertyOp42
 70
     1
102
RTVSPropertyOp43
 70
     1
102
RTVSPropertyOp44
 70
     1
102
RTVSPropertyOp45
 70
     1
102
RTVSPropertyOp46
 70
     1
102
RTVSPropertyOp47
 70
     1
102
RTVSPropertyOp48
 70
     1
102
RTVSPropertyOp49
 70
     1
102
RTVSPropertyOp50
 70
     1
102
RTVSPropertyOp51
 70
     0
102
RTVSPropertyOp52
 70
     0
102
RTVSPropertyOp53
 70
     1
102
RTVSPropertyOp54
 70
     1
102
RTVSPropertyOp55
 70
     1
102
RTVSPropertyOp56
 70
     1
102
RTVSPropertyOp57
 70
     1
102
RTVSPropertyOp58
 70
     1
102
RTVSPropertyOp59
 70
     1
102
RTVSPropertyOp60
 70
     1
102
RTVSPropertyOp61
 70
     1
102
RTVSPropertyOp62
 70
     1
  0
XRECORD
  5
84F5
102
{ACAD_REACTORS
330
84F4
102
}
330
84F4
100
AcDbXrecord
280
     1
102
RTVSPost2010Prop28
280
     0
102
RTVSPost2010PropOp28
 70
     1
102
RTVSPost2010Prop29
280
     1
102
RTVSPost2010PropOp29
 70
     1
102
RTVSPost2010Prop30
280
     1
102
RTVSPost2010PropOp30
 70
     1
102
RTVSPost2010Prop31
280
     0
102
RTVSPost2010PropOp31
 70
     1
102
RTVSPost2010Prop32
280
     0
102
RTVSPost2010PropOp32
 70
     1
102
RTVSPost2010Prop33
280
     0
102
RTVSPost2010PropOp33
 70
     1
102
RTVSPost2010Prop34
280
     0
102
RTVSPost2010PropOp34
 70
     1
102
RTVSPost2010Prop35
280
     0
102
RTVSPost2010PropOp35
 70
     1
102
RTVSPost2010Prop36
280
     0
102
RTVSPost2010PropOp36
 70
     1
102
RTVSPost2010Prop37
 90
       50
102
RTVSPost2010PropOp37
 70
     0
102
RTVSPost2010Prop38
140
0.0
102
RTVSPost2010PropOp38
 70
     0
102
RTVSPost2010Prop39
140
1.0
102
RTVSPost2010PropOp39
 70
     0
102
RTVSPost2010Prop40
 90
        0
102
RTVSPost2010PropOp40
 70
     0
102
RTVSPost2010Prop41ColorIndex
 90
       18
102
RTVSPost2010Prop41ColorRGB
 90
        0
102
RTVSPost2010PropOp41
 70
     0
102
RTVSPost2010Prop42
 90
       50
102
RTVSPost2010PropOp42
 70
     0
102
RTVSPost2010Prop43
 90
        3
102
RTVSPost2010PropOp43
 70
     0
102
RTVSPost2010Prop44ColorIndex
 90
        5
102
RTVSPost2010Prop44ColorRGB
 90
      255
102
RTVSPost2010PropOp44
 70
     0
102
RTVSPost2010Prop45
280
     0
102
RTVSPost2010PropOp45
 70
     1
102
RTVSPost2010Prop46
 90
       50
102
RTVSPost2010PropOp46
 70
     0
102
RTVSPost2010Prop47
 90
       50
102
RTVSPost2010PropOp47
 70
     0
102
RTVSPost2010Prop48
 90
       50
102
RTVSPost2010PropOp48
 70
     0
102
RTVSPost2010Prop49
280
     0
102
RTVSPost2010PropOp49
 70
     1
102
RTVSPost2010Prop50
 90
       50
102
RTVSPost2010PropOp50
 70
     0
102
RTVSPost2010Prop51ColorIndex
 90
      256
102
RTVSPost2010Prop51ColorRGB
 90
-16777216
102
RTVSPost2010PropOp51
 70
     0
102
RTVSPost2010Prop52
140
1.0
102
RTVSPost2010PropOp52
 70
     0
102
RTVSPost2010Prop53
 90
        2
102
RTVSPost2010PropOp53
 70
     0
102
RTVSPost2010Prop54
  1
strokes_ogs.tif
102
RTVSPost2010PropOp54
 70
     0
102
RTVSPost2010Prop55
280
     0
102
RTVSPost2010PropOp55
 70
     1
102
RTVSPost2010Prop56
140
1.0
102
RTVSPost2010PropOp56
 70
     0
102
RTVSPost2010Prop57
140
1.0
102
RTVSPost2010PropOp57
 70
     0
102
RTVSPropertyOp0
 70
     0
102
RTVSPropertyOp1
 70
     0
102
RTVSPropertyOp2
 70
     0
102
RTVSPropertyOp3
 70
     0
102
RTVSPropertyOp4
 70
     0
102
RTVSPropertyOp5
 70
     0
102
RTVSPropertyOp6
 70
     0
102
RTVSPropertyOp7
 70
     0
102
RTVSPropertyOp8
 70
     0
102
RTVSPropertyOp9
 70
     0
102
RTVSPropertyOp10
 70
     0
102
RTVSPropertyOp11
 70
     0
102
RTVSPropertyOp12
 70
     0
102
RTVSPropertyOp13
 70
     0
102
RTVSPropertyOp14
 70
     2
102
RTVSPropertyOp15
 70
     0
102
RTVSPropertyOp16
 70
     0
102
RTVSPropertyOp17
 70
     0
102
RTVSPropertyOp18
 70
     0
102
RTVSPropertyOp19
 70
     0
102
RTVSPropertyOp20
 70
     0
102
RTVSPropertyOp21
 70
     0
102
RTVSPropertyOp22
 70
     0
102
RTVSPropertyOp23
 70
     0
102
RTVSPropertyOp24
 70
     0
102
RTVSPropertyOp25
 70
     0
102
RTVSPropertyOp26
 70
     0
102
RTVSPropertyOp27
 70
     0
102
RTVSPropertyOp28
 70
     1
102
RTVSPropertyOp29
 70
     1
102
RTVSPropertyOp30
 70
     1
102
RTVSPropertyOp31
 70
     1
102
RTVSPropertyOp32
 70
     1
102
RTVSPropertyOp33
 70
     1
102
RTVSPropertyOp34
 70
     1
102
RTVSPropertyOp35
 70
     1
102
RTVSPropertyOp36
 70
     1
102
RTVSPropertyOp37
 70
     0
102
RTVSPropertyOp38
 70
     0
102
RTVSPropertyOp39
 70
     0
102
RTVSPropertyOp40
 70
     0
102
RTVSPropertyOp41
 70
     0
102
RTVSPropertyOp42
 70
     0
102
RTVSPropertyOp43
 70
     0
102
RTVSPropertyOp44
 70
     0
102
RTVSPropertyOp45
 70
     1
102
RTVSPropertyOp46
 70
     0
102
RTVSPropertyOp47
 70
     0
102
RTVSPropertyOp48
 70
     0
102
RTVSPropertyOp49
 70
     1
102
RTVSPropertyOp50
 70
     0
102
RTVSPropertyOp51
 70
     0
102
RTVSPropertyOp52
 70
     0
102
RTVSPropertyOp53
 70
     0
102
RTVSPropertyOp54
 70
     0
102
RTVSPropertyOp55
 70
     1
102
RTVSPropertyOp56
 70
     0
102
RTVSPropertyOp57
 70
     0
102
RTVSPropertyOp58
 70
     0
102
RTVSPropertyOp59
 70
     0
102
RTVSPropertyOp60
 70
     0
102
RTVSPropertyOp61
 70
     0
102
RTVSPropertyOp62
 70
     0
  0
XRECORD
  5
84DB
102
{ACAD_REACTORS
330
84DA
102
}
330
84DA
100
AcDbXrecord
280
     1
102
RTVSPost2010Prop28
280
     0
102
RTVSPost2010PropOp28
 70
     1
102
RTVSPost2010Prop29
280
     1
102
RTVSPost2010PropOp29
 70
     1
102
RTVSPost2010Prop30
280
     1
102
RTVSPost2010PropOp30
 70
     1
102
RTVSPost2010Prop31
280
     0
102
RTVSPost2010PropOp31
 70
     1
102
RTVSPost2010Prop32
280
     0
102
RTVSPost2010PropOp32
 70
     1
102
RTVSPost2010Prop33
280
     0
102
RTVSPost2010PropOp33
 70
     1
102
RTVSPost2010Prop34
280
     0
102
RTVSPost2010PropOp34
 70
     1
102
RTVSPost2010Prop35
280
     0
102
RTVSPost2010PropOp35
 70
     1
102
RTVSPost2010Prop36
280
     0
102
RTVSPost2010PropOp36
 70
     1
102
RTVSPost2010Prop37
 90
       50
102
RTVSPost2010PropOp37
 70
     1
102
RTVSPost2010Prop38
140
0.0
102
RTVSPost2010PropOp38
 70
     1
102
RTVSPost2010Prop39
140
1.0
102
RTVSPost2010PropOp39
 70
     1
102
RTVSPost2010Prop40
 90
        0
102
RTVSPost2010PropOp40
 70
     1
102
RTVSPost2010Prop41ColorIndex
 90
       18
102
RTVSPost2010Prop41ColorRGB
 90
        0
102
RTVSPost2010PropOp41
 70
     1
102
RTVSPost2010Prop42
 90
       50
102
RTVSPost2010PropOp42
 70
     1
102
RTVSPost2010Prop43
 90
        3
102
RTVSPost2010PropOp43
 70
     1
102
RTVSPost2010Prop44ColorIndex
 90
        5
102
RTVSPost2010Prop44ColorRGB
 90
      255
102
RTVSPost2010PropOp44
 70
     1
102
RTVSPost2010Prop45
280
     0
102
RTVSPost2010PropOp45
 70
     1
102
RTVSPost2010Prop46
 90
       50
102
RTVSPost2010PropOp46
 70
     1
102
RTVSPost2010Prop47
 90
       50
102
RTVSPost2010PropOp47
 70
     1
102
RTVSPost2010Prop48
 90
       50
102
RTVSPost2010PropOp48
 70
     1
102
RTVSPost2010Prop49
280
     0
102
RTVSPost2010PropOp49
 70
     1
102
RTVSPost2010Prop50
 90
       50
102
RTVSPost2010PropOp50
 70
     1
102
RTVSPost2010Prop51ColorIndex
 90
      256
102
RTVSPost2010Prop51ColorRGB
 90
-16777216
102
RTVSPost2010PropOp51
 70
     0
102
RTVSPost2010Prop52
140
1.0
102
RTVSPost2010PropOp52
 70
     0
102
RTVSPost2010Prop53
 90
        2
102
RTVSPost2010PropOp53
 70
     1
102
RTVSPost2010Prop54
  1
strokes_ogs.tif
102
RTVSPost2010PropOp54
 70
     1
102
RTVSPost2010Prop55
280
     0
102
RTVSPost2010PropOp55
 70
     1
102
RTVSPost2010Prop56
140
1.0
102
RTVSPost2010PropOp56
 70
     1
102
RTVSPost2010Prop57
140
1.0
102
RTVSPost2010PropOp57
 70
     1
102
RTVSPropertyOp0
 70
     1
102
RTVSPropertyOp1
 70
     1
102
RTVSPropertyOp2
 70
     1
102
RTVSPropertyOp3
 70
     1
102
RTVSPropertyOp4
 70
     1
102
RTVSPropertyOp5
 70
     1
102
RTVSPropertyOp6
 70
     1
102
RTVSPropertyOp7
 70
     1
102
RTVSPropertyOp8
 70
     1
102
RTVSPropertyOp9
 70
     1
102
RTVSPropertyOp10
 70
     1
102
RTVSPropertyOp11
 70
     1
102
RTVSPropertyOp12
 70
     1
102
RTVSPropertyOp13
 70
     1
102
RTVSPropertyOp14
 70
     1
102
RTVSPropertyOp15
 70
     1
102
RTVSPropertyOp16
 70
     1
102
RTVSPropertyOp17
 70
     1
102
RTVSPropertyOp18
 70
     1
102
RTVSPropertyOp19
 70
     1
102
RTVSPropertyOp20
 70
     1
102
RTVSPropertyOp21
 70
     1
102
RTVSPropertyOp22
 70
     1
102
RTVSPropertyOp23
 70
     1
102
RTVSPropertyOp24
 70
     1
102
RTVSPropertyOp25
 70
     1
102
RTVSPropertyOp26
 70
     1
102
RTVSPropertyOp27
 70
     1
102
RTVSPropertyOp28
 70
     1
102
RTVSPropertyOp29
 70
     1
102
RTVSPropertyOp30
 70
     1
102
RTVSPropertyOp31
 70
     1
102
RTVSPropertyOp32
 70
     1
102
RTVSPropertyOp33
 70
     1
102
RTVSPropertyOp34
 70
     1
102
RTVSPropertyOp35
 70
     1
102
RTVSPropertyOp36
 70
     1
102
RTVSPropertyOp37
 70
     1
102
RTVSPropertyOp38
 70
     1
102
RTVSPropertyOp39
 70
     1
102
RTVSPropertyOp40
 70
     1
102
RTVSPropertyOp41
 70
     1
102
RTVSPropertyOp42
 70
     1
102
RTVSPropertyOp43
 70
     1
102
RTVSPropertyOp44
 70
     1
102
RTVSPropertyOp45
 70
     1
102
RTVSPropertyOp46
 70
     1
102
RTVSPropertyOp47
 70
     1
102
RTVSPropertyOp48
 70
     1
102
RTVSPropertyOp49
 70
     1
102
RTVSPropertyOp50
 70
     1
102
RTVSPropertyOp51
 70
     0
102
RTVSPropertyOp52
 70
     0
102
RTVSPropertyOp53
 70
     1
102
RTVSPropertyOp54
 70
     1
102
RTVSPropertyOp55
 70
     1
102
RTVSPropertyOp56
 70
     1
102
RTVSPropertyOp57
 70
     1
102
RTVSPropertyOp58
 70
     1
102
RTVSPropertyOp59
 70
     1
102
RTVSPropertyOp60
 70
     1
102
RTVSPropertyOp61
 70
     1
102
RTVSPropertyOp62
 70
     1
  0
XRECORD
  5
84F1
102
{ACAD_REACTORS
330
84F0
102
}
330
84F0
100
AcDbXrecord
280
     1
102
RTVSPost2010Prop28
280
     0
102
RTVSPost2010PropOp28
 70
     1
102
RTVSPost2010Prop29
280
     1
102
RTVSPost2010PropOp29
 70
     1
102
RTVSPost2010Prop30
280
     1
102
RTVSPost2010PropOp30
 70
     1
102
RTVSPost2010Prop31
280
     0
102
RTVSPost2010PropOp31
 70
     1
102
RTVSPost2010Prop32
280
     0
102
RTVSPost2010PropOp32
 70
     1
102
RTVSPost2010Prop33
280
     0
102
RTVSPost2010PropOp33
 70
     1
102
RTVSPost2010Prop34
280
     0
102
RTVSPost2010PropOp34
 70
     1
102
RTVSPost2010Prop35
280
     0
102
RTVSPost2010PropOp35
 70
     1
102
RTVSPost2010Prop36
280
     0
102
RTVSPost2010PropOp36
 70
     1
102
RTVSPost2010Prop37
 90
       50
102
RTVSPost2010PropOp37
 70
     1
102
RTVSPost2010Prop38
140
0.0
102
RTVSPost2010PropOp38
 70
     1
102
RTVSPost2010Prop39
140
1.0
102
RTVSPost2010PropOp39
 70
     1
102
RTVSPost2010Prop40
 90
        0
102
RTVSPost2010PropOp40
 70
     1
102
RTVSPost2010Prop41ColorIndex
 90
       18
102
RTVSPost2010Prop41ColorRGB
 90
        0
102
RTVSPost2010PropOp41
 70
     1
102
RTVSPost2010Prop42
 90
       50
102
RTVSPost2010PropOp42
 70
     1
102
RTVSPost2010Prop43
 90
        3
102
RTVSPost2010PropOp43
 70
     1
102
RTVSPost2010Prop44ColorIndex
 90
        5
102
RTVSPost2010Prop44ColorRGB
 90
      255
102
RTVSPost2010PropOp44
 70
     1
102
RTVSPost2010Prop45
280
     0
102
RTVSPost2010PropOp45
 70
     1
102
RTVSPost2010Prop46
 90
       50
102
RTVSPost2010PropOp46
 70
     1
102
RTVSPost2010Prop47
 90
       50
102
RTVSPost2010PropOp47
 70
     1
102
RTVSPost2010Prop48
 90
       50
102
RTVSPost2010PropOp48
 70
     1
102
RTVSPost2010Prop49
280
     0
102
RTVSPost2010PropOp49
 70
     1
102
RTVSPost2010Prop50
 90
       50
102
RTVSPost2010PropOp50
 70
     1
102
RTVSPost2010Prop51ColorIndex
 90
      256
102
RTVSPost2010Prop51ColorRGB
 90
-16777216
102
RTVSPost2010PropOp51
 70
     0
102
RTVSPost2010Prop52
140
1.0
102
RTVSPost2010PropOp52
 70
     0
102
RTVSPost2010Prop53
 90
        2
102
RTVSPost2010PropOp53
 70
     1
102
RTVSPost2010Prop54
  1
strokes_ogs.tif
102
RTVSPost2010PropOp54
 70
     1
102
RTVSPost2010Prop55
280
     0
102
RTVSPost2010PropOp55
 70
     1
102
RTVSPost2010Prop56
140
1.0
102
RTVSPost2010PropOp56
 70
     1
102
RTVSPost2010Prop57
140
1.0
102
RTVSPost2010PropOp57
 70
     1
102
RTVSPropertyOp0
 70
     1
102
RTVSPropertyOp1
 70
     1
102
RTVSPropertyOp2
 70
     1
102
RTVSPropertyOp3
 70
     1
102
RTVSPropertyOp4
 70
     1
102
RTVSPropertyOp5
 70
     1
102
RTVSPropertyOp6
 70
     1
102
RTVSPropertyOp7
 70
     1
102
RTVSPropertyOp8
 70
     1
102
RTVSPropertyOp9
 70
     1
102
RTVSPropertyOp10
 70
     1
102
RTVSPropertyOp11
 70
     1
102
RTVSPropertyOp12
 70
     1
102
RTVSPropertyOp13
 70
     1
102
RTVSPropertyOp14
 70
     1
102
RTVSPropertyOp15
 70
     1
102
RTVSPropertyOp16
 70
     1
102
RTVSPropertyOp17
 70
     1
102
RTVSPropertyOp18
 70
     1
102
RTVSPropertyOp19
 70
     1
102
RTVSPropertyOp20
 70
     1
102
RTVSPropertyOp21
 70
     1
102
RTVSPropertyOp22
 70
     1
102
RTVSPropertyOp23
 70
     1
102
RTVSPropertyOp24
 70
     1
102
RTVSPropertyOp25
 70
     1
102
RTVSPropertyOp26
 70
     1
102
RTVSPropertyOp27
 70
     1
102
RTVSPropertyOp28
 70
     1
102
RTVSPropertyOp29
 70
     1
102
RTVSPropertyOp30
 70
     1
102
RTVSPropertyOp31
 70
     1
102
RTVSPropertyOp32
 70
     1
102
RTVSPropertyOp33
 70
     1
102
RTVSPropertyOp34
 70
     1
102
RTVSPropertyOp35
 70
     1
102
RTVSPropertyOp36
 70
     1
102
RTVSPropertyOp37
 70
     1
102
RTVSPropertyOp38
 70
     1
102
RTVSPropertyOp39
 70
     1
102
RTVSPropertyOp40
 70
     1
102
RTVSPropertyOp41
 70
     1
102
RTVSPropertyOp42
 70
     1
102
RTVSPropertyOp43
 70
     1
102
RTVSPropertyOp44
 70
     1
102
RTVSPropertyOp45
 70
     1
102
RTVSPropertyOp46
 70
     1
102
RTVSPropertyOp47
 70
     1
102
RTVSPropertyOp48
 70
     1
102
RTVSPropertyOp49
 70
     1
102
RTVSPropertyOp50
 70
     1
102
RTVSPropertyOp51
 70
     0
102
RTVSPropertyOp52
 70
     0
102
RTVSPropertyOp53
 70
     1
102
RTVSPropertyOp54
 70
     1
102
RTVSPropertyOp55
 70
     1
102
RTVSPropertyOp56
 70
     1
102
RTVSPropertyOp57
 70
     1
102
RTVSPropertyOp58
 70
     1
102
RTVSPropertyOp59
 70
     1
102
RTVSPropertyOp60
 70
     1
102
RTVSPropertyOp61
 70
     1
102
RTVSPropertyOp62
 70
     1
  0
XRECORD
  5
84EF
102
{ACAD_REACTORS
330
84EE
102
}
330
84EE
100
AcDbXrecord
280
     1
102
RTVSPost2010Prop28
280
     0
102
RTVSPost2010PropOp28
 70
     1
102
RTVSPost2010Prop29
280
     1
102
RTVSPost2010PropOp29
 70
     1
102
RTVSPost2010Prop30
280
     1
102
RTVSPost2010PropOp30
 70
     1
102
RTVSPost2010Prop31
280
     0
102
RTVSPost2010PropOp31
 70
     1
102
RTVSPost2010Prop32
280
     0
102
RTVSPost2010PropOp32
 70
     1
102
RTVSPost2010Prop33
280
     0
102
RTVSPost2010PropOp33
 70
     1
102
RTVSPost2010Prop34
280
     0
102
RTVSPost2010PropOp34
 70
     1
102
RTVSPost2010Prop35
280
     0
102
RTVSPost2010PropOp35
 70
     1
102
RTVSPost2010Prop36
280
     0
102
RTVSPost2010PropOp36
 70
     1
102
RTVSPost2010Prop37
 90
       50
102
RTVSPost2010PropOp37
 70
     1
102
RTVSPost2010Prop38
140
0.0
102
RTVSPost2010PropOp38
 70
     1
102
RTVSPost2010Prop39
140
1.0
102
RTVSPost2010PropOp39
 70
     1
102
RTVSPost2010Prop40
 90
        0
102
RTVSPost2010PropOp40
 70
     1
102
RTVSPost2010Prop41ColorIndex
 90
       18
102
RTVSPost2010Prop41ColorRGB
 90
        0
102
RTVSPost2010PropOp41
 70
     1
102
RTVSPost2010Prop42
 90
       50
102
RTVSPost2010PropOp42
 70
     1
102
RTVSPost2010Prop43
 90
        3
102
RTVSPost2010PropOp43
 70
     1
102
RTVSPost2010Prop44ColorIndex
 90
        5
102
RTVSPost2010Prop44ColorRGB
 90
      255
102
RTVSPost2010PropOp44
 70
     1
102
RTVSPost2010Prop45
280
     0
102
RTVSPost2010PropOp45
 70
     1
102
RTVSPost2010Prop46
 90
       50
102
RTVSPost2010PropOp46
 70
     1
102
RTVSPost2010Prop47
 90
       50
102
RTVSPost2010PropOp47
 70
     1
102
RTVSPost2010Prop48
 90
       50
102
RTVSPost2010PropOp48
 70
     1
102
RTVSPost2010Prop49
280
     0
102
RTVSPost2010PropOp49
 70
     1
102
RTVSPost2010Prop50
 90
       50
102
RTVSPost2010PropOp50
 70
     1
102
RTVSPost2010Prop51ColorIndex
 90
      256
102
RTVSPost2010Prop51ColorRGB
 90
-16777216
102
RTVSPost2010PropOp51
 70
     0
102
RTVSPost2010Prop52
140
1.0
102
RTVSPost2010PropOp52
 70
     0
102
RTVSPost2010Prop53
 90
        2
102
RTVSPost2010PropOp53
 70
     1
102
RTVSPost2010Prop54
  1
strokes_ogs.tif
102
RTVSPost2010PropOp54
 70
     1
102
RTVSPost2010Prop55
280
     0
102
RTVSPost2010PropOp55
 70
     1
102
RTVSPost2010Prop56
140
1.0
102
RTVSPost2010PropOp56
 70
     1
102
RTVSPost2010Prop57
140
1.0
102
RTVSPost2010PropOp57
 70
     1
102
RTVSPropertyOp0
 70
     1
102
RTVSPropertyOp1
 70
     1
102
RTVSPropertyOp2
 70
     1
102
RTVSPropertyOp3
 70
     1
102
RTVSPropertyOp4
 70
     1
102
RTVSPropertyOp5
 70
     1
102
RTVSPropertyOp6
 70
     1
102
RTVSPropertyOp7
 70
     1
102
RTVSPropertyOp8
 70
     1
102
RTVSPropertyOp9
 70
     1
102
RTVSPropertyOp10
 70
     1
102
RTVSPropertyOp11
 70
     1
102
RTVSPropertyOp12
 70
     1
102
RTVSPropertyOp13
 70
     1
102
RTVSPropertyOp14
 70
     1
102
RTVSPropertyOp15
 70
     1
102
RTVSPropertyOp16
 70
     1
102
RTVSPropertyOp17
 70
     1
102
RTVSPropertyOp18
 70
     1
102
RTVSPropertyOp19
 70
     1
102
RTVSPropertyOp20
 70
     1
102
RTVSPropertyOp21
 70
     1
102
RTVSPropertyOp22
 70
     1
102
RTVSPropertyOp23
 70
     1
102
RTVSPropertyOp24
 70
     1
102
RTVSPropertyOp25
 70
     1
102
RTVSPropertyOp26
 70
     1
102
RTVSPropertyOp27
 70
     1
102
RTVSPropertyOp28
 70
     1
102
RTVSPropertyOp29
 70
     1
102
RTVSPropertyOp30
 70
     1
102
RTVSPropertyOp31
 70
     1
102
RTVSPropertyOp32
 70
     1
102
RTVSPropertyOp33
 70
     1
102
RTVSPropertyOp34
 70
     1
102
RTVSPropertyOp35
 70
     1
102
RTVSPropertyOp36
 70
     1
102
RTVSPropertyOp37
 70
     1
102
RTVSPropertyOp38
 70
     1
102
RTVSPropertyOp39
 70
     1
102
RTVSPropertyOp40
 70
     1
102
RTVSPropertyOp41
 70
     1
102
RTVSPropertyOp42
 70
     1
102
RTVSPropertyOp43
 70
     1
102
RTVSPropertyOp44
 70
     1
102
RTVSPropertyOp45
 70
     1
102
RTVSPropertyOp46
 70
     1
102
RTVSPropertyOp47
 70
     1
102
RTVSPropertyOp48
 70
     1
102
RTVSPropertyOp49
 70
     1
102
RTVSPropertyOp50
 70
     1
102
RTVSPropertyOp51
 70
     0
102
RTVSPropertyOp52
 70
     0
102
RTVSPropertyOp53
 70
     1
102
RTVSPropertyOp54
 70
     1
102
RTVSPropertyOp55
 70
     1
102
RTVSPropertyOp56
 70
     1
102
RTVSPropertyOp57
 70
     1
102
RTVSPropertyOp58
 70
     1
102
RTVSPropertyOp59
 70
     1
102
RTVSPropertyOp60
 70
     1
102
RTVSPropertyOp61
 70
     1
102
RTVSPropertyOp62
 70
     1
  0
XRECORD
  5
84E9
102
{ACAD_REACTORS
330
84E8
102
}
330
84E8
100
AcDbXrecord
280
     1
102
RTVSPost2010Prop28
280
     0
102
RTVSPost2010PropOp28
 70
     1
102
RTVSPost2010Prop29
280
     1
102
RTVSPost2010PropOp29
 70
     1
102
RTVSPost2010Prop30
280
     1
102
RTVSPost2010PropOp30
 70
     1
102
RTVSPost2010Prop31
280
     0
102
RTVSPost2010PropOp31
 70
     1
102
RTVSPost2010Prop32
280
     0
102
RTVSPost2010PropOp32
 70
     1
102
RTVSPost2010Prop33
280
     0
102
RTVSPost2010PropOp33
 70
     1
102
RTVSPost2010Prop34
280
     0
102
RTVSPost2010PropOp34
 70
     1
102
RTVSPost2010Prop35
280
     0
102
RTVSPost2010PropOp35
 70
     1
102
RTVSPost2010Prop36
280
     0
102
RTVSPost2010PropOp36
 70
     1
102
RTVSPost2010Prop37
 90
       50
102
RTVSPost2010PropOp37
 70
     1
102
RTVSPost2010Prop38
140
0.0
102
RTVSPost2010PropOp38
 70
     1
102
RTVSPost2010Prop39
140
1.0
102
RTVSPost2010PropOp39
 70
     1
102
RTVSPost2010Prop40
 90
        0
102
RTVSPost2010PropOp40
 70
     1
102
RTVSPost2010Prop41ColorIndex
 90
       18
102
RTVSPost2010Prop41ColorRGB
 90
        0
102
RTVSPost2010PropOp41
 70
     1
102
RTVSPost2010Prop42
 90
       50
102
RTVSPost2010PropOp42
 70
     1
102
RTVSPost2010Prop43
 90
        3
102
RTVSPost2010PropOp43
 70
     1
102
RTVSPost2010Prop44ColorIndex
 90
        5
102
RTVSPost2010Prop44ColorRGB
 90
      255
102
RTVSPost2010PropOp44
 70
     1
102
RTVSPost2010Prop45
280
     0
102
RTVSPost2010PropOp45
 70
     1
102
RTVSPost2010Prop46
 90
       50
102
RTVSPost2010PropOp46
 70
     1
102
RTVSPost2010Prop47
 90
       50
102
RTVSPost2010PropOp47
 70
     1
102
RTVSPost2010Prop48
 90
       50
102
RTVSPost2010PropOp48
 70
     1
102
RTVSPost2010Prop49
280
     0
102
RTVSPost2010PropOp49
 70
     1
102
RTVSPost2010Prop50
 90
       50
102
RTVSPost2010PropOp50
 70
     1
102
RTVSPost2010Prop51ColorIndex
 90
      256
102
RTVSPost2010Prop51ColorRGB
 90
-16777216
102
RTVSPost2010PropOp51
 70
     0
102
RTVSPost2010Prop52
140
1.0
102
RTVSPost2010PropOp52
 70
     0
102
RTVSPost2010Prop53
 90
        2
102
RTVSPost2010PropOp53
 70
     1
102
RTVSPost2010Prop54
  1
strokes_ogs.tif
102
RTVSPost2010PropOp54
 70
     1
102
RTVSPost2010Prop55
280
     0
102
RTVSPost2010PropOp55
 70
     1
102
RTVSPost2010Prop56
140
1.0
102
RTVSPost2010PropOp56
 70
     1
102
RTVSPost2010Prop57
140
1.0
102
RTVSPost2010PropOp57
 70
     1
102
RTVSPropertyOp0
 70
     1
102
RTVSPropertyOp1
 70
     1
102
RTVSPropertyOp2
 70
     1
102
RTVSPropertyOp3
 70
     1
102
RTVSPropertyOp4
 70
     1
102
RTVSPropertyOp5
 70
     1
102
RTVSPropertyOp6
 70
     1
102
RTVSPropertyOp7
 70
     1
102
RTVSPropertyOp8
 70
     1
102
RTVSPropertyOp9
 70
     1
102
RTVSPropertyOp10
 70
     1
102
RTVSPropertyOp11
 70
     1
102
RTVSPropertyOp12
 70
     1
102
RTVSPropertyOp13
 70
     1
102
RTVSPropertyOp14
 70
     1
102
RTVSPropertyOp15
 70
     1
102
RTVSPropertyOp16
 70
     1
102
RTVSPropertyOp17
 70
     1
102
RTVSPropertyOp18
 70
     1
102
RTVSPropertyOp19
 70
     1
102
RTVSPropertyOp20
 70
     1
102
RTVSPropertyOp21
 70
     1
102
RTVSPropertyOp22
 70
     1
102
RTVSPropertyOp23
 70
     1
102
RTVSPropertyOp24
 70
     1
102
RTVSPropertyOp25
 70
     1
102
RTVSPropertyOp26
 70
     1
102
RTVSPropertyOp27
 70
     1
102
RTVSPropertyOp28
 70
     1
102
RTVSPropertyOp29
 70
     1
102
RTVSPropertyOp30
 70
     1
102
RTVSPropertyOp31
 70
     1
102
RTVSPropertyOp32
 70
     1
102
RTVSPropertyOp33
 70
     1
102
RTVSPropertyOp34
 70
     1
102
RTVSPropertyOp35
 70
     1
102
RTVSPropertyOp36
 70
     1
102
RTVSPropertyOp37
 70
     1
102
RTVSPropertyOp38
 70
     1
102
RTVSPropertyOp39
 70
     1
102
RTVSPropertyOp40
 70
     1
102
RTVSPropertyOp41
 70
     1
102
RTVSPropertyOp42
 70
     1
102
RTVSPropertyOp43
 70
     1
102
RTVSPropertyOp44
 70
     1
102
RTVSPropertyOp45
 70
     1
102
RTVSPropertyOp46
 70
     1
102
RTVSPropertyOp47
 70
     1
102
RTVSPropertyOp48
 70
     1
102
RTVSPropertyOp49
 70
     1
102
RTVSPropertyOp50
 70
     1
102
RTVSPropertyOp51
 70
     0
102
RTVSPropertyOp52
 70
     0
102
RTVSPropertyOp53
 70
     1
102
RTVSPropertyOp54
 70
     1
102
RTVSPropertyOp55
 70
     1
102
RTVSPropertyOp56
 70
     1
102
RTVSPropertyOp57
 70
     1
102
RTVSPropertyOp58
 70
     1
102
RTVSPropertyOp59
 70
     1
102
RTVSPropertyOp60
 70
     1
102
RTVSPropertyOp61
 70
     1
102
RTVSPropertyOp62
 70
     1
  0
XRECORD
  5
84EB
102
{ACAD_REACTORS
330
84EA
102
}
330
84EA
100
AcDbXrecord
280
     1
102
RTVSPost2010Prop28
280
     0
102
RTVSPost2010PropOp28
 70
     1
102
RTVSPost2010Prop29
280
     1
102
RTVSPost2010PropOp29
 70
     1
102
RTVSPost2010Prop30
280
     1
102
RTVSPost2010PropOp30
 70
     1
102
RTVSPost2010Prop31
280
     0
102
RTVSPost2010PropOp31
 70
     1
102
RTVSPost2010Prop32
280
     0
102
RTVSPost2010PropOp32
 70
     1
102
RTVSPost2010Prop33
280
     0
102
RTVSPost2010PropOp33
 70
     1
102
RTVSPost2010Prop34
280
     0
102
RTVSPost2010PropOp34
 70
     1
102
RTVSPost2010Prop35
280
     0
102
RTVSPost2010PropOp35
 70
     1
102
RTVSPost2010Prop36
280
     0
102
RTVSPost2010PropOp36
 70
     1
102
RTVSPost2010Prop37
 90
       50
102
RTVSPost2010PropOp37
 70
     1
102
RTVSPost2010Prop38
140
0.0
102
RTVSPost2010PropOp38
 70
     1
102
RTVSPost2010Prop39
140
1.0
102
RTVSPost2010PropOp39
 70
     1
102
RTVSPost2010Prop40
 90
        0
102
RTVSPost2010PropOp40
 70
     1
102
RTVSPost2010Prop41ColorIndex
 90
       18
102
RTVSPost2010Prop41ColorRGB
 90
        0
102
RTVSPost2010PropOp41
 70
     1
102
RTVSPost2010Prop42
 90
       50
102
RTVSPost2010PropOp42
 70
     1
102
RTVSPost2010Prop43
 90
        3
102
RTVSPost2010PropOp43
 70
     1
102
RTVSPost2010Prop44ColorIndex
 90
        5
102
RTVSPost2010Prop44ColorRGB
 90
      255
102
RTVSPost2010PropOp44
 70
     1
102
RTVSPost2010Prop45
280
     0
102
RTVSPost2010PropOp45
 70
     1
102
RTVSPost2010Prop46
 90
       50
102
RTVSPost2010PropOp46
 70
     1
102
RTVSPost2010Prop47
 90
       50
102
RTVSPost2010PropOp47
 70
     1
102
RTVSPost2010Prop48
 90
       50
102
RTVSPost2010PropOp48
 70
     1
102
RTVSPost2010Prop49
280
     0
102
RTVSPost2010PropOp49
 70
     1
102
RTVSPost2010Prop50
 90
       50
102
RTVSPost2010PropOp50
 70
     1
102
RTVSPost2010Prop51ColorIndex
 90
      256
102
RTVSPost2010Prop51ColorRGB
 90
-16777216
102
RTVSPost2010PropOp51
 70
     0
102
RTVSPost2010Prop52
140
1.0
102
RTVSPost2010PropOp52
 70
     0
102
RTVSPost2010Prop53
 90
        2
102
RTVSPost2010PropOp53
 70
     1
102
RTVSPost2010Prop54
  1
strokes_ogs.tif
102
RTVSPost2010PropOp54
 70
     1
102
RTVSPost2010Prop55
280
     0
102
RTVSPost2010PropOp55
 70
     1
102
RTVSPost2010Prop56
140
1.0
102
RTVSPost2010PropOp56
 70
     1
102
RTVSPost2010Prop57
140
1.0
102
RTVSPost2010PropOp57
 70
     1
102
RTVSPropertyOp0
 70
     1
102
RTVSPropertyOp1
 70
     1
102
RTVSPropertyOp2
 70
     1
102
RTVSPropertyOp3
 70
     1
102
RTVSPropertyOp4
 70
     1
102
RTVSPropertyOp5
 70
     1
102
RTVSPropertyOp6
 70
     1
102
RTVSPropertyOp7
 70
     1
102
RTVSPropertyOp8
 70
     1
102
RTVSPropertyOp9
 70
     1
102
RTVSPropertyOp10
 70
     1
102
RTVSPropertyOp11
 70
     1
102
RTVSPropertyOp12
 70
     1
102
RTVSPropertyOp13
 70
     1
102
RTVSPropertyOp14
 70
     1
102
RTVSPropertyOp15
 70
     1
102
RTVSPropertyOp16
 70
     1
102
RTVSPropertyOp17
 70
     1
102
RTVSPropertyOp18
 70
     1
102
RTVSPropertyOp19
 70
     1
102
RTVSPropertyOp20
 70
     1
102
RTVSPropertyOp21
 70
     1
102
RTVSPropertyOp22
 70
     1
102
RTVSPropertyOp23
 70
     1
102
RTVSPropertyOp24
 70
     1
102
RTVSPropertyOp25
 70
     1
102
RTVSPropertyOp26
 70
     1
102
RTVSPropertyOp27
 70
     1
102
RTVSPropertyOp28
 70
     1
102
RTVSPropertyOp29
 70
     1
102
RTVSPropertyOp30
 70
     1
102
RTVSPropertyOp31
 70
     1
102
RTVSPropertyOp32
 70
     1
102
RTVSPropertyOp33
 70
     1
102
RTVSPropertyOp34
 70
     1
102
RTVSPropertyOp35
 70
     1
102
RTVSPropertyOp36
 70
     1
102
RTVSPropertyOp37
 70
     1
102
RTVSPropertyOp38
 70
     1
102
RTVSPropertyOp39
 70
     1
102
RTVSPropertyOp40
 70
     1
102
RTVSPropertyOp41
 70
     1
102
RTVSPropertyOp42
 70
     1
102
RTVSPropertyOp43
 70
     1
102
RTVSPropertyOp44
 70
     1
102
RTVSPropertyOp45
 70
     1
102
RTVSPropertyOp46
 70
     1
102
RTVSPropertyOp47
 70
     1
102
RTVSPropertyOp48
 70
     1
102
RTVSPropertyOp49
 70
     1
102
RTVSPropertyOp50
 70
     1
102
RTVSPropertyOp51
 70
     0
102
RTVSPropertyOp52
 70
     0
102
RTVSPropertyOp53
 70
     1
102
RTVSPropertyOp54
 70
     1
102
RTVSPropertyOp55
 70
     1
102
RTVSPropertyOp56
 70
     1
102
RTVSPropertyOp57
 70
     1
102
RTVSPropertyOp58
 70
     1
102
RTVSPropertyOp59
 70
     1
102
RTVSPropertyOp60
 70
     1
102
RTVSPropertyOp61
 70
     1
102
RTVSPropertyOp62
 70
     1
  0
XRECORD
  5
84E1
102
{ACAD_REACTORS
330
84E0
102
}
330
84E0
100
AcDbXrecord
280
     1
102
RTVSPost2010Prop28
280
     0
102
RTVSPost2010PropOp28
 70
     1
102
RTVSPost2010Prop29
280
     1
102
RTVSPost2010PropOp29
 70
     1
102
RTVSPost2010Prop30
280
     1
102
RTVSPost2010PropOp30
 70
     1
102
RTVSPost2010Prop31
280
     0
102
RTVSPost2010PropOp31
 70
     1
102
RTVSPost2010Prop32
280
     0
102
RTVSPost2010PropOp32
 70
     1
102
RTVSPost2010Prop33
280
     0
102
RTVSPost2010PropOp33
 70
     1
102
RTVSPost2010Prop34
280
     0
102
RTVSPost2010PropOp34
 70
     1
102
RTVSPost2010Prop35
280
     0
102
RTVSPost2010PropOp35
 70
     1
102
RTVSPost2010Prop36
280
     0
102
RTVSPost2010PropOp36
 70
     1
102
RTVSPost2010Prop37
 90
       50
102
RTVSPost2010PropOp37
 70
     1
102
RTVSPost2010Prop38
140
0.0
102
RTVSPost2010PropOp38
 70
     1
102
RTVSPost2010Prop39
140
1.0
102
RTVSPost2010PropOp39
 70
     1
102
RTVSPost2010Prop40
 90
        0
102
RTVSPost2010PropOp40
 70
     1
102
RTVSPost2010Prop41ColorIndex
 90
       18
102
RTVSPost2010Prop41ColorRGB
 90
        0
102
RTVSPost2010PropOp41
 70
     1
102
RTVSPost2010Prop42
 90
       50
102
RTVSPost2010PropOp42
 70
     1
102
RTVSPost2010Prop43
 90
        3
102
RTVSPost2010PropOp43
 70
     1
102
RTVSPost2010Prop44ColorIndex
 90
        5
102
RTVSPost2010Prop44ColorRGB
 90
      255
102
RTVSPost2010PropOp44
 70
     1
102
RTVSPost2010Prop45
280
     0
102
RTVSPost2010PropOp45
 70
     1
102
RTVSPost2010Prop46
 90
       50
102
RTVSPost2010PropOp46
 70
     1
102
RTVSPost2010Prop47
 90
       50
102
RTVSPost2010PropOp47
 70
     1
102
RTVSPost2010Prop48
 90
       50
102
RTVSPost2010PropOp48
 70
     1
102
RTVSPost2010Prop49
280
     0
102
RTVSPost2010PropOp49
 70
     1
102
RTVSPost2010Prop50
 90
       50
102
RTVSPost2010PropOp50
 70
     1
102
RTVSPost2010Prop51ColorIndex
 90
      256
102
RTVSPost2010Prop51ColorRGB
 90
-16777216
102
RTVSPost2010PropOp51
 70
     0
102
RTVSPost2010Prop52
140
1.0
102
RTVSPost2010PropOp52
 70
     0
102
RTVSPost2010Prop53
 90
        2
102
RTVSPost2010PropOp53
 70
     1
102
RTVSPost2010Prop54
  1
strokes_ogs.tif
102
RTVSPost2010PropOp54
 70
     1
102
RTVSPost2010Prop55
280
     0
102
RTVSPost2010PropOp55
 70
     1
102
RTVSPost2010Prop56
140
1.0
102
RTVSPost2010PropOp56
 70
     1
102
RTVSPost2010Prop57
140
1.0
102
RTVSPost2010PropOp57
 70
     1
102
RTVSPropertyOp0
 70
     1
102
RTVSPropertyOp1
 70
     1
102
RTVSPropertyOp2
 70
     1
102
RTVSPropertyOp3
 70
     1
102
RTVSPropertyOp4
 70
     1
102
RTVSPropertyOp5
 70
     1
102
RTVSPropertyOp6
 70
     1
102
RTVSPropertyOp7
 70
     1
102
RTVSPropertyOp8
 70
     1
102
RTVSPropertyOp9
 70
     1
102
RTVSPropertyOp10
 70
     1
102
RTVSPropertyOp11
 70
     1
102
RTVSPropertyOp12
 70
     1
102
RTVSPropertyOp13
 70
     1
102
RTVSPropertyOp14
 70
     1
102
RTVSPropertyOp15
 70
     1
102
RTVSPropertyOp16
 70
     1
102
RTVSPropertyOp17
 70
     1
102
RTVSPropertyOp18
 70
     1
102
RTVSPropertyOp19
 70
     1
102
RTVSPropertyOp20
 70
     1
102
RTVSPropertyOp21
 70
     1
102
RTVSPropertyOp22
 70
     1
102
RTVSPropertyOp23
 70
     1
102
RTVSPropertyOp24
 70
     1
102
RTVSPropertyOp25
 70
     1
102
RTVSPropertyOp26
 70
     1
102
RTVSPropertyOp27
 70
     1
102
RTVSPropertyOp28
 70
     1
102
RTVSPropertyOp29
 70
     1
102
RTVSPropertyOp30
 70
     1
102
RTVSPropertyOp31
 70
     1
102
RTVSPropertyOp32
 70
     1
102
RTVSPropertyOp33
 70
     1
102
RTVSPropertyOp34
 70
     1
102
RTVSPropertyOp35
 70
     1
102
RTVSPropertyOp36
 70
     1
102
RTVSPropertyOp37
 70
     1
102
RTVSPropertyOp38
 70
     1
102
RTVSPropertyOp39
 70
     1
102
RTVSPropertyOp40
 70
     1
102
RTVSPropertyOp41
 70
     1
102
RTVSPropertyOp42
 70
     1
102
RTVSPropertyOp43
 70
     1
102
RTVSPropertyOp44
 70
     1
102
RTVSPropertyOp45
 70
     1
102
RTVSPropertyOp46
 70
     1
102
RTVSPropertyOp47
 70
     1
102
RTVSPropertyOp48
 70
     1
102
RTVSPropertyOp49
 70
     1
102
RTVSPropertyOp50
 70
     1
102
RTVSPropertyOp51
 70
     0
102
RTVSPropertyOp52
 70
     0
102
RTVSPropertyOp53
 70
     1
102
RTVSPropertyOp54
 70
     1
102
RTVSPropertyOp55
 70
     1
102
RTVSPropertyOp56
 70
     1
102
RTVSPropertyOp57
 70
     1
102
RTVSPropertyOp58
 70
     1
102
RTVSPropertyOp59
 70
     1
102
RTVSPropertyOp60
 70
     1
102
RTVSPropertyOp61
 70
     1
102
RTVSPropertyOp62
 70
     1
  0
XRECORD
  5
84D5
102
{ACAD_REACTORS
330
84D4
102
}
330
84D4
100
AcDbXrecord
280
     1
102
RTVSPost2010Prop28
280
     0
102
RTVSPost2010PropOp28
 70
     1
102
RTVSPost2010Prop29
280
     1
102
RTVSPost2010PropOp29
 70
     1
102
RTVSPost2010Prop30
280
     1
102
RTVSPost2010PropOp30
 70
     1
102
RTVSPost2010Prop31
280
     0
102
RTVSPost2010PropOp31
 70
     1
102
RTVSPost2010Prop32
280
     0
102
RTVSPost2010PropOp32
 70
     1
102
RTVSPost2010Prop33
280
     0
102
RTVSPost2010PropOp33
 70
     1
102
RTVSPost2010Prop34
280
     0
102
RTVSPost2010PropOp34
 70
     1
102
RTVSPost2010Prop35
280
     0
102
RTVSPost2010PropOp35
 70
     1
102
RTVSPost2010Prop36
280
     0
102
RTVSPost2010PropOp36
 70
     1
102
RTVSPost2010Prop37
 90
       50
102
RTVSPost2010PropOp37
 70
     1
102
RTVSPost2010Prop38
140
0.0
102
RTVSPost2010PropOp38
 70
     1
102
RTVSPost2010Prop39
140
1.0
102
RTVSPost2010PropOp39
 70
     1
102
RTVSPost2010Prop40
 90
        0
102
RTVSPost2010PropOp40
 70
     1
102
RTVSPost2010Prop41ColorIndex
 90
       18
102
RTVSPost2010Prop41ColorRGB
 90
        0
102
RTVSPost2010PropOp41
 70
     1
102
RTVSPost2010Prop42
 90
       50
102
RTVSPost2010PropOp42
 70
     1
102
RTVSPost2010Prop43
 90
        3
102
RTVSPost2010PropOp43
 70
     1
102
RTVSPost2010Prop44ColorIndex
 90
        5
102
RTVSPost2010Prop44ColorRGB
 90
      255
102
RTVSPost2010PropOp44
 70
     1
102
RTVSPost2010Prop45
280
     0
102
RTVSPost2010PropOp45
 70
     1
102
RTVSPost2010Prop46
 90
       50
102
RTVSPost2010PropOp46
 70
     1
102
RTVSPost2010Prop47
 90
       50
102
RTVSPost2010PropOp47
 70
     1
102
RTVSPost2010Prop48
 90
       50
102
RTVSPost2010PropOp48
 70
     1
102
RTVSPost2010Prop49
280
     0
102
RTVSPost2010PropOp49
 70
     1
102
RTVSPost2010Prop50
 90
       50
102
RTVSPost2010PropOp50
 70
     1
102
RTVSPost2010Prop51ColorIndex
 90
      256
102
RTVSPost2010Prop51ColorRGB
 90
-16777216
102
RTVSPost2010PropOp51
 70
     0
102
RTVSPost2010Prop52
140
1.0
102
RTVSPost2010PropOp52
 70
     0
102
RTVSPost2010Prop53
 90
        2
102
RTVSPost2010PropOp53
 70
     1
102
RTVSPost2010Prop54
  1
strokes_ogs.tif
102
RTVSPost2010PropOp54
 70
     1
102
RTVSPost2010Prop55
280
     0
102
RTVSPost2010PropOp55
 70
     1
102
RTVSPost2010Prop56
140
1.0
102
RTVSPost2010PropOp56
 70
     1
102
RTVSPost2010Prop57
140
1.0
102
RTVSPost2010PropOp57
 70
     1
102
RTVSPropertyOp0
 70
     1
102
RTVSPropertyOp1
 70
     1
102
RTVSPropertyOp2
 70
     1
102
RTVSPropertyOp3
 70
     1
102
RTVSPropertyOp4
 70
     1
102
RTVSPropertyOp5
 70
     1
102
RTVSPropertyOp6
 70
     1
102
RTVSPropertyOp7
 70
     1
102
RTVSPropertyOp8
 70
     1
102
RTVSPropertyOp9
 70
     1
102
RTVSPropertyOp10
 70
     1
102
RTVSPropertyOp11
 70
     1
102
RTVSPropertyOp12
 70
     1
102
RTVSPropertyOp13
 70
     1
102
RTVSPropertyOp14
 70
     1
102
RTVSPropertyOp15
 70
     1
102
RTVSPropertyOp16
 70
     1
102
RTVSPropertyOp17
 70
     1
102
RTVSPropertyOp18
 70
     1
102
RTVSPropertyOp19
 70
     1
102
RTVSPropertyOp20
 70
     1
102
RTVSPropertyOp21
 70
     1
102
RTVSPropertyOp22
 70
     1
102
RTVSPropertyOp23
 70
     1
102
RTVSPropertyOp24
 70
     1
102
RTVSPropertyOp25
 70
     1
102
RTVSPropertyOp26
 70
     1
102
RTVSPropertyOp27
 70
     1
102
RTVSPropertyOp28
 70
     1
102
RTVSPropertyOp29
 70
     1
102
RTVSPropertyOp30
 70
     1
102
RTVSPropertyOp31
 70
     1
102
RTVSPropertyOp32
 70
     1
102
RTVSPropertyOp33
 70
     1
102
RTVSPropertyOp34
 70
     1
102
RTVSPropertyOp35
 70
     1
102
RTVSPropertyOp36
 70
     1
102
RTVSPropertyOp37
 70
     1
102
RTVSPropertyOp38
 70
     1
102
RTVSPropertyOp39
 70
     1
102
RTVSPropertyOp40
 70
     1
102
RTVSPropertyOp41
 70
     1
102
RTVSPropertyOp42
 70
     1
102
RTVSPropertyOp43
 70
     1
102
RTVSPropertyOp44
 70
     1
102
RTVSPropertyOp45
 70
     1
102
RTVSPropertyOp46
 70
     1
102
RTVSPropertyOp47
 70
     1
102
RTVSPropertyOp48
 70
     1
102
RTVSPropertyOp49
 70
     1
102
RTVSPropertyOp50
 70
     1
102
RTVSPropertyOp51
 70
     0
102
RTVSPropertyOp52
 70
     0
102
RTVSPropertyOp53
 70
     1
102
RTVSPropertyOp54
 70
     1
102
RTVSPropertyOp55
 70
     1
102
RTVSPropertyOp56
 70
     1
102
RTVSPropertyOp57
 70
     1
102
RTVSPropertyOp58
 70
     1
102
RTVSPropertyOp59
 70
     1
102
RTVSPropertyOp60
 70
     1
102
RTVSPropertyOp61
 70
     1
102
RTVSPropertyOp62
 70
     1
  0
XRECORD
  5
84ED
102
{ACAD_REACTORS
330
84EC
102
}
330
84EC
100
AcDbXrecord
280
     1
102
RTVSPost2010Prop28
280
     0
102
RTVSPost2010PropOp28
 70
     1
102
RTVSPost2010Prop29
280
     1
102
RTVSPost2010PropOp29
 70
     1
102
RTVSPost2010Prop30
280
     1
102
RTVSPost2010PropOp30
 70
     1
102
RTVSPost2010Prop31
280
     0
102
RTVSPost2010PropOp31
 70
     1
102
RTVSPost2010Prop32
280
     0
102
RTVSPost2010PropOp32
 70
     1
102
RTVSPost2010Prop33
280
     0
102
RTVSPost2010PropOp33
 70
     1
102
RTVSPost2010Prop34
280
     0
102
RTVSPost2010PropOp34
 70
     1
102
RTVSPost2010Prop35
280
     0
102
RTVSPost2010PropOp35
 70
     1
102
RTVSPost2010Prop36
280
     0
102
RTVSPost2010PropOp36
 70
     1
102
RTVSPost2010Prop37
 90
       50
102
RTVSPost2010PropOp37
 70
     1
102
RTVSPost2010Prop38
140
0.0
102
RTVSPost2010PropOp38
 70
     1
102
RTVSPost2010Prop39
140
1.0
102
RTVSPost2010PropOp39
 70
     1
102
RTVSPost2010Prop40
 90
        0
102
RTVSPost2010PropOp40
 70
     1
102
RTVSPost2010Prop41ColorIndex
 90
       18
102
RTVSPost2010Prop41ColorRGB
 90
        0
102
RTVSPost2010PropOp41
 70
     1
102
RTVSPost2010Prop42
 90
       50
102
RTVSPost2010PropOp42
 70
     1
102
RTVSPost2010Prop43
 90
        3
102
RTVSPost2010PropOp43
 70
     1
102
RTVSPost2010Prop44ColorIndex
 90
        5
102
RTVSPost2010Prop44ColorRGB
 90
      255
102
RTVSPost2010PropOp44
 70
     1
102
RTVSPost2010Prop45
280
     0
102
RTVSPost2010PropOp45
 70
     1
102
RTVSPost2010Prop46
 90
       50
102
RTVSPost2010PropOp46
 70
     1
102
RTVSPost2010Prop47
 90
       50
102
RTVSPost2010PropOp47
 70
     1
102
RTVSPost2010Prop48
 90
       50
102
RTVSPost2010PropOp48
 70
     1
102
RTVSPost2010Prop49
280
     0
102
RTVSPost2010PropOp49
 70
     1
102
RTVSPost2010Prop50
 90
       50
102
RTVSPost2010PropOp50
 70
     1
102
RTVSPost2010Prop51ColorIndex
 90
      256
102
RTVSPost2010Prop51ColorRGB
 90
-16777216
102
RTVSPost2010PropOp51
 70
     0
102
RTVSPost2010Prop52
140
1.0
102
RTVSPost2010PropOp52
 70
     0
102
RTVSPost2010Prop53
 90
        2
102
RTVSPost2010PropOp53
 70
     1
102
RTVSPost2010Prop54
  1
strokes_ogs.tif
102
RTVSPost2010PropOp54
 70
     1
102
RTVSPost2010Prop55
280
     0
102
RTVSPost2010PropOp55
 70
     1
102
RTVSPost2010Prop56
140
1.0
102
RTVSPost2010PropOp56
 70
     1
102
RTVSPost2010Prop57
140
1.0
102
RTVSPost2010PropOp57
 70
     1
102
RTVSPropertyOp0
 70
     1
102
RTVSPropertyOp1
 70
     1
102
RTVSPropertyOp2
 70
     1
102
RTVSPropertyOp3
 70
     1
102
RTVSPropertyOp4
 70
     1
102
RTVSPropertyOp5
 70
     1
102
RTVSPropertyOp6
 70
     1
102
RTVSPropertyOp7
 70
     1
102
RTVSPropertyOp8
 70
     1
102
RTVSPropertyOp9
 70
     1
102
RTVSPropertyOp10
 70
     1
102
RTVSPropertyOp11
 70
     1
102
RTVSPropertyOp12
 70
     1
102
RTVSPropertyOp13
 70
     1
102
RTVSPropertyOp14
 70
     1
102
RTVSPropertyOp15
 70
     1
102
RTVSPropertyOp16
 70
     1
102
RTVSPropertyOp17
 70
     1
102
RTVSPropertyOp18
 70
     1
102
RTVSPropertyOp19
 70
     1
102
RTVSPropertyOp20
 70
     1
102
RTVSPropertyOp21
 70
     1
102
RTVSPropertyOp22
 70
     1
102
RTVSPropertyOp23
 70
     1
102
RTVSPropertyOp24
 70
     1
102
RTVSPropertyOp25
 70
     1
102
RTVSPropertyOp26
 70
     1
102
RTVSPropertyOp27
 70
     1
102
RTVSPropertyOp28
 70
     1
102
RTVSPropertyOp29
 70
     1
102
RTVSPropertyOp30
 70
     1
102
RTVSPropertyOp31
 70
     1
102
RTVSPropertyOp32
 70
     1
102
RTVSPropertyOp33
 70
     1
102
RTVSPropertyOp34
 70
     1
102
RTVSPropertyOp35
 70
     1
102
RTVSPropertyOp36
 70
     1
102
RTVSPropertyOp37
 70
     1
102
RTVSPropertyOp38
 70
     1
102
RTVSPropertyOp39
 70
     1
102
RTVSPropertyOp40
 70
     1
102
RTVSPropertyOp41
 70
     1
102
RTVSPropertyOp42
 70
     1
102
RTVSPropertyOp43
 70
     1
102
RTVSPropertyOp44
 70
     1
102
RTVSPropertyOp45
 70
     1
102
RTVSPropertyOp46
 70
     1
102
RTVSPropertyOp47
 70
     1
102
RTVSPropertyOp48
 70
     1
102
RTVSPropertyOp49
 70
     1
102
RTVSPropertyOp50
 70
     1
102
RTVSPropertyOp51
 70
     0
102
RTVSPropertyOp52
 70
     0
102
RTVSPropertyOp53
 70
     1
102
RTVSPropertyOp54
 70
     1
102
RTVSPropertyOp55
 70
     1
102
RTVSPropertyOp56
 70
     1
102
RTVSPropertyOp57
 70
     1
102
RTVSPropertyOp58
 70
     1
102
RTVSPropertyOp59
 70
     1
102
RTVSPropertyOp60
 70
     1
102
RTVSPropertyOp61
 70
     1
102
RTVSPropertyOp62
 70
     1
  0
ENDSEC
  0
EOF
