  0
SECTION
  2
HEADER
  9
$ACADVER
  1
AC1015
  9
$ACADMAINTVER
 70
    20
  9
$DWGCODEPAGE
  3
ANSI_932
  9
$INSBASE
 10
0.0
 20
0.0
 30
0.0
  9
$EXTMIN
 10
-0.1922460740788665
 20
-0.2700599612071528
 30
-0.0015258207003583
  9
$EXTMAX
 10
6300.192275410744
 20
8850.270101172235
 30
0.0000000349246037
  9
$LIMMIN
 10
0.0
 20
0.0
  9
$LIMMAX
 10
297.0
 20
210.0
  9
$ORTHOMODE
 70
     1
  9
$REGENMODE
 70
     1
  9
$FILLMODE
 70
     0
  9
$QTEXTMODE
 70
     0
  9
$MIRRTEXT
 70
     1
  9
$LTSCALE
 40
100.0
  9
$ATTMODE
 70
     1
  9
$TEXTSIZE
 40
180.0
  9
$TRACEWID
 40
0.05
  9
$TEXTSTYLE
  7
STANDARD
  9
$CLAYER
  8
3
  9
$CELTYPE
  6
ByLayer
  9
$CECOLOR
 62
   256
  9
$CELTSCALE
 40
1.0
  9
$DISPSILH
 70
     0
  9
$DIMSCALE
 40
30.0
  9
$DIMASZ
 40
2.0
  9
$DIMEXO
 40
1.0
  9
$DIMDLI
 40
10.0
  9
$DIMRND
 40
0.0
  9
$DIMDLE
 40
0.0
  9
$DIMEXE
 40
1.0
  9
$DIMTP
 40
1.0
  9
$DIMTM
 40
1.0
  9
$DIMTXT
 40
3.0
  9
$DIMCEN
 40
0.0
  9
$DIMTSZ
 40
0.0
  9
$DIMTOL
 70
     0
  9
$DIMLIM
 70
     0
  9
$DIMTIH
 70
     0
  9
$DIMTOH
 70
     0
  9
$DIMSE1
 70
     0
  9
$DIMSE2
 70
     0
  9
$DIMTAD
 70
     1
  9
$DIMZIN
 70
     8
  9
$DIMBLK
  1

  9
$DIMASO
 70
     1
  9
$DIMSHO
 70
     1
  9
$DIMPOST
  1

  9
$DIMAPOST
  1

  9
$DIMALT
 70
     0
  9
$DIMALTD
 70
     2
  9
$DIMALTF
 40
0.039
  9
$DIMLFAC
 40
1.0
  9
$DIMTOFL
 70
     1
  9
$DIMTVP
 40
0.0
  9
$DIMTIX
 70
     0
  9
$DIMSOXD
 70
     0
  9
$DIMSAH
 70
     1
  9
$DIMBLK1
  1
OPEN
  9
$DIMBLK2
  1
OPEN
  9
$DIMSTYLE
  2
IGA
  9
$DIMCLRD
 70
     0
  9
$DIMCLRE
 70
     0
  9
$DIMCLRT
 70
     0
  9
$DIMTFAC
 40
10.0
  9
$DIMGAP
 40
1.0
  9
$DIMJUST
 70
     0
  9
$DIMSD1
 70
     0
  9
$DIMSD2
 70
     0
  9
$DIMTOLJ
 70
     1
  9
$DIMTZIN
 70
     0
  9
$DIMALTZ
 70
     0
  9
$DIMALTTZ
 70
     0
  9
$DIMUPT
 70
     0
  9
$DIMDEC
 70
     4
  9
$DIMTDEC
 70
     4
  9
$DIMALTU
 70
     2
  9
$DIMALTTD
 70
     2
  9
$DIMTXSTY
  7
STANDARD
  9
$DIMAUNIT
 70
     0
  9
$DIMADEC
 70
     0
  9
$DIMALTRND
 40
0.0
  9
$DIMAZIN
 70
     0
  9
$DIMDSEP
 70
    46
  9
$DIMATFIT
 70
     3
  9
$DIMFRAC
 70
     0
  9
$DIMLDRBLK
  1
OPEN
  9
$DIMLUNIT
 70
     2
  9
$DIMLWD
 70
    -2
  9
$DIMLWE
 70
    -2
  9
$DIMTMOVE
 70
     0
  9
$LUNITS
 70
     2
  9
$LUPREC
 70
     3
  9
$SKETCHINC
 40
0.1
  9
$FILLETRAD
 40
50.0
  9
$AUNITS
 70
     0
  9
$AUPREC
 70
     0
  9
$MENU
  1
acad
  9
$ELEVATION
 40
0.0
  9
$PELEVATION
 40
0.0
  9
$THICKNESS
 40
0.0
  9
$LIMCHECK
 70
     0
  9
$CHAMFERA
 40
0.5
  9
$CHAMFERB
 40
0.5
  9
$CHAMFERC
 40
0.0
  9
$CHAMFERD
 40
0.0
  9
$SKPOLY
 70
     0
  9
$TDCREATE
 40
2451389.569592593
  9
$TDUCREATE
 40
2451389.194592593
  9
$TDUPDATE
 40
2460271.743771736
  9
$TDUUPDATE
 40
2460271.368771736
  9
$TDINDWG
 40
0.0166986458
  9
$TDUSRTIMER
 40
0.0166984259
  9
$USRTIMER
 70
     1
  9
$ANGBASE
 50
0.0
  9
$ANGDIR
 70
     0
  9
$PDMODE
 70
     0
  9
$PDSIZE
 40
0.0
  9
$PLINEWID
 40
0.0
  9
$SPLFRAME
 70
     0
  9
$SPLINETYPE
 70
     6
  9
$SPLINESEGS
 70
     8
  9
$HANDSEED
  5
84A1
  9
$SURFTAB1
 70
     6
  9
$SURFTAB2
 70
     6
  9
$SURFTYPE
 70
     6
  9
$SURFU
 70
     6
  9
$SURFV
 70
     6
  9
$UCSBASE
  2

  9
$UCSNAME
  2

  9
$UCSORG
 10
0.0
 20
0.0
 30
0.0
  9
$UCSXDIR
 10
1.0
 20
0.0
 30
0.0
  9
$UCSYDIR
 10
0.0
 20
1.0
 30
0.0
  9
$UCSORTHOREF
  2

  9
$UCSORTHOVIEW
 70
     0
  9
$UCSORGTOP
 10
0.0
 20
0.0
 30
0.0
  9
$UCSORGBOTTOM
 10
0.0
 20
0.0
 30
0.0
  9
$UCSORGLEFT
 10
0.0
 20
0.0
 30
0.0
  9
$UCSORGRIGHT
 10
0.0
 20
0.0
 30
0.0
  9
$UCSORGFRONT
 10
0.0
 20
0.0
 30
0.0
  9
$UCSORGBACK
 10
0.0
 20
0.0
 30
0.0
  9
$PUCSBASE
  2

  9
$PUCSNAME
  2

  9
$PUCSORG
 10
0.0
 20
0.0
 30
0.0
  9
$PUCSXDIR
 10
1.0
 20
0.0
 30
0.0
  9
$PUCSYDIR
 10
0.0
 20
1.0
 30
0.0
  9
$PUCSORTHOREF
  2

  9
$PUCSORTHOVIEW
 70
     0
  9
$PUCSORGTOP
 10
0.0
 20
0.0
 30
0.0
  9
$PUCSORGBOTTOM
 10
0.0
 20
0.0
 30
0.0
  9
$PUCSORGLEFT
 10
0.0
 20
0.0
 30
0.0
  9
$PUCSORGRIGHT
 10
0.0
 20
0.0
 30
0.0
  9
$PUCSORGFRONT
 10
0.0
 20
0.0
 30
0.0
  9
$PUCSORGBACK
 10
0.0
 20
0.0
 30
0.0
  9
$USERI1
 70
     0
  9
$USERI2
 70
     0
  9
$USERI3
 70
     0
  9
$USERI4
 70
     0
  9
$USERI5
 70
     0
  9
$USERR1
 40
0.0
  9
$USERR2
 40
0.0
  9
$USERR3
 40
0.0
  9
$USERR4
 40
0.0
  9
$USERR5
 40
0.0
  9
$WORLDVIEW
 70
     1
  9
$SHADEDGE
 70
     3
  9
$SHADEDIF
 70
    70
  9
$TILEMODE
 70
     1
  9
$MAXACTVP
 70
    16
  9
$PINSBASE
 10
0.0
 20
0.0
 30
0.0
  9
$PLIMCHECK
 70
     0
  9
$PEXTMIN
 10
1.000000000000000E+20
 20
1.000000000000000E+20
 30
1.000000000000000E+20
  9
$PEXTMAX
 10
-1.000000000000000E+20
 20
-1.000000000000000E+20
 30
-1.000000000000000E+20
  9
$PLIMMIN
 10
0.0
 20
0.0
  9
$PLIMMAX
 10
12.0
 20
9.0
  9
$UNITMODE
 70
     0
  9
$VISRETAIN
 70
     0
  9
$PLINEGEN
 70
     0
  9
$PSLTSCALE
 70
     1
  9
$TREEDEPTH
 70
  3020
  9
$CMLSTYLE
  2
Standard
  9
$CMLJUST
 70
     0
  9
$CMLSCALE
 40
1.0
  9
$PROXYGRAPHICS
 70
     1
  9
$MEASUREMENT
 70
     0
  9
$CELWEIGHT
370
    -1
  9
$ENDCAPS
280
     0
  9
$JOINSTYLE
280
     0
  9
$LWDISPLAY
290
     0
  9
$INSUNITS
 70
     0
  9
$HYPERLINKBASE
  1

  9
$STYLESHEET
  1

  9
$XEDIT
290
     1
  9
$CEPSNTYPE
380
     0
  9
$PSTYLEMODE
290
     1
  9
$FINGERPRINTGUID
  2
{87E675AC-B383-48D4-9314-D2DA8667C543}
  9
$VERSIONGUID
  2
{CA414B61-1A7A-40DB-AC33-A08E01278CF2}
  9
$EXTNAMES
290
     1
  9
$PSVPSCALE
 40
0.0
  9
$OLESTARTUP
290
     0
  0
ENDSEC
  0
SECTION
  2
CLASSES
  0
CLASS
  1
ACDBDICTIONARYWDFLT
  2
AcDbDictionaryWithDefault
  3
ObjectDBX Classes
 90
        0
280
     0
281
     0
  0
CLASS
  1
MATERIAL
  2
AcDbMaterial
  3
ObjectDBX Classes
 90
     1153
280
     0
281
     0
  0
CLASS
  1
VISUALSTYLE
  2
AcDbVisualStyle
  3
ObjectDBX Classes
 90
     4095
280
     0
281
     0
  0
CLASS
  1
SCALE
  2
AcDbScale
  3
ObjectDBX Classes
 90
     1153
280
     0
281
     0
  0
CLASS
  1
TABLESTYLE
  2
AcDbTableStyle
  3
ObjectDBX Classes
 90
     4095
280
     0
281
     0
  0
CLASS
  1
MLEADERSTYLE
  2
AcDbMLeaderStyle
  3
ACDB_MLEADERSTYLE_CLASS
 90
     4095
280
     0
281
     0
  0
CLASS
  1
ACDBSECTIONVIEWSTYLE
  2
AcDbSectionViewStyle
  3
ObjectDBX Classes
 90
     1025
280
     0
281
     0
  0
CLASS
  1
ACDBDETAILVIEWSTYLE
  2
AcDbDetailViewStyle
  3
ObjectDBX Classes
 90
     1025
280
     0
281
     0
  0
CLASS
  1
DICTIONARYVAR
  2
AcDbDictionaryVar
  3
ObjectDBX Classes
 90
        0
280
     0
281
     0
  0
CLASS
  1
CELLSTYLEMAP
  2
AcDbCellStyleMap
  3
ObjectDBX Classes
 90
     1152
280
     0
281
     0
  0
CLASS
  1
ACDBPLACEHOLDER
  2
AcDbPlaceHolder
  3
ObjectDBX Classes
 90
        0
280
     0
281
     0
  0
CLASS
  1
LAYOUT
  2
AcDbLayout
  3
ObjectDBX Classes
 90
        0
280
     0
281
     0
  0
ENDSEC
  0
SECTION
  2
TABLES
  0
TABLE
  2
VPORT
  5
814B
330
0
100
AcDbSymbolTable
 70
     1
  0
VPORT
  5
81B7
330
814B
100
AcDbSymbolTableRecord
100
AcDbViewportTableRecord
  2
*ACTIVE
 70
     0
 10
0.0
 20
0.0
 11
1.0
 21
1.0
 12
3150.000014668333
 22
4425.000020605514
 13
0.0
 23
0.0
 14
10.0
 24
10.0
 15
10.0
 25
10.0
 16
0.0
 26
0.0
 36
1.0
 17
0.0
 27
0.0
 37
0.0
 40
8907.213844128961
 41
2.050213675213675
 42
50.0
 43
0.0
 44
0.0
 50
0.0
 51
0.0
 71
     0
 72
   100
 73
     1
 74
     0
 75
     0
 76
     0
 77
     0
 78
     0
281
     0
 65
     1
110
0.0
120
0.0
130
0.0
111
1.0
121
0.0
131
0.0
112
0.0
122
1.0
132
0.0
 79
     0
146
0.0
1001
ACAD_NAV_VCDISPLAY
1070
     3
  0
ENDTAB
  0
TABLE
  2
LTYPE
  5
8148
330
0
100
AcDbSymbolTable
 70
     3
  0
LTYPE
  5
819D
330
8148
100
AcDbSymbolTableRecord
100
AcDbLinetypeTableRecord
  2
ByBlock
 70
     0
  3

 72
    65
 73
     0
 40
0.0
  0
LTYPE
  5
819E
330
8148
100
AcDbSymbolTableRecord
100
AcDbLinetypeTableRecord
  2
ByLayer
 70
     0
  3

 72
    65
 73
     0
 40
0.0
  0
LTYPE
  5
819F
330
8148
100
AcDbSymbolTableRecord
100
AcDbLinetypeTableRecord
  2
CONTINUOUS
 70
     0
  3
Solid line
 72
    65
 73
     0
 40
0.0
  0
LTYPE
  5
81B8
330
8148
100
AcDbSymbolTableRecord
100
AcDbLinetypeTableRecord
  2
CENTER
 70
     0
  3
____ _ ____ _ ____ _ ____ _ ____ _ ____ _ ____ 
 72
    65
 73
     4
 40
2.0
 49
1.25
 74
     0
 49
-0.25
 74
     0
 49
0.25
 74
     0
 49
-0.25
 74
     0
  0
ENDTAB
  0
TABLE
  2
LAYER
  5
8145
330
0
100
AcDbSymbolTable
 70
     6
  0
LAYER
  5
8197
102
{ACAD_XDICTIONARY
360
844B
102
}
330
8145
100
AcDbSymbolTableRecord
100
AcDbLayerTableRecord
  2
0
 70
     0
 62
     7
  6
CONTINUOUS
370
    -3
390
8152
  0
LAYER
  5
81B6
102
{ACAD_XDICTIONARY
360
844D
102
}
330
8145
100
AcDbSymbolTableRecord
100
AcDbLayerTableRecord
  2
3
 70
     0
 62
     2
  6
CONTINUOUS
370
    -3
390
8152
  0
LAYER
  5
81B9
102
{ACAD_XDICTIONARY
360
844F
102
}
330
8145
100
AcDbSymbolTableRecord
100
AcDbLayerTableRecord
  2
2
 70
     0
 62
     3
  6
CENTER
370
    -3
390
8152
  0
LAYER
  5
81BA
102
{ACAD_XDICTIONARY
360
8451
102
}
330
8145
100
AcDbSymbolTableRecord
100
AcDbLayerTableRecord
  2
1
 70
     0
 62
     4
  6
CONTINUOUS
370
    -3
390
8152
  0
LAYER
  5
81BB
102
{ACAD_XDICTIONARY
360
8453
102
}
330
8145
100
AcDbSymbolTableRecord
100
AcDbLayerTableRecord
  2
4
 70
     0
 62
     7
  6
CONTINUOUS
370
    -3
390
8152
  0
LAYER
  5
81BC
330
8145
100
AcDbSymbolTableRecord
100
AcDbLayerTableRecord
  2
DEFPOINTS
 70
     0
 62
     7
  6
CONTINUOUS
290
     0
370
    -3
390
8152
  0
ENDTAB
  0
TABLE
  2
STYLE
  5
8146
330
0
100
AcDbSymbolTable
 70
     2
  0
STYLE
  5
8198
330
8146
100
AcDbSymbolTableRecord
100
AcDbTextStyleTableRecord
  2
STANDARD
 70
     0
 40
0.0
 41
1.0
 50
0.0
 71
     0
 42
180.0
  3
simplex.shx
  4
extfont.shx
  0
STYLE
  5
819C
330
8146
100
AcDbSymbolTableRecord
100
AcDbTextStyleTableRecord
  2
Annotative
 70
     0
 40
0.0
 41
1.0
 50
0.0
 71
     0
 42
0.2
  3
txt
  4

1001
AcadAnnotative
1000
AnnotativeData
1002
{
1070
     1
1070
     1
1002
}
  0
ENDTAB
  0
TABLE
  2
VIEW
  5
8149
330
0
100
AcDbSymbolTable
 70
     0
  0
ENDTAB
  0
TABLE
  2
UCS
  5
814A
330
0
100
AcDbSymbolTable
 70
     0
  0
ENDTAB
  0
TABLE
  2
APPID
  5
814C
330
0
100
AcDbSymbolTable
 70
     8
  0
APPID
  5
8199
330
814C
100
AcDbSymbolTableRecord
100
AcDbRegAppTableRecord
  2
ACAD
 70
     0
  0
APPID
  5
81A0
330
814C
100
AcDbSymbolTableRecord
100
AcDbRegAppTableRecord
  2
AcadAnnotative
 70
     0
  0
APPID
  5
82A2
330
814C
100
AcDbSymbolTableRecord
100
AcDbRegAppTableRecord
  2
ACAD_DSTYLE_DIMJAG
 70
     0
  0
APPID
  5
82A3
330
814C
100
AcDbSymbolTableRecord
100
AcDbRegAppTableRecord
  2
ACAD_DSTYLE_DIMTALN
 70
     0
  0
APPID
  5
8314
330
814C
100
AcDbSymbolTableRecord
100
AcDbRegAppTableRecord
  2
AcadAnnoMonitorAlertIconDisabled
 70
     0
  0
APPID
  5
8315
330
814C
100
AcDbSymbolTableRecord
100
AcDbRegAppTableRecord
  2
ACAD_EXEMPT_FROM_CAD_STANDARDS
 70
     0
  0
APPID
  5
845F
330
814C
100
AcDbSymbolTableRecord
100
AcDbRegAppTableRecord
  2
ACAD_NAV_VCDISPLAY
 70
     0
  0
APPID
  5
8498
330
814C
100
AcDbSymbolTableRecord
100
AcDbRegAppTableRecord
  2
ACAD_MLEADERVER
 70
     0
  0
ENDTAB
  0
TABLE
  2
DIMSTYLE
  5
814D
330
0
100
AcDbSymbolTable
 70
     4
100
AcDbDimStyleTable
 71
     1
340
81BD
  0
DIMSTYLE
105
819A
102
{ACAD_REACTORS
330
7C7D
330
7C7E
330
7C82
330
7C83
330
7CC4
330
7CC5
330
7CC6
330
7CC7
330
7CCB
330
7CCC
330
7CFB
330
7D09
102
}
330
814D
100
AcDbSymbolTableRecord
100
AcDbDimStyleTableRecord
  2
Standard
 70
     0
340
8198
  0
DIMSTYLE
105
819B
330
814D
100
AcDbSymbolTableRecord
100
AcDbDimStyleTableRecord
  2
Annotative
 70
     0
340
8198
1001
AcadAnnotative
1000
AnnotativeData
1002
{
1070
     1
1070
     1
1002
}
  0
DIMSTYLE
105
81BD
102
{ACAD_REACTORS
330
81FD
330
820A
330
82A4
330
82B1
330
82BE
330
82CB
330
82D8
330
82E5
330
82F7
330
8360
102
}
330
814D
100
AcDbSymbolTableRecord
100
AcDbDimStyleTableRecord
  2
IGA
 70
     0
 40
2.0
 41
2.0
 42
0.5
 43
10.0
 44
1.0
 47
1.0
 48
1.0
 73
     0
 74
     0
 77
     1
 78
     8
140
3.0
141
0.0
143
0.03937
146
10.0
147
1.0
173
     1
271
     3
272
     3
279
     2
284
     8
285
     8
286
     8
340
8198
  0
DIMSTYLE
105
81BE
330
814D
100
AcDbSymbolTableRecord
100
AcDbDimStyleTableRecord
  2
MATSU
 70
     0
 41
2.0
 42
1.0
 43
10.0
 44
1.0
 73
     0
 74
     0
 77
     1
 78
     8
140
3.0
141
0.0
143
0.03937
147
0.5
172
     1
173
     1
176
   256
177
   256
178
   256
271
     3
272
     3
279
     2
284
     8
285
     8
286
     8
340
8198
  0
ENDTAB
  0
TABLE
  2
BLOCK_RECORD
  5
8144
330
0
100
AcDbSymbolTable
 70
    48
  0
BLOCK_RECORD
  5
81B2
330
8144
100
AcDbSymbolTableRecord
100
AcDbBlockTableRecord
  2
*Model_Space
340
81B5
  0
BLOCK_RECORD
  5
81AE
330
8144
100
AcDbSymbolTableRecord
100
AcDbBlockTableRecord
  2
*Paper_Space
340
81B1
  0
BLOCK_RECORD
  5
81C2
330
8144
100
AcDbSymbolTableRecord
100
AcDbBlockTableRecord
  2
$MODEL_SPACE
340
0
  0
BLOCK_RECORD
  5
81C4
330
8144
100
AcDbSymbolTableRecord
100
AcDbBlockTableRecord
  2
$PAPER_SPACE
340
0
  0
BLOCK_RECORD
  5
81C6
330
8144
100
AcDbSymbolTableRecord
100
AcDbBlockTableRecord
  2
_OPEN
340
0
102
{BLKREFS
331
8336
331
8337
331
8379
331
837A
331
83ED
331
8447
331
82B8
331
82B9
331
82C5
331
82C6
331
82D2
331
82D3
331
7E3B
331
7E3C
331
7E46
331
7E47
331
7E51
331
7E52
331
7E5C
331
7E5D
331
7E67
331
7E68
331
7EB4
331
7EB5
331
7EBF
331
7EC0
331
7ECA
331
7ECB
331
7ED5
331
7ED6
331
801C
331
801D
331
8027
331
8028
331
7EF6
331
7EF7
331
7F01
331
7F02
331
8136
331
7F31
331
7F32
331
7F3C
331
7F3D
331
803F
331
8040
331
804C
331
804D
331
8059
331
805A
331
8066
331
8067
331
80CF
331
80D0
331
8292
331
8293
331
829B
331
829C
331
82AB
331
82AC
102
}
  0
BLOCK_RECORD
  5
81C8
330
8144
100
AcDbSymbolTableRecord
100
AcDbBlockTableRecord
  2
YA_N
340
0
102
{BLKREFS
331
7C2A
331
7C40
331
7C7B
331
7C9E
331
7CD4
331
7CD6
331
7CD8
331
7CDA
102
}
  0
BLOCK_RECORD
  5
81CA
330
8144
100
AcDbSymbolTableRecord
100
AcDbBlockTableRecord
  2
*D4
340
0
  0
BLOCK_RECORD
  5
81CC
330
8144
100
AcDbSymbolTableRecord
100
AcDbBlockTableRecord
  2
*D5
340
0
  0
BLOCK_RECORD
  5
81CE
330
8144
100
AcDbSymbolTableRecord
100
AcDbBlockTableRecord
  2
*D6
340
0
  0
BLOCK_RECORD
  5
81D0
330
8144
100
AcDbSymbolTableRecord
100
AcDbBlockTableRecord
  2
*D7
340
0
  0
BLOCK_RECORD
  5
81D2
330
8144
100
AcDbSymbolTableRecord
100
AcDbBlockTableRecord
  2
*D8
340
0
  0
BLOCK_RECORD
  5
81D4
330
8144
100
AcDbSymbolTableRecord
100
AcDbBlockTableRecord
  2
*D9
340
0
  0
BLOCK_RECORD
  5
81D6
330
8144
100
AcDbSymbolTableRecord
100
AcDbBlockTableRecord
  2
*D10
340
0
  0
BLOCK_RECORD
  5
81D8
330
8144
100
AcDbSymbolTableRecord
100
AcDbBlockTableRecord
  2
*D11
340
0
  0
BLOCK_RECORD
  5
81DA
330
8144
100
AcDbSymbolTableRecord
100
AcDbBlockTableRecord
  2
*D12
340
0
  0
BLOCK_RECORD
  5
81DC
330
8144
100
AcDbSymbolTableRecord
100
AcDbBlockTableRecord
  2
*D13
340
0
  0
BLOCK_RECORD
  5
81DE
330
8144
100
AcDbSymbolTableRecord
100
AcDbBlockTableRecord
  2
*U14
340
0
102
{BLKREFS
331
801E
102
}
  0
BLOCK_RECORD
  5
81DF
330
8144
100
AcDbSymbolTableRecord
100
AcDbBlockTableRecord
  2
*D15
340
0
  0
BLOCK_RECORD
  5
81E1
330
8144
100
AcDbSymbolTableRecord
100
AcDbBlockTableRecord
  2
*D16
340
0
  0
BLOCK_RECORD
  5
81E3
330
8144
100
AcDbSymbolTableRecord
100
AcDbBlockTableRecord
  2
*D17
340
0
  0
BLOCK_RECORD
  5
81E5
330
8144
100
AcDbSymbolTableRecord
100
AcDbBlockTableRecord
  2
*D18
340
0
  0
BLOCK_RECORD
  5
81E7
330
8144
100
AcDbSymbolTableRecord
100
AcDbBlockTableRecord
  2
_DOT
340
0
102
{BLKREFS
331
8135
102
}
  0
BLOCK_RECORD
  5
81E8
330
8144
100
AcDbSymbolTableRecord
100
AcDbBlockTableRecord
  2
*D20
340
0
  0
BLOCK_RECORD
  5
81EA
330
8144
100
AcDbSymbolTableRecord
100
AcDbBlockTableRecord
  2
*D21
340
0
  0
BLOCK_RECORD
  5
81ED
330
8144
100
AcDbSymbolTableRecord
100
AcDbBlockTableRecord
  2
*D22
340
0
  0
BLOCK_RECORD
  5
81EF
330
8144
100
AcDbSymbolTableRecord
100
AcDbBlockTableRecord
  2
*D23
340
0
  0
BLOCK_RECORD
  5
81F1
330
8144
100
AcDbSymbolTableRecord
100
AcDbBlockTableRecord
  2
*D24
340
0
  0
BLOCK_RECORD
  5
81F3
330
8144
100
AcDbSymbolTableRecord
100
AcDbBlockTableRecord
  2
*D25
340
0
  0
BLOCK_RECORD
  5
81F5
330
8144
100
AcDbSymbolTableRecord
100
AcDbBlockTableRecord
  2
_NONE
340
0
  0
BLOCK_RECORD
  5
81F7
330
8144
100
AcDbSymbolTableRecord
100
AcDbBlockTableRecord
  2
*D27
340
0
  0
BLOCK_RECORD
  5
81F9
330
8144
100
AcDbSymbolTableRecord
100
AcDbBlockTableRecord
  2
*D28
340
0
  0
BLOCK_RECORD
  5
81FE
330
8144
100
AcDbSymbolTableRecord
100
AcDbBlockTableRecord
  2
*D29
340
0
  0
BLOCK_RECORD
  5
820B
330
8144
100
AcDbSymbolTableRecord
100
AcDbBlockTableRecord
  2
*D30
340
0
  0
BLOCK_RECORD
  5
8217
330
8144
100
AcDbSymbolTableRecord
100
AcDbBlockTableRecord
  2
*D31
340
0
  0
BLOCK_RECORD
  5
8224
330
8144
100
AcDbSymbolTableRecord
100
AcDbBlockTableRecord
  2
*D32
340
0
  0
BLOCK_RECORD
  5
8231
330
8144
100
AcDbSymbolTableRecord
100
AcDbBlockTableRecord
  2
*D33
340
0
  0
BLOCK_RECORD
  5
823E
330
8144
100
AcDbSymbolTableRecord
100
AcDbBlockTableRecord
  2
*D34
340
0
  0
BLOCK_RECORD
  5
824B
330
8144
100
AcDbSymbolTableRecord
100
AcDbBlockTableRecord
  2
*D35
340
0
  0
BLOCK_RECORD
  5
8256
330
8144
100
AcDbSymbolTableRecord
100
AcDbBlockTableRecord
  2
*D36
340
0
  0
BLOCK_RECORD
  5
8263
330
8144
100
AcDbSymbolTableRecord
100
AcDbBlockTableRecord
  2
*D37
340
0
  0
BLOCK_RECORD
  5
8270
330
8144
100
AcDbSymbolTableRecord
100
AcDbBlockTableRecord
  2
*D38
340
0
  0
BLOCK_RECORD
  5
82A5
330
8144
100
AcDbSymbolTableRecord
100
AcDbBlockTableRecord
  2
*D39
340
0
  0
BLOCK_RECORD
  5
82B2
330
8144
100
AcDbSymbolTableRecord
100
AcDbBlockTableRecord
  2
*D40
340
0
  0
BLOCK_RECORD
  5
82BF
330
8144
100
AcDbSymbolTableRecord
100
AcDbBlockTableRecord
  2
*D41
340
0
  0
BLOCK_RECORD
  5
82CC
330
8144
100
AcDbSymbolTableRecord
100
AcDbBlockTableRecord
  2
*D42
340
0
  0
BLOCK_RECORD
  5
82D9
330
8144
100
AcDbSymbolTableRecord
100
AcDbBlockTableRecord
  2
*D43
340
0
  0
BLOCK_RECORD
  5
82E6
330
8144
100
AcDbSymbolTableRecord
100
AcDbBlockTableRecord
  2
*D44
340
0
  0
BLOCK_RECORD
  5
82F8
330
8144
100
AcDbSymbolTableRecord
100
AcDbBlockTableRecord
  2
*D45
340
0
  0
BLOCK_RECORD
  5
8361
330
8144
100
AcDbSymbolTableRecord
100
AcDbBlockTableRecord
  2
*D46
340
0
  0
BLOCK_RECORD
  5
83E0
330
8144
100
AcDbSymbolTableRecord
100
AcDbBlockTableRecord
  2
_DotSmall
340
0
102
{BLKREFS
331
83EE
331
8446
102
}
  0
ENDTAB
  0
ENDSEC
  0
SECTION
  2
BLOCKS
  0
BLOCK
  5
81B3
330
81B2
100
AcDbEntity
  8
0
100
AcDbBlockBegin
  2
*Model_Space
 70
     0
 10
0.0
 20
0.0
 30
0.0
  3
*Model_Space
  1

  0
ENDBLK
  5
81B4
330
81B2
100
AcDbEntity
  8
0
100
AcDbBlockEnd
  0
BLOCK
  5
81AF
330
81AE
100
AcDbEntity
 67
     1
  8
0
100
AcDbBlockBegin
  2
*Paper_Space
 70
     0
 10
0.0
 20
0.0
 30
0.0
  3
*Paper_Space
  1

  0
ENDBLK
  5
81B0
330
81AE
100
AcDbEntity
 67
     1
  8
0
100
AcDbBlockEnd
  0
BLOCK
  5
81C3
330
81C2
100
AcDbEntity
  8
0
100
AcDbBlockBegin
  2
$MODEL_SPACE
 70
     0
 10
0.0
 20
0.0
 30
0.0
  3
$MODEL_SPACE
  1

  0
ENDBLK
  5
1B
330
81C2
100
AcDbEntity
  8
0
100
AcDbBlockEnd
  0
BLOCK
  5
81C5
330
81C4
100
AcDbEntity
  8
0
100
AcDbBlockBegin
  2
$PAPER_SPACE
 70
     0
 10
0.0
 20
0.0
 30
0.0
  3
$PAPER_SPACE
  1

  0
ENDBLK
  5
18
330
81C4
100
AcDbEntity
  8
0
100
AcDbBlockEnd
  0
BLOCK
  5
81C7
330
81C6
100
AcDbEntity
  8
0
100
AcDbBlockBegin
  2
_OPEN
 70
     0
 10
0.0
 20
0.0
 30
0.0
  3
_OPEN
  1

  0
LINE
  5
79FD
330
81C6
100
AcDbEntity
  8
0
  6
ByBlock
 62
     0
100
AcDbLine
 10
-1.0
 20
0.1666666666666666
 30
0.0
 11
0.0
 21
0.0
 31
0.0
  0
LINE
  5
79FE
330
81C6
100
AcDbEntity
  8
0
  6
ByBlock
 62
     0
100
AcDbLine
 10
0.0
 20
0.0
 30
0.0
 11
-1.0
 21
-0.1666666666666666
 31
0.0
  0
LINE
  5
79FF
330
81C6
100
AcDbEntity
  8
0
  6
ByBlock
 62
     0
100
AcDbLine
 10
0.0
 20
0.0
 30
0.0
 11
-1.0
 21
0.0
 31
0.0
  0
ENDBLK
  5
7A01
330
81C6
100
AcDbEntity
  8
0
100
AcDbBlockEnd
  0
BLOCK
  5
81C9
330
81C8
100
AcDbEntity
  8
0
100
AcDbBlockBegin
  2
YA_N
 70
     0
 10
0.0
 20
0.0
 30
0.0
  3
YA_N
  1

  0
ENDBLK
  5
7A04
330
81C8
100
AcDbEntity
  8
0
100
AcDbBlockEnd
  0
BLOCK
  5
81CB
330
81CA
100
AcDbEntity
  8
0
100
AcDbBlockBegin
  2
*D4
 70
     1
 10
0.0
 20
0.0
 30
0.0
  3
*D4
  1

  0
LINE
  5
7E38
330
81CA
100
AcDbEntity
  8
0
  6
ByBlock
100
AcDbLine
 10
313.8332086870922
 20
1702.060302835745
 30
0.0
 11
112.6731116929495
 21
1702.060302835745
 31
0.0
  0
LINE
  5
7E39
330
81CA
100
AcDbEntity
  8
0
  6
ByBlock
100
AcDbLine
 10
313.8332086870922
 20
672.0603028357458
 30
0.0
 11
112.6731116929495
 21
672.0603028357458
 31
0.0
  0
LINE
  5
7E3A
330
81CA
100
AcDbEntity
  8
0
  6
ByBlock
100
AcDbLine
 10
142.6731116929495
 20
1642.060302835745
 30
0.0
 11
142.6731116929495
 21
732.0603028357457
 31
0.0
  0
INSERT
  5
7E3B
330
81CA
100
AcDbEntity
  8
0
  6
ByBlock
100
AcDbBlockReference
  2
_OPEN
 10
142.6731116929495
 20
1702.060302835745
 30
0.0
 41
60.0
 42
60.0
 43
60.0
 50
90.0
  0
INSERT
  5
7E3C
330
81CA
100
AcDbEntity
  8
0
  6
ByBlock
100
AcDbBlockReference
  2
_OPEN
 10
142.6731116929495
 20
672.0603028357458
 30
0.0
 41
60.0
 42
60.0
 43
60.0
 50
270.0
  0
TEXT
  5
7E3D
330
81CA
100
AcDbEntity
  8
3
100
AcDbText
 10
127.6731116929495
 20
1037.060302835745
 30
0.0
 40
90.0
  1
1030
 50
90.0
100
AcDbText
  0
POINT
  5
7E3E
330
81CA
100
AcDbEntity
  8
DEFPOINTS
  6
ByBlock
 62
     0
100
AcDbPoint
 10
343.8332086870923
 20
1702.060302835745
 30
0.0
  0
POINT
  5
7E3F
330
81CA
100
AcDbEntity
  8
DEFPOINTS
  6
ByBlock
 62
     0
100
AcDbPoint
 10
343.8332086870923
 20
672.0603028357458
 30
0.0
  0
POINT
  5
7E40
330
81CA
100
AcDbEntity
  8
DEFPOINTS
  6
ByBlock
 62
     0
100
AcDbPoint
 10
142.6731116929495
 20
672.0603028357458
 30
0.0
  0
ENDBLK
  5
7E41
330
81CA
100
AcDbEntity
  8
0
100
AcDbBlockEnd
  0
BLOCK
  5
81CD
330
81CC
100
AcDbEntity
  8
0
100
AcDbBlockBegin
  2
*D5
 70
     1
 10
0.0
 20
0.0
 30
0.0
  3
*D5
  1

  0
LINE
  5
7E43
330
81CC
100
AcDbEntity
  8
0
  6
ByBlock
100
AcDbLine
 10
313.8332086870922
 20
1702.060302835745
 30
0.0
 11
-88.12893376620378
 21
1702.060302835745
 31
0.0
  0
LINE
  5
7E44
330
81CC
100
AcDbEntity
  8
0
  6
ByBlock
100
AcDbLine
 10
254.2172261894648
 20
628.0603028357453
 30
0.0
 11
-88.12893376620378
 21
628.0603028357453
 31
0.0
  0
LINE
  5
7E45
330
81CC
100
AcDbEntity
  8
0
  6
ByBlock
100
AcDbLine
 10
-58.12893376620377
 20
1642.060302835745
 30
0.0
 11
-58.12893376620377
 21
688.0603028357453
 31
0.0
  0
INSERT
  5
7E46
330
81CC
100
AcDbEntity
  8
0
  6
ByBlock
100
AcDbBlockReference
  2
_OPEN
 10
-58.12893376620377
 20
1702.060302835745
 30
0.0
 41
60.0
 42
60.0
 43
60.0
 50
90.0
  0
INSERT
  5
7E47
330
81CC
100
AcDbEntity
  8
0
  6
ByBlock
100
AcDbBlockReference
  2
_OPEN
 10
-58.12893376620377
 20
628.0603028357453
 30
0.0
 41
60.0
 42
60.0
 43
60.0
 50
270.0
  0
TEXT
  5
7E48
330
81CC
100
AcDbEntity
  8
3
100
AcDbText
 10
-73.12893376620379
 20
1012.917445692888
 30
0.0
 40
90.0
  1
1074
 50
90.0
100
AcDbText
  0
POINT
  5
7E49
330
81CC
100
AcDbEntity
  8
DEFPOINTS
  6
ByBlock
 62
     0
100
AcDbPoint
 10
343.8332086870923
 20
1702.060302835745
 30
0.0
  0
POINT
  5
7E4A
330
81CC
100
AcDbEntity
  8
DEFPOINTS
  6
ByBlock
 62
     0
100
AcDbPoint
 10
284.2172261894648
 20
628.0603028357453
 30
0.0
  0
POINT
  5
7E4B
330
81CC
100
AcDbEntity
  8
DEFPOINTS
  6
ByBlock
 62
     0
100
AcDbPoint
 10
-58.12893376620377
 20
628.0603028357453
 30
0.0
  0
ENDBLK
  5
7E4C
330
81CC
100
AcDbEntity
  8
0
100
AcDbBlockEnd
  0
BLOCK
  5
81CF
330
81CE
100
AcDbEntity
  8
0
100
AcDbBlockBegin
  2
*D6
 70
     1
 10
0.0
 20
0.0
 30
0.0
  3
*D6
  1

  0
LINE
  5
7E4E
330
81CE
100
AcDbEntity
  8
0
  6
ByBlock
100
AcDbLine
 10
254.2172261894648
 20
628.0603028357453
 30
0.0
 11
-88.12893376620378
 21
628.0603028357453
 31
0.0
  0
LINE
  5
7E4F
330
81CE
100
AcDbEntity
  8
0
  6
ByBlock
100
AcDbLine
 10
368.8332086870923
 20
-121.9396971642527
 30
0.0
 11
-88.12893376620378
 21
-121.9396971642527
 31
0.0
  0
LINE
  5
7E50
330
81CE
100
AcDbEntity
  8
0
  6
ByBlock
100
AcDbLine
 10
-58.12893376620377
 20
568.0603028357453
 30
0.0
 11
-58.12893376620377
 21
-61.93969716425272
 31
0.0
  0
INSERT
  5
7E51
330
81CE
100
AcDbEntity
  8
0
  6
ByBlock
100
AcDbBlockReference
  2
_OPEN
 10
-58.12893376620377
 20
628.0603028357453
 30
0.0
 41
60.0
 42
60.0
 43
60.0
 50
90.0
  0
INSERT
  5
7E52
330
81CE
100
AcDbEntity
  8
0
  6
ByBlock
100
AcDbBlockReference
  2
_OPEN
 10
-58.12893376620377
 20
-121.9396971642527
 30
0.0
 41
60.0
 42
60.0
 43
60.0
 50
270.0
  0
TEXT
  5
7E53
330
81CE
100
AcDbEntity
  8
3
100
AcDbText
 10
-73.12893376620379
 20
137.3460171214606
 30
0.0
 40
90.0
  1
750
 50
90.0
100
AcDbText
  0
POINT
  5
7E54
330
81CE
100
AcDbEntity
  8
DEFPOINTS
  6
ByBlock
 62
     0
100
AcDbPoint
 10
284.2172261894648
 20
628.0603028357453
 30
0.0
  0
POINT
  5
7E55
330
81CE
100
AcDbEntity
  8
DEFPOINTS
  6
ByBlock
 62
     0
100
AcDbPoint
 10
398.8332086870923
 20
-121.9396971642527
 30
0.0
  0
POINT
  5
7E56
330
81CE
100
AcDbEntity
  8
DEFPOINTS
  6
ByBlock
 62
     0
100
AcDbPoint
 10
-58.12893376620377
 20
-121.9396971642527
 30
0.0
  0
ENDBLK
  5
7E57
330
81CE
100
AcDbEntity
  8
0
100
AcDbBlockEnd
  0
BLOCK
  5
81D1
330
81D0
100
AcDbEntity
  8
0
100
AcDbBlockBegin
  2
*D7
 70
     1
 10
0.0
 20
0.0
 30
0.0
  3
*D7
  1

  0
LINE
  5
7E59
330
81D0
100
AcDbEntity
  8
0
  6
ByBlock
100
AcDbLine
 10
343.8332086870923
 20
1785.060302835745
 30
0.0
 11
343.8332086870923
 21
1985.834976178721
 31
0.0
  0
LINE
  5
7E5A
330
81D0
100
AcDbEntity
  8
0
  6
ByBlock
100
AcDbLine
 10
1023.833208687094
 20
1822.976195176186
 30
0.0
 11
1023.833208687094
 21
1985.834976178721
 31
0.0
  0
LINE
  5
7E5B
330
81D0
100
AcDbEntity
  8
0
  6
ByBlock
100
AcDbLine
 10
403.8332086870922
 20
1955.834976178721
 30
0.0
 11
963.8332086870942
 21
1955.834976178721
 31
0.0
  0
INSERT
  5
7E5C
330
81D0
100
AcDbEntity
  8
0
  6
ByBlock
100
AcDbBlockReference
  2
_OPEN
 10
343.8332086870923
 20
1955.834976178721
 30
0.0
 41
60.0
 42
60.0
 43
60.0
 50
180.0
  0
INSERT
  5
7E5D
330
81D0
100
AcDbEntity
  8
0
  6
ByBlock
100
AcDbBlockReference
  2
_OPEN
 10
1023.833208687094
 20
1955.834976178721
 30
0.0
 41
60.0
 42
60.0
 43
60.0
  0
TEXT
  5
7E5E
330
81D0
100
AcDbEntity
  8
3
100
AcDbText
 10
568.1189229728074
 20
1970.834976178721
 30
0.0
 40
90.0
  1
680
100
AcDbText
  0
POINT
  5
7E5F
330
81D0
100
AcDbEntity
  8
DEFPOINTS
  6
ByBlock
 62
     0
100
AcDbPoint
 10
343.8332086870923
 20
1755.060302835746
 30
0.0
  0
POINT
  5
7E60
330
81D0
100
AcDbEntity
  8
DEFPOINTS
  6
ByBlock
 62
     0
100
AcDbPoint
 10
1023.833208687094
 20
1792.976195176187
 30
0.0
  0
POINT
  5
7E61
330
81D0
100
AcDbEntity
  8
DEFPOINTS
  6
ByBlock
 62
     0
100
AcDbPoint
 10
1023.833208687094
 20
1955.834976178721
 30
0.0
  0
ENDBLK
  5
7E62
330
81D0
100
AcDbEntity
  8
0
100
AcDbBlockEnd
  0
BLOCK
  5
81D3
330
81D2
100
AcDbEntity
  8
0
100
AcDbBlockBegin
  2
*D8
 70
     1
 10
0.0
 20
0.0
 30
0.0
  3
*D8
  1

  0
LINE
  5
7E64
330
81D2
100
AcDbEntity
  8
0
  6
ByBlock
100
AcDbLine
 10
1023.833208687094
 20
1822.976195176186
 30
0.0
 11
1023.833208687094
 21
1985.377276243805
 31
0.0
  0
LINE
  5
7E65
330
81D2
100
AcDbEntity
  8
0
  6
ByBlock
100
AcDbLine
 10
1888.377325103121
 20
658.0603028357444
 30
0.0
 11
1888.377325103121
 21
1985.377276243805
 31
0.0
  0
LINE
  5
7E66
330
81D2
100
AcDbEntity
  8
0
  6
ByBlock
100
AcDbLine
 10
1083.833208687094
 20
1955.377276243805
 30
0.0
 11
1828.377325103121
 21
1955.377276243805
 31
0.0
  0
INSERT
  5
7E67
330
81D2
100
AcDbEntity
  8
0
  6
ByBlock
100
AcDbBlockReference
  2
_OPEN
 10
1023.833208687094
 20
1955.377276243805
 30
0.0
 41
60.0
 42
60.0
 43
60.0
 50
180.0
  0
INSERT
  5
7E68
330
81D2
100
AcDbEntity
  8
0
  6
ByBlock
100
AcDbBlockReference
  2
_OPEN
 10
1888.377325103121
 20
1955.377276243805
 30
0.0
 41
60.0
 42
60.0
 43
60.0
  0
TEXT
  5
7E69
330
81D2
100
AcDbEntity
  8
3
100
AcDbText
 10
1340.390981180822
 20
1970.377276243805
 30
0.0
 40
90.0
  1
868
100
AcDbText
  0
POINT
  5
7E6A
330
81D2
100
AcDbEntity
  8
DEFPOINTS
  6
ByBlock
 62
     0
100
AcDbPoint
 10
1023.833208687094
 20
1792.976195176187
 30
0.0
  0
POINT
  5
7E6B
330
81D2
100
AcDbEntity
  8
DEFPOINTS
  6
ByBlock
 62
     0
100
AcDbPoint
 10
1888.377325103121
 20
628.0603028357444
 30
0.0
  0
POINT
  5
7E6C
330
81D2
100
AcDbEntity
  8
DEFPOINTS
  6
ByBlock
 62
     0
100
AcDbPoint
 10
1888.377325103121
 20
1955.377276243805
 30
0.0
  0
ENDBLK
  5
7E6D
330
81D2
100
AcDbEntity
  8
0
100
AcDbBlockEnd
  0
BLOCK
  5
81D5
330
81D4
100
AcDbEntity
  8
0
100
AcDbBlockBegin
  2
*D9
 70
     1
 10
0.0
 20
0.0
 30
0.0
  3
*D9
  1

  0
LINE
  5
7EB1
330
81D4
100
AcDbEntity
  8
0
  6
ByBlock
100
AcDbLine
 10
1648.833208687092
 20
4406.031599361241
 30
0.0
 11
1648.833208687092
 21
4627.335536588958
 31
0.0
  0
LINE
  5
7EB2
330
81D4
100
AcDbEntity
  8
0
  6
ByBlock
100
AcDbLine
 10
398.8332086870923
 20
4406.031599361237
 30
0.0
 11
398.8332086870923
 21
4627.335536588958
 31
0.0
  0
LINE
  5
7EB3
330
81D4
100
AcDbEntity
  8
0
  6
ByBlock
100
AcDbLine
 10
1588.833208687092
 20
4597.335536588958
 30
0.0
 11
458.8332086870923
 21
4597.335536588958
 31
0.0
  0
INSERT
  5
7EB4
330
81D4
100
AcDbEntity
  8
0
  6
ByBlock
100
AcDbBlockReference
  2
_OPEN
 10
1648.833208687092
 20
4597.335536588958
 30
0.0
 41
60.0
 42
60.0
 43
60.0
  0
INSERT
  5
7EB5
330
81D4
100
AcDbEntity
  8
0
  6
ByBlock
100
AcDbBlockReference
  2
_OPEN
 10
398.8332086870923
 20
4597.335536588958
 30
0.0
 41
60.0
 42
60.0
 43
60.0
 50
180.0
  0
TEXT
  5
7EB6
330
81D4
100
AcDbEntity
  8
3
100
AcDbText
 10
873.8332086870924
 20
4612.335536588958
 30
0.0
 40
90.0
  1
1250
100
AcDbText
  0
POINT
  5
7EB7
330
81D4
100
AcDbEntity
  8
DEFPOINTS
  6
ByBlock
 62
     0
100
AcDbPoint
 10
1648.833208687092
 20
4376.031599361239
 30
0.0
  0
POINT
  5
7EB8
330
81D4
100
AcDbEntity
  8
DEFPOINTS
  6
ByBlock
 62
     0
100
AcDbPoint
 10
398.8332086870923
 20
4376.031599361239
 30
0.0
  0
POINT
  5
7EB9
330
81D4
100
AcDbEntity
  8
DEFPOINTS
  6
ByBlock
 62
     0
100
AcDbPoint
 10
398.8332086870923
 20
4597.335536588958
 30
0.0
  0
ENDBLK
  5
7EBA
330
81D4
100
AcDbEntity
  8
0
100
AcDbBlockEnd
  0
BLOCK
  5
81D7
330
81D6
100
AcDbEntity
  8
0
100
AcDbBlockBegin
  2
*D10
 70
     1
 10
0.0
 20
0.0
 30
0.0
  3
*D10
  1

  0
LINE
  5
7EBC
330
81D6
100
AcDbEntity
  8
0
  6
ByBlock
100
AcDbLine
 10
2448.833208687092
 20
2841.031599361241
 30
0.0
 11
2448.833208687092
 21
2552.481475534663
 31
0.0
  0
LINE
  5
7EBD
330
81D6
100
AcDbEntity
  8
0
  6
ByBlock
100
AcDbLine
 10
398.8332086870923
 20
2841.031599361238
 30
0.0
 11
398.8332086870923
 21
2552.481475534663
 31
0.0
  0
LINE
  5
7EBE
330
81D6
100
AcDbEntity
  8
0
  6
ByBlock
100
AcDbLine
 10
2388.833208687092
 20
2582.481475534663
 30
0.0
 11
458.8332086870923
 21
2582.481475534663
 31
0.0
  0
INSERT
  5
7EBF
330
81D6
100
AcDbEntity
  8
0
  6
ByBlock
100
AcDbBlockReference
  2
_OPEN
 10
2448.833208687092
 20
2582.481475534663
 30
0.0
 41
60.0
 42
60.0
 43
60.0
  0
INSERT
  5
7EC0
330
81D6
100
AcDbEntity
  8
0
  6
ByBlock
100
AcDbBlockReference
  2
_OPEN
 10
398.8332086870923
 20
2582.481475534663
 30
0.0
 41
60.0
 42
60.0
 43
60.0
 50
180.0
  0
TEXT
  5
7EC1
330
81D6
100
AcDbEntity
  8
3
100
AcDbText
 10
1265.261780115664
 20
2597.481475534663
 30
0.0
 40
90.0
  1
2050
100
AcDbText
  0
POINT
  5
7EC2
330
81D6
100
AcDbEntity
  8
DEFPOINTS
  6
ByBlock
 62
     0
100
AcDbPoint
 10
2448.833208687092
 20
2871.03159936124
 30
0.0
  0
POINT
  5
7EC3
330
81D6
100
AcDbEntity
  8
DEFPOINTS
  6
ByBlock
 62
     0
100
AcDbPoint
 10
398.8332086870923
 20
2871.031599361238
 30
0.0
  0
POINT
  5
7EC4
330
81D6
100
AcDbEntity
  8
DEFPOINTS
  6
ByBlock
 62
     0
100
AcDbPoint
 10
398.8332086870923
 20
2582.481475534663
 30
0.0
  0
ENDBLK
  5
7EC5
330
81D6
100
AcDbEntity
  8
0
100
AcDbBlockEnd
  0
BLOCK
  5
81D9
330
81D8
100
AcDbEntity
  8
0
100
AcDbBlockBegin
  2
*D11
 70
     1
 10
0.0
 20
0.0
 30
0.0
  3
*D11
  1

  0
LINE
  5
7EC7
330
81D8
100
AcDbEntity
  8
0
  6
ByBlock
100
AcDbLine
 10
2478.833208687092
 20
3721.031599361241
 30
0.0
 11
2700.881276187703
 21
3721.031599361241
 31
0.0
  0
LINE
  5
7EC8
330
81D8
100
AcDbEntity
  8
0
  6
ByBlock
100
AcDbLine
 10
2478.833208687092
 20
2871.03159936124
 30
0.0
 11
2700.881276187703
 21
2871.03159936124
 31
0.0
  0
LINE
  5
7EC9
330
81D8
100
AcDbEntity
  8
0
  6
ByBlock
100
AcDbLine
 10
2670.881276187703
 20
3661.031599361241
 30
0.0
 11
2670.881276187703
 21
2931.03159936124
 31
0.0
  0
INSERT
  5
7ECA
330
81D8
100
AcDbEntity
  8
0
  6
ByBlock
100
AcDbBlockReference
  2
_OPEN
 10
2670.881276187703
 20
3721.031599361241
 30
0.0
 41
60.0
 42
60.0
 43
60.0
 50
90.0
  0
INSERT
  5
7ECB
330
81D8
100
AcDbEntity
  8
0
  6
ByBlock
100
AcDbBlockReference
  2
_OPEN
 10
2670.881276187703
 20
2871.03159936124
 30
0.0
 41
60.0
 42
60.0
 43
60.0
 50
270.0
  0
TEXT
  5
7ECC
330
81D8
100
AcDbEntity
  8
3
100
AcDbText
 10
2655.881276187703
 20
3180.317313646954
 30
0.0
 40
90.0
  1
850
 50
90.0
100
AcDbText
  0
POINT
  5
7ECD
330
81D8
100
AcDbEntity
  8
DEFPOINTS
  6
ByBlock
 62
     0
100
AcDbPoint
 10
2448.833208687092
 20
3721.031599361241
 30
0.0
  0
POINT
  5
7ECE
330
81D8
100
AcDbEntity
  8
DEFPOINTS
  6
ByBlock
 62
     0
100
AcDbPoint
 10
2448.833208687092
 20
2871.03159936124
 30
0.0
  0
POINT
  5
7ECF
330
81D8
100
AcDbEntity
  8
DEFPOINTS
  6
ByBlock
 62
     0
100
AcDbPoint
 10
2670.881276187703
 20
2871.03159936124
 30
0.0
  0
ENDBLK
  5
7ED0
330
81D8
100
AcDbEntity
  8
0
100
AcDbBlockEnd
  0
BLOCK
  5
81DB
330
81DA
100
AcDbEntity
  8
0
100
AcDbBlockBegin
  2
*D12
 70
     1
 10
0.0
 20
0.0
 30
0.0
  3
*D12
  1

  0
LINE
  5
7ED2
330
81DA
100
AcDbEntity
  8
0
  6
ByBlock
100
AcDbLine
 10
368.8332086870923
 20
4376.031599361239
 30
0.0
 11
-29.8109293218422
 21
4376.031599361239
 31
0.0
  0
LINE
  5
7ED3
330
81DA
100
AcDbEntity
  8
0
  6
ByBlock
100
AcDbLine
 10
368.8332086870923
 20
2871.031599361238
 30
0.0
 11
-29.8109293218422
 21
2871.031599361238
 31
0.0
  0
LINE
  5
7ED4
330
81DA
100
AcDbEntity
  8
0
  6
ByBlock
100
AcDbLine
 10
0.1890706781578046
 20
4316.031599361237
 30
0.0
 11
0.1890706781578046
 21
2931.031599361238
 31
0.0
  0
INSERT
  5
7ED5
330
81DA
100
AcDbEntity
  8
0
  6
ByBlock
100
AcDbBlockReference
  2
_OPEN
 10
0.1890706781578046
 20
4376.031599361239
 30
0.0
 41
60.0
 42
60.0
 43
60.0
 50
90.0
  0
INSERT
  5
7ED6
330
81DA
100
AcDbEntity
  8
0
  6
ByBlock
100
AcDbBlockReference
  2
_OPEN
 10
0.1890706781578046
 20
2871.031599361238
 30
0.0
 41
60.0
 42
60.0
 43
60.0
 50
270.0
  0
TEXT
  5
7ED7
330
81DA
100
AcDbEntity
  8
3
100
AcDbText
 10
-14.81092932184219
 20
3473.531599361239
 30
0.0
 40
90.0
  1
1505
 50
90.0
100
AcDbText
  0
POINT
  5
7ED8
330
81DA
100
AcDbEntity
  8
DEFPOINTS
  6
ByBlock
 62
     0
100
AcDbPoint
 10
398.8332086870923
 20
4376.031599361239
 30
0.0
  0
POINT
  5
7ED9
330
81DA
100
AcDbEntity
  8
DEFPOINTS
  6
ByBlock
 62
     0
100
AcDbPoint
 10
398.8332086870923
 20
2871.031599361238
 30
0.0
  0
POINT
  5
7EDA
330
81DA
100
AcDbEntity
  8
DEFPOINTS
  6
ByBlock
 62
     0
100
AcDbPoint
 10
0.1890706781578046
 20
2871.031599361238
 30
0.0
  0
ENDBLK
  5
7EDB
330
81DA
100
AcDbEntity
  8
0
100
AcDbBlockEnd
  0
BLOCK
  5
81DD
330
81DC
100
AcDbEntity
  8
0
100
AcDbBlockBegin
  2
*D13
 70
     1
 10
0.0
 20
0.0
 30
0.0
  3
*D13
  1

  0
LINE
  5
8019
330
81DC
100
AcDbEntity
  8
0
  6
ByBlock
100
AcDbLine
 10
4026.721020739036
 20
3186.657117507037
 30
0.0
 11
4026.721020739036
 21
4434.179751975512
 31
0.0
  0
LINE
  5
801A
330
81DC
100
AcDbEntity
  8
0
  6
ByBlock
100
AcDbLine
 10
4994.221020739041
 20
4406.175843669402
 30
0.0
 11
4994.221020739041
 21
4434.179751975512
 31
0.0
  0
LINE
  5
801B
330
81DC
100
AcDbEntity
  8
0
  6
ByBlock
100
AcDbLine
 10
4086.721020739036
 20
4404.179751975513
 30
0.0
 11
4934.221020739041
 21
4404.179751975513
 31
0.0
  0
INSERT
  5
801C
330
81DC
100
AcDbEntity
  8
0
  6
ByBlock
100
AcDbBlockReference
  2
_OPEN
 10
4026.721020739036
 20
4404.179751975513
 30
0.0
 41
60.0
 42
60.0
 43
60.0
 50
180.0
  0
INSERT
  5
801D
330
81DC
100
AcDbEntity
  8
0
  6
ByBlock
100
AcDbBlockReference
  2
_OPEN
 10
4994.221020739041
 20
4404.179751975513
 30
0.0
 41
60.0
 42
60.0
 43
60.0
  0
INSERT
  5
801E
330
81DC
100
AcDbEntity
  8
3
100
AcDbBlockReference
  2
*U14
 10
0.0
 20
0.0
 30
0.0
  0
POINT
  5
801F
330
81DC
100
AcDbEntity
  8
DEFPOINTS
  6
ByBlock
 62
     0
100
AcDbPoint
 10
4026.721020739036
 20
3156.657117507037
 30
0.0
  0
POINT
  5
8020
330
81DC
100
AcDbEntity
  8
DEFPOINTS
  6
ByBlock
 62
     0
100
AcDbPoint
 10
4994.221020739041
 20
4376.175843669403
 30
0.0
  0
POINT
  5
8021
330
81DC
100
AcDbEntity
  8
DEFPOINTS
  6
ByBlock
 62
     0
100
AcDbPoint
 10
4994.221020739041
 20
4404.179751975513
 30
0.0
  0
ENDBLK
  5
8022
330
81DC
100
AcDbEntity
  8
0
100
AcDbBlockEnd
  0
BLOCK
  5
81FB
330
81DE
100
AcDbEntity
  8
0
100
AcDbBlockBegin
  2
*U14
 70
     1
 10
0.0
 20
0.0
 30
0.0
  3
*U14
  1

  0
TEXT
  5
813F
330
81DE
100
AcDbEntity
  8
3
100
AcDbText
 10
4381.899592167609
 20
4569.179751975513
 30
0.0
 40
90.0
  1
MAX
100
AcDbText
  0
TEXT
  5
8140
330
81DE
100
AcDbEntity
  8
3
100
AcDbText
 10
4360.471020739039
 20
4419.179751975511
 30
0.0
 40
90.0
  1
1020
100
AcDbText
  0
ENDBLK
  5
8142
330
81DE
100
AcDbEntity
  8
0
100
AcDbBlockEnd
  0
BLOCK
  5
81E0
330
81DF
100
AcDbEntity
  8
0
100
AcDbBlockBegin
  2
*D15
 70
     1
 10
0.0
 20
0.0
 30
0.0
  3
*D15
  1

  0
LINE
  5
8024
330
81DF
100
AcDbEntity
  8
0
  6
ByBlock
100
AcDbLine
 10
4994.221020739041
 20
4360.646690952726
 30
0.0
 11
4994.221020739041
 21
4434.179751975512
 31
0.0
  0
LINE
  5
8025
330
81DF
100
AcDbEntity
  8
0
  6
ByBlock
100
AcDbLine
 10
5762.221020739045
 20
2870.857117507037
 30
0.0
 11
5762.221020739045
 21
4434.179751975512
 31
0.0
  0
LINE
  5
8026
330
81DF
100
AcDbEntity
  8
0
  6
ByBlock
100
AcDbLine
 10
5054.221020739041
 20
4404.179751975513
 30
0.0
 11
5702.221020739045
 21
4404.179751975513
 31
0.0
  0
INSERT
  5
8027
330
81DF
100
AcDbEntity
  8
0
  6
ByBlock
100
AcDbBlockReference
  2
_OPEN
 10
4994.221020739041
 20
4404.179751975513
 30
0.0
 41
60.0
 42
60.0
 43
60.0
 50
180.0
  0
INSERT
  5
8028
330
81DF
100
AcDbEntity
  8
0
  6
ByBlock
100
AcDbBlockReference
  2
_OPEN
 10
5762.221020739045
 20
4404.179751975513
 30
0.0
 41
60.0
 42
60.0
 43
60.0
  0
TEXT
  5
8029
330
81DF
100
AcDbEntity
  8
3
100
AcDbText
 10
5204.649592167614
 20
4457.751180546941
 30
0.0
 40
90.0
  1
(780)
100
AcDbText
  0
POINT
  5
802A
330
81DF
100
AcDbEntity
  8
DEFPOINTS
  6
ByBlock
 62
     0
100
AcDbPoint
 10
4994.221020739041
 20
4330.646690952726
 30
0.0
  0
POINT
  5
802B
330
81DF
100
AcDbEntity
  8
DEFPOINTS
  6
ByBlock
 62
     0
100
AcDbPoint
 10
5762.221020739045
 20
2840.857117507038
 30
0.0
  0
POINT
  5
802C
330
81DF
100
AcDbEntity
  8
DEFPOINTS
  6
ByBlock
 62
     0
100
AcDbPoint
 10
5762.221020739045
 20
4404.179751975513
 30
0.0
  0
ENDBLK
  5
802D
330
81DF
100
AcDbEntity
  8
0
100
AcDbBlockEnd
  0
BLOCK
  5
81E2
330
81E1
100
AcDbEntity
  8
0
100
AcDbBlockBegin
  2
*D16
 70
     1
 10
0.0
 20
0.0
 30
0.0
  3
*D16
  1

  0
LINE
  5
7EF3
330
81E1
100
AcDbEntity
  8
0
  6
ByBlock
100
AcDbLine
 10
4259.104621073492
 20
1706.374620489382
 30
0.0
 11
4259.104621073492
 21
1986.055054257675
 31
0.0
  0
LINE
  5
7EF4
330
81E1
100
AcDbEntity
  8
0
  6
ByBlock
100
AcDbLine
 10
5509.104621073492
 20
1703.096068293924
 30
0.0
 11
5509.104621073492
 21
1986.055054257675
 31
0.0
  0
LINE
  5
7EF5
330
81E1
100
AcDbEntity
  8
0
  6
ByBlock
100
AcDbLine
 10
4319.104621073492
 20
1956.055054257674
 30
0.0
 11
5449.104621073495
 21
1956.055054257674
 31
0.0
  0
INSERT
  5
7EF6
330
81E1
100
AcDbEntity
  8
0
  6
ByBlock
100
AcDbBlockReference
  2
_OPEN
 10
4259.104621073492
 20
1956.055054257674
 30
0.0
 41
60.0
 42
60.0
 43
60.0
 50
180.0
  0
INSERT
  5
7EF7
330
81E1
100
AcDbEntity
  8
0
  6
ByBlock
100
AcDbBlockReference
  2
_OPEN
 10
5509.104621073492
 20
1956.055054257674
 30
0.0
 41
60.0
 42
60.0
 43
60.0
  0
TEXT
  5
7EF8
330
81E1
100
AcDbEntity
  8
3
100
AcDbText
 10
4734.104621073493
 20
1971.055054257674
 30
0.0
 40
90.0
  1
1250
100
AcDbText
  0
POINT
  5
7EF9
330
81E1
100
AcDbEntity
  8
DEFPOINTS
  6
ByBlock
 62
     0
100
AcDbPoint
 10
4259.104621073492
 20
1676.374620489382
 30
0.0
  0
POINT
  5
7EFA
330
81E1
100
AcDbEntity
  8
DEFPOINTS
  6
ByBlock
 62
     0
100
AcDbPoint
 10
5509.104621073492
 20
1673.096068293924
 30
0.0
  0
POINT
  5
7EFB
330
81E1
100
AcDbEntity
  8
DEFPOINTS
  6
ByBlock
 62
     0
100
AcDbPoint
 10
5509.104621073492
 20
1956.055054257674
 30
0.0
  0
ENDBLK
  5
7EFC
330
81E1
100
AcDbEntity
  8
0
100
AcDbBlockEnd
  0
BLOCK
  5
81E4
330
81E3
100
AcDbEntity
  8
0
100
AcDbBlockBegin
  2
*D17
 70
     1
 10
0.0
 20
0.0
 30
0.0
  3
*D17
  1

  0
LINE
  5
7EFE
330
81E3
100
AcDbEntity
  8
0
  6
ByBlock
100
AcDbLine
 10
5544.604621073492
 20
98.06030283574637
 30
0.0
 11
5883.472841444802
 21
98.06030283574637
 31
0.0
  0
LINE
  5
7EFF
330
81E3
100
AcDbEntity
  8
0
  6
ByBlock
100
AcDbLine
 10
5544.604621073492
 20
1158.060302835746
 30
0.0
 11
5883.472841444802
 21
1158.060302835746
 31
0.0
  0
LINE
  5
7F00
330
81E3
100
AcDbEntity
  8
0
  6
ByBlock
100
AcDbLine
 10
5853.472841444804
 20
158.0603028357463
 30
0.0
 11
5853.472841444804
 21
1098.060302835746
 31
0.0
  0
INSERT
  5
7F01
330
81E3
100
AcDbEntity
  8
0
  6
ByBlock
100
AcDbBlockReference
  2
_OPEN
 10
5853.472841444804
 20
98.06030283574637
 30
0.0
 41
60.0
 42
60.0
 43
60.0
 50
270.0
  0
INSERT
  5
7F02
330
81E3
100
AcDbEntity
  8
0
  6
ByBlock
100
AcDbBlockReference
  2
_OPEN
 10
5853.472841444804
 20
1158.060302835746
 30
0.0
 41
60.0
 42
60.0
 43
60.0
 50
90.0
  0
TEXT
  5
7F03
330
81E3
100
AcDbEntity
  8
3
100
AcDbText
 10
5838.472841444802
 20
433.0603028357463
 30
0.0
 40
90.0
  1
\U+03C61060
 50
90.0
100
AcDbText
  0
POINT
  5
7F04
330
81E3
100
AcDbEntity
  8
DEFPOINTS
  6
ByBlock
 62
     0
100
AcDbPoint
 10
5514.604621073492
 20
98.06030283574637
 30
0.0
  0
POINT
  5
7F05
330
81E3
100
AcDbEntity
  8
DEFPOINTS
  6
ByBlock
 62
     0
100
AcDbPoint
 10
5514.604621073492
 20
1158.060302835746
 30
0.0
  0
POINT
  5
7F06
330
81E3
100
AcDbEntity
  8
DEFPOINTS
  6
ByBlock
 62
     0
100
AcDbPoint
 10
5853.472841444804
 20
1158.060302835746
 30
0.0
  0
ENDBLK
  5
7F07
330
81E3
100
AcDbEntity
  8
0
100
AcDbBlockEnd
  0
BLOCK
  5
81E6
330
81E5
100
AcDbEntity
  8
0
100
AcDbBlockBegin
  2
*D18
 70
     1
 10
0.0
 20
0.0
 30
0.0
  3
*D18
  1

  0
LINE
  5
8130
330
81E5
100
AcDbEntity
  8
3
 62
     0
100
AcDbLine
 10
1270.17386573767
 20
2011.657117507038
 30
0.0
 11
798.2117232843759
 21
2011.657117507038
 31
0.0
  0
LINE
  5
8131
330
81E5
100
AcDbEntity
  8
3
 62
     0
100
AcDbLine
 10
1270.17386573767
 20
1911.657117507038
 30
0.0
 11
798.2117232843759
 21
1911.657117507038
 31
0.0
  0
LINE
  5
8132
330
81E5
100
AcDbEntity
  8
3
 62
     0
100
AcDbLine
 10
828.2117232843756
 20
2071.657117507038
 30
0.0
 11
828.2117232843756
 21
2131.657117507038
 31
0.0
  0
LINE
  5
8133
330
81E5
100
AcDbEntity
  8
3
 62
     0
100
AcDbLine
 10
828.2117232843756
 20
1851.657117507038
 30
0.0
 11
828.2117232843756
 21
1517.371403221324
 31
0.0
  0
LINE
  5
8134
330
81E5
100
AcDbEntity
  8
3
 62
     0
100
AcDbLine
 10
828.2117232843756
 20
2011.657117507038
 30
0.0
 11
828.2117232843756
 21
1911.657117507038
 31
0.0
  0
INSERT
  5
8135
330
81E5
100
AcDbEntity
  8
3
 62
     0
100
AcDbBlockReference
  2
_DOT
 10
828.2117232843756
 20
2011.657117507038
 30
0.0
 41
60.0
 42
60.0
 43
60.0
 50
270.0
  0
INSERT
  5
8136
330
81E5
100
AcDbEntity
  8
3
 62
     0
100
AcDbBlockReference
  2
_OPEN
 10
828.2117232843756
 20
1911.657117507038
 30
0.0
 41
60.0
 42
60.0
 43
60.0
 50
90.0
  0
TEXT
  5
8143
330
81E5
100
AcDbEntity
  8
3
 62
     0
100
AcDbText
 10
573.212
 20
1495.21
 30
0.0
 40
90.0
  1
100
100
AcDbText
  0
POINT
  5
8138
330
81E5
100
AcDbEntity
  8
DEFPOINTS
 62
     0
100
AcDbPoint
 10
1285.173865737671
 20
2011.657117507038
 30
0.0
  0
POINT
  5
8139
330
81E5
100
AcDbEntity
  8
DEFPOINTS
 62
     0
100
AcDbPoint
 10
1285.173865737671
 20
1911.657117507038
 30
0.0
  0
POINT
  5
813A
330
81E5
100
AcDbEntity
  8
DEFPOINTS
 62
     0
100
AcDbPoint
 10
828.2117232843756
 20
1911.657117507038
 30
0.0
  0
ENDBLK
  5
7FD1
330
81E5
100
AcDbEntity
  8
0
100
AcDbBlockEnd
  0
BLOCK
  5
81EC
330
81E7
100
AcDbEntity
  8
0
100
AcDbBlockBegin
  2
_DOT
 70
     0
 10
0.0
 20
0.0
 30
0.0
  3
_DOT
  1

  0
LWPOLYLINE
  5
7FD4
330
81E7
100
AcDbEntity
  8
0
  6
ByBlock
 62
     0
100
AcDbPolyline
 90
        2
 70
     1
 43
0.25
 10
-0.125
 20
0.0
 42
1.0
 10
0.125
 20
0.0
 42
1.0
  0
LINE
  5
7FD8
330
81E7
100
AcDbEntity
  8
0
  6
ByBlock
 62
     0
100
AcDbLine
 10
-0.25
 20
0.0
 30
0.0
 11
-1.0
 21
0.0
 31
0.0
  0
ENDBLK
  5
7FB7
330
81E7
100
AcDbEntity
  8
0
100
AcDbBlockEnd
  0
BLOCK
  5
81E9
330
81E8
100
AcDbEntity
  8
0
100
AcDbBlockBegin
  2
*D20
 70
     1
 10
0.0
 20
0.0
 30
0.0
  3
*D20
  1

  0
LINE
  5
7F2E
330
81E8
100
AcDbEntity
  8
0
  6
ByBlock
100
AcDbLine
 10
343.8332086870923
 20
1785.060302835745
 30
0.0
 11
343.8332086870923
 21
2165.221479554626
 31
0.0
  0
LINE
  5
7F2F
330
81E8
100
AcDbEntity
  8
0
  6
ByBlock
100
AcDbLine
 10
2448.833208687092
 20
8.060302835745686
 30
0.0
 11
2448.833208687092
 21
2165.221479554626
 31
0.0
  0
LINE
  5
7F30
330
81E8
100
AcDbEntity
  8
0
  6
ByBlock
100
AcDbLine
 10
403.8332086870922
 20
2135.221479554626
 30
0.0
 11
2388.833208687092
 21
2135.221479554626
 31
0.0
  0
INSERT
  5
7F31
330
81E8
100
AcDbEntity
  8
0
  6
ByBlock
100
AcDbBlockReference
  2
_OPEN
 10
343.8332086870923
 20
2135.221479554626
 30
0.0
 41
60.0
 42
60.0
 43
60.0
 50
180.0
  0
INSERT
  5
7F32
330
81E8
100
AcDbEntity
  8
0
  6
ByBlock
100
AcDbBlockReference
  2
_OPEN
 10
2448.833208687092
 20
2135.221479554626
 30
0.0
 41
60.0
 42
60.0
 43
60.0
  0
TEXT
  5
7F33
330
81E8
100
AcDbEntity
  8
3
100
AcDbText
 10
1246.333208687092
 20
2150.221479554626
 30
0.0
 40
90.0
  1
2105
100
AcDbText
  0
POINT
  5
7F34
330
81E8
100
AcDbEntity
  8
DEFPOINTS
  6
ByBlock
 62
     0
100
AcDbPoint
 10
343.8332086870923
 20
1755.060302835746
 30
0.0
  0
POINT
  5
7F35
330
81E8
100
AcDbEntity
  8
DEFPOINTS
  6
ByBlock
 62
     0
100
AcDbPoint
 10
2448.833208687092
 20
-21.93969716425431
 30
0.0
  0
POINT
  5
7F36
330
81E8
100
AcDbEntity
  8
DEFPOINTS
  6
ByBlock
 62
     0
100
AcDbPoint
 10
2448.833208687092
 20
2135.221479554626
 30
0.0
  0
ENDBLK
  5
7F37
330
81E8
100
AcDbEntity
  8
0
100
AcDbBlockEnd
  0
BLOCK
  5
81EB
330
81EA
100
AcDbEntity
  8
0
100
AcDbBlockBegin
  2
*D21
 70
     1
 10
0.0
 20
0.0
 30
0.0
  3
*D21
  1

  0
LINE
  5
7F39
330
81EA
100
AcDbEntity
  8
0
  6
ByBlock
100
AcDbLine
 10
1648.833208687092
 20
4406.031599361241
 30
0.0
 11
1648.833208687092
 21
4627.335536588958
 31
0.0
  0
LINE
  5
7F3A
330
81EA
100
AcDbEntity
  8
0
  6
ByBlock
100
AcDbLine
 10
2448.833208687092
 20
3751.03159936124
 30
0.0
 11
2448.833208687092
 21
4627.335536588958
 31
0.0
  0
LINE
  5
7F3B
330
81EA
100
AcDbEntity
  8
0
  6
ByBlock
100
AcDbLine
 10
1708.833208687092
 20
4597.335536588958
 30
0.0
 11
2388.833208687092
 21
4597.335536588958
 31
0.0
  0
INSERT
  5
7F3C
330
81EA
100
AcDbEntity
  8
0
  6
ByBlock
100
AcDbBlockReference
  2
_OPEN
 10
1648.833208687092
 20
4597.335536588958
 30
0.0
 41
60.0
 42
60.0
 43
60.0
 50
180.0
  0
INSERT
  5
7F3D
330
81EA
100
AcDbEntity
  8
0
  6
ByBlock
100
AcDbBlockReference
  2
_OPEN
 10
2448.833208687092
 20
4597.335536588958
 30
0.0
 41
60.0
 42
60.0
 43
60.0
  0
TEXT
  5
7F3E
330
81EA
100
AcDbEntity
  8
3
100
AcDbText
 10
1933.118922972806
 20
4612.335536588958
 30
0.0
 40
90.0
  1
800
100
AcDbText
  0
POINT
  5
7F3F
330
81EA
100
AcDbEntity
  8
DEFPOINTS
  6
ByBlock
 62
     0
100
AcDbPoint
 10
1648.833208687092
 20
4376.031599361239
 30
0.0
  0
POINT
  5
7F40
330
81EA
100
AcDbEntity
  8
DEFPOINTS
  6
ByBlock
 62
     0
100
AcDbPoint
 10
2448.833208687092
 20
3721.031599361241
 30
0.0
  0
POINT
  5
7F41
330
81EA
100
AcDbEntity
  8
DEFPOINTS
  6
ByBlock
 62
     0
100
AcDbPoint
 10
2448.833208687092
 20
4597.335536588958
 30
0.0
  0
ENDBLK
  5
7F42
330
81EA
100
AcDbEntity
  8
0
100
AcDbBlockEnd
  0
BLOCK
  5
81EE
330
81ED
100
AcDbEntity
  8
0
100
AcDbBlockBegin
  2
*D22
 70
     1
 10
0.0
 20
0.0
 30
0.0
  3
*D22
  1

  0
LINE
  5
803C
330
81ED
100
AcDbEntity
  8
0
  6
ByBlock
 62
     0
100
AcDbLine
 10
1285.173865737671
 20
1969.657117507038
 30
0.0
 11
1285.173865737671
 21
1770.848373107928
 31
0.0
  0
LINE
  5
803D
330
81ED
100
AcDbEntity
  8
0
  6
ByBlock
 62
     0
100
AcDbLine
 10
1910.173865737673
 20
1969.657117507038
 30
0.0
 11
1910.173865737673
 21
1770.848373107928
 31
0.0
  0
LINE
  5
803E
330
81ED
100
AcDbEntity
  8
0
  6
ByBlock
 62
     0
100
AcDbLine
 10
1345.173865737671
 20
1800.848373107928
 30
0.0
 11
1850.173865737673
 21
1800.848373107928
 31
0.0
  0
INSERT
  5
803F
330
81ED
100
AcDbEntity
  8
0
  6
ByBlock
 62
     0
100
AcDbBlockReference
  2
_OPEN
 10
1285.173865737671
 20
1800.848373107928
 30
0.0
 41
60.0
 42
60.0
 43
60.0
 50
180.0
  0
INSERT
  5
8040
330
81ED
100
AcDbEntity
  8
0
  6
ByBlock
 62
     0
100
AcDbBlockReference
  2
_OPEN
 10
1910.173865737673
 20
1800.848373107928
 30
0.0
 41
60.0
 42
60.0
 43
60.0
  0
TEXT
  5
8041
330
81ED
100
AcDbEntity
  8
3
 62
     0
100
AcDbText
 10
1481.959580023387
 20
1830.848373107929
 30
0.0
 40
90.0
  1
625
100
AcDbText
  0
POINT
  5
8042
330
81ED
100
AcDbEntity
  8
DEFPOINTS
  6
ByBlock
 62
     0
100
AcDbPoint
 10
1285.173865737671
 20
1999.657117507038
 30
0.0
  0
POINT
  5
8043
330
81ED
100
AcDbEntity
  8
DEFPOINTS
  6
ByBlock
 62
     0
100
AcDbPoint
 10
1910.173865737673
 20
1999.657117507038
 30
0.0
  0
POINT
  5
8044
330
81ED
100
AcDbEntity
  8
DEFPOINTS
  6
ByBlock
 62
     0
100
AcDbPoint
 10
1910.173865737673
 20
1800.848373107928
 30
0.0
  0
ENDBLK
  5
8045
330
81ED
100
AcDbEntity
  8
0
100
AcDbBlockEnd
  0
BLOCK
  5
81F0
330
81EF
100
AcDbEntity
  8
0
100
AcDbBlockBegin
  2
*D23
 70
     1
 10
0.0
 20
0.0
 30
0.0
  3
*D23
  1

  0
LINE
  5
8049
330
81EF
100
AcDbEntity
  8
0
  6
ByBlock
 62
     0
100
AcDbLine
 10
1910.173865737673
 20
1969.657117507038
 30
0.0
 11
1910.173865737673
 21
1770.848373107928
 31
0.0
  0
LINE
  5
804A
330
81EF
100
AcDbEntity
  8
0
  6
ByBlock
 62
     0
100
AcDbLine
 10
3335.173865737672
 20
1969.657117507038
 30
0.0
 11
3335.173865737672
 21
1770.848373107928
 31
0.0
  0
LINE
  5
804B
330
81EF
100
AcDbEntity
  8
0
  6
ByBlock
 62
     0
100
AcDbLine
 10
1970.173865737672
 20
1800.848373107928
 30
0.0
 11
3275.173865737672
 21
1800.848373107928
 31
0.0
  0
INSERT
  5
804C
330
81EF
100
AcDbEntity
  8
0
  6
ByBlock
 62
     0
100
AcDbBlockReference
  2
_OPEN
 10
1910.173865737673
 20
1800.848373107928
 30
0.0
 41
60.0
 42
60.0
 43
60.0
 50
180.0
  0
INSERT
  5
804D
330
81EF
100
AcDbEntity
  8
0
  6
ByBlock
 62
     0
100
AcDbBlockReference
  2
_OPEN
 10
3335.173865737672
 20
1800.848373107928
 30
0.0
 41
60.0
 42
60.0
 43
60.0
  0
TEXT
  5
804E
330
81EF
100
AcDbEntity
  8
3
 62
     0
100
AcDbText
 10
2472.673865737673
 20
1830.848373107929
 30
0.0
 40
90.0
  1
1425
100
AcDbText
  0
POINT
  5
804F
330
81EF
100
AcDbEntity
  8
DEFPOINTS
  6
ByBlock
 62
     0
100
AcDbPoint
 10
1910.173865737673
 20
1999.657117507038
 30
0.0
  0
POINT
  5
8050
330
81EF
100
AcDbEntity
  8
DEFPOINTS
  6
ByBlock
 62
     0
100
AcDbPoint
 10
3335.173865737672
 20
1999.657117507038
 30
0.0
  0
POINT
  5
8051
330
81EF
100
AcDbEntity
  8
DEFPOINTS
  6
ByBlock
 62
     0
100
AcDbPoint
 10
3335.173865737672
 20
1800.848373107928
 30
0.0
  0
ENDBLK
  5
8052
330
81EF
100
AcDbEntity
  8
0
100
AcDbBlockEnd
  0
BLOCK
  5
81F2
330
81F1
100
AcDbEntity
  8
0
100
AcDbBlockBegin
  2
*D24
 70
     1
 10
0.0
 20
0.0
 30
0.0
  3
*D24
  1

  0
LINE
  5
8056
330
81F1
100
AcDbEntity
  8
0
  6
ByBlock
 62
     0
100
AcDbLine
 10
3992.520643908476
 20
1969.657117507036
 30
0.0
 11
3992.520643908476
 21
1770.848373107928
 31
0.0
  0
LINE
  5
8057
330
81F1
100
AcDbEntity
  8
0
  6
ByBlock
 62
     0
100
AcDbLine
 10
4819.520643908475
 20
1969.657117507036
 30
0.0
 11
4819.520643908475
 21
1770.848373107928
 31
0.0
  0
LINE
  5
8058
330
81F1
100
AcDbEntity
  8
0
  6
ByBlock
 62
     0
100
AcDbLine
 10
4052.520643908476
 20
1800.848373107928
 30
0.0
 11
4759.520643908475
 21
1800.848373107928
 31
0.0
  0
INSERT
  5
8059
330
81F1
100
AcDbEntity
  8
0
  6
ByBlock
 62
     0
100
AcDbBlockReference
  2
_OPEN
 10
3992.520643908476
 20
1800.848373107928
 30
0.0
 41
60.0
 42
60.0
 43
60.0
 50
180.0
  0
INSERT
  5
805A
330
81F1
100
AcDbEntity
  8
0
  6
ByBlock
 62
     0
100
AcDbBlockReference
  2
_OPEN
 10
4819.520643908475
 20
1800.848373107928
 30
0.0
 41
60.0
 42
60.0
 43
60.0
  0
TEXT
  5
805B
330
81F1
100
AcDbEntity
  8
3
 62
     0
100
AcDbText
 10
4290.30635819419
 20
1830.848373107929
 30
0.0
 40
90.0
  1
827
100
AcDbText
  0
POINT
  5
805C
330
81F1
100
AcDbEntity
  8
DEFPOINTS
  6
ByBlock
 62
     0
100
AcDbPoint
 10
3992.520643908476
 20
1999.657117507037
 30
0.0
  0
POINT
  5
805D
330
81F1
100
AcDbEntity
  8
DEFPOINTS
  6
ByBlock
 62
     0
100
AcDbPoint
 10
4819.520643908475
 20
1999.657117507037
 30
0.0
  0
POINT
  5
805E
330
81F1
100
AcDbEntity
  8
DEFPOINTS
  6
ByBlock
 62
     0
100
AcDbPoint
 10
4819.520643908475
 20
1800.848373107928
 30
0.0
  0
ENDBLK
  5
805F
330
81F1
100
AcDbEntity
  8
0
100
AcDbBlockEnd
  0
BLOCK
  5
81F4
330
81F3
100
AcDbEntity
  8
0
100
AcDbBlockBegin
  2
*D25
 70
     1
 10
0.0
 20
0.0
 30
0.0
  3
*D25
  1

  0
LINE
  5
8063
330
81F3
100
AcDbEntity
  8
0
  6
ByBlock
 62
     0
100
AcDbLine
 10
4819.520643908475
 20
1969.657117507036
 30
0.0
 11
4819.520643908475
 21
1770.848373107928
 31
0.0
  0
LINE
  5
8064
330
81F3
100
AcDbEntity
  8
0
  6
ByBlock
 62
     0
100
AcDbLine
 10
5497.520643908476
 20
1969.657117507036
 30
0.0
 11
5497.520643908476
 21
1770.848373107928
 31
0.0
  0
LINE
  5
8065
330
81F3
100
AcDbEntity
  8
0
  6
ByBlock
 62
     0
100
AcDbLine
 10
4879.520643908475
 20
1800.848373107928
 30
0.0
 11
5437.520643908476
 21
1800.848373107928
 31
0.0
  0
INSERT
  5
8066
330
81F3
100
AcDbEntity
  8
0
  6
ByBlock
 62
     0
100
AcDbBlockReference
  2
_OPEN
 10
4819.520643908475
 20
1800.848373107928
 30
0.0
 41
60.0
 42
60.0
 43
60.0
 50
180.0
  0
INSERT
  5
8067
330
81F3
100
AcDbEntity
  8
0
  6
ByBlock
 62
     0
100
AcDbBlockReference
  2
_OPEN
 10
5497.520643908476
 20
1800.848373107928
 30
0.0
 41
60.0
 42
60.0
 43
60.0
  0
TEXT
  5
8068
330
81F3
100
AcDbEntity
  8
3
 62
     0
100
AcDbText
 10
5042.806358194191
 20
1830.848373107929
 30
0.0
 40
90.0
  1
678
100
AcDbText
  0
POINT
  5
8069
330
81F3
100
AcDbEntity
  8
DEFPOINTS
  6
ByBlock
 62
     0
100
AcDbPoint
 10
4819.520643908475
 20
1999.657117507037
 30
0.0
  0
POINT
  5
806A
330
81F3
100
AcDbEntity
  8
DEFPOINTS
  6
ByBlock
 62
     0
100
AcDbPoint
 10
5497.520643908476
 20
1999.657117507037
 30
0.0
  0
POINT
  5
806B
330
81F3
100
AcDbEntity
  8
DEFPOINTS
  6
ByBlock
 62
     0
100
AcDbPoint
 10
5497.520643908476
 20
1800.848373107928
 30
0.0
  0
ENDBLK
  5
806C
330
81F3
100
AcDbEntity
  8
0
100
AcDbBlockEnd
  0
BLOCK
  5
81F6
330
81F5
100
AcDbEntity
  8
0
100
AcDbBlockBegin
  2
_NONE
 70
     0
 10
0.0
 20
0.0
 30
0.0
  3
_NONE
  1

  0
CIRCLE
  5
8070
330
81F5
100
AcDbEntity
  8
0
  6
ByBlock
 62
     0
100
AcDbCircle
 10
0.0
 20
0.0
 30
0.0
 40
0.25
  0
ENDBLK
  5
8071
330
81F5
100
AcDbEntity
  8
0
100
AcDbBlockEnd
  0
BLOCK
  5
81F8
330
81F7
100
AcDbEntity
  8
0
100
AcDbBlockBegin
  2
*D27
 70
     1
 10
0.0
 20
0.0
 30
0.0
  3
*D27
  1

  0
LINE
  5
80C3
330
81F7
100
AcDbEntity
  8
0
  6
ByBlock
 62
     0
100
AcDbLine
 10
830.071053125215
 20
2011.657117507038
 30
0.0
 11
830.071053125215
 21
2126.657117507038
 31
0.0
  0
TEXT
  5
80C4
330
81F7
100
AcDbEntity
  8
3
 62
     0
100
AcDbText
 10
716.4996245537865
 20
1912.728546078466
 30
0.0
 40
90.0
  1
(115)
 50
90.0
100
AcDbText
  0
POINT
  5
80C5
330
81F7
100
AcDbEntity
  8
DEFPOINTS
  6
ByBlock
 62
     0
100
AcDbPoint
 10
1285.173865737671
 20
2011.657117507038
 30
0.0
  0
POINT
  5
80C6
330
81F7
100
AcDbEntity
  8
DEFPOINTS
  6
ByBlock
 62
     0
100
AcDbPoint
 10
1285.173865737671
 20
2126.657117507038
 30
0.0
  0
POINT
  5
80C7
330
81F7
100
AcDbEntity
  8
DEFPOINTS
  6
ByBlock
 62
     0
100
AcDbPoint
 10
830.071053125215
 20
2126.657117507038
 30
0.0
  0
ENDBLK
  5
80C8
330
81F7
100
AcDbEntity
  8
0
100
AcDbBlockEnd
  0
BLOCK
  5
81FA
330
81F9
100
AcDbEntity
  8
0
100
AcDbBlockBegin
  2
*D28
 70
     1
 10
0.0
 20
0.0
 30
0.0
  3
*D28
  1

  0
LINE
  5
80CC
330
81F9
100
AcDbEntity
  8
0
  6
ByBlock
 62
     0
100
AcDbLine
 10
1255.17386573767
 20
1911.657117507038
 30
0.0
 11
543.854568356488
 21
1911.657117507038
 31
0.0
  0
LINE
  5
80CD
330
81F9
100
AcDbEntity
  8
0
  6
ByBlock
 62
     0
100
AcDbLine
 10
1200.173865737671
 20
3950.657117507036
 30
0.0
 11
543.854568356488
 21
3950.657117507036
 31
0.0
  0
LINE
  5
80CE
330
81F9
100
AcDbEntity
  8
0
  6
ByBlock
 62
     0
100
AcDbLine
 10
573.854568356488
 20
1971.657117507038
 30
0.0
 11
573.854568356488
 21
3890.657117507036
 31
0.0
  0
INSERT
  5
80CF
330
81F9
100
AcDbEntity
  8
0
  6
ByBlock
 62
     0
100
AcDbBlockReference
  2
_OPEN
 10
573.854568356488
 20
1911.657117507038
 30
0.0
 41
60.0
 42
60.0
 43
60.0
 50
270.0
  0
INSERT
  5
80D0
330
81F9
100
AcDbEntity
  8
0
  6
ByBlock
 62
     0
100
AcDbBlockReference
  2
_OPEN
 10
573.854568356488
 20
3950.657117507036
 30
0.0
 41
60.0
 42
60.0
 43
60.0
 50
90.0
  0
TEXT
  5
80D1
330
81F9
100
AcDbEntity
  8
3
 62
     0
100
AcDbText
 10
505.2831397850593
 20
2714.728546078466
 30
0.0
 40
90.0
  1
(2039)
 50
90.0
100
AcDbText
  0
POINT
  5
80D2
330
81F9
100
AcDbEntity
  8
DEFPOINTS
  6
ByBlock
 62
     0
100
AcDbPoint
 10
1285.173865737671
 20
1911.657117507038
 30
0.0
  0
POINT
  5
80D3
330
81F9
100
AcDbEntity
  8
DEFPOINTS
  6
ByBlock
 62
     0
100
AcDbPoint
 10
1230.17386573767
 20
3950.657117507036
 30
0.0
  0
POINT
  5
80D4
330
81F9
100
AcDbEntity
  8
DEFPOINTS
  6
ByBlock
 62
     0
100
AcDbPoint
 10
573.854568356488
 20
3950.657117507036
 30
0.0
  0
ENDBLK
  5
80D5
330
81F9
100
AcDbEntity
  8
0
100
AcDbBlockEnd
  0
BLOCK
  5
81FF
330
81FE
100
AcDbEntity
  8
0
100
AcDbBlockBegin
  2
*D29
 70
     1
 10
0.0
 20
0.0
 30
0.0
  3
*D29
  1

  0
LINE
  5
828F
330
81FE
100
AcDbEntity
  8
3
 62
     0
370
    -2
100
AcDbLine
 10
3759.520643908471
 20
3186.657117507037
 30
0.0
 11
3759.520643908471
 21
4458.282004947185
 31
0.0
  0
LINE
  5
8290
330
81FE
100
AcDbEntity
  8
3
 62
     0
370
    -2
100
AcDbLine
 10
4819.520643908475
 20
4339.651868928965
 30
0.0
 11
4819.520643908475
 21
4458.282004947185
 31
0.0
  0
LINE
  5
8291
330
81FE
100
AcDbEntity
  8
3
 62
     0
370
    -2
100
AcDbLine
 10
3819.520643908471
 20
4428.282004947185
 30
0.0
 11
4759.520643908475
 21
4428.282004947185
 31
0.0
  0
INSERT
  5
8292
330
81FE
100
AcDbEntity
  8
3
 62
     0
370
    -2
100
AcDbBlockReference
  2
_OPEN
 10
3759.520643908471
 20
4428.282004947185
 30
0.0
 41
60.0
 42
60.0
 43
60.0
 50
180.0
  0
INSERT
  5
8293
330
81FE
100
AcDbEntity
  8
3
 62
     0
370
    -2
100
AcDbBlockReference
  2
_OPEN
 10
4819.520643908475
 20
4428.282004947185
 30
0.0
 41
60.0
 42
60.0
 43
60.0
  0
MTEXT
  5
8294
330
81FE
100
AcDbEntity
  8
3
 62
     0
100
AcDbMText
 10
4289.520643908472
 20
4526.853433518613
 30
0.0
 40
90.0
 41
0.0
 71
     5
 72
     1
  1
\A1;(1060)
 73
     1
 44
1.0
1001
ACAD
1000
MTEXTBEGIN
1070
    73
1070
     1
1070
    44
1040
1.0
1070
    74
1070
     0
1000
MTEXTEND
  0
POINT
  5
8295
330
81FE
100
AcDbEntity
  8
DEFPOINTS
 62
     0
100
AcDbPoint
 10
3759.520643908471
 20
3156.657117507037
 30
0.0
  0
POINT
  5
8296
330
81FE
100
AcDbEntity
  8
DEFPOINTS
 62
     0
100
AcDbPoint
 10
4819.520643908475
 20
4309.651868928965
 30
0.0
  0
POINT
  5
8297
330
81FE
100
AcDbEntity
  8
DEFPOINTS
 62
     0
100
AcDbPoint
 10
4819.520643908475
 20
4428.282004947185
 30
0.0
  0
ENDBLK
  5
8200
330
81FE
100
AcDbEntity
  8
0
100
AcDbBlockEnd
  0
BLOCK
  5
820C
330
820B
100
AcDbEntity
  8
0
100
AcDbBlockBegin
  2
*D30
 70
     1
 10
0.0
 20
0.0
 30
0.0
  3
*D30
  1

  0
LINE
  5
8298
330
820B
100
AcDbEntity
  8
3
 62
     0
370
    -2
100
AcDbLine
 10
4819.520643908475
 20
4339.651868928965
 30
0.0
 11
4819.520643908475
 21
4458.282004947185
 31
0.0
  0
LINE
  5
8299
330
820B
100
AcDbEntity
  8
3
 62
     0
370
    -2
100
AcDbLine
 10
5599.520643908475
 20
2870.857117507038
 30
0.0
 11
5599.520643908475
 21
4458.282004947185
 31
0.0
  0
LINE
  5
829A
330
820B
100
AcDbEntity
  8
3
 62
     0
370
    -2
100
AcDbLine
 10
4879.520643908475
 20
4428.282004947185
 30
0.0
 11
5539.520643908475
 21
4428.282004947185
 31
0.0
  0
INSERT
  5
829B
330
820B
100
AcDbEntity
  8
3
 62
     0
370
    -2
100
AcDbBlockReference
  2
_OPEN
 10
4819.520643908475
 20
4428.282004947185
 30
0.0
 41
60.0
 42
60.0
 43
60.0
 50
180.0
  0
INSERT
  5
829C
330
820B
100
AcDbEntity
  8
3
 62
     0
370
    -2
100
AcDbBlockReference
  2
_OPEN
 10
5599.520643908475
 20
4428.282004947185
 30
0.0
 41
60.0
 42
60.0
 43
60.0
  0
MTEXT
  5
829D
330
820B
100
AcDbEntity
  8
3
 62
     0
100
AcDbMText
 10
5209.520643908475
 20
4526.853433518613
 30
0.0
 40
90.0
 41
0.0
 71
     5
 72
     1
  1
\A1;(780)
 73
     1
 44
1.0
1001
ACAD
1000
MTEXTBEGIN
1070
    73
1070
     1
1070
    44
1040
1.0
1070
    74
1070
     0
1000
MTEXTEND
  0
POINT
  5
829E
330
820B
100
AcDbEntity
  8
DEFPOINTS
 62
     0
100
AcDbPoint
 10
4819.520643908475
 20
4309.651868928965
 30
0.0
  0
POINT
  5
829F
330
820B
100
AcDbEntity
  8
DEFPOINTS
 62
     0
100
AcDbPoint
 10
5599.520643908475
 20
2840.857117507038
 30
0.0
  0
POINT
  5
82A0
330
820B
100
AcDbEntity
  8
DEFPOINTS
 62
     0
100
AcDbPoint
 10
5599.520643908475
 20
4428.282004947185
 30
0.0
  0
ENDBLK
  5
820D
330
820B
100
AcDbEntity
  8
0
100
AcDbBlockEnd
  0
BLOCK
  5
8218
330
8217
100
AcDbEntity
  8
0
100
AcDbBlockBegin
  2
*D31
 70
     1
 10
0.0
 20
0.0
 30
0.0
  3
*D31
  1

  0
LINE
  5
821A
330
8217
100
AcDbEntity
  8
3
 62
     0
370
    -2
100
AcDbLine
 10
1285.173865737671
 20
1891.657117507038
 30
0.0
 11
1285.173865737671
 21
1717.448373107927
 31
0.0
  0
LINE
  5
821B
330
8217
100
AcDbEntity
  8
3
 62
     0
370
    -2
100
AcDbLine
 10
1910.173865737673
 20
1891.657117507038
 30
0.0
 11
1910.173865737673
 21
1717.448373107927
 31
0.0
  0
LINE
  5
821C
330
8217
100
AcDbEntity
  8
3
 62
     0
370
    -2
100
AcDbLine
 10
1290.573865737671
 20
1722.848373107928
 30
0.0
 11
1588.031008594815
 21
1722.848373107928
 31
0.0
  0
LINE
  5
821D
330
8217
100
AcDbEntity
  8
3
 62
     0
370
    -2
100
AcDbLine
 10
1904.773865737672
 20
1722.848373107928
 30
0.0
 11
1607.316722880529
 21
1722.848373107928
 31
0.0
  0
SOLID
  5
821E
330
8217
100
AcDbEntity
  8
3
 62
     0
100
AcDbTrace
 10
1290.573865737671
 20
1723.748373107928
 30
0.0
 11
1290.573865737671
 21
1721.948373107928
 31
0.0
 12
1285.173865737671
 22
1722.848373107928
 32
0.0
 13
1285.173865737671
 23
1722.848373107928
 33
0.0
  0
SOLID
  5
821F
330
8217
100
AcDbEntity
  8
3
 62
     0
100
AcDbTrace
 10
1904.773865737672
 20
1723.748373107928
 30
0.0
 11
1904.773865737672
 21
1721.948373107928
 31
0.0
 12
1910.173865737673
 22
1722.848373107928
 32
0.0
 13
1910.173865737673
 23
1722.848373107928
 33
0.0
  0
MTEXT
  5
8220
330
8217
100
AcDbEntity
  8
3
 62
     0
100
AcDbMText
 10
1597.673865737672
 20
1722.848373107928
 30
0.0
 40
5.399999999999999
 41
0.0
 71
     5
 72
     1
  1
\A1;625
 73
     1
 44
1.0
1001
ACAD
1000
MTEXTBEGIN
1070
    73
1070
     1
1070
    44
1040
1.0
1070
    74
1070
     0
1000
MTEXTEND
  0
POINT
  5
8221
330
8217
100
AcDbEntity
  8
DEFPOINTS
 62
     0
100
AcDbPoint
 10
1285.173865737671
 20
1921.657117507038
 30
0.0
  0
POINT
  5
8222
330
8217
100
AcDbEntity
  8
DEFPOINTS
 62
     0
100
AcDbPoint
 10
1910.173865737673
 20
1921.657117507038
 30
0.0
  0
POINT
  5
8223
330
8217
100
AcDbEntity
  8
DEFPOINTS
 62
     0
100
AcDbPoint
 10
1910.173865737673
 20
1722.848373107928
 30
0.0
  0
ENDBLK
  5
8219
330
8217
100
AcDbEntity
  8
0
100
AcDbBlockEnd
  0
BLOCK
  5
8225
330
8224
100
AcDbEntity
  8
0
100
AcDbBlockBegin
  2
*D32
 70
     1
 10
0.0
 20
0.0
 30
0.0
  3
*D32
  1

  0
LINE
  5
8227
330
8224
100
AcDbEntity
  8
3
 62
     0
370
    -2
100
AcDbLine
 10
1910.173865737673
 20
1891.657117507038
 30
0.0
 11
1910.173865737673
 21
1717.448373107927
 31
0.0
  0
LINE
  5
8228
330
8224
100
AcDbEntity
  8
3
 62
     0
370
    -2
100
AcDbLine
 10
3335.173865737672
 20
1891.657117507038
 30
0.0
 11
3335.173865737672
 21
1717.448373107927
 31
0.0
  0
LINE
  5
8229
330
8224
100
AcDbEntity
  8
3
 62
     0
370
    -2
100
AcDbLine
 10
1915.573865737673
 20
1722.848373107928
 30
0.0
 11
2610.973865737673
 21
1722.848373107928
 31
0.0
  0
LINE
  5
822A
330
8224
100
AcDbEntity
  8
3
 62
     0
370
    -2
100
AcDbLine
 10
3329.773865737672
 20
1722.848373107928
 30
0.0
 11
2634.373865737673
 21
1722.848373107928
 31
0.0
  0
SOLID
  5
822B
330
8224
100
AcDbEntity
  8
3
 62
     0
100
AcDbTrace
 10
1915.573865737673
 20
1723.748373107928
 30
0.0
 11
1915.573865737673
 21
1721.948373107928
 31
0.0
 12
1910.173865737673
 22
1722.848373107928
 32
0.0
 13
1910.173865737673
 23
1722.848373107928
 33
0.0
  0
SOLID
  5
822C
330
8224
100
AcDbEntity
  8
3
 62
     0
100
AcDbTrace
 10
3329.773865737672
 20
1723.748373107928
 30
0.0
 11
3329.773865737672
 21
1721.948373107928
 31
0.0
 12
3335.173865737672
 22
1722.848373107928
 32
0.0
 13
3335.173865737672
 23
1722.848373107928
 33
0.0
  0
MTEXT
  5
822D
330
8224
100
AcDbEntity
  8
3
 62
     0
100
AcDbMText
 10
2622.673865737673
 20
1722.848373107928
 30
0.0
 40
5.399999999999999
 41
0.0
 71
     5
 72
     1
  1
\A1;1425
 73
     1
 44
1.0
1001
ACAD
1000
MTEXTBEGIN
1070
    73
1070
     1
1070
    44
1040
1.0
1070
    74
1070
     0
1000
MTEXTEND
  0
POINT
  5
822E
330
8224
100
AcDbEntity
  8
DEFPOINTS
 62
     0
100
AcDbPoint
 10
1910.173865737673
 20
1921.657117507038
 30
0.0
  0
POINT
  5
822F
330
8224
100
AcDbEntity
  8
DEFPOINTS
 62
     0
100
AcDbPoint
 10
3335.173865737672
 20
1921.657117507038
 30
0.0
  0
POINT
  5
8230
330
8224
100
AcDbEntity
  8
DEFPOINTS
 62
     0
100
AcDbPoint
 10
3335.173865737672
 20
1722.848373107928
 30
0.0
  0
ENDBLK
  5
8226
330
8224
100
AcDbEntity
  8
0
100
AcDbBlockEnd
  0
BLOCK
  5
8232
330
8231
100
AcDbEntity
  8
0
100
AcDbBlockBegin
  2
*D33
 70
     1
 10
0.0
 20
0.0
 30
0.0
  3
*D33
  1

  0
LINE
  5
8234
330
8231
100
AcDbEntity
  8
3
 62
     0
370
    -2
100
AcDbLine
 10
3992.520643908476
 20
1891.657117507037
 30
0.0
 11
3992.520643908476
 21
1717.448373107927
 31
0.0
  0
LINE
  5
8235
330
8231
100
AcDbEntity
  8
3
 62
     0
370
    -2
100
AcDbLine
 10
4819.520643908475
 20
1891.657117507037
 30
0.0
 11
4819.520643908475
 21
1717.448373107927
 31
0.0
  0
LINE
  5
8236
330
8231
100
AcDbEntity
  8
3
 62
     0
370
    -2
100
AcDbLine
 10
3997.920643908476
 20
1722.848373107928
 30
0.0
 11
4396.377786765619
 21
1722.848373107928
 31
0.0
  0
LINE
  5
8237
330
8231
100
AcDbEntity
  8
3
 62
     0
370
    -2
100
AcDbLine
 10
4814.120643908475
 20
1722.848373107928
 30
0.0
 11
4415.663501051333
 21
1722.848373107928
 31
0.0
  0
SOLID
  5
8238
330
8231
100
AcDbEntity
  8
3
 62
     0
100
AcDbTrace
 10
3997.920643908476
 20
1723.748373107928
 30
0.0
 11
3997.920643908476
 21
1721.948373107928
 31
0.0
 12
3992.520643908476
 22
1722.848373107928
 32
0.0
 13
3992.520643908476
 23
1722.848373107928
 33
0.0
  0
SOLID
  5
8239
330
8231
100
AcDbEntity
  8
3
 62
     0
100
AcDbTrace
 10
4814.120643908475
 20
1723.748373107928
 30
0.0
 11
4814.120643908475
 21
1721.948373107928
 31
0.0
 12
4819.520643908475
 22
1722.848373107928
 32
0.0
 13
4819.520643908475
 23
1722.848373107928
 33
0.0
  0
MTEXT
  5
823A
330
8231
100
AcDbEntity
  8
3
 62
     0
100
AcDbMText
 10
4406.020643908475
 20
1722.848373107928
 30
0.0
 40
5.399999999999999
 41
0.0
 71
     5
 72
     1
  1
\A1;827
 73
     1
 44
1.0
1001
ACAD
1000
MTEXTBEGIN
1070
    73
1070
     1
1070
    44
1040
1.0
1070
    74
1070
     0
1000
MTEXTEND
  0
POINT
  5
823B
330
8231
100
AcDbEntity
  8
DEFPOINTS
 62
     0
100
AcDbPoint
 10
3992.520643908476
 20
1921.657117507036
 30
0.0
  0
POINT
  5
823C
330
8231
100
AcDbEntity
  8
DEFPOINTS
 62
     0
100
AcDbPoint
 10
4819.520643908475
 20
1921.657117507036
 30
0.0
  0
POINT
  5
823D
330
8231
100
AcDbEntity
  8
DEFPOINTS
 62
     0
100
AcDbPoint
 10
4819.520643908475
 20
1722.848373107928
 30
0.0
  0
ENDBLK
  5
8233
330
8231
100
AcDbEntity
  8
0
100
AcDbBlockEnd
  0
BLOCK
  5
823F
330
823E
100
AcDbEntity
  8
0
100
AcDbBlockBegin
  2
*D34
 70
     1
 10
0.0
 20
0.0
 30
0.0
  3
*D34
  1

  0
LINE
  5
8241
330
823E
100
AcDbEntity
  8
3
 62
     0
370
    -2
100
AcDbLine
 10
4819.520643908475
 20
1891.657117507037
 30
0.0
 11
4819.520643908475
 21
1717.448373107927
 31
0.0
  0
LINE
  5
8242
330
823E
100
AcDbEntity
  8
3
 62
     0
370
    -2
100
AcDbLine
 10
5497.520643908476
 20
1891.657117507037
 30
0.0
 11
5497.520643908476
 21
1717.448373107927
 31
0.0
  0
LINE
  5
8243
330
823E
100
AcDbEntity
  8
3
 62
     0
370
    -2
100
AcDbLine
 10
4824.920643908474
 20
1722.848373107928
 30
0.0
 11
5148.877786765619
 21
1722.848373107928
 31
0.0
  0
LINE
  5
8244
330
823E
100
AcDbEntity
  8
3
 62
     0
370
    -2
100
AcDbLine
 10
5492.120643908476
 20
1722.848373107928
 30
0.0
 11
5168.163501051333
 21
1722.848373107928
 31
0.0
  0
SOLID
  5
8245
330
823E
100
AcDbEntity
  8
3
 62
     0
100
AcDbTrace
 10
4824.920643908474
 20
1723.748373107928
 30
0.0
 11
4824.920643908474
 21
1721.948373107928
 31
0.0
 12
4819.520643908475
 22
1722.848373107928
 32
0.0
 13
4819.520643908475
 23
1722.848373107928
 33
0.0
  0
SOLID
  5
8246
330
823E
100
AcDbEntity
  8
3
 62
     0
100
AcDbTrace
 10
5492.120643908476
 20
1723.748373107928
 30
0.0
 11
5492.120643908476
 21
1721.948373107928
 31
0.0
 12
5497.520643908476
 22
1722.848373107928
 32
0.0
 13
5497.520643908476
 23
1722.848373107928
 33
0.0
  0
MTEXT
  5
8247
330
823E
100
AcDbEntity
  8
3
 62
     0
100
AcDbMText
 10
5158.520643908476
 20
1722.848373107928
 30
0.0
 40
5.399999999999999
 41
0.0
 71
     5
 72
     1
  1
\A1;678
 73
     1
 44
1.0
1001
ACAD
1000
MTEXTBEGIN
1070
    73
1070
     1
1070
    44
1040
1.0
1070
    74
1070
     0
1000
MTEXTEND
  0
POINT
  5
8248
330
823E
100
AcDbEntity
  8
DEFPOINTS
 62
     0
100
AcDbPoint
 10
4819.520643908475
 20
1921.657117507036
 30
0.0
  0
POINT
  5
8249
330
823E
100
AcDbEntity
  8
DEFPOINTS
 62
     0
100
AcDbPoint
 10
5497.520643908476
 20
1921.657117507036
 30
0.0
  0
POINT
  5
824A
330
823E
100
AcDbEntity
  8
DEFPOINTS
 62
     0
100
AcDbPoint
 10
5497.520643908476
 20
1722.848373107928
 30
0.0
  0
ENDBLK
  5
8240
330
823E
100
AcDbEntity
  8
0
100
AcDbBlockEnd
  0
BLOCK
  5
824C
330
824B
100
AcDbEntity
  8
0
100
AcDbBlockBegin
  2
*D35
 70
     1
 10
0.0
 20
0.0
 30
0.0
  3
*D35
  1

  0
LINE
  5
824E
330
824B
100
AcDbEntity
  8
3
 62
     0
370
    -2
100
AcDbLine
 10
830.071053125215
 20
2027.057117507038
 30
0.0
 11
830.071053125215
 21
2067.342831792753
 31
0.0
  0
LINE
  5
824F
330
824B
100
AcDbEntity
  8
3
 62
     0
370
    -2
100
AcDbLine
 10
830.071053125215
 20
2121.257117507038
 30
0.0
 11
830.071053125215
 21
2080.971403221324
 31
0.0
  0
SOLID
  5
8250
330
824B
100
AcDbEntity
  8
3
 62
     0
100
AcDbTrace
 10
829.1710531252149
 20
2027.057117507038
 30
0.0
 11
830.971053125215
 21
2027.057117507038
 31
0.0
 12
830.071053125215
 22
2021.657117507038
 32
0.0
 13
830.071053125215
 23
2021.657117507038
 33
0.0
  0
SOLID
  5
8251
330
824B
100
AcDbEntity
  8
3
 62
     0
100
AcDbTrace
 10
829.1710531252149
 20
2121.257117507038
 30
0.0
 11
830.971053125215
 21
2121.257117507038
 31
0.0
 12
830.071053125215
 22
2126.657117507039
 32
0.0
 13
830.071053125215
 23
2126.657117507039
 33
0.0
  0
MTEXT
  5
8252
330
824B
100
AcDbEntity
  8
3
 62
     0
100
AcDbMText
 10
830.0710531252146
 20
2074.157117507039
 30
0.0
 40
5.399999999999999
 41
0.0
 71
     5
 72
     1
  1
\A1;(105)
 73
     1
 44
1.0
1001
ACAD
1000
MTEXTBEGIN
1070
    73
1070
     1
1070
    44
1040
1.0
1070
    74
1070
     0
1000
MTEXTEND
  0
POINT
  5
8253
330
824B
100
AcDbEntity
  8
DEFPOINTS
 62
     0
100
AcDbPoint
 10
1285.173865737671
 20
2021.657117507038
 30
0.0
  0
POINT
  5
8254
330
824B
100
AcDbEntity
  8
DEFPOINTS
 62
     0
100
AcDbPoint
 10
1285.173865737671
 20
2126.657117507038
 30
0.0
  0
POINT
  5
8255
330
824B
100
AcDbEntity
  8
DEFPOINTS
 62
     0
100
AcDbPoint
 10
830.071053125215
 20
2126.657117507039
 30
0.0
  0
ENDBLK
  5
824D
330
824B
100
AcDbEntity
  8
0
100
AcDbBlockEnd
  0
BLOCK
  5
8257
330
8256
100
AcDbEntity
  8
0
100
AcDbBlockBegin
  2
*D36
 70
     1
 10
0.0
 20
0.0
 30
0.0
  3
*D36
  1

  0
LINE
  5
8259
330
8256
100
AcDbEntity
  8
3
 62
     0
370
    -2
100
AcDbLine
 10
1255.17386573767
 20
1921.657117507038
 30
0.0
 11
568.4545683564875
 21
1921.657117507038
 31
0.0
  0
LINE
  5
825A
330
8256
100
AcDbEntity
  8
3
 62
     0
370
    -2
100
AcDbLine
 10
1200.173865737671
 20
3950.657117507036
 30
0.0
 11
568.454568356488
 21
3950.657117507037
 31
0.0
  0
LINE
  5
825B
330
8256
100
AcDbEntity
  8
3
 62
     0
370
    -2
100
AcDbLine
 10
573.8545683564876
 20
1927.057117507038
 30
0.0
 11
573.8545683564877
 21
2929.342831792752
 31
0.0
  0
LINE
  5
825C
330
8256
100
AcDbEntity
  8
3
 62
     0
370
    -2
100
AcDbLine
 10
573.854568356488
 20
3945.257117507037
 30
0.0
 11
573.8545683564877
 21
2942.971403221323
 31
0.0
  0
SOLID
  5
825D
330
8256
100
AcDbEntity
  8
3
 62
     0
100
AcDbTrace
 10
572.9545683564875
 20
1927.057117507038
 30
0.0
 11
574.7545683564875
 21
1927.057117507038
 31
0.0
 12
573.8545683564876
 22
1921.657117507038
 32
0.0
 13
573.8545683564876
 23
1921.657117507038
 33
0.0
  0
SOLID
  5
825E
330
8256
100
AcDbEntity
  8
3
 62
     0
100
AcDbTrace
 10
572.954568356488
 20
3945.257117507037
 30
0.0
 11
574.7545683564879
 21
3945.257117507037
 31
0.0
 12
573.854568356488
 22
3950.657117507037
 32
0.0
 13
573.854568356488
 23
3950.657117507037
 33
0.0
  0
MTEXT
  5
825F
330
8256
100
AcDbEntity
  8
3
 62
     0
100
AcDbMText
 10
573.8545683564873
 20
2936.157117507038
 30
0.0
 40
5.399999999999999
 41
0.0
 71
     5
 72
     1
  1
\A1;(2029)
 73
     1
 44
1.0
1001
ACAD
1000
MTEXTBEGIN
1070
    73
1070
     1
1070
    44
1040
1.0
1070
    74
1070
     0
1000
MTEXTEND
  0
POINT
  5
8260
330
8256
100
AcDbEntity
  8
DEFPOINTS
 62
     0
100
AcDbPoint
 10
1285.173865737671
 20
1921.657117507038
 30
0.0
  0
POINT
  5
8261
330
8256
100
AcDbEntity
  8
DEFPOINTS
 62
     0
100
AcDbPoint
 10
1230.17386573767
 20
3950.657117507036
 30
0.0
  0
POINT
  5
8262
330
8256
100
AcDbEntity
  8
DEFPOINTS
 62
     0
100
AcDbPoint
 10
573.854568356488
 20
3950.657117507037
 30
0.0
  0
ENDBLK
  5
8258
330
8256
100
AcDbEntity
  8
0
100
AcDbBlockEnd
  0
BLOCK
  5
8264
330
8263
100
AcDbEntity
  8
0
100
AcDbBlockBegin
  2
*D37
 70
     1
 10
0.0
 20
0.0
 30
0.0
  3
*D37
  1

  0
LINE
  5
8266
330
8263
100
AcDbEntity
  8
3
 62
     0
370
    -2
100
AcDbLine
 10
1283.29886573767
 20
2021.657117507038
 30
0.0
 11
822.8117232843755
 21
2021.657117507038
 31
0.0
  0
LINE
  5
8267
330
8263
100
AcDbEntity
  8
3
 62
     0
370
    -2
100
AcDbLine
 10
1283.29886573767
 20
1921.657117507038
 30
0.0
 11
822.8117232843755
 21
1921.657117507038
 31
0.0
  0
LINE
  5
8268
330
8263
100
AcDbEntity
  8
3
 62
     0
370
    -2
100
AcDbLine
 10
828.2117232843756
 20
2016.257117507038
 30
0.0
 11
828.2117232843756
 21
1977.057117507038
 31
0.0
  0
LINE
  5
8269
330
8263
100
AcDbEntity
  8
3
 62
     0
370
    -2
100
AcDbLine
 10
828.2117232843756
 20
1927.057117507038
 30
0.0
 11
828.2117232843756
 21
1966.257117507038
 31
0.0
  0
SOLID
  5
826A
330
8263
100
AcDbEntity
  8
3
 62
     0
100
AcDbTrace
 10
827.3117232843755
 20
2016.257117507038
 30
0.0
 11
829.1117232843756
 21
2016.257117507038
 31
0.0
 12
828.2117232843756
 22
2021.657117507038
 32
0.0
 13
828.2117232843756
 23
2021.657117507038
 33
0.0
  0
SOLID
  5
826B
330
8263
100
AcDbEntity
  8
3
 62
     0
100
AcDbTrace
 10
827.3117232843755
 20
1927.057117507038
 30
0.0
 11
829.1117232843756
 21
1927.057117507038
 31
0.0
 12
828.2117232843756
 22
1921.657117507038
 32
0.0
 13
828.2117232843756
 23
1921.657117507038
 33
0.0
  0
MTEXT
  5
826C
330
8263
100
AcDbEntity
  8
3
 62
     0
100
AcDbMText
 10
828.2117232843752
 20
1971.657117507038
 30
0.0
 40
5.399999999999999
 41
0.0
 71
     5
 72
     1
  1
\A1;100
 73
     1
 44
1.0
1001
ACAD
1000
MTEXTBEGIN
1070
    73
1070
     1
1070
    44
1040
1.0
1070
    74
1070
     0
1000
MTEXTEND
  0
POINT
  5
826D
330
8263
100
AcDbEntity
  8
DEFPOINTS
 62
     0
100
AcDbPoint
 10
1285.173865737671
 20
2021.657117507038
 30
0.0
  0
POINT
  5
826E
330
8263
100
AcDbEntity
  8
DEFPOINTS
 62
     0
100
AcDbPoint
 10
1285.173865737671
 20
1921.657117507038
 30
0.0
  0
POINT
  5
826F
330
8263
100
AcDbEntity
  8
DEFPOINTS
 62
     0
100
AcDbPoint
 10
828.2117232843756
 20
1921.657117507038
 30
0.0
  0
ENDBLK
  5
8265
330
8263
100
AcDbEntity
  8
0
100
AcDbBlockEnd
  0
BLOCK
  5
8271
330
8270
100
AcDbEntity
  8
0
100
AcDbBlockBegin
  2
*D38
 70
     1
 10
0.0
 20
0.0
 30
0.0
  3
*D38
  1

  0
LINE
  5
8273
330
8270
100
AcDbEntity
  8
3
 62
     0
370
    -2
100
AcDbLine
 10
3335.173865737672
 20
5022.762371266841
 30
0.0
 11
3335.173865737672
 21
4610.687247440264
 31
0.0
  0
LINE
  5
8274
330
8270
100
AcDbEntity
  8
3
 62
     0
370
    -2
100
AcDbLine
 10
1285.173865737671
 20
5022.762371266839
 30
0.0
 11
1285.173865737671
 21
4610.687247440264
 31
0.0
  0
LINE
  5
8275
330
8270
100
AcDbEntity
  8
3
 62
     0
370
    -2
100
AcDbLine
 10
3329.773865737672
 20
4616.087247440264
 30
0.0
 11
2333.959580023387
 21
4616.087247440264
 31
0.0
  0
LINE
  5
8276
330
8270
100
AcDbEntity
  8
3
 62
     0
370
    -2
100
AcDbLine
 10
1290.573865737671
 20
4616.087247440264
 30
0.0
 11
2286.388151451958
 21
4616.087247440264
 31
0.0
  0
SOLID
  5
8277
330
8270
100
AcDbEntity
  8
3
 62
     0
100
AcDbTrace
 10
3329.773865737672
 20
4616.987247440263
 30
0.0
 11
3329.773865737672
 21
4615.187247440264
 31
0.0
 12
3335.173865737672
 22
4616.087247440264
 32
0.0
 13
3335.173865737672
 23
4616.087247440264
 33
0.0
  0
SOLID
  5
8278
330
8270
100
AcDbEntity
  8
3
 62
     0
100
AcDbTrace
 10
1290.573865737671
 20
4616.987247440263
 30
0.0
 11
1290.573865737671
 21
4615.187247440264
 31
0.0
 12
1285.173865737671
 22
4616.087247440264
 32
0.0
 13
1285.173865737671
 23
4616.087247440264
 33
0.0
  0
MTEXT
  5
8279
330
8270
100
AcDbEntity
  8
3
 62
     0
100
AcDbMText
 10
2310.173865737672
 20
4616.087247440264
 30
0.0
 40
5.399999999999999
 41
0.0
 71
     5
 72
     1
  1
\A1;2050.0000
 73
     1
 44
1.0
1001
ACAD
1000
MTEXTBEGIN
1070
    73
1070
     1
1070
    44
1040
1.0
1070
    74
1070
     0
1000
MTEXTEND
  0
POINT
  5
827A
330
8270
100
AcDbEntity
  8
DEFPOINTS
 62
     0
100
AcDbPoint
 10
3335.173865737672
 20
5024.637371266841
 30
0.0
  0
POINT
  5
827B
330
8270
100
AcDbEntity
  8
DEFPOINTS
 62
     0
100
AcDbPoint
 10
1285.173865737671
 20
5024.637371266839
 30
0.0
  0
POINT
  5
827C
330
8270
100
AcDbEntity
  8
DEFPOINTS
 62
     0
100
AcDbPoint
 10
1285.173865737671
 20
4616.087247440264
 30
0.0
  0
ENDBLK
  5
8272
330
8270
100
AcDbEntity
  8
0
100
AcDbBlockEnd
  0
BLOCK
  5
82A6
330
82A5
100
AcDbEntity
  8
0
100
AcDbBlockBegin
  2
*D39
 70
     1
 10
0.0
 20
0.0
 30
0.0
  3
*D39
  1

  0
LINE
  5
82A8
330
82A5
100
AcDbEntity
  8
3
 62
     0
370
    -2
100
AcDbLine
 10
3992.520643908476
 20
1891.657117507037
 30
0.0
 11
3992.520643908476
 21
1691.948373107928
 31
0.0
  0
LINE
  5
82A9
330
82A5
100
AcDbEntity
  8
3
 62
     0
370
    -2
100
AcDbLine
 10
4819.520643908475
 20
1891.657117507037
 30
0.0
 11
4819.520643908475
 21
1691.948373107928
 31
0.0
  0
LINE
  5
82AA
330
82A5
100
AcDbEntity
  8
3
 62
     0
370
    -2
100
AcDbLine
 10
4052.520643908476
 20
1721.948373107928
 30
0.0
 11
4759.520643908475
 21
1721.948373107928
 31
0.0
  0
INSERT
  5
82AB
330
82A5
100
AcDbEntity
  8
3
 62
     0
370
    -2
100
AcDbBlockReference
  2
_OPEN
 10
3992.520643908476
 20
1721.948373107928
 30
0.0
 41
60.0
 42
60.0
 43
60.0
 50
180.0
  0
INSERT
  5
82AC
330
82A5
100
AcDbEntity
  8
3
 62
     0
370
    -2
100
AcDbBlockReference
  2
_OPEN
 10
4819.520643908475
 20
1721.948373107928
 30
0.0
 41
60.0
 42
60.0
 43
60.0
  0
MTEXT
  5
82AD
330
82A5
100
AcDbEntity
  8
3
 62
     0
100
AcDbMText
 10
4406.020643908475
 20
1796.948373107928
 30
0.0
 40
90.0
 41
0.0
 71
     5
 72
     1
  1
\A1;827
 73
     1
 44
1.0
1001
ACAD
1000
MTEXTBEGIN
1070
    73
1070
     1
1070
    44
1040
1.0
1070
    74
1070
     0
1000
MTEXTEND
  0
POINT
  5
82AE
330
82A5
100
AcDbEntity
  8
DEFPOINTS
 62
     0
100
AcDbPoint
 10
3992.520643908476
 20
1921.657117507036
 30
0.0
  0
POINT
  5
82AF
330
82A5
100
AcDbEntity
  8
DEFPOINTS
 62
     0
100
AcDbPoint
 10
4819.520643908475
 20
1921.657117507036
 30
0.0
  0
POINT
  5
82B0
330
82A5
100
AcDbEntity
  8
DEFPOINTS
 62
     0
100
AcDbPoint
 10
4819.520643908475
 20
1721.948373107928
 30
0.0
  0
ENDBLK
  5
82A7
330
82A5
100
AcDbEntity
  8
0
100
AcDbBlockEnd
  0
BLOCK
  5
82B3
330
82B2
100
AcDbEntity
  8
0
100
AcDbBlockBegin
  2
*D40
 70
     1
 10
0.0
 20
0.0
 30
0.0
  3
*D40
  1

  0
LINE
  5
82B5
330
82B2
100
AcDbEntity
  8
3
 62
     0
370
    -2
100
AcDbLine
 10
4819.520643908475
 20
1891.657117507037
 30
0.0
 11
4819.520643908475
 21
1691.948373107928
 31
0.0
  0
LINE
  5
82B6
330
82B2
100
AcDbEntity
  8
3
 62
     0
370
    -2
100
AcDbLine
 10
5497.520643908476
 20
1891.657117507037
 30
0.0
 11
5497.520643908476
 21
1691.948373107928
 31
0.0
  0
LINE
  5
82B7
330
82B2
100
AcDbEntity
  8
3
 62
     0
370
    -2
100
AcDbLine
 10
4879.520643908475
 20
1721.948373107928
 30
0.0
 11
5437.520643908476
 21
1721.948373107928
 31
0.0
  0
INSERT
  5
82B8
330
82B2
100
AcDbEntity
  8
3
 62
     0
370
    -2
100
AcDbBlockReference
  2
_OPEN
 10
4819.520643908475
 20
1721.948373107928
 30
0.0
 41
60.0
 42
60.0
 43
60.0
 50
180.0
  0
INSERT
  5
82B9
330
82B2
100
AcDbEntity
  8
3
 62
     0
370
    -2
100
AcDbBlockReference
  2
_OPEN
 10
5497.520643908476
 20
1721.948373107928
 30
0.0
 41
60.0
 42
60.0
 43
60.0
  0
MTEXT
  5
82BA
330
82B2
100
AcDbEntity
  8
3
 62
     0
100
AcDbMText
 10
5158.520643908476
 20
1796.948373107928
 30
0.0
 40
90.0
 41
0.0
 71
     5
 72
     1
  1
\A1;678
 73
     1
 44
1.0
1001
ACAD
1000
MTEXTBEGIN
1070
    73
1070
     1
1070
    44
1040
1.0
1070
    74
1070
     0
1000
MTEXTEND
  0
POINT
  5
82BB
330
82B2
100
AcDbEntity
  8
DEFPOINTS
 62
     0
100
AcDbPoint
 10
4819.520643908475
 20
1921.657117507036
 30
0.0
  0
POINT
  5
82BC
330
82B2
100
AcDbEntity
  8
DEFPOINTS
 62
     0
100
AcDbPoint
 10
5497.520643908476
 20
1921.657117507036
 30
0.0
  0
POINT
  5
82BD
330
82B2
100
AcDbEntity
  8
DEFPOINTS
 62
     0
100
AcDbPoint
 10
5497.520643908476
 20
1721.948373107928
 30
0.0
  0
ENDBLK
  5
82B4
330
82B2
100
AcDbEntity
  8
0
100
AcDbBlockEnd
  0
BLOCK
  5
82C0
330
82BF
100
AcDbEntity
  8
0
100
AcDbBlockBegin
  2
*D41
 70
     1
 10
0.0
 20
0.0
 30
0.0
  3
*D41
  1

  0
LINE
  5
82C2
330
82BF
100
AcDbEntity
  8
3
 62
     0
370
    -2
100
AcDbLine
 10
1285.173865737671
 20
1891.657117507038
 30
0.0
 11
1285.173865737671
 21
1693.748373107928
 31
0.0
  0
LINE
  5
82C3
330
82BF
100
AcDbEntity
  8
3
 62
     0
370
    -2
100
AcDbLine
 10
1910.173865737673
 20
1891.657117507038
 30
0.0
 11
1910.173865737673
 21
1693.748373107928
 31
0.0
  0
LINE
  5
82C4
330
82BF
100
AcDbEntity
  8
3
 62
     0
370
    -2
100
AcDbLine
 10
1345.173865737671
 20
1723.748373107928
 30
0.0
 11
1850.173865737673
 21
1723.748373107928
 31
0.0
  0
INSERT
  5
82C5
330
82BF
100
AcDbEntity
  8
3
 62
     0
370
    -2
100
AcDbBlockReference
  2
_OPEN
 10
1285.173865737671
 20
1723.748373107928
 30
0.0
 41
60.0
 42
60.0
 43
60.0
 50
180.0
  0
INSERT
  5
82C6
330
82BF
100
AcDbEntity
  8
3
 62
     0
370
    -2
100
AcDbBlockReference
  2
_OPEN
 10
1910.173865737673
 20
1723.748373107928
 30
0.0
 41
60.0
 42
60.0
 43
60.0
  0
MTEXT
  5
82C7
330
82BF
100
AcDbEntity
  8
3
 62
     0
100
AcDbMText
 10
1597.673865737672
 20
1798.748373107928
 30
0.0
 40
90.0
 41
0.0
 71
     5
 72
     1
  1
\A1;625
 73
     1
 44
1.0
1001
ACAD
1000
MTEXTBEGIN
1070
    73
1070
     1
1070
    44
1040
1.0
1070
    74
1070
     0
1000
MTEXTEND
  0
POINT
  5
82C8
330
82BF
100
AcDbEntity
  8
DEFPOINTS
 62
     0
100
AcDbPoint
 10
1285.173865737671
 20
1921.657117507038
 30
0.0
  0
POINT
  5
82C9
330
82BF
100
AcDbEntity
  8
DEFPOINTS
 62
     0
100
AcDbPoint
 10
1910.173865737673
 20
1921.657117507038
 30
0.0
  0
POINT
  5
82CA
330
82BF
100
AcDbEntity
  8
DEFPOINTS
 62
     0
100
AcDbPoint
 10
1910.173865737673
 20
1723.748373107928
 30
0.0
  0
ENDBLK
  5
82C1
330
82BF
100
AcDbEntity
  8
0
100
AcDbBlockEnd
  0
BLOCK
  5
82CD
330
82CC
100
AcDbEntity
  8
0
100
AcDbBlockBegin
  2
*D42
 70
     1
 10
0.0
 20
0.0
 30
0.0
  3
*D42
  1

  0
LINE
  5
82CF
330
82CC
100
AcDbEntity
  8
3
 62
     0
370
    -2
100
AcDbLine
 10
1910.173865737673
 20
1891.657117507038
 30
0.0
 11
1910.173865737673
 21
1693.748373107928
 31
0.0
  0
LINE
  5
82D0
330
82CC
100
AcDbEntity
  8
3
 62
     0
370
    -2
100
AcDbLine
 10
3335.173865737672
 20
1891.657117507038
 30
0.0
 11
3335.173865737672
 21
1693.748373107928
 31
0.0
  0
LINE
  5
82D1
330
82CC
100
AcDbEntity
  8
3
 62
     0
370
    -2
100
AcDbLine
 10
1970.173865737672
 20
1723.748373107928
 30
0.0
 11
3275.173865737672
 21
1723.748373107928
 31
0.0
  0
INSERT
  5
82D2
330
82CC
100
AcDbEntity
  8
3
 62
     0
370
    -2
100
AcDbBlockReference
  2
_OPEN
 10
1910.173865737673
 20
1723.748373107928
 30
0.0
 41
60.0
 42
60.0
 43
60.0
 50
180.0
  0
INSERT
  5
82D3
330
82CC
100
AcDbEntity
  8
3
 62
     0
370
    -2
100
AcDbBlockReference
  2
_OPEN
 10
3335.173865737672
 20
1723.748373107928
 30
0.0
 41
60.0
 42
60.0
 43
60.0
  0
MTEXT
  5
82D4
330
82CC
100
AcDbEntity
  8
3
 62
     0
100
AcDbMText
 10
2622.673865737673
 20
1798.748373107928
 30
0.0
 40
90.0
 41
0.0
 71
     5
 72
     1
  1
\A1;1425
 73
     1
 44
1.0
1001
ACAD
1000
MTEXTBEGIN
1070
    73
1070
     1
1070
    44
1040
1.0
1070
    74
1070
     0
1000
MTEXTEND
  0
POINT
  5
82D5
330
82CC
100
AcDbEntity
  8
DEFPOINTS
 62
     0
100
AcDbPoint
 10
1910.173865737673
 20
1921.657117507038
 30
0.0
  0
POINT
  5
82D6
330
82CC
100
AcDbEntity
  8
DEFPOINTS
 62
     0
100
AcDbPoint
 10
3335.173865737672
 20
1921.657117507038
 30
0.0
  0
POINT
  5
82D7
330
82CC
100
AcDbEntity
  8
DEFPOINTS
 62
     0
100
AcDbPoint
 10
3335.173865737672
 20
1723.748373107928
 30
0.0
  0
ENDBLK
  5
82CE
330
82CC
100
AcDbEntity
  8
0
100
AcDbBlockEnd
  0
BLOCK
  5
82DA
330
82D9
100
AcDbEntity
  8
0
100
AcDbBlockBegin
  2
*D43
 70
     1
 10
0.0
 20
0.0
 30
0.0
  3
*D43
  1

  0
LINE
  5
8333
330
82D9
100
AcDbEntity
  8
3
 62
     0
370
    -2
100
AcDbLine
 10
1140.557883240044
 20
2876.657117507037
 30
0.0
 11
798.2117232843758
 21
2876.657117507037
 31
0.0
  0
LINE
  5
8334
330
82D9
100
AcDbEntity
  8
3
 62
     0
370
    -2
100
AcDbLine
 10
1255.17386573767
 20
2126.657117507038
 30
0.0
 11
798.2117232843756
 21
2126.657117507039
 31
0.0
  0
LINE
  5
8335
330
82D9
100
AcDbEntity
  8
3
 62
     0
370
    -2
100
AcDbLine
 10
828.2117232843758
 20
2816.657117507037
 30
0.0
 11
828.2117232843756
 21
2186.657117507039
 31
0.0
  0
INSERT
  5
8336
330
82D9
100
AcDbEntity
  8
3
 62
     0
370
    -2
100
AcDbBlockReference
  2
_OPEN
 10
828.2117232843758
 20
2876.657117507037
 30
0.0
 41
60.0
 42
60.0
 43
60.0
 50
90.0
  0
INSERT
  5
8337
330
82D9
100
AcDbEntity
  8
3
 62
     0
370
    -2
100
AcDbBlockReference
  2
_OPEN
 10
828.2117232843756
 20
2126.657117507039
 30
0.0
 41
60.0
 42
60.0
 43
60.0
 50
270.0
  0
MTEXT
  5
8338
330
82D9
100
AcDbEntity
  8
3
 62
     0
100
AcDbMText
 10
753.2117232843752
 20
2501.657117507038
 30
0.0
 40
90.0
 41
0.0
 71
     5
 72
     1
  1
\A1;750
 11
0.0000000000000001
 21
1.0
 31
0.0
 73
     1
 44
1.0
1001
ACAD
1000
MTEXTBEGIN
1070
    73
1070
     1
1070
    44
1040
1.0
1070
    74
1070
     0
1000
MTEXTEND
  0
POINT
  5
8339
330
82D9
100
AcDbEntity
  8
DEFPOINTS
 62
     0
100
AcDbPoint
 10
1170.557883240044
 20
2876.657117507037
 30
0.0
  0
POINT
  5
833A
330
82D9
100
AcDbEntity
  8
DEFPOINTS
 62
     0
100
AcDbPoint
 10
1285.17386573767
 20
2126.657117507038
 30
0.0
  0
POINT
  5
833B
330
82D9
100
AcDbEntity
  8
DEFPOINTS
 62
     0
100
AcDbPoint
 10
828.2117232843756
 20
2126.657117507039
 30
0.0
  0
ENDBLK
  5
82DB
330
82D9
100
AcDbEntity
  8
0
100
AcDbBlockEnd
  0
BLOCK
  5
82E7
330
82E6
100
AcDbEntity
  8
0
100
AcDbBlockBegin
  2
*D44
 70
     1
 10
0.0
 20
0.0
 30
0.0
  3
*D44
  1

  0
LINE
  5
83E4
330
82E6
100
AcDbEntity
  8
3
 62
     0
370
    -2
100
AcDbLine
 10
1255.17386573767
 20
2126.657117507038
 30
0.0
 11
798.2117232843757
 21
2126.657117507039
 31
0.0
  0
LINE
  5
83E5
330
82E6
100
AcDbEntity
  8
3
 62
     0
370
    -2
100
AcDbLine
 10
1255.17386573767
 20
2021.657117507038
 30
0.0
 11
798.2117232843757
 21
2021.657117507038
 31
0.0
  0
LINE
  5
83E6
330
82E6
100
AcDbEntity
  8
3
 62
     0
370
    -2
100
AcDbLine
 10
828.2117232843756
 20
2186.657117507039
 30
0.0
 11
828.2117232843756
 21
2246.657117507039
 31
0.0
  0
LINE
  5
83E7
330
82E6
100
AcDbEntity
  8
3
 62
     0
370
    -2
100
AcDbLine
 10
828.2117232843756
 20
2021.657117507038
 30
0.0
 11
828.2117232843756
 21
1961.657117507038
 31
0.0
  0
LINE
  5
83E8
330
82E6
100
AcDbEntity
  8
3
 62
     0
370
    -2
100
AcDbLine
 10
828.2117232843756
 20
2074.157117507039
 30
0.0
 11
684.6402947129471
 21
2117.228546078467
 31
0.0
  0
LINE
  5
83E9
330
82E6
100
AcDbEntity
  8
3
 62
     0
370
    -2
100
AcDbLine
 10
684.6402947129471
 20
2117.228546078467
 30
0.0
 11
684.6402947129472
 21
2507.228546078467
 31
0.0
  0
MTEXT
  5
83EA
330
82E6
100
AcDbEntity
  8
3
 62
     0
100
AcDbMText
 10
586.0688661415182
 20
2312.228546078467
 30
0.0
 40
90.0
 41
0.0
 71
     5
 72
     1
  1
\A1;(105)
 11
0.0000000000000001
 21
1.0
 31
0.0
 73
     1
 44
1.0
1001
ACAD
1000
MTEXTBEGIN
1070
    73
1070
     1
1070
    44
1040
1.0
1070
    74
1070
     0
1000
MTEXTEND
  0
LINE
  5
83EB
330
82E6
100
AcDbEntity
  8
3
 62
     0
370
    -2
100
AcDbLine
 10
828.2117232843756
 20
2126.657117507039
 30
0.0
 11
828.2117232843756
 21
2021.657117507038
 31
0.0
  0
LINE
  5
83EC
330
82E6
100
AcDbEntity
  8
3
 62
     0
370
    -2
100
AcDbLine
 10
828.2117232843756
 20
2126.657117507039
 30
0.0
 11
828.2117232843756
 21
2021.657117507038
 31
0.0
  0
INSERT
  5
83ED
330
82E6
100
AcDbEntity
  8
3
 62
     0
370
    -2
100
AcDbBlockReference
  2
_OPEN
 10
828.2117232843756
 20
2126.657117507039
 30
0.0
 41
60.0
 42
60.0
 43
60.0
 50
270.0
  0
INSERT
  5
83EE
330
82E6
100
AcDbEntity
  8
3
 62
     0
370
    -2
100
AcDbBlockReference
  2
_DotSmall
 10
828.2117232843756
 20
2021.657117507038
 30
0.0
 41
60.0
 42
60.0
 43
60.0
 50
90.0
  0
POINT
  5
83EF
330
82E6
100
AcDbEntity
  8
DEFPOINTS
 62
     0
100
AcDbPoint
 10
1285.17386573767
 20
2126.657117507038
 30
0.0
  0
POINT
  5
83F0
330
82E6
100
AcDbEntity
  8
DEFPOINTS
 62
     0
100
AcDbPoint
 10
1285.173865737671
 20
2021.657117507038
 30
0.0
  0
POINT
  5
83F1
330
82E6
100
AcDbEntity
  8
DEFPOINTS
 62
     0
100
AcDbPoint
 10
828.2117232843756
 20
2021.657117507038
 30
0.0
  0
ENDBLK
  5
82E8
330
82E6
100
AcDbEntity
  8
0
100
AcDbBlockEnd
  0
BLOCK
  5
82F9
330
82F8
100
AcDbEntity
  8
0
100
AcDbBlockBegin
  2
*D45
 70
     1
 10
0.0
 20
0.0
 30
0.0
  3
*D45
  1

  0
LINE
  5
8440
330
82F8
100
AcDbEntity
  8
3
 62
     0
370
    -2
100
AcDbLine
 10
1255.17386573767
 20
2021.657117507038
 30
0.0
 11
798.2117232843757
 21
2021.657117507038
 31
0.0
  0
LINE
  5
8441
330
82F8
100
AcDbEntity
  8
3
 62
     0
370
    -2
100
AcDbLine
 10
1255.17386573767
 20
1921.657117507038
 30
0.0
 11
798.2117232843757
 21
1921.657117507038
 31
0.0
  0
LINE
  5
8442
330
82F8
100
AcDbEntity
  8
3
 62
     0
370
    -2
100
AcDbLine
 10
828.2117232843756
 20
2021.657117507038
 30
0.0
 11
828.2117232843756
 21
2081.657117507039
 31
0.0
  0
LINE
  5
8443
330
82F8
100
AcDbEntity
  8
3
 62
     0
370
    -2
100
AcDbLine
 10
828.2117232843756
 20
1861.657117507038
 30
0.0
 11
828.2117232843756
 21
1801.657117507038
 31
0.0
  0
MTEXT
  5
8444
330
82F8
100
AcDbEntity
  8
3
 62
     0
100
AcDbMText
 10
756.5436292809463
 20
1782.412733573463
 30
0.0
 40
90.0
 41
0.0
 71
     5
 72
     1
  1
\A1;100
 11
0.0000000000000001
 21
1.0
 31
0.0
 73
     1
 44
1.0
1001
ACAD
1000
MTEXTBEGIN
1070
    73
1070
     1
1070
    44
1040
1.0
1070
    74
1070
     0
1000
MTEXTEND
  0
LINE
  5
8445
330
82F8
100
AcDbEntity
  8
3
 62
     0
370
    -2
100
AcDbLine
 10
828.2117232843756
 20
2021.657117507038
 30
0.0
 11
828.2117232843756
 21
1921.657117507038
 31
0.0
  0
INSERT
  5
8446
330
82F8
100
AcDbEntity
  8
3
 62
     0
370
    -2
100
AcDbBlockReference
  2
_DotSmall
 10
828.2117232843756
 20
2021.657117507038
 30
0.0
 41
60.0
 42
60.0
 43
60.0
 50
270.0
  0
INSERT
  5
8447
330
82F8
100
AcDbEntity
  8
3
 62
     0
370
    -2
100
AcDbBlockReference
  2
_OPEN
 10
828.2117232843756
 20
1921.657117507038
 30
0.0
 41
60.0
 42
60.0
 43
60.0
 50
90.0
  0
POINT
  5
8448
330
82F8
100
AcDbEntity
  8
DEFPOINTS
 62
     0
100
AcDbPoint
 10
1285.173865737671
 20
2021.657117507038
 30
0.0
  0
POINT
  5
8449
330
82F8
100
AcDbEntity
  8
DEFPOINTS
 62
     0
100
AcDbPoint
 10
1285.173865737671
 20
1921.657117507038
 30
0.0
  0
POINT
  5
844A
330
82F8
100
AcDbEntity
  8
DEFPOINTS
 62
     0
100
AcDbPoint
 10
828.2117232843756
 20
1921.657117507038
 30
0.0
  0
ENDBLK
  5
82FA
330
82F8
100
AcDbEntity
  8
0
100
AcDbBlockEnd
  0
BLOCK
  5
8362
330
8361
100
AcDbEntity
  8
0
100
AcDbBlockBegin
  2
*D46
 70
     1
 10
0.0
 20
0.0
 30
0.0
  3
*D46
  1

  0
LINE
  5
8376
330
8361
100
AcDbEntity
  8
3
 62
     0
370
    -2
100
AcDbLine
 10
1255.17386573767
 20
1921.657117507038
 30
0.0
 11
439.2298205190161
 21
1921.657117507038
 31
0.0
  0
LINE
  5
8377
330
8361
100
AcDbEntity
  8
3
 62
     0
370
    -2
100
AcDbLine
 10
1200.173865737671
 20
3950.657117507036
 30
0.0
 11
439.2298205190165
 21
3950.657117507037
 31
0.0
  0
LINE
  5
8378
330
8361
100
AcDbEntity
  8
3
 62
     0
370
    -2
100
AcDbLine
 10
469.2298205190161
 20
1981.657117507038
 30
0.0
 11
469.2298205190165
 21
3890.657117507037
 31
0.0
  0
INSERT
  5
8379
330
8361
100
AcDbEntity
  8
3
 62
     0
370
    -2
100
AcDbBlockReference
  2
_OPEN
 10
469.2298205190161
 20
1921.657117507038
 30
0.0
 41
60.0
 42
60.0
 43
60.0
 50
270.0
  0
INSERT
  5
837A
330
8361
100
AcDbEntity
  8
3
 62
     0
370
    -2
100
AcDbBlockReference
  2
_OPEN
 10
469.2298205190165
 20
3950.657117507037
 30
0.0
 41
60.0
 42
60.0
 43
60.0
 50
90.0
  0
MTEXT
  5
837B
330
8361
100
AcDbEntity
  8
3
 62
     0
100
AcDbMText
 10
370.6583919475873
 20
2936.157117507038
 30
0.0
 40
90.0
 41
0.0
 71
     5
 72
     1
  1
\A1;(2029)
 11
0.0000000000000001
 21
1.0
 31
0.0
 73
     1
 44
1.0
1001
ACAD
1000
MTEXTBEGIN
1070
    73
1070
     1
1070
    44
1040
1.0
1070
    74
1070
     0
1000
MTEXTEND
  0
POINT
  5
837C
330
8361
100
AcDbEntity
  8
DEFPOINTS
 62
     0
100
AcDbPoint
 10
1285.173865737671
 20
1921.657117507038
 30
0.0
  0
POINT
  5
837D
330
8361
100
AcDbEntity
  8
DEFPOINTS
 62
     0
100
AcDbPoint
 10
1230.17386573767
 20
3950.657117507036
 30
0.0
  0
POINT
  5
837E
330
8361
100
AcDbEntity
  8
DEFPOINTS
 62
     0
100
AcDbPoint
 10
469.2298205190165
 20
3950.657117507037
 30
0.0
  0
ENDBLK
  5
8363
330
8361
100
AcDbEntity
  8
0
100
AcDbBlockEnd
  0
BLOCK
  5
83E2
330
83E0
100
AcDbEntity
  8
0
100
AcDbBlockBegin
  2
_DotSmall
 70
     0
 10
0.0
 20
0.0
 30
0.0
  3
_DotSmall
  1

  0
LWPOLYLINE
  5
83E1
330
83E0
100
AcDbEntity
  8
0
  6
ByBlock
 62
     0
100
AcDbPolyline
 90
        2
 70
     1
 43
0.5
 10
-0.0625
 20
0.0
 42
1.0
 10
0.0625
 20
0.0
 42
1.0
  0
ENDBLK
  5
83E3
330
83E0
100
AcDbEntity
  8
0
100
AcDbBlockEnd
  0
ENDSEC
  0
SECTION
  2
ENTITIES
  0
INSERT
  5
7C2A
330
81B2
100
AcDbEntity
  8
0
100
AcDbBlockReference
  2
YA_N
 10
6.0
 20
5.0
 30
0.0
  0
ARC
  5
7C2C
330
81B2
100
AcDbEntity
  8
1
100
AcDbCircle
 10
1836.173865737672
 20
2950.657117507036
 30
0.0
 40
942.0
100
AcDbArc
 50
355.4944154733556
 51
85.49441547335558
  0
ARC
  5
7C2D
330
81B2
100
AcDbEntity
  8
1
100
AcDbCircle
 10
1984.173865737671
 20
2950.657117507036
 30
0.0
 40
794.0
100
AcDbArc
 50
294.2392914290734
 51
354.6523302501612
  0
ARC
  5
7C2E
330
81B2
100
AcDbEntity
  8
1
100
AcDbCircle
 10
1970.673865737671
 20
2816.157117507037
 30
0.0
 40
659.4999999999998
100
AcDbArc
 50
174.736504796933
 51
243.3622439488804
  0
LINE
  5
7C2F
330
81B2
100
AcDbEntity
  8
1
100
AcDbLine
 10
1312.792078268387
 20
2920.657117507036
 30
0.0
 11
1230.17386573767
 21
2920.657117507037
 31
0.0
  0
LINE
  5
7C30
330
81B2
100
AcDbEntity
  8
1
100
AcDbLine
 10
1230.17386573767
 20
4003.657117507037
 30
0.0
 11
1230.17386573767
 21
2867.657117507036
 31
0.0
  0
LINE
  5
7C31
330
81B2
100
AcDbEntity
  8
1
100
AcDbLine
 10
1230.17386573767
 20
3950.657117507036
 30
0.0
 11
1910.173865737671
 21
3889.74603768446
 31
0.0
  0
LINE
  5
7C32
330
81B2
100
AcDbEntity
  8
1
100
AcDbLine
 10
1234.173865737673
 20
4003.657117507037
 30
0.0
 11
1230.17386573767
 21
4003.657117507037
 31
0.0
  0
LINE
  5
7C33
330
81B2
100
AcDbEntity
  8
1
100
AcDbLine
 10
1234.17386573767
 20
2867.657117507036
 30
0.0
 11
1230.17386573767
 21
2867.657117507036
 31
0.0
  0
LINE
  5
7C34
330
81B2
100
AcDbEntity
  8
1
100
AcDbLine
 10
1280.173865737672
 20
3946.178361637729
 30
0.0
 11
1280.173865737672
 21
2920.657117507036
 31
0.0
  0
LINE
  5
7C35
330
81B2
100
AcDbEntity
  8
1
100
AcDbLine
 10
1234.173865737673
 20
4003.657117507037
 30
0.0
 11
1234.17386573767
 21
2867.657117507036
 31
0.0
  0
LINE
  5
7C36
330
81B2
100
AcDbEntity
  8
1
100
AcDbLine
 10
3335.173865737672
 20
2226.657117507036
 30
0.0
 11
1285.173865737671
 21
2226.657117507038
 31
0.0
  0
LINE
  5
7C37
330
81B2
100
AcDbEntity
  8
1
100
AcDbLine
 10
1285.173865737671
 20
2226.657117507038
 30
0.0
 11
1285.173865737671
 21
2126.657117507038
 31
0.0
  0
LINE
  5
7C38
330
81B2
100
AcDbEntity
  8
2
100
AcDbLine
 10
3734.520643908473
 20
2876.657117507037
 30
0.0
 11
5625.597275457778
 21
2876.657117507037
 31
0.0
  0
LINE
  5
7C39
330
81B2
100
AcDbEntity
  8
2
100
AcDbLine
 10
4819.520643908475
 20
4181.70598885571
 30
0.0
 11
4819.520643908475
 21
1921.657117507036
 31
0.0
  0
LINE
  5
7C3A
330
81B2
100
AcDbEntity
  8
1
100
AcDbLine
 10
3992.520643908475
 20
2126.657117507037
 30
0.0
 11
5497.520643908476
 21
2126.657117507037
 31
0.0
1001
ACAD
1000
ASC_BOUNDS
1002
{
1070
    19
1005
0
1005
0
1002
}
  0
LINE
  5
7C3B
330
81B2
100
AcDbEntity
  8
1
100
AcDbLine
 10
3992.520643908476
 20
2226.657117507037
 30
0.0
 11
5497.520643908477
 21
2226.657117507037
 31
0.0
  0
LINE
  5
7C3C
330
81B2
100
AcDbEntity
  8
1
100
AcDbLine
 10
5444.520643908477
 20
3950.657117507038
 30
0.0
 11
5444.520643908478
 21
2876.657117507037
 31
0.0
  0
LINE
  5
7C3D
330
81B2
100
AcDbEntity
  8
2
100
AcDbLine
 10
1910.173865737673
 20
4041.573009847478
 30
0.0
 11
1910.173865737673
 21
1921.657117507038
 31
0.0
  0
LINE
  5
7C3E
330
81B2
100
AcDbEntity
  8
2
100
AcDbLine
 10
1170.557883240044
 20
2876.657117507037
 30
0.0
 11
2842.68878179388
 21
2876.657117507037
 31
0.0
  0
LINE
  5
7C3F
330
81B2
100
AcDbEntity
  8
1
100
AcDbLine
 10
3335.173865737672
 20
2126.657117507038
 30
0.0
 11
1285.173865737671
 21
2126.657117507038
 31
0.0
1001
ACAD
1000
ASC_BOUNDS
1002
{
1070
    19
1005
0
1002
}
  0
INSERT
  5
7C40
330
81B2
100
AcDbEntity
  8
0
100
AcDbBlockReference
  2
YA_N
 10
-1637.209838160516
 20
-1405.432827243363
 30
0.0
 41
25.0
 42
25.0
 43
25.0
  0
ARC
  5
7C42
330
81B2
100
AcDbEntity
  8
1
100
AcDbCircle
 10
3060.173865737672
 20
2461.657117507038
 30
0.0
 40
185.0
100
AcDbArc
 50
287.9452509999999
 51
252.054749
  0
LINE
  5
7C43
330
81B2
100
AcDbEntity
  8
2
100
AcDbLine
 10
3060.173865737672
 20
2725.472791507038
 30
0.0
 11
3060.173865737673
 21
1921.657117507038
 31
0.0
  0
LINE
  5
7C44
330
81B2
100
AcDbEntity
  8
1
100
AcDbLine
 10
3003.173850737673
 20
2285.657117507037
 30
0.0
 11
3117.173865737673
 21
2285.657117507037
 31
0.0
  0
LINE
  5
7C45
330
81B2
100
AcDbEntity
  8
1
100
AcDbLine
 10
2898.173850737672
 20
2356.916150507037
 30
0.0
 11
2898.173850737672
 21
2281.657117507037
 31
0.0
  0
LINE
  5
7C49
330
81B2
100
AcDbEntity
  8
1
100
AcDbLine
 10
2957.673850737672
 20
2286.805676507037
 30
0.0
 11
2967.180564737672
 21
2301.728284507037
 31
0.0
  0
LINE
  5
7C4A
330
81B2
100
AcDbEntity
  8
1
100
AcDbLine
 10
2957.673850737672
 20
2298.657117507037
 30
0.0
 11
2957.673850737672
 21
2281.657117507037
 31
0.0
  0
LINE
  5
7C4C
330
81B2
100
AcDbEntity
  8
1
100
AcDbLine
 10
2901.173850737672
 20
2301.657117507037
 30
0.0
 11
2954.673850737672
 21
2301.657117507037
 31
0.0
  0
ARC
  5
7C4E
330
81B2
100
AcDbEntity
  8
1
100
AcDbCircle
 10
2901.173850737672
 20
2298.657117507037
 30
0.0
 40
3.0
100
AcDbArc
 50
90.0
 51
180.0
  0
LINE
  5
7C50
330
81B2
100
AcDbEntity
  8
1
100
AcDbLine
 10
2949.349936737672
 20
2301.657117507037
 30
0.0
 11
2954.529685737672
 21
2309.787717507037
 31
0.0
  0
ARC
  5
7C51
330
81B2
100
AcDbEntity
  8
1
100
AcDbCircle
 10
2954.673850737672
 20
2298.657117507037
 30
0.0
 40
3.0
100
AcDbArc
 50
0.0
 51
90.0
  0
LINE
  5
7C54
330
81B2
100
AcDbEntity
  8
1
100
AcDbLine
 10
2898.173850737672
 20
2356.916150507037
 30
0.0
 11
2904.557822737672
 21
2361.613904507037
 31
0.0
  0
LINE
  5
7C57
330
81B2
100
AcDbEntity
  8
1
100
AcDbLine
 10
3222.173865737673
 20
2356.916150507037
 30
0.0
 11
3222.173865737673
 21
2281.657117507037
 31
0.0
  0
LINE
  5
7C58
330
81B2
100
AcDbEntity
  8
1
100
AcDbLine
 10
3219.173865737673
 20
2301.657117507037
 30
0.0
 11
3165.673865737673
 21
2301.657117507037
 31
0.0
  0
LINE
  5
7C59
330
81B2
100
AcDbEntity
  8
1
100
AcDbLine
 10
3162.673865737672
 20
2286.805676507037
 30
0.0
 11
3153.167151737672
 21
2301.728284507037
 31
0.0
  0
LINE
  5
7C5C
330
81B2
100
AcDbEntity
  8
1
100
AcDbLine
 10
3162.673865737672
 20
2281.657117507037
 30
0.0
 11
3162.673865737672
 21
2298.657117507037
 31
0.0
  0
LINE
  5
7C5F
330
81B2
100
AcDbEntity
  8
1
100
AcDbLine
 10
3170.997779737672
 20
2301.657117507037
 30
0.0
 11
3165.818030737672
 21
2309.787717507037
 31
0.0
  0
ARC
  5
7C60
330
81B2
100
AcDbEntity
  8
1
100
AcDbCircle
 10
3165.673865737673
 20
2298.657117507037
 30
0.0
 40
3.0
100
AcDbArc
 50
90.0
 51
180.0
  0
ARC
  5
7C63
330
81B2
100
AcDbEntity
  8
1
100
AcDbCircle
 10
3219.173865737673
 20
2298.657117507037
 30
0.0
 40
3.0
100
AcDbArc
 50
0.0
 51
90.0
  0
LINE
  5
7C64
330
81B2
100
AcDbEntity
  8
1
100
AcDbLine
 10
3222.173865737673
 20
2356.916150507037
 30
0.0
 11
3215.789893737672
 21
2361.613904507037
 31
0.0
  0
LINE
  5
7C65
330
81B2
100
AcDbEntity
  8
2
100
AcDbLine
 10
3310.600279863216
 20
2461.657117507038
 30
0.0
 11
2844.094333091716
 21
2461.657117507038
 31
0.0
  0
LINE
  5
7C66
330
81B2
100
AcDbEntity
  8
1
100
AcDbLine
 10
3270.589878763438
 20
2281.657117507037
 30
0.0
 11
3130.173865737673
 21
2281.657117507037
 31
0.0
  0
LINE
  5
7C67
330
81B2
100
AcDbEntity
  8
1
100
AcDbLine
 10
2835.173865737673
 20
2226.657117507036
 30
0.0
 11
2849.958614524006
 21
2281.657117507037
 31
0.0
  0
LINE
  5
7C68
330
81B2
100
AcDbEntity
  8
1
100
AcDbLine
 10
3285.173865737673
 20
2226.657117507036
 30
0.0
 11
3270.589878763438
 21
2281.657117507037
 31
0.0
  0
LINE
  5
7C6A
330
81B2
100
AcDbEntity
  8
1
100
AcDbLine
 10
3130.173865737673
 20
2271.657117507036
 30
0.0
 11
2990.173865737673
 21
2271.657117507036
 31
0.0
  0
LINE
  5
7C6B
330
81B2
100
AcDbEntity
  8
1
100
AcDbLine
 10
3130.173865737673
 20
2281.657117507037
 30
0.0
 11
3130.173865737673
 21
2271.657117507036
 31
0.0
  0
LINE
  5
7C6C
330
81B2
100
AcDbEntity
  8
1
100
AcDbLine
 10
2990.173865737672
 20
2281.657117507037
 30
0.0
 11
2990.173865737672
 21
2271.657117507036
 31
0.0
  0
LINE
  5
7C6D
330
81B2
100
AcDbEntity
  8
1
100
AcDbLine
 10
2990.173865737673
 20
2281.657117507037
 30
0.0
 11
2849.958614524006
 21
2281.657117507037
 31
0.0
  0
CIRCLE
  5
7C70
330
81B2
100
AcDbEntity
  8
1
100
AcDbCircle
 10
1910.173865737673
 20
2876.657117507037
 30
0.0
 40
165.0999999999999
  0
CIRCLE
  5
7C71
330
81B2
100
AcDbEntity
  8
1
100
AcDbCircle
 10
3060.173865737672
 20
2461.657117507038
 30
0.0
 40
114.3
  0
LINE
  5
7C72
330
81B2
100
AcDbEntity
  8
1
100
AcDbLine
 10
3335.173865737672
 20
2021.657117507038
 30
0.0
 11
1285.173865737671
 21
2021.657117507038
 31
0.0
1001
ACAD
1000
ASC_BOUNDS
1002
{
1070
    19
1005
0
1002
}
  0
LINE
  5
7C73
330
81B2
100
AcDbEntity
  8
1
100
AcDbLine
 10
3335.173865737672
 20
1921.657117507038
 30
0.0
 11
1285.173865737671
 21
1921.657117507038
 31
0.0
  0
LINE
  5
7C74
330
81B2
100
AcDbEntity
  8
1
100
AcDbLine
 10
1285.173865737671
 20
2021.657117507038
 30
0.0
 11
1285.173865737671
 21
1921.657117507038
 31
0.0
  0
POINT
  5
7C75
330
81B2
100
AcDbEntity
  8
1
100
AcDbPoint
 10
1285.173865737671
 20
2021.657117507038
 30
0.0
  0
POINT
  5
7C76
330
81B2
100
AcDbEntity
  8
1
100
AcDbPoint
 10
1285.173865737671
 20
2021.657117507038
 30
0.0
  0
LINE
  5
7C77
330
81B2
100
AcDbEntity
  8
1
100
AcDbLine
 10
3992.520643908475
 20
2021.657117507037
 30
0.0
 11
5497.520643908476
 21
2021.657117507037
 31
0.0
1001
ACAD
1000
ASC_BOUNDS
1002
{
1070
    19
1005
0
1005
0
1002
}
  0
POINT
  5
7C78
330
81B2
100
AcDbEntity
  8
1
100
AcDbPoint
 10
1285.173865737671
 20
2021.657117507038
 30
0.0
  0
POINT
  5
7C79
330
81B2
100
AcDbEntity
  8
1
100
AcDbPoint
 10
1285.173865737671
 20
2021.657117507038
 30
0.0
  0
LINE
  5
7C7A
330
81B2
100
AcDbEntity
  8
1
100
AcDbLine
 10
4819.520643908475
 20
3950.657117507038
 30
0.0
 11
5444.520643908478
 21
3950.657117507038
 31
0.0
  0
INSERT
  5
7C7B
330
81B2
100
AcDbEntity
  8
0
100
AcDbBlockReference
  2
YA_N
 10
-1144.893563079054
 20
-989.0222135336152
 30
0.0
 41
25.0
 42
25.0
 43
25.0
  0
DIMENSION
  5
7C7D
330
81B2
100
AcDbEntity
  8
3
100
AcDbDimension
  2
*D4
 10
1029.013768743529
 20
2920.657117507037
 30
0.0
 11
969.013768743529
 21
3435.657117507036
 31
0.0
 12
886.3406570505793
 22
2248.596814671291
 32
0.0
 71
     5
 42
-1.0
  3
Standard
100
AcDbAlignedDimension
 13
1230.17386573767
 23
3950.657117507036
 33
0.0
 14
1230.17386573767
 24
2920.657117507037
 34
0.0
 50
90.0
100
AcDbRotatedDimension
1001
ACAD
1000
DSTYLE
1002
{
1070
    40
1040
30.0
1002
}
  0
DIMENSION
  5
7C7E
330
81B2
100
AcDbEntity
  8
3
100
AcDbDimension
  2
*D5
 10
828.2117232843756
 20
2876.657117507037
 30
0.0
 11
768.2117232843759
 21
3413.657117507037
 31
0.0
 12
886.3406570505793
 22
2248.596814671291
 32
0.0
 71
     5
 42
-1.0
  3
Standard
100
AcDbAlignedDimension
 13
1230.17386573767
 23
3950.657117507036
 33
0.0
 14
1170.557883240044
 24
2876.657117507037
 34
0.0
 50
90.0
100
AcDbRotatedDimension
1001
ACAD
1000
DSTYLE
1002
{
1070
    40
1040
30.0
1002
}
  0
POINT
  5
7C80
330
81B2
100
AcDbEntity
  8
1
100
AcDbPoint
 10
1285.173865737671
 20
2021.657117507038
 30
0.0
  0
POINT
  5
7C81
330
81B2
100
AcDbEntity
  8
1
100
AcDbPoint
 10
1285.173865737671
 20
2021.657117507038
 30
0.0
  0
DIMENSION
  5
7C82
330
81B2
100
AcDbEntity
  8
3
100
AcDbDimension
  2
*D7
 10
1910.173865737673
 20
4204.431790850012
 30
0.0
 11
1570.173865737672
 21
4264.431790850013
 31
0.0
 12
886.3406570505793
 22
2248.596814671291
 32
0.0
 71
     5
 42
-1.0
  3
Standard
100
AcDbAlignedDimension
 13
1230.17386573767
 23
4003.657117507037
 33
0.0
 14
1910.173865737673
 24
4041.573009847478
 34
0.0
100
AcDbRotatedDimension
1001
ACAD
1000
DSTYLE
1002
{
1070
    40
1040
30.0
1002
}
  0
DIMENSION
  5
7C83
330
81B2
100
AcDbEntity
  8
3
100
AcDbDimension
  2
*D8
 10
2774.717982153701
 20
4203.974090915097
 30
0.0
 11
2342.445923945687
 21
4263.974090915097
 31
0.0
 12
886.3406570505793
 22
2248.596814671291
 32
0.0
  1
868
 71
     5
 42
-1.0
  3
Standard
100
AcDbAlignedDimension
 13
1910.173865737673
 23
4041.573009847478
 33
0.0
 14
2774.717982153701
 24
2876.657117507035
 34
0.0
100
AcDbRotatedDimension
1001
ACAD
1000
DSTYLE
1002
{
1070
    40
1040
30.0
1002
}
  0
LINE
  5
7C84
330
81B2
100
AcDbEntity
  8
1
100
AcDbLine
 10
5444.520643908477
 20
2876.657117507037
 30
0.0
 11
5444.520643908477
 21
2226.657117507037
 31
0.0
  0
LINE
  5
7C85
330
81B2
100
AcDbEntity
  8
1
100
AcDbLine
 10
4194.520643908473
 20
3950.657117507038
 30
0.0
 11
4194.520643908473
 21
2876.657117507037
 31
0.0
  0
LINE
  5
7C86
330
81B2
100
AcDbEntity
  8
1
100
AcDbLine
 10
4819.520643908475
 20
3950.657117507038
 30
0.0
 11
4194.520643908474
 21
3950.657117507038
 31
0.0
  0
LINE
  5
7C87
330
81B2
100
AcDbEntity
  8
1
100
AcDbLine
 10
4194.520643908473
 20
2876.657117507037
 30
0.0
 11
4194.520643908473
 21
2644.157117507038
 31
0.0
  0
LINE
  5
7C88
330
81B2
100
AcDbEntity
  8
1
100
AcDbLine
 10
5599.520643908475
 20
2840.857117507038
 30
0.0
 11
5599.520643908476
 21
2710.857117507038
 31
0.0
  0
LINE
  5
7C89
330
81B2
100
AcDbEntity
  8
1
100
AcDbLine
 10
5462.520643908477
 20
2850.857117507038
 30
0.0
 11
5462.520643908476
 21
2700.857117507037
 31
0.0
  0
LINE
  5
7C8A
330
81B2
100
AcDbEntity
  8
1
100
AcDbLine
 10
5462.520643908476
 20
2850.857117507037
 30
0.0
 11
5511.820643908477
 21
2850.857117507038
 31
0.0
  0
LINE
  5
7C8B
330
81B2
100
AcDbEntity
  8
1
100
AcDbLine
 10
5462.520643908476
 20
2700.857117507037
 30
0.0
 11
5511.820643908477
 21
2700.857117507037
 31
0.0
  0
ARC
  5
7C8C
330
81B2
100
AcDbEntity
  8
1
100
AcDbCircle
 10
5589.520643908478
 20
2840.857117507038
 30
0.0
 40
10.0
100
AcDbArc
 50
0.0000000000006514
 51
90.0
  0
ARC
  5
7C8D
330
81B2
100
AcDbEntity
  8
1
100
AcDbCircle
 10
5589.520643908478
 20
2710.857117507038
 30
0.0
 40
10.0
100
AcDbArc
 50
270.0
 51
0.0000000000006514
  0
LINE
  5
7C8E
330
81B2
100
AcDbEntity
  8
1
100
AcDbLine
 10
5511.820643908475
 20
2850.857117507038
 30
0.0
 11
5589.520643908475
 21
2850.857117507038
 31
0.0
  0
LINE
  5
7C8F
330
81B2
100
AcDbEntity
  8
1
100
AcDbLine
 10
5511.820643908477
 20
2700.857117507037
 30
0.0
 11
5589.520643908478
 21
2700.857117507037
 31
0.0
  0
LINE
  5
7C90
330
81B2
100
AcDbEntity
  8
1
100
AcDbLine
 10
3896.520643908475
 20
3041.757117507037
 30
0.0
 11
4006.520643908475
 21
3041.757117507037
 31
0.0
  0
LINE
  5
7C91
330
81B2
100
AcDbEntity
  8
1
100
AcDbLine
 10
3896.520643908475
 20
2711.557117507037
 30
0.0
 11
4006.520643908475
 21
2711.557117507037
 31
0.0
  0
LINE
  5
7C92
330
81B2
100
AcDbEntity
  8
1
100
AcDbLine
 10
3896.520643908475
 20
2575.957117507037
 30
0.0
 11
4006.520643908475
 21
2575.957117507037
 31
0.0
  0
LINE
  5
7C93
330
81B2
100
AcDbEntity
  8
1
100
AcDbLine
 10
3896.520643908477
 20
2347.357117507037
 30
0.0
 11
4006.520643908475
 21
2347.357117507037
 31
0.0
  0
LINE
  5
7C94
330
81B2
100
AcDbEntity
  8
1
100
AcDbLine
 10
3896.520643908475
 20
3041.757117507037
 30
0.0
 11
3896.520643908475
 21
2347.357117507037
 31
0.0
  0
LINE
  5
7C95
330
81B2
100
AcDbEntity
  8
1
100
AcDbLine
 10
4006.520643908475
 20
3041.757117507037
 30
0.0
 11
4006.520643908475
 21
2347.357117507037
 31
0.0
  0
LINE
  5
7C96
330
81B2
100
AcDbEntity
  8
1
100
AcDbLine
 10
3759.520643908471
 20
3156.657117507037
 30
0.0
 11
3759.52064390848
 21
2241.657117507037
 31
0.0
  0
LINE
  5
7C97
330
81B2
100
AcDbEntity
  8
1
100
AcDbLine
 10
3759.520643908471
 20
3156.657117507037
 30
0.0
 11
4052.02064390847
 21
3156.657117507037
 31
0.0
  0
LINE
  5
7C98
330
81B2
100
AcDbEntity
  8
1
100
AcDbLine
 10
3759.520643908479
 20
2241.657117507037
 30
0.0
 11
4052.02064390848
 21
2241.657117507037
 31
0.0
  0
LINE
  5
7C99
330
81B2
100
AcDbEntity
  8
1
100
AcDbLine
 10
4052.02064390847
 20
3156.65711750704
 30
0.0
 11
4052.02064390847
 21
3136.657117507037
 31
0.0
  0
LINE
  5
7C9A
330
81B2
100
AcDbEntity
  8
1
100
AcDbLine
 10
4052.02064390848
 20
2261.657117507037
 30
0.0
 11
4052.02064390848
 21
2241.65711750704
 31
0.0
  0
POINT
  5
7C9B
330
81B2
100
AcDbEntity
  8
1
100
AcDbPoint
 10
5599.520643908479
 20
2840.857117507038
 30
0.0
  0
LINE
  5
7C9C
330
81B2
100
AcDbEntity
  8
2
100
AcDbLine
 10
1910.173865737671
 20
6445.552933116022
 30
0.0
 11
1910.173865737671
 21
4757.565125545465
 31
0.0
  0
LINE
  5
7C9D
330
81B2
100
AcDbEntity
  8
2
100
AcDbLine
 10
2395.828431389951
 20
5851.637371266839
 30
0.0
 11
1431.248675355085
 21
5851.637371266839
 31
0.0
  0
INSERT
  5
7C9E
330
81B2
100
AcDbEntity
  8
0
100
AcDbBlockReference
  2
YA_N
 10
3439.312525519781
 20
-2261.498311600258
 30
0.0
  0
LINE
  5
7CA0
330
81B2
100
AcDbEntity
  8
1
100
AcDbLine
 10
3992.520643908476
 20
1921.657117507036
 30
0.0
 11
5497.520643908477
 21
1921.657117507036
 31
0.0
1001
ACAD
1000
ASC_BOUNDS
1002
{
1070
    19
1002
}
  0
LINE
  5
7CA1
330
81B2
100
AcDbEntity
  8
1
100
AcDbLine
 10
5497.520643908477
 20
2226.657117507037
 30
0.0
 11
5497.520643908476
 21
2126.657117507037
 31
0.0
  0
LINE
  5
7CA2
330
81B2
100
AcDbEntity
  8
1
100
AcDbLine
 10
3992.520643908475
 20
2226.657117507037
 30
0.0
 11
3992.520643908475
 21
2126.657117507037
 31
0.0
  0
LINE
  5
7CA3
330
81B2
100
AcDbEntity
  8
1
100
AcDbLine
 10
4127.220643908477
 20
2844.457117507039
 30
0.0
 11
4061.520643908475
 21
2844.457117507039
 31
0.0
  0
LINE
  5
7CA4
330
81B2
100
AcDbEntity
  8
1
100
AcDbLine
 10
4127.220643908475
 20
2694.457117507039
 30
0.0
 11
4061.520643908473
 21
2694.457117507039
 31
0.0
  0
LINE
  5
7CA5
330
81B2
100
AcDbEntity
  8
1
100
AcDbLine
 10
4176.520643908474
 20
2844.457117507039
 30
0.0
 11
4176.520643908474
 21
2694.457117507039
 31
0.0
  0
LINE
  5
7CA6
330
81B2
100
AcDbEntity
  8
1
100
AcDbLine
 10
4176.520643908474
 20
2694.457117507039
 30
0.0
 11
4127.220643908475
 21
2694.457117507039
 31
0.0
  0
LINE
  5
7CA7
330
81B2
100
AcDbEntity
  8
1
100
AcDbLine
 10
4176.520643908474
 20
2844.457117507037
 30
0.0
 11
4127.220643908475
 21
2844.457117507039
 31
0.0
  0
LINE
  5
7CA8
330
81B2
100
AcDbEntity
  8
1
100
AcDbLine
 10
4051.520643908477
 20
2834.457117507037
 30
0.0
 11
4051.520643908474
 21
2704.457117507037
 31
0.0
  0
ARC
  5
7CA9
330
81B2
100
AcDbEntity
  8
1
100
AcDbCircle
 10
4061.520643908473
 20
2704.457117507037
 30
0.0
 40
10.0
100
AcDbArc
 50
179.9999999999992
 51
270.0
  0
ARC
  5
7CAA
330
81B2
100
AcDbEntity
  8
1
100
AcDbCircle
 10
4061.520643908473
 20
2834.457117507037
 30
0.0
 40
10.0
100
AcDbArc
 50
90.0
 51
179.9999999999992
  0
POINT
  5
7CAB
330
81B2
100
AcDbEntity
  8
1
100
AcDbPoint
 10
4051.520643908474
 20
2834.457117507037
 30
0.0
  0
LINE
  5
7CAC
330
81B2
100
AcDbEntity
  8
1
100
AcDbLine
 10
4016.520643908476
 20
2909.157117507037
 30
0.0
 11
4194.520643908473
 21
2909.157117507037
 31
0.0
  0
LINE
  5
7CAD
330
81B2
100
AcDbEntity
  8
1
100
AcDbLine
 10
4016.520643908476
 20
2844.157117507037
 30
0.0
 11
4059.089594752244
 21
2844.157117507037
 31
0.0
  0
LINE
  5
7CAE
330
81B2
100
AcDbEntity
  8
1
100
AcDbLine
 10
4016.520643908476
 20
2909.157117507037
 30
0.0
 11
4016.520643908476
 21
2844.157117507037
 31
0.0
  0
LINE
  5
7CAF
330
81B2
100
AcDbEntity
  8
1
100
AcDbLine
 10
4006.520643908475
 20
2906.657117507037
 30
0.0
 11
4016.520643908477
 21
2906.657117507037
 31
0.0
  0
LINE
  5
7CB0
330
81B2
100
AcDbEntity
  8
1
100
AcDbLine
 10
4006.520643908475
 20
2846.657117507037
 30
0.0
 11
4016.520643908477
 21
2846.657117507037
 31
0.0
  0
LINE
  5
7CB4
330
81B2
100
AcDbEntity
  8
1
100
AcDbLine
 10
3335.173865737672
 20
2226.657117507038
 30
0.0
 11
3335.173865737672
 21
2126.657117507038
 31
0.0
  0
LINE
  5
7CB5
330
81B2
100
AcDbEntity
  8
1
100
AcDbLine
 10
3335.173865737672
 20
2021.657117507038
 30
0.0
 11
3335.173865737672
 21
1921.657117507038
 31
0.0
  0
POINT
  5
7CB6
330
81B2
100
AcDbEntity
  8
1
100
AcDbPoint
 10
1285.173865737671
 20
2021.657117507038
 30
0.0
  0
POINT
  5
7CB7
330
81B2
100
AcDbEntity
  8
1
100
AcDbPoint
 10
1285.173865737671
 20
2126.657117507038
 30
0.0
  0
POINT
  5
7CB8
330
81B2
100
AcDbEntity
  8
1
100
AcDbPoint
 10
1285.173865737671
 20
2021.657117507038
 30
0.0
  0
POINT
  5
7CB9
330
81B2
100
AcDbEntity
  8
1
100
AcDbPoint
 10
828.8961418749295
 20
1921.657117507038
 30
0.0
  0
LINE
  5
7CBD
330
81B2
100
AcDbEntity
  8
1
100
AcDbLine
 10
3335.173865737672
 20
5024.637371266841
 30
0.0
 11
1285.173865737671
 21
5024.637371266839
 31
0.0
  0
LINE
  5
7CBE
330
81B2
100
AcDbEntity
  8
1
100
AcDbLine
 10
2535.173865737673
 20
6529.63737126684
 30
0.0
 11
1285.173865737671
 21
6529.63737126684
 31
0.0
  0
LINE
  5
7CBF
330
81B2
100
AcDbEntity
  8
1
100
AcDbLine
 10
1285.173865737671
 20
6529.63737126684
 30
0.0
 11
1285.173865737671
 21
5024.637371266839
 31
0.0
  0
LINE
  5
7CC0
330
81B2
100
AcDbEntity
  8
1
100
AcDbLine
 10
3335.173865737672
 20
5874.637371266842
 30
0.0
 11
3335.173865737672
 21
5024.637371266841
 31
0.0
  0
LINE
  5
7CC1
330
81B2
100
AcDbEntity
  8
1
100
AcDbLine
 10
2535.173865737673
 20
6529.63737126684
 30
0.0
 11
2535.173865737673
 21
6476.637371266839
 31
0.0
  0
LINE
  5
7CC2
330
81B2
100
AcDbEntity
  8
1
100
AcDbLine
 10
3335.173865737672
 20
5874.637371266841
 30
0.0
 11
2778.173865737671
 21
5874.637371266841
 31
0.0
  0
LINE
  5
7CC3
330
81B2
100
AcDbEntity
  8
2
100
AcDbLine
 10
3060.173865737672
 20
5768.672734955212
 30
0.0
 11
3060.173865737672
 21
4759.939490176534
 31
0.0
  0
DIMENSION
  5
7CC4
330
81B2
100
AcDbEntity
  8
3
100
AcDbDimension
  2
*D9
 10
1285.173865737671
 20
6750.941308494559
 30
0.0
 11
1910.173865737671
 21
6750.941308494559
 31
0.0
 12
886.3406570505793
 22
2153.6057719056
 32
0.0
 70
   128
 71
     5
 42
-1.0
  3
Standard
100
AcDbAlignedDimension
 13
2535.173865737673
 23
6529.63737126684
 33
0.0
 14
1285.173865737671
 24
6529.63737126684
 34
0.0
100
AcDbRotatedDimension
1001
ACAD
1000
DSTYLE
1002
{
1070
    40
1040
30.0
1002
}
  0
DIMENSION
  5
7CC5
330
81B2
100
AcDbEntity
  8
3
100
AcDbDimension
  2
*D38
 10
1285.173865737671
 20
4616.087247440264
 30
0.0
 11
2310.173865737672
 21
4616.087247440264
 31
0.0
 70
   160
 71
     5
 42
2050.000000000002
  3
Standard
100
AcDbAlignedDimension
 13
3335.173865737672
 23
5024.637371266841
 33
0.0
 14
1285.173865737671
 24
5024.637371266839
 34
0.0
100
AcDbRotatedDimension
1001
ACAD
1000
DSTYLE
1002
{
1070
    40
1040
30.0
1002
}
  0
DIMENSION
  5
7CC6
330
81B2
100
AcDbEntity
  8
3
100
AcDbDimension
  2
*D11
 10
3557.221933238283
 20
5024.637371266841
 30
0.0
 11
3557.221933238283
 21
5449.637371266841
 31
0.0
 12
886.3406570505793
 22
2153.6057719056
 32
0.0
 70
   128
 71
     5
 42
-1.0
  3
Standard
100
AcDbAlignedDimension
 13
3335.173865737672
 23
5874.637371266842
 33
0.0
 14
3335.173865737672
 24
5024.637371266841
 34
0.0
 50
270.0
100
AcDbRotatedDimension
1001
ACAD
1000
DSTYLE
1002
{
1070
    40
1040
30.0
1002
}
  0
DIMENSION
  5
7CC7
330
81B2
100
AcDbEntity
  8
3
100
AcDbDimension
  2
*D12
 10
886.5297277287371
 20
5024.637371266839
 30
0.0
 11
826.5297277287372
 21
5777.137371266839
 31
0.0
 12
886.3406570505793
 22
2153.6057719056
 32
0.0
 71
     5
 42
-1.0
  3
Standard
100
AcDbAlignedDimension
 13
1285.173865737671
 23
6529.63737126684
 33
0.0
 14
1285.173865737671
 24
5024.637371266839
 34
0.0
 50
270.0
100
AcDbRotatedDimension
1001
ACAD
1000
DSTYLE
1002
{
1070
    40
1040
30.0
1002
}
  0
DIMENSION
  5
7CCB
330
81B2
100
AcDbEntity
  8
3
100
AcDbDimension
  2
*D16
 10
5444.520643908477
 20
4204.651868928966
 30
0.0
 11
4819.520643908475
 21
4264.651868928966
 31
0.0
 12
-64.58397716501713
 22
2248.596814671291
 32
0.0
 71
     5
 42
-1.0
  3
Standard
100
AcDbAlignedDimension
 13
4194.520643908473
 23
3924.971435160673
 33
0.0
 14
5444.520643908477
 24
3921.692882965216
 34
0.0
100
AcDbRotatedDimension
1001
ACAD
1000
DSTYLE
1002
{
1070
    40
1040
30.0
1002
}
  0
DIMENSION
  5
7CCC
330
81B2
100
AcDbEntity
  8
3
100
AcDbDimension
  2
*D17
 10
5788.888864279787
 20
3406.657117507037
 30
0.0
 11
5728.888864279786
 21
2876.657117507037
 31
0.0
 12
-64.58397716501713
 22
2248.596814671291
 32
0.0
  1
\U+03C6<>
 71
     5
 42
-1.0
  3
Standard
100
AcDbAlignedDimension
 13
5450.020643908477
 23
2346.657117507037
 33
0.0
 14
5450.020643908477
 24
3406.657117507037
 34
0.0
 50
90.0
100
AcDbRotatedDimension
1001
ACAD
1000
DSTYLE
1002
{
1070
    40
1040
30.0
1002
}
  0
LINE
  5
7CCD
330
81B2
100
AcDbEntity
  8
2
100
AcDbLine
 10
3729.996732738703
 20
2461.657117507038
 30
0.0
 11
4708.454900707278
 21
2461.657117507038
 31
0.0
  0
ARC
  5
7CCE
330
81B2
100
AcDbEntity
  8
1
100
AcDbCircle
 10
1910.173865737673
 20
2876.657117507037
 30
0.0
 40
280.0
100
AcDbArc
 50
67.34404266857237
 51
252.9700165845115
  0
ARC
  5
7CCF
330
81B2
100
AcDbEntity
  8
1
100
AcDbCircle
 10
3060.173865737672
 20
2461.657117507038
 30
0.0
 40
220.0
100
AcDbArc
 50
252.9700165845115
 51
67.34404266857237
  0
LINE
  5
7CD0
330
81B2
100
AcDbEntity
  8
1
100
AcDbLine
 10
2018.028964968361
 20
3135.050765977618
 30
0.0
 11
3144.917157990356
 21
2664.680698448208
 31
0.0
  0
LINE
  5
7CD1
330
81B2
100
AcDbEntity
  8
1
100
AcDbLine
 10
1828.169675537075
 20
2608.934662734293
 30
0.0
 11
2995.742002008631
 21
2251.303760185595
 31
0.0
  0
LINE
  5
7CD2
330
81B2
100
AcDbEntity
  8
1
100
AcDbLine
 10
1972.620368993776
 20
3029.491813276961
 30
0.0
 11
3103.40606029959
 21
2567.465753040062
 31
0.0
  0
LINE
  5
7CD3
330
81B2
100
AcDbEntity
  8
1
100
AcDbLine
 10
1860.632936416575
 20
2719.165192882307
 30
0.0
 11
3025.876299284604
 21
2352.624246612993
 31
0.0
  0
INSERT
  5
7CD4
330
81B2
100
AcDbEntity
  8
0
100
AcDbBlockReference
  2
YA_N
 10
742.6405419924267
 20
-7350.772430041375
 30
0.0
  0
INSERT
  5
7CD6
330
81B2
100
AcDbEntity
  8
0
100
AcDbBlockReference
  2
YA_N
 10
2.995684825677016
 20
-7626.802696743742
 30
0.0
 41
20.0
 42
20.0
 43
20.0
  0
INSERT
  5
7CD8
330
81B2
100
AcDbEntity
  8
0
100
AcDbBlockReference
  2
YA_N
 10
699.9059132844049
 20
-7054.118742438055
 30
0.0
 41
20.0
 42
20.0
 43
20.0
  0
INSERT
  5
7CDA
330
81B2
100
AcDbEntity
  8
0
100
AcDbBlockReference
  2
YA_N
 10
814.1254386385663
 20
-7130.460452277301
 30
0.0
 41
20.0
 42
20.0
 43
20.0
  0
ARC
  5
7CDC
330
81B2
100
AcDbEntity
  8
1
100
AcDbCircle
 10
1910.173865737673
 20
2876.657117507037
 30
0.0
 40
599.0
100
AcDbArc
 50
175.7875009220855
 51
180.0
  0
CIRCLE
  5
7CDD
330
81B2
100
AcDbEntity
  8
1
100
AcDbCircle
 10
1910.173865737673
 20
2876.657117507037
 30
0.0
 40
530.0
  0
CIRCLE
  5
7CDE
330
81B2
100
AcDbEntity
  8
1
100
AcDbCircle
 10
1910.173865737673
 20
2876.657117507037
 30
0.0
 40
580.0
  0
LINE
  5
7CDF
330
81B2
100
AcDbEntity
  8
1
100
AcDbLine
 10
5497.520643908476
 20
2021.657117507037
 30
0.0
 11
5497.520643908476
 21
1921.657117507036
 31
0.0
  0
LINE
  5
7CE0
330
81B2
100
AcDbEntity
  8
1
100
AcDbLine
 10
3992.520643908475
 20
2021.657117507037
 30
0.0
 11
3992.520643908476
 21
1921.657117507036
 31
0.0
  0
LINE
  5
7CE4
330
81B2
100
AcDbEntity
  8
1
100
AcDbLine
 10
3280.173865737673
 20
4791.63737126684
 30
0.0
 11
1630.173865737672
 21
4791.63737126684
 31
0.0
  0
LINE
  5
7CE5
330
81B2
100
AcDbEntity
  8
1
100
AcDbLine
 10
3280.173865737673
 20
5111.637371266841
 30
0.0
 11
1630.173865737672
 21
5111.637371266839
 31
0.0
  0
LINE
  5
7CE6
330
81B2
100
AcDbEntity
  8
1
100
AcDbLine
 10
1630.173865737672
 20
4791.63737126684
 30
0.0
 11
1630.173865737672
 21
5111.637371266839
 31
0.0
  0
LINE
  5
7CE7
330
81B2
100
AcDbEntity
  8
1
100
AcDbLine
 10
3280.173865737673
 20
4791.63737126684
 30
0.0
 11
3280.173865737673
 21
5111.637371266841
 31
0.0
  0
LINE
  5
7CE8
330
81B2
100
AcDbEntity
  8
1
100
AcDbLine
 10
3174.473865737672
 20
4956.637371266841
 30
0.0
 11
3174.473865737672
 21
5066.637371266841
 31
0.0
  0
LINE
  5
7CE9
330
81B2
100
AcDbEntity
  8
1
100
AcDbLine
 10
2945.873865737672
 20
4956.63737126684
 30
0.0
 11
2945.873865737672
 21
5066.63737126684
 31
0.0
  0
LINE
  5
7CEA
330
81B2
100
AcDbEntity
  8
1
100
AcDbLine
 10
1745.073865737673
 20
4956.63737126684
 30
0.0
 11
1745.073865737673
 21
5066.637371266839
 31
0.0
  0
LINE
  5
7CEB
330
81B2
100
AcDbEntity
  8
1
100
AcDbLine
 10
2075.273865737674
 20
4956.63737126684
 30
0.0
 11
2075.273865737674
 21
5066.637371266839
 31
0.0
  0
LINE
  5
7CEC
330
81B2
100
AcDbEntity
  8
1
100
AcDbLine
 10
3174.473865737672
 20
5066.637371266841
 30
0.0
 11
2945.873865737672
 21
5066.637371266841
 31
0.0
  0
LINE
  5
7CED
330
81B2
100
AcDbEntity
  8
1
100
AcDbLine
 10
3174.473865737672
 20
4956.637371266841
 30
0.0
 11
2945.873865737672
 21
4956.637371266841
 31
0.0
  0
LINE
  5
7CEE
330
81B2
100
AcDbEntity
  8
1
100
AcDbLine
 10
2075.273865737674
 20
4956.63737126684
 30
0.0
 11
1745.073865737673
 21
4956.63737126684
 31
0.0
  0
LINE
  5
7CEF
330
81B2
100
AcDbEntity
  8
1
100
AcDbLine
 10
2075.273865737674
 20
5066.637371266839
 30
0.0
 11
1745.073865737673
 21
5066.637371266839
 31
0.0
  0
LINE
  5
7CF0
330
81B2
100
AcDbEntity
  8
1
100
AcDbLine
 10
2877.673865737673
 20
5633.137371266842
 30
0.0
 11
2877.673865737673
 21
5071.637371266842
 31
0.0
  0
LINE
  5
7CF1
330
81B2
100
AcDbEntity
  8
1
100
AcDbLine
 10
3242.673865737673
 20
5633.137371266842
 30
0.0
 11
3242.673865737673
 21
5071.637371266842
 31
0.0
  0
LINE
  5
7CF2
330
81B2
100
AcDbEntity
  8
1
100
AcDbLine
 10
3242.673865737673
 20
5633.137371266839
 30
0.0
 11
2877.673865737673
 21
5633.137371266839
 31
0.0
  0
LINE
  5
7CF3
330
81B2
100
AcDbEntity
  8
1
100
AcDbLine
 10
3242.673865737673
 20
5071.637371266842
 30
0.0
 11
2877.673865737673
 21
5071.637371266842
 31
0.0
  0
LINE
  5
7CF4
330
81B2
100
AcDbEntity
  8
1
100
AcDbLine
 10
3036.173865737672
 20
5071.637371266842
 30
0.0
 11
3036.173865737672
 21
5066.637371266841
 31
0.0
  0
LINE
  5
7CF5
330
81B2
100
AcDbEntity
  8
1
100
AcDbLine
 10
3084.173865737672
 20
5071.637371266842
 30
0.0
 11
3084.173865737672
 21
5066.637371266841
 31
0.0
  0
LINE
  5
7CF6
330
81B2
100
AcDbEntity
  8
1
100
AcDbLine
 10
4573.020643908477
 20
2644.157117507038
 30
0.0
 11
4011.520643908478
 21
2644.157117507038
 31
0.0
  0
LINE
  5
7CF7
330
81B2
100
AcDbEntity
  8
1
100
AcDbLine
 10
4573.020643908477
 20
2279.157117507037
 30
0.0
 11
4011.520643908478
 21
2279.157117507037
 31
0.0
  0
LINE
  5
7CF8
330
81B2
100
AcDbEntity
  8
1
100
AcDbLine
 10
4011.520643908475
 20
2644.157117507038
 30
0.0
 11
4011.520643908475
 21
2279.157117507037
 31
0.0
  0
LINE
  5
7CF9
330
81B2
100
AcDbEntity
  8
1
100
AcDbLine
 10
4011.520643908478
 20
2485.657117507038
 30
0.0
 11
4006.520643908475
 21
2485.657117507038
 31
0.0
  0
LINE
  5
7CFA
330
81B2
100
AcDbEntity
  8
1
100
AcDbLine
 10
4011.520643908478
 20
2437.657117507038
 30
0.0
 11
4006.520643908475
 21
2437.657117507038
 31
0.0
  0
DIMENSION
  5
7CFB
330
81B2
100
AcDbEntity
  8
3
100
AcDbDimension
  2
*D20
 10
3335.173865737672
 20
4383.818294225917
 30
0.0
 11
2282.673865737672
 21
4443.818294225916
 31
0.0
 12
886.3406570505793
 22
2248.596814671291
 32
0.0
 71
     5
 42
-1.0
  3
Standard
100
AcDbAlignedDimension
 13
1230.17386573767
 23
4003.657117507037
 33
0.0
 14
3335.173865737672
 24
2226.657117507036
 34
0.0
100
AcDbRotatedDimension
1001
ACAD
1000
DSTYLE
1002
{
1070
    40
1040
30.0
1002
}
  0
LINE
  5
7CFC
330
81B2
100
AcDbEntity
  8
1
100
AcDbLine
 10
1230.17386573767
 20
6526.637371266838
 30
0.0
 11
1230.17386573767
 21
5176.637371266838
 31
0.0
  0
LINE
  5
7CFD
330
81B2
100
AcDbEntity
  8
1
100
AcDbLine
 10
2778.173865737671
 20
6476.637371266841
 30
0.0
 11
2778.173865737671
 21
5226.637371266839
 31
0.0
  0
LINE
  5
7CFE
330
81B2
100
AcDbEntity
  8
1
100
AcDbLine
 10
2778.173865737671
 20
5226.637371266839
 30
0.0
 11
1230.17386573767
 21
5226.637371266839
 31
0.0
  0
LINE
  5
7CFF
330
81B2
100
AcDbEntity
  8
1
100
AcDbLine
 10
2778.173865737671
 20
6476.637371266841
 30
0.0
 11
1230.17386573767
 21
6476.637371266838
 31
0.0
  0
LINE
  5
7D00
330
81B2
100
AcDbEntity
  8
1
100
AcDbLine
 10
1234.173865737673
 20
6526.63737126684
 30
0.0
 11
1230.17386573767
 21
6526.637371266838
 31
0.0
  0
LINE
  5
7D01
330
81B2
100
AcDbEntity
  8
1
100
AcDbLine
 10
1234.173865737671
 20
5176.637371266838
 30
0.0
 11
1230.17386573767
 21
5176.637371266838
 31
0.0
  0
LINE
  5
7D02
330
81B2
100
AcDbEntity
  8
1
100
AcDbLine
 10
1234.173865737671
 20
6526.637371266838
 30
0.0
 11
1234.173865737671
 21
5176.637371266838
 31
0.0
  0
LINE
  5
7D06
330
81B2
100
AcDbEntity
  8
1
100
AcDbLine
 10
1877.673865737671
 20
5226.63737126684
 30
0.0
 11
1877.673865737671
 21
5066.63737126684
 31
0.0
  0
LINE
  5
7D07
330
81B2
100
AcDbEntity
  8
1
100
AcDbLine
 10
1942.673865737671
 20
5226.63737126684
 30
0.0
 11
1942.673865737671
 21
5066.63737126684
 31
0.0
  0
LINE
  5
7D08
330
81B2
100
AcDbEntity
  8
1
100
AcDbLine
 10
4176.520643908474
 20
2844.157117507037
 30
0.0
 11
4194.520643908473
 21
2844.157117507037
 31
0.0
  0
DIMENSION
  5
7D09
330
81B2
100
AcDbEntity
  8
3
100
AcDbDimension
  2
*D21
 10
3335.173865737672
 20
6750.941308494559
 30
0.0
 11
2935.173865737672
 21
6810.941308494559
 31
0.0
 12
886.3406570505793
 22
2153.6057719056
 32
0.0
 71
     5
 42
-1.0
  3
Standard
100
AcDbAlignedDimension
 13
2535.173865737673
 23
6529.63737126684
 33
0.0
 14
3335.173865737672
 24
5874.637371266841
 34
0.0
100
AcDbRotatedDimension
1001
ACAD
1000
DSTYLE
1002
{
1070
    40
1040
30.0
1002
}
  0
LINE
  5
7D10
330
81B2
100
AcDbEntity
  8
1
100
AcDbLine
 10
4573.020643908477
 20
2644.157117507038
 30
0.0
 11
4573.020643908477
 21
2279.157117507037
 31
0.0
  0
LINE
  5
7D11
330
81B2
100
AcDbEntity
  8
1
100
AcDbLine
 10
4460.437483381607
 20
2279.157117507037
 30
0.0
 11
4460.437483381607
 21
2226.657117507037
 31
0.0
  0
LINE
  5
7D12
330
81B2
100
AcDbEntity
  8
1
100
AcDbLine
 10
4106.449032391272
 20
2279.157117507037
 30
0.0
 11
4106.449032391272
 21
2226.657117507037
 31
0.0
  0
LINE
  5
7F43
330
81B2
100
AcDbEntity
  8
4
100
AcDbLine
 10
5550.0
 20
1500.0
 30
0.0
 11
5550.0
 21
900.0
 31
0.0
  0
LINE
  5
7F44
330
81B2
100
AcDbEntity
  8
4
100
AcDbLine
 10
3450.0
 20
1500.0
 30
0.0
 11
3450.0
 21
900.0
 31
0.0
  0
LINE
  5
7F45
330
81B2
100
AcDbEntity
  8
4
100
AcDbLine
 10
1950.0
 20
1500.0
 30
0.0
 11
1950.0
 21
900.0
 31
0.0
  0
LINE
  5
7F48
330
81B2
100
AcDbEntity
  8
4
100
AcDbLine
 10
1950.0
 20
900.0
 30
0.0
 11
5550.0
 21
900.0
 31
0.0
  0
LINE
  5
7F49
330
81B2
100
AcDbEntity
  8
4
100
AcDbLine
 10
1950.0
 20
1200.0
 30
0.0
 11
5550.0
 21
1200.0
 31
0.0
  0
TEXT
  5
7F4A
330
81B2
100
AcDbEntity
  8
4
100
AcDbText
 10
2065.506242540704
 20
1294.629077599838
 30
0.0
 40
150.0
  1
機器名称
100
AcDbText
  0
TEXT
  5
7F4B
330
81B2
100
AcDbEntity
  8
4
100
AcDbText
 10
2058.774318074392
 20
964.9354701960326
 30
0.0
 40
150.0
  1
機器型番
100
AcDbText
  0
TEXT
  5
7F4C
330
81B2
100
AcDbEntity
  8
4
100
AcDbText
 10
3533.036236462995
 20
1267.715306872705
 30
0.0
 40
150.0
  1
ミツヤ多翼送風機
100
AcDbText
  0
TEXT
  5
7F4D
330
81B2
100
AcDbEntity
  8
4
100
AcDbText
 10
3559.963486756442
 20
951.4787528398301
 30
0.0
 40
150.0
  1
MF#6-5
100
AcDbText
  0
TEXT
  5
7F4F
330
81B2
100
AcDbEntity
  8
4
100
AcDbText
 10
2318.324497747933
 20
7150.286523997547
 30
0.0
 40
161.9999999999998
  1
床置防振ベット
100
AcDbText
  0
TEXT
  5
7F50
330
81B2
100
AcDbEntity
  8
4
100
AcDbText
 10
948.5027799883393
 20
7601.642928597894
 30
0.0
 40
216.0
  1
遠心式両吸込両持多翼ファン
100
AcDbText
  0
LINE
  5
7F51
330
81B2
100
AcDbEntity
  8
4
100
AcDbLine
 10
750.0
 20
7408.226262794413
 30
0.0
 11
5550.0
 21
7408.226262794413
 31
0.0
  0
LINE
  5
7F52
330
81B2
100
AcDbEntity
  8
4
100
AcDbLine
 10
750.0
 20
8008.226262794414
 30
0.0
 11
5550.0
 21
8008.226262794414
 31
0.0
  0
LINE
  5
7F53
330
81B2
100
AcDbEntity
  8
4
100
AcDbLine
 10
1950.0
 20
1500.0
 30
0.0
 11
5550.0
 21
1500.0
 31
0.0
  0
LINE
  5
7F54
330
81B2
100
AcDbEntity
  8
4
100
AcDbLine
 10
750.0
 20
8008.226262794414
 30
0.0
 11
750.0
 21
7408.226262794413
 31
0.0
  0
TEXT
  5
7F55
330
81B2
100
AcDbEntity
  8
4
100
AcDbText
 10
1010.748001019827
 20
7146.958432639029
 30
0.0
 40
161.9999999999998
  1
左回転左横向
100
AcDbText
  0
TEXT
  5
7F56
330
81B2
100
AcDbEntity
  8
4
100
AcDbText
 10
4406.908677747869
 20
8118.183244485924
 30
0.0
 40
168.0
  1
No.
100
AcDbText
  0
TEXT
  5
7F57
330
81B2
100
AcDbEntity
  8
4
100
AcDbText
 10
3933.888187800039
 20
7150.286523997547
 30
0.0
 40
161.9999999999998
  1
縮尺：1/30
100
AcDbText
  0
LINE
  5
7F58
330
81B2
100
AcDbEntity
  8
4
100
AcDbLine
 10
5550.0
 20
8008.226262794414
 30
0.0
 11
5550.0
 21
7408.226262794413
 31
0.0
  0
LINE
  5
7F59
330
81B2
100
AcDbEntity
  8
4
100
AcDbLine
 10
6300.0
 20
8850.0
 30
0.0
 11
6300.0
 21
8850.0
 31
0.0
  0
LINE
  5
7F5A
330
81B2
100
AcDbEntity
  8
4
100
AcDbLine
 10
4321.852267079594
 20
8043.790749376205
 30
0.0
 11
4321.852267079594
 21
8359.956784649257
 31
0.0
  0
LINE
  5
7F5B
330
81B2
100
AcDbEntity
  8
4
100
AcDbLine
 10
4321.852267079594
 20
8359.956784649257
 30
0.0
 11
5550.0
 21
8359.956784649257
 31
0.0
  0
LINE
  5
7F5C
330
81B2
100
AcDbEntity
  8
4
100
AcDbLine
 10
5550.0
 20
8359.956784649257
 30
0.0
 11
5550.0
 21
8043.790749376205
 31
0.0
  0
LINE
  5
7F5D
330
81B2
100
AcDbEntity
  8
4
100
AcDbLine
 10
5550.0
 20
8043.790749376205
 30
0.0
 11
4321.852267079594
 21
8043.790749376205
 31
0.0
  0
LINE
  5
7F5E
330
81B2
100
AcDbEntity
  8
4
100
AcDbLine
 10
0.0
 20
0.0
 30
0.0
 11
0.0
 21
8850.0
 31
0.0
  0
LINE
  5
7F5F
330
81B2
100
AcDbEntity
  8
4
100
AcDbLine
 10
0.0
 20
8850.0
 30
0.0
 11
6300.0
 21
8850.0
 31
0.0
  0
LINE
  5
7F60
330
81B2
100
AcDbEntity
  8
4
100
AcDbLine
 10
6300.0
 20
8850.0
 30
0.0
 11
6300.0
 21
0.0
 31
0.0
  0
LINE
  5
7F61
330
81B2
100
AcDbEntity
  8
4
100
AcDbLine
 10
6300.0
 20
0.0
 30
0.0
 11
0.0
 21
0.0
 31
0.0
  0
DIMENSION
  5
81FD
330
81B2
100
AcDbEntity
  8
3
100
AcDbDimension
  2
*D29
 10
4819.520643908475
 20
4428.282004947185
 30
0.0
 11
4289.520643908472
 21
4526.853433518613
 31
0.0
 70
    32
 71
     5
 42
1060.000000000004
  3
IGA
100
AcDbAlignedDimension
 13
3759.520643908471
 23
3156.657117507037
 33
0.0
 14
4819.520643908475
 24
4309.651868928965
 34
0.0
100
AcDbRotatedDimension
1001
ACAD
1000
DSTYLE
1002
{
1070
     3
1000
(<>)
1070
    40
1040
30.0
1070
    42
1040
1.0
1070
   143
1040
0.039
1070
   172
1070
     1
1070
   271
1070
     4
1070
   272
1070
     4
1070
   279
1070
     0
1070
   284
1070
     0
1070
   285
1070
     0
1070
   286
1070
     0
1070
   341
1005
81C6
1070
   343
1005
81C6
1070
   344
1005
81C6
1002
}
  0
DIMENSION
  5
820A
330
81B2
100
AcDbEntity
  8
3
100
AcDbDimension
  2
*D30
 10
5599.520643908475
 20
4428.282004947185
 30
0.0
 11
5209.520643908475
 21
4526.853433518613
 31
0.0
 70
    32
 71
     5
 42
780.0
  3
IGA
100
AcDbAlignedDimension
 13
4819.520643908475
 23
4309.651868928965
 33
0.0
 14
5599.520643908475
 24
2840.857117507038
 34
0.0
100
AcDbRotatedDimension
1001
ACAD
1000
DSTYLE
1002
{
1070
     3
1000
(<>)
1070
    40
1040
30.0
1070
    42
1040
1.0
1070
   143
1040
0.039
1070
   172
1070
     1
1070
   271
1070
     4
1070
   272
1070
     4
1070
   279
1070
     1
1070
   284
1070
     0
1070
   285
1070
     0
1070
   286
1070
     0
1070
   341
1005
81C6
1070
   343
1005
81C6
1070
   344
1005
81C6
1002
}
  0
DIMENSION
  5
82A4
330
81B2
100
AcDbEntity
  8
3
100
AcDbDimension
  2
*D39
 10
4819.520643908475
 20
1721.948373107928
 30
0.0
 11
4406.020643908475
 21
1796.948373107928
 31
0.0
 70
    32
 71
     5
 42
826.999999999999
  3
IGA
100
AcDbAlignedDimension
 13
3992.520643908476
 23
1921.657117507036
 33
0.0
 14
4819.520643908475
 24
1921.657117507036
 34
0.0
100
AcDbRotatedDimension
1001
ACAD
1000
DSTYLE
1002
{
1070
    40
1040
30.0
1070
    42
1040
1.0
1070
   143
1040
0.039
1070
   172
1070
     1
1070
   271
1070
     4
1070
   272
1070
     4
1070
   279
1070
     0
1070
   284
1070
     0
1070
   285
1070
     0
1070
   286
1070
     0
1070
   341
1005
81C6
1070
   343
1005
81C6
1070
   344
1005
81C6
1002
}
  0
DIMENSION
  5
82B1
330
81B2
100
AcDbEntity
  8
3
100
AcDbDimension
  2
*D40
 10
5497.520643908476
 20
1721.948373107928
 30
0.0
 11
5158.520643908476
 21
1796.948373107928
 31
0.0
 70
    32
 71
     5
 42
678.0000000000009
  3
IGA
100
AcDbAlignedDimension
 13
4819.520643908475
 23
1921.657117507036
 33
0.0
 14
5497.520643908476
 24
1921.657117507036
 34
0.0
100
AcDbRotatedDimension
1001
ACAD
1000
DSTYLE
1002
{
1070
    40
1040
30.0
1070
    42
1040
1.0
1070
   143
1040
0.039
1070
   172
1070
     1
1070
   271
1070
     4
1070
   272
1070
     4
1070
   279
1070
     1
1070
   284
1070
     0
1070
   285
1070
     0
1070
   286
1070
     0
1070
   341
1005
81C6
1070
   343
1005
81C6
1070
   344
1005
81C6
1002
}
  0
DIMENSION
  5
82BE
330
81B2
100
AcDbEntity
  8
3
100
AcDbDimension
  2
*D41
 10
1910.173865737673
 20
1723.748373107928
 30
0.0
 11
1597.673865737672
 21
1798.748373107928
 31
0.0
 70
    32
 71
     5
 42
625.000000000002
  3
IGA
100
AcDbAlignedDimension
 13
1285.173865737671
 23
1921.657117507038
 33
0.0
 14
1910.173865737673
 24
1921.657117507038
 34
0.0
100
AcDbRotatedDimension
1001
ACAD
1000
DSTYLE
1002
{
1070
    40
1040
30.0
1070
    42
1040
1.0
1070
   143
1040
0.039
1070
   172
1070
     1
1070
   271
1070
     4
1070
   272
1070
     4
1070
   279
1070
     0
1070
   284
1070
     0
1070
   285
1070
     0
1070
   286
1070
     0
1070
   341
1005
81C6
1070
   343
1005
81C6
1070
   344
1005
81C6
1002
}
  0
DIMENSION
  5
82CB
330
81B2
100
AcDbEntity
  8
3
100
AcDbDimension
  2
*D42
 10
3335.173865737672
 20
1723.748373107928
 30
0.0
 11
2622.673865737673
 21
1798.748373107928
 31
0.0
 70
    32
 71
     5
 42
1425.0
  3
IGA
100
AcDbAlignedDimension
 13
1910.173865737673
 23
1921.657117507038
 33
0.0
 14
3335.173865737672
 24
1921.657117507038
 34
0.0
100
AcDbRotatedDimension
1001
ACAD
1000
DSTYLE
1002
{
1070
    40
1040
30.0
1070
    42
1040
1.0
1070
   143
1040
0.039
1070
   172
1070
     1
1070
   271
1070
     4
1070
   272
1070
     4
1070
   279
1070
     1
1070
   284
1070
     0
1070
   285
1070
     0
1070
   286
1070
     0
1070
   341
1005
81C6
1070
   343
1005
81C6
1070
   344
1005
81C6
1002
}
  0
DIMENSION
  5
82D8
330
81B2
100
AcDbEntity
  8
3
100
AcDbDimension
  2
*D43
 10
828.2117232843756
 20
2126.657117507039
 30
0.0
 11
753.2117232843752
 21
2501.657117507038
 31
0.0
 70
    32
 71
     5
 42
749.9999999999982
  3
IGA
100
AcDbAlignedDimension
 13
1170.557883240044
 23
2876.657117507037
 33
0.0
 14
1285.17386573767
 24
2126.657117507038
 34
0.0
 50
90.0
100
AcDbRotatedDimension
1001
ACAD
1000
DSTYLE
1002
{
1070
    40
1040
30.0
1070
    42
1040
1.0
1070
   143
1040
0.039
1070
   172
1070
     1
1070
   271
1070
     4
1070
   272
1070
     4
1070
   279
1070
     0
1070
   284
1070
     0
1070
   285
1070
     0
1070
   286
1070
     0
1070
   341
1005
81C6
1070
   343
1005
81C6
1070
   344
1005
81C6
1002
}
  0
DIMENSION
  5
82E5
330
81B2
100
AcDbEntity
  8
3
100
AcDbDimension
  2
*D44
 10
828.2117232843756
 20
2021.657117507038
 30
0.0
 11
586.0688661415182
 21
2147.228546078467
 31
0.0
 70
    32
  1
(<>)
 71
     5
 42
105.0000000000002
  3
IGA
100
AcDbAlignedDimension
 13
1285.17386573767
 23
2126.657117507038
 33
0.0
 14
1285.173865737671
 24
2021.657117507038
 34
0.0
 50
90.0
100
AcDbRotatedDimension
1001
ACAD
1000
DSTYLE
1002
{
1070
    40
1040
30.0
1070
    42
1040
1.0
1070
   143
1040
0.039
1070
   172
1070
     1
1070
   271
1070
     4
1070
   272
1070
     4
1070
   279
1070
     1
1070
   284
1070
     0
1070
   285
1070
     0
1070
   286
1070
     0
1070
   341
1005
81C6
1070
   343
1005
81C6
1070
   344
1005
83E0
1002
}
  0
DIMENSION
  5
82F7
330
81B2
100
AcDbEntity
  8
3
100
AcDbDimension
  2
*D45
 10
828.2117232843756
 20
1921.657117507038
 30
0.0
 11
831.5436292809463
 21
1782.412733573463
 31
0.0
 70
   160
 71
     5
 42
100.0
  3
IGA
100
AcDbAlignedDimension
 13
1285.173865737671
 23
2021.657117507038
 33
0.0
 14
1285.173865737671
 24
1921.657117507038
 34
0.0
 50
90.0
100
AcDbRotatedDimension
1001
ACAD
1000
DSTYLE
1002
{
1070
    40
1040
30.0
1070
    42
1040
1.0
1070
   143
1040
0.039
1070
   172
1070
     1
1070
   271
1070
     4
1070
   272
1070
     4
1070
   279
1070
     1
1070
   284
1070
     0
1070
   285
1070
     0
1070
   286
1070
     0
1070
   341
1005
81C6
1070
   343
1005
83E0
1070
   344
1005
81C6
1002
}
  0
DIMENSION
  5
8360
330
81B2
100
AcDbEntity
  8
3
100
AcDbDimension
  2
*D46
 10
469.2298205190165
 20
3950.657117507037
 30
0.0
 11
370.6583919475873
 21
2936.157117507038
 31
0.0
 70
    32
  1
(<>)
 71
     5
 42
2028.999999999999
  3
IGA
100
AcDbAlignedDimension
 13
1285.173865737671
 23
1921.657117507038
 33
0.0
 14
1230.17386573767
 24
3950.657117507036
 34
0.0
 50
90.0
100
AcDbRotatedDimension
1001
ACAD
1000
DSTYLE
1002
{
1070
    40
1040
30.0
1070
    42
1040
1.0
1070
   143
1040
0.039
1070
   172
1070
     1
1070
   271
1070
     4
1070
   272
1070
     4
1070
   279
1070
     0
1070
   284
1070
     0
1070
   285
1070
     0
1070
   286
1070
     0
1070
   341
1005
81C6
1070
   343
1005
81C6
1070
   344
1005
81C6
1002
}
  0
ENDSEC
  0
SECTION
  2
OBJECTS
  0
DICTIONARY
  5
814F
330
0
100
AcDbDictionary
281
     1
  3
ACAD_CIP_PREVIOUS_PRODUCT_INFO
350
81FC
  3
ACAD_COLOR
350
81A5
  3
ACAD_DETAILVIEWSTYLE
350
81AC
  3
ACAD_GROUP
350
8150
  3
ACAD_LAYOUT
350
81A4
  3
ACAD_MATERIAL
350
8153
  3
ACAD_MLEADERSTYLE
350
81A8
  3
ACAD_MLINESTYLE
350
81A1
  3
ACAD_PLOTSETTINGS
350
81A3
  3
ACAD_PLOTSTYLENAME
350
8151
  3
ACAD_SCALELIST
350
8185
  3
ACAD_SECTIONVIEWSTYLE
350
81AA
  3
ACAD_TABLESTYLE
350
81A6
  3
ACAD_VISUALSTYLE
350
816C
  3
ACDB_RECOMPOSE_DATA
350
8462
  3
AcDbVariableDictionary
350
8455
  3
DWGPROPS
350
8463
  0
DICTIONARY
  5
844B
330
8197
100
AcDbDictionary
280
     1
281
     1
  3
ADSK_XREC_LAYER_RECONCILED
360
844C
  0
DICTIONARY
  5
844D
330
81B6
100
AcDbDictionary
280
     1
281
     1
  3
ADSK_XREC_LAYER_RECONCILED
360
844E
  0
DICTIONARY
  5
844F
330
81B9
100
AcDbDictionary
280
     1
281
     1
  3
ADSK_XREC_LAYER_RECONCILED
360
8450
  0
DICTIONARY
  5
8451
330
81BA
100
AcDbDictionary
280
     1
281
     1
  3
ADSK_XREC_LAYER_RECONCILED
360
8452
  0
DICTIONARY
  5
8453
330
81BB
100
AcDbDictionary
280
     1
281
     1
  3
ADSK_XREC_LAYER_RECONCILED
360
8454
  0
XRECORD
  5
81FC
102
{ACAD_REACTORS
330
814F
102
}
330
814F
100
AcDbXrecord
280
     1
300
ACDLT
300
2015
300
INVLTS_F_S
  0
DICTIONARY
  5
81A5
102
{ACAD_REACTORS
330
814F
102
}
330
814F
100
AcDbDictionary
281
     1
  0
DICTIONARY
  5
81AC
102
{ACAD_REACTORS
330
814F
102
}
330
814F
100
AcDbDictionary
281
     1
  3
Imperial24
350
81AD
  0
DICTIONARY
  5
8150
102
{ACAD_REACTORS
330
814F
102
}
330
814F
100
AcDbDictionary
281
     1
  0
DICTIONARY
  5
81A4
102
{ACAD_REACTORS
330
814F
102
}
330
814F
100
AcDbDictionary
281
     1
  3
Model
350
81B5
  3
レイアウト1
350
81B1
  0
DICTIONARY
  5
8153
102
{ACAD_REACTORS
330
814F
102
}
330
814F
100
AcDbDictionary
281
     1
  3
ByBlock
350
815C
  3
ByLayer
350
8154
  3
Global
350
8164
  0
DICTIONARY
  5
81A8
102
{ACAD_REACTORS
330
814F
102
}
330
814F
100
AcDbDictionary
281
     1
  3
Standard
350
81A9
  0
DICTIONARY
  5
81A1
102
{ACAD_REACTORS
330
814F
102
}
330
814F
100
AcDbDictionary
281
     1
  3
Standard
350
81A2
  0
DICTIONARY
  5
81A3
102
{ACAD_REACTORS
330
814F
102
}
330
814F
100
AcDbDictionary
281
     1
  0
ACDBDICTIONARYWDFLT
  5
8151
102
{ACAD_REACTORS
330
814F
102
}
330
814F
100
AcDbDictionary
281
     1
  3
Normal
350
8152
100
AcDbDictionaryWithDefault
340
8152
  0
DICTIONARY
  5
8185
102
{ACAD_REACTORS
330
814F
102
}
330
814F
100
AcDbDictionary
281
     1
  3
A0
350
8186
  3
A1
350
8187
  3
A2
350
8188
  3
A3
350
8189
  3
A4
350
818A
  3
A5
350
818B
  3
A6
350
818C
  3
A7
350
818D
  3
A8
350
818E
  3
A9
350
818F
  3
B0
350
8190
  3
B1
350
8191
  3
B2
350
8192
  3
B3
350
8193
  3
B4
350
8194
  3
B5
350
8195
  3
B6
350
8196
  0
DICTIONARY
  5
81AA
102
{ACAD_REACTORS
330
814F
102
}
330
814F
100
AcDbDictionary
281
     1
  3
Imperial24
350
81AB
  0
DICTIONARY
  5
81A6
102
{ACAD_REACTORS
330
814F
102
}
330
814F
100
AcDbDictionary
281
     1
  3
Standard
350
81A7
  0
DICTIONARY
  5
816C
102
{ACAD_REACTORS
330
814F
102
}
330
814F
100
AcDbDictionary
281
     1
  3
2dWireframe
350
8172
  3
Basic
350
8171
  3
Brighten
350
8178
  3
ColorChange
350
817C
  3
Conceptual
350
8175
  3
Dim
350
8177
  3
EdgeColorOff
350
8184
  3
Facepattern
350
817B
  3
Flat
350
816D
  3
FlatWithEdges
350
816E
  3
Gouraud
350
816F
  3
GouraudWithEdges
350
8170
  3
Hidden
350
8174
  3
JitterOff
350
8182
  3
Linepattern
350
817A
  3
OverhangOff
350
8183
  3
Realistic
350
8176
  3
Shaded
350
8181
  3
Shaded with edges
350
8180
  3
Shades of Gray
350
817D
  3
Sketchy
350
817E
  3
Thicken
350
8179
  3
Wireframe
350
8173
  3
X-Ray
350
817F
  0
XRECORD
  5
8462
102
{ACAD_REACTORS
330
814F
102
}
330
814F
100
AcDbXrecord
280
     1
 90
        1
330
81A7
  0
DICTIONARY
  5
8455
102
{ACAD_REACTORS
330
814F
102
}
330
814F
100
AcDbDictionary
281
     1
  3
CANNOSCALE
350
845A
  3
CMLEADERSTYLE
350
8457
  3
CTABLESTYLE
350
8456
  3
CVIEWDETAILSTYLE
350
8458
  3
CVIEWSECTIONSTYLE
350
8459
  3
DIMASSOC
350
845D
  3
INDEXCTL
350
845C
  3
SORTENTS
350
845B
  3
XCLIPFRAME
350
845E
  0
XRECORD
  5
8463
102
{ACAD_REACTORS
330
814F
102
}
330
814F
100
AcDbXrecord
280
     1
  1
DWGPROPS COOKIE
  2

  3

  4

  6

  7

  8
yasukiyo.ogawa
  9

300
=
301
=
302
=
303
=
304
=
305
=
306
=
307
=
308
=
309
=
 40
0.0166977893518519
 41
2451389.569592593
 42
2460271.743771736
  1

 90
        0
  0
XRECORD
  5
844C
102
{ACAD_REACTORS
330
844B
102
}
330
844B
100
AcDbXrecord
280
     1
290
     1
  0
XRECORD
  5
844E
102
{ACAD_REACTORS
330
844D
102
}
330
844D
100
AcDbXrecord
280
     1
290
     1
  0
XRECORD
  5
8450
102
{ACAD_REACTORS
330
844F
102
}
330
844F
100
AcDbXrecord
280
     1
290
     1
  0
XRECORD
  5
8452
102
{ACAD_REACTORS
330
8451
102
}
330
8451
100
AcDbXrecord
280
     1
290
     1
  0
XRECORD
  5
8454
102
{ACAD_REACTORS
330
8453
102
}
330
8453
100
AcDbXrecord
280
     1
290
     1
  0
ACDBDETAILVIEWSTYLE
  5
81AD
102
{ACAD_XDICTIONARY
360
849B
102
}
102
{ACAD_REACTORS
330
81AC
102
}
330
81AC
100
AcDbModelDocViewStyle
 70
     0
  3
Imperial24
290
     0
100
AcDbDetailViewStyle
 70
     0
 71
     0
 90
        3
 71
     1
340
8198
 40
0.24
340
0
 40
0.24
300

 40
0.36
280
     3
 71
     2
340
819F
 90
       25
 71
     3
340
8198
 40
0.24
 90
        1
 40
0.75
 90
        1
300
%<\AcVar ViewType \f "%tc1">% %<\AcVar ViewDetailId>%\PSCALE %<\AcVar ViewScale \f "%sn">%
 71
     4
340
819F
 90
       25
340
819F
 90
       25
280
     0
  0
LAYOUT
  5
81B5
102
{ACAD_XDICTIONARY
360
849F
102
}
102
{ACAD_REACTORS
330
81A4
102
}
330
81A4
100
AcDbPlotSettings
  1

  2
RICOH imagio MP W3600 RPCS
  4

  6

 40
0.0
 41
0.0
 42
0.0
 43
0.0
 44
0.0
 45
0.0
 46
0.0
 47
0.0
 48
0.0
 49
0.0
140
0.0
141
0.0
142
1.0
143
1.0
 70
  1712
 72
     0
 73
     0
 74
     0
  7

 75
     0
147
1.0
148
0.0
149
0.0
100
AcDbLayout
  1
Model
 70
     1
 71
     0
 10
0.0
 20
0.0
 11
12.0
 21
9.0
 12
0.0
 22
0.0
 32
0.0
 14
0.0
 24
0.0
 34
0.0
 15
0.0
 25
0.0
 35
0.0
146
0.0
 13
0.0
 23
0.0
 33
0.0
 16
1.0
 26
0.0
 36
0.0
 17
0.0
 27
1.0
 37
0.0
 76
     0
330
81B2
331
81B7
  0
LAYOUT
  5
81B1
102
{ACAD_XDICTIONARY
360
849D
102
}
102
{ACAD_REACTORS
330
81A4
102
}
330
81A4
100
AcDbPlotSettings
  1

  2
RICOH imagio MP W3600 RPCS
  4

  6

 40
0.0
 41
0.0
 42
0.0
 43
0.0
 44
0.0
 45
0.0
 46
0.0
 47
0.0
 48
0.0
 49
0.0
140
0.0
141
0.0
142
1.0
143
1.0
 70
   688
 72
     0
 73
     0
 74
     5
  7

 75
    16
147
1.0
148
0.0
149
0.0
100
AcDbLayout
  1
レイアウト1
 70
     1
 71
     1
 10
0.0
 20
0.0
 11
12.0
 21
9.0
 12
0.0
 22
0.0
 32
0.0
 14
1.000000000000000E+20
 24
1.000000000000000E+20
 34
1.000000000000000E+20
 15
-1.000000000000000E+20
 25
-1.000000000000000E+20
 35
-1.000000000000000E+20
146
0.0
 13
0.0
 23
0.0
 33
0.0
 16
1.0
 26
0.0
 36
0.0
 17
0.0
 27
1.0
 37
0.0
 76
     0
330
81AE
  0
MATERIAL
  5
815C
102
{ACAD_XDICTIONARY
360
815D
102
}
102
{ACAD_REACTORS
330
8153
102
}
330
8153
100
AcDbMaterial
  1
ByBlock
 72
     0
 43
0.0208333333333333
 43
0.0
 43
0.0
 43
0.0
 43
0.0
 43
0.0208333333333333
 43
0.0
 43
0.0
 43
0.0
 43
0.0
 43
1.0
 43
0.0
 43
0.0
 43
0.0
 43
0.0
 43
1.0
 77
     0
 47
0.0208333333333333
 47
0.0
 47
0.0
 47
0.0
 47
0.0
 47
0.0208333333333333
 47
0.0
 47
0.0
 47
0.0
 47
0.0
 47
1.0
 47
0.0
 47
0.0
 47
0.0
 47
0.0
 47
1.0
171
     0
 49
0.0208333333333333
 49
0.0
 49
0.0
 49
0.0
 49
0.0
 49
0.0208333333333333
 49
0.0
 49
0.0
 49
0.0
 49
0.0
 49
1.0
 49
0.0
 49
0.0
 49
0.0
 49
0.0
 49
1.0
175
     0
142
0.0208333333333333
142
0.0
142
0.0
142
0.0
142
0.0
142
0.0208333333333333
142
0.0
142
0.0
142
0.0
142
0.0
142
1.0
142
0.0
142
0.0
142
0.0
142
0.0
142
1.0
179
     0
144
0.0208333333333333
144
0.0
144
0.0
144
0.0
144
0.0
144
0.0208333333333333
144
0.0
144
0.0
144
0.0
144
0.0
144
1.0
144
0.0
144
0.0
144
0.0
144
0.0
144
1.0
147
0.0208333333333333
147
0.0
147
0.0
147
0.0
147
0.0
147
0.0208333333333333
147
0.0
147
0.0
147
0.0
147
0.0
147
1.0
147
0.0
147
0.0
147
0.0
147
0.0
147
1.0
  0
MATERIAL
  5
8154
102
{ACAD_XDICTIONARY
360
8155
102
}
102
{ACAD_REACTORS
330
8153
102
}
330
8153
100
AcDbMaterial
  1
ByLayer
 72
     0
 43
0.0208333333333333
 43
0.0
 43
0.0
 43
0.0
 43
0.0
 43
0.0208333333333333
 43
0.0
 43
0.0
 43
0.0
 43
0.0
 43
1.0
 43
0.0
 43
0.0
 43
0.0
 43
0.0
 43
1.0
 77
     0
 47
0.0208333333333333
 47
0.0
 47
0.0
 47
0.0
 47
0.0
 47
0.0208333333333333
 47
0.0
 47
0.0
 47
0.0
 47
0.0
 47
1.0
 47
0.0
 47
0.0
 47
0.0
 47
0.0
 47
1.0
171
     0
 49
0.0208333333333333
 49
0.0
 49
0.0
 49
0.0
 49
0.0
 49
0.0208333333333333
 49
0.0
 49
0.0
 49
0.0
 49
0.0
 49
1.0
 49
0.0
 49
0.0
 49
0.0
 49
0.0
 49
1.0
175
     0
142
0.0208333333333333
142
0.0
142
0.0
142
0.0
142
0.0
142
0.0208333333333333
142
0.0
142
0.0
142
0.0
142
0.0
142
1.0
142
0.0
142
0.0
142
0.0
142
0.0
142
1.0
179
     0
144
0.0208333333333333
144
0.0
144
0.0
144
0.0
144
0.0
144
0.0208333333333333
144
0.0
144
0.0
144
0.0
144
0.0
144
1.0
144
0.0
144
0.0
144
0.0
144
0.0
144
1.0
147
0.0208333333333333
147
0.0
147
0.0
147
0.0
147
0.0
147
0.0208333333333333
147
0.0
147
0.0
147
0.0
147
0.0
147
1.0
147
0.0
147
0.0
147
0.0
147
0.0
147
1.0
  0
MATERIAL
  5
8164
102
{ACAD_XDICTIONARY
360
8165
102
}
102
{ACAD_REACTORS
330
8153
102
}
330
8153
100
AcDbMaterial
  1
Global
 72
     0
 43
0.0208333333333333
 43
0.0
 43
0.0
 43
0.0
 43
0.0
 43
0.0208333333333333
 43
0.0
 43
0.0
 43
0.0
 43
0.0
 43
1.0
 43
0.0
 43
0.0
 43
0.0
 43
0.0
 43
1.0
 77
     0
 47
0.0208333333333333
 47
0.0
 47
0.0
 47
0.0
 47
0.0
 47
0.0208333333333333
 47
0.0
 47
0.0
 47
0.0
 47
0.0
 47
1.0
 47
0.0
 47
0.0
 47
0.0
 47
0.0
 47
1.0
171
     0
 49
0.0208333333333333
 49
0.0
 49
0.0
 49
0.0
 49
0.0
 49
0.0208333333333333
 49
0.0
 49
0.0
 49
0.0
 49
0.0
 49
1.0
 49
0.0
 49
0.0
 49
0.0
 49
0.0
 49
1.0
175
     0
142
0.0208333333333333
142
0.0
142
0.0
142
0.0
142
0.0
142
0.0208333333333333
142
0.0
142
0.0
142
0.0
142
0.0
142
1.0
142
0.0
142
0.0
142
0.0
142
0.0
142
1.0
179
     0
144
0.0208333333333333
144
0.0
144
0.0
144
0.0
144
0.0
144
0.0208333333333333
144
0.0
144
0.0
144
0.0
144
0.0
144
1.0
144
0.0
144
0.0
144
0.0
144
0.0
144
1.0
147
0.0208333333333333
147
0.0
147
0.0
147
0.0
147
0.0
147
0.0208333333333333
147
0.0
147
0.0
147
0.0
147
0.0
147
1.0
147
0.0
147
0.0
147
0.0
147
0.0
147
1.0
  0
MLEADERSTYLE
  5
81A9
102
{ACAD_REACTORS
330
81A8
102
}
330
81A8
100
AcDbMLeaderStyle
170
     2
171
     1
172
     0
 90
        2
 40
0.0
 41
0.0
173
     1
 91
-1056964608
340
819D
 92
       -2
290
     1
 42
0.09
291
     1
 43
0.36
  3
Standard
 44
0.18
300

342
8198
174
     1
178
     6
175
     1
176
     0
 93
-1056964608
 45
0.18
292
     0
297
     0
 46
0.18
 94
-1056964608
 47
1.0
 49
1.0
140
1.0
293
     1
141
0.0
294
     1
177
     0
142
1.0
295
     0
296
     0
143
0.125
1001
ACAD_MLEADERVER
1070
     2
  0
MLINESTYLE
  5
81A2
102
{ACAD_REACTORS
330
81A1
102
}
330
81A1
100
AcDbMlineStyle
  2
STANDARD
 70
     0
  3

 62
   256
 51
90.0
 52
90.0
 71
     2
 49
0.5
 62
   256
  6
BYLAYER
 49
-0.5
 62
   256
  6
BYLAYER
  0
ACDBPLACEHOLDER
  5
8152
102
{ACAD_REACTORS
330
8151
102
}
330
8151
  0
SCALE
  5
8186
102
{ACAD_REACTORS
330
8185
102
}
330
8185
100
AcDbScale
 70
     0
300
1:1
140
1.0
141
1.0
290
     1
  0
SCALE
  5
8187
102
{ACAD_REACTORS
330
8185
102
}
330
8185
100
AcDbScale
 70
     0
300
1/128" = 1'-0"
140
0.0078125
141
12.0
290
     0
  0
SCALE
  5
8188
102
{ACAD_REACTORS
330
8185
102
}
330
8185
100
AcDbScale
 70
     0
300
1/64" = 1'-0"
140
0.015625
141
12.0
290
     0
  0
SCALE
  5
8189
102
{ACAD_REACTORS
330
8185
102
}
330
8185
100
AcDbScale
 70
     0
300
1/32" = 1'-0"
140
0.03125
141
12.0
290
     0
  0
SCALE
  5
818A
102
{ACAD_REACTORS
330
8185
102
}
330
8185
100
AcDbScale
 70
     0
300
1/16" = 1'-0"
140
0.0625
141
12.0
290
     0
  0
SCALE
  5
818B
102
{ACAD_REACTORS
330
8185
102
}
330
8185
100
AcDbScale
 70
     0
300
3/32" = 1'-0"
140
0.09375
141
12.0
290
     0
  0
SCALE
  5
818C
102
{ACAD_REACTORS
330
8185
102
}
330
8185
100
AcDbScale
 70
     0
300
1/8" = 1'-0"
140
0.125
141
12.0
290
     0
  0
SCALE
  5
818D
102
{ACAD_REACTORS
330
8185
102
}
330
8185
100
AcDbScale
 70
     0
300
3/16" = 1'-0"
140
0.1875
141
12.0
290
     0
  0
SCALE
  5
818E
102
{ACAD_REACTORS
330
8185
102
}
330
8185
100
AcDbScale
 70
     0
300
1/4" = 1'-0"
140
0.25
141
12.0
290
     0
  0
SCALE
  5
818F
102
{ACAD_REACTORS
330
8185
102
}
330
8185
100
AcDbScale
 70
     0
300
3/8" = 1'-0"
140
0.375
141
12.0
290
     0
  0
SCALE
  5
8190
102
{ACAD_REACTORS
330
8185
102
}
330
8185
100
AcDbScale
 70
     0
300
1/2" = 1'-0"
140
0.5
141
12.0
290
     0
  0
SCALE
  5
8191
102
{ACAD_REACTORS
330
8185
102
}
330
8185
100
AcDbScale
 70
     0
300
3/4" = 1'-0"
140
0.75
141
12.0
290
     0
  0
SCALE
  5
8192
102
{ACAD_REACTORS
330
8185
102
}
330
8185
100
AcDbScale
 70
     0
300
1" = 1'-0"
140
1.0
141
12.0
290
     0
  0
SCALE
  5
8193
102
{ACAD_REACTORS
330
8185
102
}
330
8185
100
AcDbScale
 70
     0
300
1-1/2" = 1'-0"
140
1.5
141
12.0
290
     0
  0
SCALE
  5
8194
102
{ACAD_REACTORS
330
8185
102
}
330
8185
100
AcDbScale
 70
     0
300
3" = 1'-0"
140
3.0
141
12.0
290
     0
  0
SCALE
  5
8195
102
{ACAD_REACTORS
330
8185
102
}
330
8185
100
AcDbScale
 70
     0
300
6" = 1'-0"
140
6.0
141
12.0
290
     0
  0
SCALE
  5
8196
102
{ACAD_REACTORS
330
8185
102
}
330
8185
100
AcDbScale
 70
     0
300
1'-0" = 1'-0"
140
12.0
141
12.0
290
     0
  0
ACDBSECTIONVIEWSTYLE
  5
81AB
102
{ACAD_XDICTIONARY
360
8499
102
}
102
{ACAD_REACTORS
330
81AA
102
}
330
81AA
100
AcDbModelDocViewStyle
 70
     0
  3
Imperial24
290
     0
100
AcDbSectionViewStyle
 70
     0
 71
     0
 90
       78
 71
     1
340
8198
 40
0.24
340
0
340
0
 40
0.24
300
I, O, Q, S, X, Z
 40
0.48
 90
        3
 40
0.18
 90
        1
 71
     2
340
819F
 90
       25
340
819F
 90
       50
 40
0.24
 40
0.0
 40
0.24
 71
     3
340
8198
 40
0.24
 90
        1
 40
0.75
 90
        1
300
%<\AcVar ViewType \f "%tc1">% %<\AcVar ViewSectionStartId>%-%<\AcVar ViewSectionEndId>%\PSCALE %<\AcVar ViewScale \f "%sn">%
 71
     4
300
ANSI31
 40
1.0
 90
        0
290
     0
290
     0
 90
        6
 40
0.0
 40
1.570796326794896
 40
0.2617993877991494
 40
1.308996938995747
 40
-0.2617993877991494
 40
1.832595714594046
  0
TABLESTYLE
  5
81A7
102
{ACAD_XDICTIONARY
360
8460
102
}
102
{ACAD_REACTORS
330
81A6
102
}
330
81A6
100
AcDbTableStyle
  3
Standard
 70
     0
 71
     0
 40
0.06
 41
0.06
280
     0
281
     0
  7
STANDARD
140
0.18
170
     2
 62
     0
 63
     7
283
     0
274
    -2
284
     1
 64
     0
275
    -2
285
     1
 65
     0
276
    -2
286
     1
 66
     0
277
    -2
287
     1
 67
     0
278
    -2
288
     1
 68
     0
279
    -2
289
     1
 69
     0
  7
STANDARD
140
0.25
170
     5
 62
     0
 63
     7
283
     0
274
    -2
284
     1
 64
     0
275
    -2
285
     1
 65
     0
276
    -2
286
     1
 66
     0
277
    -2
287
     1
 67
     0
278
    -2
288
     1
 68
     0
279
    -2
289
     1
 69
     0
  7
STANDARD
140
0.18
170
     5
 62
     0
 63
     7
283
     0
274
    -2
284
     1
 64
     0
275
    -2
285
     1
 65
     0
276
    -2
286
     1
 66
     0
277
    -2
287
     1
 67
     0
278
    -2
288
     1
 68
     0
279
    -2
289
     1
 69
     0
  0
VISUALSTYLE
  5
8172
102
{ACAD_XDICTIONARY
360
8471
102
}
102
{ACAD_REACTORS
330
816C
102
}
330
816C
100
AcDbVisualStyle
  2
2dWireframe
 70
     4
 71
     0
 72
     2
 73
     0
 90
        0
 40
-0.6
 41
-30.0
 62
     5
 63
     7
 74
     1
 91
        4
 64
     7
 65
   257
 75
     1
175
     1
 42
1.0
 92
        0
 66
   257
 43
1.0
 76
     1
 77
     6
 78
     2
 67
     7
 79
     5
170
     0
171
     0
290
     0
174
     0
 93
        1
 44
0.0
173
     0
291
     0
 45
0.0
1001
ACAD
1000
AcDbSavedByObjectVersion
1070
     0
  0
VISUALSTYLE
  5
8171
102
{ACAD_XDICTIONARY
360
846F
102
}
102
{ACAD_REACTORS
330
816C
102
}
330
816C
100
AcDbVisualStyle
  2
Basic
 70
     7
 71
     1
 72
     0
 73
     1
 90
        0
 40
-0.6
 41
-30.0
 62
     5
 63
     7
 74
     0
 91
        4
 64
     7
 65
   257
 75
     1
175
     1
 42
1.0
 92
        8
 66
     7
 43
1.0
 76
     1
 77
     6
 78
     2
 67
     7
 79
     5
170
     0
171
     0
290
     0
174
     0
 93
        1
 44
0.0
173
     0
291
     1
 45
0.0
1001
ACAD
1000
AcDbSavedByObjectVersion
1070
     0
  0
VISUALSTYLE
  5
8178
102
{ACAD_XDICTIONARY
360
847D
102
}
102
{ACAD_REACTORS
330
816C
102
}
330
816C
100
AcDbVisualStyle
  2
Brighten
 70
    12
 71
     2
 72
     2
 73
     0
 90
        0
 40
-0.6
 41
-30.0
 62
     5
 63
     7
 74
     1
 91
        4
 64
     7
 65
   257
 75
     1
175
     1
 42
1.0
 92
        8
 66
     7
 43
1.0
 76
     1
 77
     6
 78
     2
 67
     7
 79
     5
170
     0
171
     0
290
     0
174
     0
 93
        1
 44
50.0
173
     0
291
     1
 45
0.0
1001
ACAD
1000
AcDbSavedByObjectVersion
1070
     0
  0
VISUALSTYLE
  5
817C
102
{ACAD_XDICTIONARY
360
8485
102
}
102
{ACAD_REACTORS
330
816C
102
}
330
816C
100
AcDbVisualStyle
  2
ColorChange
 70
    16
 71
     2
 72
     2
 73
     3
 90
        0
 40
-0.6
 41
-30.0
 62
     5
 63
     8
 74
     1
 91
        4
 64
     7
 65
   257
 75
     1
175
     1
 42
1.0
 92
        8
 66
     8
 43
1.0
 76
     1
 77
     6
 78
     2
 67
     7
 79
     5
170
     0
171
     0
290
     0
174
     0
 93
        1
 44
0.0
173
     0
291
     1
 45
0.0
1001
ACAD
1000
AcDbSavedByObjectVersion
1070
     0
  0
VISUALSTYLE
  5
8175
102
{ACAD_XDICTIONARY
360
8477
102
}
102
{ACAD_REACTORS
330
816C
102
}
330
816C
100
AcDbVisualStyle
  2
Conceptual
 70
     9
 71
     3
 72
     2
 73
     0
 90
        0
 40
-0.6
 41
-30.0
 62
     5
 63
     7
 74
     2
 91
        2
 64
     7
 65
   257
 75
     1
175
     1
 42
179.0
 92
        8
 66
     7
 43
1.0
 76
     1
 77
     6
 78
     2
 67
     7
 79
     3
170
     0
171
     0
290
     0
174
     0
 93
        1
 44
0.0
173
     0
291
     0
 45
0.0
1001
ACAD
1000
AcDbSavedByObjectVersion
1070
     0
  0
VISUALSTYLE
  5
8177
102
{ACAD_XDICTIONARY
360
847B
102
}
102
{ACAD_REACTORS
330
816C
102
}
330
816C
100
AcDbVisualStyle
  2
Dim
 70
    11
 71
     2
 72
     2
 73
     0
 90
        0
 40
-0.6
 41
-30.0
 62
     5
 63
     7
 74
     1
 91
        4
 64
     7
 65
   257
 75
     1
175
     1
 42
1.0
 92
        8
 66
     7
 43
1.0
 76
     1
 77
     6
 78
     2
 67
     7
 79
     5
170
     0
171
     0
290
     0
174
     0
 93
        1
 44
-50.0
173
     0
291
     1
 45
0.0
1001
ACAD
1000
AcDbSavedByObjectVersion
1070
     0
  0
VISUALSTYLE
  5
8184
102
{ACAD_XDICTIONARY
360
8495
102
}
102
{ACAD_REACTORS
330
816C
102
}
330
816C
100
AcDbVisualStyle
  2
EdgeColorOff
 70
    22
 71
     2
 72
     2
 73
     0
 90
        0
 40
-0.6
 41
-30.0
 62
     5
 63
     7
 74
     1
 91
        4
 64
     7
 65
   257
 75
     1
175
     1
 42
1.0
 92
        8
 66
     7
 43
1.0
 76
     1
 77
     6
 78
     2
 67
     7
 79
     5
170
     0
171
     0
290
     0
174
     0
 93
        1
 44
0.0
173
     0
291
     1
 45
0.0
1001
ACAD
1000
AcDbSavedByObjectVersion
1070
     0
  0
VISUALSTYLE
  5
817B
102
{ACAD_XDICTIONARY
360
8483
102
}
102
{ACAD_REACTORS
330
816C
102
}
330
816C
100
AcDbVisualStyle
  2
Facepattern
 70
    15
 71
     2
 72
     2
 73
     0
 90
        0
 40
-0.6
 41
-30.0
 62
     5
 63
     7
 74
     1
 91
        4
 64
     7
 65
   257
 75
     1
175
     1
 42
1.0
 92
        8
 66
     7
 43
1.0
 76
     1
 77
     6
 78
     2
 67
     7
 79
     5
170
     0
171
     0
290
     0
174
     0
 93
        1
 44
0.0
173
     0
291
     1
 45
0.0
1001
ACAD
1000
AcDbSavedByObjectVersion
1070
     0
  0
VISUALSTYLE
  5
816D
102
{ACAD_XDICTIONARY
360
8467
102
}
102
{ACAD_REACTORS
330
816C
102
}
330
816C
100
AcDbVisualStyle
  2
Flat
 70
     0
 71
     2
 72
     1
 73
     1
 90
        2
 40
-0.6
 41
30.0
 62
     5
 63
     7
 74
     0
 91
        0
 64
     7
 65
   257
 75
     1
175
     1
 42
1.0
 92
        8
 66
     7
 43
1.0
 76
     1
 77
     6
 78
     2
 67
     7
 79
     5
170
     0
171
     0
290
     0
174
     0
 93
       13
 44
0.0
173
     0
291
     1
 45
0.0
1001
ACAD
1000
AcDbSavedByObjectVersion
1070
     0
  0
VISUALSTYLE
  5
816E
102
{ACAD_XDICTIONARY
360
8469
102
}
102
{ACAD_REACTORS
330
816C
102
}
330
816C
100
AcDbVisualStyle
  2
FlatWithEdges
 70
     1
 71
     2
 72
     1
 73
     1
 90
        2
 40
-0.6
 41
30.0
 62
     5
 63
     7
 74
     1
 91
        0
 64
     7
 65
   257
 75
     1
175
     1
 42
1.0
 92
        0
 66
   257
 43
1.0
 76
     1
 77
     6
 78
     2
 67
     7
 79
     5
170
     0
171
     0
290
     0
174
     0
 93
       13
 44
0.0
173
     0
291
     1
 45
0.0
1001
ACAD
1000
AcDbSavedByObjectVersion
1070
     0
  0
VISUALSTYLE
  5
816F
102
{ACAD_XDICTIONARY
360
846B
102
}
102
{ACAD_REACTORS
330
816C
102
}
330
816C
100
AcDbVisualStyle
  2
Gouraud
 70
     2
 71
     2
 72
     2
 73
     1
 90
        2
 40
-0.6
 41
30.0
 62
     5
 63
     7
 74
     0
 91
        0
 64
     7
 65
   257
 75
     1
175
     1
 42
1.0
 92
        0
 66
     7
 43
1.0
 76
     1
 77
     6
 78
     2
 67
     7
 79
     5
170
     0
171
     0
290
     0
174
     0
 93
       13
 44
0.0
173
     0
291
     1
 45
0.0
1001
ACAD
1000
AcDbSavedByObjectVersion
1070
     0
  0
VISUALSTYLE
  5
8170
102
{ACAD_XDICTIONARY
360
846D
102
}
102
{ACAD_REACTORS
330
816C
102
}
330
816C
100
AcDbVisualStyle
  2
GouraudWithEdges
 70
     3
 71
     2
 72
     2
 73
     1
 90
        2
 40
-0.6
 41
30.0
 62
     5
 63
     7
 74
     1
 91
        0
 64
     7
 65
   257
 75
     1
175
     1
 42
1.0
 92
        0
 66
   257
 43
1.0
 76
     1
 77
     6
 78
     2
 67
     7
 79
     5
170
     0
171
     0
290
     0
174
     0
 93
       13
 44
0.0
173
     0
291
     1
 45
0.0
1001
ACAD
1000
AcDbSavedByObjectVersion
1070
     0
  0
VISUALSTYLE
  5
8174
102
{ACAD_XDICTIONARY
360
8475
102
}
102
{ACAD_REACTORS
330
816C
102
}
330
816C
100
AcDbVisualStyle
  2
Hidden
 70
     6
 71
     1
 72
     2
 73
     2
 90
        0
 40
-0.6
 41
-30.0
 62
     5
 63
     7
 74
     2
 91
        2
 64
     7
 65
   257
 75
     2
175
     1
 42
40.0
 92
        0
 66
   257
 43
1.0
 76
     1
 77
     6
 78
     2
 67
     7
 79
     3
170
     0
171
     0
290
     0
174
     0
 93
        1
 44
0.0
173
     0
291
     0
 45
0.0
1001
ACAD
1000
AcDbSavedByObjectVersion
1070
     0
  0
VISUALSTYLE
  5
8182
102
{ACAD_XDICTIONARY
360
8491
102
}
102
{ACAD_REACTORS
330
816C
102
}
330
816C
100
AcDbVisualStyle
  2
JitterOff
 70
    20
 71
     2
 72
     2
 73
     0
 90
        0
 40
-0.6
 41
-30.0
 62
     5
 63
     7
 74
     1
 91
        4
 64
     7
 65
   257
 75
     1
175
     1
 42
1.0
 92
       10
 66
     7
 43
1.0
 76
     1
 77
     6
 78
     2
 67
     7
 79
     5
170
     0
171
     0
290
     0
174
     0
 93
        1
 44
0.0
173
     0
291
     1
 45
0.0
1001
ACAD
1000
AcDbSavedByObjectVersion
1070
     0
  0
VISUALSTYLE
  5
817A
102
{ACAD_XDICTIONARY
360
8481
102
}
102
{ACAD_REACTORS
330
816C
102
}
330
816C
100
AcDbVisualStyle
  2
Linepattern
 70
    14
 71
     2
 72
     2
 73
     0
 90
        0
 40
-0.6
 41
-30.0
 62
     5
 63
     7
 74
     1
 91
        4
 64
     7
 65
   257
 75
     7
175
     7
 42
1.0
 92
        8
 66
     7
 43
1.0
 76
     1
 77
     6
 78
     2
 67
     7
 79
     5
170
     0
171
     0
290
     0
174
     0
 93
        1
 44
0.0
173
     0
291
     1
 45
0.0
1001
ACAD
1000
AcDbSavedByObjectVersion
1070
     0
  0
VISUALSTYLE
  5
8183
102
{ACAD_XDICTIONARY
360
8493
102
}
102
{ACAD_REACTORS
330
816C
102
}
330
816C
100
AcDbVisualStyle
  2
OverhangOff
 70
    21
 71
     2
 72
     2
 73
     0
 90
        0
 40
-0.6
 41
-30.0
 62
     5
 63
     7
 74
     1
 91
        4
 64
     7
 65
   257
 75
     1
175
     1
 42
1.0
 92
        9
 66
     7
 43
1.0
 76
     1
 77
     6
 78
     2
 67
     7
 79
     5
170
     0
171
     0
290
     0
174
     0
 93
        1
 44
0.0
173
     0
291
     1
 45
0.0
1001
ACAD
1000
AcDbSavedByObjectVersion
1070
     0
  0
VISUALSTYLE
  5
8176
102
{ACAD_XDICTIONARY
360
8479
102
}
102
{ACAD_REACTORS
330
816C
102
}
330
816C
100
AcDbVisualStyle
  2
Realistic
 70
     8
 71
     2
 72
     3
 73
     0
 90
        2
 40
-0.6
 41
30.0
 62
     5
 63
     7
 74
     0
 91
        0
 64
     7
 65
   257
 75
     1
175
     1
 42
1.0
 92
        8
 66
   257
 43
1.0
 76
     1
 77
     6
 78
     2
 67
     7
 79
     3
170
     0
171
     0
290
     0
174
     0
 93
       13
 44
0.0
173
     0
291
     0
 45
0.0
1001
ACAD
1000
AcDbSavedByObjectVersion
1070
     0
  0
VISUALSTYLE
  5
8181
102
{ACAD_XDICTIONARY
360
848F
102
}
102
{ACAD_REACTORS
330
816C
102
}
330
816C
100
AcDbVisualStyle
  2
Shaded
 70
    27
 71
     2
 72
     2
 73
     1
 90
        2
 40
-0.6
 41
30.0
 62
     5
 63
     7
 74
     0
 91
        4
 64
     7
 65
   257
 75
     1
175
     1
 42
1.0
 92
        8
 66
   257
 43
1.0
 76
     1
 77
     6
 78
     2
 67
     8
 79
     3
170
     0
171
     0
290
     0
174
     0
 93
        5
 44
0.0
173
     0
291
     0
 45
0.0
1001
ACAD
1000
AcDbSavedByObjectVersion
1070
     0
  0
VISUALSTYLE
  5
8180
102
{ACAD_XDICTIONARY
360
848D
102
}
102
{ACAD_REACTORS
330
816C
102
}
330
816C
100
AcDbVisualStyle
  2
Shaded with edges
 70
    26
 71
     2
 72
     2
 73
     1
 90
        2
 40
-0.6
 41
30.0
 62
     5
 63
     7
 74
     1
 91
       10
 64
     7
 65
   257
 75
     2
175
     1
 42
1.0
 92
        8
 66
   257
 43
1.0
 76
     1
 77
     6
 78
     2
 67
     7
 79
     3
170
     0
171
     0
290
     0
174
     0
 93
        5
 44
0.0
173
     0
291
     0
 45
0.0
1001
ACAD
1000
AcDbSavedByObjectVersion
1070
     0
  0
VISUALSTYLE
  5
817D
102
{ACAD_XDICTIONARY
360
8487
102
}
102
{ACAD_REACTORS
330
816C
102
}
330
816C
100
AcDbVisualStyle
  2
Shades of Gray
 70
    23
 71
     2
 72
     2
 73
     3
 90
        0
 40
-0.6
 41
-30.0
 62
     5
 63
     7
 74
     2
 91
        2
 64
     7
 65
     7
 75
     1
175
     1
 42
40.0
 92
        8
 66
     7
 43
1.0
 76
     1
 77
     6
 78
     2
 67
     7
 79
     3
170
     0
171
     0
290
     0
174
     0
 93
        1
 44
0.0
173
     0
291
     0
 45
0.0
1001
ACAD
1000
AcDbSavedByObjectVersion
1070
     0
  0
VISUALSTYLE
  5
817E
102
{ACAD_XDICTIONARY
360
8489
102
}
102
{ACAD_REACTORS
330
816C
102
}
330
816C
100
AcDbVisualStyle
  2
Sketchy
 70
    24
 71
     1
 72
     2
 73
     2
 90
        0
 40
-0.6
 41
-30.0
 62
     5
 63
     7
 74
     2
 91
        2
 64
     7
 65
     7
 75
     1
175
     1
 42
40.0
 92
       11
 66
     7
 43
1.0
 76
     1
 77
     6
 78
     2
 67
     7
 79
     6
170
     0
171
     0
290
     0
174
     0
 93
        1
 44
0.0
173
     0
291
     0
 45
0.0
1001
ACAD
1000
AcDbSavedByObjectVersion
1070
     0
  0
VISUALSTYLE
  5
8179
102
{ACAD_XDICTIONARY
360
847F
102
}
102
{ACAD_REACTORS
330
816C
102
}
330
816C
100
AcDbVisualStyle
  2
Thicken
 70
    13
 71
     2
 72
     2
 73
     0
 90
        0
 40
-0.6
 41
-30.0
 62
     5
 63
     7
 74
     1
 91
        4
 64
     7
 65
   257
 75
     1
175
     1
 42
1.0
 92
       12
 66
     7
 43
1.0
 76
     1
 77
     6
 78
     2
 67
     7
 79
     5
170
     0
171
     0
290
     0
174
     0
 93
        1
 44
0.0
173
     0
291
     1
 45
0.0
1001
ACAD
1000
AcDbSavedByObjectVersion
1070
     0
  0
VISUALSTYLE
  5
8173
102
{ACAD_XDICTIONARY
360
8473
102
}
102
{ACAD_REACTORS
330
816C
102
}
330
816C
100
AcDbVisualStyle
  2
Wireframe
 70
     5
 71
     0
 72
     2
 73
     0
 90
        0
 40
-0.6
 41
-30.0
 62
     5
 63
     7
 74
     1
 91
        4
 64
     7
 65
   257
 75
     1
175
     1
 42
1.0
 92
        0
 66
   257
 43
1.0
 76
     1
 77
     6
 78
     2
 67
     7
 79
     3
170
     0
171
     0
290
     0
174
     0
 93
        1
 44
0.0
173
     0
291
     0
 45
0.0
1001
ACAD
1000
AcDbSavedByObjectVersion
1070
     0
  0
VISUALSTYLE
  5
817F
102
{ACAD_XDICTIONARY
360
848B
102
}
102
{ACAD_REACTORS
330
816C
102
}
330
816C
100
AcDbVisualStyle
  2
X-Ray
 70
    25
 71
     2
 72
     2
 73
     1
 90
        1
 40
0.5
 41
-30.0
 62
     5
 63
     7
 74
     1
 91
        0
 64
     7
 65
   257
 75
     1
175
     1
 42
1.0
 92
        8
 66
     7
 43
1.0
 76
     1
 77
     6
 78
     2
 67
     7
 79
     3
170
     0
171
     0
290
     0
174
     0
 93
       13
 44
0.0
173
     0
291
     0
 45
0.0
1001
ACAD
1000
AcDbSavedByObjectVersion
1070
     0
  0
DICTIONARYVAR
  5
845A
102
{ACAD_REACTORS
330
8455
102
}
330
8455
100
DictionaryVariables
280
     0
  1
1:1
  0
DICTIONARYVAR
  5
8457
102
{ACAD_REACTORS
330
8455
102
}
330
8455
100
DictionaryVariables
280
     0
  1
STANDARD
  0
DICTIONARYVAR
  5
8456
102
{ACAD_REACTORS
330
8455
102
}
330
8455
100
DictionaryVariables
280
     0
  1
STANDARD
  0
DICTIONARYVAR
  5
8458
102
{ACAD_REACTORS
330
8455
102
}
330
8455
100
DictionaryVariables
280
     0
  1
Imperial24
  0
DICTIONARYVAR
  5
8459
102
{ACAD_REACTORS
330
8455
102
}
330
8455
100
DictionaryVariables
280
     0
  1
Imperial24
  0
DICTIONARYVAR
  5
845D
102
{ACAD_REACTORS
330
8455
102
}
330
8455
100
DictionaryVariables
280
     0
  1
1
  0
DICTIONARYVAR
  5
845C
102
{ACAD_REACTORS
330
8455
102
}
330
8455
100
DictionaryVariables
280
     0
  1
0
  0
DICTIONARYVAR
  5
845B
102
{ACAD_REACTORS
330
8455
102
}
330
8455
100
DictionaryVariables
280
     0
  1
127
  0
DICTIONARYVAR
  5
845E
102
{ACAD_REACTORS
330
8455
102
}
330
8455
100
DictionaryVariables
280
     0
  1
2
  0
DICTIONARY
  5
849B
330
81AD
100
AcDbDictionary
280
     1
281
     1
  3
ACAD_XREC_ROUNDTRIP
360
849C
  0
DICTIONARY
  5
849F
330
81B5
100
AcDbDictionary
280
     1
281
     1
  3
ACAD_XREC_ROUNDTRIP
360
84A0
  0
DICTIONARY
  5
849D
330
81B1
100
AcDbDictionary
280
     1
281
     1
  3
ACAD_XREC_ROUNDTRIP
360
849E
  0
DICTIONARY
  5
815D
330
815C
100
AcDbDictionary
280
     1
281
     1
  3
ACAD_XREC_ROUNDTRIP
360
8465
  3
BUMPTILE
360
815F
  3
DIFFUSETILE
360
815E
  3
OPACITYTILE
360
8162
  3
REFLECTIONTILE
360
8161
  3
REFRACTIONTILE
360
8163
  3
SPECULARTILE
360
8160
  0
DICTIONARY
  5
8155
330
8154
100
AcDbDictionary
280
     1
281
     1
  3
ACAD_XREC_ROUNDTRIP
360
8464
  3
BUMPTILE
360
8157
  3
DIFFUSETILE
360
8156
  3
OPACITYTILE
360
815A
  3
REFLECTIONTILE
360
8159
  3
REFRACTIONTILE
360
815B
  3
SPECULARTILE
360
8158
  0
DICTIONARY
  5
8165
330
8164
100
AcDbDictionary
280
     1
281
     1
  3
ACAD_XREC_ROUNDTRIP
360
8466
  3
BUMPTILE
360
8167
  3
DIFFUSETILE
360
8166
  3
FBXASSET
360
82A1
  3
OPACITYTILE
360
816A
  3
REFLECTIONTILE
360
8169
  3
REFRACTIONTILE
360
816B
  3
SPECULARTILE
360
8168
  0
DICTIONARY
  5
8499
330
81AB
100
AcDbDictionary
280
     1
281
     1
  3
ACAD_XREC_ROUNDTRIP
360
849A
  0
DICTIONARY
  5
8460
330
81A7
100
AcDbDictionary
280
     1
281
     1
  3
ACAD_ROUNDTRIP_2008_TABLESTYLE_CELLSTYLEMAP
360
8461
  3
ACAD_XREC_ROUNDTRIP
360
8497
  0
DICTIONARY
  5
8471
330
8172
100
AcDbDictionary
280
     1
281
     1
  3
ACAD_XREC_ROUNDTRIP
360
8472
  0
DICTIONARY
  5
846F
330
8171
100
AcDbDictionary
280
     1
281
     1
  3
ACAD_XREC_ROUNDTRIP
360
8470
  0
DICTIONARY
  5
847D
330
8178
100
AcDbDictionary
280
     1
281
     1
  3
ACAD_XREC_ROUNDTRIP
360
847E
  0
DICTIONARY
  5
8485
330
817C
100
AcDbDictionary
280
     1
281
     1
  3
ACAD_XREC_ROUNDTRIP
360
8486
  0
DICTIONARY
  5
8477
330
8175
100
AcDbDictionary
280
     1
281
     1
  3
ACAD_XREC_ROUNDTRIP
360
8478
  0
DICTIONARY
  5
847B
330
8177
100
AcDbDictionary
280
     1
281
     1
  3
ACAD_XREC_ROUNDTRIP
360
847C
  0
DICTIONARY
  5
8495
330
8184
100
AcDbDictionary
280
     1
281
     1
  3
ACAD_XREC_ROUNDTRIP
360
8496
  0
DICTIONARY
  5
8483
330
817B
100
AcDbDictionary
280
     1
281
     1
  3
ACAD_XREC_ROUNDTRIP
360
8484
  0
DICTIONARY
  5
8467
330
816D
100
AcDbDictionary
280
     1
281
     1
  3
ACAD_XREC_ROUNDTRIP
360
8468
  0
DICTIONARY
  5
8469
330
816E
100
AcDbDictionary
280
     1
281
     1
  3
ACAD_XREC_ROUNDTRIP
360
846A
  0
DICTIONARY
  5
846B
330
816F
100
AcDbDictionary
280
     1
281
     1
  3
ACAD_XREC_ROUNDTRIP
360
846C
  0
DICTIONARY
  5
846D
330
8170
100
AcDbDictionary
280
     1
281
     1
  3
ACAD_XREC_ROUNDTRIP
360
846E
  0
DICTIONARY
  5
8475
330
8174
100
AcDbDictionary
280
     1
281
     1
  3
ACAD_XREC_ROUNDTRIP
360
8476
  0
DICTIONARY
  5
8491
330
8182
100
AcDbDictionary
280
     1
281
     1
  3
ACAD_XREC_ROUNDTRIP
360
8492
  0
DICTIONARY
  5
8481
330
817A
100
AcDbDictionary
280
     1
281
     1
  3
ACAD_XREC_ROUNDTRIP
360
8482
  0
DICTIONARY
  5
8493
330
8183
100
AcDbDictionary
280
     1
281
     1
  3
ACAD_XREC_ROUNDTRIP
360
8494
  0
DICTIONARY
  5
8479
330
8176
100
AcDbDictionary
280
     1
281
     1
  3
ACAD_XREC_ROUNDTRIP
360
847A
  0
DICTIONARY
  5
848F
330
8181
100
AcDbDictionary
280
     1
281
     1
  3
ACAD_XREC_ROUNDTRIP
360
8490
  0
DICTIONARY
  5
848D
330
8180
100
AcDbDictionary
280
     1
281
     1
  3
ACAD_XREC_ROUNDTRIP
360
848E
  0
DICTIONARY
  5
8487
330
817D
100
AcDbDictionary
280
     1
281
     1
  3
ACAD_XREC_ROUNDTRIP
360
8488
  0
DICTIONARY
  5
8489
330
817E
100
AcDbDictionary
280
     1
281
     1
  3
ACAD_XREC_ROUNDTRIP
360
848A
  0
DICTIONARY
  5
847F
330
8179
100
AcDbDictionary
280
     1
281
     1
  3
ACAD_XREC_ROUNDTRIP
360
8480
  0
DICTIONARY
  5
8473
330
8173
100
AcDbDictionary
280
     1
281
     1
  3
ACAD_XREC_ROUNDTRIP
360
8474
  0
DICTIONARY
  5
848B
330
817F
100
AcDbDictionary
280
     1
281
     1
  3
ACAD_XREC_ROUNDTRIP
360
848C
  0
XRECORD
  5
849C
102
{ACAD_REACTORS
330
849B
102
}
330
849B
100
AcDbXrecord
280
     1
102
DISPLAYNAME
  1
Imperial24
102
FLAGS
 90
        0
  0
XRECORD
  5
84A0
102
{ACAD_REACTORS
330
849F
102
}
330
849F
100
AcDbXrecord
280
     1
102
SHADEPLOT
 70
     0
102
SHADEPLOTRESLEVEL
 70
     2
102
SHADEPLOTCUSTOMDPI
 70
   300
  0
XRECORD
  5
849E
102
{ACAD_REACTORS
330
849D
102
}
330
849D
100
AcDbXrecord
280
     1
102
SHADEPLOT
 70
     0
102
SHADEPLOTRESLEVEL
 70
     2
102
SHADEPLOTCUSTOMDPI
 70
   300
  0
XRECORD
  5
8465
102
{ACAD_REACTORS
330
815D
102
}
330
815D
100
AcDbXrecord
280
     1
102
MATERIAL
148
0.0
149
0.0
149
0.0
 93
        0
 94
      127
282
     0
 72
     0
 77
     0
171
     0
175
     0
179
     0
273
     0
  0
XRECORD
  5
815F
102
{ACAD_REACTORS
330
815D
102
}
330
815D
100
AcDbXrecord
280
     1
270
     1
271
     1
  0
XRECORD
  5
815E
102
{ACAD_REACTORS
330
815D
102
}
330
815D
100
AcDbXrecord
280
     1
270
     1
271
     1
  0
XRECORD
  5
8162
102
{ACAD_REACTORS
330
815D
102
}
330
815D
100
AcDbXrecord
280
     1
270
     1
271
     1
  0
XRECORD
  5
8161
102
{ACAD_REACTORS
330
815D
102
}
330
815D
100
AcDbXrecord
280
     1
270
     1
271
     1
  0
XRECORD
  5
8163
102
{ACAD_REACTORS
330
815D
102
}
330
815D
100
AcDbXrecord
280
     1
270
     1
271
     1
  0
XRECORD
  5
8160
102
{ACAD_REACTORS
330
815D
102
}
330
815D
100
AcDbXrecord
280
     1
270
     1
271
     1
  0
XRECORD
  5
8464
102
{ACAD_REACTORS
330
8155
102
}
330
8155
100
AcDbXrecord
280
     1
102
MATERIAL
148
0.0
149
0.0
149
0.0
 93
        0
 94
      127
282
     0
 72
     0
 77
     0
171
     0
175
     0
179
     0
273
     0
  0
XRECORD
  5
8157
102
{ACAD_REACTORS
330
8155
102
}
330
8155
100
AcDbXrecord
280
     1
270
     1
271
     1
  0
XRECORD
  5
8156
102
{ACAD_REACTORS
330
8155
102
}
330
8155
100
AcDbXrecord
280
     1
270
     1
271
     1
  0
XRECORD
  5
815A
102
{ACAD_REACTORS
330
8155
102
}
330
8155
100
AcDbXrecord
280
     1
270
     1
271
     1
  0
XRECORD
  5
8159
102
{ACAD_REACTORS
330
8155
102
}
330
8155
100
AcDbXrecord
280
     1
270
     1
271
     1
  0
XRECORD
  5
815B
102
{ACAD_REACTORS
330
8155
102
}
330
8155
100
AcDbXrecord
280
     1
270
     1
271
     1
  0
XRECORD
  5
8158
102
{ACAD_REACTORS
330
8155
102
}
330
8155
100
AcDbXrecord
280
     1
270
     1
271
     1
  0
XRECORD
  5
8466
102
{ACAD_REACTORS
330
8165
102
}
330
8165
100
AcDbXrecord
280
     1
102
MATERIAL
148
0.0
149
0.0
149
0.0
 93
        0
 94
      127
282
     0
 72
     0
 77
     0
171
     0
175
     0
179
     0
273
     0
  0
XRECORD
  5
8167
102
{ACAD_REACTORS
330
8165
102
}
330
8165
100
AcDbXrecord
280
     1
270
     1
271
     1
  0
XRECORD
  5
8166
102
{ACAD_REACTORS
330
8165
102
}
330
8165
100
AcDbXrecord
280
     1
270
     1
271
     1
  0
XRECORD
  5
82A1
102
{ACAD_REACTORS
330
8165
102
}
330
8165
100
AcDbXrecord
280
     1
 70
     1
 90
1959938040
 71
     1
  1
38CCFC82-E912-42B4-A0BA-CD51A03D094A
311
504B0304140006080800F68D76571B16F904D7000000200100004F00000046373932413535462D444537312D344143332D424437302D3133453937444434443546302F4173736574446174612F446566696E6974696F6E4974657261746F7250726F706572746965732E62696E454E4D4FC240105D3D603C78F01F10EECB7E
311
B02D4A0023B178D20B9CB890613B40936D4BBA6DE2D1A3FF5A670286C9BE9D375F6FE64708F17B31A2E286F04DFF03F977ACB029FCCA1FB104D1E34CA87710EEAEB55BA21CBEE11EBAD0F2D447113D860015D65D7CBCB6F64B68490EC29087EE09FF89C80A87F332DEFF49E093D8437E9ABC408CD8CED47EF7A512B3D04FD9
311
D8C965A69D743A59CA45961A998EF4B32396A4E6553518EBAEF11895557A7B51DE9EAA4391CFA76D5162BF82126703DF20DD940FE656DB9134465ABB36E389A3E73653C59D7F504B0304140006080800F68D7657710374FEFF000000300200004500000046373932413535462D444537312D344143332D424437302D313345
311
3937444434443546302F4173736574446174612F496E7374616E636550726F706572746965732E62696EEB606060F80F0540260323103700495E20ED9E9A975A94991C9C9C919A9BA8021430B670767673B630D275B53434D235317232D175347072D4757631357434307631B03471644768046B313471713532B5D4353531
311
31D635313332D475727372D13534373670367376B67474B504EA00DBCBA019D37FE8ABC6157B20CD04146B0062181F4C03F940F0C11EA29A8141C08141002C0426541C106CAC2CA046088033B02A030AC2157C6006F21A8018AAF50194E6010A610250382264E08660284CD9E98021862280A91564B406929A0FF62C401E28
311
B6F88038B83CB1243943D7A928312F2535052403520FA4E000C4E7807805AC4B172AC30D5781CAC0A51F00504B0304140006080800F68D765728BB58AF800100009E0500003D00000046373932413535462D444537312D344143332D424437302D3133453937444434443546302F536368656D61732F436F6D6D6F6E536368
311
656D612E786D6CBD544D4FC23018BEFB2B96DE15493C78601010A34B880709DEDFB52FD0D8B54BD70DF6EFED3AC0B12E6442E2716BFB3CEFF3D18E26FB440405EA8C2B1992E1C323095052C5B8DC842437EBFB673219DF8DA659866649B798C078B48AE6410122242F2A4994AC7F93815DF85C049C8564CA0A901499DD886B
311
2EB9B1E02448F358701A9235880C49A0119892A20C89D1B9FD768815CAD268CB5E0355B40B1E47F3E37A2020464BED06AA57CE8FCC20C3C3446D46761A2632A8C1283D07031EFF2AE7CCB1BFEEE916E406DFAC8E36FFD99A9D60A6944090EEDC3B670C7DC13DE86B6B2C5C240D6E503BB85ACD579D513F1B9F9A69DC9CC22A
311
FA80C426D40AF0B21EA168559156B6276F0F726A6BFF04DCD513A87A62CAD41FB24FCB2858B3952E3D852084DA25B9303C15687973CC8E8AAE11DF2836C38C6A9E765E8C1BA1BFB1DC29CDFE518C8B5A7655A4ED7E77291ABEB80DBD82EC866ADE1B8D05AF9E35CF09D7A061F38A986D9EC412B8F0F65E5D81534D9B231D1E
311
5A8FE577A241F3A5FD01504B0304140006080800F68D76572CCEBD668A040000E01200003E00000046373932413535462D444537312D344143332D424437302D3133453937444434443546302F536368656D61732F47656E65726963536368656D612E786D6CD5586D6FDB380CFE7EBF42F0F7A649B70E1B90744856B4970F
311
450FCD7A5F05459613EDE4174872DADCAF3F522F8ED3B88D2F1D06AC4050DBA2493EE4438AF2F8EB73AEC8466823CB62928C06C384888297A92C5693A4B6D9D9E7E4EBD51FE3A931C22EF85AE4EC6AFC38BF261BA626C9AD288496DC3F4FCEAFC63366845F7A10452AF41DB320C0D44EC26EAB20918735565582695670811A
311
6A49643A49A6E9069FA4604A64B29016DC4B48552F95E4932463CA888468C1D2B250DB4962750DF7CE273069CE8363F1FF4EDB00E0A21999574AE4A2B00C353B93F3BD4777B8A61ED8F604ABFEDD79CE56A2B7BDFBDBC50996E0ADDE16FED26223C5D30956C29BDF4A55EA686E5E58B112DA45CE67F76F4FA27EFA3FB672FD
311
7372FC388FAECDCA5209E693CAD167BADCD272F943701B3812F8A3D852008B1D2E32DB927B2F833C6EA95879925356D254582695095A3CE982924720BE5774A3CB9CDCDB350427D2DF20DA1B5532EBE2D5D6288D75D4F7E4FD9890A0EF8E3D93EBB8F8BA4758158EF6FB90A6F9520281C93DE7AAC6D24607DA296BB9601812
311
3F821A7D6A5C5884050C475DA4865442732C8B95684A50165CBB3A32F25F783A4A480ED59AD7F924B968AEA50131F46303223E6A397B0E52976030DC1DCA81D7E7C1EDEEA42C19FF27635C505E2BD5198A599020DF50A2330FCB3AAF28CB0124108429553EF1B228802E2265D8F7CC2401042B155BCC7070F1E5C55F13B4A9
311
577362CCCE46C32174E010C3C378C44841A4BDA00FE3A12006CE11EE6AEC59894D3526DDE1CD59D503ECC324017F8061B7F162162FA62EDD81AE3308617770796DCBDAD2B2625C5AE8A63DE20B2C8AA5E95E76E5730823955956E33E705425A2187C185D36489A1B44D3DCEC2172F6BA2105C3546287A7194B2331768EBBE6
311
4F6E70A9930ABE0ADEA89E9E2C38523B810287AD67A54A039C1606EAFE68F8304610BB9093DBDDABC0B2AE4E290DCDA15376D7E39F72B556F0B32EAB5D3D498B4C41ABADEC3A1434C422D87E8025A84BDCB2B1417ED750FAE4DA8976863974C577C7F902D3F156AD354DEA3540DE6BEAE2BEA52F7A2EB4CA43802ECE5BF2CE
311
2EDC9347179FFB023CE412E60BE16DA0BE29B374988A553F561DC04615DD35F7D2C8979F60E5955CE93DF29DED8AFA1EE6642D53418086C03C47C377910F75F7E8F5EF665F70B60FFB22AEDF897D119E8423C773E819A3C1E55E550599EE6EDCA34D0C86FD72057DF2CD46F16A470682471C164E4346D5306BF12D7D12D82C
311
FF673D41636C347443FEB51B50D72EA171A8E4A58623A4A16E0FA2B8B10A0D23268D87C33896EE8FB73305A74BF224EDBADFA0BD674AB354D63DB7BD5D83426761C077DE767728235446A552754EB93B755891C3C4CC6CADE37CF0E912A7BB38DBA010F9DE1282EDF470CA69A9CDA482E334C4A6EA4107987980B17E72F317
311
30EBF88BBD39E7C629F56797A3C0009C2C5AE7951D9A05A02773440F02EEB4DE396A3B6A570C72CCFBCD823B0B8ED3F1D5CEDDFED772FA70236C83FB7D86C385D570B87107535572A60A96035F8F7C6A7192F13007246BBE0521855E6AC46F3E27689CEE7D186A6FD679D98CDCAD13333E04EBE7ED6F55FF01504B03041400
311
06080800F68D76576180134D5F0100006B0300004500000046373932413535462D444537312D344143332D424437302D3133453937444434443546302F536368656D61732F52656E6465724D6174657269616C536368656D612E786D6CA5934D6FC2300C86EFFB1551EEE343DBA41D1A103009551ADAD40EAE28A4A68D9426
311
284961FCFBE5A340113B2071746D3F765EBF4DC6BFB5407BD0862B49F0B037C0082453059725C18DDD3EBFE3F1E829991803366715D474942CD30FB4A782E00C64017A412D684E454CE3FE28995203B162A6EA5AC94B66997D225E109CD63B0135484BAD1B3C07E9080CA35DB3119C11BCA5C200461A68A1A438126C75E3E2
311
30D40FF81FB3F03C91D1E3A3A0AF79FE28E25BC39EC3E17E4C2A2D94A0833A51AF55BCCA7D88572FCBAC529C4140B020FC3AAFA886621DCED7EAD7664CC86024E806DC297DA1BB393E4156543457A4537DB8817349A70F8ACBF09B3EEE2CB2F33E91B65D60786E4E3B39B77E3FEEEF5650424525DA657FB8B46BE6BF064646
311
F0A0F7327C0BC1BC1B4CBBC1C419FA3CCB23500007872A2580CAAE5461865565294E4EDB4617B62FF579DF9A5B2F54E834076A597573A020912FED777F9B3F504B0304140006080800F68D7657420702A351000000570000004700000046373932413535462D444537312D344143332D424437302D31334539374444344435
311
46302F4173736574446174612F41737365745461626C654F66436F6E74656E74732E62696E5361606030B670767673B630D275B53434D235317232D175347072D4757631357434307631B034711402AACB4D2C492DCA4CCC492C28484D2C4ACC4B4E050A82012F90744FCD03CA26072767A4E6260200504B03041400060808
311
00F68D7657F865834058000000680000004500000046373932413535462D444537312D344143332D424437302D3133453937444434443546302F4173736574446174612F53747265616D56657273696F6E5461626C652E696E66558CBD0A80300C06F73E4B117FB66E451741D041DC5BF98480A492E4FDD18EAEC7DD4555D8
311
9EF28DF51A0B1BD8340C4DE7DD848B988C0ACF0649566493F2408C508DDEBB99D5129FF8F1AF8CF5B9503E20FAE5A16B5AF702504B0304140006080800F68D7657166A4C39340100009A0400003600000046373932413535462D444537312D344143332D424437302D3133453937444434443546302F417373657444617461
311
2F636E782E786D6CCD54B14EC33010FD95C87BEC26540221C71582A51348540C6C57E7D25A75ECC8BE20F87BEC3603A8882943244FCFEFEE9E9FFC4E6E3E7B5B7C6088C6BB86557CC50A74DAB7C61D1A365257DEB162A364F09E7ED058E1A0C78665982979087E1C26A8C50E469B516BDC69021F6244DAC1DEE273F7E81DA1
311
A3C80A6D21C686457DC41E388CE45B8C27DE0201AF78C0E8C7A0317522D3E3D4490704C296A97A55DF945555D6F5AEBABD5FA7B37E97223395DC7B6F27BE49C3821F0A7D99CAD44A8A7CADE418CCC4C96F61EA2F8D7C6F9C1489A964A4903C992AE86B4815300CD668A0649DF09A90CA4442E8A5B8909514D9835F4E3C6167
311
9CC925DB240CC88797240F03195C9C23FF699DDF99AD8B044EE372FDB85638BF0BAFE71FF47609E439314BCBC9B5426E5C37434AC4798DA4D0E4ADA2BE01504B0304140006080800F68D7657B2EF76EE080100004F0300003400000046373932413535462D444537312D344143332D424437302D3133453937444434443546
311
302F536368656D61732F636E782E786D6CCD933F4F042110C5BF0AA13FD85D2FD118962B2CAC6CD4CA0E61EE8E1C301BFE18FDF6C24A7197D8697109053C7E99CC7B0C62F7E91DF980982C86998E6CA004824663C361A625EF377794ECA48888F90CA324280F336D3295E210B12C5D32B057C535D5D970EAE2037A8FE1451F
311
C12B4AB45329CD34AD47A64A4603E9C48CCA8A8D2C42C21235D40AD97AE815740495C150390DD3CD661C37D3F43ADEDE6FEBDABE09DE4829DE115DE76DC81071211AEB26D47606C1DBB51425DACE340F549EF7C66A1A8257428A9463CDA093F96BA9A45A1667B5CA352ABE823F8C14BC59BD30FC0801A2D5D7E9F8A2B97FB3
311
FC0CC1407CAAAF14AD72D7E9FCB71EFF16005F67BF8E40FB0AF21B504B0304140006080800F68D7657410A3D5871000000A40000002C00000046373932413535462D444537312D344143332D424437302D3133453937444434443546302F636E782E786D6C55CC4D0E82301086E1AB34B31774E7A22D31F1069E60020334B6
311
33A63FC6E34B0909B07DDE2F9FEE7EC1AB2FC5E4840DDC9A2B28E25E06C7938192C7CB1D54677514C9871928C640062A83D55394F2D968A0118BAFEA1DBF377CA444F98919176EAB9FEAAB9F2960DA5BBB1E2ED3FA6FFF504B0304140006080800F68D7657F8A0DC8B7F000000A300000007000000636E782E786D6C4D8CD1
311
0E822018465F85FDF714A48CDC106721EFE1121D13A191B41E3F685E74F56D67DF39A2FB6C0EBD4D7CD9E05BA02702C8F84798AC5F5A48FB8CAF803A296208FBDF0D901F37D342C120C512437A1E6832F3985CA1CEFAF5809A37979E318DD5C029AEFB7B856F8A134CABA1E14AD58A69928D7351F2FC7A794B5E7E01504B03
311
04140006080800F68D765716E99B5DA600000035010000130000005B436F6E74656E745F54797065735D2E786D6C9590410E82301045AFD2740F4517C6180A0BF5065E60AC53688469D30E066F6F91AD9AB89CF9FFFD3F99BA9DC7413C3026E749CB4D59498164FCCD51A7E5C4B6D84BD136F5E5193089ECA5A465CF1C0E4A
311
25D3E308A9F401292BD6C711388FB15301CC1D3A54DBAADA29E38991B8E0254336F5092D4C038BF39CD76B6FC6A538AEBEA54A4B08617006389FA516557DE4AE8E7E70DE30729138228C5F021CD93F02D4FB0DCD0B504B0304140006080800F68D76573DEE336E64000000790000001B0000006175746F6465736B2D646573
311
69676E2D7061636B6167652E786D6C35CBC10E83200C00D05F21DCA56CA76D41FC96062B120735B69A7DBE268BB7777961F8D5AF396893C2ADB70FE7ADA196782C2DF776D7A97B5933C430F15651E5469C55D70F80A4992A3ADC954792C525AE70A1E4D6AD9816CC044FEFDF01FE3FDE907802504B0304140006080800F68D
311
765734C40EBDF8000000960100003700000046373932413535462D444537312D344143332D424437302D3133453937444434443546302F4173736574446174612F636F72652E786D6C85505D6F842010FC2B66DF5141CEEA05B9D836FE823EF58D2067C99D60F868FAF30BA74DDAA726244B66676677875DBED67BF1A99CD7
311
D60C80CB1A0A65A49DB5590688E18A3A282E9C396BC32F1A1446AC6A800C03678BB3713B20694D5026A3C6CEEA0085F72A4021EFE93380971F6A15A5882131FCADDC84BC894595B8DC799CC5A8E743AAE7E4A6AF5A39E07D3DB5D3D83DA3B61B6B44FB1345FDCB3421529396762D3D11D2B02A8B390B7AFD992E9D1241CDC0
311
13AF41182342DEF0D399A647DF5995999CF9E0D2CDC7D07C1DF0316FFD2A8260D5DEFDE31AB7F97FD7A84D68C8E1BA2B3C709C967C3438AB724AA93C224C3527CABF01504B0304140006080800F68D7657B07A2547F6000000940100003500000046373932413535462D444537312D344143332D424437302D313345393744
311
4434443546302F536368656D61732F636F72652E786D6C85505D6F842010FC2B66DF5141CEEA05B95C9BF807DAA7BE11E42CB9130C1F4D7F7E416DD23E352159323B33BB3BECF2B53C8A4FE5BCB666005CD6502823EDA4CD3C400C37D44171E1CC591B7ED1A0306251036418389B9D8DEB01496B8232193576520728BC5701
311
0AF9489F01BCFC508B28450C89E1EFE52AE45DCCAAC4E5CEE32C463D1D523D25377DD3CA01EFEBB11DAFDD336ABB6B8D687FA2A87F1947446AD2D2AEA527421A56653167412F3FD3A55322A80978E235086344C81B7E3AD3F4E83BAB3293331F5CBAF9189AAF03FEBAEDE959B5F7FE78C675FADF336A131A7278EE0A0F1CA7
311
15B7066755CE28952DC054739EFC1B504B0304140006080800F68D7657C459AD5D01010000D70100002D00000046373932413535462D444537312D344143332D424437302D3133453937444434443546302F636F72652E786D6C9591DD6E842010855FC5CC3D2AA8B1DB209B6D5D9FA057BDA3326BC9AE60F869FAF8C56AD3
311
F6AE4D482087EF0C9C197E7C9F6FD91B3AAFADE980E625646846ABB4993A88E142EE203B0AEEAC0D3F30C88C9CB1835506C12767E3B24BA33501CDAA1AAB7017A5F718201B6FE9D0811F5F7196B98C2111FE9A2F72BCCA09739A6F9CE041CF5FD6D1A10CA840B092558452C2D8136DEFEBB4EA675EACA4E0519B50B1FD319C
311
5F506576092912888617DB6DA2A2563BA355FAA3BE68742086F6C04E4D3390FEDC52529F1E2BF2D0B725A1D5F9D0F67DDD3743998A24B3E03EB8D499BDC8DA83BFDA37E3AF647151FF4CB6393C08FA1DAA58DB2C78F13983B4AF23111F504B0304140006080800F68D76570CBC7C1A07010000B201000008000000636F7265
311
2E786D6C8D50CB6EC32010FC15B477FCC0C475224C9456F217F4D41B35C445B1C1E211B57F5F885DA9BD55425A343B3B33BBECFCB9CCE8AE9CD7D6F45017152065462BB5997A88E18A3B4067CE9CB5E1170D90118BEA21C3C0D9E46C5C7768B42628935163A5DA41E1BD0A80C6397D7AF0E3875A442162480C7F2B5631DEC4
311
A48ABAD8789C05BDFC8C8E4E89A02470529106D73526E4B57E3AD1F4E81B2B3393B318B5DCADB44CEEFAAA95037EAC8676B874CFB8ED2E15A6C703C5C79761C049AAA55D4B0F8434ACCCC39CF9E0D2CEBB48CA199017F7ECCBCAADC5D9BBB5F34E48A124B266FE025EB13237FE848EABFC47686D424376C16DC203AF53A047
311
2319E70BA6F2386FAAF9DAFC1B504B01021400140006080800F68D76571B16F904D7000000200100004F000000000000000000000000000000000046373932413535462D444537312D344143332D424437302D3133453937444434443546302F4173736574446174612F446566696E6974696F6E4974657261746F7250726F
311
706572746965732E62696E504B01021400140006080800F68D7657710374FEFF0000003002000045000000000000000000000000004401000046373932413535462D444537312D344143332D424437302D3133453937444434443546302F4173736574446174612F496E7374616E636550726F706572746965732E62696E50
311
4B01021400140006080800F68D765728BB58AF800100009E0500003D00000000000000000000000000A602000046373932413535462D444537312D344143332D424437302D3133453937444434443546302F536368656D61732F436F6D6D6F6E536368656D612E786D6C504B01021400140006080800F68D76572CCEBD668A
311
040000E01200003E000000000000000000000000008104000046373932413535462D444537312D344143332D424437302D3133453937444434443546302F536368656D61732F47656E65726963536368656D612E786D6C504B01021400140006080800F68D76576180134D5F0100006B030000450000000000000000000000
311
00006709000046373932413535462D444537312D344143332D424437302D3133453937444434443546302F536368656D61732F52656E6465724D6174657269616C536368656D612E786D6C504B01021400140006080800F68D7657420702A351000000570000004700000000000000000000000000290B0000463739324135
311
35462D444537312D344143332D424437302D3133453937444434443546302F4173736574446174612F41737365745461626C654F66436F6E74656E74732E62696E504B01021400140006080800F68D7657F865834058000000680000004500000000000000000000000000DF0B000046373932413535462D444537312D3441
311
43332D424437302D3133453937444434443546302F4173736574446174612F53747265616D56657273696F6E5461626C652E696E66504B01021400140006080800F68D7657166A4C39340100009A04000036000000000000000000000000009A0C000046373932413535462D444537312D344143332D424437302D31334539
311
37444434443546302F4173736574446174612F636E782E786D6C504B01021400140006080800F68D7657B2EF76EE080100004F0300003400000000000000000000000000220E000046373932413535462D444537312D344143332D424437302D3133453937444434443546302F536368656D61732F636E782E786D6C504B01
311
021400140006080800F68D7657410A3D5871000000A40000002C000000000000000000000000007C0F000046373932413535462D444537312D344143332D424437302D3133453937444434443546302F636E782E786D6C504B01021400140006080800F68D7657F8A0DC8B7F000000A3000000070000000000000000000000
311
000037100000636E782E786D6C504B01021400140006080800F68D765716E99B5DA6000000350100001300000000000000000000000000DB1000005B436F6E74656E745F54797065735D2E786D6C504B01021400140006080800F68D76573DEE336E64000000790000001B00000000000000000000000000B2110000617574
311
6F6465736B2D64657369676E2D7061636B6167652E786D6C504B01021400140006080800F68D765734C40EBDF80000009601000037000000000000000000000000004F12000046373932413535462D444537312D344143332D424437302D3133453937444434443546302F4173736574446174612F636F72652E786D6C504B
311
01021400140006080800F68D7657B07A2547F60000009401000035000000000000000000000000009C13000046373932413535462D444537312D344143332D424437302D3133453937444434443546302F536368656D61732F636F72652E786D6C504B01021400140006080800F68D7657C459AD5D01010000D70100002D00
311
000000000000000000000000E514000046373932413535462D444537312D344143332D424437302D3133453937444434443546302F636F72652E786D6C504B01021400140006080800F68D76570CBC7C1A07010000B2010000080000000000000000000000000031160000636F72652E786D6C504B05060000000011001100
311
5A0600005E1700000000
310
504B0304140006080800F68D7657000000000000000000000000370000006662782F32463939383743442D463331422D344530382D393346302D3939333731343230443436462F617474726962757465732E62696E504B0304140006080800F68D7657000000000000000000000000350000006662782F3246393938374344
310
2D463331422D344530382D393346302D3939333731343230443436462F76657274696365732E62696E504B0304140006080800F68D7657F270F1330600000004000000360000006662782F32463939383743442D463331422D344530382D393346302D3939333731343230443436462F747269616E676C65732E62696E6366
310
60600000504B0304140006080800F68D765751464CB48900000043010000360000006662782F32463939383743442D463331422D344530382D393346302D3939333731343230443436462F6469726563746F72792E786D6C9D8F310EC2300C45AF127987122606C71DD918B841D4B851A43646695A717C52A85029031293A5
310
A76FBF6FACEF7DA7264E43906840EF0FA03836E242F406C6DCEE4EA06AC22492573150D1F66C60C640E8938CB705396EEDD86DE9B5042FE27813D640EA63BB001C722AF6E55CB61E4863F58284D5D3F53DD715CE1C3985E63FD7F1B7EBDD617E9F1E504B0304140006080800F68D765775A246CE3B070000201C0000340000
310
006662782F32463939383743442D463331422D344530382D393346302D3939333731343230443436462F6F626A656374732E786D6CDD59596FDB3810FE2B84F665F74197AFDA85E3C2B193C028D21635BAD837819669871BEA002525CEFEFA1D52A42C2AB2ADF400169B00B14293C3996FEED1F4C32162E889F08C26F195E5
310
3B9E85481C265B1AEFAFAC22DFD9630B7D98A1294F92BCB6CF42318EC8952596ADD974CF9322554B5BB2C3056BAEDE5EFF85B290C4C44221C359766565E10389B0838B3CD992ECD1D9E21C3BFBDDC1F19D72A34976CF71FAD0B82AC59CC439B00AEB3150511CF8E6BF20923B9BBA6283B1ADDF6D5BEFCC36570A6E324AE32C
310
C771F88AABC675BD135C35AEEBFB83E54D6F38B1878341DF1E8C7ABE7D7D7BBDB4FD777D6F315A2C26F39B898566D34D92B04A012989B7A0C5176BE64F5DF14D25BE42A18DEF308963122A34DB366C89A24B49D6C4C400D697A2D51452CA5A5BE87714FEC4B64EA0182C19686BE1F467DD7A93CDDF0042D6C54A7946849567
310
39075D2BEC4B7FF0A66EB96AE8856628C239E11433C4E886630E0A82ADA5820C32C25B04292430935AD4F4EABC82615FF6A5362E770563C27FAD99F4B400FC91E499E48CFE43F891FBFA6DC013485BD0381F2B61F39714484CA6AE5C2CBFEBF7D497259068C7F01EAC05C4149BFABD065E0B110B564B6BF6F17673588BF8D0
310
7E79CA9394F05C589E7466E5775A8335D302E3EB004A89ABA9BB232A5F01FA4F807CC50B9A82E6383D0C0E032D3BC771B64B7804DA411EB23DF8E321F1F8EA69EA5687670819B1F214A6E0B63F0953430CE3EE1AA4B3E913187DC2FB4AB8758819D8F43D8D859F83A12096C012C4FBDDE660CD56104C61114E6106D2C3EFD4
310
158F083E4A3A106F1A1A6A0BBF1D14A51DA6E967475DDD81CD701A56AA32643C85EFF0A7E03B5FAE3FAE0BBEC321B9578EBD243B1AD31C92693B4306E886CB7F5B7D921E79C7920D66C7D3C6A610AED927226EB4A865ADD482A45E801391864BCDC8957B0ADECE188E4952646ABD2D4E85094B78B079094A176EBDEB4F6D03
310
E565CA005A631924F790D3546062CD94B6AA40E8D404050BC35C59E0BED46AB029A234C05152C422D4BE36C5261F106784250255494D1BB6F65A4D764B77BB2283E0D54A726100A9FC59132E2D7C0071AC8D5F4E761C43124DE280420E066769BDC1B8A002EF3CCF1961BB80325644C18E32C8234184D313F43B4A50CF5C8F
310
E4E539E1DB5682A665699FD436240057C06A9074B62A63BED229274F549499329FE96C60EC5075A8351B9C48172253B400AA8D519A797FBC58DC2EC63DFB66E2F7EC41EF7A60CFBDEBB9BD580EFDB9D75F7A93C1BCC9A78E56F57C07AA14658EE17FF943116D624C197C21C4C6DBF4FD07993DAF5C088DEED0BFF6C637EF06
310
F6ED8D37B007DEF0D6BEBE19F9F6A80FB7C2D370E4CF5D4EB2A4E021C9DC9EEB05DA24D3787F8A2BCDDDEB180A65CDE564A7F5D514E67F1C439B39C150E27F358856B1ABA520EC1A44C5D16608C5E1A348514108555FABFB348268938FB638F7C6B8EC397D4FFEF8FEA4E74D7AE3C9A832F6B3815ADEF3C371AE4D8210FACE
310
220F921487346F4FA80D5C3AC6E937E516A7EF0F11A053FDAD2E399F67D425018DF09E043B2CBA8496C0784982D61CB6674996D19864B2CB7B55FD35687A0E145366CE6D31429A0511C9F1F7D89F6C1B1A360DB19905D08FE6622270B12AA80C5A7520A7288AEE1712B794FF25C87094B2B2D3BD8481DFD310E81EA7CDE204
310
D3E28A27B0B700E781B725727071897AC5BEAE0F5AB5D6A43EF96EF227E0D175CD2F84475FD1BD747286FE44FC8C21A88C867EFF9D56C425ACF455B9E8E358019D67F8123C13BA7FE8546876D349AD642B8BEA9C44D0C6E2BCE09DFC7534F45E5DA4E242C3216A37BDB13894FD9BEEE0003DD9C09D2A6F6BD7401D4A639873
310
7512E49514AD262C7521677A6274F506BF3EABEC3AD51F8E97BFBC62AE3B5F24873F9771806AB90CC02AFA1835756BD56DD443D933CE4308A46BF9695F83476CC9F6D89819E4DA4A745D9F5EAA9E5722A04630B1C522CEDE8B07F61583AAA17BCEDCBBB26873CBF595486C0E0CA78F7C184C9BB43EDFAD1B5460A5F3E92F02
310
23F2DCA0A05617A21B3E43EADBEAD8F337282889BEADCE1CFF4F74145A81B5311A4C83B3845118CA932DDA9304B2378C1D3A741B3C2299CCCA60BC2A48E937021D4E3F9533D51C6F983E1D3E60184C33D58B15210C4521635E596A1DFD066350318994C329E711DA3015C32C54707A6581C5E614BA2D6703E32C393C94D41B
310
E34A706C1CEF45BE2F4F55FF1F8F0974202A1DE5AAF674C1454966381314B6A97C4F00555FF9C56CFAFDA26B7610CEE17153E49530C785A3340A04FD42A0140EA67E8F0ADE031414E7E5F21DB9C780A4D364FEAC1D9454ED1CF3BD1CAFD7F09E2FBFB86232BEFA8C5256EC853ACF75BF06255B74DDAC28A75053300C25668A
310
450DB978EF7EE109BC628AD02D052340BF1FC6A33FDC451245495C2EB973F5A20AAD1FE0B5D3D6D5233F68E33D7FE8CA29801AEB071B9C11076FB3475800D5722A66A325C4860154D1B466005A23421770CCD8BF5A22551BD52624F5B02BE091337D048E24DEE508B7A96FA80D20C117802BF9E5F1412F4C5D0E43F0D9BF50
310
4B0304140006080800F68D76570B3385A23D01000046050000300000006662782F32463939383743442D463331422D344530382D393346302D3939333731343230443436462F636E782E786D6CCD94C16A032110865F45BCEF9ADD065A8A6BA0873E410FA537D79D6C4D5C5D742CCDDB575393B694941E02097890F117FE6F
310
E667F8EA7D32E40D7CD0CE76B4A9179480556ED076EC68C4757547C94A70EF1C7E935162E5041DCD652AF8E85D9C4B6980B58C26578DB6DB5294885EF7112150A28C0CA1A341BDC2246B19D10D10B6F52051D64DED21B8E815A4FFA82728FF9507893050D12EDA9BAA69AAB67D6A6EEF97E92C5F38CB4AC17BE74CD16B8BE0
310
DD4C944B179BCC2C38CBCF8247AF8B261350F1E5ACEEB5E52CBD0B1E925B3B161DEEE6AC9B67A395C4D426E6140256490472E2EC532C38CBBC3FA81F1F9E0F0EC8A03D28747E77A10634A71A703456A724FC8F7F2FFC1BDBF59B847BA9699F842DB6CE867A486B4871FD3DFF94226947737DA13F1A3B7FE6D32A41ADAE0FF9
310
E0EB4CC46CBFF2D2D0F306141F504B0304140006080800F68D765737208F4E7E000000A30000000B0000006662782F636E782E786D6C4D8CD10AC22018465F45FE7B4BA734057550CBF718CD0D69D361337AFC3476D1D50787EF1CD57DD605BD5D7AF91834D01301E4C2238E3ECC1AF23E6101A8332AC5B8FFDD008561751A
310
2A06A3E614F376A0D14D435E2A5D7C781EB0B1528AF6D663CBE815F33B1158324BB094ACA5BC213DBFD8629CAB52E6D72B5BF3E60B504B0304140006080800F68D7657A6D797065F0000008200000007000000636E782E786D6C4DCB3B0E80201045D1AD90E9FD7516806B51190811670C8A61F982B1B0BAC9C97B72CA7B10
310
37C6D3332918DA1E04D2CAC69353902EDB8C20262D23F3F59B81A079470595414B17391D1F19B4730A5583A7ED43BBE4025D9592775E5ADFFA01504B0304140006080800F68D76574FEB6A7CA0000000F4000000130000005B436F6E74656E745F54797065735D2E786D6C7D8F4B0EC2300C44AF1279DFA6B0400835ED02B8
310
011730C16D239A8F121795DB93D02D6269CFBC19BBED573B8B17C564BC53B0AB1B10E4B47F18372A5878A88E20FAAEBDBD032591BD2E299898C349CAA427B2986A1FC86565F0D122E7318E32A07EE24872DF3407A9BD63725C71C980AEBDD080CBCCE2BAE6F5D69B7110E7CD57AA146008B3D1C8F92C5954F993BB1BF787F3
310
9A89ABC491D09600F9FDA2FB00504B0304140006080800F68D76573DEE336E64000000790000001B0000006175746F6465736B2D64657369676E2D7061636B6167652E786D6C35CBC10E83200C00D05F21DCA56CA76D41FC96062B120735B69A7DBE268BB7777961F8D5AF396893C2ADB70FE7ADA196782C2DF776D7A97B59
310
33C430F15651E5469C55D70F80A4992A3ADC954792C525AE70A1E4D6AD9816CC044FEFDF01FE3FDE907802504B0304140006080800F68D76573E59BEF2F8000000960100003B0000006662782F32463939383743442D463331422D344530382D393346302D3939333731343230443436462F7265736F75726365732F636F72
310
652E786D6C8550CB6E833010FC15B477033690B49571A404FA053DF566990DB5126CE447D5CFAF1DA8D49E2A595A6B76667677F8E96BB9179FE8BCB6A6075AD650A05176D266EE21862B7982E224B8B336FCA24161E4823D6418049F9D8DEB0E296B029A8C1A3BE10E4AEF3140A1EEE9D383571FB8C852C69018FE56AE52DD
310
E48C252D379EE031EA6997EA29B9E9AB4607E2723E76F5D07484D1E195B423ABC9B91E9FC930B447D61D2EE361A0BCCA62C1835E7EA62B8732E00482D5AC219412C6DEE8F1A54DAF7DE755660AEE834B37EF43F375201C7A1B9D42CFABADFBC735AED3FFAE519BD0B0DD7553781079C94743F02AA794CA23C25473A2E21B50
310
4B0304140006080800F68D7657057FC09BF1000000B1010000310000006662782F32463939383743442D463331422D344530382D393346302D3939333731343230443436462F636F72652E786D6C8D50DB6AC42014FC9570DE35D1842629C685769B2FE853DF44DD5476A3C14BE9E7573729B46F0BC29171C69933ECF4BDDE
310
AA2FED83717602821BA8B4954E19BB4C90E2050D509D38F3CEC53F34A8AC58F5040506CE16EFD27640D2D9A86D41AD53FA0045083A42256FF93241909F7A1558A49819E18A3721AF62D198E09DC75934EBAF547A2DA256C069435B4408A2F49DF4CF5D3EDD07AB0B93B3948C3AAC8CCAEEE662B4CF92791C87FEF58CE696BC
310
A0EEAD19D0D8CE0D1AC7B6271D6DCEDDD3CCEA22E62C449F773E3E29DB3D2ADF85FF32A74D3D90D9D8D8D2C3705704E024E7B93F70569702F3B8B79B67299BFF00504B0304140006080800F68D76574FF638F153010000DD0200000C0000006662782F636F72652E786D6C8D52CB6E833010FC15E4BB793824692BE34809E9
310
17F4D49B631C6A056C646C94CFEF9A87680E4D2B10B66677667746D0C3BD6DA241DA5E195DA02C4E5124B53095D27581BCBBE217141D18B5C6B81F6D28D2BC95050A3062B4B6C67733248C765207549B4ACE20EF7BE950241AB814A8175FB2E531F70E3AFA5BDC7171E3B58CB378EA63D47B55CD5455819ABA2A69113B1DF7
310
DBB4DC6C31C9CA779C9F498A8FE9F9159765BE27DBDDE9BC2B339A0432A34EB5CB74612577B2428CA46483B30C13F291EDDF7278F34F9A844E467B67C1F33C34B843EC7AB9D364C21FF47C57FDADE795761B32EB4D8C1EB1B0DE58603409F9C03186F798210C86FC1CBF348B851B408314CED81C2A95F16B69E08D97209D46
310
E34393A90ACAA3C06F3AE489CE730D088AEB1A56E30EAE17EFC2F4C79D3A69F1E0EE9136B6E5CDBADCB4E2FA5D073D585AE8C234C6FE87BD585DC24CC28FC9BE01504B0304140006080800F68D7657435C9D6407010000B201000008000000636F72652E786D6C8D50D16E842010FC15B2EF28A09EED05B9E44EFB057DEA1B
310
15CE9253308297F6EF0BA74DDAB726244B66667766979F3EA711DDF5E28DB30DD08C00D2B677CAD8A181355CF113A093E08B73E1970C9095936E20C120F8B0B875DEA1DED9A06D42AD537A07A5F73A00EAC7F869C0F71F7A92995C4354F85B36CBFE26079DD16CD3091ECCF4D3DA2F5A06AD4030C20A4C2966EC95D6C732BE
310
F28DE74929F8BA1AB55B1915DDCDD5E805C4E55C57A42D2ACC68FB82CB8E117C26DD336EDBB266D5E1D21D5ACAF3D42CB80F4BDC791F127306E4E53DF9F27CA3047F776EDC05319442CE8E5F2008CF13F127F43AAB7F843636146C1FB875781029D08388C6E982B13CCE1B6BBAB6F806504B01021400140006080800F68D76
310
570000000000000000000000003700000000000000000000000000000000006662782F32463939383743442D463331422D344530382D393346302D3939333731343230443436462F617474726962757465732E62696E504B01021400140006080800F68D765700000000000000000000000035000000000000000000000000
310
00550000006662782F32463939383743442D463331422D344530382D393346302D3939333731343230443436462F76657274696365732E62696E504B01021400140006080800F68D7657F270F13306000000040000003600000000000000000000000000A80000006662782F32463939383743442D463331422D344530382D
310
393346302D3939333731343230443436462F747269616E676C65732E62696E504B01021400140006080800F68D765751464CB489000000430100003600000000000000000000000000020100006662782F32463939383743442D463331422D344530382D393346302D3939333731343230443436462F6469726563746F7279
310
2E786D6C504B01021400140006080800F68D765775A246CE3B070000201C00003400000000000000000000000000DF0100006662782F32463939383743442D463331422D344530382D393346302D3939333731343230443436462F6F626A656374732E786D6C504B01021400140006080800F68D76570B3385A23D01000046
310
05000030000000000000000000000000006C0900006662782F32463939383743442D463331422D344530382D393346302D3939333731343230443436462F636E782E786D6C504B01021400140006080800F68D765737208F4E7E000000A30000000B00000000000000000000000000F70A00006662782F636E782E786D6C50
310
4B01021400140006080800F68D7657A6D797065F0000008200000007000000000000000000000000009E0B0000636E782E786D6C504B01021400140006080800F68D76574FEB6A7CA0000000F40000001300000000000000000000000000220C00005B436F6E74656E745F54797065735D2E786D6C504B0102140014000608
310
0800F68D76573DEE336E64000000790000001B00000000000000000000000000F30C00006175746F6465736B2D64657369676E2D7061636B6167652E786D6C504B01021400140006080800F68D76573E59BEF2F8000000960100003B00000000000000000000000000900D00006662782F32463939383743442D463331422D
310
344530382D393346302D3939333731343230443436462F7265736F75726365732F636F72652E786D6C504B01021400140006080800F68D7657057FC09BF1000000B10100003100000000000000000000000000E10E00006662782F32463939383743442D463331422D344530382D393346302D393933373134323044343646
310
2F636F72652E786D6C504B01021400140006080800F68D76574FF638F153010000DD0200000C00000000000000000000000000211000006662782F636F72652E786D6C504B01021400140006080800F68D7657435C9D6407010000B201000008000000000000000000000000009E110000636F72652E786D6C504B05060000
310
00000E000E0080040000CB1200000000
  0
XRECORD
  5
816A
102
{ACAD_REACTORS
330
8165
102
}
330
8165
100
AcDbXrecord
280
     1
270
     1
271
     1
  0
XRECORD
  5
8169
102
{ACAD_REACTORS
330
8165
102
}
330
8165
100
AcDbXrecord
280
     1
270
     1
271
     1
  0
XRECORD
  5
816B
102
{ACAD_REACTORS
330
8165
102
}
330
8165
100
AcDbXrecord
280
     1
270
     1
271
     1
  0
XRECORD
  5
8168
102
{ACAD_REACTORS
330
8165
102
}
330
8165
100
AcDbXrecord
280
     1
270
     1
271
     1
  0
XRECORD
  5
849A
102
{ACAD_REACTORS
330
8499
102
}
330
8499
100
AcDbXrecord
280
     1
102
DISPLAYNAME
  1
Imperial24
102
FLAGS
 90
        0
  0
CELLSTYLEMAP
  5
8461
102
{ACAD_REACTORS
330
8460
102
}
330
8460
100
AcDbCellStyleMap
 90
        3
300
CELLSTYLE
  1
TABLEFORMAT_BEGIN
 90
        5
170
     1
 91
        0
 92
    32768
 62
   257
 93
        1
300
CONTENTFORMAT
  1
CONTENTFORMAT_BEGIN
 90
        0
 91
        0
 92
      512
 93
        0
300

 40
0.0
140
1.0
 94
        5
 62
     0
340
8198
144
0.25
309
CONTENTFORMAT_END
171
     0
 94
        0
309
TABLEFORMAT_END
  1
CELLSTYLE_BEGIN
 90
        1
 91
        1
300
_TITLE
309
CELLSTYLE_END
300
CELLSTYLE
  1
TABLEFORMAT_BEGIN
 90
        5
170
     1
 91
        0
 92
        0
 62
   257
 93
        1
300
CONTENTFORMAT
  1
CONTENTFORMAT_BEGIN
 90
        0
 91
        0
 92
      512
 93
        0
300

 40
0.0
140
1.0
 94
        5
 62
     0
340
8198
144
0.18
309
CONTENTFORMAT_END
171
     0
 94
        0
309
TABLEFORMAT_END
  1
CELLSTYLE_BEGIN
 90
        2
 91
        1
300
_HEADER
309
CELLSTYLE_END
300
CELLSTYLE
  1
TABLEFORMAT_BEGIN
 90
        5
170
     1
 91
        0
 92
        0
 62
   257
 93
        1
300
CONTENTFORMAT
  1
CONTENTFORMAT_BEGIN
 90
        0
 91
        0
 92
      512
 93
        0
300

 40
0.0
140
1.0
 94
        2
 62
     0
340
8198
144
0.18
309
CONTENTFORMAT_END
171
     0
 94
        0
309
TABLEFORMAT_END
  1
CELLSTYLE_BEGIN
 90
        3
 91
        2
300
_DATA
309
CELLSTYLE_END
  0
XRECORD
  5
8497
102
{ACAD_REACTORS
330
8460
102
}
330
8460
100
AcDbXrecord
280
     1
102
ACAD_ROUNDTRIP_PRE2007_TABLESTYLE
 90
      512
 91
        0
  1

 92
      512
 93
        0
  2

 94
      512
 95
        0
  3

  0
XRECORD
  5
8472
102
{ACAD_REACTORS
330
8471
102
}
330
8471
100
AcDbXrecord
280
     1
102
RTVSPost2010Prop28
280
     1
102
RTVSPost2010PropOp28
 70
     1
102
RTVSPost2010Prop29
280
     1
102
RTVSPost2010PropOp29
 70
     1
102
RTVSPost2010Prop30
280
     0
102
RTVSPost2010PropOp30
 70
     1
102
RTVSPost2010Prop31
280
     0
102
RTVSPost2010PropOp31
 70
     1
102
RTVSPost2010Prop32
280
     0
102
RTVSPost2010PropOp32
 70
     1
102
RTVSPost2010Prop33
280
     0
102
RTVSPost2010PropOp33
 70
     1
102
RTVSPost2010Prop34
280
     0
102
RTVSPost2010PropOp34
 70
     1
102
RTVSPost2010Prop35
280
     0
102
RTVSPost2010PropOp35
 70
     1
102
RTVSPost2010Prop36
280
     0
102
RTVSPost2010PropOp36
 70
     1
102
RTVSPost2010Prop37
 90
       50
102
RTVSPost2010PropOp37
 70
     1
102
RTVSPost2010Prop38
140
0.0
102
RTVSPost2010PropOp38
 70
     1
102
RTVSPost2010Prop39
140
1.0
102
RTVSPost2010PropOp39
 70
     1
102
RTVSPost2010Prop40
 90
        0
102
RTVSPost2010PropOp40
 70
     1
102
RTVSPost2010Prop41ColorIndex
 90
       18
102
RTVSPost2010Prop41ColorRGB
 90
        0
102
RTVSPost2010PropOp41
 70
     1
102
RTVSPost2010Prop42
 90
       50
102
RTVSPost2010PropOp42
 70
     1
102
RTVSPost2010Prop43
 90
        3
102
RTVSPost2010PropOp43
 70
     1
102
RTVSPost2010Prop44ColorIndex
 90
        5
102
RTVSPost2010Prop44ColorRGB
 90
      255
102
RTVSPost2010PropOp44
 70
     1
102
RTVSPost2010Prop45
280
     0
102
RTVSPost2010PropOp45
 70
     1
102
RTVSPost2010Prop46
 90
       50
102
RTVSPost2010PropOp46
 70
     1
102
RTVSPost2010Prop47
 90
       50
102
RTVSPost2010PropOp47
 70
     1
102
RTVSPost2010Prop48
 90
       50
102
RTVSPost2010PropOp48
 70
     1
102
RTVSPost2010Prop49
280
     0
102
RTVSPost2010PropOp49
 70
     1
102
RTVSPost2010Prop50
 90
       50
102
RTVSPost2010PropOp50
 70
     1
102
RTVSPost2010Prop51ColorIndex
 90
      256
102
RTVSPost2010Prop51ColorRGB
 90
-16777216
102
RTVSPost2010PropOp51
 70
     0
102
RTVSPost2010Prop52
140
1.0
102
RTVSPost2010PropOp52
 70
     0
102
RTVSPost2010Prop53
 90
        2
102
RTVSPost2010PropOp53
 70
     1
102
RTVSPost2010Prop54
  1
strokes_ogs.tif
102
RTVSPost2010PropOp54
 70
     1
102
RTVSPost2010Prop55
280
     0
102
RTVSPost2010PropOp55
 70
     1
102
RTVSPost2010Prop56
140
1.0
102
RTVSPost2010PropOp56
 70
     1
102
RTVSPost2010Prop57
140
1.0
102
RTVSPost2010PropOp57
 70
     1
102
RTVSPropertyOp0
 70
     1
102
RTVSPropertyOp1
 70
     1
102
RTVSPropertyOp2
 70
     1
102
RTVSPropertyOp3
 70
     1
102
RTVSPropertyOp4
 70
     1
102
RTVSPropertyOp5
 70
     1
102
RTVSPropertyOp6
 70
     1
102
RTVSPropertyOp7
 70
     1
102
RTVSPropertyOp8
 70
     1
102
RTVSPropertyOp9
 70
     1
102
RTVSPropertyOp10
 70
     1
102
RTVSPropertyOp11
 70
     1
102
RTVSPropertyOp12
 70
     1
102
RTVSPropertyOp13
 70
     1
102
RTVSPropertyOp14
 70
     1
102
RTVSPropertyOp15
 70
     1
102
RTVSPropertyOp16
 70
     1
102
RTVSPropertyOp17
 70
     1
102
RTVSPropertyOp18
 70
     1
102
RTVSPropertyOp19
 70
     1
102
RTVSPropertyOp20
 70
     1
102
RTVSPropertyOp21
 70
     1
102
RTVSPropertyOp22
 70
     1
102
RTVSPropertyOp23
 70
     1
102
RTVSPropertyOp24
 70
     1
102
RTVSPropertyOp25
 70
     1
102
RTVSPropertyOp26
 70
     1
102
RTVSPropertyOp27
 70
     1
102
RTVSPropertyOp28
 70
     1
102
RTVSPropertyOp29
 70
     1
102
RTVSPropertyOp30
 70
     1
102
RTVSPropertyOp31
 70
     1
102
RTVSPropertyOp32
 70
     1
102
RTVSPropertyOp33
 70
     1
102
RTVSPropertyOp34
 70
     1
102
RTVSPropertyOp35
 70
     1
102
RTVSPropertyOp36
 70
     1
102
RTVSPropertyOp37
 70
     1
102
RTVSPropertyOp38
 70
     1
102
RTVSPropertyOp39
 70
     1
102
RTVSPropertyOp40
 70
     1
102
RTVSPropertyOp41
 70
     1
102
RTVSPropertyOp42
 70
     1
102
RTVSPropertyOp43
 70
     1
102
RTVSPropertyOp44
 70
     1
102
RTVSPropertyOp45
 70
     1
102
RTVSPropertyOp46
 70
     1
102
RTVSPropertyOp47
 70
     1
102
RTVSPropertyOp48
 70
     1
102
RTVSPropertyOp49
 70
     1
102
RTVSPropertyOp50
 70
     1
102
RTVSPropertyOp51
 70
     0
102
RTVSPropertyOp52
 70
     0
102
RTVSPropertyOp53
 70
     1
102
RTVSPropertyOp54
 70
     1
102
RTVSPropertyOp55
 70
     1
102
RTVSPropertyOp56
 70
     1
102
RTVSPropertyOp57
 70
     1
102
RTVSPropertyOp58
 70
     1
102
RTVSPropertyOp59
 70
     1
102
RTVSPropertyOp60
 70
     1
102
RTVSPropertyOp61
 70
     1
102
RTVSPropertyOp62
 70
     1
  0
XRECORD
  5
8470
102
{ACAD_REACTORS
330
846F
102
}
330
846F
100
AcDbXrecord
280
     1
102
RTVSPost2010Prop28
280
     0
102
RTVSPost2010PropOp28
 70
     1
102
RTVSPost2010Prop29
280
     1
102
RTVSPost2010PropOp29
 70
     1
102
RTVSPost2010Prop30
280
     1
102
RTVSPost2010PropOp30
 70
     1
102
RTVSPost2010Prop31
280
     0
102
RTVSPost2010PropOp31
 70
     1
102
RTVSPost2010Prop32
280
     0
102
RTVSPost2010PropOp32
 70
     1
102
RTVSPost2010Prop33
280
     0
102
RTVSPost2010PropOp33
 70
     1
102
RTVSPost2010Prop34
280
     0
102
RTVSPost2010PropOp34
 70
     1
102
RTVSPost2010Prop35
280
     0
102
RTVSPost2010PropOp35
 70
     1
102
RTVSPost2010Prop36
280
     0
102
RTVSPost2010PropOp36
 70
     1
102
RTVSPost2010Prop37
 90
       50
102
RTVSPost2010PropOp37
 70
     1
102
RTVSPost2010Prop38
140
0.0
102
RTVSPost2010PropOp38
 70
     1
102
RTVSPost2010Prop39
140
1.0
102
RTVSPost2010PropOp39
 70
     1
102
RTVSPost2010Prop40
 90
        0
102
RTVSPost2010PropOp40
 70
     1
102
RTVSPost2010Prop41ColorIndex
 90
       18
102
RTVSPost2010Prop41ColorRGB
 90
        0
102
RTVSPost2010PropOp41
 70
     1
102
RTVSPost2010Prop42
 90
       50
102
RTVSPost2010PropOp42
 70
     1
102
RTVSPost2010Prop43
 90
        3
102
RTVSPost2010PropOp43
 70
     1
102
RTVSPost2010Prop44ColorIndex
 90
        5
102
RTVSPost2010Prop44ColorRGB
 90
      255
102
RTVSPost2010PropOp44
 70
     1
102
RTVSPost2010Prop45
280
     0
102
RTVSPost2010PropOp45
 70
     1
102
RTVSPost2010Prop46
 90
       50
102
RTVSPost2010PropOp46
 70
     1
102
RTVSPost2010Prop47
 90
       50
102
RTVSPost2010PropOp47
 70
     1
102
RTVSPost2010Prop48
 90
       50
102
RTVSPost2010PropOp48
 70
     1
102
RTVSPost2010Prop49
280
     0
102
RTVSPost2010PropOp49
 70
     1
102
RTVSPost2010Prop50
 90
       50
102
RTVSPost2010PropOp50
 70
     1
102
RTVSPost2010Prop51ColorIndex
 90
      256
102
RTVSPost2010Prop51ColorRGB
 90
-16777216
102
RTVSPost2010PropOp51
 70
     0
102
RTVSPost2010Prop52
140
1.0
102
RTVSPost2010PropOp52
 70
     0
102
RTVSPost2010Prop53
 90
        2
102
RTVSPost2010PropOp53
 70
     1
102
RTVSPost2010Prop54
  1
strokes_ogs.tif
102
RTVSPost2010PropOp54
 70
     1
102
RTVSPost2010Prop55
280
     0
102
RTVSPost2010PropOp55
 70
     1
102
RTVSPost2010Prop56
140
1.0
102
RTVSPost2010PropOp56
 70
     1
102
RTVSPost2010Prop57
140
1.0
102
RTVSPost2010PropOp57
 70
     1
102
RTVSPropertyOp0
 70
     1
102
RTVSPropertyOp1
 70
     1
102
RTVSPropertyOp2
 70
     1
102
RTVSPropertyOp3
 70
     1
102
RTVSPropertyOp4
 70
     1
102
RTVSPropertyOp5
 70
     1
102
RTVSPropertyOp6
 70
     1
102
RTVSPropertyOp7
 70
     1
102
RTVSPropertyOp8
 70
     1
102
RTVSPropertyOp9
 70
     1
102
RTVSPropertyOp10
 70
     1
102
RTVSPropertyOp11
 70
     1
102
RTVSPropertyOp12
 70
     1
102
RTVSPropertyOp13
 70
     1
102
RTVSPropertyOp14
 70
     1
102
RTVSPropertyOp15
 70
     1
102
RTVSPropertyOp16
 70
     1
102
RTVSPropertyOp17
 70
     1
102
RTVSPropertyOp18
 70
     1
102
RTVSPropertyOp19
 70
     1
102
RTVSPropertyOp20
 70
     1
102
RTVSPropertyOp21
 70
     1
102
RTVSPropertyOp22
 70
     1
102
RTVSPropertyOp23
 70
     1
102
RTVSPropertyOp24
 70
     1
102
RTVSPropertyOp25
 70
     1
102
RTVSPropertyOp26
 70
     1
102
RTVSPropertyOp27
 70
     1
102
RTVSPropertyOp28
 70
     1
102
RTVSPropertyOp29
 70
     1
102
RTVSPropertyOp30
 70
     1
102
RTVSPropertyOp31
 70
     1
102
RTVSPropertyOp32
 70
     1
102
RTVSPropertyOp33
 70
     1
102
RTVSPropertyOp34
 70
     1
102
RTVSPropertyOp35
 70
     1
102
RTVSPropertyOp36
 70
     1
102
RTVSPropertyOp37
 70
     1
102
RTVSPropertyOp38
 70
     1
102
RTVSPropertyOp39
 70
     1
102
RTVSPropertyOp40
 70
     1
102
RTVSPropertyOp41
 70
     1
102
RTVSPropertyOp42
 70
     1
102
RTVSPropertyOp43
 70
     1
102
RTVSPropertyOp44
 70
     1
102
RTVSPropertyOp45
 70
     1
102
RTVSPropertyOp46
 70
     1
102
RTVSPropertyOp47
 70
     1
102
RTVSPropertyOp48
 70
     1
102
RTVSPropertyOp49
 70
     1
102
RTVSPropertyOp50
 70
     1
102
RTVSPropertyOp51
 70
     0
102
RTVSPropertyOp52
 70
     0
102
RTVSPropertyOp53
 70
     1
102
RTVSPropertyOp54
 70
     1
102
RTVSPropertyOp55
 70
     1
102
RTVSPropertyOp56
 70
     1
102
RTVSPropertyOp57
 70
     1
102
RTVSPropertyOp58
 70
     1
102
RTVSPropertyOp59
 70
     1
102
RTVSPropertyOp60
 70
     1
102
RTVSPropertyOp61
 70
     1
102
RTVSPropertyOp62
 70
     1
  0
XRECORD
  5
847E
102
{ACAD_REACTORS
330
847D
102
}
330
847D
100
AcDbXrecord
280
     1
102
RTVSPost2010Prop28
280
     0
102
RTVSPost2010PropOp28
 70
     1
102
RTVSPost2010Prop29
280
     1
102
RTVSPost2010PropOp29
 70
     1
102
RTVSPost2010Prop30
280
     1
102
RTVSPost2010PropOp30
 70
     1
102
RTVSPost2010Prop31
280
     0
102
RTVSPost2010PropOp31
 70
     1
102
RTVSPost2010Prop32
280
     0
102
RTVSPost2010PropOp32
 70
     1
102
RTVSPost2010Prop33
280
     0
102
RTVSPost2010PropOp33
 70
     1
102
RTVSPost2010Prop34
280
     0
102
RTVSPost2010PropOp34
 70
     1
102
RTVSPost2010Prop35
280
     0
102
RTVSPost2010PropOp35
 70
     1
102
RTVSPost2010Prop36
280
     0
102
RTVSPost2010PropOp36
 70
     1
102
RTVSPost2010Prop37
 90
       50
102
RTVSPost2010PropOp37
 70
     1
102
RTVSPost2010Prop38
140
0.0
102
RTVSPost2010PropOp38
 70
     1
102
RTVSPost2010Prop39
140
1.0
102
RTVSPost2010PropOp39
 70
     1
102
RTVSPost2010Prop40
 90
        0
102
RTVSPost2010PropOp40
 70
     1
102
RTVSPost2010Prop41ColorIndex
 90
       18
102
RTVSPost2010Prop41ColorRGB
 90
        0
102
RTVSPost2010PropOp41
 70
     1
102
RTVSPost2010Prop42
 90
       50
102
RTVSPost2010PropOp42
 70
     1
102
RTVSPost2010Prop43
 90
        3
102
RTVSPost2010PropOp43
 70
     1
102
RTVSPost2010Prop44ColorIndex
 90
        5
102
RTVSPost2010Prop44ColorRGB
 90
      255
102
RTVSPost2010PropOp44
 70
     1
102
RTVSPost2010Prop45
280
     0
102
RTVSPost2010PropOp45
 70
     1
102
RTVSPost2010Prop46
 90
       50
102
RTVSPost2010PropOp46
 70
     1
102
RTVSPost2010Prop47
 90
       50
102
RTVSPost2010PropOp47
 70
     1
102
RTVSPost2010Prop48
 90
       50
102
RTVSPost2010PropOp48
 70
     1
102
RTVSPost2010Prop49
280
     0
102
RTVSPost2010PropOp49
 70
     1
102
RTVSPost2010Prop50
 90
       50
102
RTVSPost2010PropOp50
 70
     1
102
RTVSPost2010Prop51ColorIndex
 90
      256
102
RTVSPost2010Prop51ColorRGB
 90
-16777216
102
RTVSPost2010PropOp51
 70
     0
102
RTVSPost2010Prop52
140
1.0
102
RTVSPost2010PropOp52
 70
     0
102
RTVSPost2010Prop53
 90
        2
102
RTVSPost2010PropOp53
 70
     1
102
RTVSPost2010Prop54
  1
strokes_ogs.tif
102
RTVSPost2010PropOp54
 70
     1
102
RTVSPost2010Prop55
280
     0
102
RTVSPost2010PropOp55
 70
     1
102
RTVSPost2010Prop56
140
1.0
102
RTVSPost2010PropOp56
 70
     1
102
RTVSPost2010Prop57
140
1.0
102
RTVSPost2010PropOp57
 70
     1
102
RTVSPropertyOp0
 70
     1
102
RTVSPropertyOp1
 70
     1
102
RTVSPropertyOp2
 70
     1
102
RTVSPropertyOp3
 70
     1
102
RTVSPropertyOp4
 70
     1
102
RTVSPropertyOp5
 70
     1
102
RTVSPropertyOp6
 70
     1
102
RTVSPropertyOp7
 70
     1
102
RTVSPropertyOp8
 70
     1
102
RTVSPropertyOp9
 70
     1
102
RTVSPropertyOp10
 70
     1
102
RTVSPropertyOp11
 70
     1
102
RTVSPropertyOp12
 70
     1
102
RTVSPropertyOp13
 70
     1
102
RTVSPropertyOp14
 70
     1
102
RTVSPropertyOp15
 70
     1
102
RTVSPropertyOp16
 70
     1
102
RTVSPropertyOp17
 70
     1
102
RTVSPropertyOp18
 70
     1
102
RTVSPropertyOp19
 70
     1
102
RTVSPropertyOp20
 70
     1
102
RTVSPropertyOp21
 70
     1
102
RTVSPropertyOp22
 70
     1
102
RTVSPropertyOp23
 70
     1
102
RTVSPropertyOp24
 70
     1
102
RTVSPropertyOp25
 70
     1
102
RTVSPropertyOp26
 70
     1
102
RTVSPropertyOp27
 70
     1
102
RTVSPropertyOp28
 70
     1
102
RTVSPropertyOp29
 70
     1
102
RTVSPropertyOp30
 70
     1
102
RTVSPropertyOp31
 70
     1
102
RTVSPropertyOp32
 70
     1
102
RTVSPropertyOp33
 70
     1
102
RTVSPropertyOp34
 70
     1
102
RTVSPropertyOp35
 70
     1
102
RTVSPropertyOp36
 70
     1
102
RTVSPropertyOp37
 70
     1
102
RTVSPropertyOp38
 70
     1
102
RTVSPropertyOp39
 70
     1
102
RTVSPropertyOp40
 70
     1
102
RTVSPropertyOp41
 70
     1
102
RTVSPropertyOp42
 70
     1
102
RTVSPropertyOp43
 70
     1
102
RTVSPropertyOp44
 70
     1
102
RTVSPropertyOp45
 70
     1
102
RTVSPropertyOp46
 70
     1
102
RTVSPropertyOp47
 70
     1
102
RTVSPropertyOp48
 70
     1
102
RTVSPropertyOp49
 70
     1
102
RTVSPropertyOp50
 70
     1
102
RTVSPropertyOp51
 70
     0
102
RTVSPropertyOp52
 70
     0
102
RTVSPropertyOp53
 70
     1
102
RTVSPropertyOp54
 70
     1
102
RTVSPropertyOp55
 70
     1
102
RTVSPropertyOp56
 70
     1
102
RTVSPropertyOp57
 70
     1
102
RTVSPropertyOp58
 70
     1
102
RTVSPropertyOp59
 70
     1
102
RTVSPropertyOp60
 70
     1
102
RTVSPropertyOp61
 70
     1
102
RTVSPropertyOp62
 70
     1
  0
XRECORD
  5
8486
102
{ACAD_REACTORS
330
8485
102
}
330
8485
100
AcDbXrecord
280
     1
102
RTVSPost2010Prop28
280
     0
102
RTVSPost2010PropOp28
 70
     1
102
RTVSPost2010Prop29
280
     1
102
RTVSPost2010PropOp29
 70
     1
102
RTVSPost2010Prop30
280
     1
102
RTVSPost2010PropOp30
 70
     1
102
RTVSPost2010Prop31
280
     0
102
RTVSPost2010PropOp31
 70
     1
102
RTVSPost2010Prop32
280
     0
102
RTVSPost2010PropOp32
 70
     1
102
RTVSPost2010Prop33
280
     0
102
RTVSPost2010PropOp33
 70
     1
102
RTVSPost2010Prop34
280
     0
102
RTVSPost2010PropOp34
 70
     1
102
RTVSPost2010Prop35
280
     0
102
RTVSPost2010PropOp35
 70
     1
102
RTVSPost2010Prop36
280
     0
102
RTVSPost2010PropOp36
 70
     1
102
RTVSPost2010Prop37
 90
       50
102
RTVSPost2010PropOp37
 70
     1
102
RTVSPost2010Prop38
140
0.0
102
RTVSPost2010PropOp38
 70
     1
102
RTVSPost2010Prop39
140
1.0
102
RTVSPost2010PropOp39
 70
     1
102
RTVSPost2010Prop40
 90
        0
102
RTVSPost2010PropOp40
 70
     1
102
RTVSPost2010Prop41ColorIndex
 90
       18
102
RTVSPost2010Prop41ColorRGB
 90
        0
102
RTVSPost2010PropOp41
 70
     1
102
RTVSPost2010Prop42
 90
       50
102
RTVSPost2010PropOp42
 70
     1
102
RTVSPost2010Prop43
 90
        3
102
RTVSPost2010PropOp43
 70
     1
102
RTVSPost2010Prop44ColorIndex
 90
        5
102
RTVSPost2010Prop44ColorRGB
 90
      255
102
RTVSPost2010PropOp44
 70
     1
102
RTVSPost2010Prop45
280
     0
102
RTVSPost2010PropOp45
 70
     1
102
RTVSPost2010Prop46
 90
       50
102
RTVSPost2010PropOp46
 70
     1
102
RTVSPost2010Prop47
 90
       50
102
RTVSPost2010PropOp47
 70
     1
102
RTVSPost2010Prop48
 90
       50
102
RTVSPost2010PropOp48
 70
     1
102
RTVSPost2010Prop49
280
     0
102
RTVSPost2010PropOp49
 70
     1
102
RTVSPost2010Prop50
 90
       50
102
RTVSPost2010PropOp50
 70
     1
102
RTVSPost2010Prop51ColorIndex
 90
      256
102
RTVSPost2010Prop51ColorRGB
 90
-16777216
102
RTVSPost2010PropOp51
 70
     0
102
RTVSPost2010Prop52
140
1.0
102
RTVSPost2010PropOp52
 70
     0
102
RTVSPost2010Prop53
 90
        2
102
RTVSPost2010PropOp53
 70
     1
102
RTVSPost2010Prop54
  1
strokes_ogs.tif
102
RTVSPost2010PropOp54
 70
     1
102
RTVSPost2010Prop55
280
     0
102
RTVSPost2010PropOp55
 70
     1
102
RTVSPost2010Prop56
140
1.0
102
RTVSPost2010PropOp56
 70
     1
102
RTVSPost2010Prop57
140
1.0
102
RTVSPost2010PropOp57
 70
     1
102
RTVSPropertyOp0
 70
     1
102
RTVSPropertyOp1
 70
     1
102
RTVSPropertyOp2
 70
     1
102
RTVSPropertyOp3
 70
     1
102
RTVSPropertyOp4
 70
     1
102
RTVSPropertyOp5
 70
     1
102
RTVSPropertyOp6
 70
     1
102
RTVSPropertyOp7
 70
     1
102
RTVSPropertyOp8
 70
     1
102
RTVSPropertyOp9
 70
     1
102
RTVSPropertyOp10
 70
     1
102
RTVSPropertyOp11
 70
     1
102
RTVSPropertyOp12
 70
     1
102
RTVSPropertyOp13
 70
     1
102
RTVSPropertyOp14
 70
     1
102
RTVSPropertyOp15
 70
     1
102
RTVSPropertyOp16
 70
     1
102
RTVSPropertyOp17
 70
     1
102
RTVSPropertyOp18
 70
     1
102
RTVSPropertyOp19
 70
     1
102
RTVSPropertyOp20
 70
     1
102
RTVSPropertyOp21
 70
     1
102
RTVSPropertyOp22
 70
     1
102
RTVSPropertyOp23
 70
     1
102
RTVSPropertyOp24
 70
     1
102
RTVSPropertyOp25
 70
     1
102
RTVSPropertyOp26
 70
     1
102
RTVSPropertyOp27
 70
     1
102
RTVSPropertyOp28
 70
     1
102
RTVSPropertyOp29
 70
     1
102
RTVSPropertyOp30
 70
     1
102
RTVSPropertyOp31
 70
     1
102
RTVSPropertyOp32
 70
     1
102
RTVSPropertyOp33
 70
     1
102
RTVSPropertyOp34
 70
     1
102
RTVSPropertyOp35
 70
     1
102
RTVSPropertyOp36
 70
     1
102
RTVSPropertyOp37
 70
     1
102
RTVSPropertyOp38
 70
     1
102
RTVSPropertyOp39
 70
     1
102
RTVSPropertyOp40
 70
     1
102
RTVSPropertyOp41
 70
     1
102
RTVSPropertyOp42
 70
     1
102
RTVSPropertyOp43
 70
     1
102
RTVSPropertyOp44
 70
     1
102
RTVSPropertyOp45
 70
     1
102
RTVSPropertyOp46
 70
     1
102
RTVSPropertyOp47
 70
     1
102
RTVSPropertyOp48
 70
     1
102
RTVSPropertyOp49
 70
     1
102
RTVSPropertyOp50
 70
     1
102
RTVSPropertyOp51
 70
     0
102
RTVSPropertyOp52
 70
     0
102
RTVSPropertyOp53
 70
     1
102
RTVSPropertyOp54
 70
     1
102
RTVSPropertyOp55
 70
     1
102
RTVSPropertyOp56
 70
     1
102
RTVSPropertyOp57
 70
     1
102
RTVSPropertyOp58
 70
     1
102
RTVSPropertyOp59
 70
     1
102
RTVSPropertyOp60
 70
     1
102
RTVSPropertyOp61
 70
     1
102
RTVSPropertyOp62
 70
     1
  0
XRECORD
  5
8478
102
{ACAD_REACTORS
330
8477
102
}
330
8477
100
AcDbXrecord
280
     1
102
RTVSPost2010Prop28
280
     0
102
RTVSPost2010PropOp28
 70
     1
102
RTVSPost2010Prop29
280
     1
102
RTVSPost2010PropOp29
 70
     1
102
RTVSPost2010Prop30
280
     1
102
RTVSPost2010PropOp30
 70
     1
102
RTVSPost2010Prop31
280
     0
102
RTVSPost2010PropOp31
 70
     1
102
RTVSPost2010Prop32
280
     0
102
RTVSPost2010PropOp32
 70
     1
102
RTVSPost2010Prop33
280
     0
102
RTVSPost2010PropOp33
 70
     1
102
RTVSPost2010Prop34
280
     0
102
RTVSPost2010PropOp34
 70
     1
102
RTVSPost2010Prop35
280
     0
102
RTVSPost2010PropOp35
 70
     1
102
RTVSPost2010Prop36
280
     0
102
RTVSPost2010PropOp36
 70
     1
102
RTVSPost2010Prop37
 90
       50
102
RTVSPost2010PropOp37
 70
     1
102
RTVSPost2010Prop38
140
0.0
102
RTVSPost2010PropOp38
 70
     1
102
RTVSPost2010Prop39
140
1.0
102
RTVSPost2010PropOp39
 70
     1
102
RTVSPost2010Prop40
 90
        0
102
RTVSPost2010PropOp40
 70
     1
102
RTVSPost2010Prop41ColorIndex
 90
       18
102
RTVSPost2010Prop41ColorRGB
 90
        0
102
RTVSPost2010PropOp41
 70
     1
102
RTVSPost2010Prop42
 90
       50
102
RTVSPost2010PropOp42
 70
     1
102
RTVSPost2010Prop43
 90
        3
102
RTVSPost2010PropOp43
 70
     1
102
RTVSPost2010Prop44ColorIndex
 90
        5
102
RTVSPost2010Prop44ColorRGB
 90
      255
102
RTVSPost2010PropOp44
 70
     1
102
RTVSPost2010Prop45
280
     0
102
RTVSPost2010PropOp45
 70
     1
102
RTVSPost2010Prop46
 90
       50
102
RTVSPost2010PropOp46
 70
     1
102
RTVSPost2010Prop47
 90
       50
102
RTVSPost2010PropOp47
 70
     1
102
RTVSPost2010Prop48
 90
       50
102
RTVSPost2010PropOp48
 70
     1
102
RTVSPost2010Prop49
280
     0
102
RTVSPost2010PropOp49
 70
     1
102
RTVSPost2010Prop50
 90
       50
102
RTVSPost2010PropOp50
 70
     1
102
RTVSPost2010Prop51ColorIndex
 90
      256
102
RTVSPost2010Prop51ColorRGB
 90
-16777216
102
RTVSPost2010PropOp51
 70
     0
102
RTVSPost2010Prop52
140
1.0
102
RTVSPost2010PropOp52
 70
     0
102
RTVSPost2010Prop53
 90
        2
102
RTVSPost2010PropOp53
 70
     1
102
RTVSPost2010Prop54
  1
strokes_ogs.tif
102
RTVSPost2010PropOp54
 70
     1
102
RTVSPost2010Prop55
280
     0
102
RTVSPost2010PropOp55
 70
     1
102
RTVSPost2010Prop56
140
1.0
102
RTVSPost2010PropOp56
 70
     1
102
RTVSPost2010Prop57
140
1.0
102
RTVSPost2010PropOp57
 70
     1
102
RTVSPropertyOp0
 70
     1
102
RTVSPropertyOp1
 70
     1
102
RTVSPropertyOp2
 70
     1
102
RTVSPropertyOp3
 70
     1
102
RTVSPropertyOp4
 70
     1
102
RTVSPropertyOp5
 70
     1
102
RTVSPropertyOp6
 70
     1
102
RTVSPropertyOp7
 70
     1
102
RTVSPropertyOp8
 70
     1
102
RTVSPropertyOp9
 70
     1
102
RTVSPropertyOp10
 70
     1
102
RTVSPropertyOp11
 70
     1
102
RTVSPropertyOp12
 70
     1
102
RTVSPropertyOp13
 70
     1
102
RTVSPropertyOp14
 70
     1
102
RTVSPropertyOp15
 70
     1
102
RTVSPropertyOp16
 70
     1
102
RTVSPropertyOp17
 70
     1
102
RTVSPropertyOp18
 70
     1
102
RTVSPropertyOp19
 70
     1
102
RTVSPropertyOp20
 70
     1
102
RTVSPropertyOp21
 70
     1
102
RTVSPropertyOp22
 70
     1
102
RTVSPropertyOp23
 70
     1
102
RTVSPropertyOp24
 70
     1
102
RTVSPropertyOp25
 70
     1
102
RTVSPropertyOp26
 70
     1
102
RTVSPropertyOp27
 70
     1
102
RTVSPropertyOp28
 70
     1
102
RTVSPropertyOp29
 70
     1
102
RTVSPropertyOp30
 70
     1
102
RTVSPropertyOp31
 70
     1
102
RTVSPropertyOp32
 70
     1
102
RTVSPropertyOp33
 70
     1
102
RTVSPropertyOp34
 70
     1
102
RTVSPropertyOp35
 70
     1
102
RTVSPropertyOp36
 70
     1
102
RTVSPropertyOp37
 70
     1
102
RTVSPropertyOp38
 70
     1
102
RTVSPropertyOp39
 70
     1
102
RTVSPropertyOp40
 70
     1
102
RTVSPropertyOp41
 70
     1
102
RTVSPropertyOp42
 70
     1
102
RTVSPropertyOp43
 70
     1
102
RTVSPropertyOp44
 70
     1
102
RTVSPropertyOp45
 70
     1
102
RTVSPropertyOp46
 70
     1
102
RTVSPropertyOp47
 70
     1
102
RTVSPropertyOp48
 70
     1
102
RTVSPropertyOp49
 70
     1
102
RTVSPropertyOp50
 70
     1
102
RTVSPropertyOp51
 70
     0
102
RTVSPropertyOp52
 70
     0
102
RTVSPropertyOp53
 70
     1
102
RTVSPropertyOp54
 70
     1
102
RTVSPropertyOp55
 70
     1
102
RTVSPropertyOp56
 70
     1
102
RTVSPropertyOp57
 70
     1
102
RTVSPropertyOp58
 70
     1
102
RTVSPropertyOp59
 70
     1
102
RTVSPropertyOp60
 70
     1
102
RTVSPropertyOp61
 70
     1
102
RTVSPropertyOp62
 70
     1
  0
XRECORD
  5
847C
102
{ACAD_REACTORS
330
847B
102
}
330
847B
100
AcDbXrecord
280
     1
102
RTVSPost2010Prop28
280
     0
102
RTVSPost2010PropOp28
 70
     1
102
RTVSPost2010Prop29
280
     1
102
RTVSPost2010PropOp29
 70
     1
102
RTVSPost2010Prop30
280
     1
102
RTVSPost2010PropOp30
 70
     1
102
RTVSPost2010Prop31
280
     0
102
RTVSPost2010PropOp31
 70
     1
102
RTVSPost2010Prop32
280
     0
102
RTVSPost2010PropOp32
 70
     1
102
RTVSPost2010Prop33
280
     0
102
RTVSPost2010PropOp33
 70
     1
102
RTVSPost2010Prop34
280
     0
102
RTVSPost2010PropOp34
 70
     1
102
RTVSPost2010Prop35
280
     0
102
RTVSPost2010PropOp35
 70
     1
102
RTVSPost2010Prop36
280
     0
102
RTVSPost2010PropOp36
 70
     1
102
RTVSPost2010Prop37
 90
       50
102
RTVSPost2010PropOp37
 70
     1
102
RTVSPost2010Prop38
140
0.0
102
RTVSPost2010PropOp38
 70
     1
102
RTVSPost2010Prop39
140
1.0
102
RTVSPost2010PropOp39
 70
     1
102
RTVSPost2010Prop40
 90
        0
102
RTVSPost2010PropOp40
 70
     1
102
RTVSPost2010Prop41ColorIndex
 90
       18
102
RTVSPost2010Prop41ColorRGB
 90
        0
102
RTVSPost2010PropOp41
 70
     1
102
RTVSPost2010Prop42
 90
       50
102
RTVSPost2010PropOp42
 70
     1
102
RTVSPost2010Prop43
 90
        3
102
RTVSPost2010PropOp43
 70
     1
102
RTVSPost2010Prop44ColorIndex
 90
        5
102
RTVSPost2010Prop44ColorRGB
 90
      255
102
RTVSPost2010PropOp44
 70
     1
102
RTVSPost2010Prop45
280
     0
102
RTVSPost2010PropOp45
 70
     1
102
RTVSPost2010Prop46
 90
       50
102
RTVSPost2010PropOp46
 70
     1
102
RTVSPost2010Prop47
 90
       50
102
RTVSPost2010PropOp47
 70
     1
102
RTVSPost2010Prop48
 90
       50
102
RTVSPost2010PropOp48
 70
     1
102
RTVSPost2010Prop49
280
     0
102
RTVSPost2010PropOp49
 70
     1
102
RTVSPost2010Prop50
 90
       50
102
RTVSPost2010PropOp50
 70
     1
102
RTVSPost2010Prop51ColorIndex
 90
      256
102
RTVSPost2010Prop51ColorRGB
 90
-16777216
102
RTVSPost2010PropOp51
 70
     0
102
RTVSPost2010Prop52
140
1.0
102
RTVSPost2010PropOp52
 70
     0
102
RTVSPost2010Prop53
 90
        2
102
RTVSPost2010PropOp53
 70
     1
102
RTVSPost2010Prop54
  1
strokes_ogs.tif
102
RTVSPost2010PropOp54
 70
     1
102
RTVSPost2010Prop55
280
     0
102
RTVSPost2010PropOp55
 70
     1
102
RTVSPost2010Prop56
140
1.0
102
RTVSPost2010PropOp56
 70
     1
102
RTVSPost2010Prop57
140
1.0
102
RTVSPost2010PropOp57
 70
     1
102
RTVSPropertyOp0
 70
     1
102
RTVSPropertyOp1
 70
     1
102
RTVSPropertyOp2
 70
     1
102
RTVSPropertyOp3
 70
     1
102
RTVSPropertyOp4
 70
     1
102
RTVSPropertyOp5
 70
     1
102
RTVSPropertyOp6
 70
     1
102
RTVSPropertyOp7
 70
     1
102
RTVSPropertyOp8
 70
     1
102
RTVSPropertyOp9
 70
     1
102
RTVSPropertyOp10
 70
     1
102
RTVSPropertyOp11
 70
     1
102
RTVSPropertyOp12
 70
     1
102
RTVSPropertyOp13
 70
     1
102
RTVSPropertyOp14
 70
     1
102
RTVSPropertyOp15
 70
     1
102
RTVSPropertyOp16
 70
     1
102
RTVSPropertyOp17
 70
     1
102
RTVSPropertyOp18
 70
     1
102
RTVSPropertyOp19
 70
     1
102
RTVSPropertyOp20
 70
     1
102
RTVSPropertyOp21
 70
     1
102
RTVSPropertyOp22
 70
     1
102
RTVSPropertyOp23
 70
     1
102
RTVSPropertyOp24
 70
     1
102
RTVSPropertyOp25
 70
     1
102
RTVSPropertyOp26
 70
     1
102
RTVSPropertyOp27
 70
     1
102
RTVSPropertyOp28
 70
     1
102
RTVSPropertyOp29
 70
     1
102
RTVSPropertyOp30
 70
     1
102
RTVSPropertyOp31
 70
     1
102
RTVSPropertyOp32
 70
     1
102
RTVSPropertyOp33
 70
     1
102
RTVSPropertyOp34
 70
     1
102
RTVSPropertyOp35
 70
     1
102
RTVSPropertyOp36
 70
     1
102
RTVSPropertyOp37
 70
     1
102
RTVSPropertyOp38
 70
     1
102
RTVSPropertyOp39
 70
     1
102
RTVSPropertyOp40
 70
     1
102
RTVSPropertyOp41
 70
     1
102
RTVSPropertyOp42
 70
     1
102
RTVSPropertyOp43
 70
     1
102
RTVSPropertyOp44
 70
     1
102
RTVSPropertyOp45
 70
     1
102
RTVSPropertyOp46
 70
     1
102
RTVSPropertyOp47
 70
     1
102
RTVSPropertyOp48
 70
     1
102
RTVSPropertyOp49
 70
     1
102
RTVSPropertyOp50
 70
     1
102
RTVSPropertyOp51
 70
     0
102
RTVSPropertyOp52
 70
     0
102
RTVSPropertyOp53
 70
     1
102
RTVSPropertyOp54
 70
     1
102
RTVSPropertyOp55
 70
     1
102
RTVSPropertyOp56
 70
     1
102
RTVSPropertyOp57
 70
     1
102
RTVSPropertyOp58
 70
     1
102
RTVSPropertyOp59
 70
     1
102
RTVSPropertyOp60
 70
     1
102
RTVSPropertyOp61
 70
     1
102
RTVSPropertyOp62
 70
     1
  0
XRECORD
  5
8496
102
{ACAD_REACTORS
330
8495
102
}
330
8495
100
AcDbXrecord
280
     1
102
RTVSPost2010Prop28
280
     0
102
RTVSPost2010PropOp28
 70
     1
102
RTVSPost2010Prop29
280
     1
102
RTVSPost2010PropOp29
 70
     1
102
RTVSPost2010Prop30
280
     1
102
RTVSPost2010PropOp30
 70
     1
102
RTVSPost2010Prop31
280
     0
102
RTVSPost2010PropOp31
 70
     1
102
RTVSPost2010Prop32
280
     0
102
RTVSPost2010PropOp32
 70
     1
102
RTVSPost2010Prop33
280
     0
102
RTVSPost2010PropOp33
 70
     1
102
RTVSPost2010Prop34
280
     0
102
RTVSPost2010PropOp34
 70
     1
102
RTVSPost2010Prop35
280
     0
102
RTVSPost2010PropOp35
 70
     1
102
RTVSPost2010Prop36
280
     0
102
RTVSPost2010PropOp36
 70
     1
102
RTVSPost2010Prop37
 90
       50
102
RTVSPost2010PropOp37
 70
     0
102
RTVSPost2010Prop38
140
0.0
102
RTVSPost2010PropOp38
 70
     0
102
RTVSPost2010Prop39
140
1.0
102
RTVSPost2010PropOp39
 70
     0
102
RTVSPost2010Prop40
 90
        0
102
RTVSPost2010PropOp40
 70
     0
102
RTVSPost2010Prop41ColorIndex
 90
       18
102
RTVSPost2010Prop41ColorRGB
 90
        0
102
RTVSPost2010PropOp41
 70
     0
102
RTVSPost2010Prop42
 90
       50
102
RTVSPost2010PropOp42
 70
     0
102
RTVSPost2010Prop43
 90
        3
102
RTVSPost2010PropOp43
 70
     0
102
RTVSPost2010Prop44ColorIndex
 90
        5
102
RTVSPost2010Prop44ColorRGB
 90
      255
102
RTVSPost2010PropOp44
 70
     0
102
RTVSPost2010Prop45
280
     0
102
RTVSPost2010PropOp45
 70
     1
102
RTVSPost2010Prop46
 90
       50
102
RTVSPost2010PropOp46
 70
     0
102
RTVSPost2010Prop47
 90
       50
102
RTVSPost2010PropOp47
 70
     0
102
RTVSPost2010Prop48
 90
       50
102
RTVSPost2010PropOp48
 70
     0
102
RTVSPost2010Prop49
280
     0
102
RTVSPost2010PropOp49
 70
     1
102
RTVSPost2010Prop50
 90
       50
102
RTVSPost2010PropOp50
 70
     0
102
RTVSPost2010Prop51ColorIndex
 90
      256
102
RTVSPost2010Prop51ColorRGB
 90
-16777216
102
RTVSPost2010PropOp51
 70
     0
102
RTVSPost2010Prop52
140
1.0
102
RTVSPost2010PropOp52
 70
     0
102
RTVSPost2010Prop53
 90
        2
102
RTVSPost2010PropOp53
 70
     0
102
RTVSPost2010Prop54
  1
strokes_ogs.tif
102
RTVSPost2010PropOp54
 70
     0
102
RTVSPost2010Prop55
280
     0
102
RTVSPost2010PropOp55
 70
     1
102
RTVSPost2010Prop56
140
1.0
102
RTVSPost2010PropOp56
 70
     0
102
RTVSPost2010Prop57
140
1.0
102
RTVSPost2010PropOp57
 70
     0
102
RTVSPropertyOp0
 70
     0
102
RTVSPropertyOp1
 70
     0
102
RTVSPropertyOp2
 70
     0
102
RTVSPropertyOp3
 70
     0
102
RTVSPropertyOp4
 70
     0
102
RTVSPropertyOp5
 70
     0
102
RTVSPropertyOp6
 70
     0
102
RTVSPropertyOp7
 70
     0
102
RTVSPropertyOp8
 70
     0
102
RTVSPropertyOp9
 70
     0
102
RTVSPropertyOp10
 70
     0
102
RTVSPropertyOp11
 70
     0
102
RTVSPropertyOp12
 70
     0
102
RTVSPropertyOp13
 70
     0
102
RTVSPropertyOp14
 70
     2
102
RTVSPropertyOp15
 70
     0
102
RTVSPropertyOp16
 70
     0
102
RTVSPropertyOp17
 70
     0
102
RTVSPropertyOp18
 70
     0
102
RTVSPropertyOp19
 70
     0
102
RTVSPropertyOp20
 70
     0
102
RTVSPropertyOp21
 70
     0
102
RTVSPropertyOp22
 70
     0
102
RTVSPropertyOp23
 70
     0
102
RTVSPropertyOp24
 70
     0
102
RTVSPropertyOp25
 70
     0
102
RTVSPropertyOp26
 70
     0
102
RTVSPropertyOp27
 70
     0
102
RTVSPropertyOp28
 70
     1
102
RTVSPropertyOp29
 70
     1
102
RTVSPropertyOp30
 70
     1
102
RTVSPropertyOp31
 70
     1
102
RTVSPropertyOp32
 70
     1
102
RTVSPropertyOp33
 70
     1
102
RTVSPropertyOp34
 70
     1
102
RTVSPropertyOp35
 70
     1
102
RTVSPropertyOp36
 70
     1
102
RTVSPropertyOp37
 70
     0
102
RTVSPropertyOp38
 70
     0
102
RTVSPropertyOp39
 70
     0
102
RTVSPropertyOp40
 70
     0
102
RTVSPropertyOp41
 70
     0
102
RTVSPropertyOp42
 70
     0
102
RTVSPropertyOp43
 70
     0
102
RTVSPropertyOp44
 70
     0
102
RTVSPropertyOp45
 70
     1
102
RTVSPropertyOp46
 70
     0
102
RTVSPropertyOp47
 70
     0
102
RTVSPropertyOp48
 70
     0
102
RTVSPropertyOp49
 70
     1
102
RTVSPropertyOp50
 70
     0
102
RTVSPropertyOp51
 70
     0
102
RTVSPropertyOp52
 70
     0
102
RTVSPropertyOp53
 70
     0
102
RTVSPropertyOp54
 70
     0
102
RTVSPropertyOp55
 70
     1
102
RTVSPropertyOp56
 70
     0
102
RTVSPropertyOp57
 70
     0
102
RTVSPropertyOp58
 70
     0
102
RTVSPropertyOp59
 70
     0
102
RTVSPropertyOp60
 70
     0
102
RTVSPropertyOp61
 70
     0
102
RTVSPropertyOp62
 70
     0
  0
XRECORD
  5
8484
102
{ACAD_REACTORS
330
8483
102
}
330
8483
100
AcDbXrecord
280
     1
102
RTVSPost2010Prop28
280
     0
102
RTVSPost2010PropOp28
 70
     1
102
RTVSPost2010Prop29
280
     1
102
RTVSPost2010PropOp29
 70
     1
102
RTVSPost2010Prop30
280
     1
102
RTVSPost2010PropOp30
 70
     1
102
RTVSPost2010Prop31
280
     0
102
RTVSPost2010PropOp31
 70
     1
102
RTVSPost2010Prop32
280
     0
102
RTVSPost2010PropOp32
 70
     1
102
RTVSPost2010Prop33
280
     0
102
RTVSPost2010PropOp33
 70
     1
102
RTVSPost2010Prop34
280
     0
102
RTVSPost2010PropOp34
 70
     1
102
RTVSPost2010Prop35
280
     0
102
RTVSPost2010PropOp35
 70
     1
102
RTVSPost2010Prop36
280
     0
102
RTVSPost2010PropOp36
 70
     1
102
RTVSPost2010Prop37
 90
       50
102
RTVSPost2010PropOp37
 70
     1
102
RTVSPost2010Prop38
140
0.0
102
RTVSPost2010PropOp38
 70
     1
102
RTVSPost2010Prop39
140
1.0
102
RTVSPost2010PropOp39
 70
     1
102
RTVSPost2010Prop40
 90
        0
102
RTVSPost2010PropOp40
 70
     1
102
RTVSPost2010Prop41ColorIndex
 90
       18
102
RTVSPost2010Prop41ColorRGB
 90
        0
102
RTVSPost2010PropOp41
 70
     1
102
RTVSPost2010Prop42
 90
       50
102
RTVSPost2010PropOp42
 70
     1
102
RTVSPost2010Prop43
 90
        3
102
RTVSPost2010PropOp43
 70
     1
102
RTVSPost2010Prop44ColorIndex
 90
        5
102
RTVSPost2010Prop44ColorRGB
 90
      255
102
RTVSPost2010PropOp44
 70
     1
102
RTVSPost2010Prop45
280
     0
102
RTVSPost2010PropOp45
 70
     1
102
RTVSPost2010Prop46
 90
       50
102
RTVSPost2010PropOp46
 70
     1
102
RTVSPost2010Prop47
 90
       50
102
RTVSPost2010PropOp47
 70
     1
102
RTVSPost2010Prop48
 90
       50
102
RTVSPost2010PropOp48
 70
     1
102
RTVSPost2010Prop49
280
     0
102
RTVSPost2010PropOp49
 70
     1
102
RTVSPost2010Prop50
 90
       50
102
RTVSPost2010PropOp50
 70
     1
102
RTVSPost2010Prop51ColorIndex
 90
      256
102
RTVSPost2010Prop51ColorRGB
 90
-16777216
102
RTVSPost2010PropOp51
 70
     0
102
RTVSPost2010Prop52
140
1.0
102
RTVSPost2010PropOp52
 70
     0
102
RTVSPost2010Prop53
 90
        2
102
RTVSPost2010PropOp53
 70
     1
102
RTVSPost2010Prop54
  1
strokes_ogs.tif
102
RTVSPost2010PropOp54
 70
     1
102
RTVSPost2010Prop55
280
     0
102
RTVSPost2010PropOp55
 70
     1
102
RTVSPost2010Prop56
140
1.0
102
RTVSPost2010PropOp56
 70
     1
102
RTVSPost2010Prop57
140
1.0
102
RTVSPost2010PropOp57
 70
     1
102
RTVSPropertyOp0
 70
     1
102
RTVSPropertyOp1
 70
     1
102
RTVSPropertyOp2
 70
     1
102
RTVSPropertyOp3
 70
     1
102
RTVSPropertyOp4
 70
     1
102
RTVSPropertyOp5
 70
     1
102
RTVSPropertyOp6
 70
     1
102
RTVSPropertyOp7
 70
     1
102
RTVSPropertyOp8
 70
     1
102
RTVSPropertyOp9
 70
     1
102
RTVSPropertyOp10
 70
     1
102
RTVSPropertyOp11
 70
     1
102
RTVSPropertyOp12
 70
     1
102
RTVSPropertyOp13
 70
     1
102
RTVSPropertyOp14
 70
     1
102
RTVSPropertyOp15
 70
     1
102
RTVSPropertyOp16
 70
     1
102
RTVSPropertyOp17
 70
     1
102
RTVSPropertyOp18
 70
     1
102
RTVSPropertyOp19
 70
     1
102
RTVSPropertyOp20
 70
     1
102
RTVSPropertyOp21
 70
     1
102
RTVSPropertyOp22
 70
     1
102
RTVSPropertyOp23
 70
     1
102
RTVSPropertyOp24
 70
     1
102
RTVSPropertyOp25
 70
     1
102
RTVSPropertyOp26
 70
     1
102
RTVSPropertyOp27
 70
     1
102
RTVSPropertyOp28
 70
     1
102
RTVSPropertyOp29
 70
     1
102
RTVSPropertyOp30
 70
     1
102
RTVSPropertyOp31
 70
     1
102
RTVSPropertyOp32
 70
     1
102
RTVSPropertyOp33
 70
     1
102
RTVSPropertyOp34
 70
     1
102
RTVSPropertyOp35
 70
     1
102
RTVSPropertyOp36
 70
     1
102
RTVSPropertyOp37
 70
     1
102
RTVSPropertyOp38
 70
     1
102
RTVSPropertyOp39
 70
     1
102
RTVSPropertyOp40
 70
     1
102
RTVSPropertyOp41
 70
     1
102
RTVSPropertyOp42
 70
     1
102
RTVSPropertyOp43
 70
     1
102
RTVSPropertyOp44
 70
     1
102
RTVSPropertyOp45
 70
     1
102
RTVSPropertyOp46
 70
     1
102
RTVSPropertyOp47
 70
     1
102
RTVSPropertyOp48
 70
     1
102
RTVSPropertyOp49
 70
     1
102
RTVSPropertyOp50
 70
     1
102
RTVSPropertyOp51
 70
     0
102
RTVSPropertyOp52
 70
     0
102
RTVSPropertyOp53
 70
     1
102
RTVSPropertyOp54
 70
     1
102
RTVSPropertyOp55
 70
     1
102
RTVSPropertyOp56
 70
     1
102
RTVSPropertyOp57
 70
     1
102
RTVSPropertyOp58
 70
     1
102
RTVSPropertyOp59
 70
     1
102
RTVSPropertyOp60
 70
     1
102
RTVSPropertyOp61
 70
     1
102
RTVSPropertyOp62
 70
     1
  0
XRECORD
  5
8468
102
{ACAD_REACTORS
330
8467
102
}
330
8467
100
AcDbXrecord
280
     1
102
RTVSPost2010Prop28
280
     0
102
RTVSPost2010PropOp28
 70
     1
102
RTVSPost2010Prop29
280
     1
102
RTVSPost2010PropOp29
 70
     1
102
RTVSPost2010Prop30
280
     1
102
RTVSPost2010PropOp30
 70
     1
102
RTVSPost2010Prop31
280
     0
102
RTVSPost2010PropOp31
 70
     1
102
RTVSPost2010Prop32
280
     0
102
RTVSPost2010PropOp32
 70
     1
102
RTVSPost2010Prop33
280
     0
102
RTVSPost2010PropOp33
 70
     1
102
RTVSPost2010Prop34
280
     0
102
RTVSPost2010PropOp34
 70
     1
102
RTVSPost2010Prop35
280
     0
102
RTVSPost2010PropOp35
 70
     1
102
RTVSPost2010Prop36
280
     0
102
RTVSPost2010PropOp36
 70
     1
102
RTVSPost2010Prop37
 90
       50
102
RTVSPost2010PropOp37
 70
     1
102
RTVSPost2010Prop38
140
0.0
102
RTVSPost2010PropOp38
 70
     1
102
RTVSPost2010Prop39
140
1.0
102
RTVSPost2010PropOp39
 70
     1
102
RTVSPost2010Prop40
 90
        0
102
RTVSPost2010PropOp40
 70
     1
102
RTVSPost2010Prop41ColorIndex
 90
       18
102
RTVSPost2010Prop41ColorRGB
 90
        0
102
RTVSPost2010PropOp41
 70
     1
102
RTVSPost2010Prop42
 90
       50
102
RTVSPost2010PropOp42
 70
     1
102
RTVSPost2010Prop43
 90
        3
102
RTVSPost2010PropOp43
 70
     1
102
RTVSPost2010Prop44ColorIndex
 90
        5
102
RTVSPost2010Prop44ColorRGB
 90
      255
102
RTVSPost2010PropOp44
 70
     1
102
RTVSPost2010Prop45
280
     0
102
RTVSPost2010PropOp45
 70
     1
102
RTVSPost2010Prop46
 90
       50
102
RTVSPost2010PropOp46
 70
     1
102
RTVSPost2010Prop47
 90
       50
102
RTVSPost2010PropOp47
 70
     1
102
RTVSPost2010Prop48
 90
       50
102
RTVSPost2010PropOp48
 70
     1
102
RTVSPost2010Prop49
280
     0
102
RTVSPost2010PropOp49
 70
     1
102
RTVSPost2010Prop50
 90
       50
102
RTVSPost2010PropOp50
 70
     1
102
RTVSPost2010Prop51ColorIndex
 90
      256
102
RTVSPost2010Prop51ColorRGB
 90
-16777216
102
RTVSPost2010PropOp51
 70
     0
102
RTVSPost2010Prop52
140
1.0
102
RTVSPost2010PropOp52
 70
     0
102
RTVSPost2010Prop53
 90
        2
102
RTVSPost2010PropOp53
 70
     1
102
RTVSPost2010Prop54
  1
strokes_ogs.tif
102
RTVSPost2010PropOp54
 70
     1
102
RTVSPost2010Prop55
280
     0
102
RTVSPost2010PropOp55
 70
     1
102
RTVSPost2010Prop56
140
1.0
102
RTVSPost2010PropOp56
 70
     1
102
RTVSPost2010Prop57
140
1.0
102
RTVSPost2010PropOp57
 70
     1
102
RTVSPropertyOp0
 70
     1
102
RTVSPropertyOp1
 70
     1
102
RTVSPropertyOp2
 70
     1
102
RTVSPropertyOp3
 70
     1
102
RTVSPropertyOp4
 70
     1
102
RTVSPropertyOp5
 70
     1
102
RTVSPropertyOp6
 70
     1
102
RTVSPropertyOp7
 70
     1
102
RTVSPropertyOp8
 70
     1
102
RTVSPropertyOp9
 70
     1
102
RTVSPropertyOp10
 70
     1
102
RTVSPropertyOp11
 70
     1
102
RTVSPropertyOp12
 70
     1
102
RTVSPropertyOp13
 70
     1
102
RTVSPropertyOp14
 70
     1
102
RTVSPropertyOp15
 70
     1
102
RTVSPropertyOp16
 70
     1
102
RTVSPropertyOp17
 70
     1
102
RTVSPropertyOp18
 70
     1
102
RTVSPropertyOp19
 70
     1
102
RTVSPropertyOp20
 70
     1
102
RTVSPropertyOp21
 70
     1
102
RTVSPropertyOp22
 70
     1
102
RTVSPropertyOp23
 70
     1
102
RTVSPropertyOp24
 70
     1
102
RTVSPropertyOp25
 70
     1
102
RTVSPropertyOp26
 70
     1
102
RTVSPropertyOp27
 70
     1
102
RTVSPropertyOp28
 70
     1
102
RTVSPropertyOp29
 70
     1
102
RTVSPropertyOp30
 70
     1
102
RTVSPropertyOp31
 70
     1
102
RTVSPropertyOp32
 70
     1
102
RTVSPropertyOp33
 70
     1
102
RTVSPropertyOp34
 70
     1
102
RTVSPropertyOp35
 70
     1
102
RTVSPropertyOp36
 70
     1
102
RTVSPropertyOp37
 70
     1
102
RTVSPropertyOp38
 70
     1
102
RTVSPropertyOp39
 70
     1
102
RTVSPropertyOp40
 70
     1
102
RTVSPropertyOp41
 70
     1
102
RTVSPropertyOp42
 70
     1
102
RTVSPropertyOp43
 70
     1
102
RTVSPropertyOp44
 70
     1
102
RTVSPropertyOp45
 70
     1
102
RTVSPropertyOp46
 70
     1
102
RTVSPropertyOp47
 70
     1
102
RTVSPropertyOp48
 70
     1
102
RTVSPropertyOp49
 70
     1
102
RTVSPropertyOp50
 70
     1
102
RTVSPropertyOp51
 70
     0
102
RTVSPropertyOp52
 70
     0
102
RTVSPropertyOp53
 70
     1
102
RTVSPropertyOp54
 70
     1
102
RTVSPropertyOp55
 70
     1
102
RTVSPropertyOp56
 70
     1
102
RTVSPropertyOp57
 70
     1
102
RTVSPropertyOp58
 70
     1
102
RTVSPropertyOp59
 70
     1
102
RTVSPropertyOp60
 70
     1
102
RTVSPropertyOp61
 70
     1
102
RTVSPropertyOp62
 70
     1
  0
XRECORD
  5
846A
102
{ACAD_REACTORS
330
8469
102
}
330
8469
100
AcDbXrecord
280
     1
102
RTVSPost2010Prop28
280
     0
102
RTVSPost2010PropOp28
 70
     1
102
RTVSPost2010Prop29
280
     1
102
RTVSPost2010PropOp29
 70
     1
102
RTVSPost2010Prop30
280
     1
102
RTVSPost2010PropOp30
 70
     1
102
RTVSPost2010Prop31
280
     0
102
RTVSPost2010PropOp31
 70
     1
102
RTVSPost2010Prop32
280
     0
102
RTVSPost2010PropOp32
 70
     1
102
RTVSPost2010Prop33
280
     0
102
RTVSPost2010PropOp33
 70
     1
102
RTVSPost2010Prop34
280
     0
102
RTVSPost2010PropOp34
 70
     1
102
RTVSPost2010Prop35
280
     0
102
RTVSPost2010PropOp35
 70
     1
102
RTVSPost2010Prop36
280
     0
102
RTVSPost2010PropOp36
 70
     1
102
RTVSPost2010Prop37
 90
       50
102
RTVSPost2010PropOp37
 70
     1
102
RTVSPost2010Prop38
140
0.0
102
RTVSPost2010PropOp38
 70
     1
102
RTVSPost2010Prop39
140
1.0
102
RTVSPost2010PropOp39
 70
     1
102
RTVSPost2010Prop40
 90
        0
102
RTVSPost2010PropOp40
 70
     1
102
RTVSPost2010Prop41ColorIndex
 90
       18
102
RTVSPost2010Prop41ColorRGB
 90
        0
102
RTVSPost2010PropOp41
 70
     1
102
RTVSPost2010Prop42
 90
       50
102
RTVSPost2010PropOp42
 70
     1
102
RTVSPost2010Prop43
 90
        3
102
RTVSPost2010PropOp43
 70
     1
102
RTVSPost2010Prop44ColorIndex
 90
        5
102
RTVSPost2010Prop44ColorRGB
 90
      255
102
RTVSPost2010PropOp44
 70
     1
102
RTVSPost2010Prop45
280
     0
102
RTVSPost2010PropOp45
 70
     1
102
RTVSPost2010Prop46
 90
       50
102
RTVSPost2010PropOp46
 70
     1
102
RTVSPost2010Prop47
 90
       50
102
RTVSPost2010PropOp47
 70
     1
102
RTVSPost2010Prop48
 90
       50
102
RTVSPost2010PropOp48
 70
     1
102
RTVSPost2010Prop49
280
     0
102
RTVSPost2010PropOp49
 70
     1
102
RTVSPost2010Prop50
 90
       50
102
RTVSPost2010PropOp50
 70
     1
102
RTVSPost2010Prop51ColorIndex
 90
      256
102
RTVSPost2010Prop51ColorRGB
 90
-16777216
102
RTVSPost2010PropOp51
 70
     0
102
RTVSPost2010Prop52
140
1.0
102
RTVSPost2010PropOp52
 70
     0
102
RTVSPost2010Prop53
 90
        2
102
RTVSPost2010PropOp53
 70
     1
102
RTVSPost2010Prop54
  1
strokes_ogs.tif
102
RTVSPost2010PropOp54
 70
     1
102
RTVSPost2010Prop55
280
     0
102
RTVSPost2010PropOp55
 70
     1
102
RTVSPost2010Prop56
140
1.0
102
RTVSPost2010PropOp56
 70
     1
102
RTVSPost2010Prop57
140
1.0
102
RTVSPost2010PropOp57
 70
     1
102
RTVSPropertyOp0
 70
     1
102
RTVSPropertyOp1
 70
     1
102
RTVSPropertyOp2
 70
     1
102
RTVSPropertyOp3
 70
     1
102
RTVSPropertyOp4
 70
     1
102
RTVSPropertyOp5
 70
     1
102
RTVSPropertyOp6
 70
     1
102
RTVSPropertyOp7
 70
     1
102
RTVSPropertyOp8
 70
     1
102
RTVSPropertyOp9
 70
     1
102
RTVSPropertyOp10
 70
     1
102
RTVSPropertyOp11
 70
     1
102
RTVSPropertyOp12
 70
     1
102
RTVSPropertyOp13
 70
     1
102
RTVSPropertyOp14
 70
     1
102
RTVSPropertyOp15
 70
     1
102
RTVSPropertyOp16
 70
     1
102
RTVSPropertyOp17
 70
     1
102
RTVSPropertyOp18
 70
     1
102
RTVSPropertyOp19
 70
     1
102
RTVSPropertyOp20
 70
     1
102
RTVSPropertyOp21
 70
     1
102
RTVSPropertyOp22
 70
     1
102
RTVSPropertyOp23
 70
     1
102
RTVSPropertyOp24
 70
     1
102
RTVSPropertyOp25
 70
     1
102
RTVSPropertyOp26
 70
     1
102
RTVSPropertyOp27
 70
     1
102
RTVSPropertyOp28
 70
     1
102
RTVSPropertyOp29
 70
     1
102
RTVSPropertyOp30
 70
     1
102
RTVSPropertyOp31
 70
     1
102
RTVSPropertyOp32
 70
     1
102
RTVSPropertyOp33
 70
     1
102
RTVSPropertyOp34
 70
     1
102
RTVSPropertyOp35
 70
     1
102
RTVSPropertyOp36
 70
     1
102
RTVSPropertyOp37
 70
     1
102
RTVSPropertyOp38
 70
     1
102
RTVSPropertyOp39
 70
     1
102
RTVSPropertyOp40
 70
     1
102
RTVSPropertyOp41
 70
     1
102
RTVSPropertyOp42
 70
     1
102
RTVSPropertyOp43
 70
     1
102
RTVSPropertyOp44
 70
     1
102
RTVSPropertyOp45
 70
     1
102
RTVSPropertyOp46
 70
     1
102
RTVSPropertyOp47
 70
     1
102
RTVSPropertyOp48
 70
     1
102
RTVSPropertyOp49
 70
     1
102
RTVSPropertyOp50
 70
     1
102
RTVSPropertyOp51
 70
     0
102
RTVSPropertyOp52
 70
     0
102
RTVSPropertyOp53
 70
     1
102
RTVSPropertyOp54
 70
     1
102
RTVSPropertyOp55
 70
     1
102
RTVSPropertyOp56
 70
     1
102
RTVSPropertyOp57
 70
     1
102
RTVSPropertyOp58
 70
     1
102
RTVSPropertyOp59
 70
     1
102
RTVSPropertyOp60
 70
     1
102
RTVSPropertyOp61
 70
     1
102
RTVSPropertyOp62
 70
     1
  0
XRECORD
  5
846C
102
{ACAD_REACTORS
330
846B
102
}
330
846B
100
AcDbXrecord
280
     1
102
RTVSPost2010Prop28
280
     0
102
RTVSPost2010PropOp28
 70
     1
102
RTVSPost2010Prop29
280
     1
102
RTVSPost2010PropOp29
 70
     1
102
RTVSPost2010Prop30
280
     1
102
RTVSPost2010PropOp30
 70
     1
102
RTVSPost2010Prop31
280
     0
102
RTVSPost2010PropOp31
 70
     1
102
RTVSPost2010Prop32
280
     0
102
RTVSPost2010PropOp32
 70
     1
102
RTVSPost2010Prop33
280
     0
102
RTVSPost2010PropOp33
 70
     1
102
RTVSPost2010Prop34
280
     0
102
RTVSPost2010PropOp34
 70
     1
102
RTVSPost2010Prop35
280
     0
102
RTVSPost2010PropOp35
 70
     1
102
RTVSPost2010Prop36
280
     0
102
RTVSPost2010PropOp36
 70
     1
102
RTVSPost2010Prop37
 90
       50
102
RTVSPost2010PropOp37
 70
     1
102
RTVSPost2010Prop38
140
0.0
102
RTVSPost2010PropOp38
 70
     1
102
RTVSPost2010Prop39
140
1.0
102
RTVSPost2010PropOp39
 70
     1
102
RTVSPost2010Prop40
 90
        0
102
RTVSPost2010PropOp40
 70
     1
102
RTVSPost2010Prop41ColorIndex
 90
       18
102
RTVSPost2010Prop41ColorRGB
 90
        0
102
RTVSPost2010PropOp41
 70
     1
102
RTVSPost2010Prop42
 90
       50
102
RTVSPost2010PropOp42
 70
     1
102
RTVSPost2010Prop43
 90
        3
102
RTVSPost2010PropOp43
 70
     1
102
RTVSPost2010Prop44ColorIndex
 90
        5
102
RTVSPost2010Prop44ColorRGB
 90
      255
102
RTVSPost2010PropOp44
 70
     1
102
RTVSPost2010Prop45
280
     0
102
RTVSPost2010PropOp45
 70
     1
102
RTVSPost2010Prop46
 90
       50
102
RTVSPost2010PropOp46
 70
     1
102
RTVSPost2010Prop47
 90
       50
102
RTVSPost2010PropOp47
 70
     1
102
RTVSPost2010Prop48
 90
       50
102
RTVSPost2010PropOp48
 70
     1
102
RTVSPost2010Prop49
280
     0
102
RTVSPost2010PropOp49
 70
     1
102
RTVSPost2010Prop50
 90
       50
102
RTVSPost2010PropOp50
 70
     1
102
RTVSPost2010Prop51ColorIndex
 90
      256
102
RTVSPost2010Prop51ColorRGB
 90
-16777216
102
RTVSPost2010PropOp51
 70
     0
102
RTVSPost2010Prop52
140
1.0
102
RTVSPost2010PropOp52
 70
     0
102
RTVSPost2010Prop53
 90
        2
102
RTVSPost2010PropOp53
 70
     1
102
RTVSPost2010Prop54
  1
strokes_ogs.tif
102
RTVSPost2010PropOp54
 70
     1
102
RTVSPost2010Prop55
280
     0
102
RTVSPost2010PropOp55
 70
     1
102
RTVSPost2010Prop56
140
1.0
102
RTVSPost2010PropOp56
 70
     1
102
RTVSPost2010Prop57
140
1.0
102
RTVSPost2010PropOp57
 70
     1
102
RTVSPropertyOp0
 70
     1
102
RTVSPropertyOp1
 70
     1
102
RTVSPropertyOp2
 70
     1
102
RTVSPropertyOp3
 70
     1
102
RTVSPropertyOp4
 70
     1
102
RTVSPropertyOp5
 70
     1
102
RTVSPropertyOp6
 70
     1
102
RTVSPropertyOp7
 70
     1
102
RTVSPropertyOp8
 70
     1
102
RTVSPropertyOp9
 70
     1
102
RTVSPropertyOp10
 70
     1
102
RTVSPropertyOp11
 70
     1
102
RTVSPropertyOp12
 70
     1
102
RTVSPropertyOp13
 70
     1
102
RTVSPropertyOp14
 70
     1
102
RTVSPropertyOp15
 70
     1
102
RTVSPropertyOp16
 70
     1
102
RTVSPropertyOp17
 70
     1
102
RTVSPropertyOp18
 70
     1
102
RTVSPropertyOp19
 70
     1
102
RTVSPropertyOp20
 70
     1
102
RTVSPropertyOp21
 70
     1
102
RTVSPropertyOp22
 70
     1
102
RTVSPropertyOp23
 70
     1
102
RTVSPropertyOp24
 70
     1
102
RTVSPropertyOp25
 70
     1
102
RTVSPropertyOp26
 70
     1
102
RTVSPropertyOp27
 70
     1
102
RTVSPropertyOp28
 70
     1
102
RTVSPropertyOp29
 70
     1
102
RTVSPropertyOp30
 70
     1
102
RTVSPropertyOp31
 70
     1
102
RTVSPropertyOp32
 70
     1
102
RTVSPropertyOp33
 70
     1
102
RTVSPropertyOp34
 70
     1
102
RTVSPropertyOp35
 70
     1
102
RTVSPropertyOp36
 70
     1
102
RTVSPropertyOp37
 70
     1
102
RTVSPropertyOp38
 70
     1
102
RTVSPropertyOp39
 70
     1
102
RTVSPropertyOp40
 70
     1
102
RTVSPropertyOp41
 70
     1
102
RTVSPropertyOp42
 70
     1
102
RTVSPropertyOp43
 70
     1
102
RTVSPropertyOp44
 70
     1
102
RTVSPropertyOp45
 70
     1
102
RTVSPropertyOp46
 70
     1
102
RTVSPropertyOp47
 70
     1
102
RTVSPropertyOp48
 70
     1
102
RTVSPropertyOp49
 70
     1
102
RTVSPropertyOp50
 70
     1
102
RTVSPropertyOp51
 70
     0
102
RTVSPropertyOp52
 70
     0
102
RTVSPropertyOp53
 70
     1
102
RTVSPropertyOp54
 70
     1
102
RTVSPropertyOp55
 70
     1
102
RTVSPropertyOp56
 70
     1
102
RTVSPropertyOp57
 70
     1
102
RTVSPropertyOp58
 70
     1
102
RTVSPropertyOp59
 70
     1
102
RTVSPropertyOp60
 70
     1
102
RTVSPropertyOp61
 70
     1
102
RTVSPropertyOp62
 70
     1
  0
XRECORD
  5
846E
102
{ACAD_REACTORS
330
846D
102
}
330
846D
100
AcDbXrecord
280
     1
102
RTVSPost2010Prop28
280
     0
102
RTVSPost2010PropOp28
 70
     1
102
RTVSPost2010Prop29
280
     1
102
RTVSPost2010PropOp29
 70
     1
102
RTVSPost2010Prop30
280
     1
102
RTVSPost2010PropOp30
 70
     1
102
RTVSPost2010Prop31
280
     0
102
RTVSPost2010PropOp31
 70
     1
102
RTVSPost2010Prop32
280
     0
102
RTVSPost2010PropOp32
 70
     1
102
RTVSPost2010Prop33
280
     0
102
RTVSPost2010PropOp33
 70
     1
102
RTVSPost2010Prop34
280
     0
102
RTVSPost2010PropOp34
 70
     1
102
RTVSPost2010Prop35
280
     0
102
RTVSPost2010PropOp35
 70
     1
102
RTVSPost2010Prop36
280
     0
102
RTVSPost2010PropOp36
 70
     1
102
RTVSPost2010Prop37
 90
       50
102
RTVSPost2010PropOp37
 70
     1
102
RTVSPost2010Prop38
140
0.0
102
RTVSPost2010PropOp38
 70
     1
102
RTVSPost2010Prop39
140
1.0
102
RTVSPost2010PropOp39
 70
     1
102
RTVSPost2010Prop40
 90
        0
102
RTVSPost2010PropOp40
 70
     1
102
RTVSPost2010Prop41ColorIndex
 90
       18
102
RTVSPost2010Prop41ColorRGB
 90
        0
102
RTVSPost2010PropOp41
 70
     1
102
RTVSPost2010Prop42
 90
       50
102
RTVSPost2010PropOp42
 70
     1
102
RTVSPost2010Prop43
 90
        3
102
RTVSPost2010PropOp43
 70
     1
102
RTVSPost2010Prop44ColorIndex
 90
        5
102
RTVSPost2010Prop44ColorRGB
 90
      255
102
RTVSPost2010PropOp44
 70
     1
102
RTVSPost2010Prop45
280
     0
102
RTVSPost2010PropOp45
 70
     1
102
RTVSPost2010Prop46
 90
       50
102
RTVSPost2010PropOp46
 70
     1
102
RTVSPost2010Prop47
 90
       50
102
RTVSPost2010PropOp47
 70
     1
102
RTVSPost2010Prop48
 90
       50
102
RTVSPost2010PropOp48
 70
     1
102
RTVSPost2010Prop49
280
     0
102
RTVSPost2010PropOp49
 70
     1
102
RTVSPost2010Prop50
 90
       50
102
RTVSPost2010PropOp50
 70
     1
102
RTVSPost2010Prop51ColorIndex
 90
      256
102
RTVSPost2010Prop51ColorRGB
 90
-16777216
102
RTVSPost2010PropOp51
 70
     0
102
RTVSPost2010Prop52
140
1.0
102
RTVSPost2010PropOp52
 70
     0
102
RTVSPost2010Prop53
 90
        2
102
RTVSPost2010PropOp53
 70
     1
102
RTVSPost2010Prop54
  1
strokes_ogs.tif
102
RTVSPost2010PropOp54
 70
     1
102
RTVSPost2010Prop55
280
     0
102
RTVSPost2010PropOp55
 70
     1
102
RTVSPost2010Prop56
140
1.0
102
RTVSPost2010PropOp56
 70
     1
102
RTVSPost2010Prop57
140
1.0
102
RTVSPost2010PropOp57
 70
     1
102
RTVSPropertyOp0
 70
     1
102
RTVSPropertyOp1
 70
     1
102
RTVSPropertyOp2
 70
     1
102
RTVSPropertyOp3
 70
     1
102
RTVSPropertyOp4
 70
     1
102
RTVSPropertyOp5
 70
     1
102
RTVSPropertyOp6
 70
     1
102
RTVSPropertyOp7
 70
     1
102
RTVSPropertyOp8
 70
     1
102
RTVSPropertyOp9
 70
     1
102
RTVSPropertyOp10
 70
     1
102
RTVSPropertyOp11
 70
     1
102
RTVSPropertyOp12
 70
     1
102
RTVSPropertyOp13
 70
     1
102
RTVSPropertyOp14
 70
     1
102
RTVSPropertyOp15
 70
     1
102
RTVSPropertyOp16
 70
     1
102
RTVSPropertyOp17
 70
     1
102
RTVSPropertyOp18
 70
     1
102
RTVSPropertyOp19
 70
     1
102
RTVSPropertyOp20
 70
     1
102
RTVSPropertyOp21
 70
     1
102
RTVSPropertyOp22
 70
     1
102
RTVSPropertyOp23
 70
     1
102
RTVSPropertyOp24
 70
     1
102
RTVSPropertyOp25
 70
     1
102
RTVSPropertyOp26
 70
     1
102
RTVSPropertyOp27
 70
     1
102
RTVSPropertyOp28
 70
     1
102
RTVSPropertyOp29
 70
     1
102
RTVSPropertyOp30
 70
     1
102
RTVSPropertyOp31
 70
     1
102
RTVSPropertyOp32
 70
     1
102
RTVSPropertyOp33
 70
     1
102
RTVSPropertyOp34
 70
     1
102
RTVSPropertyOp35
 70
     1
102
RTVSPropertyOp36
 70
     1
102
RTVSPropertyOp37
 70
     1
102
RTVSPropertyOp38
 70
     1
102
RTVSPropertyOp39
 70
     1
102
RTVSPropertyOp40
 70
     1
102
RTVSPropertyOp41
 70
     1
102
RTVSPropertyOp42
 70
     1
102
RTVSPropertyOp43
 70
     1
102
RTVSPropertyOp44
 70
     1
102
RTVSPropertyOp45
 70
     1
102
RTVSPropertyOp46
 70
     1
102
RTVSPropertyOp47
 70
     1
102
RTVSPropertyOp48
 70
     1
102
RTVSPropertyOp49
 70
     1
102
RTVSPropertyOp50
 70
     1
102
RTVSPropertyOp51
 70
     0
102
RTVSPropertyOp52
 70
     0
102
RTVSPropertyOp53
 70
     1
102
RTVSPropertyOp54
 70
     1
102
RTVSPropertyOp55
 70
     1
102
RTVSPropertyOp56
 70
     1
102
RTVSPropertyOp57
 70
     1
102
RTVSPropertyOp58
 70
     1
102
RTVSPropertyOp59
 70
     1
102
RTVSPropertyOp60
 70
     1
102
RTVSPropertyOp61
 70
     1
102
RTVSPropertyOp62
 70
     1
  0
XRECORD
  5
8476
102
{ACAD_REACTORS
330
8475
102
}
330
8475
100
AcDbXrecord
280
     1
102
RTVSPost2010Prop28
280
     0
102
RTVSPost2010PropOp28
 70
     1
102
RTVSPost2010Prop29
280
     1
102
RTVSPost2010PropOp29
 70
     1
102
RTVSPost2010Prop30
280
     1
102
RTVSPost2010PropOp30
 70
     1
102
RTVSPost2010Prop31
280
     0
102
RTVSPost2010PropOp31
 70
     1
102
RTVSPost2010Prop32
280
     0
102
RTVSPost2010PropOp32
 70
     1
102
RTVSPost2010Prop33
280
     0
102
RTVSPost2010PropOp33
 70
     1
102
RTVSPost2010Prop34
280
     0
102
RTVSPost2010PropOp34
 70
     1
102
RTVSPost2010Prop35
280
     0
102
RTVSPost2010PropOp35
 70
     1
102
RTVSPost2010Prop36
280
     0
102
RTVSPost2010PropOp36
 70
     1
102
RTVSPost2010Prop37
 90
       50
102
RTVSPost2010PropOp37
 70
     1
102
RTVSPost2010Prop38
140
0.0
102
RTVSPost2010PropOp38
 70
     1
102
RTVSPost2010Prop39
140
1.0
102
RTVSPost2010PropOp39
 70
     1
102
RTVSPost2010Prop40
 90
        0
102
RTVSPost2010PropOp40
 70
     1
102
RTVSPost2010Prop41ColorIndex
 90
       18
102
RTVSPost2010Prop41ColorRGB
 90
        0
102
RTVSPost2010PropOp41
 70
     1
102
RTVSPost2010Prop42
 90
       50
102
RTVSPost2010PropOp42
 70
     1
102
RTVSPost2010Prop43
 90
        3
102
RTVSPost2010PropOp43
 70
     1
102
RTVSPost2010Prop44ColorIndex
 90
        5
102
RTVSPost2010Prop44ColorRGB
 90
      255
102
RTVSPost2010PropOp44
 70
     1
102
RTVSPost2010Prop45
280
     0
102
RTVSPost2010PropOp45
 70
     1
102
RTVSPost2010Prop46
 90
       50
102
RTVSPost2010PropOp46
 70
     1
102
RTVSPost2010Prop47
 90
       50
102
RTVSPost2010PropOp47
 70
     1
102
RTVSPost2010Prop48
 90
       50
102
RTVSPost2010PropOp48
 70
     1
102
RTVSPost2010Prop49
280
     0
102
RTVSPost2010PropOp49
 70
     1
102
RTVSPost2010Prop50
 90
       50
102
RTVSPost2010PropOp50
 70
     1
102
RTVSPost2010Prop51ColorIndex
 90
      256
102
RTVSPost2010Prop51ColorRGB
 90
-16777216
102
RTVSPost2010PropOp51
 70
     0
102
RTVSPost2010Prop52
140
1.0
102
RTVSPost2010PropOp52
 70
     0
102
RTVSPost2010Prop53
 90
        2
102
RTVSPost2010PropOp53
 70
     1
102
RTVSPost2010Prop54
  1
strokes_ogs.tif
102
RTVSPost2010PropOp54
 70
     1
102
RTVSPost2010Prop55
280
     0
102
RTVSPost2010PropOp55
 70
     1
102
RTVSPost2010Prop56
140
1.0
102
RTVSPost2010PropOp56
 70
     1
102
RTVSPost2010Prop57
140
1.0
102
RTVSPost2010PropOp57
 70
     1
102
RTVSPropertyOp0
 70
     1
102
RTVSPropertyOp1
 70
     1
102
RTVSPropertyOp2
 70
     1
102
RTVSPropertyOp3
 70
     1
102
RTVSPropertyOp4
 70
     1
102
RTVSPropertyOp5
 70
     1
102
RTVSPropertyOp6
 70
     1
102
RTVSPropertyOp7
 70
     1
102
RTVSPropertyOp8
 70
     1
102
RTVSPropertyOp9
 70
     1
102
RTVSPropertyOp10
 70
     1
102
RTVSPropertyOp11
 70
     1
102
RTVSPropertyOp12
 70
     1
102
RTVSPropertyOp13
 70
     1
102
RTVSPropertyOp14
 70
     1
102
RTVSPropertyOp15
 70
     1
102
RTVSPropertyOp16
 70
     1
102
RTVSPropertyOp17
 70
     1
102
RTVSPropertyOp18
 70
     1
102
RTVSPropertyOp19
 70
     1
102
RTVSPropertyOp20
 70
     1
102
RTVSPropertyOp21
 70
     1
102
RTVSPropertyOp22
 70
     1
102
RTVSPropertyOp23
 70
     1
102
RTVSPropertyOp24
 70
     1
102
RTVSPropertyOp25
 70
     1
102
RTVSPropertyOp26
 70
     1
102
RTVSPropertyOp27
 70
     1
102
RTVSPropertyOp28
 70
     1
102
RTVSPropertyOp29
 70
     1
102
RTVSPropertyOp30
 70
     1
102
RTVSPropertyOp31
 70
     1
102
RTVSPropertyOp32
 70
     1
102
RTVSPropertyOp33
 70
     1
102
RTVSPropertyOp34
 70
     1
102
RTVSPropertyOp35
 70
     1
102
RTVSPropertyOp36
 70
     1
102
RTVSPropertyOp37
 70
     1
102
RTVSPropertyOp38
 70
     1
102
RTVSPropertyOp39
 70
     1
102
RTVSPropertyOp40
 70
     1
102
RTVSPropertyOp41
 70
     1
102
RTVSPropertyOp42
 70
     1
102
RTVSPropertyOp43
 70
     1
102
RTVSPropertyOp44
 70
     1
102
RTVSPropertyOp45
 70
     1
102
RTVSPropertyOp46
 70
     1
102
RTVSPropertyOp47
 70
     1
102
RTVSPropertyOp48
 70
     1
102
RTVSPropertyOp49
 70
     1
102
RTVSPropertyOp50
 70
     1
102
RTVSPropertyOp51
 70
     0
102
RTVSPropertyOp52
 70
     0
102
RTVSPropertyOp53
 70
     1
102
RTVSPropertyOp54
 70
     1
102
RTVSPropertyOp55
 70
     1
102
RTVSPropertyOp56
 70
     1
102
RTVSPropertyOp57
 70
     1
102
RTVSPropertyOp58
 70
     1
102
RTVSPropertyOp59
 70
     1
102
RTVSPropertyOp60
 70
     1
102
RTVSPropertyOp61
 70
     1
102
RTVSPropertyOp62
 70
     1
  0
XRECORD
  5
8492
102
{ACAD_REACTORS
330
8491
102
}
330
8491
100
AcDbXrecord
280
     1
102
RTVSPost2010Prop28
280
     0
102
RTVSPost2010PropOp28
 70
     1
102
RTVSPost2010Prop29
280
     1
102
RTVSPost2010PropOp29
 70
     1
102
RTVSPost2010Prop30
280
     1
102
RTVSPost2010PropOp30
 70
     1
102
RTVSPost2010Prop31
280
     0
102
RTVSPost2010PropOp31
 70
     1
102
RTVSPost2010Prop32
280
     0
102
RTVSPost2010PropOp32
 70
     1
102
RTVSPost2010Prop33
280
     0
102
RTVSPost2010PropOp33
 70
     1
102
RTVSPost2010Prop34
280
     0
102
RTVSPost2010PropOp34
 70
     1
102
RTVSPost2010Prop35
280
     0
102
RTVSPost2010PropOp35
 70
     1
102
RTVSPost2010Prop36
280
     0
102
RTVSPost2010PropOp36
 70
     1
102
RTVSPost2010Prop37
 90
       50
102
RTVSPost2010PropOp37
 70
     0
102
RTVSPost2010Prop38
140
0.0
102
RTVSPost2010PropOp38
 70
     0
102
RTVSPost2010Prop39
140
1.0
102
RTVSPost2010PropOp39
 70
     0
102
RTVSPost2010Prop40
 90
        0
102
RTVSPost2010PropOp40
 70
     0
102
RTVSPost2010Prop41ColorIndex
 90
       18
102
RTVSPost2010Prop41ColorRGB
 90
        0
102
RTVSPost2010PropOp41
 70
     0
102
RTVSPost2010Prop42
 90
       50
102
RTVSPost2010PropOp42
 70
     0
102
RTVSPost2010Prop43
 90
        3
102
RTVSPost2010PropOp43
 70
     0
102
RTVSPost2010Prop44ColorIndex
 90
        5
102
RTVSPost2010Prop44ColorRGB
 90
      255
102
RTVSPost2010PropOp44
 70
     0
102
RTVSPost2010Prop45
280
     0
102
RTVSPost2010PropOp45
 70
     1
102
RTVSPost2010Prop46
 90
       50
102
RTVSPost2010PropOp46
 70
     0
102
RTVSPost2010Prop47
 90
       50
102
RTVSPost2010PropOp47
 70
     0
102
RTVSPost2010Prop48
 90
       50
102
RTVSPost2010PropOp48
 70
     0
102
RTVSPost2010Prop49
280
     0
102
RTVSPost2010PropOp49
 70
     1
102
RTVSPost2010Prop50
 90
       50
102
RTVSPost2010PropOp50
 70
     0
102
RTVSPost2010Prop51ColorIndex
 90
      256
102
RTVSPost2010Prop51ColorRGB
 90
-16777216
102
RTVSPost2010PropOp51
 70
     0
102
RTVSPost2010Prop52
140
1.0
102
RTVSPost2010PropOp52
 70
     0
102
RTVSPost2010Prop53
 90
        2
102
RTVSPost2010PropOp53
 70
     0
102
RTVSPost2010Prop54
  1
strokes_ogs.tif
102
RTVSPost2010PropOp54
 70
     0
102
RTVSPost2010Prop55
280
     0
102
RTVSPost2010PropOp55
 70
     1
102
RTVSPost2010Prop56
140
1.0
102
RTVSPost2010PropOp56
 70
     0
102
RTVSPost2010Prop57
140
1.0
102
RTVSPost2010PropOp57
 70
     0
102
RTVSPropertyOp0
 70
     0
102
RTVSPropertyOp1
 70
     0
102
RTVSPropertyOp2
 70
     0
102
RTVSPropertyOp3
 70
     0
102
RTVSPropertyOp4
 70
     0
102
RTVSPropertyOp5
 70
     0
102
RTVSPropertyOp6
 70
     0
102
RTVSPropertyOp7
 70
     0
102
RTVSPropertyOp8
 70
     0
102
RTVSPropertyOp9
 70
     0
102
RTVSPropertyOp10
 70
     0
102
RTVSPropertyOp11
 70
     0
102
RTVSPropertyOp12
 70
     0
102
RTVSPropertyOp13
 70
     0
102
RTVSPropertyOp14
 70
     2
102
RTVSPropertyOp15
 70
     0
102
RTVSPropertyOp16
 70
     0
102
RTVSPropertyOp17
 70
     0
102
RTVSPropertyOp18
 70
     0
102
RTVSPropertyOp19
 70
     0
102
RTVSPropertyOp20
 70
     0
102
RTVSPropertyOp21
 70
     0
102
RTVSPropertyOp22
 70
     0
102
RTVSPropertyOp23
 70
     0
102
RTVSPropertyOp24
 70
     0
102
RTVSPropertyOp25
 70
     0
102
RTVSPropertyOp26
 70
     0
102
RTVSPropertyOp27
 70
     0
102
RTVSPropertyOp28
 70
     1
102
RTVSPropertyOp29
 70
     1
102
RTVSPropertyOp30
 70
     1
102
RTVSPropertyOp31
 70
     1
102
RTVSPropertyOp32
 70
     1
102
RTVSPropertyOp33
 70
     1
102
RTVSPropertyOp34
 70
     1
102
RTVSPropertyOp35
 70
     1
102
RTVSPropertyOp36
 70
     1
102
RTVSPropertyOp37
 70
     0
102
RTVSPropertyOp38
 70
     0
102
RTVSPropertyOp39
 70
     0
102
RTVSPropertyOp40
 70
     0
102
RTVSPropertyOp41
 70
     0
102
RTVSPropertyOp42
 70
     0
102
RTVSPropertyOp43
 70
     0
102
RTVSPropertyOp44
 70
     0
102
RTVSPropertyOp45
 70
     1
102
RTVSPropertyOp46
 70
     0
102
RTVSPropertyOp47
 70
     0
102
RTVSPropertyOp48
 70
     0
102
RTVSPropertyOp49
 70
     1
102
RTVSPropertyOp50
 70
     0
102
RTVSPropertyOp51
 70
     0
102
RTVSPropertyOp52
 70
     0
102
RTVSPropertyOp53
 70
     0
102
RTVSPropertyOp54
 70
     0
102
RTVSPropertyOp55
 70
     1
102
RTVSPropertyOp56
 70
     0
102
RTVSPropertyOp57
 70
     0
102
RTVSPropertyOp58
 70
     0
102
RTVSPropertyOp59
 70
     0
102
RTVSPropertyOp60
 70
     0
102
RTVSPropertyOp61
 70
     0
102
RTVSPropertyOp62
 70
     0
  0
XRECORD
  5
8482
102
{ACAD_REACTORS
330
8481
102
}
330
8481
100
AcDbXrecord
280
     1
102
RTVSPost2010Prop28
280
     0
102
RTVSPost2010PropOp28
 70
     1
102
RTVSPost2010Prop29
280
     1
102
RTVSPost2010PropOp29
 70
     1
102
RTVSPost2010Prop30
280
     1
102
RTVSPost2010PropOp30
 70
     1
102
RTVSPost2010Prop31
280
     0
102
RTVSPost2010PropOp31
 70
     1
102
RTVSPost2010Prop32
280
     0
102
RTVSPost2010PropOp32
 70
     1
102
RTVSPost2010Prop33
280
     0
102
RTVSPost2010PropOp33
 70
     1
102
RTVSPost2010Prop34
280
     0
102
RTVSPost2010PropOp34
 70
     1
102
RTVSPost2010Prop35
280
     0
102
RTVSPost2010PropOp35
 70
     1
102
RTVSPost2010Prop36
280
     0
102
RTVSPost2010PropOp36
 70
     1
102
RTVSPost2010Prop37
 90
       50
102
RTVSPost2010PropOp37
 70
     1
102
RTVSPost2010Prop38
140
0.0
102
RTVSPost2010PropOp38
 70
     1
102
RTVSPost2010Prop39
140
1.0
102
RTVSPost2010PropOp39
 70
     1
102
RTVSPost2010Prop40
 90
        0
102
RTVSPost2010PropOp40
 70
     1
102
RTVSPost2010Prop41ColorIndex
 90
       18
102
RTVSPost2010Prop41ColorRGB
 90
        0
102
RTVSPost2010PropOp41
 70
     1
102
RTVSPost2010Prop42
 90
       50
102
RTVSPost2010PropOp42
 70
     1
102
RTVSPost2010Prop43
 90
        3
102
RTVSPost2010PropOp43
 70
     1
102
RTVSPost2010Prop44ColorIndex
 90
        5
102
RTVSPost2010Prop44ColorRGB
 90
      255
102
RTVSPost2010PropOp44
 70
     1
102
RTVSPost2010Prop45
280
     0
102
RTVSPost2010PropOp45
 70
     1
102
RTVSPost2010Prop46
 90
       50
102
RTVSPost2010PropOp46
 70
     1
102
RTVSPost2010Prop47
 90
       50
102
RTVSPost2010PropOp47
 70
     1
102
RTVSPost2010Prop48
 90
       50
102
RTVSPost2010PropOp48
 70
     1
102
RTVSPost2010Prop49
280
     0
102
RTVSPost2010PropOp49
 70
     1
102
RTVSPost2010Prop50
 90
       50
102
RTVSPost2010PropOp50
 70
     1
102
RTVSPost2010Prop51ColorIndex
 90
      256
102
RTVSPost2010Prop51ColorRGB
 90
-16777216
102
RTVSPost2010PropOp51
 70
     0
102
RTVSPost2010Prop52
140
1.0
102
RTVSPost2010PropOp52
 70
     0
102
RTVSPost2010Prop53
 90
        2
102
RTVSPost2010PropOp53
 70
     1
102
RTVSPost2010Prop54
  1
strokes_ogs.tif
102
RTVSPost2010PropOp54
 70
     1
102
RTVSPost2010Prop55
280
     0
102
RTVSPost2010PropOp55
 70
     1
102
RTVSPost2010Prop56
140
1.0
102
RTVSPost2010PropOp56
 70
     1
102
RTVSPost2010Prop57
140
1.0
102
RTVSPost2010PropOp57
 70
     1
102
RTVSPropertyOp0
 70
     1
102
RTVSPropertyOp1
 70
     1
102
RTVSPropertyOp2
 70
     1
102
RTVSPropertyOp3
 70
     1
102
RTVSPropertyOp4
 70
     1
102
RTVSPropertyOp5
 70
     1
102
RTVSPropertyOp6
 70
     1
102
RTVSPropertyOp7
 70
     1
102
RTVSPropertyOp8
 70
     1
102
RTVSPropertyOp9
 70
     1
102
RTVSPropertyOp10
 70
     1
102
RTVSPropertyOp11
 70
     1
102
RTVSPropertyOp12
 70
     1
102
RTVSPropertyOp13
 70
     1
102
RTVSPropertyOp14
 70
     1
102
RTVSPropertyOp15
 70
     1
102
RTVSPropertyOp16
 70
     1
102
RTVSPropertyOp17
 70
     1
102
RTVSPropertyOp18
 70
     1
102
RTVSPropertyOp19
 70
     1
102
RTVSPropertyOp20
 70
     1
102
RTVSPropertyOp21
 70
     1
102
RTVSPropertyOp22
 70
     1
102
RTVSPropertyOp23
 70
     1
102
RTVSPropertyOp24
 70
     1
102
RTVSPropertyOp25
 70
     1
102
RTVSPropertyOp26
 70
     1
102
RTVSPropertyOp27
 70
     1
102
RTVSPropertyOp28
 70
     1
102
RTVSPropertyOp29
 70
     1
102
RTVSPropertyOp30
 70
     1
102
RTVSPropertyOp31
 70
     1
102
RTVSPropertyOp32
 70
     1
102
RTVSPropertyOp33
 70
     1
102
RTVSPropertyOp34
 70
     1
102
RTVSPropertyOp35
 70
     1
102
RTVSPropertyOp36
 70
     1
102
RTVSPropertyOp37
 70
     1
102
RTVSPropertyOp38
 70
     1
102
RTVSPropertyOp39
 70
     1
102
RTVSPropertyOp40
 70
     1
102
RTVSPropertyOp41
 70
     1
102
RTVSPropertyOp42
 70
     1
102
RTVSPropertyOp43
 70
     1
102
RTVSPropertyOp44
 70
     1
102
RTVSPropertyOp45
 70
     1
102
RTVSPropertyOp46
 70
     1
102
RTVSPropertyOp47
 70
     1
102
RTVSPropertyOp48
 70
     1
102
RTVSPropertyOp49
 70
     1
102
RTVSPropertyOp50
 70
     1
102
RTVSPropertyOp51
 70
     0
102
RTVSPropertyOp52
 70
     0
102
RTVSPropertyOp53
 70
     1
102
RTVSPropertyOp54
 70
     1
102
RTVSPropertyOp55
 70
     1
102
RTVSPropertyOp56
 70
     1
102
RTVSPropertyOp57
 70
     1
102
RTVSPropertyOp58
 70
     1
102
RTVSPropertyOp59
 70
     1
102
RTVSPropertyOp60
 70
     1
102
RTVSPropertyOp61
 70
     1
102
RTVSPropertyOp62
 70
     1
  0
XRECORD
  5
8494
102
{ACAD_REACTORS
330
8493
102
}
330
8493
100
AcDbXrecord
280
     1
102
RTVSPost2010Prop28
280
     0
102
RTVSPost2010PropOp28
 70
     1
102
RTVSPost2010Prop29
280
     1
102
RTVSPost2010PropOp29
 70
     1
102
RTVSPost2010Prop30
280
     1
102
RTVSPost2010PropOp30
 70
     1
102
RTVSPost2010Prop31
280
     0
102
RTVSPost2010PropOp31
 70
     1
102
RTVSPost2010Prop32
280
     0
102
RTVSPost2010PropOp32
 70
     1
102
RTVSPost2010Prop33
280
     0
102
RTVSPost2010PropOp33
 70
     1
102
RTVSPost2010Prop34
280
     0
102
RTVSPost2010PropOp34
 70
     1
102
RTVSPost2010Prop35
280
     0
102
RTVSPost2010PropOp35
 70
     1
102
RTVSPost2010Prop36
280
     0
102
RTVSPost2010PropOp36
 70
     1
102
RTVSPost2010Prop37
 90
       50
102
RTVSPost2010PropOp37
 70
     0
102
RTVSPost2010Prop38
140
0.0
102
RTVSPost2010PropOp38
 70
     0
102
RTVSPost2010Prop39
140
1.0
102
RTVSPost2010PropOp39
 70
     0
102
RTVSPost2010Prop40
 90
        0
102
RTVSPost2010PropOp40
 70
     0
102
RTVSPost2010Prop41ColorIndex
 90
       18
102
RTVSPost2010Prop41ColorRGB
 90
        0
102
RTVSPost2010PropOp41
 70
     0
102
RTVSPost2010Prop42
 90
       50
102
RTVSPost2010PropOp42
 70
     0
102
RTVSPost2010Prop43
 90
        3
102
RTVSPost2010PropOp43
 70
     0
102
RTVSPost2010Prop44ColorIndex
 90
        5
102
RTVSPost2010Prop44ColorRGB
 90
      255
102
RTVSPost2010PropOp44
 70
     0
102
RTVSPost2010Prop45
280
     0
102
RTVSPost2010PropOp45
 70
     1
102
RTVSPost2010Prop46
 90
       50
102
RTVSPost2010PropOp46
 70
     0
102
RTVSPost2010Prop47
 90
       50
102
RTVSPost2010PropOp47
 70
     0
102
RTVSPost2010Prop48
 90
       50
102
RTVSPost2010PropOp48
 70
     0
102
RTVSPost2010Prop49
280
     0
102
RTVSPost2010PropOp49
 70
     1
102
RTVSPost2010Prop50
 90
       50
102
RTVSPost2010PropOp50
 70
     0
102
RTVSPost2010Prop51ColorIndex
 90
      256
102
RTVSPost2010Prop51ColorRGB
 90
-16777216
102
RTVSPost2010PropOp51
 70
     0
102
RTVSPost2010Prop52
140
1.0
102
RTVSPost2010PropOp52
 70
     0
102
RTVSPost2010Prop53
 90
        2
102
RTVSPost2010PropOp53
 70
     0
102
RTVSPost2010Prop54
  1
strokes_ogs.tif
102
RTVSPost2010PropOp54
 70
     0
102
RTVSPost2010Prop55
280
     0
102
RTVSPost2010PropOp55
 70
     1
102
RTVSPost2010Prop56
140
1.0
102
RTVSPost2010PropOp56
 70
     0
102
RTVSPost2010Prop57
140
1.0
102
RTVSPost2010PropOp57
 70
     0
102
RTVSPropertyOp0
 70
     0
102
RTVSPropertyOp1
 70
     0
102
RTVSPropertyOp2
 70
     0
102
RTVSPropertyOp3
 70
     0
102
RTVSPropertyOp4
 70
     0
102
RTVSPropertyOp5
 70
     0
102
RTVSPropertyOp6
 70
     0
102
RTVSPropertyOp7
 70
     0
102
RTVSPropertyOp8
 70
     0
102
RTVSPropertyOp9
 70
     0
102
RTVSPropertyOp10
 70
     0
102
RTVSPropertyOp11
 70
     0
102
RTVSPropertyOp12
 70
     0
102
RTVSPropertyOp13
 70
     0
102
RTVSPropertyOp14
 70
     2
102
RTVSPropertyOp15
 70
     0
102
RTVSPropertyOp16
 70
     0
102
RTVSPropertyOp17
 70
     0
102
RTVSPropertyOp18
 70
     0
102
RTVSPropertyOp19
 70
     0
102
RTVSPropertyOp20
 70
     0
102
RTVSPropertyOp21
 70
     0
102
RTVSPropertyOp22
 70
     0
102
RTVSPropertyOp23
 70
     0
102
RTVSPropertyOp24
 70
     0
102
RTVSPropertyOp25
 70
     0
102
RTVSPropertyOp26
 70
     0
102
RTVSPropertyOp27
 70
     0
102
RTVSPropertyOp28
 70
     1
102
RTVSPropertyOp29
 70
     1
102
RTVSPropertyOp30
 70
     1
102
RTVSPropertyOp31
 70
     1
102
RTVSPropertyOp32
 70
     1
102
RTVSPropertyOp33
 70
     1
102
RTVSPropertyOp34
 70
     1
102
RTVSPropertyOp35
 70
     1
102
RTVSPropertyOp36
 70
     1
102
RTVSPropertyOp37
 70
     0
102
RTVSPropertyOp38
 70
     0
102
RTVSPropertyOp39
 70
     0
102
RTVSPropertyOp40
 70
     0
102
RTVSPropertyOp41
 70
     0
102
RTVSPropertyOp42
 70
     0
102
RTVSPropertyOp43
 70
     0
102
RTVSPropertyOp44
 70
     0
102
RTVSPropertyOp45
 70
     1
102
RTVSPropertyOp46
 70
     0
102
RTVSPropertyOp47
 70
     0
102
RTVSPropertyOp48
 70
     0
102
RTVSPropertyOp49
 70
     1
102
RTVSPropertyOp50
 70
     0
102
RTVSPropertyOp51
 70
     0
102
RTVSPropertyOp52
 70
     0
102
RTVSPropertyOp53
 70
     0
102
RTVSPropertyOp54
 70
     0
102
RTVSPropertyOp55
 70
     1
102
RTVSPropertyOp56
 70
     0
102
RTVSPropertyOp57
 70
     0
102
RTVSPropertyOp58
 70
     0
102
RTVSPropertyOp59
 70
     0
102
RTVSPropertyOp60
 70
     0
102
RTVSPropertyOp61
 70
     0
102
RTVSPropertyOp62
 70
     0
  0
XRECORD
  5
847A
102
{ACAD_REACTORS
330
8479
102
}
330
8479
100
AcDbXrecord
280
     1
102
RTVSPost2010Prop28
280
     0
102
RTVSPost2010PropOp28
 70
     1
102
RTVSPost2010Prop29
280
     1
102
RTVSPost2010PropOp29
 70
     1
102
RTVSPost2010Prop30
280
     1
102
RTVSPost2010PropOp30
 70
     1
102
RTVSPost2010Prop31
280
     0
102
RTVSPost2010PropOp31
 70
     1
102
RTVSPost2010Prop32
280
     0
102
RTVSPost2010PropOp32
 70
     1
102
RTVSPost2010Prop33
280
     0
102
RTVSPost2010PropOp33
 70
     1
102
RTVSPost2010Prop34
280
     0
102
RTVSPost2010PropOp34
 70
     1
102
RTVSPost2010Prop35
280
     0
102
RTVSPost2010PropOp35
 70
     1
102
RTVSPost2010Prop36
280
     0
102
RTVSPost2010PropOp36
 70
     1
102
RTVSPost2010Prop37
 90
       50
102
RTVSPost2010PropOp37
 70
     1
102
RTVSPost2010Prop38
140
0.0
102
RTVSPost2010PropOp38
 70
     1
102
RTVSPost2010Prop39
140
1.0
102
RTVSPost2010PropOp39
 70
     1
102
RTVSPost2010Prop40
 90
        0
102
RTVSPost2010PropOp40
 70
     1
102
RTVSPost2010Prop41ColorIndex
 90
       18
102
RTVSPost2010Prop41ColorRGB
 90
        0
102
RTVSPost2010PropOp41
 70
     1
102
RTVSPost2010Prop42
 90
       50
102
RTVSPost2010PropOp42
 70
     1
102
RTVSPost2010Prop43
 90
        3
102
RTVSPost2010PropOp43
 70
     1
102
RTVSPost2010Prop44ColorIndex
 90
        5
102
RTVSPost2010Prop44ColorRGB
 90
      255
102
RTVSPost2010PropOp44
 70
     1
102
RTVSPost2010Prop45
280
     0
102
RTVSPost2010PropOp45
 70
     1
102
RTVSPost2010Prop46
 90
       50
102
RTVSPost2010PropOp46
 70
     1
102
RTVSPost2010Prop47
 90
       50
102
RTVSPost2010PropOp47
 70
     1
102
RTVSPost2010Prop48
 90
       50
102
RTVSPost2010PropOp48
 70
     1
102
RTVSPost2010Prop49
280
     0
102
RTVSPost2010PropOp49
 70
     1
102
RTVSPost2010Prop50
 90
       50
102
RTVSPost2010PropOp50
 70
     1
102
RTVSPost2010Prop51ColorIndex
 90
      256
102
RTVSPost2010Prop51ColorRGB
 90
-16777216
102
RTVSPost2010PropOp51
 70
     0
102
RTVSPost2010Prop52
140
1.0
102
RTVSPost2010PropOp52
 70
     0
102
RTVSPost2010Prop53
 90
        2
102
RTVSPost2010PropOp53
 70
     1
102
RTVSPost2010Prop54
  1
strokes_ogs.tif
102
RTVSPost2010PropOp54
 70
     1
102
RTVSPost2010Prop55
280
     0
102
RTVSPost2010PropOp55
 70
     1
102
RTVSPost2010Prop56
140
1.0
102
RTVSPost2010PropOp56
 70
     1
102
RTVSPost2010Prop57
140
1.0
102
RTVSPost2010PropOp57
 70
     1
102
RTVSPropertyOp0
 70
     1
102
RTVSPropertyOp1
 70
     1
102
RTVSPropertyOp2
 70
     1
102
RTVSPropertyOp3
 70
     1
102
RTVSPropertyOp4
 70
     1
102
RTVSPropertyOp5
 70
     1
102
RTVSPropertyOp6
 70
     1
102
RTVSPropertyOp7
 70
     1
102
RTVSPropertyOp8
 70
     1
102
RTVSPropertyOp9
 70
     1
102
RTVSPropertyOp10
 70
     1
102
RTVSPropertyOp11
 70
     1
102
RTVSPropertyOp12
 70
     1
102
RTVSPropertyOp13
 70
     1
102
RTVSPropertyOp14
 70
     1
102
RTVSPropertyOp15
 70
     1
102
RTVSPropertyOp16
 70
     1
102
RTVSPropertyOp17
 70
     1
102
RTVSPropertyOp18
 70
     1
102
RTVSPropertyOp19
 70
     1
102
RTVSPropertyOp20
 70
     1
102
RTVSPropertyOp21
 70
     1
102
RTVSPropertyOp22
 70
     1
102
RTVSPropertyOp23
 70
     1
102
RTVSPropertyOp24
 70
     1
102
RTVSPropertyOp25
 70
     1
102
RTVSPropertyOp26
 70
     1
102
RTVSPropertyOp27
 70
     1
102
RTVSPropertyOp28
 70
     1
102
RTVSPropertyOp29
 70
     1
102
RTVSPropertyOp30
 70
     1
102
RTVSPropertyOp31
 70
     1
102
RTVSPropertyOp32
 70
     1
102
RTVSPropertyOp33
 70
     1
102
RTVSPropertyOp34
 70
     1
102
RTVSPropertyOp35
 70
     1
102
RTVSPropertyOp36
 70
     1
102
RTVSPropertyOp37
 70
     1
102
RTVSPropertyOp38
 70
     1
102
RTVSPropertyOp39
 70
     1
102
RTVSPropertyOp40
 70
     1
102
RTVSPropertyOp41
 70
     1
102
RTVSPropertyOp42
 70
     1
102
RTVSPropertyOp43
 70
     1
102
RTVSPropertyOp44
 70
     1
102
RTVSPropertyOp45
 70
     1
102
RTVSPropertyOp46
 70
     1
102
RTVSPropertyOp47
 70
     1
102
RTVSPropertyOp48
 70
     1
102
RTVSPropertyOp49
 70
     1
102
RTVSPropertyOp50
 70
     1
102
RTVSPropertyOp51
 70
     0
102
RTVSPropertyOp52
 70
     0
102
RTVSPropertyOp53
 70
     1
102
RTVSPropertyOp54
 70
     1
102
RTVSPropertyOp55
 70
     1
102
RTVSPropertyOp56
 70
     1
102
RTVSPropertyOp57
 70
     1
102
RTVSPropertyOp58
 70
     1
102
RTVSPropertyOp59
 70
     1
102
RTVSPropertyOp60
 70
     1
102
RTVSPropertyOp61
 70
     1
102
RTVSPropertyOp62
 70
     1
  0
XRECORD
  5
8490
102
{ACAD_REACTORS
330
848F
102
}
330
848F
100
AcDbXrecord
280
     1
102
RTVSPost2010Prop28
280
     0
102
RTVSPost2010PropOp28
 70
     1
102
RTVSPost2010Prop29
280
     1
102
RTVSPost2010PropOp29
 70
     1
102
RTVSPost2010Prop30
280
     1
102
RTVSPost2010PropOp30
 70
     1
102
RTVSPost2010Prop31
280
     0
102
RTVSPost2010PropOp31
 70
     1
102
RTVSPost2010Prop32
280
     0
102
RTVSPost2010PropOp32
 70
     1
102
RTVSPost2010Prop33
280
     0
102
RTVSPost2010PropOp33
 70
     1
102
RTVSPost2010Prop34
280
     0
102
RTVSPost2010PropOp34
 70
     1
102
RTVSPost2010Prop35
280
     0
102
RTVSPost2010PropOp35
 70
     1
102
RTVSPost2010Prop36
280
     0
102
RTVSPost2010PropOp36
 70
     1
102
RTVSPost2010Prop37
 90
       50
102
RTVSPost2010PropOp37
 70
     1
102
RTVSPost2010Prop38
140
0.0
102
RTVSPost2010PropOp38
 70
     1
102
RTVSPost2010Prop39
140
1.0
102
RTVSPost2010PropOp39
 70
     1
102
RTVSPost2010Prop40
 90
        0
102
RTVSPost2010PropOp40
 70
     1
102
RTVSPost2010Prop41ColorIndex
 90
       18
102
RTVSPost2010Prop41ColorRGB
 90
        0
102
RTVSPost2010PropOp41
 70
     1
102
RTVSPost2010Prop42
 90
       50
102
RTVSPost2010PropOp42
 70
     1
102
RTVSPost2010Prop43
 90
        3
102
RTVSPost2010PropOp43
 70
     1
102
RTVSPost2010Prop44ColorIndex
 90
        5
102
RTVSPost2010Prop44ColorRGB
 90
      255
102
RTVSPost2010PropOp44
 70
     1
102
RTVSPost2010Prop45
280
     0
102
RTVSPost2010PropOp45
 70
     1
102
RTVSPost2010Prop46
 90
       50
102
RTVSPost2010PropOp46
 70
     1
102
RTVSPost2010Prop47
 90
       50
102
RTVSPost2010PropOp47
 70
     1
102
RTVSPost2010Prop48
 90
       50
102
RTVSPost2010PropOp48
 70
     1
102
RTVSPost2010Prop49
280
     0
102
RTVSPost2010PropOp49
 70
     1
102
RTVSPost2010Prop50
 90
       50
102
RTVSPost2010PropOp50
 70
     1
102
RTVSPost2010Prop51ColorIndex
 90
      256
102
RTVSPost2010Prop51ColorRGB
 90
-16777216
102
RTVSPost2010PropOp51
 70
     0
102
RTVSPost2010Prop52
140
1.0
102
RTVSPost2010PropOp52
 70
     0
102
RTVSPost2010Prop53
 90
        2
102
RTVSPost2010PropOp53
 70
     1
102
RTVSPost2010Prop54
  1
strokes_ogs.tif
102
RTVSPost2010PropOp54
 70
     1
102
RTVSPost2010Prop55
280
     0
102
RTVSPost2010PropOp55
 70
     1
102
RTVSPost2010Prop56
140
1.0
102
RTVSPost2010PropOp56
 70
     1
102
RTVSPost2010Prop57
140
1.0
102
RTVSPost2010PropOp57
 70
     1
102
RTVSPropertyOp0
 70
     1
102
RTVSPropertyOp1
 70
     1
102
RTVSPropertyOp2
 70
     1
102
RTVSPropertyOp3
 70
     1
102
RTVSPropertyOp4
 70
     1
102
RTVSPropertyOp5
 70
     1
102
RTVSPropertyOp6
 70
     1
102
RTVSPropertyOp7
 70
     1
102
RTVSPropertyOp8
 70
     1
102
RTVSPropertyOp9
 70
     1
102
RTVSPropertyOp10
 70
     1
102
RTVSPropertyOp11
 70
     1
102
RTVSPropertyOp12
 70
     1
102
RTVSPropertyOp13
 70
     1
102
RTVSPropertyOp14
 70
     1
102
RTVSPropertyOp15
 70
     1
102
RTVSPropertyOp16
 70
     1
102
RTVSPropertyOp17
 70
     1
102
RTVSPropertyOp18
 70
     1
102
RTVSPropertyOp19
 70
     1
102
RTVSPropertyOp20
 70
     1
102
RTVSPropertyOp21
 70
     1
102
RTVSPropertyOp22
 70
     1
102
RTVSPropertyOp23
 70
     1
102
RTVSPropertyOp24
 70
     1
102
RTVSPropertyOp25
 70
     1
102
RTVSPropertyOp26
 70
     1
102
RTVSPropertyOp27
 70
     1
102
RTVSPropertyOp28
 70
     1
102
RTVSPropertyOp29
 70
     1
102
RTVSPropertyOp30
 70
     1
102
RTVSPropertyOp31
 70
     1
102
RTVSPropertyOp32
 70
     1
102
RTVSPropertyOp33
 70
     1
102
RTVSPropertyOp34
 70
     1
102
RTVSPropertyOp35
 70
     1
102
RTVSPropertyOp36
 70
     1
102
RTVSPropertyOp37
 70
     1
102
RTVSPropertyOp38
 70
     1
102
RTVSPropertyOp39
 70
     1
102
RTVSPropertyOp40
 70
     1
102
RTVSPropertyOp41
 70
     1
102
RTVSPropertyOp42
 70
     1
102
RTVSPropertyOp43
 70
     1
102
RTVSPropertyOp44
 70
     1
102
RTVSPropertyOp45
 70
     1
102
RTVSPropertyOp46
 70
     1
102
RTVSPropertyOp47
 70
     1
102
RTVSPropertyOp48
 70
     1
102
RTVSPropertyOp49
 70
     1
102
RTVSPropertyOp50
 70
     1
102
RTVSPropertyOp51
 70
     0
102
RTVSPropertyOp52
 70
     0
102
RTVSPropertyOp53
 70
     1
102
RTVSPropertyOp54
 70
     1
102
RTVSPropertyOp55
 70
     1
102
RTVSPropertyOp56
 70
     1
102
RTVSPropertyOp57
 70
     1
102
RTVSPropertyOp58
 70
     1
102
RTVSPropertyOp59
 70
     1
102
RTVSPropertyOp60
 70
     1
102
RTVSPropertyOp61
 70
     1
102
RTVSPropertyOp62
 70
     1
  0
XRECORD
  5
848E
102
{ACAD_REACTORS
330
848D
102
}
330
848D
100
AcDbXrecord
280
     1
102
RTVSPost2010Prop28
280
     0
102
RTVSPost2010PropOp28
 70
     1
102
RTVSPost2010Prop29
280
     1
102
RTVSPost2010PropOp29
 70
     1
102
RTVSPost2010Prop30
280
     1
102
RTVSPost2010PropOp30
 70
     1
102
RTVSPost2010Prop31
280
     0
102
RTVSPost2010PropOp31
 70
     1
102
RTVSPost2010Prop32
280
     0
102
RTVSPost2010PropOp32
 70
     1
102
RTVSPost2010Prop33
280
     0
102
RTVSPost2010PropOp33
 70
     1
102
RTVSPost2010Prop34
280
     0
102
RTVSPost2010PropOp34
 70
     1
102
RTVSPost2010Prop35
280
     0
102
RTVSPost2010PropOp35
 70
     1
102
RTVSPost2010Prop36
280
     0
102
RTVSPost2010PropOp36
 70
     1
102
RTVSPost2010Prop37
 90
       50
102
RTVSPost2010PropOp37
 70
     1
102
RTVSPost2010Prop38
140
0.0
102
RTVSPost2010PropOp38
 70
     1
102
RTVSPost2010Prop39
140
1.0
102
RTVSPost2010PropOp39
 70
     1
102
RTVSPost2010Prop40
 90
        0
102
RTVSPost2010PropOp40
 70
     1
102
RTVSPost2010Prop41ColorIndex
 90
       18
102
RTVSPost2010Prop41ColorRGB
 90
        0
102
RTVSPost2010PropOp41
 70
     1
102
RTVSPost2010Prop42
 90
       50
102
RTVSPost2010PropOp42
 70
     1
102
RTVSPost2010Prop43
 90
        3
102
RTVSPost2010PropOp43
 70
     1
102
RTVSPost2010Prop44ColorIndex
 90
        5
102
RTVSPost2010Prop44ColorRGB
 90
      255
102
RTVSPost2010PropOp44
 70
     1
102
RTVSPost2010Prop45
280
     0
102
RTVSPost2010PropOp45
 70
     1
102
RTVSPost2010Prop46
 90
       50
102
RTVSPost2010PropOp46
 70
     1
102
RTVSPost2010Prop47
 90
       50
102
RTVSPost2010PropOp47
 70
     1
102
RTVSPost2010Prop48
 90
       50
102
RTVSPost2010PropOp48
 70
     1
102
RTVSPost2010Prop49
280
     0
102
RTVSPost2010PropOp49
 70
     1
102
RTVSPost2010Prop50
 90
       50
102
RTVSPost2010PropOp50
 70
     1
102
RTVSPost2010Prop51ColorIndex
 90
      256
102
RTVSPost2010Prop51ColorRGB
 90
-16777216
102
RTVSPost2010PropOp51
 70
     0
102
RTVSPost2010Prop52
140
1.0
102
RTVSPost2010PropOp52
 70
     0
102
RTVSPost2010Prop53
 90
        2
102
RTVSPost2010PropOp53
 70
     1
102
RTVSPost2010Prop54
  1
strokes_ogs.tif
102
RTVSPost2010PropOp54
 70
     1
102
RTVSPost2010Prop55
280
     0
102
RTVSPost2010PropOp55
 70
     1
102
RTVSPost2010Prop56
140
1.0
102
RTVSPost2010PropOp56
 70
     1
102
RTVSPost2010Prop57
140
1.0
102
RTVSPost2010PropOp57
 70
     1
102
RTVSPropertyOp0
 70
     1
102
RTVSPropertyOp1
 70
     1
102
RTVSPropertyOp2
 70
     1
102
RTVSPropertyOp3
 70
     1
102
RTVSPropertyOp4
 70
     1
102
RTVSPropertyOp5
 70
     1
102
RTVSPropertyOp6
 70
     1
102
RTVSPropertyOp7
 70
     1
102
RTVSPropertyOp8
 70
     1
102
RTVSPropertyOp9
 70
     1
102
RTVSPropertyOp10
 70
     1
102
RTVSPropertyOp11
 70
     1
102
RTVSPropertyOp12
 70
     1
102
RTVSPropertyOp13
 70
     1
102
RTVSPropertyOp14
 70
     1
102
RTVSPropertyOp15
 70
     1
102
RTVSPropertyOp16
 70
     1
102
RTVSPropertyOp17
 70
     1
102
RTVSPropertyOp18
 70
     1
102
RTVSPropertyOp19
 70
     1
102
RTVSPropertyOp20
 70
     1
102
RTVSPropertyOp21
 70
     1
102
RTVSPropertyOp22
 70
     1
102
RTVSPropertyOp23
 70
     1
102
RTVSPropertyOp24
 70
     1
102
RTVSPropertyOp25
 70
     1
102
RTVSPropertyOp26
 70
     1
102
RTVSPropertyOp27
 70
     1
102
RTVSPropertyOp28
 70
     1
102
RTVSPropertyOp29
 70
     1
102
RTVSPropertyOp30
 70
     1
102
RTVSPropertyOp31
 70
     1
102
RTVSPropertyOp32
 70
     1
102
RTVSPropertyOp33
 70
     1
102
RTVSPropertyOp34
 70
     1
102
RTVSPropertyOp35
 70
     1
102
RTVSPropertyOp36
 70
     1
102
RTVSPropertyOp37
 70
     1
102
RTVSPropertyOp38
 70
     1
102
RTVSPropertyOp39
 70
     1
102
RTVSPropertyOp40
 70
     1
102
RTVSPropertyOp41
 70
     1
102
RTVSPropertyOp42
 70
     1
102
RTVSPropertyOp43
 70
     1
102
RTVSPropertyOp44
 70
     1
102
RTVSPropertyOp45
 70
     1
102
RTVSPropertyOp46
 70
     1
102
RTVSPropertyOp47
 70
     1
102
RTVSPropertyOp48
 70
     1
102
RTVSPropertyOp49
 70
     1
102
RTVSPropertyOp50
 70
     1
102
RTVSPropertyOp51
 70
     0
102
RTVSPropertyOp52
 70
     0
102
RTVSPropertyOp53
 70
     1
102
RTVSPropertyOp54
 70
     1
102
RTVSPropertyOp55
 70
     1
102
RTVSPropertyOp56
 70
     1
102
RTVSPropertyOp57
 70
     1
102
RTVSPropertyOp58
 70
     1
102
RTVSPropertyOp59
 70
     1
102
RTVSPropertyOp60
 70
     1
102
RTVSPropertyOp61
 70
     1
102
RTVSPropertyOp62
 70
     1
  0
XRECORD
  5
8488
102
{ACAD_REACTORS
330
8487
102
}
330
8487
100
AcDbXrecord
280
     1
102
RTVSPost2010Prop28
280
     0
102
RTVSPost2010PropOp28
 70
     1
102
RTVSPost2010Prop29
280
     1
102
RTVSPost2010PropOp29
 70
     1
102
RTVSPost2010Prop30
280
     1
102
RTVSPost2010PropOp30
 70
     1
102
RTVSPost2010Prop31
280
     0
102
RTVSPost2010PropOp31
 70
     1
102
RTVSPost2010Prop32
280
     0
102
RTVSPost2010PropOp32
 70
     1
102
RTVSPost2010Prop33
280
     0
102
RTVSPost2010PropOp33
 70
     1
102
RTVSPost2010Prop34
280
     0
102
RTVSPost2010PropOp34
 70
     1
102
RTVSPost2010Prop35
280
     0
102
RTVSPost2010PropOp35
 70
     1
102
RTVSPost2010Prop36
280
     0
102
RTVSPost2010PropOp36
 70
     1
102
RTVSPost2010Prop37
 90
       50
102
RTVSPost2010PropOp37
 70
     1
102
RTVSPost2010Prop38
140
0.0
102
RTVSPost2010PropOp38
 70
     1
102
RTVSPost2010Prop39
140
1.0
102
RTVSPost2010PropOp39
 70
     1
102
RTVSPost2010Prop40
 90
        0
102
RTVSPost2010PropOp40
 70
     1
102
RTVSPost2010Prop41ColorIndex
 90
       18
102
RTVSPost2010Prop41ColorRGB
 90
        0
102
RTVSPost2010PropOp41
 70
     1
102
RTVSPost2010Prop42
 90
       50
102
RTVSPost2010PropOp42
 70
     1
102
RTVSPost2010Prop43
 90
        3
102
RTVSPost2010PropOp43
 70
     1
102
RTVSPost2010Prop44ColorIndex
 90
        5
102
RTVSPost2010Prop44ColorRGB
 90
      255
102
RTVSPost2010PropOp44
 70
     1
102
RTVSPost2010Prop45
280
     0
102
RTVSPost2010PropOp45
 70
     1
102
RTVSPost2010Prop46
 90
       50
102
RTVSPost2010PropOp46
 70
     1
102
RTVSPost2010Prop47
 90
       50
102
RTVSPost2010PropOp47
 70
     1
102
RTVSPost2010Prop48
 90
       50
102
RTVSPost2010PropOp48
 70
     1
102
RTVSPost2010Prop49
280
     0
102
RTVSPost2010PropOp49
 70
     1
102
RTVSPost2010Prop50
 90
       50
102
RTVSPost2010PropOp50
 70
     1
102
RTVSPost2010Prop51ColorIndex
 90
      256
102
RTVSPost2010Prop51ColorRGB
 90
-16777216
102
RTVSPost2010PropOp51
 70
     0
102
RTVSPost2010Prop52
140
1.0
102
RTVSPost2010PropOp52
 70
     0
102
RTVSPost2010Prop53
 90
        2
102
RTVSPost2010PropOp53
 70
     1
102
RTVSPost2010Prop54
  1
strokes_ogs.tif
102
RTVSPost2010PropOp54
 70
     1
102
RTVSPost2010Prop55
280
     0
102
RTVSPost2010PropOp55
 70
     1
102
RTVSPost2010Prop56
140
1.0
102
RTVSPost2010PropOp56
 70
     1
102
RTVSPost2010Prop57
140
1.0
102
RTVSPost2010PropOp57
 70
     1
102
RTVSPropertyOp0
 70
     1
102
RTVSPropertyOp1
 70
     1
102
RTVSPropertyOp2
 70
     1
102
RTVSPropertyOp3
 70
     1
102
RTVSPropertyOp4
 70
     1
102
RTVSPropertyOp5
 70
     1
102
RTVSPropertyOp6
 70
     1
102
RTVSPropertyOp7
 70
     1
102
RTVSPropertyOp8
 70
     1
102
RTVSPropertyOp9
 70
     1
102
RTVSPropertyOp10
 70
     1
102
RTVSPropertyOp11
 70
     1
102
RTVSPropertyOp12
 70
     1
102
RTVSPropertyOp13
 70
     1
102
RTVSPropertyOp14
 70
     1
102
RTVSPropertyOp15
 70
     1
102
RTVSPropertyOp16
 70
     1
102
RTVSPropertyOp17
 70
     1
102
RTVSPropertyOp18
 70
     1
102
RTVSPropertyOp19
 70
     1
102
RTVSPropertyOp20
 70
     1
102
RTVSPropertyOp21
 70
     1
102
RTVSPropertyOp22
 70
     1
102
RTVSPropertyOp23
 70
     1
102
RTVSPropertyOp24
 70
     1
102
RTVSPropertyOp25
 70
     1
102
RTVSPropertyOp26
 70
     1
102
RTVSPropertyOp27
 70
     1
102
RTVSPropertyOp28
 70
     1
102
RTVSPropertyOp29
 70
     1
102
RTVSPropertyOp30
 70
     1
102
RTVSPropertyOp31
 70
     1
102
RTVSPropertyOp32
 70
     1
102
RTVSPropertyOp33
 70
     1
102
RTVSPropertyOp34
 70
     1
102
RTVSPropertyOp35
 70
     1
102
RTVSPropertyOp36
 70
     1
102
RTVSPropertyOp37
 70
     1
102
RTVSPropertyOp38
 70
     1
102
RTVSPropertyOp39
 70
     1
102
RTVSPropertyOp40
 70
     1
102
RTVSPropertyOp41
 70
     1
102
RTVSPropertyOp42
 70
     1
102
RTVSPropertyOp43
 70
     1
102
RTVSPropertyOp44
 70
     1
102
RTVSPropertyOp45
 70
     1
102
RTVSPropertyOp46
 70
     1
102
RTVSPropertyOp47
 70
     1
102
RTVSPropertyOp48
 70
     1
102
RTVSPropertyOp49
 70
     1
102
RTVSPropertyOp50
 70
     1
102
RTVSPropertyOp51
 70
     0
102
RTVSPropertyOp52
 70
     0
102
RTVSPropertyOp53
 70
     1
102
RTVSPropertyOp54
 70
     1
102
RTVSPropertyOp55
 70
     1
102
RTVSPropertyOp56
 70
     1
102
RTVSPropertyOp57
 70
     1
102
RTVSPropertyOp58
 70
     1
102
RTVSPropertyOp59
 70
     1
102
RTVSPropertyOp60
 70
     1
102
RTVSPropertyOp61
 70
     1
102
RTVSPropertyOp62
 70
     1
  0
XRECORD
  5
848A
102
{ACAD_REACTORS
330
8489
102
}
330
8489
100
AcDbXrecord
280
     1
102
RTVSPost2010Prop28
280
     0
102
RTVSPost2010PropOp28
 70
     1
102
RTVSPost2010Prop29
280
     1
102
RTVSPost2010PropOp29
 70
     1
102
RTVSPost2010Prop30
280
     1
102
RTVSPost2010PropOp30
 70
     1
102
RTVSPost2010Prop31
280
     0
102
RTVSPost2010PropOp31
 70
     1
102
RTVSPost2010Prop32
280
     0
102
RTVSPost2010PropOp32
 70
     1
102
RTVSPost2010Prop33
280
     0
102
RTVSPost2010PropOp33
 70
     1
102
RTVSPost2010Prop34
280
     0
102
RTVSPost2010PropOp34
 70
     1
102
RTVSPost2010Prop35
280
     0
102
RTVSPost2010PropOp35
 70
     1
102
RTVSPost2010Prop36
280
     0
102
RTVSPost2010PropOp36
 70
     1
102
RTVSPost2010Prop37
 90
       50
102
RTVSPost2010PropOp37
 70
     1
102
RTVSPost2010Prop38
140
0.0
102
RTVSPost2010PropOp38
 70
     1
102
RTVSPost2010Prop39
140
1.0
102
RTVSPost2010PropOp39
 70
     1
102
RTVSPost2010Prop40
 90
        0
102
RTVSPost2010PropOp40
 70
     1
102
RTVSPost2010Prop41ColorIndex
 90
       18
102
RTVSPost2010Prop41ColorRGB
 90
        0
102
RTVSPost2010PropOp41
 70
     1
102
RTVSPost2010Prop42
 90
       50
102
RTVSPost2010PropOp42
 70
     1
102
RTVSPost2010Prop43
 90
        3
102
RTVSPost2010PropOp43
 70
     1
102
RTVSPost2010Prop44ColorIndex
 90
        5
102
RTVSPost2010Prop44ColorRGB
 90
      255
102
RTVSPost2010PropOp44
 70
     1
102
RTVSPost2010Prop45
280
     0
102
RTVSPost2010PropOp45
 70
     1
102
RTVSPost2010Prop46
 90
       50
102
RTVSPost2010PropOp46
 70
     1
102
RTVSPost2010Prop47
 90
       50
102
RTVSPost2010PropOp47
 70
     1
102
RTVSPost2010Prop48
 90
       50
102
RTVSPost2010PropOp48
 70
     1
102
RTVSPost2010Prop49
280
     0
102
RTVSPost2010PropOp49
 70
     1
102
RTVSPost2010Prop50
 90
       50
102
RTVSPost2010PropOp50
 70
     1
102
RTVSPost2010Prop51ColorIndex
 90
      256
102
RTVSPost2010Prop51ColorRGB
 90
-16777216
102
RTVSPost2010PropOp51
 70
     0
102
RTVSPost2010Prop52
140
1.0
102
RTVSPost2010PropOp52
 70
     0
102
RTVSPost2010Prop53
 90
        2
102
RTVSPost2010PropOp53
 70
     1
102
RTVSPost2010Prop54
  1
strokes_ogs.tif
102
RTVSPost2010PropOp54
 70
     1
102
RTVSPost2010Prop55
280
     0
102
RTVSPost2010PropOp55
 70
     1
102
RTVSPost2010Prop56
140
1.0
102
RTVSPost2010PropOp56
 70
     1
102
RTVSPost2010Prop57
140
1.0
102
RTVSPost2010PropOp57
 70
     1
102
RTVSPropertyOp0
 70
     1
102
RTVSPropertyOp1
 70
     1
102
RTVSPropertyOp2
 70
     1
102
RTVSPropertyOp3
 70
     1
102
RTVSPropertyOp4
 70
     1
102
RTVSPropertyOp5
 70
     1
102
RTVSPropertyOp6
 70
     1
102
RTVSPropertyOp7
 70
     1
102
RTVSPropertyOp8
 70
     1
102
RTVSPropertyOp9
 70
     1
102
RTVSPropertyOp10
 70
     1
102
RTVSPropertyOp11
 70
     1
102
RTVSPropertyOp12
 70
     1
102
RTVSPropertyOp13
 70
     1
102
RTVSPropertyOp14
 70
     1
102
RTVSPropertyOp15
 70
     1
102
RTVSPropertyOp16
 70
     1
102
RTVSPropertyOp17
 70
     1
102
RTVSPropertyOp18
 70
     1
102
RTVSPropertyOp19
 70
     1
102
RTVSPropertyOp20
 70
     1
102
RTVSPropertyOp21
 70
     1
102
RTVSPropertyOp22
 70
     1
102
RTVSPropertyOp23
 70
     1
102
RTVSPropertyOp24
 70
     1
102
RTVSPropertyOp25
 70
     1
102
RTVSPropertyOp26
 70
     1
102
RTVSPropertyOp27
 70
     1
102
RTVSPropertyOp28
 70
     1
102
RTVSPropertyOp29
 70
     1
102
RTVSPropertyOp30
 70
     1
102
RTVSPropertyOp31
 70
     1
102
RTVSPropertyOp32
 70
     1
102
RTVSPropertyOp33
 70
     1
102
RTVSPropertyOp34
 70
     1
102
RTVSPropertyOp35
 70
     1
102
RTVSPropertyOp36
 70
     1
102
RTVSPropertyOp37
 70
     1
102
RTVSPropertyOp38
 70
     1
102
RTVSPropertyOp39
 70
     1
102
RTVSPropertyOp40
 70
     1
102
RTVSPropertyOp41
 70
     1
102
RTVSPropertyOp42
 70
     1
102
RTVSPropertyOp43
 70
     1
102
RTVSPropertyOp44
 70
     1
102
RTVSPropertyOp45
 70
     1
102
RTVSPropertyOp46
 70
     1
102
RTVSPropertyOp47
 70
     1
102
RTVSPropertyOp48
 70
     1
102
RTVSPropertyOp49
 70
     1
102
RTVSPropertyOp50
 70
     1
102
RTVSPropertyOp51
 70
     0
102
RTVSPropertyOp52
 70
     0
102
RTVSPropertyOp53
 70
     1
102
RTVSPropertyOp54
 70
     1
102
RTVSPropertyOp55
 70
     1
102
RTVSPropertyOp56
 70
     1
102
RTVSPropertyOp57
 70
     1
102
RTVSPropertyOp58
 70
     1
102
RTVSPropertyOp59
 70
     1
102
RTVSPropertyOp60
 70
     1
102
RTVSPropertyOp61
 70
     1
102
RTVSPropertyOp62
 70
     1
  0
XRECORD
  5
8480
102
{ACAD_REACTORS
330
847F
102
}
330
847F
100
AcDbXrecord
280
     1
102
RTVSPost2010Prop28
280
     0
102
RTVSPost2010PropOp28
 70
     1
102
RTVSPost2010Prop29
280
     1
102
RTVSPost2010PropOp29
 70
     1
102
RTVSPost2010Prop30
280
     1
102
RTVSPost2010PropOp30
 70
     1
102
RTVSPost2010Prop31
280
     0
102
RTVSPost2010PropOp31
 70
     1
102
RTVSPost2010Prop32
280
     0
102
RTVSPost2010PropOp32
 70
     1
102
RTVSPost2010Prop33
280
     0
102
RTVSPost2010PropOp33
 70
     1
102
RTVSPost2010Prop34
280
     0
102
RTVSPost2010PropOp34
 70
     1
102
RTVSPost2010Prop35
280
     0
102
RTVSPost2010PropOp35
 70
     1
102
RTVSPost2010Prop36
280
     0
102
RTVSPost2010PropOp36
 70
     1
102
RTVSPost2010Prop37
 90
       50
102
RTVSPost2010PropOp37
 70
     1
102
RTVSPost2010Prop38
140
0.0
102
RTVSPost2010PropOp38
 70
     1
102
RTVSPost2010Prop39
140
1.0
102
RTVSPost2010PropOp39
 70
     1
102
RTVSPost2010Prop40
 90
        0
102
RTVSPost2010PropOp40
 70
     1
102
RTVSPost2010Prop41ColorIndex
 90
       18
102
RTVSPost2010Prop41ColorRGB
 90
        0
102
RTVSPost2010PropOp41
 70
     1
102
RTVSPost2010Prop42
 90
       50
102
RTVSPost2010PropOp42
 70
     1
102
RTVSPost2010Prop43
 90
        3
102
RTVSPost2010PropOp43
 70
     1
102
RTVSPost2010Prop44ColorIndex
 90
        5
102
RTVSPost2010Prop44ColorRGB
 90
      255
102
RTVSPost2010PropOp44
 70
     1
102
RTVSPost2010Prop45
280
     0
102
RTVSPost2010PropOp45
 70
     1
102
RTVSPost2010Prop46
 90
       50
102
RTVSPost2010PropOp46
 70
     1
102
RTVSPost2010Prop47
 90
       50
102
RTVSPost2010PropOp47
 70
     1
102
RTVSPost2010Prop48
 90
       50
102
RTVSPost2010PropOp48
 70
     1
102
RTVSPost2010Prop49
280
     0
102
RTVSPost2010PropOp49
 70
     1
102
RTVSPost2010Prop50
 90
       50
102
RTVSPost2010PropOp50
 70
     1
102
RTVSPost2010Prop51ColorIndex
 90
      256
102
RTVSPost2010Prop51ColorRGB
 90
-16777216
102
RTVSPost2010PropOp51
 70
     0
102
RTVSPost2010Prop52
140
1.0
102
RTVSPost2010PropOp52
 70
     0
102
RTVSPost2010Prop53
 90
        2
102
RTVSPost2010PropOp53
 70
     1
102
RTVSPost2010Prop54
  1
strokes_ogs.tif
102
RTVSPost2010PropOp54
 70
     1
102
RTVSPost2010Prop55
280
     0
102
RTVSPost2010PropOp55
 70
     1
102
RTVSPost2010Prop56
140
1.0
102
RTVSPost2010PropOp56
 70
     1
102
RTVSPost2010Prop57
140
1.0
102
RTVSPost2010PropOp57
 70
     1
102
RTVSPropertyOp0
 70
     1
102
RTVSPropertyOp1
 70
     1
102
RTVSPropertyOp2
 70
     1
102
RTVSPropertyOp3
 70
     1
102
RTVSPropertyOp4
 70
     1
102
RTVSPropertyOp5
 70
     1
102
RTVSPropertyOp6
 70
     1
102
RTVSPropertyOp7
 70
     1
102
RTVSPropertyOp8
 70
     1
102
RTVSPropertyOp9
 70
     1
102
RTVSPropertyOp10
 70
     1
102
RTVSPropertyOp11
 70
     1
102
RTVSPropertyOp12
 70
     1
102
RTVSPropertyOp13
 70
     1
102
RTVSPropertyOp14
 70
     1
102
RTVSPropertyOp15
 70
     1
102
RTVSPropertyOp16
 70
     1
102
RTVSPropertyOp17
 70
     1
102
RTVSPropertyOp18
 70
     1
102
RTVSPropertyOp19
 70
     1
102
RTVSPropertyOp20
 70
     1
102
RTVSPropertyOp21
 70
     1
102
RTVSPropertyOp22
 70
     1
102
RTVSPropertyOp23
 70
     1
102
RTVSPropertyOp24
 70
     1
102
RTVSPropertyOp25
 70
     1
102
RTVSPropertyOp26
 70
     1
102
RTVSPropertyOp27
 70
     1
102
RTVSPropertyOp28
 70
     1
102
RTVSPropertyOp29
 70
     1
102
RTVSPropertyOp30
 70
     1
102
RTVSPropertyOp31
 70
     1
102
RTVSPropertyOp32
 70
     1
102
RTVSPropertyOp33
 70
     1
102
RTVSPropertyOp34
 70
     1
102
RTVSPropertyOp35
 70
     1
102
RTVSPropertyOp36
 70
     1
102
RTVSPropertyOp37
 70
     1
102
RTVSPropertyOp38
 70
     1
102
RTVSPropertyOp39
 70
     1
102
RTVSPropertyOp40
 70
     1
102
RTVSPropertyOp41
 70
     1
102
RTVSPropertyOp42
 70
     1
102
RTVSPropertyOp43
 70
     1
102
RTVSPropertyOp44
 70
     1
102
RTVSPropertyOp45
 70
     1
102
RTVSPropertyOp46
 70
     1
102
RTVSPropertyOp47
 70
     1
102
RTVSPropertyOp48
 70
     1
102
RTVSPropertyOp49
 70
     1
102
RTVSPropertyOp50
 70
     1
102
RTVSPropertyOp51
 70
     0
102
RTVSPropertyOp52
 70
     0
102
RTVSPropertyOp53
 70
     1
102
RTVSPropertyOp54
 70
     1
102
RTVSPropertyOp55
 70
     1
102
RTVSPropertyOp56
 70
     1
102
RTVSPropertyOp57
 70
     1
102
RTVSPropertyOp58
 70
     1
102
RTVSPropertyOp59
 70
     1
102
RTVSPropertyOp60
 70
     1
102
RTVSPropertyOp61
 70
     1
102
RTVSPropertyOp62
 70
     1
  0
XRECORD
  5
8474
102
{ACAD_REACTORS
330
8473
102
}
330
8473
100
AcDbXrecord
280
     1
102
RTVSPost2010Prop28
280
     0
102
RTVSPost2010PropOp28
 70
     1
102
RTVSPost2010Prop29
280
     1
102
RTVSPost2010PropOp29
 70
     1
102
RTVSPost2010Prop30
280
     1
102
RTVSPost2010PropOp30
 70
     1
102
RTVSPost2010Prop31
280
     0
102
RTVSPost2010PropOp31
 70
     1
102
RTVSPost2010Prop32
280
     0
102
RTVSPost2010PropOp32
 70
     1
102
RTVSPost2010Prop33
280
     0
102
RTVSPost2010PropOp33
 70
     1
102
RTVSPost2010Prop34
280
     0
102
RTVSPost2010PropOp34
 70
     1
102
RTVSPost2010Prop35
280
     0
102
RTVSPost2010PropOp35
 70
     1
102
RTVSPost2010Prop36
280
     0
102
RTVSPost2010PropOp36
 70
     1
102
RTVSPost2010Prop37
 90
       50
102
RTVSPost2010PropOp37
 70
     1
102
RTVSPost2010Prop38
140
0.0
102
RTVSPost2010PropOp38
 70
     1
102
RTVSPost2010Prop39
140
1.0
102
RTVSPost2010PropOp39
 70
     1
102
RTVSPost2010Prop40
 90
        0
102
RTVSPost2010PropOp40
 70
     1
102
RTVSPost2010Prop41ColorIndex
 90
       18
102
RTVSPost2010Prop41ColorRGB
 90
        0
102
RTVSPost2010PropOp41
 70
     1
102
RTVSPost2010Prop42
 90
       50
102
RTVSPost2010PropOp42
 70
     1
102
RTVSPost2010Prop43
 90
        3
102
RTVSPost2010PropOp43
 70
     1
102
RTVSPost2010Prop44ColorIndex
 90
        5
102
RTVSPost2010Prop44ColorRGB
 90
      255
102
RTVSPost2010PropOp44
 70
     1
102
RTVSPost2010Prop45
280
     0
102
RTVSPost2010PropOp45
 70
     1
102
RTVSPost2010Prop46
 90
       50
102
RTVSPost2010PropOp46
 70
     1
102
RTVSPost2010Prop47
 90
       50
102
RTVSPost2010PropOp47
 70
     1
102
RTVSPost2010Prop48
 90
       50
102
RTVSPost2010PropOp48
 70
     1
102
RTVSPost2010Prop49
280
     0
102
RTVSPost2010PropOp49
 70
     1
102
RTVSPost2010Prop50
 90
       50
102
RTVSPost2010PropOp50
 70
     1
102
RTVSPost2010Prop51ColorIndex
 90
      256
102
RTVSPost2010Prop51ColorRGB
 90
-16777216
102
RTVSPost2010PropOp51
 70
     0
102
RTVSPost2010Prop52
140
1.0
102
RTVSPost2010PropOp52
 70
     0
102
RTVSPost2010Prop53
 90
        2
102
RTVSPost2010PropOp53
 70
     1
102
RTVSPost2010Prop54
  1
strokes_ogs.tif
102
RTVSPost2010PropOp54
 70
     1
102
RTVSPost2010Prop55
280
     0
102
RTVSPost2010PropOp55
 70
     1
102
RTVSPost2010Prop56
140
1.0
102
RTVSPost2010PropOp56
 70
     1
102
RTVSPost2010Prop57
140
1.0
102
RTVSPost2010PropOp57
 70
     1
102
RTVSPropertyOp0
 70
     1
102
RTVSPropertyOp1
 70
     1
102
RTVSPropertyOp2
 70
     1
102
RTVSPropertyOp3
 70
     1
102
RTVSPropertyOp4
 70
     1
102
RTVSPropertyOp5
 70
     1
102
RTVSPropertyOp6
 70
     1
102
RTVSPropertyOp7
 70
     1
102
RTVSPropertyOp8
 70
     1
102
RTVSPropertyOp9
 70
     1
102
RTVSPropertyOp10
 70
     1
102
RTVSPropertyOp11
 70
     1
102
RTVSPropertyOp12
 70
     1
102
RTVSPropertyOp13
 70
     1
102
RTVSPropertyOp14
 70
     1
102
RTVSPropertyOp15
 70
     1
102
RTVSPropertyOp16
 70
     1
102
RTVSPropertyOp17
 70
     1
102
RTVSPropertyOp18
 70
     1
102
RTVSPropertyOp19
 70
     1
102
RTVSPropertyOp20
 70
     1
102
RTVSPropertyOp21
 70
     1
102
RTVSPropertyOp22
 70
     1
102
RTVSPropertyOp23
 70
     1
102
RTVSPropertyOp24
 70
     1
102
RTVSPropertyOp25
 70
     1
102
RTVSPropertyOp26
 70
     1
102
RTVSPropertyOp27
 70
     1
102
RTVSPropertyOp28
 70
     1
102
RTVSPropertyOp29
 70
     1
102
RTVSPropertyOp30
 70
     1
102
RTVSPropertyOp31
 70
     1
102
RTVSPropertyOp32
 70
     1
102
RTVSPropertyOp33
 70
     1
102
RTVSPropertyOp34
 70
     1
102
RTVSPropertyOp35
 70
     1
102
RTVSPropertyOp36
 70
     1
102
RTVSPropertyOp37
 70
     1
102
RTVSPropertyOp38
 70
     1
102
RTVSPropertyOp39
 70
     1
102
RTVSPropertyOp40
 70
     1
102
RTVSPropertyOp41
 70
     1
102
RTVSPropertyOp42
 70
     1
102
RTVSPropertyOp43
 70
     1
102
RTVSPropertyOp44
 70
     1
102
RTVSPropertyOp45
 70
     1
102
RTVSPropertyOp46
 70
     1
102
RTVSPropertyOp47
 70
     1
102
RTVSPropertyOp48
 70
     1
102
RTVSPropertyOp49
 70
     1
102
RTVSPropertyOp50
 70
     1
102
RTVSPropertyOp51
 70
     0
102
RTVSPropertyOp52
 70
     0
102
RTVSPropertyOp53
 70
     1
102
RTVSPropertyOp54
 70
     1
102
RTVSPropertyOp55
 70
     1
102
RTVSPropertyOp56
 70
     1
102
RTVSPropertyOp57
 70
     1
102
RTVSPropertyOp58
 70
     1
102
RTVSPropertyOp59
 70
     1
102
RTVSPropertyOp60
 70
     1
102
RTVSPropertyOp61
 70
     1
102
RTVSPropertyOp62
 70
     1
  0
XRECORD
  5
848C
102
{ACAD_REACTORS
330
848B
102
}
330
848B
100
AcDbXrecord
280
     1
102
RTVSPost2010Prop28
280
     0
102
RTVSPost2010PropOp28
 70
     1
102
RTVSPost2010Prop29
280
     1
102
RTVSPost2010PropOp29
 70
     1
102
RTVSPost2010Prop30
280
     1
102
RTVSPost2010PropOp30
 70
     1
102
RTVSPost2010Prop31
280
     0
102
RTVSPost2010PropOp31
 70
     1
102
RTVSPost2010Prop32
280
     0
102
RTVSPost2010PropOp32
 70
     1
102
RTVSPost2010Prop33
280
     0
102
RTVSPost2010PropOp33
 70
     1
102
RTVSPost2010Prop34
280
     0
102
RTVSPost2010PropOp34
 70
     1
102
RTVSPost2010Prop35
280
     0
102
RTVSPost2010PropOp35
 70
     1
102
RTVSPost2010Prop36
280
     0
102
RTVSPost2010PropOp36
 70
     1
102
RTVSPost2010Prop37
 90
       50
102
RTVSPost2010PropOp37
 70
     1
102
RTVSPost2010Prop38
140
0.0
102
RTVSPost2010PropOp38
 70
     1
102
RTVSPost2010Prop39
140
1.0
102
RTVSPost2010PropOp39
 70
     1
102
RTVSPost2010Prop40
 90
        0
102
RTVSPost2010PropOp40
 70
     1
102
RTVSPost2010Prop41ColorIndex
 90
       18
102
RTVSPost2010Prop41ColorRGB
 90
        0
102
RTVSPost2010PropOp41
 70
     1
102
RTVSPost2010Prop42
 90
       50
102
RTVSPost2010PropOp42
 70
     1
102
RTVSPost2010Prop43
 90
        3
102
RTVSPost2010PropOp43
 70
     1
102
RTVSPost2010Prop44ColorIndex
 90
        5
102
RTVSPost2010Prop44ColorRGB
 90
      255
102
RTVSPost2010PropOp44
 70
     1
102
RTVSPost2010Prop45
280
     0
102
RTVSPost2010PropOp45
 70
     1
102
RTVSPost2010Prop46
 90
       50
102
RTVSPost2010PropOp46
 70
     1
102
RTVSPost2010Prop47
 90
       50
102
RTVSPost2010PropOp47
 70
     1
102
RTVSPost2010Prop48
 90
       50
102
RTVSPost2010PropOp48
 70
     1
102
RTVSPost2010Prop49
280
     0
102
RTVSPost2010PropOp49
 70
     1
102
RTVSPost2010Prop50
 90
       50
102
RTVSPost2010PropOp50
 70
     1
102
RTVSPost2010Prop51ColorIndex
 90
      256
102
RTVSPost2010Prop51ColorRGB
 90
-16777216
102
RTVSPost2010PropOp51
 70
     0
102
RTVSPost2010Prop52
140
1.0
102
RTVSPost2010PropOp52
 70
     0
102
RTVSPost2010Prop53
 90
        2
102
RTVSPost2010PropOp53
 70
     1
102
RTVSPost2010Prop54
  1
strokes_ogs.tif
102
RTVSPost2010PropOp54
 70
     1
102
RTVSPost2010Prop55
280
     0
102
RTVSPost2010PropOp55
 70
     1
102
RTVSPost2010Prop56
140
1.0
102
RTVSPost2010PropOp56
 70
     1
102
RTVSPost2010Prop57
140
1.0
102
RTVSPost2010PropOp57
 70
     1
102
RTVSPropertyOp0
 70
     1
102
RTVSPropertyOp1
 70
     1
102
RTVSPropertyOp2
 70
     1
102
RTVSPropertyOp3
 70
     1
102
RTVSPropertyOp4
 70
     1
102
RTVSPropertyOp5
 70
     1
102
RTVSPropertyOp6
 70
     1
102
RTVSPropertyOp7
 70
     1
102
RTVSPropertyOp8
 70
     1
102
RTVSPropertyOp9
 70
     1
102
RTVSPropertyOp10
 70
     1
102
RTVSPropertyOp11
 70
     1
102
RTVSPropertyOp12
 70
     1
102
RTVSPropertyOp13
 70
     1
102
RTVSPropertyOp14
 70
     1
102
RTVSPropertyOp15
 70
     1
102
RTVSPropertyOp16
 70
     1
102
RTVSPropertyOp17
 70
     1
102
RTVSPropertyOp18
 70
     1
102
RTVSPropertyOp19
 70
     1
102
RTVSPropertyOp20
 70
     1
102
RTVSPropertyOp21
 70
     1
102
RTVSPropertyOp22
 70
     1
102
RTVSPropertyOp23
 70
     1
102
RTVSPropertyOp24
 70
     1
102
RTVSPropertyOp25
 70
     1
102
RTVSPropertyOp26
 70
     1
102
RTVSPropertyOp27
 70
     1
102
RTVSPropertyOp28
 70
     1
102
RTVSPropertyOp29
 70
     1
102
RTVSPropertyOp30
 70
     1
102
RTVSPropertyOp31
 70
     1
102
RTVSPropertyOp32
 70
     1
102
RTVSPropertyOp33
 70
     1
102
RTVSPropertyOp34
 70
     1
102
RTVSPropertyOp35
 70
     1
102
RTVSPropertyOp36
 70
     1
102
RTVSPropertyOp37
 70
     1
102
RTVSPropertyOp38
 70
     1
102
RTVSPropertyOp39
 70
     1
102
RTVSPropertyOp40
 70
     1
102
RTVSPropertyOp41
 70
     1
102
RTVSPropertyOp42
 70
     1
102
RTVSPropertyOp43
 70
     1
102
RTVSPropertyOp44
 70
     1
102
RTVSPropertyOp45
 70
     1
102
RTVSPropertyOp46
 70
     1
102
RTVSPropertyOp47
 70
     1
102
RTVSPropertyOp48
 70
     1
102
RTVSPropertyOp49
 70
     1
102
RTVSPropertyOp50
 70
     1
102
RTVSPropertyOp51
 70
     0
102
RTVSPropertyOp52
 70
     0
102
RTVSPropertyOp53
 70
     1
102
RTVSPropertyOp54
 70
     1
102
RTVSPropertyOp55
 70
     1
102
RTVSPropertyOp56
 70
     1
102
RTVSPropertyOp57
 70
     1
102
RTVSPropertyOp58
 70
     1
102
RTVSPropertyOp59
 70
     1
102
RTVSPropertyOp60
 70
     1
102
RTVSPropertyOp61
 70
     1
102
RTVSPropertyOp62
 70
     1
  0
ENDSEC
  0
EOF
