  0
SECTION
  2
HEADER
  9
$ACADVER
  1
AC1015
  9
$ACADMAINTVER
 70
    20
  9
$DWGCODEPAGE
  3
ANSI_932
  9
$INSBASE
 10
0.0
 20
0.0
 30
0.0
  9
$EXTMIN
 10
-0.1922460740788665
 20
-0.2700599612071528
 30
-0.0015258207003583
  9
$EXTMAX
 10
6300.192275410744
 20
8850.270101172235
 30
0.0000000349246037
  9
$LIMMIN
 10
0.0
 20
0.0
  9
$LIMMAX
 10
297.0
 20
210.0
  9
$ORTHOMODE
 70
     1
  9
$REGENMODE
 70
     1
  9
$FILLMODE
 70
     0
  9
$QTEXTMODE
 70
     0
  9
$MIRRTEXT
 70
     1
  9
$LTSCALE
 40
100.0
  9
$ATTMODE
 70
     1
  9
$TEXTSIZE
 40
180.0
  9
$TRACEWID
 40
0.05
  9
$TEXTSTYLE
  7
STANDARD
  9
$CLAYER
  8
3
  9
$CELTYPE
  6
ByLayer
  9
$CECOLOR
 62
   256
  9
$CELTSCALE
 40
1.0
  9
$DISPSILH
 70
     0
  9
$DIMSCALE
 40
30.0
  9
$DIMASZ
 40
2.0
  9
$DIMEXO
 40
1.0
  9
$DIMDLI
 40
10.0
  9
$DIMRND
 40
0.0
  9
$DIMDLE
 40
0.0
  9
$DIMEXE
 40
1.0
  9
$DIMTP
 40
1.0
  9
$DIMTM
 40
1.0
  9
$DIMTXT
 40
3.0
  9
$DIMCEN
 40
0.0
  9
$DIMTSZ
 40
0.0
  9
$DIMTOL
 70
     0
  9
$DIMLIM
 70
     0
  9
$DIMTIH
 70
     0
  9
$DIMTOH
 70
     0
  9
$DIMSE1
 70
     0
  9
$DIMSE2
 70
     0
  9
$DIMTAD
 70
     1
  9
$DIMZIN
 70
     8
  9
$DIMBLK
  1

  9
$DIMASO
 70
     1
  9
$DIMSHO
 70
     1
  9
$DIMPOST
  1

  9
$DIMAPOST
  1

  9
$DIMALT
 70
     0
  9
$DIMALTD
 70
     2
  9
$DIMALTF
 40
0.039
  9
$DIMLFAC
 40
1.0
  9
$DIMTOFL
 70
     1
  9
$DIMTVP
 40
0.0
  9
$DIMTIX
 70
     0
  9
$DIMSOXD
 70
     0
  9
$DIMSAH
 70
     1
  9
$DIMBLK1
  1
OPEN
  9
$DIMBLK2
  1
OPEN
  9
$DIMSTYLE
  2
IGA
  9
$DIMCLRD
 70
     0
  9
$DIMCLRE
 70
     0
  9
$DIMCLRT
 70
     0
  9
$DIMTFAC
 40
10.0
  9
$DIMGAP
 40
1.0
  9
$DIMJUST
 70
     0
  9
$DIMSD1
 70
     0
  9
$DIMSD2
 70
     0
  9
$DIMTOLJ
 70
     1
  9
$DIMTZIN
 70
     0
  9
$DIMALTZ
 70
     0
  9
$DIMALTTZ
 70
     0
  9
$DIMUPT
 70
     0
  9
$DIMDEC
 70
     4
  9
$DIMTDEC
 70
     4
  9
$DIMALTU
 70
     2
  9
$DIMALTTD
 70
     2
  9
$DIMTXSTY
  7
STANDARD
  9
$DIMAUNIT
 70
     0
  9
$DIMADEC
 70
     0
  9
$DIMALTRND
 40
0.0
  9
$DIMAZIN
 70
     0
  9
$DIMDSEP
 70
    46
  9
$DIMATFIT
 70
     3
  9
$DIMFRAC
 70
     0
  9
$DIMLDRBLK
  1
OPEN
  9
$DIMLUNIT
 70
     2
  9
$DIMLWD
 70
    -2
  9
$DIMLWE
 70
    -2
  9
$DIMTMOVE
 70
     0
  9
$LUNITS
 70
     2
  9
$LUPREC
 70
     3
  9
$SKETCHINC
 40
0.1
  9
$FILLETRAD
 40
50.0
  9
$AUNITS
 70
     0
  9
$AUPREC
 70
     0
  9
$MENU
  1
acad
  9
$ELEVATION
 40
0.0
  9
$PELEVATION
 40
0.0
  9
$THICKNESS
 40
0.0
  9
$LIMCHECK
 70
     0
  9
$CHAMFERA
 40
0.5
  9
$CHAMFERB
 40
0.5
  9
$CHAMFERC
 40
0.0
  9
$CHAMFERD
 40
0.0
  9
$SKPOLY
 70
     0
  9
$TDCREATE
 40
2451389.563479514
  9
$TDUCREATE
 40
2451389.188479514
  9
$TDUPDATE
 40
2460271.740134537
  9
$TDUUPDATE
 40
2460271.365134537
  9
$TDINDWG
 40
0.0147138773
  9
$TDUSRTIMER
 40
0.0147138657
  9
$USRTIMER
 70
     1
  9
$ANGBASE
 50
0.0
  9
$ANGDIR
 70
     0
  9
$PDMODE
 70
     0
  9
$PDSIZE
 40
0.0
  9
$PLINEWID
 40
0.0
  9
$SPLFRAME
 70
     0
  9
$SPLINETYPE
 70
     6
  9
$SPLINESEGS
 70
     8
  9
$HANDSEED
  5
8377
  9
$SURFTAB1
 70
     6
  9
$SURFTAB2
 70
     6
  9
$SURFTYPE
 70
     6
  9
$SURFU
 70
     6
  9
$SURFV
 70
     6
  9
$UCSBASE
  2

  9
$UCSNAME
  2

  9
$UCSORG
 10
0.0
 20
0.0
 30
0.0
  9
$UCSXDIR
 10
1.0
 20
0.0
 30
0.0
  9
$UCSYDIR
 10
0.0
 20
1.0
 30
0.0
  9
$UCSORTHOREF
  2

  9
$UCSORTHOVIEW
 70
     0
  9
$UCSORGTOP
 10
0.0
 20
0.0
 30
0.0
  9
$UCSORGBOTTOM
 10
0.0
 20
0.0
 30
0.0
  9
$UCSORGLEFT
 10
0.0
 20
0.0
 30
0.0
  9
$UCSORGRIGHT
 10
0.0
 20
0.0
 30
0.0
  9
$UCSORGFRONT
 10
0.0
 20
0.0
 30
0.0
  9
$UCSORGBACK
 10
0.0
 20
0.0
 30
0.0
  9
$PUCSBASE
  2

  9
$PUCSNAME
  2

  9
$PUCSORG
 10
0.0
 20
0.0
 30
0.0
  9
$PUCSXDIR
 10
1.0
 20
0.0
 30
0.0
  9
$PUCSYDIR
 10
0.0
 20
1.0
 30
0.0
  9
$PUCSORTHOREF
  2

  9
$PUCSORTHOVIEW
 70
     0
  9
$PUCSORGTOP
 10
0.0
 20
0.0
 30
0.0
  9
$PUCSORGBOTTOM
 10
0.0
 20
0.0
 30
0.0
  9
$PUCSORGLEFT
 10
0.0
 20
0.0
 30
0.0
  9
$PUCSORGRIGHT
 10
0.0
 20
0.0
 30
0.0
  9
$PUCSORGFRONT
 10
0.0
 20
0.0
 30
0.0
  9
$PUCSORGBACK
 10
0.0
 20
0.0
 30
0.0
  9
$USERI1
 70
     0
  9
$USERI2
 70
     0
  9
$USERI3
 70
     0
  9
$USERI4
 70
     0
  9
$USERI5
 70
     0
  9
$USERR1
 40
0.0
  9
$USERR2
 40
0.0
  9
$USERR3
 40
0.0
  9
$USERR4
 40
0.0
  9
$USERR5
 40
0.0
  9
$WORLDVIEW
 70
     1
  9
$SHADEDGE
 70
     3
  9
$SHADEDIF
 70
    70
  9
$TILEMODE
 70
     1
  9
$MAXACTVP
 70
    16
  9
$PINSBASE
 10
0.0
 20
0.0
 30
0.0
  9
$PLIMCHECK
 70
     0
  9
$PEXTMIN
 10
1.000000000000000E+20
 20
1.000000000000000E+20
 30
1.000000000000000E+20
  9
$PEXTMAX
 10
-1.000000000000000E+20
 20
-1.000000000000000E+20
 30
-1.000000000000000E+20
  9
$PLIMMIN
 10
0.0
 20
0.0
  9
$PLIMMAX
 10
12.0
 20
9.0
  9
$UNITMODE
 70
     0
  9
$VISRETAIN
 70
     0
  9
$PLINEGEN
 70
     0
  9
$PSLTSCALE
 70
     1
  9
$TREEDEPTH
 70
  3020
  9
$CMLSTYLE
  2
Standard
  9
$CMLJUST
 70
     0
  9
$CMLSCALE
 40
1.0
  9
$PROXYGRAPHICS
 70
     1
  9
$MEASUREMENT
 70
     0
  9
$CELWEIGHT
370
    -1
  9
$ENDCAPS
280
     0
  9
$JOINSTYLE
280
     0
  9
$LWDISPLAY
290
     0
  9
$INSUNITS
 70
     0
  9
$HYPERLINKBASE
  1

  9
$STYLESHEET
  1

  9
$XEDIT
290
     1
  9
$CEPSNTYPE
380
     0
  9
$PSTYLEMODE
290
     1
  9
$FINGERPRINTGUID
  2
{6B718283-7C7E-435A-B367-162D432BB514}
  9
$VERSIONGUID
  2
{070293E0-4326-4B36-9001-B0CF34C365A1}
  9
$EXTNAMES
290
     1
  9
$PSVPSCALE
 40
0.0
  9
$OLESTARTUP
290
     0
  0
ENDSEC
  0
SECTION
  2
CLASSES
  0
CLASS
  1
ACDBDICTIONARYWDFLT
  2
AcDbDictionaryWithDefault
  3
ObjectDBX Classes
 90
        0
280
     0
281
     0
  0
CLASS
  1
MATERIAL
  2
AcDbMaterial
  3
ObjectDBX Classes
 90
     1153
280
     0
281
     0
  0
CLASS
  1
VISUALSTYLE
  2
AcDbVisualStyle
  3
ObjectDBX Classes
 90
     4095
280
     0
281
     0
  0
CLASS
  1
SCALE
  2
AcDbScale
  3
ObjectDBX Classes
 90
     1153
280
     0
281
     0
  0
CLASS
  1
TABLESTYLE
  2
AcDbTableStyle
  3
ObjectDBX Classes
 90
     4095
280
     0
281
     0
  0
CLASS
  1
MLEADERSTYLE
  2
AcDbMLeaderStyle
  3
ACDB_MLEADERSTYLE_CLASS
 90
     4095
280
     0
281
     0
  0
CLASS
  1
ACDBSECTIONVIEWSTYLE
  2
AcDbSectionViewStyle
  3
ObjectDBX Classes
 90
     1025
280
     0
281
     0
  0
CLASS
  1
ACDBDETAILVIEWSTYLE
  2
AcDbDetailViewStyle
  3
ObjectDBX Classes
 90
     1025
280
     0
281
     0
  0
CLASS
  1
DICTIONARYVAR
  2
AcDbDictionaryVar
  3
ObjectDBX Classes
 90
        0
280
     0
281
     0
  0
CLASS
  1
CELLSTYLEMAP
  2
AcDbCellStyleMap
  3
ObjectDBX Classes
 90
     1152
280
     0
281
     0
  0
CLASS
  1
ACDBPLACEHOLDER
  2
AcDbPlaceHolder
  3
ObjectDBX Classes
 90
        0
280
     0
281
     0
  0
CLASS
  1
LAYOUT
  2
AcDbLayout
  3
ObjectDBX Classes
 90
        0
280
     0
281
     0
  0
ENDSEC
  0
SECTION
  2
TABLES
  0
TABLE
  2
VPORT
  5
81B9
330
0
100
AcDbSymbolTable
 70
     1
  0
VPORT
  5
8225
330
81B9
100
AcDbSymbolTableRecord
100
AcDbViewportTableRecord
  2
*ACTIVE
 70
     0
 10
0.0
 20
0.0
 11
1.0
 21
1.0
 12
3150.000014668333
 22
4425.000020605514
 13
0.0
 23
0.0
 14
10.0
 24
10.0
 15
10.0
 25
10.0
 16
0.0
 26
0.0
 36
1.0
 17
0.0
 27
0.0
 37
0.0
 40
8907.213844128961
 41
2.050213675213675
 42
50.0
 43
0.0
 44
0.0
 50
0.0
 51
0.0
 71
     0
 72
   100
 73
     1
 74
     0
 75
     0
 76
     0
 77
     0
 78
     0
281
     0
 65
     1
110
0.0
120
0.0
130
0.0
111
1.0
121
0.0
131
0.0
112
0.0
122
1.0
132
0.0
 79
     0
146
0.0
1001
ACAD_NAV_VCDISPLAY
1070
     3
  0
ENDTAB
  0
TABLE
  2
LTYPE
  5
81B6
330
0
100
AcDbSymbolTable
 70
     2
  0
LTYPE
  5
820B
330
81B6
100
AcDbSymbolTableRecord
100
AcDbLinetypeTableRecord
  2
ByBlock
 70
     0
  3

 72
    65
 73
     0
 40
0.0
  0
LTYPE
  5
820C
330
81B6
100
AcDbSymbolTableRecord
100
AcDbLinetypeTableRecord
  2
ByLayer
 70
     0
  3

 72
    65
 73
     0
 40
0.0
  0
LTYPE
  5
820D
330
81B6
100
AcDbSymbolTableRecord
100
AcDbLinetypeTableRecord
  2
CONTINUOUS
 70
     0
  3
Solid line
 72
    65
 73
     0
 40
0.0
  0
LTYPE
  5
8226
330
81B6
100
AcDbSymbolTableRecord
100
AcDbLinetypeTableRecord
  2
CENTER
 70
     0
  3
____ _ ____ _ ____ _ ____ _ ____ _ ____ _ ____ 
 72
    65
 73
     4
 40
2.0
 49
1.25
 74
     0
 49
-0.25
 74
     0
 49
0.25
 74
     0
 49
-0.25
 74
     0
  0
ENDTAB
  0
TABLE
  2
LAYER
  5
81B3
330
0
100
AcDbSymbolTable
 70
     6
  0
LAYER
  5
8205
102
{ACAD_XDICTIONARY
360
82E0
102
}
330
81B3
100
AcDbSymbolTableRecord
100
AcDbLayerTableRecord
  2
0
 70
     0
 62
     7
  6
CONTINUOUS
370
    -3
390
81C0
  0
LAYER
  5
8224
102
{ACAD_XDICTIONARY
360
82E2
102
}
330
81B3
100
AcDbSymbolTableRecord
100
AcDbLayerTableRecord
  2
3
 70
     0
 62
     2
  6
CONTINUOUS
370
    -3
390
81C0
  0
LAYER
  5
8227
102
{ACAD_XDICTIONARY
360
82E4
102
}
330
81B3
100
AcDbSymbolTableRecord
100
AcDbLayerTableRecord
  2
2
 70
     0
 62
     3
  6
CENTER
370
    -3
390
81C0
  0
LAYER
  5
8228
102
{ACAD_XDICTIONARY
360
82E6
102
}
330
81B3
100
AcDbSymbolTableRecord
100
AcDbLayerTableRecord
  2
1
 70
     0
 62
     4
  6
CONTINUOUS
370
    -3
390
81C0
  0
LAYER
  5
8229
102
{ACAD_XDICTIONARY
360
82E8
102
}
330
81B3
100
AcDbSymbolTableRecord
100
AcDbLayerTableRecord
  2
4
 70
     0
 62
     7
  6
CONTINUOUS
370
    -3
390
81C0
  0
LAYER
  5
822A
330
81B3
100
AcDbSymbolTableRecord
100
AcDbLayerTableRecord
  2
DEFPOINTS
 70
     0
 62
     7
  6
CONTINUOUS
290
     0
370
    -3
390
81C0
  0
ENDTAB
  0
TABLE
  2
STYLE
  5
81B4
330
0
100
AcDbSymbolTable
 70
     2
  0
STYLE
  5
8206
330
81B4
100
AcDbSymbolTableRecord
100
AcDbTextStyleTableRecord
  2
STANDARD
 70
     0
 40
0.0
 41
1.0
 50
0.0
 71
     0
 42
180.0
  3
simplex.shx
  4
extfont.shx
  0
STYLE
  5
820A
330
81B4
100
AcDbSymbolTableRecord
100
AcDbTextStyleTableRecord
  2
Annotative
 70
     0
 40
0.0
 41
1.0
 50
0.0
 71
     0
 42
0.2
  3
txt
  4

1001
AcadAnnotative
1000
AnnotativeData
1002
{
1070
     1
1070
     1
1002
}
  0
ENDTAB
  0
TABLE
  2
VIEW
  5
81B7
330
0
100
AcDbSymbolTable
 70
     0
  0
ENDTAB
  0
TABLE
  2
UCS
  5
81B8
330
0
100
AcDbSymbolTable
 70
     0
  0
ENDTAB
  0
TABLE
  2
APPID
  5
81BA
330
0
100
AcDbSymbolTable
 70
     6
  0
APPID
  5
8207
330
81BA
100
AcDbSymbolTableRecord
100
AcDbRegAppTableRecord
  2
ACAD
 70
     0
  0
APPID
  5
820E
330
81BA
100
AcDbSymbolTableRecord
100
AcDbRegAppTableRecord
  2
AcadAnnotative
 70
     0
  0
APPID
  5
82BB
330
81BA
100
AcDbSymbolTableRecord
100
AcDbRegAppTableRecord
  2
ACAD_DSTYLE_DIMJAG
 70
     0
  0
APPID
  5
82BC
330
81BA
100
AcDbSymbolTableRecord
100
AcDbRegAppTableRecord
  2
ACAD_DSTYLE_DIMTALN
 70
     0
  0
APPID
  5
82F4
330
81BA
100
AcDbSymbolTableRecord
100
AcDbRegAppTableRecord
  2
ACAD_NAV_VCDISPLAY
 70
     0
  0
APPID
  5
836E
330
81BA
100
AcDbSymbolTableRecord
100
AcDbRegAppTableRecord
  2
ACAD_MLEADERVER
 70
     0
  0
ENDTAB
  0
TABLE
  2
DIMSTYLE
  5
81BB
330
0
100
AcDbSymbolTable
 70
     4
100
AcDbDimStyleTable
 71
     1
340
822B
  0
DIMSTYLE
105
8208
102
{ACAD_REACTORS
330
7C89
330
7C8A
330
7C8D
330
7C8E
330
7CCD
330
7CCF
330
7CD0
330
7CD4
330
7CD5
330
7D01
330
7D0C
330
7D18
330
7D1B
330
8097
330
80A4
330
80B1
330
80BE
330
810B
330
8118
102
}
330
81BB
100
AcDbSymbolTableRecord
100
AcDbDimStyleTableRecord
  2
Standard
 70
     0
340
8206
  0
DIMSTYLE
105
8209
330
81BB
100
AcDbSymbolTableRecord
100
AcDbDimStyleTableRecord
  2
Annotative
 70
     0
340
8206
1001
AcadAnnotative
1000
AnnotativeData
1002
{
1070
     1
1070
     1
1002
}
  0
DIMSTYLE
105
822B
102
{ACAD_REACTORS
330
826F
330
827C
330
82BD
330
82CA
102
}
330
81BB
100
AcDbSymbolTableRecord
100
AcDbDimStyleTableRecord
  2
IGA
 70
     0
 40
2.0
 41
2.0
 42
0.5
 43
10.0
 44
1.0
 47
1.0
 48
1.0
 73
     0
 74
     0
 77
     1
 78
     8
140
3.0
141
0.0
143
0.03937
146
10.0
147
1.0
173
     1
271
     3
272
     3
279
     2
284
     8
285
     8
286
     8
340
8206
  0
DIMSTYLE
105
822C
330
81BB
100
AcDbSymbolTableRecord
100
AcDbDimStyleTableRecord
  2
MATSU
 70
     0
 41
2.0
 42
1.0
 43
10.0
 44
1.0
 73
     0
 74
     0
 77
     1
 78
     8
140
3.0
141
0.0
143
0.03937
147
0.5
172
     1
173
     1
176
   256
177
   256
178
   256
271
     3
272
     3
279
     2
284
     8
285
     8
286
     8
340
8206
  0
ENDTAB
  0
TABLE
  2
BLOCK_RECORD
  5
81B2
330
0
100
AcDbSymbolTable
 70
    36
  0
BLOCK_RECORD
  5
8220
330
81B2
100
AcDbSymbolTableRecord
100
AcDbBlockTableRecord
  2
*Model_Space
340
8223
  0
BLOCK_RECORD
  5
821C
330
81B2
100
AcDbSymbolTableRecord
100
AcDbBlockTableRecord
  2
*Paper_Space
340
821F
  0
BLOCK_RECORD
  5
8230
330
81B2
100
AcDbSymbolTableRecord
100
AcDbBlockTableRecord
  2
$MODEL_SPACE
340
0
  0
BLOCK_RECORD
  5
8232
330
81B2
100
AcDbSymbolTableRecord
100
AcDbBlockTableRecord
  2
$PAPER_SPACE
340
0
  0
BLOCK_RECORD
  5
8234
330
81B2
100
AcDbSymbolTableRecord
100
AcDbBlockTableRecord
  2
_OPEN
340
0
102
{BLKREFS
331
80AA
331
80AB
331
80B7
331
80B8
331
8111
331
8112
331
82C4
331
82C5
331
82DA
331
82DB
331
7E52
331
7E53
331
7E5D
331
7E5E
331
7E68
331
7E69
331
7E73
331
7E74
331
7EC0
331
7EC1
331
7ECB
331
7ECC
331
7ED6
331
7ED7
331
7EE1
331
7EE2
331
807B
331
807C
331
8070
331
8071
331
7F02
331
7F03
331
7F0D
331
7F0E
331
7F18
331
7F19
331
7F23
331
7F24
331
7F2E
331
7F2F
331
8197
331
8198
331
81A3
331
8090
331
8091
331
809D
331
809E
331
829E
331
829F
331
82A7
331
82A8
102
}
  0
BLOCK_RECORD
  5
8236
330
81B2
100
AcDbSymbolTableRecord
100
AcDbBlockTableRecord
  2
YA_N
340
0
102
{BLKREFS
331
7C37
331
7C4D
331
7C87
331
7CA8
331
7CDD
331
7CDF
331
7CE1
331
7CE3
102
}
  0
BLOCK_RECORD
  5
8238
330
81B2
100
AcDbSymbolTableRecord
100
AcDbBlockTableRecord
  2
*D4
340
0
  0
BLOCK_RECORD
  5
823A
330
81B2
100
AcDbSymbolTableRecord
100
AcDbBlockTableRecord
  2
*D5
340
0
  0
BLOCK_RECORD
  5
823C
330
81B2
100
AcDbSymbolTableRecord
100
AcDbBlockTableRecord
  2
*D6
340
0
  0
BLOCK_RECORD
  5
823E
330
81B2
100
AcDbSymbolTableRecord
100
AcDbBlockTableRecord
  2
*D7
340
0
  0
BLOCK_RECORD
  5
8240
330
81B2
100
AcDbSymbolTableRecord
100
AcDbBlockTableRecord
  2
*D8
340
0
  0
BLOCK_RECORD
  5
8242
330
81B2
100
AcDbSymbolTableRecord
100
AcDbBlockTableRecord
  2
*D9
340
0
  0
BLOCK_RECORD
  5
8244
330
81B2
100
AcDbSymbolTableRecord
100
AcDbBlockTableRecord
  2
*D10
340
0
  0
BLOCK_RECORD
  5
8246
330
81B2
100
AcDbSymbolTableRecord
100
AcDbBlockTableRecord
  2
*D11
340
0
  0
BLOCK_RECORD
  5
8248
330
81B2
100
AcDbSymbolTableRecord
100
AcDbBlockTableRecord
  2
*D12
340
0
  0
BLOCK_RECORD
  5
824A
330
81B2
100
AcDbSymbolTableRecord
100
AcDbBlockTableRecord
  2
*U13
340
0
102
{BLKREFS
331
807D
102
}
  0
BLOCK_RECORD
  5
824B
330
81B2
100
AcDbSymbolTableRecord
100
AcDbBlockTableRecord
  2
*D14
340
0
  0
BLOCK_RECORD
  5
824D
330
81B2
100
AcDbSymbolTableRecord
100
AcDbBlockTableRecord
  2
*D15
340
0
  0
BLOCK_RECORD
  5
824F
330
81B2
100
AcDbSymbolTableRecord
100
AcDbBlockTableRecord
  2
*D16
340
0
  0
BLOCK_RECORD
  5
8251
330
81B2
100
AcDbSymbolTableRecord
100
AcDbBlockTableRecord
  2
*D17
340
0
  0
BLOCK_RECORD
  5
8253
330
81B2
100
AcDbSymbolTableRecord
100
AcDbBlockTableRecord
  2
*D18
340
0
  0
BLOCK_RECORD
  5
8255
330
81B2
100
AcDbSymbolTableRecord
100
AcDbBlockTableRecord
  2
*D19
340
0
  0
BLOCK_RECORD
  5
8257
330
81B2
100
AcDbSymbolTableRecord
100
AcDbBlockTableRecord
  2
*D20
340
0
  0
BLOCK_RECORD
  5
8259
330
81B2
100
AcDbSymbolTableRecord
100
AcDbBlockTableRecord
  2
*D21
340
0
  0
BLOCK_RECORD
  5
825B
330
81B2
100
AcDbSymbolTableRecord
100
AcDbBlockTableRecord
  2
_DOT
340
0
102
{BLKREFS
331
81A2
102
}
  0
BLOCK_RECORD
  5
825D
330
81B2
100
AcDbSymbolTableRecord
100
AcDbBlockTableRecord
  2
*D23
340
0
  0
BLOCK_RECORD
  5
825F
330
81B2
100
AcDbSymbolTableRecord
100
AcDbBlockTableRecord
  2
*D24
340
0
  0
BLOCK_RECORD
  5
8261
330
81B2
100
AcDbSymbolTableRecord
100
AcDbBlockTableRecord
  2
*D25
340
0
  0
BLOCK_RECORD
  5
8263
330
81B2
100
AcDbSymbolTableRecord
100
AcDbBlockTableRecord
  2
*D26
340
0
  0
BLOCK_RECORD
  5
8265
330
81B2
100
AcDbSymbolTableRecord
100
AcDbBlockTableRecord
  2
_NONE
340
0
  0
BLOCK_RECORD
  5
8267
330
81B2
100
AcDbSymbolTableRecord
100
AcDbBlockTableRecord
  2
_CLOSED
340
0
  0
BLOCK_RECORD
  5
8269
330
81B2
100
AcDbSymbolTableRecord
100
AcDbBlockTableRecord
  2
*D29
340
0
  0
BLOCK_RECORD
  5
826B
330
81B2
100
AcDbSymbolTableRecord
100
AcDbBlockTableRecord
  2
*D30
340
0
  0
BLOCK_RECORD
  5
8270
330
81B2
100
AcDbSymbolTableRecord
100
AcDbBlockTableRecord
  2
*D31
340
0
  0
BLOCK_RECORD
  5
827D
330
81B2
100
AcDbSymbolTableRecord
100
AcDbBlockTableRecord
  2
*D32
340
0
  0
BLOCK_RECORD
  5
82AD
330
81B2
100
AcDbSymbolTableRecord
100
AcDbBlockTableRecord
  2
*D33
340
0
  0
BLOCK_RECORD
  5
82BE
330
81B2
100
AcDbSymbolTableRecord
100
AcDbBlockTableRecord
  2
*D34
340
0
  0
BLOCK_RECORD
  5
82CB
330
81B2
100
AcDbSymbolTableRecord
100
AcDbBlockTableRecord
  2
*D35
340
0
  0
ENDTAB
  0
ENDSEC
  0
SECTION
  2
BLOCKS
  0
BLOCK
  5
8221
330
8220
100
AcDbEntity
  8
0
100
AcDbBlockBegin
  2
*Model_Space
 70
     0
 10
0.0
 20
0.0
 30
0.0
  3
*Model_Space
  1

  0
ENDBLK
  5
8222
330
8220
100
AcDbEntity
  8
0
100
AcDbBlockEnd
  0
BLOCK
  5
821D
330
821C
100
AcDbEntity
 67
     1
  8
0
100
AcDbBlockBegin
  2
*Paper_Space
 70
     0
 10
0.0
 20
0.0
 30
0.0
  3
*Paper_Space
  1

  0
ENDBLK
  5
821E
330
821C
100
AcDbEntity
 67
     1
  8
0
100
AcDbBlockEnd
  0
BLOCK
  5
8231
330
8230
100
AcDbEntity
  8
0
100
AcDbBlockBegin
  2
$MODEL_SPACE
 70
     0
 10
0.0
 20
0.0
 30
0.0
  3
$MODEL_SPACE
  1

  0
ENDBLK
  5
1B
330
8230
100
AcDbEntity
  8
0
100
AcDbBlockEnd
  0
BLOCK
  5
8233
330
8232
100
AcDbEntity
  8
0
100
AcDbBlockBegin
  2
$PAPER_SPACE
 70
     0
 10
0.0
 20
0.0
 30
0.0
  3
$PAPER_SPACE
  1

  0
ENDBLK
  5
18
330
8232
100
AcDbEntity
  8
0
100
AcDbBlockEnd
  0
BLOCK
  5
8235
330
8234
100
AcDbEntity
  8
0
100
AcDbBlockBegin
  2
_OPEN
 70
     0
 10
0.0
 20
0.0
 30
0.0
  3
_OPEN
  1

  0
LINE
  5
79FD
330
8234
100
AcDbEntity
  8
0
  6
ByBlock
 62
     0
100
AcDbLine
 10
-1.0
 20
0.1666666666666666
 30
0.0
 11
0.0
 21
0.0
 31
0.0
  0
LINE
  5
79FE
330
8234
100
AcDbEntity
  8
0
  6
ByBlock
 62
     0
100
AcDbLine
 10
0.0
 20
0.0
 30
0.0
 11
-1.0
 21
-0.1666666666666666
 31
0.0
  0
LINE
  5
79FF
330
8234
100
AcDbEntity
  8
0
  6
ByBlock
 62
     0
100
AcDbLine
 10
0.0
 20
0.0
 30
0.0
 11
-1.0
 21
0.0
 31
0.0
  0
ENDBLK
  5
7A01
330
8234
100
AcDbEntity
  8
0
100
AcDbBlockEnd
  0
BLOCK
  5
8237
330
8236
100
AcDbEntity
  8
0
100
AcDbBlockBegin
  2
YA_N
 70
     0
 10
0.0
 20
0.0
 30
0.0
  3
YA_N
  1

  0
ENDBLK
  5
7A04
330
8236
100
AcDbEntity
  8
0
100
AcDbBlockEnd
  0
BLOCK
  5
8239
330
8238
100
AcDbEntity
  8
0
100
AcDbBlockBegin
  2
*D4
 70
     1
 10
0.0
 20
0.0
 30
0.0
  3
*D4
  1

  0
LINE
  5
7E4F
330
8238
100
AcDbEntity
  8
0
  6
ByBlock
100
AcDbLine
 10
386.0326745044558
 20
-445.9396971642539
 30
0.0
 11
184.8725775103121
 21
-445.9396971642539
 31
0.0
  0
LINE
  5
7E50
330
8238
100
AcDbEntity
  8
0
  6
ByBlock
100
AcDbLine
 10
386.0326745044549
 20
584.060302835745
 30
0.0
 11
184.8725775103121
 21
584.060302835745
 31
0.0
  0
LINE
  5
7E51
330
8238
100
AcDbEntity
  8
0
  6
ByBlock
100
AcDbLine
 10
214.8725775103121
 20
-385.939697164254
 30
0.0
 11
214.8725775103121
 21
524.0603028357448
 31
0.0
  0
INSERT
  5
7E52
330
8238
100
AcDbEntity
  8
0
  6
ByBlock
100
AcDbBlockReference
  2
_OPEN
 10
214.8725775103121
 20
-445.9396971642539
 30
0.0
 41
60.0
 42
60.0
 43
60.0
 50
270.0
  0
INSERT
  5
7E53
330
8238
100
AcDbEntity
  8
0
  6
ByBlock
100
AcDbBlockReference
  2
_OPEN
 10
214.8725775103121
 20
584.060302835745
 30
0.0
 41
60.0
 42
60.0
 43
60.0
 50
90.0
  0
TEXT
  5
7E54
330
8238
100
AcDbEntity
  8
3
100
AcDbText
 10
199.8725775103121
 20
-80.93969716425448
 30
0.0
 40
90.0
  1
1030
 50
90.0
100
AcDbText
  0
POINT
  5
7E55
330
8238
100
AcDbEntity
  8
DEFPOINTS
  6
ByBlock
 62
     0
100
AcDbPoint
 10
416.0326745044558
 20
-445.9396971642539
 30
0.0
  0
POINT
  5
7E56
330
8238
100
AcDbEntity
  8
DEFPOINTS
  6
ByBlock
 62
     0
100
AcDbPoint
 10
416.0326745044548
 20
584.060302835745
 30
0.0
  0
POINT
  5
7E57
330
8238
100
AcDbEntity
  8
DEFPOINTS
  6
ByBlock
 62
     0
100
AcDbPoint
 10
214.8725775103121
 20
584.060302835745
 30
0.0
  0
ENDBLK
  5
7E58
330
8238
100
AcDbEntity
  8
0
100
AcDbBlockEnd
  0
BLOCK
  5
823B
330
823A
100
AcDbEntity
  8
0
100
AcDbBlockBegin
  2
*D5
 70
     1
 10
0.0
 20
0.0
 30
0.0
  3
*D5
  1

  0
LINE
  5
7E5A
330
823A
100
AcDbEntity
  8
0
  6
ByBlock
100
AcDbLine
 10
386.0326745044558
 20
-445.9396971642539
 30
0.0
 11
-15.92946794884119
 21
-445.9396971642539
 31
0.0
  0
LINE
  5
7E5B
330
823A
100
AcDbEntity
  8
0
  6
ByBlock
100
AcDbLine
 10
326.4166920068273
 20
628.0603028357453
 30
0.0
 11
-15.92946794884119
 21
628.0603028357453
 31
0.0
  0
LINE
  5
7E5C
330
823A
100
AcDbEntity
  8
0
  6
ByBlock
100
AcDbLine
 10
14.0705320511588
 20
-385.939697164254
 30
0.0
 11
14.0705320511588
 21
568.0603028357453
 31
0.0
  0
INSERT
  5
7E5D
330
823A
100
AcDbEntity
  8
0
  6
ByBlock
100
AcDbBlockReference
  2
_OPEN
 10
14.0705320511588
 20
-445.9396971642539
 30
0.0
 41
60.0
 42
60.0
 43
60.0
 50
270.0
  0
INSERT
  5
7E5E
330
823A
100
AcDbEntity
  8
0
  6
ByBlock
100
AcDbBlockReference
  2
_OPEN
 10
14.0705320511588
 20
628.0603028357453
 30
0.0
 41
60.0
 42
60.0
 43
60.0
 50
90.0
  0
TEXT
  5
7E5F
330
823A
100
AcDbEntity
  8
3
100
AcDbText
 10
-0.9294679488411928
 20
-61.08255430711142
 30
0.0
 40
90.0
  1
1074
 50
90.0
100
AcDbText
  0
POINT
  5
7E60
330
823A
100
AcDbEntity
  8
DEFPOINTS
  6
ByBlock
 62
     0
100
AcDbPoint
 10
416.0326745044558
 20
-445.9396971642539
 30
0.0
  0
POINT
  5
7E61
330
823A
100
AcDbEntity
  8
DEFPOINTS
  6
ByBlock
 62
     0
100
AcDbPoint
 10
356.4166920068273
 20
628.0603028357453
 30
0.0
  0
POINT
  5
7E62
330
823A
100
AcDbEntity
  8
DEFPOINTS
  6
ByBlock
 62
     0
100
AcDbPoint
 10
14.0705320511588
 20
628.0603028357453
 30
0.0
  0
ENDBLK
  5
7E63
330
823A
100
AcDbEntity
  8
0
100
AcDbBlockEnd
  0
BLOCK
  5
823D
330
823C
100
AcDbEntity
  8
0
100
AcDbBlockBegin
  2
*D6
 70
     1
 10
0.0
 20
0.0
 30
0.0
  3
*D6
  1

  0
LINE
  5
7E65
330
823C
100
AcDbEntity
  8
0
  6
ByBlock
100
AcDbLine
 10
416.0326745044548
 20
633.9398566882286
 30
0.0
 11
416.0326745044548
 21
1583.964519529796
 31
0.0
  0
LINE
  5
7E66
330
823C
100
AcDbEntity
  8
0
  6
ByBlock
100
AcDbLine
 10
1096.032674504456
 20
1421.105738527262
 30
0.0
 11
1096.032674504456
 21
1583.964519529796
 31
0.0
  0
LINE
  5
7E67
330
823C
100
AcDbEntity
  8
0
  6
ByBlock
100
AcDbLine
 10
476.0326745044548
 20
1553.964519529796
 30
0.0
 11
1036.032674504456
 21
1553.964519529796
 31
0.0
  0
INSERT
  5
7E68
330
823C
100
AcDbEntity
  8
0
  6
ByBlock
100
AcDbBlockReference
  2
_OPEN
 10
416.0326745044548
 20
1553.964519529796
 30
0.0
 41
60.0
 42
60.0
 43
60.0
 50
180.0
  0
INSERT
  5
7E69
330
823C
100
AcDbEntity
  8
0
  6
ByBlock
100
AcDbBlockReference
  2
_OPEN
 10
1096.032674504456
 20
1553.964519529796
 30
0.0
 41
60.0
 42
60.0
 43
60.0
  0
TEXT
  5
7E6A
330
823C
100
AcDbEntity
  8
3
100
AcDbText
 10
640.3183887901701
 20
1568.964519529796
 30
0.0
 40
90.0
  1
680
100
AcDbText
  0
POINT
  5
7E6B
330
823C
100
AcDbEntity
  8
DEFPOINTS
  6
ByBlock
 62
     0
100
AcDbPoint
 10
416.0326745044548
 20
603.9398566882288
 30
0.0
  0
POINT
  5
7E6C
330
823C
100
AcDbEntity
  8
DEFPOINTS
  6
ByBlock
 62
     0
100
AcDbPoint
 10
1096.032674504456
 20
1391.105738527262
 30
0.0
  0
POINT
  5
7E6D
330
823C
100
AcDbEntity
  8
DEFPOINTS
  6
ByBlock
 62
     0
100
AcDbPoint
 10
1096.032674504456
 20
1553.964519529796
 30
0.0
  0
ENDBLK
  5
7E6E
330
823C
100
AcDbEntity
  8
0
100
AcDbBlockEnd
  0
BLOCK
  5
823F
330
823E
100
AcDbEntity
  8
0
100
AcDbBlockBegin
  2
*D7
 70
     1
 10
0.0
 20
0.0
 30
0.0
  3
*D7
  1

  0
LINE
  5
7E70
330
823E
100
AcDbEntity
  8
0
  6
ByBlock
100
AcDbLine
 10
1096.032674504456
 20
1421.105738527262
 30
0.0
 11
1096.032674504456
 21
1583.50681959488
 31
0.0
  0
LINE
  5
7E71
330
823E
100
AcDbEntity
  8
0
  6
ByBlock
100
AcDbLine
 10
1960.576790920484
 20
658.0603028357444
 30
0.0
 11
1960.576790920484
 21
1583.50681959488
 31
0.0
  0
LINE
  5
7E72
330
823E
100
AcDbEntity
  8
0
  6
ByBlock
100
AcDbLine
 10
1156.032674504456
 20
1553.50681959488
 30
0.0
 11
1900.576790920483
 21
1553.50681959488
 31
0.0
  0
INSERT
  5
7E73
330
823E
100
AcDbEntity
  8
0
  6
ByBlock
100
AcDbBlockReference
  2
_OPEN
 10
1096.032674504456
 20
1553.50681959488
 30
0.0
 41
60.0
 42
60.0
 43
60.0
 50
180.0
  0
INSERT
  5
7E74
330
823E
100
AcDbEntity
  8
0
  6
ByBlock
100
AcDbBlockReference
  2
_OPEN
 10
1960.576790920484
 20
1553.50681959488
 30
0.0
 41
60.0
 42
60.0
 43
60.0
  0
TEXT
  5
7E75
330
823E
100
AcDbEntity
  8
3
100
AcDbText
 10
1412.590446998184
 20
1568.50681959488
 30
0.0
 40
90.0
  1
868
100
AcDbText
  0
POINT
  5
7E76
330
823E
100
AcDbEntity
  8
DEFPOINTS
  6
ByBlock
 62
     0
100
AcDbPoint
 10
1096.032674504456
 20
1391.105738527262
 30
0.0
  0
POINT
  5
7E77
330
823E
100
AcDbEntity
  8
DEFPOINTS
  6
ByBlock
 62
     0
100
AcDbPoint
 10
1960.576790920484
 20
628.0603028357444
 30
0.0
  0
POINT
  5
7E78
330
823E
100
AcDbEntity
  8
DEFPOINTS
  6
ByBlock
 62
     0
100
AcDbPoint
 10
1960.576790920484
 20
1553.50681959488
 30
0.0
  0
ENDBLK
  5
7E79
330
823E
100
AcDbEntity
  8
0
100
AcDbBlockEnd
  0
BLOCK
  5
8241
330
8240
100
AcDbEntity
  8
0
100
AcDbBlockBegin
  2
*D8
 70
     1
 10
0.0
 20
0.0
 30
0.0
  3
*D8
  1

  0
LINE
  5
7EBD
330
8240
100
AcDbEntity
  8
0
  6
ByBlock
100
AcDbLine
 10
1721.032674504455
 20
4406.031599361241
 30
0.0
 11
1721.032674504455
 21
4627.335536588958
 31
0.0
  0
LINE
  5
7EBE
330
8240
100
AcDbEntity
  8
0
  6
ByBlock
100
AcDbLine
 10
471.0326745044548
 20
4406.031599361237
 30
0.0
 11
471.0326745044548
 21
4627.335536588958
 31
0.0
  0
LINE
  5
7EBF
330
8240
100
AcDbEntity
  8
0
  6
ByBlock
100
AcDbLine
 10
1661.032674504454
 20
4597.335536588958
 30
0.0
 11
531.0326745044549
 21
4597.335536588958
 31
0.0
  0
INSERT
  5
7EC0
330
8240
100
AcDbEntity
  8
0
  6
ByBlock
100
AcDbBlockReference
  2
_OPEN
 10
1721.032674504455
 20
4597.335536588958
 30
0.0
 41
60.0
 42
60.0
 43
60.0
  0
INSERT
  5
7EC1
330
8240
100
AcDbEntity
  8
0
  6
ByBlock
100
AcDbBlockReference
  2
_OPEN
 10
471.0326745044548
 20
4597.335536588958
 30
0.0
 41
60.0
 42
60.0
 43
60.0
 50
180.0
  0
TEXT
  5
7EC2
330
8240
100
AcDbEntity
  8
3
100
AcDbText
 10
946.0326745044548
 20
4612.335536588958
 30
0.0
 40
90.0
  1
1250
100
AcDbText
  0
POINT
  5
7EC3
330
8240
100
AcDbEntity
  8
DEFPOINTS
  6
ByBlock
 62
     0
100
AcDbPoint
 10
1721.032674504455
 20
4376.031599361239
 30
0.0
  0
POINT
  5
7EC4
330
8240
100
AcDbEntity
  8
DEFPOINTS
  6
ByBlock
 62
     0
100
AcDbPoint
 10
471.0326745044548
 20
4376.031599361239
 30
0.0
  0
POINT
  5
7EC5
330
8240
100
AcDbEntity
  8
DEFPOINTS
  6
ByBlock
 62
     0
100
AcDbPoint
 10
471.0326745044548
 20
4597.335536588958
 30
0.0
  0
ENDBLK
  5
7EC6
330
8240
100
AcDbEntity
  8
0
100
AcDbBlockEnd
  0
BLOCK
  5
8243
330
8242
100
AcDbEntity
  8
0
100
AcDbBlockBegin
  2
*D9
 70
     1
 10
0.0
 20
0.0
 30
0.0
  3
*D9
  1

  0
LINE
  5
7EC8
330
8242
100
AcDbEntity
  8
0
  6
ByBlock
100
AcDbLine
 10
2521.032674504455
 20
2841.031599361241
 30
0.0
 11
2521.032674504455
 21
2552.481475534663
 31
0.0
  0
LINE
  5
7EC9
330
8242
100
AcDbEntity
  8
0
  6
ByBlock
100
AcDbLine
 10
471.0326745044548
 20
2841.031599361238
 30
0.0
 11
471.0326745044548
 21
2552.481475534663
 31
0.0
  0
LINE
  5
7ECA
330
8242
100
AcDbEntity
  8
0
  6
ByBlock
100
AcDbLine
 10
2461.032674504455
 20
2582.481475534663
 30
0.0
 11
531.0326745044549
 21
2582.481475534663
 31
0.0
  0
INSERT
  5
7ECB
330
8242
100
AcDbEntity
  8
0
  6
ByBlock
100
AcDbBlockReference
  2
_OPEN
 10
2521.032674504455
 20
2582.481475534663
 30
0.0
 41
60.0
 42
60.0
 43
60.0
  0
INSERT
  5
7ECC
330
8242
100
AcDbEntity
  8
0
  6
ByBlock
100
AcDbBlockReference
  2
_OPEN
 10
471.0326745044548
 20
2582.481475534663
 30
0.0
 41
60.0
 42
60.0
 43
60.0
 50
180.0
  0
TEXT
  5
7ECD
330
8242
100
AcDbEntity
  8
3
100
AcDbText
 10
1337.461245933026
 20
2597.481475534663
 30
0.0
 40
90.0
  1
2050
100
AcDbText
  0
POINT
  5
7ECE
330
8242
100
AcDbEntity
  8
DEFPOINTS
  6
ByBlock
 62
     0
100
AcDbPoint
 10
2521.032674504455
 20
2871.03159936124
 30
0.0
  0
POINT
  5
7ECF
330
8242
100
AcDbEntity
  8
DEFPOINTS
  6
ByBlock
 62
     0
100
AcDbPoint
 10
471.0326745044548
 20
2871.031599361238
 30
0.0
  0
POINT
  5
7ED0
330
8242
100
AcDbEntity
  8
DEFPOINTS
  6
ByBlock
 62
     0
100
AcDbPoint
 10
471.0326745044548
 20
2582.481475534663
 30
0.0
  0
ENDBLK
  5
7ED1
330
8242
100
AcDbEntity
  8
0
100
AcDbBlockEnd
  0
BLOCK
  5
8245
330
8244
100
AcDbEntity
  8
0
100
AcDbBlockBegin
  2
*D10
 70
     1
 10
0.0
 20
0.0
 30
0.0
  3
*D10
  1

  0
LINE
  5
7ED3
330
8244
100
AcDbEntity
  8
0
  6
ByBlock
100
AcDbLine
 10
2551.032674504455
 20
3721.031599361241
 30
0.0
 11
2773.080742005066
 21
3721.031599361241
 31
0.0
  0
LINE
  5
7ED4
330
8244
100
AcDbEntity
  8
0
  6
ByBlock
100
AcDbLine
 10
2551.032674504455
 20
2871.03159936124
 30
0.0
 11
2773.080742005066
 21
2871.03159936124
 31
0.0
  0
LINE
  5
7ED5
330
8244
100
AcDbEntity
  8
0
  6
ByBlock
100
AcDbLine
 10
2743.080742005066
 20
3661.031599361241
 30
0.0
 11
2743.080742005066
 21
2931.03159936124
 31
0.0
  0
INSERT
  5
7ED6
330
8244
100
AcDbEntity
  8
0
  6
ByBlock
100
AcDbBlockReference
  2
_OPEN
 10
2743.080742005066
 20
3721.031599361241
 30
0.0
 41
60.0
 42
60.0
 43
60.0
 50
90.0
  0
INSERT
  5
7ED7
330
8244
100
AcDbEntity
  8
0
  6
ByBlock
100
AcDbBlockReference
  2
_OPEN
 10
2743.080742005066
 20
2871.03159936124
 30
0.0
 41
60.0
 42
60.0
 43
60.0
 50
270.0
  0
TEXT
  5
7ED8
330
8244
100
AcDbEntity
  8
3
100
AcDbText
 10
2728.080742005066
 20
3180.317313646954
 30
0.0
 40
90.0
  1
850
 50
90.0
100
AcDbText
  0
POINT
  5
7ED9
330
8244
100
AcDbEntity
  8
DEFPOINTS
  6
ByBlock
 62
     0
100
AcDbPoint
 10
2521.032674504455
 20
3721.031599361241
 30
0.0
  0
POINT
  5
7EDA
330
8244
100
AcDbEntity
  8
DEFPOINTS
  6
ByBlock
 62
     0
100
AcDbPoint
 10
2521.032674504455
 20
2871.03159936124
 30
0.0
  0
POINT
  5
7EDB
330
8244
100
AcDbEntity
  8
DEFPOINTS
  6
ByBlock
 62
     0
100
AcDbPoint
 10
2743.080742005066
 20
2871.03159936124
 30
0.0
  0
ENDBLK
  5
7EDC
330
8244
100
AcDbEntity
  8
0
100
AcDbBlockEnd
  0
BLOCK
  5
8247
330
8246
100
AcDbEntity
  8
0
100
AcDbBlockBegin
  2
*D11
 70
     1
 10
0.0
 20
0.0
 30
0.0
  3
*D11
  1

  0
LINE
  5
7EDE
330
8246
100
AcDbEntity
  8
0
  6
ByBlock
100
AcDbLine
 10
441.0326745044549
 20
4376.031599361239
 30
0.0
 11
42.38853649552037
 21
4376.031599361239
 31
0.0
  0
LINE
  5
7EDF
330
8246
100
AcDbEntity
  8
0
  6
ByBlock
100
AcDbLine
 10
441.0326745044549
 20
2871.031599361238
 30
0.0
 11
42.38853649552037
 21
2871.031599361238
 31
0.0
  0
LINE
  5
7EE0
330
8246
100
AcDbEntity
  8
0
  6
ByBlock
100
AcDbLine
 10
72.38853649552037
 20
4316.031599361237
 30
0.0
 11
72.38853649552037
 21
2931.031599361238
 31
0.0
  0
INSERT
  5
7EE1
330
8246
100
AcDbEntity
  8
0
  6
ByBlock
100
AcDbBlockReference
  2
_OPEN
 10
72.38853649552037
 20
4376.031599361239
 30
0.0
 41
60.0
 42
60.0
 43
60.0
 50
90.0
  0
INSERT
  5
7EE2
330
8246
100
AcDbEntity
  8
0
  6
ByBlock
100
AcDbBlockReference
  2
_OPEN
 10
72.38853649552037
 20
2871.031599361238
 30
0.0
 41
60.0
 42
60.0
 43
60.0
 50
270.0
  0
TEXT
  5
7EE3
330
8246
100
AcDbEntity
  8
3
100
AcDbText
 10
57.38853649552038
 20
3473.531599361239
 30
0.0
 40
90.0
  1
1505
 50
90.0
100
AcDbText
  0
POINT
  5
7EE4
330
8246
100
AcDbEntity
  8
DEFPOINTS
  6
ByBlock
 62
     0
100
AcDbPoint
 10
471.0326745044548
 20
4376.031599361239
 30
0.0
  0
POINT
  5
7EE5
330
8246
100
AcDbEntity
  8
DEFPOINTS
  6
ByBlock
 62
     0
100
AcDbPoint
 10
471.0326745044548
 20
2871.031599361238
 30
0.0
  0
POINT
  5
7EE6
330
8246
100
AcDbEntity
  8
DEFPOINTS
  6
ByBlock
 62
     0
100
AcDbPoint
 10
72.38853649552037
 20
2871.031599361238
 30
0.0
  0
ENDBLK
  5
7EE7
330
8246
100
AcDbEntity
  8
0
100
AcDbBlockEnd
  0
BLOCK
  5
8249
330
8248
100
AcDbEntity
  8
0
100
AcDbBlockBegin
  2
*D12
 70
     1
 10
0.0
 20
0.0
 30
0.0
  3
*D12
  1

  0
LINE
  5
8078
330
8248
100
AcDbEntity
  8
0
  6
ByBlock
100
AcDbLine
 10
3910.373342866204
 20
3759.580412632439
 30
0.0
 11
3910.373342866204
 21
4653.103047100914
 31
0.0
  0
LINE
  5
8079
330
8248
100
AcDbEntity
  8
0
  6
ByBlock
100
AcDbLine
 10
4877.873342866208
 20
4568.80733211438
 30
0.0
 11
4877.873342866208
 21
4653.103047100914
 31
0.0
  0
LINE
  5
807A
330
8248
100
AcDbEntity
  8
0
  6
ByBlock
100
AcDbLine
 10
3970.373342866203
 20
4623.103047100913
 30
0.0
 11
4817.873342866208
 21
4623.103047100913
 31
0.0
  0
INSERT
  5
807B
330
8248
100
AcDbEntity
  8
0
  6
ByBlock
100
AcDbBlockReference
  2
_OPEN
 10
3910.373342866204
 20
4623.103047100913
 30
0.0
 41
60.0
 42
60.0
 43
60.0
 50
180.0
  0
INSERT
  5
807C
330
8248
100
AcDbEntity
  8
0
  6
ByBlock
100
AcDbBlockReference
  2
_OPEN
 10
4877.873342866208
 20
4623.103047100913
 30
0.0
 41
60.0
 42
60.0
 43
60.0
  0
INSERT
  5
807D
330
8248
100
AcDbEntity
  8
3
100
AcDbBlockReference
  2
*U13
 10
0.0
 20
0.0
 30
0.0
  0
POINT
  5
807E
330
8248
100
AcDbEntity
  8
DEFPOINTS
  6
ByBlock
 62
     0
100
AcDbPoint
 10
3910.373342866204
 20
3729.580412632439
 30
0.0
  0
POINT
  5
807F
330
8248
100
AcDbEntity
  8
DEFPOINTS
  6
ByBlock
 62
     0
100
AcDbPoint
 10
4877.873342866208
 20
4538.807332114382
 30
0.0
  0
POINT
  5
8080
330
8248
100
AcDbEntity
  8
DEFPOINTS
  6
ByBlock
 62
     0
100
AcDbPoint
 10
4877.873342866208
 20
4623.103047100913
 30
0.0
  0
ENDBLK
  5
8081
330
8248
100
AcDbEntity
  8
0
100
AcDbBlockEnd
  0
BLOCK
  5
826D
330
824A
100
AcDbEntity
  8
0
100
AcDbBlockBegin
  2
*U13
 70
     1
 10
0.0
 20
0.0
 30
0.0
  3
*U13
  1

  0
TEXT
  5
81AC
330
824A
100
AcDbEntity
  8
3
100
AcDbText
 10
4265.551914294777
 20
4788.103047100913
 30
0.0
 40
90.0
  1
MAX
100
AcDbText
  0
TEXT
  5
81AD
330
824A
100
AcDbEntity
  8
3
100
AcDbText
 10
4244.123342866204
 20
4638.103047100915
 30
0.0
 40
90.0
  1
1020
100
AcDbText
  0
ENDBLK
  5
81AF
330
824A
100
AcDbEntity
  8
0
100
AcDbBlockEnd
  0
BLOCK
  5
824C
330
824B
100
AcDbEntity
  8
0
100
AcDbBlockBegin
  2
*D14
 70
     1
 10
0.0
 20
0.0
 30
0.0
  3
*D14
  1

  0
LINE
  5
806D
330
824B
100
AcDbEntity
  8
0
  6
ByBlock
100
AcDbLine
 10
4877.873342866208
 20
4568.80733211438
 30
0.0
 11
4877.873342866208
 21
4653.103047100914
 31
0.0
  0
LINE
  5
806E
330
824B
100
AcDbEntity
  8
0
  6
ByBlock
100
AcDbLine
 10
5645.873342866212
 20
3443.78041263244
 30
0.0
 11
5645.873342866212
 21
4653.103047100914
 31
0.0
  0
LINE
  5
806F
330
824B
100
AcDbEntity
  8
0
  6
ByBlock
100
AcDbLine
 10
4937.873342866208
 20
4623.103047100913
 30
0.0
 11
5585.873342866212
 21
4623.103047100913
 31
0.0
  0
INSERT
  5
8070
330
824B
100
AcDbEntity
  8
0
  6
ByBlock
100
AcDbBlockReference
  2
_OPEN
 10
4877.873342866208
 20
4623.103047100913
 30
0.0
 41
60.0
 42
60.0
 43
60.0
 50
180.0
  0
INSERT
  5
8071
330
824B
100
AcDbEntity
  8
0
  6
ByBlock
100
AcDbBlockReference
  2
_OPEN
 10
5645.873342866212
 20
4623.103047100913
 30
0.0
 41
60.0
 42
60.0
 43
60.0
  0
TEXT
  5
8072
330
824B
100
AcDbEntity
  8
3
100
AcDbText
 10
5088.301914294782
 20
4676.674475672341
 30
0.0
 40
90.0
  1
(780)
100
AcDbText
  0
POINT
  5
8073
330
824B
100
AcDbEntity
  8
DEFPOINTS
  6
ByBlock
 62
     0
100
AcDbPoint
 10
4877.873342866208
 20
4538.807332114382
 30
0.0
  0
POINT
  5
8074
330
824B
100
AcDbEntity
  8
DEFPOINTS
  6
ByBlock
 62
     0
100
AcDbPoint
 10
5645.873342866212
 20
3413.780412632439
 30
0.0
  0
POINT
  5
8075
330
824B
100
AcDbEntity
  8
DEFPOINTS
  6
ByBlock
 62
     0
100
AcDbPoint
 10
5645.873342866212
 20
4623.103047100913
 30
0.0
  0
ENDBLK
  5
8076
330
824B
100
AcDbEntity
  8
0
100
AcDbBlockEnd
  0
BLOCK
  5
824E
330
824D
100
AcDbEntity
  8
0
100
AcDbBlockBegin
  2
*D15
 70
     1
 10
0.0
 20
0.0
 30
0.0
  3
*D15
  1

  0
LINE
  5
7EFF
330
824D
100
AcDbEntity
  8
0
  6
ByBlock
100
AcDbLine
 10
4259.104621073492
 20
1352.374620489381
 30
0.0
 11
4259.104621073492
 21
1632.055054257674
 31
0.0
  0
LINE
  5
7F00
330
824D
100
AcDbEntity
  8
0
  6
ByBlock
100
AcDbLine
 10
5509.104621073492
 20
1349.096068293924
 30
0.0
 11
5509.104621073492
 21
1632.055054257674
 31
0.0
  0
LINE
  5
7F01
330
824D
100
AcDbEntity
  8
0
  6
ByBlock
100
AcDbLine
 10
4319.104621073492
 20
1602.055054257674
 30
0.0
 11
5449.104621073495
 21
1602.055054257674
 31
0.0
  0
INSERT
  5
7F02
330
824D
100
AcDbEntity
  8
0
  6
ByBlock
100
AcDbBlockReference
  2
_OPEN
 10
4259.104621073492
 20
1602.055054257674
 30
0.0
 41
60.0
 42
60.0
 43
60.0
 50
180.0
  0
INSERT
  5
7F03
330
824D
100
AcDbEntity
  8
0
  6
ByBlock
100
AcDbBlockReference
  2
_OPEN
 10
5509.104621073492
 20
1602.055054257674
 30
0.0
 41
60.0
 42
60.0
 43
60.0
  0
TEXT
  5
7F04
330
824D
100
AcDbEntity
  8
3
100
AcDbText
 10
4734.104621073493
 20
1617.055054257674
 30
0.0
 40
90.0
  1
1250
100
AcDbText
  0
POINT
  5
7F05
330
824D
100
AcDbEntity
  8
DEFPOINTS
  6
ByBlock
 62
     0
100
AcDbPoint
 10
4259.104621073492
 20
1322.374620489382
 30
0.0
  0
POINT
  5
7F06
330
824D
100
AcDbEntity
  8
DEFPOINTS
  6
ByBlock
 62
     0
100
AcDbPoint
 10
5509.104621073492
 20
1319.096068293924
 30
0.0
  0
POINT
  5
7F07
330
824D
100
AcDbEntity
  8
DEFPOINTS
  6
ByBlock
 62
     0
100
AcDbPoint
 10
5509.104621073492
 20
1602.055054257674
 30
0.0
  0
ENDBLK
  5
7F08
330
824D
100
AcDbEntity
  8
0
100
AcDbBlockEnd
  0
BLOCK
  5
8250
330
824F
100
AcDbEntity
  8
0
100
AcDbBlockBegin
  2
*D16
 70
     1
 10
0.0
 20
0.0
 30
0.0
  3
*D16
  1

  0
LINE
  5
7F0A
330
824F
100
AcDbEntity
  8
0
  6
ByBlock
100
AcDbLine
 10
5544.604621073492
 20
98.06030283574637
 30
0.0
 11
5883.472841444802
 21
98.06030283574637
 31
0.0
  0
LINE
  5
7F0B
330
824F
100
AcDbEntity
  8
0
  6
ByBlock
100
AcDbLine
 10
5544.604621073492
 20
1158.060302835746
 30
0.0
 11
5883.472841444802
 21
1158.060302835746
 31
0.0
  0
LINE
  5
7F0C
330
824F
100
AcDbEntity
  8
0
  6
ByBlock
100
AcDbLine
 10
5853.472841444804
 20
158.0603028357463
 30
0.0
 11
5853.472841444804
 21
1098.060302835746
 31
0.0
  0
INSERT
  5
7F0D
330
824F
100
AcDbEntity
  8
0
  6
ByBlock
100
AcDbBlockReference
  2
_OPEN
 10
5853.472841444804
 20
98.06030283574637
 30
0.0
 41
60.0
 42
60.0
 43
60.0
 50
270.0
  0
INSERT
  5
7F0E
330
824F
100
AcDbEntity
  8
0
  6
ByBlock
100
AcDbBlockReference
  2
_OPEN
 10
5853.472841444804
 20
1158.060302835746
 30
0.0
 41
60.0
 42
60.0
 43
60.0
 50
90.0
  0
TEXT
  5
7F0F
330
824F
100
AcDbEntity
  8
3
100
AcDbText
 10
5838.472841444802
 20
433.0603028357463
 30
0.0
 40
90.0
  1
\U+03C61060
 50
90.0
100
AcDbText
  0
POINT
  5
7F10
330
824F
100
AcDbEntity
  8
DEFPOINTS
  6
ByBlock
 62
     0
100
AcDbPoint
 10
5514.604621073492
 20
98.06030283574637
 30
0.0
  0
POINT
  5
7F11
330
824F
100
AcDbEntity
  8
DEFPOINTS
  6
ByBlock
 62
     0
100
AcDbPoint
 10
5514.604621073492
 20
1158.060302835746
 30
0.0
  0
POINT
  5
7F12
330
824F
100
AcDbEntity
  8
DEFPOINTS
  6
ByBlock
 62
     0
100
AcDbPoint
 10
5853.472841444804
 20
1158.060302835746
 30
0.0
  0
ENDBLK
  5
7F13
330
824F
100
AcDbEntity
  8
0
100
AcDbBlockEnd
  0
BLOCK
  5
8252
330
8251
100
AcDbEntity
  8
0
100
AcDbBlockBegin
  2
*D17
 70
     1
 10
0.0
 20
0.0
 30
0.0
  3
*D17
  1

  0
LINE
  5
7F15
330
8251
100
AcDbEntity
  8
0
  6
ByBlock
100
AcDbLine
 10
416.0326745044548
 20
633.9398566882286
 30
0.0
 11
416.0326745044548
 21
1763.351022905701
 31
0.0
  0
LINE
  5
7F16
330
8251
100
AcDbEntity
  8
0
  6
ByBlock
100
AcDbLine
 10
2521.032674504455
 20
-451.9396971642548
 30
0.0
 11
2521.032674504455
 21
1763.351022905701
 31
0.0
  0
LINE
  5
7F17
330
8251
100
AcDbEntity
  8
0
  6
ByBlock
100
AcDbLine
 10
476.0326745044548
 20
1733.351022905701
 30
0.0
 11
2461.032674504455
 21
1733.351022905701
 31
0.0
  0
INSERT
  5
7F18
330
8251
100
AcDbEntity
  8
0
  6
ByBlock
100
AcDbBlockReference
  2
_OPEN
 10
416.0326745044548
 20
1733.351022905701
 30
0.0
 41
60.0
 42
60.0
 43
60.0
 50
180.0
  0
INSERT
  5
7F19
330
8251
100
AcDbEntity
  8
0
  6
ByBlock
100
AcDbBlockReference
  2
_OPEN
 10
2521.032674504455
 20
1733.351022905701
 30
0.0
 41
60.0
 42
60.0
 43
60.0
  0
TEXT
  5
7F1A
330
8251
100
AcDbEntity
  8
3
100
AcDbText
 10
1318.532674504454
 20
1748.351022905701
 30
0.0
 40
90.0
  1
2105
100
AcDbText
  0
POINT
  5
7F1B
330
8251
100
AcDbEntity
  8
DEFPOINTS
  6
ByBlock
 62
     0
100
AcDbPoint
 10
416.0326745044548
 20
603.9398566882288
 30
0.0
  0
POINT
  5
7F1C
330
8251
100
AcDbEntity
  8
DEFPOINTS
  6
ByBlock
 62
     0
100
AcDbPoint
 10
2521.032674504455
 20
-481.9396971642547
 30
0.0
  0
POINT
  5
7F1D
330
8251
100
AcDbEntity
  8
DEFPOINTS
  6
ByBlock
 62
     0
100
AcDbPoint
 10
2521.032674504455
 20
1733.351022905701
 30
0.0
  0
ENDBLK
  5
7F1E
330
8251
100
AcDbEntity
  8
0
100
AcDbBlockEnd
  0
BLOCK
  5
8254
330
8253
100
AcDbEntity
  8
0
100
AcDbBlockBegin
  2
*D18
 70
     1
 10
0.0
 20
0.0
 30
0.0
  3
*D18
  1

  0
LINE
  5
7F20
330
8253
100
AcDbEntity
  8
0
  6
ByBlock
100
AcDbLine
 10
1721.032674504455
 20
4406.031599361241
 30
0.0
 11
1721.032674504455
 21
4627.335536588958
 31
0.0
  0
LINE
  5
7F21
330
8253
100
AcDbEntity
  8
0
  6
ByBlock
100
AcDbLine
 10
2521.032674504455
 20
3751.03159936124
 30
0.0
 11
2521.032674504455
 21
4627.335536588958
 31
0.0
  0
LINE
  5
7F22
330
8253
100
AcDbEntity
  8
0
  6
ByBlock
100
AcDbLine
 10
1781.032674504454
 20
4597.335536588958
 30
0.0
 11
2461.032674504455
 21
4597.335536588958
 31
0.0
  0
INSERT
  5
7F23
330
8253
100
AcDbEntity
  8
0
  6
ByBlock
100
AcDbBlockReference
  2
_OPEN
 10
1721.032674504455
 20
4597.335536588958
 30
0.0
 41
60.0
 42
60.0
 43
60.0
 50
180.0
  0
INSERT
  5
7F24
330
8253
100
AcDbEntity
  8
0
  6
ByBlock
100
AcDbBlockReference
  2
_OPEN
 10
2521.032674504455
 20
4597.335536588958
 30
0.0
 41
60.0
 42
60.0
 43
60.0
  0
TEXT
  5
7F25
330
8253
100
AcDbEntity
  8
3
100
AcDbText
 10
2005.318388790169
 20
4612.335536588958
 30
0.0
 40
90.0
  1
800
100
AcDbText
  0
POINT
  5
7F26
330
8253
100
AcDbEntity
  8
DEFPOINTS
  6
ByBlock
 62
     0
100
AcDbPoint
 10
1721.032674504455
 20
4376.031599361239
 30
0.0
  0
POINT
  5
7F27
330
8253
100
AcDbEntity
  8
DEFPOINTS
  6
ByBlock
 62
     0
100
AcDbPoint
 10
2521.032674504455
 20
3721.031599361241
 30
0.0
  0
POINT
  5
7F28
330
8253
100
AcDbEntity
  8
DEFPOINTS
  6
ByBlock
 62
     0
100
AcDbPoint
 10
2521.032674504455
 20
4597.335536588958
 30
0.0
  0
ENDBLK
  5
7F29
330
8253
100
AcDbEntity
  8
0
100
AcDbBlockEnd
  0
BLOCK
  5
8256
330
8255
100
AcDbEntity
  8
0
100
AcDbBlockBegin
  2
*D19
 70
     1
 10
0.0
 20
0.0
 30
0.0
  3
*D19
  1

  0
LINE
  5
7F2B
330
8255
100
AcDbEntity
  8
0
  6
ByBlock
100
AcDbLine
 10
1140.032674504455
 20
1348.060302835746
 30
0.0
 11
-255.1387932543839
 21
1348.060302835746
 31
0.0
  0
LINE
  5
7F2C
330
8255
100
AcDbEntity
  8
0
  6
ByBlock
100
AcDbLine
 10
326.4166920068273
 20
628.0603028357453
 30
0.0
 11
-255.1387932543839
 21
628.0603028357453
 31
0.0
  0
LINE
  5
7F2D
330
8255
100
AcDbEntity
  8
0
  6
ByBlock
100
AcDbLine
 10
-225.1387932543839
 20
1288.060302835746
 30
0.0
 11
-225.1387932543839
 21
688.0603028357453
 31
0.0
  0
INSERT
  5
7F2E
330
8255
100
AcDbEntity
  8
0
  6
ByBlock
100
AcDbBlockReference
  2
_OPEN
 10
-225.1387932543839
 20
1348.060302835746
 30
0.0
 41
60.0
 42
60.0
 43
60.0
 50
90.0
  0
INSERT
  5
7F2F
330
8255
100
AcDbEntity
  8
0
  6
ByBlock
100
AcDbBlockReference
  2
_OPEN
 10
-225.1387932543839
 20
628.0603028357453
 30
0.0
 41
60.0
 42
60.0
 43
60.0
 50
270.0
  0
TEXT
  5
7F30
330
8255
100
AcDbEntity
  8
3
100
AcDbText
 10
-240.1387932543839
 20
872.3460171214604
 30
0.0
 40
90.0
  1
720
 50
90.0
100
AcDbText
  0
POINT
  5
7F31
330
8255
100
AcDbEntity
  8
DEFPOINTS
  6
ByBlock
 62
     0
100
AcDbPoint
 10
1170.032674504454
 20
1348.060302835746
 30
0.0
  0
POINT
  5
7F32
330
8255
100
AcDbEntity
  8
DEFPOINTS
  6
ByBlock
 62
     0
100
AcDbPoint
 10
356.4166920068273
 20
628.0603028357453
 30
0.0
  0
POINT
  5
7F33
330
8255
100
AcDbEntity
  8
DEFPOINTS
  6
ByBlock
 62
     0
100
AcDbPoint
 10
-225.1387932543839
 20
628.0603028357453
 30
0.0
  0
ENDBLK
  5
7F34
330
8255
100
AcDbEntity
  8
0
100
AcDbBlockEnd
  0
BLOCK
  5
8258
330
8257
100
AcDbEntity
  8
0
100
AcDbBlockBegin
  2
*D20
 70
     1
 10
0.0
 20
0.0
 30
0.0
  3
*D20
  1

  0
LINE
  5
8194
330
8257
100
AcDbEntity
  8
3
 62
     0
100
AcDbLine
 10
1491.601162979292
 20
3449.580412632438
 30
0.0
 11
895.0456777180811
 21
3449.580412632438
 31
0.0
  0
LINE
  5
8195
330
8257
100
AcDbEntity
  8
3
 62
     0
100
AcDbLine
 10
1606.217145476919
 20
2239.58041263244
 30
0.0
 11
895.0456777180807
 21
2239.58041263244
 31
0.0
  0
LINE
  5
8196
330
8257
100
AcDbEntity
  8
3
 62
     0
100
AcDbLine
 10
925.045677718081
 20
3389.580412632438
 30
0.0
 11
925.0456777180804
 21
2299.58041263244
 31
0.0
  0
INSERT
  5
8197
330
8257
100
AcDbEntity
  8
3
 62
     0
100
AcDbBlockReference
  2
_OPEN
 10
925.045677718081
 20
3449.580412632438
 30
0.0
 41
60.0
 42
60.0
 43
60.0
 50
90.0
  0
INSERT
  5
8198
330
8257
100
AcDbEntity
  8
3
 62
     0
100
AcDbBlockReference
  2
_OPEN
 10
925.0456777180804
 20
2239.58041263244
 30
0.0
 41
60.0
 42
60.0
 43
60.0
 50
270.0
  0
TEXT
  5
81B0
330
8257
100
AcDbEntity
  8
3
 62
     0
100
AcDbText
 10
670.046
 20
2685.28
 30
0.0
 40
90.0
  1
1210
100
AcDbText
  0
POINT
  5
819A
330
8257
100
AcDbEntity
  8
DEFPOINTS
 62
     0
100
AcDbPoint
 10
1506.601162979292
 20
3449.580412632438
 30
0.0
  0
POINT
  5
819B
330
8257
100
AcDbEntity
  8
DEFPOINTS
 62
     0
100
AcDbPoint
 10
1621.217145476919
 20
2239.58041263244
 30
0.0
  0
POINT
  5
819C
330
8257
100
AcDbEntity
  8
DEFPOINTS
 62
     0
100
AcDbPoint
 10
925.0456777180804
 20
2239.58041263244
 30
0.0
  0
ENDBLK
  5
7F99
330
8257
100
AcDbEntity
  8
0
100
AcDbBlockEnd
  0
BLOCK
  5
825A
330
8259
100
AcDbEntity
  8
0
100
AcDbBlockBegin
  2
*D21
 70
     1
 10
0.0
 20
0.0
 30
0.0
  3
*D21
  1

  0
LINE
  5
819D
330
8259
100
AcDbEntity
  8
3
 62
     0
100
AcDbLine
 10
1606.217145476919
 20
2219.58041263244
 30
0.0
 11
895.0456777180807
 21
2219.58041263244
 31
0.0
  0
LINE
  5
819E
330
8259
100
AcDbEntity
  8
3
 62
     0
100
AcDbLine
 10
1606.217145476919
 20
2119.58041263244
 30
0.0
 11
895.0456777180807
 21
2119.58041263244
 31
0.0
  0
LINE
  5
819F
330
8259
100
AcDbEntity
  8
3
 62
     0
100
AcDbLine
 10
925.0456777180804
 20
2279.58041263244
 30
0.0
 11
925.0456777180806
 21
2339.580412632439
 31
0.0
  0
LINE
  5
81A0
330
8259
100
AcDbEntity
  8
3
 62
     0
100
AcDbLine
 10
925.0456777180804
 20
2059.58041263244
 30
0.0
 11
925.0456777180804
 21
1725.294698346726
 31
0.0
  0
LINE
  5
81A1
330
8259
100
AcDbEntity
  8
3
 62
     0
100
AcDbLine
 10
925.0456777180804
 20
2219.58041263244
 30
0.0
 11
925.0456777180804
 21
2119.58041263244
 31
0.0
  0
INSERT
  5
81A2
330
8259
100
AcDbEntity
  8
3
 62
     0
100
AcDbBlockReference
  2
_DOT
 10
925.0456777180804
 20
2219.58041263244
 30
0.0
 41
60.0
 42
60.0
 43
60.0
 50
270.0
  0
INSERT
  5
81A3
330
8259
100
AcDbEntity
  8
3
 62
     0
100
AcDbBlockReference
  2
_OPEN
 10
925.0456777180804
 20
2119.58041263244
 30
0.0
 41
60.0
 42
60.0
 43
60.0
 50
90.0
  0
TEXT
  5
81B1
330
8259
100
AcDbEntity
  8
3
 62
     0
100
AcDbText
 10
670.046
 20
1703.14
 30
0.0
 40
90.0
  1
100
100
AcDbText
  0
POINT
  5
81A5
330
8259
100
AcDbEntity
  8
DEFPOINTS
 62
     0
100
AcDbPoint
 10
1621.217145476919
 20
2219.58041263244
 30
0.0
  0
POINT
  5
81A6
330
8259
100
AcDbEntity
  8
DEFPOINTS
 62
     0
100
AcDbPoint
 10
1621.217145476919
 20
2119.58041263244
 30
0.0
  0
POINT
  5
81A7
330
8259
100
AcDbEntity
  8
DEFPOINTS
 62
     0
100
AcDbPoint
 10
925.0456777180804
 20
2119.58041263244
 30
0.0
  0
ENDBLK
  5
8011
330
8259
100
AcDbEntity
  8
0
100
AcDbBlockEnd
  0
BLOCK
  5
825C
330
825B
100
AcDbEntity
  8
0
100
AcDbBlockBegin
  2
_DOT
 70
     0
 10
0.0
 20
0.0
 30
0.0
  3
_DOT
  1

  0
LWPOLYLINE
  5
8014
330
825B
100
AcDbEntity
  8
0
  6
ByBlock
 62
     0
100
AcDbPolyline
 90
        2
 70
     1
 43
0.25
 10
-0.125
 20
0.0
 42
1.0
 10
0.125
 20
0.0
 42
1.0
  0
LINE
  5
8018
330
825B
100
AcDbEntity
  8
0
  6
ByBlock
 62
     0
100
AcDbLine
 10
-0.25
 20
0.0
 30
0.0
 11
-1.0
 21
0.0
 31
0.0
  0
ENDBLK
  5
7FF7
330
825B
100
AcDbEntity
  8
0
100
AcDbBlockEnd
  0
BLOCK
  5
825E
330
825D
100
AcDbEntity
  8
0
100
AcDbBlockBegin
  2
*D23
 70
     1
 10
0.0
 20
0.0
 30
0.0
  3
*D23
  1

  0
LINE
  5
808D
330
825D
100
AcDbEntity
  8
0
  6
ByBlock
 62
     0
100
AcDbLine
 10
1621.217145476919
 20
2082.58041263244
 30
0.0
 11
1621.217145476919
 21
1881.819914238813
 31
0.0
  0
LINE
  5
808E
330
825D
100
AcDbEntity
  8
0
  6
ByBlock
 62
     0
100
AcDbLine
 10
2246.21714547692
 20
2082.58041263244
 30
0.0
 11
2246.21714547692
 21
1881.819914238813
 31
0.0
  0
LINE
  5
808F
330
825D
100
AcDbEntity
  8
0
  6
ByBlock
 62
     0
100
AcDbLine
 10
1681.217145476919
 20
1911.819914238813
 30
0.0
 11
2186.217145476921
 21
1911.819914238813
 31
0.0
  0
INSERT
  5
8090
330
825D
100
AcDbEntity
  8
0
  6
ByBlock
 62
     0
100
AcDbBlockReference
  2
_OPEN
 10
1621.217145476919
 20
1911.819914238813
 30
0.0
 41
60.0
 42
60.0
 43
60.0
 50
180.0
  0
INSERT
  5
8091
330
825D
100
AcDbEntity
  8
0
  6
ByBlock
 62
     0
100
AcDbBlockReference
  2
_OPEN
 10
2246.21714547692
 20
1911.819914238813
 30
0.0
 41
60.0
 42
60.0
 43
60.0
  0
TEXT
  5
8092
330
825D
100
AcDbEntity
  8
3
 62
     0
100
AcDbText
 10
1818.002859762634
 20
1941.819914238813
 30
0.0
 40
90.0
  1
625
100
AcDbText
  0
POINT
  5
8093
330
825D
100
AcDbEntity
  8
DEFPOINTS
  6
ByBlock
 62
     0
100
AcDbPoint
 10
1621.217145476919
 20
2112.58041263244
 30
0.0
  0
POINT
  5
8094
330
825D
100
AcDbEntity
  8
DEFPOINTS
  6
ByBlock
 62
     0
100
AcDbPoint
 10
2246.21714547692
 20
2112.58041263244
 30
0.0
  0
POINT
  5
8095
330
825D
100
AcDbEntity
  8
DEFPOINTS
  6
ByBlock
 62
     0
100
AcDbPoint
 10
2246.21714547692
 20
1911.819914238813
 30
0.0
  0
ENDBLK
  5
8096
330
825D
100
AcDbEntity
  8
0
100
AcDbBlockEnd
  0
BLOCK
  5
8260
330
825F
100
AcDbEntity
  8
0
100
AcDbBlockBegin
  2
*D24
 70
     1
 10
0.0
 20
0.0
 30
0.0
  3
*D24
  1

  0
LINE
  5
809A
330
825F
100
AcDbEntity
  8
0
  6
ByBlock
 62
     0
100
AcDbLine
 10
2246.21714547692
 20
2082.58041263244
 30
0.0
 11
2246.21714547692
 21
1881.819914238813
 31
0.0
  0
LINE
  5
809B
330
825F
100
AcDbEntity
  8
0
  6
ByBlock
 62
     0
100
AcDbLine
 10
3671.217145476919
 20
2082.58041263244
 30
0.0
 11
3671.217145476919
 21
1881.819914238813
 31
0.0
  0
LINE
  5
809C
330
825F
100
AcDbEntity
  8
0
  6
ByBlock
 62
     0
100
AcDbLine
 10
2306.21714547692
 20
1911.819914238813
 30
0.0
 11
3611.217145476919
 21
1911.819914238813
 31
0.0
  0
INSERT
  5
809D
330
825F
100
AcDbEntity
  8
0
  6
ByBlock
 62
     0
100
AcDbBlockReference
  2
_OPEN
 10
2246.21714547692
 20
1911.819914238813
 30
0.0
 41
60.0
 42
60.0
 43
60.0
 50
180.0
  0
INSERT
  5
809E
330
825F
100
AcDbEntity
  8
0
  6
ByBlock
 62
     0
100
AcDbBlockReference
  2
_OPEN
 10
3671.217145476919
 20
1911.819914238813
 30
0.0
 41
60.0
 42
60.0
 43
60.0
  0
TEXT
  5
809F
330
825F
100
AcDbEntity
  8
3
 62
     0
100
AcDbText
 10
2808.71714547692
 20
1941.819914238813
 30
0.0
 40
90.0
  1
1425
100
AcDbText
  0
POINT
  5
80A0
330
825F
100
AcDbEntity
  8
DEFPOINTS
  6
ByBlock
 62
     0
100
AcDbPoint
 10
2246.21714547692
 20
2112.58041263244
 30
0.0
  0
POINT
  5
80A1
330
825F
100
AcDbEntity
  8
DEFPOINTS
  6
ByBlock
 62
     0
100
AcDbPoint
 10
3671.217145476919
 20
2112.58041263244
 30
0.0
  0
POINT
  5
80A2
330
825F
100
AcDbEntity
  8
DEFPOINTS
  6
ByBlock
 62
     0
100
AcDbPoint
 10
3671.217145476919
 20
1911.819914238813
 30
0.0
  0
ENDBLK
  5
80A3
330
825F
100
AcDbEntity
  8
0
100
AcDbBlockEnd
  0
BLOCK
  5
8262
330
8261
100
AcDbEntity
  8
0
100
AcDbBlockBegin
  2
*D25
 70
     1
 10
0.0
 20
0.0
 30
0.0
  3
*D25
  1

  0
LINE
  5
80A7
330
8261
100
AcDbEntity
  8
0
  6
ByBlock
 62
     0
100
AcDbLine
 10
4050.873342866209
 20
2082.580412632439
 30
0.0
 11
4050.873342866209
 21
1881.819914238813
 31
0.0
  0
LINE
  5
80A8
330
8261
100
AcDbEntity
  8
0
  6
ByBlock
 62
     0
100
AcDbLine
 10
4877.873342866208
 20
2082.580412632439
 30
0.0
 11
4877.873342866208
 21
1881.819914238813
 31
0.0
  0
LINE
  5
80A9
330
8261
100
AcDbEntity
  8
0
  6
ByBlock
 62
     0
100
AcDbLine
 10
4110.873342866208
 20
1911.819914238813
 30
0.0
 11
4817.873342866208
 21
1911.819914238813
 31
0.0
  0
INSERT
  5
80AA
330
8261
100
AcDbEntity
  8
0
  6
ByBlock
 62
     0
100
AcDbBlockReference
  2
_OPEN
 10
4050.873342866209
 20
1911.819914238813
 30
0.0
 41
60.0
 42
60.0
 43
60.0
 50
180.0
  0
INSERT
  5
80AB
330
8261
100
AcDbEntity
  8
0
  6
ByBlock
 62
     0
100
AcDbBlockReference
  2
_OPEN
 10
4877.873342866208
 20
1911.819914238813
 30
0.0
 41
60.0
 42
60.0
 43
60.0
  0
TEXT
  5
80AC
330
8261
100
AcDbEntity
  8
3
 62
     0
100
AcDbText
 10
4348.659057151922
 20
1941.819914238813
 30
0.0
 40
90.0
  1
827
100
AcDbText
  0
POINT
  5
80AD
330
8261
100
AcDbEntity
  8
DEFPOINTS
  6
ByBlock
 62
     0
100
AcDbPoint
 10
4050.873342866209
 20
2112.580412632439
 30
0.0
  0
POINT
  5
80AE
330
8261
100
AcDbEntity
  8
DEFPOINTS
  6
ByBlock
 62
     0
100
AcDbPoint
 10
4877.873342866208
 20
2112.580412632439
 30
0.0
  0
POINT
  5
80AF
330
8261
100
AcDbEntity
  8
DEFPOINTS
  6
ByBlock
 62
     0
100
AcDbPoint
 10
4877.873342866208
 20
1911.819914238813
 30
0.0
  0
ENDBLK
  5
80B0
330
8261
100
AcDbEntity
  8
0
100
AcDbBlockEnd
  0
BLOCK
  5
8264
330
8263
100
AcDbEntity
  8
0
100
AcDbBlockBegin
  2
*D26
 70
     1
 10
0.0
 20
0.0
 30
0.0
  3
*D26
  1

  0
LINE
  5
80B4
330
8263
100
AcDbEntity
  8
0
  6
ByBlock
 62
     0
100
AcDbLine
 10
4877.873342866208
 20
2082.580412632439
 30
0.0
 11
4877.873342866208
 21
1881.819914238813
 31
0.0
  0
LINE
  5
80B5
330
8263
100
AcDbEntity
  8
0
  6
ByBlock
 62
     0
100
AcDbLine
 10
5555.87334286621
 20
2082.580412632439
 30
0.0
 11
5555.87334286621
 21
1881.819914238813
 31
0.0
  0
LINE
  5
80B6
330
8263
100
AcDbEntity
  8
0
  6
ByBlock
 62
     0
100
AcDbLine
 10
4937.873342866208
 20
1911.819914238813
 30
0.0
 11
5495.873342866209
 21
1911.819914238813
 31
0.0
  0
INSERT
  5
80B7
330
8263
100
AcDbEntity
  8
0
  6
ByBlock
 62
     0
100
AcDbBlockReference
  2
_OPEN
 10
4877.873342866208
 20
1911.819914238813
 30
0.0
 41
60.0
 42
60.0
 43
60.0
 50
180.0
  0
INSERT
  5
80B8
330
8263
100
AcDbEntity
  8
0
  6
ByBlock
 62
     0
100
AcDbBlockReference
  2
_OPEN
 10
5555.87334286621
 20
1911.819914238813
 30
0.0
 41
60.0
 42
60.0
 43
60.0
  0
TEXT
  5
80B9
330
8263
100
AcDbEntity
  8
3
 62
     0
100
AcDbText
 10
5101.159057151924
 20
1941.819914238813
 30
0.0
 40
90.0
  1
678
100
AcDbText
  0
POINT
  5
80BA
330
8263
100
AcDbEntity
  8
DEFPOINTS
  6
ByBlock
 62
     0
100
AcDbPoint
 10
4877.873342866208
 20
2112.580412632439
 30
0.0
  0
POINT
  5
80BB
330
8263
100
AcDbEntity
  8
DEFPOINTS
  6
ByBlock
 62
     0
100
AcDbPoint
 10
5555.87334286621
 20
2112.580412632439
 30
0.0
  0
POINT
  5
80BC
330
8263
100
AcDbEntity
  8
DEFPOINTS
  6
ByBlock
 62
     0
100
AcDbPoint
 10
5555.87334286621
 20
1911.819914238813
 30
0.0
  0
ENDBLK
  5
80BD
330
8263
100
AcDbEntity
  8
0
100
AcDbBlockEnd
  0
BLOCK
  5
8266
330
8265
100
AcDbEntity
  8
0
100
AcDbBlockBegin
  2
_NONE
 70
     0
 10
0.0
 20
0.0
 30
0.0
  3
_NONE
  1

  0
CIRCLE
  5
80C1
330
8265
100
AcDbEntity
  8
0
  6
ByBlock
 62
     0
100
AcDbCircle
 10
0.0
 20
0.0
 30
0.0
 40
0.25
  0
ENDBLK
  5
80C2
330
8265
100
AcDbEntity
  8
0
100
AcDbBlockEnd
  0
BLOCK
  5
8268
330
8267
100
AcDbEntity
  8
0
100
AcDbBlockBegin
  2
_CLOSED
 70
     0
 10
0.0
 20
0.0
 30
0.0
  3
_CLOSED
  1

  0
LINE
  5
80FD
330
8267
100
AcDbEntity
  8
0
  6
ByBlock
 62
     0
100
AcDbLine
 10
-1.0
 20
0.1666666666666666
 30
0.0
 11
0.0
 21
0.0
 31
0.0
  0
LINE
  5
80FE
330
8267
100
AcDbEntity
  8
0
  6
ByBlock
 62
     0
100
AcDbLine
 10
0.0
 20
0.0
 30
0.0
 11
-1.0
 21
-0.1666666666666666
 31
0.0
  0
LINE
  5
80FF
330
8267
100
AcDbEntity
  8
0
  6
ByBlock
 62
     0
100
AcDbLine
 10
-1.0
 20
0.1666666666666666
 30
0.0
 11
-1.0
 21
-0.1666666666666666
 31
0.0
  0
ENDBLK
  5
8100
330
8267
100
AcDbEntity
  8
0
100
AcDbBlockEnd
  0
BLOCK
  5
826A
330
8269
100
AcDbEntity
  8
0
100
AcDbBlockBegin
  2
*D29
 70
     1
 10
0.0
 20
0.0
 30
0.0
  3
*D29
  1

  0
LINE
  5
812C
330
8269
100
AcDbEntity
  8
0
  6
ByBlock
 62
     0
100
AcDbLine
 10
924.398024867405
 20
2219.58041263244
 30
0.0
 11
924.398024867405
 21
2219.58041263244
 31
0.0
  0
LINE
  5
812D
330
8269
100
AcDbEntity
  8
0
  6
ByBlock
 62
     0
100
AcDbLine
 10
924.398024867405
 20
2239.58041263244
 30
0.0
 11
924.398024867405
 21
2359.58041263244
 31
0.0
  0
TEXT
  5
812E
330
8269
100
AcDbEntity
  8
3
 62
     0
100
AcDbText
 10
810.8265962959764
 20
2071.866126918154
 30
0.0
 40
90.0
  1
 (20)
 50
90.0
100
AcDbText
  0
LINE
  5
812F
330
8269
100
AcDbEntity
  8
0
  6
ByBlock
 62
     0
100
AcDbLine
 10
924.398024867405
 20
2219.58041263244
 30
0.0
 11
924.398024867405
 21
2239.58041263244
 31
0.0
  0
POINT
  5
8130
330
8269
100
AcDbEntity
  8
DEFPOINTS
  6
ByBlock
 62
     0
100
AcDbPoint
 10
1621.217145476919
 20
2219.58041263244
 30
0.0
  0
POINT
  5
8131
330
8269
100
AcDbEntity
  8
DEFPOINTS
  6
ByBlock
 62
     0
100
AcDbPoint
 10
1621.217145476919
 20
2239.58041263244
 30
0.0
  0
POINT
  5
8132
330
8269
100
AcDbEntity
  8
DEFPOINTS
  6
ByBlock
 62
     0
100
AcDbPoint
 10
924.398024867405
 20
2239.58041263244
 30
0.0
  0
ENDBLK
  5
8133
330
8269
100
AcDbEntity
  8
0
100
AcDbBlockEnd
  0
BLOCK
  5
826C
330
826B
100
AcDbEntity
  8
0
100
AcDbBlockBegin
  2
*D30
 70
     1
 10
0.0
 20
0.0
 30
0.0
  3
*D30
  1

  0
LINE
  5
810E
330
826B
100
AcDbEntity
  8
0
  6
ByBlock
 62
     0
100
AcDbLine
 10
1591.217145476919
 20
2119.58041263244
 30
0.0
 11
615.4262814642208
 21
2119.58041263244
 31
0.0
  0
LINE
  5
810F
330
826B
100
AcDbEntity
  8
0
  6
ByBlock
 62
     0
100
AcDbLine
 10
2260.217145476919
 20
4169.580412632439
 30
0.0
 11
615.4262814642208
 21
4169.580412632439
 31
0.0
  0
LINE
  5
8110
330
826B
100
AcDbEntity
  8
0
  6
ByBlock
 62
     0
100
AcDbLine
 10
645.4262814642206
 20
2179.58041263244
 30
0.0
 11
645.4262814642206
 21
4109.580412632439
 31
0.0
  0
INSERT
  5
8111
330
826B
100
AcDbEntity
  8
0
  6
ByBlock
 62
     0
100
AcDbBlockReference
  2
_OPEN
 10
645.4262814642206
 20
2119.58041263244
 30
0.0
 41
60.0
 42
60.0
 43
60.0
 50
270.0
  0
INSERT
  5
8112
330
826B
100
AcDbEntity
  8
0
  6
ByBlock
 62
     0
100
AcDbBlockReference
  2
_OPEN
 10
645.4262814642206
 20
4169.580412632439
 30
0.0
 41
60.0
 42
60.0
 43
60.0
 50
90.0
  0
TEXT
  5
8113
330
826B
100
AcDbEntity
  8
3
 62
     0
100
AcDbText
 10
576.8548528927921
 20
2928.151841203868
 30
0.0
 40
90.0
  1
(2050)
 50
90.0
100
AcDbText
  0
POINT
  5
8114
330
826B
100
AcDbEntity
  8
DEFPOINTS
  6
ByBlock
 62
     0
100
AcDbPoint
 10
1621.217145476919
 20
2119.58041263244
 30
0.0
  0
POINT
  5
8115
330
826B
100
AcDbEntity
  8
DEFPOINTS
  6
ByBlock
 62
     0
100
AcDbPoint
 10
2290.217145476919
 20
4169.580412632439
 30
0.0
  0
POINT
  5
8116
330
826B
100
AcDbEntity
  8
DEFPOINTS
  6
ByBlock
 62
     0
100
AcDbPoint
 10
645.4262814642206
 20
4169.580412632439
 30
0.0
  0
ENDBLK
  5
8117
330
826B
100
AcDbEntity
  8
0
100
AcDbBlockEnd
  0
BLOCK
  5
8271
330
8270
100
AcDbEntity
  8
0
100
AcDbBlockBegin
  2
*D31
 70
     1
 10
0.0
 20
0.0
 30
0.0
  3
*D31
  1

  0
LINE
  5
829B
330
8270
100
AcDbEntity
  8
3
 62
     0
370
    -2
100
AcDbLine
 10
3817.873342866204
 20
3759.580412632439
 30
0.0
 11
3817.873342866204
 21
4650.898419389078
 31
0.0
  0
LINE
  5
829C
330
8270
100
AcDbEntity
  8
3
 62
     0
370
    -2
100
AcDbLine
 10
4877.873342866209
 20
4558.575164054367
 30
0.0
 11
4877.873342866209
 21
4650.898419389078
 31
0.0
  0
LINE
  5
829D
330
8270
100
AcDbEntity
  8
3
 62
     0
370
    -2
100
AcDbLine
 10
3877.873342866204
 20
4620.898419389079
 30
0.0
 11
4817.873342866209
 21
4620.898419389079
 31
0.0
  0
INSERT
  5
829E
330
8270
100
AcDbEntity
  8
3
 62
     0
370
    -2
100
AcDbBlockReference
  2
_OPEN
 10
3817.873342866204
 20
4620.898419389079
 30
0.0
 41
60.0
 42
60.0
 43
60.0
 50
180.0
  0
INSERT
  5
829F
330
8270
100
AcDbEntity
  8
3
 62
     0
370
    -2
100
AcDbBlockReference
  2
_OPEN
 10
4877.873342866209
 20
4620.898419389079
 30
0.0
 41
60.0
 42
60.0
 43
60.0
  0
MTEXT
  5
82A0
330
8270
100
AcDbEntity
  8
3
 62
     0
100
AcDbMText
 10
4347.873342866207
 20
4719.469847960508
 30
0.0
 40
90.0
 41
0.0
 71
     5
 72
     1
  1
\A1;(1060)
 73
     1
 44
1.0
1001
ACAD
1000
MTEXTBEGIN
1070
    73
1070
     1
1070
    44
1040
1.0
1070
    74
1070
     0
1000
MTEXTEND
  0
POINT
  5
82A1
330
8270
100
AcDbEntity
  8
DEFPOINTS
 62
     0
100
AcDbPoint
 10
3817.873342866204
 20
3729.580412632439
 30
0.0
  0
POINT
  5
82A2
330
8270
100
AcDbEntity
  8
DEFPOINTS
 62
     0
100
AcDbPoint
 10
4877.873342866209
 20
4528.575164054368
 30
0.0
  0
POINT
  5
82A3
330
8270
100
AcDbEntity
  8
DEFPOINTS
 62
     0
100
AcDbPoint
 10
4877.873342866209
 20
4620.898419389079
 30
0.0
  0
ENDBLK
  5
8272
330
8270
100
AcDbEntity
  8
0
100
AcDbBlockEnd
  0
BLOCK
  5
827E
330
827D
100
AcDbEntity
  8
0
100
AcDbBlockBegin
  2
*D32
 70
     1
 10
0.0
 20
0.0
 30
0.0
  3
*D32
  1

  0
LINE
  5
82A4
330
827D
100
AcDbEntity
  8
3
 62
     0
370
    -2
100
AcDbLine
 10
4877.873342866209
 20
4558.575164054367
 30
0.0
 11
4877.873342866209
 21
4650.898419389078
 31
0.0
  0
LINE
  5
82A5
330
827D
100
AcDbEntity
  8
3
 62
     0
370
    -2
100
AcDbLine
 10
5657.87334286621
 20
3443.78041263244
 30
0.0
 11
5657.87334286621
 21
4650.898419389078
 31
0.0
  0
LINE
  5
82A6
330
827D
100
AcDbEntity
  8
3
 62
     0
370
    -2
100
AcDbLine
 10
4937.873342866208
 20
4620.898419389079
 30
0.0
 11
5597.87334286621
 21
4620.898419389079
 31
0.0
  0
INSERT
  5
82A7
330
827D
100
AcDbEntity
  8
3
 62
     0
370
    -2
100
AcDbBlockReference
  2
_OPEN
 10
4877.873342866209
 20
4620.898419389079
 30
0.0
 41
60.0
 42
60.0
 43
60.0
 50
180.0
  0
INSERT
  5
82A8
330
827D
100
AcDbEntity
  8
3
 62
     0
370
    -2
100
AcDbBlockReference
  2
_OPEN
 10
5657.87334286621
 20
4620.898419389079
 30
0.0
 41
60.0
 42
60.0
 43
60.0
  0
MTEXT
  5
82A9
330
827D
100
AcDbEntity
  8
3
 62
     0
100
AcDbMText
 10
5267.873342866209
 20
4719.469847960508
 30
0.0
 40
90.0
 41
0.0
 71
     5
 72
     1
  1
\A1;(780)
 73
     1
 44
1.0
1001
ACAD
1000
MTEXTBEGIN
1070
    73
1070
     1
1070
    44
1040
1.0
1070
    74
1070
     0
1000
MTEXTEND
  0
POINT
  5
82AA
330
827D
100
AcDbEntity
  8
DEFPOINTS
 62
     0
100
AcDbPoint
 10
4877.873342866209
 20
4528.575164054368
 30
0.0
  0
POINT
  5
82AB
330
827D
100
AcDbEntity
  8
DEFPOINTS
 62
     0
100
AcDbPoint
 10
5657.87334286621
 20
3413.780412632439
 30
0.0
  0
POINT
  5
82AC
330
827D
100
AcDbEntity
  8
DEFPOINTS
 62
     0
100
AcDbPoint
 10
5657.87334286621
 20
4620.898419389079
 30
0.0
  0
ENDBLK
  5
827F
330
827D
100
AcDbEntity
  8
0
100
AcDbBlockEnd
  0
BLOCK
  5
82AE
330
82AD
100
AcDbEntity
  8
0
100
AcDbBlockBegin
  2
*D33
 70
     1
 10
0.0
 20
0.0
 30
0.0
  3
*D33
  1

  0
LINE
  5
82B0
330
82AD
100
AcDbEntity
  8
3
 62
     0
370
    -2
100
AcDbLine
 10
3671.217145476919
 20
5152.394064037404
 30
0.0
 11
3671.217145476919
 21
4740.318940210827
 31
0.0
  0
LINE
  5
82B1
330
82AD
100
AcDbEntity
  8
3
 62
     0
370
    -2
100
AcDbLine
 10
1621.217145476919
 20
5152.394064037402
 30
0.0
 11
1621.217145476919
 21
4740.318940210827
 31
0.0
  0
LINE
  5
82B2
330
82AD
100
AcDbEntity
  8
3
 62
     0
370
    -2
100
AcDbLine
 10
3665.817145476919
 20
4745.718940210827
 30
0.0
 11
2670.002859762633
 21
4745.718940210827
 31
0.0
  0
LINE
  5
82B3
330
82AD
100
AcDbEntity
  8
3
 62
     0
370
    -2
100
AcDbLine
 10
1626.617145476919
 20
4745.718940210827
 30
0.0
 11
2622.431431191205
 21
4745.718940210827
 31
0.0
  0
SOLID
  5
82B4
330
82AD
100
AcDbEntity
  8
3
 62
     0
100
AcDbTrace
 10
3665.817145476919
 20
4746.618940210827
 30
0.0
 11
3665.817145476919
 21
4744.818940210827
 31
0.0
 12
3671.217145476919
 22
4745.718940210827
 32
0.0
 13
3671.217145476919
 23
4745.718940210827
 33
0.0
  0
SOLID
  5
82B5
330
82AD
100
AcDbEntity
  8
3
 62
     0
100
AcDbTrace
 10
1626.617145476919
 20
4746.618940210827
 30
0.0
 11
1626.617145476919
 21
4744.818940210827
 31
0.0
 12
1621.217145476919
 22
4745.718940210827
 32
0.0
 13
1621.217145476919
 23
4745.718940210827
 33
0.0
  0
MTEXT
  5
82B6
330
82AD
100
AcDbEntity
  8
3
 62
     0
100
AcDbMText
 10
2646.217145476919
 20
4745.718940210827
 30
0.0
 40
5.399999999999999
 41
0.0
 71
     5
 72
     1
  1
\A1;2050.0000
 73
     1
 44
1.0
1001
ACAD
1000
MTEXTBEGIN
1070
    73
1070
     1
1070
    44
1040
1.0
1070
    74
1070
     0
1000
MTEXTEND
  0
POINT
  5
82B7
330
82AD
100
AcDbEntity
  8
DEFPOINTS
 62
     0
100
AcDbPoint
 10
3671.217145476919
 20
5154.269064037404
 30
0.0
  0
POINT
  5
82B8
330
82AD
100
AcDbEntity
  8
DEFPOINTS
 62
     0
100
AcDbPoint
 10
1621.217145476919
 20
5154.269064037402
 30
0.0
  0
POINT
  5
82B9
330
82AD
100
AcDbEntity
  8
DEFPOINTS
 62
     0
100
AcDbPoint
 10
1621.217145476919
 20
4745.718940210827
 30
0.0
  0
ENDBLK
  5
82AF
330
82AD
100
AcDbEntity
  8
0
100
AcDbBlockEnd
  0
BLOCK
  5
82BF
330
82BE
100
AcDbEntity
  8
0
100
AcDbBlockBegin
  2
*D34
 70
     1
 10
0.0
 20
0.0
 30
0.0
  3
*D34
  1

  0
LINE
  5
82C1
330
82BE
100
AcDbEntity
  8
3
 62
     0
370
    -2
100
AcDbLine
 10
1621.217145476919
 20
5124.269064037402
 30
0.0
 11
1621.217145476919
 21
4747.444150089388
 31
0.0
  0
LINE
  5
82C2
330
82BE
100
AcDbEntity
  8
3
 62
     0
370
    -2
100
AcDbLine
 10
3671.217145476919
 20
5124.269064037404
 30
0.0
 11
3671.217145476919
 21
4747.444150089388
 31
0.0
  0
LINE
  5
82C3
330
82BE
100
AcDbEntity
  8
3
 62
     0
370
    -2
100
AcDbLine
 10
1681.217145476919
 20
4777.444150089388
 30
0.0
 11
3611.217145476919
 21
4777.444150089388
 31
0.0
  0
INSERT
  5
82C4
330
82BE
100
AcDbEntity
  8
3
 62
     0
370
    -2
100
AcDbBlockReference
  2
_OPEN
 10
1621.217145476919
 20
4777.444150089388
 30
0.0
 41
60.0
 42
60.0
 43
60.0
 50
180.0
  0
INSERT
  5
82C5
330
82BE
100
AcDbEntity
  8
3
 62
     0
370
    -2
100
AcDbBlockReference
  2
_OPEN
 10
3671.217145476919
 20
4777.444150089388
 30
0.0
 41
60.0
 42
60.0
 43
60.0
  0
MTEXT
  5
82C6
330
82BE
100
AcDbEntity
  8
3
 62
     0
100
AcDbMText
 10
2646.217145476919
 20
4852.444150089389
 30
0.0
 40
90.0
 41
0.0
 71
     5
 72
     1
  1
\A1;2050
 73
     1
 44
1.0
1001
ACAD
1000
MTEXTBEGIN
1070
    73
1070
     1
1070
    44
1040
1.0
1070
    74
1070
     0
1000
MTEXTEND
  0
POINT
  5
82C7
330
82BE
100
AcDbEntity
  8
DEFPOINTS
 62
     0
100
AcDbPoint
 10
1621.217145476919
 20
5154.269064037402
 30
0.0
  0
POINT
  5
82C8
330
82BE
100
AcDbEntity
  8
DEFPOINTS
 62
     0
100
AcDbPoint
 10
3671.217145476919
 20
5154.269064037404
 30
0.0
  0
POINT
  5
82C9
330
82BE
100
AcDbEntity
  8
DEFPOINTS
 62
     0
100
AcDbPoint
 10
3671.217145476919
 20
4777.444150089388
 30
0.0
  0
ENDBLK
  5
82C0
330
82BE
100
AcDbEntity
  8
0
100
AcDbBlockEnd
  0
BLOCK
  5
82CC
330
82CB
100
AcDbEntity
  8
0
100
AcDbBlockBegin
  2
*D35
 70
     1
 10
0.0
 20
0.0
 30
0.0
  3
*D35
  1

  0
LINE
  5
82D7
330
82CB
100
AcDbEntity
  8
3
 62
     0
370
    -2
100
AcDbLine
 10
1476.601162979292
 20
3449.580412632438
 30
0.0
 11
894.3980248674053
 21
3449.580412632439
 31
0.0
  0
LINE
  5
82D8
330
82CB
100
AcDbEntity
  8
3
 62
     0
370
    -2
100
AcDbLine
 10
1591.217145476919
 20
2239.58041263244
 30
0.0
 11
894.398024867405
 21
2239.58041263244
 31
0.0
  0
LINE
  5
82D9
330
82CB
100
AcDbEntity
  8
3
 62
     0
370
    -2
100
AcDbLine
 10
924.3980248674054
 20
3389.580412632439
 30
0.0
 11
924.398024867405
 21
2299.58041263244
 31
0.0
  0
INSERT
  5
82DA
330
82CB
100
AcDbEntity
  8
3
 62
     0
370
    -2
100
AcDbBlockReference
  2
_OPEN
 10
924.3980248674054
 20
3449.580412632439
 30
0.0
 41
60.0
 42
60.0
 43
60.0
 50
90.0
  0
INSERT
  5
82DB
330
82CB
100
AcDbEntity
  8
3
 62
     0
370
    -2
100
AcDbBlockReference
  2
_OPEN
 10
924.398024867405
 20
2239.58041263244
 30
0.0
 41
60.0
 42
60.0
 43
60.0
 50
270.0
  0
MTEXT
  5
82DC
330
82CB
100
AcDbEntity
  8
3
 62
     0
100
AcDbMText
 10
849.3980248674048
 20
2844.580412632439
 30
0.0
 40
90.0
 41
0.0
 71
     5
 72
     1
  1
\A1;1210
 11
0.0000000000000001
 21
1.0
 31
0.0
 73
     1
 44
1.0
1001
ACAD
1000
MTEXTBEGIN
1070
    73
1070
     1
1070
    44
1040
1.0
1070
    74
1070
     0
1000
MTEXTEND
  0
POINT
  5
82DD
330
82CB
100
AcDbEntity
  8
DEFPOINTS
 62
     0
100
AcDbPoint
 10
1506.601162979292
 20
3449.580412632438
 30
0.0
  0
POINT
  5
82DE
330
82CB
100
AcDbEntity
  8
DEFPOINTS
 62
     0
100
AcDbPoint
 10
1621.217145476919
 20
2239.58041263244
 30
0.0
  0
POINT
  5
82DF
330
82CB
100
AcDbEntity
  8
DEFPOINTS
 62
     0
100
AcDbPoint
 10
924.398024867405
 20
2239.58041263244
 30
0.0
  0
ENDBLK
  5
82CD
330
82CB
100
AcDbEntity
  8
0
100
AcDbBlockEnd
  0
ENDSEC
  0
SECTION
  2
ENTITIES
  0
INSERT
  5
7C37
330
8220
100
AcDbEntity
  8
0
100
AcDbBlockReference
  2
YA_N
 10
6.0
 20
5.0
 30
0.0
  0
ARC
  5
7C39
330
8220
100
AcDbEntity
  8
1
100
AcDbCircle
 10
2172.217145476919
 20
3375.580412632438
 30
0.0
 40
942.0
100
AcDbArc
 50
274.5055845266444
 51
4.50558452664448
  0
ARC
  5
7C3A
330
8220
100
AcDbEntity
  8
1
100
AcDbCircle
 10
2320.217145476919
 20
3375.580412632439
 30
0.0
 40
794.0
100
AcDbArc
 50
5.347669749838811
 51
95.34766974983879
  0
ARC
  5
7C3B
330
8220
100
AcDbEntity
  8
1
100
AcDbCircle
 10
2306.717145476919
 20
3510.080412632439
 30
0.0
 40
659.4999999999998
100
AcDbArc
 50
95.263495203067
 51
185.2634952030669
  0
LINE
  5
7C3C
330
8220
100
AcDbEntity
  8
1
100
AcDbLine
 10
1648.835358007634
 20
3405.580412632438
 30
0.0
 11
1566.217145476919
 21
3405.580412632438
 31
0.0
  0
LINE
  5
7C3D
330
8220
100
AcDbEntity
  8
1
100
AcDbLine
 10
1566.21714547692
 20
2322.580412632437
 30
0.0
 11
1566.217145476919
 21
3458.580412632438
 31
0.0
  0
LINE
  5
7C3E
330
8220
100
AcDbEntity
  8
1
100
AcDbLine
 10
1566.21714547692
 20
2375.580412632439
 30
0.0
 11
2246.21714547692
 21
2436.491492455016
 31
0.0
  0
LINE
  5
7C3F
330
8220
100
AcDbEntity
  8
1
100
AcDbLine
 10
1570.21714547692
 20
2322.580412632437
 30
0.0
 11
1566.21714547692
 21
2322.580412632437
 31
0.0
  0
LINE
  5
7C40
330
8220
100
AcDbEntity
  8
1
100
AcDbLine
 10
1570.217145476917
 20
3458.580412632438
 30
0.0
 11
1566.217145476919
 21
3458.580412632438
 31
0.0
  0
LINE
  5
7C41
330
8220
100
AcDbEntity
  8
1
100
AcDbLine
 10
1616.21714547692
 20
2380.059168501746
 30
0.0
 11
1616.217145476919
 21
3405.580412632438
 31
0.0
  0
LINE
  5
7C42
330
8220
100
AcDbEntity
  8
1
100
AcDbLine
 10
1570.217145476922
 20
2322.580412632437
 30
0.0
 11
1570.217145476917
 21
3458.580412632438
 31
0.0
  0
LINE
  5
7C43
330
8220
100
AcDbEntity
  8
1
100
AcDbLine
 10
3671.217145476919
 20
2339.580412632437
 30
0.0
 11
1621.217145476919
 21
2339.580412632439
 31
0.0
  0
LINE
  5
7C44
330
8220
100
AcDbEntity
  8
1
100
AcDbLine
 10
1621.217145476919
 20
2339.580412632439
 30
0.0
 11
1621.217145476919
 21
2239.58041263244
 31
0.0
  0
LINE
  5
7C45
330
8220
100
AcDbEntity
  8
2
100
AcDbLine
 10
3792.873342866207
 20
3449.580412632439
 30
0.0
 11
5683.949974415511
 21
3449.580412632439
 31
0.0
  0
LINE
  5
7C46
330
8220
100
AcDbEntity
  8
2
100
AcDbLine
 10
4877.873342866209
 20
4400.62928398111
 30
0.0
 11
4877.873342866208
 21
2119.580412632439
 31
0.0
  0
LINE
  5
7C47
330
8220
100
AcDbEntity
  8
1
100
AcDbLine
 10
4050.873342866208
 20
2239.580412632439
 30
0.0
 11
5555.87334286621
 21
2239.580412632439
 31
0.0
1001
ACAD
1000
ASC_BOUNDS
1002
{
1070
    19
1005
0
1005
0
1002
}
  0
LINE
  5
7C48
330
8220
100
AcDbEntity
  8
1
100
AcDbLine
 10
4050.873342866209
 20
2339.580412632439
 30
0.0
 11
5555.87334286621
 21
2339.580412632439
 31
0.0
  0
LINE
  5
7C49
330
8220
100
AcDbEntity
  8
1
100
AcDbLine
 10
5502.87334286621
 20
4169.580412632438
 30
0.0
 11
5502.87334286621
 21
3449.580412632439
 31
0.0
  0
LINE
  5
7C4A
330
8220
100
AcDbEntity
  8
2
100
AcDbLine
 10
2246.217145476921
 20
4212.625848323955
 30
0.0
 11
2246.21714547692
 21
2119.58041263244
 31
0.0
  0
LINE
  5
7C4B
330
8220
100
AcDbEntity
  8
2
100
AcDbLine
 10
1506.601162979292
 20
3449.580412632438
 30
0.0
 11
3178.732061533128
 21
3449.580412632439
 31
0.0
  0
LINE
  5
7C4C
330
8220
100
AcDbEntity
  8
1
100
AcDbLine
 10
3671.217145476919
 20
2239.58041263244
 30
0.0
 11
1621.217145476919
 21
2239.58041263244
 31
0.0
1001
ACAD
1000
ASC_BOUNDS
1002
{
1070
    19
1005
0
1002
}
  0
INSERT
  5
7C4D
330
8220
100
AcDbEntity
  8
0
100
AcDbBlockReference
  2
YA_N
 10
-1637.209838160516
 20
-1405.432827243363
 30
0.0
 41
25.0
 42
25.0
 43
25.0
  0
ARC
  5
7C4F
330
8220
100
AcDbEntity
  8
1
100
AcDbCircle
 10
3396.217145476919
 20
2574.580412632438
 30
0.0
 40
185.0
100
AcDbArc
 50
287.9452509999999
 51
252.054749
  0
LINE
  5
7C50
330
8220
100
AcDbEntity
  8
2
100
AcDbLine
 10
3396.217145476919
 20
2838.396086632439
 30
0.0
 11
3396.217145476921
 21
2119.58041263244
 31
0.0
  0
LINE
  5
7C51
330
8220
100
AcDbEntity
  8
1
100
AcDbLine
 10
3339.217130476921
 20
2398.580412632437
 30
0.0
 11
3453.217145476919
 21
2398.580412632437
 31
0.0
  0
LINE
  5
7C52
330
8220
100
AcDbEntity
  8
1
100
AcDbLine
 10
3234.21713047692
 20
2469.839445632438
 30
0.0
 11
3234.21713047692
 21
2394.580412632439
 31
0.0
  0
LINE
  5
7C56
330
8220
100
AcDbEntity
  8
1
100
AcDbLine
 10
3293.71713047692
 20
2399.728971632439
 30
0.0
 11
3303.223844476919
 21
2414.651579632439
 31
0.0
  0
LINE
  5
7C57
330
8220
100
AcDbEntity
  8
1
100
AcDbLine
 10
3293.71713047692
 20
2411.580412632439
 30
0.0
 11
3293.71713047692
 21
2394.580412632439
 31
0.0
  0
LINE
  5
7C59
330
8220
100
AcDbEntity
  8
1
100
AcDbLine
 10
3237.217130476919
 20
2414.580412632439
 30
0.0
 11
3290.717130476921
 21
2414.580412632439
 31
0.0
  0
ARC
  5
7C5B
330
8220
100
AcDbEntity
  8
1
100
AcDbCircle
 10
3237.217130476919
 20
2411.580412632439
 30
0.0
 40
3.0
100
AcDbArc
 50
90.0
 51
180.0
  0
LINE
  5
7C5D
330
8220
100
AcDbEntity
  8
1
100
AcDbLine
 10
3285.393216476919
 20
2414.580412632439
 30
0.0
 11
3290.572965476921
 21
2422.711012632437
 31
0.0
  0
ARC
  5
7C5E
330
8220
100
AcDbEntity
  8
1
100
AcDbCircle
 10
3290.717130476921
 20
2411.580412632439
 30
0.0
 40
3.0
100
AcDbArc
 50
0.0
 51
90.0
  0
LINE
  5
7C61
330
8220
100
AcDbEntity
  8
1
100
AcDbLine
 10
3234.21713047692
 20
2469.839445632438
 30
0.0
 11
3240.60110247692
 21
2474.537199632439
 31
0.0
  0
LINE
  5
7C64
330
8220
100
AcDbEntity
  8
1
100
AcDbLine
 10
3558.217145476919
 20
2469.839445632438
 30
0.0
 11
3558.217145476919
 21
2394.580412632439
 31
0.0
  0
LINE
  5
7C65
330
8220
100
AcDbEntity
  8
1
100
AcDbLine
 10
3555.21714547692
 20
2414.580412632439
 30
0.0
 11
3501.71714547692
 21
2414.580412632439
 31
0.0
  0
LINE
  5
7C66
330
8220
100
AcDbEntity
  8
1
100
AcDbLine
 10
3498.717145476919
 20
2399.728971632439
 30
0.0
 11
3489.210431476921
 21
2414.651579632439
 31
0.0
  0
LINE
  5
7C69
330
8220
100
AcDbEntity
  8
1
100
AcDbLine
 10
3498.717145476919
 20
2394.580412632439
 30
0.0
 11
3498.717145476919
 21
2411.580412632439
 31
0.0
  0
LINE
  5
7C6C
330
8220
100
AcDbEntity
  8
1
100
AcDbLine
 10
3507.04105947692
 20
2414.580412632439
 30
0.0
 11
3501.861310476919
 21
2422.711012632437
 31
0.0
  0
ARC
  5
7C6D
330
8220
100
AcDbEntity
  8
1
100
AcDbCircle
 10
3501.71714547692
 20
2411.580412632439
 30
0.0
 40
3.0
100
AcDbArc
 50
90.0
 51
180.0
  0
ARC
  5
7C70
330
8220
100
AcDbEntity
  8
1
100
AcDbCircle
 10
3555.21714547692
 20
2411.580412632439
 30
0.0
 40
3.0
100
AcDbArc
 50
0.0
 51
90.0
  0
LINE
  5
7C71
330
8220
100
AcDbEntity
  8
1
100
AcDbLine
 10
3558.217145476919
 20
2469.839445632438
 30
0.0
 11
3551.833173476921
 21
2474.537199632439
 31
0.0
  0
LINE
  5
7C72
330
8220
100
AcDbEntity
  8
2
100
AcDbLine
 10
3646.643559602464
 20
2574.580412632438
 30
0.0
 11
3180.137612830964
 21
2574.580412632438
 31
0.0
  0
LINE
  5
7C73
330
8220
100
AcDbEntity
  8
1
100
AcDbLine
 10
3606.633158502686
 20
2394.580412632437
 30
0.0
 11
3466.21714547692
 21
2394.580412632437
 31
0.0
  0
LINE
  5
7C74
330
8220
100
AcDbEntity
  8
1
100
AcDbLine
 10
3171.217145476919
 20
2339.580412632437
 30
0.0
 11
3186.001894263254
 21
2394.580412632437
 31
0.0
  0
LINE
  5
7C75
330
8220
100
AcDbEntity
  8
1
100
AcDbLine
 10
3621.217145476919
 20
2339.580412632437
 30
0.0
 11
3606.633158502686
 21
2394.580412632437
 31
0.0
  0
LINE
  5
7C77
330
8220
100
AcDbEntity
  8
1
100
AcDbLine
 10
3466.21714547692
 20
2384.580412632437
 30
0.0
 11
3326.217145476919
 21
2384.580412632437
 31
0.0
  0
LINE
  5
7C78
330
8220
100
AcDbEntity
  8
1
100
AcDbLine
 10
3466.21714547692
 20
2394.580412632437
 30
0.0
 11
3466.21714547692
 21
2384.580412632437
 31
0.0
  0
LINE
  5
7C79
330
8220
100
AcDbEntity
  8
1
100
AcDbLine
 10
3326.217145476919
 20
2394.580412632437
 30
0.0
 11
3326.217145476919
 21
2384.580412632437
 31
0.0
  0
LINE
  5
7C7A
330
8220
100
AcDbEntity
  8
1
100
AcDbLine
 10
3326.217145476919
 20
2394.580412632437
 30
0.0
 11
3186.001894263254
 21
2394.580412632437
 31
0.0
  0
CIRCLE
  5
7C7D
330
8220
100
AcDbEntity
  8
1
100
AcDbCircle
 10
2246.217145476921
 20
3449.580412632438
 30
0.0
 40
165.0999999999999
  0
CIRCLE
  5
7C7E
330
8220
100
AcDbEntity
  8
1
100
AcDbCircle
 10
3396.217145476919
 20
2574.580412632438
 30
0.0
 40
114.3
  0
LINE
  5
7C7F
330
8220
100
AcDbEntity
  8
1
100
AcDbLine
 10
3671.217145476919
 20
2219.58041263244
 30
0.0
 11
1621.217145476919
 21
2219.58041263244
 31
0.0
1001
ACAD
1000
ASC_BOUNDS
1002
{
1070
    19
1005
0
1002
}
  0
LINE
  5
7C80
330
8220
100
AcDbEntity
  8
1
100
AcDbLine
 10
3671.217145476919
 20
2119.58041263244
 30
0.0
 11
1621.217145476919
 21
2119.58041263244
 31
0.0
  0
LINE
  5
7C81
330
8220
100
AcDbEntity
  8
1
100
AcDbLine
 10
1621.217145476919
 20
2219.58041263244
 30
0.0
 11
1621.217145476919
 21
2119.58041263244
 31
0.0
  0
POINT
  5
7C82
330
8220
100
AcDbEntity
  8
1
100
AcDbPoint
 10
1621.217145476919
 20
2219.58041263244
 30
0.0
  0
POINT
  5
7C83
330
8220
100
AcDbEntity
  8
1
100
AcDbPoint
 10
1621.217145476919
 20
2219.58041263244
 30
0.0
  0
LINE
  5
7C84
330
8220
100
AcDbEntity
  8
1
100
AcDbLine
 10
4050.873342866208
 20
2219.580412632439
 30
0.0
 11
5555.87334286621
 21
2219.580412632439
 31
0.0
1001
ACAD
1000
ASC_BOUNDS
1002
{
1070
    19
1005
0
1005
0
1002
}
  0
POINT
  5
7C85
330
8220
100
AcDbEntity
  8
1
100
AcDbPoint
 10
1621.217145476919
 20
2219.58041263244
 30
0.0
  0
POINT
  5
7C86
330
8220
100
AcDbEntity
  8
1
100
AcDbPoint
 10
1621.217145476919
 20
2219.58041263244
 30
0.0
  0
INSERT
  5
7C87
330
8220
100
AcDbEntity
  8
0
100
AcDbBlockReference
  2
YA_N
 10
-1144.893563079054
 20
-989.0222135336152
 30
0.0
 41
25.0
 42
25.0
 43
25.0
  0
DIMENSION
  5
7C89
330
8220
100
AcDbEntity
  8
3
100
AcDbDimension
  2
*D4
 10
1365.057048482776
 20
3405.580412632438
 30
0.0
 11
1305.057048482776
 21
2890.580412632438
 31
0.0
 12
1150.184470972464
 22
2821.520109796693
 32
0.0
 71
     5
 42
-1.0
  3
Standard
100
AcDbAlignedDimension
 13
1566.21714547692
 23
2375.580412632439
 33
0.0
 14
1566.217145476919
 24
3405.580412632438
 34
0.0
 50
90.00000000000005
100
AcDbRotatedDimension
1001
ACAD
1000
DSTYLE
1002
{
1070
    40
1040
30.0
1002
}
  0
DIMENSION
  5
7C8A
330
8220
100
AcDbEntity
  8
3
100
AcDbDimension
  2
*D5
 10
1164.255003023623
 20
3449.580412632438
 30
0.0
 11
1104.255003023623
 21
2912.580412632438
 31
0.0
 12
1150.184470972464
 22
2821.520109796693
 32
0.0
 71
     5
 42
-1.0
  3
Standard
100
AcDbAlignedDimension
 13
1566.21714547692
 23
2375.580412632439
 33
0.0
 14
1506.601162979292
 24
3449.580412632438
 34
0.0
 50
90.00000000000005
100
AcDbRotatedDimension
1001
ACAD
1000
DSTYLE
1002
{
1070
    40
1040
30.0
1002
}
  0
POINT
  5
7C8B
330
8220
100
AcDbEntity
  8
1
100
AcDbPoint
 10
1621.217145476919
 20
2219.58041263244
 30
0.0
  0
POINT
  5
7C8C
330
8220
100
AcDbEntity
  8
1
100
AcDbPoint
 10
1621.217145476919
 20
2219.58041263244
 30
0.0
  0
DIMENSION
  5
7C8D
330
8220
100
AcDbEntity
  8
3
100
AcDbDimension
  2
*D6
 10
2246.217145476921
 20
4375.484629326488
 30
0.0
 11
1906.21714547692
 21
4435.484629326489
 31
0.0
 12
1150.184470972464
 22
2821.520109796693
 32
0.0
 71
     5
 42
-1.0
  3
Standard
100
AcDbAlignedDimension
 13
1566.217145476919
 23
3425.459966484921
 33
0.0
 14
2246.217145476921
 24
4212.625848323955
 34
0.0
100
AcDbRotatedDimension
1001
ACAD
1000
DSTYLE
1002
{
1070
    40
1040
30.0
1002
}
  0
DIMENSION
  5
7C8E
330
8220
100
AcDbEntity
  8
3
100
AcDbDimension
  2
*D7
 10
3110.76126189295
 20
4375.026929391572
 30
0.0
 11
2678.489203684935
 21
4435.026929391574
 31
0.0
 12
1150.184470972464
 22
2821.520109796693
 32
0.0
  1
868
 71
     5
 42
-1.0
  3
Standard
100
AcDbAlignedDimension
 13
2246.217145476921
 23
4212.625848323955
 33
0.0
 14
3110.76126189295
 24
3449.580412632438
 34
0.0
100
AcDbRotatedDimension
1001
ACAD
1000
DSTYLE
1002
{
1070
    40
1040
30.0
1002
}
  0
LINE
  5
7C8F
330
8220
100
AcDbEntity
  8
1
100
AcDbLine
 10
5502.87334286621
 20
3449.580412632439
 30
0.0
 11
5502.873342866208
 21
2375.580412632439
 31
0.0
  0
LINE
  5
7C90
330
8220
100
AcDbEntity
  8
1
100
AcDbLine
 10
4252.873342866208
 20
4169.580412632439
 30
0.0
 11
4252.873342866208
 21
3449.580412632439
 31
0.0
  0
LINE
  5
7C91
330
8220
100
AcDbEntity
  8
1
100
AcDbLine
 10
4252.873342866208
 20
3449.580412632439
 30
0.0
 11
4252.873342866207
 21
2757.080412632439
 31
0.0
  0
LINE
  5
7C92
330
8220
100
AcDbEntity
  8
1
100
AcDbLine
 10
5657.873342866208
 20
3413.780412632439
 30
0.0
 11
5657.87334286621
 21
3283.780412632439
 31
0.0
  0
LINE
  5
7C93
330
8220
100
AcDbEntity
  8
1
100
AcDbLine
 10
5520.87334286621
 20
3423.780412632441
 30
0.0
 11
5520.87334286621
 21
3273.780412632441
 31
0.0
  0
LINE
  5
7C94
330
8220
100
AcDbEntity
  8
1
100
AcDbLine
 10
5520.87334286621
 20
3423.780412632439
 30
0.0
 11
5570.173342866208
 21
3423.780412632441
 31
0.0
  0
LINE
  5
7C95
330
8220
100
AcDbEntity
  8
1
100
AcDbLine
 10
5520.87334286621
 20
3273.780412632441
 30
0.0
 11
5570.173342866208
 21
3273.780412632441
 31
0.0
  0
ARC
  5
7C96
330
8220
100
AcDbEntity
  8
1
100
AcDbCircle
 10
5647.87334286621
 20
3413.780412632439
 30
0.0
 40
10.0
100
AcDbArc
 50
0.0000000000006514
 51
90.0
  0
ARC
  5
7C97
330
8220
100
AcDbEntity
  8
1
100
AcDbCircle
 10
5647.87334286621
 20
3283.780412632439
 30
0.0
 40
10.0
100
AcDbArc
 50
270.0
 51
0.0000000000006514
  0
LINE
  5
7C98
330
8220
100
AcDbEntity
  8
1
100
AcDbLine
 10
5570.173342866208
 20
3423.780412632441
 30
0.0
 11
5647.873342866208
 21
3423.780412632441
 31
0.0
  0
LINE
  5
7C99
330
8220
100
AcDbEntity
  8
1
100
AcDbLine
 10
5570.173342866208
 20
3273.780412632441
 30
0.0
 11
5647.87334286621
 21
3273.780412632441
 31
0.0
  0
LINE
  5
7C9A
330
8220
100
AcDbEntity
  8
1
100
AcDbLine
 10
3954.873342866209
 20
3614.680412632439
 30
0.0
 11
4064.873342866209
 21
3614.680412632439
 31
0.0
  0
LINE
  5
7C9B
330
8220
100
AcDbEntity
  8
1
100
AcDbLine
 10
3954.873342866209
 20
3284.480412632439
 30
0.0
 11
4064.873342866209
 21
3284.480412632439
 31
0.0
  0
LINE
  5
7C9C
330
8220
100
AcDbEntity
  8
1
100
AcDbLine
 10
3954.873342866209
 20
2688.880412632439
 30
0.0
 11
4064.873342866209
 21
2688.880412632439
 31
0.0
  0
LINE
  5
7C9D
330
8220
100
AcDbEntity
  8
1
100
AcDbLine
 10
3954.873342866209
 20
2460.280412632438
 30
0.0
 11
4064.873342866209
 21
2460.280412632438
 31
0.0
  0
LINE
  5
7C9E
330
8220
100
AcDbEntity
  8
1
100
AcDbLine
 10
3954.873342866209
 20
3614.680412632439
 30
0.0
 11
3954.873342866209
 21
2460.280412632438
 31
0.0
  0
LINE
  5
7C9F
330
8220
100
AcDbEntity
  8
1
100
AcDbLine
 10
4064.873342866209
 20
3614.680412632439
 30
0.0
 11
4064.873342866206
 21
2460.280412632438
 31
0.0
  0
LINE
  5
7CA0
330
8220
100
AcDbEntity
  8
1
100
AcDbLine
 10
3817.873342866204
 20
3729.580412632439
 30
0.0
 11
3817.873342866218
 21
2354.580412632437
 31
0.0
  0
LINE
  5
7CA1
330
8220
100
AcDbEntity
  8
1
100
AcDbLine
 10
3817.873342866204
 20
3729.580412632439
 30
0.0
 11
4110.373342866203
 21
3729.580412632439
 31
0.0
  0
LINE
  5
7CA2
330
8220
100
AcDbEntity
  8
1
100
AcDbLine
 10
3817.873342866212
 20
2354.580412632437
 30
0.0
 11
4110.373342866211
 21
2354.580412632437
 31
0.0
  0
LINE
  5
7CA3
330
8220
100
AcDbEntity
  8
1
100
AcDbLine
 10
4110.373342866203
 20
3729.58041263244
 30
0.0
 11
4110.373342866203
 21
3709.580412632439
 31
0.0
  0
LINE
  5
7CA4
330
8220
100
AcDbEntity
  8
1
100
AcDbLine
 10
4110.373342866211
 20
2374.580412632437
 30
0.0
 11
4110.373342866211
 21
2354.58041263244
 31
0.0
  0
POINT
  5
7CA5
330
8220
100
AcDbEntity
  8
1
100
AcDbPoint
 10
5657.873342866212
 20
3413.780412632439
 30
0.0
  0
LINE
  5
7CA6
330
8220
100
AcDbEntity
  8
2
100
AcDbLine
 10
2246.217145476919
 20
6575.184625886584
 30
0.0
 11
2246.217145476919
 21
4887.196818316027
 31
0.0
  0
LINE
  5
7CA7
330
8220
100
AcDbEntity
  8
2
100
AcDbLine
 10
2731.871711129199
 20
5981.269064037404
 30
0.0
 11
1767.291955094333
 21
5981.269064037402
 31
0.0
  0
INSERT
  5
7CA8
330
8220
100
AcDbEntity
  8
0
100
AcDbBlockReference
  2
YA_N
 10
3439.312525519781
 20
-2261.498311600258
 30
0.0
  0
LINE
  5
7CAA
330
8220
100
AcDbEntity
  8
1
100
AcDbLine
 10
4050.873342866209
 20
2119.580412632439
 30
0.0
 11
5555.87334286621
 21
2119.580412632439
 31
0.0
1001
ACAD
1000
ASC_BOUNDS
1002
{
1070
    19
1002
}
  0
LINE
  5
7CAB
330
8220
100
AcDbEntity
  8
1
100
AcDbLine
 10
5555.87334286621
 20
2339.580412632439
 30
0.0
 11
5555.87334286621
 21
2239.580412632439
 31
0.0
  0
LINE
  5
7CAC
330
8220
100
AcDbEntity
  8
1
100
AcDbLine
 10
4050.873342866208
 20
2339.580412632439
 30
0.0
 11
4050.873342866208
 21
2239.580412632439
 31
0.0
  0
LINE
  5
7CAD
330
8220
100
AcDbEntity
  8
1
100
AcDbLine
 10
4185.573342866208
 20
3417.380412632439
 30
0.0
 11
4119.87334286621
 21
3417.380412632439
 31
0.0
  0
LINE
  5
7CAE
330
8220
100
AcDbEntity
  8
1
100
AcDbLine
 10
4185.573342866208
 20
3267.380412632439
 30
0.0
 11
4119.873342866207
 21
3267.380412632439
 31
0.0
  0
LINE
  5
7CAF
330
8220
100
AcDbEntity
  8
1
100
AcDbLine
 10
4234.873342866207
 20
3417.380412632439
 30
0.0
 11
4234.873342866209
 21
3267.380412632439
 31
0.0
  0
LINE
  5
7CB0
330
8220
100
AcDbEntity
  8
1
100
AcDbLine
 10
4234.873342866209
 20
3267.380412632439
 30
0.0
 11
4185.573342866208
 21
3267.380412632439
 31
0.0
  0
LINE
  5
7CB1
330
8220
100
AcDbEntity
  8
1
100
AcDbLine
 10
4234.873342866209
 20
3417.380412632439
 30
0.0
 11
4185.573342866208
 21
3417.380412632439
 31
0.0
  0
LINE
  5
7CB2
330
8220
100
AcDbEntity
  8
1
100
AcDbLine
 10
4109.87334286621
 20
3407.38041263244
 30
0.0
 11
4109.873342866209
 21
3277.380412632439
 31
0.0
  0
ARC
  5
7CB3
330
8220
100
AcDbEntity
  8
1
100
AcDbCircle
 10
4119.873342866207
 20
3277.380412632439
 30
0.0
 40
10.0
100
AcDbArc
 50
179.9999999999992
 51
270.0
  0
ARC
  5
7CB4
330
8220
100
AcDbEntity
  8
1
100
AcDbCircle
 10
4119.873342866206
 20
3407.38041263244
 30
0.0
 40
10.0
100
AcDbArc
 50
90.0
 51
179.9999999999992
  0
POINT
  5
7CB5
330
8220
100
AcDbEntity
  8
1
100
AcDbPoint
 10
4109.873342866206
 20
3407.38041263244
 30
0.0
  0
LINE
  5
7CB6
330
8220
100
AcDbEntity
  8
1
100
AcDbLine
 10
4074.873342866209
 20
3482.080412632438
 30
0.0
 11
4252.873342866208
 21
3482.080412632439
 31
0.0
  0
LINE
  5
7CB7
330
8220
100
AcDbEntity
  8
1
100
AcDbLine
 10
4074.873342866209
 20
3417.080412632439
 30
0.0
 11
4117.442293709976
 21
3417.080412632439
 31
0.0
  0
LINE
  5
7CB8
330
8220
100
AcDbEntity
  8
1
100
AcDbLine
 10
4074.873342866209
 20
3482.080412632438
 30
0.0
 11
4074.873342866209
 21
3417.080412632439
 31
0.0
  0
LINE
  5
7CB9
330
8220
100
AcDbEntity
  8
1
100
AcDbLine
 10
4064.873342866209
 20
3479.580412632439
 30
0.0
 11
4074.87334286621
 21
3479.580412632439
 31
0.0
  0
LINE
  5
7CBA
330
8220
100
AcDbEntity
  8
1
100
AcDbLine
 10
4064.873342866209
 20
3419.580412632439
 30
0.0
 11
4074.87334286621
 21
3419.580412632439
 31
0.0
  0
LINE
  5
7CBE
330
8220
100
AcDbEntity
  8
1
100
AcDbLine
 10
3671.217145476919
 20
2339.580412632439
 30
0.0
 11
3671.217145476919
 21
2239.58041263244
 31
0.0
  0
LINE
  5
7CBF
330
8220
100
AcDbEntity
  8
1
100
AcDbLine
 10
3671.217145476919
 20
2219.58041263244
 30
0.0
 11
3671.217145476919
 21
2119.58041263244
 31
0.0
  0
POINT
  5
7CC0
330
8220
100
AcDbEntity
  8
1
100
AcDbPoint
 10
1621.217145476919
 20
2219.58041263244
 30
0.0
  0
POINT
  5
7CC1
330
8220
100
AcDbEntity
  8
1
100
AcDbPoint
 10
1621.217145476919
 20
2239.58041263244
 30
0.0
  0
POINT
  5
7CC2
330
8220
100
AcDbEntity
  8
1
100
AcDbPoint
 10
1621.217145476919
 20
2219.58041263244
 30
0.0
  0
LINE
  5
7CC6
330
8220
100
AcDbEntity
  8
1
100
AcDbLine
 10
3671.217145476919
 20
5154.269064037404
 30
0.0
 11
1621.217145476919
 21
5154.269064037402
 31
0.0
  0
LINE
  5
7CC7
330
8220
100
AcDbEntity
  8
1
100
AcDbLine
 10
2871.217145476919
 20
6659.269064037404
 30
0.0
 11
1621.217145476919
 21
6659.269064037402
 31
0.0
  0
LINE
  5
7CC8
330
8220
100
AcDbEntity
  8
1
100
AcDbLine
 10
1621.217145476919
 20
6659.269064037402
 30
0.0
 11
1621.217145476919
 21
5154.269064037402
 31
0.0
  0
LINE
  5
7CC9
330
8220
100
AcDbEntity
  8
1
100
AcDbLine
 10
3671.217145476919
 20
6004.269064037405
 30
0.0
 11
3671.217145476919
 21
5154.269064037404
 31
0.0
  0
LINE
  5
7CCA
330
8220
100
AcDbEntity
  8
1
100
AcDbLine
 10
2871.217145476919
 20
6659.269064037404
 30
0.0
 11
2871.217145476919
 21
6606.269064037404
 31
0.0
  0
LINE
  5
7CCB
330
8220
100
AcDbEntity
  8
1
100
AcDbLine
 10
3671.217145476919
 20
6004.269064037404
 30
0.0
 11
3114.217145476919
 21
6004.269064037404
 31
0.0
  0
LINE
  5
7CCC
330
8220
100
AcDbEntity
  8
2
100
AcDbLine
 10
3396.21714547692
 20
5898.304427725777
 30
0.0
 11
3396.21714547692
 21
4889.571182947095
 31
0.0
  0
DIMENSION
  5
7CCD
330
8220
100
AcDbEntity
  8
3
100
AcDbDimension
  2
*D8
 10
1621.217145476919
 20
6880.573001265123
 30
0.0
 11
2246.217145476919
 21
6880.573001265123
 31
0.0
 12
1150.184470972464
 22
2283.237464676163
 32
0.0
 70
   128
 71
     5
 42
-1.0
  3
Standard
100
AcDbAlignedDimension
 13
2871.217145476919
 23
6659.269064037404
 33
0.0
 14
1621.217145476919
 24
6659.269064037402
 34
0.0
100
AcDbRotatedDimension
1001
ACAD
1000
DSTYLE
1002
{
1070
    40
1040
30.0
1002
}
  0
DIMENSION
  5
7CCF
330
8220
100
AcDbEntity
  8
3
100
AcDbDimension
  2
*D10
 10
3893.265212977529
 20
5154.269064037404
 30
0.0
 11
3893.265212977529
 21
5579.269064037404
 31
0.0
 12
1150.184470972464
 22
2283.237464676163
 32
0.0
 70
   128
 71
     5
 42
-1.0
  3
Standard
100
AcDbAlignedDimension
 13
3671.217145476919
 23
6004.269064037405
 33
0.0
 14
3671.217145476919
 24
5154.269064037404
 34
0.0
 50
270.0
100
AcDbRotatedDimension
1001
ACAD
1000
DSTYLE
1002
{
1070
    40
1040
30.0
1002
}
  0
DIMENSION
  5
7CD0
330
8220
100
AcDbEntity
  8
3
100
AcDbDimension
  2
*D11
 10
1222.573007467985
 20
5154.269064037402
 30
0.0
 11
1162.573007467985
 21
5906.769064037402
 31
0.0
 12
1150.184470972464
 22
2283.237464676163
 32
0.0
 71
     5
 42
-1.0
  3
Standard
100
AcDbAlignedDimension
 13
1621.217145476919
 23
6659.269064037402
 33
0.0
 14
1621.217145476919
 24
5154.269064037402
 34
0.0
 50
270.0
100
AcDbRotatedDimension
1001
ACAD
1000
DSTYLE
1002
{
1070
    40
1040
30.0
1002
}
  0
DIMENSION
  5
7CD4
330
8220
100
AcDbEntity
  8
3
100
AcDbDimension
  2
*D15
 10
5502.87334286621
 20
4423.575164054367
 30
0.0
 11
4877.873342866209
 21
4483.575164054367
 31
0.0
 12
-6.231278207284049
 22
2821.520109796693
 32
0.0
 71
     5
 42
-1.0
  3
Standard
100
AcDbAlignedDimension
 13
4252.873342866208
 23
4143.894730286073
 33
0.0
 14
5502.87334286621
 24
4140.616178090616
 34
0.0
100
AcDbRotatedDimension
1001
ACAD
1000
DSTYLE
1002
{
1070
    40
1040
30.0
1002
}
  0
DIMENSION
  5
7CD5
330
8220
100
AcDbEntity
  8
3
100
AcDbDimension
  2
*D16
 10
5847.24156323752
 20
3979.580412632439
 30
0.0
 11
5787.241563237519
 21
3449.580412632439
 31
0.0
 12
-6.231278207284049
 22
2821.520109796693
 32
0.0
  1
\U+03C6<>
 71
     5
 42
-1.0
  3
Standard
100
AcDbAlignedDimension
 13
5508.373342866208
 23
2919.580412632439
 33
0.0
 14
5508.373342866208
 24
3979.580412632439
 34
0.0
 50
90.0
100
AcDbRotatedDimension
1001
ACAD
1000
DSTYLE
1002
{
1070
    40
1040
30.0
1002
}
  0
LINE
  5
7CD6
330
8220
100
AcDbEntity
  8
2
100
AcDbLine
 10
3788.349431696434
 20
2574.580412632438
 30
0.0
 11
4665.283410518069
 21
2574.580412632438
 31
0.0
  0
ARC
  5
7CD7
330
8220
100
AcDbEntity
  8
1
100
AcDbCircle
 10
2246.217145476921
 20
3449.580412632438
 30
0.0
 40
280.0
100
AcDbArc
 50
67.34404266857237
 51
252.9700165845115
  0
ARC
  5
7CD8
330
8220
100
AcDbEntity
  8
1
100
AcDbCircle
 10
3396.217145476919
 20
2574.580412632438
 30
0.0
 40
220.0
100
AcDbArc
 50
252.9700165845115
 51
67.34404266857237
  0
LINE
  5
7CD9
330
8220
100
AcDbEntity
  8
1
100
AcDbLine
 10
2354.072244707609
 20
3707.97406110302
 30
0.0
 11
3480.960437729604
 21
2777.60399357361
 31
0.0
  0
LINE
  5
7CDA
330
8220
100
AcDbEntity
  8
1
100
AcDbLine
 10
2164.212955276322
 20
3181.857957859695
 30
0.0
 11
3331.785281747877
 21
2364.227055310997
 31
0.0
  0
LINE
  5
7CDB
330
8220
100
AcDbEntity
  8
1
100
AcDbLine
 10
2308.663648733024
 20
3602.415108402364
 30
0.0
 11
3439.449340038838
 21
2680.389048165464
 31
0.0
  0
LINE
  5
7CDC
330
8220
100
AcDbEntity
  8
1
100
AcDbLine
 10
2196.676216155823
 20
3292.088488007709
 30
0.0
 11
3361.919579023852
 21
2465.547541738394
 31
0.0
  0
INSERT
  5
7CDD
330
8220
100
AcDbEntity
  8
0
100
AcDbBlockReference
  2
YA_N
 10
742.6405419924267
 20
-7350.772430041375
 30
0.0
  0
INSERT
  5
7CDF
330
8220
100
AcDbEntity
  8
0
100
AcDbBlockReference
  2
YA_N
 10
2.995684825677016
 20
-7626.802696743742
 30
0.0
 41
20.0
 42
20.0
 43
20.0
  0
INSERT
  5
7CE1
330
8220
100
AcDbEntity
  8
0
100
AcDbBlockReference
  2
YA_N
 10
699.9059132844049
 20
-7054.118742438055
 30
0.0
 41
20.0
 42
20.0
 43
20.0
  0
INSERT
  5
7CE3
330
8220
100
AcDbEntity
  8
0
100
AcDbBlockReference
  2
YA_N
 10
814.1254386385663
 20
-7130.460452277301
 30
0.0
 41
20.0
 42
20.0
 43
20.0
  0
ARC
  5
7CE5
330
8220
100
AcDbEntity
  8
1
100
AcDbCircle
 10
2246.217145476921
 20
3449.580412632438
 30
0.0
 40
599.0
100
AcDbArc
 50
180.0
 51
184.2124990779144
  0
CIRCLE
  5
7CE6
330
8220
100
AcDbEntity
  8
1
100
AcDbCircle
 10
2246.217145476921
 20
3449.580412632438
 30
0.0
 40
530.0
  0
CIRCLE
  5
7CE7
330
8220
100
AcDbEntity
  8
1
100
AcDbCircle
 10
2246.217145476921
 20
3449.580412632438
 30
0.0
 40
580.0
  0
LINE
  5
7CE8
330
8220
100
AcDbEntity
  8
1
100
AcDbLine
 10
5555.87334286621
 20
2219.580412632439
 30
0.0
 11
5555.87334286621
 21
2119.580412632439
 31
0.0
  0
LINE
  5
7CE9
330
8220
100
AcDbEntity
  8
1
100
AcDbLine
 10
4050.873342866208
 20
2219.580412632439
 30
0.0
 11
4050.873342866209
 21
2119.580412632439
 31
0.0
  0
LINE
  5
7CEA
330
8220
100
AcDbEntity
  8
1
100
AcDbLine
 10
3616.21714547692
 20
4921.269064037404
 30
0.0
 11
1966.217145476921
 21
4921.269064037402
 31
0.0
  0
LINE
  5
7CEB
330
8220
100
AcDbEntity
  8
1
100
AcDbLine
 10
3616.21714547692
 20
5241.269064037403
 30
0.0
 11
1966.217145476921
 21
5241.269064037402
 31
0.0
  0
LINE
  5
7CEC
330
8220
100
AcDbEntity
  8
1
100
AcDbLine
 10
1966.217145476921
 20
4921.269064037402
 30
0.0
 11
1966.217145476921
 21
5241.269064037402
 31
0.0
  0
LINE
  5
7CED
330
8220
100
AcDbEntity
  8
1
100
AcDbLine
 10
3616.21714547692
 20
4921.269064037404
 30
0.0
 11
3616.21714547692
 21
5241.269064037403
 31
0.0
  0
LINE
  5
7CEE
330
8220
100
AcDbEntity
  8
1
100
AcDbLine
 10
3510.517145476921
 20
5086.269064037404
 30
0.0
 11
3510.517145476921
 21
5196.269064037404
 31
0.0
  0
LINE
  5
7CEF
330
8220
100
AcDbEntity
  8
1
100
AcDbLine
 10
3281.917145476921
 20
5086.269064037402
 30
0.0
 11
3281.917145476921
 21
5196.269064037403
 31
0.0
  0
LINE
  5
7CF0
330
8220
100
AcDbEntity
  8
1
100
AcDbLine
 10
2081.117145476921
 20
5086.269064037402
 30
0.0
 11
2081.117145476921
 21
5196.269064037402
 31
0.0
  0
LINE
  5
7CF1
330
8220
100
AcDbEntity
  8
1
100
AcDbLine
 10
2411.317145476921
 20
5086.269064037402
 30
0.0
 11
2411.317145476921
 21
5196.269064037402
 31
0.0
  0
LINE
  5
7CF2
330
8220
100
AcDbEntity
  8
1
100
AcDbLine
 10
3510.517145476921
 20
5196.269064037404
 30
0.0
 11
3281.917145476921
 21
5196.269064037404
 31
0.0
  0
LINE
  5
7CF3
330
8220
100
AcDbEntity
  8
1
100
AcDbLine
 10
3510.517145476921
 20
5086.269064037404
 30
0.0
 11
3281.917145476921
 21
5086.269064037404
 31
0.0
  0
LINE
  5
7CF4
330
8220
100
AcDbEntity
  8
1
100
AcDbLine
 10
2411.317145476921
 20
5086.269064037402
 30
0.0
 11
2081.117145476921
 21
5086.269064037402
 31
0.0
  0
LINE
  5
7CF5
330
8220
100
AcDbEntity
  8
1
100
AcDbLine
 10
2411.317145476921
 20
5196.269064037402
 30
0.0
 11
2081.117145476921
 21
5196.269064037402
 31
0.0
  0
LINE
  5
7CF6
330
8220
100
AcDbEntity
  8
1
100
AcDbLine
 10
3213.71714547692
 20
5762.769064037405
 30
0.0
 11
3213.71714547692
 21
5201.269064037404
 31
0.0
  0
LINE
  5
7CF7
330
8220
100
AcDbEntity
  8
1
100
AcDbLine
 10
3578.71714547692
 20
5762.769064037405
 30
0.0
 11
3578.71714547692
 21
5201.269064037404
 31
0.0
  0
LINE
  5
7CF8
330
8220
100
AcDbEntity
  8
1
100
AcDbLine
 10
3578.71714547692
 20
5762.769064037404
 30
0.0
 11
3213.71714547692
 21
5762.769064037404
 31
0.0
  0
LINE
  5
7CF9
330
8220
100
AcDbEntity
  8
1
100
AcDbLine
 10
3578.71714547692
 20
5201.269064037404
 30
0.0
 11
3213.71714547692
 21
5201.269064037404
 31
0.0
  0
LINE
  5
7CFA
330
8220
100
AcDbEntity
  8
1
100
AcDbLine
 10
3372.21714547692
 20
5201.269064037404
 30
0.0
 11
3372.21714547692
 21
5196.269064037404
 31
0.0
  0
LINE
  5
7CFB
330
8220
100
AcDbEntity
  8
1
100
AcDbLine
 10
3420.21714547692
 20
5201.269064037404
 30
0.0
 11
3420.21714547692
 21
5196.269064037404
 31
0.0
  0
LINE
  5
7CFC
330
8220
100
AcDbEntity
  8
1
100
AcDbLine
 10
4631.37334286621
 20
2757.080412632439
 30
0.0
 11
4069.87334286621
 21
2757.080412632439
 31
0.0
  0
LINE
  5
7CFD
330
8220
100
AcDbEntity
  8
1
100
AcDbLine
 10
4631.37334286621
 20
2392.080412632439
 30
0.0
 11
4069.87334286621
 21
2392.080412632439
 31
0.0
  0
LINE
  5
7CFE
330
8220
100
AcDbEntity
  8
1
100
AcDbLine
 10
4069.87334286621
 20
2757.080412632439
 30
0.0
 11
4069.87334286621
 21
2392.080412632439
 31
0.0
  0
LINE
  5
7CFF
330
8220
100
AcDbEntity
  8
1
100
AcDbLine
 10
4069.87334286621
 20
2598.580412632439
 30
0.0
 11
4064.873342866209
 21
2598.580412632439
 31
0.0
  0
LINE
  5
7D00
330
8220
100
AcDbEntity
  8
1
100
AcDbLine
 10
4069.87334286621
 20
2550.580412632439
 30
0.0
 11
4064.873342866209
 21
2550.580412632439
 31
0.0
  0
DIMENSION
  5
7D01
330
8220
100
AcDbEntity
  8
3
100
AcDbDimension
  2
*D17
 10
3671.217145476919
 20
4554.871132702394
 30
0.0
 11
2618.71714547692
 21
4614.871132702393
 31
0.0
 12
1150.184470972464
 22
2821.520109796693
 32
0.0
 71
     5
 42
-1.0
  3
Standard
100
AcDbAlignedDimension
 13
1566.217145476919
 23
3425.459966484921
 33
0.0
 14
3671.217145476919
 24
2339.580412632437
 34
0.0
100
AcDbRotatedDimension
1001
ACAD
1000
DSTYLE
1002
{
1070
    40
1040
30.0
1002
}
  0
LINE
  5
7D02
330
8220
100
AcDbEntity
  8
1
100
AcDbLine
 10
1566.217145476919
 20
6656.269064037402
 30
0.0
 11
1566.217145476919
 21
5306.269064037402
 31
0.0
  0
LINE
  5
7D03
330
8220
100
AcDbEntity
  8
1
100
AcDbLine
 10
3114.217145476919
 20
6606.269064037404
 30
0.0
 11
3114.217145476919
 21
5356.269064037402
 31
0.0
  0
LINE
  5
7D04
330
8220
100
AcDbEntity
  8
1
100
AcDbLine
 10
3114.217145476919
 20
5356.269064037402
 30
0.0
 11
1566.217145476919
 21
5356.269064037402
 31
0.0
  0
LINE
  5
7D05
330
8220
100
AcDbEntity
  8
1
100
AcDbLine
 10
3114.217145476919
 20
6606.269064037404
 30
0.0
 11
1566.217145476919
 21
6606.269064037403
 31
0.0
  0
LINE
  5
7D06
330
8220
100
AcDbEntity
  8
1
100
AcDbLine
 10
1570.217145476919
 20
6656.269064037402
 30
0.0
 11
1566.217145476919
 21
6656.269064037402
 31
0.0
  0
LINE
  5
7D07
330
8220
100
AcDbEntity
  8
1
100
AcDbLine
 10
1570.217145476919
 20
5306.269064037402
 30
0.0
 11
1566.217145476919
 21
5306.269064037402
 31
0.0
  0
LINE
  5
7D08
330
8220
100
AcDbEntity
  8
1
100
AcDbLine
 10
1570.217145476919
 20
6656.269064037402
 30
0.0
 11
1570.217145476919
 21
5306.269064037402
 31
0.0
  0
LINE
  5
7D09
330
8220
100
AcDbEntity
  8
1
100
AcDbLine
 10
2213.717145476919
 20
5356.269064037403
 30
0.0
 11
2213.717145476919
 21
5196.269064037403
 31
0.0
  0
LINE
  5
7D0A
330
8220
100
AcDbEntity
  8
1
100
AcDbLine
 10
2278.717145476919
 20
5356.269064037403
 30
0.0
 11
2278.717145476919
 21
5196.269064037403
 31
0.0
  0
LINE
  5
7D0B
330
8220
100
AcDbEntity
  8
1
100
AcDbLine
 10
4234.873342866207
 20
3417.080412632439
 30
0.0
 11
4252.873342866208
 21
3417.080412632439
 31
0.0
  0
DIMENSION
  5
7D0C
330
8220
100
AcDbEntity
  8
3
100
AcDbDimension
  2
*D18
 10
3671.217145476919
 20
6880.573001265123
 30
0.0
 11
3271.217145476919
 21
6940.573001265121
 31
0.0
 12
1150.184470972464
 22
2283.237464676163
 32
0.0
 71
     5
 42
-1.0
  3
Standard
100
AcDbAlignedDimension
 13
2871.217145476919
 23
6659.269064037404
 33
0.0
 14
3671.217145476919
 24
6004.269064037404
 34
0.0
100
AcDbRotatedDimension
1001
ACAD
1000
DSTYLE
1002
{
1070
    40
1040
30.0
1002
}
  0
LINE
  5
7D13
330
8220
100
AcDbEntity
  8
1
100
AcDbLine
 10
4252.873342866208
 20
4169.580412632439
 30
0.0
 11
5502.87334286621
 21
4169.580412632439
 31
0.0
  0
LINE
  5
7D14
330
8220
100
AcDbEntity
  8
1
100
AcDbLine
 10
4539.951775067672
 20
2375.580412632439
 30
0.0
 11
5502.87334286621
 21
2375.580412632439
 31
0.0
  0
DIMENSION
  5
7D18
330
8220
100
AcDbEntity
  8
3
100
AcDbDimension
  2
*D19
 10
925.0456777180804
 20
3449.580412632438
 30
0.0
 11
865.0456777180805
 21
3809.580412632438
 31
0.0
 12
1150.184470972464
 22
2821.520109796693
 32
0.0
 71
     5
 42
-1.0
  3
Standard
100
AcDbAlignedDimension
 13
2320.217145476919
 23
4169.580412632439
 33
0.0
 14
1506.601162979292
 24
3449.580412632438
 34
0.0
 50
270.0
100
AcDbRotatedDimension
1001
ACAD
1000
DSTYLE
1002
{
1070
    40
1040
30.0
1002
}
  0
DIMENSION
  5
7D1B
330
8220
100
AcDbEntity
  8
3
100
AcDbDimension
  2
*D21
 10
925.0456777180804
 20
2119.58041263244
 30
0.0
 11
850.0456777180804
 21
1862.437555489583
 31
0.0
 71
     5
 42
-1.0
  3
Standard
100
AcDbAlignedDimension
 13
1621.217145476919
 23
2219.58041263244
 33
0.0
 14
1621.217145476919
 24
2119.58041263244
 34
0.0
 50
270.0
100
AcDbRotatedDimension
1001
ACAD
1000
DSTYLE
1002
{
1070
   287
1070
     3
1070
   287
1070
     3
1070
    40
1040
30.0
1070
   143
1040
0.039
1070
   172
1070
     1
1070
   271
1070
     0
1070
   279
1070
     0
1070
   288
1070
     1
1070
     6
1000
DOT
1002
}
  0
LINE
  5
7D1D
330
8220
100
AcDbEntity
  8
1
100
AcDbLine
 10
4631.37334286621
 20
2757.080412632439
 30
0.0
 11
4631.37334286621
 21
2392.080412632439
 31
0.0
  0
LINE
  5
7D1E
330
8220
100
AcDbEntity
  8
1
100
AcDbLine
 10
4539.951775067672
 20
2392.080412632439
 30
0.0
 11
4539.951775067672
 21
2339.580412632439
 31
0.0
  0
LINE
  5
7D1F
330
8220
100
AcDbEntity
  8
1
100
AcDbLine
 10
4157.797422810499
 20
2392.080412632439
 30
0.0
 11
4157.797422810498
 21
2339.580412632439
 31
0.0
  0
LINE
  5
7F63
330
8220
100
AcDbEntity
  8
4
100
AcDbLine
 10
5550.0
 20
1500.0
 30
0.0
 11
5550.0
 21
900.0
 31
0.0
  0
LINE
  5
7F64
330
8220
100
AcDbEntity
  8
4
100
AcDbLine
 10
3450.0
 20
1500.0
 30
0.0
 11
3450.0
 21
900.0
 31
0.0
  0
LINE
  5
7F65
330
8220
100
AcDbEntity
  8
4
100
AcDbLine
 10
1950.0
 20
1500.0
 30
0.0
 11
1950.0
 21
900.0
 31
0.0
  0
LINE
  5
7F68
330
8220
100
AcDbEntity
  8
4
100
AcDbLine
 10
1950.0
 20
900.0
 30
0.0
 11
5550.0
 21
900.0
 31
0.0
  0
LINE
  5
7F69
330
8220
100
AcDbEntity
  8
4
100
AcDbLine
 10
1950.0
 20
1200.0
 30
0.0
 11
5550.0
 21
1200.0
 31
0.0
  0
TEXT
  5
7F6A
330
8220
100
AcDbEntity
  8
4
100
AcDbText
 10
2065.506242540704
 20
1294.629077599838
 30
0.0
 40
150.0
  1
機器名称
100
AcDbText
  0
TEXT
  5
7F6B
330
8220
100
AcDbEntity
  8
4
100
AcDbText
 10
2058.774318074392
 20
964.9354701960326
 30
0.0
 40
150.0
  1
機器型番
100
AcDbText
  0
TEXT
  5
7F6C
330
8220
100
AcDbEntity
  8
4
100
AcDbText
 10
3533.036236462995
 20
1267.715306872705
 30
0.0
 40
150.0
  1
ミツヤ多翼送風機
100
AcDbText
  0
TEXT
  5
7F6D
330
8220
100
AcDbEntity
  8
4
100
AcDbText
 10
3559.963486756442
 20
951.4787528398301
 30
0.0
 40
150.0
  1
MF#6-5
100
AcDbText
  0
TEXT
  5
7F6F
330
8220
100
AcDbEntity
  8
4
100
AcDbText
 10
2397.53107104676
 20
7150.286523997547
 30
0.0
 40
161.9999999999998
  1
床置防振ベット
100
AcDbText
  0
TEXT
  5
7F70
330
8220
100
AcDbEntity
  8
4
100
AcDbText
 10
948.5027799883393
 20
7601.642928597894
 30
0.0
 40
216.0
  1
遠心式両吸込両持多翼ファン
100
AcDbText
  0
LINE
  5
7F71
330
8220
100
AcDbEntity
  8
4
100
AcDbLine
 10
750.0
 20
7408.226262794413
 30
0.0
 11
5550.0
 21
7408.226262794413
 31
0.0
  0
LINE
  5
7F72
330
8220
100
AcDbEntity
  8
4
100
AcDbLine
 10
750.0
 20
8008.226262794414
 30
0.0
 11
5550.0
 21
8008.226262794414
 31
0.0
  0
LINE
  5
7F73
330
8220
100
AcDbEntity
  8
4
100
AcDbLine
 10
1950.0
 20
1500.0
 30
0.0
 11
5550.0
 21
1500.0
 31
0.0
  0
LINE
  5
7F74
330
8220
100
AcDbEntity
  8
4
100
AcDbLine
 10
750.0
 20
8008.226262794414
 30
0.0
 11
750.0
 21
7408.226262794413
 31
0.0
  0
TEXT
  5
7F75
330
8220
100
AcDbEntity
  8
4
100
AcDbText
 10
1089.954574318652
 20
7146.958432639029
 30
0.0
 40
161.9999999999998
  1
右回転左横向
100
AcDbText
  0
TEXT
  5
7F76
330
8220
100
AcDbEntity
  8
4
100
AcDbText
 10
4406.908677747869
 20
8118.183244485924
 30
0.0
 40
168.0
  1
No.
100
AcDbText
  0
TEXT
  5
7F77
330
8220
100
AcDbEntity
  8
4
100
AcDbText
 10
3933.888187800039
 20
7150.286523997547
 30
0.0
 40
161.9999999999998
  1
縮尺：1/30
100
AcDbText
  0
LINE
  5
7F78
330
8220
100
AcDbEntity
  8
4
100
AcDbLine
 10
5550.0
 20
8008.226262794414
 30
0.0
 11
5550.0
 21
7408.226262794413
 31
0.0
  0
LINE
  5
7F79
330
8220
100
AcDbEntity
  8
4
100
AcDbLine
 10
6300.0
 20
8850.0
 30
0.0
 11
6300.0
 21
8850.0
 31
0.0
  0
LINE
  5
7F7A
330
8220
100
AcDbEntity
  8
4
100
AcDbLine
 10
4321.852267079594
 20
8043.790749376205
 30
0.0
 11
4321.852267079594
 21
8359.956784649257
 31
0.0
  0
LINE
  5
7F7B
330
8220
100
AcDbEntity
  8
4
100
AcDbLine
 10
4321.852267079594
 20
8359.956784649257
 30
0.0
 11
5550.0
 21
8359.956784649257
 31
0.0
  0
LINE
  5
7F7C
330
8220
100
AcDbEntity
  8
4
100
AcDbLine
 10
5550.0
 20
8359.956784649257
 30
0.0
 11
5550.0
 21
8043.790749376205
 31
0.0
  0
LINE
  5
7F7D
330
8220
100
AcDbEntity
  8
4
100
AcDbLine
 10
5550.0
 20
8043.790749376205
 30
0.0
 11
4321.852267079594
 21
8043.790749376205
 31
0.0
  0
LINE
  5
7F7E
330
8220
100
AcDbEntity
  8
4
100
AcDbLine
 10
0.0
 20
0.0
 30
0.0
 11
0.0
 21
8850.0
 31
0.0
  0
LINE
  5
7F7F
330
8220
100
AcDbEntity
  8
4
100
AcDbLine
 10
0.0
 20
8850.0
 30
0.0
 11
6300.0
 21
8850.0
 31
0.0
  0
LINE
  5
7F80
330
8220
100
AcDbEntity
  8
4
100
AcDbLine
 10
6300.0
 20
8850.0
 30
0.0
 11
6300.0
 21
0.0
 31
0.0
  0
LINE
  5
7F81
330
8220
100
AcDbEntity
  8
4
100
AcDbLine
 10
6300.0
 20
0.0
 30
0.0
 11
0.0
 21
0.0
 31
0.0
  0
DIMENSION
  5
8097
330
8220
100
AcDbEntity
  8
3
100
AcDbDimension
  2
*D23
 10
2246.21714547692
 20
1918.819914238815
 30
0.0
 11
1933.71714547692
 21
1993.819914238815
 31
0.0
 12
0.0
 22
7.0
 32
0.0
 71
     5
 42
-1.0
  3
Standard
100
AcDbAlignedDimension
 13
1621.217145476919
 23
2119.58041263244
 33
0.0
 14
2246.21714547692
 24
2119.58041263244
 34
0.0
100
AcDbRotatedDimension
1001
ACAD
1000
DSTYLE
1002
{
1070
   172
1070
     1
1070
    40
1040
30.0
1070
    42
1040
1.0
1070
   271
1070
     0
1070
   143
1040
0.039
1002
}
  0
DIMENSION
  5
80A4
330
8220
100
AcDbEntity
  8
3
100
AcDbDimension
  2
*D24
 10
3671.217145476919
 20
1918.819914238815
 30
0.0
 11
2958.71714547692
 21
1993.819914238815
 31
0.0
 12
0.0
 22
7.0
 32
0.0
 71
     5
 42
-1.0
  3
Standard
100
AcDbAlignedDimension
 13
2246.21714547692
 23
2119.58041263244
 33
0.0
 14
3671.217145476919
 24
2119.58041263244
 34
0.0
100
AcDbRotatedDimension
1001
ACAD
1000
DSTYLE
1002
{
1070
   172
1070
     1
1070
    40
1040
30.0
1070
    42
1040
1.0
1070
   271
1070
     0
1070
   143
1040
0.039
1002
}
  0
DIMENSION
  5
80B1
330
8220
100
AcDbEntity
  8
3
100
AcDbDimension
  2
*D25
 10
4877.873342866208
 20
1918.819914238815
 30
0.0
 11
4464.373342866209
 21
1993.819914238815
 31
0.0
 12
0.0
 22
7.0
 32
0.0
 71
     5
 42
-1.0
  3
Standard
100
AcDbAlignedDimension
 13
4050.873342866209
 23
2119.580412632439
 33
0.0
 14
4877.873342866208
 24
2119.580412632439
 34
0.0
100
AcDbRotatedDimension
1001
ACAD
1000
DSTYLE
1002
{
1070
   172
1070
     1
1070
    40
1040
30.0
1070
    42
1040
1.0
1070
   271
1070
     0
1070
   143
1040
0.039
1002
}
  0
DIMENSION
  5
80BE
330
8220
100
AcDbEntity
  8
3
100
AcDbDimension
  2
*D26
 10
5555.87334286621
 20
1918.819914238815
 30
0.0
 11
5216.873342866209
 21
1993.819914238815
 31
0.0
 12
0.0
 22
7.0
 32
0.0
 71
     5
 42
-1.0
  3
Standard
100
AcDbAlignedDimension
 13
4877.873342866208
 23
2119.580412632439
 33
0.0
 14
5555.87334286621
 24
2119.580412632439
 34
0.0
100
AcDbRotatedDimension
1001
ACAD
1000
DSTYLE
1002
{
1070
   172
1070
     1
1070
    40
1040
30.0
1070
    42
1040
1.0
1070
   271
1070
     0
1070
   143
1040
0.039
1002
}
  0
DIMENSION
  5
810B
330
8220
100
AcDbEntity
  8
3
100
AcDbDimension
  2
*D29
 10
924.398024867405
 20
2239.58041263244
 30
0.0
 11
780.8265962959765
 21
2229.58041263244
 31
0.0
  1
 <>
 71
     5
 42
-1.0
  3
Standard
100
AcDbAlignedDimension
 13
1621.217145476919
 23
2219.58041263244
 33
0.0
 14
1621.217145476919
 24
2239.58041263244
 34
0.0
 50
90.0
100
AcDbRotatedDimension
1001
ACAD
1000
DSTYLE
1002
{
1070
   172
1070
     1
1070
    76
1070
     1
1070
    75
1070
     1
1070
    40
1040
30.0
1070
     3
1000
(<>)
1070
    42
1040
1.0
1070
   271
1070
     0
1070
     7
1000
_NONE
1070
     6
1000
_NONE
1070
   143
1040
0.039
1002
}
  0
DIMENSION
  5
8118
330
8220
100
AcDbEntity
  8
3
100
AcDbDimension
  2
*D30
 10
645.4262814642206
 20
4169.580412632439
 30
0.0
 11
546.8548528927921
 21
3144.580412632439
 31
0.0
 71
     5
 42
-1.0
  3
Standard
100
AcDbAlignedDimension
 13
1621.217145476919
 23
2119.58041263244
 33
0.0
 14
2290.217145476919
 24
4169.580412632439
 34
0.0
 50
90.0
100
AcDbRotatedDimension
1001
ACAD
1000
DSTYLE
1002
{
1070
   172
1070
     1
1070
    40
1040
30.0
1070
     3
1000
(<>)
1070
    42
1040
1.0
1070
   271
1070
     0
1070
   143
1040
0.039
1002
}
  0
DIMENSION
  5
826F
330
8220
100
AcDbEntity
  8
3
100
AcDbDimension
  2
*D31
 10
4877.873342866209
 20
4620.898419389079
 30
0.0
 11
4347.873342866207
 21
4719.469847960508
 31
0.0
 70
    32
 71
     5
 42
1060.000000000004
  3
IGA
100
AcDbAlignedDimension
 13
3817.873342866204
 23
3729.580412632439
 33
0.0
 14
4877.873342866209
 24
4528.575164054368
 34
0.0
100
AcDbRotatedDimension
1001
ACAD
1000
DSTYLE
1002
{
1070
     3
1000
(<>)
1070
    40
1040
30.0
1070
    42
1040
1.0
1070
   143
1040
0.039
1070
   172
1070
     1
1070
   271
1070
     4
1070
   272
1070
     4
1070
   279
1070
     0
1070
   284
1070
     0
1070
   285
1070
     0
1070
   286
1070
     0
1070
   341
1005
8234
1070
   343
1005
8234
1070
   344
1005
8234
1002
}
  0
DIMENSION
  5
827C
330
8220
100
AcDbEntity
  8
3
100
AcDbDimension
  2
*D32
 10
5657.87334286621
 20
4620.898419389079
 30
0.0
 11
5267.873342866209
 21
4719.469847960508
 31
0.0
 70
    32
 71
     5
 42
780.0000000000009
  3
IGA
100
AcDbAlignedDimension
 13
4877.873342866209
 23
4528.575164054368
 33
0.0
 14
5657.87334286621
 24
3413.780412632439
 34
0.0
100
AcDbRotatedDimension
1001
ACAD
1000
DSTYLE
1002
{
1070
     3
1000
(<>)
1070
    40
1040
30.0
1070
    42
1040
1.0
1070
   143
1040
0.039
1070
   172
1070
     1
1070
   271
1070
     4
1070
   272
1070
     4
1070
   279
1070
     1
1070
   284
1070
     0
1070
   285
1070
     0
1070
   286
1070
     0
1070
   341
1005
8234
1070
   343
1005
8234
1070
   344
1005
8234
1002
}
  0
DIMENSION
  5
82BD
330
8220
100
AcDbEntity
  8
3
100
AcDbDimension
  2
*D34
 10
3671.217145476919
 20
4777.444150089388
 30
0.0
 11
2646.217145476919
 21
4852.444150089389
 31
0.0
 70
    32
 71
     5
 42
2050.0
  3
IGA
100
AcDbAlignedDimension
 13
1621.217145476919
 23
5154.269064037402
 33
0.0
 14
3671.217145476919
 24
5154.269064037404
 34
0.0
100
AcDbRotatedDimension
1001
ACAD
1000
DSTYLE
1002
{
1070
    40
1040
30.0
1070
    42
1040
1.0
1070
   143
1040
0.039
1070
   172
1070
     1
1070
   271
1070
     4
1070
   272
1070
     4
1070
   279
1070
     0
1070
   284
1070
     0
1070
   285
1070
     0
1070
   286
1070
     0
1070
   341
1005
8234
1070
   343
1005
8234
1070
   344
1005
8234
1002
}
  0
DIMENSION
  5
82CA
330
8220
100
AcDbEntity
  8
3
100
AcDbDimension
  2
*D35
 10
924.398024867405
 20
2239.58041263244
 30
0.0
 11
849.3980248674048
 21
2844.580412632439
 31
0.0
 70
    32
 71
     5
 42
1209.999999999998
  3
IGA
100
AcDbAlignedDimension
 13
1506.601162979292
 23
3449.580412632438
 33
0.0
 14
1621.217145476919
 24
2239.58041263244
 34
0.0
 50
90.0
100
AcDbRotatedDimension
1001
ACAD
1000
DSTYLE
1002
{
1070
    40
1040
30.0
1070
    42
1040
1.0
1070
   143
1040
0.039
1070
   172
1070
     1
1070
   271
1070
     4
1070
   272
1070
     4
1070
   279
1070
     0
1070
   284
1070
     0
1070
   285
1070
     0
1070
   286
1070
     0
1070
   341
1005
8234
1070
   343
1005
8234
1070
   344
1005
8234
1002
}
  0
ENDSEC
  0
SECTION
  2
OBJECTS
  0
DICTIONARY
  5
81BD
330
0
100
AcDbDictionary
281
     1
  3
ACAD_CIP_PREVIOUS_PRODUCT_INFO
350
826E
  3
ACAD_COLOR
350
8213
  3
ACAD_DETAILVIEWSTYLE
350
821A
  3
ACAD_GROUP
350
81BE
  3
ACAD_LAYOUT
350
8212
  3
ACAD_MATERIAL
350
81C1
  3
ACAD_MLEADERSTYLE
350
8216
  3
ACAD_MLINESTYLE
350
820F
  3
ACAD_PLOTSETTINGS
350
8211
  3
ACAD_PLOTSTYLENAME
350
81BF
  3
ACAD_SCALELIST
350
81F3
  3
ACAD_SECTIONVIEWSTYLE
350
8218
  3
ACAD_TABLESTYLE
350
8214
  3
ACAD_VISUALSTYLE
350
81DA
  3
ACDB_RECOMPOSE_DATA
350
8338
  3
AcDbVariableDictionary
350
82EA
  3
DWGPROPS
350
8339
  0
DICTIONARY
  5
82E0
330
8205
100
AcDbDictionary
280
     1
281
     1
  3
ADSK_XREC_LAYER_RECONCILED
360
82E1
  0
DICTIONARY
  5
82E2
330
8224
100
AcDbDictionary
280
     1
281
     1
  3
ADSK_XREC_LAYER_RECONCILED
360
82E3
  0
DICTIONARY
  5
82E4
330
8227
100
AcDbDictionary
280
     1
281
     1
  3
ADSK_XREC_LAYER_RECONCILED
360
82E5
  0
DICTIONARY
  5
82E6
330
8228
100
AcDbDictionary
280
     1
281
     1
  3
ADSK_XREC_LAYER_RECONCILED
360
82E7
  0
DICTIONARY
  5
82E8
330
8229
100
AcDbDictionary
280
     1
281
     1
  3
ADSK_XREC_LAYER_RECONCILED
360
82E9
  0
XRECORD
  5
826E
102
{ACAD_REACTORS
330
81BD
102
}
330
81BD
100
AcDbXrecord
280
     1
300
ACDLT
300
2015
300
INVLTS_F_S
  0
DICTIONARY
  5
8213
102
{ACAD_REACTORS
330
81BD
102
}
330
81BD
100
AcDbDictionary
281
     1
  0
DICTIONARY
  5
821A
102
{ACAD_REACTORS
330
81BD
102
}
330
81BD
100
AcDbDictionary
281
     1
  3
Imperial24
350
821B
  0
DICTIONARY
  5
81BE
102
{ACAD_REACTORS
330
81BD
102
}
330
81BD
100
AcDbDictionary
281
     1
  0
DICTIONARY
  5
8212
102
{ACAD_REACTORS
330
81BD
102
}
330
81BD
100
AcDbDictionary
281
     1
  3
Model
350
8223
  3
レイアウト1
350
821F
  0
DICTIONARY
  5
81C1
102
{ACAD_REACTORS
330
81BD
102
}
330
81BD
100
AcDbDictionary
281
     1
  3
ByBlock
350
81CA
  3
ByLayer
350
81C2
  3
Global
350
81D2
  0
DICTIONARY
  5
8216
102
{ACAD_REACTORS
330
81BD
102
}
330
81BD
100
AcDbDictionary
281
     1
  3
Standard
350
8217
  0
DICTIONARY
  5
820F
102
{ACAD_REACTORS
330
81BD
102
}
330
81BD
100
AcDbDictionary
281
     1
  3
Standard
350
8210
  0
DICTIONARY
  5
8211
102
{ACAD_REACTORS
330
81BD
102
}
330
81BD
100
AcDbDictionary
281
     1
  0
ACDBDICTIONARYWDFLT
  5
81BF
102
{ACAD_REACTORS
330
81BD
102
}
330
81BD
100
AcDbDictionary
281
     1
  3
Normal
350
81C0
100
AcDbDictionaryWithDefault
340
81C0
  0
DICTIONARY
  5
81F3
102
{ACAD_REACTORS
330
81BD
102
}
330
81BD
100
AcDbDictionary
281
     1
  3
A0
350
81F4
  3
A1
350
81F5
  3
A2
350
81F6
  3
A3
350
81F7
  3
A4
350
81F8
  3
A5
350
81F9
  3
A6
350
81FA
  3
A7
350
81FB
  3
A8
350
81FC
  3
A9
350
81FD
  3
B0
350
81FE
  3
B1
350
81FF
  3
B2
350
8200
  3
B3
350
8201
  3
B4
350
8202
  3
B5
350
8203
  3
B6
350
8204
  0
DICTIONARY
  5
8218
102
{ACAD_REACTORS
330
81BD
102
}
330
81BD
100
AcDbDictionary
281
     1
  3
Imperial24
350
8219
  0
DICTIONARY
  5
8214
102
{ACAD_REACTORS
330
81BD
102
}
330
81BD
100
AcDbDictionary
281
     1
  3
Standard
350
8215
  0
DICTIONARY
  5
81DA
102
{ACAD_REACTORS
330
81BD
102
}
330
81BD
100
AcDbDictionary
281
     1
  3
2dWireframe
350
81E0
  3
Basic
350
81DF
  3
Brighten
350
81E6
  3
ColorChange
350
81EA
  3
Conceptual
350
81E3
  3
Dim
350
81E5
  3
EdgeColorOff
350
81F2
  3
Facepattern
350
81E9
  3
Flat
350
81DB
  3
FlatWithEdges
350
81DC
  3
Gouraud
350
81DD
  3
GouraudWithEdges
350
81DE
  3
Hidden
350
81E2
  3
JitterOff
350
81F0
  3
Linepattern
350
81E8
  3
OverhangOff
350
81F1
  3
Realistic
350
81E4
  3
Shaded
350
81EF
  3
Shaded with edges
350
81EE
  3
Shades of Gray
350
81EB
  3
Sketchy
350
81EC
  3
Thicken
350
81E7
  3
Wireframe
350
81E1
  3
X-Ray
350
81ED
  0
XRECORD
  5
8338
102
{ACAD_REACTORS
330
81BD
102
}
330
81BD
100
AcDbXrecord
280
     1
 90
        1
330
8215
  0
DICTIONARY
  5
82EA
102
{ACAD_REACTORS
330
81BD
102
}
330
81BD
100
AcDbDictionary
281
     1
  3
CANNOSCALE
350
82EF
  3
CMLEADERSTYLE
350
82EC
  3
CTABLESTYLE
350
82EB
  3
CVIEWDETAILSTYLE
350
82ED
  3
CVIEWSECTIONSTYLE
350
82EE
  3
DIMASSOC
350
82F2
  3
INDEXCTL
350
82F1
  3
SORTENTS
350
82F0
  3
XCLIPFRAME
350
82F3
  0
XRECORD
  5
8339
102
{ACAD_REACTORS
330
81BD
102
}
330
81BD
100
AcDbXrecord
280
     1
  1
DWGPROPS COOKIE
  2

  3

  4

  6

  7

  8
yasukiyo.ogawa
  9

300
=
301
=
302
=
303
=
304
=
305
=
306
=
307
=
308
=
309
=
 40
0.014712962962963
 41
2451389.563479514
 42
2460271.740134537
  1

 90
        0
  0
XRECORD
  5
82E1
102
{ACAD_REACTORS
330
82E0
102
}
330
82E0
100
AcDbXrecord
280
     1
290
     1
  0
XRECORD
  5
82E3
102
{ACAD_REACTORS
330
82E2
102
}
330
82E2
100
AcDbXrecord
280
     1
290
     1
  0
XRECORD
  5
82E5
102
{ACAD_REACTORS
330
82E4
102
}
330
82E4
100
AcDbXrecord
280
     1
290
     1
  0
XRECORD
  5
82E7
102
{ACAD_REACTORS
330
82E6
102
}
330
82E6
100
AcDbXrecord
280
     1
290
     1
  0
XRECORD
  5
82E9
102
{ACAD_REACTORS
330
82E8
102
}
330
82E8
100
AcDbXrecord
280
     1
290
     1
  0
ACDBDETAILVIEWSTYLE
  5
821B
102
{ACAD_XDICTIONARY
360
8371
102
}
102
{ACAD_REACTORS
330
821A
102
}
330
821A
100
AcDbModelDocViewStyle
 70
     0
  3
Imperial24
290
     0
100
AcDbDetailViewStyle
 70
     0
 71
     0
 90
        3
 71
     1
340
8206
 40
0.24
340
0
 40
0.24
300

 40
0.36
280
     3
 71
     2
340
820D
 90
       25
 71
     3
340
8206
 40
0.24
 90
        1
 40
0.75
 90
        1
300
%<\AcVar ViewType \f "%tc1">% %<\AcVar ViewDetailId>%\PSCALE %<\AcVar ViewScale \f "%sn">%
 71
     4
340
820D
 90
       25
340
820D
 90
       25
280
     0
  0
LAYOUT
  5
8223
102
{ACAD_XDICTIONARY
360
8375
102
}
102
{ACAD_REACTORS
330
8212
102
}
330
8212
100
AcDbPlotSettings
  1

  2
RICOH imagio MP W3600 RPCS
  4

  6

 40
0.0
 41
0.0
 42
0.0
 43
0.0
 44
0.0
 45
0.0
 46
0.0
 47
0.0
 48
0.0
 49
0.0
140
0.0
141
0.0
142
1.0
143
1.0
 70
  1712
 72
     0
 73
     0
 74
     0
  7

 75
     0
147
1.0
148
0.0
149
0.0
100
AcDbLayout
  1
Model
 70
     1
 71
     0
 10
0.0
 20
0.0
 11
12.0
 21
9.0
 12
0.0
 22
0.0
 32
0.0
 14
0.0
 24
0.0
 34
0.0
 15
0.0
 25
0.0
 35
0.0
146
0.0
 13
0.0
 23
0.0
 33
0.0
 16
1.0
 26
0.0
 36
0.0
 17
0.0
 27
1.0
 37
0.0
 76
     0
330
8220
331
8225
  0
LAYOUT
  5
821F
102
{ACAD_XDICTIONARY
360
8373
102
}
102
{ACAD_REACTORS
330
8212
102
}
330
8212
100
AcDbPlotSettings
  1

  2
RICOH imagio MP W3600 RPCS
  4

  6

 40
0.0
 41
0.0
 42
0.0
 43
0.0
 44
0.0
 45
0.0
 46
0.0
 47
0.0
 48
0.0
 49
0.0
140
0.0
141
0.0
142
1.0
143
1.0
 70
   688
 72
     0
 73
     0
 74
     5
  7

 75
    16
147
1.0
148
0.0
149
0.0
100
AcDbLayout
  1
レイアウト1
 70
     1
 71
     1
 10
0.0
 20
0.0
 11
12.0
 21
9.0
 12
0.0
 22
0.0
 32
0.0
 14
1.000000000000000E+20
 24
1.000000000000000E+20
 34
1.000000000000000E+20
 15
-1.000000000000000E+20
 25
-1.000000000000000E+20
 35
-1.000000000000000E+20
146
0.0
 13
0.0
 23
0.0
 33
0.0
 16
1.0
 26
0.0
 36
0.0
 17
0.0
 27
1.0
 37
0.0
 76
     0
330
821C
  0
MATERIAL
  5
81CA
102
{ACAD_XDICTIONARY
360
81CB
102
}
102
{ACAD_REACTORS
330
81C1
102
}
330
81C1
100
AcDbMaterial
  1
ByBlock
 72
     0
 43
0.0208333333333333
 43
0.0
 43
0.0
 43
0.0
 43
0.0
 43
0.0208333333333333
 43
0.0
 43
0.0
 43
0.0
 43
0.0
 43
1.0
 43
0.0
 43
0.0
 43
0.0
 43
0.0
 43
1.0
 77
     0
 47
0.0208333333333333
 47
0.0
 47
0.0
 47
0.0
 47
0.0
 47
0.0208333333333333
 47
0.0
 47
0.0
 47
0.0
 47
0.0
 47
1.0
 47
0.0
 47
0.0
 47
0.0
 47
0.0
 47
1.0
171
     0
 49
0.0208333333333333
 49
0.0
 49
0.0
 49
0.0
 49
0.0
 49
0.0208333333333333
 49
0.0
 49
0.0
 49
0.0
 49
0.0
 49
1.0
 49
0.0
 49
0.0
 49
0.0
 49
0.0
 49
1.0
175
     0
142
0.0208333333333333
142
0.0
142
0.0
142
0.0
142
0.0
142
0.0208333333333333
142
0.0
142
0.0
142
0.0
142
0.0
142
1.0
142
0.0
142
0.0
142
0.0
142
0.0
142
1.0
179
     0
144
0.0208333333333333
144
0.0
144
0.0
144
0.0
144
0.0
144
0.0208333333333333
144
0.0
144
0.0
144
0.0
144
0.0
144
1.0
144
0.0
144
0.0
144
0.0
144
0.0
144
1.0
147
0.0208333333333333
147
0.0
147
0.0
147
0.0
147
0.0
147
0.0208333333333333
147
0.0
147
0.0
147
0.0
147
0.0
147
1.0
147
0.0
147
0.0
147
0.0
147
0.0
147
1.0
  0
MATERIAL
  5
81C2
102
{ACAD_XDICTIONARY
360
81C3
102
}
102
{ACAD_REACTORS
330
81C1
102
}
330
81C1
100
AcDbMaterial
  1
ByLayer
 72
     0
 43
0.0208333333333333
 43
0.0
 43
0.0
 43
0.0
 43
0.0
 43
0.0208333333333333
 43
0.0
 43
0.0
 43
0.0
 43
0.0
 43
1.0
 43
0.0
 43
0.0
 43
0.0
 43
0.0
 43
1.0
 77
     0
 47
0.0208333333333333
 47
0.0
 47
0.0
 47
0.0
 47
0.0
 47
0.0208333333333333
 47
0.0
 47
0.0
 47
0.0
 47
0.0
 47
1.0
 47
0.0
 47
0.0
 47
0.0
 47
0.0
 47
1.0
171
     0
 49
0.0208333333333333
 49
0.0
 49
0.0
 49
0.0
 49
0.0
 49
0.0208333333333333
 49
0.0
 49
0.0
 49
0.0
 49
0.0
 49
1.0
 49
0.0
 49
0.0
 49
0.0
 49
0.0
 49
1.0
175
     0
142
0.0208333333333333
142
0.0
142
0.0
142
0.0
142
0.0
142
0.0208333333333333
142
0.0
142
0.0
142
0.0
142
0.0
142
1.0
142
0.0
142
0.0
142
0.0
142
0.0
142
1.0
179
     0
144
0.0208333333333333
144
0.0
144
0.0
144
0.0
144
0.0
144
0.0208333333333333
144
0.0
144
0.0
144
0.0
144
0.0
144
1.0
144
0.0
144
0.0
144
0.0
144
0.0
144
1.0
147
0.0208333333333333
147
0.0
147
0.0
147
0.0
147
0.0
147
0.0208333333333333
147
0.0
147
0.0
147
0.0
147
0.0
147
1.0
147
0.0
147
0.0
147
0.0
147
0.0
147
1.0
  0
MATERIAL
  5
81D2
102
{ACAD_XDICTIONARY
360
81D3
102
}
102
{ACAD_REACTORS
330
81C1
102
}
330
81C1
100
AcDbMaterial
  1
Global
 72
     0
 43
0.0208333333333333
 43
0.0
 43
0.0
 43
0.0
 43
0.0
 43
0.0208333333333333
 43
0.0
 43
0.0
 43
0.0
 43
0.0
 43
1.0
 43
0.0
 43
0.0
 43
0.0
 43
0.0
 43
1.0
 77
     0
 47
0.0208333333333333
 47
0.0
 47
0.0
 47
0.0
 47
0.0
 47
0.0208333333333333
 47
0.0
 47
0.0
 47
0.0
 47
0.0
 47
1.0
 47
0.0
 47
0.0
 47
0.0
 47
0.0
 47
1.0
171
     0
 49
0.0208333333333333
 49
0.0
 49
0.0
 49
0.0
 49
0.0
 49
0.0208333333333333
 49
0.0
 49
0.0
 49
0.0
 49
0.0
 49
1.0
 49
0.0
 49
0.0
 49
0.0
 49
0.0
 49
1.0
175
     0
142
0.0208333333333333
142
0.0
142
0.0
142
0.0
142
0.0
142
0.0208333333333333
142
0.0
142
0.0
142
0.0
142
0.0
142
1.0
142
0.0
142
0.0
142
0.0
142
0.0
142
1.0
179
     0
144
0.0208333333333333
144
0.0
144
0.0
144
0.0
144
0.0
144
0.0208333333333333
144
0.0
144
0.0
144
0.0
144
0.0
144
1.0
144
0.0
144
0.0
144
0.0
144
0.0
144
1.0
147
0.0208333333333333
147
0.0
147
0.0
147
0.0
147
0.0
147
0.0208333333333333
147
0.0
147
0.0
147
0.0
147
0.0
147
1.0
147
0.0
147
0.0
147
0.0
147
0.0
147
1.0
  0
MLEADERSTYLE
  5
8217
102
{ACAD_REACTORS
330
8216
102
}
330
8216
100
AcDbMLeaderStyle
170
     2
171
     1
172
     0
 90
        2
 40
0.0
 41
0.0
173
     1
 91
-1056964608
340
820B
 92
       -2
290
     1
 42
0.09
291
     1
 43
0.36
  3
Standard
 44
0.18
300

342
8206
174
     1
178
     6
175
     1
176
     0
 93
-1056964608
 45
0.18
292
     0
297
     0
 46
0.18
 94
-1056964608
 47
1.0
 49
1.0
140
1.0
293
     1
141
0.0
294
     1
177
     0
142
1.0
295
     0
296
     0
143
0.125
1001
ACAD_MLEADERVER
1070
     2
  0
MLINESTYLE
  5
8210
102
{ACAD_REACTORS
330
820F
102
}
330
820F
100
AcDbMlineStyle
  2
STANDARD
 70
     0
  3

 62
   256
 51
90.0
 52
90.0
 71
     2
 49
0.5
 62
   256
  6
BYLAYER
 49
-0.5
 62
   256
  6
BYLAYER
  0
ACDBPLACEHOLDER
  5
81C0
102
{ACAD_REACTORS
330
81BF
102
}
330
81BF
  0
SCALE
  5
81F4
102
{ACAD_REACTORS
330
81F3
102
}
330
81F3
100
AcDbScale
 70
     0
300
1:1
140
1.0
141
1.0
290
     1
  0
SCALE
  5
81F5
102
{ACAD_REACTORS
330
81F3
102
}
330
81F3
100
AcDbScale
 70
     0
300
1/128" = 1'-0"
140
0.0078125
141
12.0
290
     0
  0
SCALE
  5
81F6
102
{ACAD_REACTORS
330
81F3
102
}
330
81F3
100
AcDbScale
 70
     0
300
1/64" = 1'-0"
140
0.015625
141
12.0
290
     0
  0
SCALE
  5
81F7
102
{ACAD_REACTORS
330
81F3
102
}
330
81F3
100
AcDbScale
 70
     0
300
1/32" = 1'-0"
140
0.03125
141
12.0
290
     0
  0
SCALE
  5
81F8
102
{ACAD_REACTORS
330
81F3
102
}
330
81F3
100
AcDbScale
 70
     0
300
1/16" = 1'-0"
140
0.0625
141
12.0
290
     0
  0
SCALE
  5
81F9
102
{ACAD_REACTORS
330
81F3
102
}
330
81F3
100
AcDbScale
 70
     0
300
3/32" = 1'-0"
140
0.09375
141
12.0
290
     0
  0
SCALE
  5
81FA
102
{ACAD_REACTORS
330
81F3
102
}
330
81F3
100
AcDbScale
 70
     0
300
1/8" = 1'-0"
140
0.125
141
12.0
290
     0
  0
SCALE
  5
81FB
102
{ACAD_REACTORS
330
81F3
102
}
330
81F3
100
AcDbScale
 70
     0
300
3/16" = 1'-0"
140
0.1875
141
12.0
290
     0
  0
SCALE
  5
81FC
102
{ACAD_REACTORS
330
81F3
102
}
330
81F3
100
AcDbScale
 70
     0
300
1/4" = 1'-0"
140
0.25
141
12.0
290
     0
  0
SCALE
  5
81FD
102
{ACAD_REACTORS
330
81F3
102
}
330
81F3
100
AcDbScale
 70
     0
300
3/8" = 1'-0"
140
0.375
141
12.0
290
     0
  0
SCALE
  5
81FE
102
{ACAD_REACTORS
330
81F3
102
}
330
81F3
100
AcDbScale
 70
     0
300
1/2" = 1'-0"
140
0.5
141
12.0
290
     0
  0
SCALE
  5
81FF
102
{ACAD_REACTORS
330
81F3
102
}
330
81F3
100
AcDbScale
 70
     0
300
3/4" = 1'-0"
140
0.75
141
12.0
290
     0
  0
SCALE
  5
8200
102
{ACAD_REACTORS
330
81F3
102
}
330
81F3
100
AcDbScale
 70
     0
300
1" = 1'-0"
140
1.0
141
12.0
290
     0
  0
SCALE
  5
8201
102
{ACAD_REACTORS
330
81F3
102
}
330
81F3
100
AcDbScale
 70
     0
300
1-1/2" = 1'-0"
140
1.5
141
12.0
290
     0
  0
SCALE
  5
8202
102
{ACAD_REACTORS
330
81F3
102
}
330
81F3
100
AcDbScale
 70
     0
300
3" = 1'-0"
140
3.0
141
12.0
290
     0
  0
SCALE
  5
8203
102
{ACAD_REACTORS
330
81F3
102
}
330
81F3
100
AcDbScale
 70
     0
300
6" = 1'-0"
140
6.0
141
12.0
290
     0
  0
SCALE
  5
8204
102
{ACAD_REACTORS
330
81F3
102
}
330
81F3
100
AcDbScale
 70
     0
300
1'-0" = 1'-0"
140
12.0
141
12.0
290
     0
  0
ACDBSECTIONVIEWSTYLE
  5
8219
102
{ACAD_XDICTIONARY
360
836F
102
}
102
{ACAD_REACTORS
330
8218
102
}
330
8218
100
AcDbModelDocViewStyle
 70
     0
  3
Imperial24
290
     0
100
AcDbSectionViewStyle
 70
     0
 71
     0
 90
       78
 71
     1
340
8206
 40
0.24
340
0
340
0
 40
0.24
300
I, O, Q, S, X, Z
 40
0.48
 90
        3
 40
0.18
 90
        1
 71
     2
340
820D
 90
       25
340
820D
 90
       50
 40
0.24
 40
0.0
 40
0.24
 71
     3
340
8206
 40
0.24
 90
        1
 40
0.75
 90
        1
300
%<\AcVar ViewType \f "%tc1">% %<\AcVar ViewSectionStartId>%-%<\AcVar ViewSectionEndId>%\PSCALE %<\AcVar ViewScale \f "%sn">%
 71
     4
300
ANSI31
 40
1.0
 90
        0
290
     0
290
     0
 90
        6
 40
0.0
 40
1.570796326794896
 40
0.2617993877991494
 40
1.308996938995747
 40
-0.2617993877991494
 40
1.832595714594046
  0
TABLESTYLE
  5
8215
102
{ACAD_XDICTIONARY
360
8336
102
}
102
{ACAD_REACTORS
330
8214
102
}
330
8214
100
AcDbTableStyle
  3
Standard
 70
     0
 71
     0
 40
0.06
 41
0.06
280
     0
281
     0
  7
STANDARD
140
0.18
170
     2
 62
     0
 63
     7
283
     0
274
    -2
284
     1
 64
     0
275
    -2
285
     1
 65
     0
276
    -2
286
     1
 66
     0
277
    -2
287
     1
 67
     0
278
    -2
288
     1
 68
     0
279
    -2
289
     1
 69
     0
  7
STANDARD
140
0.25
170
     5
 62
     0
 63
     7
283
     0
274
    -2
284
     1
 64
     0
275
    -2
285
     1
 65
     0
276
    -2
286
     1
 66
     0
277
    -2
287
     1
 67
     0
278
    -2
288
     1
 68
     0
279
    -2
289
     1
 69
     0
  7
STANDARD
140
0.18
170
     5
 62
     0
 63
     7
283
     0
274
    -2
284
     1
 64
     0
275
    -2
285
     1
 65
     0
276
    -2
286
     1
 66
     0
277
    -2
287
     1
 67
     0
278
    -2
288
     1
 68
     0
279
    -2
289
     1
 69
     0
  0
VISUALSTYLE
  5
81E0
102
{ACAD_XDICTIONARY
360
8347
102
}
102
{ACAD_REACTORS
330
81DA
102
}
330
81DA
100
AcDbVisualStyle
  2
2dWireframe
 70
     4
 71
     0
 72
     2
 73
     0
 90
        0
 40
-0.6
 41
-30.0
 62
     5
 63
     7
 74
     1
 91
        4
 64
     7
 65
   257
 75
     1
175
     1
 42
1.0
 92
        0
 66
   257
 43
1.0
 76
     1
 77
     6
 78
     2
 67
     7
 79
     5
170
     0
171
     0
290
     0
174
     0
 93
        1
 44
0.0
173
     0
291
     0
 45
0.0
1001
ACAD
1000
AcDbSavedByObjectVersion
1070
     0
  0
VISUALSTYLE
  5
81DF
102
{ACAD_XDICTIONARY
360
8345
102
}
102
{ACAD_REACTORS
330
81DA
102
}
330
81DA
100
AcDbVisualStyle
  2
Basic
 70
     7
 71
     1
 72
     0
 73
     1
 90
        0
 40
-0.6
 41
-30.0
 62
     5
 63
     7
 74
     0
 91
        4
 64
     7
 65
   257
 75
     1
175
     1
 42
1.0
 92
        8
 66
     7
 43
1.0
 76
     1
 77
     6
 78
     2
 67
     7
 79
     5
170
     0
171
     0
290
     0
174
     0
 93
        1
 44
0.0
173
     0
291
     1
 45
0.0
1001
ACAD
1000
AcDbSavedByObjectVersion
1070
     0
  0
VISUALSTYLE
  5
81E6
102
{ACAD_XDICTIONARY
360
8353
102
}
102
{ACAD_REACTORS
330
81DA
102
}
330
81DA
100
AcDbVisualStyle
  2
Brighten
 70
    12
 71
     2
 72
     2
 73
     0
 90
        0
 40
-0.6
 41
-30.0
 62
     5
 63
     7
 74
     1
 91
        4
 64
     7
 65
   257
 75
     1
175
     1
 42
1.0
 92
        8
 66
     7
 43
1.0
 76
     1
 77
     6
 78
     2
 67
     7
 79
     5
170
     0
171
     0
290
     0
174
     0
 93
        1
 44
50.0
173
     0
291
     1
 45
0.0
1001
ACAD
1000
AcDbSavedByObjectVersion
1070
     0
  0
VISUALSTYLE
  5
81EA
102
{ACAD_XDICTIONARY
360
835B
102
}
102
{ACAD_REACTORS
330
81DA
102
}
330
81DA
100
AcDbVisualStyle
  2
ColorChange
 70
    16
 71
     2
 72
     2
 73
     3
 90
        0
 40
-0.6
 41
-30.0
 62
     5
 63
     8
 74
     1
 91
        4
 64
     7
 65
   257
 75
     1
175
     1
 42
1.0
 92
        8
 66
     8
 43
1.0
 76
     1
 77
     6
 78
     2
 67
     7
 79
     5
170
     0
171
     0
290
     0
174
     0
 93
        1
 44
0.0
173
     0
291
     1
 45
0.0
1001
ACAD
1000
AcDbSavedByObjectVersion
1070
     0
  0
VISUALSTYLE
  5
81E3
102
{ACAD_XDICTIONARY
360
834D
102
}
102
{ACAD_REACTORS
330
81DA
102
}
330
81DA
100
AcDbVisualStyle
  2
Conceptual
 70
     9
 71
     3
 72
     2
 73
     0
 90
        0
 40
-0.6
 41
-30.0
 62
     5
 63
     7
 74
     2
 91
        2
 64
     7
 65
   257
 75
     1
175
     1
 42
179.0
 92
        8
 66
     7
 43
1.0
 76
     1
 77
     6
 78
     2
 67
     7
 79
     3
170
     0
171
     0
290
     0
174
     0
 93
        1
 44
0.0
173
     0
291
     0
 45
0.0
1001
ACAD
1000
AcDbSavedByObjectVersion
1070
     0
  0
VISUALSTYLE
  5
81E5
102
{ACAD_XDICTIONARY
360
8351
102
}
102
{ACAD_REACTORS
330
81DA
102
}
330
81DA
100
AcDbVisualStyle
  2
Dim
 70
    11
 71
     2
 72
     2
 73
     0
 90
        0
 40
-0.6
 41
-30.0
 62
     5
 63
     7
 74
     1
 91
        4
 64
     7
 65
   257
 75
     1
175
     1
 42
1.0
 92
        8
 66
     7
 43
1.0
 76
     1
 77
     6
 78
     2
 67
     7
 79
     5
170
     0
171
     0
290
     0
174
     0
 93
        1
 44
-50.0
173
     0
291
     1
 45
0.0
1001
ACAD
1000
AcDbSavedByObjectVersion
1070
     0
  0
VISUALSTYLE
  5
81F2
102
{ACAD_XDICTIONARY
360
836B
102
}
102
{ACAD_REACTORS
330
81DA
102
}
330
81DA
100
AcDbVisualStyle
  2
EdgeColorOff
 70
    22
 71
     2
 72
     2
 73
     0
 90
        0
 40
-0.6
 41
-30.0
 62
     5
 63
     7
 74
     1
 91
        4
 64
     7
 65
   257
 75
     1
175
     1
 42
1.0
 92
        8
 66
     7
 43
1.0
 76
     1
 77
     6
 78
     2
 67
     7
 79
     5
170
     0
171
     0
290
     0
174
     0
 93
        1
 44
0.0
173
     0
291
     1
 45
0.0
1001
ACAD
1000
AcDbSavedByObjectVersion
1070
     0
  0
VISUALSTYLE
  5
81E9
102
{ACAD_XDICTIONARY
360
8359
102
}
102
{ACAD_REACTORS
330
81DA
102
}
330
81DA
100
AcDbVisualStyle
  2
Facepattern
 70
    15
 71
     2
 72
     2
 73
     0
 90
        0
 40
-0.6
 41
-30.0
 62
     5
 63
     7
 74
     1
 91
        4
 64
     7
 65
   257
 75
     1
175
     1
 42
1.0
 92
        8
 66
     7
 43
1.0
 76
     1
 77
     6
 78
     2
 67
     7
 79
     5
170
     0
171
     0
290
     0
174
     0
 93
        1
 44
0.0
173
     0
291
     1
 45
0.0
1001
ACAD
1000
AcDbSavedByObjectVersion
1070
     0
  0
VISUALSTYLE
  5
81DB
102
{ACAD_XDICTIONARY
360
833D
102
}
102
{ACAD_REACTORS
330
81DA
102
}
330
81DA
100
AcDbVisualStyle
  2
Flat
 70
     0
 71
     2
 72
     1
 73
     1
 90
        2
 40
-0.6
 41
30.0
 62
     5
 63
     7
 74
     0
 91
        0
 64
     7
 65
   257
 75
     1
175
     1
 42
1.0
 92
        8
 66
     7
 43
1.0
 76
     1
 77
     6
 78
     2
 67
     7
 79
     5
170
     0
171
     0
290
     0
174
     0
 93
       13
 44
0.0
173
     0
291
     1
 45
0.0
1001
ACAD
1000
AcDbSavedByObjectVersion
1070
     0
  0
VISUALSTYLE
  5
81DC
102
{ACAD_XDICTIONARY
360
833F
102
}
102
{ACAD_REACTORS
330
81DA
102
}
330
81DA
100
AcDbVisualStyle
  2
FlatWithEdges
 70
     1
 71
     2
 72
     1
 73
     1
 90
        2
 40
-0.6
 41
30.0
 62
     5
 63
     7
 74
     1
 91
        0
 64
     7
 65
   257
 75
     1
175
     1
 42
1.0
 92
        0
 66
   257
 43
1.0
 76
     1
 77
     6
 78
     2
 67
     7
 79
     5
170
     0
171
     0
290
     0
174
     0
 93
       13
 44
0.0
173
     0
291
     1
 45
0.0
1001
ACAD
1000
AcDbSavedByObjectVersion
1070
     0
  0
VISUALSTYLE
  5
81DD
102
{ACAD_XDICTIONARY
360
8341
102
}
102
{ACAD_REACTORS
330
81DA
102
}
330
81DA
100
AcDbVisualStyle
  2
Gouraud
 70
     2
 71
     2
 72
     2
 73
     1
 90
        2
 40
-0.6
 41
30.0
 62
     5
 63
     7
 74
     0
 91
        0
 64
     7
 65
   257
 75
     1
175
     1
 42
1.0
 92
        0
 66
     7
 43
1.0
 76
     1
 77
     6
 78
     2
 67
     7
 79
     5
170
     0
171
     0
290
     0
174
     0
 93
       13
 44
0.0
173
     0
291
     1
 45
0.0
1001
ACAD
1000
AcDbSavedByObjectVersion
1070
     0
  0
VISUALSTYLE
  5
81DE
102
{ACAD_XDICTIONARY
360
8343
102
}
102
{ACAD_REACTORS
330
81DA
102
}
330
81DA
100
AcDbVisualStyle
  2
GouraudWithEdges
 70
     3
 71
     2
 72
     2
 73
     1
 90
        2
 40
-0.6
 41
30.0
 62
     5
 63
     7
 74
     1
 91
        0
 64
     7
 65
   257
 75
     1
175
     1
 42
1.0
 92
        0
 66
   257
 43
1.0
 76
     1
 77
     6
 78
     2
 67
     7
 79
     5
170
     0
171
     0
290
     0
174
     0
 93
       13
 44
0.0
173
     0
291
     1
 45
0.0
1001
ACAD
1000
AcDbSavedByObjectVersion
1070
     0
  0
VISUALSTYLE
  5
81E2
102
{ACAD_XDICTIONARY
360
834B
102
}
102
{ACAD_REACTORS
330
81DA
102
}
330
81DA
100
AcDbVisualStyle
  2
Hidden
 70
     6
 71
     1
 72
     2
 73
     2
 90
        0
 40
-0.6
 41
-30.0
 62
     5
 63
     7
 74
     2
 91
        2
 64
     7
 65
   257
 75
     2
175
     1
 42
40.0
 92
        0
 66
   257
 43
1.0
 76
     1
 77
     6
 78
     2
 67
     7
 79
     3
170
     0
171
     0
290
     0
174
     0
 93
        1
 44
0.0
173
     0
291
     0
 45
0.0
1001
ACAD
1000
AcDbSavedByObjectVersion
1070
     0
  0
VISUALSTYLE
  5
81F0
102
{ACAD_XDICTIONARY
360
8367
102
}
102
{ACAD_REACTORS
330
81DA
102
}
330
81DA
100
AcDbVisualStyle
  2
JitterOff
 70
    20
 71
     2
 72
     2
 73
     0
 90
        0
 40
-0.6
 41
-30.0
 62
     5
 63
     7
 74
     1
 91
        4
 64
     7
 65
   257
 75
     1
175
     1
 42
1.0
 92
       10
 66
     7
 43
1.0
 76
     1
 77
     6
 78
     2
 67
     7
 79
     5
170
     0
171
     0
290
     0
174
     0
 93
        1
 44
0.0
173
     0
291
     1
 45
0.0
1001
ACAD
1000
AcDbSavedByObjectVersion
1070
     0
  0
VISUALSTYLE
  5
81E8
102
{ACAD_XDICTIONARY
360
8357
102
}
102
{ACAD_REACTORS
330
81DA
102
}
330
81DA
100
AcDbVisualStyle
  2
Linepattern
 70
    14
 71
     2
 72
     2
 73
     0
 90
        0
 40
-0.6
 41
-30.0
 62
     5
 63
     7
 74
     1
 91
        4
 64
     7
 65
   257
 75
     7
175
     7
 42
1.0
 92
        8
 66
     7
 43
1.0
 76
     1
 77
     6
 78
     2
 67
     7
 79
     5
170
     0
171
     0
290
     0
174
     0
 93
        1
 44
0.0
173
     0
291
     1
 45
0.0
1001
ACAD
1000
AcDbSavedByObjectVersion
1070
     0
  0
VISUALSTYLE
  5
81F1
102
{ACAD_XDICTIONARY
360
8369
102
}
102
{ACAD_REACTORS
330
81DA
102
}
330
81DA
100
AcDbVisualStyle
  2
OverhangOff
 70
    21
 71
     2
 72
     2
 73
     0
 90
        0
 40
-0.6
 41
-30.0
 62
     5
 63
     7
 74
     1
 91
        4
 64
     7
 65
   257
 75
     1
175
     1
 42
1.0
 92
        9
 66
     7
 43
1.0
 76
     1
 77
     6
 78
     2
 67
     7
 79
     5
170
     0
171
     0
290
     0
174
     0
 93
        1
 44
0.0
173
     0
291
     1
 45
0.0
1001
ACAD
1000
AcDbSavedByObjectVersion
1070
     0
  0
VISUALSTYLE
  5
81E4
102
{ACAD_XDICTIONARY
360
834F
102
}
102
{ACAD_REACTORS
330
81DA
102
}
330
81DA
100
AcDbVisualStyle
  2
Realistic
 70
     8
 71
     2
 72
     3
 73
     0
 90
        2
 40
-0.6
 41
30.0
 62
     5
 63
     7
 74
     0
 91
        0
 64
     7
 65
   257
 75
     1
175
     1
 42
1.0
 92
        8
 66
   257
 43
1.0
 76
     1
 77
     6
 78
     2
 67
     7
 79
     3
170
     0
171
     0
290
     0
174
     0
 93
       13
 44
0.0
173
     0
291
     0
 45
0.0
1001
ACAD
1000
AcDbSavedByObjectVersion
1070
     0
  0
VISUALSTYLE
  5
81EF
102
{ACAD_XDICTIONARY
360
8365
102
}
102
{ACAD_REACTORS
330
81DA
102
}
330
81DA
100
AcDbVisualStyle
  2
Shaded
 70
    27
 71
     2
 72
     2
 73
     1
 90
        2
 40
-0.6
 41
30.0
 62
     5
 63
     7
 74
     0
 91
        4
 64
     7
 65
   257
 75
     1
175
     1
 42
1.0
 92
        8
 66
   257
 43
1.0
 76
     1
 77
     6
 78
     2
 67
     8
 79
     3
170
     0
171
     0
290
     0
174
     0
 93
        5
 44
0.0
173
     0
291
     0
 45
0.0
1001
ACAD
1000
AcDbSavedByObjectVersion
1070
     0
  0
VISUALSTYLE
  5
81EE
102
{ACAD_XDICTIONARY
360
8363
102
}
102
{ACAD_REACTORS
330
81DA
102
}
330
81DA
100
AcDbVisualStyle
  2
Shaded with edges
 70
    26
 71
     2
 72
     2
 73
     1
 90
        2
 40
-0.6
 41
30.0
 62
     5
 63
     7
 74
     1
 91
       10
 64
     7
 65
   257
 75
     2
175
     1
 42
1.0
 92
        8
 66
   257
 43
1.0
 76
     1
 77
     6
 78
     2
 67
     7
 79
     3
170
     0
171
     0
290
     0
174
     0
 93
        5
 44
0.0
173
     0
291
     0
 45
0.0
1001
ACAD
1000
AcDbSavedByObjectVersion
1070
     0
  0
VISUALSTYLE
  5
81EB
102
{ACAD_XDICTIONARY
360
835D
102
}
102
{ACAD_REACTORS
330
81DA
102
}
330
81DA
100
AcDbVisualStyle
  2
Shades of Gray
 70
    23
 71
     2
 72
     2
 73
     3
 90
        0
 40
-0.6
 41
-30.0
 62
     5
 63
     7
 74
     2
 91
        2
 64
     7
 65
     7
 75
     1
175
     1
 42
40.0
 92
        8
 66
     7
 43
1.0
 76
     1
 77
     6
 78
     2
 67
     7
 79
     3
170
     0
171
     0
290
     0
174
     0
 93
        1
 44
0.0
173
     0
291
     0
 45
0.0
1001
ACAD
1000
AcDbSavedByObjectVersion
1070
     0
  0
VISUALSTYLE
  5
81EC
102
{ACAD_XDICTIONARY
360
835F
102
}
102
{ACAD_REACTORS
330
81DA
102
}
330
81DA
100
AcDbVisualStyle
  2
Sketchy
 70
    24
 71
     1
 72
     2
 73
     2
 90
        0
 40
-0.6
 41
-30.0
 62
     5
 63
     7
 74
     2
 91
        2
 64
     7
 65
     7
 75
     1
175
     1
 42
40.0
 92
       11
 66
     7
 43
1.0
 76
     1
 77
     6
 78
     2
 67
     7
 79
     6
170
     0
171
     0
290
     0
174
     0
 93
        1
 44
0.0
173
     0
291
     0
 45
0.0
1001
ACAD
1000
AcDbSavedByObjectVersion
1070
     0
  0
VISUALSTYLE
  5
81E7
102
{ACAD_XDICTIONARY
360
8355
102
}
102
{ACAD_REACTORS
330
81DA
102
}
330
81DA
100
AcDbVisualStyle
  2
Thicken
 70
    13
 71
     2
 72
     2
 73
     0
 90
        0
 40
-0.6
 41
-30.0
 62
     5
 63
     7
 74
     1
 91
        4
 64
     7
 65
   257
 75
     1
175
     1
 42
1.0
 92
       12
 66
     7
 43
1.0
 76
     1
 77
     6
 78
     2
 67
     7
 79
     5
170
     0
171
     0
290
     0
174
     0
 93
        1
 44
0.0
173
     0
291
     1
 45
0.0
1001
ACAD
1000
AcDbSavedByObjectVersion
1070
     0
  0
VISUALSTYLE
  5
81E1
102
{ACAD_XDICTIONARY
360
8349
102
}
102
{ACAD_REACTORS
330
81DA
102
}
330
81DA
100
AcDbVisualStyle
  2
Wireframe
 70
     5
 71
     0
 72
     2
 73
     0
 90
        0
 40
-0.6
 41
-30.0
 62
     5
 63
     7
 74
     1
 91
        4
 64
     7
 65
   257
 75
     1
175
     1
 42
1.0
 92
        0
 66
   257
 43
1.0
 76
     1
 77
     6
 78
     2
 67
     7
 79
     3
170
     0
171
     0
290
     0
174
     0
 93
        1
 44
0.0
173
     0
291
     0
 45
0.0
1001
ACAD
1000
AcDbSavedByObjectVersion
1070
     0
  0
VISUALSTYLE
  5
81ED
102
{ACAD_XDICTIONARY
360
8361
102
}
102
{ACAD_REACTORS
330
81DA
102
}
330
81DA
100
AcDbVisualStyle
  2
X-Ray
 70
    25
 71
     2
 72
     2
 73
     1
 90
        1
 40
0.5
 41
-30.0
 62
     5
 63
     7
 74
     1
 91
        0
 64
     7
 65
   257
 75
     1
175
     1
 42
1.0
 92
        8
 66
     7
 43
1.0
 76
     1
 77
     6
 78
     2
 67
     7
 79
     3
170
     0
171
     0
290
     0
174
     0
 93
       13
 44
0.0
173
     0
291
     0
 45
0.0
1001
ACAD
1000
AcDbSavedByObjectVersion
1070
     0
  0
DICTIONARYVAR
  5
82EF
102
{ACAD_REACTORS
330
82EA
102
}
330
82EA
100
DictionaryVariables
280
     0
  1
1:1
  0
DICTIONARYVAR
  5
82EC
102
{ACAD_REACTORS
330
82EA
102
}
330
82EA
100
DictionaryVariables
280
     0
  1
STANDARD
  0
DICTIONARYVAR
  5
82EB
102
{ACAD_REACTORS
330
82EA
102
}
330
82EA
100
DictionaryVariables
280
     0
  1
STANDARD
  0
DICTIONARYVAR
  5
82ED
102
{ACAD_REACTORS
330
82EA
102
}
330
82EA
100
DictionaryVariables
280
     0
  1
Imperial24
  0
DICTIONARYVAR
  5
82EE
102
{ACAD_REACTORS
330
82EA
102
}
330
82EA
100
DictionaryVariables
280
     0
  1
Imperial24
  0
DICTIONARYVAR
  5
82F2
102
{ACAD_REACTORS
330
82EA
102
}
330
82EA
100
DictionaryVariables
280
     0
  1
1
  0
DICTIONARYVAR
  5
82F1
102
{ACAD_REACTORS
330
82EA
102
}
330
82EA
100
DictionaryVariables
280
     0
  1
0
  0
DICTIONARYVAR
  5
82F0
102
{ACAD_REACTORS
330
82EA
102
}
330
82EA
100
DictionaryVariables
280
     0
  1
127
  0
DICTIONARYVAR
  5
82F3
102
{ACAD_REACTORS
330
82EA
102
}
330
82EA
100
DictionaryVariables
280
     0
  1
2
  0
DICTIONARY
  5
8371
330
821B
100
AcDbDictionary
280
     1
281
     1
  3
ACAD_XREC_ROUNDTRIP
360
8372
  0
DICTIONARY
  5
8375
330
8223
100
AcDbDictionary
280
     1
281
     1
  3
ACAD_XREC_ROUNDTRIP
360
8376
  0
DICTIONARY
  5
8373
330
821F
100
AcDbDictionary
280
     1
281
     1
  3
ACAD_XREC_ROUNDTRIP
360
8374
  0
DICTIONARY
  5
81CB
330
81CA
100
AcDbDictionary
280
     1
281
     1
  3
ACAD_XREC_ROUNDTRIP
360
833B
  3
BUMPTILE
360
81CD
  3
DIFFUSETILE
360
81CC
  3
OPACITYTILE
360
81D0
  3
REFLECTIONTILE
360
81CF
  3
REFRACTIONTILE
360
81D1
  3
SPECULARTILE
360
81CE
  0
DICTIONARY
  5
81C3
330
81C2
100
AcDbDictionary
280
     1
281
     1
  3
ACAD_XREC_ROUNDTRIP
360
833A
  3
BUMPTILE
360
81C5
  3
DIFFUSETILE
360
81C4
  3
OPACITYTILE
360
81C8
  3
REFLECTIONTILE
360
81C7
  3
REFRACTIONTILE
360
81C9
  3
SPECULARTILE
360
81C6
  0
DICTIONARY
  5
81D3
330
81D2
100
AcDbDictionary
280
     1
281
     1
  3
ACAD_XREC_ROUNDTRIP
360
833C
  3
BUMPTILE
360
81D5
  3
DIFFUSETILE
360
81D4
  3
FBXASSET
360
82BA
  3
OPACITYTILE
360
81D8
  3
REFLECTIONTILE
360
81D7
  3
REFRACTIONTILE
360
81D9
  3
SPECULARTILE
360
81D6
  0
DICTIONARY
  5
836F
330
8219
100
AcDbDictionary
280
     1
281
     1
  3
ACAD_XREC_ROUNDTRIP
360
8370
  0
DICTIONARY
  5
8336
330
8215
100
AcDbDictionary
280
     1
281
     1
  3
ACAD_ROUNDTRIP_2008_TABLESTYLE_CELLSTYLEMAP
360
8337
  3
ACAD_XREC_ROUNDTRIP
360
836D
  0
DICTIONARY
  5
8347
330
81E0
100
AcDbDictionary
280
     1
281
     1
  3
ACAD_XREC_ROUNDTRIP
360
8348
  0
DICTIONARY
  5
8345
330
81DF
100
AcDbDictionary
280
     1
281
     1
  3
ACAD_XREC_ROUNDTRIP
360
8346
  0
DICTIONARY
  5
8353
330
81E6
100
AcDbDictionary
280
     1
281
     1
  3
ACAD_XREC_ROUNDTRIP
360
8354
  0
DICTIONARY
  5
835B
330
81EA
100
AcDbDictionary
280
     1
281
     1
  3
ACAD_XREC_ROUNDTRIP
360
835C
  0
DICTIONARY
  5
834D
330
81E3
100
AcDbDictionary
280
     1
281
     1
  3
ACAD_XREC_ROUNDTRIP
360
834E
  0
DICTIONARY
  5
8351
330
81E5
100
AcDbDictionary
280
     1
281
     1
  3
ACAD_XREC_ROUNDTRIP
360
8352
  0
DICTIONARY
  5
836B
330
81F2
100
AcDbDictionary
280
     1
281
     1
  3
ACAD_XREC_ROUNDTRIP
360
836C
  0
DICTIONARY
  5
8359
330
81E9
100
AcDbDictionary
280
     1
281
     1
  3
ACAD_XREC_ROUNDTRIP
360
835A
  0
DICTIONARY
  5
833D
330
81DB
100
AcDbDictionary
280
     1
281
     1
  3
ACAD_XREC_ROUNDTRIP
360
833E
  0
DICTIONARY
  5
833F
330
81DC
100
AcDbDictionary
280
     1
281
     1
  3
ACAD_XREC_ROUNDTRIP
360
8340
  0
DICTIONARY
  5
8341
330
81DD
100
AcDbDictionary
280
     1
281
     1
  3
ACAD_XREC_ROUNDTRIP
360
8342
  0
DICTIONARY
  5
8343
330
81DE
100
AcDbDictionary
280
     1
281
     1
  3
ACAD_XREC_ROUNDTRIP
360
8344
  0
DICTIONARY
  5
834B
330
81E2
100
AcDbDictionary
280
     1
281
     1
  3
ACAD_XREC_ROUNDTRIP
360
834C
  0
DICTIONARY
  5
8367
330
81F0
100
AcDbDictionary
280
     1
281
     1
  3
ACAD_XREC_ROUNDTRIP
360
8368
  0
DICTIONARY
  5
8357
330
81E8
100
AcDbDictionary
280
     1
281
     1
  3
ACAD_XREC_ROUNDTRIP
360
8358
  0
DICTIONARY
  5
8369
330
81F1
100
AcDbDictionary
280
     1
281
     1
  3
ACAD_XREC_ROUNDTRIP
360
836A
  0
DICTIONARY
  5
834F
330
81E4
100
AcDbDictionary
280
     1
281
     1
  3
ACAD_XREC_ROUNDTRIP
360
8350
  0
DICTIONARY
  5
8365
330
81EF
100
AcDbDictionary
280
     1
281
     1
  3
ACAD_XREC_ROUNDTRIP
360
8366
  0
DICTIONARY
  5
8363
330
81EE
100
AcDbDictionary
280
     1
281
     1
  3
ACAD_XREC_ROUNDTRIP
360
8364
  0
DICTIONARY
  5
835D
330
81EB
100
AcDbDictionary
280
     1
281
     1
  3
ACAD_XREC_ROUNDTRIP
360
835E
  0
DICTIONARY
  5
835F
330
81EC
100
AcDbDictionary
280
     1
281
     1
  3
ACAD_XREC_ROUNDTRIP
360
8360
  0
DICTIONARY
  5
8355
330
81E7
100
AcDbDictionary
280
     1
281
     1
  3
ACAD_XREC_ROUNDTRIP
360
8356
  0
DICTIONARY
  5
8349
330
81E1
100
AcDbDictionary
280
     1
281
     1
  3
ACAD_XREC_ROUNDTRIP
360
834A
  0
DICTIONARY
  5
8361
330
81ED
100
AcDbDictionary
280
     1
281
     1
  3
ACAD_XREC_ROUNDTRIP
360
8362
  0
XRECORD
  5
8372
102
{ACAD_REACTORS
330
8371
102
}
330
8371
100
AcDbXrecord
280
     1
102
DISPLAYNAME
  1
Imperial24
102
FLAGS
 90
        0
  0
XRECORD
  5
8376
102
{ACAD_REACTORS
330
8375
102
}
330
8375
100
AcDbXrecord
280
     1
102
SHADEPLOT
 70
     0
102
SHADEPLOTRESLEVEL
 70
     2
102
SHADEPLOTCUSTOMDPI
 70
   300
  0
XRECORD
  5
8374
102
{ACAD_REACTORS
330
8373
102
}
330
8373
100
AcDbXrecord
280
     1
102
SHADEPLOT
 70
     0
102
SHADEPLOTRESLEVEL
 70
     2
102
SHADEPLOTCUSTOMDPI
 70
   300
  0
XRECORD
  5
833B
102
{ACAD_REACTORS
330
81CB
102
}
330
81CB
100
AcDbXrecord
280
     1
102
MATERIAL
148
0.0
149
0.0
149
0.0
 93
        0
 94
      127
282
     0
 72
     0
 77
     0
171
     0
175
     0
179
     0
273
     0
  0
XRECORD
  5
81CD
102
{ACAD_REACTORS
330
81CB
102
}
330
81CB
100
AcDbXrecord
280
     1
270
     1
271
     1
  0
XRECORD
  5
81CC
102
{ACAD_REACTORS
330
81CB
102
}
330
81CB
100
AcDbXrecord
280
     1
270
     1
271
     1
  0
XRECORD
  5
81D0
102
{ACAD_REACTORS
330
81CB
102
}
330
81CB
100
AcDbXrecord
280
     1
270
     1
271
     1
  0
XRECORD
  5
81CF
102
{ACAD_REACTORS
330
81CB
102
}
330
81CB
100
AcDbXrecord
280
     1
270
     1
271
     1
  0
XRECORD
  5
81D1
102
{ACAD_REACTORS
330
81CB
102
}
330
81CB
100
AcDbXrecord
280
     1
270
     1
271
     1
  0
XRECORD
  5
81CE
102
{ACAD_REACTORS
330
81CB
102
}
330
81CB
100
AcDbXrecord
280
     1
270
     1
271
     1
  0
XRECORD
  5
833A
102
{ACAD_REACTORS
330
81C3
102
}
330
81C3
100
AcDbXrecord
280
     1
102
MATERIAL
148
0.0
149
0.0
149
0.0
 93
        0
 94
      127
282
     0
 72
     0
 77
     0
171
     0
175
     0
179
     0
273
     0
  0
XRECORD
  5
81C5
102
{ACAD_REACTORS
330
81C3
102
}
330
81C3
100
AcDbXrecord
280
     1
270
     1
271
     1
  0
XRECORD
  5
81C4
102
{ACAD_REACTORS
330
81C3
102
}
330
81C3
100
AcDbXrecord
280
     1
270
     1
271
     1
  0
XRECORD
  5
81C8
102
{ACAD_REACTORS
330
81C3
102
}
330
81C3
100
AcDbXrecord
280
     1
270
     1
271
     1
  0
XRECORD
  5
81C7
102
{ACAD_REACTORS
330
81C3
102
}
330
81C3
100
AcDbXrecord
280
     1
270
     1
271
     1
  0
XRECORD
  5
81C9
102
{ACAD_REACTORS
330
81C3
102
}
330
81C3
100
AcDbXrecord
280
     1
270
     1
271
     1
  0
XRECORD
  5
81C6
102
{ACAD_REACTORS
330
81C3
102
}
330
81C3
100
AcDbXrecord
280
     1
270
     1
271
     1
  0
XRECORD
  5
833C
102
{ACAD_REACTORS
330
81D3
102
}
330
81D3
100
AcDbXrecord
280
     1
102
MATERIAL
148
0.0
149
0.0
149
0.0
 93
        0
 94
      127
282
     0
 72
     0
 77
     0
171
     0
175
     0
179
     0
273
     0
  0
XRECORD
  5
81D5
102
{ACAD_REACTORS
330
81D3
102
}
330
81D3
100
AcDbXrecord
280
     1
270
     1
271
     1
  0
XRECORD
  5
81D4
102
{ACAD_REACTORS
330
81D3
102
}
330
81D3
100
AcDbXrecord
280
     1
270
     1
271
     1
  0
XRECORD
  5
82BA
102
{ACAD_REACTORS
330
81D3
102
}
330
81D3
100
AcDbXrecord
280
     1
 70
     1
 90
1959938040
 71
     1
  1
D3BFAEFA-3C57-4A2E-AF44-DACF699D5EB6
311
504B03041400060808008F8D7657B7139AB1D8000000200100004F00000033303936333031322D364441312D343337362D424532462D3332324232424542433339422F4173736574446174612F446566696E6974696F6E4974657261746F7250726F706572746965732E62696E454E3D4FC3400C3D18400C0CFD0755F7E33E
311
7249216A8BA84899E802134BE55EDC12E99254B9446264E45F83AD16D5D2B39FBF9EFD2384F83D19517141F8267F4BF1051BEC2AFFE63FB10671C595D06E215C9F7B9744397DC61D0CA1E7ADD72A7A0C011A6C87383A8F8E6BE8490EC21D2FDD10FE0B9115F6C7637C7F4DE097384279C81F2146ECE76AB7FD52A959EAFB62
311
EAE4AAD04E3A9DAEE4B2C88CCC12FDE088A59979521DC676E83C466595DE9C943787665F958B595FD5386EA0C6F9C477483F959385D53691C6486BDFCD34772E4FCCC74CF1E41F504B03041400060808008F8D7657EACCF3A811010000300200004500000033303936333031322D364441312D343337362D424532462D3332
311
324232424542433339422F4173736574446174612F496E7374616E636550726F706572746965732E62696EEB606060F80F0540260323103700495E20ED9E9A975A94991C9C9C919A9BA802147031767273747573D435763635D735713472D575743331D17571747633B3B47431757532634768046931363471713532B5D435
311
353131D635313332D475727372D13534373670367376B67474B5042A03DBCBA019D37FE8ABC6157B20CD04146B0062181F4C03F940F0C11EA29A8141C08141002C0426541C106CAC2CA046088033B02A030AC2157C6006F21A8018AAF50194E6010A610250382264E08660284CD9E98021862280A91564B406929A0FF62C40
311
1E28B6F88038B83CB1243943D7A928312F253505242370A0B3CB01148810A0CD511ECCF5B71ECA69B87A15263143C2F6FE1FA0F80928ED00A561F2E83400504B03041400060808008F8D765728BB58AF800100009E0500003D00000033303936333031322D364441312D343337362D424532462D3332324232424542433339
311
422F536368656D61732F436F6D6D6F6E536368656D612E786D6CBD544D4FC23018BEFB2B96DE15493C78601010A34B880709DEDFB52FD0D8B54BD70DF6EFED3AC0B12E6442E2716BFB3CEFF3D18E26FB440405EA8C2B1992E1C323095052C5B8DC842437EBFB673219DF8DA659866649B798C078B48AE6410122242F2A4994
311
AC7F93815DF85C049C8564CA0A901499DD886B2EB9B1E02448F358701A9235880C49A0119892A20C89D1B9FD768815CAD268CB5E0355B40B1E47F3E37A2020464BED06AA57CE8FCC20C3C3446D46761A2632A8C1283D07031EFF2AE7CCB1BFEEE916E406DFAC8E36FFD99A9D60A6944090EEDC3B670C7DC13DE86B6B2C5C24
311
0D6E503BB85ACD579D513F1B9F9A69DC9CC22AFA80C426D40AF0B21EA168559156B6276F0F726A6BFF04DCD513A87A62CAD41FB24FCB2858B3952E3D852084DA25B9303C15687973CC8E8AAE11DF2836C38C6A9E765E8C1BA1BFB1DC29CDFE518C8B5A7655A4ED7E77291ABEB80DBD82EC866ADE1B8D05AF9E35CF09D7A061
311
F38A986D9EC412B8F0F65E5D81534D9B231D1E5A8FE577A241F3A5FD01504B03041400060808008F8D76572CCEBD668A040000E01200003E00000033303936333031322D364441312D343337362D424532462D3332324232424542433339422F536368656D61732F47656E65726963536368656D612E786D6CD5586D6FDB38
311
0CFE7EBF42F0F7A649B70E1B90744856B4970F450FCD7A5F05459613EDE4174872DADCAF3F522F8ED3B88D2F1D06AC4050DBA2493EE4438AF2F8EB73AEC8466823CB62928C06C384888297A92C5693A4B6D9D9E7E4EBD51FE3A931C22EF85AE4EC6AFC38BF261BA626C9AD288496DC3F4FCEAFC63366845F7A10452AF41DB3
311
20C0D44EC26EAB20918735565582695670811A6A49643A49A6E9069FA4604A64B29016DC4B48552F95E4932463CA888468C1D2B250DB4962750DF7CE273069CE8363F1FF4EDB00E0A21999574AE4A2B00C353B93F3BD4777B8A61ED8F604ABFEDD79CE56A2B7BDFBDBC50996E0ADDE16FED26223C5D30956C29BDF4A55EA68
311
6E5E58B112DA45CE67F76F4FA27EFA3FB672FD7372FC388FAECDCA5209E693CAD167BADCD272F943701B3812F8A3D852008B1D2E32DB927B2F833C6EA95879925356D254582695095A3CE982924720BE5774A3CB9CDCDB350427D2DF20DA1B5532EBE2D5D6288D75D4F7E4FD9890A0EF8E3D93EBB8F8BA4758158EF6FB90A6
311
F9520281C93DE7AAC6D24607DA296BB96018123F821A7D6A5C5884050C475DA4865442732C8B95684A50165CBB3A32F25F783A4A480ED59AD7F924B968AEA50131F46303223E6A397B0E52976030DC1DCA81D7E7C1EDEEA42C19FF27635C505E2BD5198A599020DF50A2330FCB3AAF28CB0124108429553EF1B228802E2265
311
D8F7CC2401042B155BCC7070F1E5C55F13B4A9577362CCCE46C32174E010C3C378C44841A4BDA00FE3A12006CE11EE6AEC59894D3526DDE1CD59D503ECC324017F8061B7F162162FA62EDD81AE3308617770796DCBDAD2B2625C5AE8A63DE20B2C8AA5E95E76E5730823955956E33E705425A2187C185D36489A1B44D3DCEC
311
2172F6BA2105C3546287A7194B2331768EBBE64F6E70A9930ABE0ADEA89E9E2C38523B810287AD67A54A039C1606EAFE68F8304610BB9093DBDDABC0B2AE4E290DCDA15376D7E39F72B556F0B32EAB5D3D498B4C41ABADEC3A1434C422D87E8025A84BDCB2B1417ED750FAE4DA8976863974C577C7F902D3F156AD354DEA35
311
40DE6BEAE2BEA52F7A2EB4CA43802ECE5BF2CE2EDC9347179FFB023CE412E60BE16DA0BE29B374988A553F561DC04615DD35F7D2C8979F60E5955CE93DF29DED8AFA1EE6642D53418086C03C47C377910F75F7E8F5EF665F70B60FFB22AEDF897D119E8423C773E819A3C1E55E550599EE6EDCA34D0C86FD72057DF2CD46F1
311
6A470682471C164E4346D5306BF12D7D12D82CFF673D41636C347443FEB51B50D72EA171A8E4A58623A4A16E0FA2B8B10A0D23268D87C33896EE8FB73305A74BF224EDBADFA0BD674AB354D63DB7BD5D83426761C077DE767728235446A552754EB93B755891C3C4CC6CADE37CF0E912A7BB38DBA010F9DE1282EDF470CA69
311
A9CDA482E334C4A6EA4107987980B17E72F31730EBF88BBD39E7C629F56797A3C0009C2C5AE7951D9A05A02773440F02EEB4DE396A3B6A570C72CCFBCD823B0B8ED3F1D5CEDDFED772FA70236C83FB7D86C385D570B87107535572A60A96035F8F7C6A7192F13007246BBE0521855E6AC46F3E27689CEE7D186A6FD679D98C
311
DCAD13333E04EBE7ED6F55FF01504B03041400060808008F8D76576180134D5F0100006B0300004500000033303936333031322D364441312D343337362D424532462D3332324232424542433339422F536368656D61732F52656E6465724D6174657269616C536368656D612E786D6CA5934D6FC2300C86EFFB1551EEE343
311
DBA41D1A103009551ADAD40EAE28A4A68D9426284961FCFBE5A340113B2071746D3F765EBF4DC6BFB5407BD0862B49F0B037C0082453059725C18DDD3EBFE3F1E829991803366715D474942CD30FB4A782E00C64017A412D684E454CE3FE28995203B162A6EA5AC94B66997D225E109CD63B0135484BAD1B3C07E9080CA35D
311
B3119C11BCA5C200461A68A1A438126C75E3E230D40FF81FB3F03C91D1E3A3A0AF79FE28E25BC39EC3E17E4C2A2D94A0833A51AF55BCCA7D88572FCBAC529C4140B020FC3AAFA886621DCED7EAD7664CC86024E806DC297DA1BB393E4156543457A4537DB8817349A70F8ACBF09B3EEE2CB2F33E91B65D60786E4E3B39B77E
311
3FEEEF5650424525DA657FB8B46BE6BF064646F0A0F7327C0BC1BC1B4CBBC1C419FA3CCB23500007872A2580CAAE5461865565294E4EDB4617B62FF579DF9A5B2F54E834076A597573A020912FED777F9B3F504B03041400060808008F8D76570C9DCBEA51000000570000004700000033303936333031322D364441312D34
311
3337362D424532462D3332324232424542433339422F4173736574446174612F41737365745461626C654F66436F6E74656E74732E62696E536160607031767273747573D435763635D735713472D575743331D17571747633B3B474317575321302AACB4D2C492DCA4CCC492C28484D2C4ACC4B4E050A82012F90744FCD03
311
CA26072767A4E6260200504B03041400060808008F8D7657F865834058000000680000004500000033303936333031322D364441312D343337362D424532462D3332324232424542433339422F4173736574446174612F53747265616D56657273696F6E5461626C652E696E66558CBD0A80300C06F73E4B117FB66E451741
311
D041DC5BF98480A492E4FDD18EAEC7DD4555D89EF28DF51A0B1BD8340C4DE7DD848B988C0ACF0649566493F2408C508DDEBB99D5129FF8F1AF8CF5B9503E20FAE5A16B5AF702504B03041400060808008F8D7657B3A20CDF350100009A0400003600000033303936333031322D364441312D343337362D424532462D333232
311
4232424542433339422F4173736574446174612F636E782E786D6CCD94314FC3301085FF4AE43D76935602558E2B044B2790A818D8AECEA5B5EAD8917D41F0EFB1D30CA022A60E5DCFEFCECF9FFC4E6E3E7B5B7C6088C6BB86557CC10A74DAB7C61D1A365257DEB362A364F09E7EC858E1A0C786E53253F210FC38CCA5163B
311
186DAE5AE34E73F12146A41DEC2D3E778FDE113A8AACD016626C58D447EC81C348BEC578E22D10F08A078C7E0C1AD324323DCE937440206C99AA17F5B2ACAAB2AE77D5DD7AB55A2FAB7729B252C9BDF776D69B7459F043A1CFB732B590221F2B3906336BF25B98FACB23DF1B2745522A1929242673077D0DA90386C11A0D94
311
D009AF09A94C22845E8AB358499119FC22F1849D7126B76C9331201F5E923D0C64F0E688FCE7F5FA64B62E12388DB7CBE3D2E1F529BC4E3FE8ED1CC82931B796934B87DCB8EE0A2911D31A49A1C95B457D03504B03041400060808008F8D76572D63FF7B090100004F0300003400000033303936333031322D364441312D34
311
3337362D424532462D3332324232424542433339422F536368656D61732F636E782E786D6CCD93BD6EC32014855FC56237D84EA456112643874E5DDA4EDD28DC2428C0B5F8A9DAB72FB80C89D4AD1DB2C1E1133AE770E1FB4F67BB0F08D1A09FC94807D28157A88D3FCE24A7437F4FBABDE001315D60A4F3D2C14CAA4C043F
311
06CC4B93341C64B655B5C69F9BF880CEA17F5127709274CACA186712D72D9539A18678A65A2649471A20620E0ACA0DC9386837A800328126621AA64D3F8EFD34BD8E77BBED76B719DF38ABA4E0EF88B6F1C62708B8740ACBC2173B0367F558F01C4C636A06222EBDD1D2066785103CA6503A6864FA5A0A2997C51A2553A98A
311
ADE00F2338AB51AF023F828760D46D26BE32F76F919FC16B084FE5958291F63693FFE6F16F05B075F6CB08D4AF20BE01504B03041400060808008F8D7657410A3D5871000000A40000002C00000033303936333031322D364441312D343337362D424532462D3332324232424542433339422F636E782E786D6C55CC4D0E82
311
301086E1AB34B31774E7A22D31F1069E60020334B633A63FC6E34B0909B07DDE2F9FEE7EC1AB2FC5E4840DDC9A2B28E25E06C7938192C7CB1D54677514C9871928C640062A83D55394F2D968A0118BAFEA1DBF377CA444F98919176EAB9FEAAB9F2960DA5BBB1E2ED3FA6FFF504B03041400060808008F8D76571CAC5A967E
311
000000A300000007000000636E782E786D6C4D8CDF0AC2201C465F457EF72EFF84355047D67A8FD1DC909C86CDD1E3A7B18BAE3E387CE7C8EEB378B4D9F4763128A00D0164C3238E2ECC0AF23AE133A04ECB14E3FA77031486C52AA818B49C53CCAF1D8D761AB2AFD4BBF0DC2127ADE084322C6E178A8FFC24B0E9D91D73C6
311
0C33BDB9F2D614E3509532BF5ED99AD75F504B03041400060808008F8D765716E99B5DA600000035010000130000005B436F6E74656E745F54797065735D2E786D6C9590410E82301045AFD2740F4517C6180A0BF5065E60AC53688469D30E066F6F91AD9AB89CF9FFFD3F99BA9DC7413C3026E749CB4D59498164FCCD51A7
311
E5C4B6D84BD136F5E5193089ECA5A465CF1C0E4A25D3E308A9F401292BD6C711388FB15301CC1D3A54DBAADA29E38991B8E0254336F5092D4C038BF39CD76B6FC6A538AEBEA54A4B08617006389FA516557DE4AE8E7E70DE30729138228C5F021CD93F02D4FB0DCD0B504B03041400060808008F8D76573DEE336E64000000
311
790000001B0000006175746F6465736B2D64657369676E2D7061636B6167652E786D6C35CBC10E83200C00D05F21DCA56CA76D41FC96062B120735B69A7DBE268BB7777961F8D5AF396893C2ADB70FE7ADA196782C2DF776D7A97B5933C430F15651E5469C55D70F80A4992A3ADC954792C525AE70A1E4D6AD9816CC044FEF
311
DF01FE3FDE907802504B03041400060808008F8D7657E22FDFCCF6000000960100003700000033303936333031322D364441312D343337362D424532462D3332324232424542433339422F4173736574446174612F636F72652E786D6C8550CB6EC32010FC156BEFD8C6503B8D3091A5BA5FD0536F08888B1283C5A3EAE717
311
62576A4F3DED6A76667677D8E56BBD579FDA07E3EC08B86EA1D2563A65EC32428A577482EAC299772EFEA24165C5AA47283070B67897B60392CE466D0B6A9DD2072842D0112A79CFCD08417EE855D422C5CC08B77A13F226165DE37AE77196925187D4A8EC66AE467BE0A42774EE9F66D4138C113DCDAF681A5A8C9E733BF7
311
14D369185853C49C45B3FE6C975E8BA815F0AEED08CACAAE7BC3C399D233C1EFAC294CCE42F4F9E76369F90EF854AE7E1151B0669FFE714D9BFADF35191B4977B8EE8A001CE7231F03CE9A92522E8F08732D89F26F504B03041400060808008F8D7657F968810EF5000000940100003500000033303936333031322D364441
311
312D343337362D424532462D3332324232424542433339422F536368656D61732F636F72652E786D6C8550CB6EC32010FC156BEFD8C6503B8D30510EEE0FB4A7DE10101725068B47D5CF2FD8AED49E7ADAD5ECCCECEEB0CBD7F2A83EB50FC6D91170DD42A5AD74CAD87984146FE804D58533EF5CFC4583CA8A458F5060E06C
311
F62EAD07249D8DDA16D43AA50F5084A02354F2919B1182FCD08BA8458A9911EEF52AE45DCCBAC6F5CEE32C25A30EA951D9CDDC8CF6C0494FE8D43F4DA82718237A9A5ED07568317ACEEDD4534CAFC3C09A22E62C9AE567BBF45A44AD80776D47505676DD1B1ECE949E097E674D617216A2CF3F1F4BCB77C05FB73B036BF6D9
311
1FCFB4AAFF3D93B1917487E7AE08C0713E711B70D6948C72D902CCB5E4C9BF01504B03041400060808008F8D7657841855F100010000D70100002D00000033303936333031322D364441312D343337362D424532462D3332324232424542433339422F636F72652E786D6C9591C14EC42010865F85CC9DB640EDBA1BCAC6EA
311
FA049EBC6199AD64B7D014303EBED4D6A8373D417EBE7F867F461EDFC72B79C33958EF5A604505045DEF8D75430B299EE92D90A392B3F7F10706C4E9115B58645072987D9A36A9F72EA25B54E70D6EA20E012390FE9A2F2D84FE15475DE81433112EC5A4FB8B1EB060C5CA2919EDF865ED67D4110D285E714119A39C3FB1DD
311
A1AE0F823DCB7221954CD645C1B76638BEA0217E8A3912A81B59AEAF994AD66C8C35F98FF66C710625AA7D232AC669F370C7682D760DED4EFC910ACE3BDE9DBA7BB1EF72916C5632C4394F662BB2CCE0AFF6D5F82B599ACC3F93AD8E008A7D872A97312B597EEE209FCB4AD407504B03041400060808008F8D7657089F8479
311
05010000B201000008000000636F72652E786D6C8D50416E833010FC8AB57703C614D2C838CA81BEA0A7DE5CEC502B60236C47EDEFBB4EA8D4DE7ADAD5ECCCCEEC8AD3E732939BD982F5AE075654408C1BBDB66EEA21C50B3D003949B1791F7FD18038B5981E320C524C9B4FEB0E8DDE45E332EABC363BA8423011C83863D3
311
43183FCCA20A952232C2B558D57855932958F1E04911EDF2231D37A3A2D120EBAAE694315AD7AFAC3B36CD91B3375166A6142959BD5B598DEEF662CD0692B7BC19DAA781B61C85CD6178A1E7AE62F419DBA16D5873EE3A5166B114216E78F3BE04734612D42DFB8AF23192E2DDFB792760284DBC9BBF4056A2CC833FA1D3AA
311
FF11DABAC8EB7DE1431140320C741FA071FE2096FB7BB1E66FCB6F504B010214001400060808008F8D7657B7139AB1D8000000200100004F000000000000000000000000000000000033303936333031322D364441312D343337362D424532462D3332324232424542433339422F4173736574446174612F446566696E6974
311
696F6E4974657261746F7250726F706572746965732E62696E504B010214001400060808008F8D7657EACCF3A8110100003002000045000000000000000000000000004501000033303936333031322D364441312D343337362D424532462D3332324232424542433339422F4173736574446174612F496E7374616E636550
311
726F706572746965732E62696E504B010214001400060808008F8D765728BB58AF800100009E0500003D00000000000000000000000000B902000033303936333031322D364441312D343337362D424532462D3332324232424542433339422F536368656D61732F436F6D6D6F6E536368656D612E786D6C504B0102140014
311
00060808008F8D76572CCEBD668A040000E01200003E000000000000000000000000009404000033303936333031322D364441312D343337362D424532462D3332324232424542433339422F536368656D61732F47656E65726963536368656D612E786D6C504B010214001400060808008F8D76576180134D5F0100006B03
311
000045000000000000000000000000007A09000033303936333031322D364441312D343337362D424532462D3332324232424542433339422F536368656D61732F52656E6465724D6174657269616C536368656D612E786D6C504B010214001400060808008F8D76570C9DCBEA510000005700000047000000000000000000
311
000000003C0B000033303936333031322D364441312D343337362D424532462D3332324232424542433339422F4173736574446174612F41737365745461626C654F66436F6E74656E74732E62696E504B010214001400060808008F8D7657F865834058000000680000004500000000000000000000000000F20B00003330
311
3936333031322D364441312D343337362D424532462D3332324232424542433339422F4173736574446174612F53747265616D56657273696F6E5461626C652E696E66504B010214001400060808008F8D7657B3A20CDF350100009A0400003600000000000000000000000000AD0C000033303936333031322D364441312D
311
343337362D424532462D3332324232424542433339422F4173736574446174612F636E782E786D6C504B010214001400060808008F8D76572D63FF7B090100004F0300003400000000000000000000000000360E000033303936333031322D364441312D343337362D424532462D3332324232424542433339422F53636865
311
6D61732F636E782E786D6C504B010214001400060808008F8D7657410A3D5871000000A40000002C00000000000000000000000000910F000033303936333031322D364441312D343337362D424532462D3332324232424542433339422F636E782E786D6C504B010214001400060808008F8D76571CAC5A967E000000A300
311
000007000000000000000000000000004C100000636E782E786D6C504B010214001400060808008F8D765716E99B5DA6000000350100001300000000000000000000000000EF1000005B436F6E74656E745F54797065735D2E786D6C504B010214001400060808008F8D76573DEE336E64000000790000001B000000000000
311
00000000000000C61100006175746F6465736B2D64657369676E2D7061636B6167652E786D6C504B010214001400060808008F8D7657E22FDFCCF60000009601000037000000000000000000000000006312000033303936333031322D364441312D343337362D424532462D3332324232424542433339422F417373657444
311
6174612F636F72652E786D6C504B010214001400060808008F8D7657F968810EF5000000940100003500000000000000000000000000AE13000033303936333031322D364441312D343337362D424532462D3332324232424542433339422F536368656D61732F636F72652E786D6C504B010214001400060808008F8D7657
311
841855F100010000D70100002D00000000000000000000000000F614000033303936333031322D364441312D343337362D424532462D3332324232424542433339422F636F72652E786D6C504B010214001400060808008F8D7657089F847905010000B2010000080000000000000000000000000041160000636F72652E78
311
6D6C504B050600000000110011005A0600006C1700000000
310
504B03041400060808008F8D7657000000000000000000000000370000006662782F35374432413032392D464231312D343634422D423731422D3237463443433133384336442F617474726962757465732E62696E504B03041400060808008F8D7657000000000000000000000000350000006662782F3537443241303239
310
2D464231312D343634422D423731422D3237463443433133384336442F76657274696365732E62696E504B03041400060808008F8D7657F270F1330600000004000000360000006662782F35374432413032392D464231312D343634422D423731422D3237463443433133384336442F747269616E676C65732E62696E6366
310
60600000504B03041400060808008F8D765751464CB48900000043010000360000006662782F35374432413032392D464231312D343634422D423731422D3237463443433133384336442F6469726563746F72792E786D6C9D8F310EC2300C45AF127987122606C71DD918B841D4B851A43646695A717C52A85029031293A5
310
A76FBF6FACEF7DA7264E43906840EF0FA03836E242F406C6DCEE4EA06AC22492573150D1F66C60C640E8938CB705396EEDD86DE9B5042FE27813D640EA63BB001C722AF6E55CB61E4863F58284D5D3F53DD715CE1C3985E63FD7F1B7EBDD617E9F1E504B03041400060808008F8D765766E853C23B070000201C0000340000
310
006662782F35374432413032392D464231312D343634422D423731422D3237463443433133384336442F6F626A656374732E786D6CDD59596FDB3810FE2B84F665F74196E42B71E1B8F0591845DAA24617FB26D032ED70431DA0A4C4D95FBF438A944545B6951EC062132056687238F3CD3D1ABF3F860C3D119ED238BAB3BC
310
8E6B211205F18E46873B2BCFF6F6AD85DE4FD098C77156D967A10887E4CE12CBD6647CE0719EA8A51DD9E39CD55757B3BF501A9088582860384DEFAC34782021EEE03C8B77247DECEC70863B87FDB1E3758A8D26D903C7C943EDAA04731265C02AAC47404571E099FF8248CE64EC880DC6B65EBB6DDD0BDB1C29B8C9288DD2
310
0C47C12BAE6AD775CF7055BBAEE7F517CBEE60640FFAFD9EDD1F763D7BB69A2D6CEFA6E7CE87F3F968BA1C596832DEC6312B15909068075A7CB126DED811DF94E22B149AF80EE228228142B369C38E28BA94A4754C0C603D295A452185AC95855E4BE1CF6C6B058AC19281B6164E7F56AD37DEFE0D20A46DAC94A74458799A
310
71D0B5C2BEF00777EC14AB865E688A429C114E31438C6E39E6A020D85A28C82023BC4590420233A9454DAFCA2B18F6755F6AE2729F3326FCD79A484FF3C11F49964ACEE83F849FB8AFDE063C81B4398DB25B256CF6920089D1D8918BC577BDAEFAB20012ED193E80B580986253AF5BC36B2E62C17A614D3EAEB6C78D880FCD
310
97273C4E08CF84E54967567EA73558312D30BE16A014B89ABA3BA1F215A0FF04C897BCA031688ED363FFD8D7B2731CA5FB9887A01DE422DB853F2E128FAF9EC64E79788290112BCF610A6EFB933035C430EEAE403A193F81D1C7BCA784DB0498814DDFD348F839180A62312C41BCDF6F8FD6640DC11416E11466203DFC8E1D
310
F188E0A3A003F1A6A6A1A6F0DB4251DA61EA7E76D2D507B0194E835255868CE7F01DFC147CA78BCDC74DCEF73820F7CAB117644F239A41326D66C800DD70F96FEB4FD2233FB0788BD9E9B4B129806B0EB1881B0D6AD928B520A917E044A4E1423372E59E82B733862312E7A95A6F8A5341CC62EE6F5FFCC2851BEFFA53DB40
310
71993280C65806C93DE03411985813A5AD3210762A82828561AE2CF05068D5DFE661E2E330CE23116A5F9B629D0F8833C21281AAA4A60D5B7BAD26BBA3FB7D9E42F06A2439378054FEAC091716DE8738D6C42F277B8E2189C6914F210783B334DE605C50827799E794B0BD4F19CB437F4F19E4113FC4C919FA2D25A866AE47
310
F2F21CF35D2341D3B2B44F6A1B12802B6035483A5B15315FE99493272ACA4C99CF74363076A83AD49AF4CFA40B91291A00D5C658187E6FB69A2E5753BB371FDCD8FD6977694F57FDBEBD98CE57C3D1683158CE86753E75B4AAE63B50A528730CFFCB1EF2701B61CAE00B2136DE25EFDECBEC79E740687406DECCBD5DDEF4ED
310
D5D2EDDB7D77B0B267CBA1670F7BEEA80F4F83A137753849E39C072475BA8EEB6B934CA2C339AE3477AF63289435D7939DD6575D98FF710CADE7044389FFD5205AC6AE8682B06D101547EB2114078F2245F901547D8DEE530BA2753E9AE2DC1BE3B2DBE9B9F2C7F3465D77D4BD1D9D5CF062A096F7FC709C6B922080BE33CF
310
FC38C101CD9A136A0D979671FA4DB9A5D3F30608D029FF96975CCE33EA129F86F840FC3D165D424360BC2641630E3BB0384D694452D9E5BDAAFE6A34DD0E145366CE6D30429AFA21C9F0F7D89F6C1B6A360DB199F9D08F66622270B52A280D5A7520E7288AEE1712B794FFC54F7198B0A2D3BD8681D7D510E81EA7C9E204D3
310
E28A27B0371F67BEBB237270718D7AC9BEAE0F1AB556A73EFA6EF267E0D175CD2F84475FD1BE74EA0CBC91F8B985A0321C78BD1BAD886B58E9AB32D1C7B11C3ACFE0C57F26F4F0D0AAD06CA7934AC95614D51909A18DC559CE5BF9EB70E0BEBA48C5859A43546E7A637128FB37DDC1017AB2813B57DE56AE813A944630E76A
310
25C82B291A4D58EA42CEF4C4E8EA0D7E7D51D955AA3F1C2F7F79C55C75BE500E7FAEE300D572118055F4316AEAC6AADBA887D2679C05104837F2D39E8147ECC8EED49819E49A4A745D9F5EAB9ED722A08630B1C522CEDE8B07F61583AAA17B4E9D0F45D1E614EB6B91D83A309C3EF161306DD2FAFC6153A3022BAD4F7F1118
310
91E71A05B53A17DDF00552DFD6A79EBF464149F46D7DE1F87FA2A3D00AAC8CD1601A9CC68CC2509EECD081C490BD61ECD0A2DBE02149655606E355414ABF116871FAA998A96678CBF4E9E001C3609AA95E2C0F60280A19F3CE52EBE83718838A49A41C4E751EA10D5331CC4239A77716586C46A1DBEA6C619C258787927A6D
310
5C098E8DA383C8F7C5A9F2FFD331810E44A5935CE59E36B828C90C6782C23691EF09A0EA2BBE988CBF5F74CD0EC2193C6EF3AC14E6B470924681A05F0814C2C1D4EF51C17B8482E2B25C5E47EE3120693599BF680705553BC3FC20C7EB15BCA78B2F8E988CAF3FA384E507A1CE4BDDAF41C9165D37CB8B29D4180C43899960
310
5143CEDF395F780CAF9842B4A26004E8F7E3EDF00F671E87611C154BCE54BDA8429B0778EDB473F4C80FDA78D71B38720AA0C6FAFE16A7A48377E9232C806A3915B3D10262C300CA685A3100AD11A10B3866EC5F2F90AA8D2A13926AD815F0C8993E024712EF7284DB5437540690E00BC095FCF2F4A017C60E8721F8E45F50
310
4B03041400060808008F8D7657D346B9AE3E01000046050000300000006662782F35374432413032392D464231312D343634422D423731422D3237463443433133384336442F636E782E786D6CCD94C14A033110865F25E4BE49775B504A36050F3E8107F196CD4ED7D86CB22413B16F6F52B755918A8742BD85C93FF07F33
310
3F23366FA325AF10A2F1AEA5355B50024EFBDEB8A1A509B7D52D251B2982F7F84546895323B4B494A91443F0699A4B3D6C55B2A56A8DDBCD4585184C97102225DAAA185B1AF5338C8AA984BE87B863BD42C56A1620FA1434E47E3423CCFD3A8042E8A96C16CDB2AAEBAA691EEA9BF56AB55ED64F8217A5149DF776D61B8710
310
FC44B4CF0F97CD2C042FDF52A460664D21A0F2D319EB8C133CFF4B11B35B37CC3ADC4F45374DD66885794CDC6B04ACB208D428F887580A5E78BF51DFDF3D1E1D90DE04D0E8C3FE4A03A8CF0DE0648CE524FC8DFF20FC1DDB772F19F75ADB3E0B3BDBBA18EA31AD31C7F5E7FE738A941BECFF0BFDC9D8E5339F4F091AFDFF90
310
8FBE2E44CC0F272F2FBD5C40F90E504B03041400060808008F8D7657372EBB127F000000A30000000B0000006662782F636E782E786D6C4D8CD10E822018465F85FDF79410896D820B9CEFE1121D13A191B41E3F685E74F56D67DF396DF7D91C7A9BF8B2C10B20A70A90F18F3059BF0848FB8C1B409D6C6308FBDF0D901F37
310
23A06090ED12437A1E6832F3985CA1CEFAF58057DED37B456F7850846056338515270A533E30ADC9A5D1759F8D7351F2FC7A794B5E7E01504B03041400060808008F8D7657A6D797065F0000008200000007000000636E782E786D6C4DCB3B0E80201045D1AD90E9FD7516806B51190811670C8A61F982B1B0BAC9C97B72CA
310
7B1037C6D3332918DA1E04D2CAC69353902EDB8C20262D23F3F59B81A079470595414B17391D1F19B4730A5583A7ED43BBE4025D9592775E5ADFFA01504B03041400060808008F8D76574FEB6A7CA0000000F4000000130000005B436F6E74656E745F54797065735D2E786D6C7D8F4B0EC2300C44AF1279DFA6B0400835ED
310
02B8011730C16D239A8F121795DB93D02D6269CFBC19BBED573B8B17C564BC53B0AB1B10E4B47F18372A5878A88E20FAAEBDBD032591BD2E299898C349CAA427B2986A1FC86565F0D122E7318E32A07EE24872DF3407A9BD63725C71C980AEBDD080CBCCE2BAE6F5D69B7110E7CD57AA146008B3D1C8F92C5954F993BB1BF7
310
87F39A89ABC491D09600F9FDA2FB00504B03041400060808008F8D76573DEE336E64000000790000001B0000006175746F6465736B2D64657369676E2D7061636B6167652E786D6C35CBC10E83200C00D05F21DCA56CA76D41FC96062B120735B69A7DBE268BB7777961F8D5AF396893C2ADB70FE7ADA196782C2DF776D7A9
310
7B5933C430F15651E5469C55D70F80A4992A3ADC954792C525AE70A1E4D6AD9816CC044FEFDF01FE3FDE907802504B03041400060808008F8D765744ABE245F8000000960100003B0000006662782F35374432413032392D464231312D343634422D423731422D3237463443433133384336442F7265736F75726365732F63
310
6F72652E786D6C8550CB6E833010FC15B4772036247123E32894FE414FBD596643AC041BF951F5F36B072AB5A79E76353B33BB3BFCFC353F8A4F745E5BD301A97650A05176D466EA20866BC9A0380BEEAC0DBF6850183963071906C12767E3B241CA9A8026A3C68EB881D27B0C50A8476A3AF0EA86B3AC640C89E1EFD522D5
310
5D4E58916AE5091EA31E37A91E939BBE6A74201A7661AF0365E5FED0F7657B4C1D63FB43D9BFF56C18D885D0979ED7592C78D0F3CF76E550061C41D01D6D4A424A4ADFC9F1D4B6A7867CF03A3305F7C1A59FB7A5F93B100EBD8D4EA1E7F53AFDE31A97F17FD7A84D68E8E6BA2A3C08928E7C0E04AF734AA93C234C35272ABE
310
01504B03041400060808008F8D76570CFD354FF2000000B1010000310000006662782F35374432413032392D464231312D343634422D423731422D3237463443433133384336442F636F72652E786D6C8D50CB6EC32010FC156BEFD806BB711A61A2DA51BEA0A7DE10101725068B4794CF2FC4AED4DE725A343BC3CC0E3D3E
310
E65B7157CE6B6B7AC0650D8532C24A6DA61E62B8A03D1447469DB5E10F0D0AC367D5438681D1C9D9B86C90B02628935163A5DA40EEBD0A50885B7AF4E0C5B79A79C963480C7F2D172EAE7C52252E571EA341CFBF52E1140F4A0223356910C688904FDC1DDAF6D0E02F5A6526A3316AB9596999DCF5452B07ECAD3B918F9ABC
310
A3F39084EDAE1DD0D0E10191EEDC8E236EF6E3EE44AB2C66D407976EDE3EC9D7BD2A5F85FF32C745BE90599BD090CD7055786038E5792E18AD7281693CDB4D3397CD7E00504B03041400060808008F8D7657016D07A853010000DD0200000C0000006662782F636F72652E786D6C8D52CB6E833010FC15E43B101B92B89171
310
149AFE414FBD39C6A156C046C646F9FCDA3C4439F4212458CDEECEEC8C20E767DB448330BDD4AA0030D9814828AE2BA9EA02387B8F3188CE9418ADEDB7311029D68A02041850521BEDBA19E25A59A102AA74256690F5BDB020E28D2F0AD0F34FD1B28439EB27FA47D231FE60B5486032CD51E29CACE6555979367997C2009A
310
E10B7EBD221CEF0F6519E7475F61BC3FC4E55B89AF577C81E8A5246958A6C4CA7651E746302B2A40D10E6531843142EFF078CAF353063F481A2629E9ADF19E67D1E00ED0FBED49D209DFF0B9AEFA9BCF49653334F34D1B3DA0D09F37362849433EFE3386B7CDD00BFBFC2CBB358B85878706C1AD36B9EF54DAADAD81354E78
310
EA5D343E249DBA9E7924F88907FDC2F33B870F8AA9DA9FC6AC2F6FCE06F5ED4D9D30F1609F91D2A665CD7ADC74E2FA5E8536969675AE1B6DFEB3BD585DC24CC38F49BF00504B03041400060808008F8D76571D52161E07010000B201000008000000636F72652E786D6C8D50CB6EC32010FC15B4773FC04E42234C14D7FD83
310
9E7AA386B828365880A3F6EF0B0995DA5B4FBB9A99DD995D76FA5C667453CE6B6B3AC0650D4899D14A6DA60EB6702928A01367CEDAF04B06C88845759060E06C72765B33345A139449A8B152655078AF02A0718E4D077EFC508B28C516A2C25FCB558C5731A912970F1D67412F3FA3A3532228099CD4A429302E0879C58763
310
DB1E1BFCC6AAA4E46CDBB4CC565A46777DD1CA016FE8993E0F8416BB7DDF17ED217694EEF645FFD2D361A0674C9E7A56A561CE7C70F1E6BC24E60CC88B5BF265D583E2ECDDDA390B622889AC99BF80D7AC4AC49FD0DB2AFF115A9BD090BCF031E181E318E84E44E3F4C158EEEF8D357D9B7F03504B01021400140006080800
310
8F8D76570000000000000000000000003700000000000000000000000000000000006662782F35374432413032392D464231312D343634422D423731422D3237463443433133384336442F617474726962757465732E62696E504B010214001400060808008F8D765700000000000000000000000035000000000000000000
310
00000000550000006662782F35374432413032392D464231312D343634422D423731422D3237463443433133384336442F76657274696365732E62696E504B010214001400060808008F8D7657F270F13306000000040000003600000000000000000000000000A80000006662782F35374432413032392D464231312D3436
310
34422D423731422D3237463443433133384336442F747269616E676C65732E62696E504B010214001400060808008F8D765751464CB489000000430100003600000000000000000000000000020100006662782F35374432413032392D464231312D343634422D423731422D3237463443433133384336442F646972656374
310
6F72792E786D6C504B010214001400060808008F8D765766E853C23B070000201C00003400000000000000000000000000DF0100006662782F35374432413032392D464231312D343634422D423731422D3237463443433133384336442F6F626A656374732E786D6C504B010214001400060808008F8D7657D346B9AE3E01
310
00004605000030000000000000000000000000006C0900006662782F35374432413032392D464231312D343634422D423731422D3237463443433133384336442F636E782E786D6C504B010214001400060808008F8D7657372EBB127F000000A30000000B00000000000000000000000000F80A00006662782F636E782E78
310
6D6C504B010214001400060808008F8D7657A6D797065F000000820000000700000000000000000000000000A00B0000636E782E786D6C504B010214001400060808008F8D76574FEB6A7CA0000000F40000001300000000000000000000000000240C00005B436F6E74656E745F54797065735D2E786D6C504B0102140014
310
00060808008F8D76573DEE336E64000000790000001B00000000000000000000000000F50C00006175746F6465736B2D64657369676E2D7061636B6167652E786D6C504B010214001400060808008F8D765744ABE245F8000000960100003B00000000000000000000000000920D00006662782F35374432413032392D4642
310
31312D343634422D423731422D3237463443433133384336442F7265736F75726365732F636F72652E786D6C504B010214001400060808008F8D76570CFD354FF2000000B10100003100000000000000000000000000E30E00006662782F35374432413032392D464231312D343634422D423731422D323746344343313338
310
4336442F636F72652E786D6C504B010214001400060808008F8D7657016D07A853010000DD0200000C00000000000000000000000000241000006662782F636F72652E786D6C504B010214001400060808008F8D76571D52161E07010000B20100000800000000000000000000000000A1110000636F72652E786D6C504B05
310
06000000000E000E0080040000CE1200000000
  0
XRECORD
  5
81D8
102
{ACAD_REACTORS
330
81D3
102
}
330
81D3
100
AcDbXrecord
280
     1
270
     1
271
     1
  0
XRECORD
  5
81D7
102
{ACAD_REACTORS
330
81D3
102
}
330
81D3
100
AcDbXrecord
280
     1
270
     1
271
     1
  0
XRECORD
  5
81D9
102
{ACAD_REACTORS
330
81D3
102
}
330
81D3
100
AcDbXrecord
280
     1
270
     1
271
     1
  0
XRECORD
  5
81D6
102
{ACAD_REACTORS
330
81D3
102
}
330
81D3
100
AcDbXrecord
280
     1
270
     1
271
     1
  0
XRECORD
  5
8370
102
{ACAD_REACTORS
330
836F
102
}
330
836F
100
AcDbXrecord
280
     1
102
DISPLAYNAME
  1
Imperial24
102
FLAGS
 90
        0
  0
CELLSTYLEMAP
  5
8337
102
{ACAD_REACTORS
330
8336
102
}
330
8336
100
AcDbCellStyleMap
 90
        3
300
CELLSTYLE
  1
TABLEFORMAT_BEGIN
 90
        5
170
     1
 91
        0
 92
    32768
 62
   257
 93
        1
300
CONTENTFORMAT
  1
CONTENTFORMAT_BEGIN
 90
        0
 91
        0
 92
      512
 93
        0
300

 40
0.0
140
1.0
 94
        5
 62
     0
340
8206
144
0.25
309
CONTENTFORMAT_END
171
     0
 94
        0
309
TABLEFORMAT_END
  1
CELLSTYLE_BEGIN
 90
        1
 91
        1
300
_TITLE
309
CELLSTYLE_END
300
CELLSTYLE
  1
TABLEFORMAT_BEGIN
 90
        5
170
     1
 91
        0
 92
        0
 62
   257
 93
        1
300
CONTENTFORMAT
  1
CONTENTFORMAT_BEGIN
 90
        0
 91
        0
 92
      512
 93
        0
300

 40
0.0
140
1.0
 94
        5
 62
     0
340
8206
144
0.18
309
CONTENTFORMAT_END
171
     0
 94
        0
309
TABLEFORMAT_END
  1
CELLSTYLE_BEGIN
 90
        2
 91
        1
300
_HEADER
309
CELLSTYLE_END
300
CELLSTYLE
  1
TABLEFORMAT_BEGIN
 90
        5
170
     1
 91
        0
 92
        0
 62
   257
 93
        1
300
CONTENTFORMAT
  1
CONTENTFORMAT_BEGIN
 90
        0
 91
        0
 92
      512
 93
        0
300

 40
0.0
140
1.0
 94
        2
 62
     0
340
8206
144
0.18
309
CONTENTFORMAT_END
171
     0
 94
        0
309
TABLEFORMAT_END
  1
CELLSTYLE_BEGIN
 90
        3
 91
        2
300
_DATA
309
CELLSTYLE_END
  0
XRECORD
  5
836D
102
{ACAD_REACTORS
330
8336
102
}
330
8336
100
AcDbXrecord
280
     1
102
ACAD_ROUNDTRIP_PRE2007_TABLESTYLE
 90
      512
 91
        0
  1

 92
      512
 93
        0
  2

 94
      512
 95
        0
  3

  0
XRECORD
  5
8348
102
{ACAD_REACTORS
330
8347
102
}
330
8347
100
AcDbXrecord
280
     1
102
RTVSPost2010Prop28
280
     1
102
RTVSPost2010PropOp28
 70
     1
102
RTVSPost2010Prop29
280
     1
102
RTVSPost2010PropOp29
 70
     1
102
RTVSPost2010Prop30
280
     0
102
RTVSPost2010PropOp30
 70
     1
102
RTVSPost2010Prop31
280
     0
102
RTVSPost2010PropOp31
 70
     1
102
RTVSPost2010Prop32
280
     0
102
RTVSPost2010PropOp32
 70
     1
102
RTVSPost2010Prop33
280
     0
102
RTVSPost2010PropOp33
 70
     1
102
RTVSPost2010Prop34
280
     0
102
RTVSPost2010PropOp34
 70
     1
102
RTVSPost2010Prop35
280
     0
102
RTVSPost2010PropOp35
 70
     1
102
RTVSPost2010Prop36
280
     0
102
RTVSPost2010PropOp36
 70
     1
102
RTVSPost2010Prop37
 90
       50
102
RTVSPost2010PropOp37
 70
     1
102
RTVSPost2010Prop38
140
0.0
102
RTVSPost2010PropOp38
 70
     1
102
RTVSPost2010Prop39
140
1.0
102
RTVSPost2010PropOp39
 70
     1
102
RTVSPost2010Prop40
 90
        0
102
RTVSPost2010PropOp40
 70
     1
102
RTVSPost2010Prop41ColorIndex
 90
       18
102
RTVSPost2010Prop41ColorRGB
 90
        0
102
RTVSPost2010PropOp41
 70
     1
102
RTVSPost2010Prop42
 90
       50
102
RTVSPost2010PropOp42
 70
     1
102
RTVSPost2010Prop43
 90
        3
102
RTVSPost2010PropOp43
 70
     1
102
RTVSPost2010Prop44ColorIndex
 90
        5
102
RTVSPost2010Prop44ColorRGB
 90
      255
102
RTVSPost2010PropOp44
 70
     1
102
RTVSPost2010Prop45
280
     0
102
RTVSPost2010PropOp45
 70
     1
102
RTVSPost2010Prop46
 90
       50
102
RTVSPost2010PropOp46
 70
     1
102
RTVSPost2010Prop47
 90
       50
102
RTVSPost2010PropOp47
 70
     1
102
RTVSPost2010Prop48
 90
       50
102
RTVSPost2010PropOp48
 70
     1
102
RTVSPost2010Prop49
280
     0
102
RTVSPost2010PropOp49
 70
     1
102
RTVSPost2010Prop50
 90
       50
102
RTVSPost2010PropOp50
 70
     1
102
RTVSPost2010Prop51ColorIndex
 90
      256
102
RTVSPost2010Prop51ColorRGB
 90
-16777216
102
RTVSPost2010PropOp51
 70
     0
102
RTVSPost2010Prop52
140
1.0
102
RTVSPost2010PropOp52
 70
     0
102
RTVSPost2010Prop53
 90
        2
102
RTVSPost2010PropOp53
 70
     1
102
RTVSPost2010Prop54
  1
strokes_ogs.tif
102
RTVSPost2010PropOp54
 70
     1
102
RTVSPost2010Prop55
280
     0
102
RTVSPost2010PropOp55
 70
     1
102
RTVSPost2010Prop56
140
1.0
102
RTVSPost2010PropOp56
 70
     1
102
RTVSPost2010Prop57
140
1.0
102
RTVSPost2010PropOp57
 70
     1
102
RTVSPropertyOp0
 70
     1
102
RTVSPropertyOp1
 70
     1
102
RTVSPropertyOp2
 70
     1
102
RTVSPropertyOp3
 70
     1
102
RTVSPropertyOp4
 70
     1
102
RTVSPropertyOp5
 70
     1
102
RTVSPropertyOp6
 70
     1
102
RTVSPropertyOp7
 70
     1
102
RTVSPropertyOp8
 70
     1
102
RTVSPropertyOp9
 70
     1
102
RTVSPropertyOp10
 70
     1
102
RTVSPropertyOp11
 70
     1
102
RTVSPropertyOp12
 70
     1
102
RTVSPropertyOp13
 70
     1
102
RTVSPropertyOp14
 70
     1
102
RTVSPropertyOp15
 70
     1
102
RTVSPropertyOp16
 70
     1
102
RTVSPropertyOp17
 70
     1
102
RTVSPropertyOp18
 70
     1
102
RTVSPropertyOp19
 70
     1
102
RTVSPropertyOp20
 70
     1
102
RTVSPropertyOp21
 70
     1
102
RTVSPropertyOp22
 70
     1
102
RTVSPropertyOp23
 70
     1
102
RTVSPropertyOp24
 70
     1
102
RTVSPropertyOp25
 70
     1
102
RTVSPropertyOp26
 70
     1
102
RTVSPropertyOp27
 70
     1
102
RTVSPropertyOp28
 70
     1
102
RTVSPropertyOp29
 70
     1
102
RTVSPropertyOp30
 70
     1
102
RTVSPropertyOp31
 70
     1
102
RTVSPropertyOp32
 70
     1
102
RTVSPropertyOp33
 70
     1
102
RTVSPropertyOp34
 70
     1
102
RTVSPropertyOp35
 70
     1
102
RTVSPropertyOp36
 70
     1
102
RTVSPropertyOp37
 70
     1
102
RTVSPropertyOp38
 70
     1
102
RTVSPropertyOp39
 70
     1
102
RTVSPropertyOp40
 70
     1
102
RTVSPropertyOp41
 70
     1
102
RTVSPropertyOp42
 70
     1
102
RTVSPropertyOp43
 70
     1
102
RTVSPropertyOp44
 70
     1
102
RTVSPropertyOp45
 70
     1
102
RTVSPropertyOp46
 70
     1
102
RTVSPropertyOp47
 70
     1
102
RTVSPropertyOp48
 70
     1
102
RTVSPropertyOp49
 70
     1
102
RTVSPropertyOp50
 70
     1
102
RTVSPropertyOp51
 70
     0
102
RTVSPropertyOp52
 70
     0
102
RTVSPropertyOp53
 70
     1
102
RTVSPropertyOp54
 70
     1
102
RTVSPropertyOp55
 70
     1
102
RTVSPropertyOp56
 70
     1
102
RTVSPropertyOp57
 70
     1
102
RTVSPropertyOp58
 70
     1
102
RTVSPropertyOp59
 70
     1
102
RTVSPropertyOp60
 70
     1
102
RTVSPropertyOp61
 70
     1
102
RTVSPropertyOp62
 70
     1
  0
XRECORD
  5
8346
102
{ACAD_REACTORS
330
8345
102
}
330
8345
100
AcDbXrecord
280
     1
102
RTVSPost2010Prop28
280
     0
102
RTVSPost2010PropOp28
 70
     1
102
RTVSPost2010Prop29
280
     1
102
RTVSPost2010PropOp29
 70
     1
102
RTVSPost2010Prop30
280
     1
102
RTVSPost2010PropOp30
 70
     1
102
RTVSPost2010Prop31
280
     0
102
RTVSPost2010PropOp31
 70
     1
102
RTVSPost2010Prop32
280
     0
102
RTVSPost2010PropOp32
 70
     1
102
RTVSPost2010Prop33
280
     0
102
RTVSPost2010PropOp33
 70
     1
102
RTVSPost2010Prop34
280
     0
102
RTVSPost2010PropOp34
 70
     1
102
RTVSPost2010Prop35
280
     0
102
RTVSPost2010PropOp35
 70
     1
102
RTVSPost2010Prop36
280
     0
102
RTVSPost2010PropOp36
 70
     1
102
RTVSPost2010Prop37
 90
       50
102
RTVSPost2010PropOp37
 70
     1
102
RTVSPost2010Prop38
140
0.0
102
RTVSPost2010PropOp38
 70
     1
102
RTVSPost2010Prop39
140
1.0
102
RTVSPost2010PropOp39
 70
     1
102
RTVSPost2010Prop40
 90
        0
102
RTVSPost2010PropOp40
 70
     1
102
RTVSPost2010Prop41ColorIndex
 90
       18
102
RTVSPost2010Prop41ColorRGB
 90
        0
102
RTVSPost2010PropOp41
 70
     1
102
RTVSPost2010Prop42
 90
       50
102
RTVSPost2010PropOp42
 70
     1
102
RTVSPost2010Prop43
 90
        3
102
RTVSPost2010PropOp43
 70
     1
102
RTVSPost2010Prop44ColorIndex
 90
        5
102
RTVSPost2010Prop44ColorRGB
 90
      255
102
RTVSPost2010PropOp44
 70
     1
102
RTVSPost2010Prop45
280
     0
102
RTVSPost2010PropOp45
 70
     1
102
RTVSPost2010Prop46
 90
       50
102
RTVSPost2010PropOp46
 70
     1
102
RTVSPost2010Prop47
 90
       50
102
RTVSPost2010PropOp47
 70
     1
102
RTVSPost2010Prop48
 90
       50
102
RTVSPost2010PropOp48
 70
     1
102
RTVSPost2010Prop49
280
     0
102
RTVSPost2010PropOp49
 70
     1
102
RTVSPost2010Prop50
 90
       50
102
RTVSPost2010PropOp50
 70
     1
102
RTVSPost2010Prop51ColorIndex
 90
      256
102
RTVSPost2010Prop51ColorRGB
 90
-16777216
102
RTVSPost2010PropOp51
 70
     0
102
RTVSPost2010Prop52
140
1.0
102
RTVSPost2010PropOp52
 70
     0
102
RTVSPost2010Prop53
 90
        2
102
RTVSPost2010PropOp53
 70
     1
102
RTVSPost2010Prop54
  1
strokes_ogs.tif
102
RTVSPost2010PropOp54
 70
     1
102
RTVSPost2010Prop55
280
     0
102
RTVSPost2010PropOp55
 70
     1
102
RTVSPost2010Prop56
140
1.0
102
RTVSPost2010PropOp56
 70
     1
102
RTVSPost2010Prop57
140
1.0
102
RTVSPost2010PropOp57
 70
     1
102
RTVSPropertyOp0
 70
     1
102
RTVSPropertyOp1
 70
     1
102
RTVSPropertyOp2
 70
     1
102
RTVSPropertyOp3
 70
     1
102
RTVSPropertyOp4
 70
     1
102
RTVSPropertyOp5
 70
     1
102
RTVSPropertyOp6
 70
     1
102
RTVSPropertyOp7
 70
     1
102
RTVSPropertyOp8
 70
     1
102
RTVSPropertyOp9
 70
     1
102
RTVSPropertyOp10
 70
     1
102
RTVSPropertyOp11
 70
     1
102
RTVSPropertyOp12
 70
     1
102
RTVSPropertyOp13
 70
     1
102
RTVSPropertyOp14
 70
     1
102
RTVSPropertyOp15
 70
     1
102
RTVSPropertyOp16
 70
     1
102
RTVSPropertyOp17
 70
     1
102
RTVSPropertyOp18
 70
     1
102
RTVSPropertyOp19
 70
     1
102
RTVSPropertyOp20
 70
     1
102
RTVSPropertyOp21
 70
     1
102
RTVSPropertyOp22
 70
     1
102
RTVSPropertyOp23
 70
     1
102
RTVSPropertyOp24
 70
     1
102
RTVSPropertyOp25
 70
     1
102
RTVSPropertyOp26
 70
     1
102
RTVSPropertyOp27
 70
     1
102
RTVSPropertyOp28
 70
     1
102
RTVSPropertyOp29
 70
     1
102
RTVSPropertyOp30
 70
     1
102
RTVSPropertyOp31
 70
     1
102
RTVSPropertyOp32
 70
     1
102
RTVSPropertyOp33
 70
     1
102
RTVSPropertyOp34
 70
     1
102
RTVSPropertyOp35
 70
     1
102
RTVSPropertyOp36
 70
     1
102
RTVSPropertyOp37
 70
     1
102
RTVSPropertyOp38
 70
     1
102
RTVSPropertyOp39
 70
     1
102
RTVSPropertyOp40
 70
     1
102
RTVSPropertyOp41
 70
     1
102
RTVSPropertyOp42
 70
     1
102
RTVSPropertyOp43
 70
     1
102
RTVSPropertyOp44
 70
     1
102
RTVSPropertyOp45
 70
     1
102
RTVSPropertyOp46
 70
     1
102
RTVSPropertyOp47
 70
     1
102
RTVSPropertyOp48
 70
     1
102
RTVSPropertyOp49
 70
     1
102
RTVSPropertyOp50
 70
     1
102
RTVSPropertyOp51
 70
     0
102
RTVSPropertyOp52
 70
     0
102
RTVSPropertyOp53
 70
     1
102
RTVSPropertyOp54
 70
     1
102
RTVSPropertyOp55
 70
     1
102
RTVSPropertyOp56
 70
     1
102
RTVSPropertyOp57
 70
     1
102
RTVSPropertyOp58
 70
     1
102
RTVSPropertyOp59
 70
     1
102
RTVSPropertyOp60
 70
     1
102
RTVSPropertyOp61
 70
     1
102
RTVSPropertyOp62
 70
     1
  0
XRECORD
  5
8354
102
{ACAD_REACTORS
330
8353
102
}
330
8353
100
AcDbXrecord
280
     1
102
RTVSPost2010Prop28
280
     0
102
RTVSPost2010PropOp28
 70
     1
102
RTVSPost2010Prop29
280
     1
102
RTVSPost2010PropOp29
 70
     1
102
RTVSPost2010Prop30
280
     1
102
RTVSPost2010PropOp30
 70
     1
102
RTVSPost2010Prop31
280
     0
102
RTVSPost2010PropOp31
 70
     1
102
RTVSPost2010Prop32
280
     0
102
RTVSPost2010PropOp32
 70
     1
102
RTVSPost2010Prop33
280
     0
102
RTVSPost2010PropOp33
 70
     1
102
RTVSPost2010Prop34
280
     0
102
RTVSPost2010PropOp34
 70
     1
102
RTVSPost2010Prop35
280
     0
102
RTVSPost2010PropOp35
 70
     1
102
RTVSPost2010Prop36
280
     0
102
RTVSPost2010PropOp36
 70
     1
102
RTVSPost2010Prop37
 90
       50
102
RTVSPost2010PropOp37
 70
     1
102
RTVSPost2010Prop38
140
0.0
102
RTVSPost2010PropOp38
 70
     1
102
RTVSPost2010Prop39
140
1.0
102
RTVSPost2010PropOp39
 70
     1
102
RTVSPost2010Prop40
 90
        0
102
RTVSPost2010PropOp40
 70
     1
102
RTVSPost2010Prop41ColorIndex
 90
       18
102
RTVSPost2010Prop41ColorRGB
 90
        0
102
RTVSPost2010PropOp41
 70
     1
102
RTVSPost2010Prop42
 90
       50
102
RTVSPost2010PropOp42
 70
     1
102
RTVSPost2010Prop43
 90
        3
102
RTVSPost2010PropOp43
 70
     1
102
RTVSPost2010Prop44ColorIndex
 90
        5
102
RTVSPost2010Prop44ColorRGB
 90
      255
102
RTVSPost2010PropOp44
 70
     1
102
RTVSPost2010Prop45
280
     0
102
RTVSPost2010PropOp45
 70
     1
102
RTVSPost2010Prop46
 90
       50
102
RTVSPost2010PropOp46
 70
     1
102
RTVSPost2010Prop47
 90
       50
102
RTVSPost2010PropOp47
 70
     1
102
RTVSPost2010Prop48
 90
       50
102
RTVSPost2010PropOp48
 70
     1
102
RTVSPost2010Prop49
280
     0
102
RTVSPost2010PropOp49
 70
     1
102
RTVSPost2010Prop50
 90
       50
102
RTVSPost2010PropOp50
 70
     1
102
RTVSPost2010Prop51ColorIndex
 90
      256
102
RTVSPost2010Prop51ColorRGB
 90
-16777216
102
RTVSPost2010PropOp51
 70
     0
102
RTVSPost2010Prop52
140
1.0
102
RTVSPost2010PropOp52
 70
     0
102
RTVSPost2010Prop53
 90
        2
102
RTVSPost2010PropOp53
 70
     1
102
RTVSPost2010Prop54
  1
strokes_ogs.tif
102
RTVSPost2010PropOp54
 70
     1
102
RTVSPost2010Prop55
280
     0
102
RTVSPost2010PropOp55
 70
     1
102
RTVSPost2010Prop56
140
1.0
102
RTVSPost2010PropOp56
 70
     1
102
RTVSPost2010Prop57
140
1.0
102
RTVSPost2010PropOp57
 70
     1
102
RTVSPropertyOp0
 70
     1
102
RTVSPropertyOp1
 70
     1
102
RTVSPropertyOp2
 70
     1
102
RTVSPropertyOp3
 70
     1
102
RTVSPropertyOp4
 70
     1
102
RTVSPropertyOp5
 70
     1
102
RTVSPropertyOp6
 70
     1
102
RTVSPropertyOp7
 70
     1
102
RTVSPropertyOp8
 70
     1
102
RTVSPropertyOp9
 70
     1
102
RTVSPropertyOp10
 70
     1
102
RTVSPropertyOp11
 70
     1
102
RTVSPropertyOp12
 70
     1
102
RTVSPropertyOp13
 70
     1
102
RTVSPropertyOp14
 70
     1
102
RTVSPropertyOp15
 70
     1
102
RTVSPropertyOp16
 70
     1
102
RTVSPropertyOp17
 70
     1
102
RTVSPropertyOp18
 70
     1
102
RTVSPropertyOp19
 70
     1
102
RTVSPropertyOp20
 70
     1
102
RTVSPropertyOp21
 70
     1
102
RTVSPropertyOp22
 70
     1
102
RTVSPropertyOp23
 70
     1
102
RTVSPropertyOp24
 70
     1
102
RTVSPropertyOp25
 70
     1
102
RTVSPropertyOp26
 70
     1
102
RTVSPropertyOp27
 70
     1
102
RTVSPropertyOp28
 70
     1
102
RTVSPropertyOp29
 70
     1
102
RTVSPropertyOp30
 70
     1
102
RTVSPropertyOp31
 70
     1
102
RTVSPropertyOp32
 70
     1
102
RTVSPropertyOp33
 70
     1
102
RTVSPropertyOp34
 70
     1
102
RTVSPropertyOp35
 70
     1
102
RTVSPropertyOp36
 70
     1
102
RTVSPropertyOp37
 70
     1
102
RTVSPropertyOp38
 70
     1
102
RTVSPropertyOp39
 70
     1
102
RTVSPropertyOp40
 70
     1
102
RTVSPropertyOp41
 70
     1
102
RTVSPropertyOp42
 70
     1
102
RTVSPropertyOp43
 70
     1
102
RTVSPropertyOp44
 70
     1
102
RTVSPropertyOp45
 70
     1
102
RTVSPropertyOp46
 70
     1
102
RTVSPropertyOp47
 70
     1
102
RTVSPropertyOp48
 70
     1
102
RTVSPropertyOp49
 70
     1
102
RTVSPropertyOp50
 70
     1
102
RTVSPropertyOp51
 70
     0
102
RTVSPropertyOp52
 70
     0
102
RTVSPropertyOp53
 70
     1
102
RTVSPropertyOp54
 70
     1
102
RTVSPropertyOp55
 70
     1
102
RTVSPropertyOp56
 70
     1
102
RTVSPropertyOp57
 70
     1
102
RTVSPropertyOp58
 70
     1
102
RTVSPropertyOp59
 70
     1
102
RTVSPropertyOp60
 70
     1
102
RTVSPropertyOp61
 70
     1
102
RTVSPropertyOp62
 70
     1
  0
XRECORD
  5
835C
102
{ACAD_REACTORS
330
835B
102
}
330
835B
100
AcDbXrecord
280
     1
102
RTVSPost2010Prop28
280
     0
102
RTVSPost2010PropOp28
 70
     1
102
RTVSPost2010Prop29
280
     1
102
RTVSPost2010PropOp29
 70
     1
102
RTVSPost2010Prop30
280
     1
102
RTVSPost2010PropOp30
 70
     1
102
RTVSPost2010Prop31
280
     0
102
RTVSPost2010PropOp31
 70
     1
102
RTVSPost2010Prop32
280
     0
102
RTVSPost2010PropOp32
 70
     1
102
RTVSPost2010Prop33
280
     0
102
RTVSPost2010PropOp33
 70
     1
102
RTVSPost2010Prop34
280
     0
102
RTVSPost2010PropOp34
 70
     1
102
RTVSPost2010Prop35
280
     0
102
RTVSPost2010PropOp35
 70
     1
102
RTVSPost2010Prop36
280
     0
102
RTVSPost2010PropOp36
 70
     1
102
RTVSPost2010Prop37
 90
       50
102
RTVSPost2010PropOp37
 70
     1
102
RTVSPost2010Prop38
140
0.0
102
RTVSPost2010PropOp38
 70
     1
102
RTVSPost2010Prop39
140
1.0
102
RTVSPost2010PropOp39
 70
     1
102
RTVSPost2010Prop40
 90
        0
102
RTVSPost2010PropOp40
 70
     1
102
RTVSPost2010Prop41ColorIndex
 90
       18
102
RTVSPost2010Prop41ColorRGB
 90
        0
102
RTVSPost2010PropOp41
 70
     1
102
RTVSPost2010Prop42
 90
       50
102
RTVSPost2010PropOp42
 70
     1
102
RTVSPost2010Prop43
 90
        3
102
RTVSPost2010PropOp43
 70
     1
102
RTVSPost2010Prop44ColorIndex
 90
        5
102
RTVSPost2010Prop44ColorRGB
 90
      255
102
RTVSPost2010PropOp44
 70
     1
102
RTVSPost2010Prop45
280
     0
102
RTVSPost2010PropOp45
 70
     1
102
RTVSPost2010Prop46
 90
       50
102
RTVSPost2010PropOp46
 70
     1
102
RTVSPost2010Prop47
 90
       50
102
RTVSPost2010PropOp47
 70
     1
102
RTVSPost2010Prop48
 90
       50
102
RTVSPost2010PropOp48
 70
     1
102
RTVSPost2010Prop49
280
     0
102
RTVSPost2010PropOp49
 70
     1
102
RTVSPost2010Prop50
 90
       50
102
RTVSPost2010PropOp50
 70
     1
102
RTVSPost2010Prop51ColorIndex
 90
      256
102
RTVSPost2010Prop51ColorRGB
 90
-16777216
102
RTVSPost2010PropOp51
 70
     0
102
RTVSPost2010Prop52
140
1.0
102
RTVSPost2010PropOp52
 70
     0
102
RTVSPost2010Prop53
 90
        2
102
RTVSPost2010PropOp53
 70
     1
102
RTVSPost2010Prop54
  1
strokes_ogs.tif
102
RTVSPost2010PropOp54
 70
     1
102
RTVSPost2010Prop55
280
     0
102
RTVSPost2010PropOp55
 70
     1
102
RTVSPost2010Prop56
140
1.0
102
RTVSPost2010PropOp56
 70
     1
102
RTVSPost2010Prop57
140
1.0
102
RTVSPost2010PropOp57
 70
     1
102
RTVSPropertyOp0
 70
     1
102
RTVSPropertyOp1
 70
     1
102
RTVSPropertyOp2
 70
     1
102
RTVSPropertyOp3
 70
     1
102
RTVSPropertyOp4
 70
     1
102
RTVSPropertyOp5
 70
     1
102
RTVSPropertyOp6
 70
     1
102
RTVSPropertyOp7
 70
     1
102
RTVSPropertyOp8
 70
     1
102
RTVSPropertyOp9
 70
     1
102
RTVSPropertyOp10
 70
     1
102
RTVSPropertyOp11
 70
     1
102
RTVSPropertyOp12
 70
     1
102
RTVSPropertyOp13
 70
     1
102
RTVSPropertyOp14
 70
     1
102
RTVSPropertyOp15
 70
     1
102
RTVSPropertyOp16
 70
     1
102
RTVSPropertyOp17
 70
     1
102
RTVSPropertyOp18
 70
     1
102
RTVSPropertyOp19
 70
     1
102
RTVSPropertyOp20
 70
     1
102
RTVSPropertyOp21
 70
     1
102
RTVSPropertyOp22
 70
     1
102
RTVSPropertyOp23
 70
     1
102
RTVSPropertyOp24
 70
     1
102
RTVSPropertyOp25
 70
     1
102
RTVSPropertyOp26
 70
     1
102
RTVSPropertyOp27
 70
     1
102
RTVSPropertyOp28
 70
     1
102
RTVSPropertyOp29
 70
     1
102
RTVSPropertyOp30
 70
     1
102
RTVSPropertyOp31
 70
     1
102
RTVSPropertyOp32
 70
     1
102
RTVSPropertyOp33
 70
     1
102
RTVSPropertyOp34
 70
     1
102
RTVSPropertyOp35
 70
     1
102
RTVSPropertyOp36
 70
     1
102
RTVSPropertyOp37
 70
     1
102
RTVSPropertyOp38
 70
     1
102
RTVSPropertyOp39
 70
     1
102
RTVSPropertyOp40
 70
     1
102
RTVSPropertyOp41
 70
     1
102
RTVSPropertyOp42
 70
     1
102
RTVSPropertyOp43
 70
     1
102
RTVSPropertyOp44
 70
     1
102
RTVSPropertyOp45
 70
     1
102
RTVSPropertyOp46
 70
     1
102
RTVSPropertyOp47
 70
     1
102
RTVSPropertyOp48
 70
     1
102
RTVSPropertyOp49
 70
     1
102
RTVSPropertyOp50
 70
     1
102
RTVSPropertyOp51
 70
     0
102
RTVSPropertyOp52
 70
     0
102
RTVSPropertyOp53
 70
     1
102
RTVSPropertyOp54
 70
     1
102
RTVSPropertyOp55
 70
     1
102
RTVSPropertyOp56
 70
     1
102
RTVSPropertyOp57
 70
     1
102
RTVSPropertyOp58
 70
     1
102
RTVSPropertyOp59
 70
     1
102
RTVSPropertyOp60
 70
     1
102
RTVSPropertyOp61
 70
     1
102
RTVSPropertyOp62
 70
     1
  0
XRECORD
  5
834E
102
{ACAD_REACTORS
330
834D
102
}
330
834D
100
AcDbXrecord
280
     1
102
RTVSPost2010Prop28
280
     0
102
RTVSPost2010PropOp28
 70
     1
102
RTVSPost2010Prop29
280
     1
102
RTVSPost2010PropOp29
 70
     1
102
RTVSPost2010Prop30
280
     1
102
RTVSPost2010PropOp30
 70
     1
102
RTVSPost2010Prop31
280
     0
102
RTVSPost2010PropOp31
 70
     1
102
RTVSPost2010Prop32
280
     0
102
RTVSPost2010PropOp32
 70
     1
102
RTVSPost2010Prop33
280
     0
102
RTVSPost2010PropOp33
 70
     1
102
RTVSPost2010Prop34
280
     0
102
RTVSPost2010PropOp34
 70
     1
102
RTVSPost2010Prop35
280
     0
102
RTVSPost2010PropOp35
 70
     1
102
RTVSPost2010Prop36
280
     0
102
RTVSPost2010PropOp36
 70
     1
102
RTVSPost2010Prop37
 90
       50
102
RTVSPost2010PropOp37
 70
     1
102
RTVSPost2010Prop38
140
0.0
102
RTVSPost2010PropOp38
 70
     1
102
RTVSPost2010Prop39
140
1.0
102
RTVSPost2010PropOp39
 70
     1
102
RTVSPost2010Prop40
 90
        0
102
RTVSPost2010PropOp40
 70
     1
102
RTVSPost2010Prop41ColorIndex
 90
       18
102
RTVSPost2010Prop41ColorRGB
 90
        0
102
RTVSPost2010PropOp41
 70
     1
102
RTVSPost2010Prop42
 90
       50
102
RTVSPost2010PropOp42
 70
     1
102
RTVSPost2010Prop43
 90
        3
102
RTVSPost2010PropOp43
 70
     1
102
RTVSPost2010Prop44ColorIndex
 90
        5
102
RTVSPost2010Prop44ColorRGB
 90
      255
102
RTVSPost2010PropOp44
 70
     1
102
RTVSPost2010Prop45
280
     0
102
RTVSPost2010PropOp45
 70
     1
102
RTVSPost2010Prop46
 90
       50
102
RTVSPost2010PropOp46
 70
     1
102
RTVSPost2010Prop47
 90
       50
102
RTVSPost2010PropOp47
 70
     1
102
RTVSPost2010Prop48
 90
       50
102
RTVSPost2010PropOp48
 70
     1
102
RTVSPost2010Prop49
280
     0
102
RTVSPost2010PropOp49
 70
     1
102
RTVSPost2010Prop50
 90
       50
102
RTVSPost2010PropOp50
 70
     1
102
RTVSPost2010Prop51ColorIndex
 90
      256
102
RTVSPost2010Prop51ColorRGB
 90
-16777216
102
RTVSPost2010PropOp51
 70
     0
102
RTVSPost2010Prop52
140
1.0
102
RTVSPost2010PropOp52
 70
     0
102
RTVSPost2010Prop53
 90
        2
102
RTVSPost2010PropOp53
 70
     1
102
RTVSPost2010Prop54
  1
strokes_ogs.tif
102
RTVSPost2010PropOp54
 70
     1
102
RTVSPost2010Prop55
280
     0
102
RTVSPost2010PropOp55
 70
     1
102
RTVSPost2010Prop56
140
1.0
102
RTVSPost2010PropOp56
 70
     1
102
RTVSPost2010Prop57
140
1.0
102
RTVSPost2010PropOp57
 70
     1
102
RTVSPropertyOp0
 70
     1
102
RTVSPropertyOp1
 70
     1
102
RTVSPropertyOp2
 70
     1
102
RTVSPropertyOp3
 70
     1
102
RTVSPropertyOp4
 70
     1
102
RTVSPropertyOp5
 70
     1
102
RTVSPropertyOp6
 70
     1
102
RTVSPropertyOp7
 70
     1
102
RTVSPropertyOp8
 70
     1
102
RTVSPropertyOp9
 70
     1
102
RTVSPropertyOp10
 70
     1
102
RTVSPropertyOp11
 70
     1
102
RTVSPropertyOp12
 70
     1
102
RTVSPropertyOp13
 70
     1
102
RTVSPropertyOp14
 70
     1
102
RTVSPropertyOp15
 70
     1
102
RTVSPropertyOp16
 70
     1
102
RTVSPropertyOp17
 70
     1
102
RTVSPropertyOp18
 70
     1
102
RTVSPropertyOp19
 70
     1
102
RTVSPropertyOp20
 70
     1
102
RTVSPropertyOp21
 70
     1
102
RTVSPropertyOp22
 70
     1
102
RTVSPropertyOp23
 70
     1
102
RTVSPropertyOp24
 70
     1
102
RTVSPropertyOp25
 70
     1
102
RTVSPropertyOp26
 70
     1
102
RTVSPropertyOp27
 70
     1
102
RTVSPropertyOp28
 70
     1
102
RTVSPropertyOp29
 70
     1
102
RTVSPropertyOp30
 70
     1
102
RTVSPropertyOp31
 70
     1
102
RTVSPropertyOp32
 70
     1
102
RTVSPropertyOp33
 70
     1
102
RTVSPropertyOp34
 70
     1
102
RTVSPropertyOp35
 70
     1
102
RTVSPropertyOp36
 70
     1
102
RTVSPropertyOp37
 70
     1
102
RTVSPropertyOp38
 70
     1
102
RTVSPropertyOp39
 70
     1
102
RTVSPropertyOp40
 70
     1
102
RTVSPropertyOp41
 70
     1
102
RTVSPropertyOp42
 70
     1
102
RTVSPropertyOp43
 70
     1
102
RTVSPropertyOp44
 70
     1
102
RTVSPropertyOp45
 70
     1
102
RTVSPropertyOp46
 70
     1
102
RTVSPropertyOp47
 70
     1
102
RTVSPropertyOp48
 70
     1
102
RTVSPropertyOp49
 70
     1
102
RTVSPropertyOp50
 70
     1
102
RTVSPropertyOp51
 70
     0
102
RTVSPropertyOp52
 70
     0
102
RTVSPropertyOp53
 70
     1
102
RTVSPropertyOp54
 70
     1
102
RTVSPropertyOp55
 70
     1
102
RTVSPropertyOp56
 70
     1
102
RTVSPropertyOp57
 70
     1
102
RTVSPropertyOp58
 70
     1
102
RTVSPropertyOp59
 70
     1
102
RTVSPropertyOp60
 70
     1
102
RTVSPropertyOp61
 70
     1
102
RTVSPropertyOp62
 70
     1
  0
XRECORD
  5
8352
102
{ACAD_REACTORS
330
8351
102
}
330
8351
100
AcDbXrecord
280
     1
102
RTVSPost2010Prop28
280
     0
102
RTVSPost2010PropOp28
 70
     1
102
RTVSPost2010Prop29
280
     1
102
RTVSPost2010PropOp29
 70
     1
102
RTVSPost2010Prop30
280
     1
102
RTVSPost2010PropOp30
 70
     1
102
RTVSPost2010Prop31
280
     0
102
RTVSPost2010PropOp31
 70
     1
102
RTVSPost2010Prop32
280
     0
102
RTVSPost2010PropOp32
 70
     1
102
RTVSPost2010Prop33
280
     0
102
RTVSPost2010PropOp33
 70
     1
102
RTVSPost2010Prop34
280
     0
102
RTVSPost2010PropOp34
 70
     1
102
RTVSPost2010Prop35
280
     0
102
RTVSPost2010PropOp35
 70
     1
102
RTVSPost2010Prop36
280
     0
102
RTVSPost2010PropOp36
 70
     1
102
RTVSPost2010Prop37
 90
       50
102
RTVSPost2010PropOp37
 70
     1
102
RTVSPost2010Prop38
140
0.0
102
RTVSPost2010PropOp38
 70
     1
102
RTVSPost2010Prop39
140
1.0
102
RTVSPost2010PropOp39
 70
     1
102
RTVSPost2010Prop40
 90
        0
102
RTVSPost2010PropOp40
 70
     1
102
RTVSPost2010Prop41ColorIndex
 90
       18
102
RTVSPost2010Prop41ColorRGB
 90
        0
102
RTVSPost2010PropOp41
 70
     1
102
RTVSPost2010Prop42
 90
       50
102
RTVSPost2010PropOp42
 70
     1
102
RTVSPost2010Prop43
 90
        3
102
RTVSPost2010PropOp43
 70
     1
102
RTVSPost2010Prop44ColorIndex
 90
        5
102
RTVSPost2010Prop44ColorRGB
 90
      255
102
RTVSPost2010PropOp44
 70
     1
102
RTVSPost2010Prop45
280
     0
102
RTVSPost2010PropOp45
 70
     1
102
RTVSPost2010Prop46
 90
       50
102
RTVSPost2010PropOp46
 70
     1
102
RTVSPost2010Prop47
 90
       50
102
RTVSPost2010PropOp47
 70
     1
102
RTVSPost2010Prop48
 90
       50
102
RTVSPost2010PropOp48
 70
     1
102
RTVSPost2010Prop49
280
     0
102
RTVSPost2010PropOp49
 70
     1
102
RTVSPost2010Prop50
 90
       50
102
RTVSPost2010PropOp50
 70
     1
102
RTVSPost2010Prop51ColorIndex
 90
      256
102
RTVSPost2010Prop51ColorRGB
 90
-16777216
102
RTVSPost2010PropOp51
 70
     0
102
RTVSPost2010Prop52
140
1.0
102
RTVSPost2010PropOp52
 70
     0
102
RTVSPost2010Prop53
 90
        2
102
RTVSPost2010PropOp53
 70
     1
102
RTVSPost2010Prop54
  1
strokes_ogs.tif
102
RTVSPost2010PropOp54
 70
     1
102
RTVSPost2010Prop55
280
     0
102
RTVSPost2010PropOp55
 70
     1
102
RTVSPost2010Prop56
140
1.0
102
RTVSPost2010PropOp56
 70
     1
102
RTVSPost2010Prop57
140
1.0
102
RTVSPost2010PropOp57
 70
     1
102
RTVSPropertyOp0
 70
     1
102
RTVSPropertyOp1
 70
     1
102
RTVSPropertyOp2
 70
     1
102
RTVSPropertyOp3
 70
     1
102
RTVSPropertyOp4
 70
     1
102
RTVSPropertyOp5
 70
     1
102
RTVSPropertyOp6
 70
     1
102
RTVSPropertyOp7
 70
     1
102
RTVSPropertyOp8
 70
     1
102
RTVSPropertyOp9
 70
     1
102
RTVSPropertyOp10
 70
     1
102
RTVSPropertyOp11
 70
     1
102
RTVSPropertyOp12
 70
     1
102
RTVSPropertyOp13
 70
     1
102
RTVSPropertyOp14
 70
     1
102
RTVSPropertyOp15
 70
     1
102
RTVSPropertyOp16
 70
     1
102
RTVSPropertyOp17
 70
     1
102
RTVSPropertyOp18
 70
     1
102
RTVSPropertyOp19
 70
     1
102
RTVSPropertyOp20
 70
     1
102
RTVSPropertyOp21
 70
     1
102
RTVSPropertyOp22
 70
     1
102
RTVSPropertyOp23
 70
     1
102
RTVSPropertyOp24
 70
     1
102
RTVSPropertyOp25
 70
     1
102
RTVSPropertyOp26
 70
     1
102
RTVSPropertyOp27
 70
     1
102
RTVSPropertyOp28
 70
     1
102
RTVSPropertyOp29
 70
     1
102
RTVSPropertyOp30
 70
     1
102
RTVSPropertyOp31
 70
     1
102
RTVSPropertyOp32
 70
     1
102
RTVSPropertyOp33
 70
     1
102
RTVSPropertyOp34
 70
     1
102
RTVSPropertyOp35
 70
     1
102
RTVSPropertyOp36
 70
     1
102
RTVSPropertyOp37
 70
     1
102
RTVSPropertyOp38
 70
     1
102
RTVSPropertyOp39
 70
     1
102
RTVSPropertyOp40
 70
     1
102
RTVSPropertyOp41
 70
     1
102
RTVSPropertyOp42
 70
     1
102
RTVSPropertyOp43
 70
     1
102
RTVSPropertyOp44
 70
     1
102
RTVSPropertyOp45
 70
     1
102
RTVSPropertyOp46
 70
     1
102
RTVSPropertyOp47
 70
     1
102
RTVSPropertyOp48
 70
     1
102
RTVSPropertyOp49
 70
     1
102
RTVSPropertyOp50
 70
     1
102
RTVSPropertyOp51
 70
     0
102
RTVSPropertyOp52
 70
     0
102
RTVSPropertyOp53
 70
     1
102
RTVSPropertyOp54
 70
     1
102
RTVSPropertyOp55
 70
     1
102
RTVSPropertyOp56
 70
     1
102
RTVSPropertyOp57
 70
     1
102
RTVSPropertyOp58
 70
     1
102
RTVSPropertyOp59
 70
     1
102
RTVSPropertyOp60
 70
     1
102
RTVSPropertyOp61
 70
     1
102
RTVSPropertyOp62
 70
     1
  0
XRECORD
  5
836C
102
{ACAD_REACTORS
330
836B
102
}
330
836B
100
AcDbXrecord
280
     1
102
RTVSPost2010Prop28
280
     0
102
RTVSPost2010PropOp28
 70
     1
102
RTVSPost2010Prop29
280
     1
102
RTVSPost2010PropOp29
 70
     1
102
RTVSPost2010Prop30
280
     1
102
RTVSPost2010PropOp30
 70
     1
102
RTVSPost2010Prop31
280
     0
102
RTVSPost2010PropOp31
 70
     1
102
RTVSPost2010Prop32
280
     0
102
RTVSPost2010PropOp32
 70
     1
102
RTVSPost2010Prop33
280
     0
102
RTVSPost2010PropOp33
 70
     1
102
RTVSPost2010Prop34
280
     0
102
RTVSPost2010PropOp34
 70
     1
102
RTVSPost2010Prop35
280
     0
102
RTVSPost2010PropOp35
 70
     1
102
RTVSPost2010Prop36
280
     0
102
RTVSPost2010PropOp36
 70
     1
102
RTVSPost2010Prop37
 90
       50
102
RTVSPost2010PropOp37
 70
     0
102
RTVSPost2010Prop38
140
0.0
102
RTVSPost2010PropOp38
 70
     0
102
RTVSPost2010Prop39
140
1.0
102
RTVSPost2010PropOp39
 70
     0
102
RTVSPost2010Prop40
 90
        0
102
RTVSPost2010PropOp40
 70
     0
102
RTVSPost2010Prop41ColorIndex
 90
       18
102
RTVSPost2010Prop41ColorRGB
 90
        0
102
RTVSPost2010PropOp41
 70
     0
102
RTVSPost2010Prop42
 90
       50
102
RTVSPost2010PropOp42
 70
     0
102
RTVSPost2010Prop43
 90
        3
102
RTVSPost2010PropOp43
 70
     0
102
RTVSPost2010Prop44ColorIndex
 90
        5
102
RTVSPost2010Prop44ColorRGB
 90
      255
102
RTVSPost2010PropOp44
 70
     0
102
RTVSPost2010Prop45
280
     0
102
RTVSPost2010PropOp45
 70
     1
102
RTVSPost2010Prop46
 90
       50
102
RTVSPost2010PropOp46
 70
     0
102
RTVSPost2010Prop47
 90
       50
102
RTVSPost2010PropOp47
 70
     0
102
RTVSPost2010Prop48
 90
       50
102
RTVSPost2010PropOp48
 70
     0
102
RTVSPost2010Prop49
280
     0
102
RTVSPost2010PropOp49
 70
     1
102
RTVSPost2010Prop50
 90
       50
102
RTVSPost2010PropOp50
 70
     0
102
RTVSPost2010Prop51ColorIndex
 90
      256
102
RTVSPost2010Prop51ColorRGB
 90
-16777216
102
RTVSPost2010PropOp51
 70
     0
102
RTVSPost2010Prop52
140
1.0
102
RTVSPost2010PropOp52
 70
     0
102
RTVSPost2010Prop53
 90
        2
102
RTVSPost2010PropOp53
 70
     0
102
RTVSPost2010Prop54
  1
strokes_ogs.tif
102
RTVSPost2010PropOp54
 70
     0
102
RTVSPost2010Prop55
280
     0
102
RTVSPost2010PropOp55
 70
     1
102
RTVSPost2010Prop56
140
1.0
102
RTVSPost2010PropOp56
 70
     0
102
RTVSPost2010Prop57
140
1.0
102
RTVSPost2010PropOp57
 70
     0
102
RTVSPropertyOp0
 70
     0
102
RTVSPropertyOp1
 70
     0
102
RTVSPropertyOp2
 70
     0
102
RTVSPropertyOp3
 70
     0
102
RTVSPropertyOp4
 70
     0
102
RTVSPropertyOp5
 70
     0
102
RTVSPropertyOp6
 70
     0
102
RTVSPropertyOp7
 70
     0
102
RTVSPropertyOp8
 70
     0
102
RTVSPropertyOp9
 70
     0
102
RTVSPropertyOp10
 70
     0
102
RTVSPropertyOp11
 70
     0
102
RTVSPropertyOp12
 70
     0
102
RTVSPropertyOp13
 70
     0
102
RTVSPropertyOp14
 70
     2
102
RTVSPropertyOp15
 70
     0
102
RTVSPropertyOp16
 70
     0
102
RTVSPropertyOp17
 70
     0
102
RTVSPropertyOp18
 70
     0
102
RTVSPropertyOp19
 70
     0
102
RTVSPropertyOp20
 70
     0
102
RTVSPropertyOp21
 70
     0
102
RTVSPropertyOp22
 70
     0
102
RTVSPropertyOp23
 70
     0
102
RTVSPropertyOp24
 70
     0
102
RTVSPropertyOp25
 70
     0
102
RTVSPropertyOp26
 70
     0
102
RTVSPropertyOp27
 70
     0
102
RTVSPropertyOp28
 70
     1
102
RTVSPropertyOp29
 70
     1
102
RTVSPropertyOp30
 70
     1
102
RTVSPropertyOp31
 70
     1
102
RTVSPropertyOp32
 70
     1
102
RTVSPropertyOp33
 70
     1
102
RTVSPropertyOp34
 70
     1
102
RTVSPropertyOp35
 70
     1
102
RTVSPropertyOp36
 70
     1
102
RTVSPropertyOp37
 70
     0
102
RTVSPropertyOp38
 70
     0
102
RTVSPropertyOp39
 70
     0
102
RTVSPropertyOp40
 70
     0
102
RTVSPropertyOp41
 70
     0
102
RTVSPropertyOp42
 70
     0
102
RTVSPropertyOp43
 70
     0
102
RTVSPropertyOp44
 70
     0
102
RTVSPropertyOp45
 70
     1
102
RTVSPropertyOp46
 70
     0
102
RTVSPropertyOp47
 70
     0
102
RTVSPropertyOp48
 70
     0
102
RTVSPropertyOp49
 70
     1
102
RTVSPropertyOp50
 70
     0
102
RTVSPropertyOp51
 70
     0
102
RTVSPropertyOp52
 70
     0
102
RTVSPropertyOp53
 70
     0
102
RTVSPropertyOp54
 70
     0
102
RTVSPropertyOp55
 70
     1
102
RTVSPropertyOp56
 70
     0
102
RTVSPropertyOp57
 70
     0
102
RTVSPropertyOp58
 70
     0
102
RTVSPropertyOp59
 70
     0
102
RTVSPropertyOp60
 70
     0
102
RTVSPropertyOp61
 70
     0
102
RTVSPropertyOp62
 70
     0
  0
XRECORD
  5
835A
102
{ACAD_REACTORS
330
8359
102
}
330
8359
100
AcDbXrecord
280
     1
102
RTVSPost2010Prop28
280
     0
102
RTVSPost2010PropOp28
 70
     1
102
RTVSPost2010Prop29
280
     1
102
RTVSPost2010PropOp29
 70
     1
102
RTVSPost2010Prop30
280
     1
102
RTVSPost2010PropOp30
 70
     1
102
RTVSPost2010Prop31
280
     0
102
RTVSPost2010PropOp31
 70
     1
102
RTVSPost2010Prop32
280
     0
102
RTVSPost2010PropOp32
 70
     1
102
RTVSPost2010Prop33
280
     0
102
RTVSPost2010PropOp33
 70
     1
102
RTVSPost2010Prop34
280
     0
102
RTVSPost2010PropOp34
 70
     1
102
RTVSPost2010Prop35
280
     0
102
RTVSPost2010PropOp35
 70
     1
102
RTVSPost2010Prop36
280
     0
102
RTVSPost2010PropOp36
 70
     1
102
RTVSPost2010Prop37
 90
       50
102
RTVSPost2010PropOp37
 70
     1
102
RTVSPost2010Prop38
140
0.0
102
RTVSPost2010PropOp38
 70
     1
102
RTVSPost2010Prop39
140
1.0
102
RTVSPost2010PropOp39
 70
     1
102
RTVSPost2010Prop40
 90
        0
102
RTVSPost2010PropOp40
 70
     1
102
RTVSPost2010Prop41ColorIndex
 90
       18
102
RTVSPost2010Prop41ColorRGB
 90
        0
102
RTVSPost2010PropOp41
 70
     1
102
RTVSPost2010Prop42
 90
       50
102
RTVSPost2010PropOp42
 70
     1
102
RTVSPost2010Prop43
 90
        3
102
RTVSPost2010PropOp43
 70
     1
102
RTVSPost2010Prop44ColorIndex
 90
        5
102
RTVSPost2010Prop44ColorRGB
 90
      255
102
RTVSPost2010PropOp44
 70
     1
102
RTVSPost2010Prop45
280
     0
102
RTVSPost2010PropOp45
 70
     1
102
RTVSPost2010Prop46
 90
       50
102
RTVSPost2010PropOp46
 70
     1
102
RTVSPost2010Prop47
 90
       50
102
RTVSPost2010PropOp47
 70
     1
102
RTVSPost2010Prop48
 90
       50
102
RTVSPost2010PropOp48
 70
     1
102
RTVSPost2010Prop49
280
     0
102
RTVSPost2010PropOp49
 70
     1
102
RTVSPost2010Prop50
 90
       50
102
RTVSPost2010PropOp50
 70
     1
102
RTVSPost2010Prop51ColorIndex
 90
      256
102
RTVSPost2010Prop51ColorRGB
 90
-16777216
102
RTVSPost2010PropOp51
 70
     0
102
RTVSPost2010Prop52
140
1.0
102
RTVSPost2010PropOp52
 70
     0
102
RTVSPost2010Prop53
 90
        2
102
RTVSPost2010PropOp53
 70
     1
102
RTVSPost2010Prop54
  1
strokes_ogs.tif
102
RTVSPost2010PropOp54
 70
     1
102
RTVSPost2010Prop55
280
     0
102
RTVSPost2010PropOp55
 70
     1
102
RTVSPost2010Prop56
140
1.0
102
RTVSPost2010PropOp56
 70
     1
102
RTVSPost2010Prop57
140
1.0
102
RTVSPost2010PropOp57
 70
     1
102
RTVSPropertyOp0
 70
     1
102
RTVSPropertyOp1
 70
     1
102
RTVSPropertyOp2
 70
     1
102
RTVSPropertyOp3
 70
     1
102
RTVSPropertyOp4
 70
     1
102
RTVSPropertyOp5
 70
     1
102
RTVSPropertyOp6
 70
     1
102
RTVSPropertyOp7
 70
     1
102
RTVSPropertyOp8
 70
     1
102
RTVSPropertyOp9
 70
     1
102
RTVSPropertyOp10
 70
     1
102
RTVSPropertyOp11
 70
     1
102
RTVSPropertyOp12
 70
     1
102
RTVSPropertyOp13
 70
     1
102
RTVSPropertyOp14
 70
     1
102
RTVSPropertyOp15
 70
     1
102
RTVSPropertyOp16
 70
     1
102
RTVSPropertyOp17
 70
     1
102
RTVSPropertyOp18
 70
     1
102
RTVSPropertyOp19
 70
     1
102
RTVSPropertyOp20
 70
     1
102
RTVSPropertyOp21
 70
     1
102
RTVSPropertyOp22
 70
     1
102
RTVSPropertyOp23
 70
     1
102
RTVSPropertyOp24
 70
     1
102
RTVSPropertyOp25
 70
     1
102
RTVSPropertyOp26
 70
     1
102
RTVSPropertyOp27
 70
     1
102
RTVSPropertyOp28
 70
     1
102
RTVSPropertyOp29
 70
     1
102
RTVSPropertyOp30
 70
     1
102
RTVSPropertyOp31
 70
     1
102
RTVSPropertyOp32
 70
     1
102
RTVSPropertyOp33
 70
     1
102
RTVSPropertyOp34
 70
     1
102
RTVSPropertyOp35
 70
     1
102
RTVSPropertyOp36
 70
     1
102
RTVSPropertyOp37
 70
     1
102
RTVSPropertyOp38
 70
     1
102
RTVSPropertyOp39
 70
     1
102
RTVSPropertyOp40
 70
     1
102
RTVSPropertyOp41
 70
     1
102
RTVSPropertyOp42
 70
     1
102
RTVSPropertyOp43
 70
     1
102
RTVSPropertyOp44
 70
     1
102
RTVSPropertyOp45
 70
     1
102
RTVSPropertyOp46
 70
     1
102
RTVSPropertyOp47
 70
     1
102
RTVSPropertyOp48
 70
     1
102
RTVSPropertyOp49
 70
     1
102
RTVSPropertyOp50
 70
     1
102
RTVSPropertyOp51
 70
     0
102
RTVSPropertyOp52
 70
     0
102
RTVSPropertyOp53
 70
     1
102
RTVSPropertyOp54
 70
     1
102
RTVSPropertyOp55
 70
     1
102
RTVSPropertyOp56
 70
     1
102
RTVSPropertyOp57
 70
     1
102
RTVSPropertyOp58
 70
     1
102
RTVSPropertyOp59
 70
     1
102
RTVSPropertyOp60
 70
     1
102
RTVSPropertyOp61
 70
     1
102
RTVSPropertyOp62
 70
     1
  0
XRECORD
  5
833E
102
{ACAD_REACTORS
330
833D
102
}
330
833D
100
AcDbXrecord
280
     1
102
RTVSPost2010Prop28
280
     0
102
RTVSPost2010PropOp28
 70
     1
102
RTVSPost2010Prop29
280
     1
102
RTVSPost2010PropOp29
 70
     1
102
RTVSPost2010Prop30
280
     1
102
RTVSPost2010PropOp30
 70
     1
102
RTVSPost2010Prop31
280
     0
102
RTVSPost2010PropOp31
 70
     1
102
RTVSPost2010Prop32
280
     0
102
RTVSPost2010PropOp32
 70
     1
102
RTVSPost2010Prop33
280
     0
102
RTVSPost2010PropOp33
 70
     1
102
RTVSPost2010Prop34
280
     0
102
RTVSPost2010PropOp34
 70
     1
102
RTVSPost2010Prop35
280
     0
102
RTVSPost2010PropOp35
 70
     1
102
RTVSPost2010Prop36
280
     0
102
RTVSPost2010PropOp36
 70
     1
102
RTVSPost2010Prop37
 90
       50
102
RTVSPost2010PropOp37
 70
     1
102
RTVSPost2010Prop38
140
0.0
102
RTVSPost2010PropOp38
 70
     1
102
RTVSPost2010Prop39
140
1.0
102
RTVSPost2010PropOp39
 70
     1
102
RTVSPost2010Prop40
 90
        0
102
RTVSPost2010PropOp40
 70
     1
102
RTVSPost2010Prop41ColorIndex
 90
       18
102
RTVSPost2010Prop41ColorRGB
 90
        0
102
RTVSPost2010PropOp41
 70
     1
102
RTVSPost2010Prop42
 90
       50
102
RTVSPost2010PropOp42
 70
     1
102
RTVSPost2010Prop43
 90
        3
102
RTVSPost2010PropOp43
 70
     1
102
RTVSPost2010Prop44ColorIndex
 90
        5
102
RTVSPost2010Prop44ColorRGB
 90
      255
102
RTVSPost2010PropOp44
 70
     1
102
RTVSPost2010Prop45
280
     0
102
RTVSPost2010PropOp45
 70
     1
102
RTVSPost2010Prop46
 90
       50
102
RTVSPost2010PropOp46
 70
     1
102
RTVSPost2010Prop47
 90
       50
102
RTVSPost2010PropOp47
 70
     1
102
RTVSPost2010Prop48
 90
       50
102
RTVSPost2010PropOp48
 70
     1
102
RTVSPost2010Prop49
280
     0
102
RTVSPost2010PropOp49
 70
     1
102
RTVSPost2010Prop50
 90
       50
102
RTVSPost2010PropOp50
 70
     1
102
RTVSPost2010Prop51ColorIndex
 90
      256
102
RTVSPost2010Prop51ColorRGB
 90
-16777216
102
RTVSPost2010PropOp51
 70
     0
102
RTVSPost2010Prop52
140
1.0
102
RTVSPost2010PropOp52
 70
     0
102
RTVSPost2010Prop53
 90
        2
102
RTVSPost2010PropOp53
 70
     1
102
RTVSPost2010Prop54
  1
strokes_ogs.tif
102
RTVSPost2010PropOp54
 70
     1
102
RTVSPost2010Prop55
280
     0
102
RTVSPost2010PropOp55
 70
     1
102
RTVSPost2010Prop56
140
1.0
102
RTVSPost2010PropOp56
 70
     1
102
RTVSPost2010Prop57
140
1.0
102
RTVSPost2010PropOp57
 70
     1
102
RTVSPropertyOp0
 70
     1
102
RTVSPropertyOp1
 70
     1
102
RTVSPropertyOp2
 70
     1
102
RTVSPropertyOp3
 70
     1
102
RTVSPropertyOp4
 70
     1
102
RTVSPropertyOp5
 70
     1
102
RTVSPropertyOp6
 70
     1
102
RTVSPropertyOp7
 70
     1
102
RTVSPropertyOp8
 70
     1
102
RTVSPropertyOp9
 70
     1
102
RTVSPropertyOp10
 70
     1
102
RTVSPropertyOp11
 70
     1
102
RTVSPropertyOp12
 70
     1
102
RTVSPropertyOp13
 70
     1
102
RTVSPropertyOp14
 70
     1
102
RTVSPropertyOp15
 70
     1
102
RTVSPropertyOp16
 70
     1
102
RTVSPropertyOp17
 70
     1
102
RTVSPropertyOp18
 70
     1
102
RTVSPropertyOp19
 70
     1
102
RTVSPropertyOp20
 70
     1
102
RTVSPropertyOp21
 70
     1
102
RTVSPropertyOp22
 70
     1
102
RTVSPropertyOp23
 70
     1
102
RTVSPropertyOp24
 70
     1
102
RTVSPropertyOp25
 70
     1
102
RTVSPropertyOp26
 70
     1
102
RTVSPropertyOp27
 70
     1
102
RTVSPropertyOp28
 70
     1
102
RTVSPropertyOp29
 70
     1
102
RTVSPropertyOp30
 70
     1
102
RTVSPropertyOp31
 70
     1
102
RTVSPropertyOp32
 70
     1
102
RTVSPropertyOp33
 70
     1
102
RTVSPropertyOp34
 70
     1
102
RTVSPropertyOp35
 70
     1
102
RTVSPropertyOp36
 70
     1
102
RTVSPropertyOp37
 70
     1
102
RTVSPropertyOp38
 70
     1
102
RTVSPropertyOp39
 70
     1
102
RTVSPropertyOp40
 70
     1
102
RTVSPropertyOp41
 70
     1
102
RTVSPropertyOp42
 70
     1
102
RTVSPropertyOp43
 70
     1
102
RTVSPropertyOp44
 70
     1
102
RTVSPropertyOp45
 70
     1
102
RTVSPropertyOp46
 70
     1
102
RTVSPropertyOp47
 70
     1
102
RTVSPropertyOp48
 70
     1
102
RTVSPropertyOp49
 70
     1
102
RTVSPropertyOp50
 70
     1
102
RTVSPropertyOp51
 70
     0
102
RTVSPropertyOp52
 70
     0
102
RTVSPropertyOp53
 70
     1
102
RTVSPropertyOp54
 70
     1
102
RTVSPropertyOp55
 70
     1
102
RTVSPropertyOp56
 70
     1
102
RTVSPropertyOp57
 70
     1
102
RTVSPropertyOp58
 70
     1
102
RTVSPropertyOp59
 70
     1
102
RTVSPropertyOp60
 70
     1
102
RTVSPropertyOp61
 70
     1
102
RTVSPropertyOp62
 70
     1
  0
XRECORD
  5
8340
102
{ACAD_REACTORS
330
833F
102
}
330
833F
100
AcDbXrecord
280
     1
102
RTVSPost2010Prop28
280
     0
102
RTVSPost2010PropOp28
 70
     1
102
RTVSPost2010Prop29
280
     1
102
RTVSPost2010PropOp29
 70
     1
102
RTVSPost2010Prop30
280
     1
102
RTVSPost2010PropOp30
 70
     1
102
RTVSPost2010Prop31
280
     0
102
RTVSPost2010PropOp31
 70
     1
102
RTVSPost2010Prop32
280
     0
102
RTVSPost2010PropOp32
 70
     1
102
RTVSPost2010Prop33
280
     0
102
RTVSPost2010PropOp33
 70
     1
102
RTVSPost2010Prop34
280
     0
102
RTVSPost2010PropOp34
 70
     1
102
RTVSPost2010Prop35
280
     0
102
RTVSPost2010PropOp35
 70
     1
102
RTVSPost2010Prop36
280
     0
102
RTVSPost2010PropOp36
 70
     1
102
RTVSPost2010Prop37
 90
       50
102
RTVSPost2010PropOp37
 70
     1
102
RTVSPost2010Prop38
140
0.0
102
RTVSPost2010PropOp38
 70
     1
102
RTVSPost2010Prop39
140
1.0
102
RTVSPost2010PropOp39
 70
     1
102
RTVSPost2010Prop40
 90
        0
102
RTVSPost2010PropOp40
 70
     1
102
RTVSPost2010Prop41ColorIndex
 90
       18
102
RTVSPost2010Prop41ColorRGB
 90
        0
102
RTVSPost2010PropOp41
 70
     1
102
RTVSPost2010Prop42
 90
       50
102
RTVSPost2010PropOp42
 70
     1
102
RTVSPost2010Prop43
 90
        3
102
RTVSPost2010PropOp43
 70
     1
102
RTVSPost2010Prop44ColorIndex
 90
        5
102
RTVSPost2010Prop44ColorRGB
 90
      255
102
RTVSPost2010PropOp44
 70
     1
102
RTVSPost2010Prop45
280
     0
102
RTVSPost2010PropOp45
 70
     1
102
RTVSPost2010Prop46
 90
       50
102
RTVSPost2010PropOp46
 70
     1
102
RTVSPost2010Prop47
 90
       50
102
RTVSPost2010PropOp47
 70
     1
102
RTVSPost2010Prop48
 90
       50
102
RTVSPost2010PropOp48
 70
     1
102
RTVSPost2010Prop49
280
     0
102
RTVSPost2010PropOp49
 70
     1
102
RTVSPost2010Prop50
 90
       50
102
RTVSPost2010PropOp50
 70
     1
102
RTVSPost2010Prop51ColorIndex
 90
      256
102
RTVSPost2010Prop51ColorRGB
 90
-16777216
102
RTVSPost2010PropOp51
 70
     0
102
RTVSPost2010Prop52
140
1.0
102
RTVSPost2010PropOp52
 70
     0
102
RTVSPost2010Prop53
 90
        2
102
RTVSPost2010PropOp53
 70
     1
102
RTVSPost2010Prop54
  1
strokes_ogs.tif
102
RTVSPost2010PropOp54
 70
     1
102
RTVSPost2010Prop55
280
     0
102
RTVSPost2010PropOp55
 70
     1
102
RTVSPost2010Prop56
140
1.0
102
RTVSPost2010PropOp56
 70
     1
102
RTVSPost2010Prop57
140
1.0
102
RTVSPost2010PropOp57
 70
     1
102
RTVSPropertyOp0
 70
     1
102
RTVSPropertyOp1
 70
     1
102
RTVSPropertyOp2
 70
     1
102
RTVSPropertyOp3
 70
     1
102
RTVSPropertyOp4
 70
     1
102
RTVSPropertyOp5
 70
     1
102
RTVSPropertyOp6
 70
     1
102
RTVSPropertyOp7
 70
     1
102
RTVSPropertyOp8
 70
     1
102
RTVSPropertyOp9
 70
     1
102
RTVSPropertyOp10
 70
     1
102
RTVSPropertyOp11
 70
     1
102
RTVSPropertyOp12
 70
     1
102
RTVSPropertyOp13
 70
     1
102
RTVSPropertyOp14
 70
     1
102
RTVSPropertyOp15
 70
     1
102
RTVSPropertyOp16
 70
     1
102
RTVSPropertyOp17
 70
     1
102
RTVSPropertyOp18
 70
     1
102
RTVSPropertyOp19
 70
     1
102
RTVSPropertyOp20
 70
     1
102
RTVSPropertyOp21
 70
     1
102
RTVSPropertyOp22
 70
     1
102
RTVSPropertyOp23
 70
     1
102
RTVSPropertyOp24
 70
     1
102
RTVSPropertyOp25
 70
     1
102
RTVSPropertyOp26
 70
     1
102
RTVSPropertyOp27
 70
     1
102
RTVSPropertyOp28
 70
     1
102
RTVSPropertyOp29
 70
     1
102
RTVSPropertyOp30
 70
     1
102
RTVSPropertyOp31
 70
     1
102
RTVSPropertyOp32
 70
     1
102
RTVSPropertyOp33
 70
     1
102
RTVSPropertyOp34
 70
     1
102
RTVSPropertyOp35
 70
     1
102
RTVSPropertyOp36
 70
     1
102
RTVSPropertyOp37
 70
     1
102
RTVSPropertyOp38
 70
     1
102
RTVSPropertyOp39
 70
     1
102
RTVSPropertyOp40
 70
     1
102
RTVSPropertyOp41
 70
     1
102
RTVSPropertyOp42
 70
     1
102
RTVSPropertyOp43
 70
     1
102
RTVSPropertyOp44
 70
     1
102
RTVSPropertyOp45
 70
     1
102
RTVSPropertyOp46
 70
     1
102
RTVSPropertyOp47
 70
     1
102
RTVSPropertyOp48
 70
     1
102
RTVSPropertyOp49
 70
     1
102
RTVSPropertyOp50
 70
     1
102
RTVSPropertyOp51
 70
     0
102
RTVSPropertyOp52
 70
     0
102
RTVSPropertyOp53
 70
     1
102
RTVSPropertyOp54
 70
     1
102
RTVSPropertyOp55
 70
     1
102
RTVSPropertyOp56
 70
     1
102
RTVSPropertyOp57
 70
     1
102
RTVSPropertyOp58
 70
     1
102
RTVSPropertyOp59
 70
     1
102
RTVSPropertyOp60
 70
     1
102
RTVSPropertyOp61
 70
     1
102
RTVSPropertyOp62
 70
     1
  0
XRECORD
  5
8342
102
{ACAD_REACTORS
330
8341
102
}
330
8341
100
AcDbXrecord
280
     1
102
RTVSPost2010Prop28
280
     0
102
RTVSPost2010PropOp28
 70
     1
102
RTVSPost2010Prop29
280
     1
102
RTVSPost2010PropOp29
 70
     1
102
RTVSPost2010Prop30
280
     1
102
RTVSPost2010PropOp30
 70
     1
102
RTVSPost2010Prop31
280
     0
102
RTVSPost2010PropOp31
 70
     1
102
RTVSPost2010Prop32
280
     0
102
RTVSPost2010PropOp32
 70
     1
102
RTVSPost2010Prop33
280
     0
102
RTVSPost2010PropOp33
 70
     1
102
RTVSPost2010Prop34
280
     0
102
RTVSPost2010PropOp34
 70
     1
102
RTVSPost2010Prop35
280
     0
102
RTVSPost2010PropOp35
 70
     1
102
RTVSPost2010Prop36
280
     0
102
RTVSPost2010PropOp36
 70
     1
102
RTVSPost2010Prop37
 90
       50
102
RTVSPost2010PropOp37
 70
     1
102
RTVSPost2010Prop38
140
0.0
102
RTVSPost2010PropOp38
 70
     1
102
RTVSPost2010Prop39
140
1.0
102
RTVSPost2010PropOp39
 70
     1
102
RTVSPost2010Prop40
 90
        0
102
RTVSPost2010PropOp40
 70
     1
102
RTVSPost2010Prop41ColorIndex
 90
       18
102
RTVSPost2010Prop41ColorRGB
 90
        0
102
RTVSPost2010PropOp41
 70
     1
102
RTVSPost2010Prop42
 90
       50
102
RTVSPost2010PropOp42
 70
     1
102
RTVSPost2010Prop43
 90
        3
102
RTVSPost2010PropOp43
 70
     1
102
RTVSPost2010Prop44ColorIndex
 90
        5
102
RTVSPost2010Prop44ColorRGB
 90
      255
102
RTVSPost2010PropOp44
 70
     1
102
RTVSPost2010Prop45
280
     0
102
RTVSPost2010PropOp45
 70
     1
102
RTVSPost2010Prop46
 90
       50
102
RTVSPost2010PropOp46
 70
     1
102
RTVSPost2010Prop47
 90
       50
102
RTVSPost2010PropOp47
 70
     1
102
RTVSPost2010Prop48
 90
       50
102
RTVSPost2010PropOp48
 70
     1
102
RTVSPost2010Prop49
280
     0
102
RTVSPost2010PropOp49
 70
     1
102
RTVSPost2010Prop50
 90
       50
102
RTVSPost2010PropOp50
 70
     1
102
RTVSPost2010Prop51ColorIndex
 90
      256
102
RTVSPost2010Prop51ColorRGB
 90
-16777216
102
RTVSPost2010PropOp51
 70
     0
102
RTVSPost2010Prop52
140
1.0
102
RTVSPost2010PropOp52
 70
     0
102
RTVSPost2010Prop53
 90
        2
102
RTVSPost2010PropOp53
 70
     1
102
RTVSPost2010Prop54
  1
strokes_ogs.tif
102
RTVSPost2010PropOp54
 70
     1
102
RTVSPost2010Prop55
280
     0
102
RTVSPost2010PropOp55
 70
     1
102
RTVSPost2010Prop56
140
1.0
102
RTVSPost2010PropOp56
 70
     1
102
RTVSPost2010Prop57
140
1.0
102
RTVSPost2010PropOp57
 70
     1
102
RTVSPropertyOp0
 70
     1
102
RTVSPropertyOp1
 70
     1
102
RTVSPropertyOp2
 70
     1
102
RTVSPropertyOp3
 70
     1
102
RTVSPropertyOp4
 70
     1
102
RTVSPropertyOp5
 70
     1
102
RTVSPropertyOp6
 70
     1
102
RTVSPropertyOp7
 70
     1
102
RTVSPropertyOp8
 70
     1
102
RTVSPropertyOp9
 70
     1
102
RTVSPropertyOp10
 70
     1
102
RTVSPropertyOp11
 70
     1
102
RTVSPropertyOp12
 70
     1
102
RTVSPropertyOp13
 70
     1
102
RTVSPropertyOp14
 70
     1
102
RTVSPropertyOp15
 70
     1
102
RTVSPropertyOp16
 70
     1
102
RTVSPropertyOp17
 70
     1
102
RTVSPropertyOp18
 70
     1
102
RTVSPropertyOp19
 70
     1
102
RTVSPropertyOp20
 70
     1
102
RTVSPropertyOp21
 70
     1
102
RTVSPropertyOp22
 70
     1
102
RTVSPropertyOp23
 70
     1
102
RTVSPropertyOp24
 70
     1
102
RTVSPropertyOp25
 70
     1
102
RTVSPropertyOp26
 70
     1
102
RTVSPropertyOp27
 70
     1
102
RTVSPropertyOp28
 70
     1
102
RTVSPropertyOp29
 70
     1
102
RTVSPropertyOp30
 70
     1
102
RTVSPropertyOp31
 70
     1
102
RTVSPropertyOp32
 70
     1
102
RTVSPropertyOp33
 70
     1
102
RTVSPropertyOp34
 70
     1
102
RTVSPropertyOp35
 70
     1
102
RTVSPropertyOp36
 70
     1
102
RTVSPropertyOp37
 70
     1
102
RTVSPropertyOp38
 70
     1
102
RTVSPropertyOp39
 70
     1
102
RTVSPropertyOp40
 70
     1
102
RTVSPropertyOp41
 70
     1
102
RTVSPropertyOp42
 70
     1
102
RTVSPropertyOp43
 70
     1
102
RTVSPropertyOp44
 70
     1
102
RTVSPropertyOp45
 70
     1
102
RTVSPropertyOp46
 70
     1
102
RTVSPropertyOp47
 70
     1
102
RTVSPropertyOp48
 70
     1
102
RTVSPropertyOp49
 70
     1
102
RTVSPropertyOp50
 70
     1
102
RTVSPropertyOp51
 70
     0
102
RTVSPropertyOp52
 70
     0
102
RTVSPropertyOp53
 70
     1
102
RTVSPropertyOp54
 70
     1
102
RTVSPropertyOp55
 70
     1
102
RTVSPropertyOp56
 70
     1
102
RTVSPropertyOp57
 70
     1
102
RTVSPropertyOp58
 70
     1
102
RTVSPropertyOp59
 70
     1
102
RTVSPropertyOp60
 70
     1
102
RTVSPropertyOp61
 70
     1
102
RTVSPropertyOp62
 70
     1
  0
XRECORD
  5
8344
102
{ACAD_REACTORS
330
8343
102
}
330
8343
100
AcDbXrecord
280
     1
102
RTVSPost2010Prop28
280
     0
102
RTVSPost2010PropOp28
 70
     1
102
RTVSPost2010Prop29
280
     1
102
RTVSPost2010PropOp29
 70
     1
102
RTVSPost2010Prop30
280
     1
102
RTVSPost2010PropOp30
 70
     1
102
RTVSPost2010Prop31
280
     0
102
RTVSPost2010PropOp31
 70
     1
102
RTVSPost2010Prop32
280
     0
102
RTVSPost2010PropOp32
 70
     1
102
RTVSPost2010Prop33
280
     0
102
RTVSPost2010PropOp33
 70
     1
102
RTVSPost2010Prop34
280
     0
102
RTVSPost2010PropOp34
 70
     1
102
RTVSPost2010Prop35
280
     0
102
RTVSPost2010PropOp35
 70
     1
102
RTVSPost2010Prop36
280
     0
102
RTVSPost2010PropOp36
 70
     1
102
RTVSPost2010Prop37
 90
       50
102
RTVSPost2010PropOp37
 70
     1
102
RTVSPost2010Prop38
140
0.0
102
RTVSPost2010PropOp38
 70
     1
102
RTVSPost2010Prop39
140
1.0
102
RTVSPost2010PropOp39
 70
     1
102
RTVSPost2010Prop40
 90
        0
102
RTVSPost2010PropOp40
 70
     1
102
RTVSPost2010Prop41ColorIndex
 90
       18
102
RTVSPost2010Prop41ColorRGB
 90
        0
102
RTVSPost2010PropOp41
 70
     1
102
RTVSPost2010Prop42
 90
       50
102
RTVSPost2010PropOp42
 70
     1
102
RTVSPost2010Prop43
 90
        3
102
RTVSPost2010PropOp43
 70
     1
102
RTVSPost2010Prop44ColorIndex
 90
        5
102
RTVSPost2010Prop44ColorRGB
 90
      255
102
RTVSPost2010PropOp44
 70
     1
102
RTVSPost2010Prop45
280
     0
102
RTVSPost2010PropOp45
 70
     1
102
RTVSPost2010Prop46
 90
       50
102
RTVSPost2010PropOp46
 70
     1
102
RTVSPost2010Prop47
 90
       50
102
RTVSPost2010PropOp47
 70
     1
102
RTVSPost2010Prop48
 90
       50
102
RTVSPost2010PropOp48
 70
     1
102
RTVSPost2010Prop49
280
     0
102
RTVSPost2010PropOp49
 70
     1
102
RTVSPost2010Prop50
 90
       50
102
RTVSPost2010PropOp50
 70
     1
102
RTVSPost2010Prop51ColorIndex
 90
      256
102
RTVSPost2010Prop51ColorRGB
 90
-16777216
102
RTVSPost2010PropOp51
 70
     0
102
RTVSPost2010Prop52
140
1.0
102
RTVSPost2010PropOp52
 70
     0
102
RTVSPost2010Prop53
 90
        2
102
RTVSPost2010PropOp53
 70
     1
102
RTVSPost2010Prop54
  1
strokes_ogs.tif
102
RTVSPost2010PropOp54
 70
     1
102
RTVSPost2010Prop55
280
     0
102
RTVSPost2010PropOp55
 70
     1
102
RTVSPost2010Prop56
140
1.0
102
RTVSPost2010PropOp56
 70
     1
102
RTVSPost2010Prop57
140
1.0
102
RTVSPost2010PropOp57
 70
     1
102
RTVSPropertyOp0
 70
     1
102
RTVSPropertyOp1
 70
     1
102
RTVSPropertyOp2
 70
     1
102
RTVSPropertyOp3
 70
     1
102
RTVSPropertyOp4
 70
     1
102
RTVSPropertyOp5
 70
     1
102
RTVSPropertyOp6
 70
     1
102
RTVSPropertyOp7
 70
     1
102
RTVSPropertyOp8
 70
     1
102
RTVSPropertyOp9
 70
     1
102
RTVSPropertyOp10
 70
     1
102
RTVSPropertyOp11
 70
     1
102
RTVSPropertyOp12
 70
     1
102
RTVSPropertyOp13
 70
     1
102
RTVSPropertyOp14
 70
     1
102
RTVSPropertyOp15
 70
     1
102
RTVSPropertyOp16
 70
     1
102
RTVSPropertyOp17
 70
     1
102
RTVSPropertyOp18
 70
     1
102
RTVSPropertyOp19
 70
     1
102
RTVSPropertyOp20
 70
     1
102
RTVSPropertyOp21
 70
     1
102
RTVSPropertyOp22
 70
     1
102
RTVSPropertyOp23
 70
     1
102
RTVSPropertyOp24
 70
     1
102
RTVSPropertyOp25
 70
     1
102
RTVSPropertyOp26
 70
     1
102
RTVSPropertyOp27
 70
     1
102
RTVSPropertyOp28
 70
     1
102
RTVSPropertyOp29
 70
     1
102
RTVSPropertyOp30
 70
     1
102
RTVSPropertyOp31
 70
     1
102
RTVSPropertyOp32
 70
     1
102
RTVSPropertyOp33
 70
     1
102
RTVSPropertyOp34
 70
     1
102
RTVSPropertyOp35
 70
     1
102
RTVSPropertyOp36
 70
     1
102
RTVSPropertyOp37
 70
     1
102
RTVSPropertyOp38
 70
     1
102
RTVSPropertyOp39
 70
     1
102
RTVSPropertyOp40
 70
     1
102
RTVSPropertyOp41
 70
     1
102
RTVSPropertyOp42
 70
     1
102
RTVSPropertyOp43
 70
     1
102
RTVSPropertyOp44
 70
     1
102
RTVSPropertyOp45
 70
     1
102
RTVSPropertyOp46
 70
     1
102
RTVSPropertyOp47
 70
     1
102
RTVSPropertyOp48
 70
     1
102
RTVSPropertyOp49
 70
     1
102
RTVSPropertyOp50
 70
     1
102
RTVSPropertyOp51
 70
     0
102
RTVSPropertyOp52
 70
     0
102
RTVSPropertyOp53
 70
     1
102
RTVSPropertyOp54
 70
     1
102
RTVSPropertyOp55
 70
     1
102
RTVSPropertyOp56
 70
     1
102
RTVSPropertyOp57
 70
     1
102
RTVSPropertyOp58
 70
     1
102
RTVSPropertyOp59
 70
     1
102
RTVSPropertyOp60
 70
     1
102
RTVSPropertyOp61
 70
     1
102
RTVSPropertyOp62
 70
     1
  0
XRECORD
  5
834C
102
{ACAD_REACTORS
330
834B
102
}
330
834B
100
AcDbXrecord
280
     1
102
RTVSPost2010Prop28
280
     0
102
RTVSPost2010PropOp28
 70
     1
102
RTVSPost2010Prop29
280
     1
102
RTVSPost2010PropOp29
 70
     1
102
RTVSPost2010Prop30
280
     1
102
RTVSPost2010PropOp30
 70
     1
102
RTVSPost2010Prop31
280
     0
102
RTVSPost2010PropOp31
 70
     1
102
RTVSPost2010Prop32
280
     0
102
RTVSPost2010PropOp32
 70
     1
102
RTVSPost2010Prop33
280
     0
102
RTVSPost2010PropOp33
 70
     1
102
RTVSPost2010Prop34
280
     0
102
RTVSPost2010PropOp34
 70
     1
102
RTVSPost2010Prop35
280
     0
102
RTVSPost2010PropOp35
 70
     1
102
RTVSPost2010Prop36
280
     0
102
RTVSPost2010PropOp36
 70
     1
102
RTVSPost2010Prop37
 90
       50
102
RTVSPost2010PropOp37
 70
     1
102
RTVSPost2010Prop38
140
0.0
102
RTVSPost2010PropOp38
 70
     1
102
RTVSPost2010Prop39
140
1.0
102
RTVSPost2010PropOp39
 70
     1
102
RTVSPost2010Prop40
 90
        0
102
RTVSPost2010PropOp40
 70
     1
102
RTVSPost2010Prop41ColorIndex
 90
       18
102
RTVSPost2010Prop41ColorRGB
 90
        0
102
RTVSPost2010PropOp41
 70
     1
102
RTVSPost2010Prop42
 90
       50
102
RTVSPost2010PropOp42
 70
     1
102
RTVSPost2010Prop43
 90
        3
102
RTVSPost2010PropOp43
 70
     1
102
RTVSPost2010Prop44ColorIndex
 90
        5
102
RTVSPost2010Prop44ColorRGB
 90
      255
102
RTVSPost2010PropOp44
 70
     1
102
RTVSPost2010Prop45
280
     0
102
RTVSPost2010PropOp45
 70
     1
102
RTVSPost2010Prop46
 90
       50
102
RTVSPost2010PropOp46
 70
     1
102
RTVSPost2010Prop47
 90
       50
102
RTVSPost2010PropOp47
 70
     1
102
RTVSPost2010Prop48
 90
       50
102
RTVSPost2010PropOp48
 70
     1
102
RTVSPost2010Prop49
280
     0
102
RTVSPost2010PropOp49
 70
     1
102
RTVSPost2010Prop50
 90
       50
102
RTVSPost2010PropOp50
 70
     1
102
RTVSPost2010Prop51ColorIndex
 90
      256
102
RTVSPost2010Prop51ColorRGB
 90
-16777216
102
RTVSPost2010PropOp51
 70
     0
102
RTVSPost2010Prop52
140
1.0
102
RTVSPost2010PropOp52
 70
     0
102
RTVSPost2010Prop53
 90
        2
102
RTVSPost2010PropOp53
 70
     1
102
RTVSPost2010Prop54
  1
strokes_ogs.tif
102
RTVSPost2010PropOp54
 70
     1
102
RTVSPost2010Prop55
280
     0
102
RTVSPost2010PropOp55
 70
     1
102
RTVSPost2010Prop56
140
1.0
102
RTVSPost2010PropOp56
 70
     1
102
RTVSPost2010Prop57
140
1.0
102
RTVSPost2010PropOp57
 70
     1
102
RTVSPropertyOp0
 70
     1
102
RTVSPropertyOp1
 70
     1
102
RTVSPropertyOp2
 70
     1
102
RTVSPropertyOp3
 70
     1
102
RTVSPropertyOp4
 70
     1
102
RTVSPropertyOp5
 70
     1
102
RTVSPropertyOp6
 70
     1
102
RTVSPropertyOp7
 70
     1
102
RTVSPropertyOp8
 70
     1
102
RTVSPropertyOp9
 70
     1
102
RTVSPropertyOp10
 70
     1
102
RTVSPropertyOp11
 70
     1
102
RTVSPropertyOp12
 70
     1
102
RTVSPropertyOp13
 70
     1
102
RTVSPropertyOp14
 70
     1
102
RTVSPropertyOp15
 70
     1
102
RTVSPropertyOp16
 70
     1
102
RTVSPropertyOp17
 70
     1
102
RTVSPropertyOp18
 70
     1
102
RTVSPropertyOp19
 70
     1
102
RTVSPropertyOp20
 70
     1
102
RTVSPropertyOp21
 70
     1
102
RTVSPropertyOp22
 70
     1
102
RTVSPropertyOp23
 70
     1
102
RTVSPropertyOp24
 70
     1
102
RTVSPropertyOp25
 70
     1
102
RTVSPropertyOp26
 70
     1
102
RTVSPropertyOp27
 70
     1
102
RTVSPropertyOp28
 70
     1
102
RTVSPropertyOp29
 70
     1
102
RTVSPropertyOp30
 70
     1
102
RTVSPropertyOp31
 70
     1
102
RTVSPropertyOp32
 70
     1
102
RTVSPropertyOp33
 70
     1
102
RTVSPropertyOp34
 70
     1
102
RTVSPropertyOp35
 70
     1
102
RTVSPropertyOp36
 70
     1
102
RTVSPropertyOp37
 70
     1
102
RTVSPropertyOp38
 70
     1
102
RTVSPropertyOp39
 70
     1
102
RTVSPropertyOp40
 70
     1
102
RTVSPropertyOp41
 70
     1
102
RTVSPropertyOp42
 70
     1
102
RTVSPropertyOp43
 70
     1
102
RTVSPropertyOp44
 70
     1
102
RTVSPropertyOp45
 70
     1
102
RTVSPropertyOp46
 70
     1
102
RTVSPropertyOp47
 70
     1
102
RTVSPropertyOp48
 70
     1
102
RTVSPropertyOp49
 70
     1
102
RTVSPropertyOp50
 70
     1
102
RTVSPropertyOp51
 70
     0
102
RTVSPropertyOp52
 70
     0
102
RTVSPropertyOp53
 70
     1
102
RTVSPropertyOp54
 70
     1
102
RTVSPropertyOp55
 70
     1
102
RTVSPropertyOp56
 70
     1
102
RTVSPropertyOp57
 70
     1
102
RTVSPropertyOp58
 70
     1
102
RTVSPropertyOp59
 70
     1
102
RTVSPropertyOp60
 70
     1
102
RTVSPropertyOp61
 70
     1
102
RTVSPropertyOp62
 70
     1
  0
XRECORD
  5
8368
102
{ACAD_REACTORS
330
8367
102
}
330
8367
100
AcDbXrecord
280
     1
102
RTVSPost2010Prop28
280
     0
102
RTVSPost2010PropOp28
 70
     1
102
RTVSPost2010Prop29
280
     1
102
RTVSPost2010PropOp29
 70
     1
102
RTVSPost2010Prop30
280
     1
102
RTVSPost2010PropOp30
 70
     1
102
RTVSPost2010Prop31
280
     0
102
RTVSPost2010PropOp31
 70
     1
102
RTVSPost2010Prop32
280
     0
102
RTVSPost2010PropOp32
 70
     1
102
RTVSPost2010Prop33
280
     0
102
RTVSPost2010PropOp33
 70
     1
102
RTVSPost2010Prop34
280
     0
102
RTVSPost2010PropOp34
 70
     1
102
RTVSPost2010Prop35
280
     0
102
RTVSPost2010PropOp35
 70
     1
102
RTVSPost2010Prop36
280
     0
102
RTVSPost2010PropOp36
 70
     1
102
RTVSPost2010Prop37
 90
       50
102
RTVSPost2010PropOp37
 70
     0
102
RTVSPost2010Prop38
140
0.0
102
RTVSPost2010PropOp38
 70
     0
102
RTVSPost2010Prop39
140
1.0
102
RTVSPost2010PropOp39
 70
     0
102
RTVSPost2010Prop40
 90
        0
102
RTVSPost2010PropOp40
 70
     0
102
RTVSPost2010Prop41ColorIndex
 90
       18
102
RTVSPost2010Prop41ColorRGB
 90
        0
102
RTVSPost2010PropOp41
 70
     0
102
RTVSPost2010Prop42
 90
       50
102
RTVSPost2010PropOp42
 70
     0
102
RTVSPost2010Prop43
 90
        3
102
RTVSPost2010PropOp43
 70
     0
102
RTVSPost2010Prop44ColorIndex
 90
        5
102
RTVSPost2010Prop44ColorRGB
 90
      255
102
RTVSPost2010PropOp44
 70
     0
102
RTVSPost2010Prop45
280
     0
102
RTVSPost2010PropOp45
 70
     1
102
RTVSPost2010Prop46
 90
       50
102
RTVSPost2010PropOp46
 70
     0
102
RTVSPost2010Prop47
 90
       50
102
RTVSPost2010PropOp47
 70
     0
102
RTVSPost2010Prop48
 90
       50
102
RTVSPost2010PropOp48
 70
     0
102
RTVSPost2010Prop49
280
     0
102
RTVSPost2010PropOp49
 70
     1
102
RTVSPost2010Prop50
 90
       50
102
RTVSPost2010PropOp50
 70
     0
102
RTVSPost2010Prop51ColorIndex
 90
      256
102
RTVSPost2010Prop51ColorRGB
 90
-16777216
102
RTVSPost2010PropOp51
 70
     0
102
RTVSPost2010Prop52
140
1.0
102
RTVSPost2010PropOp52
 70
     0
102
RTVSPost2010Prop53
 90
        2
102
RTVSPost2010PropOp53
 70
     0
102
RTVSPost2010Prop54
  1
strokes_ogs.tif
102
RTVSPost2010PropOp54
 70
     0
102
RTVSPost2010Prop55
280
     0
102
RTVSPost2010PropOp55
 70
     1
102
RTVSPost2010Prop56
140
1.0
102
RTVSPost2010PropOp56
 70
     0
102
RTVSPost2010Prop57
140
1.0
102
RTVSPost2010PropOp57
 70
     0
102
RTVSPropertyOp0
 70
     0
102
RTVSPropertyOp1
 70
     0
102
RTVSPropertyOp2
 70
     0
102
RTVSPropertyOp3
 70
     0
102
RTVSPropertyOp4
 70
     0
102
RTVSPropertyOp5
 70
     0
102
RTVSPropertyOp6
 70
     0
102
RTVSPropertyOp7
 70
     0
102
RTVSPropertyOp8
 70
     0
102
RTVSPropertyOp9
 70
     0
102
RTVSPropertyOp10
 70
     0
102
RTVSPropertyOp11
 70
     0
102
RTVSPropertyOp12
 70
     0
102
RTVSPropertyOp13
 70
     0
102
RTVSPropertyOp14
 70
     2
102
RTVSPropertyOp15
 70
     0
102
RTVSPropertyOp16
 70
     0
102
RTVSPropertyOp17
 70
     0
102
RTVSPropertyOp18
 70
     0
102
RTVSPropertyOp19
 70
     0
102
RTVSPropertyOp20
 70
     0
102
RTVSPropertyOp21
 70
     0
102
RTVSPropertyOp22
 70
     0
102
RTVSPropertyOp23
 70
     0
102
RTVSPropertyOp24
 70
     0
102
RTVSPropertyOp25
 70
     0
102
RTVSPropertyOp26
 70
     0
102
RTVSPropertyOp27
 70
     0
102
RTVSPropertyOp28
 70
     1
102
RTVSPropertyOp29
 70
     1
102
RTVSPropertyOp30
 70
     1
102
RTVSPropertyOp31
 70
     1
102
RTVSPropertyOp32
 70
     1
102
RTVSPropertyOp33
 70
     1
102
RTVSPropertyOp34
 70
     1
102
RTVSPropertyOp35
 70
     1
102
RTVSPropertyOp36
 70
     1
102
RTVSPropertyOp37
 70
     0
102
RTVSPropertyOp38
 70
     0
102
RTVSPropertyOp39
 70
     0
102
RTVSPropertyOp40
 70
     0
102
RTVSPropertyOp41
 70
     0
102
RTVSPropertyOp42
 70
     0
102
RTVSPropertyOp43
 70
     0
102
RTVSPropertyOp44
 70
     0
102
RTVSPropertyOp45
 70
     1
102
RTVSPropertyOp46
 70
     0
102
RTVSPropertyOp47
 70
     0
102
RTVSPropertyOp48
 70
     0
102
RTVSPropertyOp49
 70
     1
102
RTVSPropertyOp50
 70
     0
102
RTVSPropertyOp51
 70
     0
102
RTVSPropertyOp52
 70
     0
102
RTVSPropertyOp53
 70
     0
102
RTVSPropertyOp54
 70
     0
102
RTVSPropertyOp55
 70
     1
102
RTVSPropertyOp56
 70
     0
102
RTVSPropertyOp57
 70
     0
102
RTVSPropertyOp58
 70
     0
102
RTVSPropertyOp59
 70
     0
102
RTVSPropertyOp60
 70
     0
102
RTVSPropertyOp61
 70
     0
102
RTVSPropertyOp62
 70
     0
  0
XRECORD
  5
8358
102
{ACAD_REACTORS
330
8357
102
}
330
8357
100
AcDbXrecord
280
     1
102
RTVSPost2010Prop28
280
     0
102
RTVSPost2010PropOp28
 70
     1
102
RTVSPost2010Prop29
280
     1
102
RTVSPost2010PropOp29
 70
     1
102
RTVSPost2010Prop30
280
     1
102
RTVSPost2010PropOp30
 70
     1
102
RTVSPost2010Prop31
280
     0
102
RTVSPost2010PropOp31
 70
     1
102
RTVSPost2010Prop32
280
     0
102
RTVSPost2010PropOp32
 70
     1
102
RTVSPost2010Prop33
280
     0
102
RTVSPost2010PropOp33
 70
     1
102
RTVSPost2010Prop34
280
     0
102
RTVSPost2010PropOp34
 70
     1
102
RTVSPost2010Prop35
280
     0
102
RTVSPost2010PropOp35
 70
     1
102
RTVSPost2010Prop36
280
     0
102
RTVSPost2010PropOp36
 70
     1
102
RTVSPost2010Prop37
 90
       50
102
RTVSPost2010PropOp37
 70
     1
102
RTVSPost2010Prop38
140
0.0
102
RTVSPost2010PropOp38
 70
     1
102
RTVSPost2010Prop39
140
1.0
102
RTVSPost2010PropOp39
 70
     1
102
RTVSPost2010Prop40
 90
        0
102
RTVSPost2010PropOp40
 70
     1
102
RTVSPost2010Prop41ColorIndex
 90
       18
102
RTVSPost2010Prop41ColorRGB
 90
        0
102
RTVSPost2010PropOp41
 70
     1
102
RTVSPost2010Prop42
 90
       50
102
RTVSPost2010PropOp42
 70
     1
102
RTVSPost2010Prop43
 90
        3
102
RTVSPost2010PropOp43
 70
     1
102
RTVSPost2010Prop44ColorIndex
 90
        5
102
RTVSPost2010Prop44ColorRGB
 90
      255
102
RTVSPost2010PropOp44
 70
     1
102
RTVSPost2010Prop45
280
     0
102
RTVSPost2010PropOp45
 70
     1
102
RTVSPost2010Prop46
 90
       50
102
RTVSPost2010PropOp46
 70
     1
102
RTVSPost2010Prop47
 90
       50
102
RTVSPost2010PropOp47
 70
     1
102
RTVSPost2010Prop48
 90
       50
102
RTVSPost2010PropOp48
 70
     1
102
RTVSPost2010Prop49
280
     0
102
RTVSPost2010PropOp49
 70
     1
102
RTVSPost2010Prop50
 90
       50
102
RTVSPost2010PropOp50
 70
     1
102
RTVSPost2010Prop51ColorIndex
 90
      256
102
RTVSPost2010Prop51ColorRGB
 90
-16777216
102
RTVSPost2010PropOp51
 70
     0
102
RTVSPost2010Prop52
140
1.0
102
RTVSPost2010PropOp52
 70
     0
102
RTVSPost2010Prop53
 90
        2
102
RTVSPost2010PropOp53
 70
     1
102
RTVSPost2010Prop54
  1
strokes_ogs.tif
102
RTVSPost2010PropOp54
 70
     1
102
RTVSPost2010Prop55
280
     0
102
RTVSPost2010PropOp55
 70
     1
102
RTVSPost2010Prop56
140
1.0
102
RTVSPost2010PropOp56
 70
     1
102
RTVSPost2010Prop57
140
1.0
102
RTVSPost2010PropOp57
 70
     1
102
RTVSPropertyOp0
 70
     1
102
RTVSPropertyOp1
 70
     1
102
RTVSPropertyOp2
 70
     1
102
RTVSPropertyOp3
 70
     1
102
RTVSPropertyOp4
 70
     1
102
RTVSPropertyOp5
 70
     1
102
RTVSPropertyOp6
 70
     1
102
RTVSPropertyOp7
 70
     1
102
RTVSPropertyOp8
 70
     1
102
RTVSPropertyOp9
 70
     1
102
RTVSPropertyOp10
 70
     1
102
RTVSPropertyOp11
 70
     1
102
RTVSPropertyOp12
 70
     1
102
RTVSPropertyOp13
 70
     1
102
RTVSPropertyOp14
 70
     1
102
RTVSPropertyOp15
 70
     1
102
RTVSPropertyOp16
 70
     1
102
RTVSPropertyOp17
 70
     1
102
RTVSPropertyOp18
 70
     1
102
RTVSPropertyOp19
 70
     1
102
RTVSPropertyOp20
 70
     1
102
RTVSPropertyOp21
 70
     1
102
RTVSPropertyOp22
 70
     1
102
RTVSPropertyOp23
 70
     1
102
RTVSPropertyOp24
 70
     1
102
RTVSPropertyOp25
 70
     1
102
RTVSPropertyOp26
 70
     1
102
RTVSPropertyOp27
 70
     1
102
RTVSPropertyOp28
 70
     1
102
RTVSPropertyOp29
 70
     1
102
RTVSPropertyOp30
 70
     1
102
RTVSPropertyOp31
 70
     1
102
RTVSPropertyOp32
 70
     1
102
RTVSPropertyOp33
 70
     1
102
RTVSPropertyOp34
 70
     1
102
RTVSPropertyOp35
 70
     1
102
RTVSPropertyOp36
 70
     1
102
RTVSPropertyOp37
 70
     1
102
RTVSPropertyOp38
 70
     1
102
RTVSPropertyOp39
 70
     1
102
RTVSPropertyOp40
 70
     1
102
RTVSPropertyOp41
 70
     1
102
RTVSPropertyOp42
 70
     1
102
RTVSPropertyOp43
 70
     1
102
RTVSPropertyOp44
 70
     1
102
RTVSPropertyOp45
 70
     1
102
RTVSPropertyOp46
 70
     1
102
RTVSPropertyOp47
 70
     1
102
RTVSPropertyOp48
 70
     1
102
RTVSPropertyOp49
 70
     1
102
RTVSPropertyOp50
 70
     1
102
RTVSPropertyOp51
 70
     0
102
RTVSPropertyOp52
 70
     0
102
RTVSPropertyOp53
 70
     1
102
RTVSPropertyOp54
 70
     1
102
RTVSPropertyOp55
 70
     1
102
RTVSPropertyOp56
 70
     1
102
RTVSPropertyOp57
 70
     1
102
RTVSPropertyOp58
 70
     1
102
RTVSPropertyOp59
 70
     1
102
RTVSPropertyOp60
 70
     1
102
RTVSPropertyOp61
 70
     1
102
RTVSPropertyOp62
 70
     1
  0
XRECORD
  5
836A
102
{ACAD_REACTORS
330
8369
102
}
330
8369
100
AcDbXrecord
280
     1
102
RTVSPost2010Prop28
280
     0
102
RTVSPost2010PropOp28
 70
     1
102
RTVSPost2010Prop29
280
     1
102
RTVSPost2010PropOp29
 70
     1
102
RTVSPost2010Prop30
280
     1
102
RTVSPost2010PropOp30
 70
     1
102
RTVSPost2010Prop31
280
     0
102
RTVSPost2010PropOp31
 70
     1
102
RTVSPost2010Prop32
280
     0
102
RTVSPost2010PropOp32
 70
     1
102
RTVSPost2010Prop33
280
     0
102
RTVSPost2010PropOp33
 70
     1
102
RTVSPost2010Prop34
280
     0
102
RTVSPost2010PropOp34
 70
     1
102
RTVSPost2010Prop35
280
     0
102
RTVSPost2010PropOp35
 70
     1
102
RTVSPost2010Prop36
280
     0
102
RTVSPost2010PropOp36
 70
     1
102
RTVSPost2010Prop37
 90
       50
102
RTVSPost2010PropOp37
 70
     0
102
RTVSPost2010Prop38
140
0.0
102
RTVSPost2010PropOp38
 70
     0
102
RTVSPost2010Prop39
140
1.0
102
RTVSPost2010PropOp39
 70
     0
102
RTVSPost2010Prop40
 90
        0
102
RTVSPost2010PropOp40
 70
     0
102
RTVSPost2010Prop41ColorIndex
 90
       18
102
RTVSPost2010Prop41ColorRGB
 90
        0
102
RTVSPost2010PropOp41
 70
     0
102
RTVSPost2010Prop42
 90
       50
102
RTVSPost2010PropOp42
 70
     0
102
RTVSPost2010Prop43
 90
        3
102
RTVSPost2010PropOp43
 70
     0
102
RTVSPost2010Prop44ColorIndex
 90
        5
102
RTVSPost2010Prop44ColorRGB
 90
      255
102
RTVSPost2010PropOp44
 70
     0
102
RTVSPost2010Prop45
280
     0
102
RTVSPost2010PropOp45
 70
     1
102
RTVSPost2010Prop46
 90
       50
102
RTVSPost2010PropOp46
 70
     0
102
RTVSPost2010Prop47
 90
       50
102
RTVSPost2010PropOp47
 70
     0
102
RTVSPost2010Prop48
 90
       50
102
RTVSPost2010PropOp48
 70
     0
102
RTVSPost2010Prop49
280
     0
102
RTVSPost2010PropOp49
 70
     1
102
RTVSPost2010Prop50
 90
       50
102
RTVSPost2010PropOp50
 70
     0
102
RTVSPost2010Prop51ColorIndex
 90
      256
102
RTVSPost2010Prop51ColorRGB
 90
-16777216
102
RTVSPost2010PropOp51
 70
     0
102
RTVSPost2010Prop52
140
1.0
102
RTVSPost2010PropOp52
 70
     0
102
RTVSPost2010Prop53
 90
        2
102
RTVSPost2010PropOp53
 70
     0
102
RTVSPost2010Prop54
  1
strokes_ogs.tif
102
RTVSPost2010PropOp54
 70
     0
102
RTVSPost2010Prop55
280
     0
102
RTVSPost2010PropOp55
 70
     1
102
RTVSPost2010Prop56
140
1.0
102
RTVSPost2010PropOp56
 70
     0
102
RTVSPost2010Prop57
140
1.0
102
RTVSPost2010PropOp57
 70
     0
102
RTVSPropertyOp0
 70
     0
102
RTVSPropertyOp1
 70
     0
102
RTVSPropertyOp2
 70
     0
102
RTVSPropertyOp3
 70
     0
102
RTVSPropertyOp4
 70
     0
102
RTVSPropertyOp5
 70
     0
102
RTVSPropertyOp6
 70
     0
102
RTVSPropertyOp7
 70
     0
102
RTVSPropertyOp8
 70
     0
102
RTVSPropertyOp9
 70
     0
102
RTVSPropertyOp10
 70
     0
102
RTVSPropertyOp11
 70
     0
102
RTVSPropertyOp12
 70
     0
102
RTVSPropertyOp13
 70
     0
102
RTVSPropertyOp14
 70
     2
102
RTVSPropertyOp15
 70
     0
102
RTVSPropertyOp16
 70
     0
102
RTVSPropertyOp17
 70
     0
102
RTVSPropertyOp18
 70
     0
102
RTVSPropertyOp19
 70
     0
102
RTVSPropertyOp20
 70
     0
102
RTVSPropertyOp21
 70
     0
102
RTVSPropertyOp22
 70
     0
102
RTVSPropertyOp23
 70
     0
102
RTVSPropertyOp24
 70
     0
102
RTVSPropertyOp25
 70
     0
102
RTVSPropertyOp26
 70
     0
102
RTVSPropertyOp27
 70
     0
102
RTVSPropertyOp28
 70
     1
102
RTVSPropertyOp29
 70
     1
102
RTVSPropertyOp30
 70
     1
102
RTVSPropertyOp31
 70
     1
102
RTVSPropertyOp32
 70
     1
102
RTVSPropertyOp33
 70
     1
102
RTVSPropertyOp34
 70
     1
102
RTVSPropertyOp35
 70
     1
102
RTVSPropertyOp36
 70
     1
102
RTVSPropertyOp37
 70
     0
102
RTVSPropertyOp38
 70
     0
102
RTVSPropertyOp39
 70
     0
102
RTVSPropertyOp40
 70
     0
102
RTVSPropertyOp41
 70
     0
102
RTVSPropertyOp42
 70
     0
102
RTVSPropertyOp43
 70
     0
102
RTVSPropertyOp44
 70
     0
102
RTVSPropertyOp45
 70
     1
102
RTVSPropertyOp46
 70
     0
102
RTVSPropertyOp47
 70
     0
102
RTVSPropertyOp48
 70
     0
102
RTVSPropertyOp49
 70
     1
102
RTVSPropertyOp50
 70
     0
102
RTVSPropertyOp51
 70
     0
102
RTVSPropertyOp52
 70
     0
102
RTVSPropertyOp53
 70
     0
102
RTVSPropertyOp54
 70
     0
102
RTVSPropertyOp55
 70
     1
102
RTVSPropertyOp56
 70
     0
102
RTVSPropertyOp57
 70
     0
102
RTVSPropertyOp58
 70
     0
102
RTVSPropertyOp59
 70
     0
102
RTVSPropertyOp60
 70
     0
102
RTVSPropertyOp61
 70
     0
102
RTVSPropertyOp62
 70
     0
  0
XRECORD
  5
8350
102
{ACAD_REACTORS
330
834F
102
}
330
834F
100
AcDbXrecord
280
     1
102
RTVSPost2010Prop28
280
     0
102
RTVSPost2010PropOp28
 70
     1
102
RTVSPost2010Prop29
280
     1
102
RTVSPost2010PropOp29
 70
     1
102
RTVSPost2010Prop30
280
     1
102
RTVSPost2010PropOp30
 70
     1
102
RTVSPost2010Prop31
280
     0
102
RTVSPost2010PropOp31
 70
     1
102
RTVSPost2010Prop32
280
     0
102
RTVSPost2010PropOp32
 70
     1
102
RTVSPost2010Prop33
280
     0
102
RTVSPost2010PropOp33
 70
     1
102
RTVSPost2010Prop34
280
     0
102
RTVSPost2010PropOp34
 70
     1
102
RTVSPost2010Prop35
280
     0
102
RTVSPost2010PropOp35
 70
     1
102
RTVSPost2010Prop36
280
     0
102
RTVSPost2010PropOp36
 70
     1
102
RTVSPost2010Prop37
 90
       50
102
RTVSPost2010PropOp37
 70
     1
102
RTVSPost2010Prop38
140
0.0
102
RTVSPost2010PropOp38
 70
     1
102
RTVSPost2010Prop39
140
1.0
102
RTVSPost2010PropOp39
 70
     1
102
RTVSPost2010Prop40
 90
        0
102
RTVSPost2010PropOp40
 70
     1
102
RTVSPost2010Prop41ColorIndex
 90
       18
102
RTVSPost2010Prop41ColorRGB
 90
        0
102
RTVSPost2010PropOp41
 70
     1
102
RTVSPost2010Prop42
 90
       50
102
RTVSPost2010PropOp42
 70
     1
102
RTVSPost2010Prop43
 90
        3
102
RTVSPost2010PropOp43
 70
     1
102
RTVSPost2010Prop44ColorIndex
 90
        5
102
RTVSPost2010Prop44ColorRGB
 90
      255
102
RTVSPost2010PropOp44
 70
     1
102
RTVSPost2010Prop45
280
     0
102
RTVSPost2010PropOp45
 70
     1
102
RTVSPost2010Prop46
 90
       50
102
RTVSPost2010PropOp46
 70
     1
102
RTVSPost2010Prop47
 90
       50
102
RTVSPost2010PropOp47
 70
     1
102
RTVSPost2010Prop48
 90
       50
102
RTVSPost2010PropOp48
 70
     1
102
RTVSPost2010Prop49
280
     0
102
RTVSPost2010PropOp49
 70
     1
102
RTVSPost2010Prop50
 90
       50
102
RTVSPost2010PropOp50
 70
     1
102
RTVSPost2010Prop51ColorIndex
 90
      256
102
RTVSPost2010Prop51ColorRGB
 90
-16777216
102
RTVSPost2010PropOp51
 70
     0
102
RTVSPost2010Prop52
140
1.0
102
RTVSPost2010PropOp52
 70
     0
102
RTVSPost2010Prop53
 90
        2
102
RTVSPost2010PropOp53
 70
     1
102
RTVSPost2010Prop54
  1
strokes_ogs.tif
102
RTVSPost2010PropOp54
 70
     1
102
RTVSPost2010Prop55
280
     0
102
RTVSPost2010PropOp55
 70
     1
102
RTVSPost2010Prop56
140
1.0
102
RTVSPost2010PropOp56
 70
     1
102
RTVSPost2010Prop57
140
1.0
102
RTVSPost2010PropOp57
 70
     1
102
RTVSPropertyOp0
 70
     1
102
RTVSPropertyOp1
 70
     1
102
RTVSPropertyOp2
 70
     1
102
RTVSPropertyOp3
 70
     1
102
RTVSPropertyOp4
 70
     1
102
RTVSPropertyOp5
 70
     1
102
RTVSPropertyOp6
 70
     1
102
RTVSPropertyOp7
 70
     1
102
RTVSPropertyOp8
 70
     1
102
RTVSPropertyOp9
 70
     1
102
RTVSPropertyOp10
 70
     1
102
RTVSPropertyOp11
 70
     1
102
RTVSPropertyOp12
 70
     1
102
RTVSPropertyOp13
 70
     1
102
RTVSPropertyOp14
 70
     1
102
RTVSPropertyOp15
 70
     1
102
RTVSPropertyOp16
 70
     1
102
RTVSPropertyOp17
 70
     1
102
RTVSPropertyOp18
 70
     1
102
RTVSPropertyOp19
 70
     1
102
RTVSPropertyOp20
 70
     1
102
RTVSPropertyOp21
 70
     1
102
RTVSPropertyOp22
 70
     1
102
RTVSPropertyOp23
 70
     1
102
RTVSPropertyOp24
 70
     1
102
RTVSPropertyOp25
 70
     1
102
RTVSPropertyOp26
 70
     1
102
RTVSPropertyOp27
 70
     1
102
RTVSPropertyOp28
 70
     1
102
RTVSPropertyOp29
 70
     1
102
RTVSPropertyOp30
 70
     1
102
RTVSPropertyOp31
 70
     1
102
RTVSPropertyOp32
 70
     1
102
RTVSPropertyOp33
 70
     1
102
RTVSPropertyOp34
 70
     1
102
RTVSPropertyOp35
 70
     1
102
RTVSPropertyOp36
 70
     1
102
RTVSPropertyOp37
 70
     1
102
RTVSPropertyOp38
 70
     1
102
RTVSPropertyOp39
 70
     1
102
RTVSPropertyOp40
 70
     1
102
RTVSPropertyOp41
 70
     1
102
RTVSPropertyOp42
 70
     1
102
RTVSPropertyOp43
 70
     1
102
RTVSPropertyOp44
 70
     1
102
RTVSPropertyOp45
 70
     1
102
RTVSPropertyOp46
 70
     1
102
RTVSPropertyOp47
 70
     1
102
RTVSPropertyOp48
 70
     1
102
RTVSPropertyOp49
 70
     1
102
RTVSPropertyOp50
 70
     1
102
RTVSPropertyOp51
 70
     0
102
RTVSPropertyOp52
 70
     0
102
RTVSPropertyOp53
 70
     1
102
RTVSPropertyOp54
 70
     1
102
RTVSPropertyOp55
 70
     1
102
RTVSPropertyOp56
 70
     1
102
RTVSPropertyOp57
 70
     1
102
RTVSPropertyOp58
 70
     1
102
RTVSPropertyOp59
 70
     1
102
RTVSPropertyOp60
 70
     1
102
RTVSPropertyOp61
 70
     1
102
RTVSPropertyOp62
 70
     1
  0
XRECORD
  5
8366
102
{ACAD_REACTORS
330
8365
102
}
330
8365
100
AcDbXrecord
280
     1
102
RTVSPost2010Prop28
280
     0
102
RTVSPost2010PropOp28
 70
     1
102
RTVSPost2010Prop29
280
     1
102
RTVSPost2010PropOp29
 70
     1
102
RTVSPost2010Prop30
280
     1
102
RTVSPost2010PropOp30
 70
     1
102
RTVSPost2010Prop31
280
     0
102
RTVSPost2010PropOp31
 70
     1
102
RTVSPost2010Prop32
280
     0
102
RTVSPost2010PropOp32
 70
     1
102
RTVSPost2010Prop33
280
     0
102
RTVSPost2010PropOp33
 70
     1
102
RTVSPost2010Prop34
280
     0
102
RTVSPost2010PropOp34
 70
     1
102
RTVSPost2010Prop35
280
     0
102
RTVSPost2010PropOp35
 70
     1
102
RTVSPost2010Prop36
280
     0
102
RTVSPost2010PropOp36
 70
     1
102
RTVSPost2010Prop37
 90
       50
102
RTVSPost2010PropOp37
 70
     1
102
RTVSPost2010Prop38
140
0.0
102
RTVSPost2010PropOp38
 70
     1
102
RTVSPost2010Prop39
140
1.0
102
RTVSPost2010PropOp39
 70
     1
102
RTVSPost2010Prop40
 90
        0
102
RTVSPost2010PropOp40
 70
     1
102
RTVSPost2010Prop41ColorIndex
 90
       18
102
RTVSPost2010Prop41ColorRGB
 90
        0
102
RTVSPost2010PropOp41
 70
     1
102
RTVSPost2010Prop42
 90
       50
102
RTVSPost2010PropOp42
 70
     1
102
RTVSPost2010Prop43
 90
        3
102
RTVSPost2010PropOp43
 70
     1
102
RTVSPost2010Prop44ColorIndex
 90
        5
102
RTVSPost2010Prop44ColorRGB
 90
      255
102
RTVSPost2010PropOp44
 70
     1
102
RTVSPost2010Prop45
280
     0
102
RTVSPost2010PropOp45
 70
     1
102
RTVSPost2010Prop46
 90
       50
102
RTVSPost2010PropOp46
 70
     1
102
RTVSPost2010Prop47
 90
       50
102
RTVSPost2010PropOp47
 70
     1
102
RTVSPost2010Prop48
 90
       50
102
RTVSPost2010PropOp48
 70
     1
102
RTVSPost2010Prop49
280
     0
102
RTVSPost2010PropOp49
 70
     1
102
RTVSPost2010Prop50
 90
       50
102
RTVSPost2010PropOp50
 70
     1
102
RTVSPost2010Prop51ColorIndex
 90
      256
102
RTVSPost2010Prop51ColorRGB
 90
-16777216
102
RTVSPost2010PropOp51
 70
     0
102
RTVSPost2010Prop52
140
1.0
102
RTVSPost2010PropOp52
 70
     0
102
RTVSPost2010Prop53
 90
        2
102
RTVSPost2010PropOp53
 70
     1
102
RTVSPost2010Prop54
  1
strokes_ogs.tif
102
RTVSPost2010PropOp54
 70
     1
102
RTVSPost2010Prop55
280
     0
102
RTVSPost2010PropOp55
 70
     1
102
RTVSPost2010Prop56
140
1.0
102
RTVSPost2010PropOp56
 70
     1
102
RTVSPost2010Prop57
140
1.0
102
RTVSPost2010PropOp57
 70
     1
102
RTVSPropertyOp0
 70
     1
102
RTVSPropertyOp1
 70
     1
102
RTVSPropertyOp2
 70
     1
102
RTVSPropertyOp3
 70
     1
102
RTVSPropertyOp4
 70
     1
102
RTVSPropertyOp5
 70
     1
102
RTVSPropertyOp6
 70
     1
102
RTVSPropertyOp7
 70
     1
102
RTVSPropertyOp8
 70
     1
102
RTVSPropertyOp9
 70
     1
102
RTVSPropertyOp10
 70
     1
102
RTVSPropertyOp11
 70
     1
102
RTVSPropertyOp12
 70
     1
102
RTVSPropertyOp13
 70
     1
102
RTVSPropertyOp14
 70
     1
102
RTVSPropertyOp15
 70
     1
102
RTVSPropertyOp16
 70
     1
102
RTVSPropertyOp17
 70
     1
102
RTVSPropertyOp18
 70
     1
102
RTVSPropertyOp19
 70
     1
102
RTVSPropertyOp20
 70
     1
102
RTVSPropertyOp21
 70
     1
102
RTVSPropertyOp22
 70
     1
102
RTVSPropertyOp23
 70
     1
102
RTVSPropertyOp24
 70
     1
102
RTVSPropertyOp25
 70
     1
102
RTVSPropertyOp26
 70
     1
102
RTVSPropertyOp27
 70
     1
102
RTVSPropertyOp28
 70
     1
102
RTVSPropertyOp29
 70
     1
102
RTVSPropertyOp30
 70
     1
102
RTVSPropertyOp31
 70
     1
102
RTVSPropertyOp32
 70
     1
102
RTVSPropertyOp33
 70
     1
102
RTVSPropertyOp34
 70
     1
102
RTVSPropertyOp35
 70
     1
102
RTVSPropertyOp36
 70
     1
102
RTVSPropertyOp37
 70
     1
102
RTVSPropertyOp38
 70
     1
102
RTVSPropertyOp39
 70
     1
102
RTVSPropertyOp40
 70
     1
102
RTVSPropertyOp41
 70
     1
102
RTVSPropertyOp42
 70
     1
102
RTVSPropertyOp43
 70
     1
102
RTVSPropertyOp44
 70
     1
102
RTVSPropertyOp45
 70
     1
102
RTVSPropertyOp46
 70
     1
102
RTVSPropertyOp47
 70
     1
102
RTVSPropertyOp48
 70
     1
102
RTVSPropertyOp49
 70
     1
102
RTVSPropertyOp50
 70
     1
102
RTVSPropertyOp51
 70
     0
102
RTVSPropertyOp52
 70
     0
102
RTVSPropertyOp53
 70
     1
102
RTVSPropertyOp54
 70
     1
102
RTVSPropertyOp55
 70
     1
102
RTVSPropertyOp56
 70
     1
102
RTVSPropertyOp57
 70
     1
102
RTVSPropertyOp58
 70
     1
102
RTVSPropertyOp59
 70
     1
102
RTVSPropertyOp60
 70
     1
102
RTVSPropertyOp61
 70
     1
102
RTVSPropertyOp62
 70
     1
  0
XRECORD
  5
8364
102
{ACAD_REACTORS
330
8363
102
}
330
8363
100
AcDbXrecord
280
     1
102
RTVSPost2010Prop28
280
     0
102
RTVSPost2010PropOp28
 70
     1
102
RTVSPost2010Prop29
280
     1
102
RTVSPost2010PropOp29
 70
     1
102
RTVSPost2010Prop30
280
     1
102
RTVSPost2010PropOp30
 70
     1
102
RTVSPost2010Prop31
280
     0
102
RTVSPost2010PropOp31
 70
     1
102
RTVSPost2010Prop32
280
     0
102
RTVSPost2010PropOp32
 70
     1
102
RTVSPost2010Prop33
280
     0
102
RTVSPost2010PropOp33
 70
     1
102
RTVSPost2010Prop34
280
     0
102
RTVSPost2010PropOp34
 70
     1
102
RTVSPost2010Prop35
280
     0
102
RTVSPost2010PropOp35
 70
     1
102
RTVSPost2010Prop36
280
     0
102
RTVSPost2010PropOp36
 70
     1
102
RTVSPost2010Prop37
 90
       50
102
RTVSPost2010PropOp37
 70
     1
102
RTVSPost2010Prop38
140
0.0
102
RTVSPost2010PropOp38
 70
     1
102
RTVSPost2010Prop39
140
1.0
102
RTVSPost2010PropOp39
 70
     1
102
RTVSPost2010Prop40
 90
        0
102
RTVSPost2010PropOp40
 70
     1
102
RTVSPost2010Prop41ColorIndex
 90
       18
102
RTVSPost2010Prop41ColorRGB
 90
        0
102
RTVSPost2010PropOp41
 70
     1
102
RTVSPost2010Prop42
 90
       50
102
RTVSPost2010PropOp42
 70
     1
102
RTVSPost2010Prop43
 90
        3
102
RTVSPost2010PropOp43
 70
     1
102
RTVSPost2010Prop44ColorIndex
 90
        5
102
RTVSPost2010Prop44ColorRGB
 90
      255
102
RTVSPost2010PropOp44
 70
     1
102
RTVSPost2010Prop45
280
     0
102
RTVSPost2010PropOp45
 70
     1
102
RTVSPost2010Prop46
 90
       50
102
RTVSPost2010PropOp46
 70
     1
102
RTVSPost2010Prop47
 90
       50
102
RTVSPost2010PropOp47
 70
     1
102
RTVSPost2010Prop48
 90
       50
102
RTVSPost2010PropOp48
 70
     1
102
RTVSPost2010Prop49
280
     0
102
RTVSPost2010PropOp49
 70
     1
102
RTVSPost2010Prop50
 90
       50
102
RTVSPost2010PropOp50
 70
     1
102
RTVSPost2010Prop51ColorIndex
 90
      256
102
RTVSPost2010Prop51ColorRGB
 90
-16777216
102
RTVSPost2010PropOp51
 70
     0
102
RTVSPost2010Prop52
140
1.0
102
RTVSPost2010PropOp52
 70
     0
102
RTVSPost2010Prop53
 90
        2
102
RTVSPost2010PropOp53
 70
     1
102
RTVSPost2010Prop54
  1
strokes_ogs.tif
102
RTVSPost2010PropOp54
 70
     1
102
RTVSPost2010Prop55
280
     0
102
RTVSPost2010PropOp55
 70
     1
102
RTVSPost2010Prop56
140
1.0
102
RTVSPost2010PropOp56
 70
     1
102
RTVSPost2010Prop57
140
1.0
102
RTVSPost2010PropOp57
 70
     1
102
RTVSPropertyOp0
 70
     1
102
RTVSPropertyOp1
 70
     1
102
RTVSPropertyOp2
 70
     1
102
RTVSPropertyOp3
 70
     1
102
RTVSPropertyOp4
 70
     1
102
RTVSPropertyOp5
 70
     1
102
RTVSPropertyOp6
 70
     1
102
RTVSPropertyOp7
 70
     1
102
RTVSPropertyOp8
 70
     1
102
RTVSPropertyOp9
 70
     1
102
RTVSPropertyOp10
 70
     1
102
RTVSPropertyOp11
 70
     1
102
RTVSPropertyOp12
 70
     1
102
RTVSPropertyOp13
 70
     1
102
RTVSPropertyOp14
 70
     1
102
RTVSPropertyOp15
 70
     1
102
RTVSPropertyOp16
 70
     1
102
RTVSPropertyOp17
 70
     1
102
RTVSPropertyOp18
 70
     1
102
RTVSPropertyOp19
 70
     1
102
RTVSPropertyOp20
 70
     1
102
RTVSPropertyOp21
 70
     1
102
RTVSPropertyOp22
 70
     1
102
RTVSPropertyOp23
 70
     1
102
RTVSPropertyOp24
 70
     1
102
RTVSPropertyOp25
 70
     1
102
RTVSPropertyOp26
 70
     1
102
RTVSPropertyOp27
 70
     1
102
RTVSPropertyOp28
 70
     1
102
RTVSPropertyOp29
 70
     1
102
RTVSPropertyOp30
 70
     1
102
RTVSPropertyOp31
 70
     1
102
RTVSPropertyOp32
 70
     1
102
RTVSPropertyOp33
 70
     1
102
RTVSPropertyOp34
 70
     1
102
RTVSPropertyOp35
 70
     1
102
RTVSPropertyOp36
 70
     1
102
RTVSPropertyOp37
 70
     1
102
RTVSPropertyOp38
 70
     1
102
RTVSPropertyOp39
 70
     1
102
RTVSPropertyOp40
 70
     1
102
RTVSPropertyOp41
 70
     1
102
RTVSPropertyOp42
 70
     1
102
RTVSPropertyOp43
 70
     1
102
RTVSPropertyOp44
 70
     1
102
RTVSPropertyOp45
 70
     1
102
RTVSPropertyOp46
 70
     1
102
RTVSPropertyOp47
 70
     1
102
RTVSPropertyOp48
 70
     1
102
RTVSPropertyOp49
 70
     1
102
RTVSPropertyOp50
 70
     1
102
RTVSPropertyOp51
 70
     0
102
RTVSPropertyOp52
 70
     0
102
RTVSPropertyOp53
 70
     1
102
RTVSPropertyOp54
 70
     1
102
RTVSPropertyOp55
 70
     1
102
RTVSPropertyOp56
 70
     1
102
RTVSPropertyOp57
 70
     1
102
RTVSPropertyOp58
 70
     1
102
RTVSPropertyOp59
 70
     1
102
RTVSPropertyOp60
 70
     1
102
RTVSPropertyOp61
 70
     1
102
RTVSPropertyOp62
 70
     1
  0
XRECORD
  5
835E
102
{ACAD_REACTORS
330
835D
102
}
330
835D
100
AcDbXrecord
280
     1
102
RTVSPost2010Prop28
280
     0
102
RTVSPost2010PropOp28
 70
     1
102
RTVSPost2010Prop29
280
     1
102
RTVSPost2010PropOp29
 70
     1
102
RTVSPost2010Prop30
280
     1
102
RTVSPost2010PropOp30
 70
     1
102
RTVSPost2010Prop31
280
     0
102
RTVSPost2010PropOp31
 70
     1
102
RTVSPost2010Prop32
280
     0
102
RTVSPost2010PropOp32
 70
     1
102
RTVSPost2010Prop33
280
     0
102
RTVSPost2010PropOp33
 70
     1
102
RTVSPost2010Prop34
280
     0
102
RTVSPost2010PropOp34
 70
     1
102
RTVSPost2010Prop35
280
     0
102
RTVSPost2010PropOp35
 70
     1
102
RTVSPost2010Prop36
280
     0
102
RTVSPost2010PropOp36
 70
     1
102
RTVSPost2010Prop37
 90
       50
102
RTVSPost2010PropOp37
 70
     1
102
RTVSPost2010Prop38
140
0.0
102
RTVSPost2010PropOp38
 70
     1
102
RTVSPost2010Prop39
140
1.0
102
RTVSPost2010PropOp39
 70
     1
102
RTVSPost2010Prop40
 90
        0
102
RTVSPost2010PropOp40
 70
     1
102
RTVSPost2010Prop41ColorIndex
 90
       18
102
RTVSPost2010Prop41ColorRGB
 90
        0
102
RTVSPost2010PropOp41
 70
     1
102
RTVSPost2010Prop42
 90
       50
102
RTVSPost2010PropOp42
 70
     1
102
RTVSPost2010Prop43
 90
        3
102
RTVSPost2010PropOp43
 70
     1
102
RTVSPost2010Prop44ColorIndex
 90
        5
102
RTVSPost2010Prop44ColorRGB
 90
      255
102
RTVSPost2010PropOp44
 70
     1
102
RTVSPost2010Prop45
280
     0
102
RTVSPost2010PropOp45
 70
     1
102
RTVSPost2010Prop46
 90
       50
102
RTVSPost2010PropOp46
 70
     1
102
RTVSPost2010Prop47
 90
       50
102
RTVSPost2010PropOp47
 70
     1
102
RTVSPost2010Prop48
 90
       50
102
RTVSPost2010PropOp48
 70
     1
102
RTVSPost2010Prop49
280
     0
102
RTVSPost2010PropOp49
 70
     1
102
RTVSPost2010Prop50
 90
       50
102
RTVSPost2010PropOp50
 70
     1
102
RTVSPost2010Prop51ColorIndex
 90
      256
102
RTVSPost2010Prop51ColorRGB
 90
-16777216
102
RTVSPost2010PropOp51
 70
     0
102
RTVSPost2010Prop52
140
1.0
102
RTVSPost2010PropOp52
 70
     0
102
RTVSPost2010Prop53
 90
        2
102
RTVSPost2010PropOp53
 70
     1
102
RTVSPost2010Prop54
  1
strokes_ogs.tif
102
RTVSPost2010PropOp54
 70
     1
102
RTVSPost2010Prop55
280
     0
102
RTVSPost2010PropOp55
 70
     1
102
RTVSPost2010Prop56
140
1.0
102
RTVSPost2010PropOp56
 70
     1
102
RTVSPost2010Prop57
140
1.0
102
RTVSPost2010PropOp57
 70
     1
102
RTVSPropertyOp0
 70
     1
102
RTVSPropertyOp1
 70
     1
102
RTVSPropertyOp2
 70
     1
102
RTVSPropertyOp3
 70
     1
102
RTVSPropertyOp4
 70
     1
102
RTVSPropertyOp5
 70
     1
102
RTVSPropertyOp6
 70
     1
102
RTVSPropertyOp7
 70
     1
102
RTVSPropertyOp8
 70
     1
102
RTVSPropertyOp9
 70
     1
102
RTVSPropertyOp10
 70
     1
102
RTVSPropertyOp11
 70
     1
102
RTVSPropertyOp12
 70
     1
102
RTVSPropertyOp13
 70
     1
102
RTVSPropertyOp14
 70
     1
102
RTVSPropertyOp15
 70
     1
102
RTVSPropertyOp16
 70
     1
102
RTVSPropertyOp17
 70
     1
102
RTVSPropertyOp18
 70
     1
102
RTVSPropertyOp19
 70
     1
102
RTVSPropertyOp20
 70
     1
102
RTVSPropertyOp21
 70
     1
102
RTVSPropertyOp22
 70
     1
102
RTVSPropertyOp23
 70
     1
102
RTVSPropertyOp24
 70
     1
102
RTVSPropertyOp25
 70
     1
102
RTVSPropertyOp26
 70
     1
102
RTVSPropertyOp27
 70
     1
102
RTVSPropertyOp28
 70
     1
102
RTVSPropertyOp29
 70
     1
102
RTVSPropertyOp30
 70
     1
102
RTVSPropertyOp31
 70
     1
102
RTVSPropertyOp32
 70
     1
102
RTVSPropertyOp33
 70
     1
102
RTVSPropertyOp34
 70
     1
102
RTVSPropertyOp35
 70
     1
102
RTVSPropertyOp36
 70
     1
102
RTVSPropertyOp37
 70
     1
102
RTVSPropertyOp38
 70
     1
102
RTVSPropertyOp39
 70
     1
102
RTVSPropertyOp40
 70
     1
102
RTVSPropertyOp41
 70
     1
102
RTVSPropertyOp42
 70
     1
102
RTVSPropertyOp43
 70
     1
102
RTVSPropertyOp44
 70
     1
102
RTVSPropertyOp45
 70
     1
102
RTVSPropertyOp46
 70
     1
102
RTVSPropertyOp47
 70
     1
102
RTVSPropertyOp48
 70
     1
102
RTVSPropertyOp49
 70
     1
102
RTVSPropertyOp50
 70
     1
102
RTVSPropertyOp51
 70
     0
102
RTVSPropertyOp52
 70
     0
102
RTVSPropertyOp53
 70
     1
102
RTVSPropertyOp54
 70
     1
102
RTVSPropertyOp55
 70
     1
102
RTVSPropertyOp56
 70
     1
102
RTVSPropertyOp57
 70
     1
102
RTVSPropertyOp58
 70
     1
102
RTVSPropertyOp59
 70
     1
102
RTVSPropertyOp60
 70
     1
102
RTVSPropertyOp61
 70
     1
102
RTVSPropertyOp62
 70
     1
  0
XRECORD
  5
8360
102
{ACAD_REACTORS
330
835F
102
}
330
835F
100
AcDbXrecord
280
     1
102
RTVSPost2010Prop28
280
     0
102
RTVSPost2010PropOp28
 70
     1
102
RTVSPost2010Prop29
280
     1
102
RTVSPost2010PropOp29
 70
     1
102
RTVSPost2010Prop30
280
     1
102
RTVSPost2010PropOp30
 70
     1
102
RTVSPost2010Prop31
280
     0
102
RTVSPost2010PropOp31
 70
     1
102
RTVSPost2010Prop32
280
     0
102
RTVSPost2010PropOp32
 70
     1
102
RTVSPost2010Prop33
280
     0
102
RTVSPost2010PropOp33
 70
     1
102
RTVSPost2010Prop34
280
     0
102
RTVSPost2010PropOp34
 70
     1
102
RTVSPost2010Prop35
280
     0
102
RTVSPost2010PropOp35
 70
     1
102
RTVSPost2010Prop36
280
     0
102
RTVSPost2010PropOp36
 70
     1
102
RTVSPost2010Prop37
 90
       50
102
RTVSPost2010PropOp37
 70
     1
102
RTVSPost2010Prop38
140
0.0
102
RTVSPost2010PropOp38
 70
     1
102
RTVSPost2010Prop39
140
1.0
102
RTVSPost2010PropOp39
 70
     1
102
RTVSPost2010Prop40
 90
        0
102
RTVSPost2010PropOp40
 70
     1
102
RTVSPost2010Prop41ColorIndex
 90
       18
102
RTVSPost2010Prop41ColorRGB
 90
        0
102
RTVSPost2010PropOp41
 70
     1
102
RTVSPost2010Prop42
 90
       50
102
RTVSPost2010PropOp42
 70
     1
102
RTVSPost2010Prop43
 90
        3
102
RTVSPost2010PropOp43
 70
     1
102
RTVSPost2010Prop44ColorIndex
 90
        5
102
RTVSPost2010Prop44ColorRGB
 90
      255
102
RTVSPost2010PropOp44
 70
     1
102
RTVSPost2010Prop45
280
     0
102
RTVSPost2010PropOp45
 70
     1
102
RTVSPost2010Prop46
 90
       50
102
RTVSPost2010PropOp46
 70
     1
102
RTVSPost2010Prop47
 90
       50
102
RTVSPost2010PropOp47
 70
     1
102
RTVSPost2010Prop48
 90
       50
102
RTVSPost2010PropOp48
 70
     1
102
RTVSPost2010Prop49
280
     0
102
RTVSPost2010PropOp49
 70
     1
102
RTVSPost2010Prop50
 90
       50
102
RTVSPost2010PropOp50
 70
     1
102
RTVSPost2010Prop51ColorIndex
 90
      256
102
RTVSPost2010Prop51ColorRGB
 90
-16777216
102
RTVSPost2010PropOp51
 70
     0
102
RTVSPost2010Prop52
140
1.0
102
RTVSPost2010PropOp52
 70
     0
102
RTVSPost2010Prop53
 90
        2
102
RTVSPost2010PropOp53
 70
     1
102
RTVSPost2010Prop54
  1
strokes_ogs.tif
102
RTVSPost2010PropOp54
 70
     1
102
RTVSPost2010Prop55
280
     0
102
RTVSPost2010PropOp55
 70
     1
102
RTVSPost2010Prop56
140
1.0
102
RTVSPost2010PropOp56
 70
     1
102
RTVSPost2010Prop57
140
1.0
102
RTVSPost2010PropOp57
 70
     1
102
RTVSPropertyOp0
 70
     1
102
RTVSPropertyOp1
 70
     1
102
RTVSPropertyOp2
 70
     1
102
RTVSPropertyOp3
 70
     1
102
RTVSPropertyOp4
 70
     1
102
RTVSPropertyOp5
 70
     1
102
RTVSPropertyOp6
 70
     1
102
RTVSPropertyOp7
 70
     1
102
RTVSPropertyOp8
 70
     1
102
RTVSPropertyOp9
 70
     1
102
RTVSPropertyOp10
 70
     1
102
RTVSPropertyOp11
 70
     1
102
RTVSPropertyOp12
 70
     1
102
RTVSPropertyOp13
 70
     1
102
RTVSPropertyOp14
 70
     1
102
RTVSPropertyOp15
 70
     1
102
RTVSPropertyOp16
 70
     1
102
RTVSPropertyOp17
 70
     1
102
RTVSPropertyOp18
 70
     1
102
RTVSPropertyOp19
 70
     1
102
RTVSPropertyOp20
 70
     1
102
RTVSPropertyOp21
 70
     1
102
RTVSPropertyOp22
 70
     1
102
RTVSPropertyOp23
 70
     1
102
RTVSPropertyOp24
 70
     1
102
RTVSPropertyOp25
 70
     1
102
RTVSPropertyOp26
 70
     1
102
RTVSPropertyOp27
 70
     1
102
RTVSPropertyOp28
 70
     1
102
RTVSPropertyOp29
 70
     1
102
RTVSPropertyOp30
 70
     1
102
RTVSPropertyOp31
 70
     1
102
RTVSPropertyOp32
 70
     1
102
RTVSPropertyOp33
 70
     1
102
RTVSPropertyOp34
 70
     1
102
RTVSPropertyOp35
 70
     1
102
RTVSPropertyOp36
 70
     1
102
RTVSPropertyOp37
 70
     1
102
RTVSPropertyOp38
 70
     1
102
RTVSPropertyOp39
 70
     1
102
RTVSPropertyOp40
 70
     1
102
RTVSPropertyOp41
 70
     1
102
RTVSPropertyOp42
 70
     1
102
RTVSPropertyOp43
 70
     1
102
RTVSPropertyOp44
 70
     1
102
RTVSPropertyOp45
 70
     1
102
RTVSPropertyOp46
 70
     1
102
RTVSPropertyOp47
 70
     1
102
RTVSPropertyOp48
 70
     1
102
RTVSPropertyOp49
 70
     1
102
RTVSPropertyOp50
 70
     1
102
RTVSPropertyOp51
 70
     0
102
RTVSPropertyOp52
 70
     0
102
RTVSPropertyOp53
 70
     1
102
RTVSPropertyOp54
 70
     1
102
RTVSPropertyOp55
 70
     1
102
RTVSPropertyOp56
 70
     1
102
RTVSPropertyOp57
 70
     1
102
RTVSPropertyOp58
 70
     1
102
RTVSPropertyOp59
 70
     1
102
RTVSPropertyOp60
 70
     1
102
RTVSPropertyOp61
 70
     1
102
RTVSPropertyOp62
 70
     1
  0
XRECORD
  5
8356
102
{ACAD_REACTORS
330
8355
102
}
330
8355
100
AcDbXrecord
280
     1
102
RTVSPost2010Prop28
280
     0
102
RTVSPost2010PropOp28
 70
     1
102
RTVSPost2010Prop29
280
     1
102
RTVSPost2010PropOp29
 70
     1
102
RTVSPost2010Prop30
280
     1
102
RTVSPost2010PropOp30
 70
     1
102
RTVSPost2010Prop31
280
     0
102
RTVSPost2010PropOp31
 70
     1
102
RTVSPost2010Prop32
280
     0
102
RTVSPost2010PropOp32
 70
     1
102
RTVSPost2010Prop33
280
     0
102
RTVSPost2010PropOp33
 70
     1
102
RTVSPost2010Prop34
280
     0
102
RTVSPost2010PropOp34
 70
     1
102
RTVSPost2010Prop35
280
     0
102
RTVSPost2010PropOp35
 70
     1
102
RTVSPost2010Prop36
280
     0
102
RTVSPost2010PropOp36
 70
     1
102
RTVSPost2010Prop37
 90
       50
102
RTVSPost2010PropOp37
 70
     1
102
RTVSPost2010Prop38
140
0.0
102
RTVSPost2010PropOp38
 70
     1
102
RTVSPost2010Prop39
140
1.0
102
RTVSPost2010PropOp39
 70
     1
102
RTVSPost2010Prop40
 90
        0
102
RTVSPost2010PropOp40
 70
     1
102
RTVSPost2010Prop41ColorIndex
 90
       18
102
RTVSPost2010Prop41ColorRGB
 90
        0
102
RTVSPost2010PropOp41
 70
     1
102
RTVSPost2010Prop42
 90
       50
102
RTVSPost2010PropOp42
 70
     1
102
RTVSPost2010Prop43
 90
        3
102
RTVSPost2010PropOp43
 70
     1
102
RTVSPost2010Prop44ColorIndex
 90
        5
102
RTVSPost2010Prop44ColorRGB
 90
      255
102
RTVSPost2010PropOp44
 70
     1
102
RTVSPost2010Prop45
280
     0
102
RTVSPost2010PropOp45
 70
     1
102
RTVSPost2010Prop46
 90
       50
102
RTVSPost2010PropOp46
 70
     1
102
RTVSPost2010Prop47
 90
       50
102
RTVSPost2010PropOp47
 70
     1
102
RTVSPost2010Prop48
 90
       50
102
RTVSPost2010PropOp48
 70
     1
102
RTVSPost2010Prop49
280
     0
102
RTVSPost2010PropOp49
 70
     1
102
RTVSPost2010Prop50
 90
       50
102
RTVSPost2010PropOp50
 70
     1
102
RTVSPost2010Prop51ColorIndex
 90
      256
102
RTVSPost2010Prop51ColorRGB
 90
-16777216
102
RTVSPost2010PropOp51
 70
     0
102
RTVSPost2010Prop52
140
1.0
102
RTVSPost2010PropOp52
 70
     0
102
RTVSPost2010Prop53
 90
        2
102
RTVSPost2010PropOp53
 70
     1
102
RTVSPost2010Prop54
  1
strokes_ogs.tif
102
RTVSPost2010PropOp54
 70
     1
102
RTVSPost2010Prop55
280
     0
102
RTVSPost2010PropOp55
 70
     1
102
RTVSPost2010Prop56
140
1.0
102
RTVSPost2010PropOp56
 70
     1
102
RTVSPost2010Prop57
140
1.0
102
RTVSPost2010PropOp57
 70
     1
102
RTVSPropertyOp0
 70
     1
102
RTVSPropertyOp1
 70
     1
102
RTVSPropertyOp2
 70
     1
102
RTVSPropertyOp3
 70
     1
102
RTVSPropertyOp4
 70
     1
102
RTVSPropertyOp5
 70
     1
102
RTVSPropertyOp6
 70
     1
102
RTVSPropertyOp7
 70
     1
102
RTVSPropertyOp8
 70
     1
102
RTVSPropertyOp9
 70
     1
102
RTVSPropertyOp10
 70
     1
102
RTVSPropertyOp11
 70
     1
102
RTVSPropertyOp12
 70
     1
102
RTVSPropertyOp13
 70
     1
102
RTVSPropertyOp14
 70
     1
102
RTVSPropertyOp15
 70
     1
102
RTVSPropertyOp16
 70
     1
102
RTVSPropertyOp17
 70
     1
102
RTVSPropertyOp18
 70
     1
102
RTVSPropertyOp19
 70
     1
102
RTVSPropertyOp20
 70
     1
102
RTVSPropertyOp21
 70
     1
102
RTVSPropertyOp22
 70
     1
102
RTVSPropertyOp23
 70
     1
102
RTVSPropertyOp24
 70
     1
102
RTVSPropertyOp25
 70
     1
102
RTVSPropertyOp26
 70
     1
102
RTVSPropertyOp27
 70
     1
102
RTVSPropertyOp28
 70
     1
102
RTVSPropertyOp29
 70
     1
102
RTVSPropertyOp30
 70
     1
102
RTVSPropertyOp31
 70
     1
102
RTVSPropertyOp32
 70
     1
102
RTVSPropertyOp33
 70
     1
102
RTVSPropertyOp34
 70
     1
102
RTVSPropertyOp35
 70
     1
102
RTVSPropertyOp36
 70
     1
102
RTVSPropertyOp37
 70
     1
102
RTVSPropertyOp38
 70
     1
102
RTVSPropertyOp39
 70
     1
102
RTVSPropertyOp40
 70
     1
102
RTVSPropertyOp41
 70
     1
102
RTVSPropertyOp42
 70
     1
102
RTVSPropertyOp43
 70
     1
102
RTVSPropertyOp44
 70
     1
102
RTVSPropertyOp45
 70
     1
102
RTVSPropertyOp46
 70
     1
102
RTVSPropertyOp47
 70
     1
102
RTVSPropertyOp48
 70
     1
102
RTVSPropertyOp49
 70
     1
102
RTVSPropertyOp50
 70
     1
102
RTVSPropertyOp51
 70
     0
102
RTVSPropertyOp52
 70
     0
102
RTVSPropertyOp53
 70
     1
102
RTVSPropertyOp54
 70
     1
102
RTVSPropertyOp55
 70
     1
102
RTVSPropertyOp56
 70
     1
102
RTVSPropertyOp57
 70
     1
102
RTVSPropertyOp58
 70
     1
102
RTVSPropertyOp59
 70
     1
102
RTVSPropertyOp60
 70
     1
102
RTVSPropertyOp61
 70
     1
102
RTVSPropertyOp62
 70
     1
  0
XRECORD
  5
834A
102
{ACAD_REACTORS
330
8349
102
}
330
8349
100
AcDbXrecord
280
     1
102
RTVSPost2010Prop28
280
     0
102
RTVSPost2010PropOp28
 70
     1
102
RTVSPost2010Prop29
280
     1
102
RTVSPost2010PropOp29
 70
     1
102
RTVSPost2010Prop30
280
     1
102
RTVSPost2010PropOp30
 70
     1
102
RTVSPost2010Prop31
280
     0
102
RTVSPost2010PropOp31
 70
     1
102
RTVSPost2010Prop32
280
     0
102
RTVSPost2010PropOp32
 70
     1
102
RTVSPost2010Prop33
280
     0
102
RTVSPost2010PropOp33
 70
     1
102
RTVSPost2010Prop34
280
     0
102
RTVSPost2010PropOp34
 70
     1
102
RTVSPost2010Prop35
280
     0
102
RTVSPost2010PropOp35
 70
     1
102
RTVSPost2010Prop36
280
     0
102
RTVSPost2010PropOp36
 70
     1
102
RTVSPost2010Prop37
 90
       50
102
RTVSPost2010PropOp37
 70
     1
102
RTVSPost2010Prop38
140
0.0
102
RTVSPost2010PropOp38
 70
     1
102
RTVSPost2010Prop39
140
1.0
102
RTVSPost2010PropOp39
 70
     1
102
RTVSPost2010Prop40
 90
        0
102
RTVSPost2010PropOp40
 70
     1
102
RTVSPost2010Prop41ColorIndex
 90
       18
102
RTVSPost2010Prop41ColorRGB
 90
        0
102
RTVSPost2010PropOp41
 70
     1
102
RTVSPost2010Prop42
 90
       50
102
RTVSPost2010PropOp42
 70
     1
102
RTVSPost2010Prop43
 90
        3
102
RTVSPost2010PropOp43
 70
     1
102
RTVSPost2010Prop44ColorIndex
 90
        5
102
RTVSPost2010Prop44ColorRGB
 90
      255
102
RTVSPost2010PropOp44
 70
     1
102
RTVSPost2010Prop45
280
     0
102
RTVSPost2010PropOp45
 70
     1
102
RTVSPost2010Prop46
 90
       50
102
RTVSPost2010PropOp46
 70
     1
102
RTVSPost2010Prop47
 90
       50
102
RTVSPost2010PropOp47
 70
     1
102
RTVSPost2010Prop48
 90
       50
102
RTVSPost2010PropOp48
 70
     1
102
RTVSPost2010Prop49
280
     0
102
RTVSPost2010PropOp49
 70
     1
102
RTVSPost2010Prop50
 90
       50
102
RTVSPost2010PropOp50
 70
     1
102
RTVSPost2010Prop51ColorIndex
 90
      256
102
RTVSPost2010Prop51ColorRGB
 90
-16777216
102
RTVSPost2010PropOp51
 70
     0
102
RTVSPost2010Prop52
140
1.0
102
RTVSPost2010PropOp52
 70
     0
102
RTVSPost2010Prop53
 90
        2
102
RTVSPost2010PropOp53
 70
     1
102
RTVSPost2010Prop54
  1
strokes_ogs.tif
102
RTVSPost2010PropOp54
 70
     1
102
RTVSPost2010Prop55
280
     0
102
RTVSPost2010PropOp55
 70
     1
102
RTVSPost2010Prop56
140
1.0
102
RTVSPost2010PropOp56
 70
     1
102
RTVSPost2010Prop57
140
1.0
102
RTVSPost2010PropOp57
 70
     1
102
RTVSPropertyOp0
 70
     1
102
RTVSPropertyOp1
 70
     1
102
RTVSPropertyOp2
 70
     1
102
RTVSPropertyOp3
 70
     1
102
RTVSPropertyOp4
 70
     1
102
RTVSPropertyOp5
 70
     1
102
RTVSPropertyOp6
 70
     1
102
RTVSPropertyOp7
 70
     1
102
RTVSPropertyOp8
 70
     1
102
RTVSPropertyOp9
 70
     1
102
RTVSPropertyOp10
 70
     1
102
RTVSPropertyOp11
 70
     1
102
RTVSPropertyOp12
 70
     1
102
RTVSPropertyOp13
 70
     1
102
RTVSPropertyOp14
 70
     1
102
RTVSPropertyOp15
 70
     1
102
RTVSPropertyOp16
 70
     1
102
RTVSPropertyOp17
 70
     1
102
RTVSPropertyOp18
 70
     1
102
RTVSPropertyOp19
 70
     1
102
RTVSPropertyOp20
 70
     1
102
RTVSPropertyOp21
 70
     1
102
RTVSPropertyOp22
 70
     1
102
RTVSPropertyOp23
 70
     1
102
RTVSPropertyOp24
 70
     1
102
RTVSPropertyOp25
 70
     1
102
RTVSPropertyOp26
 70
     1
102
RTVSPropertyOp27
 70
     1
102
RTVSPropertyOp28
 70
     1
102
RTVSPropertyOp29
 70
     1
102
RTVSPropertyOp30
 70
     1
102
RTVSPropertyOp31
 70
     1
102
RTVSPropertyOp32
 70
     1
102
RTVSPropertyOp33
 70
     1
102
RTVSPropertyOp34
 70
     1
102
RTVSPropertyOp35
 70
     1
102
RTVSPropertyOp36
 70
     1
102
RTVSPropertyOp37
 70
     1
102
RTVSPropertyOp38
 70
     1
102
RTVSPropertyOp39
 70
     1
102
RTVSPropertyOp40
 70
     1
102
RTVSPropertyOp41
 70
     1
102
RTVSPropertyOp42
 70
     1
102
RTVSPropertyOp43
 70
     1
102
RTVSPropertyOp44
 70
     1
102
RTVSPropertyOp45
 70
     1
102
RTVSPropertyOp46
 70
     1
102
RTVSPropertyOp47
 70
     1
102
RTVSPropertyOp48
 70
     1
102
RTVSPropertyOp49
 70
     1
102
RTVSPropertyOp50
 70
     1
102
RTVSPropertyOp51
 70
     0
102
RTVSPropertyOp52
 70
     0
102
RTVSPropertyOp53
 70
     1
102
RTVSPropertyOp54
 70
     1
102
RTVSPropertyOp55
 70
     1
102
RTVSPropertyOp56
 70
     1
102
RTVSPropertyOp57
 70
     1
102
RTVSPropertyOp58
 70
     1
102
RTVSPropertyOp59
 70
     1
102
RTVSPropertyOp60
 70
     1
102
RTVSPropertyOp61
 70
     1
102
RTVSPropertyOp62
 70
     1
  0
XRECORD
  5
8362
102
{ACAD_REACTORS
330
8361
102
}
330
8361
100
AcDbXrecord
280
     1
102
RTVSPost2010Prop28
280
     0
102
RTVSPost2010PropOp28
 70
     1
102
RTVSPost2010Prop29
280
     1
102
RTVSPost2010PropOp29
 70
     1
102
RTVSPost2010Prop30
280
     1
102
RTVSPost2010PropOp30
 70
     1
102
RTVSPost2010Prop31
280
     0
102
RTVSPost2010PropOp31
 70
     1
102
RTVSPost2010Prop32
280
     0
102
RTVSPost2010PropOp32
 70
     1
102
RTVSPost2010Prop33
280
     0
102
RTVSPost2010PropOp33
 70
     1
102
RTVSPost2010Prop34
280
     0
102
RTVSPost2010PropOp34
 70
     1
102
RTVSPost2010Prop35
280
     0
102
RTVSPost2010PropOp35
 70
     1
102
RTVSPost2010Prop36
280
     0
102
RTVSPost2010PropOp36
 70
     1
102
RTVSPost2010Prop37
 90
       50
102
RTVSPost2010PropOp37
 70
     1
102
RTVSPost2010Prop38
140
0.0
102
RTVSPost2010PropOp38
 70
     1
102
RTVSPost2010Prop39
140
1.0
102
RTVSPost2010PropOp39
 70
     1
102
RTVSPost2010Prop40
 90
        0
102
RTVSPost2010PropOp40
 70
     1
102
RTVSPost2010Prop41ColorIndex
 90
       18
102
RTVSPost2010Prop41ColorRGB
 90
        0
102
RTVSPost2010PropOp41
 70
     1
102
RTVSPost2010Prop42
 90
       50
102
RTVSPost2010PropOp42
 70
     1
102
RTVSPost2010Prop43
 90
        3
102
RTVSPost2010PropOp43
 70
     1
102
RTVSPost2010Prop44ColorIndex
 90
        5
102
RTVSPost2010Prop44ColorRGB
 90
      255
102
RTVSPost2010PropOp44
 70
     1
102
RTVSPost2010Prop45
280
     0
102
RTVSPost2010PropOp45
 70
     1
102
RTVSPost2010Prop46
 90
       50
102
RTVSPost2010PropOp46
 70
     1
102
RTVSPost2010Prop47
 90
       50
102
RTVSPost2010PropOp47
 70
     1
102
RTVSPost2010Prop48
 90
       50
102
RTVSPost2010PropOp48
 70
     1
102
RTVSPost2010Prop49
280
     0
102
RTVSPost2010PropOp49
 70
     1
102
RTVSPost2010Prop50
 90
       50
102
RTVSPost2010PropOp50
 70
     1
102
RTVSPost2010Prop51ColorIndex
 90
      256
102
RTVSPost2010Prop51ColorRGB
 90
-16777216
102
RTVSPost2010PropOp51
 70
     0
102
RTVSPost2010Prop52
140
1.0
102
RTVSPost2010PropOp52
 70
     0
102
RTVSPost2010Prop53
 90
        2
102
RTVSPost2010PropOp53
 70
     1
102
RTVSPost2010Prop54
  1
strokes_ogs.tif
102
RTVSPost2010PropOp54
 70
     1
102
RTVSPost2010Prop55
280
     0
102
RTVSPost2010PropOp55
 70
     1
102
RTVSPost2010Prop56
140
1.0
102
RTVSPost2010PropOp56
 70
     1
102
RTVSPost2010Prop57
140
1.0
102
RTVSPost2010PropOp57
 70
     1
102
RTVSPropertyOp0
 70
     1
102
RTVSPropertyOp1
 70
     1
102
RTVSPropertyOp2
 70
     1
102
RTVSPropertyOp3
 70
     1
102
RTVSPropertyOp4
 70
     1
102
RTVSPropertyOp5
 70
     1
102
RTVSPropertyOp6
 70
     1
102
RTVSPropertyOp7
 70
     1
102
RTVSPropertyOp8
 70
     1
102
RTVSPropertyOp9
 70
     1
102
RTVSPropertyOp10
 70
     1
102
RTVSPropertyOp11
 70
     1
102
RTVSPropertyOp12
 70
     1
102
RTVSPropertyOp13
 70
     1
102
RTVSPropertyOp14
 70
     1
102
RTVSPropertyOp15
 70
     1
102
RTVSPropertyOp16
 70
     1
102
RTVSPropertyOp17
 70
     1
102
RTVSPropertyOp18
 70
     1
102
RTVSPropertyOp19
 70
     1
102
RTVSPropertyOp20
 70
     1
102
RTVSPropertyOp21
 70
     1
102
RTVSPropertyOp22
 70
     1
102
RTVSPropertyOp23
 70
     1
102
RTVSPropertyOp24
 70
     1
102
RTVSPropertyOp25
 70
     1
102
RTVSPropertyOp26
 70
     1
102
RTVSPropertyOp27
 70
     1
102
RTVSPropertyOp28
 70
     1
102
RTVSPropertyOp29
 70
     1
102
RTVSPropertyOp30
 70
     1
102
RTVSPropertyOp31
 70
     1
102
RTVSPropertyOp32
 70
     1
102
RTVSPropertyOp33
 70
     1
102
RTVSPropertyOp34
 70
     1
102
RTVSPropertyOp35
 70
     1
102
RTVSPropertyOp36
 70
     1
102
RTVSPropertyOp37
 70
     1
102
RTVSPropertyOp38
 70
     1
102
RTVSPropertyOp39
 70
     1
102
RTVSPropertyOp40
 70
     1
102
RTVSPropertyOp41
 70
     1
102
RTVSPropertyOp42
 70
     1
102
RTVSPropertyOp43
 70
     1
102
RTVSPropertyOp44
 70
     1
102
RTVSPropertyOp45
 70
     1
102
RTVSPropertyOp46
 70
     1
102
RTVSPropertyOp47
 70
     1
102
RTVSPropertyOp48
 70
     1
102
RTVSPropertyOp49
 70
     1
102
RTVSPropertyOp50
 70
     1
102
RTVSPropertyOp51
 70
     0
102
RTVSPropertyOp52
 70
     0
102
RTVSPropertyOp53
 70
     1
102
RTVSPropertyOp54
 70
     1
102
RTVSPropertyOp55
 70
     1
102
RTVSPropertyOp56
 70
     1
102
RTVSPropertyOp57
 70
     1
102
RTVSPropertyOp58
 70
     1
102
RTVSPropertyOp59
 70
     1
102
RTVSPropertyOp60
 70
     1
102
RTVSPropertyOp61
 70
     1
102
RTVSPropertyOp62
 70
     1
  0
ENDSEC
  0
EOF
