  0
SECTION
  2
HEADER
  9
$ACADVER
  1
AC1015
  9
$ACADMAINTVER
 70
    20
  9
$DWGCODEPAGE
  3
ANSI_932
  9
$INSBASE
 10
0.0
 20
0.0
 30
0.0
  9
$EXTMIN
 10
0.0
 20
0.0
 30
0.0
  9
$EXTMAX
 10
6300.0
 20
8850.0
 30
0.0
  9
$LIMMIN
 10
0.0
 20
0.0
  9
$LIMMAX
 10
297.0
 20
210.0
  9
$ORTHOMODE
 70
     1
  9
$REGENMODE
 70
     1
  9
$FILLMODE
 70
     0
  9
$QTEXTMODE
 70
     0
  9
$MIRRTEXT
 70
     1
  9
$LTSCALE
 40
100.0
  9
$ATTMODE
 70
     1
  9
$TEXTSIZE
 40
180.0
  9
$TRACEWID
 40
0.05
  9
$TEXTSTYLE
  7
STANDARD
  9
$CLAYER
  8
3
  9
$CELTYPE
  6
ByLayer
  9
$CECOLOR
 62
   256
  9
$CELTSCALE
 40
1.0
  9
$DISPSILH
 70
     0
  9
$DIMSCALE
 40
30.0
  9
$DIMASZ
 40
2.0
  9
$DIMEXO
 40
1.0
  9
$DIMDLI
 40
10.0
  9
$DIMRND
 40
0.0
  9
$DIMDLE
 40
0.0
  9
$DIMEXE
 40
1.0
  9
$DIMTP
 40
1.0
  9
$DIMTM
 40
1.0
  9
$DIMTXT
 40
3.0
  9
$DIMCEN
 40
0.0
  9
$DIMTSZ
 40
0.0
  9
$DIMTOL
 70
     0
  9
$DIMLIM
 70
     0
  9
$DIMTIH
 70
     0
  9
$DIMTOH
 70
     0
  9
$DIMSE1
 70
     0
  9
$DIMSE2
 70
     0
  9
$DIMTAD
 70
     1
  9
$DIMZIN
 70
     8
  9
$DIMBLK
  1

  9
$DIMASO
 70
     1
  9
$DIMSHO
 70
     1
  9
$DIMPOST
  1

  9
$DIMAPOST
  1

  9
$DIMALT
 70
     0
  9
$DIMALTD
 70
     2
  9
$DIMALTF
 40
0.039
  9
$DIMLFAC
 40
1.0
  9
$DIMTOFL
 70
     1
  9
$DIMTVP
 40
0.0
  9
$DIMTIX
 70
     0
  9
$DIMSOXD
 70
     0
  9
$DIMSAH
 70
     1
  9
$DIMBLK1
  1
OPEN
  9
$DIMBLK2
  1
OPEN
  9
$DIMSTYLE
  2
IGA
  9
$DIMCLRD
 70
     0
  9
$DIMCLRE
 70
     0
  9
$DIMCLRT
 70
     0
  9
$DIMTFAC
 40
10.0
  9
$DIMGAP
 40
1.0
  9
$DIMJUST
 70
     0
  9
$DIMSD1
 70
     0
  9
$DIMSD2
 70
     0
  9
$DIMTOLJ
 70
     1
  9
$DIMTZIN
 70
     0
  9
$DIMALTZ
 70
     0
  9
$DIMALTTZ
 70
     0
  9
$DIMUPT
 70
     0
  9
$DIMDEC
 70
     4
  9
$DIMTDEC
 70
     4
  9
$DIMALTU
 70
     2
  9
$DIMALTTD
 70
     2
  9
$DIMTXSTY
  7
STANDARD
  9
$DIMAUNIT
 70
     0
  9
$DIMADEC
 70
     0
  9
$DIMALTRND
 40
0.0
  9
$DIMAZIN
 70
     0
  9
$DIMDSEP
 70
    46
  9
$DIMATFIT
 70
     3
  9
$DIMFRAC
 70
     0
  9
$DIMLDRBLK
  1
OPEN
  9
$DIMLUNIT
 70
     2
  9
$DIMLWD
 70
    -2
  9
$DIMLWE
 70
    -2
  9
$DIMTMOVE
 70
     0
  9
$LUNITS
 70
     2
  9
$LUPREC
 70
     3
  9
$SKETCHINC
 40
0.1
  9
$FILLETRAD
 40
50.0
  9
$AUNITS
 70
     0
  9
$AUPREC
 70
     0
  9
$MENU
  1
acad
  9
$ELEVATION
 40
0.0
  9
$PELEVATION
 40
0.0
  9
$THICKNESS
 40
0.0
  9
$LIMCHECK
 70
     0
  9
$CHAMFERA
 40
0.5
  9
$CHAMFERB
 40
0.5
  9
$CHAMFERC
 40
0.0
  9
$CHAMFERD
 40
0.0
  9
$SKPOLY
 70
     0
  9
$TDCREATE
 40
2451389.557585880
  9
$TDUCREATE
 40
2451389.182585880
  9
$TDUPDATE
 40
2460271.738265127
  9
$TDUUPDATE
 40
2460271.363265128
  9
$TDINDWG
 40
0.0172600347
  9
$TDUSRTIMER
 40
0.0172598032
  9
$USRTIMER
 70
     1
  9
$ANGBASE
 50
0.0
  9
$ANGDIR
 70
     0
  9
$PDMODE
 70
     0
  9
$PDSIZE
 40
0.0
  9
$PLINEWID
 40
0.0
  9
$SPLFRAME
 70
     0
  9
$SPLINETYPE
 70
     6
  9
$SPLINESEGS
 70
     8
  9
$HANDSEED
  5
84BE
  9
$SURFTAB1
 70
     6
  9
$SURFTAB2
 70
     6
  9
$SURFTYPE
 70
     6
  9
$SURFU
 70
     6
  9
$SURFV
 70
     6
  9
$UCSBASE
  2

  9
$UCSNAME
  2

  9
$UCSORG
 10
0.0
 20
0.0
 30
0.0
  9
$UCSXDIR
 10
1.0
 20
0.0
 30
0.0
  9
$UCSYDIR
 10
0.0
 20
1.0
 30
0.0
  9
$UCSORTHOREF
  2

  9
$UCSORTHOVIEW
 70
     0
  9
$UCSORGTOP
 10
0.0
 20
0.0
 30
0.0
  9
$UCSORGBOTTOM
 10
0.0
 20
0.0
 30
0.0
  9
$UCSORGLEFT
 10
0.0
 20
0.0
 30
0.0
  9
$UCSORGRIGHT
 10
0.0
 20
0.0
 30
0.0
  9
$UCSORGFRONT
 10
0.0
 20
0.0
 30
0.0
  9
$UCSORGBACK
 10
0.0
 20
0.0
 30
0.0
  9
$PUCSBASE
  2

  9
$PUCSNAME
  2

  9
$PUCSORG
 10
0.0
 20
0.0
 30
0.0
  9
$PUCSXDIR
 10
1.0
 20
0.0
 30
0.0
  9
$PUCSYDIR
 10
0.0
 20
1.0
 30
0.0
  9
$PUCSORTHOREF
  2

  9
$PUCSORTHOVIEW
 70
     0
  9
$PUCSORGTOP
 10
0.0
 20
0.0
 30
0.0
  9
$PUCSORGBOTTOM
 10
0.0
 20
0.0
 30
0.0
  9
$PUCSORGLEFT
 10
0.0
 20
0.0
 30
0.0
  9
$PUCSORGRIGHT
 10
0.0
 20
0.0
 30
0.0
  9
$PUCSORGFRONT
 10
0.0
 20
0.0
 30
0.0
  9
$PUCSORGBACK
 10
0.0
 20
0.0
 30
0.0
  9
$USERI1
 70
     0
  9
$USERI2
 70
     0
  9
$USERI3
 70
     0
  9
$USERI4
 70
     0
  9
$USERI5
 70
     0
  9
$USERR1
 40
0.0
  9
$USERR2
 40
0.0
  9
$USERR3
 40
0.0
  9
$USERR4
 40
0.0
  9
$USERR5
 40
0.0
  9
$WORLDVIEW
 70
     1
  9
$SHADEDGE
 70
     3
  9
$SHADEDIF
 70
    70
  9
$TILEMODE
 70
     1
  9
$MAXACTVP
 70
    16
  9
$PINSBASE
 10
0.0
 20
0.0
 30
0.0
  9
$PLIMCHECK
 70
     0
  9
$PEXTMIN
 10
1.000000000000000E+20
 20
1.000000000000000E+20
 30
1.000000000000000E+20
  9
$PEXTMAX
 10
-1.000000000000000E+20
 20
-1.000000000000000E+20
 30
-1.000000000000000E+20
  9
$PLIMMIN
 10
0.0
 20
0.0
  9
$PLIMMAX
 10
12.0
 20
9.0
  9
$UNITMODE
 70
     0
  9
$VISRETAIN
 70
     0
  9
$PLINEGEN
 70
     0
  9
$PSLTSCALE
 70
     1
  9
$TREEDEPTH
 70
  3020
  9
$CMLSTYLE
  2
Standard
  9
$CMLJUST
 70
     0
  9
$CMLSCALE
 40
1.0
  9
$PROXYGRAPHICS
 70
     1
  9
$MEASUREMENT
 70
     0
  9
$CELWEIGHT
370
    -1
  9
$ENDCAPS
280
     0
  9
$JOINSTYLE
280
     0
  9
$LWDISPLAY
290
     0
  9
$INSUNITS
 70
     0
  9
$HYPERLINKBASE
  1

  9
$STYLESHEET
  1

  9
$XEDIT
290
     1
  9
$CEPSNTYPE
380
     0
  9
$PSTYLEMODE
290
     1
  9
$FINGERPRINTGUID
  2
{6F9DD345-DA3F-4D9F-AA61-5F62FC78C7E9}
  9
$VERSIONGUID
  2
{FEB2A3BA-6525-4A0B-ACCF-31A8C5DFAA44}
  9
$EXTNAMES
290
     1
  9
$PSVPSCALE
 40
0.0
  9
$OLESTARTUP
290
     0
  0
ENDSEC
  0
SECTION
  2
CLASSES
  0
CLASS
  1
ACDBDICTIONARYWDFLT
  2
AcDbDictionaryWithDefault
  3
ObjectDBX Classes
 90
        0
280
     0
281
     0
  0
CLASS
  1
MATERIAL
  2
AcDbMaterial
  3
ObjectDBX Classes
 90
     1153
280
     0
281
     0
  0
CLASS
  1
VISUALSTYLE
  2
AcDbVisualStyle
  3
ObjectDBX Classes
 90
     4095
280
     0
281
     0
  0
CLASS
  1
SCALE
  2
AcDbScale
  3
ObjectDBX Classes
 90
     1153
280
     0
281
     0
  0
CLASS
  1
TABLESTYLE
  2
AcDbTableStyle
  3
ObjectDBX Classes
 90
     4095
280
     0
281
     0
  0
CLASS
  1
MLEADERSTYLE
  2
AcDbMLeaderStyle
  3
ACDB_MLEADERSTYLE_CLASS
 90
     4095
280
     0
281
     0
  0
CLASS
  1
ACDBSECTIONVIEWSTYLE
  2
AcDbSectionViewStyle
  3
ObjectDBX Classes
 90
     1025
280
     0
281
     0
  0
CLASS
  1
ACDBDETAILVIEWSTYLE
  2
AcDbDetailViewStyle
  3
ObjectDBX Classes
 90
     1025
280
     0
281
     0
  0
CLASS
  1
SORTENTSTABLE
  2
AcDbSortentsTable
  3
ObjectDBX Classes
 90
        0
280
     0
281
     0
  0
CLASS
  1
DICTIONARYVAR
  2
AcDbDictionaryVar
  3
ObjectDBX Classes
 90
        0
280
     0
281
     0
  0
CLASS
  1
CELLSTYLEMAP
  2
AcDbCellStyleMap
  3
ObjectDBX Classes
 90
     1152
280
     0
281
     0
  0
CLASS
  1
ACDBPLACEHOLDER
  2
AcDbPlaceHolder
  3
ObjectDBX Classes
 90
        0
280
     0
281
     0
  0
CLASS
  1
LAYOUT
  2
AcDbLayout
  3
ObjectDBX Classes
 90
        0
280
     0
281
     0
  0
ENDSEC
  0
SECTION
  2
TABLES
  0
TABLE
  2
VPORT
  5
81B4
330
0
100
AcDbSymbolTable
 70
     1
  0
VPORT
  5
8220
330
81B4
100
AcDbSymbolTableRecord
100
AcDbViewportTableRecord
  2
*ACTIVE
 70
     0
 10
0.0
 20
0.0
 11
1.0
 21
1.0
 12
5062.381778490984
 22
3618.367885965512
 13
0.0
 23
0.0
 14
10.0
 24
10.0
 15
10.0
 25
10.0
 16
0.0
 26
0.0
 36
1.0
 17
0.0
 27
0.0
 37
0.0
 40
8398.215369157268
 41
2.050213675213675
 42
50.0
 43
0.0
 44
0.0
 50
0.0
 51
0.0
 71
     0
 72
   100
 73
     1
 74
     0
 75
     0
 76
     0
 77
     0
 78
     0
281
     0
 65
     1
110
0.0
120
0.0
130
0.0
111
1.0
121
0.0
131
0.0
112
0.0
122
1.0
132
0.0
 79
     0
146
0.0
1001
ACAD_NAV_VCDISPLAY
1070
     3
  0
ENDTAB
  0
TABLE
  2
LTYPE
  5
81B1
330
0
100
AcDbSymbolTable
 70
     3
  0
LTYPE
  5
8206
330
81B1
100
AcDbSymbolTableRecord
100
AcDbLinetypeTableRecord
  2
ByBlock
 70
     0
  3

 72
    65
 73
     0
 40
0.0
  0
LTYPE
  5
8207
330
81B1
100
AcDbSymbolTableRecord
100
AcDbLinetypeTableRecord
  2
ByLayer
 70
     0
  3

 72
    65
 73
     0
 40
0.0
  0
LTYPE
  5
8208
330
81B1
100
AcDbSymbolTableRecord
100
AcDbLinetypeTableRecord
  2
CONTINUOUS
 70
     0
  3
Solid line
 72
    65
 73
     0
 40
0.0
  0
LTYPE
  5
8221
330
81B1
100
AcDbSymbolTableRecord
100
AcDbLinetypeTableRecord
  2
CENTER
 70
     0
  3
____ _ ____ _ ____ _ ____ _ ____ _ ____ _ ____ 
 72
    65
 73
     4
 40
2.0
 49
1.25
 74
     0
 49
-0.25
 74
     0
 49
0.25
 74
     0
 49
-0.25
 74
     0
  0
ENDTAB
  0
TABLE
  2
LAYER
  5
81AE
330
0
100
AcDbSymbolTable
 70
     6
  0
LAYER
  5
8200
102
{ACAD_XDICTIONARY
360
8468
102
}
330
81AE
100
AcDbSymbolTableRecord
100
AcDbLayerTableRecord
  2
0
 70
     0
 62
     7
  6
CONTINUOUS
370
    -3
390
81BB
  0
LAYER
  5
821F
102
{ACAD_XDICTIONARY
360
846A
102
}
330
81AE
100
AcDbSymbolTableRecord
100
AcDbLayerTableRecord
  2
3
 70
     0
 62
     2
  6
CONTINUOUS
370
    -3
390
81BB
  0
LAYER
  5
8222
102
{ACAD_XDICTIONARY
360
846C
102
}
330
81AE
100
AcDbSymbolTableRecord
100
AcDbLayerTableRecord
  2
2
 70
     0
 62
     3
  6
CENTER
370
    -3
390
81BB
  0
LAYER
  5
8223
102
{ACAD_XDICTIONARY
360
846E
102
}
330
81AE
100
AcDbSymbolTableRecord
100
AcDbLayerTableRecord
  2
1
 70
     0
 62
     4
  6
CONTINUOUS
370
    -3
390
81BB
  0
LAYER
  5
8224
102
{ACAD_XDICTIONARY
360
8470
102
}
330
81AE
100
AcDbSymbolTableRecord
100
AcDbLayerTableRecord
  2
4
 70
     0
 62
     7
  6
CONTINUOUS
370
    -3
390
81BB
  0
LAYER
  5
8225
330
81AE
100
AcDbSymbolTableRecord
100
AcDbLayerTableRecord
  2
DEFPOINTS
 70
     0
 62
     7
  6
CONTINUOUS
290
     0
370
    -3
390
81BB
  0
ENDTAB
  0
TABLE
  2
STYLE
  5
81AF
330
0
100
AcDbSymbolTable
 70
     2
  0
STYLE
  5
8201
330
81AF
100
AcDbSymbolTableRecord
100
AcDbTextStyleTableRecord
  2
STANDARD
 70
     0
 40
0.0
 41
1.0
 50
0.0
 71
     0
 42
180.0
  3
simplex.shx
  4
extfont.shx
  0
STYLE
  5
8205
330
81AF
100
AcDbSymbolTableRecord
100
AcDbTextStyleTableRecord
  2
Annotative
 70
     0
 40
0.0
 41
1.0
 50
0.0
 71
     0
 42
0.2
  3
txt
  4

1001
AcadAnnotative
1000
AnnotativeData
1002
{
1070
     1
1070
     1
1002
}
  0
ENDTAB
  0
TABLE
  2
VIEW
  5
81B2
330
0
100
AcDbSymbolTable
 70
     0
  0
ENDTAB
  0
TABLE
  2
UCS
  5
81B3
330
0
100
AcDbSymbolTable
 70
     0
  0
ENDTAB
  0
TABLE
  2
APPID
  5
81B5
330
0
100
AcDbSymbolTable
 70
     8
  0
APPID
  5
8202
330
81B5
100
AcDbSymbolTableRecord
100
AcDbRegAppTableRecord
  2
ACAD
 70
     0
  0
APPID
  5
8209
330
81B5
100
AcDbSymbolTableRecord
100
AcDbRegAppTableRecord
  2
AcadAnnotative
 70
     0
  0
APPID
  5
82B2
330
81B5
100
AcDbSymbolTableRecord
100
AcDbRegAppTableRecord
  2
ACAD_DSTYLE_DIMJAG
 70
     0
  0
APPID
  5
82B3
330
81B5
100
AcDbSymbolTableRecord
100
AcDbRegAppTableRecord
  2
ACAD_DSTYLE_DIMTALN
 70
     0
  0
APPID
  5
8316
330
81B5
100
AcDbSymbolTableRecord
100
AcDbRegAppTableRecord
  2
AcadAnnoMonitorAlertIconDisabled
 70
     0
  0
APPID
  5
8317
330
81B5
100
AcDbSymbolTableRecord
100
AcDbRegAppTableRecord
  2
ACAD_EXEMPT_FROM_CAD_STANDARDS
 70
     0
  0
APPID
  5
847C
330
81B5
100
AcDbSymbolTableRecord
100
AcDbRegAppTableRecord
  2
ACAD_NAV_VCDISPLAY
 70
     0
  0
APPID
  5
84B5
330
81B5
100
AcDbSymbolTableRecord
100
AcDbRegAppTableRecord
  2
ACAD_MLEADERVER
 70
     0
  0
ENDTAB
  0
TABLE
  2
DIMSTYLE
  5
81B6
330
0
100
AcDbSymbolTable
 70
     4
100
AcDbDimStyleTable
 71
     1
340
8226
  0
DIMSTYLE
105
8203
102
{ACAD_REACTORS
330
7C77
330
7C78
330
7CBA
330
7CBC
330
7CBD
330
7CC1
330
7CC2
330
7CF8
330
7D00
330
7D05
330
8067
330
8074
330
8081
330
808E
102
}
330
81B6
100
AcDbSymbolTableRecord
100
AcDbDimStyleTableRecord
  2
Standard
 70
     0
340
8201
  0
DIMSTYLE
105
8204
330
81B6
100
AcDbSymbolTableRecord
100
AcDbDimStyleTableRecord
  2
Annotative
 70
     0
340
8201
1001
AcadAnnotative
1000
AnnotativeData
1002
{
1070
     1
1070
     1
1002
}
  0
DIMSTYLE
105
8226
102
{ACAD_REACTORS
330
8266
330
8273
330
82B4
330
82C4
330
82DA
330
82E7
330
82F9
330
836F
102
}
330
81B6
100
AcDbSymbolTableRecord
100
AcDbDimStyleTableRecord
  2
IGA
 70
     0
 40
2.0
 41
2.0
 42
0.5
 43
10.0
 44
1.0
 47
1.0
 48
1.0
 73
     0
 74
     0
 77
     1
 78
     8
140
3.0
141
0.0
143
0.03937
146
10.0
147
1.0
173
     1
271
     3
272
     3
279
     2
284
     8
285
     8
286
     8
340
8201
  0
DIMSTYLE
105
8227
330
81B6
100
AcDbSymbolTableRecord
100
AcDbDimStyleTableRecord
  2
MATSU
 70
     0
 41
2.0
 42
1.0
 43
10.0
 44
1.0
 73
     0
 74
     0
 77
     1
 78
     8
140
3.0
141
0.0
143
0.03937
147
0.5
172
     1
173
     1
176
   256
177
   256
178
   256
271
     3
272
     3
279
     2
284
     8
285
     8
286
     8
340
8201
  0
ENDTAB
  0
TABLE
  2
BLOCK_RECORD
  5
81AD
330
0
100
AcDbSymbolTable
 70
    40
  0
BLOCK_RECORD
  5
821B
102
{ACAD_XDICTIONARY
360
82C2
102
}
330
81AD
100
AcDbSymbolTableRecord
100
AcDbBlockTableRecord
  2
*Model_Space
340
821E
  0
BLOCK_RECORD
  5
8217
330
81AD
100
AcDbSymbolTableRecord
100
AcDbBlockTableRecord
  2
*Paper_Space
340
821A
  0
BLOCK_RECORD
  5
822B
330
81AD
100
AcDbSymbolTableRecord
100
AcDbBlockTableRecord
  2
$MODEL_SPACE
340
0
  0
BLOCK_RECORD
  5
822D
330
81AD
100
AcDbSymbolTableRecord
100
AcDbBlockTableRecord
  2
$PAPER_SPACE
340
0
  0
BLOCK_RECORD
  5
822F
330
81AD
100
AcDbSymbolTableRecord
100
AcDbBlockTableRecord
  2
_OPEN
340
0
102
{BLKREFS
331
840A
331
7E2F
331
7E30
331
7E3A
331
7E3B
331
7E87
331
7E88
331
7E92
331
7E93
331
7E9D
331
7E9E
331
7EA8
331
7EA9
331
8045
331
8046
331
8396
331
8397
331
803A
331
803B
331
8338
331
8339
331
7EC9
331
7ECA
331
7ED4
331
7ED5
331
7EDF
331
7EE0
331
8189
331
818A
331
7EF4
331
7EF5
331
8191
331
8192
331
819D
331
80F3
331
80F4
331
82BB
331
82BC
331
82D4
331
82D5
331
7F2D
331
7F2E
331
8060
331
8061
331
806D
331
806E
331
807A
331
807B
331
8087
331
8088
331
8295
331
8296
331
829E
331
829F
331
8464
102
}
  0
BLOCK_RECORD
  5
8231
330
81AD
100
AcDbSymbolTableRecord
100
AcDbBlockTableRecord
  2
YA_N
340
0
102
{BLKREFS
331
7C24
331
7C3A
331
7C75
331
7C95
331
7CCA
331
7CCC
331
7CCE
331
7CD0
102
}
  0
BLOCK_RECORD
  5
8233
330
81AD
100
AcDbSymbolTableRecord
100
AcDbBlockTableRecord
  2
*D4
340
0
  0
BLOCK_RECORD
  5
8235
330
81AD
100
AcDbSymbolTableRecord
100
AcDbBlockTableRecord
  2
*D5
340
0
  0
BLOCK_RECORD
  5
8237
330
81AD
100
AcDbSymbolTableRecord
100
AcDbBlockTableRecord
  2
*D6
340
0
  0
BLOCK_RECORD
  5
8239
330
81AD
100
AcDbSymbolTableRecord
100
AcDbBlockTableRecord
  2
*D7
340
0
  0
BLOCK_RECORD
  5
823B
330
81AD
100
AcDbSymbolTableRecord
100
AcDbBlockTableRecord
  2
*D8
340
0
  0
BLOCK_RECORD
  5
823D
330
81AD
100
AcDbSymbolTableRecord
100
AcDbBlockTableRecord
  2
*D9
340
0
  0
BLOCK_RECORD
  5
823F
330
81AD
100
AcDbSymbolTableRecord
100
AcDbBlockTableRecord
  2
*D10
340
0
  0
BLOCK_RECORD
  5
8241
330
81AD
100
AcDbSymbolTableRecord
100
AcDbBlockTableRecord
  2
*U11
340
0
102
{BLKREFS
331
8047
102
}
  0
BLOCK_RECORD
  5
8242
330
81AD
100
AcDbSymbolTableRecord
100
AcDbBlockTableRecord
  2
*D12
340
0
  0
BLOCK_RECORD
  5
8244
330
81AD
100
AcDbSymbolTableRecord
100
AcDbBlockTableRecord
  2
*D13
340
0
  0
BLOCK_RECORD
  5
8246
330
81AD
100
AcDbSymbolTableRecord
100
AcDbBlockTableRecord
  2
*D14
340
0
  0
BLOCK_RECORD
  5
8248
330
81AD
100
AcDbSymbolTableRecord
100
AcDbBlockTableRecord
  2
*D15
340
0
  0
BLOCK_RECORD
  5
824A
330
81AD
100
AcDbSymbolTableRecord
100
AcDbBlockTableRecord
  2
*D16
340
0
  0
BLOCK_RECORD
  5
824C
330
81AD
100
AcDbSymbolTableRecord
100
AcDbBlockTableRecord
  2
*D17
340
0
  0
BLOCK_RECORD
  5
824E
330
81AD
100
AcDbSymbolTableRecord
100
AcDbBlockTableRecord
  2
*D18
340
0
  0
BLOCK_RECORD
  5
8250
330
81AD
100
AcDbSymbolTableRecord
100
AcDbBlockTableRecord
  2
*D19
340
0
  0
BLOCK_RECORD
  5
8252
330
81AD
100
AcDbSymbolTableRecord
100
AcDbBlockTableRecord
  2
_DOT
340
0
102
{BLKREFS
331
819C
102
}
  0
BLOCK_RECORD
  5
8253
330
81AD
100
AcDbSymbolTableRecord
100
AcDbBlockTableRecord
  2
*D21
340
0
  0
BLOCK_RECORD
  5
8256
330
81AD
100
AcDbSymbolTableRecord
100
AcDbBlockTableRecord
  2
*D22
340
0
  0
BLOCK_RECORD
  5
8258
330
81AD
100
AcDbSymbolTableRecord
100
AcDbBlockTableRecord
  2
*D23
340
0
  0
BLOCK_RECORD
  5
825A
330
81AD
100
AcDbSymbolTableRecord
100
AcDbBlockTableRecord
  2
*D24
340
0
  0
BLOCK_RECORD
  5
825C
330
81AD
100
AcDbSymbolTableRecord
100
AcDbBlockTableRecord
  2
*D25
340
0
  0
BLOCK_RECORD
  5
825E
330
81AD
100
AcDbSymbolTableRecord
100
AcDbBlockTableRecord
  2
_NONE
340
0
  0
BLOCK_RECORD
  5
8260
330
81AD
100
AcDbSymbolTableRecord
100
AcDbBlockTableRecord
  2
*D27
340
0
  0
BLOCK_RECORD
  5
8262
330
81AD
100
AcDbSymbolTableRecord
100
AcDbBlockTableRecord
  2
*D28
340
0
  0
BLOCK_RECORD
  5
8267
330
81AD
100
AcDbSymbolTableRecord
100
AcDbBlockTableRecord
  2
*D29
340
0
  0
BLOCK_RECORD
  5
8274
330
81AD
100
AcDbSymbolTableRecord
100
AcDbBlockTableRecord
  2
*D30
340
0
  0
BLOCK_RECORD
  5
82A4
330
81AD
100
AcDbSymbolTableRecord
100
AcDbBlockTableRecord
  2
*D31
340
0
  0
BLOCK_RECORD
  5
82B5
330
81AD
100
AcDbSymbolTableRecord
100
AcDbBlockTableRecord
  2
*D32
340
0
  0
BLOCK_RECORD
  5
82C5
330
81AD
100
AcDbSymbolTableRecord
100
AcDbBlockTableRecord
  2
*D33
340
0
  0
BLOCK_RECORD
  5
82DB
330
81AD
100
AcDbSymbolTableRecord
100
AcDbBlockTableRecord
  2
*D34
340
0
  0
BLOCK_RECORD
  5
82E8
330
81AD
100
AcDbSymbolTableRecord
100
AcDbBlockTableRecord
  2
*D35
340
0
  0
BLOCK_RECORD
  5
82FA
330
81AD
100
AcDbSymbolTableRecord
100
AcDbBlockTableRecord
  2
*D36
340
0
  0
BLOCK_RECORD
  5
8362
330
81AD
100
AcDbSymbolTableRecord
100
AcDbBlockTableRecord
  2
*D37
340
0
  0
BLOCK_RECORD
  5
8370
330
81AD
100
AcDbSymbolTableRecord
100
AcDbBlockTableRecord
  2
*D38
340
0
  0
BLOCK_RECORD
  5
83FD
330
81AD
100
AcDbSymbolTableRecord
100
AcDbBlockTableRecord
  2
_DotSmall
340
0
102
{BLKREFS
331
840B
331
8463
102
}
  0
ENDTAB
  0
ENDSEC
  0
SECTION
  2
BLOCKS
  0
BLOCK
  5
821C
330
821B
100
AcDbEntity
  8
0
100
AcDbBlockBegin
  2
*Model_Space
 70
     0
 10
0.0
 20
0.0
 30
0.0
  3
*Model_Space
  1

  0
ENDBLK
  5
821D
330
821B
100
AcDbEntity
  8
0
100
AcDbBlockEnd
  0
BLOCK
  5
8218
330
8217
100
AcDbEntity
 67
     1
  8
0
100
AcDbBlockBegin
  2
*Paper_Space
 70
     0
 10
0.0
 20
0.0
 30
0.0
  3
*Paper_Space
  1

  0
ENDBLK
  5
8219
330
8217
100
AcDbEntity
 67
     1
  8
0
100
AcDbBlockEnd
  0
BLOCK
  5
822C
330
822B
100
AcDbEntity
  8
0
100
AcDbBlockBegin
  2
$MODEL_SPACE
 70
     0
 10
0.0
 20
0.0
 30
0.0
  3
$MODEL_SPACE
  1

  0
ENDBLK
  5
1B
330
822B
100
AcDbEntity
  8
0
100
AcDbBlockEnd
  0
BLOCK
  5
822E
330
822D
100
AcDbEntity
  8
0
100
AcDbBlockBegin
  2
$PAPER_SPACE
 70
     0
 10
0.0
 20
0.0
 30
0.0
  3
$PAPER_SPACE
  1

  0
ENDBLK
  5
18
330
822D
100
AcDbEntity
  8
0
100
AcDbBlockEnd
  0
BLOCK
  5
8230
330
822F
100
AcDbEntity
  8
0
100
AcDbBlockBegin
  2
_OPEN
 70
     0
 10
0.0
 20
0.0
 30
0.0
  3
_OPEN
  1

  0
LINE
  5
79FD
330
822F
100
AcDbEntity
  8
0
  6
ByBlock
 62
     0
100
AcDbLine
 10
-1.0
 20
0.1666666666666666
 30
0.0
 11
0.0
 21
0.0
 31
0.0
  0
LINE
  5
79FE
330
822F
100
AcDbEntity
  8
0
  6
ByBlock
 62
     0
100
AcDbLine
 10
0.0
 20
0.0
 30
0.0
 11
-1.0
 21
-0.1666666666666666
 31
0.0
  0
LINE
  5
79FF
330
822F
100
AcDbEntity
  8
0
  6
ByBlock
 62
     0
100
AcDbLine
 10
0.0
 20
0.0
 30
0.0
 11
-1.0
 21
0.0
 31
0.0
  0
ENDBLK
  5
7A01
330
822F
100
AcDbEntity
  8
0
100
AcDbBlockEnd
  0
BLOCK
  5
8232
330
8231
100
AcDbEntity
  8
0
100
AcDbBlockBegin
  2
YA_N
 70
     0
 10
0.0
 20
0.0
 30
0.0
  3
YA_N
  1

  0
ENDBLK
  5
7A04
330
8231
100
AcDbEntity
  8
0
100
AcDbBlockEnd
  0
BLOCK
  5
8234
330
8233
100
AcDbEntity
  8
0
100
AcDbBlockBegin
  2
*D4
 70
     1
 10
0.0
 20
0.0
 30
0.0
  3
*D4
  1

  0
LINE
  5
7E2C
330
8233
100
AcDbEntity
  8
0
  6
ByBlock
100
AcDbLine
 10
413.6251149768384
 20
1338.060302835747
 30
0.0
 11
413.6251149768384
 21
1539.22039982989
 31
0.0
  0
LINE
  5
7E2D
330
8233
100
AcDbEntity
  8
0
  6
ByBlock
100
AcDbLine
 10
1443.625114976837
 20
1338.060302835747
 30
0.0
 11
1443.625114976837
 21
1539.22039982989
 31
0.0
  0
LINE
  5
7E2E
330
8233
100
AcDbEntity
  8
0
  6
ByBlock
100
AcDbLine
 10
473.6251149768385
 20
1509.22039982989
 30
0.0
 11
1383.625114976837
 21
1509.22039982989
 31
0.0
  0
INSERT
  5
7E2F
330
8233
100
AcDbEntity
  8
0
  6
ByBlock
100
AcDbBlockReference
  2
_OPEN
 10
413.6251149768384
 20
1509.22039982989
 30
0.0
 41
60.0
 42
60.0
 43
60.0
 50
180.0
  0
INSERT
  5
7E30
330
8233
100
AcDbEntity
  8
0
  6
ByBlock
100
AcDbBlockReference
  2
_OPEN
 10
1443.625114976837
 20
1509.22039982989
 30
0.0
 41
60.0
 42
60.0
 43
60.0
  0
TEXT
  5
7E31
330
8233
100
AcDbEntity
  8
3
100
AcDbText
 10
778.625114976838
 20
1524.22039982989
 30
0.0
 40
90.0
  1
1030
100
AcDbText
  0
POINT
  5
7E32
330
8233
100
AcDbEntity
  8
DEFPOINTS
  6
ByBlock
 62
     0
100
AcDbPoint
 10
413.6251149768384
 20
1308.060302835747
 30
0.0
  0
POINT
  5
7E33
330
8233
100
AcDbEntity
  8
DEFPOINTS
  6
ByBlock
 62
     0
100
AcDbPoint
 10
1443.625114976837
 20
1308.060302835747
 30
0.0
  0
POINT
  5
7E34
330
8233
100
AcDbEntity
  8
DEFPOINTS
  6
ByBlock
 62
     0
100
AcDbPoint
 10
1443.625114976837
 20
1509.22039982989
 30
0.0
  0
ENDBLK
  5
7E35
330
8233
100
AcDbEntity
  8
0
100
AcDbBlockEnd
  0
BLOCK
  5
8236
330
8235
100
AcDbEntity
  8
0
100
AcDbBlockBegin
  2
*D5
 70
     1
 10
0.0
 20
0.0
 30
0.0
  3
*D5
  1

  0
LINE
  5
7E37
330
8235
100
AcDbEntity
  8
0
  6
ByBlock
100
AcDbLine
 10
413.6251149768384
 20
1338.060302835747
 30
0.0
 11
413.6251149768384
 21
1740.022445289042
 31
0.0
  0
LINE
  5
7E38
330
8235
100
AcDbEntity
  8
0
  6
ByBlock
100
AcDbLine
 10
1487.625114976838
 20
1397.676285333375
 30
0.0
 11
1487.625114976838
 21
1740.022445289042
 31
0.0
  0
LINE
  5
7E39
330
8235
100
AcDbEntity
  8
0
  6
ByBlock
100
AcDbLine
 10
473.6251149768385
 20
1710.022445289044
 30
0.0
 11
1427.625114976838
 21
1710.022445289044
 31
0.0
  0
INSERT
  5
7E3A
330
8235
100
AcDbEntity
  8
0
  6
ByBlock
100
AcDbBlockReference
  2
_OPEN
 10
413.6251149768384
 20
1710.022445289044
 30
0.0
 41
60.0
 42
60.0
 43
60.0
 50
180.0
  0
INSERT
  5
7E3B
330
8235
100
AcDbEntity
  8
0
  6
ByBlock
100
AcDbBlockReference
  2
_OPEN
 10
1487.625114976838
 20
1710.022445289044
 30
0.0
 41
60.0
 42
60.0
 43
60.0
  0
TEXT
  5
7E3C
330
8235
100
AcDbEntity
  8
3
100
AcDbText
 10
798.4822578339811
 20
1725.022445289043
 30
0.0
 40
90.0
  1
1074
100
AcDbText
  0
POINT
  5
7E3D
330
8235
100
AcDbEntity
  8
DEFPOINTS
  6
ByBlock
 62
     0
100
AcDbPoint
 10
413.6251149768384
 20
1308.060302835747
 30
0.0
  0
POINT
  5
7E3E
330
8235
100
AcDbEntity
  8
DEFPOINTS
  6
ByBlock
 62
     0
100
AcDbPoint
 10
1487.625114976838
 20
1367.676285333375
 30
0.0
  0
POINT
  5
7E3F
330
8235
100
AcDbEntity
  8
DEFPOINTS
  6
ByBlock
 62
     0
100
AcDbPoint
 10
1487.625114976838
 20
1710.022445289044
 30
0.0
  0
ENDBLK
  5
7E40
330
8235
100
AcDbEntity
  8
0
100
AcDbBlockEnd
  0
BLOCK
  5
8238
330
8237
100
AcDbEntity
  8
0
100
AcDbBlockBegin
  2
*D6
 70
     1
 10
0.0
 20
0.0
 30
0.0
  3
*D6
  1

  0
LINE
  5
7E84
330
8237
100
AcDbEntity
  8
0
  6
ByBlock
100
AcDbLine
 10
862.6251149768394
 20
4406.031599361241
 30
0.0
 11
862.6251149768394
 21
4627.335536588958
 31
0.0
  0
LINE
  5
7E85
330
8237
100
AcDbEntity
  8
0
  6
ByBlock
100
AcDbLine
 10
2112.625114976839
 20
4406.031599361237
 30
0.0
 11
2112.625114976839
 21
4627.335536588958
 31
0.0
  0
LINE
  5
7E86
330
8237
100
AcDbEntity
  8
0
  6
ByBlock
100
AcDbLine
 10
922.6251149768396
 20
4597.335536588958
 30
0.0
 11
2052.625114976839
 21
4597.335536588958
 31
0.0
  0
INSERT
  5
7E87
330
8237
100
AcDbEntity
  8
0
  6
ByBlock
100
AcDbBlockReference
  2
_OPEN
 10
862.6251149768394
 20
4597.335536588958
 30
0.0
 41
60.0
 42
60.0
 43
60.0
 50
180.0
  0
INSERT
  5
7E88
330
8237
100
AcDbEntity
  8
0
  6
ByBlock
100
AcDbBlockReference
  2
_OPEN
 10
2112.625114976839
 20
4597.335536588958
 30
0.0
 41
60.0
 42
60.0
 43
60.0
  0
TEXT
  5
7E89
330
8237
100
AcDbEntity
  8
3
100
AcDbText
 10
1337.625114976839
 20
4612.335536588958
 30
0.0
 40
90.0
  1
1250
100
AcDbText
  0
POINT
  5
7E8A
330
8237
100
AcDbEntity
  8
DEFPOINTS
  6
ByBlock
 62
     0
100
AcDbPoint
 10
862.6251149768394
 20
4376.031599361239
 30
0.0
  0
POINT
  5
7E8B
330
8237
100
AcDbEntity
  8
DEFPOINTS
  6
ByBlock
 62
     0
100
AcDbPoint
 10
2112.625114976839
 20
4376.031599361239
 30
0.0
  0
POINT
  5
7E8C
330
8237
100
AcDbEntity
  8
DEFPOINTS
  6
ByBlock
 62
     0
100
AcDbPoint
 10
2112.625114976839
 20
4597.335536588958
 30
0.0
  0
ENDBLK
  5
7E8D
330
8237
100
AcDbEntity
  8
0
100
AcDbBlockEnd
  0
BLOCK
  5
823A
330
8239
100
AcDbEntity
  8
0
100
AcDbBlockBegin
  2
*D7
 70
     1
 10
0.0
 20
0.0
 30
0.0
  3
*D7
  1

  0
LINE
  5
7E8F
330
8239
100
AcDbEntity
  8
0
  6
ByBlock
100
AcDbLine
 10
62.62511497683954
 20
2841.031599361241
 30
0.0
 11
62.62511497683954
 21
2552.481475534663
 31
0.0
  0
LINE
  5
7E90
330
8239
100
AcDbEntity
  8
0
  6
ByBlock
100
AcDbLine
 10
2112.625114976839
 20
2841.031599361238
 30
0.0
 11
2112.625114976839
 21
2552.481475534663
 31
0.0
  0
LINE
  5
7E91
330
8239
100
AcDbEntity
  8
0
  6
ByBlock
100
AcDbLine
 10
122.6251149768395
 20
2582.481475534663
 30
0.0
 11
2052.625114976839
 21
2582.481475534663
 31
0.0
  0
INSERT
  5
7E92
330
8239
100
AcDbEntity
  8
0
  6
ByBlock
100
AcDbBlockReference
  2
_OPEN
 10
62.62511497683954
 20
2582.481475534663
 30
0.0
 41
60.0
 42
60.0
 43
60.0
 50
180.0
  0
INSERT
  5
7E93
330
8239
100
AcDbEntity
  8
0
  6
ByBlock
100
AcDbBlockReference
  2
_OPEN
 10
2112.625114976839
 20
2582.481475534663
 30
0.0
 41
60.0
 42
60.0
 43
60.0
  0
TEXT
  5
7E94
330
8239
100
AcDbEntity
  8
3
100
AcDbText
 10
929.0536864054109
 20
2597.481475534663
 30
0.0
 40
90.0
  1
2050
100
AcDbText
  0
POINT
  5
7E95
330
8239
100
AcDbEntity
  8
DEFPOINTS
  6
ByBlock
 62
     0
100
AcDbPoint
 10
62.62511497683954
 20
2871.03159936124
 30
0.0
  0
POINT
  5
7E96
330
8239
100
AcDbEntity
  8
DEFPOINTS
  6
ByBlock
 62
     0
100
AcDbPoint
 10
2112.625114976839
 20
2871.031599361238
 30
0.0
  0
POINT
  5
7E97
330
8239
100
AcDbEntity
  8
DEFPOINTS
  6
ByBlock
 62
     0
100
AcDbPoint
 10
2112.625114976839
 20
2582.481475534663
 30
0.0
  0
ENDBLK
  5
7E98
330
8239
100
AcDbEntity
  8
0
100
AcDbBlockEnd
  0
BLOCK
  5
823C
330
823B
100
AcDbEntity
  8
0
100
AcDbBlockBegin
  2
*D8
 70
     1
 10
0.0
 20
0.0
 30
0.0
  3
*D8
  1

  0
LINE
  5
7E9A
330
823B
100
AcDbEntity
  8
0
  6
ByBlock
100
AcDbLine
 10
32.62511497683954
 20
3721.031599361241
 30
0.0
 11
-189.4229525237715
 21
3721.031599361241
 31
0.0
  0
LINE
  5
7E9B
330
823B
100
AcDbEntity
  8
0
  6
ByBlock
100
AcDbLine
 10
32.62511497683954
 20
2871.03159936124
 30
0.0
 11
-189.4229525237715
 21
2871.03159936124
 31
0.0
  0
LINE
  5
7E9C
330
823B
100
AcDbEntity
  8
0
  6
ByBlock
100
AcDbLine
 10
-159.4229525237715
 20
3661.031599361241
 30
0.0
 11
-159.4229525237715
 21
2931.03159936124
 31
0.0
  0
INSERT
  5
7E9D
330
823B
100
AcDbEntity
  8
0
  6
ByBlock
100
AcDbBlockReference
  2
_OPEN
 10
-159.4229525237715
 20
3721.031599361241
 30
0.0
 41
60.0
 42
60.0
 43
60.0
 50
90.0
  0
INSERT
  5
7E9E
330
823B
100
AcDbEntity
  8
0
  6
ByBlock
100
AcDbBlockReference
  2
_OPEN
 10
-159.4229525237715
 20
2871.03159936124
 30
0.0
 41
60.0
 42
60.0
 43
60.0
 50
270.0
  0
TEXT
  5
7E9F
330
823B
100
AcDbEntity
  8
3
100
AcDbText
 10
-174.4229525237715
 20
3180.317313646954
 30
0.0
 40
90.0
  1
850
 50
90.0
100
AcDbText
  0
POINT
  5
7EA0
330
823B
100
AcDbEntity
  8
DEFPOINTS
  6
ByBlock
 62
     0
100
AcDbPoint
 10
62.62511497683954
 20
3721.031599361241
 30
0.0
  0
POINT
  5
7EA1
330
823B
100
AcDbEntity
  8
DEFPOINTS
  6
ByBlock
 62
     0
100
AcDbPoint
 10
62.62511497683954
 20
2871.03159936124
 30
0.0
  0
POINT
  5
7EA2
330
823B
100
AcDbEntity
  8
DEFPOINTS
  6
ByBlock
 62
     0
100
AcDbPoint
 10
-159.4229525237715
 20
2871.03159936124
 30
0.0
  0
ENDBLK
  5
7EA3
330
823B
100
AcDbEntity
  8
0
100
AcDbBlockEnd
  0
BLOCK
  5
823E
330
823D
100
AcDbEntity
  8
0
100
AcDbBlockBegin
  2
*D9
 70
     1
 10
0.0
 20
0.0
 30
0.0
  3
*D9
  1

  0
LINE
  5
7EA5
330
823D
100
AcDbEntity
  8
0
  6
ByBlock
100
AcDbLine
 10
2142.625114976839
 20
4376.031599361239
 30
0.0
 11
2541.269252985774
 21
4376.031599361239
 31
0.0
  0
LINE
  5
7EA6
330
823D
100
AcDbEntity
  8
0
  6
ByBlock
100
AcDbLine
 10
2142.625114976839
 20
2871.031599361238
 30
0.0
 11
2541.269252985774
 21
2871.031599361238
 31
0.0
  0
LINE
  5
7EA7
330
823D
100
AcDbEntity
  8
0
  6
ByBlock
100
AcDbLine
 10
2511.269252985774
 20
4316.031599361237
 30
0.0
 11
2511.269252985774
 21
2931.031599361238
 31
0.0
  0
INSERT
  5
7EA8
330
823D
100
AcDbEntity
  8
0
  6
ByBlock
100
AcDbBlockReference
  2
_OPEN
 10
2511.269252985774
 20
4376.031599361239
 30
0.0
 41
60.0
 42
60.0
 43
60.0
 50
90.0
  0
INSERT
  5
7EA9
330
823D
100
AcDbEntity
  8
0
  6
ByBlock
100
AcDbBlockReference
  2
_OPEN
 10
2511.269252985774
 20
2871.031599361238
 30
0.0
 41
60.0
 42
60.0
 43
60.0
 50
270.0
  0
TEXT
  5
7EAA
330
823D
100
AcDbEntity
  8
3
100
AcDbText
 10
2496.269252985774
 20
3473.531599361239
 30
0.0
 40
90.0
  1
1505
 50
90.0
100
AcDbText
  0
POINT
  5
7EAB
330
823D
100
AcDbEntity
  8
DEFPOINTS
  6
ByBlock
 62
     0
100
AcDbPoint
 10
2112.625114976839
 20
4376.031599361239
 30
0.0
  0
POINT
  5
7EAC
330
823D
100
AcDbEntity
  8
DEFPOINTS
  6
ByBlock
 62
     0
100
AcDbPoint
 10
2112.625114976839
 20
2871.031599361238
 30
0.0
  0
POINT
  5
7EAD
330
823D
100
AcDbEntity
  8
DEFPOINTS
  6
ByBlock
 62
     0
100
AcDbPoint
 10
2511.269252985774
 20
2871.031599361238
 30
0.0
  0
ENDBLK
  5
7EAE
330
823D
100
AcDbEntity
  8
0
100
AcDbBlockEnd
  0
BLOCK
  5
8240
330
823F
100
AcDbEntity
  8
0
100
AcDbBlockBegin
  2
*D10
 70
     1
 10
0.0
 20
0.0
 30
0.0
  3
*D10
  1

  0
LINE
  5
8042
330
823F
100
AcDbEntity
  8
0
  6
ByBlock
100
AcDbLine
 10
3858.26378413398
 20
3324.169466167079
 30
0.0
 11
3858.26378413398
 21
4177.692100635555
 31
0.0
  0
LINE
  5
8043
330
823F
100
AcDbEntity
  8
0
  6
ByBlock
100
AcDbLine
 10
4825.763784133985
 20
4093.430817459545
 30
0.0
 11
4825.763784133985
 21
4177.692100635555
 31
0.0
  0
LINE
  5
8044
330
823F
100
AcDbEntity
  8
0
  6
ByBlock
100
AcDbLine
 10
3918.26378413398
 20
4147.692100635555
 30
0.0
 11
4765.763784133985
 21
4147.692100635555
 31
0.0
  0
INSERT
  5
8045
330
823F
100
AcDbEntity
  8
0
  6
ByBlock
100
AcDbBlockReference
  2
_OPEN
 10
3858.26378413398
 20
4147.692100635555
 30
0.0
 41
60.0
 42
60.0
 43
60.0
 50
180.0
  0
INSERT
  5
8046
330
823F
100
AcDbEntity
  8
0
  6
ByBlock
100
AcDbBlockReference
  2
_OPEN
 10
4825.763784133985
 20
4147.692100635555
 30
0.0
 41
60.0
 42
60.0
 43
60.0
  0
INSERT
  5
8047
330
823F
100
AcDbEntity
  8
3
100
AcDbBlockReference
  2
*U11
 10
0.0
 20
0.0
 30
0.0
  0
POINT
  5
8048
330
823F
100
AcDbEntity
  8
DEFPOINTS
  6
ByBlock
 62
     0
100
AcDbPoint
 10
3858.26378413398
 20
3294.16946616708
 30
0.0
  0
POINT
  5
8049
330
823F
100
AcDbEntity
  8
DEFPOINTS
  6
ByBlock
 62
     0
100
AcDbPoint
 10
4825.763784133985
 20
4063.430817459545
 30
0.0
  0
POINT
  5
804A
330
823F
100
AcDbEntity
  8
DEFPOINTS
  6
ByBlock
 62
     0
100
AcDbPoint
 10
4825.763784133985
 20
4147.692100635555
 30
0.0
  0
ENDBLK
  5
804B
330
823F
100
AcDbEntity
  8
0
100
AcDbBlockEnd
  0
BLOCK
  5
8264
330
8241
100
AcDbEntity
  8
0
100
AcDbBlockBegin
  2
*U11
 70
     1
 10
0.0
 20
0.0
 30
0.0
  3
*U11
  1

  0
TEXT
  5
81A6
330
8241
100
AcDbEntity
  8
3
100
AcDbText
 10
4213.442355562554
 20
4312.692100635555
 30
0.0
 40
90.0
  1
MAX
100
AcDbText
  0
TEXT
  5
81A7
330
8241
100
AcDbEntity
  8
3
100
AcDbText
 10
4192.013784133982
 20
4162.692100635555
 30
0.0
 40
90.0
  1
1020
100
AcDbText
  0
ENDBLK
  5
81A9
330
8241
100
AcDbEntity
  8
0
100
AcDbBlockEnd
  0
BLOCK
  5
8243
330
8242
100
AcDbEntity
  8
0
100
AcDbBlockBegin
  2
*D12
 70
     1
 10
0.0
 20
0.0
 30
0.0
  3
*D12
  1

  0
LINE
  5
8037
330
8242
100
AcDbEntity
  8
0
  6
ByBlock
100
AcDbLine
 10
4825.763784133985
 20
4093.430817459545
 30
0.0
 11
4825.763784133985
 21
4177.692100635555
 31
0.0
  0
LINE
  5
8038
330
8242
100
AcDbEntity
  8
0
  6
ByBlock
100
AcDbLine
 10
5593.763784133988
 20
3008.36946616708
 30
0.0
 11
5593.763784133988
 21
4177.692100635555
 31
0.0
  0
LINE
  5
8039
330
8242
100
AcDbEntity
  8
0
  6
ByBlock
100
AcDbLine
 10
4885.763784133985
 20
4147.692100635555
 30
0.0
 11
5533.763784133988
 21
4147.692100635555
 31
0.0
  0
INSERT
  5
803A
330
8242
100
AcDbEntity
  8
0
  6
ByBlock
100
AcDbBlockReference
  2
_OPEN
 10
4825.763784133985
 20
4147.692100635555
 30
0.0
 41
60.0
 42
60.0
 43
60.0
 50
180.0
  0
INSERT
  5
803B
330
8242
100
AcDbEntity
  8
0
  6
ByBlock
100
AcDbBlockReference
  2
_OPEN
 10
5593.763784133988
 20
4147.692100635555
 30
0.0
 41
60.0
 42
60.0
 43
60.0
  0
TEXT
  5
803C
330
8242
100
AcDbEntity
  8
3
100
AcDbText
 10
5036.192355562558
 20
4201.263529206982
 30
0.0
 40
90.0
  1
(780)
100
AcDbText
  0
POINT
  5
803D
330
8242
100
AcDbEntity
  8
DEFPOINTS
  6
ByBlock
 62
     0
100
AcDbPoint
 10
4825.763784133985
 20
4063.430817459545
 30
0.0
  0
POINT
  5
803E
330
8242
100
AcDbEntity
  8
DEFPOINTS
  6
ByBlock
 62
     0
100
AcDbPoint
 10
5593.763784133988
 20
2978.369466167081
 30
0.0
  0
POINT
  5
803F
330
8242
100
AcDbEntity
  8
DEFPOINTS
  6
ByBlock
 62
     0
100
AcDbPoint
 10
5593.763784133988
 20
4147.692100635555
 30
0.0
  0
ENDBLK
  5
8040
330
8242
100
AcDbEntity
  8
0
100
AcDbBlockEnd
  0
BLOCK
  5
8245
330
8244
100
AcDbEntity
  8
0
100
AcDbBlockBegin
  2
*D13
 70
     1
 10
0.0
 20
0.0
 30
0.0
  3
*D13
  1

  0
LINE
  5
7EC6
330
8244
100
AcDbEntity
  8
0
  6
ByBlock
100
AcDbLine
 10
4259.104621073492
 20
1312.374620489382
 30
0.0
 11
4259.104621073492
 21
1592.055054257674
 31
0.0
  0
LINE
  5
7EC7
330
8244
100
AcDbEntity
  8
0
  6
ByBlock
100
AcDbLine
 10
5509.104621073492
 20
1309.096068293924
 30
0.0
 11
5509.104621073492
 21
1592.055054257674
 31
0.0
  0
LINE
  5
7EC8
330
8244
100
AcDbEntity
  8
0
  6
ByBlock
100
AcDbLine
 10
4319.104621073492
 20
1562.055054257674
 30
0.0
 11
5449.104621073495
 21
1562.055054257674
 31
0.0
  0
INSERT
  5
7EC9
330
8244
100
AcDbEntity
  8
0
  6
ByBlock
100
AcDbBlockReference
  2
_OPEN
 10
4259.104621073492
 20
1562.055054257674
 30
0.0
 41
60.0
 42
60.0
 43
60.0
 50
180.0
  0
INSERT
  5
7ECA
330
8244
100
AcDbEntity
  8
0
  6
ByBlock
100
AcDbBlockReference
  2
_OPEN
 10
5509.104621073492
 20
1562.055054257674
 30
0.0
 41
60.0
 42
60.0
 43
60.0
  0
TEXT
  5
7ECB
330
8244
100
AcDbEntity
  8
3
100
AcDbText
 10
4734.104621073493
 20
1577.055054257674
 30
0.0
 40
90.0
  1
1250
100
AcDbText
  0
POINT
  5
7ECC
330
8244
100
AcDbEntity
  8
DEFPOINTS
  6
ByBlock
 62
     0
100
AcDbPoint
 10
4259.104621073492
 20
1282.374620489382
 30
0.0
  0
POINT
  5
7ECD
330
8244
100
AcDbEntity
  8
DEFPOINTS
  6
ByBlock
 62
     0
100
AcDbPoint
 10
5509.104621073492
 20
1279.096068293924
 30
0.0
  0
POINT
  5
7ECE
330
8244
100
AcDbEntity
  8
DEFPOINTS
  6
ByBlock
 62
     0
100
AcDbPoint
 10
5509.104621073492
 20
1562.055054257674
 30
0.0
  0
ENDBLK
  5
7ECF
330
8244
100
AcDbEntity
  8
0
100
AcDbBlockEnd
  0
BLOCK
  5
8247
330
8246
100
AcDbEntity
  8
0
100
AcDbBlockBegin
  2
*D14
 70
     1
 10
0.0
 20
0.0
 30
0.0
  3
*D14
  1

  0
LINE
  5
7ED1
330
8246
100
AcDbEntity
  8
0
  6
ByBlock
100
AcDbLine
 10
5544.604621073492
 20
98.06030283574637
 30
0.0
 11
5883.472841444802
 21
98.06030283574637
 31
0.0
  0
LINE
  5
7ED2
330
8246
100
AcDbEntity
  8
0
  6
ByBlock
100
AcDbLine
 10
5544.604621073492
 20
1158.060302835746
 30
0.0
 11
5883.472841444802
 21
1158.060302835746
 31
0.0
  0
LINE
  5
7ED3
330
8246
100
AcDbEntity
  8
0
  6
ByBlock
100
AcDbLine
 10
5853.472841444804
 20
158.0603028357463
 30
0.0
 11
5853.472841444804
 21
1098.060302835746
 31
0.0
  0
INSERT
  5
7ED4
330
8246
100
AcDbEntity
  8
0
  6
ByBlock
100
AcDbBlockReference
  2
_OPEN
 10
5853.472841444804
 20
98.06030283574637
 30
0.0
 41
60.0
 42
60.0
 43
60.0
 50
270.0
  0
INSERT
  5
7ED5
330
8246
100
AcDbEntity
  8
0
  6
ByBlock
100
AcDbBlockReference
  2
_OPEN
 10
5853.472841444804
 20
1158.060302835746
 30
0.0
 41
60.0
 42
60.0
 43
60.0
 50
90.0
  0
TEXT
  5
7ED6
330
8246
100
AcDbEntity
  8
3
100
AcDbText
 10
5838.472841444802
 20
433.0603028357463
 30
0.0
 40
90.0
  1
\U+03C61060
 50
90.0
100
AcDbText
  0
POINT
  5
7ED7
330
8246
100
AcDbEntity
  8
DEFPOINTS
  6
ByBlock
 62
     0
100
AcDbPoint
 10
5514.604621073492
 20
98.06030283574637
 30
0.0
  0
POINT
  5
7ED8
330
8246
100
AcDbEntity
  8
DEFPOINTS
  6
ByBlock
 62
     0
100
AcDbPoint
 10
5514.604621073492
 20
1158.060302835746
 30
0.0
  0
POINT
  5
7ED9
330
8246
100
AcDbEntity
  8
DEFPOINTS
  6
ByBlock
 62
     0
100
AcDbPoint
 10
5853.472841444804
 20
1158.060302835746
 30
0.0
  0
ENDBLK
  5
7EDA
330
8246
100
AcDbEntity
  8
0
100
AcDbBlockEnd
  0
BLOCK
  5
8249
330
8248
100
AcDbEntity
  8
0
100
AcDbBlockBegin
  2
*D15
 70
     1
 10
0.0
 20
0.0
 30
0.0
  3
*D15
  1

  0
LINE
  5
7EDC
330
8248
100
AcDbEntity
  8
0
  6
ByBlock
100
AcDbLine
 10
862.6251149768394
 20
4406.031599361241
 30
0.0
 11
862.6251149768394
 21
4627.335536588958
 31
0.0
  0
LINE
  5
7EDD
330
8248
100
AcDbEntity
  8
0
  6
ByBlock
100
AcDbLine
 10
62.62511497683954
 20
3751.03159936124
 30
0.0
 11
62.62511497683954
 21
4627.335536588958
 31
0.0
  0
LINE
  5
7EDE
330
8248
100
AcDbEntity
  8
0
  6
ByBlock
100
AcDbLine
 10
802.6251149768395
 20
4597.335536588958
 30
0.0
 11
122.6251149768395
 21
4597.335536588958
 31
0.0
  0
INSERT
  5
7EDF
330
8248
100
AcDbEntity
  8
0
  6
ByBlock
100
AcDbBlockReference
  2
_OPEN
 10
862.6251149768394
 20
4597.335536588958
 30
0.0
 41
60.0
 42
60.0
 43
60.0
  0
INSERT
  5
7EE0
330
8248
100
AcDbEntity
  8
0
  6
ByBlock
100
AcDbBlockReference
  2
_OPEN
 10
62.62511497683954
 20
4597.335536588958
 30
0.0
 41
60.0
 42
60.0
 43
60.0
 50
180.0
  0
TEXT
  5
7EE1
330
8248
100
AcDbEntity
  8
3
100
AcDbText
 10
346.9108292625538
 20
4612.335536588958
 30
0.0
 40
90.0
  1
800
100
AcDbText
  0
POINT
  5
7EE2
330
8248
100
AcDbEntity
  8
DEFPOINTS
  6
ByBlock
 62
     0
100
AcDbPoint
 10
862.6251149768394
 20
4376.031599361239
 30
0.0
  0
POINT
  5
7EE3
330
8248
100
AcDbEntity
  8
DEFPOINTS
  6
ByBlock
 62
     0
100
AcDbPoint
 10
62.62511497683954
 20
3721.031599361241
 30
0.0
  0
POINT
  5
7EE4
330
8248
100
AcDbEntity
  8
DEFPOINTS
  6
ByBlock
 62
     0
100
AcDbPoint
 10
62.62511497683954
 20
4597.335536588958
 30
0.0
  0
ENDBLK
  5
7EE5
330
8248
100
AcDbEntity
  8
0
100
AcDbBlockEnd
  0
BLOCK
  5
824B
330
824A
100
AcDbEntity
  8
0
100
AcDbBlockBegin
  2
*D16
 70
     1
 10
0.0
 20
0.0
 30
0.0
  3
*D16
  1

  0
LINE
  5
8187
330
824A
100
AcDbEntity
  8
3
100
AcDbLine
 10
2987.691023858453
 20
2970.169466167082
 30
0.0
 11
2987.691023858453
 21
4126.131608620377
 31
0.0
  0
LINE
  5
8188
330
824A
100
AcDbEntity
  8
3
100
AcDbLine
 10
2327.691023858452
 20
4096.131608620377
 30
0.0
 11
2927.691023858452
 21
4096.131608620377
 31
0.0
  0
INSERT
  5
8189
330
824A
100
AcDbEntity
  8
3
100
AcDbBlockReference
  2
_OPEN
 10
2267.691023858451
 20
4096.131608620377
 30
0.0
 41
60.0
 42
60.0
 43
60.0
 50
180.0
  0
INSERT
  5
818A
330
824A
100
AcDbEntity
  8
3
100
AcDbBlockReference
  2
_OPEN
 10
2987.691023858453
 20
4096.131608620377
 30
0.0
 41
60.0
 42
60.0
 43
60.0
  0
TEXT
  5
81AA
330
824A
100
AcDbEntity
  8
3
100
AcDbText
 10
2447.69
 20
3996.83
 30
0.0
 40
90.0
  1
720
100
AcDbText
  0
POINT
  5
818C
330
824A
100
AcDbEntity
  8
DEFPOINTS
 62
     0
100
AcDbPoint
 10
2267.691023858451
 20
3753.785448664709
 30
0.0
  0
POINT
  5
818D
330
824A
100
AcDbEntity
  8
DEFPOINTS
 62
     0
100
AcDbPoint
 10
2987.691023858453
 20
2940.169466167081
 30
0.0
  0
POINT
  5
818E
330
824A
100
AcDbEntity
  8
DEFPOINTS
 62
     0
100
AcDbPoint
 10
2987.691023858453
 20
4096.131608620377
 30
0.0
  0
ENDBLK
  5
7EEF
330
824A
100
AcDbEntity
  8
0
100
AcDbBlockEnd
  0
BLOCK
  5
824D
330
824C
100
AcDbEntity
  8
0
100
AcDbBlockBegin
  2
*D17
 70
     1
 10
0.0
 20
0.0
 30
0.0
  3
*D17
  1

  0
LINE
  5
7EF1
330
824C
100
AcDbEntity
  8
0
  6
ByBlock
100
AcDbLine
 10
1517.625114976837
 20
1308.060302835747
 30
0.0
 11
2504.318983650129
 21
1308.060302835747
 31
0.0
  0
LINE
  5
7EF2
330
824C
100
AcDbEntity
  8
0
  6
ByBlock
100
AcDbLine
 10
2257.241097474467
 20
628.0603028357453
 30
0.0
 11
2504.318983650129
 21
628.0603028357453
 31
0.0
  0
LINE
  5
7EF3
330
824C
100
AcDbEntity
  8
0
  6
ByBlock
100
AcDbLine
 10
2474.31898365013
 20
1248.060302835747
 30
0.0
 11
2474.31898365013
 21
688.0603028357453
 31
0.0
  0
INSERT
  5
7EF4
330
824C
100
AcDbEntity
  8
0
  6
ByBlock
100
AcDbBlockReference
  2
_OPEN
 10
2474.31898365013
 20
1308.060302835747
 30
0.0
 41
60.0
 42
60.0
 43
60.0
 50
90.0
  0
INSERT
  5
7EF5
330
824C
100
AcDbEntity
  8
0
  6
ByBlock
100
AcDbBlockReference
  2
_OPEN
 10
2474.31898365013
 20
628.0603028357453
 30
0.0
 41
60.0
 42
60.0
 43
60.0
 50
270.0
  0
TEXT
  5
7EF6
330
824C
100
AcDbEntity
  8
3
100
AcDbText
 10
2459.318983650129
 20
852.3460171214606
 30
0.0
 40
90.0
  1
680
 50
90.0
100
AcDbText
  0
POINT
  5
7EF7
330
824C
100
AcDbEntity
  8
DEFPOINTS
  6
ByBlock
 62
     0
100
AcDbPoint
 10
1487.625114976837
 20
1308.060302835747
 30
0.0
  0
POINT
  5
7EF8
330
824C
100
AcDbEntity
  8
DEFPOINTS
  6
ByBlock
 62
     0
100
AcDbPoint
 10
2227.241097474466
 20
628.0603028357453
 30
0.0
  0
POINT
  5
7EF9
330
824C
100
AcDbEntity
  8
DEFPOINTS
  6
ByBlock
 62
     0
100
AcDbPoint
 10
2474.31898365013
 20
628.0603028357453
 30
0.0
  0
ENDBLK
  5
7EFA
330
824C
100
AcDbEntity
  8
0
100
AcDbBlockEnd
  0
BLOCK
  5
824F
330
824E
100
AcDbEntity
  8
0
100
AcDbBlockBegin
  2
*D18
 70
     1
 10
0.0
 20
0.0
 30
0.0
  3
*D18
  1

  0
LINE
  5
818F
330
824E
100
AcDbEntity
  8
3
100
AcDbLine
 10
2922.691023858453
 20
2118.972316392661
 30
0.0
 11
3284.384892531743
 21
2118.97231639266
 31
0.0
  0
LINE
  5
8190
330
824E
100
AcDbEntity
  8
3
100
AcDbLine
 10
3254.384892531744
 20
2954.169466167078
 30
0.0
 11
3254.384892531744
 21
2178.97231639266
 31
0.0
  0
INSERT
  5
8191
330
824E
100
AcDbEntity
  8
3
100
AcDbBlockReference
  2
_OPEN
 10
3254.384892531744
 20
3014.169466167079
 30
0.0
 41
60.0
 42
60.0
 43
60.0
 50
90.0
  0
INSERT
  5
8192
330
824E
100
AcDbEntity
  8
3
100
AcDbBlockReference
  2
_OPEN
 10
3254.384892531744
 20
2118.97231639266
 30
0.0
 41
60.0
 42
60.0
 43
60.0
 50
270.0
  0
TEXT
  5
81AB
330
824E
100
AcDbEntity
  8
3
100
AcDbText
 10
3014.38
 20
2407.27
 30
0.0
 40
90.0
  1
895
100
AcDbText
  0
POINT
  5
8194
330
824E
100
AcDbEntity
  8
DEFPOINTS
 62
     0
100
AcDbPoint
 10
3007.30700635608
 20
3014.169466167079
 30
0.0
  0
POINT
  5
8195
330
824E
100
AcDbEntity
  8
DEFPOINTS
 62
     0
100
AcDbPoint
 10
2892.691023858453
 20
2118.972316392661
 30
0.0
  0
POINT
  5
8196
330
824E
100
AcDbEntity
  8
DEFPOINTS
 62
     0
100
AcDbPoint
 10
3254.384892531744
 20
2118.97231639266
 30
0.0
  0
ENDBLK
  5
7F04
330
824E
100
AcDbEntity
  8
0
100
AcDbBlockEnd
  0
BLOCK
  5
8251
330
8250
100
AcDbEntity
  8
0
100
AcDbBlockBegin
  2
*D19
 70
     1
 10
0.0
 20
0.0
 30
0.0
  3
*D19
  1

  0
LINE
  5
8197
330
8250
100
AcDbEntity
  8
3
 62
     0
100
AcDbLine
 10
2907.691023858453
 20
2098.97231639266
 30
0.0
 11
3284.384892531743
 21
2098.97231639266
 31
0.0
  0
LINE
  5
8198
330
8250
100
AcDbEntity
  8
3
 62
     0
100
AcDbLine
 10
2907.691023858453
 20
1998.972316392659
 30
0.0
 11
3284.384892531743
 21
1998.972316392659
 31
0.0
  0
LINE
  5
8199
330
8250
100
AcDbEntity
  8
3
 62
     0
100
AcDbLine
 10
3254.384892531744
 20
2158.97231639266
 30
0.0
 11
3254.384892531744
 21
2218.97231639266
 31
0.0
  0
LINE
  5
819A
330
8250
100
AcDbEntity
  8
3
 62
     0
100
AcDbLine
 10
3254.384892531744
 20
1938.972316392661
 30
0.0
 11
3254.384892531744
 21
1604.686602106947
 31
0.0
  0
LINE
  5
819B
330
8250
100
AcDbEntity
  8
3
 62
     0
100
AcDbLine
 10
3254.384892531744
 20
2098.97231639266
 30
0.0
 11
3254.384892531744
 21
1998.972316392659
 31
0.0
  0
INSERT
  5
819C
330
8250
100
AcDbEntity
  8
3
 62
     0
100
AcDbBlockReference
  2
_DOT
 10
3254.384892531744
 20
2098.97231639266
 30
0.0
 41
60.0
 42
60.0
 43
60.0
 50
270.0
  0
INSERT
  5
819D
330
8250
100
AcDbEntity
  8
3
 62
     0
100
AcDbBlockReference
  2
_OPEN
 10
3254.384892531744
 20
1998.972316392659
 30
0.0
 41
60.0
 42
60.0
 43
60.0
 50
90.0
  0
TEXT
  5
81AC
330
8250
100
AcDbEntity
  8
3
 62
     0
100
AcDbText
 10
2999.38
 20
1582.53
 30
0.0
 40
90.0
  1
100
100
AcDbText
  0
POINT
  5
819F
330
8250
100
AcDbEntity
  8
DEFPOINTS
 62
     0
100
AcDbPoint
 10
2892.691023858453
 20
2098.97231639266
 30
0.0
  0
POINT
  5
81A0
330
8250
100
AcDbEntity
  8
DEFPOINTS
 62
     0
100
AcDbPoint
 10
2892.691023858453
 20
1998.972316392659
 30
0.0
  0
POINT
  5
81A1
330
8250
100
AcDbEntity
  8
DEFPOINTS
 62
     0
100
AcDbPoint
 10
3254.384892531744
 20
1998.972316392659
 30
0.0
  0
ENDBLK
  5
7FE4
330
8250
100
AcDbEntity
  8
0
100
AcDbBlockEnd
  0
BLOCK
  5
8255
330
8252
100
AcDbEntity
  8
0
100
AcDbBlockBegin
  2
_DOT
 70
     0
 10
0.0
 20
0.0
 30
0.0
  3
_DOT
  1

  0
LWPOLYLINE
  5
7FE7
330
8252
100
AcDbEntity
  8
0
  6
ByBlock
 62
     0
100
AcDbPolyline
 90
        2
 70
     1
 43
0.25
 10
-0.125
 20
0.0
 42
1.0
 10
0.125
 20
0.0
 42
1.0
  0
LINE
  5
7FEB
330
8252
100
AcDbEntity
  8
0
  6
ByBlock
 62
     0
100
AcDbLine
 10
-0.25
 20
0.0
 30
0.0
 11
-1.0
 21
0.0
 31
0.0
  0
ENDBLK
  5
7FCA
330
8252
100
AcDbEntity
  8
0
100
AcDbBlockEnd
  0
BLOCK
  5
8254
330
8253
100
AcDbEntity
  8
0
100
AcDbBlockBegin
  2
*D21
 70
     1
 10
0.0
 20
0.0
 30
0.0
  3
*D21
  1

  0
LINE
  5
7F2A
330
8253
100
AcDbEntity
  8
0
  6
ByBlock
100
AcDbLine
 10
2207.625114976838
 20
584.0603028357476
 30
0.0
 11
2207.625114976838
 21
1915.071285267736
 31
0.0
  0
LINE
  5
7F2B
330
8253
100
AcDbEntity
  8
0
  6
ByBlock
100
AcDbLine
 10
62.62511497683954
 20
-137.1368469386742
 30
0.0
 11
62.62511497683954
 21
1915.071285267736
 31
0.0
  0
LINE
  5
7F2C
330
8253
100
AcDbEntity
  8
0
  6
ByBlock
100
AcDbLine
 10
2147.625114976838
 20
1885.071285267737
 30
0.0
 11
122.6251149768395
 21
1885.071285267737
 31
0.0
  0
INSERT
  5
7F2D
330
8253
100
AcDbEntity
  8
0
  6
ByBlock
100
AcDbBlockReference
  2
_OPEN
 10
2207.625114976838
 20
1885.071285267737
 30
0.0
 41
60.0
 42
60.0
 43
60.0
  0
INSERT
  5
7F2E
330
8253
100
AcDbEntity
  8
0
  6
ByBlock
100
AcDbBlockReference
  2
_OPEN
 10
62.62511497683954
 20
1885.071285267737
 30
0.0
 41
60.0
 42
60.0
 43
60.0
 50
180.0
  0
TEXT
  5
7F2F
330
8253
100
AcDbEntity
  8
3
100
AcDbText
 10
985.1251149768392
 20
1900.071285267737
 30
0.0
 40
90.0
  1
2145
100
AcDbText
  0
POINT
  5
7F30
330
8253
100
AcDbEntity
  8
DEFPOINTS
  6
ByBlock
 62
     0
100
AcDbPoint
 10
2207.625114976838
 20
554.0603028357477
 30
0.0
  0
POINT
  5
7F31
330
8253
100
AcDbEntity
  8
DEFPOINTS
  6
ByBlock
 62
     0
100
AcDbPoint
 10
62.62511497683954
 20
-167.1368469386742
 30
0.0
  0
POINT
  5
7F32
330
8253
100
AcDbEntity
  8
DEFPOINTS
  6
ByBlock
 62
     0
100
AcDbPoint
 10
62.62511497683954
 20
1885.071285267737
 30
0.0
  0
ENDBLK
  5
7F33
330
8253
100
AcDbEntity
  8
0
100
AcDbBlockEnd
  0
BLOCK
  5
8257
330
8256
100
AcDbEntity
  8
0
100
AcDbBlockBegin
  2
*D22
 70
     1
 10
0.0
 20
0.0
 30
0.0
  3
*D22
  1

  0
LINE
  5
805D
330
8256
100
AcDbEntity
  8
0
  6
ByBlock
 62
     0
100
AcDbLine
 10
842.6910238584531
 20
1961.972316392661
 30
0.0
 11
842.6910238584531
 21
1759.426305100245
 31
0.0
  0
LINE
  5
805E
330
8256
100
AcDbEntity
  8
0
  6
ByBlock
 62
     0
100
AcDbLine
 10
2267.691023858451
 20
1961.972316392661
 30
0.0
 11
2267.691023858451
 21
1759.426305100245
 31
0.0
  0
LINE
  5
805F
330
8256
100
AcDbEntity
  8
0
  6
ByBlock
 62
     0
100
AcDbLine
 10
902.691023858453
 20
1789.426305100245
 30
0.0
 11
2207.691023858451
 21
1789.426305100245
 31
0.0
  0
INSERT
  5
8060
330
8256
100
AcDbEntity
  8
0
  6
ByBlock
 62
     0
100
AcDbBlockReference
  2
_OPEN
 10
842.6910238584531
 20
1789.426305100245
 30
0.0
 41
60.0
 42
60.0
 43
60.0
 50
180.0
  0
INSERT
  5
8061
330
8256
100
AcDbEntity
  8
0
  6
ByBlock
 62
     0
100
AcDbBlockReference
  2
_OPEN
 10
2267.691023858451
 20
1789.426305100245
 30
0.0
 41
60.0
 42
60.0
 43
60.0
  0
TEXT
  5
8062
330
8256
100
AcDbEntity
  8
3
 62
     0
100
AcDbText
 10
1405.191023858452
 20
1819.426305100245
 30
0.0
 40
90.0
  1
1425
100
AcDbText
  0
POINT
  5
8063
330
8256
100
AcDbEntity
  8
DEFPOINTS
  6
ByBlock
 62
     0
100
AcDbPoint
 10
842.6910238584531
 20
1991.972316392661
 30
0.0
  0
POINT
  5
8064
330
8256
100
AcDbEntity
  8
DEFPOINTS
  6
ByBlock
 62
     0
100
AcDbPoint
 10
2267.691023858451
 20
1991.972316392661
 30
0.0
  0
POINT
  5
8065
330
8256
100
AcDbEntity
  8
DEFPOINTS
  6
ByBlock
 62
     0
100
AcDbPoint
 10
2267.691023858451
 20
1789.426305100245
 30
0.0
  0
ENDBLK
  5
8066
330
8256
100
AcDbEntity
  8
0
100
AcDbBlockEnd
  0
BLOCK
  5
8259
330
8258
100
AcDbEntity
  8
0
100
AcDbBlockBegin
  2
*D23
 70
     1
 10
0.0
 20
0.0
 30
0.0
  3
*D23
  1

  0
LINE
  5
806A
330
8258
100
AcDbEntity
  8
0
  6
ByBlock
 62
     0
100
AcDbLine
 10
2267.691023858451
 20
1961.972316392661
 30
0.0
 11
2267.691023858451
 21
1759.426305100245
 31
0.0
  0
LINE
  5
806B
330
8258
100
AcDbEntity
  8
0
  6
ByBlock
 62
     0
100
AcDbLine
 10
2892.691023858453
 20
1961.972316392661
 30
0.0
 11
2892.691023858453
 21
1759.426305100245
 31
0.0
  0
LINE
  5
806C
330
8258
100
AcDbEntity
  8
0
  6
ByBlock
 62
     0
100
AcDbLine
 10
2327.691023858451
 20
1789.426305100245
 30
0.0
 11
2832.691023858453
 21
1789.426305100245
 31
0.0
  0
INSERT
  5
806D
330
8258
100
AcDbEntity
  8
0
  6
ByBlock
 62
     0
100
AcDbBlockReference
  2
_OPEN
 10
2267.691023858451
 20
1789.426305100245
 30
0.0
 41
60.0
 42
60.0
 43
60.0
 50
180.0
  0
INSERT
  5
806E
330
8258
100
AcDbEntity
  8
0
  6
ByBlock
 62
     0
100
AcDbBlockReference
  2
_OPEN
 10
2892.691023858453
 20
1789.426305100245
 30
0.0
 41
60.0
 42
60.0
 43
60.0
  0
TEXT
  5
806F
330
8258
100
AcDbEntity
  8
3
 62
     0
100
AcDbText
 10
2464.476738144167
 20
1819.426305100245
 30
0.0
 40
90.0
  1
625
100
AcDbText
  0
POINT
  5
8070
330
8258
100
AcDbEntity
  8
DEFPOINTS
  6
ByBlock
 62
     0
100
AcDbPoint
 10
2267.691023858451
 20
1991.972316392661
 30
0.0
  0
POINT
  5
8071
330
8258
100
AcDbEntity
  8
DEFPOINTS
  6
ByBlock
 62
     0
100
AcDbPoint
 10
2892.691023858453
 20
1991.972316392661
 30
0.0
  0
POINT
  5
8072
330
8258
100
AcDbEntity
  8
DEFPOINTS
  6
ByBlock
 62
     0
100
AcDbPoint
 10
2892.691023858453
 20
1789.426305100245
 30
0.0
  0
ENDBLK
  5
8073
330
8258
100
AcDbEntity
  8
0
100
AcDbBlockEnd
  0
BLOCK
  5
825B
330
825A
100
AcDbEntity
  8
0
100
AcDbBlockBegin
  2
*D24
 70
     1
 10
0.0
 20
0.0
 30
0.0
  3
*D24
  1

  0
LINE
  5
8077
330
825A
100
AcDbEntity
  8
0
  6
ByBlock
 62
     0
100
AcDbLine
 10
3876.47352743828
 20
1962.169466167079
 30
0.0
 11
3876.47352743828
 21
1759.426305100245
 31
0.0
  0
LINE
  5
8078
330
825A
100
AcDbEntity
  8
0
  6
ByBlock
 62
     0
100
AcDbLine
 10
4703.473527438279
 20
1962.169466167079
 30
0.0
 11
4703.473527438279
 21
1759.426305100245
 31
0.0
  0
LINE
  5
8079
330
825A
100
AcDbEntity
  8
0
  6
ByBlock
 62
     0
100
AcDbLine
 10
3936.47352743828
 20
1789.426305100245
 30
0.0
 11
4643.473527438279
 21
1789.426305100245
 31
0.0
  0
INSERT
  5
807A
330
825A
100
AcDbEntity
  8
0
  6
ByBlock
 62
     0
100
AcDbBlockReference
  2
_OPEN
 10
3876.47352743828
 20
1789.426305100245
 30
0.0
 41
60.0
 42
60.0
 43
60.0
 50
180.0
  0
INSERT
  5
807B
330
825A
100
AcDbEntity
  8
0
  6
ByBlock
 62
     0
100
AcDbBlockReference
  2
_OPEN
 10
4703.473527438279
 20
1789.426305100245
 30
0.0
 41
60.0
 42
60.0
 43
60.0
  0
TEXT
  5
807C
330
825A
100
AcDbEntity
  8
3
 62
     0
100
AcDbText
 10
4174.259241723993
 20
1819.426305100245
 30
0.0
 40
90.0
  1
827
100
AcDbText
  0
POINT
  5
807D
330
825A
100
AcDbEntity
  8
DEFPOINTS
  6
ByBlock
 62
     0
100
AcDbPoint
 10
3876.47352743828
 20
1992.169466167078
 30
0.0
  0
POINT
  5
807E
330
825A
100
AcDbEntity
  8
DEFPOINTS
  6
ByBlock
 62
     0
100
AcDbPoint
 10
4703.473527438279
 20
1992.169466167078
 30
0.0
  0
POINT
  5
807F
330
825A
100
AcDbEntity
  8
DEFPOINTS
  6
ByBlock
 62
     0
100
AcDbPoint
 10
4703.473527438279
 20
1789.426305100245
 30
0.0
  0
ENDBLK
  5
8080
330
825A
100
AcDbEntity
  8
0
100
AcDbBlockEnd
  0
BLOCK
  5
825D
330
825C
100
AcDbEntity
  8
0
100
AcDbBlockBegin
  2
*D25
 70
     1
 10
0.0
 20
0.0
 30
0.0
  3
*D25
  1

  0
LINE
  5
8084
330
825C
100
AcDbEntity
  8
0
  6
ByBlock
 62
     0
100
AcDbLine
 10
4703.473527438279
 20
1962.169466167079
 30
0.0
 11
4703.473527438279
 21
1759.426305100245
 31
0.0
  0
LINE
  5
8085
330
825C
100
AcDbEntity
  8
0
  6
ByBlock
 62
     0
100
AcDbLine
 10
5381.473527438281
 20
1962.169466167079
 30
0.0
 11
5381.473527438281
 21
1759.426305100245
 31
0.0
  0
LINE
  5
8086
330
825C
100
AcDbEntity
  8
0
  6
ByBlock
 62
     0
100
AcDbLine
 10
4763.473527438279
 20
1789.426305100245
 30
0.0
 11
5321.47352743828
 21
1789.426305100245
 31
0.0
  0
INSERT
  5
8087
330
825C
100
AcDbEntity
  8
0
  6
ByBlock
 62
     0
100
AcDbBlockReference
  2
_OPEN
 10
4703.473527438279
 20
1789.426305100245
 30
0.0
 41
60.0
 42
60.0
 43
60.0
 50
180.0
  0
INSERT
  5
8088
330
825C
100
AcDbEntity
  8
0
  6
ByBlock
 62
     0
100
AcDbBlockReference
  2
_OPEN
 10
5381.473527438281
 20
1789.426305100245
 30
0.0
 41
60.0
 42
60.0
 43
60.0
  0
TEXT
  5
8089
330
825C
100
AcDbEntity
  8
3
 62
     0
100
AcDbText
 10
4926.759241723994
 20
1819.426305100245
 30
0.0
 40
90.0
  1
678
100
AcDbText
  0
POINT
  5
808A
330
825C
100
AcDbEntity
  8
DEFPOINTS
  6
ByBlock
 62
     0
100
AcDbPoint
 10
4703.473527438279
 20
1992.169466167078
 30
0.0
  0
POINT
  5
808B
330
825C
100
AcDbEntity
  8
DEFPOINTS
  6
ByBlock
 62
     0
100
AcDbPoint
 10
5381.473527438281
 20
1992.169466167078
 30
0.0
  0
POINT
  5
808C
330
825C
100
AcDbEntity
  8
DEFPOINTS
  6
ByBlock
 62
     0
100
AcDbPoint
 10
5381.473527438281
 20
1789.426305100245
 30
0.0
  0
ENDBLK
  5
808D
330
825C
100
AcDbEntity
  8
0
100
AcDbBlockEnd
  0
BLOCK
  5
825F
330
825E
100
AcDbEntity
  8
0
100
AcDbBlockBegin
  2
_NONE
 70
     0
 10
0.0
 20
0.0
 30
0.0
  3
_NONE
  1

  0
CIRCLE
  5
8091
330
825E
100
AcDbEntity
  8
0
  6
ByBlock
 62
     0
100
AcDbCircle
 10
0.0
 20
0.0
 30
0.0
 40
0.25
  0
ENDBLK
  5
8092
330
825E
100
AcDbEntity
  8
0
100
AcDbBlockEnd
  0
BLOCK
  5
8261
330
8260
100
AcDbEntity
  8
0
100
AcDbBlockBegin
  2
*D27
 70
     1
 10
0.0
 20
0.0
 30
0.0
  3
*D27
  1

  0
LINE
  5
810E
330
8260
100
AcDbEntity
  8
0
  6
ByBlock
 62
     0
100
AcDbLine
 10
3252.532927288582
 20
2098.97231639266
 30
0.0
 11
3252.532927288582
 21
2098.97231639266
 31
0.0
  0
LINE
  5
810F
330
8260
100
AcDbEntity
  8
0
  6
ByBlock
 62
     0
100
AcDbLine
 10
3252.532927288582
 20
2118.972316392661
 30
0.0
 11
3252.532927288582
 21
2238.972316392661
 31
0.0
  0
TEXT
  5
8110
330
8260
100
AcDbEntity
  8
3
 62
     0
100
AcDbText
 10
3426.104355860011
 20
1951.258030678375
 30
0.0
 40
90.0
  1
 (20)
 50
90.0
100
AcDbText
  0
LINE
  5
8111
330
8260
100
AcDbEntity
  8
0
  6
ByBlock
 62
     0
100
AcDbLine
 10
3252.532927288582
 20
2098.97231639266
 30
0.0
 11
3252.532927288582
 21
2118.972316392661
 31
0.0
  0
POINT
  5
8112
330
8260
100
AcDbEntity
  8
DEFPOINTS
  6
ByBlock
 62
     0
100
AcDbPoint
 10
2892.691023858453
 20
2098.97231639266
 30
0.0
  0
POINT
  5
8113
330
8260
100
AcDbEntity
  8
DEFPOINTS
  6
ByBlock
 62
     0
100
AcDbPoint
 10
2892.691023858453
 20
2118.972316392661
 30
0.0
  0
POINT
  5
8114
330
8260
100
AcDbEntity
  8
DEFPOINTS
  6
ByBlock
 62
     0
100
AcDbPoint
 10
3252.532927288582
 20
2118.972316392661
 30
0.0
  0
ENDBLK
  5
8115
330
8260
100
AcDbEntity
  8
0
100
AcDbBlockEnd
  0
BLOCK
  5
8263
330
8262
100
AcDbEntity
  8
0
100
AcDbBlockBegin
  2
*D28
 70
     1
 10
0.0
 20
0.0
 30
0.0
  3
*D28
  1

  0
LINE
  5
80F0
330
8262
100
AcDbEntity
  8
0
  6
ByBlock
 62
     0
100
AcDbLine
 10
2922.691023858453
 20
1998.972316392659
 30
0.0
 11
3513.694084071551
 21
1998.972316392659
 31
0.0
  0
LINE
  5
80F1
330
8262
100
AcDbEntity
  8
0
  6
ByBlock
 62
     0
100
AcDbLine
 10
2327.691023858451
 20
3694.169466167082
 30
0.0
 11
3513.694084071551
 21
3694.169466167082
 31
0.0
  0
LINE
  5
80F2
330
8262
100
AcDbEntity
  8
0
  6
ByBlock
 62
     0
100
AcDbLine
 10
3483.69408407155
 20
2058.972316392661
 30
0.0
 11
3483.69408407155
 21
3634.169466167082
 31
0.0
  0
INSERT
  5
80F3
330
8262
100
AcDbEntity
  8
0
  6
ByBlock
 62
     0
100
AcDbBlockReference
  2
_OPEN
 10
3483.69408407155
 20
1998.972316392659
 30
0.0
 41
60.0
 42
60.0
 43
60.0
 50
270.0
  0
INSERT
  5
80F4
330
8262
100
AcDbEntity
  8
0
  6
ByBlock
 62
     0
100
AcDbBlockReference
  2
_OPEN
 10
3483.69408407155
 20
3694.169466167082
 30
0.0
 41
60.0
 42
60.0
 43
60.0
 50
90.0
  0
TEXT
  5
80F5
330
8262
100
AcDbEntity
  8
3
 62
     0
100
AcDbText
 10
3415.122655500123
 20
2638.713748422728
 30
0.0
 40
90.0
  1
(1695)
 50
90.0
100
AcDbText
  0
POINT
  5
80F6
330
8262
100
AcDbEntity
  8
DEFPOINTS
  6
ByBlock
 62
     0
100
AcDbPoint
 10
2892.691023858453
 20
1998.972316392659
 30
0.0
  0
POINT
  5
80F7
330
8262
100
AcDbEntity
  8
DEFPOINTS
  6
ByBlock
 62
     0
100
AcDbPoint
 10
2297.691023858451
 20
3694.169466167082
 30
0.0
  0
POINT
  5
80F8
330
8262
100
AcDbEntity
  8
DEFPOINTS
  6
ByBlock
 62
     0
100
AcDbPoint
 10
3483.69408407155
 20
3694.169466167082
 30
0.0
  0
ENDBLK
  5
80F9
330
8262
100
AcDbEntity
  8
0
100
AcDbBlockEnd
  0
BLOCK
  5
8268
330
8267
100
AcDbEntity
  8
0
100
AcDbBlockBegin
  2
*D29
 70
     1
 10
0.0
 20
0.0
 30
0.0
  3
*D29
  1

  0
LINE
  5
8292
330
8267
100
AcDbEntity
  8
3
 62
     0
370
    -2
100
AcDbLine
 10
3643.473527438275
 20
3324.16946616708
 30
0.0
 11
3643.473527438275
 21
4326.977771716425
 31
0.0
  0
LINE
  5
8293
330
8267
100
AcDbEntity
  8
3
 62
     0
370
    -2
100
AcDbLine
 10
4703.47352743828
 20
4083.164217589007
 30
0.0
 11
4703.47352743828
 21
4326.977771716425
 31
0.0
  0
LINE
  5
8294
330
8267
100
AcDbEntity
  8
3
 62
     0
370
    -2
100
AcDbLine
 10
3703.473527438275
 20
4296.977771716425
 30
0.0
 11
4643.47352743828
 21
4296.977771716425
 31
0.0
  0
INSERT
  5
8295
330
8267
100
AcDbEntity
  8
3
 62
     0
370
    -2
100
AcDbBlockReference
  2
_OPEN
 10
3643.473527438275
 20
4296.977771716425
 30
0.0
 41
60.0
 42
60.0
 43
60.0
 50
180.0
  0
INSERT
  5
8296
330
8267
100
AcDbEntity
  8
3
 62
     0
370
    -2
100
AcDbBlockReference
  2
_OPEN
 10
4703.47352743828
 20
4296.977771716425
 30
0.0
 41
60.0
 42
60.0
 43
60.0
  0
MTEXT
  5
8297
330
8267
100
AcDbEntity
  8
3
 62
     0
100
AcDbMText
 10
4173.473527438278
 20
4395.549200287853
 30
0.0
 40
90.0
 41
0.0
 71
     5
 72
     1
  1
\A1;(1060)
 73
     1
 44
1.0
1001
ACAD
1000
MTEXTBEGIN
1070
    73
1070
     1
1070
    44
1040
1.0
1070
    74
1070
     0
1000
MTEXTEND
  0
POINT
  5
8298
330
8267
100
AcDbEntity
  8
DEFPOINTS
 62
     0
100
AcDbPoint
 10
3643.473527438275
 20
3294.16946616708
 30
0.0
  0
POINT
  5
8299
330
8267
100
AcDbEntity
  8
DEFPOINTS
 62
     0
100
AcDbPoint
 10
4703.47352743828
 20
4053.164217589007
 30
0.0
  0
POINT
  5
829A
330
8267
100
AcDbEntity
  8
DEFPOINTS
 62
     0
100
AcDbPoint
 10
4703.47352743828
 20
4296.977771716425
 30
0.0
  0
ENDBLK
  5
8269
330
8267
100
AcDbEntity
  8
0
100
AcDbBlockEnd
  0
BLOCK
  5
8275
330
8274
100
AcDbEntity
  8
0
100
AcDbBlockBegin
  2
*D30
 70
     1
 10
0.0
 20
0.0
 30
0.0
  3
*D30
  1

  0
LINE
  5
829B
330
8274
100
AcDbEntity
  8
3
 62
     0
370
    -2
100
AcDbLine
 10
4703.47352743828
 20
4083.164217589007
 30
0.0
 11
4703.47352743828
 21
4326.977771716425
 31
0.0
  0
LINE
  5
829C
330
8274
100
AcDbEntity
  8
3
 62
     0
370
    -2
100
AcDbLine
 10
5483.473527438282
 20
3008.36946616708
 30
0.0
 11
5483.473527438282
 21
4326.977771716425
 31
0.0
  0
LINE
  5
829D
330
8274
100
AcDbEntity
  8
3
 62
     0
370
    -2
100
AcDbLine
 10
4763.47352743828
 20
4296.977771716425
 30
0.0
 11
5423.473527438282
 21
4296.977771716425
 31
0.0
  0
INSERT
  5
829E
330
8274
100
AcDbEntity
  8
3
 62
     0
370
    -2
100
AcDbBlockReference
  2
_OPEN
 10
4703.47352743828
 20
4296.977771716425
 30
0.0
 41
60.0
 42
60.0
 43
60.0
 50
180.0
  0
INSERT
  5
829F
330
8274
100
AcDbEntity
  8
3
 62
     0
370
    -2
100
AcDbBlockReference
  2
_OPEN
 10
5483.473527438282
 20
4296.977771716425
 30
0.0
 41
60.0
 42
60.0
 43
60.0
  0
MTEXT
  5
82A0
330
8274
100
AcDbEntity
  8
3
 62
     0
100
AcDbMText
 10
5093.47352743828
 20
4395.549200287853
 30
0.0
 40
90.0
 41
0.0
 71
     5
 72
     1
  1
\A1;(780)
 73
     1
 44
1.0
1001
ACAD
1000
MTEXTBEGIN
1070
    73
1070
     1
1070
    44
1040
1.0
1070
    74
1070
     0
1000
MTEXTEND
  0
POINT
  5
82A1
330
8274
100
AcDbEntity
  8
DEFPOINTS
 62
     0
100
AcDbPoint
 10
4703.47352743828
 20
4053.164217589007
 30
0.0
  0
POINT
  5
82A2
330
8274
100
AcDbEntity
  8
DEFPOINTS
 62
     0
100
AcDbPoint
 10
5483.473527438282
 20
2978.369466167081
 30
0.0
  0
POINT
  5
82A3
330
8274
100
AcDbEntity
  8
DEFPOINTS
 62
     0
100
AcDbPoint
 10
5483.473527438282
 20
4296.977771716425
 30
0.0
  0
ENDBLK
  5
8276
330
8274
100
AcDbEntity
  8
0
100
AcDbBlockEnd
  0
BLOCK
  5
82A5
330
82A4
100
AcDbEntity
  8
0
100
AcDbBlockBegin
  2
*D31
 70
     1
 10
0.0
 20
0.0
 30
0.0
  3
*D31
  1

  0
LINE
  5
82A7
330
82A4
100
AcDbEntity
  8
3
 62
     0
370
    -2
100
AcDbLine
 10
842.6910238584531
 20
4922.797059535993
 30
0.0
 11
842.6910238584531
 21
4510.721935709416
 31
0.0
  0
LINE
  5
82A8
330
82A4
100
AcDbEntity
  8
3
 62
     0
370
    -2
100
AcDbLine
 10
2892.691023858453
 20
4922.797059535991
 30
0.0
 11
2892.691023858453
 21
4510.721935709416
 31
0.0
  0
LINE
  5
82A9
330
82A4
100
AcDbEntity
  8
3
 62
     0
370
    -2
100
AcDbLine
 10
848.0910238584529
 20
4516.121935709416
 30
0.0
 11
1843.905309572739
 21
4516.121935709416
 31
0.0
  0
LINE
  5
82AA
330
82A4
100
AcDbEntity
  8
3
 62
     0
370
    -2
100
AcDbLine
 10
2887.291023858453
 20
4516.121935709416
 30
0.0
 11
1891.476738144167
 21
4516.121935709416
 31
0.0
  0
SOLID
  5
82AB
330
82A4
100
AcDbEntity
  8
3
 62
     0
100
AcDbTrace
 10
848.0910238584529
 20
4517.021935709415
 30
0.0
 11
848.0910238584529
 21
4515.221935709416
 31
0.0
 12
842.6910238584531
 22
4516.121935709416
 32
0.0
 13
842.6910238584531
 23
4516.121935709416
 33
0.0
  0
SOLID
  5
82AC
330
82A4
100
AcDbEntity
  8
3
 62
     0
100
AcDbTrace
 10
2887.291023858453
 20
4517.021935709415
 30
0.0
 11
2887.291023858453
 21
4515.221935709416
 31
0.0
 12
2892.691023858453
 22
4516.121935709416
 32
0.0
 13
2892.691023858453
 23
4516.121935709416
 33
0.0
  0
MTEXT
  5
82AD
330
82A4
100
AcDbEntity
  8
3
 62
     0
100
AcDbMText
 10
1867.691023858453
 20
4516.121935709416
 30
0.0
 40
5.399999999999999
 41
0.0
 71
     5
 72
     1
  1
\A1;2050.0000
 73
     1
 44
1.0
1001
ACAD
1000
MTEXTBEGIN
1070
    73
1070
     1
1070
    44
1040
1.0
1070
    74
1070
     0
1000
MTEXTEND
  0
POINT
  5
82AE
330
82A4
100
AcDbEntity
  8
DEFPOINTS
 62
     0
100
AcDbPoint
 10
842.6910238584531
 20
4924.672059535993
 30
0.0
  0
POINT
  5
82AF
330
82A4
100
AcDbEntity
  8
DEFPOINTS
 62
     0
100
AcDbPoint
 10
2892.691023858453
 20
4924.672059535991
 30
0.0
  0
POINT
  5
82B0
330
82A4
100
AcDbEntity
  8
DEFPOINTS
 62
     0
100
AcDbPoint
 10
2892.691023858453
 20
4516.121935709416
 30
0.0
  0
ENDBLK
  5
82A6
330
82A4
100
AcDbEntity
  8
0
100
AcDbBlockEnd
  0
BLOCK
  5
82B6
330
82B5
100
AcDbEntity
  8
0
100
AcDbBlockBegin
  2
*D32
 70
     1
 10
0.0
 20
0.0
 30
0.0
  3
*D32
  1

  0
LINE
  5
82B8
330
82B5
100
AcDbEntity
  8
3
 62
     0
370
    -2
100
AcDbLine
 10
842.6910238584531
 20
4894.672059535992
 30
0.0
 11
842.6910238584531
 21
4487.10881461175
 31
0.0
  0
LINE
  5
82B9
330
82B5
100
AcDbEntity
  8
3
 62
     0
370
    -2
100
AcDbLine
 10
2892.691023858453
 20
4894.672059535992
 30
0.0
 11
2892.691023858453
 21
4487.10881461175
 31
0.0
  0
LINE
  5
82BA
330
82B5
100
AcDbEntity
  8
3
 62
     0
370
    -2
100
AcDbLine
 10
902.691023858453
 20
4517.108814611751
 30
0.0
 11
2832.691023858453
 21
4517.108814611751
 31
0.0
  0
INSERT
  5
82BB
330
82B5
100
AcDbEntity
  8
3
 62
     0
370
    -2
100
AcDbBlockReference
  2
_OPEN
 10
842.6910238584531
 20
4517.108814611751
 30
0.0
 41
60.0
 42
60.0
 43
60.0
 50
180.0
  0
INSERT
  5
82BC
330
82B5
100
AcDbEntity
  8
3
 62
     0
370
    -2
100
AcDbBlockReference
  2
_OPEN
 10
2892.691023858453
 20
4517.108814611751
 30
0.0
 41
60.0
 42
60.0
 43
60.0
  0
MTEXT
  5
82BD
330
82B5
100
AcDbEntity
  8
3
 62
     0
100
AcDbMText
 10
1867.691023858453
 20
4592.108814611751
 30
0.0
 40
90.0
 41
0.0
 71
     5
 72
     1
  1
\A1;2050
 73
     1
 44
1.0
1001
ACAD
1000
MTEXTBEGIN
1070
    73
1070
     1
1070
    44
1040
1.0
1070
    74
1070
     0
1000
MTEXTEND
  0
POINT
  5
82BE
330
82B5
100
AcDbEntity
  8
DEFPOINTS
 62
     0
100
AcDbPoint
 10
842.6910238584531
 20
4924.672059535993
 30
0.0
  0
POINT
  5
82BF
330
82B5
100
AcDbEntity
  8
DEFPOINTS
 62
     0
100
AcDbPoint
 10
2892.691023858453
 20
4924.672059535991
 30
0.0
  0
POINT
  5
82C0
330
82B5
100
AcDbEntity
  8
DEFPOINTS
 62
     0
100
AcDbPoint
 10
2892.691023858453
 20
4517.108814611751
 30
0.0
  0
ENDBLK
  5
82B7
330
82B5
100
AcDbEntity
  8
0
100
AcDbBlockEnd
  0
BLOCK
  5
82C6
330
82C5
100
AcDbEntity
  8
0
100
AcDbBlockBegin
  2
*D33
 70
     1
 10
0.0
 20
0.0
 30
0.0
  3
*D33
  1

  0
LINE
  5
82D1
330
82C5
100
AcDbEntity
  8
3
 62
     0
370
    -2
100
AcDbLine
 10
2267.691023858451
 20
3763.82600011631
 30
0.0
 11
2267.691023858451
 21
4126.131608620377
 31
0.0
  0
LINE
  5
82D2
330
82C5
100
AcDbEntity
  8
3
 62
     0
370
    -2
100
AcDbLine
 10
2987.691023858453
 20
2970.169466167082
 30
0.0
 11
2987.691023858453
 21
4126.131608620377
 31
0.0
  0
LINE
  5
82D3
330
82C5
100
AcDbEntity
  8
3
 62
     0
370
    -2
100
AcDbLine
 10
2327.691023858451
 20
4096.131608620377
 30
0.0
 11
2927.691023858452
 21
4096.131608620377
 31
0.0
  0
INSERT
  5
82D4
330
82C5
100
AcDbEntity
  8
3
 62
     0
370
    -2
100
AcDbBlockReference
  2
_OPEN
 10
2267.691023858451
 20
4096.131608620377
 30
0.0
 41
60.0
 42
60.0
 43
60.0
 50
180.0
  0
INSERT
  5
82D5
330
82C5
100
AcDbEntity
  8
3
 62
     0
370
    -2
100
AcDbBlockReference
  2
_OPEN
 10
2987.691023858453
 20
4096.131608620377
 30
0.0
 41
60.0
 42
60.0
 43
60.0
  0
MTEXT
  5
82D6
330
82C5
100
AcDbEntity
  8
3
 62
     0
100
AcDbMText
 10
2627.691023858452
 20
4171.131608620377
 30
0.0
 40
90.0
 41
0.0
 71
     5
 72
     1
  1
\A1;720
 73
     1
 44
1.0
1001
ACAD
1000
MTEXTBEGIN
1070
    73
1070
     1
1070
    44
1040
1.0
1070
    74
1070
     0
1000
MTEXTEND
  0
POINT
  5
82D7
330
82C5
100
AcDbEntity
  8
DEFPOINTS
 62
     0
100
AcDbPoint
 10
2267.691023858451
 20
3733.826000116309
 30
0.0
  0
POINT
  5
82D8
330
82C5
100
AcDbEntity
  8
DEFPOINTS
 62
     0
100
AcDbPoint
 10
2987.691023858453
 20
2940.169466167081
 30
0.0
  0
POINT
  5
82D9
330
82C5
100
AcDbEntity
  8
DEFPOINTS
 62
     0
100
AcDbPoint
 10
2987.691023858453
 20
4096.131608620377
 30
0.0
  0
ENDBLK
  5
82C7
330
82C5
100
AcDbEntity
  8
0
100
AcDbBlockEnd
  0
BLOCK
  5
82DC
330
82DB
100
AcDbEntity
  8
0
100
AcDbBlockBegin
  2
*D34
 70
     1
 10
0.0
 20
0.0
 30
0.0
  3
*D34
  1

  0
LINE
  5
8335
330
82DB
100
AcDbEntity
  8
3
 62
     0
370
    -2
100
AcDbLine
 10
3037.30700635608
 20
3014.169466167079
 30
0.0
 11
3284.384892531744
 21
3014.169466167079
 31
0.0
  0
LINE
  5
8336
330
82DB
100
AcDbEntity
  8
3
 62
     0
370
    -2
100
AcDbLine
 10
2922.691023858453
 20
2119.169466167079
 30
0.0
 11
3284.384892531744
 21
2119.169466167079
 31
0.0
  0
LINE
  5
8337
330
82DB
100
AcDbEntity
  8
3
 62
     0
370
    -2
100
AcDbLine
 10
3254.384892531744
 20
2954.169466167078
 30
0.0
 11
3254.384892531744
 21
2179.169466167079
 31
0.0
  0
INSERT
  5
8338
330
82DB
100
AcDbEntity
  8
3
 62
     0
370
    -2
100
AcDbBlockReference
  2
_OPEN
 10
3254.384892531744
 20
3014.169466167079
 30
0.0
 41
60.0
 42
60.0
 43
60.0
 50
90.0
  0
INSERT
  5
8339
330
82DB
100
AcDbEntity
  8
3
 62
     0
370
    -2
100
AcDbBlockReference
  2
_OPEN
 10
3254.384892531744
 20
2119.169466167079
 30
0.0
 41
60.0
 42
60.0
 43
60.0
 50
270.0
  0
MTEXT
  5
833A
330
82DB
100
AcDbEntity
  8
3
 62
     0
100
AcDbMText
 10
3179.384892531743
 20
2566.66946616708
 30
0.0
 40
90.0
 41
0.0
 71
     5
 72
     1
  1
\A1;895
 11
0.0000000000000001
 21
1.0
 31
0.0
 73
     1
 44
1.0
1001
ACAD
1000
MTEXTBEGIN
1070
    73
1070
     1
1070
    44
1040
1.0
1070
    74
1070
     0
1000
MTEXTEND
  0
POINT
  5
833B
330
82DB
100
AcDbEntity
  8
DEFPOINTS
 62
     0
100
AcDbPoint
 10
3007.30700635608
 20
3014.169466167079
 30
0.0
  0
POINT
  5
833C
330
82DB
100
AcDbEntity
  8
DEFPOINTS
 62
     0
100
AcDbPoint
 10
2892.691023858453
 20
2119.169466167079
 30
0.0
  0
POINT
  5
833D
330
82DB
100
AcDbEntity
  8
DEFPOINTS
 62
     0
100
AcDbPoint
 10
3254.384892531744
 20
2119.169466167079
 30
0.0
  0
ENDBLK
  5
82DD
330
82DB
100
AcDbEntity
  8
0
100
AcDbBlockEnd
  0
BLOCK
  5
82E9
330
82E8
100
AcDbEntity
  8
0
100
AcDbBlockBegin
  2
*D35
 70
     1
 10
0.0
 20
0.0
 30
0.0
  3
*D35
  1

  0
LINE
  5
8401
330
82E8
100
AcDbEntity
  8
3
 62
     0
370
    -2
100
AcDbLine
 10
2922.691023858453
 20
2119.169466167079
 30
0.0
 11
3284.384892531744
 21
2119.169466167079
 31
0.0
  0
LINE
  5
8402
330
82E8
100
AcDbEntity
  8
3
 62
     0
370
    -2
100
AcDbLine
 10
2922.691023858453
 20
2099.169466167078
 30
0.0
 11
3284.384892531744
 21
2099.169466167078
 31
0.0
  0
LINE
  5
8403
330
82E8
100
AcDbEntity
  8
3
 62
     0
370
    -2
100
AcDbLine
 10
3254.384892531744
 20
2179.169466167079
 30
0.0
 11
3254.384892531744
 21
2239.169466167079
 31
0.0
  0
LINE
  5
8404
330
82E8
100
AcDbEntity
  8
3
 62
     0
370
    -2
100
AcDbLine
 10
3254.384892531744
 20
2099.169466167078
 30
0.0
 11
3254.384892531744
 21
2039.169466167078
 31
0.0
  0
LINE
  5
8405
330
82E8
100
AcDbEntity
  8
3
 62
     0
370
    -2
100
AcDbLine
 10
3254.384892531744
 20
2109.169466167078
 30
0.0
 11
3455.035534281743
 21
2193.383751881364
 31
0.0
  0
LINE
  5
8406
330
82E8
100
AcDbEntity
  8
3
 62
     0
370
    -2
100
AcDbLine
 10
3455.035534281743
 20
2193.383751881364
 30
0.0
 11
3455.035534281743
 21
2514.812323309936
 31
0.0
  0
MTEXT
  5
8407
330
82E8
100
AcDbEntity
  8
3
 62
     0
100
AcDbMText
 10
3356.464105710314
 20
2354.098037595651
 30
0.0
 40
90.0
 41
0.0
 71
     5
 72
     1
  1
\A1;(20)
 11
0.0000000000000001
 21
1.0
 31
0.0
 73
     1
 44
1.0
1001
ACAD
1000
MTEXTBEGIN
1070
    73
1070
     1
1070
    44
1040
1.0
1070
    74
1070
     0
1000
MTEXTEND
  0
LINE
  5
8408
330
82E8
100
AcDbEntity
  8
3
 62
     0
370
    -2
100
AcDbLine
 10
3254.384892531744
 20
2119.169466167079
 30
0.0
 11
3254.384892531744
 21
2099.169466167078
 31
0.0
  0
LINE
  5
8409
330
82E8
100
AcDbEntity
  8
3
 62
     0
370
    -2
100
AcDbLine
 10
3254.384892531744
 20
2119.169466167079
 30
0.0
 11
3254.384892531744
 21
2099.169466167078
 31
0.0
  0
INSERT
  5
840A
330
82E8
100
AcDbEntity
  8
3
 62
     0
370
    -2
100
AcDbBlockReference
  2
_OPEN
 10
3254.384892531744
 20
2119.169466167079
 30
0.0
 41
60.0
 42
60.0
 43
60.0
 50
270.0
  0
INSERT
  5
840B
330
82E8
100
AcDbEntity
  8
3
 62
     0
370
    -2
100
AcDbBlockReference
  2
_DotSmall
 10
3254.384892531744
 20
2099.169466167078
 30
0.0
 41
60.0
 42
60.0
 43
60.0
 50
90.0
  0
POINT
  5
840C
330
82E8
100
AcDbEntity
  8
DEFPOINTS
 62
     0
100
AcDbPoint
 10
2892.691023858453
 20
2119.169466167079
 30
0.0
  0
POINT
  5
840D
330
82E8
100
AcDbEntity
  8
DEFPOINTS
 62
     0
100
AcDbPoint
 10
2892.691023858453
 20
2099.169466167078
 30
0.0
  0
POINT
  5
840E
330
82E8
100
AcDbEntity
  8
DEFPOINTS
 62
     0
100
AcDbPoint
 10
3254.384892531744
 20
2099.169466167078
 30
0.0
  0
ENDBLK
  5
82EA
330
82E8
100
AcDbEntity
  8
0
100
AcDbBlockEnd
  0
BLOCK
  5
82FB
330
82FA
100
AcDbEntity
  8
0
100
AcDbBlockBegin
  2
*D36
 70
     1
 10
0.0
 20
0.0
 30
0.0
  3
*D36
  1

  0
LINE
  5
845D
330
82FA
100
AcDbEntity
  8
3
 62
     0
370
    -2
100
AcDbLine
 10
2922.691023858453
 20
2099.169466167078
 30
0.0
 11
3284.384892531744
 21
2099.169466167078
 31
0.0
  0
LINE
  5
845E
330
82FA
100
AcDbEntity
  8
3
 62
     0
370
    -2
100
AcDbLine
 10
2922.691023858453
 20
1999.169466167078
 30
0.0
 11
3284.384892531744
 21
1999.169466167078
 31
0.0
  0
LINE
  5
845F
330
82FA
100
AcDbEntity
  8
3
 62
     0
370
    -2
100
AcDbLine
 10
3254.384892531744
 20
2099.169466167078
 30
0.0
 11
3254.384892531744
 21
2159.169466167078
 31
0.0
  0
LINE
  5
8460
330
82FA
100
AcDbEntity
  8
3
 62
     0
370
    -2
100
AcDbLine
 10
3254.384892531744
 20
1939.169466167078
 30
0.0
 11
3254.384892531744
 21
1879.169466167078
 31
0.0
  0
MTEXT
  5
8461
330
82FA
100
AcDbEntity
  8
3
 62
     0
100
AcDbMText
 10
3158.705878918903
 20
1865.165085553144
 30
0.0
 40
90.0
 41
0.0
 71
     5
 72
     1
  1
\A1;100
 11
0.0000000000000001
 21
1.0
 31
0.0
 73
     1
 44
1.0
1001
ACAD
1000
MTEXTBEGIN
1070
    73
1070
     1
1070
    44
1040
1.0
1070
    74
1070
     0
1000
MTEXTEND
  0
LINE
  5
8462
330
82FA
100
AcDbEntity
  8
3
 62
     0
370
    -2
100
AcDbLine
 10
3254.384892531744
 20
2099.169466167078
 30
0.0
 11
3254.384892531744
 21
1999.169466167078
 31
0.0
  0
INSERT
  5
8463
330
82FA
100
AcDbEntity
  8
3
 62
     0
370
    -2
100
AcDbBlockReference
  2
_DotSmall
 10
3254.384892531744
 20
2099.169466167078
 30
0.0
 41
60.0
 42
60.0
 43
60.0
 50
270.0
  0
INSERT
  5
8464
330
82FA
100
AcDbEntity
  8
3
 62
     0
370
    -2
100
AcDbBlockReference
  2
_OPEN
 10
3254.384892531744
 20
1999.169466167078
 30
0.0
 41
60.0
 42
60.0
 43
60.0
 50
90.0
  0
POINT
  5
8465
330
82FA
100
AcDbEntity
  8
DEFPOINTS
 62
     0
100
AcDbPoint
 10
2892.691023858453
 20
2099.169466167078
 30
0.0
  0
POINT
  5
8466
330
82FA
100
AcDbEntity
  8
DEFPOINTS
 62
     0
100
AcDbPoint
 10
2892.691023858453
 20
1999.169466167078
 30
0.0
  0
POINT
  5
8467
330
82FA
100
AcDbEntity
  8
DEFPOINTS
 62
     0
100
AcDbPoint
 10
3254.384892531744
 20
1999.169466167078
 30
0.0
  0
ENDBLK
  5
82FC
330
82FA
100
AcDbEntity
  8
0
100
AcDbBlockEnd
  0
BLOCK
  5
8363
330
8362
100
AcDbEntity
  8
0
100
AcDbBlockBegin
  2
*D37
 70
     1
 10
0.0
 20
0.0
 30
0.0
  3
*D37
  1

  0
LINE
  5
8365
330
8362
100
AcDbEntity
  8
3
 62
     0
370
    -2
100
AcDbLine
 10
2922.691023858453
 20
1998.972316392659
 30
0.0
 11
3489.09408407155
 21
1998.972316392659
 31
0.0
  0
LINE
  5
8366
330
8362
100
AcDbEntity
  8
3
 62
     0
370
    -2
100
AcDbLine
 10
2327.691023858451
 20
3694.169466167082
 30
0.0
 11
3489.09408407155
 21
3694.169466167081
 31
0.0
  0
LINE
  5
8367
330
8362
100
AcDbEntity
  8
3
 62
     0
370
    -2
100
AcDbLine
 10
3483.69408407155
 20
2004.37231639266
 30
0.0
 11
3483.69408407155
 21
2839.756605565585
 31
0.0
  0
LINE
  5
8368
330
8362
100
AcDbEntity
  8
3
 62
     0
370
    -2
100
AcDbLine
 10
3483.69408407155
 20
3688.769466167081
 30
0.0
 11
3483.69408407155
 21
2853.385176994155
 31
0.0
  0
SOLID
  5
8369
330
8362
100
AcDbEntity
  8
3
 62
     0
100
AcDbTrace
 10
3482.79408407155
 20
2004.37231639266
 30
0.0
 11
3484.59408407155
 21
2004.37231639266
 31
0.0
 12
3483.69408407155
 22
1998.972316392659
 32
0.0
 13
3483.69408407155
 23
1998.972316392659
 33
0.0
  0
SOLID
  5
836A
330
8362
100
AcDbEntity
  8
3
 62
     0
100
AcDbTrace
 10
3482.79408407155
 20
3688.769466167081
 30
0.0
 11
3484.594084071551
 21
3688.769466167081
 31
0.0
 12
3483.69408407155
 22
3694.169466167081
 32
0.0
 13
3483.69408407155
 23
3694.169466167081
 33
0.0
  0
MTEXT
  5
836B
330
8362
100
AcDbEntity
  8
3
 62
     0
100
AcDbMText
 10
3483.69408407155
 20
2846.570891279871
 30
0.0
 40
5.399999999999999
 41
0.0
 71
     5
 72
     1
  1
\A1;(1695)
 73
     1
 44
1.0
1001
ACAD
1000
MTEXTBEGIN
1070
    73
1070
     1
1070
    44
1040
1.0
1070
    74
1070
     0
1000
MTEXTEND
  0
POINT
  5
836C
330
8362
100
AcDbEntity
  8
DEFPOINTS
 62
     0
100
AcDbPoint
 10
2892.691023858453
 20
1998.972316392659
 30
0.0
  0
POINT
  5
836D
330
8362
100
AcDbEntity
  8
DEFPOINTS
 62
     0
100
AcDbPoint
 10
2297.691023858451
 20
3694.169466167082
 30
0.0
  0
POINT
  5
836E
330
8362
100
AcDbEntity
  8
DEFPOINTS
 62
     0
100
AcDbPoint
 10
3483.69408407155
 20
3694.169466167081
 30
0.0
  0
ENDBLK
  5
8364
330
8362
100
AcDbEntity
  8
0
100
AcDbBlockEnd
  0
BLOCK
  5
8371
330
8370
100
AcDbEntity
  8
0
100
AcDbBlockBegin
  2
*D38
 70
     1
 10
0.0
 20
0.0
 30
0.0
  3
*D38
  1

  0
LINE
  5
8393
330
8370
100
AcDbEntity
  8
3
 62
     0
370
    -2
100
AcDbLine
 10
2922.691023858453
 20
1999.169466167078
 30
0.0
 11
3550.702801855514
 21
1999.169466167078
 31
0.0
  0
LINE
  5
8394
330
8370
100
AcDbEntity
  8
3
 62
     0
370
    -2
100
AcDbLine
 10
2306.691023858452
 20
3694.169466167082
 30
0.0
 11
3550.702801855515
 21
3694.169466167081
 31
0.0
  0
LINE
  5
8395
330
8370
100
AcDbEntity
  8
3
 62
     0
370
    -2
100
AcDbLine
 10
3520.702801855514
 20
2059.169466167078
 30
0.0
 11
3520.702801855514
 21
3634.169466167081
 31
0.0
  0
INSERT
  5
8396
330
8370
100
AcDbEntity
  8
3
 62
     0
370
    -2
100
AcDbBlockReference
  2
_OPEN
 10
3520.702801855514
 20
1999.169466167078
 30
0.0
 41
60.0
 42
60.0
 43
60.0
 50
270.0
  0
INSERT
  5
8397
330
8370
100
AcDbEntity
  8
3
 62
     0
370
    -2
100
AcDbBlockReference
  2
_OPEN
 10
3520.702801855514
 20
3694.169466167081
 30
0.0
 41
60.0
 42
60.0
 43
60.0
 50
90.0
  0
MTEXT
  5
8398
330
8370
100
AcDbEntity
  8
3
 62
     0
100
AcDbMText
 10
3422.131373284085
 20
2846.66946616708
 30
0.0
 40
90.0
 41
0.0
 71
     5
 72
     1
  1
\A1;(1695)
 11
0.0000000000000001
 21
1.0
 31
0.0
 73
     1
 44
1.0
1001
ACAD
1000
MTEXTBEGIN
1070
    73
1070
     1
1070
    44
1040
1.0
1070
    74
1070
     0
1000
MTEXTEND
  0
POINT
  5
8399
330
8370
100
AcDbEntity
  8
DEFPOINTS
 62
     0
100
AcDbPoint
 10
2892.691023858453
 20
1999.169466167078
 30
0.0
  0
POINT
  5
839A
330
8370
100
AcDbEntity
  8
DEFPOINTS
 62
     0
100
AcDbPoint
 10
2276.691023858453
 20
3694.169466167082
 30
0.0
  0
POINT
  5
839B
330
8370
100
AcDbEntity
  8
DEFPOINTS
 62
     0
100
AcDbPoint
 10
3520.702801855514
 20
3694.169466167081
 30
0.0
  0
ENDBLK
  5
8372
330
8370
100
AcDbEntity
  8
0
100
AcDbBlockEnd
  0
BLOCK
  5
83FF
330
83FD
100
AcDbEntity
  8
0
100
AcDbBlockBegin
  2
_DotSmall
 70
     0
 10
0.0
 20
0.0
 30
0.0
  3
_DotSmall
  1

  0
LWPOLYLINE
  5
83FE
330
83FD
100
AcDbEntity
  8
0
  6
ByBlock
 62
     0
100
AcDbPolyline
 90
        2
 70
     1
 43
0.5
 10
-0.0625
 20
0.0
 42
1.0
 10
0.0625
 20
0.0
 42
1.0
  0
ENDBLK
  5
8400
330
83FD
100
AcDbEntity
  8
0
100
AcDbBlockEnd
  0
ENDSEC
  0
SECTION
  2
ENTITIES
  0
INSERT
  5
7C24
330
821B
100
AcDbEntity
  8
0
100
AcDbBlockReference
  2
YA_N
 10
6.0
 20
5.0
 30
0.0
  0
ARC
  5
7C26
330
821B
100
AcDbEntity
  8
1
100
AcDbCircle
 10
2193.691023858451
 20
3088.169466167081
 30
0.0
 40
942.0
100
AcDbArc
 50
184.5055845266444
 51
247.3262204656537
  0
ARC
  5
7C27
330
821B
100
AcDbEntity
  8
1
100
AcDbCircle
 10
2193.691023858452
 20
2940.169466167081
 30
0.0
 40
794.0
100
AcDbArc
 50
294.7273299114463
 51
5.347669749838726
  0
ARC
  5
7C28
330
821B
100
AcDbEntity
  8
1
100
AcDbCircle
 10
2328.191023858452
 20
2953.669466167081
 30
0.0
 40
659.4999999999998
100
AcDbArc
 50
5.263495203066978
 51
95.26349520306693
  0
LINE
  5
7C29
330
821B
100
AcDbEntity
  8
1
100
AcDbLine
 10
2223.691023858453
 20
3611.551253636366
 30
0.0
 11
2223.691023858451
 21
3694.169466167082
 31
0.0
  0
LINE
  5
7C2A
330
821B
100
AcDbEntity
  8
1
100
AcDbLine
 10
1140.691023858451
 20
3694.169466167082
 30
0.0
 11
2276.691023858453
 21
3694.169466167082
 31
0.0
  0
LINE
  5
7C2B
330
821B
100
AcDbEntity
  8
1
100
AcDbLine
 10
1193.691023858452
 20
3694.169466167082
 30
0.0
 11
1254.602103681028
 21
3014.169466167081
 31
0.0
  0
LINE
  5
7C2C
330
821B
100
AcDbEntity
  8
1
100
AcDbLine
 10
1140.691023858451
 20
3690.16946616708
 30
0.0
 11
1140.691023858451
 21
3694.169466167082
 31
0.0
  0
LINE
  5
7C2D
330
821B
100
AcDbEntity
  8
1
100
AcDbLine
 10
2276.691023858453
 20
3690.169466167083
 30
0.0
 11
2276.691023858453
 21
3694.169466167082
 31
0.0
  0
LINE
  5
7C2E
330
821B
100
AcDbEntity
  8
1
100
AcDbLine
 10
1198.169779727759
 20
3644.169466167082
 30
0.0
 11
2223.691023858453
 21
3644.169466167082
 31
0.0
  0
LINE
  5
7C2F
330
821B
100
AcDbEntity
  8
1
100
AcDbLine
 10
1140.691023858451
 20
3690.169466167079
 30
0.0
 11
2276.691023858453
 21
3690.169466167083
 31
0.0
  0
LINE
  5
7C30
330
821B
100
AcDbEntity
  8
1
100
AcDbLine
 10
842.6910238584531
 20
2219.169466167077
 30
0.0
 11
2892.691023858453
 21
2219.169466167079
 31
0.0
  0
LINE
  5
7C31
330
821B
100
AcDbEntity
  8
1
100
AcDbLine
 10
2892.691023858453
 20
2219.169466167079
 30
0.0
 11
2892.691023858453
 21
2119.169466167079
 31
0.0
  0
LINE
  5
7C32
330
821B
100
AcDbEntity
  8
2
100
AcDbLine
 10
3618.473527438278
 20
3014.16946616708
 30
0.0
 11
5509.550158987583
 21
3014.16946616708
 31
0.0
  0
LINE
  5
7C33
330
821B
100
AcDbEntity
  8
2
100
AcDbLine
 10
4703.47352743828
 20
3925.218337515751
 30
0.0
 11
4703.47352743828
 21
1999.16946616708
 31
0.0
  0
LINE
  5
7C34
330
821B
100
AcDbEntity
  8
1
100
AcDbLine
 10
3876.473527438279
 20
2119.169466167079
 30
0.0
 11
5381.473527438281
 21
2119.169466167079
 31
0.0
1001
ACAD
1000
ASC_BOUNDS
1002
{
1070
    19
1005
0
1005
0
1002
}
  0
LINE
  5
7C35
330
821B
100
AcDbEntity
  8
1
100
AcDbLine
 10
3876.47352743828
 20
2219.169466167079
 30
0.0
 11
5381.473527438281
 21
2219.169466167079
 31
0.0
  0
LINE
  5
7C36
330
821B
100
AcDbEntity
  8
1
100
AcDbLine
 10
5328.473527438281
 20
3694.16946616708
 30
0.0
 11
5328.473527438282
 21
3014.16946616708
 31
0.0
  0
LINE
  5
7C37
330
821B
100
AcDbEntity
  8
2
100
AcDbLine
 10
2267.691023858451
 20
3733.826000116309
 30
0.0
 11
2267.691023858451
 21
1998.972316392661
 31
0.0
  0
LINE
  5
7C38
330
821B
100
AcDbEntity
  8
2
100
AcDbLine
 10
3007.30700635608
 20
3014.169466167079
 30
0.0
 11
1194.515253351841
 21
3014.16946616708
 31
0.0
  0
LINE
  5
7C39
330
821B
100
AcDbEntity
  8
1
100
AcDbLine
 10
842.6910238584531
 20
2119.169466167079
 30
0.0
 11
2892.691023858453
 21
2119.169466167079
 31
0.0
1001
ACAD
1000
ASC_BOUNDS
1002
{
1070
    19
1005
0
1002
}
  0
INSERT
  5
7C3A
330
821B
100
AcDbEntity
  8
0
100
AcDbBlockReference
  2
YA_N
 10
-1637.209838160516
 20
-1405.432827243363
 30
0.0
 41
25.0
 42
25.0
 43
25.0
  0
ARC
  5
7C3C
330
821B
100
AcDbEntity
  8
1
100
AcDbCircle
 10
1117.691023858452
 20
2454.169466167078
 30
0.0
 40
185.0
100
AcDbArc
 50
287.9452509999999
 51
252.054749
  0
LINE
  5
7C3D
330
821B
100
AcDbEntity
  8
2
100
AcDbLine
 10
1117.691023858452
 20
2717.985140167078
 30
0.0
 11
1117.691023858452
 21
1999.169466167078
 31
0.0
  0
LINE
  5
7C3E
330
821B
100
AcDbEntity
  8
1
100
AcDbLine
 10
1174.691038858453
 20
2278.169466167078
 30
0.0
 11
1060.691023858452
 21
2278.169466167078
 31
0.0
  0
LINE
  5
7C3F
330
821B
100
AcDbEntity
  8
1
100
AcDbLine
 10
1279.691038858453
 20
2349.428499167077
 30
0.0
 11
1279.691038858453
 21
2274.169466167078
 31
0.0
  0
LINE
  5
7C43
330
821B
100
AcDbEntity
  8
1
100
AcDbLine
 10
1220.191038858453
 20
2279.318025167078
 30
0.0
 11
1210.684324858452
 21
2294.240633167078
 31
0.0
  0
LINE
  5
7C44
330
821B
100
AcDbEntity
  8
1
100
AcDbLine
 10
1220.191038858453
 20
2291.169466167078
 30
0.0
 11
1220.191038858453
 21
2274.169466167078
 31
0.0
  0
LINE
  5
7C46
330
821B
100
AcDbEntity
  8
1
100
AcDbLine
 10
1276.691038858452
 20
2294.169466167078
 30
0.0
 11
1223.191038858453
 21
2294.169466167078
 31
0.0
  0
ARC
  5
7C48
330
821B
100
AcDbEntity
  8
1
100
AcDbCircle
 10
1276.691038858452
 20
2291.169466167078
 30
0.0
 40
3.0
100
AcDbArc
 50
0.0
 51
90.0
  0
LINE
  5
7C4A
330
821B
100
AcDbEntity
  8
1
100
AcDbLine
 10
1228.514952858452
 20
2294.169466167078
 30
0.0
 11
1223.335203858452
 21
2302.300066167077
 31
0.0
  0
ARC
  5
7C4B
330
821B
100
AcDbEntity
  8
1
100
AcDbCircle
 10
1223.191038858453
 20
2291.169466167078
 30
0.0
 40
3.0
100
AcDbArc
 50
90.0
 51
180.0
  0
LINE
  5
7C4E
330
821B
100
AcDbEntity
  8
1
100
AcDbLine
 10
1279.691038858453
 20
2349.428499167077
 30
0.0
 11
1273.307066858452
 21
2354.126253167078
 31
0.0
  0
LINE
  5
7C51
330
821B
100
AcDbEntity
  8
1
100
AcDbLine
 10
955.6910238584524
 20
2349.428499167077
 30
0.0
 11
955.6910238584524
 21
2274.169466167078
 31
0.0
  0
LINE
  5
7C52
330
821B
100
AcDbEntity
  8
1
100
AcDbLine
 10
958.6910238584524
 20
2294.169466167078
 30
0.0
 11
1012.191023858452
 21
2294.169466167078
 31
0.0
  0
LINE
  5
7C53
330
821B
100
AcDbEntity
  8
1
100
AcDbLine
 10
1015.191023858452
 20
2279.318025167078
 30
0.0
 11
1024.697737858452
 21
2294.240633167078
 31
0.0
  0
LINE
  5
7C56
330
821B
100
AcDbEntity
  8
1
100
AcDbLine
 10
1015.191023858452
 20
2274.169466167078
 30
0.0
 11
1015.191023858452
 21
2291.169466167078
 31
0.0
  0
LINE
  5
7C59
330
821B
100
AcDbEntity
  8
1
100
AcDbLine
 10
1006.867109858452
 20
2294.169466167078
 30
0.0
 11
1012.046858858452
 21
2302.300066167077
 31
0.0
  0
ARC
  5
7C5A
330
821B
100
AcDbEntity
  8
1
100
AcDbCircle
 10
1012.191023858452
 20
2291.169466167078
 30
0.0
 40
3.0
100
AcDbArc
 50
0.0
 51
90.0
  0
ARC
  5
7C5D
330
821B
100
AcDbEntity
  8
1
100
AcDbCircle
 10
958.6910238584524
 20
2291.169466167078
 30
0.0
 40
3.0
100
AcDbArc
 50
90.0
 51
180.0
  0
LINE
  5
7C5E
330
821B
100
AcDbEntity
  8
1
100
AcDbLine
 10
955.6910238584524
 20
2349.428499167077
 30
0.0
 11
962.074995858453
 21
2354.126253167078
 31
0.0
  0
LINE
  5
7C5F
330
821B
100
AcDbEntity
  8
2
100
AcDbLine
 10
867.2646097329087
 20
2454.169466167078
 30
0.0
 11
1333.770556504409
 21
2454.169466167078
 31
0.0
  0
LINE
  5
7C60
330
821B
100
AcDbEntity
  8
1
100
AcDbLine
 10
907.2750108326872
 20
2274.169466167077
 30
0.0
 11
1047.691023858452
 21
2274.169466167077
 31
0.0
  0
LINE
  5
7C61
330
821B
100
AcDbEntity
  8
1
100
AcDbLine
 10
1342.691023858452
 20
2219.169466167077
 30
0.0
 11
1327.906275072118
 21
2274.169466167077
 31
0.0
  0
LINE
  5
7C62
330
821B
100
AcDbEntity
  8
1
100
AcDbLine
 10
892.6910238584524
 20
2219.169466167077
 30
0.0
 11
907.2750108326872
 21
2274.169466167077
 31
0.0
  0
LINE
  5
7C64
330
821B
100
AcDbEntity
  8
1
100
AcDbLine
 10
1047.691023858452
 20
2264.169466167077
 30
0.0
 11
1187.691023858452
 21
2264.169466167077
 31
0.0
  0
LINE
  5
7C65
330
821B
100
AcDbEntity
  8
1
100
AcDbLine
 10
1047.691023858452
 20
2274.169466167077
 30
0.0
 11
1047.691023858452
 21
2264.169466167077
 31
0.0
  0
LINE
  5
7C66
330
821B
100
AcDbEntity
  8
1
100
AcDbLine
 10
1187.691023858453
 20
2274.169466167077
 30
0.0
 11
1187.691023858453
 21
2264.169466167077
 31
0.0
  0
LINE
  5
7C67
330
821B
100
AcDbEntity
  8
1
100
AcDbLine
 10
1187.691023858452
 20
2274.169466167077
 30
0.0
 11
1327.906275072118
 21
2274.169466167077
 31
0.0
  0
CIRCLE
  5
7C6A
330
821B
100
AcDbEntity
  8
1
100
AcDbCircle
 10
2267.691023858451
 20
3014.169466167079
 30
0.0
 40
165.0999999999999
  0
CIRCLE
  5
7C6B
330
821B
100
AcDbEntity
  8
1
100
AcDbCircle
 10
1117.691023858452
 20
2454.169466167078
 30
0.0
 40
114.3
  0
LINE
  5
7C6C
330
821B
100
AcDbEntity
  8
1
100
AcDbLine
 10
842.6910238584531
 20
2099.169466167078
 30
0.0
 11
2892.691023858453
 21
2099.169466167078
 31
0.0
1001
ACAD
1000
ASC_BOUNDS
1002
{
1070
    19
1005
0
1002
}
  0
LINE
  5
7C6D
330
821B
100
AcDbEntity
  8
1
100
AcDbLine
 10
842.6910238584531
 20
1999.169466167078
 30
0.0
 11
2892.691023858453
 21
1999.169466167078
 31
0.0
  0
LINE
  5
7C6E
330
821B
100
AcDbEntity
  8
1
100
AcDbLine
 10
2892.691023858453
 20
2099.169466167078
 30
0.0
 11
2892.691023858453
 21
1999.169466167078
 31
0.0
  0
POINT
  5
7C6F
330
821B
100
AcDbEntity
  8
1
100
AcDbPoint
 10
2892.691023858453
 20
2098.97231639266
 30
0.0
  0
POINT
  5
7C70
330
821B
100
AcDbEntity
  8
1
100
AcDbPoint
 10
2892.691023858453
 20
2098.97231639266
 30
0.0
  0
LINE
  5
7C71
330
821B
100
AcDbEntity
  8
1
100
AcDbLine
 10
3876.473527438279
 20
2099.169466167079
 30
0.0
 11
5381.473527438281
 21
2099.169466167079
 31
0.0
1001
ACAD
1000
ASC_BOUNDS
1002
{
1070
    19
1005
0
1005
0
1002
}
  0
POINT
  5
7C72
330
821B
100
AcDbEntity
  8
1
100
AcDbPoint
 10
2892.691023858453
 20
2098.97231639266
 30
0.0
  0
POINT
  5
7C73
330
821B
100
AcDbEntity
  8
1
100
AcDbPoint
 10
2892.691023858453
 20
2098.97231639266
 30
0.0
  0
LINE
  5
7C74
330
821B
100
AcDbEntity
  8
1
100
AcDbLine
 10
4703.47352743828
 20
3694.16946616708
 30
0.0
 11
5368.473527438281
 21
3694.16946616708
 31
0.0
  0
INSERT
  5
7C75
330
821B
100
AcDbEntity
  8
0
100
AcDbBlockReference
  2
YA_N
 10
-1144.893563079054
 20
-989.0222135336152
 30
0.0
 41
25.0
 42
25.0
 43
25.0
  0
DIMENSION
  5
7C77
330
821B
100
AcDbEntity
  8
3
100
AcDbDimension
  2
*D4
 10
2223.691023858451
 20
3895.329563161224
 30
0.0
 11
1708.691023858452
 21
3955.329563161224
 31
0.0
 12
780.0659088816137
 22
2386.109163331333
 32
0.0
 71
     5
 42
-1.0
  3
Standard
100
AcDbAlignedDimension
 13
1193.691023858452
 23
3694.169466167082
 33
0.0
 14
2223.691023858451
 24
3694.169466167082
 34
0.0
100
AcDbRotatedDimension
1001
ACAD
1000
DSTYLE
1002
{
1070
    40
1040
30.0
1002
}
  0
DIMENSION
  5
7C78
330
821B
100
AcDbEntity
  8
3
100
AcDbDimension
  2
*D5
 10
2267.691023858451
 20
4096.131608620377
 30
0.0
 11
1730.691023858452
 21
4156.131608620376
 31
0.0
 12
780.0659088816137
 22
2386.109163331333
 32
0.0
 71
     5
 42
-1.0
  3
Standard
100
AcDbAlignedDimension
 13
1193.691023858452
 23
3694.169466167082
 33
0.0
 14
2267.691023858451
 24
3753.785448664709
 34
0.0
100
AcDbRotatedDimension
1001
ACAD
1000
DSTYLE
1002
{
1070
    40
1040
30.0
1002
}
  0
POINT
  5
7C79
330
821B
100
AcDbEntity
  8
1
100
AcDbPoint
 10
2892.691023858453
 20
2098.97231639266
 30
0.0
  0
POINT
  5
7C7A
330
821B
100
AcDbEntity
  8
1
100
AcDbPoint
 10
2892.691023858453
 20
2098.97231639266
 30
0.0
  0
LINE
  5
7C7B
330
821B
100
AcDbEntity
  8
1
100
AcDbLine
 10
5328.473527438281
 20
3014.16946616708
 30
0.0
 11
5328.473527438281
 21
2219.169466167079
 31
0.0
  0
LINE
  5
7C7C
330
821B
100
AcDbEntity
  8
1
100
AcDbLine
 10
4078.473527438279
 20
3694.16946616708
 30
0.0
 11
4078.473527438279
 21
3014.16946616708
 31
0.0
  0
LINE
  5
7C7D
330
821B
100
AcDbEntity
  8
1
100
AcDbLine
 10
4703.47352743828
 20
3694.16946616708
 30
0.0
 11
4038.473527438279
 21
3694.16946616708
 31
0.0
  0
LINE
  5
7C7E
330
821B
100
AcDbEntity
  8
1
100
AcDbLine
 10
4078.473527438279
 20
3014.16946616708
 30
0.0
 11
4078.473527438279
 21
2219.169466167079
 31
0.0
  0
LINE
  5
7C7F
330
821B
100
AcDbEntity
  8
1
100
AcDbLine
 10
5483.47352743828
 20
2978.369466167081
 30
0.0
 11
5483.473527438281
 21
2848.36946616708
 31
0.0
  0
LINE
  5
7C80
330
821B
100
AcDbEntity
  8
1
100
AcDbLine
 10
5346.473527438281
 20
2988.36946616708
 30
0.0
 11
5346.473527438281
 21
2838.36946616708
 31
0.0
  0
LINE
  5
7C81
330
821B
100
AcDbEntity
  8
1
100
AcDbLine
 10
5346.473527438281
 20
2988.36946616708
 30
0.0
 11
5395.77352743828
 21
2988.36946616708
 31
0.0
  0
LINE
  5
7C82
330
821B
100
AcDbEntity
  8
1
100
AcDbLine
 10
5346.473527438281
 20
2838.36946616708
 30
0.0
 11
5395.77352743828
 21
2838.36946616708
 31
0.0
  0
ARC
  5
7C83
330
821B
100
AcDbEntity
  8
1
100
AcDbCircle
 10
5473.473527438282
 20
2978.369466167081
 30
0.0
 40
10.0
100
AcDbArc
 50
0.0000000000006514
 51
90.0
  0
ARC
  5
7C84
330
821B
100
AcDbEntity
  8
1
100
AcDbCircle
 10
5473.473527438282
 20
2848.36946616708
 30
0.0
 40
10.0
100
AcDbArc
 50
270.0
 51
0.0000000000006514
  0
LINE
  5
7C85
330
821B
100
AcDbEntity
  8
1
100
AcDbLine
 10
5395.77352743828
 20
2988.36946616708
 30
0.0
 11
5473.473527438279
 21
2988.36946616708
 31
0.0
  0
LINE
  5
7C86
330
821B
100
AcDbEntity
  8
1
100
AcDbLine
 10
5395.77352743828
 20
2838.36946616708
 30
0.0
 11
5473.473527438282
 21
2838.36946616708
 31
0.0
  0
LINE
  5
7C87
330
821B
100
AcDbEntity
  8
1
100
AcDbLine
 10
3780.47352743828
 20
3179.269466167079
 30
0.0
 11
3890.47352743828
 21
3179.269466167079
 31
0.0
  0
LINE
  5
7C88
330
821B
100
AcDbEntity
  8
1
100
AcDbLine
 10
3780.47352743828
 20
2849.06946616708
 30
0.0
 11
3890.47352743828
 21
2849.06946616708
 31
0.0
  0
LINE
  5
7C89
330
821B
100
AcDbEntity
  8
1
100
AcDbLine
 10
3780.47352743828
 20
2568.27231639266
 30
0.0
 11
3890.47352743828
 21
2568.27231639266
 31
0.0
  0
LINE
  5
7C8A
330
821B
100
AcDbEntity
  8
1
100
AcDbLine
 10
3780.473527438282
 20
2339.672316392659
 30
0.0
 11
3890.47352743828
 21
2339.672316392659
 31
0.0
  0
LINE
  5
7C8B
330
821B
100
AcDbEntity
  8
1
100
AcDbLine
 10
3780.47352743828
 20
3179.269466167079
 30
0.0
 11
3780.47352743828
 21
2339.672316392659
 31
0.0
  0
LINE
  5
7C8C
330
821B
100
AcDbEntity
  8
1
100
AcDbLine
 10
3890.473527438281
 20
3179.269466167079
 30
0.0
 11
3890.473527438279
 21
2339.672316392659
 31
0.0
  0
LINE
  5
7C8D
330
821B
100
AcDbEntity
  8
1
100
AcDbLine
 10
3643.473527438275
 20
3294.16946616708
 30
0.0
 11
3643.473527438288
 21
2233.972316392661
 31
0.0
  0
LINE
  5
7C8E
330
821B
100
AcDbEntity
  8
1
100
AcDbLine
 10
3643.473527438275
 20
3294.16946616708
 30
0.0
 11
3935.973527438274
 21
3294.16946616708
 31
0.0
  0
LINE
  5
7C8F
330
821B
100
AcDbEntity
  8
1
100
AcDbLine
 10
3643.473527438283
 20
2233.972316392661
 30
0.0
 11
3935.973527438283
 21
2233.972316392661
 31
0.0
  0
LINE
  5
7C90
330
821B
100
AcDbEntity
  8
1
100
AcDbLine
 10
3935.973527438274
 20
3294.169466167082
 30
0.0
 11
3935.973527438274
 21
3274.16946616708
 31
0.0
  0
LINE
  5
7C91
330
821B
100
AcDbEntity
  8
1
100
AcDbLine
 10
3935.973527438283
 20
2253.97231639266
 30
0.0
 11
3935.973527438283
 21
2233.972316392661
 31
0.0
  0
POINT
  5
7C92
330
821B
100
AcDbEntity
  8
1
100
AcDbPoint
 10
5483.473527438282
 20
2978.369466167081
 30
0.0
  0
LINE
  5
7C93
330
821B
100
AcDbEntity
  8
2
100
AcDbLine
 10
2267.691023858454
 20
6345.587621385174
 30
0.0
 11
2267.691023858454
 21
4657.599813814615
 31
0.0
  0
LINE
  5
7C94
330
821B
100
AcDbEntity
  8
2
100
AcDbLine
 10
1193.691023858452
 20
5751.672059535994
 30
0.0
 11
2746.616214241039
 21
5751.672059535991
 31
0.0
  0
INSERT
  5
7C95
330
821B
100
AcDbEntity
  8
0
100
AcDbBlockReference
  2
YA_N
 10
3439.312525519781
 20
-2261.498311600258
 30
0.0
  0
LINE
  5
7C97
330
821B
100
AcDbEntity
  8
1
100
AcDbLine
 10
3876.47352743828
 20
1999.16946616708
 30
0.0
 11
5381.473527438281
 21
1999.16946616708
 31
0.0
1001
ACAD
1000
ASC_BOUNDS
1002
{
1070
    19
1002
}
  0
LINE
  5
7C98
330
821B
100
AcDbEntity
  8
1
100
AcDbLine
 10
5381.473527438281
 20
2219.169466167079
 30
0.0
 11
5381.473527438281
 21
2119.169466167079
 31
0.0
  0
LINE
  5
7C99
330
821B
100
AcDbEntity
  8
1
100
AcDbLine
 10
3876.473527438279
 20
2219.169466167079
 30
0.0
 11
3876.473527438279
 21
2119.169466167079
 31
0.0
  0
LINE
  5
7C9A
330
821B
100
AcDbEntity
  8
1
100
AcDbLine
 10
4011.17352743828
 20
2981.96946616708
 30
0.0
 11
3945.473527438281
 21
2981.96946616708
 31
0.0
  0
LINE
  5
7C9B
330
821B
100
AcDbEntity
  8
1
100
AcDbLine
 10
4011.17352743828
 20
2831.96946616708
 30
0.0
 11
3945.473527438278
 21
2831.96946616708
 31
0.0
  0
LINE
  5
7C9C
330
821B
100
AcDbEntity
  8
1
100
AcDbLine
 10
4060.473527438277
 20
2981.96946616708
 30
0.0
 11
4060.47352743828
 21
2831.96946616708
 31
0.0
  0
LINE
  5
7C9D
330
821B
100
AcDbEntity
  8
1
100
AcDbLine
 10
4060.47352743828
 20
2831.96946616708
 30
0.0
 11
4011.17352743828
 21
2831.96946616708
 31
0.0
  0
LINE
  5
7C9E
330
821B
100
AcDbEntity
  8
1
100
AcDbLine
 10
4060.47352743828
 20
2981.969466167079
 30
0.0
 11
4011.17352743828
 21
2981.96946616708
 31
0.0
  0
LINE
  5
7C9F
330
821B
100
AcDbEntity
  8
1
100
AcDbLine
 10
3935.473527438281
 20
2971.96946616708
 30
0.0
 11
3935.473527438281
 21
2841.969466167081
 31
0.0
  0
ARC
  5
7CA0
330
821B
100
AcDbEntity
  8
1
100
AcDbCircle
 10
3945.473527438278
 20
2841.969466167081
 30
0.0
 40
10.0
100
AcDbArc
 50
179.9999999999992
 51
270.0
  0
ARC
  5
7CA1
330
821B
100
AcDbEntity
  8
1
100
AcDbCircle
 10
3945.473527438277
 20
2971.96946616708
 30
0.0
 40
10.0
100
AcDbArc
 50
90.0
 51
179.9999999999992
  0
POINT
  5
7CA2
330
821B
100
AcDbEntity
  8
1
100
AcDbPoint
 10
3935.473527438277
 20
2971.96946616708
 30
0.0
  0
LINE
  5
7CA3
330
821B
100
AcDbEntity
  8
1
100
AcDbLine
 10
3900.47352743828
 20
3046.669466167079
 30
0.0
 11
4078.473527438279
 21
3046.66946616708
 31
0.0
  0
LINE
  5
7CA4
330
821B
100
AcDbEntity
  8
1
100
AcDbLine
 10
3900.47352743828
 20
2981.66946616708
 30
0.0
 11
3943.042478282048
 21
2981.66946616708
 31
0.0
  0
LINE
  5
7CA5
330
821B
100
AcDbEntity
  8
1
100
AcDbLine
 10
3900.47352743828
 20
3046.669466167079
 30
0.0
 11
3900.47352743828
 21
2981.66946616708
 31
0.0
  0
LINE
  5
7CA6
330
821B
100
AcDbEntity
  8
1
100
AcDbLine
 10
3890.473527438281
 20
3044.16946616708
 30
0.0
 11
3900.473527438281
 21
3044.16946616708
 31
0.0
  0
LINE
  5
7CA7
330
821B
100
AcDbEntity
  8
1
100
AcDbLine
 10
3890.473527438281
 20
2984.16946616708
 30
0.0
 11
3900.473527438281
 21
2984.16946616708
 31
0.0
  0
LINE
  5
7CAB
330
821B
100
AcDbEntity
  8
1
100
AcDbLine
 10
842.6910238584531
 20
2219.169466167079
 30
0.0
 11
842.6910238584531
 21
2119.169466167079
 31
0.0
  0
LINE
  5
7CAC
330
821B
100
AcDbEntity
  8
1
100
AcDbLine
 10
842.6910238584531
 20
2099.169466167078
 30
0.0
 11
842.6910238584531
 21
1999.169466167078
 31
0.0
  0
POINT
  5
7CAD
330
821B
100
AcDbEntity
  8
1
100
AcDbPoint
 10
2892.691023858453
 20
2098.97231639266
 30
0.0
  0
POINT
  5
7CAE
330
821B
100
AcDbEntity
  8
1
100
AcDbPoint
 10
2892.691023858453
 20
2118.972316392661
 30
0.0
  0
POINT
  5
7CAF
330
821B
100
AcDbEntity
  8
1
100
AcDbPoint
 10
2892.691023858453
 20
2098.97231639266
 30
0.0
  0
LINE
  5
7CB3
330
821B
100
AcDbEntity
  8
1
100
AcDbLine
 10
842.6910238584531
 20
4924.672059535993
 30
0.0
 11
2892.691023858453
 21
4924.672059535991
 31
0.0
  0
LINE
  5
7CB4
330
821B
100
AcDbEntity
  8
1
100
AcDbLine
 10
1642.691023858453
 20
6429.672059535992
 30
0.0
 11
2892.691023858453
 21
6429.672059535992
 31
0.0
  0
LINE
  5
7CB5
330
821B
100
AcDbEntity
  8
1
100
AcDbLine
 10
2892.691023858453
 20
6429.672059535992
 30
0.0
 11
2892.691023858455
 21
6376.672059535988
 31
0.0
  0
LINE
  5
7CB6
330
821B
100
AcDbEntity
  8
1
100
AcDbLine
 10
842.6910238584531
 20
5774.672059535994
 30
0.0
 11
842.6910238584531
 21
4924.672059535993
 31
0.0
  0
LINE
  5
7CB7
330
821B
100
AcDbEntity
  8
1
100
AcDbLine
 10
1642.691023858453
 20
6429.672059535992
 30
0.0
 11
1642.691023858453
 21
6376.672059535992
 31
0.0
  0
LINE
  5
7CB8
330
821B
100
AcDbEntity
  8
1
100
AcDbLine
 10
842.6910238584531
 20
5774.672059535992
 30
0.0
 11
1193.691023858452
 21
5774.672059535992
 31
0.0
  0
LINE
  5
7CB9
330
821B
100
AcDbEntity
  8
2
100
AcDbLine
 10
1117.691023858452
 20
5668.707423224365
 30
0.0
 11
1117.691023858452
 21
4659.974178445684
 31
0.0
  0
DIMENSION
  5
7CBA
330
821B
100
AcDbEntity
  8
3
100
AcDbDimension
  2
*D6
 10
2892.691023858453
 20
6650.975996763711
 30
0.0
 11
2267.691023858454
 21
6650.975996763711
 31
0.0
 12
780.0659088816137
 22
2053.640460174752
 32
0.0
 70
   128
 71
     5
 42
-1.0
  3
Standard
100
AcDbAlignedDimension
 13
1642.691023858453
 23
6429.672059535992
 33
0.0
 14
2892.691023858453
 24
6429.672059535992
 34
0.0
100
AcDbRotatedDimension
1001
ACAD
1000
DSTYLE
1002
{
1070
    40
1040
30.0
1002
}
  0
DIMENSION
  5
7CBC
330
821B
100
AcDbEntity
  8
3
100
AcDbDimension
  2
*D8
 10
620.6429563578421
 20
4924.672059535993
 30
0.0
 11
620.6429563578421
 21
5349.672059535993
 31
0.0
 12
780.0659088816137
 22
2053.640460174752
 32
0.0
 70
   128
 71
     5
 42
-1.0
  3
Standard
100
AcDbAlignedDimension
 13
842.6910238584531
 23
5774.672059535994
 33
0.0
 14
842.6910238584531
 24
4924.672059535993
 34
0.0
 50
90.0
100
AcDbRotatedDimension
1001
ACAD
1000
DSTYLE
1002
{
1070
    40
1040
30.0
1002
}
  0
DIMENSION
  5
7CBD
330
821B
100
AcDbEntity
  8
3
100
AcDbDimension
  2
*D9
 10
3291.335161867388
 20
4924.672059535991
 30
0.0
 11
3231.335161867388
 21
5677.17205953599
 31
0.0
 12
780.0659088816137
 22
2053.640460174752
 32
0.0
 71
     5
 42
-1.0
  3
Standard
100
AcDbAlignedDimension
 13
2892.691023858453
 23
6429.672059535992
 33
0.0
 14
2892.691023858453
 24
4924.672059535991
 34
0.0
 50
90.0
100
AcDbRotatedDimension
1001
ACAD
1000
DSTYLE
1002
{
1070
    40
1040
30.0
1002
}
  0
DIMENSION
  5
7CC1
330
821B
100
AcDbEntity
  8
3
100
AcDbDimension
  2
*D13
 10
5328.473527438281
 20
3948.164217589009
 30
0.0
 11
4703.47352743828
 21
4008.164217589007
 31
0.0
 12
-180.6310936352128
 22
2386.109163331333
 32
0.0
 71
     5
 42
-1.0
  3
Standard
100
AcDbAlignedDimension
 13
4078.473527438279
 23
3668.483783820716
 33
0.0
 14
5328.473527438281
 24
3665.205231625258
 34
0.0
100
AcDbRotatedDimension
1001
ACAD
1000
DSTYLE
1002
{
1070
    40
1040
30.0
1002
}
  0
DIMENSION
  5
7CC2
330
821B
100
AcDbEntity
  8
3
100
AcDbDimension
  2
*D14
 10
5672.841747809591
 20
3544.16946616708
 30
0.0
 11
5612.841747809591
 21
3014.16946616708
 31
0.0
 12
-180.6310936352128
 22
2386.109163331333
 32
0.0
  1
\U+03C6<>
 71
     5
 42
-1.0
  3
Standard
100
AcDbAlignedDimension
 13
5333.97352743828
 23
2484.16946616708
 33
0.0
 14
5333.97352743828
 24
3544.16946616708
 34
0.0
 50
90.0
100
AcDbRotatedDimension
1001
ACAD
1000
DSTYLE
1002
{
1070
    40
1040
30.0
1002
}
  0
LINE
  5
7CC3
330
821B
100
AcDbEntity
  8
2
100
AcDbLine
 10
3613.949616268506
 20
2453.97231639266
 30
0.0
 11
4218.844005409784
 21
2453.97231639266
 31
0.0
  0
ARC
  5
7CC4
330
821B
100
AcDbEntity
  8
1
100
AcDbCircle
 10
2267.691023858451
 20
3014.169466167079
 30
0.0
 40
280.0
100
AcDbArc
 50
287.0299834154885
 51
112.6559573314276
  0
ARC
  5
7CC5
330
821B
100
AcDbEntity
  8
1
100
AcDbCircle
 10
1117.691023858452
 20
2454.169466167078
 30
0.0
 40
220.0
100
AcDbArc
 50
112.6559573314276
 51
287.0299834154885
  0
LINE
  5
7CC6
330
821B
100
AcDbEntity
  8
1
100
AcDbLine
 10
2159.835924627763
 20
3272.563114637661
 30
0.0
 11
1032.947731605768
 21
2656.995897333831
 31
0.0
  0
LINE
  5
7CC7
330
821B
100
AcDbEntity
  8
1
100
AcDbLine
 10
2349.695214059051
 20
2746.447011394335
 30
0.0
 11
1182.122887587494
 21
2243.618959071218
 31
0.0
  0
LINE
  5
7CC8
330
821B
100
AcDbEntity
  8
1
100
AcDbLine
 10
2205.244520602348
 20
3167.004161937004
 30
0.0
 11
1074.458829296535
 21
2559.780951925685
 31
0.0
  0
LINE
  5
7CC9
330
821B
100
AcDbEntity
  8
1
100
AcDbLine
 10
2317.23195317955
 20
2856.677541542348
 30
0.0
 11
1151.988590311521
 21
2344.939445498615
 31
0.0
  0
INSERT
  5
7CCA
330
821B
100
AcDbEntity
  8
0
100
AcDbBlockReference
  2
YA_N
 10
742.6405419924267
 20
-7350.772430041375
 30
0.0
  0
INSERT
  5
7CCC
330
821B
100
AcDbEntity
  8
0
100
AcDbBlockReference
  2
YA_N
 10
2.995684825677016
 20
-7626.802696743742
 30
0.0
 41
20.0
 42
20.0
 43
20.0
  0
INSERT
  5
7CCE
330
821B
100
AcDbEntity
  8
0
100
AcDbBlockReference
  2
YA_N
 10
699.9059132844049
 20
-7054.118742438055
 30
0.0
 41
20.0
 42
20.0
 43
20.0
  0
INSERT
  5
7CD0
330
821B
100
AcDbEntity
  8
0
100
AcDbBlockReference
  2
YA_N
 10
814.1254386385663
 20
-7130.460452277301
 30
0.0
 41
20.0
 42
20.0
 43
20.0
  0
ARC
  5
7CD2
330
821B
100
AcDbEntity
  8
1
100
AcDbCircle
 10
2267.691023858451
 20
3014.169466167079
 30
0.0
 40
599.0
100
AcDbArc
 50
89.99999999999991
 51
94.2124990779145
  0
CIRCLE
  5
7CD3
330
821B
100
AcDbEntity
  8
1
100
AcDbCircle
 10
2267.691023858451
 20
3014.169466167079
 30
0.0
 40
530.0
  0
CIRCLE
  5
7CD4
330
821B
100
AcDbEntity
  8
1
100
AcDbCircle
 10
2267.691023858451
 20
3014.169466167079
 30
0.0
 40
580.0
  0
LINE
  5
7CD5
330
821B
100
AcDbEntity
  8
1
100
AcDbLine
 10
5381.473527438281
 20
2099.169466167079
 30
0.0
 11
5381.473527438281
 21
1999.16946616708
 31
0.0
  0
LINE
  5
7CD6
330
821B
100
AcDbEntity
  8
1
100
AcDbLine
 10
3876.473527438279
 20
2099.169466167079
 30
0.0
 11
3876.47352743828
 21
1999.16946616708
 31
0.0
  0
LINE
  5
7CD7
330
821B
100
AcDbEntity
  8
1
100
AcDbLine
 10
897.6910238584521
 20
4691.672059535993
 30
0.0
 11
2547.691023858451
 21
4691.672059535991
 31
0.0
  0
LINE
  5
7CD8
330
821B
100
AcDbEntity
  8
1
100
AcDbLine
 10
897.6910238584521
 20
5011.672059535992
 30
0.0
 11
2547.691023858451
 21
5011.672059535992
 31
0.0
  0
LINE
  5
7CD9
330
821B
100
AcDbEntity
  8
1
100
AcDbLine
 10
2547.691023858451
 20
4691.672059535991
 30
0.0
 11
2547.691023858451
 21
5011.672059535992
 31
0.0
  0
LINE
  5
7CDA
330
821B
100
AcDbEntity
  8
1
100
AcDbLine
 10
897.6910238584521
 20
4691.672059535993
 30
0.0
 11
897.6910238584521
 21
5011.672059535992
 31
0.0
  0
LINE
  5
7CDB
330
821B
100
AcDbEntity
  8
1
100
AcDbLine
 10
1003.391023858452
 20
4856.672059535993
 30
0.0
 11
1003.391023858452
 21
4966.672059535993
 31
0.0
  0
LINE
  5
7CDC
330
821B
100
AcDbEntity
  8
1
100
AcDbLine
 10
1231.991023858452
 20
4856.672059535991
 30
0.0
 11
1231.991023858452
 21
4966.672059535992
 31
0.0
  0
LINE
  5
7CDD
330
821B
100
AcDbEntity
  8
1
100
AcDbLine
 10
2432.791023858452
 20
4856.672059535991
 30
0.0
 11
2432.791023858452
 21
4966.672059535991
 31
0.0
  0
LINE
  5
7CDE
330
821B
100
AcDbEntity
  8
1
100
AcDbLine
 10
2102.591023858451
 20
4856.672059535991
 30
0.0
 11
2102.591023858451
 21
4966.672059535991
 31
0.0
  0
LINE
  5
7CDF
330
821B
100
AcDbEntity
  8
1
100
AcDbLine
 10
1003.391023858452
 20
4966.672059535993
 30
0.0
 11
1231.991023858452
 21
4966.672059535993
 31
0.0
  0
LINE
  5
7CE0
330
821B
100
AcDbEntity
  8
1
100
AcDbLine
 10
1003.391023858452
 20
4856.672059535993
 30
0.0
 11
1231.991023858452
 21
4856.672059535993
 31
0.0
  0
LINE
  5
7CE1
330
821B
100
AcDbEntity
  8
1
100
AcDbLine
 10
2102.591023858451
 20
4856.672059535991
 30
0.0
 11
2432.791023858452
 21
4856.672059535991
 31
0.0
  0
LINE
  5
7CE2
330
821B
100
AcDbEntity
  8
1
100
AcDbLine
 10
2102.591023858451
 20
4966.672059535991
 30
0.0
 11
2432.791023858452
 21
4966.672059535991
 31
0.0
  0
LINE
  5
7CE3
330
821B
100
AcDbEntity
  8
1
100
AcDbLine
 10
1300.191023858452
 20
5126.672059535991
 30
0.0
 11
1300.191023858452
 21
4971.672059535993
 31
0.0
  0
LINE
  5
7CE4
330
821B
100
AcDbEntity
  8
1
100
AcDbLine
 10
935.1910238584521
 20
5533.172059535994
 30
0.0
 11
935.1910238584521
 21
4971.672059535993
 31
0.0
  0
LINE
  5
7CE5
330
821B
100
AcDbEntity
  8
1
100
AcDbLine
 10
935.1910238584521
 20
5533.172059535992
 30
0.0
 11
1193.691023858452
 21
5533.172059535992
 31
0.0
  0
LINE
  5
7CE6
330
821B
100
AcDbEntity
  8
1
100
AcDbLine
 10
935.1910238584521
 20
4971.672059535993
 30
0.0
 11
1300.191023858452
 21
4971.672059535993
 31
0.0
  0
LINE
  5
7CE7
330
821B
100
AcDbEntity
  8
1
100
AcDbLine
 10
1141.691023858452
 20
4971.672059535993
 30
0.0
 11
1141.691023858452
 21
4966.672059535993
 31
0.0
  0
LINE
  5
7CE8
330
821B
100
AcDbEntity
  8
1
100
AcDbLine
 10
1093.691023858452
 20
4971.672059535993
 30
0.0
 11
1093.691023858452
 21
4966.672059535993
 31
0.0
  0
LINE
  5
7CE9
330
821B
100
AcDbEntity
  8
1
100
AcDbLine
 10
4078.473527438279
 20
2636.47231639266
 30
0.0
 11
3895.473527438282
 21
2636.47231639266
 31
0.0
  0
LINE
  5
7CEA
330
821B
100
AcDbEntity
  8
1
100
AcDbLine
 10
4078.473527438279
 20
2271.47231639266
 30
0.0
 11
3895.473527438282
 21
2271.47231639266
 31
0.0
  0
LINE
  5
7CEB
330
821B
100
AcDbEntity
  8
1
100
AcDbLine
 10
3895.473527438281
 20
2636.47231639266
 30
0.0
 11
3895.473527438281
 21
2271.47231639266
 31
0.0
  0
LINE
  5
7CEC
330
821B
100
AcDbEntity
  8
1
100
AcDbLine
 10
3895.473527438282
 20
2477.97231639266
 30
0.0
 11
3890.47352743828
 21
2477.97231639266
 31
0.0
  0
LINE
  5
7CED
330
821B
100
AcDbEntity
  8
1
100
AcDbLine
 10
3895.473527438282
 20
2429.97231639266
 30
0.0
 11
3890.47352743828
 21
2429.97231639266
 31
0.0
  0
LINE
  5
7CF0
330
821B
100
AcDbEntity
  8
1
100
AcDbLine
 10
1193.691023858452
 20
5126.672059535991
 30
0.0
 11
2987.691023858453
 21
5126.672059535991
 31
0.0
  0
LINE
  5
7CF1
330
821B
100
AcDbEntity
  8
1
100
AcDbLine
 10
1193.691023858452
 20
6376.672059535994
 30
0.0
 11
2987.691023858453
 21
6376.672059535991
 31
0.0
  0
LINE
  5
7CF5
330
821B
100
AcDbEntity
  8
1
100
AcDbLine
 10
2300.191023858453
 20
5126.672059535992
 30
0.0
 11
2300.191023858453
 21
4966.672059535992
 31
0.0
  0
LINE
  5
7CF6
330
821B
100
AcDbEntity
  8
1
100
AcDbLine
 10
2235.191023858453
 20
5126.672059535992
 30
0.0
 11
2235.191023858453
 21
4966.672059535992
 31
0.0
  0
LINE
  5
7CF7
330
821B
100
AcDbEntity
  8
1
100
AcDbLine
 10
4060.473527438277
 20
2981.66946616708
 30
0.0
 11
4078.473527438279
 21
2981.66946616708
 31
0.0
  0
DIMENSION
  5
7CF8
330
821B
100
AcDbEntity
  8
3
100
AcDbDimension
  2
*D15
 10
842.6910238584531
 20
6650.975996763711
 30
0.0
 11
1242.691023858453
 21
6710.975996763711
 31
0.0
 12
780.0659088816137
 22
2053.640460174752
 32
0.0
 71
     5
 42
-1.0
  3
Standard
100
AcDbAlignedDimension
 13
1642.691023858453
 23
6429.672059535992
 33
0.0
 14
842.6910238584531
 24
5774.672059535992
 34
0.0
100
AcDbRotatedDimension
1001
ACAD
1000
DSTYLE
1002
{
1070
    40
1040
30.0
1002
}
  0
DIMENSION
  5
7D00
330
821B
100
AcDbEntity
  8
3
100
AcDbDimension
  2
*D17
 10
3254.384892531744
 20
3014.169466167079
 30
0.0
 11
3194.384892531744
 21
3354.169466167081
 31
0.0
 12
780.0659088816137
 22
2386.109163331333
 32
0.0
 71
     5
 42
-1.0
  3
Standard
100
AcDbAlignedDimension
 13
2267.691023858451
 23
3694.169466167082
 33
0.0
 14
3007.30700635608
 24
3014.169466167079
 34
0.0
 50
90.0
100
AcDbRotatedDimension
1001
ACAD
1000
DSTYLE
1002
{
1070
    40
1040
30.0
1002
}
  0
DIMENSION
  5
7D05
330
821B
100
AcDbEntity
  8
3
100
AcDbDimension
  2
*D21
 10
842.6910238584531
 20
4271.180448599069
 30
0.0
 11
1915.191023858452
 21
4331.180448599069
 31
0.0
 12
780.0659088816137
 22
2386.109163331333
 32
0.0
 71
     5
 42
-1.0
  3
Standard
100
AcDbAlignedDimension
 13
2987.691023858453
 23
2940.169466167081
 33
0.0
 14
842.6910238584531
 24
2218.97231639266
 34
0.0
100
AcDbRotatedDimension
1001
ACAD
1000
DSTYLE
1002
{
1070
    40
1040
30.0
1002
}
  0
LINE
  5
7D06
330
821B
100
AcDbEntity
  8
1
100
AcDbLine
 10
4703.47352743828
 20
3690.16946616708
 30
0.0
 11
4038.473527438279
 21
3690.16946616708
 31
0.0
  0
LINE
  5
7D07
330
821B
100
AcDbEntity
  8
1
100
AcDbLine
 10
4703.47352743828
 20
3690.16946616708
 30
0.0
 11
5368.473527438281
 21
3690.16946616708
 31
0.0
  0
LINE
  5
7D08
330
821B
100
AcDbEntity
  8
1
100
AcDbLine
 10
4038.473527438279
 20
3694.16946616708
 30
0.0
 11
4038.473527438279
 21
3690.16946616708
 31
0.0
  0
LINE
  5
7D09
330
821B
100
AcDbEntity
  8
1
100
AcDbLine
 10
5368.473527438281
 20
3694.16946616708
 30
0.0
 11
5368.47352743828
 21
3690.169466167079
 31
0.0
  0
LINE
  5
7F34
330
821B
100
AcDbEntity
  8
4
100
AcDbLine
 10
5550.0
 20
1200.753340800995
 30
0.0
 11
5550.0
 21
600.7533408009947
 31
0.0
  0
LINE
  5
7F35
330
821B
100
AcDbEntity
  8
4
100
AcDbLine
 10
3450.0
 20
1200.753340800995
 30
0.0
 11
3450.0
 21
600.7533408009947
 31
0.0
  0
LINE
  5
7F36
330
821B
100
AcDbEntity
  8
4
100
AcDbLine
 10
1950.0
 20
1200.753340800995
 30
0.0
 11
1950.0
 21
600.7533408009947
 31
0.0
  0
LINE
  5
7F39
330
821B
100
AcDbEntity
  8
4
100
AcDbLine
 10
1950.0
 20
600.7533408009947
 30
0.0
 11
5550.0
 21
600.7533408009947
 31
0.0
  0
LINE
  5
7F3A
330
821B
100
AcDbEntity
  8
4
100
AcDbLine
 10
1950.0
 20
900.7533408009949
 30
0.0
 11
5550.0
 21
900.7533408009949
 31
0.0
  0
TEXT
  5
7F3B
330
821B
100
AcDbEntity
  8
4
100
AcDbText
 10
2065.506242540704
 20
995.3824184008336
 30
0.0
 40
150.0
  1
機器名称
100
AcDbText
  0
TEXT
  5
7F3C
330
821B
100
AcDbEntity
  8
4
100
AcDbText
 10
2058.774318074392
 20
665.6888109970276
 30
0.0
 40
150.0
  1
機器型番
100
AcDbText
  0
TEXT
  5
7F3D
330
821B
100
AcDbEntity
  8
4
100
AcDbText
 10
3533.036236462995
 20
968.4686476737006
 30
0.0
 40
150.0
  1
ミツヤ多翼送風機
100
AcDbText
  0
TEXT
  5
7F3E
330
821B
100
AcDbEntity
  8
4
100
AcDbText
 10
3559.963486756442
 20
652.2320936408249
 30
0.0
 40
150.0
  1
MF#6-5
100
AcDbText
  0
TEXT
  5
7F40
330
821B
100
AcDbEntity
  8
4
100
AcDbText
 10
2381.689775839433
 20
7150.286523997547
 30
0.0
 40
161.9999999999998
  1
床置防振ベット
100
AcDbText
  0
TEXT
  5
7F41
330
821B
100
AcDbEntity
  8
4
100
AcDbText
 10
948.5027799883393
 20
7601.642928597894
 30
0.0
 40
216.0
  1
遠心式両吸込両持多翼ファン
100
AcDbText
  0
LINE
  5
7F42
330
821B
100
AcDbEntity
  8
4
100
AcDbLine
 10
750.0
 20
7408.226262794413
 30
0.0
 11
5550.0
 21
7408.226262794413
 31
0.0
  0
LINE
  5
7F43
330
821B
100
AcDbEntity
  8
4
100
AcDbLine
 10
750.0
 20
8008.226262794414
 30
0.0
 11
5550.0
 21
8008.226262794414
 31
0.0
  0
LINE
  5
7F44
330
821B
100
AcDbEntity
  8
4
100
AcDbLine
 10
1950.0
 20
1200.753340800995
 30
0.0
 11
5550.0
 21
1200.753340800995
 31
0.0
  0
LINE
  5
7F45
330
821B
100
AcDbEntity
  8
4
100
AcDbLine
 10
750.0
 20
8008.226262794414
 30
0.0
 11
750.0
 21
7408.226262794413
 31
0.0
  0
TEXT
  5
7F46
330
821B
100
AcDbEntity
  8
4
100
AcDbText
 10
1074.113279111327
 20
7146.958432639029
 30
0.0
 40
161.9999999999998
  1
右回転上向
100
AcDbText
  0
TEXT
  5
7F47
330
821B
100
AcDbEntity
  8
4
100
AcDbText
 10
4406.908677747869
 20
8118.183244485924
 30
0.0
 40
168.0
  1
No.
100
AcDbText
  0
TEXT
  5
7F48
330
821B
100
AcDbEntity
  8
4
100
AcDbText
 10
3933.888187800039
 20
7150.286523997547
 30
0.0
 40
161.9999999999998
  1
縮尺：1/30
100
AcDbText
  0
LINE
  5
7F49
330
821B
100
AcDbEntity
  8
4
100
AcDbLine
 10
5550.0
 20
8008.226262794414
 30
0.0
 11
5550.0
 21
7408.226262794413
 31
0.0
  0
LINE
  5
7F4A
330
821B
100
AcDbEntity
  8
4
100
AcDbLine
 10
6300.0
 20
8850.0
 30
0.0
 11
6300.0
 21
8850.0
 31
0.0
  0
LINE
  5
7F4B
330
821B
100
AcDbEntity
  8
4
100
AcDbLine
 10
4321.852267079594
 20
8043.790749376205
 30
0.0
 11
4321.852267079594
 21
8359.956784649257
 31
0.0
  0
LINE
  5
7F4C
330
821B
100
AcDbEntity
  8
4
100
AcDbLine
 10
4321.852267079594
 20
8359.956784649257
 30
0.0
 11
5550.0
 21
8359.956784649257
 31
0.0
  0
LINE
  5
7F4D
330
821B
100
AcDbEntity
  8
4
100
AcDbLine
 10
5550.0
 20
8359.956784649257
 30
0.0
 11
5550.0
 21
8043.790749376205
 31
0.0
  0
LINE
  5
7F4E
330
821B
100
AcDbEntity
  8
4
100
AcDbLine
 10
5550.0
 20
8043.790749376205
 30
0.0
 11
4321.852267079594
 21
8043.790749376205
 31
0.0
  0
LINE
  5
7F4F
330
821B
100
AcDbEntity
  8
4
100
AcDbLine
 10
0.0
 20
0.0
 30
0.0
 11
0.0
 21
8850.0
 31
0.0
  0
LINE
  5
7F50
330
821B
100
AcDbEntity
  8
4
100
AcDbLine
 10
0.0
 20
8850.0
 30
0.0
 11
6300.0
 21
8850.0
 31
0.0
  0
LINE
  5
7F51
330
821B
100
AcDbEntity
  8
4
100
AcDbLine
 10
6300.0
 20
8850.0
 30
0.0
 11
6300.0
 21
0.0
 31
0.0
  0
LINE
  5
7F52
330
821B
100
AcDbEntity
  8
4
100
AcDbLine
 10
6300.0
 20
0.0
 30
0.0
 11
0.0
 21
0.0
 31
0.0
  0
DIMENSION
  5
8067
330
821B
100
AcDbEntity
  8
3
100
AcDbDimension
  2
*D22
 10
2267.691023858451
 20
1796.426305100245
 30
0.0
 11
1555.191023858452
 21
1871.426305100245
 31
0.0
 12
0.0
 22
7.0
 32
0.0
 71
     5
 42
-1.0
  3
Standard
100
AcDbAlignedDimension
 13
842.6910238584531
 23
1998.972316392659
 33
0.0
 14
2267.691023858451
 24
1998.972316392661
 34
0.0
100
AcDbRotatedDimension
1001
ACAD
1000
DSTYLE
1002
{
1070
   172
1070
     1
1070
    40
1040
30.0
1070
    42
1040
1.0
1070
   271
1070
     0
1070
   143
1040
0.039
1002
}
  0
DIMENSION
  5
8074
330
821B
100
AcDbEntity
  8
3
100
AcDbDimension
  2
*D23
 10
2892.691023858453
 20
1796.426305100245
 30
0.0
 11
2580.191023858453
 21
1871.426305100245
 31
0.0
 12
0.0
 22
7.0
 32
0.0
 71
     5
 42
-1.0
  3
Standard
100
AcDbAlignedDimension
 13
2267.691023858451
 23
1998.972316392661
 33
0.0
 14
2892.691023858453
 24
1998.972316392659
 34
0.0
100
AcDbRotatedDimension
1001
ACAD
1000
DSTYLE
1002
{
1070
   172
1070
     1
1070
    40
1040
30.0
1070
    42
1040
1.0
1070
   271
1070
     0
1070
   143
1040
0.039
1002
}
  0
DIMENSION
  5
8081
330
821B
100
AcDbEntity
  8
3
100
AcDbDimension
  2
*D24
 10
4703.473527438279
 20
1796.426305100245
 30
0.0
 11
4289.97352743828
 21
1871.426305100245
 31
0.0
 12
0.0
 22
7.0
 32
0.0
 71
     5
 42
-1.0
  3
Standard
100
AcDbAlignedDimension
 13
3876.47352743828
 23
1999.16946616708
 33
0.0
 14
4703.473527438279
 24
1999.16946616708
 34
0.0
100
AcDbRotatedDimension
1001
ACAD
1000
DSTYLE
1002
{
1070
   172
1070
     1
1070
    40
1040
30.0
1070
    42
1040
1.0
1070
   271
1070
     0
1070
   143
1040
0.039
1002
}
  0
DIMENSION
  5
808E
330
821B
100
AcDbEntity
  8
3
100
AcDbDimension
  2
*D25
 10
5381.473527438281
 20
1796.426305100245
 30
0.0
 11
5042.47352743828
 21
1871.426305100245
 31
0.0
 12
0.0
 22
7.0
 32
0.0
 71
     5
 42
-1.0
  3
Standard
100
AcDbAlignedDimension
 13
4703.473527438279
 23
1999.16946616708
 33
0.0
 14
5381.473527438281
 24
1999.16946616708
 34
0.0
100
AcDbRotatedDimension
1001
ACAD
1000
DSTYLE
1002
{
1070
   172
1070
     1
1070
    40
1040
30.0
1070
    42
1040
1.0
1070
   271
1070
     0
1070
   143
1040
0.039
1002
}
  0
LINE
  5
811A
330
821B
100
AcDbEntity
  8
1
100
AcDbLine
 10
1193.691023858452
 20
5126.672059535991
 30
0.0
 11
1193.691023858452
 21
6376.672059535992
 31
0.0
  0
LINE
  5
811B
330
821B
100
AcDbEntity
  8
1
100
AcDbLine
 10
2223.691023858453
 20
5126.672059535991
 30
0.0
 11
2223.691023858451
 21
6376.672059535991
 31
0.0
  0
LINE
  5
811C
330
821B
100
AcDbEntity
  8
1
100
AcDbLine
 10
2987.691023858453
 20
5126.672059535991
 30
0.0
 11
2987.691023858451
 21
6376.672059535988
 31
0.0
  0
LINE
  5
811D
330
821B
100
AcDbEntity
  8
1
100
AcDbLine
 10
2892.691023858455
 20
5126.672059535991
 30
0.0
 11
2892.691023858453
 21
4924.672059535991
 31
0.0
  0
LINE
  5
811E
330
821B
100
AcDbEntity
  8
1
100
AcDbLine
 10
1193.691023858452
 20
5126.672059535991
 30
0.0
 11
2223.691023858451
 21
6376.672059535991
 31
0.0
  0
LINE
  5
811F
330
821B
100
AcDbEntity
  8
1
100
AcDbLine
 10
2223.691023858453
 20
5126.672059535991
 30
0.0
 11
1193.691023858452
 21
6376.672059535992
 31
0.0
  0
DIMENSION
  5
8266
330
821B
100
AcDbEntity
  8
3
100
AcDbDimension
  2
*D29
 10
4703.47352743828
 20
4296.977771716425
 30
0.0
 11
4173.473527438278
 21
4395.549200287853
 31
0.0
 70
    32
 71
     5
 42
1060.000000000005
  3
IGA
100
AcDbAlignedDimension
 13
3643.473527438275
 23
3294.16946616708
 33
0.0
 14
4703.47352743828
 24
4053.164217589007
 34
0.0
100
AcDbRotatedDimension
1001
ACAD
1000
DSTYLE
1002
{
1070
     3
1000
(<>)
1070
    40
1040
30.0
1070
    42
1040
1.0
1070
   143
1040
0.039
1070
   172
1070
     1
1070
   271
1070
     4
1070
   272
1070
     4
1070
   279
1070
     0
1070
   284
1070
     0
1070
   285
1070
     0
1070
   286
1070
     0
1070
   341
1005
822F
1070
   343
1005
822F
1070
   344
1005
822F
1002
}
  0
DIMENSION
  5
8273
330
821B
100
AcDbEntity
  8
3
100
AcDbDimension
  2
*D30
 10
5483.473527438282
 20
4296.977771716425
 30
0.0
 11
5093.47352743828
 21
4395.549200287853
 31
0.0
 70
    32
 71
     5
 42
780.0000000000018
  3
IGA
100
AcDbAlignedDimension
 13
4703.47352743828
 23
4053.164217589007
 33
0.0
 14
5483.473527438282
 24
2978.369466167081
 34
0.0
100
AcDbRotatedDimension
1001
ACAD
1000
DSTYLE
1002
{
1070
     3
1000
(<>)
1070
    40
1040
30.0
1070
    42
1040
1.0
1070
   143
1040
0.039
1070
   172
1070
     1
1070
   271
1070
     4
1070
   272
1070
     4
1070
   279
1070
     1
1070
   284
1070
     0
1070
   285
1070
     0
1070
   286
1070
     0
1070
   341
1005
822F
1070
   343
1005
822F
1070
   344
1005
822F
1002
}
  0
DIMENSION
  5
82B4
330
821B
100
AcDbEntity
  8
3
100
AcDbDimension
  2
*D32
 10
2892.691023858453
 20
4517.108814611751
 30
0.0
 11
1867.691023858453
 21
4592.108814611751
 31
0.0
 70
    32
 71
     5
 42
2050.0
  3
IGA
100
AcDbAlignedDimension
 13
842.6910238584531
 23
4924.672059535993
 33
0.0
 14
2892.691023858453
 24
4924.672059535991
 34
0.0
100
AcDbRotatedDimension
1001
ACAD
1000
DSTYLE
1002
{
1070
    40
1040
30.0
1070
    42
1040
1.0
1070
   143
1040
0.039
1070
   172
1070
     1
1070
   271
1070
     4
1070
   272
1070
     4
1070
   279
1070
     0
1070
   284
1070
     0
1070
   285
1070
     0
1070
   286
1070
     0
1070
   341
1005
822F
1070
   343
1005
822F
1070
   344
1005
822F
1002
}
  0
DIMENSION
  5
82C4
330
821B
100
AcDbEntity
  8
3
100
AcDbDimension
  2
*D33
 10
2987.691023858453
 20
4096.131608620377
 30
0.0
 11
2627.691023858452
 21
4171.131608620377
 31
0.0
 70
    32
 71
     5
 42
720.0000000000013
  3
IGA
100
AcDbAlignedDimension
 13
2267.691023858451
 23
3733.826000116309
 33
0.0
 14
2987.691023858453
 24
2940.169466167081
 34
0.0
100
AcDbRotatedDimension
1001
ACAD
1000
DSTYLE
1002
{
1070
    40
1040
30.0
1070
    42
1040
1.0
1070
   143
1040
0.039
1070
   172
1070
     1
1070
   271
1070
     4
1070
   272
1070
     4
1070
   279
1070
     0
1070
   284
1070
     0
1070
   285
1070
     0
1070
   286
1070
     0
1070
   341
1005
822F
1070
   343
1005
822F
1070
   344
1005
822F
1002
}
  0
DIMENSION
  5
82DA
330
821B
100
AcDbEntity
  8
3
100
AcDbDimension
  2
*D34
 10
3254.384892531744
 20
2119.169466167079
 30
0.0
 11
3179.384892531743
 21
2566.66946616708
 31
0.0
 70
    32
 71
     5
 42
895.0
  3
IGA
100
AcDbAlignedDimension
 13
3007.30700635608
 23
3014.169466167079
 33
0.0
 14
2892.691023858453
 24
2119.169466167079
 34
0.0
 50
90.0
100
AcDbRotatedDimension
1001
ACAD
1000
DSTYLE
1002
{
1070
    40
1040
30.0
1070
    42
1040
1.0
1070
   143
1040
0.039
1070
   172
1070
     1
1070
   271
1070
     4
1070
   272
1070
     4
1070
   279
1070
     0
1070
   284
1070
     0
1070
   285
1070
     0
1070
   286
1070
     0
1070
   341
1005
822F
1070
   343
1005
822F
1070
   344
1005
822F
1002
}
  0
DIMENSION
  5
82E7
330
821B
100
AcDbEntity
  8
3
100
AcDbDimension
  2
*D35
 10
3254.384892531744
 20
2099.169466167078
 30
0.0
 11
3455.035534281742
 21
2223.383751881365
 31
0.0
 70
   160
  1
(<>)
 71
     5
 42
20.00000000000091
  3
IGA
100
AcDbAlignedDimension
 13
2892.691023858453
 23
2119.169466167079
 33
0.0
 14
2892.691023858453
 24
2099.169466167078
 34
0.0
 50
90.0
100
AcDbRotatedDimension
1001
ACAD
1000
DSTYLE
1002
{
1070
    40
1040
30.0
1070
    42
1040
1.0
1070
   143
1040
0.039
1070
   172
1070
     1
1070
   271
1070
     4
1070
   272
1070
     4
1070
   279
1070
     1
1070
   284
1070
     0
1070
   285
1070
     0
1070
   286
1070
     0
1070
   341
1005
822F
1070
   343
1005
822F
1070
   344
1005
83FD
1002
}
  0
DIMENSION
  5
82F9
330
821B
100
AcDbEntity
  8
3
100
AcDbDimension
  2
*D36
 10
3254.384892531744
 20
1999.169466167078
 30
0.0
 11
3233.705878918903
 21
1865.165085553144
 31
0.0
 70
   160
 71
     5
 42
100.0
  3
IGA
100
AcDbAlignedDimension
 13
2892.691023858453
 23
2099.169466167078
 33
0.0
 14
2892.691023858453
 24
1999.169466167078
 34
0.0
 50
90.0
100
AcDbRotatedDimension
1001
ACAD
1000
DSTYLE
1002
{
1070
    40
1040
30.0
1070
    42
1040
1.0
1070
   143
1040
0.039
1070
   172
1070
     1
1070
   271
1070
     4
1070
   272
1070
     4
1070
   279
1070
     1
1070
   284
1070
     0
1070
   285
1070
     0
1070
   286
1070
     0
1070
   341
1005
822F
1070
   343
1005
83FD
1070
   344
1005
822F
1002
}
  0
DIMENSION
  5
836F
330
821B
100
AcDbEntity
  8
3
100
AcDbDimension
  2
*D38
 10
3520.702801855514
 20
3694.169466167081
 30
0.0
 11
3422.131373284085
 21
2846.66946616708
 31
0.0
 70
    32
  1
(<>)
 71
     5
 42
1695.000000000003
  3
IGA
100
AcDbAlignedDimension
 13
2892.691023858453
 23
1999.169466167078
 33
0.0
 14
2276.691023858453
 24
3694.169466167082
 34
0.0
 50
90.0
100
AcDbRotatedDimension
1001
ACAD
1000
DSTYLE
1002
{
1070
    40
1040
30.0
1070
    42
1040
1.0
1070
   143
1040
0.039
1070
   172
1070
     1
1070
   271
1070
     4
1070
   272
1070
     4
1070
   279
1070
     0
1070
   284
1070
     0
1070
   285
1070
     0
1070
   286
1070
     0
1070
   341
1005
822F
1070
   343
1005
822F
1070
   344
1005
822F
1002
}
  0
ENDSEC
  0
SECTION
  2
OBJECTS
  0
DICTIONARY
  5
81B8
330
0
100
AcDbDictionary
281
     1
  3
ACAD_CIP_PREVIOUS_PRODUCT_INFO
350
8265
  3
ACAD_COLOR
350
820E
  3
ACAD_DETAILVIEWSTYLE
350
8215
  3
ACAD_GROUP
350
81B9
  3
ACAD_LAYOUT
350
820D
  3
ACAD_MATERIAL
350
81BC
  3
ACAD_MLEADERSTYLE
350
8211
  3
ACAD_MLINESTYLE
350
820A
  3
ACAD_PLOTSETTINGS
350
820C
  3
ACAD_PLOTSTYLENAME
350
81BA
  3
ACAD_SCALELIST
350
81EE
  3
ACAD_SECTIONVIEWSTYLE
350
8213
  3
ACAD_TABLESTYLE
350
820F
  3
ACAD_VISUALSTYLE
350
81D5
  3
ACDB_RECOMPOSE_DATA
350
847F
  3
AcDbVariableDictionary
350
8472
  3
DWGPROPS
350
8480
  0
DICTIONARY
  5
8468
330
8200
100
AcDbDictionary
280
     1
281
     1
  3
ADSK_XREC_LAYER_RECONCILED
360
8469
  0
DICTIONARY
  5
846A
330
821F
100
AcDbDictionary
280
     1
281
     1
  3
ADSK_XREC_LAYER_RECONCILED
360
846B
  0
DICTIONARY
  5
846C
330
8222
100
AcDbDictionary
280
     1
281
     1
  3
ADSK_XREC_LAYER_RECONCILED
360
846D
  0
DICTIONARY
  5
846E
330
8223
100
AcDbDictionary
280
     1
281
     1
  3
ADSK_XREC_LAYER_RECONCILED
360
846F
  0
DICTIONARY
  5
8470
330
8224
100
AcDbDictionary
280
     1
281
     1
  3
ADSK_XREC_LAYER_RECONCILED
360
8471
  0
DICTIONARY
  5
82C2
330
821B
100
AcDbDictionary
280
     1
281
     1
  3
ACAD_SORTENTS
360
82C3
  0
XRECORD
  5
8265
102
{ACAD_REACTORS
330
81B8
102
}
330
81B8
100
AcDbXrecord
280
     1
300
ACDLT
300
2015
300
INVLTS_F_S
  0
DICTIONARY
  5
820E
102
{ACAD_REACTORS
330
81B8
102
}
330
81B8
100
AcDbDictionary
281
     1
  0
DICTIONARY
  5
8215
102
{ACAD_REACTORS
330
81B8
102
}
330
81B8
100
AcDbDictionary
281
     1
  3
Imperial24
350
8216
  0
DICTIONARY
  5
81B9
102
{ACAD_REACTORS
330
81B8
102
}
330
81B8
100
AcDbDictionary
281
     1
  0
DICTIONARY
  5
820D
102
{ACAD_REACTORS
330
81B8
102
}
330
81B8
100
AcDbDictionary
281
     1
  3
Model
350
821E
  3
レイアウト1
350
821A
  0
DICTIONARY
  5
81BC
102
{ACAD_REACTORS
330
81B8
102
}
330
81B8
100
AcDbDictionary
281
     1
  3
ByBlock
350
81C5
  3
ByLayer
350
81BD
  3
Global
350
81CD
  0
DICTIONARY
  5
8211
102
{ACAD_REACTORS
330
81B8
102
}
330
81B8
100
AcDbDictionary
281
     1
  3
Standard
350
8212
  0
DICTIONARY
  5
820A
102
{ACAD_REACTORS
330
81B8
102
}
330
81B8
100
AcDbDictionary
281
     1
  3
Standard
350
820B
  0
DICTIONARY
  5
820C
102
{ACAD_REACTORS
330
81B8
102
}
330
81B8
100
AcDbDictionary
281
     1
  0
ACDBDICTIONARYWDFLT
  5
81BA
102
{ACAD_REACTORS
330
81B8
102
}
330
81B8
100
AcDbDictionary
281
     1
  3
Normal
350
81BB
100
AcDbDictionaryWithDefault
340
81BB
  0
DICTIONARY
  5
81EE
102
{ACAD_REACTORS
330
81B8
102
}
330
81B8
100
AcDbDictionary
281
     1
  3
A0
350
81EF
  3
A1
350
81F0
  3
A2
350
81F1
  3
A3
350
81F2
  3
A4
350
81F3
  3
A5
350
81F4
  3
A6
350
81F5
  3
A7
350
81F6
  3
A8
350
81F7
  3
A9
350
81F8
  3
B0
350
81F9
  3
B1
350
81FA
  3
B2
350
81FB
  3
B3
350
81FC
  3
B4
350
81FD
  3
B5
350
81FE
  3
B6
350
81FF
  0
DICTIONARY
  5
8213
102
{ACAD_REACTORS
330
81B8
102
}
330
81B8
100
AcDbDictionary
281
     1
  3
Imperial24
350
8214
  0
DICTIONARY
  5
820F
102
{ACAD_REACTORS
330
81B8
102
}
330
81B8
100
AcDbDictionary
281
     1
  3
Standard
350
8210
  0
DICTIONARY
  5
81D5
102
{ACAD_REACTORS
330
81B8
102
}
330
81B8
100
AcDbDictionary
281
     1
  3
2dWireframe
350
81DB
  3
Basic
350
81DA
  3
Brighten
350
81E1
  3
ColorChange
350
81E5
  3
Conceptual
350
81DE
  3
Dim
350
81E0
  3
EdgeColorOff
350
81ED
  3
Facepattern
350
81E4
  3
Flat
350
81D6
  3
FlatWithEdges
350
81D7
  3
Gouraud
350
81D8
  3
GouraudWithEdges
350
81D9
  3
Hidden
350
81DD
  3
JitterOff
350
81EB
  3
Linepattern
350
81E3
  3
OverhangOff
350
81EC
  3
Realistic
350
81DF
  3
Shaded
350
81EA
  3
Shaded with edges
350
81E9
  3
Shades of Gray
350
81E6
  3
Sketchy
350
81E7
  3
Thicken
350
81E2
  3
Wireframe
350
81DC
  3
X-Ray
350
81E8
  0
XRECORD
  5
847F
102
{ACAD_REACTORS
330
81B8
102
}
330
81B8
100
AcDbXrecord
280
     1
 90
        1
330
8210
  0
DICTIONARY
  5
8472
102
{ACAD_REACTORS
330
81B8
102
}
330
81B8
100
AcDbDictionary
281
     1
  3
CANNOSCALE
350
8477
  3
CMLEADERSTYLE
350
8474
  3
CTABLESTYLE
350
8473
  3
CVIEWDETAILSTYLE
350
8475
  3
CVIEWSECTIONSTYLE
350
8476
  3
DIMASSOC
350
847A
  3
INDEXCTL
350
8479
  3
SORTENTS
350
8478
  3
XCLIPFRAME
350
847B
  0
XRECORD
  5
8480
102
{ACAD_REACTORS
330
81B8
102
}
330
81B8
100
AcDbXrecord
280
     1
  1
DWGPROPS COOKIE
  2

  3

  4

  6

  7

  8
yasukiyo.ogawa
  9

300
=
301
=
302
=
303
=
304
=
305
=
306
=
307
=
308
=
309
=
 40
0.0172591203703704
 41
2451389.55758588
 42
2460271.738265127
  1

 90
        0
  0
XRECORD
  5
8469
102
{ACAD_REACTORS
330
8468
102
}
330
8468
100
AcDbXrecord
280
     1
290
     1
  0
XRECORD
  5
846B
102
{ACAD_REACTORS
330
846A
102
}
330
846A
100
AcDbXrecord
280
     1
290
     1
  0
XRECORD
  5
846D
102
{ACAD_REACTORS
330
846C
102
}
330
846C
100
AcDbXrecord
280
     1
290
     1
  0
XRECORD
  5
846F
102
{ACAD_REACTORS
330
846E
102
}
330
846E
100
AcDbXrecord
280
     1
290
     1
  0
XRECORD
  5
8471
102
{ACAD_REACTORS
330
8470
102
}
330
8470
100
AcDbXrecord
280
     1
290
     1
  0
SORTENTSTABLE
  5
82C3
102
{ACAD_REACTORS
330
82C2
102
}
330
82C2
100
AcDbSortentsTable
330
821B
331
7C9C
  5
7C9D
331
7CAD
  5
7CAE
331
7CE0
  5
7CE1
331
7C67
  5
7C6A
331
7C56
  5
7C59
331
7CF1
  5
7CF5
331
7F44
  5
7F45
331
7C89
  5
7C8A
331
811E
  5
811F
331
7F34
  5
7F35
331
7C78
  5
7C79
331
7C34
  5
7C34
331
8081
  5
808E
331
7C9D
  5
7C9E
331
7CAE
  5
7CAF
331
7CE1
  5
7CE2
331
7CD0
  5
7CD2
331
7C46
  5
7C48
331
7F45
  5
7F46
331
7C8A
  5
7C8B
331
811F
  5
8266
331
8067
  5
8074
331
7F35
  5
7F36
331
7C79
  5
7C7A
331
7C35
  5
7C35
331
7C24
  5
7C24
331
7C9E
  5
7C9F
331
7CE2
  5
7CE3
331
7CAF
  5
7CB3
331
7F46
  5
7F47
331
7C8B
  5
7C8C
331
7C7A
  5
7C7B
331
7F36
  5
7F39
331
7C36
  5
7C36
331
7C9F
  5
7CA0
331
7CC1
  5
7CC2
331
7C48
  5
7C4A
331
7CD2
  5
7CD3
331
7C59
  5
7C5A
331
7CE3
  5
7CE4
331
7F47
  5
7F48
331
7D05
  5
7D06
331
7C8C
  5
7C8D
331
7C7B
  5
7C7C
331
7C6A
  5
7C6B
331
7C37
  5
7C37
331
7C26
  5
7C26
331
7F48
  5
7F49
331
7CA0
  5
7CA1
331
7CC2
  5
7CC3
331
7CD3
  5
7CD4
331
7C5A
  5
7C5D
331
7CE4
  5
7CE5
331
7CF5
  5
7CF6
331
7C7C
  5
7C7D
331
7D06
  5
7D07
331
7C8D
  5
7C8E
331
7C6B
  5
7C6C
331
7C38
  5
7C38
331
7C27
  5
7C27
331
8074
  5
8081
331
7F49
  5
7F4A
331
7CA1
  5
7CA2
331
7CD4
  5
7CD5
331
7CC3
  5
7CC4
331
7C4A
  5
7C4B
331
7C39
  5
7C3A
331
7CE5
  5
7CE6
331
7CF6
  5
7CF7
331
7C7D
  5
7C7E
331
7D07
  5
7D08
331
7C8E
  5
7C8F
331
7C6C
  5
7C6D
331
7C28
  5
7C28
331
7F4A
  5
7F4B
331
7F39
  5
7F3A
331
7D08
  5
7D09
331
7CA2
  5
7CA3
331
7CB3
  5
7CB4
331
7C3A
  5
7C3C
331
7CD5
  5
7CD6
331
7CC4
  5
7CC5
331
7CE6
  5
7CE7
331
7C6D
  5
7C6E
331
7CF7
  5
7CF8
331
7C8F
  5
7C90
331
7C7E
  5
7C7F
331
7C4B
  5
7C4E
331
7C29
  5
7C29
331
7CF8
  5
7CFF
331
7D09
  5
7F34
331
7C90
  5
7C91
331
7F4B
  5
7F4C
331
7F3A
  5
7F3B
331
7CC5
  5
7CC6
331
7CB4
  5
7CB5
331
7CA3
  5
7CA4
331
7CD6
  5
7CD7
331
7C5D
  5
7C5E
331
7CE7
  5
7CE8
331
7C7F
  5
7C80
331
7C6E
  5
7C6F
331
7C2A
  5
7C2A
331
7CE8
  5
7CE9
331
7F4C
  5
7F4D
331
7F3B
  5
7F3C
331
7C91
  5
7C92
331
7C80
  5
7C81
331
7CA4
  5
7CA5
331
7CC6
  5
7CC7
331
7CB5
  5
7CB6
331
7C3C
  5
7C3D
331
7CD7
  5
7CD8
331
7C6F
  5
7C70
331
7C5E
  5
7C5F
331
7C2B
  5
7C2B
331
7CD8
  5
7CD9
331
7CE9
  5
7CEA
331
7C70
  5
7C71
331
7F4D
  5
7F4E
331
7F3C
  5
7F3D
331
7C92
  5
7C93
331
7C81
  5
7C82
331
7CA5
  5
7CA6
331
7CB6
  5
7CB7
331
7C3D
  5
7C3E
331
7CC7
  5
7CC8
331
7C5F
  5
7C60
331
7C4E
  5
7C51
331
7C2C
  5
7C2C
331
7CC8
  5
7CC9
331
7CD9
  5
7CDA
331
7C60
  5
7C61
331
7CEA
  5
7CEB
331
7F4E
  5
7F4F
331
7F3D
  5
7F3E
331
7C93
  5
7C94
331
7C82
  5
7C83
331
7C71
  5
7C72
331
7CA6
  5
7CA7
331
7CB7
  5
7CB8
331
7C3E
  5
7C3F
331
7C2D
  5
7C2D
331
7CC9
  5
7CCA
331
7CB8
  5
7CB9
331
7CDA
  5
7CDB
331
7C61
  5
7C62
331
7CEB
  5
7CEC
331
82B4
  5
82C1
331
7C83
  5
7C84
331
7F4F
  5
7F50
331
7F3E
  5
7F40
331
7C94
  5
7C95
331
7C72
  5
7C73
331
7CA7
  5
7CAB
331
7C3F
  5
7C43
331
7C2E
  5
7C2E
331
7CB9
  5
7CBA
331
7CCA
  5
7CCC
331
7C51
  5
7C52
331
7CDB
  5
7CDC
331
7CEC
  5
7CED
331
7C73
  5
7C74
331
7F50
  5
7F51
331
7C95
  5
7C97
331
7C84
  5
7C85
331
7C62
  5
7C64
331
7C2F
  5
7C2F
331
7C98
  5
7C99
331
7CBA
  5
7CBC
331
7CDC
  5
7CDD
331
7C52
  5
7C53
331
7CED
  5
7CF0
331
8273
  5
82B4
331
811A
  5
811B
331
7F51
  5
7F52
331
7F40
  5
7F41
331
7C85
  5
7C86
331
8266
  5
8273
331
7C74
  5
7C75
331
7C30
  5
7C30
331
7C99
  5
7C9A
331
7CCC
  5
7CCE
331
7C53
  5
7C56
331
7CDD
  5
7CDE
331
7C64
  5
7C65
331
7C86
  5
7C87
331
811B
  5
811C
331
7F52
  5
8067
331
7F41
  5
7F42
331
808E
  5
80ED
331
7C97
  5
7C98
331
7C75
  5
7C77
331
7C31
  5
7C31
331
7C9A
  5
7C9B
331
7CAB
  5
7CAC
331
7CBC
  5
7CBD
331
7C43
  5
7C44
331
7CDE
  5
7CDF
331
811C
  5
811D
331
7F42
  5
7F43
331
7D00
  5
7D01
331
7C87
  5
7C88
331
7C65
  5
7C66
331
7C32
  5
7C32
331
7C9B
  5
7C9C
331
7CAC
  5
7CAD
331
7CCE
  5
7CD0
331
7CBD
  5
7CC1
331
7C44
  5
7C46
331
7CDF
  5
7CE0
331
7CF0
  5
7CF1
331
7C77
  5
7C78
331
811D
  5
811E
331
7F43
  5
7F44
331
7C88
  5
7C89
331
7C66
  5
7C67
331
7C33
  5
7C33
  0
ACDBDETAILVIEWSTYLE
  5
8216
102
{ACAD_XDICTIONARY
360
84B8
102
}
102
{ACAD_REACTORS
330
8215
102
}
330
8215
100
AcDbModelDocViewStyle
 70
     0
  3
Imperial24
290
     0
100
AcDbDetailViewStyle
 70
     0
 71
     0
 90
        3
 71
     1
340
8201
 40
0.24
340
0
 40
0.24
300

 40
0.36
280
     3
 71
     2
340
8208
 90
       25
 71
     3
340
8201
 40
0.24
 90
        1
 40
0.75
 90
        1
300
%<\AcVar ViewType \f "%tc1">% %<\AcVar ViewDetailId>%\PSCALE %<\AcVar ViewScale \f "%sn">%
 71
     4
340
8208
 90
       25
340
8208
 90
       25
280
     0
  0
LAYOUT
  5
821E
102
{ACAD_XDICTIONARY
360
84BC
102
}
102
{ACAD_REACTORS
330
820D
102
}
330
820D
100
AcDbPlotSettings
  1

  2
RICOH imagio MP W3600 RPCS
  4

  6

 40
0.0
 41
0.0
 42
0.0
 43
0.0
 44
0.0
 45
0.0
 46
0.0
 47
0.0
 48
0.0
 49
0.0
140
0.0
141
0.0
142
1.0
143
1.0
 70
  1712
 72
     0
 73
     0
 74
     0
  7

 75
     0
147
1.0
148
0.0
149
0.0
100
AcDbLayout
  1
Model
 70
     1
 71
     0
 10
0.0
 20
0.0
 11
12.0
 21
9.0
 12
0.0
 22
0.0
 32
0.0
 14
0.0
 24
0.0
 34
0.0
 15
0.0
 25
0.0
 35
0.0
146
0.0
 13
0.0
 23
0.0
 33
0.0
 16
1.0
 26
0.0
 36
0.0
 17
0.0
 27
1.0
 37
0.0
 76
     0
330
821B
331
8220
  0
LAYOUT
  5
821A
102
{ACAD_XDICTIONARY
360
84BA
102
}
102
{ACAD_REACTORS
330
820D
102
}
330
820D
100
AcDbPlotSettings
  1

  2
RICOH imagio MP W3600 RPCS
  4

  6

 40
0.0
 41
0.0
 42
0.0
 43
0.0
 44
0.0
 45
0.0
 46
0.0
 47
0.0
 48
0.0
 49
0.0
140
0.0
141
0.0
142
1.0
143
1.0
 70
   688
 72
     0
 73
     0
 74
     5
  7

 75
    16
147
1.0
148
0.0
149
0.0
100
AcDbLayout
  1
レイアウト1
 70
     1
 71
     1
 10
0.0
 20
0.0
 11
12.0
 21
9.0
 12
0.0
 22
0.0
 32
0.0
 14
1.000000000000000E+20
 24
1.000000000000000E+20
 34
1.000000000000000E+20
 15
-1.000000000000000E+20
 25
-1.000000000000000E+20
 35
-1.000000000000000E+20
146
0.0
 13
0.0
 23
0.0
 33
0.0
 16
1.0
 26
0.0
 36
0.0
 17
0.0
 27
1.0
 37
0.0
 76
     0
330
8217
  0
MATERIAL
  5
81C5
102
{ACAD_XDICTIONARY
360
81C6
102
}
102
{ACAD_REACTORS
330
81BC
102
}
330
81BC
100
AcDbMaterial
  1
ByBlock
 72
     0
 43
0.0208333333333333
 43
0.0
 43
0.0
 43
0.0
 43
0.0
 43
0.0208333333333333
 43
0.0
 43
0.0
 43
0.0
 43
0.0
 43
1.0
 43
0.0
 43
0.0
 43
0.0
 43
0.0
 43
1.0
 77
     0
 47
0.0208333333333333
 47
0.0
 47
0.0
 47
0.0
 47
0.0
 47
0.0208333333333333
 47
0.0
 47
0.0
 47
0.0
 47
0.0
 47
1.0
 47
0.0
 47
0.0
 47
0.0
 47
0.0
 47
1.0
171
     0
 49
0.0208333333333333
 49
0.0
 49
0.0
 49
0.0
 49
0.0
 49
0.0208333333333333
 49
0.0
 49
0.0
 49
0.0
 49
0.0
 49
1.0
 49
0.0
 49
0.0
 49
0.0
 49
0.0
 49
1.0
175
     0
142
0.0208333333333333
142
0.0
142
0.0
142
0.0
142
0.0
142
0.0208333333333333
142
0.0
142
0.0
142
0.0
142
0.0
142
1.0
142
0.0
142
0.0
142
0.0
142
0.0
142
1.0
179
     0
144
0.0208333333333333
144
0.0
144
0.0
144
0.0
144
0.0
144
0.0208333333333333
144
0.0
144
0.0
144
0.0
144
0.0
144
1.0
144
0.0
144
0.0
144
0.0
144
0.0
144
1.0
147
0.0208333333333333
147
0.0
147
0.0
147
0.0
147
0.0
147
0.0208333333333333
147
0.0
147
0.0
147
0.0
147
0.0
147
1.0
147
0.0
147
0.0
147
0.0
147
0.0
147
1.0
  0
MATERIAL
  5
81BD
102
{ACAD_XDICTIONARY
360
81BE
102
}
102
{ACAD_REACTORS
330
81BC
102
}
330
81BC
100
AcDbMaterial
  1
ByLayer
 72
     0
 43
0.0208333333333333
 43
0.0
 43
0.0
 43
0.0
 43
0.0
 43
0.0208333333333333
 43
0.0
 43
0.0
 43
0.0
 43
0.0
 43
1.0
 43
0.0
 43
0.0
 43
0.0
 43
0.0
 43
1.0
 77
     0
 47
0.0208333333333333
 47
0.0
 47
0.0
 47
0.0
 47
0.0
 47
0.0208333333333333
 47
0.0
 47
0.0
 47
0.0
 47
0.0
 47
1.0
 47
0.0
 47
0.0
 47
0.0
 47
0.0
 47
1.0
171
     0
 49
0.0208333333333333
 49
0.0
 49
0.0
 49
0.0
 49
0.0
 49
0.0208333333333333
 49
0.0
 49
0.0
 49
0.0
 49
0.0
 49
1.0
 49
0.0
 49
0.0
 49
0.0
 49
0.0
 49
1.0
175
     0
142
0.0208333333333333
142
0.0
142
0.0
142
0.0
142
0.0
142
0.0208333333333333
142
0.0
142
0.0
142
0.0
142
0.0
142
1.0
142
0.0
142
0.0
142
0.0
142
0.0
142
1.0
179
     0
144
0.0208333333333333
144
0.0
144
0.0
144
0.0
144
0.0
144
0.0208333333333333
144
0.0
144
0.0
144
0.0
144
0.0
144
1.0
144
0.0
144
0.0
144
0.0
144
0.0
144
1.0
147
0.0208333333333333
147
0.0
147
0.0
147
0.0
147
0.0
147
0.0208333333333333
147
0.0
147
0.0
147
0.0
147
0.0
147
1.0
147
0.0
147
0.0
147
0.0
147
0.0
147
1.0
  0
MATERIAL
  5
81CD
102
{ACAD_XDICTIONARY
360
81CE
102
}
102
{ACAD_REACTORS
330
81BC
102
}
330
81BC
100
AcDbMaterial
  1
Global
 72
     0
 43
0.0208333333333333
 43
0.0
 43
0.0
 43
0.0
 43
0.0
 43
0.0208333333333333
 43
0.0
 43
0.0
 43
0.0
 43
0.0
 43
1.0
 43
0.0
 43
0.0
 43
0.0
 43
0.0
 43
1.0
 77
     0
 47
0.0208333333333333
 47
0.0
 47
0.0
 47
0.0
 47
0.0
 47
0.0208333333333333
 47
0.0
 47
0.0
 47
0.0
 47
0.0
 47
1.0
 47
0.0
 47
0.0
 47
0.0
 47
0.0
 47
1.0
171
     0
 49
0.0208333333333333
 49
0.0
 49
0.0
 49
0.0
 49
0.0
 49
0.0208333333333333
 49
0.0
 49
0.0
 49
0.0
 49
0.0
 49
1.0
 49
0.0
 49
0.0
 49
0.0
 49
0.0
 49
1.0
175
     0
142
0.0208333333333333
142
0.0
142
0.0
142
0.0
142
0.0
142
0.0208333333333333
142
0.0
142
0.0
142
0.0
142
0.0
142
1.0
142
0.0
142
0.0
142
0.0
142
0.0
142
1.0
179
     0
144
0.0208333333333333
144
0.0
144
0.0
144
0.0
144
0.0
144
0.0208333333333333
144
0.0
144
0.0
144
0.0
144
0.0
144
1.0
144
0.0
144
0.0
144
0.0
144
0.0
144
1.0
147
0.0208333333333333
147
0.0
147
0.0
147
0.0
147
0.0
147
0.0208333333333333
147
0.0
147
0.0
147
0.0
147
0.0
147
1.0
147
0.0
147
0.0
147
0.0
147
0.0
147
1.0
  0
MLEADERSTYLE
  5
8212
102
{ACAD_REACTORS
330
8211
102
}
330
8211
100
AcDbMLeaderStyle
170
     2
171
     1
172
     0
 90
        2
 40
0.0
 41
0.0
173
     1
 91
-1056964608
340
8206
 92
       -2
290
     1
 42
0.09
291
     1
 43
0.36
  3
Standard
 44
0.18
300

342
8201
174
     1
178
     6
175
     1
176
     0
 93
-1056964608
 45
0.18
292
     0
297
     0
 46
0.18
 94
-1056964608
 47
1.0
 49
1.0
140
1.0
293
     1
141
0.0
294
     1
177
     0
142
1.0
295
     0
296
     0
143
0.125
1001
ACAD_MLEADERVER
1070
     2
  0
MLINESTYLE
  5
820B
102
{ACAD_REACTORS
330
820A
102
}
330
820A
100
AcDbMlineStyle
  2
STANDARD
 70
     0
  3

 62
   256
 51
90.0
 52
90.0
 71
     2
 49
0.5
 62
   256
  6
BYLAYER
 49
-0.5
 62
   256
  6
BYLAYER
  0
ACDBPLACEHOLDER
  5
81BB
102
{ACAD_REACTORS
330
81BA
102
}
330
81BA
  0
SCALE
  5
81EF
102
{ACAD_REACTORS
330
81EE
102
}
330
81EE
100
AcDbScale
 70
     0
300
1:1
140
1.0
141
1.0
290
     1
  0
SCALE
  5
81F0
102
{ACAD_REACTORS
330
81EE
102
}
330
81EE
100
AcDbScale
 70
     0
300
1/128" = 1'-0"
140
0.0078125
141
12.0
290
     0
  0
SCALE
  5
81F1
102
{ACAD_REACTORS
330
81EE
102
}
330
81EE
100
AcDbScale
 70
     0
300
1/64" = 1'-0"
140
0.015625
141
12.0
290
     0
  0
SCALE
  5
81F2
102
{ACAD_REACTORS
330
81EE
102
}
330
81EE
100
AcDbScale
 70
     0
300
1/32" = 1'-0"
140
0.03125
141
12.0
290
     0
  0
SCALE
  5
81F3
102
{ACAD_REACTORS
330
81EE
102
}
330
81EE
100
AcDbScale
 70
     0
300
1/16" = 1'-0"
140
0.0625
141
12.0
290
     0
  0
SCALE
  5
81F4
102
{ACAD_REACTORS
330
81EE
102
}
330
81EE
100
AcDbScale
 70
     0
300
3/32" = 1'-0"
140
0.09375
141
12.0
290
     0
  0
SCALE
  5
81F5
102
{ACAD_REACTORS
330
81EE
102
}
330
81EE
100
AcDbScale
 70
     0
300
1/8" = 1'-0"
140
0.125
141
12.0
290
     0
  0
SCALE
  5
81F6
102
{ACAD_REACTORS
330
81EE
102
}
330
81EE
100
AcDbScale
 70
     0
300
3/16" = 1'-0"
140
0.1875
141
12.0
290
     0
  0
SCALE
  5
81F7
102
{ACAD_REACTORS
330
81EE
102
}
330
81EE
100
AcDbScale
 70
     0
300
1/4" = 1'-0"
140
0.25
141
12.0
290
     0
  0
SCALE
  5
81F8
102
{ACAD_REACTORS
330
81EE
102
}
330
81EE
100
AcDbScale
 70
     0
300
3/8" = 1'-0"
140
0.375
141
12.0
290
     0
  0
SCALE
  5
81F9
102
{ACAD_REACTORS
330
81EE
102
}
330
81EE
100
AcDbScale
 70
     0
300
1/2" = 1'-0"
140
0.5
141
12.0
290
     0
  0
SCALE
  5
81FA
102
{ACAD_REACTORS
330
81EE
102
}
330
81EE
100
AcDbScale
 70
     0
300
3/4" = 1'-0"
140
0.75
141
12.0
290
     0
  0
SCALE
  5
81FB
102
{ACAD_REACTORS
330
81EE
102
}
330
81EE
100
AcDbScale
 70
     0
300
1" = 1'-0"
140
1.0
141
12.0
290
     0
  0
SCALE
  5
81FC
102
{ACAD_REACTORS
330
81EE
102
}
330
81EE
100
AcDbScale
 70
     0
300
1-1/2" = 1'-0"
140
1.5
141
12.0
290
     0
  0
SCALE
  5
81FD
102
{ACAD_REACTORS
330
81EE
102
}
330
81EE
100
AcDbScale
 70
     0
300
3" = 1'-0"
140
3.0
141
12.0
290
     0
  0
SCALE
  5
81FE
102
{ACAD_REACTORS
330
81EE
102
}
330
81EE
100
AcDbScale
 70
     0
300
6" = 1'-0"
140
6.0
141
12.0
290
     0
  0
SCALE
  5
81FF
102
{ACAD_REACTORS
330
81EE
102
}
330
81EE
100
AcDbScale
 70
     0
300
1'-0" = 1'-0"
140
12.0
141
12.0
290
     0
  0
ACDBSECTIONVIEWSTYLE
  5
8214
102
{ACAD_XDICTIONARY
360
84B6
102
}
102
{ACAD_REACTORS
330
8213
102
}
330
8213
100
AcDbModelDocViewStyle
 70
     0
  3
Imperial24
290
     0
100
AcDbSectionViewStyle
 70
     0
 71
     0
 90
       78
 71
     1
340
8201
 40
0.24
340
0
340
0
 40
0.24
300
I, O, Q, S, X, Z
 40
0.48
 90
        3
 40
0.18
 90
        1
 71
     2
340
8208
 90
       25
340
8208
 90
       50
 40
0.24
 40
0.0
 40
0.24
 71
     3
340
8201
 40
0.24
 90
        1
 40
0.75
 90
        1
300
%<\AcVar ViewType \f "%tc1">% %<\AcVar ViewSectionStartId>%-%<\AcVar ViewSectionEndId>%\PSCALE %<\AcVar ViewScale \f "%sn">%
 71
     4
300
ANSI31
 40
1.0
 90
        0
290
     0
290
     0
 90
        6
 40
0.0
 40
1.570796326794896
 40
0.2617993877991494
 40
1.308996938995747
 40
-0.2617993877991494
 40
1.832595714594046
  0
TABLESTYLE
  5
8210
102
{ACAD_XDICTIONARY
360
847D
102
}
102
{ACAD_REACTORS
330
820F
102
}
330
820F
100
AcDbTableStyle
  3
Standard
 70
     0
 71
     0
 40
0.06
 41
0.06
280
     0
281
     0
  7
STANDARD
140
0.18
170
     2
 62
     0
 63
     7
283
     0
274
    -2
284
     1
 64
     0
275
    -2
285
     1
 65
     0
276
    -2
286
     1
 66
     0
277
    -2
287
     1
 67
     0
278
    -2
288
     1
 68
     0
279
    -2
289
     1
 69
     0
  7
STANDARD
140
0.25
170
     5
 62
     0
 63
     7
283
     0
274
    -2
284
     1
 64
     0
275
    -2
285
     1
 65
     0
276
    -2
286
     1
 66
     0
277
    -2
287
     1
 67
     0
278
    -2
288
     1
 68
     0
279
    -2
289
     1
 69
     0
  7
STANDARD
140
0.18
170
     5
 62
     0
 63
     7
283
     0
274
    -2
284
     1
 64
     0
275
    -2
285
     1
 65
     0
276
    -2
286
     1
 66
     0
277
    -2
287
     1
 67
     0
278
    -2
288
     1
 68
     0
279
    -2
289
     1
 69
     0
  0
VISUALSTYLE
  5
81DB
102
{ACAD_XDICTIONARY
360
848E
102
}
102
{ACAD_REACTORS
330
81D5
102
}
330
81D5
100
AcDbVisualStyle
  2
2dWireframe
 70
     4
 71
     0
 72
     2
 73
     0
 90
        0
 40
-0.6
 41
-30.0
 62
     5
 63
     7
 74
     1
 91
        4
 64
     7
 65
   257
 75
     1
175
     1
 42
1.0
 92
        0
 66
   257
 43
1.0
 76
     1
 77
     6
 78
     2
 67
     7
 79
     5
170
     0
171
     0
290
     0
174
     0
 93
        1
 44
0.0
173
     0
291
     0
 45
0.0
1001
ACAD
1000
AcDbSavedByObjectVersion
1070
     0
  0
VISUALSTYLE
  5
81DA
102
{ACAD_XDICTIONARY
360
848C
102
}
102
{ACAD_REACTORS
330
81D5
102
}
330
81D5
100
AcDbVisualStyle
  2
Basic
 70
     7
 71
     1
 72
     0
 73
     1
 90
        0
 40
-0.6
 41
-30.0
 62
     5
 63
     7
 74
     0
 91
        4
 64
     7
 65
   257
 75
     1
175
     1
 42
1.0
 92
        8
 66
     7
 43
1.0
 76
     1
 77
     6
 78
     2
 67
     7
 79
     5
170
     0
171
     0
290
     0
174
     0
 93
        1
 44
0.0
173
     0
291
     1
 45
0.0
1001
ACAD
1000
AcDbSavedByObjectVersion
1070
     0
  0
VISUALSTYLE
  5
81E1
102
{ACAD_XDICTIONARY
360
849A
102
}
102
{ACAD_REACTORS
330
81D5
102
}
330
81D5
100
AcDbVisualStyle
  2
Brighten
 70
    12
 71
     2
 72
     2
 73
     0
 90
        0
 40
-0.6
 41
-30.0
 62
     5
 63
     7
 74
     1
 91
        4
 64
     7
 65
   257
 75
     1
175
     1
 42
1.0
 92
        8
 66
     7
 43
1.0
 76
     1
 77
     6
 78
     2
 67
     7
 79
     5
170
     0
171
     0
290
     0
174
     0
 93
        1
 44
50.0
173
     0
291
     1
 45
0.0
1001
ACAD
1000
AcDbSavedByObjectVersion
1070
     0
  0
VISUALSTYLE
  5
81E5
102
{ACAD_XDICTIONARY
360
84A2
102
}
102
{ACAD_REACTORS
330
81D5
102
}
330
81D5
100
AcDbVisualStyle
  2
ColorChange
 70
    16
 71
     2
 72
     2
 73
     3
 90
        0
 40
-0.6
 41
-30.0
 62
     5
 63
     8
 74
     1
 91
        4
 64
     7
 65
   257
 75
     1
175
     1
 42
1.0
 92
        8
 66
     8
 43
1.0
 76
     1
 77
     6
 78
     2
 67
     7
 79
     5
170
     0
171
     0
290
     0
174
     0
 93
        1
 44
0.0
173
     0
291
     1
 45
0.0
1001
ACAD
1000
AcDbSavedByObjectVersion
1070
     0
  0
VISUALSTYLE
  5
81DE
102
{ACAD_XDICTIONARY
360
8494
102
}
102
{ACAD_REACTORS
330
81D5
102
}
330
81D5
100
AcDbVisualStyle
  2
Conceptual
 70
     9
 71
     3
 72
     2
 73
     0
 90
        0
 40
-0.6
 41
-30.0
 62
     5
 63
     7
 74
     2
 91
        2
 64
     7
 65
   257
 75
     1
175
     1
 42
179.0
 92
        8
 66
     7
 43
1.0
 76
     1
 77
     6
 78
     2
 67
     7
 79
     3
170
     0
171
     0
290
     0
174
     0
 93
        1
 44
0.0
173
     0
291
     0
 45
0.0
1001
ACAD
1000
AcDbSavedByObjectVersion
1070
     0
  0
VISUALSTYLE
  5
81E0
102
{ACAD_XDICTIONARY
360
8498
102
}
102
{ACAD_REACTORS
330
81D5
102
}
330
81D5
100
AcDbVisualStyle
  2
Dim
 70
    11
 71
     2
 72
     2
 73
     0
 90
        0
 40
-0.6
 41
-30.0
 62
     5
 63
     7
 74
     1
 91
        4
 64
     7
 65
   257
 75
     1
175
     1
 42
1.0
 92
        8
 66
     7
 43
1.0
 76
     1
 77
     6
 78
     2
 67
     7
 79
     5
170
     0
171
     0
290
     0
174
     0
 93
        1
 44
-50.0
173
     0
291
     1
 45
0.0
1001
ACAD
1000
AcDbSavedByObjectVersion
1070
     0
  0
VISUALSTYLE
  5
81ED
102
{ACAD_XDICTIONARY
360
84B2
102
}
102
{ACAD_REACTORS
330
81D5
102
}
330
81D5
100
AcDbVisualStyle
  2
EdgeColorOff
 70
    22
 71
     2
 72
     2
 73
     0
 90
        0
 40
-0.6
 41
-30.0
 62
     5
 63
     7
 74
     1
 91
        4
 64
     7
 65
   257
 75
     1
175
     1
 42
1.0
 92
        8
 66
     7
 43
1.0
 76
     1
 77
     6
 78
     2
 67
     7
 79
     5
170
     0
171
     0
290
     0
174
     0
 93
        1
 44
0.0
173
     0
291
     1
 45
0.0
1001
ACAD
1000
AcDbSavedByObjectVersion
1070
     0
  0
VISUALSTYLE
  5
81E4
102
{ACAD_XDICTIONARY
360
84A0
102
}
102
{ACAD_REACTORS
330
81D5
102
}
330
81D5
100
AcDbVisualStyle
  2
Facepattern
 70
    15
 71
     2
 72
     2
 73
     0
 90
        0
 40
-0.6
 41
-30.0
 62
     5
 63
     7
 74
     1
 91
        4
 64
     7
 65
   257
 75
     1
175
     1
 42
1.0
 92
        8
 66
     7
 43
1.0
 76
     1
 77
     6
 78
     2
 67
     7
 79
     5
170
     0
171
     0
290
     0
174
     0
 93
        1
 44
0.0
173
     0
291
     1
 45
0.0
1001
ACAD
1000
AcDbSavedByObjectVersion
1070
     0
  0
VISUALSTYLE
  5
81D6
102
{ACAD_XDICTIONARY
360
8484
102
}
102
{ACAD_REACTORS
330
81D5
102
}
330
81D5
100
AcDbVisualStyle
  2
Flat
 70
     0
 71
     2
 72
     1
 73
     1
 90
        2
 40
-0.6
 41
30.0
 62
     5
 63
     7
 74
     0
 91
        0
 64
     7
 65
   257
 75
     1
175
     1
 42
1.0
 92
        8
 66
     7
 43
1.0
 76
     1
 77
     6
 78
     2
 67
     7
 79
     5
170
     0
171
     0
290
     0
174
     0
 93
       13
 44
0.0
173
     0
291
     1
 45
0.0
1001
ACAD
1000
AcDbSavedByObjectVersion
1070
     0
  0
VISUALSTYLE
  5
81D7
102
{ACAD_XDICTIONARY
360
8486
102
}
102
{ACAD_REACTORS
330
81D5
102
}
330
81D5
100
AcDbVisualStyle
  2
FlatWithEdges
 70
     1
 71
     2
 72
     1
 73
     1
 90
        2
 40
-0.6
 41
30.0
 62
     5
 63
     7
 74
     1
 91
        0
 64
     7
 65
   257
 75
     1
175
     1
 42
1.0
 92
        0
 66
   257
 43
1.0
 76
     1
 77
     6
 78
     2
 67
     7
 79
     5
170
     0
171
     0
290
     0
174
     0
 93
       13
 44
0.0
173
     0
291
     1
 45
0.0
1001
ACAD
1000
AcDbSavedByObjectVersion
1070
     0
  0
VISUALSTYLE
  5
81D8
102
{ACAD_XDICTIONARY
360
8488
102
}
102
{ACAD_REACTORS
330
81D5
102
}
330
81D5
100
AcDbVisualStyle
  2
Gouraud
 70
     2
 71
     2
 72
     2
 73
     1
 90
        2
 40
-0.6
 41
30.0
 62
     5
 63
     7
 74
     0
 91
        0
 64
     7
 65
   257
 75
     1
175
     1
 42
1.0
 92
        0
 66
     7
 43
1.0
 76
     1
 77
     6
 78
     2
 67
     7
 79
     5
170
     0
171
     0
290
     0
174
     0
 93
       13
 44
0.0
173
     0
291
     1
 45
0.0
1001
ACAD
1000
AcDbSavedByObjectVersion
1070
     0
  0
VISUALSTYLE
  5
81D9
102
{ACAD_XDICTIONARY
360
848A
102
}
102
{ACAD_REACTORS
330
81D5
102
}
330
81D5
100
AcDbVisualStyle
  2
GouraudWithEdges
 70
     3
 71
     2
 72
     2
 73
     1
 90
        2
 40
-0.6
 41
30.0
 62
     5
 63
     7
 74
     1
 91
        0
 64
     7
 65
   257
 75
     1
175
     1
 42
1.0
 92
        0
 66
   257
 43
1.0
 76
     1
 77
     6
 78
     2
 67
     7
 79
     5
170
     0
171
     0
290
     0
174
     0
 93
       13
 44
0.0
173
     0
291
     1
 45
0.0
1001
ACAD
1000
AcDbSavedByObjectVersion
1070
     0
  0
VISUALSTYLE
  5
81DD
102
{ACAD_XDICTIONARY
360
8492
102
}
102
{ACAD_REACTORS
330
81D5
102
}
330
81D5
100
AcDbVisualStyle
  2
Hidden
 70
     6
 71
     1
 72
     2
 73
     2
 90
        0
 40
-0.6
 41
-30.0
 62
     5
 63
     7
 74
     2
 91
        2
 64
     7
 65
   257
 75
     2
175
     1
 42
40.0
 92
        0
 66
   257
 43
1.0
 76
     1
 77
     6
 78
     2
 67
     7
 79
     3
170
     0
171
     0
290
     0
174
     0
 93
        1
 44
0.0
173
     0
291
     0
 45
0.0
1001
ACAD
1000
AcDbSavedByObjectVersion
1070
     0
  0
VISUALSTYLE
  5
81EB
102
{ACAD_XDICTIONARY
360
84AE
102
}
102
{ACAD_REACTORS
330
81D5
102
}
330
81D5
100
AcDbVisualStyle
  2
JitterOff
 70
    20
 71
     2
 72
     2
 73
     0
 90
        0
 40
-0.6
 41
-30.0
 62
     5
 63
     7
 74
     1
 91
        4
 64
     7
 65
   257
 75
     1
175
     1
 42
1.0
 92
       10
 66
     7
 43
1.0
 76
     1
 77
     6
 78
     2
 67
     7
 79
     5
170
     0
171
     0
290
     0
174
     0
 93
        1
 44
0.0
173
     0
291
     1
 45
0.0
1001
ACAD
1000
AcDbSavedByObjectVersion
1070
     0
  0
VISUALSTYLE
  5
81E3
102
{ACAD_XDICTIONARY
360
849E
102
}
102
{ACAD_REACTORS
330
81D5
102
}
330
81D5
100
AcDbVisualStyle
  2
Linepattern
 70
    14
 71
     2
 72
     2
 73
     0
 90
        0
 40
-0.6
 41
-30.0
 62
     5
 63
     7
 74
     1
 91
        4
 64
     7
 65
   257
 75
     7
175
     7
 42
1.0
 92
        8
 66
     7
 43
1.0
 76
     1
 77
     6
 78
     2
 67
     7
 79
     5
170
     0
171
     0
290
     0
174
     0
 93
        1
 44
0.0
173
     0
291
     1
 45
0.0
1001
ACAD
1000
AcDbSavedByObjectVersion
1070
     0
  0
VISUALSTYLE
  5
81EC
102
{ACAD_XDICTIONARY
360
84B0
102
}
102
{ACAD_REACTORS
330
81D5
102
}
330
81D5
100
AcDbVisualStyle
  2
OverhangOff
 70
    21
 71
     2
 72
     2
 73
     0
 90
        0
 40
-0.6
 41
-30.0
 62
     5
 63
     7
 74
     1
 91
        4
 64
     7
 65
   257
 75
     1
175
     1
 42
1.0
 92
        9
 66
     7
 43
1.0
 76
     1
 77
     6
 78
     2
 67
     7
 79
     5
170
     0
171
     0
290
     0
174
     0
 93
        1
 44
0.0
173
     0
291
     1
 45
0.0
1001
ACAD
1000
AcDbSavedByObjectVersion
1070
     0
  0
VISUALSTYLE
  5
81DF
102
{ACAD_XDICTIONARY
360
8496
102
}
102
{ACAD_REACTORS
330
81D5
102
}
330
81D5
100
AcDbVisualStyle
  2
Realistic
 70
     8
 71
     2
 72
     3
 73
     0
 90
        2
 40
-0.6
 41
30.0
 62
     5
 63
     7
 74
     0
 91
        0
 64
     7
 65
   257
 75
     1
175
     1
 42
1.0
 92
        8
 66
   257
 43
1.0
 76
     1
 77
     6
 78
     2
 67
     7
 79
     3
170
     0
171
     0
290
     0
174
     0
 93
       13
 44
0.0
173
     0
291
     0
 45
0.0
1001
ACAD
1000
AcDbSavedByObjectVersion
1070
     0
  0
VISUALSTYLE
  5
81EA
102
{ACAD_XDICTIONARY
360
84AC
102
}
102
{ACAD_REACTORS
330
81D5
102
}
330
81D5
100
AcDbVisualStyle
  2
Shaded
 70
    27
 71
     2
 72
     2
 73
     1
 90
        2
 40
-0.6
 41
30.0
 62
     5
 63
     7
 74
     0
 91
        4
 64
     7
 65
   257
 75
     1
175
     1
 42
1.0
 92
        8
 66
   257
 43
1.0
 76
     1
 77
     6
 78
     2
 67
     8
 79
     3
170
     0
171
     0
290
     0
174
     0
 93
        5
 44
0.0
173
     0
291
     0
 45
0.0
1001
ACAD
1000
AcDbSavedByObjectVersion
1070
     0
  0
VISUALSTYLE
  5
81E9
102
{ACAD_XDICTIONARY
360
84AA
102
}
102
{ACAD_REACTORS
330
81D5
102
}
330
81D5
100
AcDbVisualStyle
  2
Shaded with edges
 70
    26
 71
     2
 72
     2
 73
     1
 90
        2
 40
-0.6
 41
30.0
 62
     5
 63
     7
 74
     1
 91
       10
 64
     7
 65
   257
 75
     2
175
     1
 42
1.0
 92
        8
 66
   257
 43
1.0
 76
     1
 77
     6
 78
     2
 67
     7
 79
     3
170
     0
171
     0
290
     0
174
     0
 93
        5
 44
0.0
173
     0
291
     0
 45
0.0
1001
ACAD
1000
AcDbSavedByObjectVersion
1070
     0
  0
VISUALSTYLE
  5
81E6
102
{ACAD_XDICTIONARY
360
84A4
102
}
102
{ACAD_REACTORS
330
81D5
102
}
330
81D5
100
AcDbVisualStyle
  2
Shades of Gray
 70
    23
 71
     2
 72
     2
 73
     3
 90
        0
 40
-0.6
 41
-30.0
 62
     5
 63
     7
 74
     2
 91
        2
 64
     7
 65
     7
 75
     1
175
     1
 42
40.0
 92
        8
 66
     7
 43
1.0
 76
     1
 77
     6
 78
     2
 67
     7
 79
     3
170
     0
171
     0
290
     0
174
     0
 93
        1
 44
0.0
173
     0
291
     0
 45
0.0
1001
ACAD
1000
AcDbSavedByObjectVersion
1070
     0
  0
VISUALSTYLE
  5
81E7
102
{ACAD_XDICTIONARY
360
84A6
102
}
102
{ACAD_REACTORS
330
81D5
102
}
330
81D5
100
AcDbVisualStyle
  2
Sketchy
 70
    24
 71
     1
 72
     2
 73
     2
 90
        0
 40
-0.6
 41
-30.0
 62
     5
 63
     7
 74
     2
 91
        2
 64
     7
 65
     7
 75
     1
175
     1
 42
40.0
 92
       11
 66
     7
 43
1.0
 76
     1
 77
     6
 78
     2
 67
     7
 79
     6
170
     0
171
     0
290
     0
174
     0
 93
        1
 44
0.0
173
     0
291
     0
 45
0.0
1001
ACAD
1000
AcDbSavedByObjectVersion
1070
     0
  0
VISUALSTYLE
  5
81E2
102
{ACAD_XDICTIONARY
360
849C
102
}
102
{ACAD_REACTORS
330
81D5
102
}
330
81D5
100
AcDbVisualStyle
  2
Thicken
 70
    13
 71
     2
 72
     2
 73
     0
 90
        0
 40
-0.6
 41
-30.0
 62
     5
 63
     7
 74
     1
 91
        4
 64
     7
 65
   257
 75
     1
175
     1
 42
1.0
 92
       12
 66
     7
 43
1.0
 76
     1
 77
     6
 78
     2
 67
     7
 79
     5
170
     0
171
     0
290
     0
174
     0
 93
        1
 44
0.0
173
     0
291
     1
 45
0.0
1001
ACAD
1000
AcDbSavedByObjectVersion
1070
     0
  0
VISUALSTYLE
  5
81DC
102
{ACAD_XDICTIONARY
360
8490
102
}
102
{ACAD_REACTORS
330
81D5
102
}
330
81D5
100
AcDbVisualStyle
  2
Wireframe
 70
     5
 71
     0
 72
     2
 73
     0
 90
        0
 40
-0.6
 41
-30.0
 62
     5
 63
     7
 74
     1
 91
        4
 64
     7
 65
   257
 75
     1
175
     1
 42
1.0
 92
        0
 66
   257
 43
1.0
 76
     1
 77
     6
 78
     2
 67
     7
 79
     3
170
     0
171
     0
290
     0
174
     0
 93
        1
 44
0.0
173
     0
291
     0
 45
0.0
1001
ACAD
1000
AcDbSavedByObjectVersion
1070
     0
  0
VISUALSTYLE
  5
81E8
102
{ACAD_XDICTIONARY
360
84A8
102
}
102
{ACAD_REACTORS
330
81D5
102
}
330
81D5
100
AcDbVisualStyle
  2
X-Ray
 70
    25
 71
     2
 72
     2
 73
     1
 90
        1
 40
0.5
 41
-30.0
 62
     5
 63
     7
 74
     1
 91
        0
 64
     7
 65
   257
 75
     1
175
     1
 42
1.0
 92
        8
 66
     7
 43
1.0
 76
     1
 77
     6
 78
     2
 67
     7
 79
     3
170
     0
171
     0
290
     0
174
     0
 93
       13
 44
0.0
173
     0
291
     0
 45
0.0
1001
ACAD
1000
AcDbSavedByObjectVersion
1070
     0
  0
DICTIONARYVAR
  5
8477
102
{ACAD_REACTORS
330
8472
102
}
330
8472
100
DictionaryVariables
280
     0
  1
1:1
  0
DICTIONARYVAR
  5
8474
102
{ACAD_REACTORS
330
8472
102
}
330
8472
100
DictionaryVariables
280
     0
  1
STANDARD
  0
DICTIONARYVAR
  5
8473
102
{ACAD_REACTORS
330
8472
102
}
330
8472
100
DictionaryVariables
280
     0
  1
STANDARD
  0
DICTIONARYVAR
  5
8475
102
{ACAD_REACTORS
330
8472
102
}
330
8472
100
DictionaryVariables
280
     0
  1
Imperial24
  0
DICTIONARYVAR
  5
8476
102
{ACAD_REACTORS
330
8472
102
}
330
8472
100
DictionaryVariables
280
     0
  1
Imperial24
  0
DICTIONARYVAR
  5
847A
102
{ACAD_REACTORS
330
8472
102
}
330
8472
100
DictionaryVariables
280
     0
  1
1
  0
DICTIONARYVAR
  5
8479
102
{ACAD_REACTORS
330
8472
102
}
330
8472
100
DictionaryVariables
280
     0
  1
0
  0
DICTIONARYVAR
  5
8478
102
{ACAD_REACTORS
330
8472
102
}
330
8472
100
DictionaryVariables
280
     0
  1
127
  0
DICTIONARYVAR
  5
847B
102
{ACAD_REACTORS
330
8472
102
}
330
8472
100
DictionaryVariables
280
     0
  1
2
  0
DICTIONARY
  5
84B8
330
8216
100
AcDbDictionary
280
     1
281
     1
  3
ACAD_XREC_ROUNDTRIP
360
84B9
  0
DICTIONARY
  5
84BC
330
821E
100
AcDbDictionary
280
     1
281
     1
  3
ACAD_XREC_ROUNDTRIP
360
84BD
  0
DICTIONARY
  5
84BA
330
821A
100
AcDbDictionary
280
     1
281
     1
  3
ACAD_XREC_ROUNDTRIP
360
84BB
  0
DICTIONARY
  5
81C6
330
81C5
100
AcDbDictionary
280
     1
281
     1
  3
ACAD_XREC_ROUNDTRIP
360
8482
  3
BUMPTILE
360
81C8
  3
DIFFUSETILE
360
81C7
  3
OPACITYTILE
360
81CB
  3
REFLECTIONTILE
360
81CA
  3
REFRACTIONTILE
360
81CC
  3
SPECULARTILE
360
81C9
  0
DICTIONARY
  5
81BE
330
81BD
100
AcDbDictionary
280
     1
281
     1
  3
ACAD_XREC_ROUNDTRIP
360
8481
  3
BUMPTILE
360
81C0
  3
DIFFUSETILE
360
81BF
  3
OPACITYTILE
360
81C3
  3
REFLECTIONTILE
360
81C2
  3
REFRACTIONTILE
360
81C4
  3
SPECULARTILE
360
81C1
  0
DICTIONARY
  5
81CE
330
81CD
100
AcDbDictionary
280
     1
281
     1
  3
ACAD_XREC_ROUNDTRIP
360
8483
  3
BUMPTILE
360
81D0
  3
DIFFUSETILE
360
81CF
  3
FBXASSET
360
82B1
  3
OPACITYTILE
360
81D3
  3
REFLECTIONTILE
360
81D2
  3
REFRACTIONTILE
360
81D4
  3
SPECULARTILE
360
81D1
  0
DICTIONARY
  5
84B6
330
8214
100
AcDbDictionary
280
     1
281
     1
  3
ACAD_XREC_ROUNDTRIP
360
84B7
  0
DICTIONARY
  5
847D
330
8210
100
AcDbDictionary
280
     1
281
     1
  3
ACAD_ROUNDTRIP_2008_TABLESTYLE_CELLSTYLEMAP
360
847E
  3
ACAD_XREC_ROUNDTRIP
360
84B4
  0
DICTIONARY
  5
848E
330
81DB
100
AcDbDictionary
280
     1
281
     1
  3
ACAD_XREC_ROUNDTRIP
360
848F
  0
DICTIONARY
  5
848C
330
81DA
100
AcDbDictionary
280
     1
281
     1
  3
ACAD_XREC_ROUNDTRIP
360
848D
  0
DICTIONARY
  5
849A
330
81E1
100
AcDbDictionary
280
     1
281
     1
  3
ACAD_XREC_ROUNDTRIP
360
849B
  0
DICTIONARY
  5
84A2
330
81E5
100
AcDbDictionary
280
     1
281
     1
  3
ACAD_XREC_ROUNDTRIP
360
84A3
  0
DICTIONARY
  5
8494
330
81DE
100
AcDbDictionary
280
     1
281
     1
  3
ACAD_XREC_ROUNDTRIP
360
8495
  0
DICTIONARY
  5
8498
330
81E0
100
AcDbDictionary
280
     1
281
     1
  3
ACAD_XREC_ROUNDTRIP
360
8499
  0
DICTIONARY
  5
84B2
330
81ED
100
AcDbDictionary
280
     1
281
     1
  3
ACAD_XREC_ROUNDTRIP
360
84B3
  0
DICTIONARY
  5
84A0
330
81E4
100
AcDbDictionary
280
     1
281
     1
  3
ACAD_XREC_ROUNDTRIP
360
84A1
  0
DICTIONARY
  5
8484
330
81D6
100
AcDbDictionary
280
     1
281
     1
  3
ACAD_XREC_ROUNDTRIP
360
8485
  0
DICTIONARY
  5
8486
330
81D7
100
AcDbDictionary
280
     1
281
     1
  3
ACAD_XREC_ROUNDTRIP
360
8487
  0
DICTIONARY
  5
8488
330
81D8
100
AcDbDictionary
280
     1
281
     1
  3
ACAD_XREC_ROUNDTRIP
360
8489
  0
DICTIONARY
  5
848A
330
81D9
100
AcDbDictionary
280
     1
281
     1
  3
ACAD_XREC_ROUNDTRIP
360
848B
  0
DICTIONARY
  5
8492
330
81DD
100
AcDbDictionary
280
     1
281
     1
  3
ACAD_XREC_ROUNDTRIP
360
8493
  0
DICTIONARY
  5
84AE
330
81EB
100
AcDbDictionary
280
     1
281
     1
  3
ACAD_XREC_ROUNDTRIP
360
84AF
  0
DICTIONARY
  5
849E
330
81E3
100
AcDbDictionary
280
     1
281
     1
  3
ACAD_XREC_ROUNDTRIP
360
849F
  0
DICTIONARY
  5
84B0
330
81EC
100
AcDbDictionary
280
     1
281
     1
  3
ACAD_XREC_ROUNDTRIP
360
84B1
  0
DICTIONARY
  5
8496
330
81DF
100
AcDbDictionary
280
     1
281
     1
  3
ACAD_XREC_ROUNDTRIP
360
8497
  0
DICTIONARY
  5
84AC
330
81EA
100
AcDbDictionary
280
     1
281
     1
  3
ACAD_XREC_ROUNDTRIP
360
84AD
  0
DICTIONARY
  5
84AA
330
81E9
100
AcDbDictionary
280
     1
281
     1
  3
ACAD_XREC_ROUNDTRIP
360
84AB
  0
DICTIONARY
  5
84A4
330
81E6
100
AcDbDictionary
280
     1
281
     1
  3
ACAD_XREC_ROUNDTRIP
360
84A5
  0
DICTIONARY
  5
84A6
330
81E7
100
AcDbDictionary
280
     1
281
     1
  3
ACAD_XREC_ROUNDTRIP
360
84A7
  0
DICTIONARY
  5
849C
330
81E2
100
AcDbDictionary
280
     1
281
     1
  3
ACAD_XREC_ROUNDTRIP
360
849D
  0
DICTIONARY
  5
8490
330
81DC
100
AcDbDictionary
280
     1
281
     1
  3
ACAD_XREC_ROUNDTRIP
360
8491
  0
DICTIONARY
  5
84A8
330
81E8
100
AcDbDictionary
280
     1
281
     1
  3
ACAD_XREC_ROUNDTRIP
360
84A9
  0
XRECORD
  5
84B9
102
{ACAD_REACTORS
330
84B8
102
}
330
84B8
100
AcDbXrecord
280
     1
102
DISPLAYNAME
  1
Imperial24
102
FLAGS
 90
        0
  0
XRECORD
  5
84BD
102
{ACAD_REACTORS
330
84BC
102
}
330
84BC
100
AcDbXrecord
280
     1
102
SHADEPLOT
 70
     0
102
SHADEPLOTRESLEVEL
 70
     2
102
SHADEPLOTCUSTOMDPI
 70
   300
  0
XRECORD
  5
84BB
102
{ACAD_REACTORS
330
84BA
102
}
330
84BA
100
AcDbXrecord
280
     1
102
SHADEPLOT
 70
     0
102
SHADEPLOTRESLEVEL
 70
     2
102
SHADEPLOTCUSTOMDPI
 70
   300
  0
XRECORD
  5
8482
102
{ACAD_REACTORS
330
81C6
102
}
330
81C6
100
AcDbXrecord
280
     1
102
MATERIAL
148
0.0
149
0.0
149
0.0
 93
        0
 94
      127
282
     0
 72
     0
 77
     0
171
     0
175
     0
179
     0
273
     0
  0
XRECORD
  5
81C8
102
{ACAD_REACTORS
330
81C6
102
}
330
81C6
100
AcDbXrecord
280
     1
270
     1
271
     1
  0
XRECORD
  5
81C7
102
{ACAD_REACTORS
330
81C6
102
}
330
81C6
100
AcDbXrecord
280
     1
270
     1
271
     1
  0
XRECORD
  5
81CB
102
{ACAD_REACTORS
330
81C6
102
}
330
81C6
100
AcDbXrecord
280
     1
270
     1
271
     1
  0
XRECORD
  5
81CA
102
{ACAD_REACTORS
330
81C6
102
}
330
81C6
100
AcDbXrecord
280
     1
270
     1
271
     1
  0
XRECORD
  5
81CC
102
{ACAD_REACTORS
330
81C6
102
}
330
81C6
100
AcDbXrecord
280
     1
270
     1
271
     1
  0
XRECORD
  5
81C9
102
{ACAD_REACTORS
330
81C6
102
}
330
81C6
100
AcDbXrecord
280
     1
270
     1
271
     1
  0
XRECORD
  5
8481
102
{ACAD_REACTORS
330
81BE
102
}
330
81BE
100
AcDbXrecord
280
     1
102
MATERIAL
148
0.0
149
0.0
149
0.0
 93
        0
 94
      127
282
     0
 72
     0
 77
     0
171
     0
175
     0
179
     0
273
     0
  0
XRECORD
  5
81C0
102
{ACAD_REACTORS
330
81BE
102
}
330
81BE
100
AcDbXrecord
280
     1
270
     1
271
     1
  0
XRECORD
  5
81BF
102
{ACAD_REACTORS
330
81BE
102
}
330
81BE
100
AcDbXrecord
280
     1
270
     1
271
     1
  0
XRECORD
  5
81C3
102
{ACAD_REACTORS
330
81BE
102
}
330
81BE
100
AcDbXrecord
280
     1
270
     1
271
     1
  0
XRECORD
  5
81C2
102
{ACAD_REACTORS
330
81BE
102
}
330
81BE
100
AcDbXrecord
280
     1
270
     1
271
     1
  0
XRECORD
  5
81C4
102
{ACAD_REACTORS
330
81BE
102
}
330
81BE
100
AcDbXrecord
280
     1
270
     1
271
     1
  0
XRECORD
  5
81C1
102
{ACAD_REACTORS
330
81BE
102
}
330
81BE
100
AcDbXrecord
280
     1
270
     1
271
     1
  0
XRECORD
  5
8483
102
{ACAD_REACTORS
330
81CE
102
}
330
81CE
100
AcDbXrecord
280
     1
102
MATERIAL
148
0.0
149
0.0
149
0.0
 93
        0
 94
      127
282
     0
 72
     0
 77
     0
171
     0
175
     0
179
     0
273
     0
  0
XRECORD
  5
81D0
102
{ACAD_REACTORS
330
81CE
102
}
330
81CE
100
AcDbXrecord
280
     1
270
     1
271
     1
  0
XRECORD
  5
81CF
102
{ACAD_REACTORS
330
81CE
102
}
330
81CE
100
AcDbXrecord
280
     1
270
     1
271
     1
  0
XRECORD
  5
82B1
102
{ACAD_REACTORS
330
81CE
102
}
330
81CE
100
AcDbXrecord
280
     1
 70
     1
 90
1959938040
 71
     1
  1
EE070EA6-6375-4ABA-AD68-85A5D6B9E87D
311
504B0304140006080800F38C765714ACD911D9000000200100004F00000041383646383338432D424645342D344230442D423146432D3436444130384443313632382F4173736574446174612F446566696E6974696F6E4974657261746F7250726F706572746965732E62696E454E3B6FC2400CBE7668D5A143FF01623FEE
311
91071001555103135DDAA90B321703912E09CA2552C78EFDD7AD2DA8B0F4D99F5F9FFD2384F8BD18517143F826FF48718D35B6A57B7747AC40DC71C5373BF0F7D7DE2D514E5F710FBDEF786B530687DE438D4D1F9EAEA3830A3A92033FE2A507C27F21B0C2E17C8CEFBF11F8258E509CB2670801BBB9DAEFBE5462967A928F
311
63B9CA752C639DACE4324F8D4C233D8D8925A979512D86A66F1D066595DE5E94B7A7FA50168B59575638A8A1C2F9D0B5483F15C385D53692C6486B3FCC388BA65934F99C299EFC03504B0304140006080800F38C76579CDEBAAA13010000300200004500000041383646383338432D424645342D344230442D423146432D34
311
36444130384443313632382F4173736574446174612F496E7374616E636550726F706572746965732E62696EEB606060F80F0540260323103700495E20ED9E9A975A94991C9C9C919A9BA802147075353037707534D335333637D535717472D4757431B3D0B5307534753173B274B53077614768046931363471713532B5D4
311
35353131D635313332D475727372D13534373670367376B67474B5042A03DBCBA019D37FE8ABC6157B20CD04146B0062181F4C03F940F0C11EA29A8141C08141002C0426541C106CAC2CA046088033B02A030AC2157C6006F21A8018AAF50194E6010A610250382264E08660284CD9E98021862280A91564B406929A0FF62C
311
401E28B6F88038B83CB1243943D7A928312F25350524A3631114E3000CC425E6105A064A4F3183F079A0748B2984FFC704429740E937C6107E0A94BE6304E10300504B0304140006080800F38C765728BB58AF800100009E0500003D00000041383646383338432D424645342D344230442D423146432D3436444130384443
311
313632382F536368656D61732F436F6D6D6F6E536368656D612E786D6CBD544D4FC23018BEFB2B96DE15493C78601010A34B880709DEDFB52FD0D8B54BD70DF6EFED3AC0B12E6442E2716BFB3CEFF3D18E26FB440405EA8C2B1992E1C323095052C5B8DC842437EBFB673219DF8DA659866649B798C078B48AE6410122242F
311
2A4994AC7F93815DF85C049C8564CA0A901499DD886B2EB9B1E02448F358701A9235880C49A0119892A20C89D1B9FD768815CAD268CB5E0355B40B1E47F3E37A2020464BED06AA57CE8FCC20C3C3446D46761A2632A8C1283D07031EFF2AE7CCB1BFEEE916E406DFAC8E36FFD99A9D60A6944090EEDC3B670C7DC13DE86B6B
311
2C5C240D6E503BB85ACD579D513F1B9F9A69DC9CC22AFA80C426D40AF0B21EA168559156B6276F0F726A6BFF04DCD513A87A62CAD41FB24FCB2858B3952E3D852084DA25B9303C15687973CC8E8AAE11DF2836C38C6A9E765E8C1BA1BFB1DC29CDFE518C8B5A7655A4ED7E77291ABEB80DBD82EC866ADE1B8D05AF9E35CF09
311
D7A061F38A986D9EC412B8F0F65E5D81534D9B231D1E5A8FE577A241F3A5FD01504B0304140006080800F38C76572CCEBD668A040000E01200003E00000041383646383338432D424645342D344230442D423146432D3436444130384443313632382F536368656D61732F47656E65726963536368656D612E786D6CD5586D
311
6FDB380CFE7EBF42F0F7A649B70E1B90744856B4970F450FCD7A5F05459613EDE4174872DADCAF3F522F8ED3B88D2F1D06AC4050DBA2493EE4438AF2F8EB73AEC8466823CB62928C06C384888297A92C5693A4B6D9D9E7E4EBD51FE3A931C22EF85AE4EC6AFC38BF261BA626C9AD288496DC3F4FCEAFC63366845F7A10452A
311
F41DB320C0D44EC26EAB20918735565582695670811A6A49643A49A6E9069FA4604A64B29016DC4B48552F95E4932463CA888468C1D2B250DB4962750DF7CE273069CE8363F1FF4EDB00E0A21999574AE4A2B00C353B93F3BD4777B8A61ED8F604ABFEDD79CE56A2B7BDFBDBC50996E0ADDE16FED26223C5D30956C29BDF4A
311
55EA686E5E58B112DA45CE67F76F4FA27EFA3FB672FD7372FC388FAECDCA5209E693CAD167BADCD272F943701B3812F8A3D852008B1D2E32DB927B2F833C6EA95879925356D254582695095A3CE982924720BE5774A3CB9CDCDB350427D2DF20DA1B5532EBE2D5D6288D75D4F7E4FD9890A0EF8E3D93EBB8F8BA4758158EF6
311
FB90A6F9520281C93DE7AAC6D24607DA296BB96018123F821A7D6A5C5884050C475DA4865442732C8B95684A50165CBB3A32F25F783A4A480ED59AD7F924B968AEA50131F46303223E6A397B0E52976030DC1DCA81D7E7C1EDEEA42C19FF27635C505E2BD5198A599020DF50A2330FCB3AAF28CB0124108429553EF1B22880
311
2E2265D8F7CC2401042B155BCC7070F1E5C55F13B4A9577362CCCE46C32174E010C3C378C44841A4BDA00FE3A12006CE11EE6AEC59894D3526DDE1CD59D503ECC324017F8061B7F162162FA62EDD81AE3308617770796DCBDAD2B2625C5AE8A63DE20B2C8AA5E95E76E5730823955956E33E705425A2187C185D36489A1B44
311
D3DCEC2172F6BA2105C3546287A7194B2331768EBBE64F6E70A9930ABE0ADEA89E9E2C38523B810287AD67A54A039C1606EAFE68F8304610BB9093DBDDABC0B2AE4E290DCDA15376D7E39F72B556F0B32EAB5D3D498B4C41ABADEC3A1434C422D87E8025A84BDCB2B1417ED750FAE4DA8976863974C577C7F902D3F156AD35
311
4DEA3540DE6BEAE2BEA52F7A2EB4CA43802ECE5BF2CE2EDC9347179FFB023CE412E60BE16DA0BE29B374988A553F561DC04615DD35F7D2C8979F60E5955CE93DF29DED8AFA1EE6642D53418086C03C47C377910F75F7E8F5EF665F70B60FFB22AEDF897D119E8423C773E819A3C1E55E550599EE6EDCA34D0C86FD72057DF2
311
CD46F16A470682471C164E4346D5306BF12D7D12D82CFF673D41636C347443FEB51B50D72EA171A8E4A58623A4A16E0FA2B8B10A0D23268D87C33896EE8FB73305A74BF224EDBADFA0BD674AB354D63DB7BD5D83426761C077DE767728235446A552754EB93B755891C3C4CC6CADE37CF0E912A7BB38DBA010F9DE1282EDF4
311
70CA69A9CDA482E334C4A6EA4107987980B17E72F31730EBF88BBD39E7C629F56797A3C0009C2C5AE7951D9A05A02773440F02EEB4DE396A3B6A570C72CCFBCD823B0B8ED3F1D5CEDDFED772FA70236C83FB7D86C385D570B87107535572A60A96035F8F7C6A7192F13007246BBE0521855E6AC46F3E27689CEE7D186A6FD6
311
79D98CDCAD13333E04EBE7ED6F55FF01504B0304140006080800F38C76576180134D5F0100006B0300004500000041383646383338432D424645342D344230442D423146432D3436444130384443313632382F536368656D61732F52656E6465724D6174657269616C536368656D612E786D6CA5934D6FC2300C86EFFB1551
311
EEE343DBA41D1A103009551ADAD40EAE28A4A68D9426284961FCFBE5A340113B2071746D3F765EBF4DC6BFB5407BD0862B49F0B037C0082453059725C18DDD3EBFE3F1E829991803366715D474942CD30FB4A782E00C64017A412D684E454CE3FE28995203B162A6EA5AC94B66997D225E109CD63B0135484BAD1B3C07E908
311
0CA35DB3119C11BCA5C200461A68A1A438126C75E3E230D40FF81FB3F03C91D1E3A3A0AF79FE28E25BC39EC3E17E4C2A2D94A0833A51AF55BCCA7D88572FCBAC529C4140B020FC3AAFA886621DCED7EAD7664CC86024E806DC297DA1BB393E4156543457A4537DB8817349A70F8ACBF09B3EEE2CB2F33E91B65D60786E4E3B
311
39B77E3FEEEF5650424525DA657FB8B46BE6BF064646F0A0F7327C0BC1BC1B4CBBC1C419FA3CCB23500007872A2580CAAE5461865565294E4EDB4617B62FF579DF9A5B2F54E834076A597573A020912FED777F9B3F504B0304140006080800F38C7657E75ADD8F51000000570000004700000041383646383338432D424645
311
342D344230442D423146432D3436444130384443313632382F4173736574446174612F41737365745461626C654F66436F6E74656E74732E62696E536160607075353037707534D335333637D535717472D4757431B3D0B5307534753173B274B530771102AACB4D2C492DCA4CCC492C28484D2C4ACC4B4E050A82012F9074
311
4FCD03CA26072767A4E6260200504B0304140006080800F38C7657F865834058000000680000004500000041383646383338432D424645342D344230442D423146432D3436444130384443313632382F4173736574446174612F53747265616D56657273696F6E5461626C652E696E66558CBD0A80300C06F73E4B117FB66E
311
451741D041DC5BF98480A492E4FDD18EAEC7DD4555D89EF28DF51A0B1BD8340C4DE7DD848B988C0ACF0649566493F2408C508DDEBB99D5129FF8F1AF8CF5B9503E20FAE5A16B5AF702504B0304140006080800F38C765725DFCB60340100009A0400003600000041383646383338432D424645342D344230442D423146432D
311
3436444130384443313632382F4173736574446174612F636E782E786D6CCD94314FC3301085FF4AE43D76930C94CA718560E904121503DBD5B9B4561D3BB22F08FE3D769B0154C4D4A1EBF9DDF9F993DFC9F5E7608B0F0CD178D7B28A2F58814EFBCEB87DCB26EACB252BD64A06EFE9878C150E066C592E3325F7C14FE35C
311
EAB087C9E6AA35EE38171F6244DAC2CEE273FFE81DA1A3C80A6D21C696457DC001384CE43B8C47DE0101AF78C0E8A7A0314D2233E03C490704C28EA97A513765559575BDADEE56CDFDAA59BE4B91954AEEBCB7B3DEA4CB821F0B7DBE95A98514F958C929985993DFC2D45F1EF9CE38299252C9482131993BE86B4C1D308ED6
311
68A0844E784D486512210C529CC54A8ACCE0178927EC8D33B965938C01F9F092EC6120833747E43FAFD727B37191C069BC5D1E970EAF4FE1F5F483DECE813C25E6D67272E9901BD75F2125E2B4465268F25651DF504B0304140006080800F38C765703D641BB080100004F0300003400000041383646383338432D42464534
311
2D344230442D423146432D3436444130384443313632382F536368656D61732F636E782E786D6CCD933B5303211485FFCA0E7D601F8531C392C2C2CA46ADEC106E1226C0DDE1E1E8BF17568A64C64E8B7470F88639E770E1FB4F67BB0F08D1A09FC9407BD28157A88D3FCE24A7C3664BBABDE001315D60A4F3D2C14CAA4C04
311
3F06CC4B93341C64B655B5C69F9BF880CEA17F5127709274CACA186712D72D9539A18678A65A2649071A20620E0ACA0DC9386837A80032812662ECC769330C9B717C1DEE76D3FD6EDABE715649C1DF116DE38D4F1070E91496852F767ACEEAB1E03998C6D40C445C7AA3A50DCE0A21784CA174D0C8F4B514522E8B354AA652
311
155BC11F467056A35E057E040FC1A8DB4C7C65EEDF223F83D7109ECA2B0523ED6D26FFCDE3DF0A60EBEC9711A85F417C03504B0304140006080800F38C7657410A3D5871000000A40000002C00000041383646383338432D424645342D344230442D423146432D3436444130384443313632382F636E782E786D6C55CC4D0E
311
82301086E1AB34B31774E7A22D31F1069E60020334B633A63FC6E34B0909B07DDE2F9FEE7EC1AB2FC5E4840DDC9A2B28E25E06C7938192C7CB1D54677514C9871928C640062A83D55394F2D968A0118BAFEA1DBF377CA444F98919176EAB9FEAAB9F2960DA5BBB1E2ED3FA6FFF504B0304140006080800F38C76574460DD62
311
7E000000A300000007000000636E782E786D6C4D8C410EC2201405AF42FE1E05250D0BA02920F7682C6D88144C2DC6E30BA60B572F99BC19D17FD688DE7E7B859C24D01301E4D33D4F212D12CA3E630EA85762CB79FFBB014AE3EA25340C4A2C5B2ECF034D7E1E4B6C3486F438E0C03BC7AFDC60ED6E0C334D2CD6D419CC3A
311
3B106E0DED2EBC1AE7A6D4F9F5EAB6BCFA02504B0304140006080800F38C765716E99B5DA600000035010000130000005B436F6E74656E745F54797065735D2E786D6C9590410E82301045AFD2740F4517C6180A0BF5065E60AC53688469D30E066F6F91AD9AB89CF9FFFD3F99BA9DC7413C3026E749CB4D59498164FCCD51
311
A7E5C4B6D84BD136F5E5193089ECA5A465CF1C0E4A25D3E308A9F401292BD6C711388FB15301CC1D3A54DBAADA29E38991B8E0254336F5092D4C038BF39CD76B6FC6A538AEBEA54A4B08617006389FA516557DE4AE8E7E70DE30729138228C5F021CD93F02D4FB0DCD0B504B0304140006080800F38C76573DEE336E640000
311
00790000001B0000006175746F6465736B2D64657369676E2D7061636B6167652E786D6C35CBC10E83200C00D05F21DCA56CA76D41FC96062B120735B69A7DBE268BB7777961F8D5AF396893C2ADB70FE7ADA196782C2DF776D7A97B5933C430F15651E5469C55D70F80A4992A3ADC954792C525AE70A1E4D6AD9816CC044F
311
EFDF01FE3FDE907802504B0304140006080800F38C7657E61BAE93F9000000960100003700000041383646383338432D424645342D344230442D423146432D3436444130384443313632382F4173736574446174612F636F72652E786D6C8550CB6E833010FC15B4770336B424917184787C414FBD59C6A156828DFCA8FAF9
311
B50395DA534FBB9A9D99DD1D7AFD5A1FD9A7B44E19DD02CE4BC8A41666567A6921F81B3A417665D41AE37FD120D37C952D2418185DAC09DB0109A3BDD409D5669607C89D931E32F1884D0B4E7CC895E73CF8C870F77CE3E2CE1799E37CE7311A829A0FA99AA39BBA29698195AF25E9EAAE46FD389D513D8E2FA823CD80A6BE
311
99CA613C75FD406891C48C7AB5FE6C1756722F6760A42415C21811F2869B4B75BE54A7775A2426A3CEDBF8F3B1347D07AC4B570FDC735AECD33FAE619BFF770D4AFB8A1CAEBBC201C3F1C8E780D122A514CB33C25853A2EC1B504B0304140006080800F38C7657F33D02B8F800000094010000350000004138364638333843
311
2D424645342D344230442D423146432D3436444130384443313632382F536368656D61732F636F72652E786D6C8550CB6EC32010FC156BEFF881DDDA893091E5C70FB4A7DE1010072506CB40D5CF2FC4AED49E7ADAD5ECCCECEE90CBD7F2483EE56695D12D14690E89D4DC08A5E716BCBBA206920B259B31EE170D12CD16D9
311
4284819279337E3D206EB4933AA2DA087980CC5AE920E18FD0B460F94D2E2C65DE0586BDA72BE37736CBB448771E25DE2B714895086EEAAAE406347FCD71577515EAC7E984AA717C411DAE0734F5F5940F63D3F50326591453E2D4F2B39D6F92392980E21C97A82810C6EF457D2E4FE7B2F92059645262DD167E3E96C6EF80
311
BE3DEFB424DB677F3CFD2AFEF7F44ABB121F9EBBC2022DC289CF012559CC28946780A1C63CE937504B0304140006080800F38C7657B996288002010000D70100002D00000041383646383338432D424645342D344230442D423146432D3436444130384443313632382F636F72652E786D6C9591C14E843010865F85CCBD40
311
0B62DD946E16569EC093B74A67B1D9A525B4181FDF2218F5A6A7367FBF7FA6FF8C38BE8FB7E40D676F9CAD81A63924687BA78D1D6A58C28570488E52CCCE851F1824568D58C32A8314C3EC9669977A6703DA55B54EE32E2AEF3140D2DFE2A506DFBFE2A852B58448F86B3AA9FEAA064C69BA715204337E59FB1955400D92E5
311
AC209412C69EE8FDA1783814FC59642B29C5626C28D8DE0CC717D4899B428C04F24E64DB6BA416A377C6E8F847733138833CF1AAE3056F49D33D96A46CF2336968D792B23A9F727E6E69C5782C12CD52F830C7C9EC45D619FCD5BE197F255B26FDCF649BC383A4DFA1B275CC52649F3B88E7BA12F901504B03041400060808
311
00F38C7657D4542BEE08010000B201000008000000636F72652E786D6C8D504B6EC32014BC0A628F3FD8AD9D081359FE9CA0ABEE281007C506CBE0A8BD7D21A652BBEBEAA199796F862197CF65060FB959657403F32483406A6E84D253037777453504174A3663DC2F19049A2DB2810186944C9BD9D70871A39DD401D546C8
311
08326BA58380CFFED140CB6F726109DB9D57D87BB2327E67934CF2E4D051E2D4F2B3CA37C99C1490E20C1728CF11C66F79752E4EE7A27E27695052B2EF4A442B25BCBBBA2AB9419ABD66B82DDB1275C37842E530BCA016573D1ABB6ACCFAA16EBB1E93342C5362DDE6FF1C8FF89C0E58F608BE243D284A3E8C99A3C08712C0
311
E8F9CB9B9034107F42EFABF84768A55D81E3C163C3429AFB404FC21B8706FD78D6EB67689B7E03504B01021400140006080800F38C765714ACD911D9000000200100004F000000000000000000000000000000000041383646383338432D424645342D344230442D423146432D3436444130384443313632382F4173736574
311
446174612F446566696E6974696F6E4974657261746F7250726F706572746965732E62696E504B01021400140006080800F38C76579CDEBAAA130100003002000045000000000000000000000000004601000041383646383338432D424645342D344230442D423146432D3436444130384443313632382F41737365744461
311
74612F496E7374616E636550726F706572746965732E62696E504B01021400140006080800F38C765728BB58AF800100009E0500003D00000000000000000000000000BC02000041383646383338432D424645342D344230442D423146432D3436444130384443313632382F536368656D61732F436F6D6D6F6E536368656D
311
612E786D6C504B01021400140006080800F38C76572CCEBD668A040000E01200003E000000000000000000000000009704000041383646383338432D424645342D344230442D423146432D3436444130384443313632382F536368656D61732F47656E65726963536368656D612E786D6C504B01021400140006080800F38C
311
76576180134D5F0100006B03000045000000000000000000000000007D09000041383646383338432D424645342D344230442D423146432D3436444130384443313632382F536368656D61732F52656E6465724D6174657269616C536368656D612E786D6C504B01021400140006080800F38C7657E75ADD8F510000005700
311
000047000000000000000000000000003F0B000041383646383338432D424645342D344230442D423146432D3436444130384443313632382F4173736574446174612F41737365745461626C654F66436F6E74656E74732E62696E504B01021400140006080800F38C7657F865834058000000680000004500000000000000
311
000000000000F50B000041383646383338432D424645342D344230442D423146432D3436444130384443313632382F4173736574446174612F53747265616D56657273696F6E5461626C652E696E66504B01021400140006080800F38C765725DFCB60340100009A0400003600000000000000000000000000B00C00004138
311
3646383338432D424645342D344230442D423146432D3436444130384443313632382F4173736574446174612F636E782E786D6C504B01021400140006080800F38C765703D641BB080100004F0300003400000000000000000000000000380E000041383646383338432D424645342D344230442D423146432D3436444130
311
384443313632382F536368656D61732F636E782E786D6C504B01021400140006080800F38C7657410A3D5871000000A40000002C00000000000000000000000000920F000041383646383338432D424645342D344230442D423146432D3436444130384443313632382F636E782E786D6C504B01021400140006080800F38C
311
76574460DD627E000000A300000007000000000000000000000000004D100000636E782E786D6C504B01021400140006080800F38C765716E99B5DA6000000350100001300000000000000000000000000F01000005B436F6E74656E745F54797065735D2E786D6C504B01021400140006080800F38C76573DEE336E640000
311
00790000001B00000000000000000000000000C71100006175746F6465736B2D64657369676E2D7061636B6167652E786D6C504B01021400140006080800F38C7657E61BAE93F90000009601000037000000000000000000000000006412000041383646383338432D424645342D344230442D423146432D34364441303844
311
43313632382F4173736574446174612F636F72652E786D6C504B01021400140006080800F38C7657F33D02B8F8000000940100003500000000000000000000000000B213000041383646383338432D424645342D344230442D423146432D3436444130384443313632382F536368656D61732F636F72652E786D6C504B0102
311
1400140006080800F38C7657B996288002010000D70100002D00000000000000000000000000FD14000041383646383338432D424645342D344230442D423146432D3436444130384443313632382F636F72652E786D6C504B01021400140006080800F38C7657D4542BEE08010000B2010000080000000000000000000000
311
00004A160000636F72652E786D6C504B050600000000110011005A060000781700000000
310
504B0304140006080800F38C7657000000000000000000000000370000006662782F37383438343232302D303330442D344139352D394336432D3746363543354144413533452F617474726962757465732E62696E504B0304140006080800F38C7657000000000000000000000000350000006662782F3738343834323230
310
2D303330442D344139352D394336432D3746363543354144413533452F76657274696365732E62696E504B0304140006080800F38C7657F270F1330600000004000000360000006662782F37383438343232302D303330442D344139352D394336432D3746363543354144413533452F747269616E676C65732E62696E6366
310
60600000504B0304140006080800F38C765751464CB48900000043010000360000006662782F37383438343232302D303330442D344139352D394336432D3746363543354144413533452F6469726563746F72792E786D6C9D8F310EC2300C45AF127987122606C71DD918B841D4B851A43646695A717C52A85029031293A5
310
A76FBF6FACEF7DA7264E43906840EF0FA03836E242F406C6DCEE4EA06AC22492573150D1F66C60C640E8938CB705396EEDD86DE9B5042FE27813D640EA63BB001C722AF6E55CB61E4863F58284D5D3F53DD715CE1C3985E63FD7F1B7EBDD617E9F1E504B0304140006080800F38C7657D0B7AE9F3C070000201C0000340000
310
006662782F37383438343232302D303330442D344139352D394336432D3746363543354144413533452F6F626A656374732E786D6CDD59596FDB3810FE2B84F665F74196E42B76E1B8F095C228D21635BAD837819669871BEA002525CEFEFA1D52A42C2AB2ADF400169B00B14293C3996FEED1E4FD3164E889F094C6D1ADE5
310
755C0B91288877343ADC5A79B6B747167A3F45131EC759659F85221C925B4B2C5BD3C981C779A29676648F73565FBD9BFF85D28044C44201C3697A6BA5C103097107E759BC23E963678733DC39EC8F1DAF536C34C91E384E1E6A57259893280356613D022A8A03CFFC174472A613476C30B6F5DA6DEB5ED8E648C14D466994
310
66380A5E7155BBAE7B86ABDA753DAFBF5C7507637BD0EFF7ECFEB0EBD9F3BBF9D2F66E7AEE62B8588C67ABB185A6936D1CB35201098976A0C5176BEA4D1CF14D29BE42A189EF208E221228349B36EC88A24B495AC7C400D693A2551452C85A59E8B514FECCB656A0182C19686BE1F467D57AE3EDDF0042DAC64A794A8495A7
310
19075D2BEC0B7F70274EB16AE885A628C419E11433C4E896630E0A82AD85820C32C25B04292430935AD4F4AABC82615FF7A5262EF73963C27FADA9F4341FFC9164A9E48CFE43F889FBEA6DC013489BD3281B2961B39704488C278E5C2CBEEB75D597059068CFF001AC05C4149B7ADD1A5E0B110BD64B6BFAF16E7BDC88F8D0
310
7C79C2E384F04C589E7466E5775A8315D302E36B014A81ABA9BB132A5F01FA4F807CC90B9A80E6383DF68F7D2D3BC751BA8F7908DA412EB25DF8E322F1F8EA69E29487A70819B1F21CA6E0B63F0953430CE3EE0AA4D3C913187DCC7B4AB84D8019D8F43D8D849F83A12016C312C4FBFDF6684DD7104C61114E6106D2C3EFC4
310
118F083E0A3A106F6A1A6A0ABF2D14A51DA6EE67275D7D009BE134285565C8780EDFC14FC177B6DC7CDCE47C8F0372AF1C7B49F634A21924D366860CD00D97FFB6FE243DF2038BB7989D4E1B9B02B8E6108BB8D1A0968D520B927A014E441A2E342357EE29783B633822719EAAF5A63815C42CE6FEF6C52F5CB8F1AE3FB50D
310
14972903688C6590DC034E1381893555DA2A0361A722285818E6CA020F8556FD6D1E263E0EE33C12A1F6B529D6F98038232C11A84A6ADAB0B5D76AB23BBADFE72904AF46920B0348E5CF9A7061E17D88634DFC72B2E71892681CF9147230384BE30DC605257897794E09DBFB94B13CF4F794411EF1439C9CA1DF52826AE67A
310
242FCF31DF3512342D4BFBA4B62101B8025683A4B35511F3954E3979A2A2CC94F94C67036387AA43AD69FF4CBA1099A201506D8CD2CC572BF7C65DCD86F6B07733B0FBB3F9CC9E2D87237B34980D96C3F97835BA59D6F9D4D1AA9AEF4095A2CC31FC2F7BC8C36D8429832F84D87897BC7B2FB3E7AD03A1D119787377B4BAE9
310
DB772BB76FF7DDC19D3D5F0D3D60C51DF7E16930F4660E27699CF380A44ED7717D6D92497438C795E6EE750C85B2E67AB2D3FAAA0BF33F8EA1F59C6028F1BF1A44CBD8D55010B60DA2E2683D84E2E051A4283F80AAAFD17D6A41B4CE47539C7B635C763B3D57FE78DEB8EB8EBBA3F1B034F68B815ADEF3C371AE498200FACE
310
3CF3E30407346B4EA8355C5AC6E937E5964ECF1B2040A7FC5B5E7239CFA84B7C1AE203F1F75874090D81F19A048D39ECC0E234A511496597F7AAFAABD1743B504C9939B7C10869EA8724C3DF637FB26DA8D934C466E6433F9A8989C0D5AAA03468D5819CA328BA5F48DC52FE173FC561C28A4EF71A065E5743A07B9C268B13
310
4C8B2B9EC0DE7C9CF9EE8EC8C1C535EA25FBBA3E68D45A9DFAF8BBC99F8147D735BF101E7D45FBD2A933F0C6E26704416538F07A375A11D7B0D25765A28F6339749EC18BFF4CE8E1A155A1D94E279592AD28AA3312421B8BB39CB7F2D7E1C07D75918A0B3587A8DCF4C6E250F66FBA8303F4640377AEBCAD5C0375288D60CE
310
D54A905752349AB0D4859CE989D1D51BFCFAA2B2AB547F385EFEF28AB9EA7CA11CFE5CC701AAE52200ABE863D4D48D55B7510FA5CF380B20906EE4A73D078FD891DDA93133C83595E8BA3EBD563DAF45400D61628B459CBD170FEC2B065543F79C3A1F8AA2CD29D6D722B17560387DE2C360DAA4F5F9C3A64605565A9FFE22
310
3022CF350A6A7521BAE10BA4BEAD4F3D7F8D8292E8DBFAC2F1FF4447A1155819A3C134388D1985A13CD9A10389217BC3D8A145B7C14392CAAC0CC6AB82947E23D0E2F4533153CDF096E9D3C10386C13453BD581EC0501432E6ADA5D6D16F3006159348399CEA3C421BA6629885724E6F2DB0D88C42B7D5D9C2384B0E0F25F5
310
DAB8121C1B470791EF8B53E5FFA763021D884A27B9CA3D6D70519219CE04856D22DF1340D5577C319D7CBFE89A1D843378DCE65929CC69E1248D0241BF10288483A9DFA382F70805C565B9BC8EDC6340D26A327FD10E0AAA7686F9418ED72B78CF965F1C31195F7F4609CB0F429D97BA5F83922DBA6E961753A80918861233
310
C1A2865CBC73BEF0185E3185E88E8211A0DF8FA3E11FCE220EC3382A969C997A5185360FF0DA69E7E8911FB4F1AE3770E414408DF5FD2D4E4907EFD2475800D5722A66A305C4860194D1B462005A23421770CCD8BF5E22551B552624D5B02BE091337D048E24DEE508B7A96EA80C20C117802BF9E5E9412F4C1C0E43F0E9BF
310
504B0304140006080800F38C7657A684BA2E3E01000046050000300000006662782F37383438343232302D303330442D344139352D394336432D3746363543354144413533452F636E782E786D6CCD94C14E032110865F85705FB6BB3D581B96261E7C020FC61BCB4E572C0B1B188C7D7BA1D2AA31351E9AD41B19FE49FE6F
310
E6CFF0CDDB64C82BF8A09DED68C3169480556ED076EC68C46DB5A26423B8770EBFC828B172828EE632157CF42ECEA534C0564693AB46DB5D294A44AFFB881028514686D0D1A09E61924C467403841D1B244AD6300FC145AF20F5A39EA0F42B0F1261A0A25DB4CBAA69AAB67D686ED6CBDBF572F5C4EBAC14BC77CE14BDB608
310
DECD44B9F4B0C9CC82D7F95BF0E875D164022A3E9DB15E5B5EA77FC143726BC7A2C3FD9C75F36CB49298C6543B85805512819C78FD2116BCCEBCDFA8EFEF1E8F0EC8A03D28747E7FA50134E7067032C65212FEC67F10FE8EEDFA97847BAD6D9F852DB62E867A4C6B4871FDB9FF94226947F3FF427F3276F9CCA753825AFD3F
310
E4A3AF0B11D7879397969E2FA07807504B0304140006080800F38C7657E9D1706E7F000000A30000000B0000006662782F636E782E786D6C4D8CD10E822018465F85FDF71429286E826358EFE1121D0BA191B41E3F685E74F56D67DF39FDF0D91C7A9BF8B2C10BB89C0820E3EF61B67E1590F605734083EC6308FBDF0D909F
310
3623A06090FD1A437A1E6836CB945CA1CEFAC7015B4E39AD2A82494D464C55C770A71B8DDB5BC33453A362F5351BE7A2E4F9F5F296BCFC02504B0304140006080800F38C7657A6D797065F0000008200000007000000636E782E786D6C4DCB3B0E80201045D1AD90E9FD7516806B51190811670C8A61F982B1B0BAC9C97B72
310
CA7B1037C6D3332918DA1E04D2CAC69353902EDB8C20262D23F3F59B81A079470595414B17391D1F19B4730A5583A7ED43BBE4025D9592775E5ADFFA01504B0304140006080800F38C76574FEB6A7CA0000000F4000000130000005B436F6E74656E745F54797065735D2E786D6C7D8F4B0EC2300C44AF1279DFA6B0400835
310
ED02B8011730C16D239A8F121795DB93D02D6269CFBC19BBED573B8B17C564BC53B0AB1B10E4B47F18372A5878A88E20FAAEBDBD032591BD2E299898C349CAA427B2986A1FC86565F0D122E7318E32A07EE24872DF3407A9BD63725C71C980AEBDD080CBCCE2BAE6F5D69B7110E7CD57AA146008B3D1C8F92C5954F993BB1B
310
F787F39A89ABC491D09600F9FDA2FB00504B0304140006080800F38C76573DEE336E64000000790000001B0000006175746F6465736B2D64657369676E2D7061636B6167652E786D6C35CBC10E83200C00D05F21DCA56CA76D41FC96062B120735B69A7DBE268BB7777961F8D5AF396893C2ADB70FE7ADA196782C2DF776D7
310
A97B5933C430F15651E5469C55D70F80A4992A3ADC954792C525AE70A1E4D6AD9816CC044FEFDF01FE3FDE907802504B0304140006080800F38C7657628B7F38F9000000960100003B0000006662782F37383438343232302D303330442D344139352D394336432D3746363543354144413533452F7265736F75726365732F
310
636F72652E786D6C8550CB6E833010FC15B47743B0490291712412F1053DF566990DB5126CE447D5CFAF9D50A93DF5B4ABD999D9DDE1E7AFE5517CA2F3DA9A1EEA7207051A65276DE61E62B891168AB3E0CEDAF08B0685910BF69061107C7636AE1BA4AC0968326AEC841B28BDC700857AA4A607AF3E7091A58C2131FCBD5C
310
A5BACB19CBBA7CF1048F514F9B544FC94DDF343A10E3A1D95FBB0323031D3AD28CC70BE95ABA27978135F47A68291B3B5E65B1E0412F3FDB954319700241779491BA2694BED5C713EB4EAC7DE755660AEE834B3F6F4BF377201C7A1B9D42CFABD7F48F6B5CA7FF5DA33681D1CDF5A5F020EA74E473207895534AE51961AA39
310
51F10D504B0304140006080800F38C76573A0BE486F3000000B1010000310000006662782F37383438343232302D303330442D344139352D394336432D3746363543354144413533452F636F72652E786D6C8D504B6EC32014BC8AC51EDB801D3B1126B29CF6045D758780382831587CAA1EBF10BB52BBCBEAA17933CCBCA1
310
E7EFE5517C29E7B5350340650D0A658495DACC0388E10A7B509C1975D6863F345018BEA8016418303A3B1BD71D12D60465326AAC543BC8BD570114E2911E03F0E2A6165EF21812C3DFCB958B3B9F5589CA8DC768D0CBAF5438C5839280E11A138810C4F8037527723C91FE935699C9688C5AEE565A26777DD5CA01D6F54DDF
310
605CC39AD417D88CC7161EA7C304BBF7433BB5E3656CC91BADB298511F5CBA79FF245FF7AA7C13FECB1C57F942666D02C1BBE1A6F080A194E7B960B4CA05A6F16C37CD5C36FB01504B0304140006080800F38C76570F01A7DB54010000DD0200000C0000006662782F636F72652E786D6C8D52DB8E832014FC15C33B5AD1B6
310
DA204DDAA65FB04FFB46115D52058360FAF90B5EE2FAB0DD8D099239E7CC9C9980CFAFB60906AE7BA16401E27007022E992A85AC0B604D0533109C09D64A991F6D2090B4E505F03020B8D6CA7633C494345C7A54AA92CF20ED7B6E40C01A772940CFBE784B436A8DEBE89F6147D993D63C8CC3A98F606B45398F8AD2B1894A
310
700DC8FD90EE6FF921811774C9617A3F5E619EA13DBC5E9214DD0E194AEE398EFC30C146B48B3AD39C1A5E0282762881710C11FA888FA7243F25D9278E7C27C1BDD1CEF32CEADD01523D5E389AF00D9FEDCABFF9AC90264133DF34D10312BBF5C602C191CFC7FDC6F0B6193A61979FA18F66B1F074D0C099513A759552D9B5
310
34D0C67247BD0BC60F4753D5318F04BFF1A0373CEF395C5054D66E356ADCF5618D57DFEED4710D07F30AA4D22D6DD6E5A615D77315DA585AC6996A94FECFF462750933F20F937C03504B0304140006080800F38C7657811A38C308010000B201000008000000636F72652E786D6C8D50CB6EC32010FC15B477FC00C7B1234C
310
2427F217F4D41B35C441B1C132386AFFBE10BB527BEB69D1CCECCE30ECFC398DE8A916A7AD69204F3240CAF4566A3334B0FA1BAE009D395BACF5BF64808C9854031106CE86C5AEF30EF5D67865226AAC543B289C531E503F864703AEBFAB492462F541E11EC92CFA87185492279B8E33AFA79FD57E51C22B099C6484E23CC7
310
84BCE5C713AD4FB47A67695472B6AE5AEE565A06777DD36A01DE95C5E15A9714B7A4AD71D11D2FB8AEC8015F5A5A906B5911DAD52C8DCB9C39BF843FEF47424E8F9C78465F966E14671FD68EBB208492C89AF10B78C6D248FC09BDCEF21FA1B5F194EC07B70D073C0F815E44308E0D86F1AA37CCD836FF06504B0102140014
310
0006080800F38C76570000000000000000000000003700000000000000000000000000000000006662782F37383438343232302D303330442D344139352D394336432D3746363543354144413533452F617474726962757465732E62696E504B01021400140006080800F38C76570000000000000000000000003500000000
310
000000000000000000550000006662782F37383438343232302D303330442D344139352D394336432D3746363543354144413533452F76657274696365732E62696E504B01021400140006080800F38C7657F270F13306000000040000003600000000000000000000000000A80000006662782F37383438343232302D3033
310
30442D344139352D394336432D3746363543354144413533452F747269616E676C65732E62696E504B01021400140006080800F38C765751464CB489000000430100003600000000000000000000000000020100006662782F37383438343232302D303330442D344139352D394336432D3746363543354144413533452F64
310
69726563746F72792E786D6C504B01021400140006080800F38C7657D0B7AE9F3C070000201C00003400000000000000000000000000DF0100006662782F37383438343232302D303330442D344139352D394336432D3746363543354144413533452F6F626A656374732E786D6C504B01021400140006080800F38C7657A6
310
84BA2E3E0100004605000030000000000000000000000000006D0900006662782F37383438343232302D303330442D344139352D394336432D3746363543354144413533452F636E782E786D6C504B01021400140006080800F38C7657E9D1706E7F000000A30000000B00000000000000000000000000F90A00006662782F
310
636E782E786D6C504B01021400140006080800F38C7657A6D797065F000000820000000700000000000000000000000000A10B0000636E782E786D6C504B01021400140006080800F38C76574FEB6A7CA0000000F40000001300000000000000000000000000250C00005B436F6E74656E745F54797065735D2E786D6C504B
310
01021400140006080800F38C76573DEE336E64000000790000001B00000000000000000000000000F60C00006175746F6465736B2D64657369676E2D7061636B6167652E786D6C504B01021400140006080800F38C7657628B7F38F9000000960100003B00000000000000000000000000930D00006662782F373834383432
310
32302D303330442D344139352D394336432D3746363543354144413533452F7265736F75726365732F636F72652E786D6C504B01021400140006080800F38C76573A0BE486F3000000B10100003100000000000000000000000000E50E00006662782F37383438343232302D303330442D344139352D394336432D37463635
310
43354144413533452F636F72652E786D6C504B01021400140006080800F38C76570F01A7DB54010000DD0200000C00000000000000000000000000271000006662782F636F72652E786D6C504B01021400140006080800F38C7657811A38C308010000B20100000800000000000000000000000000A5110000636F72652E78
310
6D6C504B0506000000000E000E0080040000D31200000000
  0
XRECORD
  5
81D3
102
{ACAD_REACTORS
330
81CE
102
}
330
81CE
100
AcDbXrecord
280
     1
270
     1
271
     1
  0
XRECORD
  5
81D2
102
{ACAD_REACTORS
330
81CE
102
}
330
81CE
100
AcDbXrecord
280
     1
270
     1
271
     1
  0
XRECORD
  5
81D4
102
{ACAD_REACTORS
330
81CE
102
}
330
81CE
100
AcDbXrecord
280
     1
270
     1
271
     1
  0
XRECORD
  5
81D1
102
{ACAD_REACTORS
330
81CE
102
}
330
81CE
100
AcDbXrecord
280
     1
270
     1
271
     1
  0
XRECORD
  5
84B7
102
{ACAD_REACTORS
330
84B6
102
}
330
84B6
100
AcDbXrecord
280
     1
102
DISPLAYNAME
  1
Imperial24
102
FLAGS
 90
        0
  0
CELLSTYLEMAP
  5
847E
102
{ACAD_REACTORS
330
847D
102
}
330
847D
100
AcDbCellStyleMap
 90
        3
300
CELLSTYLE
  1
TABLEFORMAT_BEGIN
 90
        5
170
     1
 91
        0
 92
    32768
 62
   257
 93
        1
300
CONTENTFORMAT
  1
CONTENTFORMAT_BEGIN
 90
        0
 91
        0
 92
      512
 93
        0
300

 40
0.0
140
1.0
 94
        5
 62
     0
340
8201
144
0.25
309
CONTENTFORMAT_END
171
     0
 94
        0
309
TABLEFORMAT_END
  1
CELLSTYLE_BEGIN
 90
        1
 91
        1
300
_TITLE
309
CELLSTYLE_END
300
CELLSTYLE
  1
TABLEFORMAT_BEGIN
 90
        5
170
     1
 91
        0
 92
        0
 62
   257
 93
        1
300
CONTENTFORMAT
  1
CONTENTFORMAT_BEGIN
 90
        0
 91
        0
 92
      512
 93
        0
300

 40
0.0
140
1.0
 94
        5
 62
     0
340
8201
144
0.18
309
CONTENTFORMAT_END
171
     0
 94
        0
309
TABLEFORMAT_END
  1
CELLSTYLE_BEGIN
 90
        2
 91
        1
300
_HEADER
309
CELLSTYLE_END
300
CELLSTYLE
  1
TABLEFORMAT_BEGIN
 90
        5
170
     1
 91
        0
 92
        0
 62
   257
 93
        1
300
CONTENTFORMAT
  1
CONTENTFORMAT_BEGIN
 90
        0
 91
        0
 92
      512
 93
        0
300

 40
0.0
140
1.0
 94
        2
 62
     0
340
8201
144
0.18
309
CONTENTFORMAT_END
171
     0
 94
        0
309
TABLEFORMAT_END
  1
CELLSTYLE_BEGIN
 90
        3
 91
        2
300
_DATA
309
CELLSTYLE_END
  0
XRECORD
  5
84B4
102
{ACAD_REACTORS
330
847D
102
}
330
847D
100
AcDbXrecord
280
     1
102
ACAD_ROUNDTRIP_PRE2007_TABLESTYLE
 90
      512
 91
        0
  1

 92
      512
 93
        0
  2

 94
      512
 95
        0
  3

  0
XRECORD
  5
848F
102
{ACAD_REACTORS
330
848E
102
}
330
848E
100
AcDbXrecord
280
     1
102
RTVSPost2010Prop28
280
     1
102
RTVSPost2010PropOp28
 70
     1
102
RTVSPost2010Prop29
280
     1
102
RTVSPost2010PropOp29
 70
     1
102
RTVSPost2010Prop30
280
     0
102
RTVSPost2010PropOp30
 70
     1
102
RTVSPost2010Prop31
280
     0
102
RTVSPost2010PropOp31
 70
     1
102
RTVSPost2010Prop32
280
     0
102
RTVSPost2010PropOp32
 70
     1
102
RTVSPost2010Prop33
280
     0
102
RTVSPost2010PropOp33
 70
     1
102
RTVSPost2010Prop34
280
     0
102
RTVSPost2010PropOp34
 70
     1
102
RTVSPost2010Prop35
280
     0
102
RTVSPost2010PropOp35
 70
     1
102
RTVSPost2010Prop36
280
     0
102
RTVSPost2010PropOp36
 70
     1
102
RTVSPost2010Prop37
 90
       50
102
RTVSPost2010PropOp37
 70
     1
102
RTVSPost2010Prop38
140
0.0
102
RTVSPost2010PropOp38
 70
     1
102
RTVSPost2010Prop39
140
1.0
102
RTVSPost2010PropOp39
 70
     1
102
RTVSPost2010Prop40
 90
        0
102
RTVSPost2010PropOp40
 70
     1
102
RTVSPost2010Prop41ColorIndex
 90
       18
102
RTVSPost2010Prop41ColorRGB
 90
        0
102
RTVSPost2010PropOp41
 70
     1
102
RTVSPost2010Prop42
 90
       50
102
RTVSPost2010PropOp42
 70
     1
102
RTVSPost2010Prop43
 90
        3
102
RTVSPost2010PropOp43
 70
     1
102
RTVSPost2010Prop44ColorIndex
 90
        5
102
RTVSPost2010Prop44ColorRGB
 90
      255
102
RTVSPost2010PropOp44
 70
     1
102
RTVSPost2010Prop45
280
     0
102
RTVSPost2010PropOp45
 70
     1
102
RTVSPost2010Prop46
 90
       50
102
RTVSPost2010PropOp46
 70
     1
102
RTVSPost2010Prop47
 90
       50
102
RTVSPost2010PropOp47
 70
     1
102
RTVSPost2010Prop48
 90
       50
102
RTVSPost2010PropOp48
 70
     1
102
RTVSPost2010Prop49
280
     0
102
RTVSPost2010PropOp49
 70
     1
102
RTVSPost2010Prop50
 90
       50
102
RTVSPost2010PropOp50
 70
     1
102
RTVSPost2010Prop51ColorIndex
 90
      256
102
RTVSPost2010Prop51ColorRGB
 90
-16777216
102
RTVSPost2010PropOp51
 70
     0
102
RTVSPost2010Prop52
140
1.0
102
RTVSPost2010PropOp52
 70
     0
102
RTVSPost2010Prop53
 90
        2
102
RTVSPost2010PropOp53
 70
     1
102
RTVSPost2010Prop54
  1
strokes_ogs.tif
102
RTVSPost2010PropOp54
 70
     1
102
RTVSPost2010Prop55
280
     0
102
RTVSPost2010PropOp55
 70
     1
102
RTVSPost2010Prop56
140
1.0
102
RTVSPost2010PropOp56
 70
     1
102
RTVSPost2010Prop57
140
1.0
102
RTVSPost2010PropOp57
 70
     1
102
RTVSPropertyOp0
 70
     1
102
RTVSPropertyOp1
 70
     1
102
RTVSPropertyOp2
 70
     1
102
RTVSPropertyOp3
 70
     1
102
RTVSPropertyOp4
 70
     1
102
RTVSPropertyOp5
 70
     1
102
RTVSPropertyOp6
 70
     1
102
RTVSPropertyOp7
 70
     1
102
RTVSPropertyOp8
 70
     1
102
RTVSPropertyOp9
 70
     1
102
RTVSPropertyOp10
 70
     1
102
RTVSPropertyOp11
 70
     1
102
RTVSPropertyOp12
 70
     1
102
RTVSPropertyOp13
 70
     1
102
RTVSPropertyOp14
 70
     1
102
RTVSPropertyOp15
 70
     1
102
RTVSPropertyOp16
 70
     1
102
RTVSPropertyOp17
 70
     1
102
RTVSPropertyOp18
 70
     1
102
RTVSPropertyOp19
 70
     1
102
RTVSPropertyOp20
 70
     1
102
RTVSPropertyOp21
 70
     1
102
RTVSPropertyOp22
 70
     1
102
RTVSPropertyOp23
 70
     1
102
RTVSPropertyOp24
 70
     1
102
RTVSPropertyOp25
 70
     1
102
RTVSPropertyOp26
 70
     1
102
RTVSPropertyOp27
 70
     1
102
RTVSPropertyOp28
 70
     1
102
RTVSPropertyOp29
 70
     1
102
RTVSPropertyOp30
 70
     1
102
RTVSPropertyOp31
 70
     1
102
RTVSPropertyOp32
 70
     1
102
RTVSPropertyOp33
 70
     1
102
RTVSPropertyOp34
 70
     1
102
RTVSPropertyOp35
 70
     1
102
RTVSPropertyOp36
 70
     1
102
RTVSPropertyOp37
 70
     1
102
RTVSPropertyOp38
 70
     1
102
RTVSPropertyOp39
 70
     1
102
RTVSPropertyOp40
 70
     1
102
RTVSPropertyOp41
 70
     1
102
RTVSPropertyOp42
 70
     1
102
RTVSPropertyOp43
 70
     1
102
RTVSPropertyOp44
 70
     1
102
RTVSPropertyOp45
 70
     1
102
RTVSPropertyOp46
 70
     1
102
RTVSPropertyOp47
 70
     1
102
RTVSPropertyOp48
 70
     1
102
RTVSPropertyOp49
 70
     1
102
RTVSPropertyOp50
 70
     1
102
RTVSPropertyOp51
 70
     0
102
RTVSPropertyOp52
 70
     0
102
RTVSPropertyOp53
 70
     1
102
RTVSPropertyOp54
 70
     1
102
RTVSPropertyOp55
 70
     1
102
RTVSPropertyOp56
 70
     1
102
RTVSPropertyOp57
 70
     1
102
RTVSPropertyOp58
 70
     1
102
RTVSPropertyOp59
 70
     1
102
RTVSPropertyOp60
 70
     1
102
RTVSPropertyOp61
 70
     1
102
RTVSPropertyOp62
 70
     1
  0
XRECORD
  5
848D
102
{ACAD_REACTORS
330
848C
102
}
330
848C
100
AcDbXrecord
280
     1
102
RTVSPost2010Prop28
280
     0
102
RTVSPost2010PropOp28
 70
     1
102
RTVSPost2010Prop29
280
     1
102
RTVSPost2010PropOp29
 70
     1
102
RTVSPost2010Prop30
280
     1
102
RTVSPost2010PropOp30
 70
     1
102
RTVSPost2010Prop31
280
     0
102
RTVSPost2010PropOp31
 70
     1
102
RTVSPost2010Prop32
280
     0
102
RTVSPost2010PropOp32
 70
     1
102
RTVSPost2010Prop33
280
     0
102
RTVSPost2010PropOp33
 70
     1
102
RTVSPost2010Prop34
280
     0
102
RTVSPost2010PropOp34
 70
     1
102
RTVSPost2010Prop35
280
     0
102
RTVSPost2010PropOp35
 70
     1
102
RTVSPost2010Prop36
280
     0
102
RTVSPost2010PropOp36
 70
     1
102
RTVSPost2010Prop37
 90
       50
102
RTVSPost2010PropOp37
 70
     1
102
RTVSPost2010Prop38
140
0.0
102
RTVSPost2010PropOp38
 70
     1
102
RTVSPost2010Prop39
140
1.0
102
RTVSPost2010PropOp39
 70
     1
102
RTVSPost2010Prop40
 90
        0
102
RTVSPost2010PropOp40
 70
     1
102
RTVSPost2010Prop41ColorIndex
 90
       18
102
RTVSPost2010Prop41ColorRGB
 90
        0
102
RTVSPost2010PropOp41
 70
     1
102
RTVSPost2010Prop42
 90
       50
102
RTVSPost2010PropOp42
 70
     1
102
RTVSPost2010Prop43
 90
        3
102
RTVSPost2010PropOp43
 70
     1
102
RTVSPost2010Prop44ColorIndex
 90
        5
102
RTVSPost2010Prop44ColorRGB
 90
      255
102
RTVSPost2010PropOp44
 70
     1
102
RTVSPost2010Prop45
280
     0
102
RTVSPost2010PropOp45
 70
     1
102
RTVSPost2010Prop46
 90
       50
102
RTVSPost2010PropOp46
 70
     1
102
RTVSPost2010Prop47
 90
       50
102
RTVSPost2010PropOp47
 70
     1
102
RTVSPost2010Prop48
 90
       50
102
RTVSPost2010PropOp48
 70
     1
102
RTVSPost2010Prop49
280
     0
102
RTVSPost2010PropOp49
 70
     1
102
RTVSPost2010Prop50
 90
       50
102
RTVSPost2010PropOp50
 70
     1
102
RTVSPost2010Prop51ColorIndex
 90
      256
102
RTVSPost2010Prop51ColorRGB
 90
-16777216
102
RTVSPost2010PropOp51
 70
     0
102
RTVSPost2010Prop52
140
1.0
102
RTVSPost2010PropOp52
 70
     0
102
RTVSPost2010Prop53
 90
        2
102
RTVSPost2010PropOp53
 70
     1
102
RTVSPost2010Prop54
  1
strokes_ogs.tif
102
RTVSPost2010PropOp54
 70
     1
102
RTVSPost2010Prop55
280
     0
102
RTVSPost2010PropOp55
 70
     1
102
RTVSPost2010Prop56
140
1.0
102
RTVSPost2010PropOp56
 70
     1
102
RTVSPost2010Prop57
140
1.0
102
RTVSPost2010PropOp57
 70
     1
102
RTVSPropertyOp0
 70
     1
102
RTVSPropertyOp1
 70
     1
102
RTVSPropertyOp2
 70
     1
102
RTVSPropertyOp3
 70
     1
102
RTVSPropertyOp4
 70
     1
102
RTVSPropertyOp5
 70
     1
102
RTVSPropertyOp6
 70
     1
102
RTVSPropertyOp7
 70
     1
102
RTVSPropertyOp8
 70
     1
102
RTVSPropertyOp9
 70
     1
102
RTVSPropertyOp10
 70
     1
102
RTVSPropertyOp11
 70
     1
102
RTVSPropertyOp12
 70
     1
102
RTVSPropertyOp13
 70
     1
102
RTVSPropertyOp14
 70
     1
102
RTVSPropertyOp15
 70
     1
102
RTVSPropertyOp16
 70
     1
102
RTVSPropertyOp17
 70
     1
102
RTVSPropertyOp18
 70
     1
102
RTVSPropertyOp19
 70
     1
102
RTVSPropertyOp20
 70
     1
102
RTVSPropertyOp21
 70
     1
102
RTVSPropertyOp22
 70
     1
102
RTVSPropertyOp23
 70
     1
102
RTVSPropertyOp24
 70
     1
102
RTVSPropertyOp25
 70
     1
102
RTVSPropertyOp26
 70
     1
102
RTVSPropertyOp27
 70
     1
102
RTVSPropertyOp28
 70
     1
102
RTVSPropertyOp29
 70
     1
102
RTVSPropertyOp30
 70
     1
102
RTVSPropertyOp31
 70
     1
102
RTVSPropertyOp32
 70
     1
102
RTVSPropertyOp33
 70
     1
102
RTVSPropertyOp34
 70
     1
102
RTVSPropertyOp35
 70
     1
102
RTVSPropertyOp36
 70
     1
102
RTVSPropertyOp37
 70
     1
102
RTVSPropertyOp38
 70
     1
102
RTVSPropertyOp39
 70
     1
102
RTVSPropertyOp40
 70
     1
102
RTVSPropertyOp41
 70
     1
102
RTVSPropertyOp42
 70
     1
102
RTVSPropertyOp43
 70
     1
102
RTVSPropertyOp44
 70
     1
102
RTVSPropertyOp45
 70
     1
102
RTVSPropertyOp46
 70
     1
102
RTVSPropertyOp47
 70
     1
102
RTVSPropertyOp48
 70
     1
102
RTVSPropertyOp49
 70
     1
102
RTVSPropertyOp50
 70
     1
102
RTVSPropertyOp51
 70
     0
102
RTVSPropertyOp52
 70
     0
102
RTVSPropertyOp53
 70
     1
102
RTVSPropertyOp54
 70
     1
102
RTVSPropertyOp55
 70
     1
102
RTVSPropertyOp56
 70
     1
102
RTVSPropertyOp57
 70
     1
102
RTVSPropertyOp58
 70
     1
102
RTVSPropertyOp59
 70
     1
102
RTVSPropertyOp60
 70
     1
102
RTVSPropertyOp61
 70
     1
102
RTVSPropertyOp62
 70
     1
  0
XRECORD
  5
849B
102
{ACAD_REACTORS
330
849A
102
}
330
849A
100
AcDbXrecord
280
     1
102
RTVSPost2010Prop28
280
     0
102
RTVSPost2010PropOp28
 70
     1
102
RTVSPost2010Prop29
280
     1
102
RTVSPost2010PropOp29
 70
     1
102
RTVSPost2010Prop30
280
     1
102
RTVSPost2010PropOp30
 70
     1
102
RTVSPost2010Prop31
280
     0
102
RTVSPost2010PropOp31
 70
     1
102
RTVSPost2010Prop32
280
     0
102
RTVSPost2010PropOp32
 70
     1
102
RTVSPost2010Prop33
280
     0
102
RTVSPost2010PropOp33
 70
     1
102
RTVSPost2010Prop34
280
     0
102
RTVSPost2010PropOp34
 70
     1
102
RTVSPost2010Prop35
280
     0
102
RTVSPost2010PropOp35
 70
     1
102
RTVSPost2010Prop36
280
     0
102
RTVSPost2010PropOp36
 70
     1
102
RTVSPost2010Prop37
 90
       50
102
RTVSPost2010PropOp37
 70
     1
102
RTVSPost2010Prop38
140
0.0
102
RTVSPost2010PropOp38
 70
     1
102
RTVSPost2010Prop39
140
1.0
102
RTVSPost2010PropOp39
 70
     1
102
RTVSPost2010Prop40
 90
        0
102
RTVSPost2010PropOp40
 70
     1
102
RTVSPost2010Prop41ColorIndex
 90
       18
102
RTVSPost2010Prop41ColorRGB
 90
        0
102
RTVSPost2010PropOp41
 70
     1
102
RTVSPost2010Prop42
 90
       50
102
RTVSPost2010PropOp42
 70
     1
102
RTVSPost2010Prop43
 90
        3
102
RTVSPost2010PropOp43
 70
     1
102
RTVSPost2010Prop44ColorIndex
 90
        5
102
RTVSPost2010Prop44ColorRGB
 90
      255
102
RTVSPost2010PropOp44
 70
     1
102
RTVSPost2010Prop45
280
     0
102
RTVSPost2010PropOp45
 70
     1
102
RTVSPost2010Prop46
 90
       50
102
RTVSPost2010PropOp46
 70
     1
102
RTVSPost2010Prop47
 90
       50
102
RTVSPost2010PropOp47
 70
     1
102
RTVSPost2010Prop48
 90
       50
102
RTVSPost2010PropOp48
 70
     1
102
RTVSPost2010Prop49
280
     0
102
RTVSPost2010PropOp49
 70
     1
102
RTVSPost2010Prop50
 90
       50
102
RTVSPost2010PropOp50
 70
     1
102
RTVSPost2010Prop51ColorIndex
 90
      256
102
RTVSPost2010Prop51ColorRGB
 90
-16777216
102
RTVSPost2010PropOp51
 70
     0
102
RTVSPost2010Prop52
140
1.0
102
RTVSPost2010PropOp52
 70
     0
102
RTVSPost2010Prop53
 90
        2
102
RTVSPost2010PropOp53
 70
     1
102
RTVSPost2010Prop54
  1
strokes_ogs.tif
102
RTVSPost2010PropOp54
 70
     1
102
RTVSPost2010Prop55
280
     0
102
RTVSPost2010PropOp55
 70
     1
102
RTVSPost2010Prop56
140
1.0
102
RTVSPost2010PropOp56
 70
     1
102
RTVSPost2010Prop57
140
1.0
102
RTVSPost2010PropOp57
 70
     1
102
RTVSPropertyOp0
 70
     1
102
RTVSPropertyOp1
 70
     1
102
RTVSPropertyOp2
 70
     1
102
RTVSPropertyOp3
 70
     1
102
RTVSPropertyOp4
 70
     1
102
RTVSPropertyOp5
 70
     1
102
RTVSPropertyOp6
 70
     1
102
RTVSPropertyOp7
 70
     1
102
RTVSPropertyOp8
 70
     1
102
RTVSPropertyOp9
 70
     1
102
RTVSPropertyOp10
 70
     1
102
RTVSPropertyOp11
 70
     1
102
RTVSPropertyOp12
 70
     1
102
RTVSPropertyOp13
 70
     1
102
RTVSPropertyOp14
 70
     1
102
RTVSPropertyOp15
 70
     1
102
RTVSPropertyOp16
 70
     1
102
RTVSPropertyOp17
 70
     1
102
RTVSPropertyOp18
 70
     1
102
RTVSPropertyOp19
 70
     1
102
RTVSPropertyOp20
 70
     1
102
RTVSPropertyOp21
 70
     1
102
RTVSPropertyOp22
 70
     1
102
RTVSPropertyOp23
 70
     1
102
RTVSPropertyOp24
 70
     1
102
RTVSPropertyOp25
 70
     1
102
RTVSPropertyOp26
 70
     1
102
RTVSPropertyOp27
 70
     1
102
RTVSPropertyOp28
 70
     1
102
RTVSPropertyOp29
 70
     1
102
RTVSPropertyOp30
 70
     1
102
RTVSPropertyOp31
 70
     1
102
RTVSPropertyOp32
 70
     1
102
RTVSPropertyOp33
 70
     1
102
RTVSPropertyOp34
 70
     1
102
RTVSPropertyOp35
 70
     1
102
RTVSPropertyOp36
 70
     1
102
RTVSPropertyOp37
 70
     1
102
RTVSPropertyOp38
 70
     1
102
RTVSPropertyOp39
 70
     1
102
RTVSPropertyOp40
 70
     1
102
RTVSPropertyOp41
 70
     1
102
RTVSPropertyOp42
 70
     1
102
RTVSPropertyOp43
 70
     1
102
RTVSPropertyOp44
 70
     1
102
RTVSPropertyOp45
 70
     1
102
RTVSPropertyOp46
 70
     1
102
RTVSPropertyOp47
 70
     1
102
RTVSPropertyOp48
 70
     1
102
RTVSPropertyOp49
 70
     1
102
RTVSPropertyOp50
 70
     1
102
RTVSPropertyOp51
 70
     0
102
RTVSPropertyOp52
 70
     0
102
RTVSPropertyOp53
 70
     1
102
RTVSPropertyOp54
 70
     1
102
RTVSPropertyOp55
 70
     1
102
RTVSPropertyOp56
 70
     1
102
RTVSPropertyOp57
 70
     1
102
RTVSPropertyOp58
 70
     1
102
RTVSPropertyOp59
 70
     1
102
RTVSPropertyOp60
 70
     1
102
RTVSPropertyOp61
 70
     1
102
RTVSPropertyOp62
 70
     1
  0
XRECORD
  5
84A3
102
{ACAD_REACTORS
330
84A2
102
}
330
84A2
100
AcDbXrecord
280
     1
102
RTVSPost2010Prop28
280
     0
102
RTVSPost2010PropOp28
 70
     1
102
RTVSPost2010Prop29
280
     1
102
RTVSPost2010PropOp29
 70
     1
102
RTVSPost2010Prop30
280
     1
102
RTVSPost2010PropOp30
 70
     1
102
RTVSPost2010Prop31
280
     0
102
RTVSPost2010PropOp31
 70
     1
102
RTVSPost2010Prop32
280
     0
102
RTVSPost2010PropOp32
 70
     1
102
RTVSPost2010Prop33
280
     0
102
RTVSPost2010PropOp33
 70
     1
102
RTVSPost2010Prop34
280
     0
102
RTVSPost2010PropOp34
 70
     1
102
RTVSPost2010Prop35
280
     0
102
RTVSPost2010PropOp35
 70
     1
102
RTVSPost2010Prop36
280
     0
102
RTVSPost2010PropOp36
 70
     1
102
RTVSPost2010Prop37
 90
       50
102
RTVSPost2010PropOp37
 70
     1
102
RTVSPost2010Prop38
140
0.0
102
RTVSPost2010PropOp38
 70
     1
102
RTVSPost2010Prop39
140
1.0
102
RTVSPost2010PropOp39
 70
     1
102
RTVSPost2010Prop40
 90
        0
102
RTVSPost2010PropOp40
 70
     1
102
RTVSPost2010Prop41ColorIndex
 90
       18
102
RTVSPost2010Prop41ColorRGB
 90
        0
102
RTVSPost2010PropOp41
 70
     1
102
RTVSPost2010Prop42
 90
       50
102
RTVSPost2010PropOp42
 70
     1
102
RTVSPost2010Prop43
 90
        3
102
RTVSPost2010PropOp43
 70
     1
102
RTVSPost2010Prop44ColorIndex
 90
        5
102
RTVSPost2010Prop44ColorRGB
 90
      255
102
RTVSPost2010PropOp44
 70
     1
102
RTVSPost2010Prop45
280
     0
102
RTVSPost2010PropOp45
 70
     1
102
RTVSPost2010Prop46
 90
       50
102
RTVSPost2010PropOp46
 70
     1
102
RTVSPost2010Prop47
 90
       50
102
RTVSPost2010PropOp47
 70
     1
102
RTVSPost2010Prop48
 90
       50
102
RTVSPost2010PropOp48
 70
     1
102
RTVSPost2010Prop49
280
     0
102
RTVSPost2010PropOp49
 70
     1
102
RTVSPost2010Prop50
 90
       50
102
RTVSPost2010PropOp50
 70
     1
102
RTVSPost2010Prop51ColorIndex
 90
      256
102
RTVSPost2010Prop51ColorRGB
 90
-16777216
102
RTVSPost2010PropOp51
 70
     0
102
RTVSPost2010Prop52
140
1.0
102
RTVSPost2010PropOp52
 70
     0
102
RTVSPost2010Prop53
 90
        2
102
RTVSPost2010PropOp53
 70
     1
102
RTVSPost2010Prop54
  1
strokes_ogs.tif
102
RTVSPost2010PropOp54
 70
     1
102
RTVSPost2010Prop55
280
     0
102
RTVSPost2010PropOp55
 70
     1
102
RTVSPost2010Prop56
140
1.0
102
RTVSPost2010PropOp56
 70
     1
102
RTVSPost2010Prop57
140
1.0
102
RTVSPost2010PropOp57
 70
     1
102
RTVSPropertyOp0
 70
     1
102
RTVSPropertyOp1
 70
     1
102
RTVSPropertyOp2
 70
     1
102
RTVSPropertyOp3
 70
     1
102
RTVSPropertyOp4
 70
     1
102
RTVSPropertyOp5
 70
     1
102
RTVSPropertyOp6
 70
     1
102
RTVSPropertyOp7
 70
     1
102
RTVSPropertyOp8
 70
     1
102
RTVSPropertyOp9
 70
     1
102
RTVSPropertyOp10
 70
     1
102
RTVSPropertyOp11
 70
     1
102
RTVSPropertyOp12
 70
     1
102
RTVSPropertyOp13
 70
     1
102
RTVSPropertyOp14
 70
     1
102
RTVSPropertyOp15
 70
     1
102
RTVSPropertyOp16
 70
     1
102
RTVSPropertyOp17
 70
     1
102
RTVSPropertyOp18
 70
     1
102
RTVSPropertyOp19
 70
     1
102
RTVSPropertyOp20
 70
     1
102
RTVSPropertyOp21
 70
     1
102
RTVSPropertyOp22
 70
     1
102
RTVSPropertyOp23
 70
     1
102
RTVSPropertyOp24
 70
     1
102
RTVSPropertyOp25
 70
     1
102
RTVSPropertyOp26
 70
     1
102
RTVSPropertyOp27
 70
     1
102
RTVSPropertyOp28
 70
     1
102
RTVSPropertyOp29
 70
     1
102
RTVSPropertyOp30
 70
     1
102
RTVSPropertyOp31
 70
     1
102
RTVSPropertyOp32
 70
     1
102
RTVSPropertyOp33
 70
     1
102
RTVSPropertyOp34
 70
     1
102
RTVSPropertyOp35
 70
     1
102
RTVSPropertyOp36
 70
     1
102
RTVSPropertyOp37
 70
     1
102
RTVSPropertyOp38
 70
     1
102
RTVSPropertyOp39
 70
     1
102
RTVSPropertyOp40
 70
     1
102
RTVSPropertyOp41
 70
     1
102
RTVSPropertyOp42
 70
     1
102
RTVSPropertyOp43
 70
     1
102
RTVSPropertyOp44
 70
     1
102
RTVSPropertyOp45
 70
     1
102
RTVSPropertyOp46
 70
     1
102
RTVSPropertyOp47
 70
     1
102
RTVSPropertyOp48
 70
     1
102
RTVSPropertyOp49
 70
     1
102
RTVSPropertyOp50
 70
     1
102
RTVSPropertyOp51
 70
     0
102
RTVSPropertyOp52
 70
     0
102
RTVSPropertyOp53
 70
     1
102
RTVSPropertyOp54
 70
     1
102
RTVSPropertyOp55
 70
     1
102
RTVSPropertyOp56
 70
     1
102
RTVSPropertyOp57
 70
     1
102
RTVSPropertyOp58
 70
     1
102
RTVSPropertyOp59
 70
     1
102
RTVSPropertyOp60
 70
     1
102
RTVSPropertyOp61
 70
     1
102
RTVSPropertyOp62
 70
     1
  0
XRECORD
  5
8495
102
{ACAD_REACTORS
330
8494
102
}
330
8494
100
AcDbXrecord
280
     1
102
RTVSPost2010Prop28
280
     0
102
RTVSPost2010PropOp28
 70
     1
102
RTVSPost2010Prop29
280
     1
102
RTVSPost2010PropOp29
 70
     1
102
RTVSPost2010Prop30
280
     1
102
RTVSPost2010PropOp30
 70
     1
102
RTVSPost2010Prop31
280
     0
102
RTVSPost2010PropOp31
 70
     1
102
RTVSPost2010Prop32
280
     0
102
RTVSPost2010PropOp32
 70
     1
102
RTVSPost2010Prop33
280
     0
102
RTVSPost2010PropOp33
 70
     1
102
RTVSPost2010Prop34
280
     0
102
RTVSPost2010PropOp34
 70
     1
102
RTVSPost2010Prop35
280
     0
102
RTVSPost2010PropOp35
 70
     1
102
RTVSPost2010Prop36
280
     0
102
RTVSPost2010PropOp36
 70
     1
102
RTVSPost2010Prop37
 90
       50
102
RTVSPost2010PropOp37
 70
     1
102
RTVSPost2010Prop38
140
0.0
102
RTVSPost2010PropOp38
 70
     1
102
RTVSPost2010Prop39
140
1.0
102
RTVSPost2010PropOp39
 70
     1
102
RTVSPost2010Prop40
 90
        0
102
RTVSPost2010PropOp40
 70
     1
102
RTVSPost2010Prop41ColorIndex
 90
       18
102
RTVSPost2010Prop41ColorRGB
 90
        0
102
RTVSPost2010PropOp41
 70
     1
102
RTVSPost2010Prop42
 90
       50
102
RTVSPost2010PropOp42
 70
     1
102
RTVSPost2010Prop43
 90
        3
102
RTVSPost2010PropOp43
 70
     1
102
RTVSPost2010Prop44ColorIndex
 90
        5
102
RTVSPost2010Prop44ColorRGB
 90
      255
102
RTVSPost2010PropOp44
 70
     1
102
RTVSPost2010Prop45
280
     0
102
RTVSPost2010PropOp45
 70
     1
102
RTVSPost2010Prop46
 90
       50
102
RTVSPost2010PropOp46
 70
     1
102
RTVSPost2010Prop47
 90
       50
102
RTVSPost2010PropOp47
 70
     1
102
RTVSPost2010Prop48
 90
       50
102
RTVSPost2010PropOp48
 70
     1
102
RTVSPost2010Prop49
280
     0
102
RTVSPost2010PropOp49
 70
     1
102
RTVSPost2010Prop50
 90
       50
102
RTVSPost2010PropOp50
 70
     1
102
RTVSPost2010Prop51ColorIndex
 90
      256
102
RTVSPost2010Prop51ColorRGB
 90
-16777216
102
RTVSPost2010PropOp51
 70
     0
102
RTVSPost2010Prop52
140
1.0
102
RTVSPost2010PropOp52
 70
     0
102
RTVSPost2010Prop53
 90
        2
102
RTVSPost2010PropOp53
 70
     1
102
RTVSPost2010Prop54
  1
strokes_ogs.tif
102
RTVSPost2010PropOp54
 70
     1
102
RTVSPost2010Prop55
280
     0
102
RTVSPost2010PropOp55
 70
     1
102
RTVSPost2010Prop56
140
1.0
102
RTVSPost2010PropOp56
 70
     1
102
RTVSPost2010Prop57
140
1.0
102
RTVSPost2010PropOp57
 70
     1
102
RTVSPropertyOp0
 70
     1
102
RTVSPropertyOp1
 70
     1
102
RTVSPropertyOp2
 70
     1
102
RTVSPropertyOp3
 70
     1
102
RTVSPropertyOp4
 70
     1
102
RTVSPropertyOp5
 70
     1
102
RTVSPropertyOp6
 70
     1
102
RTVSPropertyOp7
 70
     1
102
RTVSPropertyOp8
 70
     1
102
RTVSPropertyOp9
 70
     1
102
RTVSPropertyOp10
 70
     1
102
RTVSPropertyOp11
 70
     1
102
RTVSPropertyOp12
 70
     1
102
RTVSPropertyOp13
 70
     1
102
RTVSPropertyOp14
 70
     1
102
RTVSPropertyOp15
 70
     1
102
RTVSPropertyOp16
 70
     1
102
RTVSPropertyOp17
 70
     1
102
RTVSPropertyOp18
 70
     1
102
RTVSPropertyOp19
 70
     1
102
RTVSPropertyOp20
 70
     1
102
RTVSPropertyOp21
 70
     1
102
RTVSPropertyOp22
 70
     1
102
RTVSPropertyOp23
 70
     1
102
RTVSPropertyOp24
 70
     1
102
RTVSPropertyOp25
 70
     1
102
RTVSPropertyOp26
 70
     1
102
RTVSPropertyOp27
 70
     1
102
RTVSPropertyOp28
 70
     1
102
RTVSPropertyOp29
 70
     1
102
RTVSPropertyOp30
 70
     1
102
RTVSPropertyOp31
 70
     1
102
RTVSPropertyOp32
 70
     1
102
RTVSPropertyOp33
 70
     1
102
RTVSPropertyOp34
 70
     1
102
RTVSPropertyOp35
 70
     1
102
RTVSPropertyOp36
 70
     1
102
RTVSPropertyOp37
 70
     1
102
RTVSPropertyOp38
 70
     1
102
RTVSPropertyOp39
 70
     1
102
RTVSPropertyOp40
 70
     1
102
RTVSPropertyOp41
 70
     1
102
RTVSPropertyOp42
 70
     1
102
RTVSPropertyOp43
 70
     1
102
RTVSPropertyOp44
 70
     1
102
RTVSPropertyOp45
 70
     1
102
RTVSPropertyOp46
 70
     1
102
RTVSPropertyOp47
 70
     1
102
RTVSPropertyOp48
 70
     1
102
RTVSPropertyOp49
 70
     1
102
RTVSPropertyOp50
 70
     1
102
RTVSPropertyOp51
 70
     0
102
RTVSPropertyOp52
 70
     0
102
RTVSPropertyOp53
 70
     1
102
RTVSPropertyOp54
 70
     1
102
RTVSPropertyOp55
 70
     1
102
RTVSPropertyOp56
 70
     1
102
RTVSPropertyOp57
 70
     1
102
RTVSPropertyOp58
 70
     1
102
RTVSPropertyOp59
 70
     1
102
RTVSPropertyOp60
 70
     1
102
RTVSPropertyOp61
 70
     1
102
RTVSPropertyOp62
 70
     1
  0
XRECORD
  5
8499
102
{ACAD_REACTORS
330
8498
102
}
330
8498
100
AcDbXrecord
280
     1
102
RTVSPost2010Prop28
280
     0
102
RTVSPost2010PropOp28
 70
     1
102
RTVSPost2010Prop29
280
     1
102
RTVSPost2010PropOp29
 70
     1
102
RTVSPost2010Prop30
280
     1
102
RTVSPost2010PropOp30
 70
     1
102
RTVSPost2010Prop31
280
     0
102
RTVSPost2010PropOp31
 70
     1
102
RTVSPost2010Prop32
280
     0
102
RTVSPost2010PropOp32
 70
     1
102
RTVSPost2010Prop33
280
     0
102
RTVSPost2010PropOp33
 70
     1
102
RTVSPost2010Prop34
280
     0
102
RTVSPost2010PropOp34
 70
     1
102
RTVSPost2010Prop35
280
     0
102
RTVSPost2010PropOp35
 70
     1
102
RTVSPost2010Prop36
280
     0
102
RTVSPost2010PropOp36
 70
     1
102
RTVSPost2010Prop37
 90
       50
102
RTVSPost2010PropOp37
 70
     1
102
RTVSPost2010Prop38
140
0.0
102
RTVSPost2010PropOp38
 70
     1
102
RTVSPost2010Prop39
140
1.0
102
RTVSPost2010PropOp39
 70
     1
102
RTVSPost2010Prop40
 90
        0
102
RTVSPost2010PropOp40
 70
     1
102
RTVSPost2010Prop41ColorIndex
 90
       18
102
RTVSPost2010Prop41ColorRGB
 90
        0
102
RTVSPost2010PropOp41
 70
     1
102
RTVSPost2010Prop42
 90
       50
102
RTVSPost2010PropOp42
 70
     1
102
RTVSPost2010Prop43
 90
        3
102
RTVSPost2010PropOp43
 70
     1
102
RTVSPost2010Prop44ColorIndex
 90
        5
102
RTVSPost2010Prop44ColorRGB
 90
      255
102
RTVSPost2010PropOp44
 70
     1
102
RTVSPost2010Prop45
280
     0
102
RTVSPost2010PropOp45
 70
     1
102
RTVSPost2010Prop46
 90
       50
102
RTVSPost2010PropOp46
 70
     1
102
RTVSPost2010Prop47
 90
       50
102
RTVSPost2010PropOp47
 70
     1
102
RTVSPost2010Prop48
 90
       50
102
RTVSPost2010PropOp48
 70
     1
102
RTVSPost2010Prop49
280
     0
102
RTVSPost2010PropOp49
 70
     1
102
RTVSPost2010Prop50
 90
       50
102
RTVSPost2010PropOp50
 70
     1
102
RTVSPost2010Prop51ColorIndex
 90
      256
102
RTVSPost2010Prop51ColorRGB
 90
-16777216
102
RTVSPost2010PropOp51
 70
     0
102
RTVSPost2010Prop52
140
1.0
102
RTVSPost2010PropOp52
 70
     0
102
RTVSPost2010Prop53
 90
        2
102
RTVSPost2010PropOp53
 70
     1
102
RTVSPost2010Prop54
  1
strokes_ogs.tif
102
RTVSPost2010PropOp54
 70
     1
102
RTVSPost2010Prop55
280
     0
102
RTVSPost2010PropOp55
 70
     1
102
RTVSPost2010Prop56
140
1.0
102
RTVSPost2010PropOp56
 70
     1
102
RTVSPost2010Prop57
140
1.0
102
RTVSPost2010PropOp57
 70
     1
102
RTVSPropertyOp0
 70
     1
102
RTVSPropertyOp1
 70
     1
102
RTVSPropertyOp2
 70
     1
102
RTVSPropertyOp3
 70
     1
102
RTVSPropertyOp4
 70
     1
102
RTVSPropertyOp5
 70
     1
102
RTVSPropertyOp6
 70
     1
102
RTVSPropertyOp7
 70
     1
102
RTVSPropertyOp8
 70
     1
102
RTVSPropertyOp9
 70
     1
102
RTVSPropertyOp10
 70
     1
102
RTVSPropertyOp11
 70
     1
102
RTVSPropertyOp12
 70
     1
102
RTVSPropertyOp13
 70
     1
102
RTVSPropertyOp14
 70
     1
102
RTVSPropertyOp15
 70
     1
102
RTVSPropertyOp16
 70
     1
102
RTVSPropertyOp17
 70
     1
102
RTVSPropertyOp18
 70
     1
102
RTVSPropertyOp19
 70
     1
102
RTVSPropertyOp20
 70
     1
102
RTVSPropertyOp21
 70
     1
102
RTVSPropertyOp22
 70
     1
102
RTVSPropertyOp23
 70
     1
102
RTVSPropertyOp24
 70
     1
102
RTVSPropertyOp25
 70
     1
102
RTVSPropertyOp26
 70
     1
102
RTVSPropertyOp27
 70
     1
102
RTVSPropertyOp28
 70
     1
102
RTVSPropertyOp29
 70
     1
102
RTVSPropertyOp30
 70
     1
102
RTVSPropertyOp31
 70
     1
102
RTVSPropertyOp32
 70
     1
102
RTVSPropertyOp33
 70
     1
102
RTVSPropertyOp34
 70
     1
102
RTVSPropertyOp35
 70
     1
102
RTVSPropertyOp36
 70
     1
102
RTVSPropertyOp37
 70
     1
102
RTVSPropertyOp38
 70
     1
102
RTVSPropertyOp39
 70
     1
102
RTVSPropertyOp40
 70
     1
102
RTVSPropertyOp41
 70
     1
102
RTVSPropertyOp42
 70
     1
102
RTVSPropertyOp43
 70
     1
102
RTVSPropertyOp44
 70
     1
102
RTVSPropertyOp45
 70
     1
102
RTVSPropertyOp46
 70
     1
102
RTVSPropertyOp47
 70
     1
102
RTVSPropertyOp48
 70
     1
102
RTVSPropertyOp49
 70
     1
102
RTVSPropertyOp50
 70
     1
102
RTVSPropertyOp51
 70
     0
102
RTVSPropertyOp52
 70
     0
102
RTVSPropertyOp53
 70
     1
102
RTVSPropertyOp54
 70
     1
102
RTVSPropertyOp55
 70
     1
102
RTVSPropertyOp56
 70
     1
102
RTVSPropertyOp57
 70
     1
102
RTVSPropertyOp58
 70
     1
102
RTVSPropertyOp59
 70
     1
102
RTVSPropertyOp60
 70
     1
102
RTVSPropertyOp61
 70
     1
102
RTVSPropertyOp62
 70
     1
  0
XRECORD
  5
84B3
102
{ACAD_REACTORS
330
84B2
102
}
330
84B2
100
AcDbXrecord
280
     1
102
RTVSPost2010Prop28
280
     0
102
RTVSPost2010PropOp28
 70
     1
102
RTVSPost2010Prop29
280
     1
102
RTVSPost2010PropOp29
 70
     1
102
RTVSPost2010Prop30
280
     1
102
RTVSPost2010PropOp30
 70
     1
102
RTVSPost2010Prop31
280
     0
102
RTVSPost2010PropOp31
 70
     1
102
RTVSPost2010Prop32
280
     0
102
RTVSPost2010PropOp32
 70
     1
102
RTVSPost2010Prop33
280
     0
102
RTVSPost2010PropOp33
 70
     1
102
RTVSPost2010Prop34
280
     0
102
RTVSPost2010PropOp34
 70
     1
102
RTVSPost2010Prop35
280
     0
102
RTVSPost2010PropOp35
 70
     1
102
RTVSPost2010Prop36
280
     0
102
RTVSPost2010PropOp36
 70
     1
102
RTVSPost2010Prop37
 90
       50
102
RTVSPost2010PropOp37
 70
     0
102
RTVSPost2010Prop38
140
0.0
102
RTVSPost2010PropOp38
 70
     0
102
RTVSPost2010Prop39
140
1.0
102
RTVSPost2010PropOp39
 70
     0
102
RTVSPost2010Prop40
 90
        0
102
RTVSPost2010PropOp40
 70
     0
102
RTVSPost2010Prop41ColorIndex
 90
       18
102
RTVSPost2010Prop41ColorRGB
 90
        0
102
RTVSPost2010PropOp41
 70
     0
102
RTVSPost2010Prop42
 90
       50
102
RTVSPost2010PropOp42
 70
     0
102
RTVSPost2010Prop43
 90
        3
102
RTVSPost2010PropOp43
 70
     0
102
RTVSPost2010Prop44ColorIndex
 90
        5
102
RTVSPost2010Prop44ColorRGB
 90
      255
102
RTVSPost2010PropOp44
 70
     0
102
RTVSPost2010Prop45
280
     0
102
RTVSPost2010PropOp45
 70
     1
102
RTVSPost2010Prop46
 90
       50
102
RTVSPost2010PropOp46
 70
     0
102
RTVSPost2010Prop47
 90
       50
102
RTVSPost2010PropOp47
 70
     0
102
RTVSPost2010Prop48
 90
       50
102
RTVSPost2010PropOp48
 70
     0
102
RTVSPost2010Prop49
280
     0
102
RTVSPost2010PropOp49
 70
     1
102
RTVSPost2010Prop50
 90
       50
102
RTVSPost2010PropOp50
 70
     0
102
RTVSPost2010Prop51ColorIndex
 90
      256
102
RTVSPost2010Prop51ColorRGB
 90
-16777216
102
RTVSPost2010PropOp51
 70
     0
102
RTVSPost2010Prop52
140
1.0
102
RTVSPost2010PropOp52
 70
     0
102
RTVSPost2010Prop53
 90
        2
102
RTVSPost2010PropOp53
 70
     0
102
RTVSPost2010Prop54
  1
strokes_ogs.tif
102
RTVSPost2010PropOp54
 70
     0
102
RTVSPost2010Prop55
280
     0
102
RTVSPost2010PropOp55
 70
     1
102
RTVSPost2010Prop56
140
1.0
102
RTVSPost2010PropOp56
 70
     0
102
RTVSPost2010Prop57
140
1.0
102
RTVSPost2010PropOp57
 70
     0
102
RTVSPropertyOp0
 70
     0
102
RTVSPropertyOp1
 70
     0
102
RTVSPropertyOp2
 70
     0
102
RTVSPropertyOp3
 70
     0
102
RTVSPropertyOp4
 70
     0
102
RTVSPropertyOp5
 70
     0
102
RTVSPropertyOp6
 70
     0
102
RTVSPropertyOp7
 70
     0
102
RTVSPropertyOp8
 70
     0
102
RTVSPropertyOp9
 70
     0
102
RTVSPropertyOp10
 70
     0
102
RTVSPropertyOp11
 70
     0
102
RTVSPropertyOp12
 70
     0
102
RTVSPropertyOp13
 70
     0
102
RTVSPropertyOp14
 70
     2
102
RTVSPropertyOp15
 70
     0
102
RTVSPropertyOp16
 70
     0
102
RTVSPropertyOp17
 70
     0
102
RTVSPropertyOp18
 70
     0
102
RTVSPropertyOp19
 70
     0
102
RTVSPropertyOp20
 70
     0
102
RTVSPropertyOp21
 70
     0
102
RTVSPropertyOp22
 70
     0
102
RTVSPropertyOp23
 70
     0
102
RTVSPropertyOp24
 70
     0
102
RTVSPropertyOp25
 70
     0
102
RTVSPropertyOp26
 70
     0
102
RTVSPropertyOp27
 70
     0
102
RTVSPropertyOp28
 70
     1
102
RTVSPropertyOp29
 70
     1
102
RTVSPropertyOp30
 70
     1
102
RTVSPropertyOp31
 70
     1
102
RTVSPropertyOp32
 70
     1
102
RTVSPropertyOp33
 70
     1
102
RTVSPropertyOp34
 70
     1
102
RTVSPropertyOp35
 70
     1
102
RTVSPropertyOp36
 70
     1
102
RTVSPropertyOp37
 70
     0
102
RTVSPropertyOp38
 70
     0
102
RTVSPropertyOp39
 70
     0
102
RTVSPropertyOp40
 70
     0
102
RTVSPropertyOp41
 70
     0
102
RTVSPropertyOp42
 70
     0
102
RTVSPropertyOp43
 70
     0
102
RTVSPropertyOp44
 70
     0
102
RTVSPropertyOp45
 70
     1
102
RTVSPropertyOp46
 70
     0
102
RTVSPropertyOp47
 70
     0
102
RTVSPropertyOp48
 70
     0
102
RTVSPropertyOp49
 70
     1
102
RTVSPropertyOp50
 70
     0
102
RTVSPropertyOp51
 70
     0
102
RTVSPropertyOp52
 70
     0
102
RTVSPropertyOp53
 70
     0
102
RTVSPropertyOp54
 70
     0
102
RTVSPropertyOp55
 70
     1
102
RTVSPropertyOp56
 70
     0
102
RTVSPropertyOp57
 70
     0
102
RTVSPropertyOp58
 70
     0
102
RTVSPropertyOp59
 70
     0
102
RTVSPropertyOp60
 70
     0
102
RTVSPropertyOp61
 70
     0
102
RTVSPropertyOp62
 70
     0
  0
XRECORD
  5
84A1
102
{ACAD_REACTORS
330
84A0
102
}
330
84A0
100
AcDbXrecord
280
     1
102
RTVSPost2010Prop28
280
     0
102
RTVSPost2010PropOp28
 70
     1
102
RTVSPost2010Prop29
280
     1
102
RTVSPost2010PropOp29
 70
     1
102
RTVSPost2010Prop30
280
     1
102
RTVSPost2010PropOp30
 70
     1
102
RTVSPost2010Prop31
280
     0
102
RTVSPost2010PropOp31
 70
     1
102
RTVSPost2010Prop32
280
     0
102
RTVSPost2010PropOp32
 70
     1
102
RTVSPost2010Prop33
280
     0
102
RTVSPost2010PropOp33
 70
     1
102
RTVSPost2010Prop34
280
     0
102
RTVSPost2010PropOp34
 70
     1
102
RTVSPost2010Prop35
280
     0
102
RTVSPost2010PropOp35
 70
     1
102
RTVSPost2010Prop36
280
     0
102
RTVSPost2010PropOp36
 70
     1
102
RTVSPost2010Prop37
 90
       50
102
RTVSPost2010PropOp37
 70
     1
102
RTVSPost2010Prop38
140
0.0
102
RTVSPost2010PropOp38
 70
     1
102
RTVSPost2010Prop39
140
1.0
102
RTVSPost2010PropOp39
 70
     1
102
RTVSPost2010Prop40
 90
        0
102
RTVSPost2010PropOp40
 70
     1
102
RTVSPost2010Prop41ColorIndex
 90
       18
102
RTVSPost2010Prop41ColorRGB
 90
        0
102
RTVSPost2010PropOp41
 70
     1
102
RTVSPost2010Prop42
 90
       50
102
RTVSPost2010PropOp42
 70
     1
102
RTVSPost2010Prop43
 90
        3
102
RTVSPost2010PropOp43
 70
     1
102
RTVSPost2010Prop44ColorIndex
 90
        5
102
RTVSPost2010Prop44ColorRGB
 90
      255
102
RTVSPost2010PropOp44
 70
     1
102
RTVSPost2010Prop45
280
     0
102
RTVSPost2010PropOp45
 70
     1
102
RTVSPost2010Prop46
 90
       50
102
RTVSPost2010PropOp46
 70
     1
102
RTVSPost2010Prop47
 90
       50
102
RTVSPost2010PropOp47
 70
     1
102
RTVSPost2010Prop48
 90
       50
102
RTVSPost2010PropOp48
 70
     1
102
RTVSPost2010Prop49
280
     0
102
RTVSPost2010PropOp49
 70
     1
102
RTVSPost2010Prop50
 90
       50
102
RTVSPost2010PropOp50
 70
     1
102
RTVSPost2010Prop51ColorIndex
 90
      256
102
RTVSPost2010Prop51ColorRGB
 90
-16777216
102
RTVSPost2010PropOp51
 70
     0
102
RTVSPost2010Prop52
140
1.0
102
RTVSPost2010PropOp52
 70
     0
102
RTVSPost2010Prop53
 90
        2
102
RTVSPost2010PropOp53
 70
     1
102
RTVSPost2010Prop54
  1
strokes_ogs.tif
102
RTVSPost2010PropOp54
 70
     1
102
RTVSPost2010Prop55
280
     0
102
RTVSPost2010PropOp55
 70
     1
102
RTVSPost2010Prop56
140
1.0
102
RTVSPost2010PropOp56
 70
     1
102
RTVSPost2010Prop57
140
1.0
102
RTVSPost2010PropOp57
 70
     1
102
RTVSPropertyOp0
 70
     1
102
RTVSPropertyOp1
 70
     1
102
RTVSPropertyOp2
 70
     1
102
RTVSPropertyOp3
 70
     1
102
RTVSPropertyOp4
 70
     1
102
RTVSPropertyOp5
 70
     1
102
RTVSPropertyOp6
 70
     1
102
RTVSPropertyOp7
 70
     1
102
RTVSPropertyOp8
 70
     1
102
RTVSPropertyOp9
 70
     1
102
RTVSPropertyOp10
 70
     1
102
RTVSPropertyOp11
 70
     1
102
RTVSPropertyOp12
 70
     1
102
RTVSPropertyOp13
 70
     1
102
RTVSPropertyOp14
 70
     1
102
RTVSPropertyOp15
 70
     1
102
RTVSPropertyOp16
 70
     1
102
RTVSPropertyOp17
 70
     1
102
RTVSPropertyOp18
 70
     1
102
RTVSPropertyOp19
 70
     1
102
RTVSPropertyOp20
 70
     1
102
RTVSPropertyOp21
 70
     1
102
RTVSPropertyOp22
 70
     1
102
RTVSPropertyOp23
 70
     1
102
RTVSPropertyOp24
 70
     1
102
RTVSPropertyOp25
 70
     1
102
RTVSPropertyOp26
 70
     1
102
RTVSPropertyOp27
 70
     1
102
RTVSPropertyOp28
 70
     1
102
RTVSPropertyOp29
 70
     1
102
RTVSPropertyOp30
 70
     1
102
RTVSPropertyOp31
 70
     1
102
RTVSPropertyOp32
 70
     1
102
RTVSPropertyOp33
 70
     1
102
RTVSPropertyOp34
 70
     1
102
RTVSPropertyOp35
 70
     1
102
RTVSPropertyOp36
 70
     1
102
RTVSPropertyOp37
 70
     1
102
RTVSPropertyOp38
 70
     1
102
RTVSPropertyOp39
 70
     1
102
RTVSPropertyOp40
 70
     1
102
RTVSPropertyOp41
 70
     1
102
RTVSPropertyOp42
 70
     1
102
RTVSPropertyOp43
 70
     1
102
RTVSPropertyOp44
 70
     1
102
RTVSPropertyOp45
 70
     1
102
RTVSPropertyOp46
 70
     1
102
RTVSPropertyOp47
 70
     1
102
RTVSPropertyOp48
 70
     1
102
RTVSPropertyOp49
 70
     1
102
RTVSPropertyOp50
 70
     1
102
RTVSPropertyOp51
 70
     0
102
RTVSPropertyOp52
 70
     0
102
RTVSPropertyOp53
 70
     1
102
RTVSPropertyOp54
 70
     1
102
RTVSPropertyOp55
 70
     1
102
RTVSPropertyOp56
 70
     1
102
RTVSPropertyOp57
 70
     1
102
RTVSPropertyOp58
 70
     1
102
RTVSPropertyOp59
 70
     1
102
RTVSPropertyOp60
 70
     1
102
RTVSPropertyOp61
 70
     1
102
RTVSPropertyOp62
 70
     1
  0
XRECORD
  5
8485
102
{ACAD_REACTORS
330
8484
102
}
330
8484
100
AcDbXrecord
280
     1
102
RTVSPost2010Prop28
280
     0
102
RTVSPost2010PropOp28
 70
     1
102
RTVSPost2010Prop29
280
     1
102
RTVSPost2010PropOp29
 70
     1
102
RTVSPost2010Prop30
280
     1
102
RTVSPost2010PropOp30
 70
     1
102
RTVSPost2010Prop31
280
     0
102
RTVSPost2010PropOp31
 70
     1
102
RTVSPost2010Prop32
280
     0
102
RTVSPost2010PropOp32
 70
     1
102
RTVSPost2010Prop33
280
     0
102
RTVSPost2010PropOp33
 70
     1
102
RTVSPost2010Prop34
280
     0
102
RTVSPost2010PropOp34
 70
     1
102
RTVSPost2010Prop35
280
     0
102
RTVSPost2010PropOp35
 70
     1
102
RTVSPost2010Prop36
280
     0
102
RTVSPost2010PropOp36
 70
     1
102
RTVSPost2010Prop37
 90
       50
102
RTVSPost2010PropOp37
 70
     1
102
RTVSPost2010Prop38
140
0.0
102
RTVSPost2010PropOp38
 70
     1
102
RTVSPost2010Prop39
140
1.0
102
RTVSPost2010PropOp39
 70
     1
102
RTVSPost2010Prop40
 90
        0
102
RTVSPost2010PropOp40
 70
     1
102
RTVSPost2010Prop41ColorIndex
 90
       18
102
RTVSPost2010Prop41ColorRGB
 90
        0
102
RTVSPost2010PropOp41
 70
     1
102
RTVSPost2010Prop42
 90
       50
102
RTVSPost2010PropOp42
 70
     1
102
RTVSPost2010Prop43
 90
        3
102
RTVSPost2010PropOp43
 70
     1
102
RTVSPost2010Prop44ColorIndex
 90
        5
102
RTVSPost2010Prop44ColorRGB
 90
      255
102
RTVSPost2010PropOp44
 70
     1
102
RTVSPost2010Prop45
280
     0
102
RTVSPost2010PropOp45
 70
     1
102
RTVSPost2010Prop46
 90
       50
102
RTVSPost2010PropOp46
 70
     1
102
RTVSPost2010Prop47
 90
       50
102
RTVSPost2010PropOp47
 70
     1
102
RTVSPost2010Prop48
 90
       50
102
RTVSPost2010PropOp48
 70
     1
102
RTVSPost2010Prop49
280
     0
102
RTVSPost2010PropOp49
 70
     1
102
RTVSPost2010Prop50
 90
       50
102
RTVSPost2010PropOp50
 70
     1
102
RTVSPost2010Prop51ColorIndex
 90
      256
102
RTVSPost2010Prop51ColorRGB
 90
-16777216
102
RTVSPost2010PropOp51
 70
     0
102
RTVSPost2010Prop52
140
1.0
102
RTVSPost2010PropOp52
 70
     0
102
RTVSPost2010Prop53
 90
        2
102
RTVSPost2010PropOp53
 70
     1
102
RTVSPost2010Prop54
  1
strokes_ogs.tif
102
RTVSPost2010PropOp54
 70
     1
102
RTVSPost2010Prop55
280
     0
102
RTVSPost2010PropOp55
 70
     1
102
RTVSPost2010Prop56
140
1.0
102
RTVSPost2010PropOp56
 70
     1
102
RTVSPost2010Prop57
140
1.0
102
RTVSPost2010PropOp57
 70
     1
102
RTVSPropertyOp0
 70
     1
102
RTVSPropertyOp1
 70
     1
102
RTVSPropertyOp2
 70
     1
102
RTVSPropertyOp3
 70
     1
102
RTVSPropertyOp4
 70
     1
102
RTVSPropertyOp5
 70
     1
102
RTVSPropertyOp6
 70
     1
102
RTVSPropertyOp7
 70
     1
102
RTVSPropertyOp8
 70
     1
102
RTVSPropertyOp9
 70
     1
102
RTVSPropertyOp10
 70
     1
102
RTVSPropertyOp11
 70
     1
102
RTVSPropertyOp12
 70
     1
102
RTVSPropertyOp13
 70
     1
102
RTVSPropertyOp14
 70
     1
102
RTVSPropertyOp15
 70
     1
102
RTVSPropertyOp16
 70
     1
102
RTVSPropertyOp17
 70
     1
102
RTVSPropertyOp18
 70
     1
102
RTVSPropertyOp19
 70
     1
102
RTVSPropertyOp20
 70
     1
102
RTVSPropertyOp21
 70
     1
102
RTVSPropertyOp22
 70
     1
102
RTVSPropertyOp23
 70
     1
102
RTVSPropertyOp24
 70
     1
102
RTVSPropertyOp25
 70
     1
102
RTVSPropertyOp26
 70
     1
102
RTVSPropertyOp27
 70
     1
102
RTVSPropertyOp28
 70
     1
102
RTVSPropertyOp29
 70
     1
102
RTVSPropertyOp30
 70
     1
102
RTVSPropertyOp31
 70
     1
102
RTVSPropertyOp32
 70
     1
102
RTVSPropertyOp33
 70
     1
102
RTVSPropertyOp34
 70
     1
102
RTVSPropertyOp35
 70
     1
102
RTVSPropertyOp36
 70
     1
102
RTVSPropertyOp37
 70
     1
102
RTVSPropertyOp38
 70
     1
102
RTVSPropertyOp39
 70
     1
102
RTVSPropertyOp40
 70
     1
102
RTVSPropertyOp41
 70
     1
102
RTVSPropertyOp42
 70
     1
102
RTVSPropertyOp43
 70
     1
102
RTVSPropertyOp44
 70
     1
102
RTVSPropertyOp45
 70
     1
102
RTVSPropertyOp46
 70
     1
102
RTVSPropertyOp47
 70
     1
102
RTVSPropertyOp48
 70
     1
102
RTVSPropertyOp49
 70
     1
102
RTVSPropertyOp50
 70
     1
102
RTVSPropertyOp51
 70
     0
102
RTVSPropertyOp52
 70
     0
102
RTVSPropertyOp53
 70
     1
102
RTVSPropertyOp54
 70
     1
102
RTVSPropertyOp55
 70
     1
102
RTVSPropertyOp56
 70
     1
102
RTVSPropertyOp57
 70
     1
102
RTVSPropertyOp58
 70
     1
102
RTVSPropertyOp59
 70
     1
102
RTVSPropertyOp60
 70
     1
102
RTVSPropertyOp61
 70
     1
102
RTVSPropertyOp62
 70
     1
  0
XRECORD
  5
8487
102
{ACAD_REACTORS
330
8486
102
}
330
8486
100
AcDbXrecord
280
     1
102
RTVSPost2010Prop28
280
     0
102
RTVSPost2010PropOp28
 70
     1
102
RTVSPost2010Prop29
280
     1
102
RTVSPost2010PropOp29
 70
     1
102
RTVSPost2010Prop30
280
     1
102
RTVSPost2010PropOp30
 70
     1
102
RTVSPost2010Prop31
280
     0
102
RTVSPost2010PropOp31
 70
     1
102
RTVSPost2010Prop32
280
     0
102
RTVSPost2010PropOp32
 70
     1
102
RTVSPost2010Prop33
280
     0
102
RTVSPost2010PropOp33
 70
     1
102
RTVSPost2010Prop34
280
     0
102
RTVSPost2010PropOp34
 70
     1
102
RTVSPost2010Prop35
280
     0
102
RTVSPost2010PropOp35
 70
     1
102
RTVSPost2010Prop36
280
     0
102
RTVSPost2010PropOp36
 70
     1
102
RTVSPost2010Prop37
 90
       50
102
RTVSPost2010PropOp37
 70
     1
102
RTVSPost2010Prop38
140
0.0
102
RTVSPost2010PropOp38
 70
     1
102
RTVSPost2010Prop39
140
1.0
102
RTVSPost2010PropOp39
 70
     1
102
RTVSPost2010Prop40
 90
        0
102
RTVSPost2010PropOp40
 70
     1
102
RTVSPost2010Prop41ColorIndex
 90
       18
102
RTVSPost2010Prop41ColorRGB
 90
        0
102
RTVSPost2010PropOp41
 70
     1
102
RTVSPost2010Prop42
 90
       50
102
RTVSPost2010PropOp42
 70
     1
102
RTVSPost2010Prop43
 90
        3
102
RTVSPost2010PropOp43
 70
     1
102
RTVSPost2010Prop44ColorIndex
 90
        5
102
RTVSPost2010Prop44ColorRGB
 90
      255
102
RTVSPost2010PropOp44
 70
     1
102
RTVSPost2010Prop45
280
     0
102
RTVSPost2010PropOp45
 70
     1
102
RTVSPost2010Prop46
 90
       50
102
RTVSPost2010PropOp46
 70
     1
102
RTVSPost2010Prop47
 90
       50
102
RTVSPost2010PropOp47
 70
     1
102
RTVSPost2010Prop48
 90
       50
102
RTVSPost2010PropOp48
 70
     1
102
RTVSPost2010Prop49
280
     0
102
RTVSPost2010PropOp49
 70
     1
102
RTVSPost2010Prop50
 90
       50
102
RTVSPost2010PropOp50
 70
     1
102
RTVSPost2010Prop51ColorIndex
 90
      256
102
RTVSPost2010Prop51ColorRGB
 90
-16777216
102
RTVSPost2010PropOp51
 70
     0
102
RTVSPost2010Prop52
140
1.0
102
RTVSPost2010PropOp52
 70
     0
102
RTVSPost2010Prop53
 90
        2
102
RTVSPost2010PropOp53
 70
     1
102
RTVSPost2010Prop54
  1
strokes_ogs.tif
102
RTVSPost2010PropOp54
 70
     1
102
RTVSPost2010Prop55
280
     0
102
RTVSPost2010PropOp55
 70
     1
102
RTVSPost2010Prop56
140
1.0
102
RTVSPost2010PropOp56
 70
     1
102
RTVSPost2010Prop57
140
1.0
102
RTVSPost2010PropOp57
 70
     1
102
RTVSPropertyOp0
 70
     1
102
RTVSPropertyOp1
 70
     1
102
RTVSPropertyOp2
 70
     1
102
RTVSPropertyOp3
 70
     1
102
RTVSPropertyOp4
 70
     1
102
RTVSPropertyOp5
 70
     1
102
RTVSPropertyOp6
 70
     1
102
RTVSPropertyOp7
 70
     1
102
RTVSPropertyOp8
 70
     1
102
RTVSPropertyOp9
 70
     1
102
RTVSPropertyOp10
 70
     1
102
RTVSPropertyOp11
 70
     1
102
RTVSPropertyOp12
 70
     1
102
RTVSPropertyOp13
 70
     1
102
RTVSPropertyOp14
 70
     1
102
RTVSPropertyOp15
 70
     1
102
RTVSPropertyOp16
 70
     1
102
RTVSPropertyOp17
 70
     1
102
RTVSPropertyOp18
 70
     1
102
RTVSPropertyOp19
 70
     1
102
RTVSPropertyOp20
 70
     1
102
RTVSPropertyOp21
 70
     1
102
RTVSPropertyOp22
 70
     1
102
RTVSPropertyOp23
 70
     1
102
RTVSPropertyOp24
 70
     1
102
RTVSPropertyOp25
 70
     1
102
RTVSPropertyOp26
 70
     1
102
RTVSPropertyOp27
 70
     1
102
RTVSPropertyOp28
 70
     1
102
RTVSPropertyOp29
 70
     1
102
RTVSPropertyOp30
 70
     1
102
RTVSPropertyOp31
 70
     1
102
RTVSPropertyOp32
 70
     1
102
RTVSPropertyOp33
 70
     1
102
RTVSPropertyOp34
 70
     1
102
RTVSPropertyOp35
 70
     1
102
RTVSPropertyOp36
 70
     1
102
RTVSPropertyOp37
 70
     1
102
RTVSPropertyOp38
 70
     1
102
RTVSPropertyOp39
 70
     1
102
RTVSPropertyOp40
 70
     1
102
RTVSPropertyOp41
 70
     1
102
RTVSPropertyOp42
 70
     1
102
RTVSPropertyOp43
 70
     1
102
RTVSPropertyOp44
 70
     1
102
RTVSPropertyOp45
 70
     1
102
RTVSPropertyOp46
 70
     1
102
RTVSPropertyOp47
 70
     1
102
RTVSPropertyOp48
 70
     1
102
RTVSPropertyOp49
 70
     1
102
RTVSPropertyOp50
 70
     1
102
RTVSPropertyOp51
 70
     0
102
RTVSPropertyOp52
 70
     0
102
RTVSPropertyOp53
 70
     1
102
RTVSPropertyOp54
 70
     1
102
RTVSPropertyOp55
 70
     1
102
RTVSPropertyOp56
 70
     1
102
RTVSPropertyOp57
 70
     1
102
RTVSPropertyOp58
 70
     1
102
RTVSPropertyOp59
 70
     1
102
RTVSPropertyOp60
 70
     1
102
RTVSPropertyOp61
 70
     1
102
RTVSPropertyOp62
 70
     1
  0
XRECORD
  5
8489
102
{ACAD_REACTORS
330
8488
102
}
330
8488
100
AcDbXrecord
280
     1
102
RTVSPost2010Prop28
280
     0
102
RTVSPost2010PropOp28
 70
     1
102
RTVSPost2010Prop29
280
     1
102
RTVSPost2010PropOp29
 70
     1
102
RTVSPost2010Prop30
280
     1
102
RTVSPost2010PropOp30
 70
     1
102
RTVSPost2010Prop31
280
     0
102
RTVSPost2010PropOp31
 70
     1
102
RTVSPost2010Prop32
280
     0
102
RTVSPost2010PropOp32
 70
     1
102
RTVSPost2010Prop33
280
     0
102
RTVSPost2010PropOp33
 70
     1
102
RTVSPost2010Prop34
280
     0
102
RTVSPost2010PropOp34
 70
     1
102
RTVSPost2010Prop35
280
     0
102
RTVSPost2010PropOp35
 70
     1
102
RTVSPost2010Prop36
280
     0
102
RTVSPost2010PropOp36
 70
     1
102
RTVSPost2010Prop37
 90
       50
102
RTVSPost2010PropOp37
 70
     1
102
RTVSPost2010Prop38
140
0.0
102
RTVSPost2010PropOp38
 70
     1
102
RTVSPost2010Prop39
140
1.0
102
RTVSPost2010PropOp39
 70
     1
102
RTVSPost2010Prop40
 90
        0
102
RTVSPost2010PropOp40
 70
     1
102
RTVSPost2010Prop41ColorIndex
 90
       18
102
RTVSPost2010Prop41ColorRGB
 90
        0
102
RTVSPost2010PropOp41
 70
     1
102
RTVSPost2010Prop42
 90
       50
102
RTVSPost2010PropOp42
 70
     1
102
RTVSPost2010Prop43
 90
        3
102
RTVSPost2010PropOp43
 70
     1
102
RTVSPost2010Prop44ColorIndex
 90
        5
102
RTVSPost2010Prop44ColorRGB
 90
      255
102
RTVSPost2010PropOp44
 70
     1
102
RTVSPost2010Prop45
280
     0
102
RTVSPost2010PropOp45
 70
     1
102
RTVSPost2010Prop46
 90
       50
102
RTVSPost2010PropOp46
 70
     1
102
RTVSPost2010Prop47
 90
       50
102
RTVSPost2010PropOp47
 70
     1
102
RTVSPost2010Prop48
 90
       50
102
RTVSPost2010PropOp48
 70
     1
102
RTVSPost2010Prop49
280
     0
102
RTVSPost2010PropOp49
 70
     1
102
RTVSPost2010Prop50
 90
       50
102
RTVSPost2010PropOp50
 70
     1
102
RTVSPost2010Prop51ColorIndex
 90
      256
102
RTVSPost2010Prop51ColorRGB
 90
-16777216
102
RTVSPost2010PropOp51
 70
     0
102
RTVSPost2010Prop52
140
1.0
102
RTVSPost2010PropOp52
 70
     0
102
RTVSPost2010Prop53
 90
        2
102
RTVSPost2010PropOp53
 70
     1
102
RTVSPost2010Prop54
  1
strokes_ogs.tif
102
RTVSPost2010PropOp54
 70
     1
102
RTVSPost2010Prop55
280
     0
102
RTVSPost2010PropOp55
 70
     1
102
RTVSPost2010Prop56
140
1.0
102
RTVSPost2010PropOp56
 70
     1
102
RTVSPost2010Prop57
140
1.0
102
RTVSPost2010PropOp57
 70
     1
102
RTVSPropertyOp0
 70
     1
102
RTVSPropertyOp1
 70
     1
102
RTVSPropertyOp2
 70
     1
102
RTVSPropertyOp3
 70
     1
102
RTVSPropertyOp4
 70
     1
102
RTVSPropertyOp5
 70
     1
102
RTVSPropertyOp6
 70
     1
102
RTVSPropertyOp7
 70
     1
102
RTVSPropertyOp8
 70
     1
102
RTVSPropertyOp9
 70
     1
102
RTVSPropertyOp10
 70
     1
102
RTVSPropertyOp11
 70
     1
102
RTVSPropertyOp12
 70
     1
102
RTVSPropertyOp13
 70
     1
102
RTVSPropertyOp14
 70
     1
102
RTVSPropertyOp15
 70
     1
102
RTVSPropertyOp16
 70
     1
102
RTVSPropertyOp17
 70
     1
102
RTVSPropertyOp18
 70
     1
102
RTVSPropertyOp19
 70
     1
102
RTVSPropertyOp20
 70
     1
102
RTVSPropertyOp21
 70
     1
102
RTVSPropertyOp22
 70
     1
102
RTVSPropertyOp23
 70
     1
102
RTVSPropertyOp24
 70
     1
102
RTVSPropertyOp25
 70
     1
102
RTVSPropertyOp26
 70
     1
102
RTVSPropertyOp27
 70
     1
102
RTVSPropertyOp28
 70
     1
102
RTVSPropertyOp29
 70
     1
102
RTVSPropertyOp30
 70
     1
102
RTVSPropertyOp31
 70
     1
102
RTVSPropertyOp32
 70
     1
102
RTVSPropertyOp33
 70
     1
102
RTVSPropertyOp34
 70
     1
102
RTVSPropertyOp35
 70
     1
102
RTVSPropertyOp36
 70
     1
102
RTVSPropertyOp37
 70
     1
102
RTVSPropertyOp38
 70
     1
102
RTVSPropertyOp39
 70
     1
102
RTVSPropertyOp40
 70
     1
102
RTVSPropertyOp41
 70
     1
102
RTVSPropertyOp42
 70
     1
102
RTVSPropertyOp43
 70
     1
102
RTVSPropertyOp44
 70
     1
102
RTVSPropertyOp45
 70
     1
102
RTVSPropertyOp46
 70
     1
102
RTVSPropertyOp47
 70
     1
102
RTVSPropertyOp48
 70
     1
102
RTVSPropertyOp49
 70
     1
102
RTVSPropertyOp50
 70
     1
102
RTVSPropertyOp51
 70
     0
102
RTVSPropertyOp52
 70
     0
102
RTVSPropertyOp53
 70
     1
102
RTVSPropertyOp54
 70
     1
102
RTVSPropertyOp55
 70
     1
102
RTVSPropertyOp56
 70
     1
102
RTVSPropertyOp57
 70
     1
102
RTVSPropertyOp58
 70
     1
102
RTVSPropertyOp59
 70
     1
102
RTVSPropertyOp60
 70
     1
102
RTVSPropertyOp61
 70
     1
102
RTVSPropertyOp62
 70
     1
  0
XRECORD
  5
848B
102
{ACAD_REACTORS
330
848A
102
}
330
848A
100
AcDbXrecord
280
     1
102
RTVSPost2010Prop28
280
     0
102
RTVSPost2010PropOp28
 70
     1
102
RTVSPost2010Prop29
280
     1
102
RTVSPost2010PropOp29
 70
     1
102
RTVSPost2010Prop30
280
     1
102
RTVSPost2010PropOp30
 70
     1
102
RTVSPost2010Prop31
280
     0
102
RTVSPost2010PropOp31
 70
     1
102
RTVSPost2010Prop32
280
     0
102
RTVSPost2010PropOp32
 70
     1
102
RTVSPost2010Prop33
280
     0
102
RTVSPost2010PropOp33
 70
     1
102
RTVSPost2010Prop34
280
     0
102
RTVSPost2010PropOp34
 70
     1
102
RTVSPost2010Prop35
280
     0
102
RTVSPost2010PropOp35
 70
     1
102
RTVSPost2010Prop36
280
     0
102
RTVSPost2010PropOp36
 70
     1
102
RTVSPost2010Prop37
 90
       50
102
RTVSPost2010PropOp37
 70
     1
102
RTVSPost2010Prop38
140
0.0
102
RTVSPost2010PropOp38
 70
     1
102
RTVSPost2010Prop39
140
1.0
102
RTVSPost2010PropOp39
 70
     1
102
RTVSPost2010Prop40
 90
        0
102
RTVSPost2010PropOp40
 70
     1
102
RTVSPost2010Prop41ColorIndex
 90
       18
102
RTVSPost2010Prop41ColorRGB
 90
        0
102
RTVSPost2010PropOp41
 70
     1
102
RTVSPost2010Prop42
 90
       50
102
RTVSPost2010PropOp42
 70
     1
102
RTVSPost2010Prop43
 90
        3
102
RTVSPost2010PropOp43
 70
     1
102
RTVSPost2010Prop44ColorIndex
 90
        5
102
RTVSPost2010Prop44ColorRGB
 90
      255
102
RTVSPost2010PropOp44
 70
     1
102
RTVSPost2010Prop45
280
     0
102
RTVSPost2010PropOp45
 70
     1
102
RTVSPost2010Prop46
 90
       50
102
RTVSPost2010PropOp46
 70
     1
102
RTVSPost2010Prop47
 90
       50
102
RTVSPost2010PropOp47
 70
     1
102
RTVSPost2010Prop48
 90
       50
102
RTVSPost2010PropOp48
 70
     1
102
RTVSPost2010Prop49
280
     0
102
RTVSPost2010PropOp49
 70
     1
102
RTVSPost2010Prop50
 90
       50
102
RTVSPost2010PropOp50
 70
     1
102
RTVSPost2010Prop51ColorIndex
 90
      256
102
RTVSPost2010Prop51ColorRGB
 90
-16777216
102
RTVSPost2010PropOp51
 70
     0
102
RTVSPost2010Prop52
140
1.0
102
RTVSPost2010PropOp52
 70
     0
102
RTVSPost2010Prop53
 90
        2
102
RTVSPost2010PropOp53
 70
     1
102
RTVSPost2010Prop54
  1
strokes_ogs.tif
102
RTVSPost2010PropOp54
 70
     1
102
RTVSPost2010Prop55
280
     0
102
RTVSPost2010PropOp55
 70
     1
102
RTVSPost2010Prop56
140
1.0
102
RTVSPost2010PropOp56
 70
     1
102
RTVSPost2010Prop57
140
1.0
102
RTVSPost2010PropOp57
 70
     1
102
RTVSPropertyOp0
 70
     1
102
RTVSPropertyOp1
 70
     1
102
RTVSPropertyOp2
 70
     1
102
RTVSPropertyOp3
 70
     1
102
RTVSPropertyOp4
 70
     1
102
RTVSPropertyOp5
 70
     1
102
RTVSPropertyOp6
 70
     1
102
RTVSPropertyOp7
 70
     1
102
RTVSPropertyOp8
 70
     1
102
RTVSPropertyOp9
 70
     1
102
RTVSPropertyOp10
 70
     1
102
RTVSPropertyOp11
 70
     1
102
RTVSPropertyOp12
 70
     1
102
RTVSPropertyOp13
 70
     1
102
RTVSPropertyOp14
 70
     1
102
RTVSPropertyOp15
 70
     1
102
RTVSPropertyOp16
 70
     1
102
RTVSPropertyOp17
 70
     1
102
RTVSPropertyOp18
 70
     1
102
RTVSPropertyOp19
 70
     1
102
RTVSPropertyOp20
 70
     1
102
RTVSPropertyOp21
 70
     1
102
RTVSPropertyOp22
 70
     1
102
RTVSPropertyOp23
 70
     1
102
RTVSPropertyOp24
 70
     1
102
RTVSPropertyOp25
 70
     1
102
RTVSPropertyOp26
 70
     1
102
RTVSPropertyOp27
 70
     1
102
RTVSPropertyOp28
 70
     1
102
RTVSPropertyOp29
 70
     1
102
RTVSPropertyOp30
 70
     1
102
RTVSPropertyOp31
 70
     1
102
RTVSPropertyOp32
 70
     1
102
RTVSPropertyOp33
 70
     1
102
RTVSPropertyOp34
 70
     1
102
RTVSPropertyOp35
 70
     1
102
RTVSPropertyOp36
 70
     1
102
RTVSPropertyOp37
 70
     1
102
RTVSPropertyOp38
 70
     1
102
RTVSPropertyOp39
 70
     1
102
RTVSPropertyOp40
 70
     1
102
RTVSPropertyOp41
 70
     1
102
RTVSPropertyOp42
 70
     1
102
RTVSPropertyOp43
 70
     1
102
RTVSPropertyOp44
 70
     1
102
RTVSPropertyOp45
 70
     1
102
RTVSPropertyOp46
 70
     1
102
RTVSPropertyOp47
 70
     1
102
RTVSPropertyOp48
 70
     1
102
RTVSPropertyOp49
 70
     1
102
RTVSPropertyOp50
 70
     1
102
RTVSPropertyOp51
 70
     0
102
RTVSPropertyOp52
 70
     0
102
RTVSPropertyOp53
 70
     1
102
RTVSPropertyOp54
 70
     1
102
RTVSPropertyOp55
 70
     1
102
RTVSPropertyOp56
 70
     1
102
RTVSPropertyOp57
 70
     1
102
RTVSPropertyOp58
 70
     1
102
RTVSPropertyOp59
 70
     1
102
RTVSPropertyOp60
 70
     1
102
RTVSPropertyOp61
 70
     1
102
RTVSPropertyOp62
 70
     1
  0
XRECORD
  5
8493
102
{ACAD_REACTORS
330
8492
102
}
330
8492
100
AcDbXrecord
280
     1
102
RTVSPost2010Prop28
280
     0
102
RTVSPost2010PropOp28
 70
     1
102
RTVSPost2010Prop29
280
     1
102
RTVSPost2010PropOp29
 70
     1
102
RTVSPost2010Prop30
280
     1
102
RTVSPost2010PropOp30
 70
     1
102
RTVSPost2010Prop31
280
     0
102
RTVSPost2010PropOp31
 70
     1
102
RTVSPost2010Prop32
280
     0
102
RTVSPost2010PropOp32
 70
     1
102
RTVSPost2010Prop33
280
     0
102
RTVSPost2010PropOp33
 70
     1
102
RTVSPost2010Prop34
280
     0
102
RTVSPost2010PropOp34
 70
     1
102
RTVSPost2010Prop35
280
     0
102
RTVSPost2010PropOp35
 70
     1
102
RTVSPost2010Prop36
280
     0
102
RTVSPost2010PropOp36
 70
     1
102
RTVSPost2010Prop37
 90
       50
102
RTVSPost2010PropOp37
 70
     1
102
RTVSPost2010Prop38
140
0.0
102
RTVSPost2010PropOp38
 70
     1
102
RTVSPost2010Prop39
140
1.0
102
RTVSPost2010PropOp39
 70
     1
102
RTVSPost2010Prop40
 90
        0
102
RTVSPost2010PropOp40
 70
     1
102
RTVSPost2010Prop41ColorIndex
 90
       18
102
RTVSPost2010Prop41ColorRGB
 90
        0
102
RTVSPost2010PropOp41
 70
     1
102
RTVSPost2010Prop42
 90
       50
102
RTVSPost2010PropOp42
 70
     1
102
RTVSPost2010Prop43
 90
        3
102
RTVSPost2010PropOp43
 70
     1
102
RTVSPost2010Prop44ColorIndex
 90
        5
102
RTVSPost2010Prop44ColorRGB
 90
      255
102
RTVSPost2010PropOp44
 70
     1
102
RTVSPost2010Prop45
280
     0
102
RTVSPost2010PropOp45
 70
     1
102
RTVSPost2010Prop46
 90
       50
102
RTVSPost2010PropOp46
 70
     1
102
RTVSPost2010Prop47
 90
       50
102
RTVSPost2010PropOp47
 70
     1
102
RTVSPost2010Prop48
 90
       50
102
RTVSPost2010PropOp48
 70
     1
102
RTVSPost2010Prop49
280
     0
102
RTVSPost2010PropOp49
 70
     1
102
RTVSPost2010Prop50
 90
       50
102
RTVSPost2010PropOp50
 70
     1
102
RTVSPost2010Prop51ColorIndex
 90
      256
102
RTVSPost2010Prop51ColorRGB
 90
-16777216
102
RTVSPost2010PropOp51
 70
     0
102
RTVSPost2010Prop52
140
1.0
102
RTVSPost2010PropOp52
 70
     0
102
RTVSPost2010Prop53
 90
        2
102
RTVSPost2010PropOp53
 70
     1
102
RTVSPost2010Prop54
  1
strokes_ogs.tif
102
RTVSPost2010PropOp54
 70
     1
102
RTVSPost2010Prop55
280
     0
102
RTVSPost2010PropOp55
 70
     1
102
RTVSPost2010Prop56
140
1.0
102
RTVSPost2010PropOp56
 70
     1
102
RTVSPost2010Prop57
140
1.0
102
RTVSPost2010PropOp57
 70
     1
102
RTVSPropertyOp0
 70
     1
102
RTVSPropertyOp1
 70
     1
102
RTVSPropertyOp2
 70
     1
102
RTVSPropertyOp3
 70
     1
102
RTVSPropertyOp4
 70
     1
102
RTVSPropertyOp5
 70
     1
102
RTVSPropertyOp6
 70
     1
102
RTVSPropertyOp7
 70
     1
102
RTVSPropertyOp8
 70
     1
102
RTVSPropertyOp9
 70
     1
102
RTVSPropertyOp10
 70
     1
102
RTVSPropertyOp11
 70
     1
102
RTVSPropertyOp12
 70
     1
102
RTVSPropertyOp13
 70
     1
102
RTVSPropertyOp14
 70
     1
102
RTVSPropertyOp15
 70
     1
102
RTVSPropertyOp16
 70
     1
102
RTVSPropertyOp17
 70
     1
102
RTVSPropertyOp18
 70
     1
102
RTVSPropertyOp19
 70
     1
102
RTVSPropertyOp20
 70
     1
102
RTVSPropertyOp21
 70
     1
102
RTVSPropertyOp22
 70
     1
102
RTVSPropertyOp23
 70
     1
102
RTVSPropertyOp24
 70
     1
102
RTVSPropertyOp25
 70
     1
102
RTVSPropertyOp26
 70
     1
102
RTVSPropertyOp27
 70
     1
102
RTVSPropertyOp28
 70
     1
102
RTVSPropertyOp29
 70
     1
102
RTVSPropertyOp30
 70
     1
102
RTVSPropertyOp31
 70
     1
102
RTVSPropertyOp32
 70
     1
102
RTVSPropertyOp33
 70
     1
102
RTVSPropertyOp34
 70
     1
102
RTVSPropertyOp35
 70
     1
102
RTVSPropertyOp36
 70
     1
102
RTVSPropertyOp37
 70
     1
102
RTVSPropertyOp38
 70
     1
102
RTVSPropertyOp39
 70
     1
102
RTVSPropertyOp40
 70
     1
102
RTVSPropertyOp41
 70
     1
102
RTVSPropertyOp42
 70
     1
102
RTVSPropertyOp43
 70
     1
102
RTVSPropertyOp44
 70
     1
102
RTVSPropertyOp45
 70
     1
102
RTVSPropertyOp46
 70
     1
102
RTVSPropertyOp47
 70
     1
102
RTVSPropertyOp48
 70
     1
102
RTVSPropertyOp49
 70
     1
102
RTVSPropertyOp50
 70
     1
102
RTVSPropertyOp51
 70
     0
102
RTVSPropertyOp52
 70
     0
102
RTVSPropertyOp53
 70
     1
102
RTVSPropertyOp54
 70
     1
102
RTVSPropertyOp55
 70
     1
102
RTVSPropertyOp56
 70
     1
102
RTVSPropertyOp57
 70
     1
102
RTVSPropertyOp58
 70
     1
102
RTVSPropertyOp59
 70
     1
102
RTVSPropertyOp60
 70
     1
102
RTVSPropertyOp61
 70
     1
102
RTVSPropertyOp62
 70
     1
  0
XRECORD
  5
84AF
102
{ACAD_REACTORS
330
84AE
102
}
330
84AE
100
AcDbXrecord
280
     1
102
RTVSPost2010Prop28
280
     0
102
RTVSPost2010PropOp28
 70
     1
102
RTVSPost2010Prop29
280
     1
102
RTVSPost2010PropOp29
 70
     1
102
RTVSPost2010Prop30
280
     1
102
RTVSPost2010PropOp30
 70
     1
102
RTVSPost2010Prop31
280
     0
102
RTVSPost2010PropOp31
 70
     1
102
RTVSPost2010Prop32
280
     0
102
RTVSPost2010PropOp32
 70
     1
102
RTVSPost2010Prop33
280
     0
102
RTVSPost2010PropOp33
 70
     1
102
RTVSPost2010Prop34
280
     0
102
RTVSPost2010PropOp34
 70
     1
102
RTVSPost2010Prop35
280
     0
102
RTVSPost2010PropOp35
 70
     1
102
RTVSPost2010Prop36
280
     0
102
RTVSPost2010PropOp36
 70
     1
102
RTVSPost2010Prop37
 90
       50
102
RTVSPost2010PropOp37
 70
     0
102
RTVSPost2010Prop38
140
0.0
102
RTVSPost2010PropOp38
 70
     0
102
RTVSPost2010Prop39
140
1.0
102
RTVSPost2010PropOp39
 70
     0
102
RTVSPost2010Prop40
 90
        0
102
RTVSPost2010PropOp40
 70
     0
102
RTVSPost2010Prop41ColorIndex
 90
       18
102
RTVSPost2010Prop41ColorRGB
 90
        0
102
RTVSPost2010PropOp41
 70
     0
102
RTVSPost2010Prop42
 90
       50
102
RTVSPost2010PropOp42
 70
     0
102
RTVSPost2010Prop43
 90
        3
102
RTVSPost2010PropOp43
 70
     0
102
RTVSPost2010Prop44ColorIndex
 90
        5
102
RTVSPost2010Prop44ColorRGB
 90
      255
102
RTVSPost2010PropOp44
 70
     0
102
RTVSPost2010Prop45
280
     0
102
RTVSPost2010PropOp45
 70
     1
102
RTVSPost2010Prop46
 90
       50
102
RTVSPost2010PropOp46
 70
     0
102
RTVSPost2010Prop47
 90
       50
102
RTVSPost2010PropOp47
 70
     0
102
RTVSPost2010Prop48
 90
       50
102
RTVSPost2010PropOp48
 70
     0
102
RTVSPost2010Prop49
280
     0
102
RTVSPost2010PropOp49
 70
     1
102
RTVSPost2010Prop50
 90
       50
102
RTVSPost2010PropOp50
 70
     0
102
RTVSPost2010Prop51ColorIndex
 90
      256
102
RTVSPost2010Prop51ColorRGB
 90
-16777216
102
RTVSPost2010PropOp51
 70
     0
102
RTVSPost2010Prop52
140
1.0
102
RTVSPost2010PropOp52
 70
     0
102
RTVSPost2010Prop53
 90
        2
102
RTVSPost2010PropOp53
 70
     0
102
RTVSPost2010Prop54
  1
strokes_ogs.tif
102
RTVSPost2010PropOp54
 70
     0
102
RTVSPost2010Prop55
280
     0
102
RTVSPost2010PropOp55
 70
     1
102
RTVSPost2010Prop56
140
1.0
102
RTVSPost2010PropOp56
 70
     0
102
RTVSPost2010Prop57
140
1.0
102
RTVSPost2010PropOp57
 70
     0
102
RTVSPropertyOp0
 70
     0
102
RTVSPropertyOp1
 70
     0
102
RTVSPropertyOp2
 70
     0
102
RTVSPropertyOp3
 70
     0
102
RTVSPropertyOp4
 70
     0
102
RTVSPropertyOp5
 70
     0
102
RTVSPropertyOp6
 70
     0
102
RTVSPropertyOp7
 70
     0
102
RTVSPropertyOp8
 70
     0
102
RTVSPropertyOp9
 70
     0
102
RTVSPropertyOp10
 70
     0
102
RTVSPropertyOp11
 70
     0
102
RTVSPropertyOp12
 70
     0
102
RTVSPropertyOp13
 70
     0
102
RTVSPropertyOp14
 70
     2
102
RTVSPropertyOp15
 70
     0
102
RTVSPropertyOp16
 70
     0
102
RTVSPropertyOp17
 70
     0
102
RTVSPropertyOp18
 70
     0
102
RTVSPropertyOp19
 70
     0
102
RTVSPropertyOp20
 70
     0
102
RTVSPropertyOp21
 70
     0
102
RTVSPropertyOp22
 70
     0
102
RTVSPropertyOp23
 70
     0
102
RTVSPropertyOp24
 70
     0
102
RTVSPropertyOp25
 70
     0
102
RTVSPropertyOp26
 70
     0
102
RTVSPropertyOp27
 70
     0
102
RTVSPropertyOp28
 70
     1
102
RTVSPropertyOp29
 70
     1
102
RTVSPropertyOp30
 70
     1
102
RTVSPropertyOp31
 70
     1
102
RTVSPropertyOp32
 70
     1
102
RTVSPropertyOp33
 70
     1
102
RTVSPropertyOp34
 70
     1
102
RTVSPropertyOp35
 70
     1
102
RTVSPropertyOp36
 70
     1
102
RTVSPropertyOp37
 70
     0
102
RTVSPropertyOp38
 70
     0
102
RTVSPropertyOp39
 70
     0
102
RTVSPropertyOp40
 70
     0
102
RTVSPropertyOp41
 70
     0
102
RTVSPropertyOp42
 70
     0
102
RTVSPropertyOp43
 70
     0
102
RTVSPropertyOp44
 70
     0
102
RTVSPropertyOp45
 70
     1
102
RTVSPropertyOp46
 70
     0
102
RTVSPropertyOp47
 70
     0
102
RTVSPropertyOp48
 70
     0
102
RTVSPropertyOp49
 70
     1
102
RTVSPropertyOp50
 70
     0
102
RTVSPropertyOp51
 70
     0
102
RTVSPropertyOp52
 70
     0
102
RTVSPropertyOp53
 70
     0
102
RTVSPropertyOp54
 70
     0
102
RTVSPropertyOp55
 70
     1
102
RTVSPropertyOp56
 70
     0
102
RTVSPropertyOp57
 70
     0
102
RTVSPropertyOp58
 70
     0
102
RTVSPropertyOp59
 70
     0
102
RTVSPropertyOp60
 70
     0
102
RTVSPropertyOp61
 70
     0
102
RTVSPropertyOp62
 70
     0
  0
XRECORD
  5
849F
102
{ACAD_REACTORS
330
849E
102
}
330
849E
100
AcDbXrecord
280
     1
102
RTVSPost2010Prop28
280
     0
102
RTVSPost2010PropOp28
 70
     1
102
RTVSPost2010Prop29
280
     1
102
RTVSPost2010PropOp29
 70
     1
102
RTVSPost2010Prop30
280
     1
102
RTVSPost2010PropOp30
 70
     1
102
RTVSPost2010Prop31
280
     0
102
RTVSPost2010PropOp31
 70
     1
102
RTVSPost2010Prop32
280
     0
102
RTVSPost2010PropOp32
 70
     1
102
RTVSPost2010Prop33
280
     0
102
RTVSPost2010PropOp33
 70
     1
102
RTVSPost2010Prop34
280
     0
102
RTVSPost2010PropOp34
 70
     1
102
RTVSPost2010Prop35
280
     0
102
RTVSPost2010PropOp35
 70
     1
102
RTVSPost2010Prop36
280
     0
102
RTVSPost2010PropOp36
 70
     1
102
RTVSPost2010Prop37
 90
       50
102
RTVSPost2010PropOp37
 70
     1
102
RTVSPost2010Prop38
140
0.0
102
RTVSPost2010PropOp38
 70
     1
102
RTVSPost2010Prop39
140
1.0
102
RTVSPost2010PropOp39
 70
     1
102
RTVSPost2010Prop40
 90
        0
102
RTVSPost2010PropOp40
 70
     1
102
RTVSPost2010Prop41ColorIndex
 90
       18
102
RTVSPost2010Prop41ColorRGB
 90
        0
102
RTVSPost2010PropOp41
 70
     1
102
RTVSPost2010Prop42
 90
       50
102
RTVSPost2010PropOp42
 70
     1
102
RTVSPost2010Prop43
 90
        3
102
RTVSPost2010PropOp43
 70
     1
102
RTVSPost2010Prop44ColorIndex
 90
        5
102
RTVSPost2010Prop44ColorRGB
 90
      255
102
RTVSPost2010PropOp44
 70
     1
102
RTVSPost2010Prop45
280
     0
102
RTVSPost2010PropOp45
 70
     1
102
RTVSPost2010Prop46
 90
       50
102
RTVSPost2010PropOp46
 70
     1
102
RTVSPost2010Prop47
 90
       50
102
RTVSPost2010PropOp47
 70
     1
102
RTVSPost2010Prop48
 90
       50
102
RTVSPost2010PropOp48
 70
     1
102
RTVSPost2010Prop49
280
     0
102
RTVSPost2010PropOp49
 70
     1
102
RTVSPost2010Prop50
 90
       50
102
RTVSPost2010PropOp50
 70
     1
102
RTVSPost2010Prop51ColorIndex
 90
      256
102
RTVSPost2010Prop51ColorRGB
 90
-16777216
102
RTVSPost2010PropOp51
 70
     0
102
RTVSPost2010Prop52
140
1.0
102
RTVSPost2010PropOp52
 70
     0
102
RTVSPost2010Prop53
 90
        2
102
RTVSPost2010PropOp53
 70
     1
102
RTVSPost2010Prop54
  1
strokes_ogs.tif
102
RTVSPost2010PropOp54
 70
     1
102
RTVSPost2010Prop55
280
     0
102
RTVSPost2010PropOp55
 70
     1
102
RTVSPost2010Prop56
140
1.0
102
RTVSPost2010PropOp56
 70
     1
102
RTVSPost2010Prop57
140
1.0
102
RTVSPost2010PropOp57
 70
     1
102
RTVSPropertyOp0
 70
     1
102
RTVSPropertyOp1
 70
     1
102
RTVSPropertyOp2
 70
     1
102
RTVSPropertyOp3
 70
     1
102
RTVSPropertyOp4
 70
     1
102
RTVSPropertyOp5
 70
     1
102
RTVSPropertyOp6
 70
     1
102
RTVSPropertyOp7
 70
     1
102
RTVSPropertyOp8
 70
     1
102
RTVSPropertyOp9
 70
     1
102
RTVSPropertyOp10
 70
     1
102
RTVSPropertyOp11
 70
     1
102
RTVSPropertyOp12
 70
     1
102
RTVSPropertyOp13
 70
     1
102
RTVSPropertyOp14
 70
     1
102
RTVSPropertyOp15
 70
     1
102
RTVSPropertyOp16
 70
     1
102
RTVSPropertyOp17
 70
     1
102
RTVSPropertyOp18
 70
     1
102
RTVSPropertyOp19
 70
     1
102
RTVSPropertyOp20
 70
     1
102
RTVSPropertyOp21
 70
     1
102
RTVSPropertyOp22
 70
     1
102
RTVSPropertyOp23
 70
     1
102
RTVSPropertyOp24
 70
     1
102
RTVSPropertyOp25
 70
     1
102
RTVSPropertyOp26
 70
     1
102
RTVSPropertyOp27
 70
     1
102
RTVSPropertyOp28
 70
     1
102
RTVSPropertyOp29
 70
     1
102
RTVSPropertyOp30
 70
     1
102
RTVSPropertyOp31
 70
     1
102
RTVSPropertyOp32
 70
     1
102
RTVSPropertyOp33
 70
     1
102
RTVSPropertyOp34
 70
     1
102
RTVSPropertyOp35
 70
     1
102
RTVSPropertyOp36
 70
     1
102
RTVSPropertyOp37
 70
     1
102
RTVSPropertyOp38
 70
     1
102
RTVSPropertyOp39
 70
     1
102
RTVSPropertyOp40
 70
     1
102
RTVSPropertyOp41
 70
     1
102
RTVSPropertyOp42
 70
     1
102
RTVSPropertyOp43
 70
     1
102
RTVSPropertyOp44
 70
     1
102
RTVSPropertyOp45
 70
     1
102
RTVSPropertyOp46
 70
     1
102
RTVSPropertyOp47
 70
     1
102
RTVSPropertyOp48
 70
     1
102
RTVSPropertyOp49
 70
     1
102
RTVSPropertyOp50
 70
     1
102
RTVSPropertyOp51
 70
     0
102
RTVSPropertyOp52
 70
     0
102
RTVSPropertyOp53
 70
     1
102
RTVSPropertyOp54
 70
     1
102
RTVSPropertyOp55
 70
     1
102
RTVSPropertyOp56
 70
     1
102
RTVSPropertyOp57
 70
     1
102
RTVSPropertyOp58
 70
     1
102
RTVSPropertyOp59
 70
     1
102
RTVSPropertyOp60
 70
     1
102
RTVSPropertyOp61
 70
     1
102
RTVSPropertyOp62
 70
     1
  0
XRECORD
  5
84B1
102
{ACAD_REACTORS
330
84B0
102
}
330
84B0
100
AcDbXrecord
280
     1
102
RTVSPost2010Prop28
280
     0
102
RTVSPost2010PropOp28
 70
     1
102
RTVSPost2010Prop29
280
     1
102
RTVSPost2010PropOp29
 70
     1
102
RTVSPost2010Prop30
280
     1
102
RTVSPost2010PropOp30
 70
     1
102
RTVSPost2010Prop31
280
     0
102
RTVSPost2010PropOp31
 70
     1
102
RTVSPost2010Prop32
280
     0
102
RTVSPost2010PropOp32
 70
     1
102
RTVSPost2010Prop33
280
     0
102
RTVSPost2010PropOp33
 70
     1
102
RTVSPost2010Prop34
280
     0
102
RTVSPost2010PropOp34
 70
     1
102
RTVSPost2010Prop35
280
     0
102
RTVSPost2010PropOp35
 70
     1
102
RTVSPost2010Prop36
280
     0
102
RTVSPost2010PropOp36
 70
     1
102
RTVSPost2010Prop37
 90
       50
102
RTVSPost2010PropOp37
 70
     0
102
RTVSPost2010Prop38
140
0.0
102
RTVSPost2010PropOp38
 70
     0
102
RTVSPost2010Prop39
140
1.0
102
RTVSPost2010PropOp39
 70
     0
102
RTVSPost2010Prop40
 90
        0
102
RTVSPost2010PropOp40
 70
     0
102
RTVSPost2010Prop41ColorIndex
 90
       18
102
RTVSPost2010Prop41ColorRGB
 90
        0
102
RTVSPost2010PropOp41
 70
     0
102
RTVSPost2010Prop42
 90
       50
102
RTVSPost2010PropOp42
 70
     0
102
RTVSPost2010Prop43
 90
        3
102
RTVSPost2010PropOp43
 70
     0
102
RTVSPost2010Prop44ColorIndex
 90
        5
102
RTVSPost2010Prop44ColorRGB
 90
      255
102
RTVSPost2010PropOp44
 70
     0
102
RTVSPost2010Prop45
280
     0
102
RTVSPost2010PropOp45
 70
     1
102
RTVSPost2010Prop46
 90
       50
102
RTVSPost2010PropOp46
 70
     0
102
RTVSPost2010Prop47
 90
       50
102
RTVSPost2010PropOp47
 70
     0
102
RTVSPost2010Prop48
 90
       50
102
RTVSPost2010PropOp48
 70
     0
102
RTVSPost2010Prop49
280
     0
102
RTVSPost2010PropOp49
 70
     1
102
RTVSPost2010Prop50
 90
       50
102
RTVSPost2010PropOp50
 70
     0
102
RTVSPost2010Prop51ColorIndex
 90
      256
102
RTVSPost2010Prop51ColorRGB
 90
-16777216
102
RTVSPost2010PropOp51
 70
     0
102
RTVSPost2010Prop52
140
1.0
102
RTVSPost2010PropOp52
 70
     0
102
RTVSPost2010Prop53
 90
        2
102
RTVSPost2010PropOp53
 70
     0
102
RTVSPost2010Prop54
  1
strokes_ogs.tif
102
RTVSPost2010PropOp54
 70
     0
102
RTVSPost2010Prop55
280
     0
102
RTVSPost2010PropOp55
 70
     1
102
RTVSPost2010Prop56
140
1.0
102
RTVSPost2010PropOp56
 70
     0
102
RTVSPost2010Prop57
140
1.0
102
RTVSPost2010PropOp57
 70
     0
102
RTVSPropertyOp0
 70
     0
102
RTVSPropertyOp1
 70
     0
102
RTVSPropertyOp2
 70
     0
102
RTVSPropertyOp3
 70
     0
102
RTVSPropertyOp4
 70
     0
102
RTVSPropertyOp5
 70
     0
102
RTVSPropertyOp6
 70
     0
102
RTVSPropertyOp7
 70
     0
102
RTVSPropertyOp8
 70
     0
102
RTVSPropertyOp9
 70
     0
102
RTVSPropertyOp10
 70
     0
102
RTVSPropertyOp11
 70
     0
102
RTVSPropertyOp12
 70
     0
102
RTVSPropertyOp13
 70
     0
102
RTVSPropertyOp14
 70
     2
102
RTVSPropertyOp15
 70
     0
102
RTVSPropertyOp16
 70
     0
102
RTVSPropertyOp17
 70
     0
102
RTVSPropertyOp18
 70
     0
102
RTVSPropertyOp19
 70
     0
102
RTVSPropertyOp20
 70
     0
102
RTVSPropertyOp21
 70
     0
102
RTVSPropertyOp22
 70
     0
102
RTVSPropertyOp23
 70
     0
102
RTVSPropertyOp24
 70
     0
102
RTVSPropertyOp25
 70
     0
102
RTVSPropertyOp26
 70
     0
102
RTVSPropertyOp27
 70
     0
102
RTVSPropertyOp28
 70
     1
102
RTVSPropertyOp29
 70
     1
102
RTVSPropertyOp30
 70
     1
102
RTVSPropertyOp31
 70
     1
102
RTVSPropertyOp32
 70
     1
102
RTVSPropertyOp33
 70
     1
102
RTVSPropertyOp34
 70
     1
102
RTVSPropertyOp35
 70
     1
102
RTVSPropertyOp36
 70
     1
102
RTVSPropertyOp37
 70
     0
102
RTVSPropertyOp38
 70
     0
102
RTVSPropertyOp39
 70
     0
102
RTVSPropertyOp40
 70
     0
102
RTVSPropertyOp41
 70
     0
102
RTVSPropertyOp42
 70
     0
102
RTVSPropertyOp43
 70
     0
102
RTVSPropertyOp44
 70
     0
102
RTVSPropertyOp45
 70
     1
102
RTVSPropertyOp46
 70
     0
102
RTVSPropertyOp47
 70
     0
102
RTVSPropertyOp48
 70
     0
102
RTVSPropertyOp49
 70
     1
102
RTVSPropertyOp50
 70
     0
102
RTVSPropertyOp51
 70
     0
102
RTVSPropertyOp52
 70
     0
102
RTVSPropertyOp53
 70
     0
102
RTVSPropertyOp54
 70
     0
102
RTVSPropertyOp55
 70
     1
102
RTVSPropertyOp56
 70
     0
102
RTVSPropertyOp57
 70
     0
102
RTVSPropertyOp58
 70
     0
102
RTVSPropertyOp59
 70
     0
102
RTVSPropertyOp60
 70
     0
102
RTVSPropertyOp61
 70
     0
102
RTVSPropertyOp62
 70
     0
  0
XRECORD
  5
8497
102
{ACAD_REACTORS
330
8496
102
}
330
8496
100
AcDbXrecord
280
     1
102
RTVSPost2010Prop28
280
     0
102
RTVSPost2010PropOp28
 70
     1
102
RTVSPost2010Prop29
280
     1
102
RTVSPost2010PropOp29
 70
     1
102
RTVSPost2010Prop30
280
     1
102
RTVSPost2010PropOp30
 70
     1
102
RTVSPost2010Prop31
280
     0
102
RTVSPost2010PropOp31
 70
     1
102
RTVSPost2010Prop32
280
     0
102
RTVSPost2010PropOp32
 70
     1
102
RTVSPost2010Prop33
280
     0
102
RTVSPost2010PropOp33
 70
     1
102
RTVSPost2010Prop34
280
     0
102
RTVSPost2010PropOp34
 70
     1
102
RTVSPost2010Prop35
280
     0
102
RTVSPost2010PropOp35
 70
     1
102
RTVSPost2010Prop36
280
     0
102
RTVSPost2010PropOp36
 70
     1
102
RTVSPost2010Prop37
 90
       50
102
RTVSPost2010PropOp37
 70
     1
102
RTVSPost2010Prop38
140
0.0
102
RTVSPost2010PropOp38
 70
     1
102
RTVSPost2010Prop39
140
1.0
102
RTVSPost2010PropOp39
 70
     1
102
RTVSPost2010Prop40
 90
        0
102
RTVSPost2010PropOp40
 70
     1
102
RTVSPost2010Prop41ColorIndex
 90
       18
102
RTVSPost2010Prop41ColorRGB
 90
        0
102
RTVSPost2010PropOp41
 70
     1
102
RTVSPost2010Prop42
 90
       50
102
RTVSPost2010PropOp42
 70
     1
102
RTVSPost2010Prop43
 90
        3
102
RTVSPost2010PropOp43
 70
     1
102
RTVSPost2010Prop44ColorIndex
 90
        5
102
RTVSPost2010Prop44ColorRGB
 90
      255
102
RTVSPost2010PropOp44
 70
     1
102
RTVSPost2010Prop45
280
     0
102
RTVSPost2010PropOp45
 70
     1
102
RTVSPost2010Prop46
 90
       50
102
RTVSPost2010PropOp46
 70
     1
102
RTVSPost2010Prop47
 90
       50
102
RTVSPost2010PropOp47
 70
     1
102
RTVSPost2010Prop48
 90
       50
102
RTVSPost2010PropOp48
 70
     1
102
RTVSPost2010Prop49
280
     0
102
RTVSPost2010PropOp49
 70
     1
102
RTVSPost2010Prop50
 90
       50
102
RTVSPost2010PropOp50
 70
     1
102
RTVSPost2010Prop51ColorIndex
 90
      256
102
RTVSPost2010Prop51ColorRGB
 90
-16777216
102
RTVSPost2010PropOp51
 70
     0
102
RTVSPost2010Prop52
140
1.0
102
RTVSPost2010PropOp52
 70
     0
102
RTVSPost2010Prop53
 90
        2
102
RTVSPost2010PropOp53
 70
     1
102
RTVSPost2010Prop54
  1
strokes_ogs.tif
102
RTVSPost2010PropOp54
 70
     1
102
RTVSPost2010Prop55
280
     0
102
RTVSPost2010PropOp55
 70
     1
102
RTVSPost2010Prop56
140
1.0
102
RTVSPost2010PropOp56
 70
     1
102
RTVSPost2010Prop57
140
1.0
102
RTVSPost2010PropOp57
 70
     1
102
RTVSPropertyOp0
 70
     1
102
RTVSPropertyOp1
 70
     1
102
RTVSPropertyOp2
 70
     1
102
RTVSPropertyOp3
 70
     1
102
RTVSPropertyOp4
 70
     1
102
RTVSPropertyOp5
 70
     1
102
RTVSPropertyOp6
 70
     1
102
RTVSPropertyOp7
 70
     1
102
RTVSPropertyOp8
 70
     1
102
RTVSPropertyOp9
 70
     1
102
RTVSPropertyOp10
 70
     1
102
RTVSPropertyOp11
 70
     1
102
RTVSPropertyOp12
 70
     1
102
RTVSPropertyOp13
 70
     1
102
RTVSPropertyOp14
 70
     1
102
RTVSPropertyOp15
 70
     1
102
RTVSPropertyOp16
 70
     1
102
RTVSPropertyOp17
 70
     1
102
RTVSPropertyOp18
 70
     1
102
RTVSPropertyOp19
 70
     1
102
RTVSPropertyOp20
 70
     1
102
RTVSPropertyOp21
 70
     1
102
RTVSPropertyOp22
 70
     1
102
RTVSPropertyOp23
 70
     1
102
RTVSPropertyOp24
 70
     1
102
RTVSPropertyOp25
 70
     1
102
RTVSPropertyOp26
 70
     1
102
RTVSPropertyOp27
 70
     1
102
RTVSPropertyOp28
 70
     1
102
RTVSPropertyOp29
 70
     1
102
RTVSPropertyOp30
 70
     1
102
RTVSPropertyOp31
 70
     1
102
RTVSPropertyOp32
 70
     1
102
RTVSPropertyOp33
 70
     1
102
RTVSPropertyOp34
 70
     1
102
RTVSPropertyOp35
 70
     1
102
RTVSPropertyOp36
 70
     1
102
RTVSPropertyOp37
 70
     1
102
RTVSPropertyOp38
 70
     1
102
RTVSPropertyOp39
 70
     1
102
RTVSPropertyOp40
 70
     1
102
RTVSPropertyOp41
 70
     1
102
RTVSPropertyOp42
 70
     1
102
RTVSPropertyOp43
 70
     1
102
RTVSPropertyOp44
 70
     1
102
RTVSPropertyOp45
 70
     1
102
RTVSPropertyOp46
 70
     1
102
RTVSPropertyOp47
 70
     1
102
RTVSPropertyOp48
 70
     1
102
RTVSPropertyOp49
 70
     1
102
RTVSPropertyOp50
 70
     1
102
RTVSPropertyOp51
 70
     0
102
RTVSPropertyOp52
 70
     0
102
RTVSPropertyOp53
 70
     1
102
RTVSPropertyOp54
 70
     1
102
RTVSPropertyOp55
 70
     1
102
RTVSPropertyOp56
 70
     1
102
RTVSPropertyOp57
 70
     1
102
RTVSPropertyOp58
 70
     1
102
RTVSPropertyOp59
 70
     1
102
RTVSPropertyOp60
 70
     1
102
RTVSPropertyOp61
 70
     1
102
RTVSPropertyOp62
 70
     1
  0
XRECORD
  5
84AD
102
{ACAD_REACTORS
330
84AC
102
}
330
84AC
100
AcDbXrecord
280
     1
102
RTVSPost2010Prop28
280
     0
102
RTVSPost2010PropOp28
 70
     1
102
RTVSPost2010Prop29
280
     1
102
RTVSPost2010PropOp29
 70
     1
102
RTVSPost2010Prop30
280
     1
102
RTVSPost2010PropOp30
 70
     1
102
RTVSPost2010Prop31
280
     0
102
RTVSPost2010PropOp31
 70
     1
102
RTVSPost2010Prop32
280
     0
102
RTVSPost2010PropOp32
 70
     1
102
RTVSPost2010Prop33
280
     0
102
RTVSPost2010PropOp33
 70
     1
102
RTVSPost2010Prop34
280
     0
102
RTVSPost2010PropOp34
 70
     1
102
RTVSPost2010Prop35
280
     0
102
RTVSPost2010PropOp35
 70
     1
102
RTVSPost2010Prop36
280
     0
102
RTVSPost2010PropOp36
 70
     1
102
RTVSPost2010Prop37
 90
       50
102
RTVSPost2010PropOp37
 70
     1
102
RTVSPost2010Prop38
140
0.0
102
RTVSPost2010PropOp38
 70
     1
102
RTVSPost2010Prop39
140
1.0
102
RTVSPost2010PropOp39
 70
     1
102
RTVSPost2010Prop40
 90
        0
102
RTVSPost2010PropOp40
 70
     1
102
RTVSPost2010Prop41ColorIndex
 90
       18
102
RTVSPost2010Prop41ColorRGB
 90
        0
102
RTVSPost2010PropOp41
 70
     1
102
RTVSPost2010Prop42
 90
       50
102
RTVSPost2010PropOp42
 70
     1
102
RTVSPost2010Prop43
 90
        3
102
RTVSPost2010PropOp43
 70
     1
102
RTVSPost2010Prop44ColorIndex
 90
        5
102
RTVSPost2010Prop44ColorRGB
 90
      255
102
RTVSPost2010PropOp44
 70
     1
102
RTVSPost2010Prop45
280
     0
102
RTVSPost2010PropOp45
 70
     1
102
RTVSPost2010Prop46
 90
       50
102
RTVSPost2010PropOp46
 70
     1
102
RTVSPost2010Prop47
 90
       50
102
RTVSPost2010PropOp47
 70
     1
102
RTVSPost2010Prop48
 90
       50
102
RTVSPost2010PropOp48
 70
     1
102
RTVSPost2010Prop49
280
     0
102
RTVSPost2010PropOp49
 70
     1
102
RTVSPost2010Prop50
 90
       50
102
RTVSPost2010PropOp50
 70
     1
102
RTVSPost2010Prop51ColorIndex
 90
      256
102
RTVSPost2010Prop51ColorRGB
 90
-16777216
102
RTVSPost2010PropOp51
 70
     0
102
RTVSPost2010Prop52
140
1.0
102
RTVSPost2010PropOp52
 70
     0
102
RTVSPost2010Prop53
 90
        2
102
RTVSPost2010PropOp53
 70
     1
102
RTVSPost2010Prop54
  1
strokes_ogs.tif
102
RTVSPost2010PropOp54
 70
     1
102
RTVSPost2010Prop55
280
     0
102
RTVSPost2010PropOp55
 70
     1
102
RTVSPost2010Prop56
140
1.0
102
RTVSPost2010PropOp56
 70
     1
102
RTVSPost2010Prop57
140
1.0
102
RTVSPost2010PropOp57
 70
     1
102
RTVSPropertyOp0
 70
     1
102
RTVSPropertyOp1
 70
     1
102
RTVSPropertyOp2
 70
     1
102
RTVSPropertyOp3
 70
     1
102
RTVSPropertyOp4
 70
     1
102
RTVSPropertyOp5
 70
     1
102
RTVSPropertyOp6
 70
     1
102
RTVSPropertyOp7
 70
     1
102
RTVSPropertyOp8
 70
     1
102
RTVSPropertyOp9
 70
     1
102
RTVSPropertyOp10
 70
     1
102
RTVSPropertyOp11
 70
     1
102
RTVSPropertyOp12
 70
     1
102
RTVSPropertyOp13
 70
     1
102
RTVSPropertyOp14
 70
     1
102
RTVSPropertyOp15
 70
     1
102
RTVSPropertyOp16
 70
     1
102
RTVSPropertyOp17
 70
     1
102
RTVSPropertyOp18
 70
     1
102
RTVSPropertyOp19
 70
     1
102
RTVSPropertyOp20
 70
     1
102
RTVSPropertyOp21
 70
     1
102
RTVSPropertyOp22
 70
     1
102
RTVSPropertyOp23
 70
     1
102
RTVSPropertyOp24
 70
     1
102
RTVSPropertyOp25
 70
     1
102
RTVSPropertyOp26
 70
     1
102
RTVSPropertyOp27
 70
     1
102
RTVSPropertyOp28
 70
     1
102
RTVSPropertyOp29
 70
     1
102
RTVSPropertyOp30
 70
     1
102
RTVSPropertyOp31
 70
     1
102
RTVSPropertyOp32
 70
     1
102
RTVSPropertyOp33
 70
     1
102
RTVSPropertyOp34
 70
     1
102
RTVSPropertyOp35
 70
     1
102
RTVSPropertyOp36
 70
     1
102
RTVSPropertyOp37
 70
     1
102
RTVSPropertyOp38
 70
     1
102
RTVSPropertyOp39
 70
     1
102
RTVSPropertyOp40
 70
     1
102
RTVSPropertyOp41
 70
     1
102
RTVSPropertyOp42
 70
     1
102
RTVSPropertyOp43
 70
     1
102
RTVSPropertyOp44
 70
     1
102
RTVSPropertyOp45
 70
     1
102
RTVSPropertyOp46
 70
     1
102
RTVSPropertyOp47
 70
     1
102
RTVSPropertyOp48
 70
     1
102
RTVSPropertyOp49
 70
     1
102
RTVSPropertyOp50
 70
     1
102
RTVSPropertyOp51
 70
     0
102
RTVSPropertyOp52
 70
     0
102
RTVSPropertyOp53
 70
     1
102
RTVSPropertyOp54
 70
     1
102
RTVSPropertyOp55
 70
     1
102
RTVSPropertyOp56
 70
     1
102
RTVSPropertyOp57
 70
     1
102
RTVSPropertyOp58
 70
     1
102
RTVSPropertyOp59
 70
     1
102
RTVSPropertyOp60
 70
     1
102
RTVSPropertyOp61
 70
     1
102
RTVSPropertyOp62
 70
     1
  0
XRECORD
  5
84AB
102
{ACAD_REACTORS
330
84AA
102
}
330
84AA
100
AcDbXrecord
280
     1
102
RTVSPost2010Prop28
280
     0
102
RTVSPost2010PropOp28
 70
     1
102
RTVSPost2010Prop29
280
     1
102
RTVSPost2010PropOp29
 70
     1
102
RTVSPost2010Prop30
280
     1
102
RTVSPost2010PropOp30
 70
     1
102
RTVSPost2010Prop31
280
     0
102
RTVSPost2010PropOp31
 70
     1
102
RTVSPost2010Prop32
280
     0
102
RTVSPost2010PropOp32
 70
     1
102
RTVSPost2010Prop33
280
     0
102
RTVSPost2010PropOp33
 70
     1
102
RTVSPost2010Prop34
280
     0
102
RTVSPost2010PropOp34
 70
     1
102
RTVSPost2010Prop35
280
     0
102
RTVSPost2010PropOp35
 70
     1
102
RTVSPost2010Prop36
280
     0
102
RTVSPost2010PropOp36
 70
     1
102
RTVSPost2010Prop37
 90
       50
102
RTVSPost2010PropOp37
 70
     1
102
RTVSPost2010Prop38
140
0.0
102
RTVSPost2010PropOp38
 70
     1
102
RTVSPost2010Prop39
140
1.0
102
RTVSPost2010PropOp39
 70
     1
102
RTVSPost2010Prop40
 90
        0
102
RTVSPost2010PropOp40
 70
     1
102
RTVSPost2010Prop41ColorIndex
 90
       18
102
RTVSPost2010Prop41ColorRGB
 90
        0
102
RTVSPost2010PropOp41
 70
     1
102
RTVSPost2010Prop42
 90
       50
102
RTVSPost2010PropOp42
 70
     1
102
RTVSPost2010Prop43
 90
        3
102
RTVSPost2010PropOp43
 70
     1
102
RTVSPost2010Prop44ColorIndex
 90
        5
102
RTVSPost2010Prop44ColorRGB
 90
      255
102
RTVSPost2010PropOp44
 70
     1
102
RTVSPost2010Prop45
280
     0
102
RTVSPost2010PropOp45
 70
     1
102
RTVSPost2010Prop46
 90
       50
102
RTVSPost2010PropOp46
 70
     1
102
RTVSPost2010Prop47
 90
       50
102
RTVSPost2010PropOp47
 70
     1
102
RTVSPost2010Prop48
 90
       50
102
RTVSPost2010PropOp48
 70
     1
102
RTVSPost2010Prop49
280
     0
102
RTVSPost2010PropOp49
 70
     1
102
RTVSPost2010Prop50
 90
       50
102
RTVSPost2010PropOp50
 70
     1
102
RTVSPost2010Prop51ColorIndex
 90
      256
102
RTVSPost2010Prop51ColorRGB
 90
-16777216
102
RTVSPost2010PropOp51
 70
     0
102
RTVSPost2010Prop52
140
1.0
102
RTVSPost2010PropOp52
 70
     0
102
RTVSPost2010Prop53
 90
        2
102
RTVSPost2010PropOp53
 70
     1
102
RTVSPost2010Prop54
  1
strokes_ogs.tif
102
RTVSPost2010PropOp54
 70
     1
102
RTVSPost2010Prop55
280
     0
102
RTVSPost2010PropOp55
 70
     1
102
RTVSPost2010Prop56
140
1.0
102
RTVSPost2010PropOp56
 70
     1
102
RTVSPost2010Prop57
140
1.0
102
RTVSPost2010PropOp57
 70
     1
102
RTVSPropertyOp0
 70
     1
102
RTVSPropertyOp1
 70
     1
102
RTVSPropertyOp2
 70
     1
102
RTVSPropertyOp3
 70
     1
102
RTVSPropertyOp4
 70
     1
102
RTVSPropertyOp5
 70
     1
102
RTVSPropertyOp6
 70
     1
102
RTVSPropertyOp7
 70
     1
102
RTVSPropertyOp8
 70
     1
102
RTVSPropertyOp9
 70
     1
102
RTVSPropertyOp10
 70
     1
102
RTVSPropertyOp11
 70
     1
102
RTVSPropertyOp12
 70
     1
102
RTVSPropertyOp13
 70
     1
102
RTVSPropertyOp14
 70
     1
102
RTVSPropertyOp15
 70
     1
102
RTVSPropertyOp16
 70
     1
102
RTVSPropertyOp17
 70
     1
102
RTVSPropertyOp18
 70
     1
102
RTVSPropertyOp19
 70
     1
102
RTVSPropertyOp20
 70
     1
102
RTVSPropertyOp21
 70
     1
102
RTVSPropertyOp22
 70
     1
102
RTVSPropertyOp23
 70
     1
102
RTVSPropertyOp24
 70
     1
102
RTVSPropertyOp25
 70
     1
102
RTVSPropertyOp26
 70
     1
102
RTVSPropertyOp27
 70
     1
102
RTVSPropertyOp28
 70
     1
102
RTVSPropertyOp29
 70
     1
102
RTVSPropertyOp30
 70
     1
102
RTVSPropertyOp31
 70
     1
102
RTVSPropertyOp32
 70
     1
102
RTVSPropertyOp33
 70
     1
102
RTVSPropertyOp34
 70
     1
102
RTVSPropertyOp35
 70
     1
102
RTVSPropertyOp36
 70
     1
102
RTVSPropertyOp37
 70
     1
102
RTVSPropertyOp38
 70
     1
102
RTVSPropertyOp39
 70
     1
102
RTVSPropertyOp40
 70
     1
102
RTVSPropertyOp41
 70
     1
102
RTVSPropertyOp42
 70
     1
102
RTVSPropertyOp43
 70
     1
102
RTVSPropertyOp44
 70
     1
102
RTVSPropertyOp45
 70
     1
102
RTVSPropertyOp46
 70
     1
102
RTVSPropertyOp47
 70
     1
102
RTVSPropertyOp48
 70
     1
102
RTVSPropertyOp49
 70
     1
102
RTVSPropertyOp50
 70
     1
102
RTVSPropertyOp51
 70
     0
102
RTVSPropertyOp52
 70
     0
102
RTVSPropertyOp53
 70
     1
102
RTVSPropertyOp54
 70
     1
102
RTVSPropertyOp55
 70
     1
102
RTVSPropertyOp56
 70
     1
102
RTVSPropertyOp57
 70
     1
102
RTVSPropertyOp58
 70
     1
102
RTVSPropertyOp59
 70
     1
102
RTVSPropertyOp60
 70
     1
102
RTVSPropertyOp61
 70
     1
102
RTVSPropertyOp62
 70
     1
  0
XRECORD
  5
84A5
102
{ACAD_REACTORS
330
84A4
102
}
330
84A4
100
AcDbXrecord
280
     1
102
RTVSPost2010Prop28
280
     0
102
RTVSPost2010PropOp28
 70
     1
102
RTVSPost2010Prop29
280
     1
102
RTVSPost2010PropOp29
 70
     1
102
RTVSPost2010Prop30
280
     1
102
RTVSPost2010PropOp30
 70
     1
102
RTVSPost2010Prop31
280
     0
102
RTVSPost2010PropOp31
 70
     1
102
RTVSPost2010Prop32
280
     0
102
RTVSPost2010PropOp32
 70
     1
102
RTVSPost2010Prop33
280
     0
102
RTVSPost2010PropOp33
 70
     1
102
RTVSPost2010Prop34
280
     0
102
RTVSPost2010PropOp34
 70
     1
102
RTVSPost2010Prop35
280
     0
102
RTVSPost2010PropOp35
 70
     1
102
RTVSPost2010Prop36
280
     0
102
RTVSPost2010PropOp36
 70
     1
102
RTVSPost2010Prop37
 90
       50
102
RTVSPost2010PropOp37
 70
     1
102
RTVSPost2010Prop38
140
0.0
102
RTVSPost2010PropOp38
 70
     1
102
RTVSPost2010Prop39
140
1.0
102
RTVSPost2010PropOp39
 70
     1
102
RTVSPost2010Prop40
 90
        0
102
RTVSPost2010PropOp40
 70
     1
102
RTVSPost2010Prop41ColorIndex
 90
       18
102
RTVSPost2010Prop41ColorRGB
 90
        0
102
RTVSPost2010PropOp41
 70
     1
102
RTVSPost2010Prop42
 90
       50
102
RTVSPost2010PropOp42
 70
     1
102
RTVSPost2010Prop43
 90
        3
102
RTVSPost2010PropOp43
 70
     1
102
RTVSPost2010Prop44ColorIndex
 90
        5
102
RTVSPost2010Prop44ColorRGB
 90
      255
102
RTVSPost2010PropOp44
 70
     1
102
RTVSPost2010Prop45
280
     0
102
RTVSPost2010PropOp45
 70
     1
102
RTVSPost2010Prop46
 90
       50
102
RTVSPost2010PropOp46
 70
     1
102
RTVSPost2010Prop47
 90
       50
102
RTVSPost2010PropOp47
 70
     1
102
RTVSPost2010Prop48
 90
       50
102
RTVSPost2010PropOp48
 70
     1
102
RTVSPost2010Prop49
280
     0
102
RTVSPost2010PropOp49
 70
     1
102
RTVSPost2010Prop50
 90
       50
102
RTVSPost2010PropOp50
 70
     1
102
RTVSPost2010Prop51ColorIndex
 90
      256
102
RTVSPost2010Prop51ColorRGB
 90
-16777216
102
RTVSPost2010PropOp51
 70
     0
102
RTVSPost2010Prop52
140
1.0
102
RTVSPost2010PropOp52
 70
     0
102
RTVSPost2010Prop53
 90
        2
102
RTVSPost2010PropOp53
 70
     1
102
RTVSPost2010Prop54
  1
strokes_ogs.tif
102
RTVSPost2010PropOp54
 70
     1
102
RTVSPost2010Prop55
280
     0
102
RTVSPost2010PropOp55
 70
     1
102
RTVSPost2010Prop56
140
1.0
102
RTVSPost2010PropOp56
 70
     1
102
RTVSPost2010Prop57
140
1.0
102
RTVSPost2010PropOp57
 70
     1
102
RTVSPropertyOp0
 70
     1
102
RTVSPropertyOp1
 70
     1
102
RTVSPropertyOp2
 70
     1
102
RTVSPropertyOp3
 70
     1
102
RTVSPropertyOp4
 70
     1
102
RTVSPropertyOp5
 70
     1
102
RTVSPropertyOp6
 70
     1
102
RTVSPropertyOp7
 70
     1
102
RTVSPropertyOp8
 70
     1
102
RTVSPropertyOp9
 70
     1
102
RTVSPropertyOp10
 70
     1
102
RTVSPropertyOp11
 70
     1
102
RTVSPropertyOp12
 70
     1
102
RTVSPropertyOp13
 70
     1
102
RTVSPropertyOp14
 70
     1
102
RTVSPropertyOp15
 70
     1
102
RTVSPropertyOp16
 70
     1
102
RTVSPropertyOp17
 70
     1
102
RTVSPropertyOp18
 70
     1
102
RTVSPropertyOp19
 70
     1
102
RTVSPropertyOp20
 70
     1
102
RTVSPropertyOp21
 70
     1
102
RTVSPropertyOp22
 70
     1
102
RTVSPropertyOp23
 70
     1
102
RTVSPropertyOp24
 70
     1
102
RTVSPropertyOp25
 70
     1
102
RTVSPropertyOp26
 70
     1
102
RTVSPropertyOp27
 70
     1
102
RTVSPropertyOp28
 70
     1
102
RTVSPropertyOp29
 70
     1
102
RTVSPropertyOp30
 70
     1
102
RTVSPropertyOp31
 70
     1
102
RTVSPropertyOp32
 70
     1
102
RTVSPropertyOp33
 70
     1
102
RTVSPropertyOp34
 70
     1
102
RTVSPropertyOp35
 70
     1
102
RTVSPropertyOp36
 70
     1
102
RTVSPropertyOp37
 70
     1
102
RTVSPropertyOp38
 70
     1
102
RTVSPropertyOp39
 70
     1
102
RTVSPropertyOp40
 70
     1
102
RTVSPropertyOp41
 70
     1
102
RTVSPropertyOp42
 70
     1
102
RTVSPropertyOp43
 70
     1
102
RTVSPropertyOp44
 70
     1
102
RTVSPropertyOp45
 70
     1
102
RTVSPropertyOp46
 70
     1
102
RTVSPropertyOp47
 70
     1
102
RTVSPropertyOp48
 70
     1
102
RTVSPropertyOp49
 70
     1
102
RTVSPropertyOp50
 70
     1
102
RTVSPropertyOp51
 70
     0
102
RTVSPropertyOp52
 70
     0
102
RTVSPropertyOp53
 70
     1
102
RTVSPropertyOp54
 70
     1
102
RTVSPropertyOp55
 70
     1
102
RTVSPropertyOp56
 70
     1
102
RTVSPropertyOp57
 70
     1
102
RTVSPropertyOp58
 70
     1
102
RTVSPropertyOp59
 70
     1
102
RTVSPropertyOp60
 70
     1
102
RTVSPropertyOp61
 70
     1
102
RTVSPropertyOp62
 70
     1
  0
XRECORD
  5
84A7
102
{ACAD_REACTORS
330
84A6
102
}
330
84A6
100
AcDbXrecord
280
     1
102
RTVSPost2010Prop28
280
     0
102
RTVSPost2010PropOp28
 70
     1
102
RTVSPost2010Prop29
280
     1
102
RTVSPost2010PropOp29
 70
     1
102
RTVSPost2010Prop30
280
     1
102
RTVSPost2010PropOp30
 70
     1
102
RTVSPost2010Prop31
280
     0
102
RTVSPost2010PropOp31
 70
     1
102
RTVSPost2010Prop32
280
     0
102
RTVSPost2010PropOp32
 70
     1
102
RTVSPost2010Prop33
280
     0
102
RTVSPost2010PropOp33
 70
     1
102
RTVSPost2010Prop34
280
     0
102
RTVSPost2010PropOp34
 70
     1
102
RTVSPost2010Prop35
280
     0
102
RTVSPost2010PropOp35
 70
     1
102
RTVSPost2010Prop36
280
     0
102
RTVSPost2010PropOp36
 70
     1
102
RTVSPost2010Prop37
 90
       50
102
RTVSPost2010PropOp37
 70
     1
102
RTVSPost2010Prop38
140
0.0
102
RTVSPost2010PropOp38
 70
     1
102
RTVSPost2010Prop39
140
1.0
102
RTVSPost2010PropOp39
 70
     1
102
RTVSPost2010Prop40
 90
        0
102
RTVSPost2010PropOp40
 70
     1
102
RTVSPost2010Prop41ColorIndex
 90
       18
102
RTVSPost2010Prop41ColorRGB
 90
        0
102
RTVSPost2010PropOp41
 70
     1
102
RTVSPost2010Prop42
 90
       50
102
RTVSPost2010PropOp42
 70
     1
102
RTVSPost2010Prop43
 90
        3
102
RTVSPost2010PropOp43
 70
     1
102
RTVSPost2010Prop44ColorIndex
 90
        5
102
RTVSPost2010Prop44ColorRGB
 90
      255
102
RTVSPost2010PropOp44
 70
     1
102
RTVSPost2010Prop45
280
     0
102
RTVSPost2010PropOp45
 70
     1
102
RTVSPost2010Prop46
 90
       50
102
RTVSPost2010PropOp46
 70
     1
102
RTVSPost2010Prop47
 90
       50
102
RTVSPost2010PropOp47
 70
     1
102
RTVSPost2010Prop48
 90
       50
102
RTVSPost2010PropOp48
 70
     1
102
RTVSPost2010Prop49
280
     0
102
RTVSPost2010PropOp49
 70
     1
102
RTVSPost2010Prop50
 90
       50
102
RTVSPost2010PropOp50
 70
     1
102
RTVSPost2010Prop51ColorIndex
 90
      256
102
RTVSPost2010Prop51ColorRGB
 90
-16777216
102
RTVSPost2010PropOp51
 70
     0
102
RTVSPost2010Prop52
140
1.0
102
RTVSPost2010PropOp52
 70
     0
102
RTVSPost2010Prop53
 90
        2
102
RTVSPost2010PropOp53
 70
     1
102
RTVSPost2010Prop54
  1
strokes_ogs.tif
102
RTVSPost2010PropOp54
 70
     1
102
RTVSPost2010Prop55
280
     0
102
RTVSPost2010PropOp55
 70
     1
102
RTVSPost2010Prop56
140
1.0
102
RTVSPost2010PropOp56
 70
     1
102
RTVSPost2010Prop57
140
1.0
102
RTVSPost2010PropOp57
 70
     1
102
RTVSPropertyOp0
 70
     1
102
RTVSPropertyOp1
 70
     1
102
RTVSPropertyOp2
 70
     1
102
RTVSPropertyOp3
 70
     1
102
RTVSPropertyOp4
 70
     1
102
RTVSPropertyOp5
 70
     1
102
RTVSPropertyOp6
 70
     1
102
RTVSPropertyOp7
 70
     1
102
RTVSPropertyOp8
 70
     1
102
RTVSPropertyOp9
 70
     1
102
RTVSPropertyOp10
 70
     1
102
RTVSPropertyOp11
 70
     1
102
RTVSPropertyOp12
 70
     1
102
RTVSPropertyOp13
 70
     1
102
RTVSPropertyOp14
 70
     1
102
RTVSPropertyOp15
 70
     1
102
RTVSPropertyOp16
 70
     1
102
RTVSPropertyOp17
 70
     1
102
RTVSPropertyOp18
 70
     1
102
RTVSPropertyOp19
 70
     1
102
RTVSPropertyOp20
 70
     1
102
RTVSPropertyOp21
 70
     1
102
RTVSPropertyOp22
 70
     1
102
RTVSPropertyOp23
 70
     1
102
RTVSPropertyOp24
 70
     1
102
RTVSPropertyOp25
 70
     1
102
RTVSPropertyOp26
 70
     1
102
RTVSPropertyOp27
 70
     1
102
RTVSPropertyOp28
 70
     1
102
RTVSPropertyOp29
 70
     1
102
RTVSPropertyOp30
 70
     1
102
RTVSPropertyOp31
 70
     1
102
RTVSPropertyOp32
 70
     1
102
RTVSPropertyOp33
 70
     1
102
RTVSPropertyOp34
 70
     1
102
RTVSPropertyOp35
 70
     1
102
RTVSPropertyOp36
 70
     1
102
RTVSPropertyOp37
 70
     1
102
RTVSPropertyOp38
 70
     1
102
RTVSPropertyOp39
 70
     1
102
RTVSPropertyOp40
 70
     1
102
RTVSPropertyOp41
 70
     1
102
RTVSPropertyOp42
 70
     1
102
RTVSPropertyOp43
 70
     1
102
RTVSPropertyOp44
 70
     1
102
RTVSPropertyOp45
 70
     1
102
RTVSPropertyOp46
 70
     1
102
RTVSPropertyOp47
 70
     1
102
RTVSPropertyOp48
 70
     1
102
RTVSPropertyOp49
 70
     1
102
RTVSPropertyOp50
 70
     1
102
RTVSPropertyOp51
 70
     0
102
RTVSPropertyOp52
 70
     0
102
RTVSPropertyOp53
 70
     1
102
RTVSPropertyOp54
 70
     1
102
RTVSPropertyOp55
 70
     1
102
RTVSPropertyOp56
 70
     1
102
RTVSPropertyOp57
 70
     1
102
RTVSPropertyOp58
 70
     1
102
RTVSPropertyOp59
 70
     1
102
RTVSPropertyOp60
 70
     1
102
RTVSPropertyOp61
 70
     1
102
RTVSPropertyOp62
 70
     1
  0
XRECORD
  5
849D
102
{ACAD_REACTORS
330
849C
102
}
330
849C
100
AcDbXrecord
280
     1
102
RTVSPost2010Prop28
280
     0
102
RTVSPost2010PropOp28
 70
     1
102
RTVSPost2010Prop29
280
     1
102
RTVSPost2010PropOp29
 70
     1
102
RTVSPost2010Prop30
280
     1
102
RTVSPost2010PropOp30
 70
     1
102
RTVSPost2010Prop31
280
     0
102
RTVSPost2010PropOp31
 70
     1
102
RTVSPost2010Prop32
280
     0
102
RTVSPost2010PropOp32
 70
     1
102
RTVSPost2010Prop33
280
     0
102
RTVSPost2010PropOp33
 70
     1
102
RTVSPost2010Prop34
280
     0
102
RTVSPost2010PropOp34
 70
     1
102
RTVSPost2010Prop35
280
     0
102
RTVSPost2010PropOp35
 70
     1
102
RTVSPost2010Prop36
280
     0
102
RTVSPost2010PropOp36
 70
     1
102
RTVSPost2010Prop37
 90
       50
102
RTVSPost2010PropOp37
 70
     1
102
RTVSPost2010Prop38
140
0.0
102
RTVSPost2010PropOp38
 70
     1
102
RTVSPost2010Prop39
140
1.0
102
RTVSPost2010PropOp39
 70
     1
102
RTVSPost2010Prop40
 90
        0
102
RTVSPost2010PropOp40
 70
     1
102
RTVSPost2010Prop41ColorIndex
 90
       18
102
RTVSPost2010Prop41ColorRGB
 90
        0
102
RTVSPost2010PropOp41
 70
     1
102
RTVSPost2010Prop42
 90
       50
102
RTVSPost2010PropOp42
 70
     1
102
RTVSPost2010Prop43
 90
        3
102
RTVSPost2010PropOp43
 70
     1
102
RTVSPost2010Prop44ColorIndex
 90
        5
102
RTVSPost2010Prop44ColorRGB
 90
      255
102
RTVSPost2010PropOp44
 70
     1
102
RTVSPost2010Prop45
280
     0
102
RTVSPost2010PropOp45
 70
     1
102
RTVSPost2010Prop46
 90
       50
102
RTVSPost2010PropOp46
 70
     1
102
RTVSPost2010Prop47
 90
       50
102
RTVSPost2010PropOp47
 70
     1
102
RTVSPost2010Prop48
 90
       50
102
RTVSPost2010PropOp48
 70
     1
102
RTVSPost2010Prop49
280
     0
102
RTVSPost2010PropOp49
 70
     1
102
RTVSPost2010Prop50
 90
       50
102
RTVSPost2010PropOp50
 70
     1
102
RTVSPost2010Prop51ColorIndex
 90
      256
102
RTVSPost2010Prop51ColorRGB
 90
-16777216
102
RTVSPost2010PropOp51
 70
     0
102
RTVSPost2010Prop52
140
1.0
102
RTVSPost2010PropOp52
 70
     0
102
RTVSPost2010Prop53
 90
        2
102
RTVSPost2010PropOp53
 70
     1
102
RTVSPost2010Prop54
  1
strokes_ogs.tif
102
RTVSPost2010PropOp54
 70
     1
102
RTVSPost2010Prop55
280
     0
102
RTVSPost2010PropOp55
 70
     1
102
RTVSPost2010Prop56
140
1.0
102
RTVSPost2010PropOp56
 70
     1
102
RTVSPost2010Prop57
140
1.0
102
RTVSPost2010PropOp57
 70
     1
102
RTVSPropertyOp0
 70
     1
102
RTVSPropertyOp1
 70
     1
102
RTVSPropertyOp2
 70
     1
102
RTVSPropertyOp3
 70
     1
102
RTVSPropertyOp4
 70
     1
102
RTVSPropertyOp5
 70
     1
102
RTVSPropertyOp6
 70
     1
102
RTVSPropertyOp7
 70
     1
102
RTVSPropertyOp8
 70
     1
102
RTVSPropertyOp9
 70
     1
102
RTVSPropertyOp10
 70
     1
102
RTVSPropertyOp11
 70
     1
102
RTVSPropertyOp12
 70
     1
102
RTVSPropertyOp13
 70
     1
102
RTVSPropertyOp14
 70
     1
102
RTVSPropertyOp15
 70
     1
102
RTVSPropertyOp16
 70
     1
102
RTVSPropertyOp17
 70
     1
102
RTVSPropertyOp18
 70
     1
102
RTVSPropertyOp19
 70
     1
102
RTVSPropertyOp20
 70
     1
102
RTVSPropertyOp21
 70
     1
102
RTVSPropertyOp22
 70
     1
102
RTVSPropertyOp23
 70
     1
102
RTVSPropertyOp24
 70
     1
102
RTVSPropertyOp25
 70
     1
102
RTVSPropertyOp26
 70
     1
102
RTVSPropertyOp27
 70
     1
102
RTVSPropertyOp28
 70
     1
102
RTVSPropertyOp29
 70
     1
102
RTVSPropertyOp30
 70
     1
102
RTVSPropertyOp31
 70
     1
102
RTVSPropertyOp32
 70
     1
102
RTVSPropertyOp33
 70
     1
102
RTVSPropertyOp34
 70
     1
102
RTVSPropertyOp35
 70
     1
102
RTVSPropertyOp36
 70
     1
102
RTVSPropertyOp37
 70
     1
102
RTVSPropertyOp38
 70
     1
102
RTVSPropertyOp39
 70
     1
102
RTVSPropertyOp40
 70
     1
102
RTVSPropertyOp41
 70
     1
102
RTVSPropertyOp42
 70
     1
102
RTVSPropertyOp43
 70
     1
102
RTVSPropertyOp44
 70
     1
102
RTVSPropertyOp45
 70
     1
102
RTVSPropertyOp46
 70
     1
102
RTVSPropertyOp47
 70
     1
102
RTVSPropertyOp48
 70
     1
102
RTVSPropertyOp49
 70
     1
102
RTVSPropertyOp50
 70
     1
102
RTVSPropertyOp51
 70
     0
102
RTVSPropertyOp52
 70
     0
102
RTVSPropertyOp53
 70
     1
102
RTVSPropertyOp54
 70
     1
102
RTVSPropertyOp55
 70
     1
102
RTVSPropertyOp56
 70
     1
102
RTVSPropertyOp57
 70
     1
102
RTVSPropertyOp58
 70
     1
102
RTVSPropertyOp59
 70
     1
102
RTVSPropertyOp60
 70
     1
102
RTVSPropertyOp61
 70
     1
102
RTVSPropertyOp62
 70
     1
  0
XRECORD
  5
8491
102
{ACAD_REACTORS
330
8490
102
}
330
8490
100
AcDbXrecord
280
     1
102
RTVSPost2010Prop28
280
     0
102
RTVSPost2010PropOp28
 70
     1
102
RTVSPost2010Prop29
280
     1
102
RTVSPost2010PropOp29
 70
     1
102
RTVSPost2010Prop30
280
     1
102
RTVSPost2010PropOp30
 70
     1
102
RTVSPost2010Prop31
280
     0
102
RTVSPost2010PropOp31
 70
     1
102
RTVSPost2010Prop32
280
     0
102
RTVSPost2010PropOp32
 70
     1
102
RTVSPost2010Prop33
280
     0
102
RTVSPost2010PropOp33
 70
     1
102
RTVSPost2010Prop34
280
     0
102
RTVSPost2010PropOp34
 70
     1
102
RTVSPost2010Prop35
280
     0
102
RTVSPost2010PropOp35
 70
     1
102
RTVSPost2010Prop36
280
     0
102
RTVSPost2010PropOp36
 70
     1
102
RTVSPost2010Prop37
 90
       50
102
RTVSPost2010PropOp37
 70
     1
102
RTVSPost2010Prop38
140
0.0
102
RTVSPost2010PropOp38
 70
     1
102
RTVSPost2010Prop39
140
1.0
102
RTVSPost2010PropOp39
 70
     1
102
RTVSPost2010Prop40
 90
        0
102
RTVSPost2010PropOp40
 70
     1
102
RTVSPost2010Prop41ColorIndex
 90
       18
102
RTVSPost2010Prop41ColorRGB
 90
        0
102
RTVSPost2010PropOp41
 70
     1
102
RTVSPost2010Prop42
 90
       50
102
RTVSPost2010PropOp42
 70
     1
102
RTVSPost2010Prop43
 90
        3
102
RTVSPost2010PropOp43
 70
     1
102
RTVSPost2010Prop44ColorIndex
 90
        5
102
RTVSPost2010Prop44ColorRGB
 90
      255
102
RTVSPost2010PropOp44
 70
     1
102
RTVSPost2010Prop45
280
     0
102
RTVSPost2010PropOp45
 70
     1
102
RTVSPost2010Prop46
 90
       50
102
RTVSPost2010PropOp46
 70
     1
102
RTVSPost2010Prop47
 90
       50
102
RTVSPost2010PropOp47
 70
     1
102
RTVSPost2010Prop48
 90
       50
102
RTVSPost2010PropOp48
 70
     1
102
RTVSPost2010Prop49
280
     0
102
RTVSPost2010PropOp49
 70
     1
102
RTVSPost2010Prop50
 90
       50
102
RTVSPost2010PropOp50
 70
     1
102
RTVSPost2010Prop51ColorIndex
 90
      256
102
RTVSPost2010Prop51ColorRGB
 90
-16777216
102
RTVSPost2010PropOp51
 70
     0
102
RTVSPost2010Prop52
140
1.0
102
RTVSPost2010PropOp52
 70
     0
102
RTVSPost2010Prop53
 90
        2
102
RTVSPost2010PropOp53
 70
     1
102
RTVSPost2010Prop54
  1
strokes_ogs.tif
102
RTVSPost2010PropOp54
 70
     1
102
RTVSPost2010Prop55
280
     0
102
RTVSPost2010PropOp55
 70
     1
102
RTVSPost2010Prop56
140
1.0
102
RTVSPost2010PropOp56
 70
     1
102
RTVSPost2010Prop57
140
1.0
102
RTVSPost2010PropOp57
 70
     1
102
RTVSPropertyOp0
 70
     1
102
RTVSPropertyOp1
 70
     1
102
RTVSPropertyOp2
 70
     1
102
RTVSPropertyOp3
 70
     1
102
RTVSPropertyOp4
 70
     1
102
RTVSPropertyOp5
 70
     1
102
RTVSPropertyOp6
 70
     1
102
RTVSPropertyOp7
 70
     1
102
RTVSPropertyOp8
 70
     1
102
RTVSPropertyOp9
 70
     1
102
RTVSPropertyOp10
 70
     1
102
RTVSPropertyOp11
 70
     1
102
RTVSPropertyOp12
 70
     1
102
RTVSPropertyOp13
 70
     1
102
RTVSPropertyOp14
 70
     1
102
RTVSPropertyOp15
 70
     1
102
RTVSPropertyOp16
 70
     1
102
RTVSPropertyOp17
 70
     1
102
RTVSPropertyOp18
 70
     1
102
RTVSPropertyOp19
 70
     1
102
RTVSPropertyOp20
 70
     1
102
RTVSPropertyOp21
 70
     1
102
RTVSPropertyOp22
 70
     1
102
RTVSPropertyOp23
 70
     1
102
RTVSPropertyOp24
 70
     1
102
RTVSPropertyOp25
 70
     1
102
RTVSPropertyOp26
 70
     1
102
RTVSPropertyOp27
 70
     1
102
RTVSPropertyOp28
 70
     1
102
RTVSPropertyOp29
 70
     1
102
RTVSPropertyOp30
 70
     1
102
RTVSPropertyOp31
 70
     1
102
RTVSPropertyOp32
 70
     1
102
RTVSPropertyOp33
 70
     1
102
RTVSPropertyOp34
 70
     1
102
RTVSPropertyOp35
 70
     1
102
RTVSPropertyOp36
 70
     1
102
RTVSPropertyOp37
 70
     1
102
RTVSPropertyOp38
 70
     1
102
RTVSPropertyOp39
 70
     1
102
RTVSPropertyOp40
 70
     1
102
RTVSPropertyOp41
 70
     1
102
RTVSPropertyOp42
 70
     1
102
RTVSPropertyOp43
 70
     1
102
RTVSPropertyOp44
 70
     1
102
RTVSPropertyOp45
 70
     1
102
RTVSPropertyOp46
 70
     1
102
RTVSPropertyOp47
 70
     1
102
RTVSPropertyOp48
 70
     1
102
RTVSPropertyOp49
 70
     1
102
RTVSPropertyOp50
 70
     1
102
RTVSPropertyOp51
 70
     0
102
RTVSPropertyOp52
 70
     0
102
RTVSPropertyOp53
 70
     1
102
RTVSPropertyOp54
 70
     1
102
RTVSPropertyOp55
 70
     1
102
RTVSPropertyOp56
 70
     1
102
RTVSPropertyOp57
 70
     1
102
RTVSPropertyOp58
 70
     1
102
RTVSPropertyOp59
 70
     1
102
RTVSPropertyOp60
 70
     1
102
RTVSPropertyOp61
 70
     1
102
RTVSPropertyOp62
 70
     1
  0
XRECORD
  5
84A9
102
{ACAD_REACTORS
330
84A8
102
}
330
84A8
100
AcDbXrecord
280
     1
102
RTVSPost2010Prop28
280
     0
102
RTVSPost2010PropOp28
 70
     1
102
RTVSPost2010Prop29
280
     1
102
RTVSPost2010PropOp29
 70
     1
102
RTVSPost2010Prop30
280
     1
102
RTVSPost2010PropOp30
 70
     1
102
RTVSPost2010Prop31
280
     0
102
RTVSPost2010PropOp31
 70
     1
102
RTVSPost2010Prop32
280
     0
102
RTVSPost2010PropOp32
 70
     1
102
RTVSPost2010Prop33
280
     0
102
RTVSPost2010PropOp33
 70
     1
102
RTVSPost2010Prop34
280
     0
102
RTVSPost2010PropOp34
 70
     1
102
RTVSPost2010Prop35
280
     0
102
RTVSPost2010PropOp35
 70
     1
102
RTVSPost2010Prop36
280
     0
102
RTVSPost2010PropOp36
 70
     1
102
RTVSPost2010Prop37
 90
       50
102
RTVSPost2010PropOp37
 70
     1
102
RTVSPost2010Prop38
140
0.0
102
RTVSPost2010PropOp38
 70
     1
102
RTVSPost2010Prop39
140
1.0
102
RTVSPost2010PropOp39
 70
     1
102
RTVSPost2010Prop40
 90
        0
102
RTVSPost2010PropOp40
 70
     1
102
RTVSPost2010Prop41ColorIndex
 90
       18
102
RTVSPost2010Prop41ColorRGB
 90
        0
102
RTVSPost2010PropOp41
 70
     1
102
RTVSPost2010Prop42
 90
       50
102
RTVSPost2010PropOp42
 70
     1
102
RTVSPost2010Prop43
 90
        3
102
RTVSPost2010PropOp43
 70
     1
102
RTVSPost2010Prop44ColorIndex
 90
        5
102
RTVSPost2010Prop44ColorRGB
 90
      255
102
RTVSPost2010PropOp44
 70
     1
102
RTVSPost2010Prop45
280
     0
102
RTVSPost2010PropOp45
 70
     1
102
RTVSPost2010Prop46
 90
       50
102
RTVSPost2010PropOp46
 70
     1
102
RTVSPost2010Prop47
 90
       50
102
RTVSPost2010PropOp47
 70
     1
102
RTVSPost2010Prop48
 90
       50
102
RTVSPost2010PropOp48
 70
     1
102
RTVSPost2010Prop49
280
     0
102
RTVSPost2010PropOp49
 70
     1
102
RTVSPost2010Prop50
 90
       50
102
RTVSPost2010PropOp50
 70
     1
102
RTVSPost2010Prop51ColorIndex
 90
      256
102
RTVSPost2010Prop51ColorRGB
 90
-16777216
102
RTVSPost2010PropOp51
 70
     0
102
RTVSPost2010Prop52
140
1.0
102
RTVSPost2010PropOp52
 70
     0
102
RTVSPost2010Prop53
 90
        2
102
RTVSPost2010PropOp53
 70
     1
102
RTVSPost2010Prop54
  1
strokes_ogs.tif
102
RTVSPost2010PropOp54
 70
     1
102
RTVSPost2010Prop55
280
     0
102
RTVSPost2010PropOp55
 70
     1
102
RTVSPost2010Prop56
140
1.0
102
RTVSPost2010PropOp56
 70
     1
102
RTVSPost2010Prop57
140
1.0
102
RTVSPost2010PropOp57
 70
     1
102
RTVSPropertyOp0
 70
     1
102
RTVSPropertyOp1
 70
     1
102
RTVSPropertyOp2
 70
     1
102
RTVSPropertyOp3
 70
     1
102
RTVSPropertyOp4
 70
     1
102
RTVSPropertyOp5
 70
     1
102
RTVSPropertyOp6
 70
     1
102
RTVSPropertyOp7
 70
     1
102
RTVSPropertyOp8
 70
     1
102
RTVSPropertyOp9
 70
     1
102
RTVSPropertyOp10
 70
     1
102
RTVSPropertyOp11
 70
     1
102
RTVSPropertyOp12
 70
     1
102
RTVSPropertyOp13
 70
     1
102
RTVSPropertyOp14
 70
     1
102
RTVSPropertyOp15
 70
     1
102
RTVSPropertyOp16
 70
     1
102
RTVSPropertyOp17
 70
     1
102
RTVSPropertyOp18
 70
     1
102
RTVSPropertyOp19
 70
     1
102
RTVSPropertyOp20
 70
     1
102
RTVSPropertyOp21
 70
     1
102
RTVSPropertyOp22
 70
     1
102
RTVSPropertyOp23
 70
     1
102
RTVSPropertyOp24
 70
     1
102
RTVSPropertyOp25
 70
     1
102
RTVSPropertyOp26
 70
     1
102
RTVSPropertyOp27
 70
     1
102
RTVSPropertyOp28
 70
     1
102
RTVSPropertyOp29
 70
     1
102
RTVSPropertyOp30
 70
     1
102
RTVSPropertyOp31
 70
     1
102
RTVSPropertyOp32
 70
     1
102
RTVSPropertyOp33
 70
     1
102
RTVSPropertyOp34
 70
     1
102
RTVSPropertyOp35
 70
     1
102
RTVSPropertyOp36
 70
     1
102
RTVSPropertyOp37
 70
     1
102
RTVSPropertyOp38
 70
     1
102
RTVSPropertyOp39
 70
     1
102
RTVSPropertyOp40
 70
     1
102
RTVSPropertyOp41
 70
     1
102
RTVSPropertyOp42
 70
     1
102
RTVSPropertyOp43
 70
     1
102
RTVSPropertyOp44
 70
     1
102
RTVSPropertyOp45
 70
     1
102
RTVSPropertyOp46
 70
     1
102
RTVSPropertyOp47
 70
     1
102
RTVSPropertyOp48
 70
     1
102
RTVSPropertyOp49
 70
     1
102
RTVSPropertyOp50
 70
     1
102
RTVSPropertyOp51
 70
     0
102
RTVSPropertyOp52
 70
     0
102
RTVSPropertyOp53
 70
     1
102
RTVSPropertyOp54
 70
     1
102
RTVSPropertyOp55
 70
     1
102
RTVSPropertyOp56
 70
     1
102
RTVSPropertyOp57
 70
     1
102
RTVSPropertyOp58
 70
     1
102
RTVSPropertyOp59
 70
     1
102
RTVSPropertyOp60
 70
     1
102
RTVSPropertyOp61
 70
     1
102
RTVSPropertyOp62
 70
     1
  0
ENDSEC
  0
EOF
