  0
SECTION
  2
HEADER
  9
$ACADVER
  1
AC1015
  9
$ACADMAINTVER
 70
    20
  9
$DWGCODEPAGE
  3
ANSI_932
  9
$INSBASE
 10
0.0
 20
0.0
 30
0.0
  9
$EXTMIN
 10
-0.1922460740788665
 20
-0.2700599612071528
 30
-0.0015258207003583
  9
$EXTMAX
 10
6300.192275410744
 20
8850.270101172235
 30
0.0000000349246037
  9
$LIMMIN
 10
0.0
 20
0.0
  9
$LIMMAX
 10
297.0
 20
210.0
  9
$ORTHOMODE
 70
     1
  9
$REGENMODE
 70
     1
  9
$FILLMODE
 70
     0
  9
$QTEXTMODE
 70
     0
  9
$MIRRTEXT
 70
     1
  9
$LTSCALE
 40
100.0
  9
$ATTMODE
 70
     1
  9
$TEXTSIZE
 40
180.0
  9
$TRACEWID
 40
0.05
  9
$TEXTSTYLE
  7
STANDARD
  9
$CLAYER
  8
3
  9
$CELTYPE
  6
ByLayer
  9
$CECOLOR
 62
   256
  9
$CELTSCALE
 40
1.0
  9
$DISPSILH
 70
     0
  9
$DIMSCALE
 40
30.0
  9
$DIMASZ
 40
2.0
  9
$DIMEXO
 40
1.0
  9
$DIMDLI
 40
10.0
  9
$DIMRND
 40
0.0
  9
$DIMDLE
 40
0.0
  9
$DIMEXE
 40
1.0
  9
$DIMTP
 40
1.0
  9
$DIMTM
 40
1.0
  9
$DIMTXT
 40
3.0
  9
$DIMCEN
 40
0.0
  9
$DIMTSZ
 40
0.0
  9
$DIMTOL
 70
     0
  9
$DIMLIM
 70
     0
  9
$DIMTIH
 70
     0
  9
$DIMTOH
 70
     0
  9
$DIMSE1
 70
     0
  9
$DIMSE2
 70
     0
  9
$DIMTAD
 70
     1
  9
$DIMZIN
 70
     8
  9
$DIMBLK
  1

  9
$DIMASO
 70
     1
  9
$DIMSHO
 70
     1
  9
$DIMPOST
  1

  9
$DIMAPOST
  1

  9
$DIMALT
 70
     0
  9
$DIMALTD
 70
     2
  9
$DIMALTF
 40
0.039
  9
$DIMLFAC
 40
1.0
  9
$DIMTOFL
 70
     1
  9
$DIMTVP
 40
0.0
  9
$DIMTIX
 70
     0
  9
$DIMSOXD
 70
     0
  9
$DIMSAH
 70
     1
  9
$DIMBLK1
  1
OPEN
  9
$DIMBLK2
  1
OPEN
  9
$DIMSTYLE
  2
IGA
  9
$DIMCLRD
 70
     0
  9
$DIMCLRE
 70
     0
  9
$DIMCLRT
 70
     0
  9
$DIMTFAC
 40
10.0
  9
$DIMGAP
 40
1.0
  9
$DIMJUST
 70
     0
  9
$DIMSD1
 70
     0
  9
$DIMSD2
 70
     0
  9
$DIMTOLJ
 70
     1
  9
$DIMTZIN
 70
     0
  9
$DIMALTZ
 70
     0
  9
$DIMALTTZ
 70
     0
  9
$DIMUPT
 70
     0
  9
$DIMDEC
 70
     4
  9
$DIMTDEC
 70
     4
  9
$DIMALTU
 70
     2
  9
$DIMALTTD
 70
     2
  9
$DIMTXSTY
  7
STANDARD
  9
$DIMAUNIT
 70
     0
  9
$DIMADEC
 70
     0
  9
$DIMALTRND
 40
0.0
  9
$DIMAZIN
 70
     0
  9
$DIMDSEP
 70
    46
  9
$DIMATFIT
 70
     3
  9
$DIMFRAC
 70
     0
  9
$DIMLDRBLK
  1
OPEN
  9
$DIMLUNIT
 70
     2
  9
$DIMLWD
 70
    -2
  9
$DIMLWE
 70
    -2
  9
$DIMTMOVE
 70
     0
  9
$LUNITS
 70
     2
  9
$LUPREC
 70
     3
  9
$SKETCHINC
 40
0.1
  9
$FILLETRAD
 40
50.0
  9
$AUNITS
 70
     0
  9
$AUPREC
 70
     0
  9
$MENU
  1
acad
  9
$ELEVATION
 40
0.0
  9
$PELEVATION
 40
0.0
  9
$THICKNESS
 40
0.0
  9
$LIMCHECK
 70
     0
  9
$CHAMFERA
 40
0.5
  9
$CHAMFERB
 40
0.5
  9
$CHAMFERC
 40
0.0
  9
$CHAMFERD
 40
0.0
  9
$SKPOLY
 70
     0
  9
$TDCREATE
 40
2451389.550088889
  9
$TDUCREATE
 40
2451389.175088889
  9
$TDUPDATE
 40
2460271.735014607
  9
$TDUUPDATE
 40
2460271.360014606
  9
$TDINDWG
 40
0.0302047338
  9
$TDUSRTIMER
 40
0.0302044907
  9
$USRTIMER
 70
     1
  9
$ANGBASE
 50
0.0
  9
$ANGDIR
 70
     0
  9
$PDMODE
 70
     0
  9
$PDSIZE
 40
0.0
  9
$PLINEWID
 40
0.0
  9
$SPLFRAME
 70
     0
  9
$SPLINETYPE
 70
     6
  9
$SPLINESEGS
 70
     8
  9
$HANDSEED
  5
83D9
  9
$SURFTAB1
 70
     6
  9
$SURFTAB2
 70
     6
  9
$SURFTYPE
 70
     6
  9
$SURFU
 70
     6
  9
$SURFV
 70
     6
  9
$UCSBASE
  2

  9
$UCSNAME
  2

  9
$UCSORG
 10
0.0
 20
0.0
 30
0.0
  9
$UCSXDIR
 10
1.0
 20
0.0
 30
0.0
  9
$UCSYDIR
 10
0.0
 20
1.0
 30
0.0
  9
$UCSORTHOREF
  2

  9
$UCSORTHOVIEW
 70
     0
  9
$UCSORGTOP
 10
0.0
 20
0.0
 30
0.0
  9
$UCSORGBOTTOM
 10
0.0
 20
0.0
 30
0.0
  9
$UCSORGLEFT
 10
0.0
 20
0.0
 30
0.0
  9
$UCSORGRIGHT
 10
0.0
 20
0.0
 30
0.0
  9
$UCSORGFRONT
 10
0.0
 20
0.0
 30
0.0
  9
$UCSORGBACK
 10
0.0
 20
0.0
 30
0.0
  9
$PUCSBASE
  2

  9
$PUCSNAME
  2

  9
$PUCSORG
 10
0.0
 20
0.0
 30
0.0
  9
$PUCSXDIR
 10
1.0
 20
0.0
 30
0.0
  9
$PUCSYDIR
 10
0.0
 20
1.0
 30
0.0
  9
$PUCSORTHOREF
  2

  9
$PUCSORTHOVIEW
 70
     0
  9
$PUCSORGTOP
 10
0.0
 20
0.0
 30
0.0
  9
$PUCSORGBOTTOM
 10
0.0
 20
0.0
 30
0.0
  9
$PUCSORGLEFT
 10
0.0
 20
0.0
 30
0.0
  9
$PUCSORGRIGHT
 10
0.0
 20
0.0
 30
0.0
  9
$PUCSORGFRONT
 10
0.0
 20
0.0
 30
0.0
  9
$PUCSORGBACK
 10
0.0
 20
0.0
 30
0.0
  9
$USERI1
 70
     0
  9
$USERI2
 70
     0
  9
$USERI3
 70
     0
  9
$USERI4
 70
     0
  9
$USERI5
 70
     0
  9
$USERR1
 40
0.0
  9
$USERR2
 40
0.0
  9
$USERR3
 40
0.0
  9
$USERR4
 40
0.0
  9
$USERR5
 40
0.0
  9
$WORLDVIEW
 70
     1
  9
$SHADEDGE
 70
     3
  9
$SHADEDIF
 70
    70
  9
$TILEMODE
 70
     1
  9
$MAXACTVP
 70
    16
  9
$PINSBASE
 10
0.0
 20
0.0
 30
0.0
  9
$PLIMCHECK
 70
     0
  9
$PEXTMIN
 10
1.000000000000000E+20
 20
1.000000000000000E+20
 30
1.000000000000000E+20
  9
$PEXTMAX
 10
-1.000000000000000E+20
 20
-1.000000000000000E+20
 30
-1.000000000000000E+20
  9
$PLIMMIN
 10
0.0
 20
0.0
  9
$PLIMMAX
 10
12.0
 20
9.0
  9
$UNITMODE
 70
     0
  9
$VISRETAIN
 70
     0
  9
$PLINEGEN
 70
     0
  9
$PSLTSCALE
 70
     1
  9
$TREEDEPTH
 70
  3020
  9
$CMLSTYLE
  2
Standard
  9
$CMLJUST
 70
     0
  9
$CMLSCALE
 40
1.0
  9
$PROXYGRAPHICS
 70
     1
  9
$MEASUREMENT
 70
     0
  9
$CELWEIGHT
370
    -1
  9
$ENDCAPS
280
     0
  9
$JOINSTYLE
280
     0
  9
$LWDISPLAY
290
     0
  9
$INSUNITS
 70
     0
  9
$HYPERLINKBASE
  1

  9
$STYLESHEET
  1

  9
$XEDIT
290
     1
  9
$CEPSNTYPE
380
     0
  9
$PSTYLEMODE
290
     1
  9
$FINGERPRINTGUID
  2
{AE35DFA0-A8D4-4BC6-A714-C32C8E7A84DE}
  9
$VERSIONGUID
  2
{A71CEA55-D2C8-4229-BFF7-54CA458491A4}
  9
$EXTNAMES
290
     1
  9
$PSVPSCALE
 40
0.0
  9
$OLESTARTUP
290
     0
  0
ENDSEC
  0
SECTION
  2
CLASSES
  0
CLASS
  1
ACDBDICTIONARYWDFLT
  2
AcDbDictionaryWithDefault
  3
ObjectDBX Classes
 90
        0
280
     0
281
     0
  0
CLASS
  1
MATERIAL
  2
AcDbMaterial
  3
ObjectDBX Classes
 90
     1153
280
     0
281
     0
  0
CLASS
  1
VISUALSTYLE
  2
AcDbVisualStyle
  3
ObjectDBX Classes
 90
     4095
280
     0
281
     0
  0
CLASS
  1
SCALE
  2
AcDbScale
  3
ObjectDBX Classes
 90
     1153
280
     0
281
     0
  0
CLASS
  1
TABLESTYLE
  2
AcDbTableStyle
  3
ObjectDBX Classes
 90
     4095
280
     0
281
     0
  0
CLASS
  1
MLEADERSTYLE
  2
AcDbMLeaderStyle
  3
ACDB_MLEADERSTYLE_CLASS
 90
     4095
280
     0
281
     0
  0
CLASS
  1
ACDBSECTIONVIEWSTYLE
  2
AcDbSectionViewStyle
  3
ObjectDBX Classes
 90
     1025
280
     0
281
     0
  0
CLASS
  1
ACDBDETAILVIEWSTYLE
  2
AcDbDetailViewStyle
  3
ObjectDBX Classes
 90
     1025
280
     0
281
     0
  0
CLASS
  1
DICTIONARYVAR
  2
AcDbDictionaryVar
  3
ObjectDBX Classes
 90
        0
280
     0
281
     0
  0
CLASS
  1
CELLSTYLEMAP
  2
AcDbCellStyleMap
  3
ObjectDBX Classes
 90
     1152
280
     0
281
     0
  0
CLASS
  1
ACDBPLACEHOLDER
  2
AcDbPlaceHolder
  3
ObjectDBX Classes
 90
        0
280
     0
281
     0
  0
CLASS
  1
LAYOUT
  2
AcDbLayout
  3
ObjectDBX Classes
 90
        0
280
     0
281
     0
  0
ENDSEC
  0
SECTION
  2
TABLES
  0
TABLE
  2
VPORT
  5
8209
330
0
100
AcDbSymbolTable
 70
     1
  0
VPORT
  5
8275
330
8209
100
AcDbSymbolTableRecord
100
AcDbViewportTableRecord
  2
*ACTIVE
 70
     0
 10
0.0
 20
0.0
 11
1.0
 21
1.0
 12
3159.516226251475
 22
4434.51625347077
 13
0.0
 23
0.0
 14
10.0
 24
10.0
 15
10.0
 25
10.0
 16
0.0
 26
0.0
 36
1.0
 17
0.0
 27
0.0
 37
0.0
 40
8907.213839673124
 41
2.050213675213675
 42
50.0
 43
0.0
 44
0.0
 50
0.0
 51
0.0
 71
     0
 72
   100
 73
     1
 74
     0
 75
     0
 76
     0
 77
     0
 78
     0
281
     0
 65
     1
110
0.0
120
0.0
130
0.0
111
1.0
121
0.0
131
0.0
112
0.0
122
1.0
132
0.0
 79
     0
146
0.0
1001
ACAD_NAV_VCDISPLAY
1070
     3
  0
ENDTAB
  0
TABLE
  2
LTYPE
  5
8206
330
0
100
AcDbSymbolTable
 70
     2
  0
LTYPE
  5
825B
330
8206
100
AcDbSymbolTableRecord
100
AcDbLinetypeTableRecord
  2
ByBlock
 70
     0
  3

 72
    65
 73
     0
 40
0.0
  0
LTYPE
  5
825C
330
8206
100
AcDbSymbolTableRecord
100
AcDbLinetypeTableRecord
  2
ByLayer
 70
     0
  3

 72
    65
 73
     0
 40
0.0
  0
LTYPE
  5
825D
330
8206
100
AcDbSymbolTableRecord
100
AcDbLinetypeTableRecord
  2
CONTINUOUS
 70
     0
  3
Solid line
 72
    65
 73
     0
 40
0.0
  0
LTYPE
  5
8276
330
8206
100
AcDbSymbolTableRecord
100
AcDbLinetypeTableRecord
  2
CENTER
 70
     0
  3
____ _ ____ _ ____ _ ____ _ ____ _ ____ _ ____ 
 72
    65
 73
     4
 40
2.0
 49
1.25
 74
     0
 49
-0.25
 74
     0
 49
0.25
 74
     0
 49
-0.25
 74
     0
  0
ENDTAB
  0
TABLE
  2
LAYER
  5
8203
330
0
100
AcDbSymbolTable
 70
     6
  0
LAYER
  5
8255
102
{ACAD_XDICTIONARY
360
8342
102
}
330
8203
100
AcDbSymbolTableRecord
100
AcDbLayerTableRecord
  2
0
 70
     0
 62
     7
  6
CONTINUOUS
370
    -3
390
8210
  0
LAYER
  5
8274
102
{ACAD_XDICTIONARY
360
8344
102
}
330
8203
100
AcDbSymbolTableRecord
100
AcDbLayerTableRecord
  2
3
 70
     0
 62
     2
  6
CONTINUOUS
370
    -3
390
8210
  0
LAYER
  5
8277
102
{ACAD_XDICTIONARY
360
8346
102
}
330
8203
100
AcDbSymbolTableRecord
100
AcDbLayerTableRecord
  2
2
 70
     0
 62
     3
  6
CENTER
370
    -3
390
8210
  0
LAYER
  5
8278
102
{ACAD_XDICTIONARY
360
8348
102
}
330
8203
100
AcDbSymbolTableRecord
100
AcDbLayerTableRecord
  2
1
 70
     0
 62
     4
  6
CONTINUOUS
370
    -3
390
8210
  0
LAYER
  5
8279
102
{ACAD_XDICTIONARY
360
834A
102
}
330
8203
100
AcDbSymbolTableRecord
100
AcDbLayerTableRecord
  2
4
 70
     0
 62
     7
  6
CONTINUOUS
370
    -3
390
8210
  0
LAYER
  5
827A
330
8203
100
AcDbSymbolTableRecord
100
AcDbLayerTableRecord
  2
DEFPOINTS
 70
     0
 62
     7
  6
CONTINUOUS
290
     0
370
    -3
390
8210
  0
ENDTAB
  0
TABLE
  2
STYLE
  5
8204
330
0
100
AcDbSymbolTable
 70
     2
  0
STYLE
  5
8256
330
8204
100
AcDbSymbolTableRecord
100
AcDbTextStyleTableRecord
  2
STANDARD
 70
     0
 40
0.0
 41
1.0
 50
0.0
 71
     0
 42
180.0
  3
simplex.shx
  4
extfont.shx
  0
STYLE
  5
825A
330
8204
100
AcDbSymbolTableRecord
100
AcDbTextStyleTableRecord
  2
Annotative
 70
     0
 40
0.0
 41
1.0
 50
0.0
 71
     0
 42
0.2
  3
txt
  4

1001
AcadAnnotative
1000
AnnotativeData
1002
{
1070
     1
1070
     1
1002
}
  0
ENDTAB
  0
TABLE
  2
VIEW
  5
8207
330
0
100
AcDbSymbolTable
 70
     0
  0
ENDTAB
  0
TABLE
  2
UCS
  5
8208
330
0
100
AcDbSymbolTable
 70
     0
  0
ENDTAB
  0
TABLE
  2
APPID
  5
820A
330
0
100
AcDbSymbolTable
 70
     6
  0
APPID
  5
8257
330
820A
100
AcDbSymbolTableRecord
100
AcDbRegAppTableRecord
  2
ACAD
 70
     0
  0
APPID
  5
825E
330
820A
100
AcDbSymbolTableRecord
100
AcDbRegAppTableRecord
  2
AcadAnnotative
 70
     0
  0
APPID
  5
8307
330
820A
100
AcDbSymbolTableRecord
100
AcDbRegAppTableRecord
  2
ACAD_DSTYLE_DIMJAG
 70
     0
  0
APPID
  5
8308
330
820A
100
AcDbSymbolTableRecord
100
AcDbRegAppTableRecord
  2
ACAD_DSTYLE_DIMTALN
 70
     0
  0
APPID
  5
8356
330
820A
100
AcDbSymbolTableRecord
100
AcDbRegAppTableRecord
  2
ACAD_NAV_VCDISPLAY
 70
     0
  0
APPID
  5
83D0
330
820A
100
AcDbSymbolTableRecord
100
AcDbRegAppTableRecord
  2
ACAD_MLEADERVER
 70
     0
  0
ENDTAB
  0
TABLE
  2
DIMSTYLE
  5
820B
330
0
100
AcDbSymbolTable
 70
     4
100
AcDbDimStyleTable
 71
     1
340
827B
  0
DIMSTYLE
105
8258
102
{ACAD_REACTORS
330
7C7B
330
7C7C
330
7C80
330
7C81
330
7CC3
330
7CC5
330
7CC6
330
7CCA
330
7CCB
330
7CFA
330
7D08
330
7FC9
330
80E5
330
80F2
330
80FF
330
810C
330
8157
330
8164
102
}
330
820B
100
AcDbSymbolTableRecord
100
AcDbDimStyleTableRecord
  2
Standard
 70
     0
340
8256
  0
DIMSTYLE
105
8259
330
820B
100
AcDbSymbolTableRecord
100
AcDbDimStyleTableRecord
  2
Annotative
 70
     0
340
8256
1001
AcadAnnotative
1000
AnnotativeData
1002
{
1070
     1
1070
     1
1002
}
  0
DIMSTYLE
105
827B
102
{ACAD_REACTORS
330
82BB
330
82C8
330
831F
330
832C
102
}
330
820B
100
AcDbSymbolTableRecord
100
AcDbDimStyleTableRecord
  2
IGA
 70
     0
 40
2.0
 41
2.0
 42
0.5
 43
10.0
 44
1.0
 47
1.0
 48
1.0
 73
     0
 74
     0
 77
     1
 78
     8
140
3.0
141
0.0
143
0.03937
146
10.0
147
1.0
173
     1
271
     3
272
     3
279
     2
284
     8
285
     8
286
     8
340
8256
  0
DIMSTYLE
105
827C
330
820B
100
AcDbSymbolTableRecord
100
AcDbDimStyleTableRecord
  2
MATSU
 70
     0
 41
2.0
 42
1.0
 43
10.0
 44
1.0
 73
     0
 74
     0
 77
     1
 78
     8
140
3.0
141
0.0
143
0.03937
147
0.5
172
     1
173
     1
176
   256
177
   256
178
   256
271
     3
272
     3
279
     2
284
     8
285
     8
286
     8
340
8256
  0
ENDTAB
  0
TABLE
  2
BLOCK_RECORD
  5
8202
330
0
100
AcDbSymbolTable
 70
    35
  0
BLOCK_RECORD
  5
8270
330
8202
100
AcDbSymbolTableRecord
100
AcDbBlockTableRecord
  2
*Model_Space
340
8273
  0
BLOCK_RECORD
  5
826C
330
8202
100
AcDbSymbolTableRecord
100
AcDbBlockTableRecord
  2
*Paper_Space
340
826F
  0
BLOCK_RECORD
  5
8280
330
8202
100
AcDbSymbolTableRecord
100
AcDbBlockTableRecord
  2
$MODEL_SPACE
340
0
  0
BLOCK_RECORD
  5
8282
330
8202
100
AcDbSymbolTableRecord
100
AcDbBlockTableRecord
  2
$PAPER_SPACE
340
0
  0
BLOCK_RECORD
  5
8284
330
8202
100
AcDbSymbolTableRecord
100
AcDbBlockTableRecord
  2
_OPEN
340
0
102
{BLKREFS
331
833C
331
833D
331
7E37
331
7E38
331
7E42
331
7E43
331
81E7
331
81E8
331
7E58
331
7E59
331
7E63
331
7E64
331
7EB0
331
7EB1
331
7EBB
331
7EBC
331
7EC6
331
7EC7
331
7ED1
331
7ED2
331
805C
331
805D
331
80CA
331
80CB
331
7EF2
331
7EF3
331
7EFD
331
7EFE
331
7F2D
331
7F2E
331
7F38
331
7F39
331
81F3
331
80DE
331
80DF
331
80EB
331
80EC
331
80F8
331
80F9
331
8105
331
8106
331
815D
331
815E
331
8319
331
831A
331
8326
331
8327
331
82EA
331
82EB
331
82F3
331
82F4
102
}
  0
BLOCK_RECORD
  5
8286
330
8202
100
AcDbSymbolTableRecord
100
AcDbBlockTableRecord
  2
YA_N
340
0
102
{BLKREFS
331
7C28
331
7C3E
331
7C79
331
7C9C
331
7CD3
331
7CD5
331
7CD7
331
7CD9
102
}
  0
BLOCK_RECORD
  5
8288
330
8202
100
AcDbSymbolTableRecord
100
AcDbBlockTableRecord
  2
*D4
340
0
  0
BLOCK_RECORD
  5
828A
330
8202
100
AcDbSymbolTableRecord
100
AcDbBlockTableRecord
  2
*D5
340
0
  0
BLOCK_RECORD
  5
828C
330
8202
100
AcDbSymbolTableRecord
100
AcDbBlockTableRecord
  2
*D6
340
0
  0
BLOCK_RECORD
  5
828E
330
8202
100
AcDbSymbolTableRecord
100
AcDbBlockTableRecord
  2
*D7
340
0
  0
BLOCK_RECORD
  5
8290
330
8202
100
AcDbSymbolTableRecord
100
AcDbBlockTableRecord
  2
*D8
340
0
  0
BLOCK_RECORD
  5
8292
330
8202
100
AcDbSymbolTableRecord
100
AcDbBlockTableRecord
  2
*D9
340
0
  0
BLOCK_RECORD
  5
8294
330
8202
100
AcDbSymbolTableRecord
100
AcDbBlockTableRecord
  2
*D10
340
0
  0
BLOCK_RECORD
  5
8296
330
8202
100
AcDbSymbolTableRecord
100
AcDbBlockTableRecord
  2
*D11
340
0
  0
BLOCK_RECORD
  5
8298
330
8202
100
AcDbSymbolTableRecord
100
AcDbBlockTableRecord
  2
*D12
340
0
  0
BLOCK_RECORD
  5
829A
330
8202
100
AcDbSymbolTableRecord
100
AcDbBlockTableRecord
  2
*D13
340
0
  0
BLOCK_RECORD
  5
829C
330
8202
100
AcDbSymbolTableRecord
100
AcDbBlockTableRecord
  2
*U14
340
0
102
{BLKREFS
331
805E
102
}
  0
BLOCK_RECORD
  5
829D
330
8202
100
AcDbSymbolTableRecord
100
AcDbBlockTableRecord
  2
*D15
340
0
  0
BLOCK_RECORD
  5
829F
330
8202
100
AcDbSymbolTableRecord
100
AcDbBlockTableRecord
  2
*D16
340
0
  0
BLOCK_RECORD
  5
82A1
330
8202
100
AcDbSymbolTableRecord
100
AcDbBlockTableRecord
  2
*D17
340
0
  0
BLOCK_RECORD
  5
82A3
330
8202
100
AcDbSymbolTableRecord
100
AcDbBlockTableRecord
  2
*D18
340
0
  0
BLOCK_RECORD
  5
82A5
330
8202
100
AcDbSymbolTableRecord
100
AcDbBlockTableRecord
  2
*D19
340
0
  0
BLOCK_RECORD
  5
82A7
330
8202
100
AcDbSymbolTableRecord
100
AcDbBlockTableRecord
  2
*D20
340
0
  0
BLOCK_RECORD
  5
82A9
330
8202
100
AcDbSymbolTableRecord
100
AcDbBlockTableRecord
  2
_DOT
340
0
102
{BLKREFS
331
81F2
102
}
  0
BLOCK_RECORD
  5
82AB
330
8202
100
AcDbSymbolTableRecord
100
AcDbBlockTableRecord
  2
*D22
340
0
  0
BLOCK_RECORD
  5
82AD
330
8202
100
AcDbSymbolTableRecord
100
AcDbBlockTableRecord
  2
*D23
340
0
  0
BLOCK_RECORD
  5
82AF
330
8202
100
AcDbSymbolTableRecord
100
AcDbBlockTableRecord
  2
*D24
340
0
  0
BLOCK_RECORD
  5
82B1
330
8202
100
AcDbSymbolTableRecord
100
AcDbBlockTableRecord
  2
*D25
340
0
  0
BLOCK_RECORD
  5
82B3
330
8202
100
AcDbSymbolTableRecord
100
AcDbBlockTableRecord
  2
_NONE
340
0
  0
BLOCK_RECORD
  5
82B5
330
8202
100
AcDbSymbolTableRecord
100
AcDbBlockTableRecord
  2
*D27
340
0
  0
BLOCK_RECORD
  5
82B7
330
8202
100
AcDbSymbolTableRecord
100
AcDbBlockTableRecord
  2
*D28
340
0
  0
BLOCK_RECORD
  5
82BC
330
8202
100
AcDbSymbolTableRecord
100
AcDbBlockTableRecord
  2
*D29
340
0
  0
BLOCK_RECORD
  5
82C9
330
8202
100
AcDbSymbolTableRecord
100
AcDbBlockTableRecord
  2
*D30
340
0
  0
BLOCK_RECORD
  5
82FA
330
8202
100
AcDbSymbolTableRecord
100
AcDbBlockTableRecord
  2
*D31
340
0
  0
BLOCK_RECORD
  5
8309
330
8202
100
AcDbSymbolTableRecord
100
AcDbBlockTableRecord
  2
*D32
340
0
  0
BLOCK_RECORD
  5
8320
330
8202
100
AcDbSymbolTableRecord
100
AcDbBlockTableRecord
  2
*D33
340
0
  0
BLOCK_RECORD
  5
832D
330
8202
100
AcDbSymbolTableRecord
100
AcDbBlockTableRecord
  2
*D34
340
0
  0
ENDTAB
  0
ENDSEC
  0
SECTION
  2
BLOCKS
  0
BLOCK
  5
8271
330
8270
100
AcDbEntity
  8
0
100
AcDbBlockBegin
  2
*Model_Space
 70
     0
 10
0.0
 20
0.0
 30
0.0
  3
*Model_Space
  1

  0
ENDBLK
  5
8272
330
8270
100
AcDbEntity
  8
0
100
AcDbBlockEnd
  0
BLOCK
  5
826D
330
826C
100
AcDbEntity
 67
     1
  8
0
100
AcDbBlockBegin
  2
*Paper_Space
 70
     0
 10
0.0
 20
0.0
 30
0.0
  3
*Paper_Space
  1

  0
ENDBLK
  5
826E
330
826C
100
AcDbEntity
 67
     1
  8
0
100
AcDbBlockEnd
  0
BLOCK
  5
8281
330
8280
100
AcDbEntity
  8
0
100
AcDbBlockBegin
  2
$MODEL_SPACE
 70
     0
 10
0.0
 20
0.0
 30
0.0
  3
$MODEL_SPACE
  1

  0
ENDBLK
  5
1B
330
8280
100
AcDbEntity
  8
0
100
AcDbBlockEnd
  0
BLOCK
  5
8283
330
8282
100
AcDbEntity
  8
0
100
AcDbBlockBegin
  2
$PAPER_SPACE
 70
     0
 10
0.0
 20
0.0
 30
0.0
  3
$PAPER_SPACE
  1

  0
ENDBLK
  5
18
330
8282
100
AcDbEntity
  8
0
100
AcDbBlockEnd
  0
BLOCK
  5
8285
330
8284
100
AcDbEntity
  8
0
100
AcDbBlockBegin
  2
_OPEN
 70
     0
 10
0.0
 20
0.0
 30
0.0
  3
_OPEN
  1

  0
LINE
  5
79FD
330
8284
100
AcDbEntity
  8
0
  6
ByBlock
 62
     0
100
AcDbLine
 10
-1.0
 20
0.1666666666666666
 30
0.0
 11
0.0
 21
0.0
 31
0.0
  0
LINE
  5
79FE
330
8284
100
AcDbEntity
  8
0
  6
ByBlock
 62
     0
100
AcDbLine
 10
0.0
 20
0.0
 30
0.0
 11
-1.0
 21
-0.1666666666666666
 31
0.0
  0
LINE
  5
79FF
330
8284
100
AcDbEntity
  8
0
  6
ByBlock
 62
     0
100
AcDbLine
 10
0.0
 20
0.0
 30
0.0
 11
-1.0
 21
0.0
 31
0.0
  0
ENDBLK
  5
7A01
330
8284
100
AcDbEntity
  8
0
100
AcDbBlockEnd
  0
BLOCK
  5
8287
330
8286
100
AcDbEntity
  8
0
100
AcDbBlockBegin
  2
YA_N
 70
     0
 10
0.0
 20
0.0
 30
0.0
  3
YA_N
  1

  0
ENDBLK
  5
7A04
330
8286
100
AcDbEntity
  8
0
100
AcDbBlockEnd
  0
BLOCK
  5
8289
330
8288
100
AcDbEntity
  8
0
100
AcDbBlockBegin
  2
*D4
 70
     1
 10
0.0
 20
0.0
 30
0.0
  3
*D4
  1

  0
LINE
  5
7E34
330
8288
100
AcDbEntity
  8
0
  6
ByBlock
100
AcDbLine
 10
2197.625114976839
 20
1702.060302835745
 30
0.0
 11
2398.785211970981
 21
1702.060302835745
 31
0.0
  0
LINE
  5
7E35
330
8288
100
AcDbEntity
  8
0
  6
ByBlock
100
AcDbLine
 10
2197.625114976839
 20
672.0603028357458
 30
0.0
 11
2398.785211970981
 21
672.0603028357458
 31
0.0
  0
LINE
  5
7E36
330
8288
100
AcDbEntity
  8
0
  6
ByBlock
100
AcDbLine
 10
2368.785211970982
 20
1642.060302835745
 30
0.0
 11
2368.785211970982
 21
732.0603028357457
 31
0.0
  0
INSERT
  5
7E37
330
8288
100
AcDbEntity
  8
0
  6
ByBlock
100
AcDbBlockReference
  2
_OPEN
 10
2368.785211970982
 20
1702.060302835745
 30
0.0
 41
60.0
 42
60.0
 43
60.0
 50
90.0
  0
INSERT
  5
7E38
330
8288
100
AcDbEntity
  8
0
  6
ByBlock
100
AcDbBlockReference
  2
_OPEN
 10
2368.785211970982
 20
672.0603028357458
 30
0.0
 41
60.0
 42
60.0
 43
60.0
 50
270.0
  0
TEXT
  5
7E39
330
8288
100
AcDbEntity
  8
3
100
AcDbText
 10
2353.785211970981
 20
1037.060302835745
 30
0.0
 40
90.0
  1
1030
 50
90.0
100
AcDbText
  0
POINT
  5
7E3A
330
8288
100
AcDbEntity
  8
DEFPOINTS
  6
ByBlock
 62
     0
100
AcDbPoint
 10
2167.625114976839
 20
1702.060302835745
 30
0.0
  0
POINT
  5
7E3B
330
8288
100
AcDbEntity
  8
DEFPOINTS
  6
ByBlock
 62
     0
100
AcDbPoint
 10
2167.625114976839
 20
672.0603028357458
 30
0.0
  0
POINT
  5
7E3C
330
8288
100
AcDbEntity
  8
DEFPOINTS
  6
ByBlock
 62
     0
100
AcDbPoint
 10
2368.785211970982
 20
672.0603028357458
 30
0.0
  0
ENDBLK
  5
7E3D
330
8288
100
AcDbEntity
  8
0
100
AcDbBlockEnd
  0
BLOCK
  5
828B
330
828A
100
AcDbEntity
  8
0
100
AcDbBlockBegin
  2
*D5
 70
     1
 10
0.0
 20
0.0
 30
0.0
  3
*D5
  1

  0
LINE
  5
7E3F
330
828A
100
AcDbEntity
  8
0
  6
ByBlock
100
AcDbLine
 10
2197.625114976839
 20
1702.060302835745
 30
0.0
 11
2599.587257430135
 21
1702.060302835745
 31
0.0
  0
LINE
  5
7E40
330
828A
100
AcDbEntity
  8
0
  6
ByBlock
100
AcDbLine
 10
2257.241097474467
 20
628.0603028357453
 30
0.0
 11
2599.587257430135
 21
628.0603028357453
 31
0.0
  0
LINE
  5
7E41
330
828A
100
AcDbEntity
  8
0
  6
ByBlock
100
AcDbLine
 10
2569.587257430136
 20
1642.060302835745
 30
0.0
 11
2569.587257430136
 21
688.0603028357453
 31
0.0
  0
INSERT
  5
7E42
330
828A
100
AcDbEntity
  8
0
  6
ByBlock
100
AcDbBlockReference
  2
_OPEN
 10
2569.587257430136
 20
1702.060302835745
 30
0.0
 41
60.0
 42
60.0
 43
60.0
 50
90.0
  0
INSERT
  5
7E43
330
828A
100
AcDbEntity
  8
0
  6
ByBlock
100
AcDbBlockReference
  2
_OPEN
 10
2569.587257430136
 20
628.0603028357453
 30
0.0
 41
60.0
 42
60.0
 43
60.0
 50
270.0
  0
TEXT
  5
7E44
330
828A
100
AcDbEntity
  8
3
100
AcDbText
 10
2554.587257430135
 20
1012.917445692888
 30
0.0
 40
90.0
  1
1074
 50
90.0
100
AcDbText
  0
POINT
  5
7E45
330
828A
100
AcDbEntity
  8
DEFPOINTS
  6
ByBlock
 62
     0
100
AcDbPoint
 10
2167.625114976839
 20
1702.060302835745
 30
0.0
  0
POINT
  5
7E46
330
828A
100
AcDbEntity
  8
DEFPOINTS
  6
ByBlock
 62
     0
100
AcDbPoint
 10
2227.241097474466
 20
628.0603028357453
 30
0.0
  0
POINT
  5
7E47
330
828A
100
AcDbEntity
  8
DEFPOINTS
  6
ByBlock
 62
     0
100
AcDbPoint
 10
2569.587257430136
 20
628.0603028357453
 30
0.0
  0
ENDBLK
  5
7E48
330
828A
100
AcDbEntity
  8
0
100
AcDbBlockEnd
  0
BLOCK
  5
828D
330
828C
100
AcDbEntity
  8
0
100
AcDbBlockBegin
  2
*D6
 70
     1
 10
0.0
 20
0.0
 30
0.0
  3
*D6
  1

  0
LINE
  5
81E4
330
828C
100
AcDbEntity
  8
3
 62
     0
100
AcDbLine
 10
3021.883246267807
 20
2938.588409321162
 30
0.0
 11
3379.229406223476
 21
2938.588409321162
 31
0.0
  0
LINE
  5
81E5
330
828C
100
AcDbEntity
  8
3
 62
     0
100
AcDbLine
 10
2907.267263770179
 20
2188.588409321164
 30
0.0
 11
3379.229406223476
 21
2188.588409321164
 31
0.0
  0
LINE
  5
81E6
330
828C
100
AcDbEntity
  8
3
 62
     0
100
AcDbLine
 10
3349.229406223476
 20
2878.588409321162
 30
0.0
 11
3349.229406223476
 21
2248.588409321163
 31
0.0
  0
INSERT
  5
81E7
330
828C
100
AcDbEntity
  8
3
 62
     0
100
AcDbBlockReference
  2
_OPEN
 10
3349.229406223476
 20
2938.588409321162
 30
0.0
 41
60.0
 42
60.0
 43
60.0
 50
90.0
  0
INSERT
  5
81E8
330
828C
100
AcDbEntity
  8
3
 62
     0
100
AcDbBlockReference
  2
_OPEN
 10
3349.229406223476
 20
2188.588409321164
 30
0.0
 41
60.0
 42
60.0
 43
60.0
 50
270.0
  0
TEXT
  5
8200
330
828C
100
AcDbEntity
  8
3
 62
     0
100
AcDbText
 10
3094.23
 20
2404.29
 30
0.0
 40
90.0
  1
750
100
AcDbText
  0
POINT
  5
81EA
330
828C
100
AcDbEntity
  8
DEFPOINTS
 62
     0
100
AcDbPoint
 10
3006.883246267807
 20
2938.588409321162
 30
0.0
  0
POINT
  5
81EB
330
828C
100
AcDbEntity
  8
DEFPOINTS
 62
     0
100
AcDbPoint
 10
2892.267263770179
 20
2188.588409321164
 30
0.0
  0
POINT
  5
81EC
330
828C
100
AcDbEntity
  8
DEFPOINTS
 62
     0
100
AcDbPoint
 10
3349.229406223476
 20
2188.588409321164
 30
0.0
  0
ENDBLK
  5
7F68
330
828C
100
AcDbEntity
  8
0
100
AcDbBlockEnd
  0
BLOCK
  5
828F
330
828E
100
AcDbEntity
  8
0
100
AcDbBlockBegin
  2
*D7
 70
     1
 10
0.0
 20
0.0
 30
0.0
  3
*D7
  1

  0
LINE
  5
7E55
330
828E
100
AcDbEntity
  8
0
  6
ByBlock
100
AcDbLine
 10
2167.625114976839
 20
1785.060302835745
 30
0.0
 11
2167.625114976839
 21
1985.834976178721
 31
0.0
  0
LINE
  5
7E56
330
828E
100
AcDbEntity
  8
0
  6
ByBlock
100
AcDbLine
 10
1487.625114976837
 20
1822.976195176186
 30
0.0
 11
1487.625114976837
 21
1985.834976178721
 31
0.0
  0
LINE
  5
7E57
330
828E
100
AcDbEntity
  8
0
  6
ByBlock
100
AcDbLine
 10
2107.625114976839
 20
1955.834976178721
 30
0.0
 11
1547.625114976837
 21
1955.834976178721
 31
0.0
  0
INSERT
  5
7E58
330
828E
100
AcDbEntity
  8
0
  6
ByBlock
100
AcDbBlockReference
  2
_OPEN
 10
2167.625114976839
 20
1955.834976178721
 30
0.0
 41
60.0
 42
60.0
 43
60.0
  0
INSERT
  5
7E59
330
828E
100
AcDbEntity
  8
0
  6
ByBlock
100
AcDbBlockReference
  2
_OPEN
 10
1487.625114976837
 20
1955.834976178721
 30
0.0
 41
60.0
 42
60.0
 43
60.0
 50
180.0
  0
TEXT
  5
7E5A
330
828E
100
AcDbEntity
  8
3
100
AcDbText
 10
1711.910829262553
 20
1970.834976178721
 30
0.0
 40
90.0
  1
680
100
AcDbText
  0
POINT
  5
7E5B
330
828E
100
AcDbEntity
  8
DEFPOINTS
  6
ByBlock
 62
     0
100
AcDbPoint
 10
2167.625114976839
 20
1755.060302835746
 30
0.0
  0
POINT
  5
7E5C
330
828E
100
AcDbEntity
  8
DEFPOINTS
  6
ByBlock
 62
     0
100
AcDbPoint
 10
1487.625114976837
 20
1792.976195176187
 30
0.0
  0
POINT
  5
7E5D
330
828E
100
AcDbEntity
  8
DEFPOINTS
  6
ByBlock
 62
     0
100
AcDbPoint
 10
1487.625114976837
 20
1955.834976178721
 30
0.0
  0
ENDBLK
  5
7E5E
330
828E
100
AcDbEntity
  8
0
100
AcDbBlockEnd
  0
BLOCK
  5
8291
330
8290
100
AcDbEntity
  8
0
100
AcDbBlockBegin
  2
*D8
 70
     1
 10
0.0
 20
0.0
 30
0.0
  3
*D8
  1

  0
LINE
  5
7E60
330
8290
100
AcDbEntity
  8
0
  6
ByBlock
100
AcDbLine
 10
1487.625114976837
 20
1822.976195176186
 30
0.0
 11
1487.625114976837
 21
1985.377276243805
 31
0.0
  0
LINE
  5
7E61
330
8290
100
AcDbEntity
  8
0
  6
ByBlock
100
AcDbLine
 10
623.0809985608106
 20
658.0603028357444
 30
0.0
 11
623.0809985608106
 21
1985.377276243805
 31
0.0
  0
LINE
  5
7E62
330
8290
100
AcDbEntity
  8
0
  6
ByBlock
100
AcDbLine
 10
1427.625114976837
 20
1955.377276243805
 30
0.0
 11
683.0809985608108
 21
1955.377276243805
 31
0.0
  0
INSERT
  5
7E63
330
8290
100
AcDbEntity
  8
0
  6
ByBlock
100
AcDbBlockReference
  2
_OPEN
 10
1487.625114976837
 20
1955.377276243805
 30
0.0
 41
60.0
 42
60.0
 43
60.0
  0
INSERT
  5
7E64
330
8290
100
AcDbEntity
  8
0
  6
ByBlock
100
AcDbBlockReference
  2
_OPEN
 10
623.0809985608106
 20
1955.377276243805
 30
0.0
 41
60.0
 42
60.0
 43
60.0
 50
180.0
  0
TEXT
  5
7E65
330
8290
100
AcDbEntity
  8
3
100
AcDbText
 10
939.6387710545385
 20
1970.377276243805
 30
0.0
 40
90.0
  1
868
100
AcDbText
  0
POINT
  5
7E66
330
8290
100
AcDbEntity
  8
DEFPOINTS
  6
ByBlock
 62
     0
100
AcDbPoint
 10
1487.625114976837
 20
1792.976195176187
 30
0.0
  0
POINT
  5
7E67
330
8290
100
AcDbEntity
  8
DEFPOINTS
  6
ByBlock
 62
     0
100
AcDbPoint
 10
623.0809985608106
 20
628.0603028357444
 30
0.0
  0
POINT
  5
7E68
330
8290
100
AcDbEntity
  8
DEFPOINTS
  6
ByBlock
 62
     0
100
AcDbPoint
 10
623.0809985608106
 20
1955.377276243805
 30
0.0
  0
ENDBLK
  5
7E69
330
8290
100
AcDbEntity
  8
0
100
AcDbBlockEnd
  0
BLOCK
  5
8293
330
8292
100
AcDbEntity
  8
0
100
AcDbBlockBegin
  2
*D9
 70
     1
 10
0.0
 20
0.0
 30
0.0
  3
*D9
  1

  0
LINE
  5
7EAD
330
8292
100
AcDbEntity
  8
0
  6
ByBlock
100
AcDbLine
 10
862.6251149768394
 20
4406.031599361241
 30
0.0
 11
862.6251149768394
 21
4627.335536588958
 31
0.0
  0
LINE
  5
7EAE
330
8292
100
AcDbEntity
  8
0
  6
ByBlock
100
AcDbLine
 10
2112.625114976839
 20
4406.031599361237
 30
0.0
 11
2112.625114976839
 21
4627.335536588958
 31
0.0
  0
LINE
  5
7EAF
330
8292
100
AcDbEntity
  8
0
  6
ByBlock
100
AcDbLine
 10
922.6251149768396
 20
4597.335536588958
 30
0.0
 11
2052.625114976839
 21
4597.335536588958
 31
0.0
  0
INSERT
  5
7EB0
330
8292
100
AcDbEntity
  8
0
  6
ByBlock
100
AcDbBlockReference
  2
_OPEN
 10
862.6251149768394
 20
4597.335536588958
 30
0.0
 41
60.0
 42
60.0
 43
60.0
 50
180.0
  0
INSERT
  5
7EB1
330
8292
100
AcDbEntity
  8
0
  6
ByBlock
100
AcDbBlockReference
  2
_OPEN
 10
2112.625114976839
 20
4597.335536588958
 30
0.0
 41
60.0
 42
60.0
 43
60.0
  0
TEXT
  5
7EB2
330
8292
100
AcDbEntity
  8
3
100
AcDbText
 10
1337.625114976839
 20
4612.335536588958
 30
0.0
 40
90.0
  1
1250
100
AcDbText
  0
POINT
  5
7EB3
330
8292
100
AcDbEntity
  8
DEFPOINTS
  6
ByBlock
 62
     0
100
AcDbPoint
 10
862.6251149768394
 20
4376.031599361239
 30
0.0
  0
POINT
  5
7EB4
330
8292
100
AcDbEntity
  8
DEFPOINTS
  6
ByBlock
 62
     0
100
AcDbPoint
 10
2112.625114976839
 20
4376.031599361239
 30
0.0
  0
POINT
  5
7EB5
330
8292
100
AcDbEntity
  8
DEFPOINTS
  6
ByBlock
 62
     0
100
AcDbPoint
 10
2112.625114976839
 20
4597.335536588958
 30
0.0
  0
ENDBLK
  5
7EB6
330
8292
100
AcDbEntity
  8
0
100
AcDbBlockEnd
  0
BLOCK
  5
8295
330
8294
100
AcDbEntity
  8
0
100
AcDbBlockBegin
  2
*D10
 70
     1
 10
0.0
 20
0.0
 30
0.0
  3
*D10
  1

  0
LINE
  5
7EB8
330
8294
100
AcDbEntity
  8
0
  6
ByBlock
100
AcDbLine
 10
62.62511497683954
 20
2841.031599361241
 30
0.0
 11
62.62511497683954
 21
2552.481475534663
 31
0.0
  0
LINE
  5
7EB9
330
8294
100
AcDbEntity
  8
0
  6
ByBlock
100
AcDbLine
 10
2112.625114976839
 20
2841.031599361238
 30
0.0
 11
2112.625114976839
 21
2552.481475534663
 31
0.0
  0
LINE
  5
7EBA
330
8294
100
AcDbEntity
  8
0
  6
ByBlock
100
AcDbLine
 10
122.6251149768395
 20
2582.481475534663
 30
0.0
 11
2052.625114976839
 21
2582.481475534663
 31
0.0
  0
INSERT
  5
7EBB
330
8294
100
AcDbEntity
  8
0
  6
ByBlock
100
AcDbBlockReference
  2
_OPEN
 10
62.62511497683954
 20
2582.481475534663
 30
0.0
 41
60.0
 42
60.0
 43
60.0
 50
180.0
  0
INSERT
  5
7EBC
330
8294
100
AcDbEntity
  8
0
  6
ByBlock
100
AcDbBlockReference
  2
_OPEN
 10
2112.625114976839
 20
2582.481475534663
 30
0.0
 41
60.0
 42
60.0
 43
60.0
  0
TEXT
  5
7EBD
330
8294
100
AcDbEntity
  8
3
100
AcDbText
 10
929.0536864054109
 20
2597.481475534663
 30
0.0
 40
90.0
  1
2050
100
AcDbText
  0
POINT
  5
7EBE
330
8294
100
AcDbEntity
  8
DEFPOINTS
  6
ByBlock
 62
     0
100
AcDbPoint
 10
62.62511497683954
 20
2871.03159936124
 30
0.0
  0
POINT
  5
7EBF
330
8294
100
AcDbEntity
  8
DEFPOINTS
  6
ByBlock
 62
     0
100
AcDbPoint
 10
2112.625114976839
 20
2871.031599361238
 30
0.0
  0
POINT
  5
7EC0
330
8294
100
AcDbEntity
  8
DEFPOINTS
  6
ByBlock
 62
     0
100
AcDbPoint
 10
2112.625114976839
 20
2582.481475534663
 30
0.0
  0
ENDBLK
  5
7EC1
330
8294
100
AcDbEntity
  8
0
100
AcDbBlockEnd
  0
BLOCK
  5
8297
330
8296
100
AcDbEntity
  8
0
100
AcDbBlockBegin
  2
*D11
 70
     1
 10
0.0
 20
0.0
 30
0.0
  3
*D11
  1

  0
LINE
  5
7EC3
330
8296
100
AcDbEntity
  8
0
  6
ByBlock
100
AcDbLine
 10
32.62511497683954
 20
3721.031599361241
 30
0.0
 11
-189.4229525237715
 21
3721.031599361241
 31
0.0
  0
LINE
  5
7EC4
330
8296
100
AcDbEntity
  8
0
  6
ByBlock
100
AcDbLine
 10
32.62511497683954
 20
2871.03159936124
 30
0.0
 11
-189.4229525237715
 21
2871.03159936124
 31
0.0
  0
LINE
  5
7EC5
330
8296
100
AcDbEntity
  8
0
  6
ByBlock
100
AcDbLine
 10
-159.4229525237715
 20
3661.031599361241
 30
0.0
 11
-159.4229525237715
 21
2931.03159936124
 31
0.0
  0
INSERT
  5
7EC6
330
8296
100
AcDbEntity
  8
0
  6
ByBlock
100
AcDbBlockReference
  2
_OPEN
 10
-159.4229525237715
 20
3721.031599361241
 30
0.0
 41
60.0
 42
60.0
 43
60.0
 50
90.0
  0
INSERT
  5
7EC7
330
8296
100
AcDbEntity
  8
0
  6
ByBlock
100
AcDbBlockReference
  2
_OPEN
 10
-159.4229525237715
 20
2871.03159936124
 30
0.0
 41
60.0
 42
60.0
 43
60.0
 50
270.0
  0
TEXT
  5
7EC8
330
8296
100
AcDbEntity
  8
3
100
AcDbText
 10
-174.4229525237715
 20
3180.317313646954
 30
0.0
 40
90.0
  1
850
 50
90.0
100
AcDbText
  0
POINT
  5
7EC9
330
8296
100
AcDbEntity
  8
DEFPOINTS
  6
ByBlock
 62
     0
100
AcDbPoint
 10
62.62511497683954
 20
3721.031599361241
 30
0.0
  0
POINT
  5
7ECA
330
8296
100
AcDbEntity
  8
DEFPOINTS
  6
ByBlock
 62
     0
100
AcDbPoint
 10
62.62511497683954
 20
2871.03159936124
 30
0.0
  0
POINT
  5
7ECB
330
8296
100
AcDbEntity
  8
DEFPOINTS
  6
ByBlock
 62
     0
100
AcDbPoint
 10
-159.4229525237715
 20
2871.03159936124
 30
0.0
  0
ENDBLK
  5
7ECC
330
8296
100
AcDbEntity
  8
0
100
AcDbBlockEnd
  0
BLOCK
  5
8299
330
8298
100
AcDbEntity
  8
0
100
AcDbBlockBegin
  2
*D12
 70
     1
 10
0.0
 20
0.0
 30
0.0
  3
*D12
  1

  0
LINE
  5
7ECE
330
8298
100
AcDbEntity
  8
0
  6
ByBlock
100
AcDbLine
 10
2142.625114976839
 20
4376.031599361239
 30
0.0
 11
2541.269252985774
 21
4376.031599361239
 31
0.0
  0
LINE
  5
7ECF
330
8298
100
AcDbEntity
  8
0
  6
ByBlock
100
AcDbLine
 10
2142.625114976839
 20
2871.031599361238
 30
0.0
 11
2541.269252985774
 21
2871.031599361238
 31
0.0
  0
LINE
  5
7ED0
330
8298
100
AcDbEntity
  8
0
  6
ByBlock
100
AcDbLine
 10
2511.269252985774
 20
4316.031599361237
 30
0.0
 11
2511.269252985774
 21
2931.031599361238
 31
0.0
  0
INSERT
  5
7ED1
330
8298
100
AcDbEntity
  8
0
  6
ByBlock
100
AcDbBlockReference
  2
_OPEN
 10
2511.269252985774
 20
4376.031599361239
 30
0.0
 41
60.0
 42
60.0
 43
60.0
 50
90.0
  0
INSERT
  5
7ED2
330
8298
100
AcDbEntity
  8
0
  6
ByBlock
100
AcDbBlockReference
  2
_OPEN
 10
2511.269252985774
 20
2871.031599361238
 30
0.0
 41
60.0
 42
60.0
 43
60.0
 50
270.0
  0
TEXT
  5
7ED3
330
8298
100
AcDbEntity
  8
3
100
AcDbText
 10
2496.269252985774
 20
3473.531599361239
 30
0.0
 40
90.0
  1
1505
 50
90.0
100
AcDbText
  0
POINT
  5
7ED4
330
8298
100
AcDbEntity
  8
DEFPOINTS
  6
ByBlock
 62
     0
100
AcDbPoint
 10
2112.625114976839
 20
4376.031599361239
 30
0.0
  0
POINT
  5
7ED5
330
8298
100
AcDbEntity
  8
DEFPOINTS
  6
ByBlock
 62
     0
100
AcDbPoint
 10
2112.625114976839
 20
2871.031599361238
 30
0.0
  0
POINT
  5
7ED6
330
8298
100
AcDbEntity
  8
DEFPOINTS
  6
ByBlock
 62
     0
100
AcDbPoint
 10
2511.269252985774
 20
2871.031599361238
 30
0.0
  0
ENDBLK
  5
7ED7
330
8298
100
AcDbEntity
  8
0
100
AcDbBlockEnd
  0
BLOCK
  5
829B
330
829A
100
AcDbEntity
  8
0
100
AcDbBlockBegin
  2
*D13
 70
     1
 10
0.0
 20
0.0
 30
0.0
  3
*D13
  1

  0
LINE
  5
8059
330
829A
100
AcDbEntity
  8
0
  6
ByBlock
100
AcDbLine
 10
3793.292027154091
 20
3248.588409321162
 30
0.0
 11
3793.292027154091
 21
4496.111043789638
 31
0.0
  0
LINE
  5
805A
330
829A
100
AcDbEntity
  8
0
  6
ByBlock
100
AcDbLine
 10
4760.792027154096
 20
4433.056541435838
 30
0.0
 11
4760.792027154096
 21
4496.111043789638
 31
0.0
  0
LINE
  5
805B
330
829A
100
AcDbEntity
  8
0
  6
ByBlock
100
AcDbLine
 10
3853.292027154092
 20
4466.11104378964
 30
0.0
 11
4700.792027154096
 21
4466.11104378964
 31
0.0
  0
INSERT
  5
805C
330
829A
100
AcDbEntity
  8
0
  6
ByBlock
100
AcDbBlockReference
  2
_OPEN
 10
3793.292027154091
 20
4466.11104378964
 30
0.0
 41
60.0
 42
60.0
 43
60.0
 50
180.0
  0
INSERT
  5
805D
330
829A
100
AcDbEntity
  8
0
  6
ByBlock
100
AcDbBlockReference
  2
_OPEN
 10
4760.792027154096
 20
4466.11104378964
 30
0.0
 41
60.0
 42
60.0
 43
60.0
  0
INSERT
  5
805E
330
829A
100
AcDbEntity
  8
3
100
AcDbBlockReference
  2
*U14
 10
0.0
 20
0.0
 30
0.0
  0
POINT
  5
805F
330
829A
100
AcDbEntity
  8
DEFPOINTS
  6
ByBlock
 62
     0
100
AcDbPoint
 10
3793.292027154091
 20
3218.588409321163
 30
0.0
  0
POINT
  5
8060
330
829A
100
AcDbEntity
  8
DEFPOINTS
  6
ByBlock
 62
     0
100
AcDbPoint
 10
4760.792027154096
 20
4403.056541435839
 30
0.0
  0
POINT
  5
8061
330
829A
100
AcDbEntity
  8
DEFPOINTS
  6
ByBlock
 62
     0
100
AcDbPoint
 10
4760.792027154096
 20
4466.11104378964
 30
0.0
  0
ENDBLK
  5
8062
330
829A
100
AcDbEntity
  8
0
100
AcDbBlockEnd
  0
BLOCK
  5
82B9
330
829C
100
AcDbEntity
  8
0
100
AcDbBlockBegin
  2
*U14
 70
     1
 10
0.0
 20
0.0
 30
0.0
  3
*U14
  1

  0
TEXT
  5
81FC
330
829C
100
AcDbEntity
  8
3
100
AcDbText
 10
4148.470598582664
 20
4631.11104378964
 30
0.0
 40
90.0
  1
MAX
100
AcDbText
  0
TEXT
  5
81FD
330
829C
100
AcDbEntity
  8
3
100
AcDbText
 10
4127.042027154093
 20
4481.111043789637
 30
0.0
 40
90.0
  1
1020
100
AcDbText
  0
ENDBLK
  5
81FF
330
829C
100
AcDbEntity
  8
0
100
AcDbBlockEnd
  0
BLOCK
  5
829E
330
829D
100
AcDbEntity
  8
0
100
AcDbBlockBegin
  2
*D15
 70
     1
 10
0.0
 20
0.0
 30
0.0
  3
*D15
  1

  0
LINE
  5
80C7
330
829D
100
AcDbEntity
  8
0
  6
ByBlock
100
AcDbLine
 10
4760.792027154096
 20
4433.056541435838
 30
0.0
 11
4760.792027154096
 21
4496.111043789638
 31
0.0
  0
LINE
  5
80C8
330
829D
100
AcDbEntity
  8
0
  6
ByBlock
100
AcDbLine
 10
5528.7920271541
 20
2932.788409321163
 30
0.0
 11
5528.7920271541
 21
4496.111043789638
 31
0.0
  0
LINE
  5
80C9
330
829D
100
AcDbEntity
  8
0
  6
ByBlock
100
AcDbLine
 10
4820.792027154096
 20
4466.11104378964
 30
0.0
 11
5468.792027154098
 21
4466.11104378964
 31
0.0
  0
INSERT
  5
80CA
330
829D
100
AcDbEntity
  8
0
  6
ByBlock
100
AcDbBlockReference
  2
_OPEN
 10
4760.792027154096
 20
4466.11104378964
 30
0.0
 41
60.0
 42
60.0
 43
60.0
 50
180.0
  0
INSERT
  5
80CB
330
829D
100
AcDbEntity
  8
0
  6
ByBlock
100
AcDbBlockReference
  2
_OPEN
 10
5528.7920271541
 20
4466.11104378964
 30
0.0
 41
60.0
 42
60.0
 43
60.0
  0
TEXT
  5
80CC
330
829D
100
AcDbEntity
  8
3
100
AcDbText
 10
4971.220598582671
 20
4519.682472361068
 30
0.0
 40
90.0
  1
(780)
100
AcDbText
  0
POINT
  5
80CD
330
829D
100
AcDbEntity
  8
DEFPOINTS
  6
ByBlock
 62
     0
100
AcDbPoint
 10
4760.792027154096
 20
4403.056541435839
 30
0.0
  0
POINT
  5
80CE
330
829D
100
AcDbEntity
  8
DEFPOINTS
  6
ByBlock
 62
     0
100
AcDbPoint
 10
5528.7920271541
 20
2902.788409321163
 30
0.0
  0
POINT
  5
80CF
330
829D
100
AcDbEntity
  8
DEFPOINTS
  6
ByBlock
 62
     0
100
AcDbPoint
 10
5528.7920271541
 20
4466.11104378964
 30
0.0
  0
ENDBLK
  5
80D0
330
829D
100
AcDbEntity
  8
0
100
AcDbBlockEnd
  0
BLOCK
  5
82A0
330
829F
100
AcDbEntity
  8
0
100
AcDbBlockBegin
  2
*D16
 70
     1
 10
0.0
 20
0.0
 30
0.0
  3
*D16
  1

  0
LINE
  5
7EEF
330
829F
100
AcDbEntity
  8
0
  6
ByBlock
100
AcDbLine
 10
4259.104621073492
 20
1706.374620489382
 30
0.0
 11
4259.104621073492
 21
1986.055054257675
 31
0.0
  0
LINE
  5
7EF0
330
829F
100
AcDbEntity
  8
0
  6
ByBlock
100
AcDbLine
 10
5509.104621073492
 20
1703.096068293924
 30
0.0
 11
5509.104621073492
 21
1986.055054257675
 31
0.0
  0
LINE
  5
7EF1
330
829F
100
AcDbEntity
  8
0
  6
ByBlock
100
AcDbLine
 10
4319.104621073492
 20
1956.055054257674
 30
0.0
 11
5449.104621073495
 21
1956.055054257674
 31
0.0
  0
INSERT
  5
7EF2
330
829F
100
AcDbEntity
  8
0
  6
ByBlock
100
AcDbBlockReference
  2
_OPEN
 10
4259.104621073492
 20
1956.055054257674
 30
0.0
 41
60.0
 42
60.0
 43
60.0
 50
180.0
  0
INSERT
  5
7EF3
330
829F
100
AcDbEntity
  8
0
  6
ByBlock
100
AcDbBlockReference
  2
_OPEN
 10
5509.104621073492
 20
1956.055054257674
 30
0.0
 41
60.0
 42
60.0
 43
60.0
  0
TEXT
  5
7EF4
330
829F
100
AcDbEntity
  8
3
100
AcDbText
 10
4734.104621073493
 20
1971.055054257674
 30
0.0
 40
90.0
  1
1250
100
AcDbText
  0
POINT
  5
7EF5
330
829F
100
AcDbEntity
  8
DEFPOINTS
  6
ByBlock
 62
     0
100
AcDbPoint
 10
4259.104621073492
 20
1676.374620489382
 30
0.0
  0
POINT
  5
7EF6
330
829F
100
AcDbEntity
  8
DEFPOINTS
  6
ByBlock
 62
     0
100
AcDbPoint
 10
5509.104621073492
 20
1673.096068293924
 30
0.0
  0
POINT
  5
7EF7
330
829F
100
AcDbEntity
  8
DEFPOINTS
  6
ByBlock
 62
     0
100
AcDbPoint
 10
5509.104621073492
 20
1956.055054257674
 30
0.0
  0
ENDBLK
  5
7EF8
330
829F
100
AcDbEntity
  8
0
100
AcDbBlockEnd
  0
BLOCK
  5
82A2
330
82A1
100
AcDbEntity
  8
0
100
AcDbBlockBegin
  2
*D17
 70
     1
 10
0.0
 20
0.0
 30
0.0
  3
*D17
  1

  0
LINE
  5
7EFA
330
82A1
100
AcDbEntity
  8
0
  6
ByBlock
100
AcDbLine
 10
5544.604621073492
 20
98.06030283574637
 30
0.0
 11
5883.472841444802
 21
98.06030283574637
 31
0.0
  0
LINE
  5
7EFB
330
82A1
100
AcDbEntity
  8
0
  6
ByBlock
100
AcDbLine
 10
5544.604621073492
 20
1158.060302835746
 30
0.0
 11
5883.472841444802
 21
1158.060302835746
 31
0.0
  0
LINE
  5
7EFC
330
82A1
100
AcDbEntity
  8
0
  6
ByBlock
100
AcDbLine
 10
5853.472841444804
 20
158.0603028357463
 30
0.0
 11
5853.472841444804
 21
1098.060302835746
 31
0.0
  0
INSERT
  5
7EFD
330
82A1
100
AcDbEntity
  8
0
  6
ByBlock
100
AcDbBlockReference
  2
_OPEN
 10
5853.472841444804
 20
98.06030283574637
 30
0.0
 41
60.0
 42
60.0
 43
60.0
 50
270.0
  0
INSERT
  5
7EFE
330
82A1
100
AcDbEntity
  8
0
  6
ByBlock
100
AcDbBlockReference
  2
_OPEN
 10
5853.472841444804
 20
1158.060302835746
 30
0.0
 41
60.0
 42
60.0
 43
60.0
 50
90.0
  0
TEXT
  5
7EFF
330
82A1
100
AcDbEntity
  8
3
100
AcDbText
 10
5838.472841444802
 20
433.0603028357463
 30
0.0
 40
90.0
  1
\U+03C61060
 50
90.0
100
AcDbText
  0
POINT
  5
7F00
330
82A1
100
AcDbEntity
  8
DEFPOINTS
  6
ByBlock
 62
     0
100
AcDbPoint
 10
5514.604621073492
 20
98.06030283574637
 30
0.0
  0
POINT
  5
7F01
330
82A1
100
AcDbEntity
  8
DEFPOINTS
  6
ByBlock
 62
     0
100
AcDbPoint
 10
5514.604621073492
 20
1158.060302835746
 30
0.0
  0
POINT
  5
7F02
330
82A1
100
AcDbEntity
  8
DEFPOINTS
  6
ByBlock
 62
     0
100
AcDbPoint
 10
5853.472841444804
 20
1158.060302835746
 30
0.0
  0
ENDBLK
  5
7F03
330
82A1
100
AcDbEntity
  8
0
100
AcDbBlockEnd
  0
BLOCK
  5
82A4
330
82A3
100
AcDbEntity
  8
0
100
AcDbBlockBegin
  2
*D18
 70
     1
 10
0.0
 20
0.0
 30
0.0
  3
*D18
  1

  0
LINE
  5
7F2A
330
82A3
100
AcDbEntity
  8
0
  6
ByBlock
100
AcDbLine
 10
2167.625114976839
 20
1785.060302835745
 30
0.0
 11
2167.625114976839
 21
2165.221479554626
 31
0.0
  0
LINE
  5
7F2B
330
82A3
100
AcDbEntity
  8
0
  6
ByBlock
100
AcDbLine
 10
62.62511497683954
 20
8.060302835745584
 30
0.0
 11
62.62511497683954
 21
2165.221479554626
 31
0.0
  0
LINE
  5
7F2C
330
82A3
100
AcDbEntity
  8
0
  6
ByBlock
100
AcDbLine
 10
2107.625114976839
 20
2135.221479554626
 30
0.0
 11
122.6251149768395
 21
2135.221479554626
 31
0.0
  0
INSERT
  5
7F2D
330
82A3
100
AcDbEntity
  8
0
  6
ByBlock
100
AcDbBlockReference
  2
_OPEN
 10
2167.625114976839
 20
2135.221479554626
 30
0.0
 41
60.0
 42
60.0
 43
60.0
  0
INSERT
  5
7F2E
330
82A3
100
AcDbEntity
  8
0
  6
ByBlock
100
AcDbBlockReference
  2
_OPEN
 10
62.62511497683954
 20
2135.221479554626
 30
0.0
 41
60.0
 42
60.0
 43
60.0
 50
180.0
  0
TEXT
  5
7F2F
330
82A3
100
AcDbEntity
  8
3
100
AcDbText
 10
965.1251149768397
 20
2150.221479554626
 30
0.0
 40
90.0
  1
2105
100
AcDbText
  0
POINT
  5
7F30
330
82A3
100
AcDbEntity
  8
DEFPOINTS
  6
ByBlock
 62
     0
100
AcDbPoint
 10
2167.625114976839
 20
1755.060302835746
 30
0.0
  0
POINT
  5
7F31
330
82A3
100
AcDbEntity
  8
DEFPOINTS
  6
ByBlock
 62
     0
100
AcDbPoint
 10
62.62511497683954
 20
-21.93969716425441
 30
0.0
  0
POINT
  5
7F32
330
82A3
100
AcDbEntity
  8
DEFPOINTS
  6
ByBlock
 62
     0
100
AcDbPoint
 10
62.62511497683954
 20
2135.221479554626
 30
0.0
  0
ENDBLK
  5
7F33
330
82A3
100
AcDbEntity
  8
0
100
AcDbBlockEnd
  0
BLOCK
  5
82A6
330
82A5
100
AcDbEntity
  8
0
100
AcDbBlockBegin
  2
*D19
 70
     1
 10
0.0
 20
0.0
 30
0.0
  3
*D19
  1

  0
LINE
  5
7F35
330
82A5
100
AcDbEntity
  8
0
  6
ByBlock
100
AcDbLine
 10
862.6251149768394
 20
4406.031599361241
 30
0.0
 11
862.6251149768394
 21
4627.335536588958
 31
0.0
  0
LINE
  5
7F36
330
82A5
100
AcDbEntity
  8
0
  6
ByBlock
100
AcDbLine
 10
62.62511497683954
 20
3751.03159936124
 30
0.0
 11
62.62511497683954
 21
4627.335536588958
 31
0.0
  0
LINE
  5
7F37
330
82A5
100
AcDbEntity
  8
0
  6
ByBlock
100
AcDbLine
 10
802.6251149768395
 20
4597.335536588958
 30
0.0
 11
122.6251149768395
 21
4597.335536588958
 31
0.0
  0
INSERT
  5
7F38
330
82A5
100
AcDbEntity
  8
0
  6
ByBlock
100
AcDbBlockReference
  2
_OPEN
 10
862.6251149768394
 20
4597.335536588958
 30
0.0
 41
60.0
 42
60.0
 43
60.0
  0
INSERT
  5
7F39
330
82A5
100
AcDbEntity
  8
0
  6
ByBlock
100
AcDbBlockReference
  2
_OPEN
 10
62.62511497683954
 20
4597.335536588958
 30
0.0
 41
60.0
 42
60.0
 43
60.0
 50
180.0
  0
TEXT
  5
7F3A
330
82A5
100
AcDbEntity
  8
3
100
AcDbText
 10
346.9108292625538
 20
4612.335536588958
 30
0.0
 40
90.0
  1
800
100
AcDbText
  0
POINT
  5
7F3B
330
82A5
100
AcDbEntity
  8
DEFPOINTS
  6
ByBlock
 62
     0
100
AcDbPoint
 10
862.6251149768394
 20
4376.031599361239
 30
0.0
  0
POINT
  5
7F3C
330
82A5
100
AcDbEntity
  8
DEFPOINTS
  6
ByBlock
 62
     0
100
AcDbPoint
 10
62.62511497683954
 20
3721.031599361241
 30
0.0
  0
POINT
  5
7F3D
330
82A5
100
AcDbEntity
  8
DEFPOINTS
  6
ByBlock
 62
     0
100
AcDbPoint
 10
62.62511497683954
 20
4597.335536588958
 30
0.0
  0
ENDBLK
  5
7F3E
330
82A5
100
AcDbEntity
  8
0
100
AcDbBlockEnd
  0
BLOCK
  5
82A8
330
82A7
100
AcDbEntity
  8
0
100
AcDbBlockBegin
  2
*D20
 70
     1
 10
0.0
 20
0.0
 30
0.0
  3
*D20
  1

  0
LINE
  5
81ED
330
82A7
100
AcDbEntity
  8
3
 62
     0
100
AcDbLine
 10
2907.267263770179
 20
2168.588409321164
 30
0.0
 11
3379.229406223476
 21
2168.588409321164
 31
0.0
  0
LINE
  5
81EE
330
82A7
100
AcDbEntity
  8
3
 62
     0
100
AcDbLine
 10
2907.267263770179
 20
2068.588409321164
 30
0.0
 11
3379.229406223476
 21
2068.588409321164
 31
0.0
  0
LINE
  5
81EF
330
82A7
100
AcDbEntity
  8
3
 62
     0
100
AcDbLine
 10
3349.229406223476
 20
2228.588409321163
 30
0.0
 11
3349.229406223476
 21
2288.588409321163
 31
0.0
  0
LINE
  5
81F0
330
82A7
100
AcDbEntity
  8
3
 62
     0
100
AcDbLine
 10
3349.229406223476
 20
2008.588409321164
 30
0.0
 11
3349.229406223476
 21
1674.302695035449
 31
0.0
  0
LINE
  5
81F1
330
82A7
100
AcDbEntity
  8
3
 62
     0
100
AcDbLine
 10
3349.229406223476
 20
2168.588409321164
 30
0.0
 11
3349.229406223476
 21
2068.588409321164
 31
0.0
  0
INSERT
  5
81F2
330
82A7
100
AcDbEntity
  8
3
 62
     0
100
AcDbBlockReference
  2
_DOT
 10
3349.229406223476
 20
2168.588409321164
 30
0.0
 41
60.0
 42
60.0
 43
60.0
 50
270.0
  0
INSERT
  5
81F3
330
82A7
100
AcDbEntity
  8
3
 62
     0
100
AcDbBlockReference
  2
_OPEN
 10
3349.229406223476
 20
2068.588409321164
 30
0.0
 41
60.0
 42
60.0
 43
60.0
 50
90.0
  0
TEXT
  5
8201
330
82A7
100
AcDbEntity
  8
3
 62
     0
100
AcDbText
 10
3094.23
 20
1652.15
 30
0.0
 40
90.0
  1
100
100
AcDbText
  0
POINT
  5
81F5
330
82A7
100
AcDbEntity
  8
DEFPOINTS
 62
     0
100
AcDbPoint
 10
2892.267263770179
 20
2168.588409321164
 30
0.0
  0
POINT
  5
81F6
330
82A7
100
AcDbEntity
  8
DEFPOINTS
 62
     0
100
AcDbPoint
 10
2892.267263770179
 20
2068.588409321164
 30
0.0
  0
POINT
  5
81F7
330
82A7
100
AcDbEntity
  8
DEFPOINTS
 62
     0
100
AcDbPoint
 10
3349.229406223476
 20
2068.588409321164
 30
0.0
  0
ENDBLK
  5
800D
330
82A7
100
AcDbEntity
  8
0
100
AcDbBlockEnd
  0
BLOCK
  5
82AA
330
82A9
100
AcDbEntity
  8
0
100
AcDbBlockBegin
  2
_DOT
 70
     0
 10
0.0
 20
0.0
 30
0.0
  3
_DOT
  1

  0
LWPOLYLINE
  5
8010
330
82A9
100
AcDbEntity
  8
0
  6
ByBlock
 62
     0
100
AcDbPolyline
 90
        2
 70
     1
 43
0.25
 10
-0.125
 20
0.0
 42
1.0
 10
0.125
 20
0.0
 42
1.0
  0
LINE
  5
8014
330
82A9
100
AcDbEntity
  8
0
  6
ByBlock
 62
     0
100
AcDbLine
 10
-0.25
 20
0.0
 30
0.0
 11
-1.0
 21
0.0
 31
0.0
  0
ENDBLK
  5
7FF3
330
82A9
100
AcDbEntity
  8
0
100
AcDbBlockEnd
  0
BLOCK
  5
82AC
330
82AB
100
AcDbEntity
  8
0
100
AcDbBlockBegin
  2
*D22
 70
     1
 10
0.0
 20
0.0
 30
0.0
  3
*D22
  1

  0
LINE
  5
80DB
330
82AB
100
AcDbEntity
  8
0
  6
ByBlock
 62
     0
100
AcDbLine
 10
842.2672637701799
 20
2031.588409321164
 30
0.0
 11
842.2672637701799
 21
1800.447614116535
 31
0.0
  0
LINE
  5
80DC
330
82AB
100
AcDbEntity
  8
0
  6
ByBlock
 62
     0
100
AcDbLine
 10
2267.267263770178
 20
2031.588409321164
 30
0.0
 11
2267.267263770178
 21
1800.447614116535
 31
0.0
  0
LINE
  5
80DD
330
82AB
100
AcDbEntity
  8
0
  6
ByBlock
 62
     0
100
AcDbLine
 10
902.2672637701798
 20
1830.447614116535
 30
0.0
 11
2207.267263770178
 21
1830.447614116535
 31
0.0
  0
INSERT
  5
80DE
330
82AB
100
AcDbEntity
  8
0
  6
ByBlock
 62
     0
100
AcDbBlockReference
  2
_OPEN
 10
842.2672637701799
 20
1830.447614116535
 30
0.0
 41
60.0
 42
60.0
 43
60.0
 50
180.0
  0
INSERT
  5
80DF
330
82AB
100
AcDbEntity
  8
0
  6
ByBlock
 62
     0
100
AcDbBlockReference
  2
_OPEN
 10
2267.267263770178
 20
1830.447614116535
 30
0.0
 41
60.0
 42
60.0
 43
60.0
  0
TEXT
  5
80E0
330
82AB
100
AcDbEntity
  8
3
 62
     0
100
AcDbText
 10
1404.767263770179
 20
1860.447614116536
 30
0.0
 40
90.0
  1
1425
100
AcDbText
  0
POINT
  5
80E1
330
82AB
100
AcDbEntity
  8
DEFPOINTS
  6
ByBlock
 62
     0
100
AcDbPoint
 10
842.2672637701799
 20
2061.588409321164
 30
0.0
  0
POINT
  5
80E2
330
82AB
100
AcDbEntity
  8
DEFPOINTS
  6
ByBlock
 62
     0
100
AcDbPoint
 10
2267.267263770178
 20
2061.588409321164
 30
0.0
  0
POINT
  5
80E3
330
82AB
100
AcDbEntity
  8
DEFPOINTS
  6
ByBlock
 62
     0
100
AcDbPoint
 10
2267.267263770178
 20
1830.447614116535
 30
0.0
  0
ENDBLK
  5
80E4
330
82AB
100
AcDbEntity
  8
0
100
AcDbBlockEnd
  0
BLOCK
  5
82AE
330
82AD
100
AcDbEntity
  8
0
100
AcDbBlockBegin
  2
*D23
 70
     1
 10
0.0
 20
0.0
 30
0.0
  3
*D23
  1

  0
LINE
  5
80E8
330
82AD
100
AcDbEntity
  8
0
  6
ByBlock
 62
     0
100
AcDbLine
 10
2267.267263770178
 20
2031.588409321164
 30
0.0
 11
2267.267263770178
 21
1800.447614116535
 31
0.0
  0
LINE
  5
80E9
330
82AD
100
AcDbEntity
  8
0
  6
ByBlock
 62
     0
100
AcDbLine
 10
2892.267263770179
 20
2031.588409321164
 30
0.0
 11
2892.267263770179
 21
1800.447614116535
 31
0.0
  0
LINE
  5
80EA
330
82AD
100
AcDbEntity
  8
0
  6
ByBlock
 62
     0
100
AcDbLine
 10
2327.267263770178
 20
1830.447614116535
 30
0.0
 11
2832.26726377018
 21
1830.447614116535
 31
0.0
  0
INSERT
  5
80EB
330
82AD
100
AcDbEntity
  8
0
  6
ByBlock
 62
     0
100
AcDbBlockReference
  2
_OPEN
 10
2267.267263770178
 20
1830.447614116535
 30
0.0
 41
60.0
 42
60.0
 43
60.0
 50
180.0
  0
INSERT
  5
80EC
330
82AD
100
AcDbEntity
  8
0
  6
ByBlock
 62
     0
100
AcDbBlockReference
  2
_OPEN
 10
2892.267263770179
 20
1830.447614116535
 30
0.0
 41
60.0
 42
60.0
 43
60.0
  0
TEXT
  5
80ED
330
82AD
100
AcDbEntity
  8
3
 62
     0
100
AcDbText
 10
2464.052978055893
 20
1860.447614116536
 30
0.0
 40
90.0
  1
625
100
AcDbText
  0
POINT
  5
80EE
330
82AD
100
AcDbEntity
  8
DEFPOINTS
  6
ByBlock
 62
     0
100
AcDbPoint
 10
2267.267263770178
 20
2061.588409321164
 30
0.0
  0
POINT
  5
80EF
330
82AD
100
AcDbEntity
  8
DEFPOINTS
  6
ByBlock
 62
     0
100
AcDbPoint
 10
2892.267263770179
 20
2061.588409321164
 30
0.0
  0
POINT
  5
80F0
330
82AD
100
AcDbEntity
  8
DEFPOINTS
  6
ByBlock
 62
     0
100
AcDbPoint
 10
2892.267263770179
 20
1830.447614116535
 30
0.0
  0
ENDBLK
  5
80F1
330
82AD
100
AcDbEntity
  8
0
100
AcDbBlockEnd
  0
BLOCK
  5
82B0
330
82AF
100
AcDbEntity
  8
0
100
AcDbBlockBegin
  2
*D24
 70
     1
 10
0.0
 20
0.0
 30
0.0
  3
*D24
  1

  0
LINE
  5
80F5
330
82AF
100
AcDbEntity
  8
0
  6
ByBlock
 62
     0
100
AcDbLine
 10
3933.792027154098
 20
2031.588409321163
 30
0.0
 11
3933.792027154098
 21
1800.447614116535
 31
0.0
  0
LINE
  5
80F6
330
82AF
100
AcDbEntity
  8
0
  6
ByBlock
 62
     0
100
AcDbLine
 10
4760.792027154096
 20
2031.588409321163
 30
0.0
 11
4760.792027154096
 21
1800.447614116535
 31
0.0
  0
LINE
  5
80F7
330
82AF
100
AcDbEntity
  8
0
  6
ByBlock
 62
     0
100
AcDbLine
 10
3993.792027154096
 20
1830.447614116535
 30
0.0
 11
4700.792027154096
 21
1830.447614116535
 31
0.0
  0
INSERT
  5
80F8
330
82AF
100
AcDbEntity
  8
0
  6
ByBlock
 62
     0
100
AcDbBlockReference
  2
_OPEN
 10
3933.792027154098
 20
1830.447614116535
 30
0.0
 41
60.0
 42
60.0
 43
60.0
 50
180.0
  0
INSERT
  5
80F9
330
82AF
100
AcDbEntity
  8
0
  6
ByBlock
 62
     0
100
AcDbBlockReference
  2
_OPEN
 10
4760.792027154096
 20
1830.447614116535
 30
0.0
 41
60.0
 42
60.0
 43
60.0
  0
TEXT
  5
80FA
330
82AF
100
AcDbEntity
  8
3
 62
     0
100
AcDbText
 10
4231.577741439812
 20
1860.447614116536
 30
0.0
 40
90.0
  1
827
100
AcDbText
  0
POINT
  5
80FB
330
82AF
100
AcDbEntity
  8
DEFPOINTS
  6
ByBlock
 62
     0
100
AcDbPoint
 10
3933.792027154098
 20
2061.588409321163
 30
0.0
  0
POINT
  5
80FC
330
82AF
100
AcDbEntity
  8
DEFPOINTS
  6
ByBlock
 62
     0
100
AcDbPoint
 10
4760.792027154096
 20
2061.588409321163
 30
0.0
  0
POINT
  5
80FD
330
82AF
100
AcDbEntity
  8
DEFPOINTS
  6
ByBlock
 62
     0
100
AcDbPoint
 10
4760.792027154096
 20
1830.447614116535
 30
0.0
  0
ENDBLK
  5
80FE
330
82AF
100
AcDbEntity
  8
0
100
AcDbBlockEnd
  0
BLOCK
  5
82B2
330
82B1
100
AcDbEntity
  8
0
100
AcDbBlockBegin
  2
*D25
 70
     1
 10
0.0
 20
0.0
 30
0.0
  3
*D25
  1

  0
LINE
  5
8102
330
82B1
100
AcDbEntity
  8
0
  6
ByBlock
 62
     0
100
AcDbLine
 10
4760.792027154096
 20
2031.588409321163
 30
0.0
 11
4760.792027154096
 21
1800.447614116535
 31
0.0
  0
LINE
  5
8103
330
82B1
100
AcDbEntity
  8
0
  6
ByBlock
 62
     0
100
AcDbLine
 10
5438.792027154097
 20
2031.588409321163
 30
0.0
 11
5438.792027154097
 21
1800.447614116535
 31
0.0
  0
LINE
  5
8104
330
82B1
100
AcDbEntity
  8
0
  6
ByBlock
 62
     0
100
AcDbLine
 10
4820.792027154096
 20
1830.447614116535
 30
0.0
 11
5378.792027154098
 21
1830.447614116535
 31
0.0
  0
INSERT
  5
8105
330
82B1
100
AcDbEntity
  8
0
  6
ByBlock
 62
     0
100
AcDbBlockReference
  2
_OPEN
 10
4760.792027154096
 20
1830.447614116535
 30
0.0
 41
60.0
 42
60.0
 43
60.0
 50
180.0
  0
INSERT
  5
8106
330
82B1
100
AcDbEntity
  8
0
  6
ByBlock
 62
     0
100
AcDbBlockReference
  2
_OPEN
 10
5438.792027154097
 20
1830.447614116535
 30
0.0
 41
60.0
 42
60.0
 43
60.0
  0
TEXT
  5
8107
330
82B1
100
AcDbEntity
  8
3
 62
     0
100
AcDbText
 10
4984.07774143981
 20
1860.447614116536
 30
0.0
 40
90.0
  1
678
100
AcDbText
  0
POINT
  5
8108
330
82B1
100
AcDbEntity
  8
DEFPOINTS
  6
ByBlock
 62
     0
100
AcDbPoint
 10
4760.792027154096
 20
2061.588409321163
 30
0.0
  0
POINT
  5
8109
330
82B1
100
AcDbEntity
  8
DEFPOINTS
  6
ByBlock
 62
     0
100
AcDbPoint
 10
5438.792027154097
 20
2061.588409321163
 30
0.0
  0
POINT
  5
810A
330
82B1
100
AcDbEntity
  8
DEFPOINTS
  6
ByBlock
 62
     0
100
AcDbPoint
 10
5438.792027154097
 20
1830.447614116535
 30
0.0
  0
ENDBLK
  5
810B
330
82B1
100
AcDbEntity
  8
0
100
AcDbBlockEnd
  0
BLOCK
  5
82B4
330
82B3
100
AcDbEntity
  8
0
100
AcDbBlockBegin
  2
_NONE
 70
     0
 10
0.0
 20
0.0
 30
0.0
  3
_NONE
  1

  0
CIRCLE
  5
810F
330
82B3
100
AcDbEntity
  8
0
  6
ByBlock
 62
     0
100
AcDbCircle
 10
0.0
 20
0.0
 30
0.0
 40
0.25
  0
ENDBLK
  5
8110
330
82B3
100
AcDbEntity
  8
0
100
AcDbBlockEnd
  0
BLOCK
  5
82B6
330
82B5
100
AcDbEntity
  8
0
100
AcDbBlockBegin
  2
*D27
 70
     1
 10
0.0
 20
0.0
 30
0.0
  3
*D27
  1

  0
LINE
  5
8178
330
82B5
100
AcDbEntity
  8
0
  6
ByBlock
 62
     0
100
AcDbLine
 10
3349.647751131338
 20
2168.588409321164
 30
0.0
 11
3349.647751131338
 21
2168.588409321164
 31
0.0
  0
LINE
  5
8179
330
82B5
100
AcDbEntity
  8
0
  6
ByBlock
 62
     0
100
AcDbLine
 10
3349.647751131338
 20
2188.588409321164
 30
0.0
 11
3349.647751131338
 21
2308.588409321164
 31
0.0
  0
TEXT
  5
817A
330
82B5
100
AcDbEntity
  8
3
 62
     0
100
AcDbText
 10
3523.219179702767
 20
2020.874123606878
 30
0.0
 40
90.0
  1
 (20)
 50
90.0
100
AcDbText
  0
LINE
  5
817B
330
82B5
100
AcDbEntity
  8
0
  6
ByBlock
 62
     0
100
AcDbLine
 10
3349.647751131338
 20
2168.588409321164
 30
0.0
 11
3349.647751131338
 21
2188.588409321164
 31
0.0
  0
POINT
  5
817C
330
82B5
100
AcDbEntity
  8
DEFPOINTS
  6
ByBlock
 62
     0
100
AcDbPoint
 10
2892.267263770179
 20
2168.588409321164
 30
0.0
  0
POINT
  5
817D
330
82B5
100
AcDbEntity
  8
DEFPOINTS
  6
ByBlock
 62
     0
100
AcDbPoint
 10
2892.267263770179
 20
2188.588409321164
 30
0.0
  0
POINT
  5
817E
330
82B5
100
AcDbEntity
  8
DEFPOINTS
  6
ByBlock
 62
     0
100
AcDbPoint
 10
3349.647751131338
 20
2188.588409321164
 30
0.0
  0
ENDBLK
  5
817F
330
82B5
100
AcDbEntity
  8
0
100
AcDbBlockEnd
  0
BLOCK
  5
82B8
330
82B7
100
AcDbEntity
  8
0
100
AcDbBlockBegin
  2
*D28
 70
     1
 10
0.0
 20
0.0
 30
0.0
  3
*D28
  1

  0
LINE
  5
815A
330
82B7
100
AcDbEntity
  8
0
  6
ByBlock
 62
     0
100
AcDbLine
 10
2922.26726377018
 20
2068.588409321164
 30
0.0
 11
3627.818641423935
 21
2068.588409321164
 31
0.0
  0
LINE
  5
815B
330
82B7
100
AcDbEntity
  8
0
  6
ByBlock
 62
     0
100
AcDbLine
 10
2977.26726377018
 20
4012.588409321161
 30
0.0
 11
3627.818641423935
 21
4012.588409321161
 31
0.0
  0
LINE
  5
815C
330
82B7
100
AcDbEntity
  8
0
  6
ByBlock
 62
     0
100
AcDbLine
 10
3597.818641423935
 20
2128.588409321164
 30
0.0
 11
3597.818641423935
 21
3952.588409321162
 31
0.0
  0
INSERT
  5
815D
330
82B7
100
AcDbEntity
  8
0
  6
ByBlock
 62
     0
100
AcDbBlockReference
  2
_OPEN
 10
3597.818641423935
 20
2068.588409321164
 30
0.0
 41
60.0
 42
60.0
 43
60.0
 50
270.0
  0
INSERT
  5
815E
330
82B7
100
AcDbEntity
  8
0
  6
ByBlock
 62
     0
100
AcDbBlockReference
  2
_OPEN
 10
3597.818641423935
 20
4012.588409321161
 30
0.0
 41
60.0
 42
60.0
 43
60.0
 50
90.0
  0
TEXT
  5
815F
330
82B7
100
AcDbEntity
  8
3
 62
     0
100
AcDbText
 10
3529.247212852506
 20
2832.731266464021
 30
0.0
 40
90.0
  1
(1944)
 50
90.0
100
AcDbText
  0
POINT
  5
8160
330
82B7
100
AcDbEntity
  8
DEFPOINTS
  6
ByBlock
 62
     0
100
AcDbPoint
 10
2892.267263770179
 20
2068.588409321164
 30
0.0
  0
POINT
  5
8161
330
82B7
100
AcDbEntity
  8
DEFPOINTS
  6
ByBlock
 62
     0
100
AcDbPoint
 10
2947.26726377018
 20
4012.588409321161
 30
0.0
  0
POINT
  5
8162
330
82B7
100
AcDbEntity
  8
DEFPOINTS
  6
ByBlock
 62
     0
100
AcDbPoint
 10
3597.818641423935
 20
4012.588409321161
 30
0.0
  0
ENDBLK
  5
8163
330
82B7
100
AcDbEntity
  8
0
100
AcDbBlockEnd
  0
BLOCK
  5
82BD
330
82BC
100
AcDbEntity
  8
0
100
AcDbBlockBegin
  2
*D29
 70
     1
 10
0.0
 20
0.0
 30
0.0
  3
*D29
  1

  0
LINE
  5
82E7
330
82BC
100
AcDbEntity
  8
3
 62
     0
370
    -2
100
AcDbLine
 10
3700.792027154091
 20
3248.588409321162
 30
0.0
 11
3700.792027154091
 21
4526.005485840538
 31
0.0
  0
LINE
  5
82E8
330
82BC
100
AcDbEntity
  8
3
 62
     0
370
    -2
100
AcDbLine
 10
4760.792027154097
 20
4401.583160743091
 30
0.0
 11
4760.792027154097
 21
4526.005485840538
 31
0.0
  0
LINE
  5
82E9
330
82BC
100
AcDbEntity
  8
3
 62
     0
370
    -2
100
AcDbLine
 10
3760.792027154091
 20
4496.005485840538
 30
0.0
 11
4700.792027154096
 21
4496.005485840538
 31
0.0
  0
INSERT
  5
82EA
330
82BC
100
AcDbEntity
  8
3
 62
     0
370
    -2
100
AcDbBlockReference
  2
_OPEN
 10
3700.792027154091
 20
4496.005485840538
 30
0.0
 41
60.0
 42
60.0
 43
60.0
 50
180.0
  0
INSERT
  5
82EB
330
82BC
100
AcDbEntity
  8
3
 62
     0
370
    -2
100
AcDbBlockReference
  2
_OPEN
 10
4760.792027154097
 20
4496.005485840538
 30
0.0
 41
60.0
 42
60.0
 43
60.0
  0
MTEXT
  5
82EC
330
82BC
100
AcDbEntity
  8
3
 62
     0
100
AcDbMText
 10
4230.792027154094
 20
4594.576914411966
 30
0.0
 40
90.0
 41
0.0
 71
     5
 72
     1
  1
\A1;(1060)
 73
     1
 44
1.0
1001
ACAD
1000
MTEXTBEGIN
1070
    73
1070
     1
1070
    44
1040
1.0
1070
    74
1070
     0
1000
MTEXTEND
  0
POINT
  5
82ED
330
82BC
100
AcDbEntity
  8
DEFPOINTS
 62
     0
100
AcDbPoint
 10
3700.792027154091
 20
3218.588409321163
 30
0.0
  0
POINT
  5
82EE
330
82BC
100
AcDbEntity
  8
DEFPOINTS
 62
     0
100
AcDbPoint
 10
4760.792027154097
 20
4371.583160743091
 30
0.0
  0
POINT
  5
82EF
330
82BC
100
AcDbEntity
  8
DEFPOINTS
 62
     0
100
AcDbPoint
 10
4760.792027154097
 20
4496.005485840538
 30
0.0
  0
ENDBLK
  5
82BE
330
82BC
100
AcDbEntity
  8
0
100
AcDbBlockEnd
  0
BLOCK
  5
82CA
330
82C9
100
AcDbEntity
  8
0
100
AcDbBlockBegin
  2
*D30
 70
     1
 10
0.0
 20
0.0
 30
0.0
  3
*D30
  1

  0
LINE
  5
82F0
330
82C9
100
AcDbEntity
  8
3
 62
     0
370
    -2
100
AcDbLine
 10
4760.792027154097
 20
4401.583160743091
 30
0.0
 11
4760.792027154097
 21
4526.005485840538
 31
0.0
  0
LINE
  5
82F1
330
82C9
100
AcDbEntity
  8
3
 62
     0
370
    -2
100
AcDbLine
 10
5540.792027154098
 20
2932.788409321163
 30
0.0
 11
5540.792027154098
 21
4526.005485840538
 31
0.0
  0
LINE
  5
82F2
330
82C9
100
AcDbEntity
  8
3
 62
     0
370
    -2
100
AcDbLine
 10
4820.792027154097
 20
4496.005485840538
 30
0.0
 11
5480.792027154098
 21
4496.005485840538
 31
0.0
  0
INSERT
  5
82F3
330
82C9
100
AcDbEntity
  8
3
 62
     0
370
    -2
100
AcDbBlockReference
  2
_OPEN
 10
4760.792027154097
 20
4496.005485840538
 30
0.0
 41
60.0
 42
60.0
 43
60.0
 50
180.0
  0
INSERT
  5
82F4
330
82C9
100
AcDbEntity
  8
3
 62
     0
370
    -2
100
AcDbBlockReference
  2
_OPEN
 10
5540.792027154098
 20
4496.005485840538
 30
0.0
 41
60.0
 42
60.0
 43
60.0
  0
MTEXT
  5
82F5
330
82C9
100
AcDbEntity
  8
3
 62
     0
100
AcDbMText
 10
5150.792027154096
 20
4594.576914411966
 30
0.0
 40
90.0
 41
0.0
 71
     5
 72
     1
  1
\A1;(780)
 73
     1
 44
1.0
1001
ACAD
1000
MTEXTBEGIN
1070
    73
1070
     1
1070
    44
1040
1.0
1070
    74
1070
     0
1000
MTEXTEND
  0
POINT
  5
82F6
330
82C9
100
AcDbEntity
  8
DEFPOINTS
 62
     0
100
AcDbPoint
 10
4760.792027154097
 20
4371.583160743091
 30
0.0
  0
POINT
  5
82F7
330
82C9
100
AcDbEntity
  8
DEFPOINTS
 62
     0
100
AcDbPoint
 10
5540.792027154098
 20
2902.788409321163
 30
0.0
  0
POINT
  5
82F8
330
82C9
100
AcDbEntity
  8
DEFPOINTS
 62
     0
100
AcDbPoint
 10
5540.792027154098
 20
4496.005485840538
 30
0.0
  0
ENDBLK
  5
82CB
330
82C9
100
AcDbEntity
  8
0
100
AcDbBlockEnd
  0
BLOCK
  5
82FB
330
82FA
100
AcDbEntity
  8
0
100
AcDbBlockBegin
  2
*D31
 70
     1
 10
0.0
 20
0.0
 30
0.0
  3
*D31
  1

  0
LINE
  5
8316
330
82FA
100
AcDbEntity
  8
3
 62
     0
370
    -2
100
AcDbLine
 10
2776.192454152766
 20
5850.241293846764
 30
0.0
 11
3858.90213509588
 21
5850.241293846764
 31
0.0
  0
LINE
  5
8317
330
82FA
100
AcDbEntity
  8
3
 62
     0
370
    -2
100
AcDbLine
 10
2577.267263770178
 20
4790.241293846764
 30
0.0
 11
3858.902135095879
 21
4790.241293846764
 31
0.0
  0
LINE
  5
8318
330
82FA
100
AcDbEntity
  8
3
 62
     0
370
    -2
100
AcDbLine
 10
3828.902135095879
 20
5790.241293846764
 30
0.0
 11
3828.902135095879
 21
4850.241293846764
 31
0.0
  0
INSERT
  5
8319
330
82FA
100
AcDbEntity
  8
3
 62
     0
370
    -2
100
AcDbBlockReference
  2
_OPEN
 10
3828.902135095879
 20
5850.241293846764
 30
0.0
 41
60.0
 42
60.0
 43
60.0
 50
90.0
  0
INSERT
  5
831A
330
82FA
100
AcDbEntity
  8
3
 62
     0
370
    -2
100
AcDbBlockReference
  2
_OPEN
 10
3828.902135095879
 20
4790.241293846764
 30
0.0
 41
60.0
 42
60.0
 43
60.0
 50
270.0
  0
MTEXT
  5
831B
330
82FA
100
AcDbEntity
  8
3
 62
     0
100
AcDbMText
 10
3730.33070652445
 20
5320.241293846765
 30
0.0
 40
90.0
 41
0.0
 71
     5
 72
     1
  1
\A1;(1060)
 11
0.0000000000000001
 21
1.0
 31
0.0
 73
     1
 44
1.0
1001
ACAD
1000
MTEXTBEGIN
1070
    73
1070
     1
1070
    44
1040
1.0
1070
    74
1070
     0
1000
MTEXTEND
  0
POINT
  5
831C
330
82FA
100
AcDbEntity
  8
DEFPOINTS
 62
     0
100
AcDbPoint
 10
2746.192454152766
 20
5850.241293846764
 30
0.0
  0
POINT
  5
831D
330
82FA
100
AcDbEntity
  8
DEFPOINTS
 62
     0
100
AcDbPoint
 10
2547.267263770178
 20
4790.241293846764
 30
0.0
  0
POINT
  5
831E
330
82FA
100
AcDbEntity
  8
DEFPOINTS
 62
     0
100
AcDbPoint
 10
3828.902135095879
 20
4790.241293846764
 30
0.0
  0
ENDBLK
  5
82FC
330
82FA
100
AcDbEntity
  8
0
100
AcDbBlockEnd
  0
BLOCK
  5
830A
330
8309
100
AcDbEntity
  8
0
100
AcDbBlockBegin
  2
*D32
 70
     1
 10
0.0
 20
0.0
 30
0.0
  3
*D32
  1

  0
LINE
  5
830C
330
8309
100
AcDbEntity
  8
3
 62
     0
370
    -2
100
AcDbLine
 10
842.2672637701799
 20
5021.366293846766
 30
0.0
 11
842.2672637701799
 21
4609.291170020189
 31
0.0
  0
LINE
  5
830D
330
8309
100
AcDbEntity
  8
3
 62
     0
370
    -2
100
AcDbLine
 10
2892.267263770179
 20
5021.366293846764
 30
0.0
 11
2892.267263770179
 21
4609.291170020189
 31
0.0
  0
LINE
  5
830E
330
8309
100
AcDbEntity
  8
3
 62
     0
370
    -2
100
AcDbLine
 10
847.6672637701797
 20
4614.691170020189
 30
0.0
 11
1843.481549484465
 21
4614.691170020189
 31
0.0
  0
LINE
  5
830F
330
8309
100
AcDbEntity
  8
3
 62
     0
370
    -2
100
AcDbLine
 10
2886.867263770179
 20
4614.691170020189
 30
0.0
 11
1891.052978055893
 21
4614.691170020189
 31
0.0
  0
SOLID
  5
8310
330
8309
100
AcDbEntity
  8
3
 62
     0
100
AcDbTrace
 10
847.6672637701797
 20
4615.591170020189
 30
0.0
 11
847.6672637701797
 21
4613.791170020189
 31
0.0
 12
842.2672637701799
 22
4614.691170020189
 32
0.0
 13
842.2672637701799
 23
4614.691170020189
 33
0.0
  0
SOLID
  5
8311
330
8309
100
AcDbEntity
  8
3
 62
     0
100
AcDbTrace
 10
2886.867263770179
 20
4615.591170020189
 30
0.0
 11
2886.867263770179
 21
4613.791170020189
 31
0.0
 12
2892.267263770179
 22
4614.691170020189
 32
0.0
 13
2892.267263770179
 23
4614.691170020189
 33
0.0
  0
MTEXT
  5
8312
330
8309
100
AcDbEntity
  8
3
 62
     0
100
AcDbMText
 10
1867.267263770179
 20
4614.691170020189
 30
0.0
 40
5.399999999999999
 41
0.0
 71
     5
 72
     1
  1
\A1;2050.0000
 73
     1
 44
1.0
1001
ACAD
1000
MTEXTBEGIN
1070
    73
1070
     1
1070
    44
1040
1.0
1070
    74
1070
     0
1000
MTEXTEND
  0
POINT
  5
8313
330
8309
100
AcDbEntity
  8
DEFPOINTS
 62
     0
100
AcDbPoint
 10
842.2672637701799
 20
5023.241293846766
 30
0.0
  0
POINT
  5
8314
330
8309
100
AcDbEntity
  8
DEFPOINTS
 62
     0
100
AcDbPoint
 10
2892.267263770179
 20
5023.241293846764
 30
0.0
  0
POINT
  5
8315
330
8309
100
AcDbEntity
  8
DEFPOINTS
 62
     0
100
AcDbPoint
 10
2892.267263770179
 20
4614.691170020189
 30
0.0
  0
ENDBLK
  5
830B
330
8309
100
AcDbEntity
  8
0
100
AcDbBlockEnd
  0
BLOCK
  5
8321
330
8320
100
AcDbEntity
  8
0
100
AcDbBlockBegin
  2
*D33
 70
     1
 10
0.0
 20
0.0
 30
0.0
  3
*D33
  1

  0
LINE
  5
8323
330
8320
100
AcDbEntity
  8
3
 62
     0
370
    -2
100
AcDbLine
 10
842.2672637701799
 20
4993.241293846766
 30
0.0
 11
842.2672637701799
 21
4605.796565232191
 31
0.0
  0
LINE
  5
8324
330
8320
100
AcDbEntity
  8
3
 62
     0
370
    -2
100
AcDbLine
 10
2892.267263770179
 20
4993.241293846764
 30
0.0
 11
2892.267263770179
 21
4605.796565232191
 31
0.0
  0
LINE
  5
8325
330
8320
100
AcDbEntity
  8
3
 62
     0
370
    -2
100
AcDbLine
 10
902.2672637701798
 20
4635.79656523219
 30
0.0
 11
2832.267263770179
 21
4635.79656523219
 31
0.0
  0
INSERT
  5
8326
330
8320
100
AcDbEntity
  8
3
 62
     0
370
    -2
100
AcDbBlockReference
  2
_OPEN
 10
842.2672637701799
 20
4635.79656523219
 30
0.0
 41
60.0
 42
60.0
 43
60.0
 50
180.0
  0
INSERT
  5
8327
330
8320
100
AcDbEntity
  8
3
 62
     0
370
    -2
100
AcDbBlockReference
  2
_OPEN
 10
2892.267263770179
 20
4635.79656523219
 30
0.0
 41
60.0
 42
60.0
 43
60.0
  0
MTEXT
  5
8328
330
8320
100
AcDbEntity
  8
3
 62
     0
100
AcDbMText
 10
1867.267263770179
 20
4710.796565232191
 30
0.0
 40
90.0
 41
0.0
 71
     5
 72
     1
  1
\A1;2050
 73
     1
 44
1.0
1001
ACAD
1000
MTEXTBEGIN
1070
    73
1070
     1
1070
    44
1040
1.0
1070
    74
1070
     0
1000
MTEXTEND
  0
POINT
  5
8329
330
8320
100
AcDbEntity
  8
DEFPOINTS
 62
     0
100
AcDbPoint
 10
842.2672637701799
 20
5023.241293846766
 30
0.0
  0
POINT
  5
832A
330
8320
100
AcDbEntity
  8
DEFPOINTS
 62
     0
100
AcDbPoint
 10
2892.267263770179
 20
5023.241293846764
 30
0.0
  0
POINT
  5
832B
330
8320
100
AcDbEntity
  8
DEFPOINTS
 62
     0
100
AcDbPoint
 10
2892.267263770179
 20
4635.79656523219
 30
0.0
  0
ENDBLK
  5
8322
330
8320
100
AcDbEntity
  8
0
100
AcDbBlockEnd
  0
BLOCK
  5
832E
330
832D
100
AcDbEntity
  8
0
100
AcDbBlockBegin
  2
*D34
 70
     1
 10
0.0
 20
0.0
 30
0.0
  3
*D34
  1

  0
LINE
  5
8339
330
832D
100
AcDbEntity
  8
3
 62
     0
370
    -2
100
AcDbLine
 10
3036.883246267807
 20
2938.588409321162
 30
0.0
 11
3379.647751131338
 21
2938.588409321162
 31
0.0
  0
LINE
  5
833A
330
832D
100
AcDbEntity
  8
3
 62
     0
370
    -2
100
AcDbLine
 10
2922.267263770179
 20
2188.588409321164
 30
0.0
 11
3379.647751131338
 21
2188.588409321164
 31
0.0
  0
LINE
  5
833B
330
832D
100
AcDbEntity
  8
3
 62
     0
370
    -2
100
AcDbLine
 10
3349.647751131338
 20
2878.588409321162
 30
0.0
 11
3349.647751131338
 21
2248.588409321163
 31
0.0
  0
INSERT
  5
833C
330
832D
100
AcDbEntity
  8
3
 62
     0
370
    -2
100
AcDbBlockReference
  2
_OPEN
 10
3349.647751131338
 20
2938.588409321162
 30
0.0
 41
60.0
 42
60.0
 43
60.0
 50
90.0
  0
INSERT
  5
833D
330
832D
100
AcDbEntity
  8
3
 62
     0
370
    -2
100
AcDbBlockReference
  2
_OPEN
 10
3349.647751131338
 20
2188.588409321164
 30
0.0
 41
60.0
 42
60.0
 43
60.0
 50
270.0
  0
MTEXT
  5
833E
330
832D
100
AcDbEntity
  8
3
 62
     0
100
AcDbMText
 10
3274.647751131337
 20
2563.588409321164
 30
0.0
 40
90.0
 41
0.0
 71
     5
 72
     1
  1
\A1;750
 11
0.0000000000000001
 21
1.0
 31
0.0
 73
     1
 44
1.0
1001
ACAD
1000
MTEXTBEGIN
1070
    73
1070
     1
1070
    44
1040
1.0
1070
    74
1070
     0
1000
MTEXTEND
  0
POINT
  5
833F
330
832D
100
AcDbEntity
  8
DEFPOINTS
 62
     0
100
AcDbPoint
 10
3006.883246267807
 20
2938.588409321162
 30
0.0
  0
POINT
  5
8340
330
832D
100
AcDbEntity
  8
DEFPOINTS
 62
     0
100
AcDbPoint
 10
2892.267263770179
 20
2188.588409321164
 30
0.0
  0
POINT
  5
8341
330
832D
100
AcDbEntity
  8
DEFPOINTS
 62
     0
100
AcDbPoint
 10
3349.647751131338
 20
2188.588409321164
 30
0.0
  0
ENDBLK
  5
832F
330
832D
100
AcDbEntity
  8
0
100
AcDbBlockEnd
  0
ENDSEC
  0
SECTION
  2
ENTITIES
  0
INSERT
  5
7C28
330
8270
100
AcDbEntity
  8
0
100
AcDbBlockReference
  2
YA_N
 10
6.0
 20
5.0
 30
0.0
  0
ARC
  5
7C2A
330
8270
100
AcDbEntity
  8
1
100
AcDbCircle
 10
2341.26726377018
 20
3012.588409321162
 30
0.0
 40
942.0
100
AcDbArc
 50
94.50558452664441
 51
184.5055845266444
  0
ARC
  5
7C2B
330
8270
100
AcDbEntity
  8
1
100
AcDbCircle
 10
2193.267263770179
 20
3012.588409321162
 30
0.0
 40
794.0
100
AcDbArc
 50
185.3476697498386
 51
245.7607085709266
  0
ARC
  5
7C2C
330
8270
100
AcDbEntity
  8
1
100
AcDbCircle
 10
2206.76726377018
 20
2878.088409321162
 30
0.0
 40
659.4999999999998
100
AcDbArc
 50
296.6377560511194
 51
5.263495203066971
  0
LINE
  5
7C2D
330
8270
100
AcDbEntity
  8
1
100
AcDbLine
 10
2864.649051239465
 20
2982.588409321163
 30
0.0
 11
2947.26726377018
 21
2982.588409321163
 31
0.0
  0
LINE
  5
7C2E
330
8270
100
AcDbEntity
  8
1
100
AcDbLine
 10
2947.26726377018
 20
4065.588409321161
 30
0.0
 11
2947.26726377018
 21
2929.588409321162
 31
0.0
  0
LINE
  5
7C2F
330
8270
100
AcDbEntity
  8
1
100
AcDbLine
 10
2947.26726377018
 20
4012.588409321161
 30
0.0
 11
2267.267263770179
 21
3951.677329498586
 31
0.0
  0
LINE
  5
7C30
330
8270
100
AcDbEntity
  8
1
100
AcDbLine
 10
2943.267263770178
 20
4065.588409321161
 30
0.0
 11
2947.26726377018
 21
4065.588409321161
 31
0.0
  0
LINE
  5
7C31
330
8270
100
AcDbEntity
  8
1
100
AcDbLine
 10
2943.267263770181
 20
2929.588409321162
 30
0.0
 11
2947.26726377018
 21
2929.588409321162
 31
0.0
  0
LINE
  5
7C32
330
8270
100
AcDbEntity
  8
1
100
AcDbLine
 10
2897.26726377018
 20
4008.109653451855
 30
0.0
 11
2897.26726377018
 21
2982.588409321163
 31
0.0
  0
LINE
  5
7C33
330
8270
100
AcDbEntity
  8
1
100
AcDbLine
 10
2943.267263770178
 20
4065.588409321161
 30
0.0
 11
2943.267263770181
 21
2929.588409321162
 31
0.0
  0
LINE
  5
7C34
330
8270
100
AcDbEntity
  8
1
100
AcDbLine
 10
842.2672637701799
 20
2288.588409321162
 30
0.0
 11
2892.267263770179
 21
2288.588409321164
 31
0.0
  0
LINE
  5
7C35
330
8270
100
AcDbEntity
  8
1
100
AcDbLine
 10
2892.267263770179
 20
2288.588409321164
 30
0.0
 11
2892.267263770179
 21
2188.588409321164
 31
0.0
  0
LINE
  5
7C36
330
8270
100
AcDbEntity
  8
2
100
AcDbLine
 10
3675.792027154095
 20
2938.588409321163
 30
0.0
 11
5566.868658703398
 21
2938.588409321163
 31
0.0
  0
LINE
  5
7C37
330
8270
100
AcDbEntity
  8
2
100
AcDbLine
 10
4760.792027154097
 20
4243.637280669833
 30
0.0
 11
4760.792027154097
 21
2068.588409321163
 31
0.0
  0
LINE
  5
7C38
330
8270
100
AcDbEntity
  8
1
100
AcDbLine
 10
3933.792027154096
 20
2188.588409321163
 30
0.0
 11
5438.792027154097
 21
2188.588409321163
 31
0.0
1001
ACAD
1000
ASC_BOUNDS
1002
{
1070
    19
1005
0
1005
0
1002
}
  0
LINE
  5
7C39
330
8270
100
AcDbEntity
  8
1
100
AcDbLine
 10
3933.792027154098
 20
2288.588409321163
 30
0.0
 11
5438.792027154097
 21
2288.588409321163
 31
0.0
  0
LINE
  5
7C3A
330
8270
100
AcDbEntity
  8
1
100
AcDbLine
 10
5385.792027154098
 20
4012.588409321162
 30
0.0
 11
5385.792027154098
 21
2938.588409321163
 31
0.0
  0
LINE
  5
7C3B
330
8270
100
AcDbEntity
  8
2
100
AcDbLine
 10
2267.267263770178
 20
4103.504301661604
 30
0.0
 11
2267.267263770178
 21
2068.588409321164
 31
0.0
  0
LINE
  5
7C3C
330
8270
100
AcDbEntity
  8
2
100
AcDbLine
 10
3006.883246267807
 20
2938.588409321162
 30
0.0
 11
1334.752347713971
 21
2938.588409321163
 31
0.0
  0
LINE
  5
7C3D
330
8270
100
AcDbEntity
  8
1
100
AcDbLine
 10
842.2672637701799
 20
2188.588409321164
 30
0.0
 11
2892.267263770179
 21
2188.588409321164
 31
0.0
1001
ACAD
1000
ASC_BOUNDS
1002
{
1070
    19
1005
0
1002
}
  0
INSERT
  5
7C3E
330
8270
100
AcDbEntity
  8
0
100
AcDbBlockReference
  2
YA_N
 10
-1637.209838160516
 20
-1405.432827243363
 30
0.0
 41
25.0
 42
25.0
 43
25.0
  0
ARC
  5
7C40
330
8270
100
AcDbEntity
  8
1
100
AcDbCircle
 10
1117.267263770179
 20
2523.588409321163
 30
0.0
 40
185.0
100
AcDbArc
 50
287.9452509999999
 51
252.054749
  0
LINE
  5
7C41
330
8270
100
AcDbEntity
  8
2
100
AcDbLine
 10
1117.267263770179
 20
2787.404083321163
 30
0.0
 11
1117.267263770178
 21
2068.588409321164
 31
0.0
  0
LINE
  5
7C42
330
8270
100
AcDbEntity
  8
1
100
AcDbLine
 10
1174.267278770179
 20
2347.588409321163
 30
0.0
 11
1060.267263770178
 21
2347.588409321163
 31
0.0
  0
LINE
  5
7C43
330
8270
100
AcDbEntity
  8
1
100
AcDbLine
 10
1279.267278770179
 20
2418.847442321163
 30
0.0
 11
1279.267278770179
 21
2343.588409321163
 31
0.0
  0
LINE
  5
7C47
330
8270
100
AcDbEntity
  8
1
100
AcDbLine
 10
1219.767278770179
 20
2348.736968321163
 30
0.0
 11
1210.260564770179
 21
2363.659576321163
 31
0.0
  0
LINE
  5
7C48
330
8270
100
AcDbEntity
  8
1
100
AcDbLine
 10
1219.767278770179
 20
2360.588409321163
 30
0.0
 11
1219.767278770179
 21
2343.588409321163
 31
0.0
  0
LINE
  5
7C4A
330
8270
100
AcDbEntity
  8
1
100
AcDbLine
 10
1276.267278770179
 20
2363.588409321163
 30
0.0
 11
1222.767278770179
 21
2363.588409321163
 31
0.0
  0
ARC
  5
7C4C
330
8270
100
AcDbEntity
  8
1
100
AcDbCircle
 10
1276.267278770179
 20
2360.588409321163
 30
0.0
 40
3.0
100
AcDbArc
 50
0.0
 51
90.0
  0
LINE
  5
7C4E
330
8270
100
AcDbEntity
  8
1
100
AcDbLine
 10
1228.091192770179
 20
2363.588409321163
 30
0.0
 11
1222.911443770178
 21
2371.719009321163
 31
0.0
  0
ARC
  5
7C4F
330
8270
100
AcDbEntity
  8
1
100
AcDbCircle
 10
1222.767278770179
 20
2360.588409321163
 30
0.0
 40
3.0
100
AcDbArc
 50
90.0
 51
180.0
  0
LINE
  5
7C52
330
8270
100
AcDbEntity
  8
1
100
AcDbLine
 10
1279.267278770179
 20
2418.847442321163
 30
0.0
 11
1272.883306770179
 21
2423.545196321163
 31
0.0
  0
LINE
  5
7C55
330
8270
100
AcDbEntity
  8
1
100
AcDbLine
 10
955.2672637701787
 20
2418.847442321163
 30
0.0
 11
955.2672637701787
 21
2343.588409321163
 31
0.0
  0
LINE
  5
7C56
330
8270
100
AcDbEntity
  8
1
100
AcDbLine
 10
958.2672637701788
 20
2363.588409321163
 30
0.0
 11
1011.767263770178
 21
2363.588409321163
 31
0.0
  0
LINE
  5
7C57
330
8270
100
AcDbEntity
  8
1
100
AcDbLine
 10
1014.767263770179
 20
2348.736968321163
 30
0.0
 11
1024.273977770179
 21
2363.659576321163
 31
0.0
  0
LINE
  5
7C5A
330
8270
100
AcDbEntity
  8
1
100
AcDbLine
 10
1014.767263770179
 20
2343.588409321163
 30
0.0
 11
1014.767263770179
 21
2360.588409321163
 31
0.0
  0
LINE
  5
7C5D
330
8270
100
AcDbEntity
  8
1
100
AcDbLine
 10
1006.443349770179
 20
2363.588409321163
 30
0.0
 11
1011.623098770179
 21
2371.719009321163
 31
0.0
  0
ARC
  5
7C5E
330
8270
100
AcDbEntity
  8
1
100
AcDbCircle
 10
1011.767263770178
 20
2360.588409321163
 30
0.0
 40
3.0
100
AcDbArc
 50
0.0
 51
90.0
  0
ARC
  5
7C61
330
8270
100
AcDbEntity
  8
1
100
AcDbCircle
 10
958.2672637701788
 20
2360.588409321163
 30
0.0
 40
3.0
100
AcDbArc
 50
90.0
 51
180.0
  0
LINE
  5
7C62
330
8270
100
AcDbEntity
  8
1
100
AcDbLine
 10
955.2672637701787
 20
2418.847442321163
 30
0.0
 11
961.6512357701795
 21
2423.545196321163
 31
0.0
  0
LINE
  5
7C63
330
8270
100
AcDbEntity
  8
2
100
AcDbLine
 10
866.8408496446353
 20
2523.588409321163
 30
0.0
 11
1333.346796416135
 21
2523.588409321163
 31
0.0
  0
LINE
  5
7C64
330
8270
100
AcDbEntity
  8
1
100
AcDbLine
 10
906.8512507444138
 20
2343.588409321162
 30
0.0
 11
1047.267263770178
 21
2343.588409321162
 31
0.0
  0
LINE
  5
7C65
330
8270
100
AcDbEntity
  8
1
100
AcDbLine
 10
1342.267263770178
 20
2288.588409321162
 30
0.0
 11
1327.482514983845
 21
2343.588409321162
 31
0.0
  0
LINE
  5
7C66
330
8270
100
AcDbEntity
  8
1
100
AcDbLine
 10
892.267263770179
 20
2288.588409321162
 30
0.0
 11
906.8512507444138
 21
2343.588409321162
 31
0.0
  0
LINE
  5
7C68
330
8270
100
AcDbEntity
  8
1
100
AcDbLine
 10
1047.267263770178
 20
2333.588409321162
 30
0.0
 11
1187.267263770179
 21
2333.588409321162
 31
0.0
  0
LINE
  5
7C69
330
8270
100
AcDbEntity
  8
1
100
AcDbLine
 10
1047.267263770178
 20
2343.588409321162
 30
0.0
 11
1047.267263770178
 21
2333.588409321162
 31
0.0
  0
LINE
  5
7C6A
330
8270
100
AcDbEntity
  8
1
100
AcDbLine
 10
1187.26726377018
 20
2343.588409321162
 30
0.0
 11
1187.26726377018
 21
2333.588409321162
 31
0.0
  0
LINE
  5
7C6B
330
8270
100
AcDbEntity
  8
1
100
AcDbLine
 10
1187.267263770179
 20
2343.588409321162
 30
0.0
 11
1327.482514983845
 21
2343.588409321162
 31
0.0
  0
CIRCLE
  5
7C6E
330
8270
100
AcDbEntity
  8
1
100
AcDbCircle
 10
2267.267263770178
 20
2938.588409321162
 30
0.0
 40
165.0999999999999
  0
CIRCLE
  5
7C6F
330
8270
100
AcDbEntity
  8
1
100
AcDbCircle
 10
1117.267263770179
 20
2523.588409321163
 30
0.0
 40
114.3
  0
LINE
  5
7C70
330
8270
100
AcDbEntity
  8
1
100
AcDbLine
 10
842.2672637701799
 20
2168.588409321164
 30
0.0
 11
2892.267263770179
 21
2168.588409321164
 31
0.0
1001
ACAD
1000
ASC_BOUNDS
1002
{
1070
    19
1005
0
1002
}
  0
LINE
  5
7C71
330
8270
100
AcDbEntity
  8
1
100
AcDbLine
 10
842.2672637701799
 20
2068.588409321164
 30
0.0
 11
2892.267263770179
 21
2068.588409321164
 31
0.0
  0
LINE
  5
7C72
330
8270
100
AcDbEntity
  8
1
100
AcDbLine
 10
2892.267263770179
 20
2168.588409321164
 30
0.0
 11
2892.267263770179
 21
2068.588409321164
 31
0.0
  0
POINT
  5
7C73
330
8270
100
AcDbEntity
  8
1
100
AcDbPoint
 10
2892.267263770179
 20
2168.588409321164
 30
0.0
  0
POINT
  5
7C74
330
8270
100
AcDbEntity
  8
1
100
AcDbPoint
 10
2892.267263770179
 20
2168.588409321164
 30
0.0
  0
LINE
  5
7C75
330
8270
100
AcDbEntity
  8
1
100
AcDbLine
 10
3933.792027154096
 20
2168.588409321163
 30
0.0
 11
5438.792027154097
 21
2168.588409321163
 31
0.0
1001
ACAD
1000
ASC_BOUNDS
1002
{
1070
    19
1005
0
1005
0
1002
}
  0
POINT
  5
7C76
330
8270
100
AcDbEntity
  8
1
100
AcDbPoint
 10
2892.267263770179
 20
2168.588409321164
 30
0.0
  0
POINT
  5
7C77
330
8270
100
AcDbEntity
  8
1
100
AcDbPoint
 10
2892.267263770179
 20
2168.588409321164
 30
0.0
  0
LINE
  5
7C78
330
8270
100
AcDbEntity
  8
1
100
AcDbLine
 10
4760.792027154097
 20
4012.588409321162
 30
0.0
 11
5385.792027154098
 21
4012.588409321162
 31
0.0
  0
INSERT
  5
7C79
330
8270
100
AcDbEntity
  8
0
100
AcDbBlockReference
  2
YA_N
 10
-1144.893563079054
 20
-989.0222135336152
 30
0.0
 41
25.0
 42
25.0
 43
25.0
  0
DIMENSION
  5
7C7B
330
8270
100
AcDbEntity
  8
3
100
AcDbDimension
  2
*D4
 10
3148.427360764323
 20
2982.588409321163
 30
0.0
 11
3088.427360764323
 21
3497.588409321162
 31
0.0
 12
779.6421487933403
 22
2310.528106485417
 32
0.0
 71
     5
 42
-1.0
  3
Standard
100
AcDbAlignedDimension
 13
2947.26726377018
 23
4012.588409321161
 33
0.0
 14
2947.26726377018
 24
2982.588409321163
 34
0.0
 50
270.0
100
AcDbRotatedDimension
1001
ACAD
1000
DSTYLE
1002
{
1070
    40
1040
30.0
1002
}
  0
DIMENSION
  5
7C7C
330
8270
100
AcDbEntity
  8
3
100
AcDbDimension
  2
*D5
 10
3349.229406223476
 20
2938.588409321162
 30
0.0
 11
3289.229406223476
 21
3475.588409321162
 31
0.0
 12
779.6421487933403
 22
2310.528106485417
 32
0.0
 71
     5
 42
-1.0
  3
Standard
100
AcDbAlignedDimension
 13
2947.26726377018
 23
4012.588409321161
 33
0.0
 14
3006.883246267807
 24
2938.588409321162
 34
0.0
 50
270.0
100
AcDbRotatedDimension
1001
ACAD
1000
DSTYLE
1002
{
1070
    40
1040
30.0
1002
}
  0
POINT
  5
7C7E
330
8270
100
AcDbEntity
  8
1
100
AcDbPoint
 10
2892.267263770179
 20
2168.588409321164
 30
0.0
  0
POINT
  5
7C7F
330
8270
100
AcDbEntity
  8
1
100
AcDbPoint
 10
2892.267263770179
 20
2168.588409321164
 30
0.0
  0
DIMENSION
  5
7C80
330
8270
100
AcDbEntity
  8
3
100
AcDbDimension
  2
*D7
 10
2267.267263770178
 20
4266.363082664137
 30
0.0
 11
2607.267263770179
 21
4326.363082664137
 31
0.0
 12
779.6421487933403
 22
2310.528106485417
 32
0.0
 71
     5
 42
-1.0
  3
Standard
100
AcDbAlignedDimension
 13
2947.26726377018
 23
4065.588409321161
 33
0.0
 14
2267.267263770178
 24
4103.504301661604
 34
0.0
100
AcDbRotatedDimension
1001
ACAD
1000
DSTYLE
1002
{
1070
    40
1040
30.0
1002
}
  0
DIMENSION
  5
7C81
330
8270
100
AcDbEntity
  8
3
100
AcDbDimension
  2
*D8
 10
1402.72314735415
 20
4265.905382729221
 30
0.0
 11
1834.995205562164
 21
4325.905382729223
 31
0.0
 12
779.6421487933403
 22
2310.528106485417
 32
0.0
  1
868
 71
     5
 42
-1.0
  3
Standard
100
AcDbAlignedDimension
 13
2267.267263770178
 23
4103.504301661604
 33
0.0
 14
1402.72314735415
 24
2938.588409321161
 34
0.0
100
AcDbRotatedDimension
1001
ACAD
1000
DSTYLE
1002
{
1070
    40
1040
30.0
1002
}
  0
LINE
  5
7C82
330
8270
100
AcDbEntity
  8
1
100
AcDbLine
 10
5385.792027154098
 20
2938.588409321163
 30
0.0
 11
5385.792027154098
 21
2288.588409321163
 31
0.0
  0
LINE
  5
7C83
330
8270
100
AcDbEntity
  8
1
100
AcDbLine
 10
4135.792027154096
 20
4012.588409321163
 30
0.0
 11
4135.792027154096
 21
2938.588409321163
 31
0.0
  0
LINE
  5
7C84
330
8270
100
AcDbEntity
  8
1
100
AcDbLine
 10
4760.792027154097
 20
4012.588409321162
 30
0.0
 11
4135.792027154097
 21
4012.588409321162
 31
0.0
  0
LINE
  5
7C85
330
8270
100
AcDbEntity
  8
1
100
AcDbLine
 10
4135.792027154096
 20
2938.588409321163
 30
0.0
 11
4135.792027154096
 21
2288.588409321163
 31
0.0
  0
LINE
  5
7C86
330
8270
100
AcDbEntity
  8
1
100
AcDbLine
 10
5540.792027154095
 20
2902.788409321163
 30
0.0
 11
5540.792027154095
 21
2772.788409321163
 31
0.0
  0
LINE
  5
7C87
330
8270
100
AcDbEntity
  8
1
100
AcDbLine
 10
5403.792027154098
 20
2912.788409321163
 30
0.0
 11
5403.792027154096
 21
2762.788409321163
 31
0.0
  0
LINE
  5
7C88
330
8270
100
AcDbEntity
  8
1
100
AcDbLine
 10
5403.792027154096
 20
2912.788409321163
 30
0.0
 11
5453.092027154097
 21
2912.788409321163
 31
0.0
  0
LINE
  5
7C89
330
8270
100
AcDbEntity
  8
1
100
AcDbLine
 10
5403.792027154096
 20
2762.788409321163
 30
0.0
 11
5453.092027154097
 21
2762.788409321163
 31
0.0
  0
ARC
  5
7C8A
330
8270
100
AcDbEntity
  8
1
100
AcDbCircle
 10
5530.792027154098
 20
2902.788409321163
 30
0.0
 40
10.0
100
AcDbArc
 50
0.0000000000006514
 51
90.0
  0
ARC
  5
7C8B
330
8270
100
AcDbEntity
  8
1
100
AcDbCircle
 10
5530.792027154098
 20
2772.788409321163
 30
0.0
 40
10.0
100
AcDbArc
 50
270.0
 51
0.0000000000006514
  0
LINE
  5
7C8C
330
8270
100
AcDbEntity
  8
1
100
AcDbLine
 10
5453.092027154096
 20
2912.788409321163
 30
0.0
 11
5530.792027154095
 21
2912.788409321163
 31
0.0
  0
LINE
  5
7C8D
330
8270
100
AcDbEntity
  8
1
100
AcDbLine
 10
5453.092027154097
 20
2762.788409321163
 30
0.0
 11
5530.792027154098
 21
2762.788409321163
 31
0.0
  0
LINE
  5
7C8E
330
8270
100
AcDbEntity
  8
1
100
AcDbLine
 10
3837.792027154097
 20
3103.688409321163
 30
0.0
 11
3947.792027154097
 21
3103.688409321163
 31
0.0
  0
LINE
  5
7C8F
330
8270
100
AcDbEntity
  8
1
100
AcDbLine
 10
3837.792027154097
 20
2773.488409321163
 30
0.0
 11
3947.792027154097
 21
2773.488409321163
 31
0.0
  0
LINE
  5
7C90
330
8270
100
AcDbEntity
  8
1
100
AcDbLine
 10
3837.792027154097
 20
2637.888409321163
 30
0.0
 11
3947.792027154097
 21
2637.888409321163
 31
0.0
  0
LINE
  5
7C91
330
8270
100
AcDbEntity
  8
1
100
AcDbLine
 10
3837.792027154097
 20
2409.288409321163
 30
0.0
 11
3947.792027154097
 21
2409.288409321163
 31
0.0
  0
LINE
  5
7C92
330
8270
100
AcDbEntity
  8
1
100
AcDbLine
 10
3837.792027154097
 20
3103.688409321163
 30
0.0
 11
3837.792027154097
 21
2409.288409321163
 31
0.0
  0
LINE
  5
7C93
330
8270
100
AcDbEntity
  8
1
100
AcDbLine
 10
3947.792027154097
 20
3103.688409321163
 30
0.0
 11
3947.792027154097
 21
2409.288409321163
 31
0.0
  0
LINE
  5
7C94
330
8270
100
AcDbEntity
  8
1
100
AcDbLine
 10
3700.792027154091
 20
3218.588409321163
 30
0.0
 11
3700.792027154101
 21
2303.588409321163
 31
0.0
  0
LINE
  5
7C95
330
8270
100
AcDbEntity
  8
1
100
AcDbLine
 10
3700.792027154091
 20
3218.588409321163
 30
0.0
 11
3993.292027154092
 21
3218.588409321163
 31
0.0
  0
LINE
  5
7C96
330
8270
100
AcDbEntity
  8
1
100
AcDbLine
 10
3700.7920271541
 20
2303.588409321163
 30
0.0
 11
3993.292027154101
 21
2303.588409321163
 31
0.0
  0
LINE
  5
7C97
330
8270
100
AcDbEntity
  8
1
100
AcDbLine
 10
3993.292027154092
 20
3218.588409321166
 30
0.0
 11
3993.292027154092
 21
3198.588409321163
 31
0.0
  0
LINE
  5
7C98
330
8270
100
AcDbEntity
  8
1
100
AcDbLine
 10
3993.292027154101
 20
2323.588409321163
 30
0.0
 11
3993.292027154101
 21
2303.588409321166
 31
0.0
  0
POINT
  5
7C99
330
8270
100
AcDbEntity
  8
1
100
AcDbPoint
 10
5540.7920271541
 20
2902.788409321163
 30
0.0
  0
LINE
  5
7C9A
330
8270
100
AcDbEntity
  8
2
100
AcDbLine
 10
2267.267263770179
 20
6444.156855695948
 30
0.0
 11
2267.267263770179
 21
4756.169048125389
 31
0.0
  0
LINE
  5
7C9B
330
8270
100
AcDbEntity
  8
2
100
AcDbLine
 10
1781.6126981179
 20
5850.241293846765
 30
0.0
 11
2746.192454152766
 21
5850.241293846764
 31
0.0
  0
INSERT
  5
7C9C
330
8270
100
AcDbEntity
  8
0
100
AcDbBlockReference
  2
YA_N
 10
3439.312525519781
 20
-2261.498311600258
 30
0.0
  0
LINE
  5
7C9E
330
8270
100
AcDbEntity
  8
1
100
AcDbLine
 10
3933.792027154098
 20
2068.588409321163
 30
0.0
 11
5438.792027154097
 21
2068.588409321163
 31
0.0
1001
ACAD
1000
ASC_BOUNDS
1002
{
1070
    19
1002
}
  0
LINE
  5
7C9F
330
8270
100
AcDbEntity
  8
1
100
AcDbLine
 10
5438.792027154097
 20
2288.588409321163
 30
0.0
 11
5438.792027154097
 21
2188.588409321163
 31
0.0
  0
LINE
  5
7CA0
330
8270
100
AcDbEntity
  8
1
100
AcDbLine
 10
3933.792027154096
 20
2288.588409321163
 30
0.0
 11
3933.792027154096
 21
2188.588409321163
 31
0.0
  0
LINE
  5
7CA1
330
8270
100
AcDbEntity
  8
1
100
AcDbLine
 10
4068.492027154097
 20
2906.388409321163
 30
0.0
 11
4002.792027154097
 21
2906.388409321163
 31
0.0
  0
LINE
  5
7CA2
330
8270
100
AcDbEntity
  8
1
100
AcDbLine
 10
4068.492027154095
 20
2756.388409321163
 30
0.0
 11
4002.792027154095
 21
2756.388409321163
 31
0.0
  0
LINE
  5
7CA3
330
8270
100
AcDbEntity
  8
1
100
AcDbLine
 10
4117.792027154096
 20
2906.388409321163
 30
0.0
 11
4117.792027154097
 21
2756.388409321163
 31
0.0
  0
LINE
  5
7CA4
330
8270
100
AcDbEntity
  8
1
100
AcDbLine
 10
4117.792027154097
 20
2756.388409321163
 30
0.0
 11
4068.492027154095
 21
2756.388409321163
 31
0.0
  0
LINE
  5
7CA5
330
8270
100
AcDbEntity
  8
1
100
AcDbLine
 10
4117.792027154097
 20
2906.388409321163
 30
0.0
 11
4068.492027154095
 21
2906.388409321163
 31
0.0
  0
LINE
  5
7CA6
330
8270
100
AcDbEntity
  8
1
100
AcDbLine
 10
3992.792027154098
 20
2896.388409321163
 30
0.0
 11
3992.792027154098
 21
2766.388409321163
 31
0.0
  0
ARC
  5
7CA7
330
8270
100
AcDbEntity
  8
1
100
AcDbCircle
 10
4002.792027154095
 20
2766.388409321163
 30
0.0
 40
10.0
100
AcDbArc
 50
179.9999999999992
 51
270.0
  0
ARC
  5
7CA8
330
8270
100
AcDbEntity
  8
1
100
AcDbCircle
 10
4002.792027154094
 20
2896.388409321163
 30
0.0
 40
10.0
100
AcDbArc
 50
90.0
 51
179.9999999999992
  0
POINT
  5
7CA9
330
8270
100
AcDbEntity
  8
1
100
AcDbPoint
 10
3992.792027154094
 20
2896.388409321163
 30
0.0
  0
LINE
  5
7CAA
330
8270
100
AcDbEntity
  8
1
100
AcDbLine
 10
3957.792027154098
 20
2971.088409321162
 30
0.0
 11
4135.792027154096
 21
2971.088409321163
 31
0.0
  0
LINE
  5
7CAB
330
8270
100
AcDbEntity
  8
1
100
AcDbLine
 10
3957.792027154098
 20
2906.088409321163
 30
0.0
 11
4000.360977997865
 21
2906.088409321163
 31
0.0
  0
LINE
  5
7CAC
330
8270
100
AcDbEntity
  8
1
100
AcDbLine
 10
3957.792027154098
 20
2971.088409321162
 30
0.0
 11
3957.792027154098
 21
2906.088409321163
 31
0.0
  0
LINE
  5
7CAD
330
8270
100
AcDbEntity
  8
1
100
AcDbLine
 10
3947.792027154097
 20
2968.588409321163
 30
0.0
 11
3957.792027154098
 21
2968.588409321163
 31
0.0
  0
LINE
  5
7CAE
330
8270
100
AcDbEntity
  8
1
100
AcDbLine
 10
3947.792027154097
 20
2908.588409321163
 30
0.0
 11
3957.792027154098
 21
2908.588409321163
 31
0.0
  0
LINE
  5
7CB2
330
8270
100
AcDbEntity
  8
1
100
AcDbLine
 10
842.2672637701799
 20
2288.588409321164
 30
0.0
 11
842.2672637701799
 21
2188.588409321164
 31
0.0
  0
LINE
  5
7CB3
330
8270
100
AcDbEntity
  8
1
100
AcDbLine
 10
842.2672637701799
 20
2168.588409321164
 30
0.0
 11
842.2672637701799
 21
2068.588409321164
 31
0.0
  0
POINT
  5
7CB4
330
8270
100
AcDbEntity
  8
1
100
AcDbPoint
 10
2892.267263770179
 20
2168.588409321164
 30
0.0
  0
POINT
  5
7CB5
330
8270
100
AcDbEntity
  8
1
100
AcDbPoint
 10
2892.267263770179
 20
2188.588409321164
 30
0.0
  0
POINT
  5
7CB7
330
8270
100
AcDbEntity
  8
1
100
AcDbPoint
 10
2892.267263770179
 20
2168.588409321164
 30
0.0
  0
POINT
  5
7CB8
330
8270
100
AcDbEntity
  8
1
100
AcDbPoint
 10
3348.544987632922
 20
2068.588409321164
 30
0.0
  0
LINE
  5
7CBC
330
8270
100
AcDbEntity
  8
1
100
AcDbLine
 10
842.2672637701799
 20
5023.241293846766
 30
0.0
 11
2892.267263770179
 21
5023.241293846764
 31
0.0
  0
LINE
  5
7CBD
330
8270
100
AcDbEntity
  8
1
100
AcDbLine
 10
1642.267263770179
 20
6528.241293846765
 30
0.0
 11
2892.267263770179
 21
6528.241293846765
 31
0.0
  0
LINE
  5
7CBE
330
8270
100
AcDbEntity
  8
1
100
AcDbLine
 10
2892.267263770179
 20
6528.241293846765
 30
0.0
 11
2892.267263770179
 21
5023.241293846764
 31
0.0
  0
LINE
  5
7CBF
330
8270
100
AcDbEntity
  8
1
100
AcDbLine
 10
842.2672637701799
 20
5873.241293846768
 30
0.0
 11
842.2672637701799
 21
5023.241293846766
 31
0.0
  0
LINE
  5
7CC0
330
8270
100
AcDbEntity
  8
1
100
AcDbLine
 10
1642.267263770179
 20
6528.241293846765
 30
0.0
 11
1642.267263770179
 21
6475.241293846766
 31
0.0
  0
LINE
  5
7CC1
330
8270
100
AcDbEntity
  8
1
100
AcDbLine
 10
842.2672637701799
 20
5873.241293846766
 30
0.0
 11
1399.267263770179
 21
5873.241293846766
 31
0.0
  0
LINE
  5
7CC2
330
8270
100
AcDbEntity
  8
2
100
AcDbLine
 10
1117.267263770179
 20
5767.276657535138
 30
0.0
 11
1117.267263770179
 21
4758.543412756458
 31
0.0
  0
DIMENSION
  5
7CC3
330
8270
100
AcDbEntity
  8
3
100
AcDbDimension
  2
*D9
 10
2892.267263770179
 20
6749.545231074484
 30
0.0
 11
2267.267263770179
 21
6749.545231074484
 31
0.0
 12
779.6421487933403
 22
2152.209694485525
 32
0.0
 70
   128
 71
     5
 42
-1.0
  3
Standard
100
AcDbAlignedDimension
 13
1642.267263770179
 23
6528.241293846765
 33
0.0
 14
2892.267263770179
 24
6528.241293846765
 34
0.0
100
AcDbRotatedDimension
1001
ACAD
1000
DSTYLE
1002
{
1070
    40
1040
30.0
1002
}
  0
DIMENSION
  5
7CC5
330
8270
100
AcDbEntity
  8
3
100
AcDbDimension
  2
*D11
 10
620.2191962695687
 20
5023.241293846766
 30
0.0
 11
620.2191962695687
 21
5448.241293846766
 31
0.0
 12
779.6421487933403
 22
2152.209694485525
 32
0.0
 70
   128
 71
     5
 42
-1.0
  3
Standard
100
AcDbAlignedDimension
 13
842.2672637701799
 23
5873.241293846768
 33
0.0
 14
842.2672637701799
 24
5023.241293846766
 34
0.0
 50
90.0
100
AcDbRotatedDimension
1001
ACAD
1000
DSTYLE
1002
{
1070
    40
1040
30.0
1002
}
  0
DIMENSION
  5
7CC6
330
8270
100
AcDbEntity
  8
3
100
AcDbDimension
  2
*D12
 10
3290.911401779114
 20
5023.241293846764
 30
0.0
 11
3230.911401779114
 21
5775.741293846764
 31
0.0
 12
779.6421487933403
 22
2152.209694485525
 32
0.0
 71
     5
 42
-1.0
  3
Standard
100
AcDbAlignedDimension
 13
2892.267263770179
 23
6528.241293846765
 33
0.0
 14
2892.267263770179
 24
5023.241293846764
 34
0.0
 50
90.0
100
AcDbRotatedDimension
1001
ACAD
1000
DSTYLE
1002
{
1070
    40
1040
30.0
1002
}
  0
DIMENSION
  5
7CCA
330
8270
100
AcDbEntity
  8
3
100
AcDbDimension
  2
*D16
 10
5385.792027154098
 20
4266.583160743091
 30
0.0
 11
4760.792027154097
 21
4326.583160743092
 31
0.0
 12
-123.312593919396
 22
2310.528106485417
 32
0.0
 71
     5
 42
-1.0
  3
Standard
100
AcDbAlignedDimension
 13
4135.792027154096
 23
3986.9027269748
 33
0.0
 14
5385.792027154098
 24
3983.624174779342
 34
0.0
100
AcDbRotatedDimension
1001
ACAD
1000
DSTYLE
1002
{
1070
    40
1040
30.0
1002
}
  0
DIMENSION
  5
7CCB
330
8270
100
AcDbEntity
  8
3
100
AcDbDimension
  2
*D17
 10
5730.160247525407
 20
3468.588409321163
 30
0.0
 11
5670.160247525408
 21
2938.588409321163
 31
0.0
 12
-123.312593919396
 22
2310.528106485417
 32
0.0
  1
\U+03C6<>
 71
     5
 42
-1.0
  3
Standard
100
AcDbAlignedDimension
 13
5391.292027154097
 23
2408.588409321164
 33
0.0
 14
5391.292027154097
 24
3468.588409321163
 34
0.0
 50
90.0
100
AcDbRotatedDimension
1001
ACAD
1000
DSTYLE
1002
{
1070
    40
1040
30.0
1002
}
  0
LINE
  5
7CCC
330
8270
100
AcDbEntity
  8
2
100
AcDbLine
 10
3671.268115984322
 20
2523.588409321163
 30
0.0
 11
4276.162505125602
 21
2523.588409321163
 31
0.0
  0
ARC
  5
7CCD
330
8270
100
AcDbEntity
  8
1
100
AcDbCircle
 10
2267.267263770178
 20
2938.588409321162
 30
0.0
 40
280.0
100
AcDbArc
 50
287.0299834154885
 51
112.6559573314276
  0
ARC
  5
7CCE
330
8270
100
AcDbEntity
  8
1
100
AcDbCircle
 10
1117.267263770179
 20
2523.588409321163
 30
0.0
 40
220.0
100
AcDbArc
 50
112.6559573314276
 51
287.0299834154885
  0
LINE
  5
7CCF
330
8270
100
AcDbEntity
  8
1
100
AcDbLine
 10
2159.412164539489
 20
3196.982057791744
 30
0.0
 11
1032.523971517495
 21
2726.611990262334
 31
0.0
  0
LINE
  5
7CD0
330
8270
100
AcDbEntity
  8
1
100
AcDbLine
 10
2349.271453970776
 20
2670.865954548419
 30
0.0
 11
1181.69912749922
 21
2313.235051999722
 31
0.0
  0
LINE
  5
7CD1
330
8270
100
AcDbEntity
  8
1
100
AcDbLine
 10
2204.820760514075
 20
3091.423105091087
 30
0.0
 11
1074.035069208261
 21
2629.397044854188
 31
0.0
  0
LINE
  5
7CD2
330
8270
100
AcDbEntity
  8
1
100
AcDbLine
 10
2316.808193091276
 20
2781.096484696432
 30
0.0
 11
1151.564830223247
 21
2414.55553842712
 31
0.0
  0
INSERT
  5
7CD3
330
8270
100
AcDbEntity
  8
0
100
AcDbBlockReference
  2
YA_N
 10
742.6405419924267
 20
-7350.772430041375
 30
0.0
  0
INSERT
  5
7CD5
330
8270
100
AcDbEntity
  8
0
100
AcDbBlockReference
  2
YA_N
 10
2.995684825677016
 20
-7626.802696743742
 30
0.0
 41
20.0
 42
20.0
 43
20.0
  0
INSERT
  5
7CD7
330
8270
100
AcDbEntity
  8
0
100
AcDbBlockReference
  2
YA_N
 10
699.9059132844049
 20
-7054.118742438055
 30
0.0
 41
20.0
 42
20.0
 43
20.0
  0
INSERT
  5
7CD9
330
8270
100
AcDbEntity
  8
0
100
AcDbBlockReference
  2
YA_N
 10
814.1254386385663
 20
-7130.460452277301
 30
0.0
 41
20.0
 42
20.0
 43
20.0
  0
ARC
  5
7CDB
330
8270
100
AcDbEntity
  8
1
100
AcDbCircle
 10
2267.267263770178
 20
2938.588409321162
 30
0.0
 40
599.0
100
AcDbArc
 50
359.9999999999998
 51
4.212499077914481
  0
CIRCLE
  5
7CDC
330
8270
100
AcDbEntity
  8
1
100
AcDbCircle
 10
2267.267263770178
 20
2938.588409321162
 30
0.0
 40
530.0
  0
CIRCLE
  5
7CDD
330
8270
100
AcDbEntity
  8
1
100
AcDbCircle
 10
2267.267263770178
 20
2938.588409321162
 30
0.0
 40
580.0
  0
LINE
  5
7CDE
330
8270
100
AcDbEntity
  8
1
100
AcDbLine
 10
5438.792027154097
 20
2168.588409321163
 30
0.0
 11
5438.792027154097
 21
2068.588409321163
 31
0.0
  0
LINE
  5
7CDF
330
8270
100
AcDbEntity
  8
1
100
AcDbLine
 10
3933.792027154096
 20
2168.588409321163
 30
0.0
 11
3933.792027154098
 21
2068.588409321163
 31
0.0
  0
LINE
  5
7CE3
330
8270
100
AcDbEntity
  8
1
100
AcDbLine
 10
897.2672637701789
 20
4790.241293846766
 30
0.0
 11
2547.267263770178
 21
4790.241293846764
 31
0.0
  0
LINE
  5
7CE4
330
8270
100
AcDbEntity
  8
1
100
AcDbLine
 10
897.2672637701789
 20
5110.241293846765
 30
0.0
 11
2547.267263770178
 21
5110.241293846764
 31
0.0
  0
LINE
  5
7CE5
330
8270
100
AcDbEntity
  8
1
100
AcDbLine
 10
2547.267263770178
 20
4790.241293846764
 30
0.0
 11
2547.267263770178
 21
5110.241293846764
 31
0.0
  0
LINE
  5
7CE6
330
8270
100
AcDbEntity
  8
1
100
AcDbLine
 10
897.2672637701789
 20
4790.241293846766
 30
0.0
 11
897.2672637701789
 21
5110.241293846765
 31
0.0
  0
LINE
  5
7CE7
330
8270
100
AcDbEntity
  8
1
100
AcDbLine
 10
1002.967263770178
 20
4955.241293846766
 30
0.0
 11
1002.967263770178
 21
5065.241293846766
 31
0.0
  0
LINE
  5
7CE8
330
8270
100
AcDbEntity
  8
1
100
AcDbLine
 10
1231.567263770179
 20
4955.241293846764
 30
0.0
 11
1231.567263770179
 21
5065.241293846765
 31
0.0
  0
LINE
  5
7CE9
330
8270
100
AcDbEntity
  8
1
100
AcDbLine
 10
2432.367263770178
 20
4955.241293846764
 30
0.0
 11
2432.367263770178
 21
5065.241293846764
 31
0.0
  0
LINE
  5
7CEA
330
8270
100
AcDbEntity
  8
1
100
AcDbLine
 10
2102.167263770177
 20
4955.241293846764
 30
0.0
 11
2102.167263770177
 21
5065.241293846764
 31
0.0
  0
LINE
  5
7CEB
330
8270
100
AcDbEntity
  8
1
100
AcDbLine
 10
1002.967263770178
 20
5065.241293846766
 30
0.0
 11
1231.567263770179
 21
5065.241293846766
 31
0.0
  0
LINE
  5
7CEC
330
8270
100
AcDbEntity
  8
1
100
AcDbLine
 10
1002.967263770178
 20
4955.241293846766
 30
0.0
 11
1231.567263770179
 21
4955.241293846766
 31
0.0
  0
LINE
  5
7CED
330
8270
100
AcDbEntity
  8
1
100
AcDbLine
 10
2102.167263770177
 20
4955.241293846764
 30
0.0
 11
2432.367263770178
 21
4955.241293846764
 31
0.0
  0
LINE
  5
7CEE
330
8270
100
AcDbEntity
  8
1
100
AcDbLine
 10
2102.167263770177
 20
5065.241293846764
 30
0.0
 11
2432.367263770178
 21
5065.241293846764
 31
0.0
  0
LINE
  5
7CEF
330
8270
100
AcDbEntity
  8
1
100
AcDbLine
 10
1299.767263770179
 20
5631.741293846768
 30
0.0
 11
1299.767263770179
 21
5070.241293846766
 31
0.0
  0
LINE
  5
7CF0
330
8270
100
AcDbEntity
  8
1
100
AcDbLine
 10
934.7672637701789
 20
5631.741293846768
 30
0.0
 11
934.7672637701789
 21
5070.241293846766
 31
0.0
  0
LINE
  5
7CF1
330
8270
100
AcDbEntity
  8
1
100
AcDbLine
 10
934.7672637701789
 20
5631.741293846766
 30
0.0
 11
1299.767263770179
 21
5631.741293846766
 31
0.0
  0
LINE
  5
7CF2
330
8270
100
AcDbEntity
  8
1
100
AcDbLine
 10
934.7672637701789
 20
5070.241293846766
 30
0.0
 11
1299.767263770179
 21
5070.241293846766
 31
0.0
  0
LINE
  5
7CF3
330
8270
100
AcDbEntity
  8
1
100
AcDbLine
 10
1141.267263770178
 20
5070.241293846766
 30
0.0
 11
1141.267263770178
 21
5065.241293846766
 31
0.0
  0
LINE
  5
7CF4
330
8270
100
AcDbEntity
  8
1
100
AcDbLine
 10
1093.267263770179
 20
5070.241293846766
 30
0.0
 11
1093.267263770179
 21
5065.241293846766
 31
0.0
  0
LINE
  5
7CF5
330
8270
100
AcDbEntity
  8
1
100
AcDbLine
 10
4135.792027154096
 20
2706.088409321164
 30
0.0
 11
3952.792027154099
 21
2706.088409321164
 31
0.0
  0
LINE
  5
7CF6
330
8270
100
AcDbEntity
  8
1
100
AcDbLine
 10
4135.792027154096
 20
2341.088409321164
 30
0.0
 11
3952.792027154099
 21
2341.088409321164
 31
0.0
  0
LINE
  5
7CF7
330
8270
100
AcDbEntity
  8
1
100
AcDbLine
 10
3952.792027154098
 20
2706.088409321164
 30
0.0
 11
3952.792027154098
 21
2341.088409321164
 31
0.0
  0
LINE
  5
7CF8
330
8270
100
AcDbEntity
  8
1
100
AcDbLine
 10
3952.792027154099
 20
2547.588409321164
 30
0.0
 11
3947.792027154097
 21
2547.588409321164
 31
0.0
  0
LINE
  5
7CF9
330
8270
100
AcDbEntity
  8
1
100
AcDbLine
 10
3952.792027154099
 20
2499.588409321164
 30
0.0
 11
3947.792027154097
 21
2499.588409321164
 31
0.0
  0
DIMENSION
  5
7CFA
330
8270
100
AcDbEntity
  8
3
100
AcDbDimension
  2
*D18
 10
842.2672637701799
 20
4445.749586040043
 30
0.0
 11
1894.767263770179
 21
4505.749586040042
 31
0.0
 12
779.6421487933403
 22
2310.528106485417
 32
0.0
 71
     5
 42
-1.0
  3
Standard
100
AcDbAlignedDimension
 13
2947.26726377018
 23
4065.588409321161
 33
0.0
 14
842.2672637701799
 24
2288.588409321162
 34
0.0
100
AcDbRotatedDimension
1001
ACAD
1000
DSTYLE
1002
{
1070
    40
1040
30.0
1002
}
  0
LINE
  5
7CFB
330
8270
100
AcDbEntity
  8
1
100
AcDbLine
 10
2947.26726377018
 20
6525.241293846763
 30
0.0
 11
2947.26726377018
 21
5175.241293846764
 31
0.0
  0
LINE
  5
7CFC
330
8270
100
AcDbEntity
  8
1
100
AcDbLine
 10
1399.267263770179
 20
6475.241293846766
 30
0.0
 11
1399.267263770179
 21
5225.241293846764
 31
0.0
  0
LINE
  5
7CFD
330
8270
100
AcDbEntity
  8
1
100
AcDbLine
 10
1399.267263770179
 20
5225.241293846764
 30
0.0
 11
2947.26726377018
 21
5225.241293846764
 31
0.0
  0
LINE
  5
7CFE
330
8270
100
AcDbEntity
  8
1
100
AcDbLine
 10
1399.267263770179
 20
6475.241293846766
 30
0.0
 11
2947.26726377018
 21
6475.241293846763
 31
0.0
  0
LINE
  5
7CFF
330
8270
100
AcDbEntity
  8
1
100
AcDbLine
 10
2943.267263770179
 20
6525.241293846764
 30
0.0
 11
2947.26726377018
 21
6525.241293846763
 31
0.0
  0
LINE
  5
7D00
330
8270
100
AcDbEntity
  8
1
100
AcDbLine
 10
2943.267263770179
 20
5175.241293846764
 30
0.0
 11
2947.26726377018
 21
5175.241293846764
 31
0.0
  0
LINE
  5
7D01
330
8270
100
AcDbEntity
  8
1
100
AcDbLine
 10
2943.267263770179
 20
6525.241293846763
 30
0.0
 11
2943.267263770179
 21
5175.241293846764
 31
0.0
  0
LINE
  5
7D02
330
8270
100
AcDbEntity
  8
1
100
AcDbLine
 10
5385.792027154098
 20
2982.588409321163
 30
0.0
 11
4135.792027154097
 21
2982.588409321163
 31
0.0
  0
LINE
  5
7D03
330
8270
100
AcDbEntity
  8
1
100
AcDbLine
 10
5385.792027154098
 20
4012.588409321162
 30
0.0
 11
4135.792027154096
 21
2982.588409321163
 31
0.0
  0
LINE
  5
7D04
330
8270
100
AcDbEntity
  8
1
100
AcDbLine
 10
4135.792027154096
 20
4012.588409321162
 30
0.0
 11
5385.792027154098
 21
2982.588409321163
 31
0.0
  0
LINE
  5
7D05
330
8270
100
AcDbEntity
  8
1
100
AcDbLine
 10
2299.76726377018
 20
5225.241293846765
 30
0.0
 11
2299.76726377018
 21
5065.241293846765
 31
0.0
  0
LINE
  5
7D06
330
8270
100
AcDbEntity
  8
1
100
AcDbLine
 10
2234.76726377018
 20
5225.241293846765
 30
0.0
 11
2234.76726377018
 21
5065.241293846765
 31
0.0
  0
LINE
  5
7D07
330
8270
100
AcDbEntity
  8
1
100
AcDbLine
 10
4117.792027154096
 20
2906.088409321163
 30
0.0
 11
4135.792027154096
 21
2906.088409321163
 31
0.0
  0
DIMENSION
  5
7D08
330
8270
100
AcDbEntity
  8
3
100
AcDbDimension
  2
*D19
 10
842.2672637701799
 20
6749.545231074484
 30
0.0
 11
1242.267263770179
 21
6809.545231074484
 31
0.0
 12
779.6421487933403
 22
2152.209694485525
 32
0.0
 71
     5
 42
-1.0
  3
Standard
100
AcDbAlignedDimension
 13
1642.267263770179
 23
6528.241293846765
 33
0.0
 14
842.2672637701799
 24
5873.241293846766
 34
0.0
100
AcDbRotatedDimension
1001
ACAD
1000
DSTYLE
1002
{
1070
    40
1040
30.0
1002
}
  0
LINE
  5
7F3F
330
8270
100
AcDbEntity
  8
4
100
AcDbLine
 10
5550.0
 20
1193.063590389734
 30
0.0
 11
5550.0
 21
593.0635903897345
 31
0.0
  0
LINE
  5
7F40
330
8270
100
AcDbEntity
  8
4
100
AcDbLine
 10
3450.0
 20
1193.063590389734
 30
0.0
 11
3450.0
 21
593.0635903897345
 31
0.0
  0
LINE
  5
7F41
330
8270
100
AcDbEntity
  8
4
100
AcDbLine
 10
1950.0
 20
1193.063590389734
 30
0.0
 11
1950.0
 21
593.0635903897345
 31
0.0
  0
LINE
  5
7F44
330
8270
100
AcDbEntity
  8
4
100
AcDbLine
 10
1950.0
 20
593.0635903897345
 30
0.0
 11
5550.0
 21
593.0635903897345
 31
0.0
  0
LINE
  5
7F45
330
8270
100
AcDbEntity
  8
4
100
AcDbLine
 10
1950.0
 20
893.0635903897346
 30
0.0
 11
5550.0
 21
893.0635903897346
 31
0.0
  0
TEXT
  5
7F46
330
8270
100
AcDbEntity
  8
4
100
AcDbText
 10
2065.506242540704
 20
987.692667989573
 30
0.0
 40
150.0
  1
機器名称
100
AcDbText
  0
TEXT
  5
7F47
330
8270
100
AcDbEntity
  8
4
100
AcDbText
 10
2058.774318074392
 20
657.9990605857673
 30
0.0
 40
150.0
  1
機器型番
100
AcDbText
  0
TEXT
  5
7F48
330
8270
100
AcDbEntity
  8
4
100
AcDbText
 10
3533.036236462995
 20
960.7788972624403
 30
0.0
 40
150.0
  1
ミツヤ多翼送風機
100
AcDbText
  0
TEXT
  5
7F49
330
8270
100
AcDbEntity
  8
4
100
AcDbText
 10
3559.963486756442
 20
644.5423432295647
 30
0.0
 40
150.0
  1
MF#6-5
100
AcDbText
  0
TEXT
  5
7F4B
330
8270
100
AcDbEntity
  8
4
100
AcDbText
 10
2397.531064137263
 20
7150.286523997547
 30
0.0
 40
161.9999999999998
  1
床置防振ベット
100
AcDbText
  0
TEXT
  5
7F4C
330
8270
100
AcDbEntity
  8
4
100
AcDbText
 10
948.5027799883393
 20
7601.642928597894
 30
0.0
 40
216.0
  1
遠心式両吸込両持多翼ファン
100
AcDbText
  0
LINE
  5
7F4D
330
8270
100
AcDbEntity
  8
4
100
AcDbLine
 10
750.0
 20
7408.226262794413
 30
0.0
 11
5550.0
 21
7408.226262794413
 31
0.0
  0
LINE
  5
7F4E
330
8270
100
AcDbEntity
  8
4
100
AcDbLine
 10
750.0
 20
8008.226262794414
 30
0.0
 11
5550.0
 21
8008.226262794414
 31
0.0
  0
LINE
  5
7F4F
330
8270
100
AcDbEntity
  8
4
100
AcDbLine
 10
1950.0
 20
1193.063590389734
 30
0.0
 11
5550.0
 21
1193.063590389734
 31
0.0
  0
LINE
  5
7F50
330
8270
100
AcDbEntity
  8
4
100
AcDbLine
 10
750.0
 20
8008.226262794414
 30
0.0
 11
750.0
 21
7408.226262794413
 31
0.0
  0
TEXT
  5
7F51
330
8270
100
AcDbEntity
  8
4
100
AcDbText
 10
1089.954567409156
 20
7146.958432639029
 30
0.0
 40
161.9999999999998
  1
右回転右横向
100
AcDbText
  0
TEXT
  5
7F52
330
8270
100
AcDbEntity
  8
4
100
AcDbText
 10
4406.908677747869
 20
8118.183244485924
 30
0.0
 40
168.0
  1
No.
100
AcDbText
  0
TEXT
  5
7F53
330
8270
100
AcDbEntity
  8
4
100
AcDbText
 10
3933.888187800039
 20
7150.286523997547
 30
0.0
 40
161.9999999999998
  1
縮尺：1/30
100
AcDbText
  0
LINE
  5
7F54
330
8270
100
AcDbEntity
  8
4
100
AcDbLine
 10
5550.0
 20
8008.226262794414
 30
0.0
 11
5550.0
 21
7408.226262794413
 31
0.0
  0
LINE
  5
7F55
330
8270
100
AcDbEntity
  8
4
100
AcDbLine
 10
6300.0
 20
8850.0
 30
0.0
 11
6300.0
 21
8850.0
 31
0.0
  0
LINE
  5
7F56
330
8270
100
AcDbEntity
  8
4
100
AcDbLine
 10
4321.852267079594
 20
8043.790749376205
 30
0.0
 11
4321.852267079594
 21
8359.956784649257
 31
0.0
  0
LINE
  5
7F57
330
8270
100
AcDbEntity
  8
4
100
AcDbLine
 10
4321.852267079594
 20
8359.956784649257
 30
0.0
 11
5550.0
 21
8359.956784649257
 31
0.0
  0
LINE
  5
7F58
330
8270
100
AcDbEntity
  8
4
100
AcDbLine
 10
5550.0
 20
8359.956784649257
 30
0.0
 11
5550.0
 21
8043.790749376205
 31
0.0
  0
LINE
  5
7F59
330
8270
100
AcDbEntity
  8
4
100
AcDbLine
 10
5550.0
 20
8043.790749376205
 30
0.0
 11
4321.852267079594
 21
8043.790749376205
 31
0.0
  0
LINE
  5
7F5A
330
8270
100
AcDbEntity
  8
4
100
AcDbLine
 10
0.0
 20
0.0
 30
0.0
 11
0.0
 21
8850.0
 31
0.0
  0
LINE
  5
7F5B
330
8270
100
AcDbEntity
  8
4
100
AcDbLine
 10
0.0
 20
8850.0
 30
0.0
 11
6300.0
 21
8850.0
 31
0.0
  0
LINE
  5
7F5C
330
8270
100
AcDbEntity
  8
4
100
AcDbLine
 10
6300.0
 20
8850.0
 30
0.0
 11
6300.0
 21
0.0
 31
0.0
  0
LINE
  5
7F5D
330
8270
100
AcDbEntity
  8
4
100
AcDbLine
 10
6300.0
 20
0.0
 30
0.0
 11
0.0
 21
0.0
 31
0.0
  0
DIMENSION
  5
7FC9
330
8270
100
AcDbEntity
  8
3
100
AcDbDimension
  2
*D20
 10
3349.229406223476
 20
2068.588409321164
 30
0.0
 11
3274.229406223475
 21
1811.445552178307
 31
0.0
 71
     5
 42
-1.0
  3
Standard
100
AcDbAlignedDimension
 13
2892.267263770179
 23
2168.588409321164
 33
0.0
 14
2892.267263770179
 24
2068.588409321164
 34
0.0
 50
90.0
100
AcDbRotatedDimension
1001
ACAD
1000
DSTYLE
1002
{
1070
   287
1070
     3
1070
   287
1070
     3
1070
    40
1040
30.0
1070
   143
1040
0.039
1070
   172
1070
     1
1070
   271
1070
     0
1070
   279
1070
     0
1070
   288
1070
     1
1070
     6
1000
DOT
1002
}
  0
DIMENSION
  5
80E5
330
8270
100
AcDbEntity
  8
3
100
AcDbDimension
  2
*D22
 10
2267.267263770178
 20
1837.447614116536
 30
0.0
 11
1554.767263770179
 21
1912.447614116535
 31
0.0
 12
0.0
 22
7.0
 32
0.0
 71
     5
 42
-1.0
  3
Standard
100
AcDbAlignedDimension
 13
842.2672637701799
 23
2068.588409321164
 33
0.0
 14
2267.267263770178
 24
2068.588409321165
 34
0.0
100
AcDbRotatedDimension
1001
ACAD
1000
DSTYLE
1002
{
1070
   172
1070
     1
1070
    40
1040
30.0
1070
    42
1040
1.0
1070
   271
1070
     0
1070
   143
1040
0.039
1002
}
  0
DIMENSION
  5
80F2
330
8270
100
AcDbEntity
  8
3
100
AcDbDimension
  2
*D23
 10
2892.267263770179
 20
1837.447614116536
 30
0.0
 11
2579.767263770179
 21
1912.447614116535
 31
0.0
 12
0.0
 22
7.0
 32
0.0
 71
     5
 42
-1.0
  3
Standard
100
AcDbAlignedDimension
 13
2267.267263770178
 23
2068.588409321165
 33
0.0
 14
2892.267263770179
 24
2068.588409321164
 34
0.0
100
AcDbRotatedDimension
1001
ACAD
1000
DSTYLE
1002
{
1070
   172
1070
     1
1070
    40
1040
30.0
1070
    42
1040
1.0
1070
   271
1070
     0
1070
   143
1040
0.039
1002
}
  0
DIMENSION
  5
80FF
330
8270
100
AcDbEntity
  8
3
100
AcDbDimension
  2
*D24
 10
4760.792027154096
 20
1837.447614116536
 30
0.0
 11
4347.292027154097
 21
1912.447614116535
 31
0.0
 12
0.0
 22
7.0
 32
0.0
 71
     5
 42
-1.0
  3
Standard
100
AcDbAlignedDimension
 13
3933.792027154098
 23
2068.588409321163
 33
0.0
 14
4760.792027154096
 24
2068.588409321163
 34
0.0
100
AcDbRotatedDimension
1001
ACAD
1000
DSTYLE
1002
{
1070
   172
1070
     1
1070
    40
1040
30.0
1070
    42
1040
1.0
1070
   271
1070
     0
1070
   143
1040
0.039
1002
}
  0
DIMENSION
  5
810C
330
8270
100
AcDbEntity
  8
3
100
AcDbDimension
  2
*D25
 10
5438.792027154097
 20
1837.447614116536
 30
0.0
 11
5099.792027154097
 21
1912.447614116535
 31
0.0
 12
0.0
 22
7.0
 32
0.0
 71
     5
 42
-1.0
  3
Standard
100
AcDbAlignedDimension
 13
4760.792027154096
 23
2068.588409321163
 33
0.0
 14
5438.792027154097
 24
2068.588409321163
 34
0.0
100
AcDbRotatedDimension
1001
ACAD
1000
DSTYLE
1002
{
1070
   172
1070
     1
1070
    40
1040
30.0
1070
    42
1040
1.0
1070
   271
1070
     0
1070
   143
1040
0.039
1002
}
  0
DIMENSION
  5
8157
330
8270
100
AcDbEntity
  8
3
100
AcDbDimension
  2
*D27
 10
3349.647751131338
 20
2188.588409321164
 30
0.0
 11
3493.219179702767
 21
2178.588409321164
 31
0.0
  1
 <>
 71
     5
 42
-1.0
  3
Standard
100
AcDbAlignedDimension
 13
2892.267263770179
 23
2168.588409321164
 33
0.0
 14
2892.267263770179
 24
2188.588409321164
 34
0.0
 50
90.0
100
AcDbRotatedDimension
1001
ACAD
1000
DSTYLE
1002
{
1070
   172
1070
     1
1070
    76
1070
     1
1070
    75
1070
     1
1070
    40
1040
30.0
1070
     3
1000
(<>)
1070
    42
1040
1.0
1070
   271
1070
     0
1070
     7
1000
_NONE
1070
     6
1000
_NONE
1070
   143
1040
0.039
1002
}
  0
DIMENSION
  5
8164
330
8270
100
AcDbEntity
  8
3
100
AcDbDimension
  2
*D28
 10
3597.818641423935
 20
4012.588409321161
 30
0.0
 11
3499.247212852508
 21
3040.588409321163
 31
0.0
 71
     5
 42
-1.0
  3
Standard
100
AcDbAlignedDimension
 13
2892.267263770179
 23
2068.588409321164
 33
0.0
 14
2947.26726377018
 24
4012.588409321161
 34
0.0
 50
90.0
100
AcDbRotatedDimension
1001
ACAD
1000
DSTYLE
1002
{
1070
   172
1070
     1
1070
    40
1040
30.0
1070
     3
1000
(<>)
1070
    42
1040
1.0
1070
   271
1070
     0
1070
   143
1040
0.039
1002
}
  0
DIMENSION
  5
82BB
330
8270
100
AcDbEntity
  8
3
100
AcDbDimension
  2
*D29
 10
4760.792027154097
 20
4496.005485840538
 30
0.0
 11
4230.792027154094
 21
4594.576914411966
 31
0.0
 70
    32
 71
     5
 42
1060.000000000006
  3
IGA
100
AcDbAlignedDimension
 13
3700.792027154091
 23
3218.588409321163
 33
0.0
 14
4760.792027154097
 24
4371.583160743091
 34
0.0
100
AcDbRotatedDimension
1001
ACAD
1000
DSTYLE
1002
{
1070
     3
1000
(<>)
1070
    40
1040
30.0
1070
    42
1040
1.0
1070
   143
1040
0.039
1070
   172
1070
     1
1070
   271
1070
     4
1070
   272
1070
     4
1070
   279
1070
     0
1070
   284
1070
     0
1070
   285
1070
     0
1070
   286
1070
     0
1070
   341
1005
8284
1070
   343
1005
8284
1070
   344
1005
8284
1002
}
  0
DIMENSION
  5
82C8
330
8270
100
AcDbEntity
  8
3
100
AcDbDimension
  2
*D30
 10
5540.792027154098
 20
4496.005485840538
 30
0.0
 11
5150.792027154096
 21
4594.576914411966
 31
0.0
 70
    32
 71
     5
 42
780.0000000000009
  3
IGA
100
AcDbAlignedDimension
 13
4760.792027154097
 23
4371.583160743091
 33
0.0
 14
5540.792027154098
 24
2902.788409321163
 34
0.0
100
AcDbRotatedDimension
1001
ACAD
1000
DSTYLE
1002
{
1070
     3
1000
(<>)
1070
    40
1040
30.0
1070
    42
1040
1.0
1070
   143
1040
0.039
1070
   172
1070
     1
1070
   271
1070
     4
1070
   272
1070
     4
1070
   279
1070
     1
1070
   284
1070
     0
1070
   285
1070
     0
1070
   286
1070
     0
1070
   341
1005
8284
1070
   343
1005
8284
1070
   344
1005
8284
1002
}
  0
DIMENSION
  5
831F
330
8270
100
AcDbEntity
  8
3
100
AcDbDimension
  2
*D33
 10
2892.267263770179
 20
4635.79656523219
 30
0.0
 11
1867.267263770179
 21
4710.796565232191
 31
0.0
 70
    32
 71
     5
 42
2049.999999999999
  3
IGA
100
AcDbAlignedDimension
 13
842.2672637701799
 23
5023.241293846766
 33
0.0
 14
2892.267263770179
 24
5023.241293846764
 34
0.0
100
AcDbRotatedDimension
1001
ACAD
1000
DSTYLE
1002
{
1070
    40
1040
30.0
1070
    42
1040
1.0
1070
   143
1040
0.039
1070
   172
1070
     1
1070
   271
1070
     4
1070
   272
1070
     4
1070
   279
1070
     0
1070
   284
1070
     0
1070
   285
1070
     0
1070
   286
1070
     0
1070
   341
1005
8284
1070
   343
1005
8284
1070
   344
1005
8284
1002
}
  0
DIMENSION
  5
832C
330
8270
100
AcDbEntity
  8
3
100
AcDbDimension
  2
*D34
 10
3349.647751131338
 20
2188.588409321164
 30
0.0
 11
3274.647751131337
 21
2563.588409321164
 31
0.0
 70
    32
 71
     5
 42
749.9999999999982
  3
IGA
100
AcDbAlignedDimension
 13
3006.883246267807
 23
2938.588409321162
 33
0.0
 14
2892.267263770179
 24
2188.588409321164
 34
0.0
 50
90.0
100
AcDbRotatedDimension
1001
ACAD
1000
DSTYLE
1002
{
1070
    40
1040
30.0
1070
    42
1040
1.0
1070
   143
1040
0.039
1070
   172
1070
     1
1070
   271
1070
     4
1070
   272
1070
     4
1070
   279
1070
     0
1070
   284
1070
     0
1070
   285
1070
     0
1070
   286
1070
     0
1070
   341
1005
8284
1070
   343
1005
8284
1070
   344
1005
8284
1002
}
  0
ENDSEC
  0
SECTION
  2
OBJECTS
  0
DICTIONARY
  5
820D
330
0
100
AcDbDictionary
281
     1
  3
ACAD_CIP_PREVIOUS_PRODUCT_INFO
350
82BA
  3
ACAD_COLOR
350
8263
  3
ACAD_DETAILVIEWSTYLE
350
826A
  3
ACAD_GROUP
350
820E
  3
ACAD_LAYOUT
350
8262
  3
ACAD_MATERIAL
350
8211
  3
ACAD_MLEADERSTYLE
350
8266
  3
ACAD_MLINESTYLE
350
825F
  3
ACAD_PLOTSETTINGS
350
8261
  3
ACAD_PLOTSTYLENAME
350
820F
  3
ACAD_SCALELIST
350
8243
  3
ACAD_SECTIONVIEWSTYLE
350
8268
  3
ACAD_TABLESTYLE
350
8264
  3
ACAD_VISUALSTYLE
350
822A
  3
ACDB_RECOMPOSE_DATA
350
839A
  3
AcDbVariableDictionary
350
834C
  3
DWGPROPS
350
839B
  0
DICTIONARY
  5
8342
330
8255
100
AcDbDictionary
280
     1
281
     1
  3
ADSK_XREC_LAYER_RECONCILED
360
8343
  0
DICTIONARY
  5
8344
330
8274
100
AcDbDictionary
280
     1
281
     1
  3
ADSK_XREC_LAYER_RECONCILED
360
8345
  0
DICTIONARY
  5
8346
330
8277
100
AcDbDictionary
280
     1
281
     1
  3
ADSK_XREC_LAYER_RECONCILED
360
8347
  0
DICTIONARY
  5
8348
330
8278
100
AcDbDictionary
280
     1
281
     1
  3
ADSK_XREC_LAYER_RECONCILED
360
8349
  0
DICTIONARY
  5
834A
330
8279
100
AcDbDictionary
280
     1
281
     1
  3
ADSK_XREC_LAYER_RECONCILED
360
834B
  0
XRECORD
  5
82BA
102
{ACAD_REACTORS
330
820D
102
}
330
820D
100
AcDbXrecord
280
     1
300
ACDLT
300
2015
300
INVLTS_F_S
  0
DICTIONARY
  5
8263
102
{ACAD_REACTORS
330
820D
102
}
330
820D
100
AcDbDictionary
281
     1
  0
DICTIONARY
  5
826A
102
{ACAD_REACTORS
330
820D
102
}
330
820D
100
AcDbDictionary
281
     1
  3
Imperial24
350
826B
  0
DICTIONARY
  5
820E
102
{ACAD_REACTORS
330
820D
102
}
330
820D
100
AcDbDictionary
281
     1
  0
DICTIONARY
  5
8262
102
{ACAD_REACTORS
330
820D
102
}
330
820D
100
AcDbDictionary
281
     1
  3
Model
350
8273
  3
レイアウト1
350
826F
  0
DICTIONARY
  5
8211
102
{ACAD_REACTORS
330
820D
102
}
330
820D
100
AcDbDictionary
281
     1
  3
ByBlock
350
821A
  3
ByLayer
350
8212
  3
Global
350
8222
  0
DICTIONARY
  5
8266
102
{ACAD_REACTORS
330
820D
102
}
330
820D
100
AcDbDictionary
281
     1
  3
Standard
350
8267
  0
DICTIONARY
  5
825F
102
{ACAD_REACTORS
330
820D
102
}
330
820D
100
AcDbDictionary
281
     1
  3
Standard
350
8260
  0
DICTIONARY
  5
8261
102
{ACAD_REACTORS
330
820D
102
}
330
820D
100
AcDbDictionary
281
     1
  0
ACDBDICTIONARYWDFLT
  5
820F
102
{ACAD_REACTORS
330
820D
102
}
330
820D
100
AcDbDictionary
281
     1
  3
Normal
350
8210
100
AcDbDictionaryWithDefault
340
8210
  0
DICTIONARY
  5
8243
102
{ACAD_REACTORS
330
820D
102
}
330
820D
100
AcDbDictionary
281
     1
  3
A0
350
8244
  3
A1
350
8245
  3
A2
350
8246
  3
A3
350
8247
  3
A4
350
8248
  3
A5
350
8249
  3
A6
350
824A
  3
A7
350
824B
  3
A8
350
824C
  3
A9
350
824D
  3
B0
350
824E
  3
B1
350
824F
  3
B2
350
8250
  3
B3
350
8251
  3
B4
350
8252
  3
B5
350
8253
  3
B6
350
8254
  0
DICTIONARY
  5
8268
102
{ACAD_REACTORS
330
820D
102
}
330
820D
100
AcDbDictionary
281
     1
  3
Imperial24
350
8269
  0
DICTIONARY
  5
8264
102
{ACAD_REACTORS
330
820D
102
}
330
820D
100
AcDbDictionary
281
     1
  3
Standard
350
8265
  0
DICTIONARY
  5
822A
102
{ACAD_REACTORS
330
820D
102
}
330
820D
100
AcDbDictionary
281
     1
  3
2dWireframe
350
8230
  3
Basic
350
822F
  3
Brighten
350
8236
  3
ColorChange
350
823A
  3
Conceptual
350
8233
  3
Dim
350
8235
  3
EdgeColorOff
350
8242
  3
Facepattern
350
8239
  3
Flat
350
822B
  3
FlatWithEdges
350
822C
  3
Gouraud
350
822D
  3
GouraudWithEdges
350
822E
  3
Hidden
350
8232
  3
JitterOff
350
8240
  3
Linepattern
350
8238
  3
OverhangOff
350
8241
  3
Realistic
350
8234
  3
Shaded
350
823F
  3
Shaded with edges
350
823E
  3
Shades of Gray
350
823B
  3
Sketchy
350
823C
  3
Thicken
350
8237
  3
Wireframe
350
8231
  3
X-Ray
350
823D
  0
XRECORD
  5
839A
102
{ACAD_REACTORS
330
820D
102
}
330
820D
100
AcDbXrecord
280
     1
 90
        1
330
8265
  0
DICTIONARY
  5
834C
102
{ACAD_REACTORS
330
820D
102
}
330
820D
100
AcDbDictionary
281
     1
  3
CANNOSCALE
350
8351
  3
CMLEADERSTYLE
350
834E
  3
CTABLESTYLE
350
834D
  3
CVIEWDETAILSTYLE
350
834F
  3
CVIEWSECTIONSTYLE
350
8350
  3
DIMASSOC
350
8354
  3
INDEXCTL
350
8353
  3
SORTENTS
350
8352
  3
XCLIPFRAME
350
8355
  0
XRECORD
  5
839B
102
{ACAD_REACTORS
330
820D
102
}
330
820D
100
AcDbXrecord
280
     1
  1
DWGPROPS COOKIE
  2

  3

  4

  6

  7

  8
yasukiyo.ogawa
  9

300
=
301
=
302
=
303
=
304
=
305
=
306
=
307
=
308
=
309
=
 40
0.0302038888888889
 41
2451389.550088889
 42
2460271.735014607
  1

 90
        0
  0
XRECORD
  5
8343
102
{ACAD_REACTORS
330
8342
102
}
330
8342
100
AcDbXrecord
280
     1
290
     1
  0
XRECORD
  5
8345
102
{ACAD_REACTORS
330
8344
102
}
330
8344
100
AcDbXrecord
280
     1
290
     1
  0
XRECORD
  5
8347
102
{ACAD_REACTORS
330
8346
102
}
330
8346
100
AcDbXrecord
280
     1
290
     1
  0
XRECORD
  5
8349
102
{ACAD_REACTORS
330
8348
102
}
330
8348
100
AcDbXrecord
280
     1
290
     1
  0
XRECORD
  5
834B
102
{ACAD_REACTORS
330
834A
102
}
330
834A
100
AcDbXrecord
280
     1
290
     1
  0
ACDBDETAILVIEWSTYLE
  5
826B
102
{ACAD_XDICTIONARY
360
83D3
102
}
102
{ACAD_REACTORS
330
826A
102
}
330
826A
100
AcDbModelDocViewStyle
 70
     0
  3
Imperial24
290
     0
100
AcDbDetailViewStyle
 70
     0
 71
     0
 90
        3
 71
     1
340
8256
 40
0.24
340
0
 40
0.24
300

 40
0.36
280
     3
 71
     2
340
825D
 90
       25
 71
     3
340
8256
 40
0.24
 90
        1
 40
0.75
 90
        1
300
%<\AcVar ViewType \f "%tc1">% %<\AcVar ViewDetailId>%\PSCALE %<\AcVar ViewScale \f "%sn">%
 71
     4
340
825D
 90
       25
340
825D
 90
       25
280
     0
  0
LAYOUT
  5
8273
102
{ACAD_XDICTIONARY
360
83D7
102
}
102
{ACAD_REACTORS
330
8262
102
}
330
8262
100
AcDbPlotSettings
  1

  2
RICOH imagio MP W3600 RPCS
  4

  6

 40
0.0
 41
0.0
 42
0.0
 43
0.0
 44
0.0
 45
0.0
 46
0.0
 47
0.0
 48
0.0
 49
0.0
140
0.0
141
0.0
142
1.0
143
1.0
 70
  1712
 72
     0
 73
     0
 74
     0
  7

 75
     0
147
1.0
148
0.0
149
0.0
100
AcDbLayout
  1
Model
 70
     1
 71
     0
 10
0.0
 20
0.0
 11
12.0
 21
9.0
 12
0.0
 22
0.0
 32
0.0
 14
0.0
 24
0.0
 34
0.0
 15
0.0
 25
0.0
 35
0.0
146
0.0
 13
0.0
 23
0.0
 33
0.0
 16
1.0
 26
0.0
 36
0.0
 17
0.0
 27
1.0
 37
0.0
 76
     0
330
8270
331
8275
  0
LAYOUT
  5
826F
102
{ACAD_XDICTIONARY
360
83D5
102
}
102
{ACAD_REACTORS
330
8262
102
}
330
8262
100
AcDbPlotSettings
  1

  2
RICOH imagio MP W3600 RPCS
  4

  6

 40
0.0
 41
0.0
 42
0.0
 43
0.0
 44
0.0
 45
0.0
 46
0.0
 47
0.0
 48
0.0
 49
0.0
140
0.0
141
0.0
142
1.0
143
1.0
 70
   688
 72
     0
 73
     0
 74
     5
  7

 75
    16
147
1.0
148
0.0
149
0.0
100
AcDbLayout
  1
レイアウト1
 70
     1
 71
     1
 10
0.0
 20
0.0
 11
12.0
 21
9.0
 12
0.0
 22
0.0
 32
0.0
 14
1.000000000000000E+20
 24
1.000000000000000E+20
 34
1.000000000000000E+20
 15
-1.000000000000000E+20
 25
-1.000000000000000E+20
 35
-1.000000000000000E+20
146
0.0
 13
0.0
 23
0.0
 33
0.0
 16
1.0
 26
0.0
 36
0.0
 17
0.0
 27
1.0
 37
0.0
 76
     0
330
826C
  0
MATERIAL
  5
821A
102
{ACAD_XDICTIONARY
360
821B
102
}
102
{ACAD_REACTORS
330
8211
102
}
330
8211
100
AcDbMaterial
  1
ByBlock
 72
     0
 43
0.0208333333333333
 43
0.0
 43
0.0
 43
0.0
 43
0.0
 43
0.0208333333333333
 43
0.0
 43
0.0
 43
0.0
 43
0.0
 43
1.0
 43
0.0
 43
0.0
 43
0.0
 43
0.0
 43
1.0
 77
     0
 47
0.0208333333333333
 47
0.0
 47
0.0
 47
0.0
 47
0.0
 47
0.0208333333333333
 47
0.0
 47
0.0
 47
0.0
 47
0.0
 47
1.0
 47
0.0
 47
0.0
 47
0.0
 47
0.0
 47
1.0
171
     0
 49
0.0208333333333333
 49
0.0
 49
0.0
 49
0.0
 49
0.0
 49
0.0208333333333333
 49
0.0
 49
0.0
 49
0.0
 49
0.0
 49
1.0
 49
0.0
 49
0.0
 49
0.0
 49
0.0
 49
1.0
175
     0
142
0.0208333333333333
142
0.0
142
0.0
142
0.0
142
0.0
142
0.0208333333333333
142
0.0
142
0.0
142
0.0
142
0.0
142
1.0
142
0.0
142
0.0
142
0.0
142
0.0
142
1.0
179
     0
144
0.0208333333333333
144
0.0
144
0.0
144
0.0
144
0.0
144
0.0208333333333333
144
0.0
144
0.0
144
0.0
144
0.0
144
1.0
144
0.0
144
0.0
144
0.0
144
0.0
144
1.0
147
0.0208333333333333
147
0.0
147
0.0
147
0.0
147
0.0
147
0.0208333333333333
147
0.0
147
0.0
147
0.0
147
0.0
147
1.0
147
0.0
147
0.0
147
0.0
147
0.0
147
1.0
  0
MATERIAL
  5
8212
102
{ACAD_XDICTIONARY
360
8213
102
}
102
{ACAD_REACTORS
330
8211
102
}
330
8211
100
AcDbMaterial
  1
ByLayer
 72
     0
 43
0.0208333333333333
 43
0.0
 43
0.0
 43
0.0
 43
0.0
 43
0.0208333333333333
 43
0.0
 43
0.0
 43
0.0
 43
0.0
 43
1.0
 43
0.0
 43
0.0
 43
0.0
 43
0.0
 43
1.0
 77
     0
 47
0.0208333333333333
 47
0.0
 47
0.0
 47
0.0
 47
0.0
 47
0.0208333333333333
 47
0.0
 47
0.0
 47
0.0
 47
0.0
 47
1.0
 47
0.0
 47
0.0
 47
0.0
 47
0.0
 47
1.0
171
     0
 49
0.0208333333333333
 49
0.0
 49
0.0
 49
0.0
 49
0.0
 49
0.0208333333333333
 49
0.0
 49
0.0
 49
0.0
 49
0.0
 49
1.0
 49
0.0
 49
0.0
 49
0.0
 49
0.0
 49
1.0
175
     0
142
0.0208333333333333
142
0.0
142
0.0
142
0.0
142
0.0
142
0.0208333333333333
142
0.0
142
0.0
142
0.0
142
0.0
142
1.0
142
0.0
142
0.0
142
0.0
142
0.0
142
1.0
179
     0
144
0.0208333333333333
144
0.0
144
0.0
144
0.0
144
0.0
144
0.0208333333333333
144
0.0
144
0.0
144
0.0
144
0.0
144
1.0
144
0.0
144
0.0
144
0.0
144
0.0
144
1.0
147
0.0208333333333333
147
0.0
147
0.0
147
0.0
147
0.0
147
0.0208333333333333
147
0.0
147
0.0
147
0.0
147
0.0
147
1.0
147
0.0
147
0.0
147
0.0
147
0.0
147
1.0
  0
MATERIAL
  5
8222
102
{ACAD_XDICTIONARY
360
8223
102
}
102
{ACAD_REACTORS
330
8211
102
}
330
8211
100
AcDbMaterial
  1
Global
 72
     0
 43
0.0208333333333333
 43
0.0
 43
0.0
 43
0.0
 43
0.0
 43
0.0208333333333333
 43
0.0
 43
0.0
 43
0.0
 43
0.0
 43
1.0
 43
0.0
 43
0.0
 43
0.0
 43
0.0
 43
1.0
 77
     0
 47
0.0208333333333333
 47
0.0
 47
0.0
 47
0.0
 47
0.0
 47
0.0208333333333333
 47
0.0
 47
0.0
 47
0.0
 47
0.0
 47
1.0
 47
0.0
 47
0.0
 47
0.0
 47
0.0
 47
1.0
171
     0
 49
0.0208333333333333
 49
0.0
 49
0.0
 49
0.0
 49
0.0
 49
0.0208333333333333
 49
0.0
 49
0.0
 49
0.0
 49
0.0
 49
1.0
 49
0.0
 49
0.0
 49
0.0
 49
0.0
 49
1.0
175
     0
142
0.0208333333333333
142
0.0
142
0.0
142
0.0
142
0.0
142
0.0208333333333333
142
0.0
142
0.0
142
0.0
142
0.0
142
1.0
142
0.0
142
0.0
142
0.0
142
0.0
142
1.0
179
     0
144
0.0208333333333333
144
0.0
144
0.0
144
0.0
144
0.0
144
0.0208333333333333
144
0.0
144
0.0
144
0.0
144
0.0
144
1.0
144
0.0
144
0.0
144
0.0
144
0.0
144
1.0
147
0.0208333333333333
147
0.0
147
0.0
147
0.0
147
0.0
147
0.0208333333333333
147
0.0
147
0.0
147
0.0
147
0.0
147
1.0
147
0.0
147
0.0
147
0.0
147
0.0
147
1.0
  0
MLEADERSTYLE
  5
8267
102
{ACAD_REACTORS
330
8266
102
}
330
8266
100
AcDbMLeaderStyle
170
     2
171
     1
172
     0
 90
        2
 40
0.0
 41
0.0
173
     1
 91
-1056964608
340
825B
 92
       -2
290
     1
 42
0.09
291
     1
 43
0.36
  3
Standard
 44
0.18
300

342
8256
174
     1
178
     6
175
     1
176
     0
 93
-1056964608
 45
0.18
292
     0
297
     0
 46
0.18
 94
-1056964608
 47
1.0
 49
1.0
140
1.0
293
     1
141
0.0
294
     1
177
     0
142
1.0
295
     0
296
     0
143
0.125
1001
ACAD_MLEADERVER
1070
     2
  0
MLINESTYLE
  5
8260
102
{ACAD_REACTORS
330
825F
102
}
330
825F
100
AcDbMlineStyle
  2
STANDARD
 70
     0
  3

 62
   256
 51
90.0
 52
90.0
 71
     2
 49
0.5
 62
   256
  6
BYLAYER
 49
-0.5
 62
   256
  6
BYLAYER
  0
ACDBPLACEHOLDER
  5
8210
102
{ACAD_REACTORS
330
820F
102
}
330
820F
  0
SCALE
  5
8244
102
{ACAD_REACTORS
330
8243
102
}
330
8243
100
AcDbScale
 70
     0
300
1:1
140
1.0
141
1.0
290
     1
  0
SCALE
  5
8245
102
{ACAD_REACTORS
330
8243
102
}
330
8243
100
AcDbScale
 70
     0
300
1/128" = 1'-0"
140
0.0078125
141
12.0
290
     0
  0
SCALE
  5
8246
102
{ACAD_REACTORS
330
8243
102
}
330
8243
100
AcDbScale
 70
     0
300
1/64" = 1'-0"
140
0.015625
141
12.0
290
     0
  0
SCALE
  5
8247
102
{ACAD_REACTORS
330
8243
102
}
330
8243
100
AcDbScale
 70
     0
300
1/32" = 1'-0"
140
0.03125
141
12.0
290
     0
  0
SCALE
  5
8248
102
{ACAD_REACTORS
330
8243
102
}
330
8243
100
AcDbScale
 70
     0
300
1/16" = 1'-0"
140
0.0625
141
12.0
290
     0
  0
SCALE
  5
8249
102
{ACAD_REACTORS
330
8243
102
}
330
8243
100
AcDbScale
 70
     0
300
3/32" = 1'-0"
140
0.09375
141
12.0
290
     0
  0
SCALE
  5
824A
102
{ACAD_REACTORS
330
8243
102
}
330
8243
100
AcDbScale
 70
     0
300
1/8" = 1'-0"
140
0.125
141
12.0
290
     0
  0
SCALE
  5
824B
102
{ACAD_REACTORS
330
8243
102
}
330
8243
100
AcDbScale
 70
     0
300
3/16" = 1'-0"
140
0.1875
141
12.0
290
     0
  0
SCALE
  5
824C
102
{ACAD_REACTORS
330
8243
102
}
330
8243
100
AcDbScale
 70
     0
300
1/4" = 1'-0"
140
0.25
141
12.0
290
     0
  0
SCALE
  5
824D
102
{ACAD_REACTORS
330
8243
102
}
330
8243
100
AcDbScale
 70
     0
300
3/8" = 1'-0"
140
0.375
141
12.0
290
     0
  0
SCALE
  5
824E
102
{ACAD_REACTORS
330
8243
102
}
330
8243
100
AcDbScale
 70
     0
300
1/2" = 1'-0"
140
0.5
141
12.0
290
     0
  0
SCALE
  5
824F
102
{ACAD_REACTORS
330
8243
102
}
330
8243
100
AcDbScale
 70
     0
300
3/4" = 1'-0"
140
0.75
141
12.0
290
     0
  0
SCALE
  5
8250
102
{ACAD_REACTORS
330
8243
102
}
330
8243
100
AcDbScale
 70
     0
300
1" = 1'-0"
140
1.0
141
12.0
290
     0
  0
SCALE
  5
8251
102
{ACAD_REACTORS
330
8243
102
}
330
8243
100
AcDbScale
 70
     0
300
1-1/2" = 1'-0"
140
1.5
141
12.0
290
     0
  0
SCALE
  5
8252
102
{ACAD_REACTORS
330
8243
102
}
330
8243
100
AcDbScale
 70
     0
300
3" = 1'-0"
140
3.0
141
12.0
290
     0
  0
SCALE
  5
8253
102
{ACAD_REACTORS
330
8243
102
}
330
8243
100
AcDbScale
 70
     0
300
6" = 1'-0"
140
6.0
141
12.0
290
     0
  0
SCALE
  5
8254
102
{ACAD_REACTORS
330
8243
102
}
330
8243
100
AcDbScale
 70
     0
300
1'-0" = 1'-0"
140
12.0
141
12.0
290
     0
  0
ACDBSECTIONVIEWSTYLE
  5
8269
102
{ACAD_XDICTIONARY
360
83D1
102
}
102
{ACAD_REACTORS
330
8268
102
}
330
8268
100
AcDbModelDocViewStyle
 70
     0
  3
Imperial24
290
     0
100
AcDbSectionViewStyle
 70
     0
 71
     0
 90
       78
 71
     1
340
8256
 40
0.24
340
0
340
0
 40
0.24
300
I, O, Q, S, X, Z
 40
0.48
 90
        3
 40
0.18
 90
        1
 71
     2
340
825D
 90
       25
340
825D
 90
       50
 40
0.24
 40
0.0
 40
0.24
 71
     3
340
8256
 40
0.24
 90
        1
 40
0.75
 90
        1
300
%<\AcVar ViewType \f "%tc1">% %<\AcVar ViewSectionStartId>%-%<\AcVar ViewSectionEndId>%\PSCALE %<\AcVar ViewScale \f "%sn">%
 71
     4
300
ANSI31
 40
1.0
 90
        0
290
     0
290
     0
 90
        6
 40
0.0
 40
1.570796326794896
 40
0.2617993877991494
 40
1.308996938995747
 40
-0.2617993877991494
 40
1.832595714594046
  0
TABLESTYLE
  5
8265
102
{ACAD_XDICTIONARY
360
8398
102
}
102
{ACAD_REACTORS
330
8264
102
}
330
8264
100
AcDbTableStyle
  3
Standard
 70
     0
 71
     0
 40
0.06
 41
0.06
280
     0
281
     0
  7
STANDARD
140
0.18
170
     2
 62
     0
 63
     7
283
     0
274
    -2
284
     1
 64
     0
275
    -2
285
     1
 65
     0
276
    -2
286
     1
 66
     0
277
    -2
287
     1
 67
     0
278
    -2
288
     1
 68
     0
279
    -2
289
     1
 69
     0
  7
STANDARD
140
0.25
170
     5
 62
     0
 63
     7
283
     0
274
    -2
284
     1
 64
     0
275
    -2
285
     1
 65
     0
276
    -2
286
     1
 66
     0
277
    -2
287
     1
 67
     0
278
    -2
288
     1
 68
     0
279
    -2
289
     1
 69
     0
  7
STANDARD
140
0.18
170
     5
 62
     0
 63
     7
283
     0
274
    -2
284
     1
 64
     0
275
    -2
285
     1
 65
     0
276
    -2
286
     1
 66
     0
277
    -2
287
     1
 67
     0
278
    -2
288
     1
 68
     0
279
    -2
289
     1
 69
     0
  0
VISUALSTYLE
  5
8230
102
{ACAD_XDICTIONARY
360
83A9
102
}
102
{ACAD_REACTORS
330
822A
102
}
330
822A
100
AcDbVisualStyle
  2
2dWireframe
 70
     4
 71
     0
 72
     2
 73
     0
 90
        0
 40
-0.6
 41
-30.0
 62
     5
 63
     7
 74
     1
 91
        4
 64
     7
 65
   257
 75
     1
175
     1
 42
1.0
 92
        0
 66
   257
 43
1.0
 76
     1
 77
     6
 78
     2
 67
     7
 79
     5
170
     0
171
     0
290
     0
174
     0
 93
        1
 44
0.0
173
     0
291
     0
 45
0.0
1001
ACAD
1000
AcDbSavedByObjectVersion
1070
     0
  0
VISUALSTYLE
  5
822F
102
{ACAD_XDICTIONARY
360
83A7
102
}
102
{ACAD_REACTORS
330
822A
102
}
330
822A
100
AcDbVisualStyle
  2
Basic
 70
     7
 71
     1
 72
     0
 73
     1
 90
        0
 40
-0.6
 41
-30.0
 62
     5
 63
     7
 74
     0
 91
        4
 64
     7
 65
   257
 75
     1
175
     1
 42
1.0
 92
        8
 66
     7
 43
1.0
 76
     1
 77
     6
 78
     2
 67
     7
 79
     5
170
     0
171
     0
290
     0
174
     0
 93
        1
 44
0.0
173
     0
291
     1
 45
0.0
1001
ACAD
1000
AcDbSavedByObjectVersion
1070
     0
  0
VISUALSTYLE
  5
8236
102
{ACAD_XDICTIONARY
360
83B5
102
}
102
{ACAD_REACTORS
330
822A
102
}
330
822A
100
AcDbVisualStyle
  2
Brighten
 70
    12
 71
     2
 72
     2
 73
     0
 90
        0
 40
-0.6
 41
-30.0
 62
     5
 63
     7
 74
     1
 91
        4
 64
     7
 65
   257
 75
     1
175
     1
 42
1.0
 92
        8
 66
     7
 43
1.0
 76
     1
 77
     6
 78
     2
 67
     7
 79
     5
170
     0
171
     0
290
     0
174
     0
 93
        1
 44
50.0
173
     0
291
     1
 45
0.0
1001
ACAD
1000
AcDbSavedByObjectVersion
1070
     0
  0
VISUALSTYLE
  5
823A
102
{ACAD_XDICTIONARY
360
83BD
102
}
102
{ACAD_REACTORS
330
822A
102
}
330
822A
100
AcDbVisualStyle
  2
ColorChange
 70
    16
 71
     2
 72
     2
 73
     3
 90
        0
 40
-0.6
 41
-30.0
 62
     5
 63
     8
 74
     1
 91
        4
 64
     7
 65
   257
 75
     1
175
     1
 42
1.0
 92
        8
 66
     8
 43
1.0
 76
     1
 77
     6
 78
     2
 67
     7
 79
     5
170
     0
171
     0
290
     0
174
     0
 93
        1
 44
0.0
173
     0
291
     1
 45
0.0
1001
ACAD
1000
AcDbSavedByObjectVersion
1070
     0
  0
VISUALSTYLE
  5
8233
102
{ACAD_XDICTIONARY
360
83AF
102
}
102
{ACAD_REACTORS
330
822A
102
}
330
822A
100
AcDbVisualStyle
  2
Conceptual
 70
     9
 71
     3
 72
     2
 73
     0
 90
        0
 40
-0.6
 41
-30.0
 62
     5
 63
     7
 74
     2
 91
        2
 64
     7
 65
   257
 75
     1
175
     1
 42
179.0
 92
        8
 66
     7
 43
1.0
 76
     1
 77
     6
 78
     2
 67
     7
 79
     3
170
     0
171
     0
290
     0
174
     0
 93
        1
 44
0.0
173
     0
291
     0
 45
0.0
1001
ACAD
1000
AcDbSavedByObjectVersion
1070
     0
  0
VISUALSTYLE
  5
8235
102
{ACAD_XDICTIONARY
360
83B3
102
}
102
{ACAD_REACTORS
330
822A
102
}
330
822A
100
AcDbVisualStyle
  2
Dim
 70
    11
 71
     2
 72
     2
 73
     0
 90
        0
 40
-0.6
 41
-30.0
 62
     5
 63
     7
 74
     1
 91
        4
 64
     7
 65
   257
 75
     1
175
     1
 42
1.0
 92
        8
 66
     7
 43
1.0
 76
     1
 77
     6
 78
     2
 67
     7
 79
     5
170
     0
171
     0
290
     0
174
     0
 93
        1
 44
-50.0
173
     0
291
     1
 45
0.0
1001
ACAD
1000
AcDbSavedByObjectVersion
1070
     0
  0
VISUALSTYLE
  5
8242
102
{ACAD_XDICTIONARY
360
83CD
102
}
102
{ACAD_REACTORS
330
822A
102
}
330
822A
100
AcDbVisualStyle
  2
EdgeColorOff
 70
    22
 71
     2
 72
     2
 73
     0
 90
        0
 40
-0.6
 41
-30.0
 62
     5
 63
     7
 74
     1
 91
        4
 64
     7
 65
   257
 75
     1
175
     1
 42
1.0
 92
        8
 66
     7
 43
1.0
 76
     1
 77
     6
 78
     2
 67
     7
 79
     5
170
     0
171
     0
290
     0
174
     0
 93
        1
 44
0.0
173
     0
291
     1
 45
0.0
1001
ACAD
1000
AcDbSavedByObjectVersion
1070
     0
  0
VISUALSTYLE
  5
8239
102
{ACAD_XDICTIONARY
360
83BB
102
}
102
{ACAD_REACTORS
330
822A
102
}
330
822A
100
AcDbVisualStyle
  2
Facepattern
 70
    15
 71
     2
 72
     2
 73
     0
 90
        0
 40
-0.6
 41
-30.0
 62
     5
 63
     7
 74
     1
 91
        4
 64
     7
 65
   257
 75
     1
175
     1
 42
1.0
 92
        8
 66
     7
 43
1.0
 76
     1
 77
     6
 78
     2
 67
     7
 79
     5
170
     0
171
     0
290
     0
174
     0
 93
        1
 44
0.0
173
     0
291
     1
 45
0.0
1001
ACAD
1000
AcDbSavedByObjectVersion
1070
     0
  0
VISUALSTYLE
  5
822B
102
{ACAD_XDICTIONARY
360
839F
102
}
102
{ACAD_REACTORS
330
822A
102
}
330
822A
100
AcDbVisualStyle
  2
Flat
 70
     0
 71
     2
 72
     1
 73
     1
 90
        2
 40
-0.6
 41
30.0
 62
     5
 63
     7
 74
     0
 91
        0
 64
     7
 65
   257
 75
     1
175
     1
 42
1.0
 92
        8
 66
     7
 43
1.0
 76
     1
 77
     6
 78
     2
 67
     7
 79
     5
170
     0
171
     0
290
     0
174
     0
 93
       13
 44
0.0
173
     0
291
     1
 45
0.0
1001
ACAD
1000
AcDbSavedByObjectVersion
1070
     0
  0
VISUALSTYLE
  5
822C
102
{ACAD_XDICTIONARY
360
83A1
102
}
102
{ACAD_REACTORS
330
822A
102
}
330
822A
100
AcDbVisualStyle
  2
FlatWithEdges
 70
     1
 71
     2
 72
     1
 73
     1
 90
        2
 40
-0.6
 41
30.0
 62
     5
 63
     7
 74
     1
 91
        0
 64
     7
 65
   257
 75
     1
175
     1
 42
1.0
 92
        0
 66
   257
 43
1.0
 76
     1
 77
     6
 78
     2
 67
     7
 79
     5
170
     0
171
     0
290
     0
174
     0
 93
       13
 44
0.0
173
     0
291
     1
 45
0.0
1001
ACAD
1000
AcDbSavedByObjectVersion
1070
     0
  0
VISUALSTYLE
  5
822D
102
{ACAD_XDICTIONARY
360
83A3
102
}
102
{ACAD_REACTORS
330
822A
102
}
330
822A
100
AcDbVisualStyle
  2
Gouraud
 70
     2
 71
     2
 72
     2
 73
     1
 90
        2
 40
-0.6
 41
30.0
 62
     5
 63
     7
 74
     0
 91
        0
 64
     7
 65
   257
 75
     1
175
     1
 42
1.0
 92
        0
 66
     7
 43
1.0
 76
     1
 77
     6
 78
     2
 67
     7
 79
     5
170
     0
171
     0
290
     0
174
     0
 93
       13
 44
0.0
173
     0
291
     1
 45
0.0
1001
ACAD
1000
AcDbSavedByObjectVersion
1070
     0
  0
VISUALSTYLE
  5
822E
102
{ACAD_XDICTIONARY
360
83A5
102
}
102
{ACAD_REACTORS
330
822A
102
}
330
822A
100
AcDbVisualStyle
  2
GouraudWithEdges
 70
     3
 71
     2
 72
     2
 73
     1
 90
        2
 40
-0.6
 41
30.0
 62
     5
 63
     7
 74
     1
 91
        0
 64
     7
 65
   257
 75
     1
175
     1
 42
1.0
 92
        0
 66
   257
 43
1.0
 76
     1
 77
     6
 78
     2
 67
     7
 79
     5
170
     0
171
     0
290
     0
174
     0
 93
       13
 44
0.0
173
     0
291
     1
 45
0.0
1001
ACAD
1000
AcDbSavedByObjectVersion
1070
     0
  0
VISUALSTYLE
  5
8232
102
{ACAD_XDICTIONARY
360
83AD
102
}
102
{ACAD_REACTORS
330
822A
102
}
330
822A
100
AcDbVisualStyle
  2
Hidden
 70
     6
 71
     1
 72
     2
 73
     2
 90
        0
 40
-0.6
 41
-30.0
 62
     5
 63
     7
 74
     2
 91
        2
 64
     7
 65
   257
 75
     2
175
     1
 42
40.0
 92
        0
 66
   257
 43
1.0
 76
     1
 77
     6
 78
     2
 67
     7
 79
     3
170
     0
171
     0
290
     0
174
     0
 93
        1
 44
0.0
173
     0
291
     0
 45
0.0
1001
ACAD
1000
AcDbSavedByObjectVersion
1070
     0
  0
VISUALSTYLE
  5
8240
102
{ACAD_XDICTIONARY
360
83C9
102
}
102
{ACAD_REACTORS
330
822A
102
}
330
822A
100
AcDbVisualStyle
  2
JitterOff
 70
    20
 71
     2
 72
     2
 73
     0
 90
        0
 40
-0.6
 41
-30.0
 62
     5
 63
     7
 74
     1
 91
        4
 64
     7
 65
   257
 75
     1
175
     1
 42
1.0
 92
       10
 66
     7
 43
1.0
 76
     1
 77
     6
 78
     2
 67
     7
 79
     5
170
     0
171
     0
290
     0
174
     0
 93
        1
 44
0.0
173
     0
291
     1
 45
0.0
1001
ACAD
1000
AcDbSavedByObjectVersion
1070
     0
  0
VISUALSTYLE
  5
8238
102
{ACAD_XDICTIONARY
360
83B9
102
}
102
{ACAD_REACTORS
330
822A
102
}
330
822A
100
AcDbVisualStyle
  2
Linepattern
 70
    14
 71
     2
 72
     2
 73
     0
 90
        0
 40
-0.6
 41
-30.0
 62
     5
 63
     7
 74
     1
 91
        4
 64
     7
 65
   257
 75
     7
175
     7
 42
1.0
 92
        8
 66
     7
 43
1.0
 76
     1
 77
     6
 78
     2
 67
     7
 79
     5
170
     0
171
     0
290
     0
174
     0
 93
        1
 44
0.0
173
     0
291
     1
 45
0.0
1001
ACAD
1000
AcDbSavedByObjectVersion
1070
     0
  0
VISUALSTYLE
  5
8241
102
{ACAD_XDICTIONARY
360
83CB
102
}
102
{ACAD_REACTORS
330
822A
102
}
330
822A
100
AcDbVisualStyle
  2
OverhangOff
 70
    21
 71
     2
 72
     2
 73
     0
 90
        0
 40
-0.6
 41
-30.0
 62
     5
 63
     7
 74
     1
 91
        4
 64
     7
 65
   257
 75
     1
175
     1
 42
1.0
 92
        9
 66
     7
 43
1.0
 76
     1
 77
     6
 78
     2
 67
     7
 79
     5
170
     0
171
     0
290
     0
174
     0
 93
        1
 44
0.0
173
     0
291
     1
 45
0.0
1001
ACAD
1000
AcDbSavedByObjectVersion
1070
     0
  0
VISUALSTYLE
  5
8234
102
{ACAD_XDICTIONARY
360
83B1
102
}
102
{ACAD_REACTORS
330
822A
102
}
330
822A
100
AcDbVisualStyle
  2
Realistic
 70
     8
 71
     2
 72
     3
 73
     0
 90
        2
 40
-0.6
 41
30.0
 62
     5
 63
     7
 74
     0
 91
        0
 64
     7
 65
   257
 75
     1
175
     1
 42
1.0
 92
        8
 66
   257
 43
1.0
 76
     1
 77
     6
 78
     2
 67
     7
 79
     3
170
     0
171
     0
290
     0
174
     0
 93
       13
 44
0.0
173
     0
291
     0
 45
0.0
1001
ACAD
1000
AcDbSavedByObjectVersion
1070
     0
  0
VISUALSTYLE
  5
823F
102
{ACAD_XDICTIONARY
360
83C7
102
}
102
{ACAD_REACTORS
330
822A
102
}
330
822A
100
AcDbVisualStyle
  2
Shaded
 70
    27
 71
     2
 72
     2
 73
     1
 90
        2
 40
-0.6
 41
30.0
 62
     5
 63
     7
 74
     0
 91
        4
 64
     7
 65
   257
 75
     1
175
     1
 42
1.0
 92
        8
 66
   257
 43
1.0
 76
     1
 77
     6
 78
     2
 67
     8
 79
     3
170
     0
171
     0
290
     0
174
     0
 93
        5
 44
0.0
173
     0
291
     0
 45
0.0
1001
ACAD
1000
AcDbSavedByObjectVersion
1070
     0
  0
VISUALSTYLE
  5
823E
102
{ACAD_XDICTIONARY
360
83C5
102
}
102
{ACAD_REACTORS
330
822A
102
}
330
822A
100
AcDbVisualStyle
  2
Shaded with edges
 70
    26
 71
     2
 72
     2
 73
     1
 90
        2
 40
-0.6
 41
30.0
 62
     5
 63
     7
 74
     1
 91
       10
 64
     7
 65
   257
 75
     2
175
     1
 42
1.0
 92
        8
 66
   257
 43
1.0
 76
     1
 77
     6
 78
     2
 67
     7
 79
     3
170
     0
171
     0
290
     0
174
     0
 93
        5
 44
0.0
173
     0
291
     0
 45
0.0
1001
ACAD
1000
AcDbSavedByObjectVersion
1070
     0
  0
VISUALSTYLE
  5
823B
102
{ACAD_XDICTIONARY
360
83BF
102
}
102
{ACAD_REACTORS
330
822A
102
}
330
822A
100
AcDbVisualStyle
  2
Shades of Gray
 70
    23
 71
     2
 72
     2
 73
     3
 90
        0
 40
-0.6
 41
-30.0
 62
     5
 63
     7
 74
     2
 91
        2
 64
     7
 65
     7
 75
     1
175
     1
 42
40.0
 92
        8
 66
     7
 43
1.0
 76
     1
 77
     6
 78
     2
 67
     7
 79
     3
170
     0
171
     0
290
     0
174
     0
 93
        1
 44
0.0
173
     0
291
     0
 45
0.0
1001
ACAD
1000
AcDbSavedByObjectVersion
1070
     0
  0
VISUALSTYLE
  5
823C
102
{ACAD_XDICTIONARY
360
83C1
102
}
102
{ACAD_REACTORS
330
822A
102
}
330
822A
100
AcDbVisualStyle
  2
Sketchy
 70
    24
 71
     1
 72
     2
 73
     2
 90
        0
 40
-0.6
 41
-30.0
 62
     5
 63
     7
 74
     2
 91
        2
 64
     7
 65
     7
 75
     1
175
     1
 42
40.0
 92
       11
 66
     7
 43
1.0
 76
     1
 77
     6
 78
     2
 67
     7
 79
     6
170
     0
171
     0
290
     0
174
     0
 93
        1
 44
0.0
173
     0
291
     0
 45
0.0
1001
ACAD
1000
AcDbSavedByObjectVersion
1070
     0
  0
VISUALSTYLE
  5
8237
102
{ACAD_XDICTIONARY
360
83B7
102
}
102
{ACAD_REACTORS
330
822A
102
}
330
822A
100
AcDbVisualStyle
  2
Thicken
 70
    13
 71
     2
 72
     2
 73
     0
 90
        0
 40
-0.6
 41
-30.0
 62
     5
 63
     7
 74
     1
 91
        4
 64
     7
 65
   257
 75
     1
175
     1
 42
1.0
 92
       12
 66
     7
 43
1.0
 76
     1
 77
     6
 78
     2
 67
     7
 79
     5
170
     0
171
     0
290
     0
174
     0
 93
        1
 44
0.0
173
     0
291
     1
 45
0.0
1001
ACAD
1000
AcDbSavedByObjectVersion
1070
     0
  0
VISUALSTYLE
  5
8231
102
{ACAD_XDICTIONARY
360
83AB
102
}
102
{ACAD_REACTORS
330
822A
102
}
330
822A
100
AcDbVisualStyle
  2
Wireframe
 70
     5
 71
     0
 72
     2
 73
     0
 90
        0
 40
-0.6
 41
-30.0
 62
     5
 63
     7
 74
     1
 91
        4
 64
     7
 65
   257
 75
     1
175
     1
 42
1.0
 92
        0
 66
   257
 43
1.0
 76
     1
 77
     6
 78
     2
 67
     7
 79
     3
170
     0
171
     0
290
     0
174
     0
 93
        1
 44
0.0
173
     0
291
     0
 45
0.0
1001
ACAD
1000
AcDbSavedByObjectVersion
1070
     0
  0
VISUALSTYLE
  5
823D
102
{ACAD_XDICTIONARY
360
83C3
102
}
102
{ACAD_REACTORS
330
822A
102
}
330
822A
100
AcDbVisualStyle
  2
X-Ray
 70
    25
 71
     2
 72
     2
 73
     1
 90
        1
 40
0.5
 41
-30.0
 62
     5
 63
     7
 74
     1
 91
        0
 64
     7
 65
   257
 75
     1
175
     1
 42
1.0
 92
        8
 66
     7
 43
1.0
 76
     1
 77
     6
 78
     2
 67
     7
 79
     3
170
     0
171
     0
290
     0
174
     0
 93
       13
 44
0.0
173
     0
291
     0
 45
0.0
1001
ACAD
1000
AcDbSavedByObjectVersion
1070
     0
  0
DICTIONARYVAR
  5
8351
102
{ACAD_REACTORS
330
834C
102
}
330
834C
100
DictionaryVariables
280
     0
  1
1:1
  0
DICTIONARYVAR
  5
834E
102
{ACAD_REACTORS
330
834C
102
}
330
834C
100
DictionaryVariables
280
     0
  1
STANDARD
  0
DICTIONARYVAR
  5
834D
102
{ACAD_REACTORS
330
834C
102
}
330
834C
100
DictionaryVariables
280
     0
  1
STANDARD
  0
DICTIONARYVAR
  5
834F
102
{ACAD_REACTORS
330
834C
102
}
330
834C
100
DictionaryVariables
280
     0
  1
Imperial24
  0
DICTIONARYVAR
  5
8350
102
{ACAD_REACTORS
330
834C
102
}
330
834C
100
DictionaryVariables
280
     0
  1
Imperial24
  0
DICTIONARYVAR
  5
8354
102
{ACAD_REACTORS
330
834C
102
}
330
834C
100
DictionaryVariables
280
     0
  1
1
  0
DICTIONARYVAR
  5
8353
102
{ACAD_REACTORS
330
834C
102
}
330
834C
100
DictionaryVariables
280
     0
  1
0
  0
DICTIONARYVAR
  5
8352
102
{ACAD_REACTORS
330
834C
102
}
330
834C
100
DictionaryVariables
280
     0
  1
127
  0
DICTIONARYVAR
  5
8355
102
{ACAD_REACTORS
330
834C
102
}
330
834C
100
DictionaryVariables
280
     0
  1
2
  0
DICTIONARY
  5
83D3
330
826B
100
AcDbDictionary
280
     1
281
     1
  3
ACAD_XREC_ROUNDTRIP
360
83D4
  0
DICTIONARY
  5
83D7
330
8273
100
AcDbDictionary
280
     1
281
     1
  3
ACAD_XREC_ROUNDTRIP
360
83D8
  0
DICTIONARY
  5
83D5
330
826F
100
AcDbDictionary
280
     1
281
     1
  3
ACAD_XREC_ROUNDTRIP
360
83D6
  0
DICTIONARY
  5
821B
330
821A
100
AcDbDictionary
280
     1
281
     1
  3
ACAD_XREC_ROUNDTRIP
360
839D
  3
BUMPTILE
360
821D
  3
DIFFUSETILE
360
821C
  3
OPACITYTILE
360
8220
  3
REFLECTIONTILE
360
821F
  3
REFRACTIONTILE
360
8221
  3
SPECULARTILE
360
821E
  0
DICTIONARY
  5
8213
330
8212
100
AcDbDictionary
280
     1
281
     1
  3
ACAD_XREC_ROUNDTRIP
360
839C
  3
BUMPTILE
360
8215
  3
DIFFUSETILE
360
8214
  3
OPACITYTILE
360
8218
  3
REFLECTIONTILE
360
8217
  3
REFRACTIONTILE
360
8219
  3
SPECULARTILE
360
8216
  0
DICTIONARY
  5
8223
330
8222
100
AcDbDictionary
280
     1
281
     1
  3
ACAD_XREC_ROUNDTRIP
360
839E
  3
BUMPTILE
360
8225
  3
DIFFUSETILE
360
8224
  3
FBXASSET
360
8306
  3
OPACITYTILE
360
8228
  3
REFLECTIONTILE
360
8227
  3
REFRACTIONTILE
360
8229
  3
SPECULARTILE
360
8226
  0
DICTIONARY
  5
83D1
330
8269
100
AcDbDictionary
280
     1
281
     1
  3
ACAD_XREC_ROUNDTRIP
360
83D2
  0
DICTIONARY
  5
8398
330
8265
100
AcDbDictionary
280
     1
281
     1
  3
ACAD_ROUNDTRIP_2008_TABLESTYLE_CELLSTYLEMAP
360
8399
  3
ACAD_XREC_ROUNDTRIP
360
83CF
  0
DICTIONARY
  5
83A9
330
8230
100
AcDbDictionary
280
     1
281
     1
  3
ACAD_XREC_ROUNDTRIP
360
83AA
  0
DICTIONARY
  5
83A7
330
822F
100
AcDbDictionary
280
     1
281
     1
  3
ACAD_XREC_ROUNDTRIP
360
83A8
  0
DICTIONARY
  5
83B5
330
8236
100
AcDbDictionary
280
     1
281
     1
  3
ACAD_XREC_ROUNDTRIP
360
83B6
  0
DICTIONARY
  5
83BD
330
823A
100
AcDbDictionary
280
     1
281
     1
  3
ACAD_XREC_ROUNDTRIP
360
83BE
  0
DICTIONARY
  5
83AF
330
8233
100
AcDbDictionary
280
     1
281
     1
  3
ACAD_XREC_ROUNDTRIP
360
83B0
  0
DICTIONARY
  5
83B3
330
8235
100
AcDbDictionary
280
     1
281
     1
  3
ACAD_XREC_ROUNDTRIP
360
83B4
  0
DICTIONARY
  5
83CD
330
8242
100
AcDbDictionary
280
     1
281
     1
  3
ACAD_XREC_ROUNDTRIP
360
83CE
  0
DICTIONARY
  5
83BB
330
8239
100
AcDbDictionary
280
     1
281
     1
  3
ACAD_XREC_ROUNDTRIP
360
83BC
  0
DICTIONARY
  5
839F
330
822B
100
AcDbDictionary
280
     1
281
     1
  3
ACAD_XREC_ROUNDTRIP
360
83A0
  0
DICTIONARY
  5
83A1
330
822C
100
AcDbDictionary
280
     1
281
     1
  3
ACAD_XREC_ROUNDTRIP
360
83A2
  0
DICTIONARY
  5
83A3
330
822D
100
AcDbDictionary
280
     1
281
     1
  3
ACAD_XREC_ROUNDTRIP
360
83A4
  0
DICTIONARY
  5
83A5
330
822E
100
AcDbDictionary
280
     1
281
     1
  3
ACAD_XREC_ROUNDTRIP
360
83A6
  0
DICTIONARY
  5
83AD
330
8232
100
AcDbDictionary
280
     1
281
     1
  3
ACAD_XREC_ROUNDTRIP
360
83AE
  0
DICTIONARY
  5
83C9
330
8240
100
AcDbDictionary
280
     1
281
     1
  3
ACAD_XREC_ROUNDTRIP
360
83CA
  0
DICTIONARY
  5
83B9
330
8238
100
AcDbDictionary
280
     1
281
     1
  3
ACAD_XREC_ROUNDTRIP
360
83BA
  0
DICTIONARY
  5
83CB
330
8241
100
AcDbDictionary
280
     1
281
     1
  3
ACAD_XREC_ROUNDTRIP
360
83CC
  0
DICTIONARY
  5
83B1
330
8234
100
AcDbDictionary
280
     1
281
     1
  3
ACAD_XREC_ROUNDTRIP
360
83B2
  0
DICTIONARY
  5
83C7
330
823F
100
AcDbDictionary
280
     1
281
     1
  3
ACAD_XREC_ROUNDTRIP
360
83C8
  0
DICTIONARY
  5
83C5
330
823E
100
AcDbDictionary
280
     1
281
     1
  3
ACAD_XREC_ROUNDTRIP
360
83C6
  0
DICTIONARY
  5
83BF
330
823B
100
AcDbDictionary
280
     1
281
     1
  3
ACAD_XREC_ROUNDTRIP
360
83C0
  0
DICTIONARY
  5
83C1
330
823C
100
AcDbDictionary
280
     1
281
     1
  3
ACAD_XREC_ROUNDTRIP
360
83C2
  0
DICTIONARY
  5
83B7
330
8237
100
AcDbDictionary
280
     1
281
     1
  3
ACAD_XREC_ROUNDTRIP
360
83B8
  0
DICTIONARY
  5
83AB
330
8231
100
AcDbDictionary
280
     1
281
     1
  3
ACAD_XREC_ROUNDTRIP
360
83AC
  0
DICTIONARY
  5
83C3
330
823D
100
AcDbDictionary
280
     1
281
     1
  3
ACAD_XREC_ROUNDTRIP
360
83C4
  0
XRECORD
  5
83D4
102
{ACAD_REACTORS
330
83D3
102
}
330
83D3
100
AcDbXrecord
280
     1
102
DISPLAYNAME
  1
Imperial24
102
FLAGS
 90
        0
  0
XRECORD
  5
83D8
102
{ACAD_REACTORS
330
83D7
102
}
330
83D7
100
AcDbXrecord
280
     1
102
SHADEPLOT
 70
     0
102
SHADEPLOTRESLEVEL
 70
     2
102
SHADEPLOTCUSTOMDPI
 70
   300
  0
XRECORD
  5
83D6
102
{ACAD_REACTORS
330
83D5
102
}
330
83D5
100
AcDbXrecord
280
     1
102
SHADEPLOT
 70
     0
102
SHADEPLOTRESLEVEL
 70
     2
102
SHADEPLOTCUSTOMDPI
 70
   300
  0
XRECORD
  5
839D
102
{ACAD_REACTORS
330
821B
102
}
330
821B
100
AcDbXrecord
280
     1
102
MATERIAL
148
0.0
149
0.0
149
0.0
 93
        0
 94
      127
282
     0
 72
     0
 77
     0
171
     0
175
     0
179
     0
273
     0
  0
XRECORD
  5
821D
102
{ACAD_REACTORS
330
821B
102
}
330
821B
100
AcDbXrecord
280
     1
270
     1
271
     1
  0
XRECORD
  5
821C
102
{ACAD_REACTORS
330
821B
102
}
330
821B
100
AcDbXrecord
280
     1
270
     1
271
     1
  0
XRECORD
  5
8220
102
{ACAD_REACTORS
330
821B
102
}
330
821B
100
AcDbXrecord
280
     1
270
     1
271
     1
  0
XRECORD
  5
821F
102
{ACAD_REACTORS
330
821B
102
}
330
821B
100
AcDbXrecord
280
     1
270
     1
271
     1
  0
XRECORD
  5
8221
102
{ACAD_REACTORS
330
821B
102
}
330
821B
100
AcDbXrecord
280
     1
270
     1
271
     1
  0
XRECORD
  5
821E
102
{ACAD_REACTORS
330
821B
102
}
330
821B
100
AcDbXrecord
280
     1
270
     1
271
     1
  0
XRECORD
  5
839C
102
{ACAD_REACTORS
330
8213
102
}
330
8213
100
AcDbXrecord
280
     1
102
MATERIAL
148
0.0
149
0.0
149
0.0
 93
        0
 94
      127
282
     0
 72
     0
 77
     0
171
     0
175
     0
179
     0
273
     0
  0
XRECORD
  5
8215
102
{ACAD_REACTORS
330
8213
102
}
330
8213
100
AcDbXrecord
280
     1
270
     1
271
     1
  0
XRECORD
  5
8214
102
{ACAD_REACTORS
330
8213
102
}
330
8213
100
AcDbXrecord
280
     1
270
     1
271
     1
  0
XRECORD
  5
8218
102
{ACAD_REACTORS
330
8213
102
}
330
8213
100
AcDbXrecord
280
     1
270
     1
271
     1
  0
XRECORD
  5
8217
102
{ACAD_REACTORS
330
8213
102
}
330
8213
100
AcDbXrecord
280
     1
270
     1
271
     1
  0
XRECORD
  5
8219
102
{ACAD_REACTORS
330
8213
102
}
330
8213
100
AcDbXrecord
280
     1
270
     1
271
     1
  0
XRECORD
  5
8216
102
{ACAD_REACTORS
330
8213
102
}
330
8213
100
AcDbXrecord
280
     1
270
     1
271
     1
  0
XRECORD
  5
839E
102
{ACAD_REACTORS
330
8223
102
}
330
8223
100
AcDbXrecord
280
     1
102
MATERIAL
148
0.0
149
0.0
149
0.0
 93
        0
 94
      127
282
     0
 72
     0
 77
     0
171
     0
175
     0
179
     0
273
     0
  0
XRECORD
  5
8225
102
{ACAD_REACTORS
330
8223
102
}
330
8223
100
AcDbXrecord
280
     1
270
     1
271
     1
  0
XRECORD
  5
8224
102
{ACAD_REACTORS
330
8223
102
}
330
8223
100
AcDbXrecord
280
     1
270
     1
271
     1
  0
XRECORD
  5
8306
102
{ACAD_REACTORS
330
8223
102
}
330
8223
100
AcDbXrecord
280
     1
 70
     1
 90
1959938040
 71
     1
  1
2E513BFA-D383-4196-8626-F76D5CB52DE3
311
504B0304140006080800718C7657B173BEC2BE000000200100004F00000042333742323745412D314534312D343338322D413041432D3632303342453442443534432F4173736574446174612F446566696E6974696F6E4974657261746F7250726F706572746965732E62696EEB606060F80F0540260323103700495E20ED
311
9E9A975A94991C9C9C919A9BC8C00612C9C94F4ACC6147C831019920AE4B6A5A62694E0948976F6671726A4E4E625E6A7E69B12042A9426E6209D0B8C41C3D90264E20860914834C48875806B2DF0F88414E02D189290556F689C5C5A925B6FA694915FAA6864E0616AEE626BA6EAE0626BA2606A66EBA4EAE6686BA66C606
311
96264096A999A1A37E516A717E6951726AB1BE91BE413CD4E4F882BC7406861B27CED63A001D00720308130200504B0304140006080800718C765757B3929102010000300200004500000042333742323745412D314534312D343338322D413041432D3632303342453442443534432F4173736574446174612F496E737461
311
6E636550726F706572746965732E62696EEB606060F80F0540260323103700495E20ED9E9A975A94991C9C9C919A9BA802143072353534767273D47531B630D63531B434D3B5303332D3753337733175763235727135664768046931363471713532B5D4353531016A313332D475727372D13534373670367376B67474B504
311
2A03DBCBA019D37FE8ABC6157B20CD04146B0062181F4C03F940F0C11EA29A8141C08141002C0426541C106CAC2CA046088033B02A030AC2157C6006F21A8018AAF50194E6010A610250382264E08660284CD9E98021862280A91564B406929A0FF62C401E28B6F88038B83CB1243943D7A928312F25350524C3C0A0DD70F5
311
6A83369809E6AC0A85B251645054A1A983A947A601504B0304140006080800718C765728BB58AF800100009E0500003D00000042333742323745412D314534312D343338322D413041432D3632303342453442443534432F536368656D61732F436F6D6D6F6E536368656D612E786D6CBD544D4FC23018BEFB2B96DE15493C
311
78601010A34B880709DEDFB52FD0D8B54BD70DF6EFED3AC0B12E6442E2716BFB3CEFF3D18E26FB440405EA8C2B1992E1C323095052C5B8DC842437EBFB673219DF8DA659866649B798C078B48AE6410122242F2A4994AC7F93815DF85C049C8564CA0A901499DD886B2EB9B1E02448F358701A9235880C49A0119892A20C89
311
D1B9FD768815CAD268CB5E0355B40B1E47F3E37A2020464BED06AA57CE8FCC20C3C3446D46761A2632A8C1283D07031EFF2AE7CCB1BFEEE916E406DFAC8E36FFD99A9D60A6944090EEDC3B670C7DC13DE86B6B2C5C240D6E503BB85ACD579D513F1B9F9A69DC9CC22AFA80C426D40AF0B21EA168559156B6276F0F726A6BFF
311
04DCD513A87A62CAD41FB24FCB2858B3952E3D852084DA25B9303C15687973CC8E8AAE11DF2836C38C6A9E765E8C1BA1BFB1DC29CDFE518C8B5A7655A4ED7E77291ABEB80DBD82EC866ADE1B8D05AF9E35CF09D7A061F38A986D9EC412B8F0F65E5D81534D9B231D1E5A8FE577A241F3A5FD01504B0304140006080800718C
311
76572CCEBD668A040000E01200003E00000042333742323745412D314534312D343338322D413041432D3632303342453442443534432F536368656D61732F47656E65726963536368656D612E786D6CD5586D6FDB380CFE7EBF42F0F7A649B70E1B90744856B4970F450FCD7A5F05459613EDE4174872DADCAF3F522F8ED3
311
B88D2F1D06AC4050DBA2493EE4438AF2F8EB73AEC8466823CB62928C06C384888297A92C5693A4B6D9D9E7E4EBD51FE3A931C22EF85AE4EC6AFC38BF261BA626C9AD288496DC3F4FCEAFC63366845F7A10452AF41DB320C0D44EC26EAB20918735565582695670811A6A49643A49A6E9069FA4604A64B29016DC4B48552F95
311
E4932463CA888468C1D2B250DB4962750DF7CE273069CE8363F1FF4EDB00E0A21999574AE4A2B00C353B93F3BD4777B8A61ED8F604ABFEDD79CE56A2B7BDFBDBC50996E0ADDE16FED26223C5D30956C29BDF4A55EA686E5E58B112DA45CE67F76F4FA27EFA3FB672FD7372FC388FAECDCA5209E693CAD167BADCD272F94370
311
1B3812F8A3D852008B1D2E32DB927B2F833C6EA95879925356D254582695095A3CE982924720BE5774A3CB9CDCDB350427D2DF20DA1B5532EBE2D5D6288D75D4F7E4FD9890A0EF8E3D93EBB8F8BA4758158EF6FB90A6F9520281C93DE7AAC6D24607DA296BB96018123F821A7D6A5C5884050C475DA4865442732C8B95684A
311
50165CBB3A32F25F783A4A480ED59AD7F924B968AEA50131F46303223E6A397B0E52976030DC1DCA81D7E7C1EDEEA42C19FF27635C505E2BD5198A599020DF50A2330FCB3AAF28CB0124108429553EF1B228802E2265D8F7CC2401042B155BCC7070F1E5C55F13B4A9577362CCCE46C32174E010C3C378C44841A4BDA00FE3
311
A12006CE11EE6AEC59894D3526DDE1CD59D503ECC324017F8061B7F162162FA62EDD81AE3308617770796DCBDAD2B2625C5AE8A63DE20B2C8AA5E95E76E5730823955956E33E705425A2187C185D36489A1B44D3DCEC2172F6BA2105C3546287A7194B2331768EBBE64F6E70A9930ABE0ADEA89E9E2C38523B810287AD67A5
311
4A039C1606EAFE68F8304610BB9093DBDDABC0B2AE4E290DCDA15376D7E39F72B556F0B32EAB5D3D498B4C41ABADEC3A1434C422D87E8025A84BDCB2B1417ED750FAE4DA8976863974C577C7F902D3F156AD354DEA3540DE6BEAE2BEA52F7A2EB4CA43802ECE5BF2CE2EDC9347179FFB023CE412E60BE16DA0BE29B374988A
311
553F561DC04615DD35F7D2C8979F60E5955CE93DF29DED8AFA1EE6642D53418086C03C47C377910F75F7E8F5EF665F70B60FFB22AEDF897D119E8423C773E819A3C1E55E550599EE6EDCA34D0C86FD72057DF2CD46F16A470682471C164E4346D5306BF12D7D12D82CFF673D41636C347443FEB51B50D72EA171A8E4A58623
311
A4A16E0FA2B8B10A0D23268D87C33896EE8FB73305A74BF224EDBADFA0BD674AB354D63DB7BD5D83426761C077DE767728235446A552754EB93B755891C3C4CC6CADE37CF0E912A7BB38DBA010F9DE1282EDF470CA69A9CDA482E334C4A6EA4107987980B17E72F31730EBF88BBD39E7C629F56797A3C0009C2C5AE7951D9A
311
05A02773440F02EEB4DE396A3B6A570C72CCFBCD823B0B8ED3F1D5CEDDFED772FA70236C83FB7D86C385D570B87107535572A60A96035F8F7C6A7192F13007246BBE0521855E6AC46F3E27689CEE7D186A6FD679D98CDCAD13333E04EBE7ED6F55FF01504B0304140006080800718C76576180134D5F0100006B0300004500
311
000042333742323745412D314534312D343338322D413041432D3632303342453442443534432F536368656D61732F52656E6465724D6174657269616C536368656D612E786D6CA5934D6FC2300C86EFFB1551EEE343DBA41D1A103009551ADAD40EAE28A4A68D9426284961FCFBE5A340113B2071746D3F765EBF4DC6BFB5
311
407BD0862B49F0B037C0082453059725C18DDD3EBFE3F1E829991803366715D474942CD30FB4A782E00C64017A412D684E454CE3FE28995203B162A6EA5AC94B66997D225E109CD63B0135484BAD1B3C07E9080CA35DB3119C11BCA5C200461A68A1A438126C75E3E230D40FF81FB3F03C91D1E3A3A0AF79FE28E25BC39EC3
311
E17E4C2A2D94A0833A51AF55BCCA7D88572FCBAC529C4140B020FC3AAFA886621DCED7EAD7664CC86024E806DC297DA1BB393E4156543457A4537DB8817349A70F8ACBF09B3EEE2CB2F33E91B65D60786E4E3B39B77E3FEEEF5650424525DA657FB8B46BE6BF064646F0A0F7327C0BC1BC1B4CBBC1C419FA3CCB2350000787
311
2A2580CAAE5461865565294E4EDB4617B62FF579DF9A5B2F54E834076A597573A020912FED777F9B3F504B0304140006080800718C7657E74356C751000000570000004700000042333742323745412D314534312D343338322D413041432D3632303342453442443534432F4173736574446174612F41737365745461626C
311
654F66436F6E74656E74732E62696E536160603072353534767273D47531B630D63531B434D3B5303332D37533377331757632357271351602AACB4D2C492DCA4CCC492C28484D2C4ACC4B4E050A82012F90744FCD03CA26072767A4E6260200504B0304140006080800718C7657F865834058000000680000004500000042
311
333742323745412D314534312D343338322D413041432D3632303342453442443534432F4173736574446174612F53747265616D56657273696F6E5461626C652E696E66558CBD0A80300C06F73E4B117FB66E451741D041DC5BF98480A492E4FDD18EAEC7DD4555D89EF28DF51A0B1BD8340C4DE7DD848B988C0ACF064956
311
6493F2408C508DDEBB99D5129FF8F1AF8CF5B9503E20FAE5A16B5AF702504B0304140006080800718C7657DB9B5151350100009A0400003600000042333742323745412D314534312D343338322D413041432D3632303342453442443534432F4173736574446174612F636E782E786D6CCD94314FC3301085FF4AE43D7693
311
824095E30AC1D209242A06B6AB7369AD3A76645F10FC7BEC3403A888A943D7F3BBF3F327BF93EBCFDE161F18A2F1AE61155FB0029DF6AD71FB868DD495F7AC582B19BCA71F325638E8B161B9CC94DC073F0E73A9C50E469BABD6B8E35C7C8811690B3B8BCFDDA377848E222BB485181B16F5017BE030926F311E790B04BCE2
311
01A31F83C634894C8FF3241D10085BA6EA45BD2CABAAACEB6D75B75ADEAE9637EF5264A5923BEFEDAC37E9B2E087429F6E656A21453E56720C66D6E4B730F59747BE334E8AA4543252484CE60EFA1A52070C83351A28A1135E1352994408BD1427B1922233F845E2093BE34C6ED92463403EBC247B18C8E0D511F9CFEBE5C9
311
6C5C24701AAF97C7B9C3CB53789D7ED0DB29905362AE2D27E70EB971DD055222A635924293B78AFA06504B0304140006080800718C7657FB578D1F090100004F0300003400000042333742323745412D314534312D343338322D413041432D3632303342453442443534432F536368656D61732F636E782E786D6CCD93BD4E
311
042114855F65423FB033A3D16C18B6B0B0B2512B3B84BBBB64813BE1C7E8DB0B23C56E62A7C57670F842CE395CF8EED3D9EE034234E86732D00DE9C02BD4C61F6692D3BEBF27DD4EF08098CE30D279E960265526821F02E6A5491AF632DBAA5AE34F4D7C40E7D0BFA82338493A65658C3389EB96CA9C50433C512D93A4030D
311
10310705E586641CB41B5400994013316EC6A91F867E1C5F87BBED74BB9D6EDE38ABA4E0EF88B6F1C62708B8740ACBC2173B1BCEEAB1E03998C6D40C449C7BA3A50DCE0A21784CA174D0C8F4B514522E8B354AA652155BC11F467056A35E047E040FC1A8EB4C7C61EEDF223F83D7109ECA2B0523ED7526FFCDE3DF0A60EBEC
311
9711A85F417C03504B0304140006080800718C7657410A3D5871000000A40000002C00000042333742323745412D314534312D343338322D413041432D3632303342453442443534432F636E782E786D6C55CC4D0E82301086E1AB34B31774E7A22D31F1069E60020334B633A63FC6E34B0909B07DDE2F9FEE7EC1AB2FC5E4
311
840DDC9A2B28E25E06C7938192C7CB1D54677514C9871928C640062A83D55394F2D968A0118BAFEA1DBF377CA444F98919176EAB9FEAAB9F2960DA5BBB1E2ED3FA6FFF504B0304140006080800718C765772918B0C7E000000A300000007000000636E782E786D6C4D8C4D0EC2201805AF42BE3DCA9FB60BA081CA411A4B9B
311
460AA616E3F105D385AB974CDE8CEC3E6B406FBFBD961415D01301E4E33D8D4B9C15E47DC22DA04ECB2DA5FDEF06280EAB57503168396F293F0F34FA69C8A1D2B0C4C7012D6F2C6B9CC1D4098A056F1936C4F4F8CA08B74ED8DB45F4C53857A5CCAF57B6E6F517504B0304140006080800718C765716E99B5DA60000003501
311
0000130000005B436F6E74656E745F54797065735D2E786D6C9590410E82301045AFD2740F4517C6180A0BF5065E60AC53688469D30E066F6F91AD9AB89CF9FFFD3F99BA9DC7413C3026E749CB4D59498164FCCD51A7E5C4B6D84BD136F5E5193089ECA5A465CF1C0E4A25D3E308A9F401292BD6C711388FB15301CC1D3A54
311
DBAADA29E38991B8E0254336F5092D4C038BF39CD76B6FC6A538AEBEA54A4B08617006389FA516557DE4AE8E7E70DE30729138228C5F021CD93F02D4FB0DCD0B504B0304140006080800718C76573DEE336E64000000790000001B0000006175746F6465736B2D64657369676E2D7061636B6167652E786D6C35CBC10E8320
311
0C00D05F21DCA56CA76D41FC96062B120735B69A7DBE268BB7777961F8D5AF396893C2ADB70FE7ADA196782C2DF776D7A97B5933C430F15651E5469C55D70F80A4992A3ADC954792C525AE70A1E4D6AD9816CC044FEFDF01FE3FDE907802504B0304140006080800718C765728C10394F80000009601000037000000423337
311
42323745412D314534312D343338322D413041432D3632303342453442443534432F4173736574446174612F636F72652E786D6C8550CB6E833010FC15B477033624A0C838A20DF9829E7AB36C875A0936F2A3EAE7D70E546A4F3DED6A76667677E8F96B79149FCA796DCD00B8ACA1504658A9CD3C400C37D4437166D4591B
311
7ED1A0307C51036418189D9D8DEB0E096B8232193556AA1DE4DEAB008578A466002F3ED4C24B1E4362F87BB97271E7B32A71B9F1188D51CB5DAA6572D337AD1CB0B6EE0E53D7BDA2E9DAF7A825F8825EC8D4A31193B11EC9F188AF985659CC68D0CBCF76E1140F4A0223356910C6889037DC9D9AC3A969DF6995998CFAE0D2
311
CFFBD2FC1DB0315F7DE181D36A9BFE718DABFCDF356A131AB2BB6E0A0F2C1FF91C305AE594527946986A4E947D03504B0304140006080800718C765779A5F6B1F7000000940100003500000042333742323745412D314534312D343338322D413041432D3632303342453442443534432F536368656D61732F636F72652E78
311
6D6C8550CB6E833010FC15B477033624A0C838A22DF981F6D49B653BD44AB0911F553FBF36A1527BEA6957B333B3BB43CF5FCBBDF854CE6B6B06C0650D8532C24A6DE60162B8A21E8A33A3CEDAF08B0685E18B1A20C3C0E8EC6C5C7748581394C9A8B152ED20F75E0528C43D350378F1A1165EF21812C3DFCA958B1B9F5589
311
CB078FD118B5DCA55A26377DD5CA016BEBEE3075DD339A2E7D8F5A825FD013997A346232D623391EF105D32A8B190D7AF9D92E9CE2414960A4260DC21811F286BB53733835ED3BAD3293511F5CFA795F9ABF03F6BADDE969F598FDF18CABFCDF336A131AB27B3E141E583E711B305AE58C52D9024C35E7C9BE01504B030414
311
0006080800718C7657EA258F9001010000D70100002D00000042333742323745412D314534312D343338322D413041432D3632303342453442443534432F636F72652E786D6C9591C16E842010865FC5CC1D15D0BAD9201BDDEE1BF4D41B95594B760523D0F4F18BD5A6EDAD3D417EBE7F867F469CDEA77BF6868B37CEB640
311
F31232B483D3C68E2DC4702507C84E522CCE851F1864564DD8C22A8314E3E2E2BC4B83B301EDAA5AA7711795F718201BEEE9D2821F5E7152B98A2111FE96CF6AB8A911739A6F9C14C14C5FD661411550836425E38452C2D8136D8EBC3EF2EA59142B2945343670B637C3E90575E6E6902281AC45B1BD262A1ABD3346A73F9A
311
ABC10564CF9B9E35978ED04B4549C50F8C746577260FACE4FDA5EA1FEBEA9C8A24B3143E2C69327B9175067FB56FC65FC9E2ACFF996C737890F43B54B18E598AE27307E95C57223F00504B0304140006080800718C7657EB70C66806010000B201000008000000636F72652E786D6C8D50C16E842014FC15F2EEA8A0BB9A0D
311
B2B1ADFB053DF54685B564150CE0A6FDFBC26A93F6D6D32333F3DE0CC3CE9FF384EECA796D4D0B242B00293358A9CDD8C21AAEB80174E6CC591B7EC9001931AB16120C9C8DCEAECB0E0DD60465126AAC543B28BC5701D030C5470B7EF850B3C8C41AA2C2DFB2450C3731AA8C649B8EB3A0E79FD5C1291194044E0B5A624230
311
A5AFA43E95875359BDB13C29395B572D772B2DA3BBBE6AE58057457DE8EBFA19F797A6C115252FF889F60DEE08ED8A8E1E8FE442589E9639F3C1C53FEF4762CE80BCB8275F966F1467EFD64EBB208692C89AE90B78C1F244FC09BD2EF21FA1B50925DD0F6E1B1E780AF420A2716A308E47BD71A6B6F937504B010214001400
311
06080800718C7657B173BEC2BE000000200100004F000000000000000000000000000000000042333742323745412D314534312D343338322D413041432D3632303342453442443534432F4173736574446174612F446566696E6974696F6E4974657261746F7250726F706572746965732E62696E504B0102140014000608
311
0800718C765757B39291020100003002000045000000000000000000000000002B01000042333742323745412D314534312D343338322D413041432D3632303342453442443534432F4173736574446174612F496E7374616E636550726F706572746965732E62696E504B01021400140006080800718C765728BB58AF8001
311
00009E0500003D000000000000000000000000009002000042333742323745412D314534312D343338322D413041432D3632303342453442443534432F536368656D61732F436F6D6D6F6E536368656D612E786D6C504B01021400140006080800718C76572CCEBD668A040000E01200003E00000000000000000000000000
311
6B04000042333742323745412D314534312D343338322D413041432D3632303342453442443534432F536368656D61732F47656E65726963536368656D612E786D6C504B01021400140006080800718C76576180134D5F0100006B03000045000000000000000000000000005109000042333742323745412D314534312D34
311
3338322D413041432D3632303342453442443534432F536368656D61732F52656E6465724D6174657269616C536368656D612E786D6C504B01021400140006080800718C7657E74356C751000000570000004700000000000000000000000000130B000042333742323745412D314534312D343338322D413041432D363230
311
3342453442443534432F4173736574446174612F41737365745461626C654F66436F6E74656E74732E62696E504B01021400140006080800718C7657F865834058000000680000004500000000000000000000000000C90B000042333742323745412D314534312D343338322D413041432D3632303342453442443534432F
311
4173736574446174612F53747265616D56657273696F6E5461626C652E696E66504B01021400140006080800718C7657DB9B5151350100009A0400003600000000000000000000000000840C000042333742323745412D314534312D343338322D413041432D3632303342453442443534432F4173736574446174612F636E
311
782E786D6C504B01021400140006080800718C7657FB578D1F090100004F03000034000000000000000000000000000D0E000042333742323745412D314534312D343338322D413041432D3632303342453442443534432F536368656D61732F636E782E786D6C504B01021400140006080800718C7657410A3D5871000000
311
A40000002C00000000000000000000000000680F000042333742323745412D314534312D343338322D413041432D3632303342453442443534432F636E782E786D6C504B01021400140006080800718C765772918B0C7E000000A3000000070000000000000000000000000023100000636E782E786D6C504B010214001400
311
06080800718C765716E99B5DA6000000350100001300000000000000000000000000C61000005B436F6E74656E745F54797065735D2E786D6C504B01021400140006080800718C76573DEE336E64000000790000001B000000000000000000000000009D1100006175746F6465736B2D64657369676E2D7061636B6167652E
311
786D6C504B01021400140006080800718C765728C10394F80000009601000037000000000000000000000000003A12000042333742323745412D314534312D343338322D413041432D3632303342453442443534432F4173736574446174612F636F72652E786D6C504B01021400140006080800718C765779A5F6B1F70000
311
009401000035000000000000000000000000008713000042333742323745412D314534312D343338322D413041432D3632303342453442443534432F536368656D61732F636F72652E786D6C504B01021400140006080800718C7657EA258F9001010000D70100002D00000000000000000000000000D11400004233374232
311
3745412D314534312D343338322D413041432D3632303342453442443534432F636F72652E786D6C504B01021400140006080800718C7657EB70C66806010000B201000008000000000000000000000000001D160000636F72652E786D6C504B050600000000110011005A060000491700000000
310
504B0304140006080800718C7657000000000000000000000000370000006662782F34444144353730462D373938312D343832412D384231462D3344363642383136343545342F617474726962757465732E62696E504B0304140006080800718C7657000000000000000000000000350000006662782F3444414435373046
310
2D373938312D343832412D384231462D3344363642383136343545342F76657274696365732E62696E504B0304140006080800718C7657F270F1330600000004000000360000006662782F34444144353730462D373938312D343832412D384231462D3344363642383136343545342F747269616E676C65732E62696E6366
310
60600000504B0304140006080800718C765751464CB48900000043010000360000006662782F34444144353730462D373938312D343832412D384231462D3344363642383136343545342F6469726563746F72792E786D6C9D8F310EC2300C45AF127987122606C71DD918B841D4B851A43646695A717C52A85029031293A5
310
A76FBF6FACEF7DA7264E43906840EF0FA03836E242F406C6DCEE4EA06AC22492573150D1F66C60C640E8938CB705396EEDD86DE9B5042FE27813D640EA63BB001C722AF6E55CB61E4863F58284D5D3F53DD715CE1C3985E63FD7F1B7EBDD617E9F1E504B0304140006080800718C7657CD9304113C070000201C0000340000
310
006662782F34444144353730462D373938312D343832412D384231462D3344363642383136343545342F6F626A656374732E786D6CDD59596FDB3810FE2B84F665F74197AFD885E322B693C228D21635BAD837819669871BEA002525CEFEFA1D52A42C2AB2ADF400169B00B14293C3996FEED1F4FD2162E889F08C26F1B5E5
310
3B9E85481C265B1AEFAFAD22DFD9630BBD9FA1294F92BCB6CF42318EC8B52596ADD974CF9322554B5BB2C3056BAEDECDFF4259486262A190E12CBBB6B2F08144D8C1459E6C49F6E86C718E9DFDEEE0F84EB9D124BBE7387D685C95624EE21C5885F518A8280E7CF35F10C99D4D5DB1C1D8D6EFB6AD77669B2B053719A57196
310
E3387CC555E3BADE09AE1AD7F5FDC1F2B6379CD8C3C1A06F0F463DDF9EDFCD97B67FD5F716A3C56272733BB1D06CBA491256292025F116B4F862CDFCA92BBEA9C45728B4F11D26714C428566DB862D517429C99A9818C0FA52B49A424A596B0BFD8EC29FD8D609148325036D2D9CFEAC5B6FB2F91B40C8BA5829CF88B0F22C
310
E7A06B857DE90FDED42D570DBDD00C4538279C628618DD70CC4141B0B554904146788B20850466528B9A5E9D5730ECCBBED4C6E5AE604CF8AF35939E16803F923C939CD17F083F725FBF0D7802690B1AE763256CFE920289C9D4958BE577FD9EFAB20412ED18DE83B580986253BFD7C06B2162C16A69CD3EDE6D0E6B111FDA
310
2F4F7992129E0BCB93CEACFC4E6BB0665A607C1D40297135757744E52B40FF0990AF784153D01CA787C161A065E738CE76098F403BC843B6077F3C241E5F3D4DDDEAF00C2123569EC214DCF627616A8861DC5D8374367D02A34F785F09B70E31039BBEA7B1F0733014C412588278BFDB1CACD90A82292CC229CC407AF89DBA
310
E211C1474907E24D43436DE1B783A2B4C334FDECA8AB0F60339C8695AA0C194FE13BFC29F8DE2CD71FD705DFE190DC2BC75E921D8D690EC9B49D210374C3E5BFAD3E498FFCC0920D66C7D3C6A610AED927226EB4A865ADD482A45E801391864BCDC8957B0ADECE188E4952646ABD2D4E85094B78B079094A176EBDEB4F6D03
310
E565CA005A631924F790D3546062CD94B6AA40E8D404050BC35C59E0BED46AB029A234C05152C422D4BE36C5261F106784250255494D1BB6F65A4D764B77BB2283E0D54A726100A9FC59132E2D7C0071AC8D5F4E761C43124DE280420E066769BDC1B8A002EF3CCF1961BB80325644C18E32C8234184D313F43B4A50CF5C8F
310
E4E539E1DB5682A665699FD436240057C06A9074B62A63BED229274F549499329FE96C60EC5075A8351B9C48172253B400AA8D519A79EF76E8F7E77737F6B23F868AC99F8CECF1A837B2EFAE46CBE1623EEC2D6FFB4D3E75B4AAE73B50A528730CFFCB1F8A681363CAE00B2136DEA6EFDECBEC79ED42687487FEDC1BDF5E0D
310
ECBB5B6F600FBCE19D3DBF1DF9F6A8EF4D06F0341CF9372E275952F090646ECFF5026D9269BC3FC595E6EE750C85B2E672B2D3FA6A0AF33F8EA1CD9C6028F1BF1A44ABD8D55210760DA2E2683384E2F051A4A82084AAAFD57D1A41B4C9475B9C7B635CF69CBE277F7C7FD2F326BDF1645419FBD9402DEFF9E138D72641087D
310
679107498A439AB727D4062E1DE3F49B728BD3F78708D0A9FE56979CCF33EA928046784F821D165D424B60BC24416B0EDBB324CB684C32D9E5BDAAFE1A343D078A2933E7B61821CD8288E4F87BEC4FB60D0D9B86D8CC02E847733111B858155406AD3A90531445F70B895BCAFF1264384A59D9E95EC2C0EF6908748FD36671
310
826971C513D85B80F3C0DB1239B8B844BD625FD707AD5A6B529F7C37F913F0E8BAE617C2A3AFE85E3A39437F227EC610544690F7AFB4222E61A5AFCA451FC70AE83CC397E099D0FD43A742B39B4E6A255B5954E724823616E705EFE4AFA3A1F7EA2215171A0E51BBE98DC5A1ECDF740707E8C906EE54795BBB06EA501AC39C
310
AB9320AFA4683561A90B39D313A3AB37F8F55965D7A9FE70BCFCE51573DDF92239FCB98C0354CB650056D1C7A8A95BAB6EA31ECA9E711E42205DCB4F7B0E1EB125DB636366906B2BD1757D7AA97A5E89801AC1C4168B387B2F1ED8570CAA86EE39733F94459B5BAEAF44627360387DE4C360DAA4F5F9C3BA4105563A9FFE22
310
3022CF0D0A6A7521BAE133A4BEAD8E3D7F838292E8DBEACCF1FF4447A115581BA3C134384B1885A13CD9A23D49207BC3D8A143B7C12392C9AC0CC6AB82947E23D0E1F4533953CDF186E9D3E10386C13453BD5811C2501432E6B5A5D6D16F3006159348399C721EA10D5331CC4205A7D716586C4EA1DB723630CE92C34349BD
310
31AE04C7C6F15EE4FBF254F5FFF1984007A2D251AE6A4F175C9464863341619BCAF70450F5955FCCA6DF2FBA6607E11C1E37455E09735C384AA340D02F044AE160EAF7A8E03D4041715E2EDF917B0C483A4DE6CFDA4149D5CE31DFCBF17A0DEF9BE517574CC6579F51CA8ABD50E7B9EED7A0648BAE9B15E5146A0A86A1C44C
310
B1A82117EFDC2F3C81574C11BAA36004E8F7C378F487BB48A22889CB25F746BDA842EB0778EDB475F5C80FDA78CF1FBA720AA0C6FAC10667C4C1DBEC111640B59C8AD96809B161005534AD1980D688D0051C33F6AF9648D546B509493DEC0A78E44C1F8123897739C26DEA1B6A0348F005E04A7E797CD00B5397C3107CF62F
310
504B0304140006080800718C7657CD35BAAB3E01000046050000300000006662782F34444144353730462D373938312D343832412D384231462D3344363642383136343545342F636E782E786D6CCD94C14E032110865F65C37DA1BBD5681A96261E7C020FC61BCB4E572C0B1B188C7D7BA1D2AA31351E9AD81B19FE49FE6F
310
E6CFF0F5DB64AA57F0413BDB91862E480556B941DBB1231137F52DA9D6827BE7F08B8C54564ED0915C26828FDEC5B99406D8C86872D568BB2D4589E8751F1102A99491217424A86798249511DD00614B07899236D44370D12B48FDA82728FDCA834418886817EDB26E9ABA6D1F9A9BD5F27AB5BC7AE22C2B05EF9D3345AF2D
310
827773A55C7AD86466C159FE163C7A5D349980884F67B4D796B3F42F78486EED5874B89BB36E9E8D5612D398985308582711C889B30FB1E02CF37EA3BEBF7B3C38A806ED41A1F3BB7F1A40736A0047633425E16FFC7BE1EFD8AE7F49B8FFB5ED93B0C5D6D9500F690D29AE3FF79F5224ED682E2FF44763E7CF7C3A25A8D5E5
310
211F7C9D8998ED4F5E5A7ABE80E21D504B0304140006080800718C765769C29C477E000000A30000000B0000006662782F636E782E786D6C4D8CD10E822018465F85FDF79414226D80D391EFE1121D13A191B41E3F685E74F56D67DF39A2FD6C0EBD4D7CD9E025905305C8F84798AC5F24A47DC61C50AB440C61FFBB01F2E3
310
6624140C4A2C31A4E78126338FC915EAAC5F0F4875A7EBA61A7073E304537EE930EFC980AF9AB19E1346EB3BCDC6B928797EBDBC25AFBE504B0304140006080800718C7657A6D797065F0000008200000007000000636E782E786D6C4DCB3B0E80201045D1AD90E9FD7516806B51190811670C8A61F982B1B0BAC9C97B72CA
310
7B1037C6D3332918DA1E04D2CAC69353902EDB8C20262D23F3F59B81A079470595414B17391D1F19B4730A5583A7ED43BBE4025D9592775E5ADFFA01504B0304140006080800718C76574FEB6A7CA0000000F4000000130000005B436F6E74656E745F54797065735D2E786D6C7D8F4B0EC2300C44AF1279DFA6B0400835ED
310
02B8011730C16D239A8F121795DB93D02D6269CFBC19BBED573B8B17C564BC53B0AB1B10E4B47F18372A5878A88E20FAAEBDBD032591BD2E299898C349CAA427B2986A1FC86565F0D122E7318E32A07EE24872DF3407A9BD63725C71C980AEBDD080CBCCE2BAE6F5D69B7110E7CD57AA146008B3D1C8F92C5954F993BB1BF7
310
87F39A89ABC491D09600F9FDA2FB00504B0304140006080800718C76573DEE336E64000000790000001B0000006175746F6465736B2D64657369676E2D7061636B6167652E786D6C35CBC10E83200C00D05F21DCA56CA76D41FC96062B120735B69A7DBE268BB7777961F8D5AF396893C2ADB70FE7ADA196782C2DF776D7A9
310
7B5933C430F15651E5469C55D70F80A4992A3ADC954792C525AE70A1E4D6AD9816CC044FEFDF01FE3FDE907802504B0304140006080800718C7657870E1972F8000000960100003B0000006662782F34444144353730462D373938312D343832412D384231462D3344363642383136343545342F7265736F75726365732F63
310
6F72652E786D6C8550CB6EC32010FC156BEFD8013B0F4598A876D42FE8A937041B1725068B47D5CF2FC4AED49E7ADAD5ECCCECEEF0CBD7FCA83ED107E36C0FB4DE418556396DECD4438A377282EA22B8772EFEA24165E58C3D1418049FBC4BCB06296723DA825AA77103650818A1528FDCF410D407CEB296296646B8D78B54
310
7739614DEB9527784A466F52A3B39BB919F420BA711C29DD0FA47B7965A46343474ED7614FD8703D1E46CAE870687953C4824733FF6C571E65440D82ED584B28258CBDD1E3B9DD9FDBEE9D37852978883EFFBC2D2DDF81F0185CF20A036FD6E91FD7B4E8FF5D93B1B1659BEBAA0820683EF23910BC2929E5F28C30D792A8F8
310
06504B0304140006080800718C765774351BD9F2000000B1010000310000006662782F34444144353730462D373938312D343832412D384231462D3344363642383136343545342F636F72652E786D6C8D50CB6EC32010FC156BEFD8063F1B61A2446EBEA0A7DE10260E4A0C168FAA9F5F885DA9BDE5B4687686991D7AFC5E
310
1ED997B44E193D00CE4BC8A41666527A1E20F82BEA213B326A8DF17F689069BEC801120C8CCED684758784D15EEA846A33C91DE4CE490F9978C4C7004EDCE4C2731E7C64B87BBE7271E7B3CC71BEF118F56AF9950A2BB997133052920A618C08F9C0DDA16A0E55FD498BC464340435ED566A8AEEEAAAA405568FA7B1E9CA0B
310
EADE7A8CEA9E9C507FC617548D6D7BEE715B37EF352D929851E76DBC79FF245DF7AA7C13FECB1CD6E985CC4AFB8AEC869BC201C331CF73C168910A8CE3D96E9CA96CF603504B0304140006080800718C76578BAC736653010000DD0200000C0000006662782F636F72652E786D6C8D52DB8E832014FC15C33B5AD05ED220CD
310
6AB35FB04FFB4691BAA40A06C1F4F317BCC4F561BB1B132473CE993933815C9E6D130DC2F452AB1CA0780722A1B8AEA4AA73E0EC1D9E4074A1C4686D7FB48148B156E420C08092DA68D7CD10D7CA0A1550A52B3183ACEF8505116FFC25073DFF122D8B99B3BEA37FC41DE30F568B18C5531F25CEC96A1E9595679377290CA0
310
59599608ED0B98BDBD6398E12283A76BB187B8B81E0F25C2A838A42409C39458D92EEADC0866450528DEE114220431FE40C773BA3FA7D92749422725BD35DEF32C1ADC017ABF3D4932E11B3ED7557FF339A96C8A67BE69A20714F9F5C6022549C8C7FFC6F0B6197A619F9F65B766B1F0F0D020B8D526F3954ABBB534B0C609
310
4FBD8BC68F2453D5338F04BFF1E0173CAF397C504CD57E3566FDF5E66C50DFEED4090307FB8C94362D6BD6E5A615D77315DA585AC6B96EB4F9CFF462750933090F937E03504B0304140006080800718C765792B02B2406010000B201000008000000636F72652E786D6C8D50416EC32010FC0ADA3B76C076124598A876D417
310
F4D41B05E2A0D860191CB5BF2FC4546A6F3D2D9A99DD19869D3FA7113DF4E28DB32D906207485BE994B1430B6BB8E223A033678B73E1970C9015936E21C1C0D9B0B875CE907436689B50EB94CEA0F05E0740728C8F16BCBCE94914620D51E1EFC52CE45D0CBA20C5A6E32C98E967552E5A04AD80D31DAD302198D237723855
310
CDA9AADF5999949CADAB51D9CAA8E86EAE462FC0EBBEEF09693A5CBFBC525CD3AEC6C74BD760DA5D0EFB9E50D2ED2B56A665CE7C58E29FF3919833202F1EC997951BC5D987736316C4500A393B7E01DFB132117F42AFB3FA4768634345F3C16DC3032731D09388C6A9C1389EF5C699DAE6DF504B0102140014000608080071
310
8C76570000000000000000000000003700000000000000000000000000000000006662782F34444144353730462D373938312D343832412D384231462D3344363642383136343545342F617474726962757465732E62696E504B01021400140006080800718C76570000000000000000000000003500000000000000000000
310
000000550000006662782F34444144353730462D373938312D343832412D384231462D3344363642383136343545342F76657274696365732E62696E504B01021400140006080800718C7657F270F13306000000040000003600000000000000000000000000A80000006662782F34444144353730462D373938312D343832
310
412D384231462D3344363642383136343545342F747269616E676C65732E62696E504B01021400140006080800718C765751464CB489000000430100003600000000000000000000000000020100006662782F34444144353730462D373938312D343832412D384231462D3344363642383136343545342F6469726563746F
310
72792E786D6C504B01021400140006080800718C7657CD9304113C070000201C00003400000000000000000000000000DF0100006662782F34444144353730462D373938312D343832412D384231462D3344363642383136343545342F6F626A656374732E786D6C504B01021400140006080800718C7657CD35BAAB3E0100
310
004605000030000000000000000000000000006D0900006662782F34444144353730462D373938312D343832412D384231462D3344363642383136343545342F636E782E786D6C504B01021400140006080800718C765769C29C477E000000A30000000B00000000000000000000000000F90A00006662782F636E782E786D
310
6C504B01021400140006080800718C7657A6D797065F000000820000000700000000000000000000000000A00B0000636E782E786D6C504B01021400140006080800718C76574FEB6A7CA0000000F40000001300000000000000000000000000240C00005B436F6E74656E745F54797065735D2E786D6C504B010214001400
310
06080800718C76573DEE336E64000000790000001B00000000000000000000000000F50C00006175746F6465736B2D64657369676E2D7061636B6167652E786D6C504B01021400140006080800718C7657870E1972F8000000960100003B00000000000000000000000000920D00006662782F34444144353730462D373938
310
312D343832412D384231462D3344363642383136343545342F7265736F75726365732F636F72652E786D6C504B01021400140006080800718C765774351BD9F2000000B10100003100000000000000000000000000E30E00006662782F34444144353730462D373938312D343832412D384231462D33443636423831363435
310
45342F636F72652E786D6C504B01021400140006080800718C76578BAC736653010000DD0200000C00000000000000000000000000241000006662782F636F72652E786D6C504B01021400140006080800718C765792B02B2406010000B20100000800000000000000000000000000A1110000636F72652E786D6C504B0506
310
000000000E000E0080040000CD1200000000
  0
XRECORD
  5
8228
102
{ACAD_REACTORS
330
8223
102
}
330
8223
100
AcDbXrecord
280
     1
270
     1
271
     1
  0
XRECORD
  5
8227
102
{ACAD_REACTORS
330
8223
102
}
330
8223
100
AcDbXrecord
280
     1
270
     1
271
     1
  0
XRECORD
  5
8229
102
{ACAD_REACTORS
330
8223
102
}
330
8223
100
AcDbXrecord
280
     1
270
     1
271
     1
  0
XRECORD
  5
8226
102
{ACAD_REACTORS
330
8223
102
}
330
8223
100
AcDbXrecord
280
     1
270
     1
271
     1
  0
XRECORD
  5
83D2
102
{ACAD_REACTORS
330
83D1
102
}
330
83D1
100
AcDbXrecord
280
     1
102
DISPLAYNAME
  1
Imperial24
102
FLAGS
 90
        0
  0
CELLSTYLEMAP
  5
8399
102
{ACAD_REACTORS
330
8398
102
}
330
8398
100
AcDbCellStyleMap
 90
        3
300
CELLSTYLE
  1
TABLEFORMAT_BEGIN
 90
        5
170
     1
 91
        0
 92
    32768
 62
   257
 93
        1
300
CONTENTFORMAT
  1
CONTENTFORMAT_BEGIN
 90
        0
 91
        0
 92
      512
 93
        0
300

 40
0.0
140
1.0
 94
        5
 62
     0
340
8256
144
0.25
309
CONTENTFORMAT_END
171
     0
 94
        0
309
TABLEFORMAT_END
  1
CELLSTYLE_BEGIN
 90
        1
 91
        1
300
_TITLE
309
CELLSTYLE_END
300
CELLSTYLE
  1
TABLEFORMAT_BEGIN
 90
        5
170
     1
 91
        0
 92
        0
 62
   257
 93
        1
300
CONTENTFORMAT
  1
CONTENTFORMAT_BEGIN
 90
        0
 91
        0
 92
      512
 93
        0
300

 40
0.0
140
1.0
 94
        5
 62
     0
340
8256
144
0.18
309
CONTENTFORMAT_END
171
     0
 94
        0
309
TABLEFORMAT_END
  1
CELLSTYLE_BEGIN
 90
        2
 91
        1
300
_HEADER
309
CELLSTYLE_END
300
CELLSTYLE
  1
TABLEFORMAT_BEGIN
 90
        5
170
     1
 91
        0
 92
        0
 62
   257
 93
        1
300
CONTENTFORMAT
  1
CONTENTFORMAT_BEGIN
 90
        0
 91
        0
 92
      512
 93
        0
300

 40
0.0
140
1.0
 94
        2
 62
     0
340
8256
144
0.18
309
CONTENTFORMAT_END
171
     0
 94
        0
309
TABLEFORMAT_END
  1
CELLSTYLE_BEGIN
 90
        3
 91
        2
300
_DATA
309
CELLSTYLE_END
  0
XRECORD
  5
83CF
102
{ACAD_REACTORS
330
8398
102
}
330
8398
100
AcDbXrecord
280
     1
102
ACAD_ROUNDTRIP_PRE2007_TABLESTYLE
 90
      512
 91
        0
  1

 92
      512
 93
        0
  2

 94
      512
 95
        0
  3

  0
XRECORD
  5
83AA
102
{ACAD_REACTORS
330
83A9
102
}
330
83A9
100
AcDbXrecord
280
     1
102
RTVSPost2010Prop28
280
     1
102
RTVSPost2010PropOp28
 70
     1
102
RTVSPost2010Prop29
280
     1
102
RTVSPost2010PropOp29
 70
     1
102
RTVSPost2010Prop30
280
     0
102
RTVSPost2010PropOp30
 70
     1
102
RTVSPost2010Prop31
280
     0
102
RTVSPost2010PropOp31
 70
     1
102
RTVSPost2010Prop32
280
     0
102
RTVSPost2010PropOp32
 70
     1
102
RTVSPost2010Prop33
280
     0
102
RTVSPost2010PropOp33
 70
     1
102
RTVSPost2010Prop34
280
     0
102
RTVSPost2010PropOp34
 70
     1
102
RTVSPost2010Prop35
280
     0
102
RTVSPost2010PropOp35
 70
     1
102
RTVSPost2010Prop36
280
     0
102
RTVSPost2010PropOp36
 70
     1
102
RTVSPost2010Prop37
 90
       50
102
RTVSPost2010PropOp37
 70
     1
102
RTVSPost2010Prop38
140
0.0
102
RTVSPost2010PropOp38
 70
     1
102
RTVSPost2010Prop39
140
1.0
102
RTVSPost2010PropOp39
 70
     1
102
RTVSPost2010Prop40
 90
        0
102
RTVSPost2010PropOp40
 70
     1
102
RTVSPost2010Prop41ColorIndex
 90
       18
102
RTVSPost2010Prop41ColorRGB
 90
        0
102
RTVSPost2010PropOp41
 70
     1
102
RTVSPost2010Prop42
 90
       50
102
RTVSPost2010PropOp42
 70
     1
102
RTVSPost2010Prop43
 90
        3
102
RTVSPost2010PropOp43
 70
     1
102
RTVSPost2010Prop44ColorIndex
 90
        5
102
RTVSPost2010Prop44ColorRGB
 90
      255
102
RTVSPost2010PropOp44
 70
     1
102
RTVSPost2010Prop45
280
     0
102
RTVSPost2010PropOp45
 70
     1
102
RTVSPost2010Prop46
 90
       50
102
RTVSPost2010PropOp46
 70
     1
102
RTVSPost2010Prop47
 90
       50
102
RTVSPost2010PropOp47
 70
     1
102
RTVSPost2010Prop48
 90
       50
102
RTVSPost2010PropOp48
 70
     1
102
RTVSPost2010Prop49
280
     0
102
RTVSPost2010PropOp49
 70
     1
102
RTVSPost2010Prop50
 90
       50
102
RTVSPost2010PropOp50
 70
     1
102
RTVSPost2010Prop51ColorIndex
 90
      256
102
RTVSPost2010Prop51ColorRGB
 90
-16777216
102
RTVSPost2010PropOp51
 70
     0
102
RTVSPost2010Prop52
140
1.0
102
RTVSPost2010PropOp52
 70
     0
102
RTVSPost2010Prop53
 90
        2
102
RTVSPost2010PropOp53
 70
     1
102
RTVSPost2010Prop54
  1
strokes_ogs.tif
102
RTVSPost2010PropOp54
 70
     1
102
RTVSPost2010Prop55
280
     0
102
RTVSPost2010PropOp55
 70
     1
102
RTVSPost2010Prop56
140
1.0
102
RTVSPost2010PropOp56
 70
     1
102
RTVSPost2010Prop57
140
1.0
102
RTVSPost2010PropOp57
 70
     1
102
RTVSPropertyOp0
 70
     1
102
RTVSPropertyOp1
 70
     1
102
RTVSPropertyOp2
 70
     1
102
RTVSPropertyOp3
 70
     1
102
RTVSPropertyOp4
 70
     1
102
RTVSPropertyOp5
 70
     1
102
RTVSPropertyOp6
 70
     1
102
RTVSPropertyOp7
 70
     1
102
RTVSPropertyOp8
 70
     1
102
RTVSPropertyOp9
 70
     1
102
RTVSPropertyOp10
 70
     1
102
RTVSPropertyOp11
 70
     1
102
RTVSPropertyOp12
 70
     1
102
RTVSPropertyOp13
 70
     1
102
RTVSPropertyOp14
 70
     1
102
RTVSPropertyOp15
 70
     1
102
RTVSPropertyOp16
 70
     1
102
RTVSPropertyOp17
 70
     1
102
RTVSPropertyOp18
 70
     1
102
RTVSPropertyOp19
 70
     1
102
RTVSPropertyOp20
 70
     1
102
RTVSPropertyOp21
 70
     1
102
RTVSPropertyOp22
 70
     1
102
RTVSPropertyOp23
 70
     1
102
RTVSPropertyOp24
 70
     1
102
RTVSPropertyOp25
 70
     1
102
RTVSPropertyOp26
 70
     1
102
RTVSPropertyOp27
 70
     1
102
RTVSPropertyOp28
 70
     1
102
RTVSPropertyOp29
 70
     1
102
RTVSPropertyOp30
 70
     1
102
RTVSPropertyOp31
 70
     1
102
RTVSPropertyOp32
 70
     1
102
RTVSPropertyOp33
 70
     1
102
RTVSPropertyOp34
 70
     1
102
RTVSPropertyOp35
 70
     1
102
RTVSPropertyOp36
 70
     1
102
RTVSPropertyOp37
 70
     1
102
RTVSPropertyOp38
 70
     1
102
RTVSPropertyOp39
 70
     1
102
RTVSPropertyOp40
 70
     1
102
RTVSPropertyOp41
 70
     1
102
RTVSPropertyOp42
 70
     1
102
RTVSPropertyOp43
 70
     1
102
RTVSPropertyOp44
 70
     1
102
RTVSPropertyOp45
 70
     1
102
RTVSPropertyOp46
 70
     1
102
RTVSPropertyOp47
 70
     1
102
RTVSPropertyOp48
 70
     1
102
RTVSPropertyOp49
 70
     1
102
RTVSPropertyOp50
 70
     1
102
RTVSPropertyOp51
 70
     0
102
RTVSPropertyOp52
 70
     0
102
RTVSPropertyOp53
 70
     1
102
RTVSPropertyOp54
 70
     1
102
RTVSPropertyOp55
 70
     1
102
RTVSPropertyOp56
 70
     1
102
RTVSPropertyOp57
 70
     1
102
RTVSPropertyOp58
 70
     1
102
RTVSPropertyOp59
 70
     1
102
RTVSPropertyOp60
 70
     1
102
RTVSPropertyOp61
 70
     1
102
RTVSPropertyOp62
 70
     1
  0
XRECORD
  5
83A8
102
{ACAD_REACTORS
330
83A7
102
}
330
83A7
100
AcDbXrecord
280
     1
102
RTVSPost2010Prop28
280
     0
102
RTVSPost2010PropOp28
 70
     1
102
RTVSPost2010Prop29
280
     1
102
RTVSPost2010PropOp29
 70
     1
102
RTVSPost2010Prop30
280
     1
102
RTVSPost2010PropOp30
 70
     1
102
RTVSPost2010Prop31
280
     0
102
RTVSPost2010PropOp31
 70
     1
102
RTVSPost2010Prop32
280
     0
102
RTVSPost2010PropOp32
 70
     1
102
RTVSPost2010Prop33
280
     0
102
RTVSPost2010PropOp33
 70
     1
102
RTVSPost2010Prop34
280
     0
102
RTVSPost2010PropOp34
 70
     1
102
RTVSPost2010Prop35
280
     0
102
RTVSPost2010PropOp35
 70
     1
102
RTVSPost2010Prop36
280
     0
102
RTVSPost2010PropOp36
 70
     1
102
RTVSPost2010Prop37
 90
       50
102
RTVSPost2010PropOp37
 70
     1
102
RTVSPost2010Prop38
140
0.0
102
RTVSPost2010PropOp38
 70
     1
102
RTVSPost2010Prop39
140
1.0
102
RTVSPost2010PropOp39
 70
     1
102
RTVSPost2010Prop40
 90
        0
102
RTVSPost2010PropOp40
 70
     1
102
RTVSPost2010Prop41ColorIndex
 90
       18
102
RTVSPost2010Prop41ColorRGB
 90
        0
102
RTVSPost2010PropOp41
 70
     1
102
RTVSPost2010Prop42
 90
       50
102
RTVSPost2010PropOp42
 70
     1
102
RTVSPost2010Prop43
 90
        3
102
RTVSPost2010PropOp43
 70
     1
102
RTVSPost2010Prop44ColorIndex
 90
        5
102
RTVSPost2010Prop44ColorRGB
 90
      255
102
RTVSPost2010PropOp44
 70
     1
102
RTVSPost2010Prop45
280
     0
102
RTVSPost2010PropOp45
 70
     1
102
RTVSPost2010Prop46
 90
       50
102
RTVSPost2010PropOp46
 70
     1
102
RTVSPost2010Prop47
 90
       50
102
RTVSPost2010PropOp47
 70
     1
102
RTVSPost2010Prop48
 90
       50
102
RTVSPost2010PropOp48
 70
     1
102
RTVSPost2010Prop49
280
     0
102
RTVSPost2010PropOp49
 70
     1
102
RTVSPost2010Prop50
 90
       50
102
RTVSPost2010PropOp50
 70
     1
102
RTVSPost2010Prop51ColorIndex
 90
      256
102
RTVSPost2010Prop51ColorRGB
 90
-16777216
102
RTVSPost2010PropOp51
 70
     0
102
RTVSPost2010Prop52
140
1.0
102
RTVSPost2010PropOp52
 70
     0
102
RTVSPost2010Prop53
 90
        2
102
RTVSPost2010PropOp53
 70
     1
102
RTVSPost2010Prop54
  1
strokes_ogs.tif
102
RTVSPost2010PropOp54
 70
     1
102
RTVSPost2010Prop55
280
     0
102
RTVSPost2010PropOp55
 70
     1
102
RTVSPost2010Prop56
140
1.0
102
RTVSPost2010PropOp56
 70
     1
102
RTVSPost2010Prop57
140
1.0
102
RTVSPost2010PropOp57
 70
     1
102
RTVSPropertyOp0
 70
     1
102
RTVSPropertyOp1
 70
     1
102
RTVSPropertyOp2
 70
     1
102
RTVSPropertyOp3
 70
     1
102
RTVSPropertyOp4
 70
     1
102
RTVSPropertyOp5
 70
     1
102
RTVSPropertyOp6
 70
     1
102
RTVSPropertyOp7
 70
     1
102
RTVSPropertyOp8
 70
     1
102
RTVSPropertyOp9
 70
     1
102
RTVSPropertyOp10
 70
     1
102
RTVSPropertyOp11
 70
     1
102
RTVSPropertyOp12
 70
     1
102
RTVSPropertyOp13
 70
     1
102
RTVSPropertyOp14
 70
     1
102
RTVSPropertyOp15
 70
     1
102
RTVSPropertyOp16
 70
     1
102
RTVSPropertyOp17
 70
     1
102
RTVSPropertyOp18
 70
     1
102
RTVSPropertyOp19
 70
     1
102
RTVSPropertyOp20
 70
     1
102
RTVSPropertyOp21
 70
     1
102
RTVSPropertyOp22
 70
     1
102
RTVSPropertyOp23
 70
     1
102
RTVSPropertyOp24
 70
     1
102
RTVSPropertyOp25
 70
     1
102
RTVSPropertyOp26
 70
     1
102
RTVSPropertyOp27
 70
     1
102
RTVSPropertyOp28
 70
     1
102
RTVSPropertyOp29
 70
     1
102
RTVSPropertyOp30
 70
     1
102
RTVSPropertyOp31
 70
     1
102
RTVSPropertyOp32
 70
     1
102
RTVSPropertyOp33
 70
     1
102
RTVSPropertyOp34
 70
     1
102
RTVSPropertyOp35
 70
     1
102
RTVSPropertyOp36
 70
     1
102
RTVSPropertyOp37
 70
     1
102
RTVSPropertyOp38
 70
     1
102
RTVSPropertyOp39
 70
     1
102
RTVSPropertyOp40
 70
     1
102
RTVSPropertyOp41
 70
     1
102
RTVSPropertyOp42
 70
     1
102
RTVSPropertyOp43
 70
     1
102
RTVSPropertyOp44
 70
     1
102
RTVSPropertyOp45
 70
     1
102
RTVSPropertyOp46
 70
     1
102
RTVSPropertyOp47
 70
     1
102
RTVSPropertyOp48
 70
     1
102
RTVSPropertyOp49
 70
     1
102
RTVSPropertyOp50
 70
     1
102
RTVSPropertyOp51
 70
     0
102
RTVSPropertyOp52
 70
     0
102
RTVSPropertyOp53
 70
     1
102
RTVSPropertyOp54
 70
     1
102
RTVSPropertyOp55
 70
     1
102
RTVSPropertyOp56
 70
     1
102
RTVSPropertyOp57
 70
     1
102
RTVSPropertyOp58
 70
     1
102
RTVSPropertyOp59
 70
     1
102
RTVSPropertyOp60
 70
     1
102
RTVSPropertyOp61
 70
     1
102
RTVSPropertyOp62
 70
     1
  0
XRECORD
  5
83B6
102
{ACAD_REACTORS
330
83B5
102
}
330
83B5
100
AcDbXrecord
280
     1
102
RTVSPost2010Prop28
280
     0
102
RTVSPost2010PropOp28
 70
     1
102
RTVSPost2010Prop29
280
     1
102
RTVSPost2010PropOp29
 70
     1
102
RTVSPost2010Prop30
280
     1
102
RTVSPost2010PropOp30
 70
     1
102
RTVSPost2010Prop31
280
     0
102
RTVSPost2010PropOp31
 70
     1
102
RTVSPost2010Prop32
280
     0
102
RTVSPost2010PropOp32
 70
     1
102
RTVSPost2010Prop33
280
     0
102
RTVSPost2010PropOp33
 70
     1
102
RTVSPost2010Prop34
280
     0
102
RTVSPost2010PropOp34
 70
     1
102
RTVSPost2010Prop35
280
     0
102
RTVSPost2010PropOp35
 70
     1
102
RTVSPost2010Prop36
280
     0
102
RTVSPost2010PropOp36
 70
     1
102
RTVSPost2010Prop37
 90
       50
102
RTVSPost2010PropOp37
 70
     1
102
RTVSPost2010Prop38
140
0.0
102
RTVSPost2010PropOp38
 70
     1
102
RTVSPost2010Prop39
140
1.0
102
RTVSPost2010PropOp39
 70
     1
102
RTVSPost2010Prop40
 90
        0
102
RTVSPost2010PropOp40
 70
     1
102
RTVSPost2010Prop41ColorIndex
 90
       18
102
RTVSPost2010Prop41ColorRGB
 90
        0
102
RTVSPost2010PropOp41
 70
     1
102
RTVSPost2010Prop42
 90
       50
102
RTVSPost2010PropOp42
 70
     1
102
RTVSPost2010Prop43
 90
        3
102
RTVSPost2010PropOp43
 70
     1
102
RTVSPost2010Prop44ColorIndex
 90
        5
102
RTVSPost2010Prop44ColorRGB
 90
      255
102
RTVSPost2010PropOp44
 70
     1
102
RTVSPost2010Prop45
280
     0
102
RTVSPost2010PropOp45
 70
     1
102
RTVSPost2010Prop46
 90
       50
102
RTVSPost2010PropOp46
 70
     1
102
RTVSPost2010Prop47
 90
       50
102
RTVSPost2010PropOp47
 70
     1
102
RTVSPost2010Prop48
 90
       50
102
RTVSPost2010PropOp48
 70
     1
102
RTVSPost2010Prop49
280
     0
102
RTVSPost2010PropOp49
 70
     1
102
RTVSPost2010Prop50
 90
       50
102
RTVSPost2010PropOp50
 70
     1
102
RTVSPost2010Prop51ColorIndex
 90
      256
102
RTVSPost2010Prop51ColorRGB
 90
-16777216
102
RTVSPost2010PropOp51
 70
     0
102
RTVSPost2010Prop52
140
1.0
102
RTVSPost2010PropOp52
 70
     0
102
RTVSPost2010Prop53
 90
        2
102
RTVSPost2010PropOp53
 70
     1
102
RTVSPost2010Prop54
  1
strokes_ogs.tif
102
RTVSPost2010PropOp54
 70
     1
102
RTVSPost2010Prop55
280
     0
102
RTVSPost2010PropOp55
 70
     1
102
RTVSPost2010Prop56
140
1.0
102
RTVSPost2010PropOp56
 70
     1
102
RTVSPost2010Prop57
140
1.0
102
RTVSPost2010PropOp57
 70
     1
102
RTVSPropertyOp0
 70
     1
102
RTVSPropertyOp1
 70
     1
102
RTVSPropertyOp2
 70
     1
102
RTVSPropertyOp3
 70
     1
102
RTVSPropertyOp4
 70
     1
102
RTVSPropertyOp5
 70
     1
102
RTVSPropertyOp6
 70
     1
102
RTVSPropertyOp7
 70
     1
102
RTVSPropertyOp8
 70
     1
102
RTVSPropertyOp9
 70
     1
102
RTVSPropertyOp10
 70
     1
102
RTVSPropertyOp11
 70
     1
102
RTVSPropertyOp12
 70
     1
102
RTVSPropertyOp13
 70
     1
102
RTVSPropertyOp14
 70
     1
102
RTVSPropertyOp15
 70
     1
102
RTVSPropertyOp16
 70
     1
102
RTVSPropertyOp17
 70
     1
102
RTVSPropertyOp18
 70
     1
102
RTVSPropertyOp19
 70
     1
102
RTVSPropertyOp20
 70
     1
102
RTVSPropertyOp21
 70
     1
102
RTVSPropertyOp22
 70
     1
102
RTVSPropertyOp23
 70
     1
102
RTVSPropertyOp24
 70
     1
102
RTVSPropertyOp25
 70
     1
102
RTVSPropertyOp26
 70
     1
102
RTVSPropertyOp27
 70
     1
102
RTVSPropertyOp28
 70
     1
102
RTVSPropertyOp29
 70
     1
102
RTVSPropertyOp30
 70
     1
102
RTVSPropertyOp31
 70
     1
102
RTVSPropertyOp32
 70
     1
102
RTVSPropertyOp33
 70
     1
102
RTVSPropertyOp34
 70
     1
102
RTVSPropertyOp35
 70
     1
102
RTVSPropertyOp36
 70
     1
102
RTVSPropertyOp37
 70
     1
102
RTVSPropertyOp38
 70
     1
102
RTVSPropertyOp39
 70
     1
102
RTVSPropertyOp40
 70
     1
102
RTVSPropertyOp41
 70
     1
102
RTVSPropertyOp42
 70
     1
102
RTVSPropertyOp43
 70
     1
102
RTVSPropertyOp44
 70
     1
102
RTVSPropertyOp45
 70
     1
102
RTVSPropertyOp46
 70
     1
102
RTVSPropertyOp47
 70
     1
102
RTVSPropertyOp48
 70
     1
102
RTVSPropertyOp49
 70
     1
102
RTVSPropertyOp50
 70
     1
102
RTVSPropertyOp51
 70
     0
102
RTVSPropertyOp52
 70
     0
102
RTVSPropertyOp53
 70
     1
102
RTVSPropertyOp54
 70
     1
102
RTVSPropertyOp55
 70
     1
102
RTVSPropertyOp56
 70
     1
102
RTVSPropertyOp57
 70
     1
102
RTVSPropertyOp58
 70
     1
102
RTVSPropertyOp59
 70
     1
102
RTVSPropertyOp60
 70
     1
102
RTVSPropertyOp61
 70
     1
102
RTVSPropertyOp62
 70
     1
  0
XRECORD
  5
83BE
102
{ACAD_REACTORS
330
83BD
102
}
330
83BD
100
AcDbXrecord
280
     1
102
RTVSPost2010Prop28
280
     0
102
RTVSPost2010PropOp28
 70
     1
102
RTVSPost2010Prop29
280
     1
102
RTVSPost2010PropOp29
 70
     1
102
RTVSPost2010Prop30
280
     1
102
RTVSPost2010PropOp30
 70
     1
102
RTVSPost2010Prop31
280
     0
102
RTVSPost2010PropOp31
 70
     1
102
RTVSPost2010Prop32
280
     0
102
RTVSPost2010PropOp32
 70
     1
102
RTVSPost2010Prop33
280
     0
102
RTVSPost2010PropOp33
 70
     1
102
RTVSPost2010Prop34
280
     0
102
RTVSPost2010PropOp34
 70
     1
102
RTVSPost2010Prop35
280
     0
102
RTVSPost2010PropOp35
 70
     1
102
RTVSPost2010Prop36
280
     0
102
RTVSPost2010PropOp36
 70
     1
102
RTVSPost2010Prop37
 90
       50
102
RTVSPost2010PropOp37
 70
     1
102
RTVSPost2010Prop38
140
0.0
102
RTVSPost2010PropOp38
 70
     1
102
RTVSPost2010Prop39
140
1.0
102
RTVSPost2010PropOp39
 70
     1
102
RTVSPost2010Prop40
 90
        0
102
RTVSPost2010PropOp40
 70
     1
102
RTVSPost2010Prop41ColorIndex
 90
       18
102
RTVSPost2010Prop41ColorRGB
 90
        0
102
RTVSPost2010PropOp41
 70
     1
102
RTVSPost2010Prop42
 90
       50
102
RTVSPost2010PropOp42
 70
     1
102
RTVSPost2010Prop43
 90
        3
102
RTVSPost2010PropOp43
 70
     1
102
RTVSPost2010Prop44ColorIndex
 90
        5
102
RTVSPost2010Prop44ColorRGB
 90
      255
102
RTVSPost2010PropOp44
 70
     1
102
RTVSPost2010Prop45
280
     0
102
RTVSPost2010PropOp45
 70
     1
102
RTVSPost2010Prop46
 90
       50
102
RTVSPost2010PropOp46
 70
     1
102
RTVSPost2010Prop47
 90
       50
102
RTVSPost2010PropOp47
 70
     1
102
RTVSPost2010Prop48
 90
       50
102
RTVSPost2010PropOp48
 70
     1
102
RTVSPost2010Prop49
280
     0
102
RTVSPost2010PropOp49
 70
     1
102
RTVSPost2010Prop50
 90
       50
102
RTVSPost2010PropOp50
 70
     1
102
RTVSPost2010Prop51ColorIndex
 90
      256
102
RTVSPost2010Prop51ColorRGB
 90
-16777216
102
RTVSPost2010PropOp51
 70
     0
102
RTVSPost2010Prop52
140
1.0
102
RTVSPost2010PropOp52
 70
     0
102
RTVSPost2010Prop53
 90
        2
102
RTVSPost2010PropOp53
 70
     1
102
RTVSPost2010Prop54
  1
strokes_ogs.tif
102
RTVSPost2010PropOp54
 70
     1
102
RTVSPost2010Prop55
280
     0
102
RTVSPost2010PropOp55
 70
     1
102
RTVSPost2010Prop56
140
1.0
102
RTVSPost2010PropOp56
 70
     1
102
RTVSPost2010Prop57
140
1.0
102
RTVSPost2010PropOp57
 70
     1
102
RTVSPropertyOp0
 70
     1
102
RTVSPropertyOp1
 70
     1
102
RTVSPropertyOp2
 70
     1
102
RTVSPropertyOp3
 70
     1
102
RTVSPropertyOp4
 70
     1
102
RTVSPropertyOp5
 70
     1
102
RTVSPropertyOp6
 70
     1
102
RTVSPropertyOp7
 70
     1
102
RTVSPropertyOp8
 70
     1
102
RTVSPropertyOp9
 70
     1
102
RTVSPropertyOp10
 70
     1
102
RTVSPropertyOp11
 70
     1
102
RTVSPropertyOp12
 70
     1
102
RTVSPropertyOp13
 70
     1
102
RTVSPropertyOp14
 70
     1
102
RTVSPropertyOp15
 70
     1
102
RTVSPropertyOp16
 70
     1
102
RTVSPropertyOp17
 70
     1
102
RTVSPropertyOp18
 70
     1
102
RTVSPropertyOp19
 70
     1
102
RTVSPropertyOp20
 70
     1
102
RTVSPropertyOp21
 70
     1
102
RTVSPropertyOp22
 70
     1
102
RTVSPropertyOp23
 70
     1
102
RTVSPropertyOp24
 70
     1
102
RTVSPropertyOp25
 70
     1
102
RTVSPropertyOp26
 70
     1
102
RTVSPropertyOp27
 70
     1
102
RTVSPropertyOp28
 70
     1
102
RTVSPropertyOp29
 70
     1
102
RTVSPropertyOp30
 70
     1
102
RTVSPropertyOp31
 70
     1
102
RTVSPropertyOp32
 70
     1
102
RTVSPropertyOp33
 70
     1
102
RTVSPropertyOp34
 70
     1
102
RTVSPropertyOp35
 70
     1
102
RTVSPropertyOp36
 70
     1
102
RTVSPropertyOp37
 70
     1
102
RTVSPropertyOp38
 70
     1
102
RTVSPropertyOp39
 70
     1
102
RTVSPropertyOp40
 70
     1
102
RTVSPropertyOp41
 70
     1
102
RTVSPropertyOp42
 70
     1
102
RTVSPropertyOp43
 70
     1
102
RTVSPropertyOp44
 70
     1
102
RTVSPropertyOp45
 70
     1
102
RTVSPropertyOp46
 70
     1
102
RTVSPropertyOp47
 70
     1
102
RTVSPropertyOp48
 70
     1
102
RTVSPropertyOp49
 70
     1
102
RTVSPropertyOp50
 70
     1
102
RTVSPropertyOp51
 70
     0
102
RTVSPropertyOp52
 70
     0
102
RTVSPropertyOp53
 70
     1
102
RTVSPropertyOp54
 70
     1
102
RTVSPropertyOp55
 70
     1
102
RTVSPropertyOp56
 70
     1
102
RTVSPropertyOp57
 70
     1
102
RTVSPropertyOp58
 70
     1
102
RTVSPropertyOp59
 70
     1
102
RTVSPropertyOp60
 70
     1
102
RTVSPropertyOp61
 70
     1
102
RTVSPropertyOp62
 70
     1
  0
XRECORD
  5
83B0
102
{ACAD_REACTORS
330
83AF
102
}
330
83AF
100
AcDbXrecord
280
     1
102
RTVSPost2010Prop28
280
     0
102
RTVSPost2010PropOp28
 70
     1
102
RTVSPost2010Prop29
280
     1
102
RTVSPost2010PropOp29
 70
     1
102
RTVSPost2010Prop30
280
     1
102
RTVSPost2010PropOp30
 70
     1
102
RTVSPost2010Prop31
280
     0
102
RTVSPost2010PropOp31
 70
     1
102
RTVSPost2010Prop32
280
     0
102
RTVSPost2010PropOp32
 70
     1
102
RTVSPost2010Prop33
280
     0
102
RTVSPost2010PropOp33
 70
     1
102
RTVSPost2010Prop34
280
     0
102
RTVSPost2010PropOp34
 70
     1
102
RTVSPost2010Prop35
280
     0
102
RTVSPost2010PropOp35
 70
     1
102
RTVSPost2010Prop36
280
     0
102
RTVSPost2010PropOp36
 70
     1
102
RTVSPost2010Prop37
 90
       50
102
RTVSPost2010PropOp37
 70
     1
102
RTVSPost2010Prop38
140
0.0
102
RTVSPost2010PropOp38
 70
     1
102
RTVSPost2010Prop39
140
1.0
102
RTVSPost2010PropOp39
 70
     1
102
RTVSPost2010Prop40
 90
        0
102
RTVSPost2010PropOp40
 70
     1
102
RTVSPost2010Prop41ColorIndex
 90
       18
102
RTVSPost2010Prop41ColorRGB
 90
        0
102
RTVSPost2010PropOp41
 70
     1
102
RTVSPost2010Prop42
 90
       50
102
RTVSPost2010PropOp42
 70
     1
102
RTVSPost2010Prop43
 90
        3
102
RTVSPost2010PropOp43
 70
     1
102
RTVSPost2010Prop44ColorIndex
 90
        5
102
RTVSPost2010Prop44ColorRGB
 90
      255
102
RTVSPost2010PropOp44
 70
     1
102
RTVSPost2010Prop45
280
     0
102
RTVSPost2010PropOp45
 70
     1
102
RTVSPost2010Prop46
 90
       50
102
RTVSPost2010PropOp46
 70
     1
102
RTVSPost2010Prop47
 90
       50
102
RTVSPost2010PropOp47
 70
     1
102
RTVSPost2010Prop48
 90
       50
102
RTVSPost2010PropOp48
 70
     1
102
RTVSPost2010Prop49
280
     0
102
RTVSPost2010PropOp49
 70
     1
102
RTVSPost2010Prop50
 90
       50
102
RTVSPost2010PropOp50
 70
     1
102
RTVSPost2010Prop51ColorIndex
 90
      256
102
RTVSPost2010Prop51ColorRGB
 90
-16777216
102
RTVSPost2010PropOp51
 70
     0
102
RTVSPost2010Prop52
140
1.0
102
RTVSPost2010PropOp52
 70
     0
102
RTVSPost2010Prop53
 90
        2
102
RTVSPost2010PropOp53
 70
     1
102
RTVSPost2010Prop54
  1
strokes_ogs.tif
102
RTVSPost2010PropOp54
 70
     1
102
RTVSPost2010Prop55
280
     0
102
RTVSPost2010PropOp55
 70
     1
102
RTVSPost2010Prop56
140
1.0
102
RTVSPost2010PropOp56
 70
     1
102
RTVSPost2010Prop57
140
1.0
102
RTVSPost2010PropOp57
 70
     1
102
RTVSPropertyOp0
 70
     1
102
RTVSPropertyOp1
 70
     1
102
RTVSPropertyOp2
 70
     1
102
RTVSPropertyOp3
 70
     1
102
RTVSPropertyOp4
 70
     1
102
RTVSPropertyOp5
 70
     1
102
RTVSPropertyOp6
 70
     1
102
RTVSPropertyOp7
 70
     1
102
RTVSPropertyOp8
 70
     1
102
RTVSPropertyOp9
 70
     1
102
RTVSPropertyOp10
 70
     1
102
RTVSPropertyOp11
 70
     1
102
RTVSPropertyOp12
 70
     1
102
RTVSPropertyOp13
 70
     1
102
RTVSPropertyOp14
 70
     1
102
RTVSPropertyOp15
 70
     1
102
RTVSPropertyOp16
 70
     1
102
RTVSPropertyOp17
 70
     1
102
RTVSPropertyOp18
 70
     1
102
RTVSPropertyOp19
 70
     1
102
RTVSPropertyOp20
 70
     1
102
RTVSPropertyOp21
 70
     1
102
RTVSPropertyOp22
 70
     1
102
RTVSPropertyOp23
 70
     1
102
RTVSPropertyOp24
 70
     1
102
RTVSPropertyOp25
 70
     1
102
RTVSPropertyOp26
 70
     1
102
RTVSPropertyOp27
 70
     1
102
RTVSPropertyOp28
 70
     1
102
RTVSPropertyOp29
 70
     1
102
RTVSPropertyOp30
 70
     1
102
RTVSPropertyOp31
 70
     1
102
RTVSPropertyOp32
 70
     1
102
RTVSPropertyOp33
 70
     1
102
RTVSPropertyOp34
 70
     1
102
RTVSPropertyOp35
 70
     1
102
RTVSPropertyOp36
 70
     1
102
RTVSPropertyOp37
 70
     1
102
RTVSPropertyOp38
 70
     1
102
RTVSPropertyOp39
 70
     1
102
RTVSPropertyOp40
 70
     1
102
RTVSPropertyOp41
 70
     1
102
RTVSPropertyOp42
 70
     1
102
RTVSPropertyOp43
 70
     1
102
RTVSPropertyOp44
 70
     1
102
RTVSPropertyOp45
 70
     1
102
RTVSPropertyOp46
 70
     1
102
RTVSPropertyOp47
 70
     1
102
RTVSPropertyOp48
 70
     1
102
RTVSPropertyOp49
 70
     1
102
RTVSPropertyOp50
 70
     1
102
RTVSPropertyOp51
 70
     0
102
RTVSPropertyOp52
 70
     0
102
RTVSPropertyOp53
 70
     1
102
RTVSPropertyOp54
 70
     1
102
RTVSPropertyOp55
 70
     1
102
RTVSPropertyOp56
 70
     1
102
RTVSPropertyOp57
 70
     1
102
RTVSPropertyOp58
 70
     1
102
RTVSPropertyOp59
 70
     1
102
RTVSPropertyOp60
 70
     1
102
RTVSPropertyOp61
 70
     1
102
RTVSPropertyOp62
 70
     1
  0
XRECORD
  5
83B4
102
{ACAD_REACTORS
330
83B3
102
}
330
83B3
100
AcDbXrecord
280
     1
102
RTVSPost2010Prop28
280
     0
102
RTVSPost2010PropOp28
 70
     1
102
RTVSPost2010Prop29
280
     1
102
RTVSPost2010PropOp29
 70
     1
102
RTVSPost2010Prop30
280
     1
102
RTVSPost2010PropOp30
 70
     1
102
RTVSPost2010Prop31
280
     0
102
RTVSPost2010PropOp31
 70
     1
102
RTVSPost2010Prop32
280
     0
102
RTVSPost2010PropOp32
 70
     1
102
RTVSPost2010Prop33
280
     0
102
RTVSPost2010PropOp33
 70
     1
102
RTVSPost2010Prop34
280
     0
102
RTVSPost2010PropOp34
 70
     1
102
RTVSPost2010Prop35
280
     0
102
RTVSPost2010PropOp35
 70
     1
102
RTVSPost2010Prop36
280
     0
102
RTVSPost2010PropOp36
 70
     1
102
RTVSPost2010Prop37
 90
       50
102
RTVSPost2010PropOp37
 70
     1
102
RTVSPost2010Prop38
140
0.0
102
RTVSPost2010PropOp38
 70
     1
102
RTVSPost2010Prop39
140
1.0
102
RTVSPost2010PropOp39
 70
     1
102
RTVSPost2010Prop40
 90
        0
102
RTVSPost2010PropOp40
 70
     1
102
RTVSPost2010Prop41ColorIndex
 90
       18
102
RTVSPost2010Prop41ColorRGB
 90
        0
102
RTVSPost2010PropOp41
 70
     1
102
RTVSPost2010Prop42
 90
       50
102
RTVSPost2010PropOp42
 70
     1
102
RTVSPost2010Prop43
 90
        3
102
RTVSPost2010PropOp43
 70
     1
102
RTVSPost2010Prop44ColorIndex
 90
        5
102
RTVSPost2010Prop44ColorRGB
 90
      255
102
RTVSPost2010PropOp44
 70
     1
102
RTVSPost2010Prop45
280
     0
102
RTVSPost2010PropOp45
 70
     1
102
RTVSPost2010Prop46
 90
       50
102
RTVSPost2010PropOp46
 70
     1
102
RTVSPost2010Prop47
 90
       50
102
RTVSPost2010PropOp47
 70
     1
102
RTVSPost2010Prop48
 90
       50
102
RTVSPost2010PropOp48
 70
     1
102
RTVSPost2010Prop49
280
     0
102
RTVSPost2010PropOp49
 70
     1
102
RTVSPost2010Prop50
 90
       50
102
RTVSPost2010PropOp50
 70
     1
102
RTVSPost2010Prop51ColorIndex
 90
      256
102
RTVSPost2010Prop51ColorRGB
 90
-16777216
102
RTVSPost2010PropOp51
 70
     0
102
RTVSPost2010Prop52
140
1.0
102
RTVSPost2010PropOp52
 70
     0
102
RTVSPost2010Prop53
 90
        2
102
RTVSPost2010PropOp53
 70
     1
102
RTVSPost2010Prop54
  1
strokes_ogs.tif
102
RTVSPost2010PropOp54
 70
     1
102
RTVSPost2010Prop55
280
     0
102
RTVSPost2010PropOp55
 70
     1
102
RTVSPost2010Prop56
140
1.0
102
RTVSPost2010PropOp56
 70
     1
102
RTVSPost2010Prop57
140
1.0
102
RTVSPost2010PropOp57
 70
     1
102
RTVSPropertyOp0
 70
     1
102
RTVSPropertyOp1
 70
     1
102
RTVSPropertyOp2
 70
     1
102
RTVSPropertyOp3
 70
     1
102
RTVSPropertyOp4
 70
     1
102
RTVSPropertyOp5
 70
     1
102
RTVSPropertyOp6
 70
     1
102
RTVSPropertyOp7
 70
     1
102
RTVSPropertyOp8
 70
     1
102
RTVSPropertyOp9
 70
     1
102
RTVSPropertyOp10
 70
     1
102
RTVSPropertyOp11
 70
     1
102
RTVSPropertyOp12
 70
     1
102
RTVSPropertyOp13
 70
     1
102
RTVSPropertyOp14
 70
     1
102
RTVSPropertyOp15
 70
     1
102
RTVSPropertyOp16
 70
     1
102
RTVSPropertyOp17
 70
     1
102
RTVSPropertyOp18
 70
     1
102
RTVSPropertyOp19
 70
     1
102
RTVSPropertyOp20
 70
     1
102
RTVSPropertyOp21
 70
     1
102
RTVSPropertyOp22
 70
     1
102
RTVSPropertyOp23
 70
     1
102
RTVSPropertyOp24
 70
     1
102
RTVSPropertyOp25
 70
     1
102
RTVSPropertyOp26
 70
     1
102
RTVSPropertyOp27
 70
     1
102
RTVSPropertyOp28
 70
     1
102
RTVSPropertyOp29
 70
     1
102
RTVSPropertyOp30
 70
     1
102
RTVSPropertyOp31
 70
     1
102
RTVSPropertyOp32
 70
     1
102
RTVSPropertyOp33
 70
     1
102
RTVSPropertyOp34
 70
     1
102
RTVSPropertyOp35
 70
     1
102
RTVSPropertyOp36
 70
     1
102
RTVSPropertyOp37
 70
     1
102
RTVSPropertyOp38
 70
     1
102
RTVSPropertyOp39
 70
     1
102
RTVSPropertyOp40
 70
     1
102
RTVSPropertyOp41
 70
     1
102
RTVSPropertyOp42
 70
     1
102
RTVSPropertyOp43
 70
     1
102
RTVSPropertyOp44
 70
     1
102
RTVSPropertyOp45
 70
     1
102
RTVSPropertyOp46
 70
     1
102
RTVSPropertyOp47
 70
     1
102
RTVSPropertyOp48
 70
     1
102
RTVSPropertyOp49
 70
     1
102
RTVSPropertyOp50
 70
     1
102
RTVSPropertyOp51
 70
     0
102
RTVSPropertyOp52
 70
     0
102
RTVSPropertyOp53
 70
     1
102
RTVSPropertyOp54
 70
     1
102
RTVSPropertyOp55
 70
     1
102
RTVSPropertyOp56
 70
     1
102
RTVSPropertyOp57
 70
     1
102
RTVSPropertyOp58
 70
     1
102
RTVSPropertyOp59
 70
     1
102
RTVSPropertyOp60
 70
     1
102
RTVSPropertyOp61
 70
     1
102
RTVSPropertyOp62
 70
     1
  0
XRECORD
  5
83CE
102
{ACAD_REACTORS
330
83CD
102
}
330
83CD
100
AcDbXrecord
280
     1
102
RTVSPost2010Prop28
280
     0
102
RTVSPost2010PropOp28
 70
     1
102
RTVSPost2010Prop29
280
     1
102
RTVSPost2010PropOp29
 70
     1
102
RTVSPost2010Prop30
280
     1
102
RTVSPost2010PropOp30
 70
     1
102
RTVSPost2010Prop31
280
     0
102
RTVSPost2010PropOp31
 70
     1
102
RTVSPost2010Prop32
280
     0
102
RTVSPost2010PropOp32
 70
     1
102
RTVSPost2010Prop33
280
     0
102
RTVSPost2010PropOp33
 70
     1
102
RTVSPost2010Prop34
280
     0
102
RTVSPost2010PropOp34
 70
     1
102
RTVSPost2010Prop35
280
     0
102
RTVSPost2010PropOp35
 70
     1
102
RTVSPost2010Prop36
280
     0
102
RTVSPost2010PropOp36
 70
     1
102
RTVSPost2010Prop37
 90
       50
102
RTVSPost2010PropOp37
 70
     0
102
RTVSPost2010Prop38
140
0.0
102
RTVSPost2010PropOp38
 70
     0
102
RTVSPost2010Prop39
140
1.0
102
RTVSPost2010PropOp39
 70
     0
102
RTVSPost2010Prop40
 90
        0
102
RTVSPost2010PropOp40
 70
     0
102
RTVSPost2010Prop41ColorIndex
 90
       18
102
RTVSPost2010Prop41ColorRGB
 90
        0
102
RTVSPost2010PropOp41
 70
     0
102
RTVSPost2010Prop42
 90
       50
102
RTVSPost2010PropOp42
 70
     0
102
RTVSPost2010Prop43
 90
        3
102
RTVSPost2010PropOp43
 70
     0
102
RTVSPost2010Prop44ColorIndex
 90
        5
102
RTVSPost2010Prop44ColorRGB
 90
      255
102
RTVSPost2010PropOp44
 70
     0
102
RTVSPost2010Prop45
280
     0
102
RTVSPost2010PropOp45
 70
     1
102
RTVSPost2010Prop46
 90
       50
102
RTVSPost2010PropOp46
 70
     0
102
RTVSPost2010Prop47
 90
       50
102
RTVSPost2010PropOp47
 70
     0
102
RTVSPost2010Prop48
 90
       50
102
RTVSPost2010PropOp48
 70
     0
102
RTVSPost2010Prop49
280
     0
102
RTVSPost2010PropOp49
 70
     1
102
RTVSPost2010Prop50
 90
       50
102
RTVSPost2010PropOp50
 70
     0
102
RTVSPost2010Prop51ColorIndex
 90
      256
102
RTVSPost2010Prop51ColorRGB
 90
-16777216
102
RTVSPost2010PropOp51
 70
     0
102
RTVSPost2010Prop52
140
1.0
102
RTVSPost2010PropOp52
 70
     0
102
RTVSPost2010Prop53
 90
        2
102
RTVSPost2010PropOp53
 70
     0
102
RTVSPost2010Prop54
  1
strokes_ogs.tif
102
RTVSPost2010PropOp54
 70
     0
102
RTVSPost2010Prop55
280
     0
102
RTVSPost2010PropOp55
 70
     1
102
RTVSPost2010Prop56
140
1.0
102
RTVSPost2010PropOp56
 70
     0
102
RTVSPost2010Prop57
140
1.0
102
RTVSPost2010PropOp57
 70
     0
102
RTVSPropertyOp0
 70
     0
102
RTVSPropertyOp1
 70
     0
102
RTVSPropertyOp2
 70
     0
102
RTVSPropertyOp3
 70
     0
102
RTVSPropertyOp4
 70
     0
102
RTVSPropertyOp5
 70
     0
102
RTVSPropertyOp6
 70
     0
102
RTVSPropertyOp7
 70
     0
102
RTVSPropertyOp8
 70
     0
102
RTVSPropertyOp9
 70
     0
102
RTVSPropertyOp10
 70
     0
102
RTVSPropertyOp11
 70
     0
102
RTVSPropertyOp12
 70
     0
102
RTVSPropertyOp13
 70
     0
102
RTVSPropertyOp14
 70
     2
102
RTVSPropertyOp15
 70
     0
102
RTVSPropertyOp16
 70
     0
102
RTVSPropertyOp17
 70
     0
102
RTVSPropertyOp18
 70
     0
102
RTVSPropertyOp19
 70
     0
102
RTVSPropertyOp20
 70
     0
102
RTVSPropertyOp21
 70
     0
102
RTVSPropertyOp22
 70
     0
102
RTVSPropertyOp23
 70
     0
102
RTVSPropertyOp24
 70
     0
102
RTVSPropertyOp25
 70
     0
102
RTVSPropertyOp26
 70
     0
102
RTVSPropertyOp27
 70
     0
102
RTVSPropertyOp28
 70
     1
102
RTVSPropertyOp29
 70
     1
102
RTVSPropertyOp30
 70
     1
102
RTVSPropertyOp31
 70
     1
102
RTVSPropertyOp32
 70
     1
102
RTVSPropertyOp33
 70
     1
102
RTVSPropertyOp34
 70
     1
102
RTVSPropertyOp35
 70
     1
102
RTVSPropertyOp36
 70
     1
102
RTVSPropertyOp37
 70
     0
102
RTVSPropertyOp38
 70
     0
102
RTVSPropertyOp39
 70
     0
102
RTVSPropertyOp40
 70
     0
102
RTVSPropertyOp41
 70
     0
102
RTVSPropertyOp42
 70
     0
102
RTVSPropertyOp43
 70
     0
102
RTVSPropertyOp44
 70
     0
102
RTVSPropertyOp45
 70
     1
102
RTVSPropertyOp46
 70
     0
102
RTVSPropertyOp47
 70
     0
102
RTVSPropertyOp48
 70
     0
102
RTVSPropertyOp49
 70
     1
102
RTVSPropertyOp50
 70
     0
102
RTVSPropertyOp51
 70
     0
102
RTVSPropertyOp52
 70
     0
102
RTVSPropertyOp53
 70
     0
102
RTVSPropertyOp54
 70
     0
102
RTVSPropertyOp55
 70
     1
102
RTVSPropertyOp56
 70
     0
102
RTVSPropertyOp57
 70
     0
102
RTVSPropertyOp58
 70
     0
102
RTVSPropertyOp59
 70
     0
102
RTVSPropertyOp60
 70
     0
102
RTVSPropertyOp61
 70
     0
102
RTVSPropertyOp62
 70
     0
  0
XRECORD
  5
83BC
102
{ACAD_REACTORS
330
83BB
102
}
330
83BB
100
AcDbXrecord
280
     1
102
RTVSPost2010Prop28
280
     0
102
RTVSPost2010PropOp28
 70
     1
102
RTVSPost2010Prop29
280
     1
102
RTVSPost2010PropOp29
 70
     1
102
RTVSPost2010Prop30
280
     1
102
RTVSPost2010PropOp30
 70
     1
102
RTVSPost2010Prop31
280
     0
102
RTVSPost2010PropOp31
 70
     1
102
RTVSPost2010Prop32
280
     0
102
RTVSPost2010PropOp32
 70
     1
102
RTVSPost2010Prop33
280
     0
102
RTVSPost2010PropOp33
 70
     1
102
RTVSPost2010Prop34
280
     0
102
RTVSPost2010PropOp34
 70
     1
102
RTVSPost2010Prop35
280
     0
102
RTVSPost2010PropOp35
 70
     1
102
RTVSPost2010Prop36
280
     0
102
RTVSPost2010PropOp36
 70
     1
102
RTVSPost2010Prop37
 90
       50
102
RTVSPost2010PropOp37
 70
     1
102
RTVSPost2010Prop38
140
0.0
102
RTVSPost2010PropOp38
 70
     1
102
RTVSPost2010Prop39
140
1.0
102
RTVSPost2010PropOp39
 70
     1
102
RTVSPost2010Prop40
 90
        0
102
RTVSPost2010PropOp40
 70
     1
102
RTVSPost2010Prop41ColorIndex
 90
       18
102
RTVSPost2010Prop41ColorRGB
 90
        0
102
RTVSPost2010PropOp41
 70
     1
102
RTVSPost2010Prop42
 90
       50
102
RTVSPost2010PropOp42
 70
     1
102
RTVSPost2010Prop43
 90
        3
102
RTVSPost2010PropOp43
 70
     1
102
RTVSPost2010Prop44ColorIndex
 90
        5
102
RTVSPost2010Prop44ColorRGB
 90
      255
102
RTVSPost2010PropOp44
 70
     1
102
RTVSPost2010Prop45
280
     0
102
RTVSPost2010PropOp45
 70
     1
102
RTVSPost2010Prop46
 90
       50
102
RTVSPost2010PropOp46
 70
     1
102
RTVSPost2010Prop47
 90
       50
102
RTVSPost2010PropOp47
 70
     1
102
RTVSPost2010Prop48
 90
       50
102
RTVSPost2010PropOp48
 70
     1
102
RTVSPost2010Prop49
280
     0
102
RTVSPost2010PropOp49
 70
     1
102
RTVSPost2010Prop50
 90
       50
102
RTVSPost2010PropOp50
 70
     1
102
RTVSPost2010Prop51ColorIndex
 90
      256
102
RTVSPost2010Prop51ColorRGB
 90
-16777216
102
RTVSPost2010PropOp51
 70
     0
102
RTVSPost2010Prop52
140
1.0
102
RTVSPost2010PropOp52
 70
     0
102
RTVSPost2010Prop53
 90
        2
102
RTVSPost2010PropOp53
 70
     1
102
RTVSPost2010Prop54
  1
strokes_ogs.tif
102
RTVSPost2010PropOp54
 70
     1
102
RTVSPost2010Prop55
280
     0
102
RTVSPost2010PropOp55
 70
     1
102
RTVSPost2010Prop56
140
1.0
102
RTVSPost2010PropOp56
 70
     1
102
RTVSPost2010Prop57
140
1.0
102
RTVSPost2010PropOp57
 70
     1
102
RTVSPropertyOp0
 70
     1
102
RTVSPropertyOp1
 70
     1
102
RTVSPropertyOp2
 70
     1
102
RTVSPropertyOp3
 70
     1
102
RTVSPropertyOp4
 70
     1
102
RTVSPropertyOp5
 70
     1
102
RTVSPropertyOp6
 70
     1
102
RTVSPropertyOp7
 70
     1
102
RTVSPropertyOp8
 70
     1
102
RTVSPropertyOp9
 70
     1
102
RTVSPropertyOp10
 70
     1
102
RTVSPropertyOp11
 70
     1
102
RTVSPropertyOp12
 70
     1
102
RTVSPropertyOp13
 70
     1
102
RTVSPropertyOp14
 70
     1
102
RTVSPropertyOp15
 70
     1
102
RTVSPropertyOp16
 70
     1
102
RTVSPropertyOp17
 70
     1
102
RTVSPropertyOp18
 70
     1
102
RTVSPropertyOp19
 70
     1
102
RTVSPropertyOp20
 70
     1
102
RTVSPropertyOp21
 70
     1
102
RTVSPropertyOp22
 70
     1
102
RTVSPropertyOp23
 70
     1
102
RTVSPropertyOp24
 70
     1
102
RTVSPropertyOp25
 70
     1
102
RTVSPropertyOp26
 70
     1
102
RTVSPropertyOp27
 70
     1
102
RTVSPropertyOp28
 70
     1
102
RTVSPropertyOp29
 70
     1
102
RTVSPropertyOp30
 70
     1
102
RTVSPropertyOp31
 70
     1
102
RTVSPropertyOp32
 70
     1
102
RTVSPropertyOp33
 70
     1
102
RTVSPropertyOp34
 70
     1
102
RTVSPropertyOp35
 70
     1
102
RTVSPropertyOp36
 70
     1
102
RTVSPropertyOp37
 70
     1
102
RTVSPropertyOp38
 70
     1
102
RTVSPropertyOp39
 70
     1
102
RTVSPropertyOp40
 70
     1
102
RTVSPropertyOp41
 70
     1
102
RTVSPropertyOp42
 70
     1
102
RTVSPropertyOp43
 70
     1
102
RTVSPropertyOp44
 70
     1
102
RTVSPropertyOp45
 70
     1
102
RTVSPropertyOp46
 70
     1
102
RTVSPropertyOp47
 70
     1
102
RTVSPropertyOp48
 70
     1
102
RTVSPropertyOp49
 70
     1
102
RTVSPropertyOp50
 70
     1
102
RTVSPropertyOp51
 70
     0
102
RTVSPropertyOp52
 70
     0
102
RTVSPropertyOp53
 70
     1
102
RTVSPropertyOp54
 70
     1
102
RTVSPropertyOp55
 70
     1
102
RTVSPropertyOp56
 70
     1
102
RTVSPropertyOp57
 70
     1
102
RTVSPropertyOp58
 70
     1
102
RTVSPropertyOp59
 70
     1
102
RTVSPropertyOp60
 70
     1
102
RTVSPropertyOp61
 70
     1
102
RTVSPropertyOp62
 70
     1
  0
XRECORD
  5
83A0
102
{ACAD_REACTORS
330
839F
102
}
330
839F
100
AcDbXrecord
280
     1
102
RTVSPost2010Prop28
280
     0
102
RTVSPost2010PropOp28
 70
     1
102
RTVSPost2010Prop29
280
     1
102
RTVSPost2010PropOp29
 70
     1
102
RTVSPost2010Prop30
280
     1
102
RTVSPost2010PropOp30
 70
     1
102
RTVSPost2010Prop31
280
     0
102
RTVSPost2010PropOp31
 70
     1
102
RTVSPost2010Prop32
280
     0
102
RTVSPost2010PropOp32
 70
     1
102
RTVSPost2010Prop33
280
     0
102
RTVSPost2010PropOp33
 70
     1
102
RTVSPost2010Prop34
280
     0
102
RTVSPost2010PropOp34
 70
     1
102
RTVSPost2010Prop35
280
     0
102
RTVSPost2010PropOp35
 70
     1
102
RTVSPost2010Prop36
280
     0
102
RTVSPost2010PropOp36
 70
     1
102
RTVSPost2010Prop37
 90
       50
102
RTVSPost2010PropOp37
 70
     1
102
RTVSPost2010Prop38
140
0.0
102
RTVSPost2010PropOp38
 70
     1
102
RTVSPost2010Prop39
140
1.0
102
RTVSPost2010PropOp39
 70
     1
102
RTVSPost2010Prop40
 90
        0
102
RTVSPost2010PropOp40
 70
     1
102
RTVSPost2010Prop41ColorIndex
 90
       18
102
RTVSPost2010Prop41ColorRGB
 90
        0
102
RTVSPost2010PropOp41
 70
     1
102
RTVSPost2010Prop42
 90
       50
102
RTVSPost2010PropOp42
 70
     1
102
RTVSPost2010Prop43
 90
        3
102
RTVSPost2010PropOp43
 70
     1
102
RTVSPost2010Prop44ColorIndex
 90
        5
102
RTVSPost2010Prop44ColorRGB
 90
      255
102
RTVSPost2010PropOp44
 70
     1
102
RTVSPost2010Prop45
280
     0
102
RTVSPost2010PropOp45
 70
     1
102
RTVSPost2010Prop46
 90
       50
102
RTVSPost2010PropOp46
 70
     1
102
RTVSPost2010Prop47
 90
       50
102
RTVSPost2010PropOp47
 70
     1
102
RTVSPost2010Prop48
 90
       50
102
RTVSPost2010PropOp48
 70
     1
102
RTVSPost2010Prop49
280
     0
102
RTVSPost2010PropOp49
 70
     1
102
RTVSPost2010Prop50
 90
       50
102
RTVSPost2010PropOp50
 70
     1
102
RTVSPost2010Prop51ColorIndex
 90
      256
102
RTVSPost2010Prop51ColorRGB
 90
-16777216
102
RTVSPost2010PropOp51
 70
     0
102
RTVSPost2010Prop52
140
1.0
102
RTVSPost2010PropOp52
 70
     0
102
RTVSPost2010Prop53
 90
        2
102
RTVSPost2010PropOp53
 70
     1
102
RTVSPost2010Prop54
  1
strokes_ogs.tif
102
RTVSPost2010PropOp54
 70
     1
102
RTVSPost2010Prop55
280
     0
102
RTVSPost2010PropOp55
 70
     1
102
RTVSPost2010Prop56
140
1.0
102
RTVSPost2010PropOp56
 70
     1
102
RTVSPost2010Prop57
140
1.0
102
RTVSPost2010PropOp57
 70
     1
102
RTVSPropertyOp0
 70
     1
102
RTVSPropertyOp1
 70
     1
102
RTVSPropertyOp2
 70
     1
102
RTVSPropertyOp3
 70
     1
102
RTVSPropertyOp4
 70
     1
102
RTVSPropertyOp5
 70
     1
102
RTVSPropertyOp6
 70
     1
102
RTVSPropertyOp7
 70
     1
102
RTVSPropertyOp8
 70
     1
102
RTVSPropertyOp9
 70
     1
102
RTVSPropertyOp10
 70
     1
102
RTVSPropertyOp11
 70
     1
102
RTVSPropertyOp12
 70
     1
102
RTVSPropertyOp13
 70
     1
102
RTVSPropertyOp14
 70
     1
102
RTVSPropertyOp15
 70
     1
102
RTVSPropertyOp16
 70
     1
102
RTVSPropertyOp17
 70
     1
102
RTVSPropertyOp18
 70
     1
102
RTVSPropertyOp19
 70
     1
102
RTVSPropertyOp20
 70
     1
102
RTVSPropertyOp21
 70
     1
102
RTVSPropertyOp22
 70
     1
102
RTVSPropertyOp23
 70
     1
102
RTVSPropertyOp24
 70
     1
102
RTVSPropertyOp25
 70
     1
102
RTVSPropertyOp26
 70
     1
102
RTVSPropertyOp27
 70
     1
102
RTVSPropertyOp28
 70
     1
102
RTVSPropertyOp29
 70
     1
102
RTVSPropertyOp30
 70
     1
102
RTVSPropertyOp31
 70
     1
102
RTVSPropertyOp32
 70
     1
102
RTVSPropertyOp33
 70
     1
102
RTVSPropertyOp34
 70
     1
102
RTVSPropertyOp35
 70
     1
102
RTVSPropertyOp36
 70
     1
102
RTVSPropertyOp37
 70
     1
102
RTVSPropertyOp38
 70
     1
102
RTVSPropertyOp39
 70
     1
102
RTVSPropertyOp40
 70
     1
102
RTVSPropertyOp41
 70
     1
102
RTVSPropertyOp42
 70
     1
102
RTVSPropertyOp43
 70
     1
102
RTVSPropertyOp44
 70
     1
102
RTVSPropertyOp45
 70
     1
102
RTVSPropertyOp46
 70
     1
102
RTVSPropertyOp47
 70
     1
102
RTVSPropertyOp48
 70
     1
102
RTVSPropertyOp49
 70
     1
102
RTVSPropertyOp50
 70
     1
102
RTVSPropertyOp51
 70
     0
102
RTVSPropertyOp52
 70
     0
102
RTVSPropertyOp53
 70
     1
102
RTVSPropertyOp54
 70
     1
102
RTVSPropertyOp55
 70
     1
102
RTVSPropertyOp56
 70
     1
102
RTVSPropertyOp57
 70
     1
102
RTVSPropertyOp58
 70
     1
102
RTVSPropertyOp59
 70
     1
102
RTVSPropertyOp60
 70
     1
102
RTVSPropertyOp61
 70
     1
102
RTVSPropertyOp62
 70
     1
  0
XRECORD
  5
83A2
102
{ACAD_REACTORS
330
83A1
102
}
330
83A1
100
AcDbXrecord
280
     1
102
RTVSPost2010Prop28
280
     0
102
RTVSPost2010PropOp28
 70
     1
102
RTVSPost2010Prop29
280
     1
102
RTVSPost2010PropOp29
 70
     1
102
RTVSPost2010Prop30
280
     1
102
RTVSPost2010PropOp30
 70
     1
102
RTVSPost2010Prop31
280
     0
102
RTVSPost2010PropOp31
 70
     1
102
RTVSPost2010Prop32
280
     0
102
RTVSPost2010PropOp32
 70
     1
102
RTVSPost2010Prop33
280
     0
102
RTVSPost2010PropOp33
 70
     1
102
RTVSPost2010Prop34
280
     0
102
RTVSPost2010PropOp34
 70
     1
102
RTVSPost2010Prop35
280
     0
102
RTVSPost2010PropOp35
 70
     1
102
RTVSPost2010Prop36
280
     0
102
RTVSPost2010PropOp36
 70
     1
102
RTVSPost2010Prop37
 90
       50
102
RTVSPost2010PropOp37
 70
     1
102
RTVSPost2010Prop38
140
0.0
102
RTVSPost2010PropOp38
 70
     1
102
RTVSPost2010Prop39
140
1.0
102
RTVSPost2010PropOp39
 70
     1
102
RTVSPost2010Prop40
 90
        0
102
RTVSPost2010PropOp40
 70
     1
102
RTVSPost2010Prop41ColorIndex
 90
       18
102
RTVSPost2010Prop41ColorRGB
 90
        0
102
RTVSPost2010PropOp41
 70
     1
102
RTVSPost2010Prop42
 90
       50
102
RTVSPost2010PropOp42
 70
     1
102
RTVSPost2010Prop43
 90
        3
102
RTVSPost2010PropOp43
 70
     1
102
RTVSPost2010Prop44ColorIndex
 90
        5
102
RTVSPost2010Prop44ColorRGB
 90
      255
102
RTVSPost2010PropOp44
 70
     1
102
RTVSPost2010Prop45
280
     0
102
RTVSPost2010PropOp45
 70
     1
102
RTVSPost2010Prop46
 90
       50
102
RTVSPost2010PropOp46
 70
     1
102
RTVSPost2010Prop47
 90
       50
102
RTVSPost2010PropOp47
 70
     1
102
RTVSPost2010Prop48
 90
       50
102
RTVSPost2010PropOp48
 70
     1
102
RTVSPost2010Prop49
280
     0
102
RTVSPost2010PropOp49
 70
     1
102
RTVSPost2010Prop50
 90
       50
102
RTVSPost2010PropOp50
 70
     1
102
RTVSPost2010Prop51ColorIndex
 90
      256
102
RTVSPost2010Prop51ColorRGB
 90
-16777216
102
RTVSPost2010PropOp51
 70
     0
102
RTVSPost2010Prop52
140
1.0
102
RTVSPost2010PropOp52
 70
     0
102
RTVSPost2010Prop53
 90
        2
102
RTVSPost2010PropOp53
 70
     1
102
RTVSPost2010Prop54
  1
strokes_ogs.tif
102
RTVSPost2010PropOp54
 70
     1
102
RTVSPost2010Prop55
280
     0
102
RTVSPost2010PropOp55
 70
     1
102
RTVSPost2010Prop56
140
1.0
102
RTVSPost2010PropOp56
 70
     1
102
RTVSPost2010Prop57
140
1.0
102
RTVSPost2010PropOp57
 70
     1
102
RTVSPropertyOp0
 70
     1
102
RTVSPropertyOp1
 70
     1
102
RTVSPropertyOp2
 70
     1
102
RTVSPropertyOp3
 70
     1
102
RTVSPropertyOp4
 70
     1
102
RTVSPropertyOp5
 70
     1
102
RTVSPropertyOp6
 70
     1
102
RTVSPropertyOp7
 70
     1
102
RTVSPropertyOp8
 70
     1
102
RTVSPropertyOp9
 70
     1
102
RTVSPropertyOp10
 70
     1
102
RTVSPropertyOp11
 70
     1
102
RTVSPropertyOp12
 70
     1
102
RTVSPropertyOp13
 70
     1
102
RTVSPropertyOp14
 70
     1
102
RTVSPropertyOp15
 70
     1
102
RTVSPropertyOp16
 70
     1
102
RTVSPropertyOp17
 70
     1
102
RTVSPropertyOp18
 70
     1
102
RTVSPropertyOp19
 70
     1
102
RTVSPropertyOp20
 70
     1
102
RTVSPropertyOp21
 70
     1
102
RTVSPropertyOp22
 70
     1
102
RTVSPropertyOp23
 70
     1
102
RTVSPropertyOp24
 70
     1
102
RTVSPropertyOp25
 70
     1
102
RTVSPropertyOp26
 70
     1
102
RTVSPropertyOp27
 70
     1
102
RTVSPropertyOp28
 70
     1
102
RTVSPropertyOp29
 70
     1
102
RTVSPropertyOp30
 70
     1
102
RTVSPropertyOp31
 70
     1
102
RTVSPropertyOp32
 70
     1
102
RTVSPropertyOp33
 70
     1
102
RTVSPropertyOp34
 70
     1
102
RTVSPropertyOp35
 70
     1
102
RTVSPropertyOp36
 70
     1
102
RTVSPropertyOp37
 70
     1
102
RTVSPropertyOp38
 70
     1
102
RTVSPropertyOp39
 70
     1
102
RTVSPropertyOp40
 70
     1
102
RTVSPropertyOp41
 70
     1
102
RTVSPropertyOp42
 70
     1
102
RTVSPropertyOp43
 70
     1
102
RTVSPropertyOp44
 70
     1
102
RTVSPropertyOp45
 70
     1
102
RTVSPropertyOp46
 70
     1
102
RTVSPropertyOp47
 70
     1
102
RTVSPropertyOp48
 70
     1
102
RTVSPropertyOp49
 70
     1
102
RTVSPropertyOp50
 70
     1
102
RTVSPropertyOp51
 70
     0
102
RTVSPropertyOp52
 70
     0
102
RTVSPropertyOp53
 70
     1
102
RTVSPropertyOp54
 70
     1
102
RTVSPropertyOp55
 70
     1
102
RTVSPropertyOp56
 70
     1
102
RTVSPropertyOp57
 70
     1
102
RTVSPropertyOp58
 70
     1
102
RTVSPropertyOp59
 70
     1
102
RTVSPropertyOp60
 70
     1
102
RTVSPropertyOp61
 70
     1
102
RTVSPropertyOp62
 70
     1
  0
XRECORD
  5
83A4
102
{ACAD_REACTORS
330
83A3
102
}
330
83A3
100
AcDbXrecord
280
     1
102
RTVSPost2010Prop28
280
     0
102
RTVSPost2010PropOp28
 70
     1
102
RTVSPost2010Prop29
280
     1
102
RTVSPost2010PropOp29
 70
     1
102
RTVSPost2010Prop30
280
     1
102
RTVSPost2010PropOp30
 70
     1
102
RTVSPost2010Prop31
280
     0
102
RTVSPost2010PropOp31
 70
     1
102
RTVSPost2010Prop32
280
     0
102
RTVSPost2010PropOp32
 70
     1
102
RTVSPost2010Prop33
280
     0
102
RTVSPost2010PropOp33
 70
     1
102
RTVSPost2010Prop34
280
     0
102
RTVSPost2010PropOp34
 70
     1
102
RTVSPost2010Prop35
280
     0
102
RTVSPost2010PropOp35
 70
     1
102
RTVSPost2010Prop36
280
     0
102
RTVSPost2010PropOp36
 70
     1
102
RTVSPost2010Prop37
 90
       50
102
RTVSPost2010PropOp37
 70
     1
102
RTVSPost2010Prop38
140
0.0
102
RTVSPost2010PropOp38
 70
     1
102
RTVSPost2010Prop39
140
1.0
102
RTVSPost2010PropOp39
 70
     1
102
RTVSPost2010Prop40
 90
        0
102
RTVSPost2010PropOp40
 70
     1
102
RTVSPost2010Prop41ColorIndex
 90
       18
102
RTVSPost2010Prop41ColorRGB
 90
        0
102
RTVSPost2010PropOp41
 70
     1
102
RTVSPost2010Prop42
 90
       50
102
RTVSPost2010PropOp42
 70
     1
102
RTVSPost2010Prop43
 90
        3
102
RTVSPost2010PropOp43
 70
     1
102
RTVSPost2010Prop44ColorIndex
 90
        5
102
RTVSPost2010Prop44ColorRGB
 90
      255
102
RTVSPost2010PropOp44
 70
     1
102
RTVSPost2010Prop45
280
     0
102
RTVSPost2010PropOp45
 70
     1
102
RTVSPost2010Prop46
 90
       50
102
RTVSPost2010PropOp46
 70
     1
102
RTVSPost2010Prop47
 90
       50
102
RTVSPost2010PropOp47
 70
     1
102
RTVSPost2010Prop48
 90
       50
102
RTVSPost2010PropOp48
 70
     1
102
RTVSPost2010Prop49
280
     0
102
RTVSPost2010PropOp49
 70
     1
102
RTVSPost2010Prop50
 90
       50
102
RTVSPost2010PropOp50
 70
     1
102
RTVSPost2010Prop51ColorIndex
 90
      256
102
RTVSPost2010Prop51ColorRGB
 90
-16777216
102
RTVSPost2010PropOp51
 70
     0
102
RTVSPost2010Prop52
140
1.0
102
RTVSPost2010PropOp52
 70
     0
102
RTVSPost2010Prop53
 90
        2
102
RTVSPost2010PropOp53
 70
     1
102
RTVSPost2010Prop54
  1
strokes_ogs.tif
102
RTVSPost2010PropOp54
 70
     1
102
RTVSPost2010Prop55
280
     0
102
RTVSPost2010PropOp55
 70
     1
102
RTVSPost2010Prop56
140
1.0
102
RTVSPost2010PropOp56
 70
     1
102
RTVSPost2010Prop57
140
1.0
102
RTVSPost2010PropOp57
 70
     1
102
RTVSPropertyOp0
 70
     1
102
RTVSPropertyOp1
 70
     1
102
RTVSPropertyOp2
 70
     1
102
RTVSPropertyOp3
 70
     1
102
RTVSPropertyOp4
 70
     1
102
RTVSPropertyOp5
 70
     1
102
RTVSPropertyOp6
 70
     1
102
RTVSPropertyOp7
 70
     1
102
RTVSPropertyOp8
 70
     1
102
RTVSPropertyOp9
 70
     1
102
RTVSPropertyOp10
 70
     1
102
RTVSPropertyOp11
 70
     1
102
RTVSPropertyOp12
 70
     1
102
RTVSPropertyOp13
 70
     1
102
RTVSPropertyOp14
 70
     1
102
RTVSPropertyOp15
 70
     1
102
RTVSPropertyOp16
 70
     1
102
RTVSPropertyOp17
 70
     1
102
RTVSPropertyOp18
 70
     1
102
RTVSPropertyOp19
 70
     1
102
RTVSPropertyOp20
 70
     1
102
RTVSPropertyOp21
 70
     1
102
RTVSPropertyOp22
 70
     1
102
RTVSPropertyOp23
 70
     1
102
RTVSPropertyOp24
 70
     1
102
RTVSPropertyOp25
 70
     1
102
RTVSPropertyOp26
 70
     1
102
RTVSPropertyOp27
 70
     1
102
RTVSPropertyOp28
 70
     1
102
RTVSPropertyOp29
 70
     1
102
RTVSPropertyOp30
 70
     1
102
RTVSPropertyOp31
 70
     1
102
RTVSPropertyOp32
 70
     1
102
RTVSPropertyOp33
 70
     1
102
RTVSPropertyOp34
 70
     1
102
RTVSPropertyOp35
 70
     1
102
RTVSPropertyOp36
 70
     1
102
RTVSPropertyOp37
 70
     1
102
RTVSPropertyOp38
 70
     1
102
RTVSPropertyOp39
 70
     1
102
RTVSPropertyOp40
 70
     1
102
RTVSPropertyOp41
 70
     1
102
RTVSPropertyOp42
 70
     1
102
RTVSPropertyOp43
 70
     1
102
RTVSPropertyOp44
 70
     1
102
RTVSPropertyOp45
 70
     1
102
RTVSPropertyOp46
 70
     1
102
RTVSPropertyOp47
 70
     1
102
RTVSPropertyOp48
 70
     1
102
RTVSPropertyOp49
 70
     1
102
RTVSPropertyOp50
 70
     1
102
RTVSPropertyOp51
 70
     0
102
RTVSPropertyOp52
 70
     0
102
RTVSPropertyOp53
 70
     1
102
RTVSPropertyOp54
 70
     1
102
RTVSPropertyOp55
 70
     1
102
RTVSPropertyOp56
 70
     1
102
RTVSPropertyOp57
 70
     1
102
RTVSPropertyOp58
 70
     1
102
RTVSPropertyOp59
 70
     1
102
RTVSPropertyOp60
 70
     1
102
RTVSPropertyOp61
 70
     1
102
RTVSPropertyOp62
 70
     1
  0
XRECORD
  5
83A6
102
{ACAD_REACTORS
330
83A5
102
}
330
83A5
100
AcDbXrecord
280
     1
102
RTVSPost2010Prop28
280
     0
102
RTVSPost2010PropOp28
 70
     1
102
RTVSPost2010Prop29
280
     1
102
RTVSPost2010PropOp29
 70
     1
102
RTVSPost2010Prop30
280
     1
102
RTVSPost2010PropOp30
 70
     1
102
RTVSPost2010Prop31
280
     0
102
RTVSPost2010PropOp31
 70
     1
102
RTVSPost2010Prop32
280
     0
102
RTVSPost2010PropOp32
 70
     1
102
RTVSPost2010Prop33
280
     0
102
RTVSPost2010PropOp33
 70
     1
102
RTVSPost2010Prop34
280
     0
102
RTVSPost2010PropOp34
 70
     1
102
RTVSPost2010Prop35
280
     0
102
RTVSPost2010PropOp35
 70
     1
102
RTVSPost2010Prop36
280
     0
102
RTVSPost2010PropOp36
 70
     1
102
RTVSPost2010Prop37
 90
       50
102
RTVSPost2010PropOp37
 70
     1
102
RTVSPost2010Prop38
140
0.0
102
RTVSPost2010PropOp38
 70
     1
102
RTVSPost2010Prop39
140
1.0
102
RTVSPost2010PropOp39
 70
     1
102
RTVSPost2010Prop40
 90
        0
102
RTVSPost2010PropOp40
 70
     1
102
RTVSPost2010Prop41ColorIndex
 90
       18
102
RTVSPost2010Prop41ColorRGB
 90
        0
102
RTVSPost2010PropOp41
 70
     1
102
RTVSPost2010Prop42
 90
       50
102
RTVSPost2010PropOp42
 70
     1
102
RTVSPost2010Prop43
 90
        3
102
RTVSPost2010PropOp43
 70
     1
102
RTVSPost2010Prop44ColorIndex
 90
        5
102
RTVSPost2010Prop44ColorRGB
 90
      255
102
RTVSPost2010PropOp44
 70
     1
102
RTVSPost2010Prop45
280
     0
102
RTVSPost2010PropOp45
 70
     1
102
RTVSPost2010Prop46
 90
       50
102
RTVSPost2010PropOp46
 70
     1
102
RTVSPost2010Prop47
 90
       50
102
RTVSPost2010PropOp47
 70
     1
102
RTVSPost2010Prop48
 90
       50
102
RTVSPost2010PropOp48
 70
     1
102
RTVSPost2010Prop49
280
     0
102
RTVSPost2010PropOp49
 70
     1
102
RTVSPost2010Prop50
 90
       50
102
RTVSPost2010PropOp50
 70
     1
102
RTVSPost2010Prop51ColorIndex
 90
      256
102
RTVSPost2010Prop51ColorRGB
 90
-16777216
102
RTVSPost2010PropOp51
 70
     0
102
RTVSPost2010Prop52
140
1.0
102
RTVSPost2010PropOp52
 70
     0
102
RTVSPost2010Prop53
 90
        2
102
RTVSPost2010PropOp53
 70
     1
102
RTVSPost2010Prop54
  1
strokes_ogs.tif
102
RTVSPost2010PropOp54
 70
     1
102
RTVSPost2010Prop55
280
     0
102
RTVSPost2010PropOp55
 70
     1
102
RTVSPost2010Prop56
140
1.0
102
RTVSPost2010PropOp56
 70
     1
102
RTVSPost2010Prop57
140
1.0
102
RTVSPost2010PropOp57
 70
     1
102
RTVSPropertyOp0
 70
     1
102
RTVSPropertyOp1
 70
     1
102
RTVSPropertyOp2
 70
     1
102
RTVSPropertyOp3
 70
     1
102
RTVSPropertyOp4
 70
     1
102
RTVSPropertyOp5
 70
     1
102
RTVSPropertyOp6
 70
     1
102
RTVSPropertyOp7
 70
     1
102
RTVSPropertyOp8
 70
     1
102
RTVSPropertyOp9
 70
     1
102
RTVSPropertyOp10
 70
     1
102
RTVSPropertyOp11
 70
     1
102
RTVSPropertyOp12
 70
     1
102
RTVSPropertyOp13
 70
     1
102
RTVSPropertyOp14
 70
     1
102
RTVSPropertyOp15
 70
     1
102
RTVSPropertyOp16
 70
     1
102
RTVSPropertyOp17
 70
     1
102
RTVSPropertyOp18
 70
     1
102
RTVSPropertyOp19
 70
     1
102
RTVSPropertyOp20
 70
     1
102
RTVSPropertyOp21
 70
     1
102
RTVSPropertyOp22
 70
     1
102
RTVSPropertyOp23
 70
     1
102
RTVSPropertyOp24
 70
     1
102
RTVSPropertyOp25
 70
     1
102
RTVSPropertyOp26
 70
     1
102
RTVSPropertyOp27
 70
     1
102
RTVSPropertyOp28
 70
     1
102
RTVSPropertyOp29
 70
     1
102
RTVSPropertyOp30
 70
     1
102
RTVSPropertyOp31
 70
     1
102
RTVSPropertyOp32
 70
     1
102
RTVSPropertyOp33
 70
     1
102
RTVSPropertyOp34
 70
     1
102
RTVSPropertyOp35
 70
     1
102
RTVSPropertyOp36
 70
     1
102
RTVSPropertyOp37
 70
     1
102
RTVSPropertyOp38
 70
     1
102
RTVSPropertyOp39
 70
     1
102
RTVSPropertyOp40
 70
     1
102
RTVSPropertyOp41
 70
     1
102
RTVSPropertyOp42
 70
     1
102
RTVSPropertyOp43
 70
     1
102
RTVSPropertyOp44
 70
     1
102
RTVSPropertyOp45
 70
     1
102
RTVSPropertyOp46
 70
     1
102
RTVSPropertyOp47
 70
     1
102
RTVSPropertyOp48
 70
     1
102
RTVSPropertyOp49
 70
     1
102
RTVSPropertyOp50
 70
     1
102
RTVSPropertyOp51
 70
     0
102
RTVSPropertyOp52
 70
     0
102
RTVSPropertyOp53
 70
     1
102
RTVSPropertyOp54
 70
     1
102
RTVSPropertyOp55
 70
     1
102
RTVSPropertyOp56
 70
     1
102
RTVSPropertyOp57
 70
     1
102
RTVSPropertyOp58
 70
     1
102
RTVSPropertyOp59
 70
     1
102
RTVSPropertyOp60
 70
     1
102
RTVSPropertyOp61
 70
     1
102
RTVSPropertyOp62
 70
     1
  0
XRECORD
  5
83AE
102
{ACAD_REACTORS
330
83AD
102
}
330
83AD
100
AcDbXrecord
280
     1
102
RTVSPost2010Prop28
280
     0
102
RTVSPost2010PropOp28
 70
     1
102
RTVSPost2010Prop29
280
     1
102
RTVSPost2010PropOp29
 70
     1
102
RTVSPost2010Prop30
280
     1
102
RTVSPost2010PropOp30
 70
     1
102
RTVSPost2010Prop31
280
     0
102
RTVSPost2010PropOp31
 70
     1
102
RTVSPost2010Prop32
280
     0
102
RTVSPost2010PropOp32
 70
     1
102
RTVSPost2010Prop33
280
     0
102
RTVSPost2010PropOp33
 70
     1
102
RTVSPost2010Prop34
280
     0
102
RTVSPost2010PropOp34
 70
     1
102
RTVSPost2010Prop35
280
     0
102
RTVSPost2010PropOp35
 70
     1
102
RTVSPost2010Prop36
280
     0
102
RTVSPost2010PropOp36
 70
     1
102
RTVSPost2010Prop37
 90
       50
102
RTVSPost2010PropOp37
 70
     1
102
RTVSPost2010Prop38
140
0.0
102
RTVSPost2010PropOp38
 70
     1
102
RTVSPost2010Prop39
140
1.0
102
RTVSPost2010PropOp39
 70
     1
102
RTVSPost2010Prop40
 90
        0
102
RTVSPost2010PropOp40
 70
     1
102
RTVSPost2010Prop41ColorIndex
 90
       18
102
RTVSPost2010Prop41ColorRGB
 90
        0
102
RTVSPost2010PropOp41
 70
     1
102
RTVSPost2010Prop42
 90
       50
102
RTVSPost2010PropOp42
 70
     1
102
RTVSPost2010Prop43
 90
        3
102
RTVSPost2010PropOp43
 70
     1
102
RTVSPost2010Prop44ColorIndex
 90
        5
102
RTVSPost2010Prop44ColorRGB
 90
      255
102
RTVSPost2010PropOp44
 70
     1
102
RTVSPost2010Prop45
280
     0
102
RTVSPost2010PropOp45
 70
     1
102
RTVSPost2010Prop46
 90
       50
102
RTVSPost2010PropOp46
 70
     1
102
RTVSPost2010Prop47
 90
       50
102
RTVSPost2010PropOp47
 70
     1
102
RTVSPost2010Prop48
 90
       50
102
RTVSPost2010PropOp48
 70
     1
102
RTVSPost2010Prop49
280
     0
102
RTVSPost2010PropOp49
 70
     1
102
RTVSPost2010Prop50
 90
       50
102
RTVSPost2010PropOp50
 70
     1
102
RTVSPost2010Prop51ColorIndex
 90
      256
102
RTVSPost2010Prop51ColorRGB
 90
-16777216
102
RTVSPost2010PropOp51
 70
     0
102
RTVSPost2010Prop52
140
1.0
102
RTVSPost2010PropOp52
 70
     0
102
RTVSPost2010Prop53
 90
        2
102
RTVSPost2010PropOp53
 70
     1
102
RTVSPost2010Prop54
  1
strokes_ogs.tif
102
RTVSPost2010PropOp54
 70
     1
102
RTVSPost2010Prop55
280
     0
102
RTVSPost2010PropOp55
 70
     1
102
RTVSPost2010Prop56
140
1.0
102
RTVSPost2010PropOp56
 70
     1
102
RTVSPost2010Prop57
140
1.0
102
RTVSPost2010PropOp57
 70
     1
102
RTVSPropertyOp0
 70
     1
102
RTVSPropertyOp1
 70
     1
102
RTVSPropertyOp2
 70
     1
102
RTVSPropertyOp3
 70
     1
102
RTVSPropertyOp4
 70
     1
102
RTVSPropertyOp5
 70
     1
102
RTVSPropertyOp6
 70
     1
102
RTVSPropertyOp7
 70
     1
102
RTVSPropertyOp8
 70
     1
102
RTVSPropertyOp9
 70
     1
102
RTVSPropertyOp10
 70
     1
102
RTVSPropertyOp11
 70
     1
102
RTVSPropertyOp12
 70
     1
102
RTVSPropertyOp13
 70
     1
102
RTVSPropertyOp14
 70
     1
102
RTVSPropertyOp15
 70
     1
102
RTVSPropertyOp16
 70
     1
102
RTVSPropertyOp17
 70
     1
102
RTVSPropertyOp18
 70
     1
102
RTVSPropertyOp19
 70
     1
102
RTVSPropertyOp20
 70
     1
102
RTVSPropertyOp21
 70
     1
102
RTVSPropertyOp22
 70
     1
102
RTVSPropertyOp23
 70
     1
102
RTVSPropertyOp24
 70
     1
102
RTVSPropertyOp25
 70
     1
102
RTVSPropertyOp26
 70
     1
102
RTVSPropertyOp27
 70
     1
102
RTVSPropertyOp28
 70
     1
102
RTVSPropertyOp29
 70
     1
102
RTVSPropertyOp30
 70
     1
102
RTVSPropertyOp31
 70
     1
102
RTVSPropertyOp32
 70
     1
102
RTVSPropertyOp33
 70
     1
102
RTVSPropertyOp34
 70
     1
102
RTVSPropertyOp35
 70
     1
102
RTVSPropertyOp36
 70
     1
102
RTVSPropertyOp37
 70
     1
102
RTVSPropertyOp38
 70
     1
102
RTVSPropertyOp39
 70
     1
102
RTVSPropertyOp40
 70
     1
102
RTVSPropertyOp41
 70
     1
102
RTVSPropertyOp42
 70
     1
102
RTVSPropertyOp43
 70
     1
102
RTVSPropertyOp44
 70
     1
102
RTVSPropertyOp45
 70
     1
102
RTVSPropertyOp46
 70
     1
102
RTVSPropertyOp47
 70
     1
102
RTVSPropertyOp48
 70
     1
102
RTVSPropertyOp49
 70
     1
102
RTVSPropertyOp50
 70
     1
102
RTVSPropertyOp51
 70
     0
102
RTVSPropertyOp52
 70
     0
102
RTVSPropertyOp53
 70
     1
102
RTVSPropertyOp54
 70
     1
102
RTVSPropertyOp55
 70
     1
102
RTVSPropertyOp56
 70
     1
102
RTVSPropertyOp57
 70
     1
102
RTVSPropertyOp58
 70
     1
102
RTVSPropertyOp59
 70
     1
102
RTVSPropertyOp60
 70
     1
102
RTVSPropertyOp61
 70
     1
102
RTVSPropertyOp62
 70
     1
  0
XRECORD
  5
83CA
102
{ACAD_REACTORS
330
83C9
102
}
330
83C9
100
AcDbXrecord
280
     1
102
RTVSPost2010Prop28
280
     0
102
RTVSPost2010PropOp28
 70
     1
102
RTVSPost2010Prop29
280
     1
102
RTVSPost2010PropOp29
 70
     1
102
RTVSPost2010Prop30
280
     1
102
RTVSPost2010PropOp30
 70
     1
102
RTVSPost2010Prop31
280
     0
102
RTVSPost2010PropOp31
 70
     1
102
RTVSPost2010Prop32
280
     0
102
RTVSPost2010PropOp32
 70
     1
102
RTVSPost2010Prop33
280
     0
102
RTVSPost2010PropOp33
 70
     1
102
RTVSPost2010Prop34
280
     0
102
RTVSPost2010PropOp34
 70
     1
102
RTVSPost2010Prop35
280
     0
102
RTVSPost2010PropOp35
 70
     1
102
RTVSPost2010Prop36
280
     0
102
RTVSPost2010PropOp36
 70
     1
102
RTVSPost2010Prop37
 90
       50
102
RTVSPost2010PropOp37
 70
     0
102
RTVSPost2010Prop38
140
0.0
102
RTVSPost2010PropOp38
 70
     0
102
RTVSPost2010Prop39
140
1.0
102
RTVSPost2010PropOp39
 70
     0
102
RTVSPost2010Prop40
 90
        0
102
RTVSPost2010PropOp40
 70
     0
102
RTVSPost2010Prop41ColorIndex
 90
       18
102
RTVSPost2010Prop41ColorRGB
 90
        0
102
RTVSPost2010PropOp41
 70
     0
102
RTVSPost2010Prop42
 90
       50
102
RTVSPost2010PropOp42
 70
     0
102
RTVSPost2010Prop43
 90
        3
102
RTVSPost2010PropOp43
 70
     0
102
RTVSPost2010Prop44ColorIndex
 90
        5
102
RTVSPost2010Prop44ColorRGB
 90
      255
102
RTVSPost2010PropOp44
 70
     0
102
RTVSPost2010Prop45
280
     0
102
RTVSPost2010PropOp45
 70
     1
102
RTVSPost2010Prop46
 90
       50
102
RTVSPost2010PropOp46
 70
     0
102
RTVSPost2010Prop47
 90
       50
102
RTVSPost2010PropOp47
 70
     0
102
RTVSPost2010Prop48
 90
       50
102
RTVSPost2010PropOp48
 70
     0
102
RTVSPost2010Prop49
280
     0
102
RTVSPost2010PropOp49
 70
     1
102
RTVSPost2010Prop50
 90
       50
102
RTVSPost2010PropOp50
 70
     0
102
RTVSPost2010Prop51ColorIndex
 90
      256
102
RTVSPost2010Prop51ColorRGB
 90
-16777216
102
RTVSPost2010PropOp51
 70
     0
102
RTVSPost2010Prop52
140
1.0
102
RTVSPost2010PropOp52
 70
     0
102
RTVSPost2010Prop53
 90
        2
102
RTVSPost2010PropOp53
 70
     0
102
RTVSPost2010Prop54
  1
strokes_ogs.tif
102
RTVSPost2010PropOp54
 70
     0
102
RTVSPost2010Prop55
280
     0
102
RTVSPost2010PropOp55
 70
     1
102
RTVSPost2010Prop56
140
1.0
102
RTVSPost2010PropOp56
 70
     0
102
RTVSPost2010Prop57
140
1.0
102
RTVSPost2010PropOp57
 70
     0
102
RTVSPropertyOp0
 70
     0
102
RTVSPropertyOp1
 70
     0
102
RTVSPropertyOp2
 70
     0
102
RTVSPropertyOp3
 70
     0
102
RTVSPropertyOp4
 70
     0
102
RTVSPropertyOp5
 70
     0
102
RTVSPropertyOp6
 70
     0
102
RTVSPropertyOp7
 70
     0
102
RTVSPropertyOp8
 70
     0
102
RTVSPropertyOp9
 70
     0
102
RTVSPropertyOp10
 70
     0
102
RTVSPropertyOp11
 70
     0
102
RTVSPropertyOp12
 70
     0
102
RTVSPropertyOp13
 70
     0
102
RTVSPropertyOp14
 70
     2
102
RTVSPropertyOp15
 70
     0
102
RTVSPropertyOp16
 70
     0
102
RTVSPropertyOp17
 70
     0
102
RTVSPropertyOp18
 70
     0
102
RTVSPropertyOp19
 70
     0
102
RTVSPropertyOp20
 70
     0
102
RTVSPropertyOp21
 70
     0
102
RTVSPropertyOp22
 70
     0
102
RTVSPropertyOp23
 70
     0
102
RTVSPropertyOp24
 70
     0
102
RTVSPropertyOp25
 70
     0
102
RTVSPropertyOp26
 70
     0
102
RTVSPropertyOp27
 70
     0
102
RTVSPropertyOp28
 70
     1
102
RTVSPropertyOp29
 70
     1
102
RTVSPropertyOp30
 70
     1
102
RTVSPropertyOp31
 70
     1
102
RTVSPropertyOp32
 70
     1
102
RTVSPropertyOp33
 70
     1
102
RTVSPropertyOp34
 70
     1
102
RTVSPropertyOp35
 70
     1
102
RTVSPropertyOp36
 70
     1
102
RTVSPropertyOp37
 70
     0
102
RTVSPropertyOp38
 70
     0
102
RTVSPropertyOp39
 70
     0
102
RTVSPropertyOp40
 70
     0
102
RTVSPropertyOp41
 70
     0
102
RTVSPropertyOp42
 70
     0
102
RTVSPropertyOp43
 70
     0
102
RTVSPropertyOp44
 70
     0
102
RTVSPropertyOp45
 70
     1
102
RTVSPropertyOp46
 70
     0
102
RTVSPropertyOp47
 70
     0
102
RTVSPropertyOp48
 70
     0
102
RTVSPropertyOp49
 70
     1
102
RTVSPropertyOp50
 70
     0
102
RTVSPropertyOp51
 70
     0
102
RTVSPropertyOp52
 70
     0
102
RTVSPropertyOp53
 70
     0
102
RTVSPropertyOp54
 70
     0
102
RTVSPropertyOp55
 70
     1
102
RTVSPropertyOp56
 70
     0
102
RTVSPropertyOp57
 70
     0
102
RTVSPropertyOp58
 70
     0
102
RTVSPropertyOp59
 70
     0
102
RTVSPropertyOp60
 70
     0
102
RTVSPropertyOp61
 70
     0
102
RTVSPropertyOp62
 70
     0
  0
XRECORD
  5
83BA
102
{ACAD_REACTORS
330
83B9
102
}
330
83B9
100
AcDbXrecord
280
     1
102
RTVSPost2010Prop28
280
     0
102
RTVSPost2010PropOp28
 70
     1
102
RTVSPost2010Prop29
280
     1
102
RTVSPost2010PropOp29
 70
     1
102
RTVSPost2010Prop30
280
     1
102
RTVSPost2010PropOp30
 70
     1
102
RTVSPost2010Prop31
280
     0
102
RTVSPost2010PropOp31
 70
     1
102
RTVSPost2010Prop32
280
     0
102
RTVSPost2010PropOp32
 70
     1
102
RTVSPost2010Prop33
280
     0
102
RTVSPost2010PropOp33
 70
     1
102
RTVSPost2010Prop34
280
     0
102
RTVSPost2010PropOp34
 70
     1
102
RTVSPost2010Prop35
280
     0
102
RTVSPost2010PropOp35
 70
     1
102
RTVSPost2010Prop36
280
     0
102
RTVSPost2010PropOp36
 70
     1
102
RTVSPost2010Prop37
 90
       50
102
RTVSPost2010PropOp37
 70
     1
102
RTVSPost2010Prop38
140
0.0
102
RTVSPost2010PropOp38
 70
     1
102
RTVSPost2010Prop39
140
1.0
102
RTVSPost2010PropOp39
 70
     1
102
RTVSPost2010Prop40
 90
        0
102
RTVSPost2010PropOp40
 70
     1
102
RTVSPost2010Prop41ColorIndex
 90
       18
102
RTVSPost2010Prop41ColorRGB
 90
        0
102
RTVSPost2010PropOp41
 70
     1
102
RTVSPost2010Prop42
 90
       50
102
RTVSPost2010PropOp42
 70
     1
102
RTVSPost2010Prop43
 90
        3
102
RTVSPost2010PropOp43
 70
     1
102
RTVSPost2010Prop44ColorIndex
 90
        5
102
RTVSPost2010Prop44ColorRGB
 90
      255
102
RTVSPost2010PropOp44
 70
     1
102
RTVSPost2010Prop45
280
     0
102
RTVSPost2010PropOp45
 70
     1
102
RTVSPost2010Prop46
 90
       50
102
RTVSPost2010PropOp46
 70
     1
102
RTVSPost2010Prop47
 90
       50
102
RTVSPost2010PropOp47
 70
     1
102
RTVSPost2010Prop48
 90
       50
102
RTVSPost2010PropOp48
 70
     1
102
RTVSPost2010Prop49
280
     0
102
RTVSPost2010PropOp49
 70
     1
102
RTVSPost2010Prop50
 90
       50
102
RTVSPost2010PropOp50
 70
     1
102
RTVSPost2010Prop51ColorIndex
 90
      256
102
RTVSPost2010Prop51ColorRGB
 90
-16777216
102
RTVSPost2010PropOp51
 70
     0
102
RTVSPost2010Prop52
140
1.0
102
RTVSPost2010PropOp52
 70
     0
102
RTVSPost2010Prop53
 90
        2
102
RTVSPost2010PropOp53
 70
     1
102
RTVSPost2010Prop54
  1
strokes_ogs.tif
102
RTVSPost2010PropOp54
 70
     1
102
RTVSPost2010Prop55
280
     0
102
RTVSPost2010PropOp55
 70
     1
102
RTVSPost2010Prop56
140
1.0
102
RTVSPost2010PropOp56
 70
     1
102
RTVSPost2010Prop57
140
1.0
102
RTVSPost2010PropOp57
 70
     1
102
RTVSPropertyOp0
 70
     1
102
RTVSPropertyOp1
 70
     1
102
RTVSPropertyOp2
 70
     1
102
RTVSPropertyOp3
 70
     1
102
RTVSPropertyOp4
 70
     1
102
RTVSPropertyOp5
 70
     1
102
RTVSPropertyOp6
 70
     1
102
RTVSPropertyOp7
 70
     1
102
RTVSPropertyOp8
 70
     1
102
RTVSPropertyOp9
 70
     1
102
RTVSPropertyOp10
 70
     1
102
RTVSPropertyOp11
 70
     1
102
RTVSPropertyOp12
 70
     1
102
RTVSPropertyOp13
 70
     1
102
RTVSPropertyOp14
 70
     1
102
RTVSPropertyOp15
 70
     1
102
RTVSPropertyOp16
 70
     1
102
RTVSPropertyOp17
 70
     1
102
RTVSPropertyOp18
 70
     1
102
RTVSPropertyOp19
 70
     1
102
RTVSPropertyOp20
 70
     1
102
RTVSPropertyOp21
 70
     1
102
RTVSPropertyOp22
 70
     1
102
RTVSPropertyOp23
 70
     1
102
RTVSPropertyOp24
 70
     1
102
RTVSPropertyOp25
 70
     1
102
RTVSPropertyOp26
 70
     1
102
RTVSPropertyOp27
 70
     1
102
RTVSPropertyOp28
 70
     1
102
RTVSPropertyOp29
 70
     1
102
RTVSPropertyOp30
 70
     1
102
RTVSPropertyOp31
 70
     1
102
RTVSPropertyOp32
 70
     1
102
RTVSPropertyOp33
 70
     1
102
RTVSPropertyOp34
 70
     1
102
RTVSPropertyOp35
 70
     1
102
RTVSPropertyOp36
 70
     1
102
RTVSPropertyOp37
 70
     1
102
RTVSPropertyOp38
 70
     1
102
RTVSPropertyOp39
 70
     1
102
RTVSPropertyOp40
 70
     1
102
RTVSPropertyOp41
 70
     1
102
RTVSPropertyOp42
 70
     1
102
RTVSPropertyOp43
 70
     1
102
RTVSPropertyOp44
 70
     1
102
RTVSPropertyOp45
 70
     1
102
RTVSPropertyOp46
 70
     1
102
RTVSPropertyOp47
 70
     1
102
RTVSPropertyOp48
 70
     1
102
RTVSPropertyOp49
 70
     1
102
RTVSPropertyOp50
 70
     1
102
RTVSPropertyOp51
 70
     0
102
RTVSPropertyOp52
 70
     0
102
RTVSPropertyOp53
 70
     1
102
RTVSPropertyOp54
 70
     1
102
RTVSPropertyOp55
 70
     1
102
RTVSPropertyOp56
 70
     1
102
RTVSPropertyOp57
 70
     1
102
RTVSPropertyOp58
 70
     1
102
RTVSPropertyOp59
 70
     1
102
RTVSPropertyOp60
 70
     1
102
RTVSPropertyOp61
 70
     1
102
RTVSPropertyOp62
 70
     1
  0
XRECORD
  5
83CC
102
{ACAD_REACTORS
330
83CB
102
}
330
83CB
100
AcDbXrecord
280
     1
102
RTVSPost2010Prop28
280
     0
102
RTVSPost2010PropOp28
 70
     1
102
RTVSPost2010Prop29
280
     1
102
RTVSPost2010PropOp29
 70
     1
102
RTVSPost2010Prop30
280
     1
102
RTVSPost2010PropOp30
 70
     1
102
RTVSPost2010Prop31
280
     0
102
RTVSPost2010PropOp31
 70
     1
102
RTVSPost2010Prop32
280
     0
102
RTVSPost2010PropOp32
 70
     1
102
RTVSPost2010Prop33
280
     0
102
RTVSPost2010PropOp33
 70
     1
102
RTVSPost2010Prop34
280
     0
102
RTVSPost2010PropOp34
 70
     1
102
RTVSPost2010Prop35
280
     0
102
RTVSPost2010PropOp35
 70
     1
102
RTVSPost2010Prop36
280
     0
102
RTVSPost2010PropOp36
 70
     1
102
RTVSPost2010Prop37
 90
       50
102
RTVSPost2010PropOp37
 70
     0
102
RTVSPost2010Prop38
140
0.0
102
RTVSPost2010PropOp38
 70
     0
102
RTVSPost2010Prop39
140
1.0
102
RTVSPost2010PropOp39
 70
     0
102
RTVSPost2010Prop40
 90
        0
102
RTVSPost2010PropOp40
 70
     0
102
RTVSPost2010Prop41ColorIndex
 90
       18
102
RTVSPost2010Prop41ColorRGB
 90
        0
102
RTVSPost2010PropOp41
 70
     0
102
RTVSPost2010Prop42
 90
       50
102
RTVSPost2010PropOp42
 70
     0
102
RTVSPost2010Prop43
 90
        3
102
RTVSPost2010PropOp43
 70
     0
102
RTVSPost2010Prop44ColorIndex
 90
        5
102
RTVSPost2010Prop44ColorRGB
 90
      255
102
RTVSPost2010PropOp44
 70
     0
102
RTVSPost2010Prop45
280
     0
102
RTVSPost2010PropOp45
 70
     1
102
RTVSPost2010Prop46
 90
       50
102
RTVSPost2010PropOp46
 70
     0
102
RTVSPost2010Prop47
 90
       50
102
RTVSPost2010PropOp47
 70
     0
102
RTVSPost2010Prop48
 90
       50
102
RTVSPost2010PropOp48
 70
     0
102
RTVSPost2010Prop49
280
     0
102
RTVSPost2010PropOp49
 70
     1
102
RTVSPost2010Prop50
 90
       50
102
RTVSPost2010PropOp50
 70
     0
102
RTVSPost2010Prop51ColorIndex
 90
      256
102
RTVSPost2010Prop51ColorRGB
 90
-16777216
102
RTVSPost2010PropOp51
 70
     0
102
RTVSPost2010Prop52
140
1.0
102
RTVSPost2010PropOp52
 70
     0
102
RTVSPost2010Prop53
 90
        2
102
RTVSPost2010PropOp53
 70
     0
102
RTVSPost2010Prop54
  1
strokes_ogs.tif
102
RTVSPost2010PropOp54
 70
     0
102
RTVSPost2010Prop55
280
     0
102
RTVSPost2010PropOp55
 70
     1
102
RTVSPost2010Prop56
140
1.0
102
RTVSPost2010PropOp56
 70
     0
102
RTVSPost2010Prop57
140
1.0
102
RTVSPost2010PropOp57
 70
     0
102
RTVSPropertyOp0
 70
     0
102
RTVSPropertyOp1
 70
     0
102
RTVSPropertyOp2
 70
     0
102
RTVSPropertyOp3
 70
     0
102
RTVSPropertyOp4
 70
     0
102
RTVSPropertyOp5
 70
     0
102
RTVSPropertyOp6
 70
     0
102
RTVSPropertyOp7
 70
     0
102
RTVSPropertyOp8
 70
     0
102
RTVSPropertyOp9
 70
     0
102
RTVSPropertyOp10
 70
     0
102
RTVSPropertyOp11
 70
     0
102
RTVSPropertyOp12
 70
     0
102
RTVSPropertyOp13
 70
     0
102
RTVSPropertyOp14
 70
     2
102
RTVSPropertyOp15
 70
     0
102
RTVSPropertyOp16
 70
     0
102
RTVSPropertyOp17
 70
     0
102
RTVSPropertyOp18
 70
     0
102
RTVSPropertyOp19
 70
     0
102
RTVSPropertyOp20
 70
     0
102
RTVSPropertyOp21
 70
     0
102
RTVSPropertyOp22
 70
     0
102
RTVSPropertyOp23
 70
     0
102
RTVSPropertyOp24
 70
     0
102
RTVSPropertyOp25
 70
     0
102
RTVSPropertyOp26
 70
     0
102
RTVSPropertyOp27
 70
     0
102
RTVSPropertyOp28
 70
     1
102
RTVSPropertyOp29
 70
     1
102
RTVSPropertyOp30
 70
     1
102
RTVSPropertyOp31
 70
     1
102
RTVSPropertyOp32
 70
     1
102
RTVSPropertyOp33
 70
     1
102
RTVSPropertyOp34
 70
     1
102
RTVSPropertyOp35
 70
     1
102
RTVSPropertyOp36
 70
     1
102
RTVSPropertyOp37
 70
     0
102
RTVSPropertyOp38
 70
     0
102
RTVSPropertyOp39
 70
     0
102
RTVSPropertyOp40
 70
     0
102
RTVSPropertyOp41
 70
     0
102
RTVSPropertyOp42
 70
     0
102
RTVSPropertyOp43
 70
     0
102
RTVSPropertyOp44
 70
     0
102
RTVSPropertyOp45
 70
     1
102
RTVSPropertyOp46
 70
     0
102
RTVSPropertyOp47
 70
     0
102
RTVSPropertyOp48
 70
     0
102
RTVSPropertyOp49
 70
     1
102
RTVSPropertyOp50
 70
     0
102
RTVSPropertyOp51
 70
     0
102
RTVSPropertyOp52
 70
     0
102
RTVSPropertyOp53
 70
     0
102
RTVSPropertyOp54
 70
     0
102
RTVSPropertyOp55
 70
     1
102
RTVSPropertyOp56
 70
     0
102
RTVSPropertyOp57
 70
     0
102
RTVSPropertyOp58
 70
     0
102
RTVSPropertyOp59
 70
     0
102
RTVSPropertyOp60
 70
     0
102
RTVSPropertyOp61
 70
     0
102
RTVSPropertyOp62
 70
     0
  0
XRECORD
  5
83B2
102
{ACAD_REACTORS
330
83B1
102
}
330
83B1
100
AcDbXrecord
280
     1
102
RTVSPost2010Prop28
280
     0
102
RTVSPost2010PropOp28
 70
     1
102
RTVSPost2010Prop29
280
     1
102
RTVSPost2010PropOp29
 70
     1
102
RTVSPost2010Prop30
280
     1
102
RTVSPost2010PropOp30
 70
     1
102
RTVSPost2010Prop31
280
     0
102
RTVSPost2010PropOp31
 70
     1
102
RTVSPost2010Prop32
280
     0
102
RTVSPost2010PropOp32
 70
     1
102
RTVSPost2010Prop33
280
     0
102
RTVSPost2010PropOp33
 70
     1
102
RTVSPost2010Prop34
280
     0
102
RTVSPost2010PropOp34
 70
     1
102
RTVSPost2010Prop35
280
     0
102
RTVSPost2010PropOp35
 70
     1
102
RTVSPost2010Prop36
280
     0
102
RTVSPost2010PropOp36
 70
     1
102
RTVSPost2010Prop37
 90
       50
102
RTVSPost2010PropOp37
 70
     1
102
RTVSPost2010Prop38
140
0.0
102
RTVSPost2010PropOp38
 70
     1
102
RTVSPost2010Prop39
140
1.0
102
RTVSPost2010PropOp39
 70
     1
102
RTVSPost2010Prop40
 90
        0
102
RTVSPost2010PropOp40
 70
     1
102
RTVSPost2010Prop41ColorIndex
 90
       18
102
RTVSPost2010Prop41ColorRGB
 90
        0
102
RTVSPost2010PropOp41
 70
     1
102
RTVSPost2010Prop42
 90
       50
102
RTVSPost2010PropOp42
 70
     1
102
RTVSPost2010Prop43
 90
        3
102
RTVSPost2010PropOp43
 70
     1
102
RTVSPost2010Prop44ColorIndex
 90
        5
102
RTVSPost2010Prop44ColorRGB
 90
      255
102
RTVSPost2010PropOp44
 70
     1
102
RTVSPost2010Prop45
280
     0
102
RTVSPost2010PropOp45
 70
     1
102
RTVSPost2010Prop46
 90
       50
102
RTVSPost2010PropOp46
 70
     1
102
RTVSPost2010Prop47
 90
       50
102
RTVSPost2010PropOp47
 70
     1
102
RTVSPost2010Prop48
 90
       50
102
RTVSPost2010PropOp48
 70
     1
102
RTVSPost2010Prop49
280
     0
102
RTVSPost2010PropOp49
 70
     1
102
RTVSPost2010Prop50
 90
       50
102
RTVSPost2010PropOp50
 70
     1
102
RTVSPost2010Prop51ColorIndex
 90
      256
102
RTVSPost2010Prop51ColorRGB
 90
-16777216
102
RTVSPost2010PropOp51
 70
     0
102
RTVSPost2010Prop52
140
1.0
102
RTVSPost2010PropOp52
 70
     0
102
RTVSPost2010Prop53
 90
        2
102
RTVSPost2010PropOp53
 70
     1
102
RTVSPost2010Prop54
  1
strokes_ogs.tif
102
RTVSPost2010PropOp54
 70
     1
102
RTVSPost2010Prop55
280
     0
102
RTVSPost2010PropOp55
 70
     1
102
RTVSPost2010Prop56
140
1.0
102
RTVSPost2010PropOp56
 70
     1
102
RTVSPost2010Prop57
140
1.0
102
RTVSPost2010PropOp57
 70
     1
102
RTVSPropertyOp0
 70
     1
102
RTVSPropertyOp1
 70
     1
102
RTVSPropertyOp2
 70
     1
102
RTVSPropertyOp3
 70
     1
102
RTVSPropertyOp4
 70
     1
102
RTVSPropertyOp5
 70
     1
102
RTVSPropertyOp6
 70
     1
102
RTVSPropertyOp7
 70
     1
102
RTVSPropertyOp8
 70
     1
102
RTVSPropertyOp9
 70
     1
102
RTVSPropertyOp10
 70
     1
102
RTVSPropertyOp11
 70
     1
102
RTVSPropertyOp12
 70
     1
102
RTVSPropertyOp13
 70
     1
102
RTVSPropertyOp14
 70
     1
102
RTVSPropertyOp15
 70
     1
102
RTVSPropertyOp16
 70
     1
102
RTVSPropertyOp17
 70
     1
102
RTVSPropertyOp18
 70
     1
102
RTVSPropertyOp19
 70
     1
102
RTVSPropertyOp20
 70
     1
102
RTVSPropertyOp21
 70
     1
102
RTVSPropertyOp22
 70
     1
102
RTVSPropertyOp23
 70
     1
102
RTVSPropertyOp24
 70
     1
102
RTVSPropertyOp25
 70
     1
102
RTVSPropertyOp26
 70
     1
102
RTVSPropertyOp27
 70
     1
102
RTVSPropertyOp28
 70
     1
102
RTVSPropertyOp29
 70
     1
102
RTVSPropertyOp30
 70
     1
102
RTVSPropertyOp31
 70
     1
102
RTVSPropertyOp32
 70
     1
102
RTVSPropertyOp33
 70
     1
102
RTVSPropertyOp34
 70
     1
102
RTVSPropertyOp35
 70
     1
102
RTVSPropertyOp36
 70
     1
102
RTVSPropertyOp37
 70
     1
102
RTVSPropertyOp38
 70
     1
102
RTVSPropertyOp39
 70
     1
102
RTVSPropertyOp40
 70
     1
102
RTVSPropertyOp41
 70
     1
102
RTVSPropertyOp42
 70
     1
102
RTVSPropertyOp43
 70
     1
102
RTVSPropertyOp44
 70
     1
102
RTVSPropertyOp45
 70
     1
102
RTVSPropertyOp46
 70
     1
102
RTVSPropertyOp47
 70
     1
102
RTVSPropertyOp48
 70
     1
102
RTVSPropertyOp49
 70
     1
102
RTVSPropertyOp50
 70
     1
102
RTVSPropertyOp51
 70
     0
102
RTVSPropertyOp52
 70
     0
102
RTVSPropertyOp53
 70
     1
102
RTVSPropertyOp54
 70
     1
102
RTVSPropertyOp55
 70
     1
102
RTVSPropertyOp56
 70
     1
102
RTVSPropertyOp57
 70
     1
102
RTVSPropertyOp58
 70
     1
102
RTVSPropertyOp59
 70
     1
102
RTVSPropertyOp60
 70
     1
102
RTVSPropertyOp61
 70
     1
102
RTVSPropertyOp62
 70
     1
  0
XRECORD
  5
83C8
102
{ACAD_REACTORS
330
83C7
102
}
330
83C7
100
AcDbXrecord
280
     1
102
RTVSPost2010Prop28
280
     0
102
RTVSPost2010PropOp28
 70
     1
102
RTVSPost2010Prop29
280
     1
102
RTVSPost2010PropOp29
 70
     1
102
RTVSPost2010Prop30
280
     1
102
RTVSPost2010PropOp30
 70
     1
102
RTVSPost2010Prop31
280
     0
102
RTVSPost2010PropOp31
 70
     1
102
RTVSPost2010Prop32
280
     0
102
RTVSPost2010PropOp32
 70
     1
102
RTVSPost2010Prop33
280
     0
102
RTVSPost2010PropOp33
 70
     1
102
RTVSPost2010Prop34
280
     0
102
RTVSPost2010PropOp34
 70
     1
102
RTVSPost2010Prop35
280
     0
102
RTVSPost2010PropOp35
 70
     1
102
RTVSPost2010Prop36
280
     0
102
RTVSPost2010PropOp36
 70
     1
102
RTVSPost2010Prop37
 90
       50
102
RTVSPost2010PropOp37
 70
     1
102
RTVSPost2010Prop38
140
0.0
102
RTVSPost2010PropOp38
 70
     1
102
RTVSPost2010Prop39
140
1.0
102
RTVSPost2010PropOp39
 70
     1
102
RTVSPost2010Prop40
 90
        0
102
RTVSPost2010PropOp40
 70
     1
102
RTVSPost2010Prop41ColorIndex
 90
       18
102
RTVSPost2010Prop41ColorRGB
 90
        0
102
RTVSPost2010PropOp41
 70
     1
102
RTVSPost2010Prop42
 90
       50
102
RTVSPost2010PropOp42
 70
     1
102
RTVSPost2010Prop43
 90
        3
102
RTVSPost2010PropOp43
 70
     1
102
RTVSPost2010Prop44ColorIndex
 90
        5
102
RTVSPost2010Prop44ColorRGB
 90
      255
102
RTVSPost2010PropOp44
 70
     1
102
RTVSPost2010Prop45
280
     0
102
RTVSPost2010PropOp45
 70
     1
102
RTVSPost2010Prop46
 90
       50
102
RTVSPost2010PropOp46
 70
     1
102
RTVSPost2010Prop47
 90
       50
102
RTVSPost2010PropOp47
 70
     1
102
RTVSPost2010Prop48
 90
       50
102
RTVSPost2010PropOp48
 70
     1
102
RTVSPost2010Prop49
280
     0
102
RTVSPost2010PropOp49
 70
     1
102
RTVSPost2010Prop50
 90
       50
102
RTVSPost2010PropOp50
 70
     1
102
RTVSPost2010Prop51ColorIndex
 90
      256
102
RTVSPost2010Prop51ColorRGB
 90
-16777216
102
RTVSPost2010PropOp51
 70
     0
102
RTVSPost2010Prop52
140
1.0
102
RTVSPost2010PropOp52
 70
     0
102
RTVSPost2010Prop53
 90
        2
102
RTVSPost2010PropOp53
 70
     1
102
RTVSPost2010Prop54
  1
strokes_ogs.tif
102
RTVSPost2010PropOp54
 70
     1
102
RTVSPost2010Prop55
280
     0
102
RTVSPost2010PropOp55
 70
     1
102
RTVSPost2010Prop56
140
1.0
102
RTVSPost2010PropOp56
 70
     1
102
RTVSPost2010Prop57
140
1.0
102
RTVSPost2010PropOp57
 70
     1
102
RTVSPropertyOp0
 70
     1
102
RTVSPropertyOp1
 70
     1
102
RTVSPropertyOp2
 70
     1
102
RTVSPropertyOp3
 70
     1
102
RTVSPropertyOp4
 70
     1
102
RTVSPropertyOp5
 70
     1
102
RTVSPropertyOp6
 70
     1
102
RTVSPropertyOp7
 70
     1
102
RTVSPropertyOp8
 70
     1
102
RTVSPropertyOp9
 70
     1
102
RTVSPropertyOp10
 70
     1
102
RTVSPropertyOp11
 70
     1
102
RTVSPropertyOp12
 70
     1
102
RTVSPropertyOp13
 70
     1
102
RTVSPropertyOp14
 70
     1
102
RTVSPropertyOp15
 70
     1
102
RTVSPropertyOp16
 70
     1
102
RTVSPropertyOp17
 70
     1
102
RTVSPropertyOp18
 70
     1
102
RTVSPropertyOp19
 70
     1
102
RTVSPropertyOp20
 70
     1
102
RTVSPropertyOp21
 70
     1
102
RTVSPropertyOp22
 70
     1
102
RTVSPropertyOp23
 70
     1
102
RTVSPropertyOp24
 70
     1
102
RTVSPropertyOp25
 70
     1
102
RTVSPropertyOp26
 70
     1
102
RTVSPropertyOp27
 70
     1
102
RTVSPropertyOp28
 70
     1
102
RTVSPropertyOp29
 70
     1
102
RTVSPropertyOp30
 70
     1
102
RTVSPropertyOp31
 70
     1
102
RTVSPropertyOp32
 70
     1
102
RTVSPropertyOp33
 70
     1
102
RTVSPropertyOp34
 70
     1
102
RTVSPropertyOp35
 70
     1
102
RTVSPropertyOp36
 70
     1
102
RTVSPropertyOp37
 70
     1
102
RTVSPropertyOp38
 70
     1
102
RTVSPropertyOp39
 70
     1
102
RTVSPropertyOp40
 70
     1
102
RTVSPropertyOp41
 70
     1
102
RTVSPropertyOp42
 70
     1
102
RTVSPropertyOp43
 70
     1
102
RTVSPropertyOp44
 70
     1
102
RTVSPropertyOp45
 70
     1
102
RTVSPropertyOp46
 70
     1
102
RTVSPropertyOp47
 70
     1
102
RTVSPropertyOp48
 70
     1
102
RTVSPropertyOp49
 70
     1
102
RTVSPropertyOp50
 70
     1
102
RTVSPropertyOp51
 70
     0
102
RTVSPropertyOp52
 70
     0
102
RTVSPropertyOp53
 70
     1
102
RTVSPropertyOp54
 70
     1
102
RTVSPropertyOp55
 70
     1
102
RTVSPropertyOp56
 70
     1
102
RTVSPropertyOp57
 70
     1
102
RTVSPropertyOp58
 70
     1
102
RTVSPropertyOp59
 70
     1
102
RTVSPropertyOp60
 70
     1
102
RTVSPropertyOp61
 70
     1
102
RTVSPropertyOp62
 70
     1
  0
XRECORD
  5
83C6
102
{ACAD_REACTORS
330
83C5
102
}
330
83C5
100
AcDbXrecord
280
     1
102
RTVSPost2010Prop28
280
     0
102
RTVSPost2010PropOp28
 70
     1
102
RTVSPost2010Prop29
280
     1
102
RTVSPost2010PropOp29
 70
     1
102
RTVSPost2010Prop30
280
     1
102
RTVSPost2010PropOp30
 70
     1
102
RTVSPost2010Prop31
280
     0
102
RTVSPost2010PropOp31
 70
     1
102
RTVSPost2010Prop32
280
     0
102
RTVSPost2010PropOp32
 70
     1
102
RTVSPost2010Prop33
280
     0
102
RTVSPost2010PropOp33
 70
     1
102
RTVSPost2010Prop34
280
     0
102
RTVSPost2010PropOp34
 70
     1
102
RTVSPost2010Prop35
280
     0
102
RTVSPost2010PropOp35
 70
     1
102
RTVSPost2010Prop36
280
     0
102
RTVSPost2010PropOp36
 70
     1
102
RTVSPost2010Prop37
 90
       50
102
RTVSPost2010PropOp37
 70
     1
102
RTVSPost2010Prop38
140
0.0
102
RTVSPost2010PropOp38
 70
     1
102
RTVSPost2010Prop39
140
1.0
102
RTVSPost2010PropOp39
 70
     1
102
RTVSPost2010Prop40
 90
        0
102
RTVSPost2010PropOp40
 70
     1
102
RTVSPost2010Prop41ColorIndex
 90
       18
102
RTVSPost2010Prop41ColorRGB
 90
        0
102
RTVSPost2010PropOp41
 70
     1
102
RTVSPost2010Prop42
 90
       50
102
RTVSPost2010PropOp42
 70
     1
102
RTVSPost2010Prop43
 90
        3
102
RTVSPost2010PropOp43
 70
     1
102
RTVSPost2010Prop44ColorIndex
 90
        5
102
RTVSPost2010Prop44ColorRGB
 90
      255
102
RTVSPost2010PropOp44
 70
     1
102
RTVSPost2010Prop45
280
     0
102
RTVSPost2010PropOp45
 70
     1
102
RTVSPost2010Prop46
 90
       50
102
RTVSPost2010PropOp46
 70
     1
102
RTVSPost2010Prop47
 90
       50
102
RTVSPost2010PropOp47
 70
     1
102
RTVSPost2010Prop48
 90
       50
102
RTVSPost2010PropOp48
 70
     1
102
RTVSPost2010Prop49
280
     0
102
RTVSPost2010PropOp49
 70
     1
102
RTVSPost2010Prop50
 90
       50
102
RTVSPost2010PropOp50
 70
     1
102
RTVSPost2010Prop51ColorIndex
 90
      256
102
RTVSPost2010Prop51ColorRGB
 90
-16777216
102
RTVSPost2010PropOp51
 70
     0
102
RTVSPost2010Prop52
140
1.0
102
RTVSPost2010PropOp52
 70
     0
102
RTVSPost2010Prop53
 90
        2
102
RTVSPost2010PropOp53
 70
     1
102
RTVSPost2010Prop54
  1
strokes_ogs.tif
102
RTVSPost2010PropOp54
 70
     1
102
RTVSPost2010Prop55
280
     0
102
RTVSPost2010PropOp55
 70
     1
102
RTVSPost2010Prop56
140
1.0
102
RTVSPost2010PropOp56
 70
     1
102
RTVSPost2010Prop57
140
1.0
102
RTVSPost2010PropOp57
 70
     1
102
RTVSPropertyOp0
 70
     1
102
RTVSPropertyOp1
 70
     1
102
RTVSPropertyOp2
 70
     1
102
RTVSPropertyOp3
 70
     1
102
RTVSPropertyOp4
 70
     1
102
RTVSPropertyOp5
 70
     1
102
RTVSPropertyOp6
 70
     1
102
RTVSPropertyOp7
 70
     1
102
RTVSPropertyOp8
 70
     1
102
RTVSPropertyOp9
 70
     1
102
RTVSPropertyOp10
 70
     1
102
RTVSPropertyOp11
 70
     1
102
RTVSPropertyOp12
 70
     1
102
RTVSPropertyOp13
 70
     1
102
RTVSPropertyOp14
 70
     1
102
RTVSPropertyOp15
 70
     1
102
RTVSPropertyOp16
 70
     1
102
RTVSPropertyOp17
 70
     1
102
RTVSPropertyOp18
 70
     1
102
RTVSPropertyOp19
 70
     1
102
RTVSPropertyOp20
 70
     1
102
RTVSPropertyOp21
 70
     1
102
RTVSPropertyOp22
 70
     1
102
RTVSPropertyOp23
 70
     1
102
RTVSPropertyOp24
 70
     1
102
RTVSPropertyOp25
 70
     1
102
RTVSPropertyOp26
 70
     1
102
RTVSPropertyOp27
 70
     1
102
RTVSPropertyOp28
 70
     1
102
RTVSPropertyOp29
 70
     1
102
RTVSPropertyOp30
 70
     1
102
RTVSPropertyOp31
 70
     1
102
RTVSPropertyOp32
 70
     1
102
RTVSPropertyOp33
 70
     1
102
RTVSPropertyOp34
 70
     1
102
RTVSPropertyOp35
 70
     1
102
RTVSPropertyOp36
 70
     1
102
RTVSPropertyOp37
 70
     1
102
RTVSPropertyOp38
 70
     1
102
RTVSPropertyOp39
 70
     1
102
RTVSPropertyOp40
 70
     1
102
RTVSPropertyOp41
 70
     1
102
RTVSPropertyOp42
 70
     1
102
RTVSPropertyOp43
 70
     1
102
RTVSPropertyOp44
 70
     1
102
RTVSPropertyOp45
 70
     1
102
RTVSPropertyOp46
 70
     1
102
RTVSPropertyOp47
 70
     1
102
RTVSPropertyOp48
 70
     1
102
RTVSPropertyOp49
 70
     1
102
RTVSPropertyOp50
 70
     1
102
RTVSPropertyOp51
 70
     0
102
RTVSPropertyOp52
 70
     0
102
RTVSPropertyOp53
 70
     1
102
RTVSPropertyOp54
 70
     1
102
RTVSPropertyOp55
 70
     1
102
RTVSPropertyOp56
 70
     1
102
RTVSPropertyOp57
 70
     1
102
RTVSPropertyOp58
 70
     1
102
RTVSPropertyOp59
 70
     1
102
RTVSPropertyOp60
 70
     1
102
RTVSPropertyOp61
 70
     1
102
RTVSPropertyOp62
 70
     1
  0
XRECORD
  5
83C0
102
{ACAD_REACTORS
330
83BF
102
}
330
83BF
100
AcDbXrecord
280
     1
102
RTVSPost2010Prop28
280
     0
102
RTVSPost2010PropOp28
 70
     1
102
RTVSPost2010Prop29
280
     1
102
RTVSPost2010PropOp29
 70
     1
102
RTVSPost2010Prop30
280
     1
102
RTVSPost2010PropOp30
 70
     1
102
RTVSPost2010Prop31
280
     0
102
RTVSPost2010PropOp31
 70
     1
102
RTVSPost2010Prop32
280
     0
102
RTVSPost2010PropOp32
 70
     1
102
RTVSPost2010Prop33
280
     0
102
RTVSPost2010PropOp33
 70
     1
102
RTVSPost2010Prop34
280
     0
102
RTVSPost2010PropOp34
 70
     1
102
RTVSPost2010Prop35
280
     0
102
RTVSPost2010PropOp35
 70
     1
102
RTVSPost2010Prop36
280
     0
102
RTVSPost2010PropOp36
 70
     1
102
RTVSPost2010Prop37
 90
       50
102
RTVSPost2010PropOp37
 70
     1
102
RTVSPost2010Prop38
140
0.0
102
RTVSPost2010PropOp38
 70
     1
102
RTVSPost2010Prop39
140
1.0
102
RTVSPost2010PropOp39
 70
     1
102
RTVSPost2010Prop40
 90
        0
102
RTVSPost2010PropOp40
 70
     1
102
RTVSPost2010Prop41ColorIndex
 90
       18
102
RTVSPost2010Prop41ColorRGB
 90
        0
102
RTVSPost2010PropOp41
 70
     1
102
RTVSPost2010Prop42
 90
       50
102
RTVSPost2010PropOp42
 70
     1
102
RTVSPost2010Prop43
 90
        3
102
RTVSPost2010PropOp43
 70
     1
102
RTVSPost2010Prop44ColorIndex
 90
        5
102
RTVSPost2010Prop44ColorRGB
 90
      255
102
RTVSPost2010PropOp44
 70
     1
102
RTVSPost2010Prop45
280
     0
102
RTVSPost2010PropOp45
 70
     1
102
RTVSPost2010Prop46
 90
       50
102
RTVSPost2010PropOp46
 70
     1
102
RTVSPost2010Prop47
 90
       50
102
RTVSPost2010PropOp47
 70
     1
102
RTVSPost2010Prop48
 90
       50
102
RTVSPost2010PropOp48
 70
     1
102
RTVSPost2010Prop49
280
     0
102
RTVSPost2010PropOp49
 70
     1
102
RTVSPost2010Prop50
 90
       50
102
RTVSPost2010PropOp50
 70
     1
102
RTVSPost2010Prop51ColorIndex
 90
      256
102
RTVSPost2010Prop51ColorRGB
 90
-16777216
102
RTVSPost2010PropOp51
 70
     0
102
RTVSPost2010Prop52
140
1.0
102
RTVSPost2010PropOp52
 70
     0
102
RTVSPost2010Prop53
 90
        2
102
RTVSPost2010PropOp53
 70
     1
102
RTVSPost2010Prop54
  1
strokes_ogs.tif
102
RTVSPost2010PropOp54
 70
     1
102
RTVSPost2010Prop55
280
     0
102
RTVSPost2010PropOp55
 70
     1
102
RTVSPost2010Prop56
140
1.0
102
RTVSPost2010PropOp56
 70
     1
102
RTVSPost2010Prop57
140
1.0
102
RTVSPost2010PropOp57
 70
     1
102
RTVSPropertyOp0
 70
     1
102
RTVSPropertyOp1
 70
     1
102
RTVSPropertyOp2
 70
     1
102
RTVSPropertyOp3
 70
     1
102
RTVSPropertyOp4
 70
     1
102
RTVSPropertyOp5
 70
     1
102
RTVSPropertyOp6
 70
     1
102
RTVSPropertyOp7
 70
     1
102
RTVSPropertyOp8
 70
     1
102
RTVSPropertyOp9
 70
     1
102
RTVSPropertyOp10
 70
     1
102
RTVSPropertyOp11
 70
     1
102
RTVSPropertyOp12
 70
     1
102
RTVSPropertyOp13
 70
     1
102
RTVSPropertyOp14
 70
     1
102
RTVSPropertyOp15
 70
     1
102
RTVSPropertyOp16
 70
     1
102
RTVSPropertyOp17
 70
     1
102
RTVSPropertyOp18
 70
     1
102
RTVSPropertyOp19
 70
     1
102
RTVSPropertyOp20
 70
     1
102
RTVSPropertyOp21
 70
     1
102
RTVSPropertyOp22
 70
     1
102
RTVSPropertyOp23
 70
     1
102
RTVSPropertyOp24
 70
     1
102
RTVSPropertyOp25
 70
     1
102
RTVSPropertyOp26
 70
     1
102
RTVSPropertyOp27
 70
     1
102
RTVSPropertyOp28
 70
     1
102
RTVSPropertyOp29
 70
     1
102
RTVSPropertyOp30
 70
     1
102
RTVSPropertyOp31
 70
     1
102
RTVSPropertyOp32
 70
     1
102
RTVSPropertyOp33
 70
     1
102
RTVSPropertyOp34
 70
     1
102
RTVSPropertyOp35
 70
     1
102
RTVSPropertyOp36
 70
     1
102
RTVSPropertyOp37
 70
     1
102
RTVSPropertyOp38
 70
     1
102
RTVSPropertyOp39
 70
     1
102
RTVSPropertyOp40
 70
     1
102
RTVSPropertyOp41
 70
     1
102
RTVSPropertyOp42
 70
     1
102
RTVSPropertyOp43
 70
     1
102
RTVSPropertyOp44
 70
     1
102
RTVSPropertyOp45
 70
     1
102
RTVSPropertyOp46
 70
     1
102
RTVSPropertyOp47
 70
     1
102
RTVSPropertyOp48
 70
     1
102
RTVSPropertyOp49
 70
     1
102
RTVSPropertyOp50
 70
     1
102
RTVSPropertyOp51
 70
     0
102
RTVSPropertyOp52
 70
     0
102
RTVSPropertyOp53
 70
     1
102
RTVSPropertyOp54
 70
     1
102
RTVSPropertyOp55
 70
     1
102
RTVSPropertyOp56
 70
     1
102
RTVSPropertyOp57
 70
     1
102
RTVSPropertyOp58
 70
     1
102
RTVSPropertyOp59
 70
     1
102
RTVSPropertyOp60
 70
     1
102
RTVSPropertyOp61
 70
     1
102
RTVSPropertyOp62
 70
     1
  0
XRECORD
  5
83C2
102
{ACAD_REACTORS
330
83C1
102
}
330
83C1
100
AcDbXrecord
280
     1
102
RTVSPost2010Prop28
280
     0
102
RTVSPost2010PropOp28
 70
     1
102
RTVSPost2010Prop29
280
     1
102
RTVSPost2010PropOp29
 70
     1
102
RTVSPost2010Prop30
280
     1
102
RTVSPost2010PropOp30
 70
     1
102
RTVSPost2010Prop31
280
     0
102
RTVSPost2010PropOp31
 70
     1
102
RTVSPost2010Prop32
280
     0
102
RTVSPost2010PropOp32
 70
     1
102
RTVSPost2010Prop33
280
     0
102
RTVSPost2010PropOp33
 70
     1
102
RTVSPost2010Prop34
280
     0
102
RTVSPost2010PropOp34
 70
     1
102
RTVSPost2010Prop35
280
     0
102
RTVSPost2010PropOp35
 70
     1
102
RTVSPost2010Prop36
280
     0
102
RTVSPost2010PropOp36
 70
     1
102
RTVSPost2010Prop37
 90
       50
102
RTVSPost2010PropOp37
 70
     1
102
RTVSPost2010Prop38
140
0.0
102
RTVSPost2010PropOp38
 70
     1
102
RTVSPost2010Prop39
140
1.0
102
RTVSPost2010PropOp39
 70
     1
102
RTVSPost2010Prop40
 90
        0
102
RTVSPost2010PropOp40
 70
     1
102
RTVSPost2010Prop41ColorIndex
 90
       18
102
RTVSPost2010Prop41ColorRGB
 90
        0
102
RTVSPost2010PropOp41
 70
     1
102
RTVSPost2010Prop42
 90
       50
102
RTVSPost2010PropOp42
 70
     1
102
RTVSPost2010Prop43
 90
        3
102
RTVSPost2010PropOp43
 70
     1
102
RTVSPost2010Prop44ColorIndex
 90
        5
102
RTVSPost2010Prop44ColorRGB
 90
      255
102
RTVSPost2010PropOp44
 70
     1
102
RTVSPost2010Prop45
280
     0
102
RTVSPost2010PropOp45
 70
     1
102
RTVSPost2010Prop46
 90
       50
102
RTVSPost2010PropOp46
 70
     1
102
RTVSPost2010Prop47
 90
       50
102
RTVSPost2010PropOp47
 70
     1
102
RTVSPost2010Prop48
 90
       50
102
RTVSPost2010PropOp48
 70
     1
102
RTVSPost2010Prop49
280
     0
102
RTVSPost2010PropOp49
 70
     1
102
RTVSPost2010Prop50
 90
       50
102
RTVSPost2010PropOp50
 70
     1
102
RTVSPost2010Prop51ColorIndex
 90
      256
102
RTVSPost2010Prop51ColorRGB
 90
-16777216
102
RTVSPost2010PropOp51
 70
     0
102
RTVSPost2010Prop52
140
1.0
102
RTVSPost2010PropOp52
 70
     0
102
RTVSPost2010Prop53
 90
        2
102
RTVSPost2010PropOp53
 70
     1
102
RTVSPost2010Prop54
  1
strokes_ogs.tif
102
RTVSPost2010PropOp54
 70
     1
102
RTVSPost2010Prop55
280
     0
102
RTVSPost2010PropOp55
 70
     1
102
RTVSPost2010Prop56
140
1.0
102
RTVSPost2010PropOp56
 70
     1
102
RTVSPost2010Prop57
140
1.0
102
RTVSPost2010PropOp57
 70
     1
102
RTVSPropertyOp0
 70
     1
102
RTVSPropertyOp1
 70
     1
102
RTVSPropertyOp2
 70
     1
102
RTVSPropertyOp3
 70
     1
102
RTVSPropertyOp4
 70
     1
102
RTVSPropertyOp5
 70
     1
102
RTVSPropertyOp6
 70
     1
102
RTVSPropertyOp7
 70
     1
102
RTVSPropertyOp8
 70
     1
102
RTVSPropertyOp9
 70
     1
102
RTVSPropertyOp10
 70
     1
102
RTVSPropertyOp11
 70
     1
102
RTVSPropertyOp12
 70
     1
102
RTVSPropertyOp13
 70
     1
102
RTVSPropertyOp14
 70
     1
102
RTVSPropertyOp15
 70
     1
102
RTVSPropertyOp16
 70
     1
102
RTVSPropertyOp17
 70
     1
102
RTVSPropertyOp18
 70
     1
102
RTVSPropertyOp19
 70
     1
102
RTVSPropertyOp20
 70
     1
102
RTVSPropertyOp21
 70
     1
102
RTVSPropertyOp22
 70
     1
102
RTVSPropertyOp23
 70
     1
102
RTVSPropertyOp24
 70
     1
102
RTVSPropertyOp25
 70
     1
102
RTVSPropertyOp26
 70
     1
102
RTVSPropertyOp27
 70
     1
102
RTVSPropertyOp28
 70
     1
102
RTVSPropertyOp29
 70
     1
102
RTVSPropertyOp30
 70
     1
102
RTVSPropertyOp31
 70
     1
102
RTVSPropertyOp32
 70
     1
102
RTVSPropertyOp33
 70
     1
102
RTVSPropertyOp34
 70
     1
102
RTVSPropertyOp35
 70
     1
102
RTVSPropertyOp36
 70
     1
102
RTVSPropertyOp37
 70
     1
102
RTVSPropertyOp38
 70
     1
102
RTVSPropertyOp39
 70
     1
102
RTVSPropertyOp40
 70
     1
102
RTVSPropertyOp41
 70
     1
102
RTVSPropertyOp42
 70
     1
102
RTVSPropertyOp43
 70
     1
102
RTVSPropertyOp44
 70
     1
102
RTVSPropertyOp45
 70
     1
102
RTVSPropertyOp46
 70
     1
102
RTVSPropertyOp47
 70
     1
102
RTVSPropertyOp48
 70
     1
102
RTVSPropertyOp49
 70
     1
102
RTVSPropertyOp50
 70
     1
102
RTVSPropertyOp51
 70
     0
102
RTVSPropertyOp52
 70
     0
102
RTVSPropertyOp53
 70
     1
102
RTVSPropertyOp54
 70
     1
102
RTVSPropertyOp55
 70
     1
102
RTVSPropertyOp56
 70
     1
102
RTVSPropertyOp57
 70
     1
102
RTVSPropertyOp58
 70
     1
102
RTVSPropertyOp59
 70
     1
102
RTVSPropertyOp60
 70
     1
102
RTVSPropertyOp61
 70
     1
102
RTVSPropertyOp62
 70
     1
  0
XRECORD
  5
83B8
102
{ACAD_REACTORS
330
83B7
102
}
330
83B7
100
AcDbXrecord
280
     1
102
RTVSPost2010Prop28
280
     0
102
RTVSPost2010PropOp28
 70
     1
102
RTVSPost2010Prop29
280
     1
102
RTVSPost2010PropOp29
 70
     1
102
RTVSPost2010Prop30
280
     1
102
RTVSPost2010PropOp30
 70
     1
102
RTVSPost2010Prop31
280
     0
102
RTVSPost2010PropOp31
 70
     1
102
RTVSPost2010Prop32
280
     0
102
RTVSPost2010PropOp32
 70
     1
102
RTVSPost2010Prop33
280
     0
102
RTVSPost2010PropOp33
 70
     1
102
RTVSPost2010Prop34
280
     0
102
RTVSPost2010PropOp34
 70
     1
102
RTVSPost2010Prop35
280
     0
102
RTVSPost2010PropOp35
 70
     1
102
RTVSPost2010Prop36
280
     0
102
RTVSPost2010PropOp36
 70
     1
102
RTVSPost2010Prop37
 90
       50
102
RTVSPost2010PropOp37
 70
     1
102
RTVSPost2010Prop38
140
0.0
102
RTVSPost2010PropOp38
 70
     1
102
RTVSPost2010Prop39
140
1.0
102
RTVSPost2010PropOp39
 70
     1
102
RTVSPost2010Prop40
 90
        0
102
RTVSPost2010PropOp40
 70
     1
102
RTVSPost2010Prop41ColorIndex
 90
       18
102
RTVSPost2010Prop41ColorRGB
 90
        0
102
RTVSPost2010PropOp41
 70
     1
102
RTVSPost2010Prop42
 90
       50
102
RTVSPost2010PropOp42
 70
     1
102
RTVSPost2010Prop43
 90
        3
102
RTVSPost2010PropOp43
 70
     1
102
RTVSPost2010Prop44ColorIndex
 90
        5
102
RTVSPost2010Prop44ColorRGB
 90
      255
102
RTVSPost2010PropOp44
 70
     1
102
RTVSPost2010Prop45
280
     0
102
RTVSPost2010PropOp45
 70
     1
102
RTVSPost2010Prop46
 90
       50
102
RTVSPost2010PropOp46
 70
     1
102
RTVSPost2010Prop47
 90
       50
102
RTVSPost2010PropOp47
 70
     1
102
RTVSPost2010Prop48
 90
       50
102
RTVSPost2010PropOp48
 70
     1
102
RTVSPost2010Prop49
280
     0
102
RTVSPost2010PropOp49
 70
     1
102
RTVSPost2010Prop50
 90
       50
102
RTVSPost2010PropOp50
 70
     1
102
RTVSPost2010Prop51ColorIndex
 90
      256
102
RTVSPost2010Prop51ColorRGB
 90
-16777216
102
RTVSPost2010PropOp51
 70
     0
102
RTVSPost2010Prop52
140
1.0
102
RTVSPost2010PropOp52
 70
     0
102
RTVSPost2010Prop53
 90
        2
102
RTVSPost2010PropOp53
 70
     1
102
RTVSPost2010Prop54
  1
strokes_ogs.tif
102
RTVSPost2010PropOp54
 70
     1
102
RTVSPost2010Prop55
280
     0
102
RTVSPost2010PropOp55
 70
     1
102
RTVSPost2010Prop56
140
1.0
102
RTVSPost2010PropOp56
 70
     1
102
RTVSPost2010Prop57
140
1.0
102
RTVSPost2010PropOp57
 70
     1
102
RTVSPropertyOp0
 70
     1
102
RTVSPropertyOp1
 70
     1
102
RTVSPropertyOp2
 70
     1
102
RTVSPropertyOp3
 70
     1
102
RTVSPropertyOp4
 70
     1
102
RTVSPropertyOp5
 70
     1
102
RTVSPropertyOp6
 70
     1
102
RTVSPropertyOp7
 70
     1
102
RTVSPropertyOp8
 70
     1
102
RTVSPropertyOp9
 70
     1
102
RTVSPropertyOp10
 70
     1
102
RTVSPropertyOp11
 70
     1
102
RTVSPropertyOp12
 70
     1
102
RTVSPropertyOp13
 70
     1
102
RTVSPropertyOp14
 70
     1
102
RTVSPropertyOp15
 70
     1
102
RTVSPropertyOp16
 70
     1
102
RTVSPropertyOp17
 70
     1
102
RTVSPropertyOp18
 70
     1
102
RTVSPropertyOp19
 70
     1
102
RTVSPropertyOp20
 70
     1
102
RTVSPropertyOp21
 70
     1
102
RTVSPropertyOp22
 70
     1
102
RTVSPropertyOp23
 70
     1
102
RTVSPropertyOp24
 70
     1
102
RTVSPropertyOp25
 70
     1
102
RTVSPropertyOp26
 70
     1
102
RTVSPropertyOp27
 70
     1
102
RTVSPropertyOp28
 70
     1
102
RTVSPropertyOp29
 70
     1
102
RTVSPropertyOp30
 70
     1
102
RTVSPropertyOp31
 70
     1
102
RTVSPropertyOp32
 70
     1
102
RTVSPropertyOp33
 70
     1
102
RTVSPropertyOp34
 70
     1
102
RTVSPropertyOp35
 70
     1
102
RTVSPropertyOp36
 70
     1
102
RTVSPropertyOp37
 70
     1
102
RTVSPropertyOp38
 70
     1
102
RTVSPropertyOp39
 70
     1
102
RTVSPropertyOp40
 70
     1
102
RTVSPropertyOp41
 70
     1
102
RTVSPropertyOp42
 70
     1
102
RTVSPropertyOp43
 70
     1
102
RTVSPropertyOp44
 70
     1
102
RTVSPropertyOp45
 70
     1
102
RTVSPropertyOp46
 70
     1
102
RTVSPropertyOp47
 70
     1
102
RTVSPropertyOp48
 70
     1
102
RTVSPropertyOp49
 70
     1
102
RTVSPropertyOp50
 70
     1
102
RTVSPropertyOp51
 70
     0
102
RTVSPropertyOp52
 70
     0
102
RTVSPropertyOp53
 70
     1
102
RTVSPropertyOp54
 70
     1
102
RTVSPropertyOp55
 70
     1
102
RTVSPropertyOp56
 70
     1
102
RTVSPropertyOp57
 70
     1
102
RTVSPropertyOp58
 70
     1
102
RTVSPropertyOp59
 70
     1
102
RTVSPropertyOp60
 70
     1
102
RTVSPropertyOp61
 70
     1
102
RTVSPropertyOp62
 70
     1
  0
XRECORD
  5
83AC
102
{ACAD_REACTORS
330
83AB
102
}
330
83AB
100
AcDbXrecord
280
     1
102
RTVSPost2010Prop28
280
     0
102
RTVSPost2010PropOp28
 70
     1
102
RTVSPost2010Prop29
280
     1
102
RTVSPost2010PropOp29
 70
     1
102
RTVSPost2010Prop30
280
     1
102
RTVSPost2010PropOp30
 70
     1
102
RTVSPost2010Prop31
280
     0
102
RTVSPost2010PropOp31
 70
     1
102
RTVSPost2010Prop32
280
     0
102
RTVSPost2010PropOp32
 70
     1
102
RTVSPost2010Prop33
280
     0
102
RTVSPost2010PropOp33
 70
     1
102
RTVSPost2010Prop34
280
     0
102
RTVSPost2010PropOp34
 70
     1
102
RTVSPost2010Prop35
280
     0
102
RTVSPost2010PropOp35
 70
     1
102
RTVSPost2010Prop36
280
     0
102
RTVSPost2010PropOp36
 70
     1
102
RTVSPost2010Prop37
 90
       50
102
RTVSPost2010PropOp37
 70
     1
102
RTVSPost2010Prop38
140
0.0
102
RTVSPost2010PropOp38
 70
     1
102
RTVSPost2010Prop39
140
1.0
102
RTVSPost2010PropOp39
 70
     1
102
RTVSPost2010Prop40
 90
        0
102
RTVSPost2010PropOp40
 70
     1
102
RTVSPost2010Prop41ColorIndex
 90
       18
102
RTVSPost2010Prop41ColorRGB
 90
        0
102
RTVSPost2010PropOp41
 70
     1
102
RTVSPost2010Prop42
 90
       50
102
RTVSPost2010PropOp42
 70
     1
102
RTVSPost2010Prop43
 90
        3
102
RTVSPost2010PropOp43
 70
     1
102
RTVSPost2010Prop44ColorIndex
 90
        5
102
RTVSPost2010Prop44ColorRGB
 90
      255
102
RTVSPost2010PropOp44
 70
     1
102
RTVSPost2010Prop45
280
     0
102
RTVSPost2010PropOp45
 70
     1
102
RTVSPost2010Prop46
 90
       50
102
RTVSPost2010PropOp46
 70
     1
102
RTVSPost2010Prop47
 90
       50
102
RTVSPost2010PropOp47
 70
     1
102
RTVSPost2010Prop48
 90
       50
102
RTVSPost2010PropOp48
 70
     1
102
RTVSPost2010Prop49
280
     0
102
RTVSPost2010PropOp49
 70
     1
102
RTVSPost2010Prop50
 90
       50
102
RTVSPost2010PropOp50
 70
     1
102
RTVSPost2010Prop51ColorIndex
 90
      256
102
RTVSPost2010Prop51ColorRGB
 90
-16777216
102
RTVSPost2010PropOp51
 70
     0
102
RTVSPost2010Prop52
140
1.0
102
RTVSPost2010PropOp52
 70
     0
102
RTVSPost2010Prop53
 90
        2
102
RTVSPost2010PropOp53
 70
     1
102
RTVSPost2010Prop54
  1
strokes_ogs.tif
102
RTVSPost2010PropOp54
 70
     1
102
RTVSPost2010Prop55
280
     0
102
RTVSPost2010PropOp55
 70
     1
102
RTVSPost2010Prop56
140
1.0
102
RTVSPost2010PropOp56
 70
     1
102
RTVSPost2010Prop57
140
1.0
102
RTVSPost2010PropOp57
 70
     1
102
RTVSPropertyOp0
 70
     1
102
RTVSPropertyOp1
 70
     1
102
RTVSPropertyOp2
 70
     1
102
RTVSPropertyOp3
 70
     1
102
RTVSPropertyOp4
 70
     1
102
RTVSPropertyOp5
 70
     1
102
RTVSPropertyOp6
 70
     1
102
RTVSPropertyOp7
 70
     1
102
RTVSPropertyOp8
 70
     1
102
RTVSPropertyOp9
 70
     1
102
RTVSPropertyOp10
 70
     1
102
RTVSPropertyOp11
 70
     1
102
RTVSPropertyOp12
 70
     1
102
RTVSPropertyOp13
 70
     1
102
RTVSPropertyOp14
 70
     1
102
RTVSPropertyOp15
 70
     1
102
RTVSPropertyOp16
 70
     1
102
RTVSPropertyOp17
 70
     1
102
RTVSPropertyOp18
 70
     1
102
RTVSPropertyOp19
 70
     1
102
RTVSPropertyOp20
 70
     1
102
RTVSPropertyOp21
 70
     1
102
RTVSPropertyOp22
 70
     1
102
RTVSPropertyOp23
 70
     1
102
RTVSPropertyOp24
 70
     1
102
RTVSPropertyOp25
 70
     1
102
RTVSPropertyOp26
 70
     1
102
RTVSPropertyOp27
 70
     1
102
RTVSPropertyOp28
 70
     1
102
RTVSPropertyOp29
 70
     1
102
RTVSPropertyOp30
 70
     1
102
RTVSPropertyOp31
 70
     1
102
RTVSPropertyOp32
 70
     1
102
RTVSPropertyOp33
 70
     1
102
RTVSPropertyOp34
 70
     1
102
RTVSPropertyOp35
 70
     1
102
RTVSPropertyOp36
 70
     1
102
RTVSPropertyOp37
 70
     1
102
RTVSPropertyOp38
 70
     1
102
RTVSPropertyOp39
 70
     1
102
RTVSPropertyOp40
 70
     1
102
RTVSPropertyOp41
 70
     1
102
RTVSPropertyOp42
 70
     1
102
RTVSPropertyOp43
 70
     1
102
RTVSPropertyOp44
 70
     1
102
RTVSPropertyOp45
 70
     1
102
RTVSPropertyOp46
 70
     1
102
RTVSPropertyOp47
 70
     1
102
RTVSPropertyOp48
 70
     1
102
RTVSPropertyOp49
 70
     1
102
RTVSPropertyOp50
 70
     1
102
RTVSPropertyOp51
 70
     0
102
RTVSPropertyOp52
 70
     0
102
RTVSPropertyOp53
 70
     1
102
RTVSPropertyOp54
 70
     1
102
RTVSPropertyOp55
 70
     1
102
RTVSPropertyOp56
 70
     1
102
RTVSPropertyOp57
 70
     1
102
RTVSPropertyOp58
 70
     1
102
RTVSPropertyOp59
 70
     1
102
RTVSPropertyOp60
 70
     1
102
RTVSPropertyOp61
 70
     1
102
RTVSPropertyOp62
 70
     1
  0
XRECORD
  5
83C4
102
{ACAD_REACTORS
330
83C3
102
}
330
83C3
100
AcDbXrecord
280
     1
102
RTVSPost2010Prop28
280
     0
102
RTVSPost2010PropOp28
 70
     1
102
RTVSPost2010Prop29
280
     1
102
RTVSPost2010PropOp29
 70
     1
102
RTVSPost2010Prop30
280
     1
102
RTVSPost2010PropOp30
 70
     1
102
RTVSPost2010Prop31
280
     0
102
RTVSPost2010PropOp31
 70
     1
102
RTVSPost2010Prop32
280
     0
102
RTVSPost2010PropOp32
 70
     1
102
RTVSPost2010Prop33
280
     0
102
RTVSPost2010PropOp33
 70
     1
102
RTVSPost2010Prop34
280
     0
102
RTVSPost2010PropOp34
 70
     1
102
RTVSPost2010Prop35
280
     0
102
RTVSPost2010PropOp35
 70
     1
102
RTVSPost2010Prop36
280
     0
102
RTVSPost2010PropOp36
 70
     1
102
RTVSPost2010Prop37
 90
       50
102
RTVSPost2010PropOp37
 70
     1
102
RTVSPost2010Prop38
140
0.0
102
RTVSPost2010PropOp38
 70
     1
102
RTVSPost2010Prop39
140
1.0
102
RTVSPost2010PropOp39
 70
     1
102
RTVSPost2010Prop40
 90
        0
102
RTVSPost2010PropOp40
 70
     1
102
RTVSPost2010Prop41ColorIndex
 90
       18
102
RTVSPost2010Prop41ColorRGB
 90
        0
102
RTVSPost2010PropOp41
 70
     1
102
RTVSPost2010Prop42
 90
       50
102
RTVSPost2010PropOp42
 70
     1
102
RTVSPost2010Prop43
 90
        3
102
RTVSPost2010PropOp43
 70
     1
102
RTVSPost2010Prop44ColorIndex
 90
        5
102
RTVSPost2010Prop44ColorRGB
 90
      255
102
RTVSPost2010PropOp44
 70
     1
102
RTVSPost2010Prop45
280
     0
102
RTVSPost2010PropOp45
 70
     1
102
RTVSPost2010Prop46
 90
       50
102
RTVSPost2010PropOp46
 70
     1
102
RTVSPost2010Prop47
 90
       50
102
RTVSPost2010PropOp47
 70
     1
102
RTVSPost2010Prop48
 90
       50
102
RTVSPost2010PropOp48
 70
     1
102
RTVSPost2010Prop49
280
     0
102
RTVSPost2010PropOp49
 70
     1
102
RTVSPost2010Prop50
 90
       50
102
RTVSPost2010PropOp50
 70
     1
102
RTVSPost2010Prop51ColorIndex
 90
      256
102
RTVSPost2010Prop51ColorRGB
 90
-16777216
102
RTVSPost2010PropOp51
 70
     0
102
RTVSPost2010Prop52
140
1.0
102
RTVSPost2010PropOp52
 70
     0
102
RTVSPost2010Prop53
 90
        2
102
RTVSPost2010PropOp53
 70
     1
102
RTVSPost2010Prop54
  1
strokes_ogs.tif
102
RTVSPost2010PropOp54
 70
     1
102
RTVSPost2010Prop55
280
     0
102
RTVSPost2010PropOp55
 70
     1
102
RTVSPost2010Prop56
140
1.0
102
RTVSPost2010PropOp56
 70
     1
102
RTVSPost2010Prop57
140
1.0
102
RTVSPost2010PropOp57
 70
     1
102
RTVSPropertyOp0
 70
     1
102
RTVSPropertyOp1
 70
     1
102
RTVSPropertyOp2
 70
     1
102
RTVSPropertyOp3
 70
     1
102
RTVSPropertyOp4
 70
     1
102
RTVSPropertyOp5
 70
     1
102
RTVSPropertyOp6
 70
     1
102
RTVSPropertyOp7
 70
     1
102
RTVSPropertyOp8
 70
     1
102
RTVSPropertyOp9
 70
     1
102
RTVSPropertyOp10
 70
     1
102
RTVSPropertyOp11
 70
     1
102
RTVSPropertyOp12
 70
     1
102
RTVSPropertyOp13
 70
     1
102
RTVSPropertyOp14
 70
     1
102
RTVSPropertyOp15
 70
     1
102
RTVSPropertyOp16
 70
     1
102
RTVSPropertyOp17
 70
     1
102
RTVSPropertyOp18
 70
     1
102
RTVSPropertyOp19
 70
     1
102
RTVSPropertyOp20
 70
     1
102
RTVSPropertyOp21
 70
     1
102
RTVSPropertyOp22
 70
     1
102
RTVSPropertyOp23
 70
     1
102
RTVSPropertyOp24
 70
     1
102
RTVSPropertyOp25
 70
     1
102
RTVSPropertyOp26
 70
     1
102
RTVSPropertyOp27
 70
     1
102
RTVSPropertyOp28
 70
     1
102
RTVSPropertyOp29
 70
     1
102
RTVSPropertyOp30
 70
     1
102
RTVSPropertyOp31
 70
     1
102
RTVSPropertyOp32
 70
     1
102
RTVSPropertyOp33
 70
     1
102
RTVSPropertyOp34
 70
     1
102
RTVSPropertyOp35
 70
     1
102
RTVSPropertyOp36
 70
     1
102
RTVSPropertyOp37
 70
     1
102
RTVSPropertyOp38
 70
     1
102
RTVSPropertyOp39
 70
     1
102
RTVSPropertyOp40
 70
     1
102
RTVSPropertyOp41
 70
     1
102
RTVSPropertyOp42
 70
     1
102
RTVSPropertyOp43
 70
     1
102
RTVSPropertyOp44
 70
     1
102
RTVSPropertyOp45
 70
     1
102
RTVSPropertyOp46
 70
     1
102
RTVSPropertyOp47
 70
     1
102
RTVSPropertyOp48
 70
     1
102
RTVSPropertyOp49
 70
     1
102
RTVSPropertyOp50
 70
     1
102
RTVSPropertyOp51
 70
     0
102
RTVSPropertyOp52
 70
     0
102
RTVSPropertyOp53
 70
     1
102
RTVSPropertyOp54
 70
     1
102
RTVSPropertyOp55
 70
     1
102
RTVSPropertyOp56
 70
     1
102
RTVSPropertyOp57
 70
     1
102
RTVSPropertyOp58
 70
     1
102
RTVSPropertyOp59
 70
     1
102
RTVSPropertyOp60
 70
     1
102
RTVSPropertyOp61
 70
     1
102
RTVSPropertyOp62
 70
     1
  0
ENDSEC
  0
EOF
