  0
SECTION
  2
HEADER
  9
$ACADVER
  1
AC1015
  9
$ACADMAINTVER
 70
    20
  9
$DWGCODEPAGE
  3
ANSI_932
  9
$INSBASE
 10
0.0
 20
0.0
 30
0.0
  9
$EXTMIN
 10
-0.1922460740788665
 20
-0.2700599612071528
 30
-0.0015258207003583
  9
$EXTMAX
 10
6300.192275410744
 20
8850.270101172235
 30
0.0000000349246037
  9
$LIMMIN
 10
0.0
 20
0.0
  9
$LIMMAX
 10
297.0
 20
210.0
  9
$ORTHOMODE
 70
     1
  9
$REGENMODE
 70
     1
  9
$FILLMODE
 70
     0
  9
$QTEXTMODE
 70
     0
  9
$MIRRTEXT
 70
     1
  9
$LTSCALE
 40
100.0
  9
$ATTMODE
 70
     1
  9
$TEXTSIZE
 40
180.0
  9
$TRACEWID
 40
0.05
  9
$TEXTSTYLE
  7
STANDARD
  9
$CLAYER
  8
3
  9
$CELTYPE
  6
ByLayer
  9
$CECOLOR
 62
   256
  9
$CELTSCALE
 40
1.0
  9
$DISPSILH
 70
     0
  9
$DIMSCALE
 40
30.0
  9
$DIMASZ
 40
2.0
  9
$DIMEXO
 40
1.0
  9
$DIMDLI
 40
10.0
  9
$DIMRND
 40
0.0
  9
$DIMDLE
 40
0.0
  9
$DIMEXE
 40
1.0
  9
$DIMTP
 40
1.0
  9
$DIMTM
 40
1.0
  9
$DIMTXT
 40
3.0
  9
$DIMCEN
 40
0.0
  9
$DIMTSZ
 40
0.0
  9
$DIMTOL
 70
     0
  9
$DIMLIM
 70
     0
  9
$DIMTIH
 70
     0
  9
$DIMTOH
 70
     0
  9
$DIMSE1
 70
     0
  9
$DIMSE2
 70
     0
  9
$DIMTAD
 70
     1
  9
$DIMZIN
 70
     8
  9
$DIMBLK
  1

  9
$DIMASO
 70
     1
  9
$DIMSHO
 70
     1
  9
$DIMPOST
  1

  9
$DIMAPOST
  1

  9
$DIMALT
 70
     0
  9
$DIMALTD
 70
     2
  9
$DIMALTF
 40
0.039
  9
$DIMLFAC
 40
1.0
  9
$DIMTOFL
 70
     1
  9
$DIMTVP
 40
0.0
  9
$DIMTIX
 70
     0
  9
$DIMSOXD
 70
     0
  9
$DIMSAH
 70
     1
  9
$DIMBLK1
  1
OPEN
  9
$DIMBLK2
  1
OPEN
  9
$DIMSTYLE
  2
IGA
  9
$DIMCLRD
 70
     0
  9
$DIMCLRE
 70
     0
  9
$DIMCLRT
 70
     0
  9
$DIMTFAC
 40
10.0
  9
$DIMGAP
 40
1.0
  9
$DIMJUST
 70
     0
  9
$DIMSD1
 70
     0
  9
$DIMSD2
 70
     0
  9
$DIMTOLJ
 70
     1
  9
$DIMTZIN
 70
     0
  9
$DIMALTZ
 70
     0
  9
$DIMALTTZ
 70
     0
  9
$DIMUPT
 70
     0
  9
$DIMDEC
 70
     4
  9
$DIMTDEC
 70
     4
  9
$DIMALTU
 70
     2
  9
$DIMALTTD
 70
     2
  9
$DIMTXSTY
  7
STANDARD
  9
$DIMAUNIT
 70
     0
  9
$DIMADEC
 70
     0
  9
$DIMALTRND
 40
0.0
  9
$DIMAZIN
 70
     0
  9
$DIMDSEP
 70
    46
  9
$DIMATFIT
 70
     3
  9
$DIMFRAC
 70
     0
  9
$DIMLDRBLK
  1
OPEN
  9
$DIMLUNIT
 70
     2
  9
$DIMLWD
 70
    -2
  9
$DIMLWE
 70
    -2
  9
$DIMTMOVE
 70
     0
  9
$LUNITS
 70
     2
  9
$LUPREC
 70
     3
  9
$SKETCHINC
 40
0.1
  9
$FILLETRAD
 40
50.0
  9
$AUNITS
 70
     0
  9
$AUPREC
 70
     0
  9
$MENU
  1
acad
  9
$ELEVATION
 40
0.0
  9
$PELEVATION
 40
0.0
  9
$THICKNESS
 40
0.0
  9
$LIMCHECK
 70
     0
  9
$CHAMFERA
 40
0.5
  9
$CHAMFERB
 40
0.5
  9
$CHAMFERC
 40
0.0
  9
$CHAMFERD
 40
0.0
  9
$SKPOLY
 70
     0
  9
$TDCREATE
 40
2451389.585626505
  9
$TDUCREATE
 40
2451389.210626505
  9
$TDUPDATE
 40
2460271.732164792
  9
$TDUUPDATE
 40
2460271.357164792
  9
$TDINDWG
 40
0.0968698380
  9
$TDUSRTIMER
 40
0.0968696065
  9
$USRTIMER
 70
     1
  9
$ANGBASE
 50
0.0
  9
$ANGDIR
 70
     0
  9
$PDMODE
 70
     0
  9
$PDSIZE
 40
0.0
  9
$PLINEWID
 40
0.0
  9
$SPLFRAME
 70
     0
  9
$SPLINETYPE
 70
     6
  9
$SPLINESEGS
 70
     8
  9
$HANDSEED
  5
8326
  9
$SURFTAB1
 70
     6
  9
$SURFTAB2
 70
     6
  9
$SURFTYPE
 70
     6
  9
$SURFU
 70
     6
  9
$SURFV
 70
     6
  9
$UCSBASE
  2

  9
$UCSNAME
  2

  9
$UCSORG
 10
0.0
 20
0.0
 30
0.0
  9
$UCSXDIR
 10
1.0
 20
0.0
 30
0.0
  9
$UCSYDIR
 10
0.0
 20
1.0
 30
0.0
  9
$UCSORTHOREF
  2

  9
$UCSORTHOVIEW
 70
     0
  9
$UCSORGTOP
 10
0.0
 20
0.0
 30
0.0
  9
$UCSORGBOTTOM
 10
0.0
 20
0.0
 30
0.0
  9
$UCSORGLEFT
 10
0.0
 20
0.0
 30
0.0
  9
$UCSORGRIGHT
 10
0.0
 20
0.0
 30
0.0
  9
$UCSORGFRONT
 10
0.0
 20
0.0
 30
0.0
  9
$UCSORGBACK
 10
0.0
 20
0.0
 30
0.0
  9
$PUCSBASE
  2

  9
$PUCSNAME
  2

  9
$PUCSORG
 10
0.0
 20
0.0
 30
0.0
  9
$PUCSXDIR
 10
1.0
 20
0.0
 30
0.0
  9
$PUCSYDIR
 10
0.0
 20
1.0
 30
0.0
  9
$PUCSORTHOREF
  2

  9
$PUCSORTHOVIEW
 70
     0
  9
$PUCSORGTOP
 10
0.0
 20
0.0
 30
0.0
  9
$PUCSORGBOTTOM
 10
0.0
 20
0.0
 30
0.0
  9
$PUCSORGLEFT
 10
0.0
 20
0.0
 30
0.0
  9
$PUCSORGRIGHT
 10
0.0
 20
0.0
 30
0.0
  9
$PUCSORGFRONT
 10
0.0
 20
0.0
 30
0.0
  9
$PUCSORGBACK
 10
0.0
 20
0.0
 30
0.0
  9
$USERI1
 70
     0
  9
$USERI2
 70
     0
  9
$USERI3
 70
     0
  9
$USERI4
 70
     0
  9
$USERI5
 70
     0
  9
$USERR1
 40
0.0
  9
$USERR2
 40
0.0
  9
$USERR3
 40
0.0
  9
$USERR4
 40
0.0
  9
$USERR5
 40
0.0
  9
$WORLDVIEW
 70
     1
  9
$SHADEDGE
 70
     3
  9
$SHADEDIF
 70
    70
  9
$TILEMODE
 70
     1
  9
$MAXACTVP
 70
    16
  9
$PINSBASE
 10
0.0
 20
0.0
 30
0.0
  9
$PLIMCHECK
 70
     0
  9
$PEXTMIN
 10
1.000000000000000E+20
 20
1.000000000000000E+20
 30
1.000000000000000E+20
  9
$PEXTMAX
 10
-1.000000000000000E+20
 20
-1.000000000000000E+20
 30
-1.000000000000000E+20
  9
$PLIMMIN
 10
0.0
 20
0.0
  9
$PLIMMAX
 10
12.0
 20
9.0
  9
$UNITMODE
 70
     0
  9
$VISRETAIN
 70
     0
  9
$PLINEGEN
 70
     0
  9
$PSLTSCALE
 70
     1
  9
$TREEDEPTH
 70
  3020
  9
$CMLSTYLE
  2
Standard
  9
$CMLJUST
 70
     0
  9
$CMLSCALE
 40
1.0
  9
$PROXYGRAPHICS
 70
     1
  9
$MEASUREMENT
 70
     0
  9
$CELWEIGHT
370
    -1
  9
$ENDCAPS
280
     0
  9
$JOINSTYLE
280
     0
  9
$LWDISPLAY
290
     0
  9
$INSUNITS
 70
     0
  9
$HYPERLINKBASE
  1

  9
$STYLESHEET
  1

  9
$XEDIT
290
     1
  9
$CEPSNTYPE
380
     0
  9
$PSTYLEMODE
290
     1
  9
$FINGERPRINTGUID
  2
{7666A4EC-A72B-4FC2-9526-D5EE042A1E7B}
  9
$VERSIONGUID
  2
{E3C7AC7D-34BC-4108-878A-1440E1C1A317}
  9
$EXTNAMES
290
     1
  9
$PSVPSCALE
 40
0.0
  9
$OLESTARTUP
290
     0
  0
ENDSEC
  0
SECTION
  2
CLASSES
  0
CLASS
  1
ACDBDICTIONARYWDFLT
  2
AcDbDictionaryWithDefault
  3
ObjectDBX Classes
 90
        0
280
     0
281
     0
  0
CLASS
  1
MATERIAL
  2
AcDbMaterial
  3
ObjectDBX Classes
 90
     1153
280
     0
281
     0
  0
CLASS
  1
VISUALSTYLE
  2
AcDbVisualStyle
  3
ObjectDBX Classes
 90
     4095
280
     0
281
     0
  0
CLASS
  1
SCALE
  2
AcDbScale
  3
ObjectDBX Classes
 90
     1153
280
     0
281
     0
  0
CLASS
  1
TABLESTYLE
  2
AcDbTableStyle
  3
ObjectDBX Classes
 90
     4095
280
     0
281
     0
  0
CLASS
  1
MLEADERSTYLE
  2
AcDbMLeaderStyle
  3
ACDB_MLEADERSTYLE_CLASS
 90
     4095
280
     0
281
     0
  0
CLASS
  1
ACDBSECTIONVIEWSTYLE
  2
AcDbSectionViewStyle
  3
ObjectDBX Classes
 90
     1025
280
     0
281
     0
  0
CLASS
  1
ACDBDETAILVIEWSTYLE
  2
AcDbDetailViewStyle
  3
ObjectDBX Classes
 90
     1025
280
     0
281
     0
  0
CLASS
  1
DICTIONARYVAR
  2
AcDbDictionaryVar
  3
ObjectDBX Classes
 90
        0
280
     0
281
     0
  0
CLASS
  1
CELLSTYLEMAP
  2
AcDbCellStyleMap
  3
ObjectDBX Classes
 90
     1152
280
     0
281
     0
  0
CLASS
  1
ACDBPLACEHOLDER
  2
AcDbPlaceHolder
  3
ObjectDBX Classes
 90
        0
280
     0
281
     0
  0
CLASS
  1
LAYOUT
  2
AcDbLayout
  3
ObjectDBX Classes
 90
        0
280
     0
281
     0
  0
ENDSEC
  0
SECTION
  2
TABLES
  0
TABLE
  2
VPORT
  5
8154
330
0
100
AcDbSymbolTable
 70
     1
  0
VPORT
  5
81C0
330
8154
100
AcDbSymbolTableRecord
100
AcDbViewportTableRecord
  2
*ACTIVE
 70
     0
 10
0.0
 20
0.0
 11
1.0
 21
1.0
 12
3150.000014668333
 22
4425.000020605514
 13
0.0
 23
0.0
 14
10.0
 24
10.0
 15
10.0
 25
10.0
 16
0.0
 26
0.0
 36
1.0
 17
0.0
 27
0.0
 37
0.0
 40
8907.213844128961
 41
2.050213675213675
 42
50.0
 43
0.0
 44
0.0
 50
0.0
 51
0.0
 71
     0
 72
   100
 73
     1
 74
     0
 75
     0
 76
     0
 77
     0
 78
     0
281
     0
 65
     1
110
0.0
120
0.0
130
0.0
111
1.0
121
0.0
131
0.0
112
0.0
122
1.0
132
0.0
 79
     0
146
0.0
1001
ACAD_NAV_VCDISPLAY
1070
     3
  0
ENDTAB
  0
TABLE
  2
LTYPE
  5
8151
330
0
100
AcDbSymbolTable
 70
     2
  0
LTYPE
  5
81A6
330
8151
100
AcDbSymbolTableRecord
100
AcDbLinetypeTableRecord
  2
ByBlock
 70
     0
  3

 72
    65
 73
     0
 40
0.0
  0
LTYPE
  5
81A7
330
8151
100
AcDbSymbolTableRecord
100
AcDbLinetypeTableRecord
  2
ByLayer
 70
     0
  3

 72
    65
 73
     0
 40
0.0
  0
LTYPE
  5
81A8
330
8151
100
AcDbSymbolTableRecord
100
AcDbLinetypeTableRecord
  2
CONTINUOUS
 70
     0
  3
Solid line
 72
    65
 73
     0
 40
0.0
  0
LTYPE
  5
81C1
330
8151
100
AcDbSymbolTableRecord
100
AcDbLinetypeTableRecord
  2
CENTER
 70
     0
  3
____ _ ____ _ ____ _ ____ _ ____ _ ____ _ ____ 
 72
    65
 73
     4
 40
2.0
 49
1.25
 74
     0
 49
-0.25
 74
     0
 49
0.25
 74
     0
 49
-0.25
 74
     0
  0
ENDTAB
  0
TABLE
  2
LAYER
  5
814E
330
0
100
AcDbSymbolTable
 70
     6
  0
LAYER
  5
81A0
102
{ACAD_XDICTIONARY
360
828F
102
}
330
814E
100
AcDbSymbolTableRecord
100
AcDbLayerTableRecord
  2
0
 70
     0
 62
     7
  6
CONTINUOUS
370
    -3
390
815B
  0
LAYER
  5
81BF
102
{ACAD_XDICTIONARY
360
8291
102
}
330
814E
100
AcDbSymbolTableRecord
100
AcDbLayerTableRecord
  2
3
 70
     0
 62
     2
  6
CONTINUOUS
370
    -3
390
815B
  0
LAYER
  5
81C2
102
{ACAD_XDICTIONARY
360
8293
102
}
330
814E
100
AcDbSymbolTableRecord
100
AcDbLayerTableRecord
  2
2
 70
     0
 62
     3
  6
CENTER
370
    -3
390
815B
  0
LAYER
  5
81C3
102
{ACAD_XDICTIONARY
360
8295
102
}
330
814E
100
AcDbSymbolTableRecord
100
AcDbLayerTableRecord
  2
1
 70
     0
 62
     4
  6
CONTINUOUS
370
    -3
390
815B
  0
LAYER
  5
81C4
102
{ACAD_XDICTIONARY
360
8297
102
}
330
814E
100
AcDbSymbolTableRecord
100
AcDbLayerTableRecord
  2
4
 70
     0
 62
     7
  6
CONTINUOUS
370
    -3
390
815B
  0
LAYER
  5
81C5
330
814E
100
AcDbSymbolTableRecord
100
AcDbLayerTableRecord
  2
DEFPOINTS
 70
     0
 62
     7
  6
CONTINUOUS
290
     0
370
    -3
390
815B
  0
ENDTAB
  0
TABLE
  2
STYLE
  5
814F
330
0
100
AcDbSymbolTable
 70
     2
  0
STYLE
  5
81A1
330
814F
100
AcDbSymbolTableRecord
100
AcDbTextStyleTableRecord
  2
STANDARD
 70
     0
 40
0.0
 41
1.0
 50
0.0
 71
     0
 42
180.0
  3
simplex.shx
  4
extfont.shx
  0
STYLE
  5
81A5
330
814F
100
AcDbSymbolTableRecord
100
AcDbTextStyleTableRecord
  2
Annotative
 70
     0
 40
0.0
 41
1.0
 50
0.0
 71
     0
 42
0.2
  3
txt
  4

1001
AcadAnnotative
1000
AnnotativeData
1002
{
1070
     1
1070
     1
1002
}
  0
ENDTAB
  0
TABLE
  2
VIEW
  5
8152
330
0
100
AcDbSymbolTable
 70
     0
  0
ENDTAB
  0
TABLE
  2
UCS
  5
8153
330
0
100
AcDbSymbolTable
 70
     0
  0
ENDTAB
  0
TABLE
  2
APPID
  5
8155
330
0
100
AcDbSymbolTable
 70
     6
  0
APPID
  5
81A2
330
8155
100
AcDbSymbolTableRecord
100
AcDbRegAppTableRecord
  2
ACAD
 70
     0
  0
APPID
  5
81A9
330
8155
100
AcDbSymbolTableRecord
100
AcDbRegAppTableRecord
  2
AcadAnnotative
 70
     0
  0
APPID
  5
8254
330
8155
100
AcDbSymbolTableRecord
100
AcDbRegAppTableRecord
  2
ACAD_DSTYLE_DIMJAG
 70
     0
  0
APPID
  5
8255
330
8155
100
AcDbSymbolTableRecord
100
AcDbRegAppTableRecord
  2
ACAD_DSTYLE_DIMTALN
 70
     0
  0
APPID
  5
82A3
330
8155
100
AcDbSymbolTableRecord
100
AcDbRegAppTableRecord
  2
ACAD_NAV_VCDISPLAY
 70
     0
  0
APPID
  5
831D
330
8155
100
AcDbSymbolTableRecord
100
AcDbRegAppTableRecord
  2
ACAD_MLEADERVER
 70
     0
  0
ENDTAB
  0
TABLE
  2
DIMSTYLE
  5
8156
330
0
100
AcDbSymbolTable
 70
     4
100
AcDbDimStyleTable
 71
     1
340
81C6
  0
DIMSTYLE
105
81A3
102
{ACAD_REACTORS
330
7C7B
330
7C7C
330
7C7F
330
7C80
330
7CBF
330
7CC1
330
7CC2
330
7CC6
330
7CC7
330
7CF3
330
7CFE
330
7D0A
330
7D0D
330
8045
330
8052
330
805F
330
806C
330
80BE
330
80CB
102
}
330
8156
100
AcDbSymbolTableRecord
100
AcDbDimStyleTableRecord
  2
Standard
 70
     0
340
81A1
  0
DIMSTYLE
105
81A4
330
8156
100
AcDbSymbolTableRecord
100
AcDbDimStyleTableRecord
  2
Annotative
 70
     0
340
81A1
1001
AcadAnnotative
1000
AnnotativeData
1002
{
1070
     1
1070
     1
1002
}
  0
DIMSTYLE
105
81C6
102
{ACAD_REACTORS
330
8208
330
8215
330
826C
330
8279
102
}
330
8156
100
AcDbSymbolTableRecord
100
AcDbDimStyleTableRecord
  2
IGA
 70
     0
 40
2.0
 41
2.0
 42
0.5
 43
10.0
 44
1.0
 47
1.0
 48
1.0
 73
     0
 74
     0
 77
     1
 78
     8
140
3.0
141
0.0
143
0.03937
146
10.0
147
1.0
173
     1
271
     3
272
     3
279
     2
284
     8
285
     8
286
     8
340
81A1
  0
DIMSTYLE
105
81C7
330
8156
100
AcDbSymbolTableRecord
100
AcDbDimStyleTableRecord
  2
MATSU
 70
     0
 41
2.0
 42
1.0
 43
10.0
 44
1.0
 73
     0
 74
     0
 77
     1
 78
     8
140
3.0
141
0.0
143
0.03937
147
0.5
172
     1
173
     1
176
   256
177
   256
178
   256
271
     3
272
     3
279
     2
284
     8
285
     8
286
     8
340
81A1
  0
ENDTAB
  0
TABLE
  2
BLOCK_RECORD
  5
814D
330
0
100
AcDbSymbolTable
 70
    36
  0
BLOCK_RECORD
  5
81BB
330
814D
100
AcDbSymbolTableRecord
100
AcDbBlockTableRecord
  2
*Model_Space
340
81BE
  0
BLOCK_RECORD
  5
81B7
330
814D
100
AcDbSymbolTableRecord
100
AcDbBlockTableRecord
  2
*Paper_Space
340
81BA
  0
BLOCK_RECORD
  5
81CB
330
814D
100
AcDbSymbolTableRecord
100
AcDbBlockTableRecord
  2
$MODEL_SPACE
340
0
  0
BLOCK_RECORD
  5
81CD
330
814D
100
AcDbSymbolTableRecord
100
AcDbBlockTableRecord
  2
$PAPER_SPACE
340
0
  0
BLOCK_RECORD
  5
81CF
330
814D
100
AcDbSymbolTableRecord
100
AcDbBlockTableRecord
  2
_OPEN
340
0
102
{BLKREFS
331
8289
331
828A
331
7E41
331
7E42
331
7E4C
331
7E4D
331
7E57
331
7E58
331
7E62
331
7E63
331
7EAF
331
7EB0
331
7EBA
331
7EBB
331
7FCA
331
7FCB
331
7ED0
331
7ED1
331
801B
331
801C
331
8026
331
8027
331
7EF1
331
7EF2
331
7EFC
331
7EFD
331
7F07
331
7F08
331
7F12
331
7F13
331
7F1D
331
7F1E
331
813E
331
813F
331
7F99
331
803E
331
803F
331
804B
331
804C
331
8058
331
8059
331
8065
331
8066
331
80C4
331
80C5
331
8266
331
8267
331
8273
331
8274
331
8237
331
8238
331
8240
331
8241
102
}
  0
BLOCK_RECORD
  5
81D1
330
814D
100
AcDbSymbolTableRecord
100
AcDbBlockTableRecord
  2
YA_N
340
0
102
{BLKREFS
331
7C29
331
7C3F
331
7C79
331
7C9A
331
7CCF
331
7CD1
331
7CD3
331
7CD5
102
}
  0
BLOCK_RECORD
  5
81D3
330
814D
100
AcDbSymbolTableRecord
100
AcDbBlockTableRecord
  2
*D4
340
0
  0
BLOCK_RECORD
  5
81D5
330
814D
100
AcDbSymbolTableRecord
100
AcDbBlockTableRecord
  2
*D5
340
0
  0
BLOCK_RECORD
  5
81D7
330
814D
100
AcDbSymbolTableRecord
100
AcDbBlockTableRecord
  2
*D6
340
0
  0
BLOCK_RECORD
  5
81D9
330
814D
100
AcDbSymbolTableRecord
100
AcDbBlockTableRecord
  2
*D7
340
0
  0
BLOCK_RECORD
  5
81DB
330
814D
100
AcDbSymbolTableRecord
100
AcDbBlockTableRecord
  2
*D8
340
0
  0
BLOCK_RECORD
  5
81DD
330
814D
100
AcDbSymbolTableRecord
100
AcDbBlockTableRecord
  2
*D9
340
0
  0
BLOCK_RECORD
  5
81DF
330
814D
100
AcDbSymbolTableRecord
100
AcDbBlockTableRecord
  2
*D10
340
0
  0
BLOCK_RECORD
  5
81E1
330
814D
100
AcDbSymbolTableRecord
100
AcDbBlockTableRecord
  2
*D11
340
0
  0
BLOCK_RECORD
  5
81E3
330
814D
100
AcDbSymbolTableRecord
100
AcDbBlockTableRecord
  2
*D12
340
0
  0
BLOCK_RECORD
  5
81E5
330
814D
100
AcDbSymbolTableRecord
100
AcDbBlockTableRecord
  2
*U13
340
0
102
{BLKREFS
331
801D
102
}
  0
BLOCK_RECORD
  5
81E6
330
814D
100
AcDbSymbolTableRecord
100
AcDbBlockTableRecord
  2
*D14
340
0
  0
BLOCK_RECORD
  5
81E8
330
814D
100
AcDbSymbolTableRecord
100
AcDbBlockTableRecord
  2
*D15
340
0
  0
BLOCK_RECORD
  5
81EA
330
814D
100
AcDbSymbolTableRecord
100
AcDbBlockTableRecord
  2
*D16
340
0
  0
BLOCK_RECORD
  5
81EC
330
814D
100
AcDbSymbolTableRecord
100
AcDbBlockTableRecord
  2
*D17
340
0
  0
BLOCK_RECORD
  5
81EE
330
814D
100
AcDbSymbolTableRecord
100
AcDbBlockTableRecord
  2
*D18
340
0
  0
BLOCK_RECORD
  5
81F0
330
814D
100
AcDbSymbolTableRecord
100
AcDbBlockTableRecord
  2
*D19
340
0
  0
BLOCK_RECORD
  5
81F2
330
814D
100
AcDbSymbolTableRecord
100
AcDbBlockTableRecord
  2
*D20
340
0
  0
BLOCK_RECORD
  5
81F4
330
814D
100
AcDbSymbolTableRecord
100
AcDbBlockTableRecord
  2
*D21
340
0
  0
BLOCK_RECORD
  5
81F6
330
814D
100
AcDbSymbolTableRecord
100
AcDbBlockTableRecord
  2
_DOT
340
0
102
{BLKREFS
331
7F98
102
}
  0
BLOCK_RECORD
  5
81F8
330
814D
100
AcDbSymbolTableRecord
100
AcDbBlockTableRecord
  2
*D23
340
0
  0
BLOCK_RECORD
  5
81FA
330
814D
100
AcDbSymbolTableRecord
100
AcDbBlockTableRecord
  2
*D24
340
0
  0
BLOCK_RECORD
  5
81FC
330
814D
100
AcDbSymbolTableRecord
100
AcDbBlockTableRecord
  2
*D25
340
0
  0
BLOCK_RECORD
  5
81FE
330
814D
100
AcDbSymbolTableRecord
100
AcDbBlockTableRecord
  2
*D26
340
0
  0
BLOCK_RECORD
  5
8200
330
814D
100
AcDbSymbolTableRecord
100
AcDbBlockTableRecord
  2
_NONE
340
0
  0
BLOCK_RECORD
  5
8202
330
814D
100
AcDbSymbolTableRecord
100
AcDbBlockTableRecord
  2
*D28
340
0
  0
BLOCK_RECORD
  5
8204
330
814D
100
AcDbSymbolTableRecord
100
AcDbBlockTableRecord
  2
*D29
340
0
  0
BLOCK_RECORD
  5
8209
330
814D
100
AcDbSymbolTableRecord
100
AcDbBlockTableRecord
  2
*D30
340
0
  0
BLOCK_RECORD
  5
8216
330
814D
100
AcDbSymbolTableRecord
100
AcDbBlockTableRecord
  2
*D31
340
0
  0
BLOCK_RECORD
  5
8247
330
814D
100
AcDbSymbolTableRecord
100
AcDbBlockTableRecord
  2
*D32
340
0
  0
BLOCK_RECORD
  5
8256
330
814D
100
AcDbSymbolTableRecord
100
AcDbBlockTableRecord
  2
*D33
340
0
  0
BLOCK_RECORD
  5
826D
330
814D
100
AcDbSymbolTableRecord
100
AcDbBlockTableRecord
  2
*D34
340
0
  0
BLOCK_RECORD
  5
827A
330
814D
100
AcDbSymbolTableRecord
100
AcDbBlockTableRecord
  2
*D35
340
0
  0
ENDTAB
  0
ENDSEC
  0
SECTION
  2
BLOCKS
  0
BLOCK
  5
81BC
330
81BB
100
AcDbEntity
  8
0
100
AcDbBlockBegin
  2
*Model_Space
 70
     0
 10
0.0
 20
0.0
 30
0.0
  3
*Model_Space
  1

  0
ENDBLK
  5
81BD
330
81BB
100
AcDbEntity
  8
0
100
AcDbBlockEnd
  0
BLOCK
  5
81B8
330
81B7
100
AcDbEntity
 67
     1
  8
0
100
AcDbBlockBegin
  2
*Paper_Space
 70
     0
 10
0.0
 20
0.0
 30
0.0
  3
*Paper_Space
  1

  0
ENDBLK
  5
81B9
330
81B7
100
AcDbEntity
 67
     1
  8
0
100
AcDbBlockEnd
  0
BLOCK
  5
81CC
330
81CB
100
AcDbEntity
  8
0
100
AcDbBlockBegin
  2
$MODEL_SPACE
 70
     0
 10
0.0
 20
0.0
 30
0.0
  3
$MODEL_SPACE
  1

  0
ENDBLK
  5
1B
330
81CB
100
AcDbEntity
  8
0
100
AcDbBlockEnd
  0
BLOCK
  5
81CE
330
81CD
100
AcDbEntity
  8
0
100
AcDbBlockBegin
  2
$PAPER_SPACE
 70
     0
 10
0.0
 20
0.0
 30
0.0
  3
$PAPER_SPACE
  1

  0
ENDBLK
  5
18
330
81CD
100
AcDbEntity
  8
0
100
AcDbBlockEnd
  0
BLOCK
  5
81D0
330
81CF
100
AcDbEntity
  8
0
100
AcDbBlockBegin
  2
_OPEN
 70
     0
 10
0.0
 20
0.0
 30
0.0
  3
_OPEN
  1

  0
LINE
  5
79FD
330
81CF
100
AcDbEntity
  8
0
  6
ByBlock
 62
     0
100
AcDbLine
 10
-1.0
 20
0.1666666666666666
 30
0.0
 11
0.0
 21
0.0
 31
0.0
  0
LINE
  5
79FE
330
81CF
100
AcDbEntity
  8
0
  6
ByBlock
 62
     0
100
AcDbLine
 10
0.0
 20
0.0
 30
0.0
 11
-1.0
 21
-0.1666666666666666
 31
0.0
  0
LINE
  5
79FF
330
81CF
100
AcDbEntity
  8
0
  6
ByBlock
 62
     0
100
AcDbLine
 10
0.0
 20
0.0
 30
0.0
 11
-1.0
 21
0.0
 31
0.0
  0
ENDBLK
  5
7A01
330
81CF
100
AcDbEntity
  8
0
100
AcDbBlockEnd
  0
BLOCK
  5
81D2
330
81D1
100
AcDbEntity
  8
0
100
AcDbBlockBegin
  2
YA_N
 70
     0
 10
0.0
 20
0.0
 30
0.0
  3
YA_N
  1

  0
ENDBLK
  5
7A04
330
81D1
100
AcDbEntity
  8
0
100
AcDbBlockEnd
  0
BLOCK
  5
81D4
330
81D3
100
AcDbEntity
  8
0
100
AcDbBlockBegin
  2
*D4
 70
     1
 10
0.0
 20
0.0
 30
0.0
  3
*D4
  1

  0
LINE
  5
7E3E
330
81D3
100
AcDbEntity
  8
0
  6
ByBlock
100
AcDbLine
 10
2197.625114976839
 20
-445.9396971642539
 30
0.0
 11
2398.785211970981
 21
-445.9396971642539
 31
0.0
  0
LINE
  5
7E3F
330
81D3
100
AcDbEntity
  8
0
  6
ByBlock
100
AcDbLine
 10
2197.625114976839
 20
584.0603028357447
 30
0.0
 11
2398.785211970981
 21
584.0603028357447
 31
0.0
  0
LINE
  5
7E40
330
81D3
100
AcDbEntity
  8
0
  6
ByBlock
100
AcDbLine
 10
2368.785211970982
 20
-385.939697164254
 30
0.0
 11
2368.785211970982
 21
524.0603028357448
 31
0.0
  0
INSERT
  5
7E41
330
81D3
100
AcDbEntity
  8
0
  6
ByBlock
100
AcDbBlockReference
  2
_OPEN
 10
2368.785211970982
 20
-445.9396971642539
 30
0.0
 41
60.0
 42
60.0
 43
60.0
 50
270.0
  0
INSERT
  5
7E42
330
81D3
100
AcDbEntity
  8
0
  6
ByBlock
100
AcDbBlockReference
  2
_OPEN
 10
2368.785211970982
 20
584.0603028357447
 30
0.0
 41
60.0
 42
60.0
 43
60.0
 50
90.0
  0
TEXT
  5
7E43
330
81D3
100
AcDbEntity
  8
3
100
AcDbText
 10
2353.785211970981
 20
-80.93969716425453
 30
0.0
 40
90.0
  1
1030
 50
90.0
100
AcDbText
  0
POINT
  5
7E44
330
81D3
100
AcDbEntity
  8
DEFPOINTS
  6
ByBlock
 62
     0
100
AcDbPoint
 10
2167.625114976838
 20
-445.9396971642539
 30
0.0
  0
POINT
  5
7E45
330
81D3
100
AcDbEntity
  8
DEFPOINTS
  6
ByBlock
 62
     0
100
AcDbPoint
 10
2167.625114976839
 20
584.0603028357447
 30
0.0
  0
POINT
  5
7E46
330
81D3
100
AcDbEntity
  8
DEFPOINTS
  6
ByBlock
 62
     0
100
AcDbPoint
 10
2368.785211970982
 20
584.0603028357447
 30
0.0
  0
ENDBLK
  5
7E47
330
81D3
100
AcDbEntity
  8
0
100
AcDbBlockEnd
  0
BLOCK
  5
81D6
330
81D5
100
AcDbEntity
  8
0
100
AcDbBlockBegin
  2
*D5
 70
     1
 10
0.0
 20
0.0
 30
0.0
  3
*D5
  1

  0
LINE
  5
7E49
330
81D5
100
AcDbEntity
  8
0
  6
ByBlock
100
AcDbLine
 10
2197.625114976839
 20
-445.9396971642539
 30
0.0
 11
2599.587257430135
 21
-445.9396971642539
 31
0.0
  0
LINE
  5
7E4A
330
81D5
100
AcDbEntity
  8
0
  6
ByBlock
100
AcDbLine
 10
2257.241097474467
 20
628.0603028357453
 30
0.0
 11
2599.587257430135
 21
628.0603028357453
 31
0.0
  0
LINE
  5
7E4B
330
81D5
100
AcDbEntity
  8
0
  6
ByBlock
100
AcDbLine
 10
2569.587257430136
 20
-385.939697164254
 30
0.0
 11
2569.587257430136
 21
568.0603028357453
 31
0.0
  0
INSERT
  5
7E4C
330
81D5
100
AcDbEntity
  8
0
  6
ByBlock
100
AcDbBlockReference
  2
_OPEN
 10
2569.587257430136
 20
-445.9396971642539
 30
0.0
 41
60.0
 42
60.0
 43
60.0
 50
270.0
  0
INSERT
  5
7E4D
330
81D5
100
AcDbEntity
  8
0
  6
ByBlock
100
AcDbBlockReference
  2
_OPEN
 10
2569.587257430136
 20
628.0603028357453
 30
0.0
 41
60.0
 42
60.0
 43
60.0
 50
90.0
  0
TEXT
  5
7E4E
330
81D5
100
AcDbEntity
  8
3
100
AcDbText
 10
2554.587257430135
 20
-61.08255430711147
 30
0.0
 40
90.0
  1
1074
 50
90.0
100
AcDbText
  0
POINT
  5
7E4F
330
81D5
100
AcDbEntity
  8
DEFPOINTS
  6
ByBlock
 62
     0
100
AcDbPoint
 10
2167.625114976838
 20
-445.9396971642539
 30
0.0
  0
POINT
  5
7E50
330
81D5
100
AcDbEntity
  8
DEFPOINTS
  6
ByBlock
 62
     0
100
AcDbPoint
 10
2227.241097474466
 20
628.0603028357453
 30
0.0
  0
POINT
  5
7E51
330
81D5
100
AcDbEntity
  8
DEFPOINTS
  6
ByBlock
 62
     0
100
AcDbPoint
 10
2569.587257430136
 20
628.0603028357453
 30
0.0
  0
ENDBLK
  5
7E52
330
81D5
100
AcDbEntity
  8
0
100
AcDbBlockEnd
  0
BLOCK
  5
81D8
330
81D7
100
AcDbEntity
  8
0
100
AcDbBlockBegin
  2
*D6
 70
     1
 10
0.0
 20
0.0
 30
0.0
  3
*D6
  1

  0
LINE
  5
7E54
330
81D7
100
AcDbEntity
  8
0
  6
ByBlock
100
AcDbLine
 10
2167.625114976839
 20
633.9398566882286
 30
0.0
 11
2167.625114976839
 21
1583.964519529796
 31
0.0
  0
LINE
  5
7E55
330
81D7
100
AcDbEntity
  8
0
  6
ByBlock
100
AcDbLine
 10
1487.625114976837
 20
1421.105738527262
 30
0.0
 11
1487.625114976837
 21
1583.964519529796
 31
0.0
  0
LINE
  5
7E56
330
81D7
100
AcDbEntity
  8
0
  6
ByBlock
100
AcDbLine
 10
2107.625114976839
 20
1553.964519529796
 30
0.0
 11
1547.625114976837
 21
1553.964519529796
 31
0.0
  0
INSERT
  5
7E57
330
81D7
100
AcDbEntity
  8
0
  6
ByBlock
100
AcDbBlockReference
  2
_OPEN
 10
2167.625114976839
 20
1553.964519529796
 30
0.0
 41
60.0
 42
60.0
 43
60.0
  0
INSERT
  5
7E58
330
81D7
100
AcDbEntity
  8
0
  6
ByBlock
100
AcDbBlockReference
  2
_OPEN
 10
1487.625114976837
 20
1553.964519529796
 30
0.0
 41
60.0
 42
60.0
 43
60.0
 50
180.0
  0
TEXT
  5
7E59
330
81D7
100
AcDbEntity
  8
3
100
AcDbText
 10
1711.910829262553
 20
1568.964519529796
 30
0.0
 40
90.0
  1
680
100
AcDbText
  0
POINT
  5
7E5A
330
81D7
100
AcDbEntity
  8
DEFPOINTS
  6
ByBlock
 62
     0
100
AcDbPoint
 10
2167.625114976839
 20
603.9398566882288
 30
0.0
  0
POINT
  5
7E5B
330
81D7
100
AcDbEntity
  8
DEFPOINTS
  6
ByBlock
 62
     0
100
AcDbPoint
 10
1487.625114976837
 20
1391.105738527262
 30
0.0
  0
POINT
  5
7E5C
330
81D7
100
AcDbEntity
  8
DEFPOINTS
  6
ByBlock
 62
     0
100
AcDbPoint
 10
1487.625114976837
 20
1553.964519529796
 30
0.0
  0
ENDBLK
  5
7E5D
330
81D7
100
AcDbEntity
  8
0
100
AcDbBlockEnd
  0
BLOCK
  5
81DA
330
81D9
100
AcDbEntity
  8
0
100
AcDbBlockBegin
  2
*D7
 70
     1
 10
0.0
 20
0.0
 30
0.0
  3
*D7
  1

  0
LINE
  5
7E5F
330
81D9
100
AcDbEntity
  8
0
  6
ByBlock
100
AcDbLine
 10
1487.625114976837
 20
1421.105738527262
 30
0.0
 11
1487.625114976837
 21
1583.50681959488
 31
0.0
  0
LINE
  5
7E60
330
81D9
100
AcDbEntity
  8
0
  6
ByBlock
100
AcDbLine
 10
623.0809985608106
 20
658.0603028357444
 30
0.0
 11
623.0809985608106
 21
1583.50681959488
 31
0.0
  0
LINE
  5
7E61
330
81D9
100
AcDbEntity
  8
0
  6
ByBlock
100
AcDbLine
 10
1427.625114976837
 20
1553.50681959488
 30
0.0
 11
683.0809985608108
 21
1553.50681959488
 31
0.0
  0
INSERT
  5
7E62
330
81D9
100
AcDbEntity
  8
0
  6
ByBlock
100
AcDbBlockReference
  2
_OPEN
 10
1487.625114976837
 20
1553.50681959488
 30
0.0
 41
60.0
 42
60.0
 43
60.0
  0
INSERT
  5
7E63
330
81D9
100
AcDbEntity
  8
0
  6
ByBlock
100
AcDbBlockReference
  2
_OPEN
 10
623.0809985608106
 20
1553.50681959488
 30
0.0
 41
60.0
 42
60.0
 43
60.0
 50
180.0
  0
TEXT
  5
7E64
330
81D9
100
AcDbEntity
  8
3
100
AcDbText
 10
939.6387710545385
 20
1568.50681959488
 30
0.0
 40
90.0
  1
868
100
AcDbText
  0
POINT
  5
7E65
330
81D9
100
AcDbEntity
  8
DEFPOINTS
  6
ByBlock
 62
     0
100
AcDbPoint
 10
1487.625114976837
 20
1391.105738527262
 30
0.0
  0
POINT
  5
7E66
330
81D9
100
AcDbEntity
  8
DEFPOINTS
  6
ByBlock
 62
     0
100
AcDbPoint
 10
623.0809985608106
 20
628.0603028357444
 30
0.0
  0
POINT
  5
7E67
330
81D9
100
AcDbEntity
  8
DEFPOINTS
  6
ByBlock
 62
     0
100
AcDbPoint
 10
623.0809985608106
 20
1553.50681959488
 30
0.0
  0
ENDBLK
  5
7E68
330
81D9
100
AcDbEntity
  8
0
100
AcDbBlockEnd
  0
BLOCK
  5
81DC
330
81DB
100
AcDbEntity
  8
0
100
AcDbBlockBegin
  2
*D8
 70
     1
 10
0.0
 20
0.0
 30
0.0
  3
*D8
  1

  0
LINE
  5
7EAC
330
81DB
100
AcDbEntity
  8
0
  6
ByBlock
100
AcDbLine
 10
862.6251149768394
 20
4406.031599361241
 30
0.0
 11
862.6251149768394
 21
4627.335536588958
 31
0.0
  0
LINE
  5
7EAD
330
81DB
100
AcDbEntity
  8
0
  6
ByBlock
100
AcDbLine
 10
2112.625114976839
 20
4406.031599361237
 30
0.0
 11
2112.625114976839
 21
4627.335536588958
 31
0.0
  0
LINE
  5
7EAE
330
81DB
100
AcDbEntity
  8
0
  6
ByBlock
100
AcDbLine
 10
922.6251149768396
 20
4597.335536588958
 30
0.0
 11
2052.625114976839
 21
4597.335536588958
 31
0.0
  0
INSERT
  5
7EAF
330
81DB
100
AcDbEntity
  8
0
  6
ByBlock
100
AcDbBlockReference
  2
_OPEN
 10
862.6251149768394
 20
4597.335536588958
 30
0.0
 41
60.0
 42
60.0
 43
60.0
 50
180.0
  0
INSERT
  5
7EB0
330
81DB
100
AcDbEntity
  8
0
  6
ByBlock
100
AcDbBlockReference
  2
_OPEN
 10
2112.625114976839
 20
4597.335536588958
 30
0.0
 41
60.0
 42
60.0
 43
60.0
  0
TEXT
  5
7EB1
330
81DB
100
AcDbEntity
  8
3
100
AcDbText
 10
1337.625114976839
 20
4612.335536588958
 30
0.0
 40
90.0
  1
1250
100
AcDbText
  0
POINT
  5
7EB2
330
81DB
100
AcDbEntity
  8
DEFPOINTS
  6
ByBlock
 62
     0
100
AcDbPoint
 10
862.6251149768394
 20
4376.031599361239
 30
0.0
  0
POINT
  5
7EB3
330
81DB
100
AcDbEntity
  8
DEFPOINTS
  6
ByBlock
 62
     0
100
AcDbPoint
 10
2112.625114976839
 20
4376.031599361239
 30
0.0
  0
POINT
  5
7EB4
330
81DB
100
AcDbEntity
  8
DEFPOINTS
  6
ByBlock
 62
     0
100
AcDbPoint
 10
2112.625114976839
 20
4597.335536588958
 30
0.0
  0
ENDBLK
  5
7EB5
330
81DB
100
AcDbEntity
  8
0
100
AcDbBlockEnd
  0
BLOCK
  5
81DE
330
81DD
100
AcDbEntity
  8
0
100
AcDbBlockBegin
  2
*D9
 70
     1
 10
0.0
 20
0.0
 30
0.0
  3
*D9
  1

  0
LINE
  5
7EB7
330
81DD
100
AcDbEntity
  8
0
  6
ByBlock
100
AcDbLine
 10
62.62511497683954
 20
2841.031599361241
 30
0.0
 11
62.62511497683954
 21
2552.481475534663
 31
0.0
  0
LINE
  5
7EB8
330
81DD
100
AcDbEntity
  8
0
  6
ByBlock
100
AcDbLine
 10
2112.625114976839
 20
2841.031599361238
 30
0.0
 11
2112.625114976839
 21
2552.481475534663
 31
0.0
  0
LINE
  5
7EB9
330
81DD
100
AcDbEntity
  8
0
  6
ByBlock
100
AcDbLine
 10
122.6251149768395
 20
2582.481475534663
 30
0.0
 11
2052.625114976839
 21
2582.481475534663
 31
0.0
  0
INSERT
  5
7EBA
330
81DD
100
AcDbEntity
  8
0
  6
ByBlock
100
AcDbBlockReference
  2
_OPEN
 10
62.62511497683954
 20
2582.481475534663
 30
0.0
 41
60.0
 42
60.0
 43
60.0
 50
180.0
  0
INSERT
  5
7EBB
330
81DD
100
AcDbEntity
  8
0
  6
ByBlock
100
AcDbBlockReference
  2
_OPEN
 10
2112.625114976839
 20
2582.481475534663
 30
0.0
 41
60.0
 42
60.0
 43
60.0
  0
TEXT
  5
7EBC
330
81DD
100
AcDbEntity
  8
3
100
AcDbText
 10
929.0536864054109
 20
2597.481475534663
 30
0.0
 40
90.0
  1
2050
100
AcDbText
  0
POINT
  5
7EBD
330
81DD
100
AcDbEntity
  8
DEFPOINTS
  6
ByBlock
 62
     0
100
AcDbPoint
 10
62.62511497683954
 20
2871.03159936124
 30
0.0
  0
POINT
  5
7EBE
330
81DD
100
AcDbEntity
  8
DEFPOINTS
  6
ByBlock
 62
     0
100
AcDbPoint
 10
2112.625114976839
 20
2871.031599361238
 30
0.0
  0
POINT
  5
7EBF
330
81DD
100
AcDbEntity
  8
DEFPOINTS
  6
ByBlock
 62
     0
100
AcDbPoint
 10
2112.625114976839
 20
2582.481475534663
 30
0.0
  0
ENDBLK
  5
7EC0
330
81DD
100
AcDbEntity
  8
0
100
AcDbBlockEnd
  0
BLOCK
  5
81E0
330
81DF
100
AcDbEntity
  8
0
100
AcDbBlockBegin
  2
*D10
 70
     1
 10
0.0
 20
0.0
 30
0.0
  3
*D10
  1

  0
LINE
  5
7FC7
330
81DF
100
AcDbEntity
  8
0
  6
ByBlock
100
AcDbLine
 10
640.1508127990999
 20
5948.670042865877
 30
0.0
 11
481.4679841412834
 21
5948.670042865877
 31
0.0
  0
LINE
  5
7FC8
330
81DF
100
AcDbEntity
  8
0
  6
ByBlock
100
AcDbLine
 10
640.1508127990999
 20
5098.670042865875
 30
0.0
 11
481.4679841412834
 21
5098.670042865875
 31
0.0
  0
LINE
  5
7FC9
330
81DF
100
AcDbEntity
  8
0
  6
ByBlock
100
AcDbLine
 10
511.4679841412835
 20
5888.670042865877
 30
0.0
 11
511.4679841412835
 21
5158.670042865875
 31
0.0
  0
INSERT
  5
7FCA
330
81DF
100
AcDbEntity
  8
0
  6
ByBlock
100
AcDbBlockReference
  2
_OPEN
 10
511.4679841412835
 20
5948.670042865877
 30
0.0
 41
60.0
 42
60.0
 43
60.0
 50
90.0
  0
INSERT
  5
7FCB
330
81DF
100
AcDbEntity
  8
0
  6
ByBlock
100
AcDbBlockReference
  2
_OPEN
 10
511.4679841412835
 20
5098.670042865875
 30
0.0
 41
60.0
 42
60.0
 43
60.0
 50
270.0
  0
TEXT
  5
7FCC
330
81DF
100
AcDbEntity
  8
3
100
AcDbText
 10
496.4679841412834
 20
5407.95575715159
 30
0.0
 40
90.0
  1
850
 50
90.0
100
AcDbText
  0
POINT
  5
7FCD
330
81DF
100
AcDbEntity
  8
DEFPOINTS
  6
ByBlock
 62
     0
100
AcDbPoint
 10
670.1508127991001
 20
5948.670042865877
 30
0.0
  0
POINT
  5
7FCE
330
81DF
100
AcDbEntity
  8
DEFPOINTS
  6
ByBlock
 62
     0
100
AcDbPoint
 10
670.1508127991001
 20
5098.670042865875
 30
0.0
  0
POINT
  5
7FCF
330
81DF
100
AcDbEntity
  8
DEFPOINTS
  6
ByBlock
 62
     0
100
AcDbPoint
 10
511.4679841412835
 20
5098.670042865875
 30
0.0
  0
ENDBLK
  5
7FD0
330
81DF
100
AcDbEntity
  8
0
100
AcDbBlockEnd
  0
BLOCK
  5
81E2
330
81E1
100
AcDbEntity
  8
0
100
AcDbBlockBegin
  2
*D11
 70
     1
 10
0.0
 20
0.0
 30
0.0
  3
*D11
  1

  0
LINE
  5
7ECD
330
81E1
100
AcDbEntity
  8
0
  6
ByBlock
100
AcDbLine
 10
2142.625114976839
 20
4376.031599361239
 30
0.0
 11
2541.269252985774
 21
4376.031599361239
 31
0.0
  0
LINE
  5
7ECE
330
81E1
100
AcDbEntity
  8
0
  6
ByBlock
100
AcDbLine
 10
2142.625114976839
 20
2871.031599361238
 30
0.0
 11
2541.269252985774
 21
2871.031599361238
 31
0.0
  0
LINE
  5
7ECF
330
81E1
100
AcDbEntity
  8
0
  6
ByBlock
100
AcDbLine
 10
2511.269252985774
 20
4316.031599361237
 30
0.0
 11
2511.269252985774
 21
2931.031599361238
 31
0.0
  0
INSERT
  5
7ED0
330
81E1
100
AcDbEntity
  8
0
  6
ByBlock
100
AcDbBlockReference
  2
_OPEN
 10
2511.269252985774
 20
4376.031599361239
 30
0.0
 41
60.0
 42
60.0
 43
60.0
 50
90.0
  0
INSERT
  5
7ED1
330
81E1
100
AcDbEntity
  8
0
  6
ByBlock
100
AcDbBlockReference
  2
_OPEN
 10
2511.269252985774
 20
2871.031599361238
 30
0.0
 41
60.0
 42
60.0
 43
60.0
 50
270.0
  0
TEXT
  5
7ED2
330
81E1
100
AcDbEntity
  8
3
100
AcDbText
 10
2496.269252985774
 20
3473.531599361239
 30
0.0
 40
90.0
  1
1505
 50
90.0
100
AcDbText
  0
POINT
  5
7ED3
330
81E1
100
AcDbEntity
  8
DEFPOINTS
  6
ByBlock
 62
     0
100
AcDbPoint
 10
2112.625114976839
 20
4376.031599361239
 30
0.0
  0
POINT
  5
7ED4
330
81E1
100
AcDbEntity
  8
DEFPOINTS
  6
ByBlock
 62
     0
100
AcDbPoint
 10
2112.625114976839
 20
2871.031599361238
 30
0.0
  0
POINT
  5
7ED5
330
81E1
100
AcDbEntity
  8
DEFPOINTS
  6
ByBlock
 62
     0
100
AcDbPoint
 10
2511.269252985774
 20
2871.031599361238
 30
0.0
  0
ENDBLK
  5
7ED6
330
81E1
100
AcDbEntity
  8
0
100
AcDbBlockEnd
  0
BLOCK
  5
81E4
330
81E3
100
AcDbEntity
  8
0
100
AcDbBlockBegin
  2
*D12
 70
     1
 10
0.0
 20
0.0
 30
0.0
  3
*D12
  1

  0
LINE
  5
8018
330
81E3
100
AcDbEntity
  8
0
  6
ByBlock
100
AcDbLine
 10
3953.843106282491
 20
3688.149543488601
 30
0.0
 11
3953.843106282491
 21
4581.672177957076
 31
0.0
  0
LINE
  5
8019
330
81E3
100
AcDbEntity
  8
0
  6
ByBlock
100
AcDbLine
 10
4921.343106282495
 20
4509.943146563347
 30
0.0
 11
4921.343106282495
 21
4581.672177957076
 31
0.0
  0
LINE
  5
801A
330
81E3
100
AcDbEntity
  8
0
  6
ByBlock
100
AcDbLine
 10
4013.84310628249
 20
4551.672177957076
 30
0.0
 11
4861.343106282496
 21
4551.672177957076
 31
0.0
  0
INSERT
  5
801B
330
81E3
100
AcDbEntity
  8
0
  6
ByBlock
100
AcDbBlockReference
  2
_OPEN
 10
3953.843106282491
 20
4551.672177957076
 30
0.0
 41
60.0
 42
60.0
 43
60.0
 50
180.0
  0
INSERT
  5
801C
330
81E3
100
AcDbEntity
  8
0
  6
ByBlock
100
AcDbBlockReference
  2
_OPEN
 10
4921.343106282495
 20
4551.672177957076
 30
0.0
 41
60.0
 42
60.0
 43
60.0
  0
INSERT
  5
801D
330
81E3
100
AcDbEntity
  8
3
100
AcDbBlockReference
  2
*U13
 10
0.0
 20
0.0
 30
0.0
  0
POINT
  5
801E
330
81E3
100
AcDbEntity
  8
DEFPOINTS
  6
ByBlock
 62
     0
100
AcDbPoint
 10
3953.843106282491
 20
3658.149543488601
 30
0.0
  0
POINT
  5
801F
330
81E3
100
AcDbEntity
  8
DEFPOINTS
  6
ByBlock
 62
     0
100
AcDbPoint
 10
4921.343106282495
 20
4479.943146563345
 30
0.0
  0
POINT
  5
8020
330
81E3
100
AcDbEntity
  8
DEFPOINTS
  6
ByBlock
 62
     0
100
AcDbPoint
 10
4921.343106282495
 20
4551.672177957076
 30
0.0
  0
ENDBLK
  5
8021
330
81E3
100
AcDbEntity
  8
0
100
AcDbBlockEnd
  0
BLOCK
  5
8206
330
81E5
100
AcDbEntity
  8
0
100
AcDbBlockBegin
  2
*U13
 70
     1
 10
0.0
 20
0.0
 30
0.0
  3
*U13
  1

  0
TEXT
  5
8148
330
81E5
100
AcDbEntity
  8
3
100
AcDbText
 10
4309.021677711063
 20
4716.672177957076
 30
0.0
 40
90.0
  1
MAX
100
AcDbText
  0
TEXT
  5
8149
330
81E5
100
AcDbEntity
  8
3
100
AcDbText
 10
4287.593106282493
 20
4566.672177957076
 30
0.0
 40
90.0
  1
1020
100
AcDbText
  0
ENDBLK
  5
814B
330
81E5
100
AcDbEntity
  8
0
100
AcDbBlockEnd
  0
BLOCK
  5
81E7
330
81E6
100
AcDbEntity
  8
0
100
AcDbBlockBegin
  2
*D14
 70
     1
 10
0.0
 20
0.0
 30
0.0
  3
*D14
  1

  0
LINE
  5
8023
330
81E6
100
AcDbEntity
  8
0
  6
ByBlock
100
AcDbLine
 10
4921.343106282495
 20
4509.943146563347
 30
0.0
 11
4921.343106282495
 21
4581.672177957076
 31
0.0
  0
LINE
  5
8024
330
81E6
100
AcDbEntity
  8
0
  6
ByBlock
100
AcDbLine
 10
5689.3431062825
 20
3372.349543488601
 30
0.0
 11
5689.3431062825
 21
4581.672177957076
 31
0.0
  0
LINE
  5
8025
330
81E6
100
AcDbEntity
  8
0
  6
ByBlock
100
AcDbLine
 10
4981.343106282496
 20
4551.672177957076
 30
0.0
 11
5629.343106282498
 21
4551.672177957076
 31
0.0
  0
INSERT
  5
8026
330
81E6
100
AcDbEntity
  8
0
  6
ByBlock
100
AcDbBlockReference
  2
_OPEN
 10
4921.343106282495
 20
4551.672177957076
 30
0.0
 41
60.0
 42
60.0
 43
60.0
 50
180.0
  0
INSERT
  5
8027
330
81E6
100
AcDbEntity
  8
0
  6
ByBlock
100
AcDbBlockReference
  2
_OPEN
 10
5689.3431062825
 20
4551.672177957076
 30
0.0
 41
60.0
 42
60.0
 43
60.0
  0
TEXT
  5
8028
330
81E6
100
AcDbEntity
  8
3
100
AcDbText
 10
5131.771677711069
 20
4605.243606528506
 30
0.0
 40
90.0
  1
(780)
100
AcDbText
  0
POINT
  5
8029
330
81E6
100
AcDbEntity
  8
DEFPOINTS
  6
ByBlock
 62
     0
100
AcDbPoint
 10
4921.343106282495
 20
4479.943146563345
 30
0.0
  0
POINT
  5
802A
330
81E6
100
AcDbEntity
  8
DEFPOINTS
  6
ByBlock
 62
     0
100
AcDbPoint
 10
5689.3431062825
 20
3342.349543488602
 30
0.0
  0
POINT
  5
802B
330
81E6
100
AcDbEntity
  8
DEFPOINTS
  6
ByBlock
 62
     0
100
AcDbPoint
 10
5689.3431062825
 20
4551.672177957076
 30
0.0
  0
ENDBLK
  5
802C
330
81E6
100
AcDbEntity
  8
0
100
AcDbBlockEnd
  0
BLOCK
  5
81E9
330
81E8
100
AcDbEntity
  8
0
100
AcDbBlockBegin
  2
*D15
 70
     1
 10
0.0
 20
0.0
 30
0.0
  3
*D15
  1

  0
LINE
  5
7EEE
330
81E8
100
AcDbEntity
  8
0
  6
ByBlock
100
AcDbLine
 10
4259.104621073492
 20
1352.374620489381
 30
0.0
 11
4259.104621073492
 21
1632.055054257674
 31
0.0
  0
LINE
  5
7EEF
330
81E8
100
AcDbEntity
  8
0
  6
ByBlock
100
AcDbLine
 10
5509.104621073492
 20
1349.096068293924
 30
0.0
 11
5509.104621073492
 21
1632.055054257674
 31
0.0
  0
LINE
  5
7EF0
330
81E8
100
AcDbEntity
  8
0
  6
ByBlock
100
AcDbLine
 10
4319.104621073492
 20
1602.055054257674
 30
0.0
 11
5449.104621073495
 21
1602.055054257674
 31
0.0
  0
INSERT
  5
7EF1
330
81E8
100
AcDbEntity
  8
0
  6
ByBlock
100
AcDbBlockReference
  2
_OPEN
 10
4259.104621073492
 20
1602.055054257674
 30
0.0
 41
60.0
 42
60.0
 43
60.0
 50
180.0
  0
INSERT
  5
7EF2
330
81E8
100
AcDbEntity
  8
0
  6
ByBlock
100
AcDbBlockReference
  2
_OPEN
 10
5509.104621073492
 20
1602.055054257674
 30
0.0
 41
60.0
 42
60.0
 43
60.0
  0
TEXT
  5
7EF3
330
81E8
100
AcDbEntity
  8
3
100
AcDbText
 10
4734.104621073493
 20
1617.055054257674
 30
0.0
 40
90.0
  1
1250
100
AcDbText
  0
POINT
  5
7EF4
330
81E8
100
AcDbEntity
  8
DEFPOINTS
  6
ByBlock
 62
     0
100
AcDbPoint
 10
4259.104621073492
 20
1322.374620489382
 30
0.0
  0
POINT
  5
7EF5
330
81E8
100
AcDbEntity
  8
DEFPOINTS
  6
ByBlock
 62
     0
100
AcDbPoint
 10
5509.104621073492
 20
1319.096068293924
 30
0.0
  0
POINT
  5
7EF6
330
81E8
100
AcDbEntity
  8
DEFPOINTS
  6
ByBlock
 62
     0
100
AcDbPoint
 10
5509.104621073492
 20
1602.055054257674
 30
0.0
  0
ENDBLK
  5
7EF7
330
81E8
100
AcDbEntity
  8
0
100
AcDbBlockEnd
  0
BLOCK
  5
81EB
330
81EA
100
AcDbEntity
  8
0
100
AcDbBlockBegin
  2
*D16
 70
     1
 10
0.0
 20
0.0
 30
0.0
  3
*D16
  1

  0
LINE
  5
7EF9
330
81EA
100
AcDbEntity
  8
0
  6
ByBlock
100
AcDbLine
 10
5544.604621073492
 20
98.06030283574637
 30
0.0
 11
5883.472841444802
 21
98.06030283574637
 31
0.0
  0
LINE
  5
7EFA
330
81EA
100
AcDbEntity
  8
0
  6
ByBlock
100
AcDbLine
 10
5544.604621073492
 20
1158.060302835746
 30
0.0
 11
5883.472841444802
 21
1158.060302835746
 31
0.0
  0
LINE
  5
7EFB
330
81EA
100
AcDbEntity
  8
0
  6
ByBlock
100
AcDbLine
 10
5853.472841444804
 20
158.0603028357463
 30
0.0
 11
5853.472841444804
 21
1098.060302835746
 31
0.0
  0
INSERT
  5
7EFC
330
81EA
100
AcDbEntity
  8
0
  6
ByBlock
100
AcDbBlockReference
  2
_OPEN
 10
5853.472841444804
 20
98.06030283574637
 30
0.0
 41
60.0
 42
60.0
 43
60.0
 50
270.0
  0
INSERT
  5
7EFD
330
81EA
100
AcDbEntity
  8
0
  6
ByBlock
100
AcDbBlockReference
  2
_OPEN
 10
5853.472841444804
 20
1158.060302835746
 30
0.0
 41
60.0
 42
60.0
 43
60.0
 50
90.0
  0
TEXT
  5
7EFE
330
81EA
100
AcDbEntity
  8
3
100
AcDbText
 10
5838.472841444802
 20
433.0603028357463
 30
0.0
 40
90.0
  1
\U+03C61060
 50
90.0
100
AcDbText
  0
POINT
  5
7EFF
330
81EA
100
AcDbEntity
  8
DEFPOINTS
  6
ByBlock
 62
     0
100
AcDbPoint
 10
5514.604621073492
 20
98.06030283574637
 30
0.0
  0
POINT
  5
7F00
330
81EA
100
AcDbEntity
  8
DEFPOINTS
  6
ByBlock
 62
     0
100
AcDbPoint
 10
5514.604621073492
 20
1158.060302835746
 30
0.0
  0
POINT
  5
7F01
330
81EA
100
AcDbEntity
  8
DEFPOINTS
  6
ByBlock
 62
     0
100
AcDbPoint
 10
5853.472841444804
 20
1158.060302835746
 30
0.0
  0
ENDBLK
  5
7F02
330
81EA
100
AcDbEntity
  8
0
100
AcDbBlockEnd
  0
BLOCK
  5
81ED
330
81EC
100
AcDbEntity
  8
0
100
AcDbBlockBegin
  2
*D17
 70
     1
 10
0.0
 20
0.0
 30
0.0
  3
*D17
  1

  0
LINE
  5
7F04
330
81EC
100
AcDbEntity
  8
0
  6
ByBlock
100
AcDbLine
 10
2167.625114976839
 20
633.9398566882286
 30
0.0
 11
2167.625114976839
 21
1763.351022905701
 31
0.0
  0
LINE
  5
7F05
330
81EC
100
AcDbEntity
  8
0
  6
ByBlock
100
AcDbLine
 10
62.62511497683928
 20
-451.9396971642548
 30
0.0
 11
62.62511497683928
 21
1763.351022905701
 31
0.0
  0
LINE
  5
7F06
330
81EC
100
AcDbEntity
  8
0
  6
ByBlock
100
AcDbLine
 10
2107.625114976839
 20
1733.351022905701
 30
0.0
 11
122.6251149768392
 21
1733.351022905701
 31
0.0
  0
INSERT
  5
7F07
330
81EC
100
AcDbEntity
  8
0
  6
ByBlock
100
AcDbBlockReference
  2
_OPEN
 10
2167.625114976839
 20
1733.351022905701
 30
0.0
 41
60.0
 42
60.0
 43
60.0
  0
INSERT
  5
7F08
330
81EC
100
AcDbEntity
  8
0
  6
ByBlock
100
AcDbBlockReference
  2
_OPEN
 10
62.62511497683928
 20
1733.351022905701
 30
0.0
 41
60.0
 42
60.0
 43
60.0
 50
180.0
  0
TEXT
  5
7F09
330
81EC
100
AcDbEntity
  8
3
100
AcDbText
 10
965.1251149768393
 20
1748.351022905701
 30
0.0
 40
90.0
  1
2105
100
AcDbText
  0
POINT
  5
7F0A
330
81EC
100
AcDbEntity
  8
DEFPOINTS
  6
ByBlock
 62
     0
100
AcDbPoint
 10
2167.625114976839
 20
603.9398566882288
 30
0.0
  0
POINT
  5
7F0B
330
81EC
100
AcDbEntity
  8
DEFPOINTS
  6
ByBlock
 62
     0
100
AcDbPoint
 10
62.62511497683928
 20
-481.9396971642547
 30
0.0
  0
POINT
  5
7F0C
330
81EC
100
AcDbEntity
  8
DEFPOINTS
  6
ByBlock
 62
     0
100
AcDbPoint
 10
62.62511497683928
 20
1733.351022905701
 30
0.0
  0
ENDBLK
  5
7F0D
330
81EC
100
AcDbEntity
  8
0
100
AcDbBlockEnd
  0
BLOCK
  5
81EF
330
81EE
100
AcDbEntity
  8
0
100
AcDbBlockBegin
  2
*D18
 70
     1
 10
0.0
 20
0.0
 30
0.0
  3
*D18
  1

  0
LINE
  5
7F0F
330
81EE
100
AcDbEntity
  8
0
  6
ByBlock
100
AcDbLine
 10
862.6251149768394
 20
4406.031599361241
 30
0.0
 11
862.6251149768394
 21
4627.335536588958
 31
0.0
  0
LINE
  5
7F10
330
81EE
100
AcDbEntity
  8
0
  6
ByBlock
100
AcDbLine
 10
62.62511497683954
 20
3751.03159936124
 30
0.0
 11
62.62511497683954
 21
4627.335536588958
 31
0.0
  0
LINE
  5
7F11
330
81EE
100
AcDbEntity
  8
0
  6
ByBlock
100
AcDbLine
 10
802.6251149768395
 20
4597.335536588958
 30
0.0
 11
122.6251149768395
 21
4597.335536588958
 31
0.0
  0
INSERT
  5
7F12
330
81EE
100
AcDbEntity
  8
0
  6
ByBlock
100
AcDbBlockReference
  2
_OPEN
 10
862.6251149768394
 20
4597.335536588958
 30
0.0
 41
60.0
 42
60.0
 43
60.0
  0
INSERT
  5
7F13
330
81EE
100
AcDbEntity
  8
0
  6
ByBlock
100
AcDbBlockReference
  2
_OPEN
 10
62.62511497683954
 20
4597.335536588958
 30
0.0
 41
60.0
 42
60.0
 43
60.0
 50
180.0
  0
TEXT
  5
7F14
330
81EE
100
AcDbEntity
  8
3
100
AcDbText
 10
346.9108292625538
 20
4612.335536588958
 30
0.0
 40
90.0
  1
800
100
AcDbText
  0
POINT
  5
7F15
330
81EE
100
AcDbEntity
  8
DEFPOINTS
  6
ByBlock
 62
     0
100
AcDbPoint
 10
862.6251149768394
 20
4376.031599361239
 30
0.0
  0
POINT
  5
7F16
330
81EE
100
AcDbEntity
  8
DEFPOINTS
  6
ByBlock
 62
     0
100
AcDbPoint
 10
62.62511497683954
 20
3721.031599361241
 30
0.0
  0
POINT
  5
7F17
330
81EE
100
AcDbEntity
  8
DEFPOINTS
  6
ByBlock
 62
     0
100
AcDbPoint
 10
62.62511497683954
 20
4597.335536588958
 30
0.0
  0
ENDBLK
  5
7F18
330
81EE
100
AcDbEntity
  8
0
100
AcDbBlockEnd
  0
BLOCK
  5
81F1
330
81F0
100
AcDbEntity
  8
0
100
AcDbBlockBegin
  2
*D19
 70
     1
 10
0.0
 20
0.0
 30
0.0
  3
*D19
  1

  0
LINE
  5
7F1A
330
81F0
100
AcDbEntity
  8
0
  6
ByBlock
100
AcDbLine
 10
1443.625114976839
 20
1348.060302835746
 30
0.0
 11
2838.796582735678
 21
1348.060302835746
 31
0.0
  0
LINE
  5
7F1B
330
81F0
100
AcDbEntity
  8
0
  6
ByBlock
100
AcDbLine
 10
2257.241097474467
 20
628.0603028357453
 30
0.0
 11
2838.796582735678
 21
628.0603028357453
 31
0.0
  0
LINE
  5
7F1C
330
81F0
100
AcDbEntity
  8
0
  6
ByBlock
100
AcDbLine
 10
2808.796582735677
 20
1288.060302835746
 30
0.0
 11
2808.796582735677
 21
688.0603028357453
 31
0.0
  0
INSERT
  5
7F1D
330
81F0
100
AcDbEntity
  8
0
  6
ByBlock
100
AcDbBlockReference
  2
_OPEN
 10
2808.796582735677
 20
1348.060302835746
 30
0.0
 41
60.0
 42
60.0
 43
60.0
 50
90.0
  0
INSERT
  5
7F1E
330
81F0
100
AcDbEntity
  8
0
  6
ByBlock
100
AcDbBlockReference
  2
_OPEN
 10
2808.796582735677
 20
628.0603028357453
 30
0.0
 41
60.0
 42
60.0
 43
60.0
 50
270.0
  0
TEXT
  5
7F1F
330
81F0
100
AcDbEntity
  8
3
100
AcDbText
 10
2793.796582735678
 20
872.3460171214604
 30
0.0
 40
90.0
  1
720
 50
90.0
100
AcDbText
  0
POINT
  5
7F20
330
81F0
100
AcDbEntity
  8
DEFPOINTS
  6
ByBlock
 62
     0
100
AcDbPoint
 10
1413.62511497684
 20
1348.060302835746
 30
0.0
  0
POINT
  5
7F21
330
81F0
100
AcDbEntity
  8
DEFPOINTS
  6
ByBlock
 62
     0
100
AcDbPoint
 10
2227.241097474466
 20
628.0603028357453
 30
0.0
  0
POINT
  5
7F22
330
81F0
100
AcDbEntity
  8
DEFPOINTS
  6
ByBlock
 62
     0
100
AcDbPoint
 10
2808.796582735677
 20
628.0603028357453
 30
0.0
  0
ENDBLK
  5
7F23
330
81F0
100
AcDbEntity
  8
0
100
AcDbBlockEnd
  0
BLOCK
  5
81F3
330
81F2
100
AcDbEntity
  8
0
100
AcDbBlockBegin
  2
*D20
 70
     1
 10
0.0
 20
0.0
 30
0.0
  3
*D20
  1

  0
LINE
  5
813C
330
81F2
100
AcDbEntity
  8
3
100
AcDbLine
 10
2750.1508127991
 20
2168.149543488601
 30
0.0
 11
3446.322280557939
 21
2168.1495434886
 31
0.0
  0
LINE
  5
813D
330
81F2
100
AcDbEntity
  8
3
100
AcDbLine
 10
3416.322280557939
 20
3318.1495434886
 30
0.0
 11
3416.322280557938
 21
2228.149543488601
 31
0.0
  0
INSERT
  5
813E
330
81F2
100
AcDbEntity
  8
3
100
AcDbBlockReference
  2
_OPEN
 10
3416.322280557939
 20
3378.149543488599
 30
0.0
 41
60.0
 42
60.0
 43
60.0
 50
90.0
  0
INSERT
  5
813F
330
81F2
100
AcDbEntity
  8
3
100
AcDbBlockReference
  2
_OPEN
 10
3416.322280557938
 20
2168.1495434886
 30
0.0
 41
60.0
 42
60.0
 43
60.0
 50
270.0
  0
TEXT
  5
814C
330
81F2
100
AcDbEntity
  8
3
100
AcDbText
 10
3176.32
 20
2613.85
 30
0.0
 40
90.0
  1
1210
100
AcDbText
  0
POINT
  5
8141
330
81F2
100
AcDbEntity
  8
DEFPOINTS
 62
     0
100
AcDbPoint
 10
2834.766795296728
 20
3378.1495434886
 30
0.0
  0
POINT
  5
8142
330
81F2
100
AcDbEntity
  8
DEFPOINTS
 62
     0
100
AcDbPoint
 10
2720.150812799099
 20
2168.149543488601
 30
0.0
  0
POINT
  5
8143
330
81F2
100
AcDbEntity
  8
DEFPOINTS
 62
     0
100
AcDbPoint
 10
3416.322280557938
 20
2168.1495434886
 30
0.0
  0
ENDBLK
  5
7F2D
330
81F2
100
AcDbEntity
  8
0
100
AcDbBlockEnd
  0
BLOCK
  5
81F5
330
81F4
100
AcDbEntity
  8
0
100
AcDbBlockBegin
  2
*D21
 70
     1
 10
0.0
 20
0.0
 30
0.0
  3
*D21
  1

  0
LINE
  5
7F93
330
81F4
100
AcDbEntity
  8
0
  6
ByBlock
100
AcDbLine
 10
2750.1508127991
 20
2149.149543488601
 30
0.0
 11
3446.322280557939
 21
2149.149543488601
 31
0.0
  0
LINE
  5
7F94
330
81F4
100
AcDbEntity
  8
0
  6
ByBlock
100
AcDbLine
 10
2750.1508127991
 20
2049.149543488601
 30
0.0
 11
3446.322280557939
 21
2049.149543488601
 31
0.0
  0
LINE
  5
7F95
330
81F4
100
AcDbEntity
  8
0
  6
ByBlock
100
AcDbLine
 10
3416.322280557938
 20
2209.149543488601
 30
0.0
 11
3416.322280557938
 21
2269.149543488601
 31
0.0
  0
LINE
  5
7F96
330
81F4
100
AcDbEntity
  8
0
  6
ByBlock
100
AcDbLine
 10
3416.322280557938
 20
1989.149543488601
 30
0.0
 11
3416.322280557938
 21
1684.863829202887
 31
0.0
  0
LINE
  5
7F97
330
81F4
100
AcDbEntity
  8
0
  6
ByBlock
100
AcDbLine
 10
3416.322280557938
 20
2149.149543488601
 30
0.0
 11
3416.322280557938
 21
2049.149543488601
 31
0.0
  0
INSERT
  5
7F98
330
81F4
100
AcDbEntity
  8
0
  6
ByBlock
100
AcDbBlockReference
  2
_DOT
 10
3416.322280557938
 20
2149.149543488601
 30
0.0
 41
60.0
 42
60.0
 43
60.0
 50
270.0
  0
INSERT
  5
7F99
330
81F4
100
AcDbEntity
  8
0
  6
ByBlock
100
AcDbBlockReference
  2
_OPEN
 10
3416.322280557938
 20
2049.149543488601
 30
0.0
 41
60.0
 42
60.0
 43
60.0
 50
90.0
  0
TEXT
  5
7F9A
330
81F4
100
AcDbEntity
  8
3
100
AcDbText
 10
3401.322280557939
 20
1699.863829202887
 30
0.0
 40
90.0
  1
100
 50
90.0
100
AcDbText
  0
POINT
  5
7F9B
330
81F4
100
AcDbEntity
  8
DEFPOINTS
  6
ByBlock
 62
     0
100
AcDbPoint
 10
2720.150812799099
 20
2149.149543488601
 30
0.0
  0
POINT
  5
7F9C
330
81F4
100
AcDbEntity
  8
DEFPOINTS
  6
ByBlock
 62
     0
100
AcDbPoint
 10
2720.150812799099
 20
2049.149543488601
 30
0.0
  0
POINT
  5
7F9D
330
81F4
100
AcDbEntity
  8
DEFPOINTS
  6
ByBlock
 62
     0
100
AcDbPoint
 10
3416.322280557938
 20
2049.149543488601
 30
0.0
  0
ENDBLK
  5
7F9E
330
81F4
100
AcDbEntity
  8
0
100
AcDbBlockEnd
  0
BLOCK
  5
81F7
330
81F6
100
AcDbEntity
  8
0
100
AcDbBlockBegin
  2
_DOT
 70
     0
 10
0.0
 20
0.0
 30
0.0
  3
_DOT
  1

  0
LWPOLYLINE
  5
7FB9
330
81F6
100
AcDbEntity
  8
0
  6
ByBlock
 62
     0
100
AcDbPolyline
 90
        2
 70
     1
 43
0.25
 10
-0.125
 20
0.0
 42
1.0
 10
0.125
 20
0.0
 42
1.0
  0
LINE
  5
7FBD
330
81F6
100
AcDbEntity
  8
0
  6
ByBlock
 62
     0
100
AcDbLine
 10
-0.25
 20
0.0
 30
0.0
 11
-1.0
 21
0.0
 31
0.0
  0
ENDBLK
  5
7F85
330
81F6
100
AcDbEntity
  8
0
100
AcDbBlockEnd
  0
BLOCK
  5
81F9
330
81F8
100
AcDbEntity
  8
0
100
AcDbBlockBegin
  2
*D23
 70
     1
 10
0.0
 20
0.0
 30
0.0
  3
*D23
  1

  0
LINE
  5
803B
330
81F8
100
AcDbEntity
  8
0
  6
ByBlock
 62
     0
100
AcDbLine
 10
670.1508127991001
 20
2011.149543488601
 30
0.0
 11
670.1508127991001
 21
1797.532675969436
 31
0.0
  0
LINE
  5
803C
330
81F8
100
AcDbEntity
  8
0
  6
ByBlock
 62
     0
100
AcDbLine
 10
2095.150812799098
 20
2011.149543488601
 30
0.0
 11
2095.150812799098
 21
1797.532675969436
 31
0.0
  0
LINE
  5
803D
330
81F8
100
AcDbEntity
  8
0
  6
ByBlock
 62
     0
100
AcDbLine
 10
730.1508127991001
 20
1827.532675969436
 30
0.0
 11
2035.150812799098
 21
1827.532675969436
 31
0.0
  0
INSERT
  5
803E
330
81F8
100
AcDbEntity
  8
0
  6
ByBlock
 62
     0
100
AcDbBlockReference
  2
_OPEN
 10
670.1508127991001
 20
1827.532675969436
 30
0.0
 41
60.0
 42
60.0
 43
60.0
 50
180.0
  0
INSERT
  5
803F
330
81F8
100
AcDbEntity
  8
0
  6
ByBlock
 62
     0
100
AcDbBlockReference
  2
_OPEN
 10
2095.150812799098
 20
1827.532675969436
 30
0.0
 41
60.0
 42
60.0
 43
60.0
  0
TEXT
  5
8040
330
81F8
100
AcDbEntity
  8
3
 62
     0
100
AcDbText
 10
1232.650812799099
 20
1857.532675969436
 30
0.0
 40
90.0
  1
1425
100
AcDbText
  0
POINT
  5
8041
330
81F8
100
AcDbEntity
  8
DEFPOINTS
  6
ByBlock
 62
     0
100
AcDbPoint
 10
670.1508127991001
 20
2041.149543488601
 30
0.0
  0
POINT
  5
8042
330
81F8
100
AcDbEntity
  8
DEFPOINTS
  6
ByBlock
 62
     0
100
AcDbPoint
 10
2095.150812799098
 20
2041.149543488601
 30
0.0
  0
POINT
  5
8043
330
81F8
100
AcDbEntity
  8
DEFPOINTS
  6
ByBlock
 62
     0
100
AcDbPoint
 10
2095.150812799098
 20
1827.532675969436
 30
0.0
  0
ENDBLK
  5
8044
330
81F8
100
AcDbEntity
  8
0
100
AcDbBlockEnd
  0
BLOCK
  5
81FB
330
81FA
100
AcDbEntity
  8
0
100
AcDbBlockBegin
  2
*D24
 70
     1
 10
0.0
 20
0.0
 30
0.0
  3
*D24
  1

  0
LINE
  5
8048
330
81FA
100
AcDbEntity
  8
0
  6
ByBlock
 62
     0
100
AcDbLine
 10
2095.150812799098
 20
2011.149543488601
 30
0.0
 11
2095.150812799098
 21
1797.532675969436
 31
0.0
  0
LINE
  5
8049
330
81FA
100
AcDbEntity
  8
0
  6
ByBlock
 62
     0
100
AcDbLine
 10
2720.150812799099
 20
2011.149543488601
 30
0.0
 11
2720.150812799099
 21
1797.532675969436
 31
0.0
  0
LINE
  5
804A
330
81FA
100
AcDbEntity
  8
0
  6
ByBlock
 62
     0
100
AcDbLine
 10
2155.150812799096
 20
1827.532675969436
 30
0.0
 11
2660.150812799099
 21
1827.532675969436
 31
0.0
  0
INSERT
  5
804B
330
81FA
100
AcDbEntity
  8
0
  6
ByBlock
 62
     0
100
AcDbBlockReference
  2
_OPEN
 10
2095.150812799098
 20
1827.532675969436
 30
0.0
 41
60.0
 42
60.0
 43
60.0
 50
180.0
  0
INSERT
  5
804C
330
81FA
100
AcDbEntity
  8
0
  6
ByBlock
 62
     0
100
AcDbBlockReference
  2
_OPEN
 10
2720.150812799099
 20
1827.532675969436
 30
0.0
 41
60.0
 42
60.0
 43
60.0
  0
TEXT
  5
804D
330
81FA
100
AcDbEntity
  8
3
 62
     0
100
AcDbText
 10
2291.936527084812
 20
1857.532675969436
 30
0.0
 40
90.0
  1
625
100
AcDbText
  0
POINT
  5
804E
330
81FA
100
AcDbEntity
  8
DEFPOINTS
  6
ByBlock
 62
     0
100
AcDbPoint
 10
2095.150812799098
 20
2041.149543488601
 30
0.0
  0
POINT
  5
804F
330
81FA
100
AcDbEntity
  8
DEFPOINTS
  6
ByBlock
 62
     0
100
AcDbPoint
 10
2720.150812799099
 20
2041.149543488601
 30
0.0
  0
POINT
  5
8050
330
81FA
100
AcDbEntity
  8
DEFPOINTS
  6
ByBlock
 62
     0
100
AcDbPoint
 10
2720.150812799099
 20
1827.532675969436
 30
0.0
  0
ENDBLK
  5
8051
330
81FA
100
AcDbEntity
  8
0
100
AcDbBlockEnd
  0
BLOCK
  5
81FD
330
81FC
100
AcDbEntity
  8
0
100
AcDbBlockBegin
  2
*D25
 70
     1
 10
0.0
 20
0.0
 30
0.0
  3
*D25
  1

  0
LINE
  5
8055
330
81FC
100
AcDbEntity
  8
0
  6
ByBlock
 62
     0
100
AcDbLine
 10
4094.343106282495
 20
2011.1495434886
 30
0.0
 11
4094.343106282495
 21
1797.532675969436
 31
0.0
  0
LINE
  5
8056
330
81FC
100
AcDbEntity
  8
0
  6
ByBlock
 62
     0
100
AcDbLine
 10
4921.343106282495
 20
2011.1495434886
 30
0.0
 11
4921.343106282495
 21
1797.532675969436
 31
0.0
  0
LINE
  5
8057
330
81FC
100
AcDbEntity
  8
0
  6
ByBlock
 62
     0
100
AcDbLine
 10
4154.343106282495
 20
1827.532675969436
 30
0.0
 11
4861.343106282496
 21
1827.532675969436
 31
0.0
  0
INSERT
  5
8058
330
81FC
100
AcDbEntity
  8
0
  6
ByBlock
 62
     0
100
AcDbBlockReference
  2
_OPEN
 10
4094.343106282495
 20
1827.532675969436
 30
0.0
 41
60.0
 42
60.0
 43
60.0
 50
180.0
  0
INSERT
  5
8059
330
81FC
100
AcDbEntity
  8
0
  6
ByBlock
 62
     0
100
AcDbBlockReference
  2
_OPEN
 10
4921.343106282495
 20
1827.532675969436
 30
0.0
 41
60.0
 42
60.0
 43
60.0
  0
TEXT
  5
805A
330
81FC
100
AcDbEntity
  8
3
 62
     0
100
AcDbText
 10
4392.128820568211
 20
1857.532675969436
 30
0.0
 40
90.0
  1
827
100
AcDbText
  0
POINT
  5
805B
330
81FC
100
AcDbEntity
  8
DEFPOINTS
  6
ByBlock
 62
     0
100
AcDbPoint
 10
4094.343106282495
 20
2041.149543488601
 30
0.0
  0
POINT
  5
805C
330
81FC
100
AcDbEntity
  8
DEFPOINTS
  6
ByBlock
 62
     0
100
AcDbPoint
 10
4921.343106282495
 20
2041.149543488601
 30
0.0
  0
POINT
  5
805D
330
81FC
100
AcDbEntity
  8
DEFPOINTS
  6
ByBlock
 62
     0
100
AcDbPoint
 10
4921.343106282495
 20
1827.532675969436
 30
0.0
  0
ENDBLK
  5
805E
330
81FC
100
AcDbEntity
  8
0
100
AcDbBlockEnd
  0
BLOCK
  5
81FF
330
81FE
100
AcDbEntity
  8
0
100
AcDbBlockBegin
  2
*D26
 70
     1
 10
0.0
 20
0.0
 30
0.0
  3
*D26
  1

  0
LINE
  5
8062
330
81FE
100
AcDbEntity
  8
0
  6
ByBlock
 62
     0
100
AcDbLine
 10
4921.343106282495
 20
2011.1495434886
 30
0.0
 11
4921.343106282495
 21
1797.532675969436
 31
0.0
  0
LINE
  5
8063
330
81FE
100
AcDbEntity
  8
0
  6
ByBlock
 62
     0
100
AcDbLine
 10
5599.343106282496
 20
2011.1495434886
 30
0.0
 11
5599.343106282496
 21
1797.532675969436
 31
0.0
  0
LINE
  5
8064
330
81FE
100
AcDbEntity
  8
0
  6
ByBlock
 62
     0
100
AcDbLine
 10
4981.343106282496
 20
1827.532675969436
 30
0.0
 11
5539.343106282498
 21
1827.532675969436
 31
0.0
  0
INSERT
  5
8065
330
81FE
100
AcDbEntity
  8
0
  6
ByBlock
 62
     0
100
AcDbBlockReference
  2
_OPEN
 10
4921.343106282495
 20
1827.532675969436
 30
0.0
 41
60.0
 42
60.0
 43
60.0
 50
180.0
  0
INSERT
  5
8066
330
81FE
100
AcDbEntity
  8
0
  6
ByBlock
 62
     0
100
AcDbBlockReference
  2
_OPEN
 10
5599.343106282496
 20
1827.532675969436
 30
0.0
 41
60.0
 42
60.0
 43
60.0
  0
TEXT
  5
8067
330
81FE
100
AcDbEntity
  8
3
 62
     0
100
AcDbText
 10
5144.628820568211
 20
1857.532675969436
 30
0.0
 40
90.0
  1
678
100
AcDbText
  0
POINT
  5
8068
330
81FE
100
AcDbEntity
  8
DEFPOINTS
  6
ByBlock
 62
     0
100
AcDbPoint
 10
4921.343106282495
 20
2041.149543488601
 30
0.0
  0
POINT
  5
8069
330
81FE
100
AcDbEntity
  8
DEFPOINTS
  6
ByBlock
 62
     0
100
AcDbPoint
 10
5599.343106282496
 20
2041.149543488601
 30
0.0
  0
POINT
  5
806A
330
81FE
100
AcDbEntity
  8
DEFPOINTS
  6
ByBlock
 62
     0
100
AcDbPoint
 10
5599.343106282496
 20
1827.532675969436
 30
0.0
  0
ENDBLK
  5
806B
330
81FE
100
AcDbEntity
  8
0
100
AcDbBlockEnd
  0
BLOCK
  5
8201
330
8200
100
AcDbEntity
  8
0
100
AcDbBlockBegin
  2
_NONE
 70
     0
 10
0.0
 20
0.0
 30
0.0
  3
_NONE
  1

  0
CIRCLE
  5
806F
330
8200
100
AcDbEntity
  8
0
  6
ByBlock
 62
     0
100
AcDbCircle
 10
0.0
 20
0.0
 30
0.0
 40
0.25
  0
ENDBLK
  5
8070
330
8200
100
AcDbEntity
  8
0
100
AcDbBlockEnd
  0
BLOCK
  5
8203
330
8202
100
AcDbEntity
  8
0
100
AcDbBlockBegin
  2
*D28
 70
     1
 10
0.0
 20
0.0
 30
0.0
  3
*D28
  1

  0
LINE
  5
80DF
330
8202
100
AcDbEntity
  8
0
  6
ByBlock
 62
     0
100
AcDbLine
 10
3416.133707241094
 20
2148.149543488601
 30
0.0
 11
3416.133707241094
 21
2148.149543488601
 31
0.0
  0
LINE
  5
80E0
330
8202
100
AcDbEntity
  8
0
  6
ByBlock
 62
     0
100
AcDbLine
 10
3416.133707241094
 20
2168.149543488601
 30
0.0
 11
3416.133707241094
 21
2288.149543488601
 31
0.0
  0
TEXT
  5
80E1
330
8202
100
AcDbEntity
  8
3
 62
     0
100
AcDbText
 10
3589.705135812522
 20
2000.435257774316
 30
0.0
 40
90.0
  1
 (20)
 50
90.0
100
AcDbText
  0
LINE
  5
80E2
330
8202
100
AcDbEntity
  8
0
  6
ByBlock
 62
     0
100
AcDbLine
 10
3416.133707241094
 20
2148.149543488601
 30
0.0
 11
3416.133707241094
 21
2168.149543488601
 31
0.0
  0
POINT
  5
80E3
330
8202
100
AcDbEntity
  8
DEFPOINTS
  6
ByBlock
 62
     0
100
AcDbPoint
 10
2720.150812799099
 20
2148.149543488601
 30
0.0
  0
POINT
  5
80E4
330
8202
100
AcDbEntity
  8
DEFPOINTS
  6
ByBlock
 62
     0
100
AcDbPoint
 10
2720.150812799099
 20
2168.149543488601
 30
0.0
  0
POINT
  5
80E5
330
8202
100
AcDbEntity
  8
DEFPOINTS
  6
ByBlock
 62
     0
100
AcDbPoint
 10
3416.133707241094
 20
2168.149543488601
 30
0.0
  0
ENDBLK
  5
80E6
330
8202
100
AcDbEntity
  8
0
100
AcDbBlockEnd
  0
BLOCK
  5
8205
330
8204
100
AcDbEntity
  8
0
100
AcDbBlockBegin
  2
*D29
 70
     1
 10
0.0
 20
0.0
 30
0.0
  3
*D29
  1

  0
LINE
  5
80C1
330
8204
100
AcDbEntity
  8
0
  6
ByBlock
 62
     0
100
AcDbLine
 10
2750.1508127991
 20
2048.149543488601
 30
0.0
 11
3684.63459815022
 21
2048.149543488601
 31
0.0
  0
LINE
  5
80C2
330
8204
100
AcDbEntity
  8
0
  6
ByBlock
 62
     0
100
AcDbLine
 10
2081.1508127991
 20
4098.149543488601
 30
0.0
 11
3684.63459815022
 21
4098.149543488601
 31
0.0
  0
LINE
  5
80C3
330
8204
100
AcDbEntity
  8
0
  6
ByBlock
 62
     0
100
AcDbLine
 10
3654.634598150221
 20
2108.149543488601
 30
0.0
 11
3654.634598150221
 21
4038.149543488601
 31
0.0
  0
INSERT
  5
80C4
330
8204
100
AcDbEntity
  8
0
  6
ByBlock
 62
     0
100
AcDbBlockReference
  2
_OPEN
 10
3654.634598150221
 20
2048.149543488601
 30
0.0
 41
60.0
 42
60.0
 43
60.0
 50
270.0
  0
INSERT
  5
80C5
330
8204
100
AcDbEntity
  8
0
  6
ByBlock
 62
     0
100
AcDbBlockReference
  2
_OPEN
 10
3654.634598150221
 20
4098.149543488601
 30
0.0
 41
60.0
 42
60.0
 43
60.0
 50
90.0
  0
TEXT
  5
80C6
330
8204
100
AcDbEntity
  8
3
 62
     0
100
AcDbText
 10
3586.063169578791
 20
2856.72097206003
 30
0.0
 40
90.0
  1
(2050)
 50
90.0
100
AcDbText
  0
POINT
  5
80C7
330
8204
100
AcDbEntity
  8
DEFPOINTS
  6
ByBlock
 62
     0
100
AcDbPoint
 10
2720.150812799099
 20
2048.149543488601
 30
0.0
  0
POINT
  5
80C8
330
8204
100
AcDbEntity
  8
DEFPOINTS
  6
ByBlock
 62
     0
100
AcDbPoint
 10
2051.1508127991
 20
4098.149543488601
 30
0.0
  0
POINT
  5
80C9
330
8204
100
AcDbEntity
  8
DEFPOINTS
  6
ByBlock
 62
     0
100
AcDbPoint
 10
3654.634598150221
 20
4098.149543488601
 30
0.0
  0
ENDBLK
  5
80CA
330
8204
100
AcDbEntity
  8
0
100
AcDbBlockEnd
  0
BLOCK
  5
820A
330
8209
100
AcDbEntity
  8
0
100
AcDbBlockBegin
  2
*D30
 70
     1
 10
0.0
 20
0.0
 30
0.0
  3
*D30
  1

  0
LINE
  5
8234
330
8209
100
AcDbEntity
  8
3
 62
     0
370
    -2
100
AcDbLine
 10
3861.343106282491
 20
3688.149543488601
 30
0.0
 11
3861.343106282491
 21
4582.039981542515
 31
0.0
  0
LINE
  5
8235
330
8209
100
AcDbEntity
  8
3
 62
     0
370
    -2
100
AcDbLine
 10
4921.343106282495
 20
4487.144294910528
 30
0.0
 11
4921.343106282495
 21
4582.039981542515
 31
0.0
  0
LINE
  5
8236
330
8209
100
AcDbEntity
  8
3
 62
     0
370
    -2
100
AcDbLine
 10
3921.343106282491
 20
4552.039981542515
 30
0.0
 11
4861.343106282496
 21
4552.039981542515
 31
0.0
  0
INSERT
  5
8237
330
8209
100
AcDbEntity
  8
3
 62
     0
370
    -2
100
AcDbBlockReference
  2
_OPEN
 10
3861.343106282491
 20
4552.039981542515
 30
0.0
 41
60.0
 42
60.0
 43
60.0
 50
180.0
  0
INSERT
  5
8238
330
8209
100
AcDbEntity
  8
3
 62
     0
370
    -2
100
AcDbBlockReference
  2
_OPEN
 10
4921.343106282495
 20
4552.039981542515
 30
0.0
 41
60.0
 42
60.0
 43
60.0
  0
MTEXT
  5
8239
330
8209
100
AcDbEntity
  8
3
 62
     0
100
AcDbMText
 10
4391.343106282493
 20
4650.611410113944
 30
0.0
 40
90.0
 41
0.0
 71
     5
 72
     1
  1
\A1;(1060)
 73
     1
 44
1.0
1001
ACAD
1000
MTEXTBEGIN
1070
    73
1070
     1
1070
    44
1040
1.0
1070
    74
1070
     0
1000
MTEXTEND
  0
POINT
  5
823A
330
8209
100
AcDbEntity
  8
DEFPOINTS
 62
     0
100
AcDbPoint
 10
3861.343106282491
 20
3658.149543488601
 30
0.0
  0
POINT
  5
823B
330
8209
100
AcDbEntity
  8
DEFPOINTS
 62
     0
100
AcDbPoint
 10
4921.343106282495
 20
4457.144294910528
 30
0.0
  0
POINT
  5
823C
330
8209
100
AcDbEntity
  8
DEFPOINTS
 62
     0
100
AcDbPoint
 10
4921.343106282495
 20
4552.039981542515
 30
0.0
  0
ENDBLK
  5
820B
330
8209
100
AcDbEntity
  8
0
100
AcDbBlockEnd
  0
BLOCK
  5
8217
330
8216
100
AcDbEntity
  8
0
100
AcDbBlockBegin
  2
*D31
 70
     1
 10
0.0
 20
0.0
 30
0.0
  3
*D31
  1

  0
LINE
  5
823D
330
8216
100
AcDbEntity
  8
3
 62
     0
370
    -2
100
AcDbLine
 10
4921.343106282495
 20
4487.144294910528
 30
0.0
 11
4921.343106282495
 21
4582.039981542515
 31
0.0
  0
LINE
  5
823E
330
8216
100
AcDbEntity
  8
3
 62
     0
370
    -2
100
AcDbLine
 10
5701.343106282497
 20
3372.349543488601
 30
0.0
 11
5701.343106282497
 21
4582.039981542515
 31
0.0
  0
LINE
  5
823F
330
8216
100
AcDbEntity
  8
3
 62
     0
370
    -2
100
AcDbLine
 10
4981.343106282496
 20
4552.039981542515
 30
0.0
 11
5641.343106282497
 21
4552.039981542515
 31
0.0
  0
INSERT
  5
8240
330
8216
100
AcDbEntity
  8
3
 62
     0
370
    -2
100
AcDbBlockReference
  2
_OPEN
 10
4921.343106282495
 20
4552.039981542515
 30
0.0
 41
60.0
 42
60.0
 43
60.0
 50
180.0
  0
INSERT
  5
8241
330
8216
100
AcDbEntity
  8
3
 62
     0
370
    -2
100
AcDbBlockReference
  2
_OPEN
 10
5701.343106282497
 20
4552.039981542515
 30
0.0
 41
60.0
 42
60.0
 43
60.0
  0
MTEXT
  5
8242
330
8216
100
AcDbEntity
  8
3
 62
     0
100
AcDbMText
 10
5311.343106282496
 20
4650.611410113944
 30
0.0
 40
90.0
 41
0.0
 71
     5
 72
     1
  1
\A1;(780)
 73
     1
 44
1.0
1001
ACAD
1000
MTEXTBEGIN
1070
    73
1070
     1
1070
    44
1040
1.0
1070
    74
1070
     0
1000
MTEXTEND
  0
POINT
  5
8243
330
8216
100
AcDbEntity
  8
DEFPOINTS
 62
     0
100
AcDbPoint
 10
4921.343106282495
 20
4457.144294910528
 30
0.0
  0
POINT
  5
8244
330
8216
100
AcDbEntity
  8
DEFPOINTS
 62
     0
100
AcDbPoint
 10
5701.343106282497
 20
3342.349543488602
 30
0.0
  0
POINT
  5
8245
330
8216
100
AcDbEntity
  8
DEFPOINTS
 62
     0
100
AcDbPoint
 10
5701.343106282497
 20
4552.039981542515
 30
0.0
  0
ENDBLK
  5
8218
330
8216
100
AcDbEntity
  8
0
100
AcDbBlockEnd
  0
BLOCK
  5
8248
330
8247
100
AcDbEntity
  8
0
100
AcDbBlockBegin
  2
*D32
 70
     1
 10
0.0
 20
0.0
 30
0.0
  3
*D32
  1

  0
LINE
  5
8263
330
8247
100
AcDbEntity
  8
3
 62
     0
370
    -2
100
AcDbLine
 10
2604.076003181686
 20
5925.670042865873
 30
0.0
 11
3680.519237152847
 21
5925.670042865873
 31
0.0
  0
LINE
  5
8264
330
8247
100
AcDbEntity
  8
3
 62
     0
370
    -2
100
AcDbLine
 10
2405.150812799098
 20
4865.670042865873
 30
0.0
 11
3680.519237152847
 21
4865.670042865873
 31
0.0
  0
LINE
  5
8265
330
8247
100
AcDbEntity
  8
3
 62
     0
370
    -2
100
AcDbLine
 10
3650.519237152847
 20
5865.670042865873
 30
0.0
 11
3650.519237152846
 21
4925.670042865873
 31
0.0
  0
INSERT
  5
8266
330
8247
100
AcDbEntity
  8
3
 62
     0
370
    -2
100
AcDbBlockReference
  2
_OPEN
 10
3650.519237152847
 20
5925.670042865873
 30
0.0
 41
60.0
 42
60.0
 43
60.0
 50
90.0
  0
INSERT
  5
8267
330
8247
100
AcDbEntity
  8
3
 62
     0
370
    -2
100
AcDbBlockReference
  2
_OPEN
 10
3650.519237152846
 20
4865.670042865873
 30
0.0
 41
60.0
 42
60.0
 43
60.0
 50
270.0
  0
MTEXT
  5
8268
330
8247
100
AcDbEntity
  8
3
 62
     0
100
AcDbMText
 10
3551.947808581417
 20
5395.670042865874
 30
0.0
 40
90.0
 41
0.0
 71
     5
 72
     1
  1
\A1;(1060)
 11
0.0000000000000001
 21
1.0
 31
0.0
 73
     1
 44
1.0
1001
ACAD
1000
MTEXTBEGIN
1070
    73
1070
     1
1070
    44
1040
1.0
1070
    74
1070
     0
1000
MTEXTEND
  0
POINT
  5
8269
330
8247
100
AcDbEntity
  8
DEFPOINTS
 62
     0
100
AcDbPoint
 10
2574.076003181686
 20
5925.670042865873
 30
0.0
  0
POINT
  5
826A
330
8247
100
AcDbEntity
  8
DEFPOINTS
 62
     0
100
AcDbPoint
 10
2375.150812799098
 20
4865.670042865873
 30
0.0
  0
POINT
  5
826B
330
8247
100
AcDbEntity
  8
DEFPOINTS
 62
     0
100
AcDbPoint
 10
3650.519237152846
 20
4865.670042865873
 30
0.0
  0
ENDBLK
  5
8249
330
8247
100
AcDbEntity
  8
0
100
AcDbBlockEnd
  0
BLOCK
  5
8257
330
8256
100
AcDbEntity
  8
0
100
AcDbBlockBegin
  2
*D33
 70
     1
 10
0.0
 20
0.0
 30
0.0
  3
*D33
  1

  0
LINE
  5
8259
330
8256
100
AcDbEntity
  8
3
 62
     0
370
    -2
100
AcDbLine
 10
670.1508127991001
 20
5096.795042865875
 30
0.0
 11
670.1508127991001
 21
4684.719919039298
 31
0.0
  0
LINE
  5
825A
330
8256
100
AcDbEntity
  8
3
 62
     0
370
    -2
100
AcDbLine
 10
2720.1508127991
 20
5096.795042865873
 30
0.0
 11
2720.1508127991
 21
4684.719919039298
 31
0.0
  0
LINE
  5
825B
330
8256
100
AcDbEntity
  8
3
 62
     0
370
    -2
100
AcDbLine
 10
675.5508127991
 20
4690.119919039298
 30
0.0
 11
1671.365098513386
 21
4690.119919039298
 31
0.0
  0
LINE
  5
825C
330
8256
100
AcDbEntity
  8
3
 62
     0
370
    -2
100
AcDbLine
 10
2714.7508127991
 20
4690.119919039298
 30
0.0
 11
1718.936527084814
 21
4690.119919039298
 31
0.0
  0
SOLID
  5
825D
330
8256
100
AcDbEntity
  8
3
 62
     0
100
AcDbTrace
 10
675.5508127991
 20
4691.019919039297
 30
0.0
 11
675.5508127991
 21
4689.219919039298
 31
0.0
 12
670.1508127991001
 22
4690.119919039298
 32
0.0
 13
670.1508127991001
 23
4690.119919039298
 33
0.0
  0
SOLID
  5
825E
330
8256
100
AcDbEntity
  8
3
 62
     0
100
AcDbTrace
 10
2714.7508127991
 20
4691.019919039297
 30
0.0
 11
2714.7508127991
 21
4689.219919039298
 31
0.0
 12
2720.1508127991
 22
4690.119919039298
 32
0.0
 13
2720.1508127991
 23
4690.119919039298
 33
0.0
  0
MTEXT
  5
825F
330
8256
100
AcDbEntity
  8
3
 62
     0
100
AcDbMText
 10
1695.1508127991
 20
4690.119919039298
 30
0.0
 40
5.399999999999999
 41
0.0
 71
     5
 72
     1
  1
\A1;2050.0000
 73
     1
 44
1.0
1001
ACAD
1000
MTEXTBEGIN
1070
    73
1070
     1
1070
    44
1040
1.0
1070
    74
1070
     0
1000
MTEXTEND
  0
POINT
  5
8260
330
8256
100
AcDbEntity
  8
DEFPOINTS
 62
     0
100
AcDbPoint
 10
670.1508127991001
 20
5098.670042865875
 30
0.0
  0
POINT
  5
8261
330
8256
100
AcDbEntity
  8
DEFPOINTS
 62
     0
100
AcDbPoint
 10
2720.1508127991
 20
5098.670042865873
 30
0.0
  0
POINT
  5
8262
330
8256
100
AcDbEntity
  8
DEFPOINTS
 62
     0
100
AcDbPoint
 10
2720.1508127991
 20
4690.119919039298
 30
0.0
  0
ENDBLK
  5
8258
330
8256
100
AcDbEntity
  8
0
100
AcDbBlockEnd
  0
BLOCK
  5
826E
330
826D
100
AcDbEntity
  8
0
100
AcDbBlockBegin
  2
*D34
 70
     1
 10
0.0
 20
0.0
 30
0.0
  3
*D34
  1

  0
LINE
  5
8270
330
826D
100
AcDbEntity
  8
3
 62
     0
370
    -2
100
AcDbLine
 10
670.1508127991001
 20
5068.670042865875
 30
0.0
 11
670.1508127991001
 21
4660.597829258207
 31
0.0
  0
LINE
  5
8271
330
826D
100
AcDbEntity
  8
3
 62
     0
370
    -2
100
AcDbLine
 10
2720.1508127991
 20
5068.670042865873
 30
0.0
 11
2720.1508127991
 21
4660.597829258207
 31
0.0
  0
LINE
  5
8272
330
826D
100
AcDbEntity
  8
3
 62
     0
370
    -2
100
AcDbLine
 10
730.1508127991001
 20
4690.597829258208
 30
0.0
 11
2660.1508127991
 21
4690.597829258208
 31
0.0
  0
INSERT
  5
8273
330
826D
100
AcDbEntity
  8
3
 62
     0
370
    -2
100
AcDbBlockReference
  2
_OPEN
 10
670.1508127991001
 20
4690.597829258208
 30
0.0
 41
60.0
 42
60.0
 43
60.0
 50
180.0
  0
INSERT
  5
8274
330
826D
100
AcDbEntity
  8
3
 62
     0
370
    -2
100
AcDbBlockReference
  2
_OPEN
 10
2720.1508127991
 20
4690.597829258208
 30
0.0
 41
60.0
 42
60.0
 43
60.0
  0
MTEXT
  5
8275
330
826D
100
AcDbEntity
  8
3
 62
     0
100
AcDbMText
 10
1695.1508127991
 20
4765.597829258207
 30
0.0
 40
90.0
 41
0.0
 71
     5
 72
     1
  1
\A1;2050
 73
     1
 44
1.0
1001
ACAD
1000
MTEXTBEGIN
1070
    73
1070
     1
1070
    44
1040
1.0
1070
    74
1070
     0
1000
MTEXTEND
  0
POINT
  5
8276
330
826D
100
AcDbEntity
  8
DEFPOINTS
 62
     0
100
AcDbPoint
 10
670.1508127991001
 20
5098.670042865875
 30
0.0
  0
POINT
  5
8277
330
826D
100
AcDbEntity
  8
DEFPOINTS
 62
     0
100
AcDbPoint
 10
2720.1508127991
 20
5098.670042865873
 30
0.0
  0
POINT
  5
8278
330
826D
100
AcDbEntity
  8
DEFPOINTS
 62
     0
100
AcDbPoint
 10
2720.1508127991
 20
4690.597829258208
 30
0.0
  0
ENDBLK
  5
826F
330
826D
100
AcDbEntity
  8
0
100
AcDbBlockEnd
  0
BLOCK
  5
827B
330
827A
100
AcDbEntity
  8
0
100
AcDbBlockBegin
  2
*D35
 70
     1
 10
0.0
 20
0.0
 30
0.0
  3
*D35
  1

  0
LINE
  5
8286
330
827A
100
AcDbEntity
  8
3
 62
     0
370
    -2
100
AcDbLine
 10
2864.766795296728
 20
3378.1495434886
 30
0.0
 11
3446.322280557938
 21
3378.149543488599
 31
0.0
  0
LINE
  5
8287
330
827A
100
AcDbEntity
  8
3
 62
     0
370
    -2
100
AcDbLine
 10
2750.150812799099
 20
2168.149543488601
 30
0.0
 11
3446.322280557938
 21
2168.149543488601
 31
0.0
  0
LINE
  5
8288
330
827A
100
AcDbEntity
  8
3
 62
     0
370
    -2
100
AcDbLine
 10
3416.322280557939
 20
3318.1495434886
 30
0.0
 11
3416.322280557938
 21
2228.149543488601
 31
0.0
  0
INSERT
  5
8289
330
827A
100
AcDbEntity
  8
3
 62
     0
370
    -2
100
AcDbBlockReference
  2
_OPEN
 10
3416.322280557939
 20
3378.149543488599
 30
0.0
 41
60.0
 42
60.0
 43
60.0
 50
90.0
  0
INSERT
  5
828A
330
827A
100
AcDbEntity
  8
3
 62
     0
370
    -2
100
AcDbBlockReference
  2
_OPEN
 10
3416.322280557938
 20
2168.149543488601
 30
0.0
 41
60.0
 42
60.0
 43
60.0
 50
270.0
  0
MTEXT
  5
828B
330
827A
100
AcDbEntity
  8
3
 62
     0
100
AcDbMText
 10
3341.322280557938
 20
2773.149543488601
 30
0.0
 40
90.0
 41
0.0
 71
     5
 72
     1
  1
\A1;1210
 11
0.0000000000000001
 21
1.0
 31
0.0
 73
     1
 44
1.0
1001
ACAD
1000
MTEXTBEGIN
1070
    73
1070
     1
1070
    44
1040
1.0
1070
    74
1070
     0
1000
MTEXTEND
  0
POINT
  5
828C
330
827A
100
AcDbEntity
  8
DEFPOINTS
 62
     0
100
AcDbPoint
 10
2834.766795296728
 20
3378.1495434886
 30
0.0
  0
POINT
  5
828D
330
827A
100
AcDbEntity
  8
DEFPOINTS
 62
     0
100
AcDbPoint
 10
2720.150812799099
 20
2168.149543488601
 30
0.0
  0
POINT
  5
828E
330
827A
100
AcDbEntity
  8
DEFPOINTS
 62
     0
100
AcDbPoint
 10
3416.322280557938
 20
2168.149543488601
 30
0.0
  0
ENDBLK
  5
827C
330
827A
100
AcDbEntity
  8
0
100
AcDbBlockEnd
  0
ENDSEC
  0
SECTION
  2
ENTITIES
  0
INSERT
  5
7C29
330
81BB
100
AcDbEntity
  8
0
100
AcDbBlockReference
  2
YA_N
 10
6.0
 20
5.0
 30
0.0
  0
ARC
  5
7C2B
330
81BB
100
AcDbEntity
  8
1
100
AcDbCircle
 10
2169.1508127991
 20
3304.149543488601
 30
0.0
 40
942.0
100
AcDbArc
 50
175.4944154733554
 51
265.4944154733555
  0
ARC
  5
7C2C
330
81BB
100
AcDbEntity
  8
1
100
AcDbCircle
 10
2021.1508127991
 20
3304.149543488601
 30
0.0
 40
794.0
100
AcDbArc
 50
84.65233025016116
 51
174.6523302501611
  0
ARC
  5
7C2D
330
81BB
100
AcDbEntity
  8
1
100
AcDbCircle
 10
2034.6508127991
 20
3438.649543488601
 30
0.0
 40
659.4999999999998
100
AcDbArc
 50
354.7365047969329
 51
84.73650479693297
  0
LINE
  5
7C2E
330
81BB
100
AcDbEntity
  8
1
100
AcDbLine
 10
2692.532600268385
 20
3334.149543488599
 30
0.0
 11
2775.1508127991
 21
3334.149543488599
 31
0.0
  0
LINE
  5
7C2F
330
81BB
100
AcDbEntity
  8
1
100
AcDbLine
 10
2775.150812799099
 20
2251.149543488599
 30
0.0
 11
2775.1508127991
 21
3387.1495434886
 31
0.0
  0
LINE
  5
7C30
330
81BB
100
AcDbEntity
  8
1
100
AcDbLine
 10
2775.150812799099
 20
2304.1495434886
 30
0.0
 11
2095.150812799098
 21
2365.060623311177
 31
0.0
  0
LINE
  5
7C31
330
81BB
100
AcDbEntity
  8
1
100
AcDbLine
 10
2771.150812799098
 20
2251.1495434886
 30
0.0
 11
2775.150812799099
 21
2251.149543488599
 31
0.0
  0
LINE
  5
7C32
330
81BB
100
AcDbEntity
  8
1
100
AcDbLine
 10
2771.150812799101
 20
3387.1495434886
 30
0.0
 11
2775.1508127991
 21
3387.1495434886
 31
0.0
  0
LINE
  5
7C33
330
81BB
100
AcDbEntity
  8
1
100
AcDbLine
 10
2725.150812799099
 20
2308.628299357907
 30
0.0
 11
2725.1508127991
 21
3334.149543488599
 31
0.0
  0
LINE
  5
7C34
330
81BB
100
AcDbEntity
  8
1
100
AcDbLine
 10
2771.150812799098
 20
2251.149543488599
 30
0.0
 11
2771.150812799101
 21
3387.1495434886
 31
0.0
  0
LINE
  5
7C35
330
81BB
100
AcDbEntity
  8
1
100
AcDbLine
 10
670.1508127990997
 20
2268.149543488599
 30
0.0
 11
2720.150812799099
 21
2268.149543488601
 31
0.0
  0
LINE
  5
7C36
330
81BB
100
AcDbEntity
  8
1
100
AcDbLine
 10
2720.150812799099
 20
2268.149543488601
 30
0.0
 11
2720.150812799099
 21
2168.149543488601
 31
0.0
  0
LINE
  5
7C37
330
81BB
100
AcDbEntity
  8
2
100
AcDbLine
 10
3836.343106282494
 20
3378.149543488601
 30
0.0
 11
5727.419737831798
 21
3378.149543488601
 31
0.0
  0
LINE
  5
7C38
330
81BB
100
AcDbEntity
  8
2
100
AcDbLine
 10
4921.343106282495
 20
4329.198414837271
 30
0.0
 11
4921.343106282495
 21
2048.149543488601
 31
0.0
  0
LINE
  5
7C39
330
81BB
100
AcDbEntity
  8
1
100
AcDbLine
 10
4094.343106282495
 20
2168.1495434886
 30
0.0
 11
5599.343106282496
 21
2168.1495434886
 31
0.0
1001
ACAD
1000
ASC_BOUNDS
1002
{
1070
    19
1005
0
1005
0
1002
}
  0
LINE
  5
7C3A
330
81BB
100
AcDbEntity
  8
1
100
AcDbLine
 10
4094.343106282495
 20
2268.1495434886
 30
0.0
 11
5599.343106282497
 21
2268.1495434886
 31
0.0
  0
LINE
  5
7C3B
330
81BB
100
AcDbEntity
  8
1
100
AcDbLine
 10
5546.343106282497
 20
4098.1495434886
 30
0.0
 11
5546.343106282499
 21
3378.149543488601
 31
0.0
  0
LINE
  5
7C3C
330
81BB
100
AcDbEntity
  8
2
100
AcDbLine
 10
2095.150812799098
 20
4141.194979180116
 30
0.0
 11
2095.150812799098
 21
2048.149543488601
 31
0.0
  0
LINE
  5
7C3D
330
81BB
100
AcDbEntity
  8
2
100
AcDbLine
 10
2834.766795296728
 20
3378.1495434886
 30
0.0
 11
1162.635896742891
 21
3378.149543488601
 31
0.0
  0
LINE
  5
7C3E
330
81BB
100
AcDbEntity
  8
1
100
AcDbLine
 10
670.1508127990997
 20
2168.149543488601
 30
0.0
 11
2720.150812799099
 21
2168.149543488601
 31
0.0
1001
ACAD
1000
ASC_BOUNDS
1002
{
1070
    19
1005
0
1002
}
  0
INSERT
  5
7C3F
330
81BB
100
AcDbEntity
  8
0
100
AcDbBlockReference
  2
YA_N
 10
-1637.209838160516
 20
-1405.432827243363
 30
0.0
 41
25.0
 42
25.0
 43
25.0
  0
ARC
  5
7C41
330
81BB
100
AcDbEntity
  8
1
100
AcDbCircle
 10
945.1508127990994
 20
2503.1495434886
 30
0.0
 40
185.0
100
AcDbArc
 50
287.9452509999999
 51
252.054749
  0
LINE
  5
7C42
330
81BB
100
AcDbEntity
  8
2
100
AcDbLine
 10
945.1508127990994
 20
2766.965217488601
 30
0.0
 11
945.1508127990988
 21
2048.149543488601
 31
0.0
  0
LINE
  5
7C43
330
81BB
100
AcDbEntity
  8
1
100
AcDbLine
 10
1002.1508277991
 20
2327.1495434886
 30
0.0
 11
888.1508127990993
 21
2327.1495434886
 31
0.0
  0
LINE
  5
7C44
330
81BB
100
AcDbEntity
  8
1
100
AcDbLine
 10
1107.1508277991
 20
2398.4085764886
 30
0.0
 11
1107.1508277991
 21
2323.1495434886
 31
0.0
  0
LINE
  5
7C48
330
81BB
100
AcDbEntity
  8
1
100
AcDbLine
 10
1047.6508277991
 20
2328.2981024886
 30
0.0
 11
1038.1441137991
 21
2343.2207104886
 31
0.0
  0
LINE
  5
7C49
330
81BB
100
AcDbEntity
  8
1
100
AcDbLine
 10
1047.6508277991
 20
2340.1495434886
 30
0.0
 11
1047.6508277991
 21
2323.1495434886
 31
0.0
  0
LINE
  5
7C4B
330
81BB
100
AcDbEntity
  8
1
100
AcDbLine
 10
1104.1508277991
 20
2343.1495434886
 30
0.0
 11
1050.6508277991
 21
2343.1495434886
 31
0.0
  0
ARC
  5
7C4D
330
81BB
100
AcDbEntity
  8
1
100
AcDbCircle
 10
1104.1508277991
 20
2340.1495434886
 30
0.0
 40
3.0
100
AcDbArc
 50
0.0
 51
90.0
  0
LINE
  5
7C4F
330
81BB
100
AcDbEntity
  8
1
100
AcDbLine
 10
1055.974741799099
 20
2343.1495434886
 30
0.0
 11
1050.7949927991
 21
2351.2801434886
 31
0.0
  0
ARC
  5
7C50
330
81BB
100
AcDbEntity
  8
1
100
AcDbCircle
 10
1050.6508277991
 20
2340.1495434886
 30
0.0
 40
3.0
100
AcDbArc
 50
90.0
 51
180.0
  0
LINE
  5
7C53
330
81BB
100
AcDbEntity
  8
1
100
AcDbLine
 10
1107.1508277991
 20
2398.4085764886
 30
0.0
 11
1100.766855799099
 21
2403.106330488601
 31
0.0
  0
LINE
  5
7C56
330
81BB
100
AcDbEntity
  8
1
100
AcDbLine
 10
783.1508127990994
 20
2398.4085764886
 30
0.0
 11
783.1508127990994
 21
2323.1495434886
 31
0.0
  0
LINE
  5
7C57
330
81BB
100
AcDbEntity
  8
1
100
AcDbLine
 10
786.1508127990994
 20
2343.1495434886
 30
0.0
 11
839.6508127990994
 21
2343.1495434886
 31
0.0
  0
LINE
  5
7C58
330
81BB
100
AcDbEntity
  8
1
100
AcDbLine
 10
842.6508127990993
 20
2328.2981024886
 30
0.0
 11
852.1575267990993
 21
2343.2207104886
 31
0.0
  0
LINE
  5
7C5B
330
81BB
100
AcDbEntity
  8
1
100
AcDbLine
 10
842.6508127990993
 20
2323.1495434886
 30
0.0
 11
842.6508127990993
 21
2340.1495434886
 31
0.0
  0
LINE
  5
7C5E
330
81BB
100
AcDbEntity
  8
1
100
AcDbLine
 10
834.3268987991001
 20
2343.1495434886
 30
0.0
 11
839.5066477990999
 21
2351.2801434886
 31
0.0
  0
ARC
  5
7C5F
330
81BB
100
AcDbEntity
  8
1
100
AcDbCircle
 10
839.6508127990994
 20
2340.1495434886
 30
0.0
 40
3.0
100
AcDbArc
 50
0.0
 51
90.0
  0
ARC
  5
7C62
330
81BB
100
AcDbEntity
  8
1
100
AcDbCircle
 10
786.1508127990994
 20
2340.1495434886
 30
0.0
 40
3.0
100
AcDbArc
 50
90.0
 51
180.0
  0
LINE
  5
7C63
330
81BB
100
AcDbEntity
  8
1
100
AcDbLine
 10
783.1508127990994
 20
2398.4085764886
 30
0.0
 11
789.5347847991001
 21
2403.106330488601
 31
0.0
  0
LINE
  5
7C64
330
81BB
100
AcDbEntity
  8
2
100
AcDbLine
 10
694.724398673556
 20
2503.1495434886
 30
0.0
 11
1161.230345445056
 21
2503.1495434886
 31
0.0
  0
LINE
  5
7C65
330
81BB
100
AcDbEntity
  8
1
100
AcDbLine
 10
734.7347997733343
 20
2323.149543488599
 30
0.0
 11
875.1508127990994
 21
2323.149543488599
 31
0.0
  0
LINE
  5
7C66
330
81BB
100
AcDbEntity
  8
1
100
AcDbLine
 10
1170.150812799099
 20
2268.149543488599
 30
0.0
 11
1155.366064012766
 21
2323.149543488599
 31
0.0
  0
LINE
  5
7C67
330
81BB
100
AcDbEntity
  8
1
100
AcDbLine
 10
720.1508127990994
 20
2268.149543488599
 30
0.0
 11
734.7347997733343
 21
2323.149543488599
 31
0.0
  0
LINE
  5
7C69
330
81BB
100
AcDbEntity
  8
1
100
AcDbLine
 10
875.1508127990994
 20
2313.1495434886
 30
0.0
 11
1015.150812799099
 21
2313.1495434886
 31
0.0
  0
LINE
  5
7C6A
330
81BB
100
AcDbEntity
  8
1
100
AcDbLine
 10
875.1508127990994
 20
2323.149543488599
 30
0.0
 11
875.1508127990994
 21
2313.1495434886
 31
0.0
  0
LINE
  5
7C6B
330
81BB
100
AcDbEntity
  8
1
100
AcDbLine
 10
1015.1508127991
 20
2323.149543488599
 30
0.0
 11
1015.1508127991
 21
2313.1495434886
 31
0.0
  0
LINE
  5
7C6C
330
81BB
100
AcDbEntity
  8
1
100
AcDbLine
 10
1015.150812799099
 20
2323.149543488599
 30
0.0
 11
1155.366064012766
 21
2323.149543488599
 31
0.0
  0
CIRCLE
  5
7C6F
330
81BB
100
AcDbEntity
  8
1
100
AcDbCircle
 10
2095.150812799098
 20
3378.1495434886
 30
0.0
 40
165.0999999999999
  0
CIRCLE
  5
7C70
330
81BB
100
AcDbEntity
  8
1
100
AcDbCircle
 10
945.1508127990994
 20
2503.1495434886
 30
0.0
 40
114.3
  0
LINE
  5
7C71
330
81BB
100
AcDbEntity
  8
1
100
AcDbLine
 10
670.1508127991001
 20
2148.149543488601
 30
0.0
 11
2720.150812799099
 21
2148.149543488601
 31
0.0
1001
ACAD
1000
ASC_BOUNDS
1002
{
1070
    19
1005
0
1002
}
  0
LINE
  5
7C72
330
81BB
100
AcDbEntity
  8
1
100
AcDbLine
 10
670.1508127991001
 20
2048.149543488601
 30
0.0
 11
2720.150812799099
 21
2048.149543488601
 31
0.0
  0
LINE
  5
7C73
330
81BB
100
AcDbEntity
  8
1
100
AcDbLine
 10
2720.150812799099
 20
2148.149543488601
 30
0.0
 11
2720.150812799099
 21
2048.149543488601
 31
0.0
  0
POINT
  5
7C74
330
81BB
100
AcDbEntity
  8
1
100
AcDbPoint
 10
2720.150812799099
 20
2148.149543488601
 30
0.0
  0
POINT
  5
7C75
330
81BB
100
AcDbEntity
  8
1
100
AcDbPoint
 10
2720.150812799099
 20
2148.149543488601
 30
0.0
  0
LINE
  5
7C76
330
81BB
100
AcDbEntity
  8
1
100
AcDbLine
 10
4094.343106282495
 20
2148.149543488601
 30
0.0
 11
5599.343106282496
 21
2148.149543488601
 31
0.0
1001
ACAD
1000
ASC_BOUNDS
1002
{
1070
    19
1005
0
1005
0
1002
}
  0
POINT
  5
7C77
330
81BB
100
AcDbEntity
  8
1
100
AcDbPoint
 10
2720.150812799099
 20
2148.149543488601
 30
0.0
  0
POINT
  5
7C78
330
81BB
100
AcDbEntity
  8
1
100
AcDbPoint
 10
2720.150812799099
 20
2148.149543488601
 30
0.0
  0
INSERT
  5
7C79
330
81BB
100
AcDbEntity
  8
0
100
AcDbBlockReference
  2
YA_N
 10
-1144.893563079054
 20
-989.0222135336152
 30
0.0
 41
25.0
 42
25.0
 43
25.0
  0
DIMENSION
  5
7C7B
330
81BB
100
AcDbEntity
  8
3
100
AcDbDimension
  2
*D4
 10
2976.310909793243
 20
3334.149543488599
 30
0.0
 11
2916.310909793243
 21
2819.1495434886
 31
0.0
 12
607.5256978222605
 22
2750.089240652855
 32
0.0
 71
     5
 42
-1.0
  3
Standard
100
AcDbAlignedDimension
 13
2775.150812799099
 23
2304.1495434886
 33
0.0
 14
2775.1508127991
 24
3334.149543488599
 34
0.0
 50
269.9999999999999
100
AcDbRotatedDimension
1001
ACAD
1000
DSTYLE
1002
{
1070
    40
1040
30.0
1002
}
  0
DIMENSION
  5
7C7C
330
81BB
100
AcDbEntity
  8
3
100
AcDbDimension
  2
*D5
 10
3177.112955252396
 20
3378.1495434886
 30
0.0
 11
3117.112955252396
 21
2841.149543488599
 31
0.0
 12
607.5256978222605
 22
2750.089240652855
 32
0.0
 71
     5
 42
-1.0
  3
Standard
100
AcDbAlignedDimension
 13
2775.150812799099
 23
2304.1495434886
 33
0.0
 14
2834.766795296728
 24
3378.1495434886
 34
0.0
 50
269.9999999999999
100
AcDbRotatedDimension
1001
ACAD
1000
DSTYLE
1002
{
1070
    40
1040
30.0
1002
}
  0
POINT
  5
7C7D
330
81BB
100
AcDbEntity
  8
1
100
AcDbPoint
 10
2720.150812799099
 20
2148.149543488601
 30
0.0
  0
POINT
  5
7C7E
330
81BB
100
AcDbEntity
  8
1
100
AcDbPoint
 10
2720.150812799099
 20
2148.149543488601
 30
0.0
  0
DIMENSION
  5
7C7F
330
81BB
100
AcDbEntity
  8
3
100
AcDbDimension
  2
*D6
 10
2095.150812799098
 20
4304.053760182649
 30
0.0
 11
2435.150812799099
 21
4364.053760182651
 31
0.0
 12
607.5256978222605
 22
2750.089240652855
 32
0.0
 71
     5
 42
-1.0
  3
Standard
100
AcDbAlignedDimension
 13
2775.1508127991
 23
3354.029097341083
 33
0.0
 14
2095.150812799098
 24
4141.194979180116
 34
0.0
100
AcDbRotatedDimension
1001
ACAD
1000
DSTYLE
1002
{
1070
    40
1040
30.0
1002
}
  0
DIMENSION
  5
7C80
330
81BB
100
AcDbEntity
  8
3
100
AcDbDimension
  2
*D7
 10
1230.606696383071
 20
4303.596060247735
 30
0.0
 11
1662.878754591084
 21
4363.596060247735
 31
0.0
 12
607.5256978222605
 22
2750.089240652855
 32
0.0
  1
868
 71
     5
 42
-1.0
  3
Standard
100
AcDbAlignedDimension
 13
2095.150812799098
 23
4141.194979180116
 33
0.0
 14
1230.606696383071
 24
3378.149543488599
 34
0.0
100
AcDbRotatedDimension
1001
ACAD
1000
DSTYLE
1002
{
1070
    40
1040
30.0
1002
}
  0
LINE
  5
7C81
330
81BB
100
AcDbEntity
  8
1
100
AcDbLine
 10
5546.343106282497
 20
3378.149543488601
 30
0.0
 11
5546.343106282496
 21
2304.149543488601
 31
0.0
  0
LINE
  5
7C82
330
81BB
100
AcDbEntity
  8
1
100
AcDbLine
 10
4296.343106282495
 20
4098.149543488601
 30
0.0
 11
4296.343106282495
 21
3378.149543488601
 31
0.0
  0
LINE
  5
7C83
330
81BB
100
AcDbEntity
  8
1
100
AcDbLine
 10
4296.343106282495
 20
3378.149543488601
 30
0.0
 11
4296.343106282495
 21
2304.149543488601
 31
0.0
  0
LINE
  5
7C84
330
81BB
100
AcDbEntity
  8
1
100
AcDbLine
 10
5701.343106282497
 20
3342.349543488602
 30
0.0
 11
5701.343106282497
 21
3212.349543488601
 31
0.0
  0
LINE
  5
7C85
330
81BB
100
AcDbEntity
  8
1
100
AcDbLine
 10
5564.343106282497
 20
3352.349543488602
 30
0.0
 11
5564.343106282496
 21
3202.349543488602
 31
0.0
  0
LINE
  5
7C86
330
81BB
100
AcDbEntity
  8
1
100
AcDbLine
 10
5564.343106282496
 20
3352.349543488602
 30
0.0
 11
5613.643106282498
 21
3352.349543488602
 31
0.0
  0
LINE
  5
7C87
330
81BB
100
AcDbEntity
  8
1
100
AcDbLine
 10
5564.343106282496
 20
3202.349543488602
 30
0.0
 11
5613.643106282498
 21
3202.349543488602
 31
0.0
  0
ARC
  5
7C88
330
81BB
100
AcDbEntity
  8
1
100
AcDbCircle
 10
5691.343106282499
 20
3342.349543488602
 30
0.0
 40
10.0
100
AcDbArc
 50
0.0000000000006514
 51
90.0
  0
ARC
  5
7C89
330
81BB
100
AcDbEntity
  8
1
100
AcDbCircle
 10
5691.343106282498
 20
3212.349543488601
 30
0.0
 40
10.0
100
AcDbArc
 50
270.0
 51
0.0000000000006514
  0
LINE
  5
7C8A
330
81BB
100
AcDbEntity
  8
1
100
AcDbLine
 10
5613.643106282497
 20
3352.349543488602
 30
0.0
 11
5691.343106282495
 21
3352.349543488602
 31
0.0
  0
LINE
  5
7C8B
330
81BB
100
AcDbEntity
  8
1
100
AcDbLine
 10
5613.643106282498
 20
3202.349543488602
 30
0.0
 11
5691.343106282498
 21
3202.349543488602
 31
0.0
  0
LINE
  5
7C8C
330
81BB
100
AcDbEntity
  8
1
100
AcDbLine
 10
3998.343106282497
 20
3543.249543488601
 30
0.0
 11
4108.343106282496
 21
3543.249543488601
 31
0.0
  0
LINE
  5
7C8D
330
81BB
100
AcDbEntity
  8
1
100
AcDbLine
 10
3998.343106282497
 20
3213.049543488601
 30
0.0
 11
4108.343106282496
 21
3213.049543488601
 31
0.0
  0
LINE
  5
7C8E
330
81BB
100
AcDbEntity
  8
1
100
AcDbLine
 10
3998.343106282497
 20
2617.4495434886
 30
0.0
 11
4108.343106282496
 21
2617.4495434886
 31
0.0
  0
LINE
  5
7C8F
330
81BB
100
AcDbEntity
  8
1
100
AcDbLine
 10
3998.343106282497
 20
2388.8495434886
 30
0.0
 11
4108.343106282496
 21
2388.8495434886
 31
0.0
  0
LINE
  5
7C90
330
81BB
100
AcDbEntity
  8
1
100
AcDbLine
 10
3998.343106282497
 20
3543.249543488601
 30
0.0
 11
3998.343106282497
 21
2388.8495434886
 31
0.0
  0
LINE
  5
7C91
330
81BB
100
AcDbEntity
  8
1
100
AcDbLine
 10
4108.343106282496
 20
3543.249543488601
 30
0.0
 11
4108.343106282495
 21
2388.8495434886
 31
0.0
  0
LINE
  5
7C92
330
81BB
100
AcDbEntity
  8
1
100
AcDbLine
 10
3861.343106282491
 20
3658.149543488601
 30
0.0
 11
3861.343106282506
 21
2283.1495434886
 31
0.0
  0
LINE
  5
7C93
330
81BB
100
AcDbEntity
  8
1
100
AcDbLine
 10
3861.343106282491
 20
3658.149543488601
 30
0.0
 11
4153.843106282491
 21
3658.149543488601
 31
0.0
  0
LINE
  5
7C94
330
81BB
100
AcDbEntity
  8
1
100
AcDbLine
 10
3861.3431062825
 20
2283.1495434886
 30
0.0
 11
4153.8431062825
 21
2283.1495434886
 31
0.0
  0
LINE
  5
7C95
330
81BB
100
AcDbEntity
  8
1
100
AcDbLine
 10
4153.843106282491
 20
3658.149543488602
 30
0.0
 11
4153.843106282491
 21
3638.149543488601
 31
0.0
  0
LINE
  5
7C96
330
81BB
100
AcDbEntity
  8
1
100
AcDbLine
 10
4153.8431062825
 20
2303.1495434886
 30
0.0
 11
4153.8431062825
 21
2283.149543488601
 31
0.0
  0
POINT
  5
7C97
330
81BB
100
AcDbEntity
  8
1
100
AcDbPoint
 10
5701.3431062825
 20
3342.349543488602
 30
0.0
  0
LINE
  5
7C98
330
81BB
100
AcDbEntity
  8
2
100
AcDbLine
 10
2095.1508127991
 20
6519.585604715054
 30
0.0
 11
2095.1508127991
 21
4831.5977971445
 31
0.0
  0
LINE
  5
7C99
330
81BB
100
AcDbEntity
  8
2
100
AcDbLine
 10
1609.49624714682
 20
5925.670042865874
 30
0.0
 11
2574.076003181686
 21
5925.670042865873
 31
0.0
  0
INSERT
  5
7C9A
330
81BB
100
AcDbEntity
  8
0
100
AcDbBlockReference
  2
YA_N
 10
3439.312525519781
 20
-2261.498311600258
 30
0.0
  0
LINE
  5
7C9C
330
81BB
100
AcDbEntity
  8
1
100
AcDbLine
 10
4094.343106282495
 20
2048.149543488601
 30
0.0
 11
5599.343106282497
 21
2048.149543488601
 31
0.0
1001
ACAD
1000
ASC_BOUNDS
1002
{
1070
    19
1002
}
  0
LINE
  5
7C9D
330
81BB
100
AcDbEntity
  8
1
100
AcDbLine
 10
5599.343106282497
 20
2268.1495434886
 30
0.0
 11
5599.343106282496
 21
2168.1495434886
 31
0.0
  0
LINE
  5
7C9E
330
81BB
100
AcDbEntity
  8
1
100
AcDbLine
 10
4094.343106282495
 20
2268.1495434886
 30
0.0
 11
4094.343106282495
 21
2168.1495434886
 31
0.0
  0
LINE
  5
7C9F
330
81BB
100
AcDbEntity
  8
1
100
AcDbLine
 10
4229.043106282497
 20
3345.949543488602
 30
0.0
 11
4163.343106282496
 21
3345.949543488602
 31
0.0
  0
LINE
  5
7CA0
330
81BB
100
AcDbEntity
  8
1
100
AcDbLine
 10
4229.043106282495
 20
3195.949543488601
 30
0.0
 11
4163.343106282495
 21
3195.949543488601
 31
0.0
  0
LINE
  5
7CA1
330
81BB
100
AcDbEntity
  8
1
100
AcDbLine
 10
4278.343106282496
 20
3345.949543488602
 30
0.0
 11
4278.343106282497
 21
3195.949543488601
 31
0.0
  0
LINE
  5
7CA2
330
81BB
100
AcDbEntity
  8
1
100
AcDbLine
 10
4278.343106282497
 20
3195.949543488601
 30
0.0
 11
4229.043106282495
 21
3195.949543488601
 31
0.0
  0
LINE
  5
7CA3
330
81BB
100
AcDbEntity
  8
1
100
AcDbLine
 10
4278.343106282497
 20
3345.9495434886
 30
0.0
 11
4229.043106282495
 21
3345.949543488602
 31
0.0
  0
LINE
  5
7CA4
330
81BB
100
AcDbEntity
  8
1
100
AcDbLine
 10
4153.343106282497
 20
3335.949543488601
 30
0.0
 11
4153.343106282497
 21
3205.949543488601
 31
0.0
  0
ARC
  5
7CA5
330
81BB
100
AcDbEntity
  8
1
100
AcDbCircle
 10
4163.343106282495
 20
3205.949543488601
 30
0.0
 40
10.0
100
AcDbArc
 50
179.9999999999992
 51
270.0
  0
ARC
  5
7CA6
330
81BB
100
AcDbEntity
  8
1
100
AcDbCircle
 10
4163.343106282493
 20
3335.949543488601
 30
0.0
 40
10.0
100
AcDbArc
 50
90.0
 51
179.9999999999992
  0
POINT
  5
7CA7
330
81BB
100
AcDbEntity
  8
1
100
AcDbPoint
 10
4153.343106282493
 20
3335.949543488601
 30
0.0
  0
LINE
  5
7CA8
330
81BB
100
AcDbEntity
  8
1
100
AcDbLine
 10
4118.343106282496
 20
3410.649543488601
 30
0.0
 11
4296.343106282495
 21
3410.649543488601
 31
0.0
  0
LINE
  5
7CA9
330
81BB
100
AcDbEntity
  8
1
100
AcDbLine
 10
4118.343106282496
 20
3345.649543488601
 30
0.0
 11
4160.912057126266
 21
3345.649543488601
 31
0.0
  0
LINE
  5
7CAA
330
81BB
100
AcDbEntity
  8
1
100
AcDbLine
 10
4118.343106282496
 20
3410.649543488601
 30
0.0
 11
4118.343106282496
 21
3345.649543488601
 31
0.0
  0
LINE
  5
7CAB
330
81BB
100
AcDbEntity
  8
1
100
AcDbLine
 10
4108.343106282496
 20
3408.149543488601
 30
0.0
 11
4118.343106282496
 21
3408.149543488601
 31
0.0
  0
LINE
  5
7CAC
330
81BB
100
AcDbEntity
  8
1
100
AcDbLine
 10
4108.343106282496
 20
3348.149543488601
 30
0.0
 11
4118.343106282496
 21
3348.149543488601
 31
0.0
  0
LINE
  5
7CB0
330
81BB
100
AcDbEntity
  8
1
100
AcDbLine
 10
670.1508127990997
 20
2268.149543488601
 30
0.0
 11
670.1508127990997
 21
2168.149543488601
 31
0.0
  0
LINE
  5
7CB1
330
81BB
100
AcDbEntity
  8
1
100
AcDbLine
 10
670.1508127991001
 20
2148.149543488601
 30
0.0
 11
670.1508127991001
 21
2048.149543488601
 31
0.0
  0
POINT
  5
7CB2
330
81BB
100
AcDbEntity
  8
1
100
AcDbPoint
 10
2720.150812799099
 20
2148.149543488601
 30
0.0
  0
POINT
  5
7CB3
330
81BB
100
AcDbEntity
  8
1
100
AcDbPoint
 10
2720.150812799099
 20
2168.149543488601
 30
0.0
  0
POINT
  5
7CB4
330
81BB
100
AcDbEntity
  8
1
100
AcDbPoint
 10
2720.150812799099
 20
2148.149543488601
 30
0.0
  0
LINE
  5
7CB8
330
81BB
100
AcDbEntity
  8
1
100
AcDbLine
 10
670.1508127991001
 20
5098.670042865875
 30
0.0
 11
2720.1508127991
 21
5098.670042865873
 31
0.0
  0
LINE
  5
7CB9
330
81BB
100
AcDbEntity
  8
1
100
AcDbLine
 10
1470.1508127991
 20
6603.670042865875
 30
0.0
 11
2720.1508127991
 21
6603.670042865873
 31
0.0
  0
LINE
  5
7CBA
330
81BB
100
AcDbEntity
  8
1
100
AcDbLine
 10
2720.1508127991
 20
6603.670042865873
 30
0.0
 11
2720.1508127991
 21
5098.670042865873
 31
0.0
  0
LINE
  5
7CBB
330
81BB
100
AcDbEntity
  8
1
100
AcDbLine
 10
670.1508127991001
 20
5948.670042865877
 30
0.0
 11
670.1508127991001
 21
5098.670042865875
 31
0.0
  0
LINE
  5
7CBC
330
81BB
100
AcDbEntity
  8
1
100
AcDbLine
 10
1470.1508127991
 20
6603.670042865875
 30
0.0
 11
1470.1508127991
 21
6550.670042865874
 31
0.0
  0
LINE
  5
7CBD
330
81BB
100
AcDbEntity
  8
1
100
AcDbLine
 10
670.1508127991001
 20
5948.670042865875
 30
0.0
 11
1227.1508127991
 21
5948.670042865875
 31
0.0
  0
LINE
  5
7CBE
330
81BB
100
AcDbEntity
  8
2
100
AcDbLine
 10
945.1508127990994
 20
5842.705406554247
 30
0.0
 11
945.1508127990994
 21
4833.972161775567
 31
0.0
  0
DIMENSION
  5
7CBF
330
81BB
100
AcDbEntity
  8
3
100
AcDbDimension
  2
*D8
 10
2720.1508127991
 20
6824.973980093592
 30
0.0
 11
2095.1508127991
 21
6824.973980093592
 31
0.0
 12
607.5256978222605
 22
2227.638443504635
 32
0.0
 70
   128
 71
     5
 42
-1.0
  3
Standard
100
AcDbAlignedDimension
 13
1470.1508127991
 23
6603.670042865875
 33
0.0
 14
2720.1508127991
 24
6603.670042865873
 34
0.0
100
AcDbRotatedDimension
1001
ACAD
1000
DSTYLE
1002
{
1070
    40
1040
30.0
1002
}
  0
DIMENSION
  5
7CC1
330
81BB
100
AcDbEntity
  8
3
100
AcDbDimension
  2
*D10
 10
511.4679841412835
 20
5098.670042865875
 30
0.0
 11
511.4679841412835
 21
5523.670042865875
 31
0.0
 70
   128
 71
     5
 42
-1.0
  3
Standard
100
AcDbAlignedDimension
 13
670.1508127991001
 23
5948.670042865877
 33
0.0
 14
670.1508127991001
 24
5098.670042865875
 34
0.0
 50
90.0
100
AcDbRotatedDimension
1001
ACAD
1000
DSTYLE
1002
{
1070
    40
1040
30.0
1002
}
  0
DIMENSION
  5
7CC2
330
81BB
100
AcDbEntity
  8
3
100
AcDbDimension
  2
*D11
 10
3118.794950808035
 20
5098.670042865873
 30
0.0
 11
3058.794950808035
 21
5851.170042865874
 31
0.0
 12
607.5256978222605
 22
2227.638443504635
 32
0.0
 71
     5
 42
-1.0
  3
Standard
100
AcDbAlignedDimension
 13
2720.1508127991
 23
6603.670042865873
 33
0.0
 14
2720.1508127991
 24
5098.670042865873
 34
0.0
 50
90.0
100
AcDbRotatedDimension
1001
ACAD
1000
DSTYLE
1002
{
1070
    40
1040
30.0
1002
}
  0
DIMENSION
  5
7CC6
330
81BB
100
AcDbEntity
  8
3
100
AcDbDimension
  2
*D15
 10
5546.343106282497
 20
4352.144294910529
 30
0.0
 11
4921.343106282495
 21
4412.144294910529
 31
0.0
 12
37.23848520900356
 22
2750.089240652855
 32
0.0
 71
     5
 42
-1.0
  3
Standard
100
AcDbAlignedDimension
 13
4296.343106282495
 23
4072.463861142235
 33
0.0
 14
5546.343106282497
 24
4069.185308946779
 34
0.0
100
AcDbRotatedDimension
1001
ACAD
1000
DSTYLE
1002
{
1070
    40
1040
30.0
1002
}
  0
DIMENSION
  5
7CC7
330
81BB
100
AcDbEntity
  8
3
100
AcDbDimension
  2
*D16
 10
5890.711326653807
 20
3908.149543488601
 30
0.0
 11
5830.711326653807
 21
3378.149543488601
 31
0.0
 12
37.23848520900356
 22
2750.089240652855
 32
0.0
  1
\U+03C6<>
 71
     5
 42
-1.0
  3
Standard
100
AcDbAlignedDimension
 13
5551.843106282497
 23
2848.149543488601
 33
0.0
 14
5551.843106282497
 24
3908.149543488601
 34
0.0
 50
90.0
100
AcDbRotatedDimension
1001
ACAD
1000
DSTYLE
1002
{
1070
    40
1040
30.0
1002
}
  0
LINE
  5
7CC8
330
81BB
100
AcDbEntity
  8
2
100
AcDbLine
 10
3831.819195112722
 20
2503.1495434886
 30
0.0
 11
4436.713584253999
 21
2503.1495434886
 31
0.0
  0
ARC
  5
7CC9
330
81BB
100
AcDbEntity
  8
1
100
AcDbCircle
 10
2095.150812799098
 20
3378.1495434886
 30
0.0
 40
280.0
100
AcDbArc
 50
287.0299834154885
 51
112.6559573314276
  0
ARC
  5
7CCA
330
81BB
100
AcDbEntity
  8
1
100
AcDbCircle
 10
945.1508127990994
 20
2503.1495434886
 30
0.0
 40
220.0
100
AcDbArc
 50
112.6559573314276
 51
287.0299834154885
  0
LINE
  5
7CCB
330
81BB
100
AcDbEntity
  8
1
100
AcDbLine
 10
1987.29571356841
 20
3636.543191959182
 30
0.0
 11
860.4075205464162
 21
2706.173124429771
 31
0.0
  0
LINE
  5
7CCC
330
81BB
100
AcDbEntity
  8
1
100
AcDbLine
 10
2177.155002999696
 20
3110.427088715856
 30
0.0
 11
1009.582676528141
 21
2292.796186167157
 31
0.0
  0
LINE
  5
7CCD
330
81BB
100
AcDbEntity
  8
1
100
AcDbLine
 10
2032.704309542995
 20
3530.984239258525
 30
0.0
 11
901.9186182371822
 21
2608.958179021625
 31
0.0
  0
LINE
  5
7CCE
330
81BB
100
AcDbEntity
  8
1
100
AcDbLine
 10
2144.691742120197
 20
3220.65761886387
 30
0.0
 11
979.4483792521678
 21
2394.116672594555
 31
0.0
  0
INSERT
  5
7CCF
330
81BB
100
AcDbEntity
  8
0
100
AcDbBlockReference
  2
YA_N
 10
742.6405419924267
 20
-7350.772430041375
 30
0.0
  0
INSERT
  5
7CD1
330
81BB
100
AcDbEntity
  8
0
100
AcDbBlockReference
  2
YA_N
 10
2.995684825677016
 20
-7626.802696743742
 30
0.0
 41
20.0
 42
20.0
 43
20.0
  0
INSERT
  5
7CD3
330
81BB
100
AcDbEntity
  8
0
100
AcDbBlockReference
  2
YA_N
 10
699.9059132844049
 20
-7054.118742438055
 30
0.0
 41
20.0
 42
20.0
 43
20.0
  0
INSERT
  5
7CD5
330
81BB
100
AcDbEntity
  8
0
100
AcDbBlockReference
  2
YA_N
 10
814.1254386385663
 20
-7130.460452277301
 30
0.0
 41
20.0
 42
20.0
 43
20.0
  0
ARC
  5
7CD7
330
81BB
100
AcDbEntity
  8
1
100
AcDbCircle
 10
2095.150812799098
 20
3378.1495434886
 30
0.0
 40
599.0
100
AcDbArc
 50
355.7875009220854
 51
0.0
  0
CIRCLE
  5
7CD8
330
81BB
100
AcDbEntity
  8
1
100
AcDbCircle
 10
2095.150812799098
 20
3378.1495434886
 30
0.0
 40
530.0
  0
CIRCLE
  5
7CD9
330
81BB
100
AcDbEntity
  8
1
100
AcDbCircle
 10
2095.150812799098
 20
3378.1495434886
 30
0.0
 40
580.0
  0
LINE
  5
7CDA
330
81BB
100
AcDbEntity
  8
1
100
AcDbLine
 10
5599.343106282496
 20
2148.149543488601
 30
0.0
 11
5599.343106282496
 21
2048.149543488601
 31
0.0
  0
LINE
  5
7CDB
330
81BB
100
AcDbEntity
  8
1
100
AcDbLine
 10
4094.343106282495
 20
2148.149543488601
 30
0.0
 11
4094.343106282495
 21
2048.149543488601
 31
0.0
  0
LINE
  5
7CDC
330
81BB
100
AcDbEntity
  8
1
100
AcDbLine
 10
725.1508127990993
 20
4865.670042865875
 30
0.0
 11
2375.150812799098
 21
4865.670042865873
 31
0.0
  0
LINE
  5
7CDD
330
81BB
100
AcDbEntity
  8
1
100
AcDbLine
 10
725.1508127990993
 20
5185.670042865876
 30
0.0
 11
2375.150812799098
 21
5185.670042865873
 31
0.0
  0
LINE
  5
7CDE
330
81BB
100
AcDbEntity
  8
1
100
AcDbLine
 10
2375.150812799098
 20
4865.670042865873
 30
0.0
 11
2375.150812799098
 21
5185.670042865873
 31
0.0
  0
LINE
  5
7CDF
330
81BB
100
AcDbEntity
  8
1
100
AcDbLine
 10
725.1508127990993
 20
4865.670042865875
 30
0.0
 11
725.1508127990993
 21
5185.670042865876
 31
0.0
  0
LINE
  5
7CE0
330
81BB
100
AcDbEntity
  8
1
100
AcDbLine
 10
830.850812799099
 20
5030.670042865875
 30
0.0
 11
830.850812799099
 21
5140.670042865875
 31
0.0
  0
LINE
  5
7CE1
330
81BB
100
AcDbEntity
  8
1
100
AcDbLine
 10
1059.450812799099
 20
5030.670042865875
 30
0.0
 11
1059.450812799099
 21
5140.670042865874
 31
0.0
  0
LINE
  5
7CE2
330
81BB
100
AcDbEntity
  8
1
100
AcDbLine
 10
2260.250812799099
 20
5030.670042865875
 30
0.0
 11
2260.250812799099
 21
5140.670042865873
 31
0.0
  0
LINE
  5
7CE3
330
81BB
100
AcDbEntity
  8
1
100
AcDbLine
 10
1930.050812799098
 20
5030.670042865875
 30
0.0
 11
1930.050812799098
 21
5140.670042865873
 31
0.0
  0
LINE
  5
7CE4
330
81BB
100
AcDbEntity
  8
1
100
AcDbLine
 10
830.850812799099
 20
5140.670042865875
 30
0.0
 11
1059.450812799099
 21
5140.670042865875
 31
0.0
  0
LINE
  5
7CE5
330
81BB
100
AcDbEntity
  8
1
100
AcDbLine
 10
830.850812799099
 20
5030.670042865875
 30
0.0
 11
1059.450812799099
 21
5030.670042865875
 31
0.0
  0
LINE
  5
7CE6
330
81BB
100
AcDbEntity
  8
1
100
AcDbLine
 10
1930.050812799098
 20
5030.670042865875
 30
0.0
 11
2260.250812799099
 21
5030.670042865875
 31
0.0
  0
LINE
  5
7CE7
330
81BB
100
AcDbEntity
  8
1
100
AcDbLine
 10
1930.050812799098
 20
5140.670042865873
 30
0.0
 11
2260.250812799099
 21
5140.670042865873
 31
0.0
  0
LINE
  5
7CE8
330
81BB
100
AcDbEntity
  8
1
100
AcDbLine
 10
1127.650812799099
 20
5707.170042865875
 30
0.0
 11
1127.650812799099
 21
5145.670042865875
 31
0.0
  0
LINE
  5
7CE9
330
81BB
100
AcDbEntity
  8
1
100
AcDbLine
 10
762.6508127990993
 20
5707.170042865875
 30
0.0
 11
762.6508127990993
 21
5145.670042865875
 31
0.0
  0
LINE
  5
7CEA
330
81BB
100
AcDbEntity
  8
1
100
AcDbLine
 10
762.6508127990993
 20
5707.170042865875
 30
0.0
 11
1127.650812799099
 21
5707.170042865875
 31
0.0
  0
LINE
  5
7CEB
330
81BB
100
AcDbEntity
  8
1
100
AcDbLine
 10
762.6508127990993
 20
5145.670042865875
 30
0.0
 11
1127.650812799099
 21
5145.670042865875
 31
0.0
  0
LINE
  5
7CEC
330
81BB
100
AcDbEntity
  8
1
100
AcDbLine
 10
969.1508127990994
 20
5145.670042865875
 30
0.0
 11
969.1508127990994
 21
5140.670042865875
 31
0.0
  0
LINE
  5
7CED
330
81BB
100
AcDbEntity
  8
1
100
AcDbLine
 10
921.1508127990994
 20
5145.670042865875
 30
0.0
 11
921.1508127990994
 21
5140.670042865875
 31
0.0
  0
LINE
  5
7CEE
330
81BB
100
AcDbEntity
  8
1
100
AcDbLine
 10
4296.343106282495
 20
2685.649543488601
 30
0.0
 11
4113.343106282497
 21
2685.649543488601
 31
0.0
  0
LINE
  5
7CEF
330
81BB
100
AcDbEntity
  8
1
100
AcDbLine
 10
4296.343106282495
 20
2320.649543488601
 30
0.0
 11
4113.343106282497
 21
2320.649543488601
 31
0.0
  0
LINE
  5
7CF0
330
81BB
100
AcDbEntity
  8
1
100
AcDbLine
 10
4113.343106282496
 20
2685.649543488601
 30
0.0
 11
4113.343106282496
 21
2320.649543488601
 31
0.0
  0
LINE
  5
7CF1
330
81BB
100
AcDbEntity
  8
1
100
AcDbLine
 10
4113.343106282497
 20
2527.149543488601
 30
0.0
 11
4108.343106282496
 21
2527.149543488601
 31
0.0
  0
LINE
  5
7CF2
330
81BB
100
AcDbEntity
  8
1
100
AcDbLine
 10
4113.343106282497
 20
2479.149543488601
 30
0.0
 11
4108.343106282496
 21
2479.149543488601
 31
0.0
  0
DIMENSION
  5
7CF3
330
81BB
100
AcDbEntity
  8
3
100
AcDbDimension
  2
*D17
 10
670.1508127990997
 20
4483.440263558555
 30
0.0
 11
1722.650812799099
 21
4543.440263558554
 31
0.0
 12
607.5256978222605
 22
2750.089240652855
 32
0.0
 71
     5
 42
-1.0
  3
Standard
100
AcDbAlignedDimension
 13
2775.1508127991
 23
3354.029097341083
 33
0.0
 14
670.1508127990997
 24
2268.149543488599
 34
0.0
100
AcDbRotatedDimension
1001
ACAD
1000
DSTYLE
1002
{
1070
    40
1040
30.0
1002
}
  0
LINE
  5
7CF4
330
81BB
100
AcDbEntity
  8
1
100
AcDbLine
 10
2775.1508127991
 20
6600.670042865871
 30
0.0
 11
2775.1508127991
 21
5250.670042865873
 31
0.0
  0
LINE
  5
7CF5
330
81BB
100
AcDbEntity
  8
1
100
AcDbLine
 10
1227.1508127991
 20
6550.670042865874
 30
0.0
 11
1227.1508127991
 21
5300.670042865873
 31
0.0
  0
LINE
  5
7CF6
330
81BB
100
AcDbEntity
  8
1
100
AcDbLine
 10
1227.1508127991
 20
5300.670042865873
 30
0.0
 11
2775.1508127991
 21
5300.670042865873
 31
0.0
  0
LINE
  5
7CF7
330
81BB
100
AcDbEntity
  8
1
100
AcDbLine
 10
1227.1508127991
 20
6550.670042865874
 30
0.0
 11
2775.1508127991
 21
6550.670042865871
 31
0.0
  0
LINE
  5
7CF8
330
81BB
100
AcDbEntity
  8
1
100
AcDbLine
 10
2771.1508127991
 20
6600.670042865873
 30
0.0
 11
2775.1508127991
 21
6600.670042865871
 31
0.0
  0
LINE
  5
7CF9
330
81BB
100
AcDbEntity
  8
1
100
AcDbLine
 10
2771.1508127991
 20
5250.670042865873
 30
0.0
 11
2775.1508127991
 21
5250.670042865873
 31
0.0
  0
LINE
  5
7CFA
330
81BB
100
AcDbEntity
  8
1
100
AcDbLine
 10
2771.1508127991
 20
6600.670042865871
 30
0.0
 11
2771.1508127991
 21
5250.670042865873
 31
0.0
  0
LINE
  5
7CFB
330
81BB
100
AcDbEntity
  8
1
100
AcDbLine
 10
2127.6508127991
 20
5300.670042865874
 30
0.0
 11
2127.6508127991
 21
5140.670042865874
 31
0.0
  0
LINE
  5
7CFC
330
81BB
100
AcDbEntity
  8
1
100
AcDbLine
 10
2062.6508127991
 20
5300.670042865874
 30
0.0
 11
2062.6508127991
 21
5140.670042865874
 31
0.0
  0
LINE
  5
7CFD
330
81BB
100
AcDbEntity
  8
1
100
AcDbLine
 10
4278.343106282496
 20
3345.649543488601
 30
0.0
 11
4296.343106282495
 21
3345.649543488601
 31
0.0
  0
DIMENSION
  5
7CFE
330
81BB
100
AcDbEntity
  8
3
100
AcDbDimension
  2
*D18
 10
670.1508127991001
 20
6824.973980093592
 30
0.0
 11
1070.1508127991
 21
6884.973980093594
 31
0.0
 12
607.5256978222605
 22
2227.638443504635
 32
0.0
 71
     5
 42
-1.0
  3
Standard
100
AcDbAlignedDimension
 13
1470.1508127991
 23
6603.670042865875
 33
0.0
 14
670.1508127991001
 24
5948.670042865875
 34
0.0
100
AcDbRotatedDimension
1001
ACAD
1000
DSTYLE
1002
{
1070
    40
1040
30.0
1002
}
  0
LINE
  5
7D05
330
81BB
100
AcDbEntity
  8
1
100
AcDbLine
 10
4296.343106282495
 20
4098.149543488601
 30
0.0
 11
5546.343106282497
 21
4098.149543488601
 31
0.0
  0
LINE
  5
7D06
330
81BB
100
AcDbEntity
  8
1
100
AcDbLine
 10
4296.343106282495
 20
2304.149543488601
 30
0.0
 11
5546.343106282497
 21
2304.149543488601
 31
0.0
  0
LINE
  5
7D07
330
81BB
100
AcDbEntity
  8
1
100
AcDbLine
 10
4296.343106282495
 20
3334.149543488602
 30
0.0
 11
5546.343106282497
 21
3334.149543488602
 31
0.0
  0
LINE
  5
7D08
330
81BB
100
AcDbEntity
  8
1
100
AcDbLine
 10
5546.343106282497
 20
3334.149543488602
 30
0.0
 11
4296.343106282495
 21
2304.149543488601
 31
0.0
  0
LINE
  5
7D09
330
81BB
100
AcDbEntity
  8
1
100
AcDbLine
 10
4296.343106282495
 20
3334.149543488602
 30
0.0
 11
5546.343106282496
 21
2304.149543488601
 31
0.0
  0
DIMENSION
  5
7D0A
330
81BB
100
AcDbEntity
  8
3
100
AcDbDimension
  2
*D19
 10
3416.322280557938
 20
3378.1495434886
 30
0.0
 11
3356.32228055794
 21
3738.1495434886
 31
0.0
 12
607.5256978222605
 22
2750.089240652855
 32
0.0
 71
     5
 42
-1.0
  3
Standard
100
AcDbAlignedDimension
 13
2021.1508127991
 23
4098.149543488601
 33
0.0
 14
2834.766795296728
 24
3378.1495434886
 34
0.0
 50
90.0
100
AcDbRotatedDimension
1001
ACAD
1000
DSTYLE
1002
{
1070
    40
1040
30.0
1002
}
  0
DIMENSION
  5
7D0D
330
81BB
100
AcDbEntity
  8
3
100
AcDbDimension
  2
*D21
 10
3416.322280557938
 20
2048.149543488601
 30
0.0
 11
3356.32228055794
 21
1806.006686345744
 31
0.0
 12
0.0
 22
-1.0
 32
0.0
 71
     5
 42
-1.0
  3
Standard
100
AcDbAlignedDimension
 13
2720.150812799099
 23
2148.149543488601
 33
0.0
 14
2720.150812799099
 24
2048.149543488601
 34
0.0
 50
90.0
100
AcDbRotatedDimension
1001
ACAD
1000
DSTYLE
1002
{
1070
    40
1040
30.0
1070
     6
1000
_DOT
1002
}
  0
LINE
  5
7F53
330
81BB
100
AcDbEntity
  8
4
100
AcDbLine
 10
5550.0
 20
1210.115599408851
 30
0.0
 11
5550.0
 21
610.1155994088513
 31
0.0
  0
LINE
  5
7F54
330
81BB
100
AcDbEntity
  8
4
100
AcDbLine
 10
3450.0
 20
1210.115599408851
 30
0.0
 11
3450.0
 21
610.1155994088513
 31
0.0
  0
LINE
  5
7F55
330
81BB
100
AcDbEntity
  8
4
100
AcDbLine
 10
1950.0
 20
1210.115599408851
 30
0.0
 11
1950.0
 21
610.1155994088513
 31
0.0
  0
LINE
  5
7F58
330
81BB
100
AcDbEntity
  8
4
100
AcDbLine
 10
1950.0
 20
610.1155994088513
 30
0.0
 11
5550.0
 21
610.1155994088513
 31
0.0
  0
LINE
  5
7F59
330
81BB
100
AcDbEntity
  8
4
100
AcDbLine
 10
1950.0
 20
910.1155994088513
 30
0.0
 11
5550.0
 21
910.1155994088513
 31
0.0
  0
TEXT
  5
7F5A
330
81BB
100
AcDbEntity
  8
4
100
AcDbText
 10
2065.506242540704
 20
1004.74467700869
 30
0.0
 40
150.0
  1
機器名称
100
AcDbText
  0
TEXT
  5
7F5B
330
81BB
100
AcDbEntity
  8
4
100
AcDbText
 10
2058.774318074392
 20
675.0510696048841
 30
0.0
 40
150.0
  1
機器型番
100
AcDbText
  0
TEXT
  5
7F5C
330
81BB
100
AcDbEntity
  8
4
100
AcDbText
 10
3533.036236462995
 20
977.8309062815567
 30
0.0
 40
150.0
  1
ミツヤ多翼送風機
100
AcDbText
  0
TEXT
  5
7F5D
330
81BB
100
AcDbEntity
  8
4
100
AcDbText
 10
3559.963486756442
 20
661.5943522486814
 30
0.0
 40
150.0
  1
MF#6-5
100
AcDbText
  0
TEXT
  5
7F5F
330
81BB
100
AcDbEntity
  8
4
100
AcDbText
 10
2397.53107104676
 20
7150.286523997547
 30
0.0
 40
161.9999999999998
  1
床置防振ベット
100
AcDbText
  0
TEXT
  5
7F60
330
81BB
100
AcDbEntity
  8
4
100
AcDbText
 10
948.5027799883393
 20
7601.642928597894
 30
0.0
 40
216.0
  1
遠心式両吸込両持多翼ファン
100
AcDbText
  0
LINE
  5
7F61
330
81BB
100
AcDbEntity
  8
4
100
AcDbLine
 10
750.0
 20
7408.226262794413
 30
0.0
 11
5550.0
 21
7408.226262794413
 31
0.0
  0
LINE
  5
7F62
330
81BB
100
AcDbEntity
  8
4
100
AcDbLine
 10
750.0
 20
8008.226262794414
 30
0.0
 11
5550.0
 21
8008.226262794414
 31
0.0
  0
LINE
  5
7F63
330
81BB
100
AcDbEntity
  8
4
100
AcDbLine
 10
1950.0
 20
1210.115599408851
 30
0.0
 11
5550.0
 21
1210.115599408851
 31
0.0
  0
LINE
  5
7F64
330
81BB
100
AcDbEntity
  8
4
100
AcDbLine
 10
750.0
 20
8008.226262794414
 30
0.0
 11
750.0
 21
7408.226262794413
 31
0.0
  0
TEXT
  5
7F65
330
81BB
100
AcDbEntity
  8
4
100
AcDbText
 10
1089.954574318652
 20
7146.958432639029
 30
0.0
 40
161.9999999999998
  1
左回転右横向
100
AcDbText
  0
TEXT
  5
7F66
330
81BB
100
AcDbEntity
  8
4
100
AcDbText
 10
4406.908677747869
 20
8118.183244485924
 30
0.0
 40
168.0
  1
No.
100
AcDbText
  0
TEXT
  5
7F67
330
81BB
100
AcDbEntity
  8
4
100
AcDbText
 10
3933.888187800039
 20
7150.286523997547
 30
0.0
 40
161.9999999999998
  1
縮尺：1/30
100
AcDbText
  0
LINE
  5
7F68
330
81BB
100
AcDbEntity
  8
4
100
AcDbLine
 10
5550.0
 20
8008.226262794414
 30
0.0
 11
5550.0
 21
7408.226262794413
 31
0.0
  0
LINE
  5
7F69
330
81BB
100
AcDbEntity
  8
4
100
AcDbLine
 10
6300.0
 20
8850.0
 30
0.0
 11
6300.0
 21
8850.0
 31
0.0
  0
LINE
  5
7F6A
330
81BB
100
AcDbEntity
  8
4
100
AcDbLine
 10
4321.852267079594
 20
8043.790749376205
 30
0.0
 11
4321.852267079594
 21
8359.956784649257
 31
0.0
  0
LINE
  5
7F6B
330
81BB
100
AcDbEntity
  8
4
100
AcDbLine
 10
4321.852267079594
 20
8359.956784649257
 30
0.0
 11
5550.0
 21
8359.956784649257
 31
0.0
  0
LINE
  5
7F6C
330
81BB
100
AcDbEntity
  8
4
100
AcDbLine
 10
5550.0
 20
8359.956784649257
 30
0.0
 11
5550.0
 21
8043.790749376205
 31
0.0
  0
LINE
  5
7F6D
330
81BB
100
AcDbEntity
  8
4
100
AcDbLine
 10
5550.0
 20
8043.790749376205
 30
0.0
 11
4321.852267079594
 21
8043.790749376205
 31
0.0
  0
LINE
  5
7F6E
330
81BB
100
AcDbEntity
  8
4
100
AcDbLine
 10
0.0
 20
0.0
 30
0.0
 11
0.0
 21
8850.0
 31
0.0
  0
LINE
  5
7F6F
330
81BB
100
AcDbEntity
  8
4
100
AcDbLine
 10
0.0
 20
8850.0
 30
0.0
 11
6300.0
 21
8850.0
 31
0.0
  0
LINE
  5
7F70
330
81BB
100
AcDbEntity
  8
4
100
AcDbLine
 10
6300.0
 20
8850.0
 30
0.0
 11
6300.0
 21
0.0
 31
0.0
  0
LINE
  5
7F71
330
81BB
100
AcDbEntity
  8
4
100
AcDbLine
 10
6300.0
 20
0.0
 30
0.0
 11
0.0
 21
0.0
 31
0.0
  0
DIMENSION
  5
8045
330
81BB
100
AcDbEntity
  8
3
100
AcDbDimension
  2
*D23
 10
2095.150812799098
 20
1834.532675969436
 30
0.0
 11
1382.650812799099
 21
1909.532675969436
 31
0.0
 12
0.0
 22
7.0
 32
0.0
 71
     5
 42
-1.0
  3
Standard
100
AcDbAlignedDimension
 13
670.1508127991001
 23
2048.149543488601
 33
0.0
 14
2095.150812799098
 24
2048.149543488601
 34
0.0
100
AcDbRotatedDimension
1001
ACAD
1000
DSTYLE
1002
{
1070
   172
1070
     1
1070
    40
1040
30.0
1070
    42
1040
1.0
1070
   271
1070
     0
1070
   143
1040
0.039
1002
}
  0
DIMENSION
  5
8052
330
81BB
100
AcDbEntity
  8
3
100
AcDbDimension
  2
*D24
 10
2720.150812799099
 20
1834.532675969436
 30
0.0
 11
2407.650812799098
 21
1909.532675969436
 31
0.0
 12
0.0
 22
7.0
 32
0.0
 71
     5
 42
-1.0
  3
Standard
100
AcDbAlignedDimension
 13
2095.150812799098
 23
2048.149543488601
 33
0.0
 14
2720.150812799099
 24
2048.149543488601
 34
0.0
100
AcDbRotatedDimension
1001
ACAD
1000
DSTYLE
1002
{
1070
   172
1070
     1
1070
    40
1040
30.0
1070
    42
1040
1.0
1070
   271
1070
     0
1070
   143
1040
0.039
1002
}
  0
DIMENSION
  5
805F
330
81BB
100
AcDbEntity
  8
3
100
AcDbDimension
  2
*D25
 10
4921.343106282495
 20
1834.532675969436
 30
0.0
 11
4507.843106282495
 21
1909.532675969436
 31
0.0
 12
0.0
 22
7.0
 32
0.0
 71
     5
 42
-1.0
  3
Standard
100
AcDbAlignedDimension
 13
4094.343106282495
 23
2048.149543488601
 33
0.0
 14
4921.343106282495
 24
2048.149543488601
 34
0.0
100
AcDbRotatedDimension
1001
ACAD
1000
DSTYLE
1002
{
1070
   172
1070
     1
1070
    40
1040
30.0
1070
    42
1040
1.0
1070
   271
1070
     0
1070
   143
1040
0.039
1002
}
  0
DIMENSION
  5
806C
330
81BB
100
AcDbEntity
  8
3
100
AcDbDimension
  2
*D26
 10
5599.343106282496
 20
1834.532675969436
 30
0.0
 11
5260.343106282497
 21
1909.532675969436
 31
0.0
 12
0.0
 22
7.0
 32
0.0
 71
     5
 42
-1.0
  3
Standard
100
AcDbAlignedDimension
 13
4921.343106282495
 23
2048.149543488601
 33
0.0
 14
5599.343106282496
 24
2048.149543488601
 34
0.0
100
AcDbRotatedDimension
1001
ACAD
1000
DSTYLE
1002
{
1070
   172
1070
     1
1070
    40
1040
30.0
1070
    42
1040
1.0
1070
   271
1070
     0
1070
   143
1040
0.039
1002
}
  0
DIMENSION
  5
80BE
330
81BB
100
AcDbEntity
  8
3
100
AcDbDimension
  2
*D28
 10
3416.133707241094
 20
2168.149543488601
 30
0.0
 11
3559.705135812521
 21
2158.149543488601
 31
0.0
  1
 <>
 71
     5
 42
-1.0
  3
Standard
100
AcDbAlignedDimension
 13
2720.150812799099
 23
2148.149543488601
 33
0.0
 14
2720.150812799099
 24
2168.149543488601
 34
0.0
 50
90.0
100
AcDbRotatedDimension
1001
ACAD
1000
DSTYLE
1002
{
1070
   172
1070
     1
1070
    76
1070
     1
1070
    75
1070
     1
1070
    40
1040
30.0
1070
     3
1000
(<>)
1070
    42
1040
1.0
1070
   271
1070
     0
1070
     7
1000
_NONE
1070
     6
1000
_NONE
1070
   143
1040
0.039
1002
}
  0
DIMENSION
  5
80CB
330
81BB
100
AcDbEntity
  8
3
100
AcDbDimension
  2
*D29
 10
3654.634598150221
 20
4098.149543488601
 30
0.0
 11
3556.063169578791
 21
3073.149543488601
 31
0.0
 71
     5
 42
-1.0
  3
Standard
100
AcDbAlignedDimension
 13
2720.150812799099
 23
2048.149543488601
 33
0.0
 14
2051.1508127991
 24
4098.149543488601
 34
0.0
 50
90.0
100
AcDbRotatedDimension
1001
ACAD
1000
DSTYLE
1002
{
1070
   172
1070
     1
1070
    40
1040
30.0
1070
     3
1000
(<>)
1070
    42
1040
1.0
1070
   271
1070
     0
1070
   143
1040
0.039
1002
}
  0
DIMENSION
  5
8208
330
81BB
100
AcDbEntity
  8
3
100
AcDbDimension
  2
*D30
 10
4921.343106282495
 20
4552.039981542515
 30
0.0
 11
4391.343106282493
 21
4650.611410113944
 31
0.0
 70
    32
 71
     5
 42
1060.000000000005
  3
IGA
100
AcDbAlignedDimension
 13
3861.343106282491
 23
3658.149543488601
 33
0.0
 14
4921.343106282495
 24
4457.144294910528
 34
0.0
100
AcDbRotatedDimension
1001
ACAD
1000
DSTYLE
1002
{
1070
     3
1000
(<>)
1070
    40
1040
30.0
1070
    42
1040
1.0
1070
   143
1040
0.039
1070
   172
1070
     1
1070
   271
1070
     4
1070
   272
1070
     4
1070
   279
1070
     0
1070
   284
1070
     0
1070
   285
1070
     0
1070
   286
1070
     0
1070
   341
1005
81CF
1070
   343
1005
81CF
1070
   344
1005
81CF
1002
}
  0
DIMENSION
  5
8215
330
81BB
100
AcDbEntity
  8
3
100
AcDbDimension
  2
*D31
 10
5701.343106282497
 20
4552.039981542515
 30
0.0
 11
5311.343106282496
 21
4650.611410113944
 31
0.0
 70
    32
 71
     5
 42
780.0000000000009
  3
IGA
100
AcDbAlignedDimension
 13
4921.343106282495
 23
4457.144294910528
 33
0.0
 14
5701.343106282497
 24
3342.349543488602
 34
0.0
100
AcDbRotatedDimension
1001
ACAD
1000
DSTYLE
1002
{
1070
     3
1000
(<>)
1070
    40
1040
30.0
1070
    42
1040
1.0
1070
   143
1040
0.039
1070
   172
1070
     1
1070
   271
1070
     4
1070
   272
1070
     4
1070
   279
1070
     1
1070
   284
1070
     0
1070
   285
1070
     0
1070
   286
1070
     0
1070
   341
1005
81CF
1070
   343
1005
81CF
1070
   344
1005
81CF
1002
}
  0
DIMENSION
  5
826C
330
81BB
100
AcDbEntity
  8
3
100
AcDbDimension
  2
*D34
 10
2720.1508127991
 20
4690.597829258208
 30
0.0
 11
1695.1508127991
 21
4765.597829258207
 31
0.0
 70
    32
 71
     5
 42
2050.0
  3
IGA
100
AcDbAlignedDimension
 13
670.1508127991001
 23
5098.670042865875
 33
0.0
 14
2720.1508127991
 24
5098.670042865873
 34
0.0
100
AcDbRotatedDimension
1001
ACAD
1000
DSTYLE
1002
{
1070
    40
1040
30.0
1070
    42
1040
1.0
1070
   143
1040
0.039
1070
   172
1070
     1
1070
   271
1070
     4
1070
   272
1070
     4
1070
   279
1070
     0
1070
   284
1070
     0
1070
   285
1070
     0
1070
   286
1070
     0
1070
   341
1005
81CF
1070
   343
1005
81CF
1070
   344
1005
81CF
1002
}
  0
DIMENSION
  5
8279
330
81BB
100
AcDbEntity
  8
3
100
AcDbDimension
  2
*D35
 10
3416.322280557938
 20
2168.149543488601
 30
0.0
 11
3341.322280557938
 21
2773.149543488601
 31
0.0
 70
    32
 71
     5
 42
1209.999999999999
  3
IGA
100
AcDbAlignedDimension
 13
2834.766795296728
 23
3378.1495434886
 33
0.0
 14
2720.150812799099
 24
2168.149543488601
 34
0.0
 50
90.0
100
AcDbRotatedDimension
1001
ACAD
1000
DSTYLE
1002
{
1070
    40
1040
30.0
1070
    42
1040
1.0
1070
   143
1040
0.039
1070
   172
1070
     1
1070
   271
1070
     4
1070
   272
1070
     4
1070
   279
1070
     0
1070
   284
1070
     0
1070
   285
1070
     0
1070
   286
1070
     0
1070
   341
1005
81CF
1070
   343
1005
81CF
1070
   344
1005
81CF
1002
}
  0
ENDSEC
  0
SECTION
  2
OBJECTS
  0
DICTIONARY
  5
8158
330
0
100
AcDbDictionary
281
     1
  3
ACAD_CIP_PREVIOUS_PRODUCT_INFO
350
8207
  3
ACAD_COLOR
350
81AE
  3
ACAD_DETAILVIEWSTYLE
350
81B5
  3
ACAD_GROUP
350
8159
  3
ACAD_LAYOUT
350
81AD
  3
ACAD_MATERIAL
350
815C
  3
ACAD_MLEADERSTYLE
350
81B1
  3
ACAD_MLINESTYLE
350
81AA
  3
ACAD_PLOTSETTINGS
350
81AC
  3
ACAD_PLOTSTYLENAME
350
815A
  3
ACAD_SCALELIST
350
818E
  3
ACAD_SECTIONVIEWSTYLE
350
81B3
  3
ACAD_TABLESTYLE
350
81AF
  3
ACAD_VISUALSTYLE
350
8175
  3
ACDB_RECOMPOSE_DATA
350
82E7
  3
AcDbVariableDictionary
350
8299
  3
DWGPROPS
350
82E8
  0
DICTIONARY
  5
828F
330
81A0
100
AcDbDictionary
280
     1
281
     1
  3
ADSK_XREC_LAYER_RECONCILED
360
8290
  0
DICTIONARY
  5
8291
330
81BF
100
AcDbDictionary
280
     1
281
     1
  3
ADSK_XREC_LAYER_RECONCILED
360
8292
  0
DICTIONARY
  5
8293
330
81C2
100
AcDbDictionary
280
     1
281
     1
  3
ADSK_XREC_LAYER_RECONCILED
360
8294
  0
DICTIONARY
  5
8295
330
81C3
100
AcDbDictionary
280
     1
281
     1
  3
ADSK_XREC_LAYER_RECONCILED
360
8296
  0
DICTIONARY
  5
8297
330
81C4
100
AcDbDictionary
280
     1
281
     1
  3
ADSK_XREC_LAYER_RECONCILED
360
8298
  0
XRECORD
  5
8207
102
{ACAD_REACTORS
330
8158
102
}
330
8158
100
AcDbXrecord
280
     1
300
ACDLT
300
2015
300
INVLTS_F_S
  0
DICTIONARY
  5
81AE
102
{ACAD_REACTORS
330
8158
102
}
330
8158
100
AcDbDictionary
281
     1
  0
DICTIONARY
  5
81B5
102
{ACAD_REACTORS
330
8158
102
}
330
8158
100
AcDbDictionary
281
     1
  3
Imperial24
350
81B6
  0
DICTIONARY
  5
8159
102
{ACAD_REACTORS
330
8158
102
}
330
8158
100
AcDbDictionary
281
     1
  0
DICTIONARY
  5
81AD
102
{ACAD_REACTORS
330
8158
102
}
330
8158
100
AcDbDictionary
281
     1
  3
Model
350
81BE
  3
レイアウト1
350
81BA
  0
DICTIONARY
  5
815C
102
{ACAD_REACTORS
330
8158
102
}
330
8158
100
AcDbDictionary
281
     1
  3
ByBlock
350
8165
  3
ByLayer
350
815D
  3
Global
350
816D
  0
DICTIONARY
  5
81B1
102
{ACAD_REACTORS
330
8158
102
}
330
8158
100
AcDbDictionary
281
     1
  3
Standard
350
81B2
  0
DICTIONARY
  5
81AA
102
{ACAD_REACTORS
330
8158
102
}
330
8158
100
AcDbDictionary
281
     1
  3
Standard
350
81AB
  0
DICTIONARY
  5
81AC
102
{ACAD_REACTORS
330
8158
102
}
330
8158
100
AcDbDictionary
281
     1
  0
ACDBDICTIONARYWDFLT
  5
815A
102
{ACAD_REACTORS
330
8158
102
}
330
8158
100
AcDbDictionary
281
     1
  3
Normal
350
815B
100
AcDbDictionaryWithDefault
340
815B
  0
DICTIONARY
  5
818E
102
{ACAD_REACTORS
330
8158
102
}
330
8158
100
AcDbDictionary
281
     1
  3
A0
350
818F
  3
A1
350
8190
  3
A2
350
8191
  3
A3
350
8192
  3
A4
350
8193
  3
A5
350
8194
  3
A6
350
8195
  3
A7
350
8196
  3
A8
350
8197
  3
A9
350
8198
  3
B0
350
8199
  3
B1
350
819A
  3
B2
350
819B
  3
B3
350
819C
  3
B4
350
819D
  3
B5
350
819E
  3
B6
350
819F
  0
DICTIONARY
  5
81B3
102
{ACAD_REACTORS
330
8158
102
}
330
8158
100
AcDbDictionary
281
     1
  3
Imperial24
350
81B4
  0
DICTIONARY
  5
81AF
102
{ACAD_REACTORS
330
8158
102
}
330
8158
100
AcDbDictionary
281
     1
  3
Standard
350
81B0
  0
DICTIONARY
  5
8175
102
{ACAD_REACTORS
330
8158
102
}
330
8158
100
AcDbDictionary
281
     1
  3
2dWireframe
350
817B
  3
Basic
350
817A
  3
Brighten
350
8181
  3
ColorChange
350
8185
  3
Conceptual
350
817E
  3
Dim
350
8180
  3
EdgeColorOff
350
818D
  3
Facepattern
350
8184
  3
Flat
350
8176
  3
FlatWithEdges
350
8177
  3
Gouraud
350
8178
  3
GouraudWithEdges
350
8179
  3
Hidden
350
817D
  3
JitterOff
350
818B
  3
Linepattern
350
8183
  3
OverhangOff
350
818C
  3
Realistic
350
817F
  3
Shaded
350
818A
  3
Shaded with edges
350
8189
  3
Shades of Gray
350
8186
  3
Sketchy
350
8187
  3
Thicken
350
8182
  3
Wireframe
350
817C
  3
X-Ray
350
8188
  0
XRECORD
  5
82E7
102
{ACAD_REACTORS
330
8158
102
}
330
8158
100
AcDbXrecord
280
     1
 90
        1
330
81B0
  0
DICTIONARY
  5
8299
102
{ACAD_REACTORS
330
8158
102
}
330
8158
100
AcDbDictionary
281
     1
  3
CANNOSCALE
350
829E
  3
CMLEADERSTYLE
350
829B
  3
CTABLESTYLE
350
829A
  3
CVIEWDETAILSTYLE
350
829C
  3
CVIEWSECTIONSTYLE
350
829D
  3
DIMASSOC
350
82A1
  3
INDEXCTL
350
82A0
  3
SORTENTS
350
829F
  3
XCLIPFRAME
350
82A2
  0
XRECORD
  5
82E8
102
{ACAD_REACTORS
330
8158
102
}
330
8158
100
AcDbXrecord
280
     1
  1
DWGPROPS COOKIE
  2

  3

  4

  6

  7

  8
yasukiyo.ogawa
  9

300
=
301
=
302
=
303
=
304
=
305
=
306
=
307
=
308
=
309
=
 40
0.0968689351851852
 41
2451389.585626505
 42
2460271.732164792
  1

 90
        0
  0
XRECORD
  5
8290
102
{ACAD_REACTORS
330
828F
102
}
330
828F
100
AcDbXrecord
280
     1
290
     1
  0
XRECORD
  5
8292
102
{ACAD_REACTORS
330
8291
102
}
330
8291
100
AcDbXrecord
280
     1
290
     1
  0
XRECORD
  5
8294
102
{ACAD_REACTORS
330
8293
102
}
330
8293
100
AcDbXrecord
280
     1
290
     1
  0
XRECORD
  5
8296
102
{ACAD_REACTORS
330
8295
102
}
330
8295
100
AcDbXrecord
280
     1
290
     1
  0
XRECORD
  5
8298
102
{ACAD_REACTORS
330
8297
102
}
330
8297
100
AcDbXrecord
280
     1
290
     1
  0
ACDBDETAILVIEWSTYLE
  5
81B6
102
{ACAD_XDICTIONARY
360
8320
102
}
102
{ACAD_REACTORS
330
81B5
102
}
330
81B5
100
AcDbModelDocViewStyle
 70
     0
  3
Imperial24
290
     0
100
AcDbDetailViewStyle
 70
     0
 71
     0
 90
        3
 71
     1
340
81A1
 40
0.24
340
0
 40
0.24
300

 40
0.36
280
     3
 71
     2
340
81A8
 90
       25
 71
     3
340
81A1
 40
0.24
 90
        1
 40
0.75
 90
        1
300
%<\AcVar ViewType \f "%tc1">% %<\AcVar ViewDetailId>%\PSCALE %<\AcVar ViewScale \f "%sn">%
 71
     4
340
81A8
 90
       25
340
81A8
 90
       25
280
     0
  0
LAYOUT
  5
81BE
102
{ACAD_XDICTIONARY
360
8324
102
}
102
{ACAD_REACTORS
330
81AD
102
}
330
81AD
100
AcDbPlotSettings
  1

  2
RICOH imagio MP W3600 RPCS
  4

  6

 40
0.0
 41
0.0
 42
0.0
 43
0.0
 44
0.0
 45
0.0
 46
0.0
 47
0.0
 48
0.0
 49
0.0
140
0.0
141
0.0
142
1.0
143
1.0
 70
  1712
 72
     0
 73
     0
 74
     0
  7

 75
     0
147
1.0
148
0.0
149
0.0
100
AcDbLayout
  1
Model
 70
     1
 71
     0
 10
0.0
 20
0.0
 11
12.0
 21
9.0
 12
0.0
 22
0.0
 32
0.0
 14
0.0
 24
0.0
 34
0.0
 15
0.0
 25
0.0
 35
0.0
146
0.0
 13
0.0
 23
0.0
 33
0.0
 16
1.0
 26
0.0
 36
0.0
 17
0.0
 27
1.0
 37
0.0
 76
     0
330
81BB
331
81C0
  0
LAYOUT
  5
81BA
102
{ACAD_XDICTIONARY
360
8322
102
}
102
{ACAD_REACTORS
330
81AD
102
}
330
81AD
100
AcDbPlotSettings
  1

  2
RICOH imagio MP W3600 RPCS
  4

  6

 40
0.0
 41
0.0
 42
0.0
 43
0.0
 44
0.0
 45
0.0
 46
0.0
 47
0.0
 48
0.0
 49
0.0
140
0.0
141
0.0
142
1.0
143
1.0
 70
   688
 72
     0
 73
     0
 74
     5
  7

 75
    16
147
1.0
148
0.0
149
0.0
100
AcDbLayout
  1
レイアウト1
 70
     1
 71
     1
 10
0.0
 20
0.0
 11
12.0
 21
9.0
 12
0.0
 22
0.0
 32
0.0
 14
1.000000000000000E+20
 24
1.000000000000000E+20
 34
1.000000000000000E+20
 15
-1.000000000000000E+20
 25
-1.000000000000000E+20
 35
-1.000000000000000E+20
146
0.0
 13
0.0
 23
0.0
 33
0.0
 16
1.0
 26
0.0
 36
0.0
 17
0.0
 27
1.0
 37
0.0
 76
     0
330
81B7
  0
MATERIAL
  5
8165
102
{ACAD_XDICTIONARY
360
8166
102
}
102
{ACAD_REACTORS
330
815C
102
}
330
815C
100
AcDbMaterial
  1
ByBlock
 72
     0
 43
0.0208333333333333
 43
0.0
 43
0.0
 43
0.0
 43
0.0
 43
0.0208333333333333
 43
0.0
 43
0.0
 43
0.0
 43
0.0
 43
1.0
 43
0.0
 43
0.0
 43
0.0
 43
0.0
 43
1.0
 77
     0
 47
0.0208333333333333
 47
0.0
 47
0.0
 47
0.0
 47
0.0
 47
0.0208333333333333
 47
0.0
 47
0.0
 47
0.0
 47
0.0
 47
1.0
 47
0.0
 47
0.0
 47
0.0
 47
0.0
 47
1.0
171
     0
 49
0.0208333333333333
 49
0.0
 49
0.0
 49
0.0
 49
0.0
 49
0.0208333333333333
 49
0.0
 49
0.0
 49
0.0
 49
0.0
 49
1.0
 49
0.0
 49
0.0
 49
0.0
 49
0.0
 49
1.0
175
     0
142
0.0208333333333333
142
0.0
142
0.0
142
0.0
142
0.0
142
0.0208333333333333
142
0.0
142
0.0
142
0.0
142
0.0
142
1.0
142
0.0
142
0.0
142
0.0
142
0.0
142
1.0
179
     0
144
0.0208333333333333
144
0.0
144
0.0
144
0.0
144
0.0
144
0.0208333333333333
144
0.0
144
0.0
144
0.0
144
0.0
144
1.0
144
0.0
144
0.0
144
0.0
144
0.0
144
1.0
147
0.0208333333333333
147
0.0
147
0.0
147
0.0
147
0.0
147
0.0208333333333333
147
0.0
147
0.0
147
0.0
147
0.0
147
1.0
147
0.0
147
0.0
147
0.0
147
0.0
147
1.0
  0
MATERIAL
  5
815D
102
{ACAD_XDICTIONARY
360
815E
102
}
102
{ACAD_REACTORS
330
815C
102
}
330
815C
100
AcDbMaterial
  1
ByLayer
 72
     0
 43
0.0208333333333333
 43
0.0
 43
0.0
 43
0.0
 43
0.0
 43
0.0208333333333333
 43
0.0
 43
0.0
 43
0.0
 43
0.0
 43
1.0
 43
0.0
 43
0.0
 43
0.0
 43
0.0
 43
1.0
 77
     0
 47
0.0208333333333333
 47
0.0
 47
0.0
 47
0.0
 47
0.0
 47
0.0208333333333333
 47
0.0
 47
0.0
 47
0.0
 47
0.0
 47
1.0
 47
0.0
 47
0.0
 47
0.0
 47
0.0
 47
1.0
171
     0
 49
0.0208333333333333
 49
0.0
 49
0.0
 49
0.0
 49
0.0
 49
0.0208333333333333
 49
0.0
 49
0.0
 49
0.0
 49
0.0
 49
1.0
 49
0.0
 49
0.0
 49
0.0
 49
0.0
 49
1.0
175
     0
142
0.0208333333333333
142
0.0
142
0.0
142
0.0
142
0.0
142
0.0208333333333333
142
0.0
142
0.0
142
0.0
142
0.0
142
1.0
142
0.0
142
0.0
142
0.0
142
0.0
142
1.0
179
     0
144
0.0208333333333333
144
0.0
144
0.0
144
0.0
144
0.0
144
0.0208333333333333
144
0.0
144
0.0
144
0.0
144
0.0
144
1.0
144
0.0
144
0.0
144
0.0
144
0.0
144
1.0
147
0.0208333333333333
147
0.0
147
0.0
147
0.0
147
0.0
147
0.0208333333333333
147
0.0
147
0.0
147
0.0
147
0.0
147
1.0
147
0.0
147
0.0
147
0.0
147
0.0
147
1.0
  0
MATERIAL
  5
816D
102
{ACAD_XDICTIONARY
360
816E
102
}
102
{ACAD_REACTORS
330
815C
102
}
330
815C
100
AcDbMaterial
  1
Global
 72
     0
 43
0.0208333333333333
 43
0.0
 43
0.0
 43
0.0
 43
0.0
 43
0.0208333333333333
 43
0.0
 43
0.0
 43
0.0
 43
0.0
 43
1.0
 43
0.0
 43
0.0
 43
0.0
 43
0.0
 43
1.0
 77
     0
 47
0.0208333333333333
 47
0.0
 47
0.0
 47
0.0
 47
0.0
 47
0.0208333333333333
 47
0.0
 47
0.0
 47
0.0
 47
0.0
 47
1.0
 47
0.0
 47
0.0
 47
0.0
 47
0.0
 47
1.0
171
     0
 49
0.0208333333333333
 49
0.0
 49
0.0
 49
0.0
 49
0.0
 49
0.0208333333333333
 49
0.0
 49
0.0
 49
0.0
 49
0.0
 49
1.0
 49
0.0
 49
0.0
 49
0.0
 49
0.0
 49
1.0
175
     0
142
0.0208333333333333
142
0.0
142
0.0
142
0.0
142
0.0
142
0.0208333333333333
142
0.0
142
0.0
142
0.0
142
0.0
142
1.0
142
0.0
142
0.0
142
0.0
142
0.0
142
1.0
179
     0
144
0.0208333333333333
144
0.0
144
0.0
144
0.0
144
0.0
144
0.0208333333333333
144
0.0
144
0.0
144
0.0
144
0.0
144
1.0
144
0.0
144
0.0
144
0.0
144
0.0
144
1.0
147
0.0208333333333333
147
0.0
147
0.0
147
0.0
147
0.0
147
0.0208333333333333
147
0.0
147
0.0
147
0.0
147
0.0
147
1.0
147
0.0
147
0.0
147
0.0
147
0.0
147
1.0
  0
MLEADERSTYLE
  5
81B2
102
{ACAD_REACTORS
330
81B1
102
}
330
81B1
100
AcDbMLeaderStyle
170
     2
171
     1
172
     0
 90
        2
 40
0.0
 41
0.0
173
     1
 91
-1056964608
340
81A6
 92
       -2
290
     1
 42
0.09
291
     1
 43
0.36
  3
Standard
 44
0.18
300

342
81A1
174
     1
178
     6
175
     1
176
     0
 93
-1056964608
 45
0.18
292
     0
297
     0
 46
0.18
 94
-1056964608
 47
1.0
 49
1.0
140
1.0
293
     1
141
0.0
294
     1
177
     0
142
1.0
295
     0
296
     0
143
0.125
1001
ACAD_MLEADERVER
1070
     2
  0
MLINESTYLE
  5
81AB
102
{ACAD_REACTORS
330
81AA
102
}
330
81AA
100
AcDbMlineStyle
  2
STANDARD
 70
     0
  3

 62
   256
 51
90.0
 52
90.0
 71
     2
 49
0.5
 62
   256
  6
BYLAYER
 49
-0.5
 62
   256
  6
BYLAYER
  0
ACDBPLACEHOLDER
  5
815B
102
{ACAD_REACTORS
330
815A
102
}
330
815A
  0
SCALE
  5
818F
102
{ACAD_REACTORS
330
818E
102
}
330
818E
100
AcDbScale
 70
     0
300
1:1
140
1.0
141
1.0
290
     1
  0
SCALE
  5
8190
102
{ACAD_REACTORS
330
818E
102
}
330
818E
100
AcDbScale
 70
     0
300
1/128" = 1'-0"
140
0.0078125
141
12.0
290
     0
  0
SCALE
  5
8191
102
{ACAD_REACTORS
330
818E
102
}
330
818E
100
AcDbScale
 70
     0
300
1/64" = 1'-0"
140
0.015625
141
12.0
290
     0
  0
SCALE
  5
8192
102
{ACAD_REACTORS
330
818E
102
}
330
818E
100
AcDbScale
 70
     0
300
1/32" = 1'-0"
140
0.03125
141
12.0
290
     0
  0
SCALE
  5
8193
102
{ACAD_REACTORS
330
818E
102
}
330
818E
100
AcDbScale
 70
     0
300
1/16" = 1'-0"
140
0.0625
141
12.0
290
     0
  0
SCALE
  5
8194
102
{ACAD_REACTORS
330
818E
102
}
330
818E
100
AcDbScale
 70
     0
300
3/32" = 1'-0"
140
0.09375
141
12.0
290
     0
  0
SCALE
  5
8195
102
{ACAD_REACTORS
330
818E
102
}
330
818E
100
AcDbScale
 70
     0
300
1/8" = 1'-0"
140
0.125
141
12.0
290
     0
  0
SCALE
  5
8196
102
{ACAD_REACTORS
330
818E
102
}
330
818E
100
AcDbScale
 70
     0
300
3/16" = 1'-0"
140
0.1875
141
12.0
290
     0
  0
SCALE
  5
8197
102
{ACAD_REACTORS
330
818E
102
}
330
818E
100
AcDbScale
 70
     0
300
1/4" = 1'-0"
140
0.25
141
12.0
290
     0
  0
SCALE
  5
8198
102
{ACAD_REACTORS
330
818E
102
}
330
818E
100
AcDbScale
 70
     0
300
3/8" = 1'-0"
140
0.375
141
12.0
290
     0
  0
SCALE
  5
8199
102
{ACAD_REACTORS
330
818E
102
}
330
818E
100
AcDbScale
 70
     0
300
1/2" = 1'-0"
140
0.5
141
12.0
290
     0
  0
SCALE
  5
819A
102
{ACAD_REACTORS
330
818E
102
}
330
818E
100
AcDbScale
 70
     0
300
3/4" = 1'-0"
140
0.75
141
12.0
290
     0
  0
SCALE
  5
819B
102
{ACAD_REACTORS
330
818E
102
}
330
818E
100
AcDbScale
 70
     0
300
1" = 1'-0"
140
1.0
141
12.0
290
     0
  0
SCALE
  5
819C
102
{ACAD_REACTORS
330
818E
102
}
330
818E
100
AcDbScale
 70
     0
300
1-1/2" = 1'-0"
140
1.5
141
12.0
290
     0
  0
SCALE
  5
819D
102
{ACAD_REACTORS
330
818E
102
}
330
818E
100
AcDbScale
 70
     0
300
3" = 1'-0"
140
3.0
141
12.0
290
     0
  0
SCALE
  5
819E
102
{ACAD_REACTORS
330
818E
102
}
330
818E
100
AcDbScale
 70
     0
300
6" = 1'-0"
140
6.0
141
12.0
290
     0
  0
SCALE
  5
819F
102
{ACAD_REACTORS
330
818E
102
}
330
818E
100
AcDbScale
 70
     0
300
1'-0" = 1'-0"
140
12.0
141
12.0
290
     0
  0
ACDBSECTIONVIEWSTYLE
  5
81B4
102
{ACAD_XDICTIONARY
360
831E
102
}
102
{ACAD_REACTORS
330
81B3
102
}
330
81B3
100
AcDbModelDocViewStyle
 70
     0
  3
Imperial24
290
     0
100
AcDbSectionViewStyle
 70
     0
 71
     0
 90
       78
 71
     1
340
81A1
 40
0.24
340
0
340
0
 40
0.24
300
I, O, Q, S, X, Z
 40
0.48
 90
        3
 40
0.18
 90
        1
 71
     2
340
81A8
 90
       25
340
81A8
 90
       50
 40
0.24
 40
0.0
 40
0.24
 71
     3
340
81A1
 40
0.24
 90
        1
 40
0.75
 90
        1
300
%<\AcVar ViewType \f "%tc1">% %<\AcVar ViewSectionStartId>%-%<\AcVar ViewSectionEndId>%\PSCALE %<\AcVar ViewScale \f "%sn">%
 71
     4
300
ANSI31
 40
1.0
 90
        0
290
     0
290
     0
 90
        6
 40
0.0
 40
1.570796326794896
 40
0.2617993877991494
 40
1.308996938995747
 40
-0.2617993877991494
 40
1.832595714594046
  0
TABLESTYLE
  5
81B0
102
{ACAD_XDICTIONARY
360
82E5
102
}
102
{ACAD_REACTORS
330
81AF
102
}
330
81AF
100
AcDbTableStyle
  3
Standard
 70
     0
 71
     0
 40
0.06
 41
0.06
280
     0
281
     0
  7
STANDARD
140
0.18
170
     2
 62
     0
 63
     7
283
     0
274
    -2
284
     1
 64
     0
275
    -2
285
     1
 65
     0
276
    -2
286
     1
 66
     0
277
    -2
287
     1
 67
     0
278
    -2
288
     1
 68
     0
279
    -2
289
     1
 69
     0
  7
STANDARD
140
0.25
170
     5
 62
     0
 63
     7
283
     0
274
    -2
284
     1
 64
     0
275
    -2
285
     1
 65
     0
276
    -2
286
     1
 66
     0
277
    -2
287
     1
 67
     0
278
    -2
288
     1
 68
     0
279
    -2
289
     1
 69
     0
  7
STANDARD
140
0.18
170
     5
 62
     0
 63
     7
283
     0
274
    -2
284
     1
 64
     0
275
    -2
285
     1
 65
     0
276
    -2
286
     1
 66
     0
277
    -2
287
     1
 67
     0
278
    -2
288
     1
 68
     0
279
    -2
289
     1
 69
     0
  0
VISUALSTYLE
  5
817B
102
{ACAD_XDICTIONARY
360
82F6
102
}
102
{ACAD_REACTORS
330
8175
102
}
330
8175
100
AcDbVisualStyle
  2
2dWireframe
 70
     4
 71
     0
 72
     2
 73
     0
 90
        0
 40
-0.6
 41
-30.0
 62
     5
 63
     7
 74
     1
 91
        4
 64
     7
 65
   257
 75
     1
175
     1
 42
1.0
 92
        0
 66
   257
 43
1.0
 76
     1
 77
     6
 78
     2
 67
     7
 79
     5
170
     0
171
     0
290
     0
174
     0
 93
        1
 44
0.0
173
     0
291
     0
 45
0.0
1001
ACAD
1000
AcDbSavedByObjectVersion
1070
     0
  0
VISUALSTYLE
  5
817A
102
{ACAD_XDICTIONARY
360
82F4
102
}
102
{ACAD_REACTORS
330
8175
102
}
330
8175
100
AcDbVisualStyle
  2
Basic
 70
     7
 71
     1
 72
     0
 73
     1
 90
        0
 40
-0.6
 41
-30.0
 62
     5
 63
     7
 74
     0
 91
        4
 64
     7
 65
   257
 75
     1
175
     1
 42
1.0
 92
        8
 66
     7
 43
1.0
 76
     1
 77
     6
 78
     2
 67
     7
 79
     5
170
     0
171
     0
290
     0
174
     0
 93
        1
 44
0.0
173
     0
291
     1
 45
0.0
1001
ACAD
1000
AcDbSavedByObjectVersion
1070
     0
  0
VISUALSTYLE
  5
8181
102
{ACAD_XDICTIONARY
360
8302
102
}
102
{ACAD_REACTORS
330
8175
102
}
330
8175
100
AcDbVisualStyle
  2
Brighten
 70
    12
 71
     2
 72
     2
 73
     0
 90
        0
 40
-0.6
 41
-30.0
 62
     5
 63
     7
 74
     1
 91
        4
 64
     7
 65
   257
 75
     1
175
     1
 42
1.0
 92
        8
 66
     7
 43
1.0
 76
     1
 77
     6
 78
     2
 67
     7
 79
     5
170
     0
171
     0
290
     0
174
     0
 93
        1
 44
50.0
173
     0
291
     1
 45
0.0
1001
ACAD
1000
AcDbSavedByObjectVersion
1070
     0
  0
VISUALSTYLE
  5
8185
102
{ACAD_XDICTIONARY
360
830A
102
}
102
{ACAD_REACTORS
330
8175
102
}
330
8175
100
AcDbVisualStyle
  2
ColorChange
 70
    16
 71
     2
 72
     2
 73
     3
 90
        0
 40
-0.6
 41
-30.0
 62
     5
 63
     8
 74
     1
 91
        4
 64
     7
 65
   257
 75
     1
175
     1
 42
1.0
 92
        8
 66
     8
 43
1.0
 76
     1
 77
     6
 78
     2
 67
     7
 79
     5
170
     0
171
     0
290
     0
174
     0
 93
        1
 44
0.0
173
     0
291
     1
 45
0.0
1001
ACAD
1000
AcDbSavedByObjectVersion
1070
     0
  0
VISUALSTYLE
  5
817E
102
{ACAD_XDICTIONARY
360
82FC
102
}
102
{ACAD_REACTORS
330
8175
102
}
330
8175
100
AcDbVisualStyle
  2
Conceptual
 70
     9
 71
     3
 72
     2
 73
     0
 90
        0
 40
-0.6
 41
-30.0
 62
     5
 63
     7
 74
     2
 91
        2
 64
     7
 65
   257
 75
     1
175
     1
 42
179.0
 92
        8
 66
     7
 43
1.0
 76
     1
 77
     6
 78
     2
 67
     7
 79
     3
170
     0
171
     0
290
     0
174
     0
 93
        1
 44
0.0
173
     0
291
     0
 45
0.0
1001
ACAD
1000
AcDbSavedByObjectVersion
1070
     0
  0
VISUALSTYLE
  5
8180
102
{ACAD_XDICTIONARY
360
8300
102
}
102
{ACAD_REACTORS
330
8175
102
}
330
8175
100
AcDbVisualStyle
  2
Dim
 70
    11
 71
     2
 72
     2
 73
     0
 90
        0
 40
-0.6
 41
-30.0
 62
     5
 63
     7
 74
     1
 91
        4
 64
     7
 65
   257
 75
     1
175
     1
 42
1.0
 92
        8
 66
     7
 43
1.0
 76
     1
 77
     6
 78
     2
 67
     7
 79
     5
170
     0
171
     0
290
     0
174
     0
 93
        1
 44
-50.0
173
     0
291
     1
 45
0.0
1001
ACAD
1000
AcDbSavedByObjectVersion
1070
     0
  0
VISUALSTYLE
  5
818D
102
{ACAD_XDICTIONARY
360
831A
102
}
102
{ACAD_REACTORS
330
8175
102
}
330
8175
100
AcDbVisualStyle
  2
EdgeColorOff
 70
    22
 71
     2
 72
     2
 73
     0
 90
        0
 40
-0.6
 41
-30.0
 62
     5
 63
     7
 74
     1
 91
        4
 64
     7
 65
   257
 75
     1
175
     1
 42
1.0
 92
        8
 66
     7
 43
1.0
 76
     1
 77
     6
 78
     2
 67
     7
 79
     5
170
     0
171
     0
290
     0
174
     0
 93
        1
 44
0.0
173
     0
291
     1
 45
0.0
1001
ACAD
1000
AcDbSavedByObjectVersion
1070
     0
  0
VISUALSTYLE
  5
8184
102
{ACAD_XDICTIONARY
360
8308
102
}
102
{ACAD_REACTORS
330
8175
102
}
330
8175
100
AcDbVisualStyle
  2
Facepattern
 70
    15
 71
     2
 72
     2
 73
     0
 90
        0
 40
-0.6
 41
-30.0
 62
     5
 63
     7
 74
     1
 91
        4
 64
     7
 65
   257
 75
     1
175
     1
 42
1.0
 92
        8
 66
     7
 43
1.0
 76
     1
 77
     6
 78
     2
 67
     7
 79
     5
170
     0
171
     0
290
     0
174
     0
 93
        1
 44
0.0
173
     0
291
     1
 45
0.0
1001
ACAD
1000
AcDbSavedByObjectVersion
1070
     0
  0
VISUALSTYLE
  5
8176
102
{ACAD_XDICTIONARY
360
82EC
102
}
102
{ACAD_REACTORS
330
8175
102
}
330
8175
100
AcDbVisualStyle
  2
Flat
 70
     0
 71
     2
 72
     1
 73
     1
 90
        2
 40
-0.6
 41
30.0
 62
     5
 63
     7
 74
     0
 91
        0
 64
     7
 65
   257
 75
     1
175
     1
 42
1.0
 92
        8
 66
     7
 43
1.0
 76
     1
 77
     6
 78
     2
 67
     7
 79
     5
170
     0
171
     0
290
     0
174
     0
 93
       13
 44
0.0
173
     0
291
     1
 45
0.0
1001
ACAD
1000
AcDbSavedByObjectVersion
1070
     0
  0
VISUALSTYLE
  5
8177
102
{ACAD_XDICTIONARY
360
82EE
102
}
102
{ACAD_REACTORS
330
8175
102
}
330
8175
100
AcDbVisualStyle
  2
FlatWithEdges
 70
     1
 71
     2
 72
     1
 73
     1
 90
        2
 40
-0.6
 41
30.0
 62
     5
 63
     7
 74
     1
 91
        0
 64
     7
 65
   257
 75
     1
175
     1
 42
1.0
 92
        0
 66
   257
 43
1.0
 76
     1
 77
     6
 78
     2
 67
     7
 79
     5
170
     0
171
     0
290
     0
174
     0
 93
       13
 44
0.0
173
     0
291
     1
 45
0.0
1001
ACAD
1000
AcDbSavedByObjectVersion
1070
     0
  0
VISUALSTYLE
  5
8178
102
{ACAD_XDICTIONARY
360
82F0
102
}
102
{ACAD_REACTORS
330
8175
102
}
330
8175
100
AcDbVisualStyle
  2
Gouraud
 70
     2
 71
     2
 72
     2
 73
     1
 90
        2
 40
-0.6
 41
30.0
 62
     5
 63
     7
 74
     0
 91
        0
 64
     7
 65
   257
 75
     1
175
     1
 42
1.0
 92
        0
 66
     7
 43
1.0
 76
     1
 77
     6
 78
     2
 67
     7
 79
     5
170
     0
171
     0
290
     0
174
     0
 93
       13
 44
0.0
173
     0
291
     1
 45
0.0
1001
ACAD
1000
AcDbSavedByObjectVersion
1070
     0
  0
VISUALSTYLE
  5
8179
102
{ACAD_XDICTIONARY
360
82F2
102
}
102
{ACAD_REACTORS
330
8175
102
}
330
8175
100
AcDbVisualStyle
  2
GouraudWithEdges
 70
     3
 71
     2
 72
     2
 73
     1
 90
        2
 40
-0.6
 41
30.0
 62
     5
 63
     7
 74
     1
 91
        0
 64
     7
 65
   257
 75
     1
175
     1
 42
1.0
 92
        0
 66
   257
 43
1.0
 76
     1
 77
     6
 78
     2
 67
     7
 79
     5
170
     0
171
     0
290
     0
174
     0
 93
       13
 44
0.0
173
     0
291
     1
 45
0.0
1001
ACAD
1000
AcDbSavedByObjectVersion
1070
     0
  0
VISUALSTYLE
  5
817D
102
{ACAD_XDICTIONARY
360
82FA
102
}
102
{ACAD_REACTORS
330
8175
102
}
330
8175
100
AcDbVisualStyle
  2
Hidden
 70
     6
 71
     1
 72
     2
 73
     2
 90
        0
 40
-0.6
 41
-30.0
 62
     5
 63
     7
 74
     2
 91
        2
 64
     7
 65
   257
 75
     2
175
     1
 42
40.0
 92
        0
 66
   257
 43
1.0
 76
     1
 77
     6
 78
     2
 67
     7
 79
     3
170
     0
171
     0
290
     0
174
     0
 93
        1
 44
0.0
173
     0
291
     0
 45
0.0
1001
ACAD
1000
AcDbSavedByObjectVersion
1070
     0
  0
VISUALSTYLE
  5
818B
102
{ACAD_XDICTIONARY
360
8316
102
}
102
{ACAD_REACTORS
330
8175
102
}
330
8175
100
AcDbVisualStyle
  2
JitterOff
 70
    20
 71
     2
 72
     2
 73
     0
 90
        0
 40
-0.6
 41
-30.0
 62
     5
 63
     7
 74
     1
 91
        4
 64
     7
 65
   257
 75
     1
175
     1
 42
1.0
 92
       10
 66
     7
 43
1.0
 76
     1
 77
     6
 78
     2
 67
     7
 79
     5
170
     0
171
     0
290
     0
174
     0
 93
        1
 44
0.0
173
     0
291
     1
 45
0.0
1001
ACAD
1000
AcDbSavedByObjectVersion
1070
     0
  0
VISUALSTYLE
  5
8183
102
{ACAD_XDICTIONARY
360
8306
102
}
102
{ACAD_REACTORS
330
8175
102
}
330
8175
100
AcDbVisualStyle
  2
Linepattern
 70
    14
 71
     2
 72
     2
 73
     0
 90
        0
 40
-0.6
 41
-30.0
 62
     5
 63
     7
 74
     1
 91
        4
 64
     7
 65
   257
 75
     7
175
     7
 42
1.0
 92
        8
 66
     7
 43
1.0
 76
     1
 77
     6
 78
     2
 67
     7
 79
     5
170
     0
171
     0
290
     0
174
     0
 93
        1
 44
0.0
173
     0
291
     1
 45
0.0
1001
ACAD
1000
AcDbSavedByObjectVersion
1070
     0
  0
VISUALSTYLE
  5
818C
102
{ACAD_XDICTIONARY
360
8318
102
}
102
{ACAD_REACTORS
330
8175
102
}
330
8175
100
AcDbVisualStyle
  2
OverhangOff
 70
    21
 71
     2
 72
     2
 73
     0
 90
        0
 40
-0.6
 41
-30.0
 62
     5
 63
     7
 74
     1
 91
        4
 64
     7
 65
   257
 75
     1
175
     1
 42
1.0
 92
        9
 66
     7
 43
1.0
 76
     1
 77
     6
 78
     2
 67
     7
 79
     5
170
     0
171
     0
290
     0
174
     0
 93
        1
 44
0.0
173
     0
291
     1
 45
0.0
1001
ACAD
1000
AcDbSavedByObjectVersion
1070
     0
  0
VISUALSTYLE
  5
817F
102
{ACAD_XDICTIONARY
360
82FE
102
}
102
{ACAD_REACTORS
330
8175
102
}
330
8175
100
AcDbVisualStyle
  2
Realistic
 70
     8
 71
     2
 72
     3
 73
     0
 90
        2
 40
-0.6
 41
30.0
 62
     5
 63
     7
 74
     0
 91
        0
 64
     7
 65
   257
 75
     1
175
     1
 42
1.0
 92
        8
 66
   257
 43
1.0
 76
     1
 77
     6
 78
     2
 67
     7
 79
     3
170
     0
171
     0
290
     0
174
     0
 93
       13
 44
0.0
173
     0
291
     0
 45
0.0
1001
ACAD
1000
AcDbSavedByObjectVersion
1070
     0
  0
VISUALSTYLE
  5
818A
102
{ACAD_XDICTIONARY
360
8314
102
}
102
{ACAD_REACTORS
330
8175
102
}
330
8175
100
AcDbVisualStyle
  2
Shaded
 70
    27
 71
     2
 72
     2
 73
     1
 90
        2
 40
-0.6
 41
30.0
 62
     5
 63
     7
 74
     0
 91
        4
 64
     7
 65
   257
 75
     1
175
     1
 42
1.0
 92
        8
 66
   257
 43
1.0
 76
     1
 77
     6
 78
     2
 67
     8
 79
     3
170
     0
171
     0
290
     0
174
     0
 93
        5
 44
0.0
173
     0
291
     0
 45
0.0
1001
ACAD
1000
AcDbSavedByObjectVersion
1070
     0
  0
VISUALSTYLE
  5
8189
102
{ACAD_XDICTIONARY
360
8312
102
}
102
{ACAD_REACTORS
330
8175
102
}
330
8175
100
AcDbVisualStyle
  2
Shaded with edges
 70
    26
 71
     2
 72
     2
 73
     1
 90
        2
 40
-0.6
 41
30.0
 62
     5
 63
     7
 74
     1
 91
       10
 64
     7
 65
   257
 75
     2
175
     1
 42
1.0
 92
        8
 66
   257
 43
1.0
 76
     1
 77
     6
 78
     2
 67
     7
 79
     3
170
     0
171
     0
290
     0
174
     0
 93
        5
 44
0.0
173
     0
291
     0
 45
0.0
1001
ACAD
1000
AcDbSavedByObjectVersion
1070
     0
  0
VISUALSTYLE
  5
8186
102
{ACAD_XDICTIONARY
360
830C
102
}
102
{ACAD_REACTORS
330
8175
102
}
330
8175
100
AcDbVisualStyle
  2
Shades of Gray
 70
    23
 71
     2
 72
     2
 73
     3
 90
        0
 40
-0.6
 41
-30.0
 62
     5
 63
     7
 74
     2
 91
        2
 64
     7
 65
     7
 75
     1
175
     1
 42
40.0
 92
        8
 66
     7
 43
1.0
 76
     1
 77
     6
 78
     2
 67
     7
 79
     3
170
     0
171
     0
290
     0
174
     0
 93
        1
 44
0.0
173
     0
291
     0
 45
0.0
1001
ACAD
1000
AcDbSavedByObjectVersion
1070
     0
  0
VISUALSTYLE
  5
8187
102
{ACAD_XDICTIONARY
360
830E
102
}
102
{ACAD_REACTORS
330
8175
102
}
330
8175
100
AcDbVisualStyle
  2
Sketchy
 70
    24
 71
     1
 72
     2
 73
     2
 90
        0
 40
-0.6
 41
-30.0
 62
     5
 63
     7
 74
     2
 91
        2
 64
     7
 65
     7
 75
     1
175
     1
 42
40.0
 92
       11
 66
     7
 43
1.0
 76
     1
 77
     6
 78
     2
 67
     7
 79
     6
170
     0
171
     0
290
     0
174
     0
 93
        1
 44
0.0
173
     0
291
     0
 45
0.0
1001
ACAD
1000
AcDbSavedByObjectVersion
1070
     0
  0
VISUALSTYLE
  5
8182
102
{ACAD_XDICTIONARY
360
8304
102
}
102
{ACAD_REACTORS
330
8175
102
}
330
8175
100
AcDbVisualStyle
  2
Thicken
 70
    13
 71
     2
 72
     2
 73
     0
 90
        0
 40
-0.6
 41
-30.0
 62
     5
 63
     7
 74
     1
 91
        4
 64
     7
 65
   257
 75
     1
175
     1
 42
1.0
 92
       12
 66
     7
 43
1.0
 76
     1
 77
     6
 78
     2
 67
     7
 79
     5
170
     0
171
     0
290
     0
174
     0
 93
        1
 44
0.0
173
     0
291
     1
 45
0.0
1001
ACAD
1000
AcDbSavedByObjectVersion
1070
     0
  0
VISUALSTYLE
  5
817C
102
{ACAD_XDICTIONARY
360
82F8
102
}
102
{ACAD_REACTORS
330
8175
102
}
330
8175
100
AcDbVisualStyle
  2
Wireframe
 70
     5
 71
     0
 72
     2
 73
     0
 90
        0
 40
-0.6
 41
-30.0
 62
     5
 63
     7
 74
     1
 91
        4
 64
     7
 65
   257
 75
     1
175
     1
 42
1.0
 92
        0
 66
   257
 43
1.0
 76
     1
 77
     6
 78
     2
 67
     7
 79
     3
170
     0
171
     0
290
     0
174
     0
 93
        1
 44
0.0
173
     0
291
     0
 45
0.0
1001
ACAD
1000
AcDbSavedByObjectVersion
1070
     0
  0
VISUALSTYLE
  5
8188
102
{ACAD_XDICTIONARY
360
8310
102
}
102
{ACAD_REACTORS
330
8175
102
}
330
8175
100
AcDbVisualStyle
  2
X-Ray
 70
    25
 71
     2
 72
     2
 73
     1
 90
        1
 40
0.5
 41
-30.0
 62
     5
 63
     7
 74
     1
 91
        0
 64
     7
 65
   257
 75
     1
175
     1
 42
1.0
 92
        8
 66
     7
 43
1.0
 76
     1
 77
     6
 78
     2
 67
     7
 79
     3
170
     0
171
     0
290
     0
174
     0
 93
       13
 44
0.0
173
     0
291
     0
 45
0.0
1001
ACAD
1000
AcDbSavedByObjectVersion
1070
     0
  0
DICTIONARYVAR
  5
829E
102
{ACAD_REACTORS
330
8299
102
}
330
8299
100
DictionaryVariables
280
     0
  1
1:1
  0
DICTIONARYVAR
  5
829B
102
{ACAD_REACTORS
330
8299
102
}
330
8299
100
DictionaryVariables
280
     0
  1
STANDARD
  0
DICTIONARYVAR
  5
829A
102
{ACAD_REACTORS
330
8299
102
}
330
8299
100
DictionaryVariables
280
     0
  1
STANDARD
  0
DICTIONARYVAR
  5
829C
102
{ACAD_REACTORS
330
8299
102
}
330
8299
100
DictionaryVariables
280
     0
  1
Imperial24
  0
DICTIONARYVAR
  5
829D
102
{ACAD_REACTORS
330
8299
102
}
330
8299
100
DictionaryVariables
280
     0
  1
Imperial24
  0
DICTIONARYVAR
  5
82A1
102
{ACAD_REACTORS
330
8299
102
}
330
8299
100
DictionaryVariables
280
     0
  1
1
  0
DICTIONARYVAR
  5
82A0
102
{ACAD_REACTORS
330
8299
102
}
330
8299
100
DictionaryVariables
280
     0
  1
0
  0
DICTIONARYVAR
  5
829F
102
{ACAD_REACTORS
330
8299
102
}
330
8299
100
DictionaryVariables
280
     0
  1
127
  0
DICTIONARYVAR
  5
82A2
102
{ACAD_REACTORS
330
8299
102
}
330
8299
100
DictionaryVariables
280
     0
  1
2
  0
DICTIONARY
  5
8320
330
81B6
100
AcDbDictionary
280
     1
281
     1
  3
ACAD_XREC_ROUNDTRIP
360
8321
  0
DICTIONARY
  5
8324
330
81BE
100
AcDbDictionary
280
     1
281
     1
  3
ACAD_XREC_ROUNDTRIP
360
8325
  0
DICTIONARY
  5
8322
330
81BA
100
AcDbDictionary
280
     1
281
     1
  3
ACAD_XREC_ROUNDTRIP
360
8323
  0
DICTIONARY
  5
8166
330
8165
100
AcDbDictionary
280
     1
281
     1
  3
ACAD_XREC_ROUNDTRIP
360
82EA
  3
BUMPTILE
360
8168
  3
DIFFUSETILE
360
8167
  3
OPACITYTILE
360
816B
  3
REFLECTIONTILE
360
816A
  3
REFRACTIONTILE
360
816C
  3
SPECULARTILE
360
8169
  0
DICTIONARY
  5
815E
330
815D
100
AcDbDictionary
280
     1
281
     1
  3
ACAD_XREC_ROUNDTRIP
360
82E9
  3
BUMPTILE
360
8160
  3
DIFFUSETILE
360
815F
  3
OPACITYTILE
360
8163
  3
REFLECTIONTILE
360
8162
  3
REFRACTIONTILE
360
8164
  3
SPECULARTILE
360
8161
  0
DICTIONARY
  5
816E
330
816D
100
AcDbDictionary
280
     1
281
     1
  3
ACAD_XREC_ROUNDTRIP
360
82EB
  3
BUMPTILE
360
8170
  3
DIFFUSETILE
360
816F
  3
FBXASSET
360
8253
  3
OPACITYTILE
360
8173
  3
REFLECTIONTILE
360
8172
  3
REFRACTIONTILE
360
8174
  3
SPECULARTILE
360
8171
  0
DICTIONARY
  5
831E
330
81B4
100
AcDbDictionary
280
     1
281
     1
  3
ACAD_XREC_ROUNDTRIP
360
831F
  0
DICTIONARY
  5
82E5
330
81B0
100
AcDbDictionary
280
     1
281
     1
  3
ACAD_ROUNDTRIP_2008_TABLESTYLE_CELLSTYLEMAP
360
82E6
  3
ACAD_XREC_ROUNDTRIP
360
831C
  0
DICTIONARY
  5
82F6
330
817B
100
AcDbDictionary
280
     1
281
     1
  3
ACAD_XREC_ROUNDTRIP
360
82F7
  0
DICTIONARY
  5
82F4
330
817A
100
AcDbDictionary
280
     1
281
     1
  3
ACAD_XREC_ROUNDTRIP
360
82F5
  0
DICTIONARY
  5
8302
330
8181
100
AcDbDictionary
280
     1
281
     1
  3
ACAD_XREC_ROUNDTRIP
360
8303
  0
DICTIONARY
  5
830A
330
8185
100
AcDbDictionary
280
     1
281
     1
  3
ACAD_XREC_ROUNDTRIP
360
830B
  0
DICTIONARY
  5
82FC
330
817E
100
AcDbDictionary
280
     1
281
     1
  3
ACAD_XREC_ROUNDTRIP
360
82FD
  0
DICTIONARY
  5
8300
330
8180
100
AcDbDictionary
280
     1
281
     1
  3
ACAD_XREC_ROUNDTRIP
360
8301
  0
DICTIONARY
  5
831A
330
818D
100
AcDbDictionary
280
     1
281
     1
  3
ACAD_XREC_ROUNDTRIP
360
831B
  0
DICTIONARY
  5
8308
330
8184
100
AcDbDictionary
280
     1
281
     1
  3
ACAD_XREC_ROUNDTRIP
360
8309
  0
DICTIONARY
  5
82EC
330
8176
100
AcDbDictionary
280
     1
281
     1
  3
ACAD_XREC_ROUNDTRIP
360
82ED
  0
DICTIONARY
  5
82EE
330
8177
100
AcDbDictionary
280
     1
281
     1
  3
ACAD_XREC_ROUNDTRIP
360
82EF
  0
DICTIONARY
  5
82F0
330
8178
100
AcDbDictionary
280
     1
281
     1
  3
ACAD_XREC_ROUNDTRIP
360
82F1
  0
DICTIONARY
  5
82F2
330
8179
100
AcDbDictionary
280
     1
281
     1
  3
ACAD_XREC_ROUNDTRIP
360
82F3
  0
DICTIONARY
  5
82FA
330
817D
100
AcDbDictionary
280
     1
281
     1
  3
ACAD_XREC_ROUNDTRIP
360
82FB
  0
DICTIONARY
  5
8316
330
818B
100
AcDbDictionary
280
     1
281
     1
  3
ACAD_XREC_ROUNDTRIP
360
8317
  0
DICTIONARY
  5
8306
330
8183
100
AcDbDictionary
280
     1
281
     1
  3
ACAD_XREC_ROUNDTRIP
360
8307
  0
DICTIONARY
  5
8318
330
818C
100
AcDbDictionary
280
     1
281
     1
  3
ACAD_XREC_ROUNDTRIP
360
8319
  0
DICTIONARY
  5
82FE
330
817F
100
AcDbDictionary
280
     1
281
     1
  3
ACAD_XREC_ROUNDTRIP
360
82FF
  0
DICTIONARY
  5
8314
330
818A
100
AcDbDictionary
280
     1
281
     1
  3
ACAD_XREC_ROUNDTRIP
360
8315
  0
DICTIONARY
  5
8312
330
8189
100
AcDbDictionary
280
     1
281
     1
  3
ACAD_XREC_ROUNDTRIP
360
8313
  0
DICTIONARY
  5
830C
330
8186
100
AcDbDictionary
280
     1
281
     1
  3
ACAD_XREC_ROUNDTRIP
360
830D
  0
DICTIONARY
  5
830E
330
8187
100
AcDbDictionary
280
     1
281
     1
  3
ACAD_XREC_ROUNDTRIP
360
830F
  0
DICTIONARY
  5
8304
330
8182
100
AcDbDictionary
280
     1
281
     1
  3
ACAD_XREC_ROUNDTRIP
360
8305
  0
DICTIONARY
  5
82F8
330
817C
100
AcDbDictionary
280
     1
281
     1
  3
ACAD_XREC_ROUNDTRIP
360
82F9
  0
DICTIONARY
  5
8310
330
8188
100
AcDbDictionary
280
     1
281
     1
  3
ACAD_XREC_ROUNDTRIP
360
8311
  0
XRECORD
  5
8321
102
{ACAD_REACTORS
330
8320
102
}
330
8320
100
AcDbXrecord
280
     1
102
DISPLAYNAME
  1
Imperial24
102
FLAGS
 90
        0
  0
XRECORD
  5
8325
102
{ACAD_REACTORS
330
8324
102
}
330
8324
100
AcDbXrecord
280
     1
102
SHADEPLOT
 70
     0
102
SHADEPLOTRESLEVEL
 70
     2
102
SHADEPLOTCUSTOMDPI
 70
   300
  0
XRECORD
  5
8323
102
{ACAD_REACTORS
330
8322
102
}
330
8322
100
AcDbXrecord
280
     1
102
SHADEPLOT
 70
     0
102
SHADEPLOTRESLEVEL
 70
     2
102
SHADEPLOTCUSTOMDPI
 70
   300
  0
XRECORD
  5
82EA
102
{ACAD_REACTORS
330
8166
102
}
330
8166
100
AcDbXrecord
280
     1
102
MATERIAL
148
0.0
149
0.0
149
0.0
 93
        0
 94
      127
282
     0
 72
     0
 77
     0
171
     0
175
     0
179
     0
273
     0
  0
XRECORD
  5
8168
102
{ACAD_REACTORS
330
8166
102
}
330
8166
100
AcDbXrecord
280
     1
270
     1
271
     1
  0
XRECORD
  5
8167
102
{ACAD_REACTORS
330
8166
102
}
330
8166
100
AcDbXrecord
280
     1
270
     1
271
     1
  0
XRECORD
  5
816B
102
{ACAD_REACTORS
330
8166
102
}
330
8166
100
AcDbXrecord
280
     1
270
     1
271
     1
  0
XRECORD
  5
816A
102
{ACAD_REACTORS
330
8166
102
}
330
8166
100
AcDbXrecord
280
     1
270
     1
271
     1
  0
XRECORD
  5
816C
102
{ACAD_REACTORS
330
8166
102
}
330
8166
100
AcDbXrecord
280
     1
270
     1
271
     1
  0
XRECORD
  5
8169
102
{ACAD_REACTORS
330
8166
102
}
330
8166
100
AcDbXrecord
280
     1
270
     1
271
     1
  0
XRECORD
  5
82E9
102
{ACAD_REACTORS
330
815E
102
}
330
815E
100
AcDbXrecord
280
     1
102
MATERIAL
148
0.0
149
0.0
149
0.0
 93
        0
 94
      127
282
     0
 72
     0
 77
     0
171
     0
175
     0
179
     0
273
     0
  0
XRECORD
  5
8160
102
{ACAD_REACTORS
330
815E
102
}
330
815E
100
AcDbXrecord
280
     1
270
     1
271
     1
  0
XRECORD
  5
815F
102
{ACAD_REACTORS
330
815E
102
}
330
815E
100
AcDbXrecord
280
     1
270
     1
271
     1
  0
XRECORD
  5
8163
102
{ACAD_REACTORS
330
815E
102
}
330
815E
100
AcDbXrecord
280
     1
270
     1
271
     1
  0
XRECORD
  5
8162
102
{ACAD_REACTORS
330
815E
102
}
330
815E
100
AcDbXrecord
280
     1
270
     1
271
     1
  0
XRECORD
  5
8164
102
{ACAD_REACTORS
330
815E
102
}
330
815E
100
AcDbXrecord
280
     1
270
     1
271
     1
  0
XRECORD
  5
8161
102
{ACAD_REACTORS
330
815E
102
}
330
815E
100
AcDbXrecord
280
     1
270
     1
271
     1
  0
XRECORD
  5
82EB
102
{ACAD_REACTORS
330
816E
102
}
330
816E
100
AcDbXrecord
280
     1
102
MATERIAL
148
0.0
149
0.0
149
0.0
 93
        0
 94
      127
282
     0
 72
     0
 77
     0
171
     0
175
     0
179
     0
273
     0
  0
XRECORD
  5
8170
102
{ACAD_REACTORS
330
816E
102
}
330
816E
100
AcDbXrecord
280
     1
270
     1
271
     1
  0
XRECORD
  5
816F
102
{ACAD_REACTORS
330
816E
102
}
330
816E
100
AcDbXrecord
280
     1
270
     1
271
     1
  0
XRECORD
  5
8253
102
{ACAD_REACTORS
330
816E
102
}
330
816E
100
AcDbXrecord
280
     1
 70
     1
 90
1959938040
 71
     1
  1
CD98D0C0-C8FB-4261-9144-BFF898430D94
311
504B0304140006080800AB8B76577FA58F13BE000000200100004F00000035383231433043422D424532372D344635422D424446352D3142453538304536304537442F4173736574446174612F446566696E6974696F6E4974657261746F7250726F706572746965732E62696EEB606060F80F0540260323103700495E20ED
311
9E9A975A94991C9C9C919A9BC8C00612C9C94F4ACC6147C831019920AE4B6A5A62694E0948976F6671726A4E4E625E6A7E69B12042A9426E6209D0B8C41C3D90264E20860914834C48875806B2DF0F88414E02D189290556F689C5C5A925B6FA694915FAA6864E0616AEE626BA6EAE0626BA2606A66EBA4EAE6686BA66C606
311
96264096A999A1A37E516A717E6951726AB1BE91BE413CD4E4F882BC7406861B6BCFD63A001D00720308130200504B0304140006080800AB8B76571CD7CCC7EF000000300200004500000035383231433043422D424532372D344635422D424446352D3142453538304536304537442F4173736574446174612F496E737461
311
6E636550726F706572746965732E62696EEB606060F80F0540260323103700495E20ED9E9A975A94991C9C9C919A9BA802147076B1B470317036D075B67073D235313233D4B5343431D1757273B3B0B430313670B134614768046931363471713532B5D435353131D63531333204AA7672D13534373670367376B67474B504
311
2A03DBCBA019D37FE8ABC6157B20CD04146B0062181F4C03F940F0C11EA29A8141C08141002C0426541C106CAC2CA046088033B02A030AC2157C6006F21A8018AAF50194E6010A610250382264E08660284CD9E98021862280A91564B406929A0FF62C401E28B6F88038B83CB1243943D7A928312F25350524131B1BFB9F16
311
1800504B0304140006080800AB8B765728BB58AF800100009E0500003D00000035383231433043422D424532372D344635422D424446352D3142453538304536304537442F536368656D61732F436F6D6D6F6E536368656D612E786D6CBD544D4FC23018BEFB2B96DE15493C78601010A34B880709DEDFB52FD0D8B54BD70D
311
F6EFED3AC0B12E6442E2716BFB3CEFF3D18E26FB440405EA8C2B1992E1C323095052C5B8DC842437EBFB673219DF8DA659866649B798C078B48AE6410122242F2A4994AC7F93815DF85C049C8564CA0A901499DD886B2EB9B1E02448F358701A9235880C49A0119892A20C89D1B9FD768815CAD268CB5E0355B40B1E47F3E3
311
7A2020464BED06AA57CE8FCC20C3C3446D46761A2632A8C1283D07031EFF2AE7CCB1BFEEE916E406DFAC8E36FFD99A9D60A6944090EEDC3B670C7DC13DE86B6B2C5C240D6E503BB85ACD579D513F1B9F9A69DC9CC22AFA80C426D40AF0B21EA168559156B6276F0F726A6BFF04DCD513A87A62CAD41FB24FCB2858B3952E3D
311
852084DA25B9303C15687973CC8E8AAE11DF2836C38C6A9E765E8C1BA1BFB1DC29CDFE518C8B5A7655A4ED7E77291ABEB80DBD82EC866ADE1B8D05AF9E35CF09D7A061F38A986D9EC412B8F0F65E5D81534D9B231D1E5A8FE577A241F3A5FD01504B0304140006080800AB8B76572CCEBD668A040000E01200003E00000035
311
383231433043422D424532372D344635422D424446352D3142453538304536304537442F536368656D61732F47656E65726963536368656D612E786D6CD5586D6FDB380CFE7EBF42F0F7A649B70E1B90744856B4970F450FCD7A5F05459613EDE4174872DADCAF3F522F8ED3B88D2F1D06AC4050DBA2493EE4438AF2F8EB73
311
AEC8466823CB62928C06C384888297A92C5693A4B6D9D9E7E4EBD51FE3A931C22EF85AE4EC6AFC38BF261BA626C9AD288496DC3F4FCEAFC63366845F7A10452AF41DB320C0D44EC26EAB20918735565582695670811A6A49643A49A6E9069FA4604A64B29016DC4B48552F95E4932463CA888468C1D2B250DB4962750DF7CE
311
273069CE8363F1FF4EDB00E0A21999574AE4A2B00C353B93F3BD4777B8A61ED8F604ABFEDD79CE56A2B7BDFBDBC50996E0ADDE16FED26223C5D30956C29BDF4A55EA686E5E58B112DA45CE67F76F4FA27EFA3FB672FD7372FC388FAECDCA5209E693CAD167BADCD272F943701B3812F8A3D852008B1D2E32DB927B2F833C6E
311
A95879925356D254582695095A3CE982924720BE5774A3CB9CDCDB350427D2DF20DA1B5532EBE2D5D6288D75D4F7E4FD9890A0EF8E3D93EBB8F8BA4758158EF6FB90A6F9520281C93DE7AAC6D24607DA296BB96018123F821A7D6A5C5884050C475DA4865442732C8B95684A50165CBB3A32F25F783A4A480ED59AD7F924B9
311
68AEA50131F46303223E6A397B0E52976030DC1DCA81D7E7C1EDEEA42C19FF27635C505E2BD5198A599020DF50A2330FCB3AAF28CB0124108429553EF1B228802E2265D8F7CC2401042B155BCC7070F1E5C55F13B4A9577362CCCE46C32174E010C3C378C44841A4BDA00FE3A12006CE11EE6AEC59894D3526DDE1CD59D503
311
ECC324017F8061B7F162162FA62EDD81AE3308617770796DCBDAD2B2625C5AE8A63DE20B2C8AA5E95E76E5730823955956E33E705425A2187C185D36489A1B44D3DCEC2172F6BA2105C3546287A7194B2331768EBBE64F6E70A9930ABE0ADEA89E9E2C38523B810287AD67A54A039C1606EAFE68F8304610BB9093DBDDABC0
311
B2AE4E290DCDA15376D7E39F72B556F0B32EAB5D3D498B4C41ABADEC3A1434C422D87E8025A84BDCB2B1417ED750FAE4DA8976863974C577C7F902D3F156AD354DEA3540DE6BEAE2BEA52F7A2EB4CA43802ECE5BF2CE2EDC9347179FFB023CE412E60BE16DA0BE29B374988A553F561DC04615DD35F7D2C8979F60E5955CE9
311
3DF29DED8AFA1EE6642D53418086C03C47C377910F75F7E8F5EF665F70B60FFB22AEDF897D119E8423C773E819A3C1E55E550599EE6EDCA34D0C86FD72057DF2CD46F16A470682471C164E4346D5306BF12D7D12D82CFF673D41636C347443FEB51B50D72EA171A8E4A58623A4A16E0FA2B8B10A0D23268D87C33896EE8FB7
311
3305A74BF224EDBADFA0BD674AB354D63DB7BD5D83426761C077DE767728235446A552754EB93B755891C3C4CC6CADE37CF0E912A7BB38DBA010F9DE1282EDF470CA69A9CDA482E334C4A6EA4107987980B17E72F31730EBF88BBD39E7C629F56797A3C0009C2C5AE7951D9A05A02773440F02EEB4DE396A3B6A570C72CCFB
311
CD823B0B8ED3F1D5CEDDFED772FA70236C83FB7D86C385D570B87107535572A60A96035F8F7C6A7192F13007246BBE0521855E6AC46F3E27689CEE7D186A6FD679D98CDCAD13333E04EBE7ED6F55FF01504B0304140006080800AB8B76576180134D5F0100006B0300004500000035383231433043422D424532372D344635
311
422D424446352D3142453538304536304537442F536368656D61732F52656E6465724D6174657269616C536368656D612E786D6CA5934D6FC2300C86EFFB1551EEE343DBA41D1A103009551ADAD40EAE28A4A68D9426284961FCFBE5A340113B2071746D3F765EBF4DC6BFB5407BD0862B49F0B037C0082453059725C18DDD
311
3EBFE3F1E829991803366715D474942CD30FB4A782E00C64017A412D684E454CE3FE28995203B162A6EA5AC94B66997D225E109CD63B0135484BAD1B3C07E9080CA35DB3119C11BCA5C200461A68A1A438126C75E3E230D40FF81FB3F03C91D1E3A3A0AF79FE28E25BC39EC3E17E4C2A2D94A0833A51AF55BCCA7D88572FCB
311
AC529C4140B020FC3AAFA886621DCED7EAD7664CC86024E806DC297DA1BB393E4156543457A4537DB8817349A70F8ACBF09B3EEE2CB2F33E91B65D60786E4E3B39B77E3FEEEF5650424525DA657FB8B46BE6BF064646F0A0F7327C0BC1BC1B4CBBC1C419FA3CCB23500007872A2580CAAE5461865565294E4EDB4617B62FF5
311
79DF9A5B2F54E834076A597573A020912FED777F9B3F504B0304140006080800AB8B7657D282FC7851000000570000004700000035383231433043422D424532372D344635422D424446352D3142453538304536304537442F4173736574446174612F41737365745461626C654F66436F6E74656E74732E62696E53616060
311
7076B1B470317036D075B67073D235313233D4B5343431D1757273B3B0B430313670B1341102AACB4D2C492DCA4CCC492C28484D2C4ACC4B4E050A82012F90744FCD03CA26072767A4E6260200504B0304140006080800AB8B7657F865834058000000680000004500000035383231433043422D424532372D344635422D42
311
4446352D3142453538304536304537442F4173736574446174612F53747265616D56657273696F6E5461626C652E696E66558CBD0A80300C06F73E4B117FB66E451741D041DC5BF98480A492E4FDD18EAEC7DD4555D89EF28DF51A0B1BD8340C4DE7DD848B988C0ACF0649566493F2408C508DDEBB99D5129FF8F1AF8CF5B9
311
503E20FAE5A16B5AF702504B0304140006080800AB8B76577DE18F75340100009A0400003600000035383231433043422D424532372D344635422D424446352D3142453538304536304537442F4173736574446174612F636E782E786D6CCD94314FC3301085FF4AE43D76930E40E5B842B07402898A81EDEA5C8A55C78EEC
311
0B827F8FDD6600153165C87A7E777EFEE47772FBD9DBE2034334DE35ACE22B56A0D3BE35EED8B091BAF296155B2583F7F443C60A073D362C979992C7E0C7612AB5D8C16873D51A779A8AF73122EDE160F1A97BF08ED0516485B61063C3A27EC71E388CE45B8C27DE0201AF78C0E8C7A0314D22D3E334490704C296A97A55AF
311
CBAA2AEB7A5FDD6CEABB4DBD7E93222B953C786F27BD4997053F14FA722B532B29F2B19263309326BF85A9BF3CF283715224A5929142623275D0D7903A6018ACD140099DF09A90CA2442E8A5B888951499C12F128FD8196772CB2E1903F2E139D9C340061747E43FAFF393D9B948E0342E97C7B5C3F929BC9C7FD0EB2590E7
311
C42C2D27D70EB971DD0C2911E735924293B78AFA06504B0304140006080800AB8B76577422314A070100004F0300003400000035383231433043422D424532372D344635422D424446352D3142453538304536304537442F536368656D61732F636E782E786D6CCD93BD52032114855F65873EB04B0A35C392C2C2CA46ADEC
311
106E2213E0EEF0E3E8DB0B2B453263A7453A387CC39C73B888FDA777C307C46431CC64A22319206834361C6752F261734B86BD1411319F616408CAC34C9A4CA438462C4B970C1C54714D75369CBA788FDE6378D6EFE01519B45329CD24AD5BAA4A4603E9448DCA8A4E3442C21235D41BB2F5D06FD011540643241FF976334D
311
1BCE5FA69B1DBFDBF1EDAB608D94E20DD175DE860C119741635D846A6714AC1D4B51A2ED4CCB40E4B9375ADB10AC1252A41C6B079DCC5F4B25D5B238AB55AE55B115FC61A4602DEA45E0070810ADBECEC417E6FE2DF2130403F1B1BE52B4CA5D67F2DF3CFEAD00B6CE7E1D81F615E437504B0304140006080800AB8B765741
311
0A3D5871000000A40000002C00000035383231433043422D424532372D344635422D424446352D3142453538304536304537442F636E782E786D6C55CC4D0E82301086E1AB34B31774E7A22D31F1069E60020334B633A63FC6E34B0909B07DDE2F9FEE7EC1AB2FC5E4840DDC9A2B28E25E06C7938192C7CB1D54677514C987
311
1928C640062A83D55394F2D968A0118BAFEA1DBF377CA444F98919176EAB9FEAAB9F2960DA5BBB1E2ED3FA6FFF504B0304140006080800AB8B7657241772D77D000000A300000007000000636E782E786D6C4D8C410E83201444AF42FE9E164CA92C001314EF612A1A520443A5E9F10B8D8BAEDEE4656644F7D93C7ADBF472
311
3148A01702C886479C5D5825E463C11C50A7448AF1F8AB010AD36625540D4AAC29E6FD54B35DA6ECABF52E3C4FC978437BD26BAC4DD3E2DBC84A1A4686A9368C137327A61DCAE25A2705BFBFC27AAFBE504B0304140006080800AB8B765716E99B5DA600000035010000130000005B436F6E74656E745F54797065735D2E78
311
6D6C9590410E82301045AFD2740F4517C6180A0BF5065E60AC53688469D30E066F6F91AD9AB89CF9FFFD3F99BA9DC7413C3026E749CB4D59498164FCCD51A7E5C4B6D84BD136F5E5193089ECA5A465CF1C0E4A25D3E308A9F401292BD6C711388FB15301CC1D3A54DBAADA29E38991B8E0254336F5092D4C038BF39CD76B6F
311
C6A538AEBEA54A4B08617006389FA516557DE4AE8E7E70DE30729138228C5F021CD93F02D4FB0DCD0B504B0304140006080800AB8B76573DEE336E64000000790000001B0000006175746F6465736B2D64657369676E2D7061636B6167652E786D6C35CBC10E83200C00D05F21DCA56CA76D41FC96062B120735B69A7DBE26
311
8BB7777961F8D5AF396893C2ADB70FE7ADA196782C2DF776D7A97B5933C430F15651E5469C55D70F80A4992A3ADC954792C525AE70A1E4D6AD9816CC044FEFDF01FE3FDE907802504B0304140006080800AB8B76577073641FF8000000960100003700000035383231433043422D424532372D344635422D424446352D3142
311
453538304536304537442F4173736574446174612F636F72652E786D6C8550CB6EC32010FC156BEFD806BB711261A254C85FD0536F08888B1283C5A3EAE71762576A4F3DED6A76667677E8E56B79549FDA07E3EC08B86EA1D2563A65EC3C428A377484EAC2A8772EFEA24165C5A2472830303A7B97D61D92CE466D0B6A9DD2
311
3B2842D0112AF9C8CD08417EE845D422C5CC08F77A15F22E665DE37AE3319A9251BBD4A8EC666E467B60C703E1FD347034E196A0BEE347F47AE02D9AFAEEF44238E1C395D0A688198D66F9D92EBD16512B60A4251DC21811F2868733399D49F74E9BC26434449F7FDE9796EF805DCBD55C44419B6DFAC735ADEA7FD7646CEC
311
C8EEBA2902309C8F7C0E186D4A4AB93C23CCB524CABE01504B0304140006080800AB8B76572420A865F6000000940100003500000035383231433043422D424532372D344635422D424446352D3142453538304536304537442F536368656D61732F636F72652E786D6C8550CB6E833010FC15B47703363490C8386A65F103
311
EDA937CB38D44AB0911F553FBF3650A93DF5B4ABD999D9DDA1D7AFE5517C2AE7B53503E0B286421969276DE60162B8A11E8A2BA3CEDAF08B0685118B1A20C3C0E8EC6C5C0F485A1394C9A8B1933A40E1BD0A50C8476A06F0F2432DA214312486BF97AB907731AB12973B8FD118F57448F594DCF44D2B07AC3F11DE8E1D4723
311
AE096A1BDEA39713AFD1D836E727C209EF9E09ADB298D1A0979FEDD22911D4048CD4A441182342DE707721E70B69DE6995998CFAE0D2CFC7D2FC1DB0D7ED4E4FAB7DF6C733AED3FF9E519BD090C373577860389DB80D18AD7246A96C01A69AF364DF504B0304140006080800AB8B765797CA134300010000D70100002D0000
311
0035383231433043422D424532372D344635422D424446352D3142453538304536304537442F636F72652E786D6C9591CB6EC32010457F05B1F7035CD7698489E4C4F982AEBAA330715062B07854FDFC42EDAAEDAE5D31BA9C3B7067D8E17DBEA337705E5BD36352D6188191566933F538864BB1C3E8C099B336FCC0303262
311
861E67197336391B974D92D60430593556C1260AEF216024EFA9E8B19757984529624884BF958B9037314149CA95E32CE8F9CB2A1D88000A735AD3A620A4A0F499747BFAB4A7CD0BAB32C959D42634747B0CE65750C82E2145C2BC65D57A9BA8A8D5C66895FEA82F1A5C2276941CEBE3500C23ED8A87739BAAD3B92DC830B6
311
BB7A7CACC7EE949A2433673EB83499AD499EC15FEDABF157B2B8A87F265B1D1E73F21DAACA63E6ACFADC413AF34AF807504B0304140006080800AB8B7657304FFBC407010000B201000008000000636F72652E786D6C8D50CB6EC32010FC15B4776C83DD388930512BCB5FD0536FD41017C5068B47D4FE7D2176A5F6D6D3A2
311
99D99D61D8E57399D15D39AFADE98014152065462BB5993A88E18A8F802E9C396BC32F19202316D5418681B3C9D9B8EED0684D5026A3C64AB583C27B15008D737A74E0C70FB58842C49014FE56AC62BC894915A4D8749C05BDFCAC8E4E89A024705AD11A1382297D25ED999ECEB47E6365567216A396BB9596C95D5FB572C0
311
8F07DA3743DBE381541437757FC42F87BEC243539F9E684FFBF699B2322F73E6834B7FDE8FA49C017971CFBEACDC28CEDEAD9D77410A259135F317F08A9599F8133AAEF21FA1B50935DD0F6E1B1E3849811E4432CE0DA6F1A837CDDC36FF06504B01021400140006080800AB8B76577FA58F13BE000000200100004F000000
311
000000000000000000000000000035383231433043422D424532372D344635422D424446352D3142453538304536304537442F4173736574446174612F446566696E6974696F6E4974657261746F7250726F706572746965732E62696E504B01021400140006080800AB8B76571CD7CCC7EF00000030020000450000000000
311
00000000000000002B01000035383231433043422D424532372D344635422D424446352D3142453538304536304537442F4173736574446174612F496E7374616E636550726F706572746965732E62696E504B01021400140006080800AB8B765728BB58AF800100009E0500003D000000000000000000000000007D020000
311
35383231433043422D424532372D344635422D424446352D3142453538304536304537442F536368656D61732F436F6D6D6F6E536368656D612E786D6C504B01021400140006080800AB8B76572CCEBD668A040000E01200003E000000000000000000000000005804000035383231433043422D424532372D344635422D42
311
4446352D3142453538304536304537442F536368656D61732F47656E65726963536368656D612E786D6C504B01021400140006080800AB8B76576180134D5F0100006B03000045000000000000000000000000003E09000035383231433043422D424532372D344635422D424446352D3142453538304536304537442F5363
311
68656D61732F52656E6465724D6174657269616C536368656D612E786D6C504B01021400140006080800AB8B7657D282FC7851000000570000004700000000000000000000000000000B000035383231433043422D424532372D344635422D424446352D3142453538304536304537442F4173736574446174612F41737365
311
745461626C654F66436F6E74656E74732E62696E504B01021400140006080800AB8B7657F865834058000000680000004500000000000000000000000000B60B000035383231433043422D424532372D344635422D424446352D3142453538304536304537442F4173736574446174612F53747265616D56657273696F6E54
311
61626C652E696E66504B01021400140006080800AB8B76577DE18F75340100009A0400003600000000000000000000000000710C000035383231433043422D424532372D344635422D424446352D3142453538304536304537442F4173736574446174612F636E782E786D6C504B01021400140006080800AB8B7657742231
311
4A070100004F0300003400000000000000000000000000F90D000035383231433043422D424532372D344635422D424446352D3142453538304536304537442F536368656D61732F636E782E786D6C504B01021400140006080800AB8B7657410A3D5871000000A40000002C00000000000000000000000000520F00003538
311
3231433043422D424532372D344635422D424446352D3142453538304536304537442F636E782E786D6C504B01021400140006080800AB8B7657241772D77D000000A300000007000000000000000000000000000D100000636E782E786D6C504B01021400140006080800AB8B765716E99B5DA60000003501000013000000
311
00000000000000000000AF1000005B436F6E74656E745F54797065735D2E786D6C504B01021400140006080800AB8B76573DEE336E64000000790000001B00000000000000000000000000861100006175746F6465736B2D64657369676E2D7061636B6167652E786D6C504B01021400140006080800AB8B76577073641FF8
311
0000009601000037000000000000000000000000002312000035383231433043422D424532372D344635422D424446352D3142453538304536304537442F4173736574446174612F636F72652E786D6C504B01021400140006080800AB8B76572420A865F60000009401000035000000000000000000000000007013000035
311
383231433043422D424532372D344635422D424446352D3142453538304536304537442F536368656D61732F636F72652E786D6C504B01021400140006080800AB8B765797CA134300010000D70100002D00000000000000000000000000B914000035383231433043422D424532372D344635422D424446352D3142453538
311
304536304537442F636F72652E786D6C504B01021400140006080800AB8B7657304FFBC407010000B2010000080000000000000000000000000004160000636F72652E786D6C504B050600000000110011005A060000311700000000
310
504B0304140006080800AB8B7657000000000000000000000000370000006662782F36374634383543442D423435412D343642302D393238452D4446453141343542414437332F617474726962757465732E62696E504B0304140006080800AB8B7657000000000000000000000000350000006662782F3637463438354344
310
2D423435412D343642302D393238452D4446453141343542414437332F76657274696365732E62696E504B0304140006080800AB8B7657F270F1330600000004000000360000006662782F36374634383543442D423435412D343642302D393238452D4446453141343542414437332F747269616E676C65732E62696E6366
310
60600000504B0304140006080800AB8B765751464CB48900000043010000360000006662782F36374634383543442D423435412D343642302D393238452D4446453141343542414437332F6469726563746F72792E786D6C9D8F310EC2300C45AF127987122606C71DD918B841D4B851A43646695A717C52A85029031293A5
310
A76FBF6FACEF7DA7264E43906840EF0FA03836E242F406C6DCEE4EA06AC22492573150D1F66C60C640E8938CB705396EEDD86DE9B5042FE27813D640EA63BB001C722AF6E55CB61E4863F58284D5D3F53DD715CE1C3985E63FD7F1B7EBDD617E9F1E504B0304140006080800AB8B765717E7E9AC3D070000201C0000340000
310
006662782F36374634383543442D423435412D343642302D393238452D4446453141343542414437332F6F626A656374732E786D6CDD595B6FE23814FE2B56F665F7815C203030A28C5A28151A7566346856FB169960A8B7CE454ED2D2FDF57BECD8214E03A47391564B25481DE7F89CEFDC4FA61F0E11434F84673489AF2C
310
CF762D44E230D9D2787F6515F9AE37B6D087199AF224C96BFB2C14E3885C5962D99A4DF73C2952B5B4253B5CB0E6EAF2E62F94852426160A19CEB22B2B0B1F48846D5CE4C996648FF616E7D8DEEF0EB667971B4DB27B8ED387C65129E624CE8155588F818AE2C033FF05919CD9D4111B8C6D836EDBFA67B639527093511A67
310
398EC3575C358EEB9FE0AA71DCC0F317B7FDE1A437F4FD41CF1FF5BDDECDF266D1F3DE0DDCF9683E9F5CDF4E2C349B6E9284550A4849BC052DBE58336FEA883B95F80A8536BEC3248E49A8D06CDBB0258A2E2559131303584F8A565348296B6D61D051F813DB3A8162B064A0AD85D3BF75EB4D367F030859172BE51911569E
310
E51C74ADB02FFDC19D3AE5AAA1179AA108E78453CC10A31B8E392808B6960A32C8086F11A490C04C6A51D3ABF30A867DD997DAB8DC158C09FFB566D2D302F04792679233FA0FE147EEEBA7014F206D41E37CAC84CD5F522031993A72B1BC37E8AB9B259068C7F01EAC05C4149B06FD065E73110B560B6BF671B939AC457C68
310
3F3CE5494A782E2C4F3AB3F23BADC19A6981F17500A5C4D5D4DD1195AF00FD2740BEE2054D41739C1EFC83AF65E738CE76098F403BC8453D17BE5C242E5F5D4D9DEAE1194246AC3C8529B8ED4FC2D410C338BB06E96CFA04469FF081126E1D6206367D4F63E1E760288825B004F17EB73958B31504535884A73003E9E16FEA
310
884B043F251D88370D0DB585DF0E8AD20ED3F4B3A3AEEEC066380D2B5519329EC277F853F0BD5EAC3FAE0BBEC321B9578EBD203B1AD31C92693B4306E886CB7F5B7D921E79C7920D66C7A78D4D211CB34F44DC6851CB5AA90549BD0027220D979A912BF714BC9D311C93A4C8D47A5B9C0A1396F060F312942EDC7AD69FDA06
310
CAC39401B4C63248EE21A7A9C0C49A296D5581D0AE090A1686B9B2C07DA9D56053446980A3A48845A87D6D8A4D3E20CE084B04AA929A366CEDB59AEC96EE764506C1AB95E4DC0052F9B3265C5AB80F71AC8D5F4E761C43124DE280420E0667693DC138A002EF3CCF1961BB80325644C18E32C8234184D313F43B4A50CF5C8F
310
E4E539E1DB5682A665699FD436240057C06A9074B62A63BED229274F549499329FE96C60EC5075A835F34FA40B91295A00D5C628CD7CBE988C17EEDCEDCDC7CB9B9EDF1F79BD89E7FB50362DC793B13F70171320AFAC4422708C56F57C07AA14658EE17FF943116D624C19DC1014F0367DFF4166CF2B0742A333F46EDCF1ED
310
3BBFB7BC75FD9EEF0E97BD9B5B60603470273E5C0D47DEB5C34996143C2499D377DC409B641AEF4F7155C55291B5407EF8569042597339D9697D3585F91FC7D0664E3094F85F0DA255EC6A2908BB0651F1683384E2F051A4A82084AAAFD57D1A41B4C9475B9C7B635C76ED812B3F9E37E9BB93FE7832AA8CFD6CA096E7FC70
310
9C6B932084BEB3C88324C521CDDB136A03978E71FA4DB9C51E784304E854DFD521E7F38C3A24A011DE9360874597D012182F49D09AC3F62CC9321A934C7679AFAABF064DD78662CACCB92D4648B3202239FE1EFB936D43C3A62136B300FAD15C4C042E56059541AB0EE41445D1FD42E296F2BF04198E525676BA9730F0FA1A
310
02DDE3B4599C605A1CF104F616E03C70B7440E2E2E51AFD8D7F541ABD69AD427DF4DFE043CBAAEF985F0E823BA974EF6D09B88CF1882CA68E80DDE69455CC24A1F958B3E8E15D079862FC133A1FB874E8566379DD44AB6B2A8CE49046D2CCE0BDEC95F4743F7D5412A2E341CA276D21B8B43D9BFE90E0ED0930DDCA9F2B676
310
0CD4A13486395727415E49D16AC2521772A62746576FF0EBB3CAAE53FDE178F9CB2BE6BAF34550E875C1A12A6755F4316AEAD6AADBA887B2679C871048D7F2B777031EB125DB636366906B2BD1757D7AA97A5E89801AC1C4168B387B2F2ED8570CAA86EE3973EECAA2CD29D75722B1D9309C3EF261306DD2FA7CB76E508195
310
CE4F7F111891E70605B53A17DDF01952DF56C79EBF414149F46D75E6F1FF4447A11558EB2C601A9C258CC2509E6CD19E2490BD61ECD0A1DBE011C964563E7629FA8D4087A79FCA996A8E374CF738E10386C13453BD5811C2501432E695A5D6D16F3006159348399CB21FA10D5331CC4205A75716586C4EA1DBB23730CE92C3
310
4349BD31AE04C7C6F15EE4FBF2A9EAFFE363AFBAAF6A4F175C9464863341619BCAF70450F5953766D3EF175DB383700E979B22AF84392E1CA55120E81702A57030F57B54F01EA0A0382F9767CB3D4643DA69327FD60E4AAABD1CF3BD1CAFD76CF27AF1C51193F1D56794B2622FD479AEFB3528F544D7CD8A720A3505C35062
310
A658D490F3F7CE179EC02BA6082D291801FAFD301EFDE1CC93284AE272C9B9562FAAD0FA015E3B6D1D3DF28336DEF5868E9C02A8B17EB0C119B1F1367B8405502DA762365A426C1840154D6B06A0352274018F19FB570BA46AA3DA84A41E76053C72A68FC091C4BB1CE136F50DB50124F80270256F1E2FF4C2D4E130049FFD
310
0B504B0304140006080800AB8B76570434B50A3D01000046050000300000006662782F36374634383543442D423435412D343642302D393238452D4446453141343542414437332F636E782E786D6CCD94C14E032110865F85705FE86E0F6AC3D2C4834FE0C17863D9E98A65610383B16F2FD46DD5981A0F4DDA1B19FE49FE
310
6FE6CF88F5FB68C91B8468BC6B69CD169480D3BE376E6869C24D754BC95A8AE03D7E9351E2D4082D2D652AC5107C9AE6520F1B956CA95AE3B673512106D325844889B62AC69646FD02A3622AA1EF216E59AF50B19A05883E050DB91FCD0873BF0EA0107A2A9B45B3ACEABA6A9AC7FA66D5DCAD9AE5B3E0452945E7BD9DF5C6
310
21043F11EDF3C365330BC1CBB7142998595308A8FC72C63AE304CFFF52C4ECD60DB30E7753D14D93355A611E13F71A01AB2C02350AFE29968217DE1FD40FF74F0707A4370134FAB0BBD000EA5303381A633909FFE3DF0BFFC6F6DD6BC6BDD4B64FC2CEB6CE867A486BCC71FDBDFF9C22E5067B7DA13F1A3B7FE6F32941A3AF
310
0FF9E0EB4CC47C7FF2F2D2CB05941F504B0304140006080800AB8B765752DD5FF87F000000A30000000B0000006662782F636E782E786D6C4D8CD10E822018465F85FDF79416286D8283D4F770898E89D0485A8F1F342FBAFAB6B3EF9CA6FD6C16BD757819EF3894A70290760F3F19B77088FB8C19A05634C1FBFDEF06C88D
310
9BE690318866093E3E0F34E9798C36536BDC7AC0AA1E08A3F70E2B422526952AF0EDC27ADC0D7D290955B2ABAFC9386725CDAF9736E7C517504B0304140006080800AB8B7657A6D797065F0000008200000007000000636E782E786D6C4DCB3B0E80201045D1AD90E9FD7516806B51190811670C8A61F982B1B0BAC9C97B72
310
CA7B1037C6D3332918DA1E04D2CAC69353902EDB8C20262D23F3F59B81A079470595414B17391D1F19B4730A5583A7ED43BBE4025D9592775E5ADFFA01504B0304140006080800AB8B76574FEB6A7CA0000000F4000000130000005B436F6E74656E745F54797065735D2E786D6C7D8F4B0EC2300C44AF1279DFA6B0400835
310
ED02B8011730C16D239A8F121795DB93D02D6269CFBC19BBED573B8B17C564BC53B0AB1B10E4B47F18372A5878A88E20FAAEBDBD032591BD2E299898C349CAA427B2986A1FC86565F0D122E7318E32A07EE24872DF3407A9BD63725C71C980AEBDD080CBCCE2BAE6F5D69B7110E7CD57AA146008B3D1C8F92C5954F993BB1B
310
F787F39A89ABC491D09600F9FDA2FB00504B0304140006080800AB8B76573DEE336E64000000790000001B0000006175746F6465736B2D64657369676E2D7061636B6167652E786D6C35CBC10E83200C00D05F21DCA56CA76D41FC96062B120735B69A7DBE268BB7777961F8D5AF396893C2ADB70FE7ADA196782C2DF776D7
310
A97B5933C430F15651E5469C55D70F80A4992A3ADC954792C525AE70A1E4D6AD9816CC044FEFDF01FE3FDE907802504B0304140006080800AB8B7657CD518696F8000000960100003B0000006662782F36374634383543442D423435412D343642302D393238452D4446453141343542414437332F7265736F75726365732F
310
636F72652E786D6C8550CB6E833010FC15B477436C4880C838124DFFA0A7DE2CB3A156828DFCA8FAF9B50395DA534FBB9A9D99DD1D7EF95A1EC5273AAFAD1980960728D0283B69330F10C38D74505C0477D6865F34288C5C70800C83E0B3B371DD21654D4093516327DC41E93D0628D423350378F5818B2C650C89E1EFE52A
310
D55DCE58D272E3091EA39E76A99E929BBE697420AEEDB1AD7BFA4A5EBA8692A6AE47D28D4D4BAEC7537FEAFA76A4FD8957592C78D0CBCF76E550069C40B003AB09A584B137DA9E597F66F53BAF3253701F5CFA795F9ABF03E1D0DBE8147A5E6DD33FAE719DFE778DDA849AEDAE9BC283A0E9C8E740F02AA794CA33C25473A2
310
E21B504B0304140006080800AB8B76576EDD6043F3000000B1010000310000006662782F36374634383543442D423435412D343642302D393238452D4446453141343542414437332F636F72652E786D6C8D50CD8E8320187C15C31D15D46A1BA4D1B57D823DED8D0075492B187E36FBF80BD54D766F3D7D64BE1966BE21E7
310
EFE5917D49EB94D13D40790932A9B9114ACF3D08FE063B909D29B1C6F83F349069B6C81E241850325B13D61DE2467BA913AA8D903BC89C931E64FC111F3D70FC532E2C67C14786BBE72BE37736CB1CE51B8F12AF965F29B792792900C525AE204210E377D49EF0F184AB0F522426252128B15B2911DDD54D490BE8A1BDD65D
310
F336C1B16E06581FC6121E717781D3F58286BA1987A9AD4891C494386FE3CDFB27E9BA57E59BF05FE6B08A17322BED2BBC1B6E0A07288A799E0B4A8A54601CCF76E34C65D31F504B0304140006080800AB8B7657D82A9E0953010000DD0200000C0000006662782F636F72652E786D6C8D525D6F832014FD2B8677B4A0ADB5
310
419A74DD3FD8D3DE285247AA60104C7FFEC08F381FD62D2648CEBDF79C7B4E20E767DB448330BDD4AA0428DE814828AE2BA9EA12387B8747109D29315ADB1F6D2052AC15250830A0A436DA7533C4B5B2420554E94ACC20EB7B6141C41B7F2941CFBF44CB62E6ACEFE81F71C7F883D52246F1D4478973B29A4765E5D9E45D0A
310
03E835DFE76981DEE1DB3143304BD30B3C5EB21C5EF787E2702CF20B2A0E2409C39458D92EEADC0866450528DEE114220431FE40F90917279C7E92247452D25BE33DCFA2C11DA0F7DB932413BEE1735DF5379F93CAA678E69B267A40915F6F2C5092847CFC6F0C6F9BA117F6F959766B160B0F0F0D825B6D325FA9B45B4B03
310
6B9CF0D4BB68FC4832553DF348F01B0F7EC1F39AC307C554ED5763D65F6FCE06F5ED4E9D3070B0CF4869D3B2665D6E5A713D57A18DA5659CEB469BFF4C2F56973093F030E937504B0304140006080800AB8B765783D079DF07010000B201000008000000636F72652E786D6C8D50CB6EC32010FC15B4776C038E1F1126929B
310
FE414FBD51431C141B2C83A3F6EF0B892BB5B79E16CDCCEE0CC34F9FF384EE7AF5C6D90E485600D27670CAD8B1832D5C7003E824F8EA5CF8250364E5AC3B4830083EAE6E5B76687036689B50EB94DE41E9BD0E8086293E3AF0C355CF32935B880A7FCB1639DCE4A833923D75820733FFAC0EAB96412B10B4A00C1382297D23
310
F591B647CADE799E94826F9B51BB9551D1DD5C8C5E419CEB43CD5AF28A5F9A92E092B11E377D59E3F3A16AABA6AD7BD2563C4FCB82FBB0C63FEF4762CE80BCBC275F9E3F29C13F9C9B76410CA590B3D3178882E789F8137A5BD43F421B1B18DD0F3E373C0812033D88689C1A8CE3516F9CA96DF10D504B0102140014000608
310
0800AB8B76570000000000000000000000003700000000000000000000000000000000006662782F36374634383543442D423435412D343642302D393238452D4446453141343542414437332F617474726962757465732E62696E504B01021400140006080800AB8B76570000000000000000000000003500000000000000
310
000000000000550000006662782F36374634383543442D423435412D343642302D393238452D4446453141343542414437332F76657274696365732E62696E504B01021400140006080800AB8B7657F270F13306000000040000003600000000000000000000000000A80000006662782F36374634383543442D423435412D
310
343642302D393238452D4446453141343542414437332F747269616E676C65732E62696E504B01021400140006080800AB8B765751464CB489000000430100003600000000000000000000000000020100006662782F36374634383543442D423435412D343642302D393238452D4446453141343542414437332F64697265
310
63746F72792E786D6C504B01021400140006080800AB8B765717E7E9AC3D070000201C00003400000000000000000000000000DF0100006662782F36374634383543442D423435412D343642302D393238452D4446453141343542414437332F6F626A656374732E786D6C504B01021400140006080800AB8B76570434B50A
310
3D0100004605000030000000000000000000000000006E0900006662782F36374634383543442D423435412D343642302D393238452D4446453141343542414437332F636E782E786D6C504B01021400140006080800AB8B765752DD5FF87F000000A30000000B00000000000000000000000000F90A00006662782F636E78
310
2E786D6C504B01021400140006080800AB8B7657A6D797065F000000820000000700000000000000000000000000A10B0000636E782E786D6C504B01021400140006080800AB8B76574FEB6A7CA0000000F40000001300000000000000000000000000250C00005B436F6E74656E745F54797065735D2E786D6C504B010214
310
00140006080800AB8B76573DEE336E64000000790000001B00000000000000000000000000F60C00006175746F6465736B2D64657369676E2D7061636B6167652E786D6C504B01021400140006080800AB8B7657CD518696F8000000960100003B00000000000000000000000000930D00006662782F36374634383543442D
310
423435412D343642302D393238452D4446453141343542414437332F7265736F75726365732F636F72652E786D6C504B01021400140006080800AB8B76576EDD6043F3000000B10100003100000000000000000000000000E40E00006662782F36374634383543442D423435412D343642302D393238452D44464531413435
310
42414437332F636F72652E786D6C504B01021400140006080800AB8B7657D82A9E0953010000DD0200000C00000000000000000000000000261000006662782F636F72652E786D6C504B01021400140006080800AB8B765783D079DF07010000B20100000800000000000000000000000000A3110000636F72652E786D6C50
310
4B0506000000000E000E0080040000D01200000000
  0
XRECORD
  5
8173
102
{ACAD_REACTORS
330
816E
102
}
330
816E
100
AcDbXrecord
280
     1
270
     1
271
     1
  0
XRECORD
  5
8172
102
{ACAD_REACTORS
330
816E
102
}
330
816E
100
AcDbXrecord
280
     1
270
     1
271
     1
  0
XRECORD
  5
8174
102
{ACAD_REACTORS
330
816E
102
}
330
816E
100
AcDbXrecord
280
     1
270
     1
271
     1
  0
XRECORD
  5
8171
102
{ACAD_REACTORS
330
816E
102
}
330
816E
100
AcDbXrecord
280
     1
270
     1
271
     1
  0
XRECORD
  5
831F
102
{ACAD_REACTORS
330
831E
102
}
330
831E
100
AcDbXrecord
280
     1
102
DISPLAYNAME
  1
Imperial24
102
FLAGS
 90
        0
  0
CELLSTYLEMAP
  5
82E6
102
{ACAD_REACTORS
330
82E5
102
}
330
82E5
100
AcDbCellStyleMap
 90
        3
300
CELLSTYLE
  1
TABLEFORMAT_BEGIN
 90
        5
170
     1
 91
        0
 92
    32768
 62
   257
 93
        1
300
CONTENTFORMAT
  1
CONTENTFORMAT_BEGIN
 90
        0
 91
        0
 92
      512
 93
        0
300

 40
0.0
140
1.0
 94
        5
 62
     0
340
81A1
144
0.25
309
CONTENTFORMAT_END
171
     0
 94
        0
309
TABLEFORMAT_END
  1
CELLSTYLE_BEGIN
 90
        1
 91
        1
300
_TITLE
309
CELLSTYLE_END
300
CELLSTYLE
  1
TABLEFORMAT_BEGIN
 90
        5
170
     1
 91
        0
 92
        0
 62
   257
 93
        1
300
CONTENTFORMAT
  1
CONTENTFORMAT_BEGIN
 90
        0
 91
        0
 92
      512
 93
        0
300

 40
0.0
140
1.0
 94
        5
 62
     0
340
81A1
144
0.18
309
CONTENTFORMAT_END
171
     0
 94
        0
309
TABLEFORMAT_END
  1
CELLSTYLE_BEGIN
 90
        2
 91
        1
300
_HEADER
309
CELLSTYLE_END
300
CELLSTYLE
  1
TABLEFORMAT_BEGIN
 90
        5
170
     1
 91
        0
 92
        0
 62
   257
 93
        1
300
CONTENTFORMAT
  1
CONTENTFORMAT_BEGIN
 90
        0
 91
        0
 92
      512
 93
        0
300

 40
0.0
140
1.0
 94
        2
 62
     0
340
81A1
144
0.18
309
CONTENTFORMAT_END
171
     0
 94
        0
309
TABLEFORMAT_END
  1
CELLSTYLE_BEGIN
 90
        3
 91
        2
300
_DATA
309
CELLSTYLE_END
  0
XRECORD
  5
831C
102
{ACAD_REACTORS
330
82E5
102
}
330
82E5
100
AcDbXrecord
280
     1
102
ACAD_ROUNDTRIP_PRE2007_TABLESTYLE
 90
      512
 91
        0
  1

 92
      512
 93
        0
  2

 94
      512
 95
        0
  3

  0
XRECORD
  5
82F7
102
{ACAD_REACTORS
330
82F6
102
}
330
82F6
100
AcDbXrecord
280
     1
102
RTVSPost2010Prop28
280
     1
102
RTVSPost2010PropOp28
 70
     1
102
RTVSPost2010Prop29
280
     1
102
RTVSPost2010PropOp29
 70
     1
102
RTVSPost2010Prop30
280
     0
102
RTVSPost2010PropOp30
 70
     1
102
RTVSPost2010Prop31
280
     0
102
RTVSPost2010PropOp31
 70
     1
102
RTVSPost2010Prop32
280
     0
102
RTVSPost2010PropOp32
 70
     1
102
RTVSPost2010Prop33
280
     0
102
RTVSPost2010PropOp33
 70
     1
102
RTVSPost2010Prop34
280
     0
102
RTVSPost2010PropOp34
 70
     1
102
RTVSPost2010Prop35
280
     0
102
RTVSPost2010PropOp35
 70
     1
102
RTVSPost2010Prop36
280
     0
102
RTVSPost2010PropOp36
 70
     1
102
RTVSPost2010Prop37
 90
       50
102
RTVSPost2010PropOp37
 70
     1
102
RTVSPost2010Prop38
140
0.0
102
RTVSPost2010PropOp38
 70
     1
102
RTVSPost2010Prop39
140
1.0
102
RTVSPost2010PropOp39
 70
     1
102
RTVSPost2010Prop40
 90
        0
102
RTVSPost2010PropOp40
 70
     1
102
RTVSPost2010Prop41ColorIndex
 90
       18
102
RTVSPost2010Prop41ColorRGB
 90
        0
102
RTVSPost2010PropOp41
 70
     1
102
RTVSPost2010Prop42
 90
       50
102
RTVSPost2010PropOp42
 70
     1
102
RTVSPost2010Prop43
 90
        3
102
RTVSPost2010PropOp43
 70
     1
102
RTVSPost2010Prop44ColorIndex
 90
        5
102
RTVSPost2010Prop44ColorRGB
 90
      255
102
RTVSPost2010PropOp44
 70
     1
102
RTVSPost2010Prop45
280
     0
102
RTVSPost2010PropOp45
 70
     1
102
RTVSPost2010Prop46
 90
       50
102
RTVSPost2010PropOp46
 70
     1
102
RTVSPost2010Prop47
 90
       50
102
RTVSPost2010PropOp47
 70
     1
102
RTVSPost2010Prop48
 90
       50
102
RTVSPost2010PropOp48
 70
     1
102
RTVSPost2010Prop49
280
     0
102
RTVSPost2010PropOp49
 70
     1
102
RTVSPost2010Prop50
 90
       50
102
RTVSPost2010PropOp50
 70
     1
102
RTVSPost2010Prop51ColorIndex
 90
      256
102
RTVSPost2010Prop51ColorRGB
 90
-16777216
102
RTVSPost2010PropOp51
 70
     0
102
RTVSPost2010Prop52
140
1.0
102
RTVSPost2010PropOp52
 70
     0
102
RTVSPost2010Prop53
 90
        2
102
RTVSPost2010PropOp53
 70
     1
102
RTVSPost2010Prop54
  1
strokes_ogs.tif
102
RTVSPost2010PropOp54
 70
     1
102
RTVSPost2010Prop55
280
     0
102
RTVSPost2010PropOp55
 70
     1
102
RTVSPost2010Prop56
140
1.0
102
RTVSPost2010PropOp56
 70
     1
102
RTVSPost2010Prop57
140
1.0
102
RTVSPost2010PropOp57
 70
     1
102
RTVSPropertyOp0
 70
     1
102
RTVSPropertyOp1
 70
     1
102
RTVSPropertyOp2
 70
     1
102
RTVSPropertyOp3
 70
     1
102
RTVSPropertyOp4
 70
     1
102
RTVSPropertyOp5
 70
     1
102
RTVSPropertyOp6
 70
     1
102
RTVSPropertyOp7
 70
     1
102
RTVSPropertyOp8
 70
     1
102
RTVSPropertyOp9
 70
     1
102
RTVSPropertyOp10
 70
     1
102
RTVSPropertyOp11
 70
     1
102
RTVSPropertyOp12
 70
     1
102
RTVSPropertyOp13
 70
     1
102
RTVSPropertyOp14
 70
     1
102
RTVSPropertyOp15
 70
     1
102
RTVSPropertyOp16
 70
     1
102
RTVSPropertyOp17
 70
     1
102
RTVSPropertyOp18
 70
     1
102
RTVSPropertyOp19
 70
     1
102
RTVSPropertyOp20
 70
     1
102
RTVSPropertyOp21
 70
     1
102
RTVSPropertyOp22
 70
     1
102
RTVSPropertyOp23
 70
     1
102
RTVSPropertyOp24
 70
     1
102
RTVSPropertyOp25
 70
     1
102
RTVSPropertyOp26
 70
     1
102
RTVSPropertyOp27
 70
     1
102
RTVSPropertyOp28
 70
     1
102
RTVSPropertyOp29
 70
     1
102
RTVSPropertyOp30
 70
     1
102
RTVSPropertyOp31
 70
     1
102
RTVSPropertyOp32
 70
     1
102
RTVSPropertyOp33
 70
     1
102
RTVSPropertyOp34
 70
     1
102
RTVSPropertyOp35
 70
     1
102
RTVSPropertyOp36
 70
     1
102
RTVSPropertyOp37
 70
     1
102
RTVSPropertyOp38
 70
     1
102
RTVSPropertyOp39
 70
     1
102
RTVSPropertyOp40
 70
     1
102
RTVSPropertyOp41
 70
     1
102
RTVSPropertyOp42
 70
     1
102
RTVSPropertyOp43
 70
     1
102
RTVSPropertyOp44
 70
     1
102
RTVSPropertyOp45
 70
     1
102
RTVSPropertyOp46
 70
     1
102
RTVSPropertyOp47
 70
     1
102
RTVSPropertyOp48
 70
     1
102
RTVSPropertyOp49
 70
     1
102
RTVSPropertyOp50
 70
     1
102
RTVSPropertyOp51
 70
     0
102
RTVSPropertyOp52
 70
     0
102
RTVSPropertyOp53
 70
     1
102
RTVSPropertyOp54
 70
     1
102
RTVSPropertyOp55
 70
     1
102
RTVSPropertyOp56
 70
     1
102
RTVSPropertyOp57
 70
     1
102
RTVSPropertyOp58
 70
     1
102
RTVSPropertyOp59
 70
     1
102
RTVSPropertyOp60
 70
     1
102
RTVSPropertyOp61
 70
     1
102
RTVSPropertyOp62
 70
     1
  0
XRECORD
  5
82F5
102
{ACAD_REACTORS
330
82F4
102
}
330
82F4
100
AcDbXrecord
280
     1
102
RTVSPost2010Prop28
280
     0
102
RTVSPost2010PropOp28
 70
     1
102
RTVSPost2010Prop29
280
     1
102
RTVSPost2010PropOp29
 70
     1
102
RTVSPost2010Prop30
280
     1
102
RTVSPost2010PropOp30
 70
     1
102
RTVSPost2010Prop31
280
     0
102
RTVSPost2010PropOp31
 70
     1
102
RTVSPost2010Prop32
280
     0
102
RTVSPost2010PropOp32
 70
     1
102
RTVSPost2010Prop33
280
     0
102
RTVSPost2010PropOp33
 70
     1
102
RTVSPost2010Prop34
280
     0
102
RTVSPost2010PropOp34
 70
     1
102
RTVSPost2010Prop35
280
     0
102
RTVSPost2010PropOp35
 70
     1
102
RTVSPost2010Prop36
280
     0
102
RTVSPost2010PropOp36
 70
     1
102
RTVSPost2010Prop37
 90
       50
102
RTVSPost2010PropOp37
 70
     1
102
RTVSPost2010Prop38
140
0.0
102
RTVSPost2010PropOp38
 70
     1
102
RTVSPost2010Prop39
140
1.0
102
RTVSPost2010PropOp39
 70
     1
102
RTVSPost2010Prop40
 90
        0
102
RTVSPost2010PropOp40
 70
     1
102
RTVSPost2010Prop41ColorIndex
 90
       18
102
RTVSPost2010Prop41ColorRGB
 90
        0
102
RTVSPost2010PropOp41
 70
     1
102
RTVSPost2010Prop42
 90
       50
102
RTVSPost2010PropOp42
 70
     1
102
RTVSPost2010Prop43
 90
        3
102
RTVSPost2010PropOp43
 70
     1
102
RTVSPost2010Prop44ColorIndex
 90
        5
102
RTVSPost2010Prop44ColorRGB
 90
      255
102
RTVSPost2010PropOp44
 70
     1
102
RTVSPost2010Prop45
280
     0
102
RTVSPost2010PropOp45
 70
     1
102
RTVSPost2010Prop46
 90
       50
102
RTVSPost2010PropOp46
 70
     1
102
RTVSPost2010Prop47
 90
       50
102
RTVSPost2010PropOp47
 70
     1
102
RTVSPost2010Prop48
 90
       50
102
RTVSPost2010PropOp48
 70
     1
102
RTVSPost2010Prop49
280
     0
102
RTVSPost2010PropOp49
 70
     1
102
RTVSPost2010Prop50
 90
       50
102
RTVSPost2010PropOp50
 70
     1
102
RTVSPost2010Prop51ColorIndex
 90
      256
102
RTVSPost2010Prop51ColorRGB
 90
-16777216
102
RTVSPost2010PropOp51
 70
     0
102
RTVSPost2010Prop52
140
1.0
102
RTVSPost2010PropOp52
 70
     0
102
RTVSPost2010Prop53
 90
        2
102
RTVSPost2010PropOp53
 70
     1
102
RTVSPost2010Prop54
  1
strokes_ogs.tif
102
RTVSPost2010PropOp54
 70
     1
102
RTVSPost2010Prop55
280
     0
102
RTVSPost2010PropOp55
 70
     1
102
RTVSPost2010Prop56
140
1.0
102
RTVSPost2010PropOp56
 70
     1
102
RTVSPost2010Prop57
140
1.0
102
RTVSPost2010PropOp57
 70
     1
102
RTVSPropertyOp0
 70
     1
102
RTVSPropertyOp1
 70
     1
102
RTVSPropertyOp2
 70
     1
102
RTVSPropertyOp3
 70
     1
102
RTVSPropertyOp4
 70
     1
102
RTVSPropertyOp5
 70
     1
102
RTVSPropertyOp6
 70
     1
102
RTVSPropertyOp7
 70
     1
102
RTVSPropertyOp8
 70
     1
102
RTVSPropertyOp9
 70
     1
102
RTVSPropertyOp10
 70
     1
102
RTVSPropertyOp11
 70
     1
102
RTVSPropertyOp12
 70
     1
102
RTVSPropertyOp13
 70
     1
102
RTVSPropertyOp14
 70
     1
102
RTVSPropertyOp15
 70
     1
102
RTVSPropertyOp16
 70
     1
102
RTVSPropertyOp17
 70
     1
102
RTVSPropertyOp18
 70
     1
102
RTVSPropertyOp19
 70
     1
102
RTVSPropertyOp20
 70
     1
102
RTVSPropertyOp21
 70
     1
102
RTVSPropertyOp22
 70
     1
102
RTVSPropertyOp23
 70
     1
102
RTVSPropertyOp24
 70
     1
102
RTVSPropertyOp25
 70
     1
102
RTVSPropertyOp26
 70
     1
102
RTVSPropertyOp27
 70
     1
102
RTVSPropertyOp28
 70
     1
102
RTVSPropertyOp29
 70
     1
102
RTVSPropertyOp30
 70
     1
102
RTVSPropertyOp31
 70
     1
102
RTVSPropertyOp32
 70
     1
102
RTVSPropertyOp33
 70
     1
102
RTVSPropertyOp34
 70
     1
102
RTVSPropertyOp35
 70
     1
102
RTVSPropertyOp36
 70
     1
102
RTVSPropertyOp37
 70
     1
102
RTVSPropertyOp38
 70
     1
102
RTVSPropertyOp39
 70
     1
102
RTVSPropertyOp40
 70
     1
102
RTVSPropertyOp41
 70
     1
102
RTVSPropertyOp42
 70
     1
102
RTVSPropertyOp43
 70
     1
102
RTVSPropertyOp44
 70
     1
102
RTVSPropertyOp45
 70
     1
102
RTVSPropertyOp46
 70
     1
102
RTVSPropertyOp47
 70
     1
102
RTVSPropertyOp48
 70
     1
102
RTVSPropertyOp49
 70
     1
102
RTVSPropertyOp50
 70
     1
102
RTVSPropertyOp51
 70
     0
102
RTVSPropertyOp52
 70
     0
102
RTVSPropertyOp53
 70
     1
102
RTVSPropertyOp54
 70
     1
102
RTVSPropertyOp55
 70
     1
102
RTVSPropertyOp56
 70
     1
102
RTVSPropertyOp57
 70
     1
102
RTVSPropertyOp58
 70
     1
102
RTVSPropertyOp59
 70
     1
102
RTVSPropertyOp60
 70
     1
102
RTVSPropertyOp61
 70
     1
102
RTVSPropertyOp62
 70
     1
  0
XRECORD
  5
8303
102
{ACAD_REACTORS
330
8302
102
}
330
8302
100
AcDbXrecord
280
     1
102
RTVSPost2010Prop28
280
     0
102
RTVSPost2010PropOp28
 70
     1
102
RTVSPost2010Prop29
280
     1
102
RTVSPost2010PropOp29
 70
     1
102
RTVSPost2010Prop30
280
     1
102
RTVSPost2010PropOp30
 70
     1
102
RTVSPost2010Prop31
280
     0
102
RTVSPost2010PropOp31
 70
     1
102
RTVSPost2010Prop32
280
     0
102
RTVSPost2010PropOp32
 70
     1
102
RTVSPost2010Prop33
280
     0
102
RTVSPost2010PropOp33
 70
     1
102
RTVSPost2010Prop34
280
     0
102
RTVSPost2010PropOp34
 70
     1
102
RTVSPost2010Prop35
280
     0
102
RTVSPost2010PropOp35
 70
     1
102
RTVSPost2010Prop36
280
     0
102
RTVSPost2010PropOp36
 70
     1
102
RTVSPost2010Prop37
 90
       50
102
RTVSPost2010PropOp37
 70
     1
102
RTVSPost2010Prop38
140
0.0
102
RTVSPost2010PropOp38
 70
     1
102
RTVSPost2010Prop39
140
1.0
102
RTVSPost2010PropOp39
 70
     1
102
RTVSPost2010Prop40
 90
        0
102
RTVSPost2010PropOp40
 70
     1
102
RTVSPost2010Prop41ColorIndex
 90
       18
102
RTVSPost2010Prop41ColorRGB
 90
        0
102
RTVSPost2010PropOp41
 70
     1
102
RTVSPost2010Prop42
 90
       50
102
RTVSPost2010PropOp42
 70
     1
102
RTVSPost2010Prop43
 90
        3
102
RTVSPost2010PropOp43
 70
     1
102
RTVSPost2010Prop44ColorIndex
 90
        5
102
RTVSPost2010Prop44ColorRGB
 90
      255
102
RTVSPost2010PropOp44
 70
     1
102
RTVSPost2010Prop45
280
     0
102
RTVSPost2010PropOp45
 70
     1
102
RTVSPost2010Prop46
 90
       50
102
RTVSPost2010PropOp46
 70
     1
102
RTVSPost2010Prop47
 90
       50
102
RTVSPost2010PropOp47
 70
     1
102
RTVSPost2010Prop48
 90
       50
102
RTVSPost2010PropOp48
 70
     1
102
RTVSPost2010Prop49
280
     0
102
RTVSPost2010PropOp49
 70
     1
102
RTVSPost2010Prop50
 90
       50
102
RTVSPost2010PropOp50
 70
     1
102
RTVSPost2010Prop51ColorIndex
 90
      256
102
RTVSPost2010Prop51ColorRGB
 90
-16777216
102
RTVSPost2010PropOp51
 70
     0
102
RTVSPost2010Prop52
140
1.0
102
RTVSPost2010PropOp52
 70
     0
102
RTVSPost2010Prop53
 90
        2
102
RTVSPost2010PropOp53
 70
     1
102
RTVSPost2010Prop54
  1
strokes_ogs.tif
102
RTVSPost2010PropOp54
 70
     1
102
RTVSPost2010Prop55
280
     0
102
RTVSPost2010PropOp55
 70
     1
102
RTVSPost2010Prop56
140
1.0
102
RTVSPost2010PropOp56
 70
     1
102
RTVSPost2010Prop57
140
1.0
102
RTVSPost2010PropOp57
 70
     1
102
RTVSPropertyOp0
 70
     1
102
RTVSPropertyOp1
 70
     1
102
RTVSPropertyOp2
 70
     1
102
RTVSPropertyOp3
 70
     1
102
RTVSPropertyOp4
 70
     1
102
RTVSPropertyOp5
 70
     1
102
RTVSPropertyOp6
 70
     1
102
RTVSPropertyOp7
 70
     1
102
RTVSPropertyOp8
 70
     1
102
RTVSPropertyOp9
 70
     1
102
RTVSPropertyOp10
 70
     1
102
RTVSPropertyOp11
 70
     1
102
RTVSPropertyOp12
 70
     1
102
RTVSPropertyOp13
 70
     1
102
RTVSPropertyOp14
 70
     1
102
RTVSPropertyOp15
 70
     1
102
RTVSPropertyOp16
 70
     1
102
RTVSPropertyOp17
 70
     1
102
RTVSPropertyOp18
 70
     1
102
RTVSPropertyOp19
 70
     1
102
RTVSPropertyOp20
 70
     1
102
RTVSPropertyOp21
 70
     1
102
RTVSPropertyOp22
 70
     1
102
RTVSPropertyOp23
 70
     1
102
RTVSPropertyOp24
 70
     1
102
RTVSPropertyOp25
 70
     1
102
RTVSPropertyOp26
 70
     1
102
RTVSPropertyOp27
 70
     1
102
RTVSPropertyOp28
 70
     1
102
RTVSPropertyOp29
 70
     1
102
RTVSPropertyOp30
 70
     1
102
RTVSPropertyOp31
 70
     1
102
RTVSPropertyOp32
 70
     1
102
RTVSPropertyOp33
 70
     1
102
RTVSPropertyOp34
 70
     1
102
RTVSPropertyOp35
 70
     1
102
RTVSPropertyOp36
 70
     1
102
RTVSPropertyOp37
 70
     1
102
RTVSPropertyOp38
 70
     1
102
RTVSPropertyOp39
 70
     1
102
RTVSPropertyOp40
 70
     1
102
RTVSPropertyOp41
 70
     1
102
RTVSPropertyOp42
 70
     1
102
RTVSPropertyOp43
 70
     1
102
RTVSPropertyOp44
 70
     1
102
RTVSPropertyOp45
 70
     1
102
RTVSPropertyOp46
 70
     1
102
RTVSPropertyOp47
 70
     1
102
RTVSPropertyOp48
 70
     1
102
RTVSPropertyOp49
 70
     1
102
RTVSPropertyOp50
 70
     1
102
RTVSPropertyOp51
 70
     0
102
RTVSPropertyOp52
 70
     0
102
RTVSPropertyOp53
 70
     1
102
RTVSPropertyOp54
 70
     1
102
RTVSPropertyOp55
 70
     1
102
RTVSPropertyOp56
 70
     1
102
RTVSPropertyOp57
 70
     1
102
RTVSPropertyOp58
 70
     1
102
RTVSPropertyOp59
 70
     1
102
RTVSPropertyOp60
 70
     1
102
RTVSPropertyOp61
 70
     1
102
RTVSPropertyOp62
 70
     1
  0
XRECORD
  5
830B
102
{ACAD_REACTORS
330
830A
102
}
330
830A
100
AcDbXrecord
280
     1
102
RTVSPost2010Prop28
280
     0
102
RTVSPost2010PropOp28
 70
     1
102
RTVSPost2010Prop29
280
     1
102
RTVSPost2010PropOp29
 70
     1
102
RTVSPost2010Prop30
280
     1
102
RTVSPost2010PropOp30
 70
     1
102
RTVSPost2010Prop31
280
     0
102
RTVSPost2010PropOp31
 70
     1
102
RTVSPost2010Prop32
280
     0
102
RTVSPost2010PropOp32
 70
     1
102
RTVSPost2010Prop33
280
     0
102
RTVSPost2010PropOp33
 70
     1
102
RTVSPost2010Prop34
280
     0
102
RTVSPost2010PropOp34
 70
     1
102
RTVSPost2010Prop35
280
     0
102
RTVSPost2010PropOp35
 70
     1
102
RTVSPost2010Prop36
280
     0
102
RTVSPost2010PropOp36
 70
     1
102
RTVSPost2010Prop37
 90
       50
102
RTVSPost2010PropOp37
 70
     1
102
RTVSPost2010Prop38
140
0.0
102
RTVSPost2010PropOp38
 70
     1
102
RTVSPost2010Prop39
140
1.0
102
RTVSPost2010PropOp39
 70
     1
102
RTVSPost2010Prop40
 90
        0
102
RTVSPost2010PropOp40
 70
     1
102
RTVSPost2010Prop41ColorIndex
 90
       18
102
RTVSPost2010Prop41ColorRGB
 90
        0
102
RTVSPost2010PropOp41
 70
     1
102
RTVSPost2010Prop42
 90
       50
102
RTVSPost2010PropOp42
 70
     1
102
RTVSPost2010Prop43
 90
        3
102
RTVSPost2010PropOp43
 70
     1
102
RTVSPost2010Prop44ColorIndex
 90
        5
102
RTVSPost2010Prop44ColorRGB
 90
      255
102
RTVSPost2010PropOp44
 70
     1
102
RTVSPost2010Prop45
280
     0
102
RTVSPost2010PropOp45
 70
     1
102
RTVSPost2010Prop46
 90
       50
102
RTVSPost2010PropOp46
 70
     1
102
RTVSPost2010Prop47
 90
       50
102
RTVSPost2010PropOp47
 70
     1
102
RTVSPost2010Prop48
 90
       50
102
RTVSPost2010PropOp48
 70
     1
102
RTVSPost2010Prop49
280
     0
102
RTVSPost2010PropOp49
 70
     1
102
RTVSPost2010Prop50
 90
       50
102
RTVSPost2010PropOp50
 70
     1
102
RTVSPost2010Prop51ColorIndex
 90
      256
102
RTVSPost2010Prop51ColorRGB
 90
-16777216
102
RTVSPost2010PropOp51
 70
     0
102
RTVSPost2010Prop52
140
1.0
102
RTVSPost2010PropOp52
 70
     0
102
RTVSPost2010Prop53
 90
        2
102
RTVSPost2010PropOp53
 70
     1
102
RTVSPost2010Prop54
  1
strokes_ogs.tif
102
RTVSPost2010PropOp54
 70
     1
102
RTVSPost2010Prop55
280
     0
102
RTVSPost2010PropOp55
 70
     1
102
RTVSPost2010Prop56
140
1.0
102
RTVSPost2010PropOp56
 70
     1
102
RTVSPost2010Prop57
140
1.0
102
RTVSPost2010PropOp57
 70
     1
102
RTVSPropertyOp0
 70
     1
102
RTVSPropertyOp1
 70
     1
102
RTVSPropertyOp2
 70
     1
102
RTVSPropertyOp3
 70
     1
102
RTVSPropertyOp4
 70
     1
102
RTVSPropertyOp5
 70
     1
102
RTVSPropertyOp6
 70
     1
102
RTVSPropertyOp7
 70
     1
102
RTVSPropertyOp8
 70
     1
102
RTVSPropertyOp9
 70
     1
102
RTVSPropertyOp10
 70
     1
102
RTVSPropertyOp11
 70
     1
102
RTVSPropertyOp12
 70
     1
102
RTVSPropertyOp13
 70
     1
102
RTVSPropertyOp14
 70
     1
102
RTVSPropertyOp15
 70
     1
102
RTVSPropertyOp16
 70
     1
102
RTVSPropertyOp17
 70
     1
102
RTVSPropertyOp18
 70
     1
102
RTVSPropertyOp19
 70
     1
102
RTVSPropertyOp20
 70
     1
102
RTVSPropertyOp21
 70
     1
102
RTVSPropertyOp22
 70
     1
102
RTVSPropertyOp23
 70
     1
102
RTVSPropertyOp24
 70
     1
102
RTVSPropertyOp25
 70
     1
102
RTVSPropertyOp26
 70
     1
102
RTVSPropertyOp27
 70
     1
102
RTVSPropertyOp28
 70
     1
102
RTVSPropertyOp29
 70
     1
102
RTVSPropertyOp30
 70
     1
102
RTVSPropertyOp31
 70
     1
102
RTVSPropertyOp32
 70
     1
102
RTVSPropertyOp33
 70
     1
102
RTVSPropertyOp34
 70
     1
102
RTVSPropertyOp35
 70
     1
102
RTVSPropertyOp36
 70
     1
102
RTVSPropertyOp37
 70
     1
102
RTVSPropertyOp38
 70
     1
102
RTVSPropertyOp39
 70
     1
102
RTVSPropertyOp40
 70
     1
102
RTVSPropertyOp41
 70
     1
102
RTVSPropertyOp42
 70
     1
102
RTVSPropertyOp43
 70
     1
102
RTVSPropertyOp44
 70
     1
102
RTVSPropertyOp45
 70
     1
102
RTVSPropertyOp46
 70
     1
102
RTVSPropertyOp47
 70
     1
102
RTVSPropertyOp48
 70
     1
102
RTVSPropertyOp49
 70
     1
102
RTVSPropertyOp50
 70
     1
102
RTVSPropertyOp51
 70
     0
102
RTVSPropertyOp52
 70
     0
102
RTVSPropertyOp53
 70
     1
102
RTVSPropertyOp54
 70
     1
102
RTVSPropertyOp55
 70
     1
102
RTVSPropertyOp56
 70
     1
102
RTVSPropertyOp57
 70
     1
102
RTVSPropertyOp58
 70
     1
102
RTVSPropertyOp59
 70
     1
102
RTVSPropertyOp60
 70
     1
102
RTVSPropertyOp61
 70
     1
102
RTVSPropertyOp62
 70
     1
  0
XRECORD
  5
82FD
102
{ACAD_REACTORS
330
82FC
102
}
330
82FC
100
AcDbXrecord
280
     1
102
RTVSPost2010Prop28
280
     0
102
RTVSPost2010PropOp28
 70
     1
102
RTVSPost2010Prop29
280
     1
102
RTVSPost2010PropOp29
 70
     1
102
RTVSPost2010Prop30
280
     1
102
RTVSPost2010PropOp30
 70
     1
102
RTVSPost2010Prop31
280
     0
102
RTVSPost2010PropOp31
 70
     1
102
RTVSPost2010Prop32
280
     0
102
RTVSPost2010PropOp32
 70
     1
102
RTVSPost2010Prop33
280
     0
102
RTVSPost2010PropOp33
 70
     1
102
RTVSPost2010Prop34
280
     0
102
RTVSPost2010PropOp34
 70
     1
102
RTVSPost2010Prop35
280
     0
102
RTVSPost2010PropOp35
 70
     1
102
RTVSPost2010Prop36
280
     0
102
RTVSPost2010PropOp36
 70
     1
102
RTVSPost2010Prop37
 90
       50
102
RTVSPost2010PropOp37
 70
     1
102
RTVSPost2010Prop38
140
0.0
102
RTVSPost2010PropOp38
 70
     1
102
RTVSPost2010Prop39
140
1.0
102
RTVSPost2010PropOp39
 70
     1
102
RTVSPost2010Prop40
 90
        0
102
RTVSPost2010PropOp40
 70
     1
102
RTVSPost2010Prop41ColorIndex
 90
       18
102
RTVSPost2010Prop41ColorRGB
 90
        0
102
RTVSPost2010PropOp41
 70
     1
102
RTVSPost2010Prop42
 90
       50
102
RTVSPost2010PropOp42
 70
     1
102
RTVSPost2010Prop43
 90
        3
102
RTVSPost2010PropOp43
 70
     1
102
RTVSPost2010Prop44ColorIndex
 90
        5
102
RTVSPost2010Prop44ColorRGB
 90
      255
102
RTVSPost2010PropOp44
 70
     1
102
RTVSPost2010Prop45
280
     0
102
RTVSPost2010PropOp45
 70
     1
102
RTVSPost2010Prop46
 90
       50
102
RTVSPost2010PropOp46
 70
     1
102
RTVSPost2010Prop47
 90
       50
102
RTVSPost2010PropOp47
 70
     1
102
RTVSPost2010Prop48
 90
       50
102
RTVSPost2010PropOp48
 70
     1
102
RTVSPost2010Prop49
280
     0
102
RTVSPost2010PropOp49
 70
     1
102
RTVSPost2010Prop50
 90
       50
102
RTVSPost2010PropOp50
 70
     1
102
RTVSPost2010Prop51ColorIndex
 90
      256
102
RTVSPost2010Prop51ColorRGB
 90
-16777216
102
RTVSPost2010PropOp51
 70
     0
102
RTVSPost2010Prop52
140
1.0
102
RTVSPost2010PropOp52
 70
     0
102
RTVSPost2010Prop53
 90
        2
102
RTVSPost2010PropOp53
 70
     1
102
RTVSPost2010Prop54
  1
strokes_ogs.tif
102
RTVSPost2010PropOp54
 70
     1
102
RTVSPost2010Prop55
280
     0
102
RTVSPost2010PropOp55
 70
     1
102
RTVSPost2010Prop56
140
1.0
102
RTVSPost2010PropOp56
 70
     1
102
RTVSPost2010Prop57
140
1.0
102
RTVSPost2010PropOp57
 70
     1
102
RTVSPropertyOp0
 70
     1
102
RTVSPropertyOp1
 70
     1
102
RTVSPropertyOp2
 70
     1
102
RTVSPropertyOp3
 70
     1
102
RTVSPropertyOp4
 70
     1
102
RTVSPropertyOp5
 70
     1
102
RTVSPropertyOp6
 70
     1
102
RTVSPropertyOp7
 70
     1
102
RTVSPropertyOp8
 70
     1
102
RTVSPropertyOp9
 70
     1
102
RTVSPropertyOp10
 70
     1
102
RTVSPropertyOp11
 70
     1
102
RTVSPropertyOp12
 70
     1
102
RTVSPropertyOp13
 70
     1
102
RTVSPropertyOp14
 70
     1
102
RTVSPropertyOp15
 70
     1
102
RTVSPropertyOp16
 70
     1
102
RTVSPropertyOp17
 70
     1
102
RTVSPropertyOp18
 70
     1
102
RTVSPropertyOp19
 70
     1
102
RTVSPropertyOp20
 70
     1
102
RTVSPropertyOp21
 70
     1
102
RTVSPropertyOp22
 70
     1
102
RTVSPropertyOp23
 70
     1
102
RTVSPropertyOp24
 70
     1
102
RTVSPropertyOp25
 70
     1
102
RTVSPropertyOp26
 70
     1
102
RTVSPropertyOp27
 70
     1
102
RTVSPropertyOp28
 70
     1
102
RTVSPropertyOp29
 70
     1
102
RTVSPropertyOp30
 70
     1
102
RTVSPropertyOp31
 70
     1
102
RTVSPropertyOp32
 70
     1
102
RTVSPropertyOp33
 70
     1
102
RTVSPropertyOp34
 70
     1
102
RTVSPropertyOp35
 70
     1
102
RTVSPropertyOp36
 70
     1
102
RTVSPropertyOp37
 70
     1
102
RTVSPropertyOp38
 70
     1
102
RTVSPropertyOp39
 70
     1
102
RTVSPropertyOp40
 70
     1
102
RTVSPropertyOp41
 70
     1
102
RTVSPropertyOp42
 70
     1
102
RTVSPropertyOp43
 70
     1
102
RTVSPropertyOp44
 70
     1
102
RTVSPropertyOp45
 70
     1
102
RTVSPropertyOp46
 70
     1
102
RTVSPropertyOp47
 70
     1
102
RTVSPropertyOp48
 70
     1
102
RTVSPropertyOp49
 70
     1
102
RTVSPropertyOp50
 70
     1
102
RTVSPropertyOp51
 70
     0
102
RTVSPropertyOp52
 70
     0
102
RTVSPropertyOp53
 70
     1
102
RTVSPropertyOp54
 70
     1
102
RTVSPropertyOp55
 70
     1
102
RTVSPropertyOp56
 70
     1
102
RTVSPropertyOp57
 70
     1
102
RTVSPropertyOp58
 70
     1
102
RTVSPropertyOp59
 70
     1
102
RTVSPropertyOp60
 70
     1
102
RTVSPropertyOp61
 70
     1
102
RTVSPropertyOp62
 70
     1
  0
XRECORD
  5
8301
102
{ACAD_REACTORS
330
8300
102
}
330
8300
100
AcDbXrecord
280
     1
102
RTVSPost2010Prop28
280
     0
102
RTVSPost2010PropOp28
 70
     1
102
RTVSPost2010Prop29
280
     1
102
RTVSPost2010PropOp29
 70
     1
102
RTVSPost2010Prop30
280
     1
102
RTVSPost2010PropOp30
 70
     1
102
RTVSPost2010Prop31
280
     0
102
RTVSPost2010PropOp31
 70
     1
102
RTVSPost2010Prop32
280
     0
102
RTVSPost2010PropOp32
 70
     1
102
RTVSPost2010Prop33
280
     0
102
RTVSPost2010PropOp33
 70
     1
102
RTVSPost2010Prop34
280
     0
102
RTVSPost2010PropOp34
 70
     1
102
RTVSPost2010Prop35
280
     0
102
RTVSPost2010PropOp35
 70
     1
102
RTVSPost2010Prop36
280
     0
102
RTVSPost2010PropOp36
 70
     1
102
RTVSPost2010Prop37
 90
       50
102
RTVSPost2010PropOp37
 70
     1
102
RTVSPost2010Prop38
140
0.0
102
RTVSPost2010PropOp38
 70
     1
102
RTVSPost2010Prop39
140
1.0
102
RTVSPost2010PropOp39
 70
     1
102
RTVSPost2010Prop40
 90
        0
102
RTVSPost2010PropOp40
 70
     1
102
RTVSPost2010Prop41ColorIndex
 90
       18
102
RTVSPost2010Prop41ColorRGB
 90
        0
102
RTVSPost2010PropOp41
 70
     1
102
RTVSPost2010Prop42
 90
       50
102
RTVSPost2010PropOp42
 70
     1
102
RTVSPost2010Prop43
 90
        3
102
RTVSPost2010PropOp43
 70
     1
102
RTVSPost2010Prop44ColorIndex
 90
        5
102
RTVSPost2010Prop44ColorRGB
 90
      255
102
RTVSPost2010PropOp44
 70
     1
102
RTVSPost2010Prop45
280
     0
102
RTVSPost2010PropOp45
 70
     1
102
RTVSPost2010Prop46
 90
       50
102
RTVSPost2010PropOp46
 70
     1
102
RTVSPost2010Prop47
 90
       50
102
RTVSPost2010PropOp47
 70
     1
102
RTVSPost2010Prop48
 90
       50
102
RTVSPost2010PropOp48
 70
     1
102
RTVSPost2010Prop49
280
     0
102
RTVSPost2010PropOp49
 70
     1
102
RTVSPost2010Prop50
 90
       50
102
RTVSPost2010PropOp50
 70
     1
102
RTVSPost2010Prop51ColorIndex
 90
      256
102
RTVSPost2010Prop51ColorRGB
 90
-16777216
102
RTVSPost2010PropOp51
 70
     0
102
RTVSPost2010Prop52
140
1.0
102
RTVSPost2010PropOp52
 70
     0
102
RTVSPost2010Prop53
 90
        2
102
RTVSPost2010PropOp53
 70
     1
102
RTVSPost2010Prop54
  1
strokes_ogs.tif
102
RTVSPost2010PropOp54
 70
     1
102
RTVSPost2010Prop55
280
     0
102
RTVSPost2010PropOp55
 70
     1
102
RTVSPost2010Prop56
140
1.0
102
RTVSPost2010PropOp56
 70
     1
102
RTVSPost2010Prop57
140
1.0
102
RTVSPost2010PropOp57
 70
     1
102
RTVSPropertyOp0
 70
     1
102
RTVSPropertyOp1
 70
     1
102
RTVSPropertyOp2
 70
     1
102
RTVSPropertyOp3
 70
     1
102
RTVSPropertyOp4
 70
     1
102
RTVSPropertyOp5
 70
     1
102
RTVSPropertyOp6
 70
     1
102
RTVSPropertyOp7
 70
     1
102
RTVSPropertyOp8
 70
     1
102
RTVSPropertyOp9
 70
     1
102
RTVSPropertyOp10
 70
     1
102
RTVSPropertyOp11
 70
     1
102
RTVSPropertyOp12
 70
     1
102
RTVSPropertyOp13
 70
     1
102
RTVSPropertyOp14
 70
     1
102
RTVSPropertyOp15
 70
     1
102
RTVSPropertyOp16
 70
     1
102
RTVSPropertyOp17
 70
     1
102
RTVSPropertyOp18
 70
     1
102
RTVSPropertyOp19
 70
     1
102
RTVSPropertyOp20
 70
     1
102
RTVSPropertyOp21
 70
     1
102
RTVSPropertyOp22
 70
     1
102
RTVSPropertyOp23
 70
     1
102
RTVSPropertyOp24
 70
     1
102
RTVSPropertyOp25
 70
     1
102
RTVSPropertyOp26
 70
     1
102
RTVSPropertyOp27
 70
     1
102
RTVSPropertyOp28
 70
     1
102
RTVSPropertyOp29
 70
     1
102
RTVSPropertyOp30
 70
     1
102
RTVSPropertyOp31
 70
     1
102
RTVSPropertyOp32
 70
     1
102
RTVSPropertyOp33
 70
     1
102
RTVSPropertyOp34
 70
     1
102
RTVSPropertyOp35
 70
     1
102
RTVSPropertyOp36
 70
     1
102
RTVSPropertyOp37
 70
     1
102
RTVSPropertyOp38
 70
     1
102
RTVSPropertyOp39
 70
     1
102
RTVSPropertyOp40
 70
     1
102
RTVSPropertyOp41
 70
     1
102
RTVSPropertyOp42
 70
     1
102
RTVSPropertyOp43
 70
     1
102
RTVSPropertyOp44
 70
     1
102
RTVSPropertyOp45
 70
     1
102
RTVSPropertyOp46
 70
     1
102
RTVSPropertyOp47
 70
     1
102
RTVSPropertyOp48
 70
     1
102
RTVSPropertyOp49
 70
     1
102
RTVSPropertyOp50
 70
     1
102
RTVSPropertyOp51
 70
     0
102
RTVSPropertyOp52
 70
     0
102
RTVSPropertyOp53
 70
     1
102
RTVSPropertyOp54
 70
     1
102
RTVSPropertyOp55
 70
     1
102
RTVSPropertyOp56
 70
     1
102
RTVSPropertyOp57
 70
     1
102
RTVSPropertyOp58
 70
     1
102
RTVSPropertyOp59
 70
     1
102
RTVSPropertyOp60
 70
     1
102
RTVSPropertyOp61
 70
     1
102
RTVSPropertyOp62
 70
     1
  0
XRECORD
  5
831B
102
{ACAD_REACTORS
330
831A
102
}
330
831A
100
AcDbXrecord
280
     1
102
RTVSPost2010Prop28
280
     0
102
RTVSPost2010PropOp28
 70
     1
102
RTVSPost2010Prop29
280
     1
102
RTVSPost2010PropOp29
 70
     1
102
RTVSPost2010Prop30
280
     1
102
RTVSPost2010PropOp30
 70
     1
102
RTVSPost2010Prop31
280
     0
102
RTVSPost2010PropOp31
 70
     1
102
RTVSPost2010Prop32
280
     0
102
RTVSPost2010PropOp32
 70
     1
102
RTVSPost2010Prop33
280
     0
102
RTVSPost2010PropOp33
 70
     1
102
RTVSPost2010Prop34
280
     0
102
RTVSPost2010PropOp34
 70
     1
102
RTVSPost2010Prop35
280
     0
102
RTVSPost2010PropOp35
 70
     1
102
RTVSPost2010Prop36
280
     0
102
RTVSPost2010PropOp36
 70
     1
102
RTVSPost2010Prop37
 90
       50
102
RTVSPost2010PropOp37
 70
     0
102
RTVSPost2010Prop38
140
0.0
102
RTVSPost2010PropOp38
 70
     0
102
RTVSPost2010Prop39
140
1.0
102
RTVSPost2010PropOp39
 70
     0
102
RTVSPost2010Prop40
 90
        0
102
RTVSPost2010PropOp40
 70
     0
102
RTVSPost2010Prop41ColorIndex
 90
       18
102
RTVSPost2010Prop41ColorRGB
 90
        0
102
RTVSPost2010PropOp41
 70
     0
102
RTVSPost2010Prop42
 90
       50
102
RTVSPost2010PropOp42
 70
     0
102
RTVSPost2010Prop43
 90
        3
102
RTVSPost2010PropOp43
 70
     0
102
RTVSPost2010Prop44ColorIndex
 90
        5
102
RTVSPost2010Prop44ColorRGB
 90
      255
102
RTVSPost2010PropOp44
 70
     0
102
RTVSPost2010Prop45
280
     0
102
RTVSPost2010PropOp45
 70
     1
102
RTVSPost2010Prop46
 90
       50
102
RTVSPost2010PropOp46
 70
     0
102
RTVSPost2010Prop47
 90
       50
102
RTVSPost2010PropOp47
 70
     0
102
RTVSPost2010Prop48
 90
       50
102
RTVSPost2010PropOp48
 70
     0
102
RTVSPost2010Prop49
280
     0
102
RTVSPost2010PropOp49
 70
     1
102
RTVSPost2010Prop50
 90
       50
102
RTVSPost2010PropOp50
 70
     0
102
RTVSPost2010Prop51ColorIndex
 90
      256
102
RTVSPost2010Prop51ColorRGB
 90
-16777216
102
RTVSPost2010PropOp51
 70
     0
102
RTVSPost2010Prop52
140
1.0
102
RTVSPost2010PropOp52
 70
     0
102
RTVSPost2010Prop53
 90
        2
102
RTVSPost2010PropOp53
 70
     0
102
RTVSPost2010Prop54
  1
strokes_ogs.tif
102
RTVSPost2010PropOp54
 70
     0
102
RTVSPost2010Prop55
280
     0
102
RTVSPost2010PropOp55
 70
     1
102
RTVSPost2010Prop56
140
1.0
102
RTVSPost2010PropOp56
 70
     0
102
RTVSPost2010Prop57
140
1.0
102
RTVSPost2010PropOp57
 70
     0
102
RTVSPropertyOp0
 70
     0
102
RTVSPropertyOp1
 70
     0
102
RTVSPropertyOp2
 70
     0
102
RTVSPropertyOp3
 70
     0
102
RTVSPropertyOp4
 70
     0
102
RTVSPropertyOp5
 70
     0
102
RTVSPropertyOp6
 70
     0
102
RTVSPropertyOp7
 70
     0
102
RTVSPropertyOp8
 70
     0
102
RTVSPropertyOp9
 70
     0
102
RTVSPropertyOp10
 70
     0
102
RTVSPropertyOp11
 70
     0
102
RTVSPropertyOp12
 70
     0
102
RTVSPropertyOp13
 70
     0
102
RTVSPropertyOp14
 70
     2
102
RTVSPropertyOp15
 70
     0
102
RTVSPropertyOp16
 70
     0
102
RTVSPropertyOp17
 70
     0
102
RTVSPropertyOp18
 70
     0
102
RTVSPropertyOp19
 70
     0
102
RTVSPropertyOp20
 70
     0
102
RTVSPropertyOp21
 70
     0
102
RTVSPropertyOp22
 70
     0
102
RTVSPropertyOp23
 70
     0
102
RTVSPropertyOp24
 70
     0
102
RTVSPropertyOp25
 70
     0
102
RTVSPropertyOp26
 70
     0
102
RTVSPropertyOp27
 70
     0
102
RTVSPropertyOp28
 70
     1
102
RTVSPropertyOp29
 70
     1
102
RTVSPropertyOp30
 70
     1
102
RTVSPropertyOp31
 70
     1
102
RTVSPropertyOp32
 70
     1
102
RTVSPropertyOp33
 70
     1
102
RTVSPropertyOp34
 70
     1
102
RTVSPropertyOp35
 70
     1
102
RTVSPropertyOp36
 70
     1
102
RTVSPropertyOp37
 70
     0
102
RTVSPropertyOp38
 70
     0
102
RTVSPropertyOp39
 70
     0
102
RTVSPropertyOp40
 70
     0
102
RTVSPropertyOp41
 70
     0
102
RTVSPropertyOp42
 70
     0
102
RTVSPropertyOp43
 70
     0
102
RTVSPropertyOp44
 70
     0
102
RTVSPropertyOp45
 70
     1
102
RTVSPropertyOp46
 70
     0
102
RTVSPropertyOp47
 70
     0
102
RTVSPropertyOp48
 70
     0
102
RTVSPropertyOp49
 70
     1
102
RTVSPropertyOp50
 70
     0
102
RTVSPropertyOp51
 70
     0
102
RTVSPropertyOp52
 70
     0
102
RTVSPropertyOp53
 70
     0
102
RTVSPropertyOp54
 70
     0
102
RTVSPropertyOp55
 70
     1
102
RTVSPropertyOp56
 70
     0
102
RTVSPropertyOp57
 70
     0
102
RTVSPropertyOp58
 70
     0
102
RTVSPropertyOp59
 70
     0
102
RTVSPropertyOp60
 70
     0
102
RTVSPropertyOp61
 70
     0
102
RTVSPropertyOp62
 70
     0
  0
XRECORD
  5
8309
102
{ACAD_REACTORS
330
8308
102
}
330
8308
100
AcDbXrecord
280
     1
102
RTVSPost2010Prop28
280
     0
102
RTVSPost2010PropOp28
 70
     1
102
RTVSPost2010Prop29
280
     1
102
RTVSPost2010PropOp29
 70
     1
102
RTVSPost2010Prop30
280
     1
102
RTVSPost2010PropOp30
 70
     1
102
RTVSPost2010Prop31
280
     0
102
RTVSPost2010PropOp31
 70
     1
102
RTVSPost2010Prop32
280
     0
102
RTVSPost2010PropOp32
 70
     1
102
RTVSPost2010Prop33
280
     0
102
RTVSPost2010PropOp33
 70
     1
102
RTVSPost2010Prop34
280
     0
102
RTVSPost2010PropOp34
 70
     1
102
RTVSPost2010Prop35
280
     0
102
RTVSPost2010PropOp35
 70
     1
102
RTVSPost2010Prop36
280
     0
102
RTVSPost2010PropOp36
 70
     1
102
RTVSPost2010Prop37
 90
       50
102
RTVSPost2010PropOp37
 70
     1
102
RTVSPost2010Prop38
140
0.0
102
RTVSPost2010PropOp38
 70
     1
102
RTVSPost2010Prop39
140
1.0
102
RTVSPost2010PropOp39
 70
     1
102
RTVSPost2010Prop40
 90
        0
102
RTVSPost2010PropOp40
 70
     1
102
RTVSPost2010Prop41ColorIndex
 90
       18
102
RTVSPost2010Prop41ColorRGB
 90
        0
102
RTVSPost2010PropOp41
 70
     1
102
RTVSPost2010Prop42
 90
       50
102
RTVSPost2010PropOp42
 70
     1
102
RTVSPost2010Prop43
 90
        3
102
RTVSPost2010PropOp43
 70
     1
102
RTVSPost2010Prop44ColorIndex
 90
        5
102
RTVSPost2010Prop44ColorRGB
 90
      255
102
RTVSPost2010PropOp44
 70
     1
102
RTVSPost2010Prop45
280
     0
102
RTVSPost2010PropOp45
 70
     1
102
RTVSPost2010Prop46
 90
       50
102
RTVSPost2010PropOp46
 70
     1
102
RTVSPost2010Prop47
 90
       50
102
RTVSPost2010PropOp47
 70
     1
102
RTVSPost2010Prop48
 90
       50
102
RTVSPost2010PropOp48
 70
     1
102
RTVSPost2010Prop49
280
     0
102
RTVSPost2010PropOp49
 70
     1
102
RTVSPost2010Prop50
 90
       50
102
RTVSPost2010PropOp50
 70
     1
102
RTVSPost2010Prop51ColorIndex
 90
      256
102
RTVSPost2010Prop51ColorRGB
 90
-16777216
102
RTVSPost2010PropOp51
 70
     0
102
RTVSPost2010Prop52
140
1.0
102
RTVSPost2010PropOp52
 70
     0
102
RTVSPost2010Prop53
 90
        2
102
RTVSPost2010PropOp53
 70
     1
102
RTVSPost2010Prop54
  1
strokes_ogs.tif
102
RTVSPost2010PropOp54
 70
     1
102
RTVSPost2010Prop55
280
     0
102
RTVSPost2010PropOp55
 70
     1
102
RTVSPost2010Prop56
140
1.0
102
RTVSPost2010PropOp56
 70
     1
102
RTVSPost2010Prop57
140
1.0
102
RTVSPost2010PropOp57
 70
     1
102
RTVSPropertyOp0
 70
     1
102
RTVSPropertyOp1
 70
     1
102
RTVSPropertyOp2
 70
     1
102
RTVSPropertyOp3
 70
     1
102
RTVSPropertyOp4
 70
     1
102
RTVSPropertyOp5
 70
     1
102
RTVSPropertyOp6
 70
     1
102
RTVSPropertyOp7
 70
     1
102
RTVSPropertyOp8
 70
     1
102
RTVSPropertyOp9
 70
     1
102
RTVSPropertyOp10
 70
     1
102
RTVSPropertyOp11
 70
     1
102
RTVSPropertyOp12
 70
     1
102
RTVSPropertyOp13
 70
     1
102
RTVSPropertyOp14
 70
     1
102
RTVSPropertyOp15
 70
     1
102
RTVSPropertyOp16
 70
     1
102
RTVSPropertyOp17
 70
     1
102
RTVSPropertyOp18
 70
     1
102
RTVSPropertyOp19
 70
     1
102
RTVSPropertyOp20
 70
     1
102
RTVSPropertyOp21
 70
     1
102
RTVSPropertyOp22
 70
     1
102
RTVSPropertyOp23
 70
     1
102
RTVSPropertyOp24
 70
     1
102
RTVSPropertyOp25
 70
     1
102
RTVSPropertyOp26
 70
     1
102
RTVSPropertyOp27
 70
     1
102
RTVSPropertyOp28
 70
     1
102
RTVSPropertyOp29
 70
     1
102
RTVSPropertyOp30
 70
     1
102
RTVSPropertyOp31
 70
     1
102
RTVSPropertyOp32
 70
     1
102
RTVSPropertyOp33
 70
     1
102
RTVSPropertyOp34
 70
     1
102
RTVSPropertyOp35
 70
     1
102
RTVSPropertyOp36
 70
     1
102
RTVSPropertyOp37
 70
     1
102
RTVSPropertyOp38
 70
     1
102
RTVSPropertyOp39
 70
     1
102
RTVSPropertyOp40
 70
     1
102
RTVSPropertyOp41
 70
     1
102
RTVSPropertyOp42
 70
     1
102
RTVSPropertyOp43
 70
     1
102
RTVSPropertyOp44
 70
     1
102
RTVSPropertyOp45
 70
     1
102
RTVSPropertyOp46
 70
     1
102
RTVSPropertyOp47
 70
     1
102
RTVSPropertyOp48
 70
     1
102
RTVSPropertyOp49
 70
     1
102
RTVSPropertyOp50
 70
     1
102
RTVSPropertyOp51
 70
     0
102
RTVSPropertyOp52
 70
     0
102
RTVSPropertyOp53
 70
     1
102
RTVSPropertyOp54
 70
     1
102
RTVSPropertyOp55
 70
     1
102
RTVSPropertyOp56
 70
     1
102
RTVSPropertyOp57
 70
     1
102
RTVSPropertyOp58
 70
     1
102
RTVSPropertyOp59
 70
     1
102
RTVSPropertyOp60
 70
     1
102
RTVSPropertyOp61
 70
     1
102
RTVSPropertyOp62
 70
     1
  0
XRECORD
  5
82ED
102
{ACAD_REACTORS
330
82EC
102
}
330
82EC
100
AcDbXrecord
280
     1
102
RTVSPost2010Prop28
280
     0
102
RTVSPost2010PropOp28
 70
     1
102
RTVSPost2010Prop29
280
     1
102
RTVSPost2010PropOp29
 70
     1
102
RTVSPost2010Prop30
280
     1
102
RTVSPost2010PropOp30
 70
     1
102
RTVSPost2010Prop31
280
     0
102
RTVSPost2010PropOp31
 70
     1
102
RTVSPost2010Prop32
280
     0
102
RTVSPost2010PropOp32
 70
     1
102
RTVSPost2010Prop33
280
     0
102
RTVSPost2010PropOp33
 70
     1
102
RTVSPost2010Prop34
280
     0
102
RTVSPost2010PropOp34
 70
     1
102
RTVSPost2010Prop35
280
     0
102
RTVSPost2010PropOp35
 70
     1
102
RTVSPost2010Prop36
280
     0
102
RTVSPost2010PropOp36
 70
     1
102
RTVSPost2010Prop37
 90
       50
102
RTVSPost2010PropOp37
 70
     1
102
RTVSPost2010Prop38
140
0.0
102
RTVSPost2010PropOp38
 70
     1
102
RTVSPost2010Prop39
140
1.0
102
RTVSPost2010PropOp39
 70
     1
102
RTVSPost2010Prop40
 90
        0
102
RTVSPost2010PropOp40
 70
     1
102
RTVSPost2010Prop41ColorIndex
 90
       18
102
RTVSPost2010Prop41ColorRGB
 90
        0
102
RTVSPost2010PropOp41
 70
     1
102
RTVSPost2010Prop42
 90
       50
102
RTVSPost2010PropOp42
 70
     1
102
RTVSPost2010Prop43
 90
        3
102
RTVSPost2010PropOp43
 70
     1
102
RTVSPost2010Prop44ColorIndex
 90
        5
102
RTVSPost2010Prop44ColorRGB
 90
      255
102
RTVSPost2010PropOp44
 70
     1
102
RTVSPost2010Prop45
280
     0
102
RTVSPost2010PropOp45
 70
     1
102
RTVSPost2010Prop46
 90
       50
102
RTVSPost2010PropOp46
 70
     1
102
RTVSPost2010Prop47
 90
       50
102
RTVSPost2010PropOp47
 70
     1
102
RTVSPost2010Prop48
 90
       50
102
RTVSPost2010PropOp48
 70
     1
102
RTVSPost2010Prop49
280
     0
102
RTVSPost2010PropOp49
 70
     1
102
RTVSPost2010Prop50
 90
       50
102
RTVSPost2010PropOp50
 70
     1
102
RTVSPost2010Prop51ColorIndex
 90
      256
102
RTVSPost2010Prop51ColorRGB
 90
-16777216
102
RTVSPost2010PropOp51
 70
     0
102
RTVSPost2010Prop52
140
1.0
102
RTVSPost2010PropOp52
 70
     0
102
RTVSPost2010Prop53
 90
        2
102
RTVSPost2010PropOp53
 70
     1
102
RTVSPost2010Prop54
  1
strokes_ogs.tif
102
RTVSPost2010PropOp54
 70
     1
102
RTVSPost2010Prop55
280
     0
102
RTVSPost2010PropOp55
 70
     1
102
RTVSPost2010Prop56
140
1.0
102
RTVSPost2010PropOp56
 70
     1
102
RTVSPost2010Prop57
140
1.0
102
RTVSPost2010PropOp57
 70
     1
102
RTVSPropertyOp0
 70
     1
102
RTVSPropertyOp1
 70
     1
102
RTVSPropertyOp2
 70
     1
102
RTVSPropertyOp3
 70
     1
102
RTVSPropertyOp4
 70
     1
102
RTVSPropertyOp5
 70
     1
102
RTVSPropertyOp6
 70
     1
102
RTVSPropertyOp7
 70
     1
102
RTVSPropertyOp8
 70
     1
102
RTVSPropertyOp9
 70
     1
102
RTVSPropertyOp10
 70
     1
102
RTVSPropertyOp11
 70
     1
102
RTVSPropertyOp12
 70
     1
102
RTVSPropertyOp13
 70
     1
102
RTVSPropertyOp14
 70
     1
102
RTVSPropertyOp15
 70
     1
102
RTVSPropertyOp16
 70
     1
102
RTVSPropertyOp17
 70
     1
102
RTVSPropertyOp18
 70
     1
102
RTVSPropertyOp19
 70
     1
102
RTVSPropertyOp20
 70
     1
102
RTVSPropertyOp21
 70
     1
102
RTVSPropertyOp22
 70
     1
102
RTVSPropertyOp23
 70
     1
102
RTVSPropertyOp24
 70
     1
102
RTVSPropertyOp25
 70
     1
102
RTVSPropertyOp26
 70
     1
102
RTVSPropertyOp27
 70
     1
102
RTVSPropertyOp28
 70
     1
102
RTVSPropertyOp29
 70
     1
102
RTVSPropertyOp30
 70
     1
102
RTVSPropertyOp31
 70
     1
102
RTVSPropertyOp32
 70
     1
102
RTVSPropertyOp33
 70
     1
102
RTVSPropertyOp34
 70
     1
102
RTVSPropertyOp35
 70
     1
102
RTVSPropertyOp36
 70
     1
102
RTVSPropertyOp37
 70
     1
102
RTVSPropertyOp38
 70
     1
102
RTVSPropertyOp39
 70
     1
102
RTVSPropertyOp40
 70
     1
102
RTVSPropertyOp41
 70
     1
102
RTVSPropertyOp42
 70
     1
102
RTVSPropertyOp43
 70
     1
102
RTVSPropertyOp44
 70
     1
102
RTVSPropertyOp45
 70
     1
102
RTVSPropertyOp46
 70
     1
102
RTVSPropertyOp47
 70
     1
102
RTVSPropertyOp48
 70
     1
102
RTVSPropertyOp49
 70
     1
102
RTVSPropertyOp50
 70
     1
102
RTVSPropertyOp51
 70
     0
102
RTVSPropertyOp52
 70
     0
102
RTVSPropertyOp53
 70
     1
102
RTVSPropertyOp54
 70
     1
102
RTVSPropertyOp55
 70
     1
102
RTVSPropertyOp56
 70
     1
102
RTVSPropertyOp57
 70
     1
102
RTVSPropertyOp58
 70
     1
102
RTVSPropertyOp59
 70
     1
102
RTVSPropertyOp60
 70
     1
102
RTVSPropertyOp61
 70
     1
102
RTVSPropertyOp62
 70
     1
  0
XRECORD
  5
82EF
102
{ACAD_REACTORS
330
82EE
102
}
330
82EE
100
AcDbXrecord
280
     1
102
RTVSPost2010Prop28
280
     0
102
RTVSPost2010PropOp28
 70
     1
102
RTVSPost2010Prop29
280
     1
102
RTVSPost2010PropOp29
 70
     1
102
RTVSPost2010Prop30
280
     1
102
RTVSPost2010PropOp30
 70
     1
102
RTVSPost2010Prop31
280
     0
102
RTVSPost2010PropOp31
 70
     1
102
RTVSPost2010Prop32
280
     0
102
RTVSPost2010PropOp32
 70
     1
102
RTVSPost2010Prop33
280
     0
102
RTVSPost2010PropOp33
 70
     1
102
RTVSPost2010Prop34
280
     0
102
RTVSPost2010PropOp34
 70
     1
102
RTVSPost2010Prop35
280
     0
102
RTVSPost2010PropOp35
 70
     1
102
RTVSPost2010Prop36
280
     0
102
RTVSPost2010PropOp36
 70
     1
102
RTVSPost2010Prop37
 90
       50
102
RTVSPost2010PropOp37
 70
     1
102
RTVSPost2010Prop38
140
0.0
102
RTVSPost2010PropOp38
 70
     1
102
RTVSPost2010Prop39
140
1.0
102
RTVSPost2010PropOp39
 70
     1
102
RTVSPost2010Prop40
 90
        0
102
RTVSPost2010PropOp40
 70
     1
102
RTVSPost2010Prop41ColorIndex
 90
       18
102
RTVSPost2010Prop41ColorRGB
 90
        0
102
RTVSPost2010PropOp41
 70
     1
102
RTVSPost2010Prop42
 90
       50
102
RTVSPost2010PropOp42
 70
     1
102
RTVSPost2010Prop43
 90
        3
102
RTVSPost2010PropOp43
 70
     1
102
RTVSPost2010Prop44ColorIndex
 90
        5
102
RTVSPost2010Prop44ColorRGB
 90
      255
102
RTVSPost2010PropOp44
 70
     1
102
RTVSPost2010Prop45
280
     0
102
RTVSPost2010PropOp45
 70
     1
102
RTVSPost2010Prop46
 90
       50
102
RTVSPost2010PropOp46
 70
     1
102
RTVSPost2010Prop47
 90
       50
102
RTVSPost2010PropOp47
 70
     1
102
RTVSPost2010Prop48
 90
       50
102
RTVSPost2010PropOp48
 70
     1
102
RTVSPost2010Prop49
280
     0
102
RTVSPost2010PropOp49
 70
     1
102
RTVSPost2010Prop50
 90
       50
102
RTVSPost2010PropOp50
 70
     1
102
RTVSPost2010Prop51ColorIndex
 90
      256
102
RTVSPost2010Prop51ColorRGB
 90
-16777216
102
RTVSPost2010PropOp51
 70
     0
102
RTVSPost2010Prop52
140
1.0
102
RTVSPost2010PropOp52
 70
     0
102
RTVSPost2010Prop53
 90
        2
102
RTVSPost2010PropOp53
 70
     1
102
RTVSPost2010Prop54
  1
strokes_ogs.tif
102
RTVSPost2010PropOp54
 70
     1
102
RTVSPost2010Prop55
280
     0
102
RTVSPost2010PropOp55
 70
     1
102
RTVSPost2010Prop56
140
1.0
102
RTVSPost2010PropOp56
 70
     1
102
RTVSPost2010Prop57
140
1.0
102
RTVSPost2010PropOp57
 70
     1
102
RTVSPropertyOp0
 70
     1
102
RTVSPropertyOp1
 70
     1
102
RTVSPropertyOp2
 70
     1
102
RTVSPropertyOp3
 70
     1
102
RTVSPropertyOp4
 70
     1
102
RTVSPropertyOp5
 70
     1
102
RTVSPropertyOp6
 70
     1
102
RTVSPropertyOp7
 70
     1
102
RTVSPropertyOp8
 70
     1
102
RTVSPropertyOp9
 70
     1
102
RTVSPropertyOp10
 70
     1
102
RTVSPropertyOp11
 70
     1
102
RTVSPropertyOp12
 70
     1
102
RTVSPropertyOp13
 70
     1
102
RTVSPropertyOp14
 70
     1
102
RTVSPropertyOp15
 70
     1
102
RTVSPropertyOp16
 70
     1
102
RTVSPropertyOp17
 70
     1
102
RTVSPropertyOp18
 70
     1
102
RTVSPropertyOp19
 70
     1
102
RTVSPropertyOp20
 70
     1
102
RTVSPropertyOp21
 70
     1
102
RTVSPropertyOp22
 70
     1
102
RTVSPropertyOp23
 70
     1
102
RTVSPropertyOp24
 70
     1
102
RTVSPropertyOp25
 70
     1
102
RTVSPropertyOp26
 70
     1
102
RTVSPropertyOp27
 70
     1
102
RTVSPropertyOp28
 70
     1
102
RTVSPropertyOp29
 70
     1
102
RTVSPropertyOp30
 70
     1
102
RTVSPropertyOp31
 70
     1
102
RTVSPropertyOp32
 70
     1
102
RTVSPropertyOp33
 70
     1
102
RTVSPropertyOp34
 70
     1
102
RTVSPropertyOp35
 70
     1
102
RTVSPropertyOp36
 70
     1
102
RTVSPropertyOp37
 70
     1
102
RTVSPropertyOp38
 70
     1
102
RTVSPropertyOp39
 70
     1
102
RTVSPropertyOp40
 70
     1
102
RTVSPropertyOp41
 70
     1
102
RTVSPropertyOp42
 70
     1
102
RTVSPropertyOp43
 70
     1
102
RTVSPropertyOp44
 70
     1
102
RTVSPropertyOp45
 70
     1
102
RTVSPropertyOp46
 70
     1
102
RTVSPropertyOp47
 70
     1
102
RTVSPropertyOp48
 70
     1
102
RTVSPropertyOp49
 70
     1
102
RTVSPropertyOp50
 70
     1
102
RTVSPropertyOp51
 70
     0
102
RTVSPropertyOp52
 70
     0
102
RTVSPropertyOp53
 70
     1
102
RTVSPropertyOp54
 70
     1
102
RTVSPropertyOp55
 70
     1
102
RTVSPropertyOp56
 70
     1
102
RTVSPropertyOp57
 70
     1
102
RTVSPropertyOp58
 70
     1
102
RTVSPropertyOp59
 70
     1
102
RTVSPropertyOp60
 70
     1
102
RTVSPropertyOp61
 70
     1
102
RTVSPropertyOp62
 70
     1
  0
XRECORD
  5
82F1
102
{ACAD_REACTORS
330
82F0
102
}
330
82F0
100
AcDbXrecord
280
     1
102
RTVSPost2010Prop28
280
     0
102
RTVSPost2010PropOp28
 70
     1
102
RTVSPost2010Prop29
280
     1
102
RTVSPost2010PropOp29
 70
     1
102
RTVSPost2010Prop30
280
     1
102
RTVSPost2010PropOp30
 70
     1
102
RTVSPost2010Prop31
280
     0
102
RTVSPost2010PropOp31
 70
     1
102
RTVSPost2010Prop32
280
     0
102
RTVSPost2010PropOp32
 70
     1
102
RTVSPost2010Prop33
280
     0
102
RTVSPost2010PropOp33
 70
     1
102
RTVSPost2010Prop34
280
     0
102
RTVSPost2010PropOp34
 70
     1
102
RTVSPost2010Prop35
280
     0
102
RTVSPost2010PropOp35
 70
     1
102
RTVSPost2010Prop36
280
     0
102
RTVSPost2010PropOp36
 70
     1
102
RTVSPost2010Prop37
 90
       50
102
RTVSPost2010PropOp37
 70
     1
102
RTVSPost2010Prop38
140
0.0
102
RTVSPost2010PropOp38
 70
     1
102
RTVSPost2010Prop39
140
1.0
102
RTVSPost2010PropOp39
 70
     1
102
RTVSPost2010Prop40
 90
        0
102
RTVSPost2010PropOp40
 70
     1
102
RTVSPost2010Prop41ColorIndex
 90
       18
102
RTVSPost2010Prop41ColorRGB
 90
        0
102
RTVSPost2010PropOp41
 70
     1
102
RTVSPost2010Prop42
 90
       50
102
RTVSPost2010PropOp42
 70
     1
102
RTVSPost2010Prop43
 90
        3
102
RTVSPost2010PropOp43
 70
     1
102
RTVSPost2010Prop44ColorIndex
 90
        5
102
RTVSPost2010Prop44ColorRGB
 90
      255
102
RTVSPost2010PropOp44
 70
     1
102
RTVSPost2010Prop45
280
     0
102
RTVSPost2010PropOp45
 70
     1
102
RTVSPost2010Prop46
 90
       50
102
RTVSPost2010PropOp46
 70
     1
102
RTVSPost2010Prop47
 90
       50
102
RTVSPost2010PropOp47
 70
     1
102
RTVSPost2010Prop48
 90
       50
102
RTVSPost2010PropOp48
 70
     1
102
RTVSPost2010Prop49
280
     0
102
RTVSPost2010PropOp49
 70
     1
102
RTVSPost2010Prop50
 90
       50
102
RTVSPost2010PropOp50
 70
     1
102
RTVSPost2010Prop51ColorIndex
 90
      256
102
RTVSPost2010Prop51ColorRGB
 90
-16777216
102
RTVSPost2010PropOp51
 70
     0
102
RTVSPost2010Prop52
140
1.0
102
RTVSPost2010PropOp52
 70
     0
102
RTVSPost2010Prop53
 90
        2
102
RTVSPost2010PropOp53
 70
     1
102
RTVSPost2010Prop54
  1
strokes_ogs.tif
102
RTVSPost2010PropOp54
 70
     1
102
RTVSPost2010Prop55
280
     0
102
RTVSPost2010PropOp55
 70
     1
102
RTVSPost2010Prop56
140
1.0
102
RTVSPost2010PropOp56
 70
     1
102
RTVSPost2010Prop57
140
1.0
102
RTVSPost2010PropOp57
 70
     1
102
RTVSPropertyOp0
 70
     1
102
RTVSPropertyOp1
 70
     1
102
RTVSPropertyOp2
 70
     1
102
RTVSPropertyOp3
 70
     1
102
RTVSPropertyOp4
 70
     1
102
RTVSPropertyOp5
 70
     1
102
RTVSPropertyOp6
 70
     1
102
RTVSPropertyOp7
 70
     1
102
RTVSPropertyOp8
 70
     1
102
RTVSPropertyOp9
 70
     1
102
RTVSPropertyOp10
 70
     1
102
RTVSPropertyOp11
 70
     1
102
RTVSPropertyOp12
 70
     1
102
RTVSPropertyOp13
 70
     1
102
RTVSPropertyOp14
 70
     1
102
RTVSPropertyOp15
 70
     1
102
RTVSPropertyOp16
 70
     1
102
RTVSPropertyOp17
 70
     1
102
RTVSPropertyOp18
 70
     1
102
RTVSPropertyOp19
 70
     1
102
RTVSPropertyOp20
 70
     1
102
RTVSPropertyOp21
 70
     1
102
RTVSPropertyOp22
 70
     1
102
RTVSPropertyOp23
 70
     1
102
RTVSPropertyOp24
 70
     1
102
RTVSPropertyOp25
 70
     1
102
RTVSPropertyOp26
 70
     1
102
RTVSPropertyOp27
 70
     1
102
RTVSPropertyOp28
 70
     1
102
RTVSPropertyOp29
 70
     1
102
RTVSPropertyOp30
 70
     1
102
RTVSPropertyOp31
 70
     1
102
RTVSPropertyOp32
 70
     1
102
RTVSPropertyOp33
 70
     1
102
RTVSPropertyOp34
 70
     1
102
RTVSPropertyOp35
 70
     1
102
RTVSPropertyOp36
 70
     1
102
RTVSPropertyOp37
 70
     1
102
RTVSPropertyOp38
 70
     1
102
RTVSPropertyOp39
 70
     1
102
RTVSPropertyOp40
 70
     1
102
RTVSPropertyOp41
 70
     1
102
RTVSPropertyOp42
 70
     1
102
RTVSPropertyOp43
 70
     1
102
RTVSPropertyOp44
 70
     1
102
RTVSPropertyOp45
 70
     1
102
RTVSPropertyOp46
 70
     1
102
RTVSPropertyOp47
 70
     1
102
RTVSPropertyOp48
 70
     1
102
RTVSPropertyOp49
 70
     1
102
RTVSPropertyOp50
 70
     1
102
RTVSPropertyOp51
 70
     0
102
RTVSPropertyOp52
 70
     0
102
RTVSPropertyOp53
 70
     1
102
RTVSPropertyOp54
 70
     1
102
RTVSPropertyOp55
 70
     1
102
RTVSPropertyOp56
 70
     1
102
RTVSPropertyOp57
 70
     1
102
RTVSPropertyOp58
 70
     1
102
RTVSPropertyOp59
 70
     1
102
RTVSPropertyOp60
 70
     1
102
RTVSPropertyOp61
 70
     1
102
RTVSPropertyOp62
 70
     1
  0
XRECORD
  5
82F3
102
{ACAD_REACTORS
330
82F2
102
}
330
82F2
100
AcDbXrecord
280
     1
102
RTVSPost2010Prop28
280
     0
102
RTVSPost2010PropOp28
 70
     1
102
RTVSPost2010Prop29
280
     1
102
RTVSPost2010PropOp29
 70
     1
102
RTVSPost2010Prop30
280
     1
102
RTVSPost2010PropOp30
 70
     1
102
RTVSPost2010Prop31
280
     0
102
RTVSPost2010PropOp31
 70
     1
102
RTVSPost2010Prop32
280
     0
102
RTVSPost2010PropOp32
 70
     1
102
RTVSPost2010Prop33
280
     0
102
RTVSPost2010PropOp33
 70
     1
102
RTVSPost2010Prop34
280
     0
102
RTVSPost2010PropOp34
 70
     1
102
RTVSPost2010Prop35
280
     0
102
RTVSPost2010PropOp35
 70
     1
102
RTVSPost2010Prop36
280
     0
102
RTVSPost2010PropOp36
 70
     1
102
RTVSPost2010Prop37
 90
       50
102
RTVSPost2010PropOp37
 70
     1
102
RTVSPost2010Prop38
140
0.0
102
RTVSPost2010PropOp38
 70
     1
102
RTVSPost2010Prop39
140
1.0
102
RTVSPost2010PropOp39
 70
     1
102
RTVSPost2010Prop40
 90
        0
102
RTVSPost2010PropOp40
 70
     1
102
RTVSPost2010Prop41ColorIndex
 90
       18
102
RTVSPost2010Prop41ColorRGB
 90
        0
102
RTVSPost2010PropOp41
 70
     1
102
RTVSPost2010Prop42
 90
       50
102
RTVSPost2010PropOp42
 70
     1
102
RTVSPost2010Prop43
 90
        3
102
RTVSPost2010PropOp43
 70
     1
102
RTVSPost2010Prop44ColorIndex
 90
        5
102
RTVSPost2010Prop44ColorRGB
 90
      255
102
RTVSPost2010PropOp44
 70
     1
102
RTVSPost2010Prop45
280
     0
102
RTVSPost2010PropOp45
 70
     1
102
RTVSPost2010Prop46
 90
       50
102
RTVSPost2010PropOp46
 70
     1
102
RTVSPost2010Prop47
 90
       50
102
RTVSPost2010PropOp47
 70
     1
102
RTVSPost2010Prop48
 90
       50
102
RTVSPost2010PropOp48
 70
     1
102
RTVSPost2010Prop49
280
     0
102
RTVSPost2010PropOp49
 70
     1
102
RTVSPost2010Prop50
 90
       50
102
RTVSPost2010PropOp50
 70
     1
102
RTVSPost2010Prop51ColorIndex
 90
      256
102
RTVSPost2010Prop51ColorRGB
 90
-16777216
102
RTVSPost2010PropOp51
 70
     0
102
RTVSPost2010Prop52
140
1.0
102
RTVSPost2010PropOp52
 70
     0
102
RTVSPost2010Prop53
 90
        2
102
RTVSPost2010PropOp53
 70
     1
102
RTVSPost2010Prop54
  1
strokes_ogs.tif
102
RTVSPost2010PropOp54
 70
     1
102
RTVSPost2010Prop55
280
     0
102
RTVSPost2010PropOp55
 70
     1
102
RTVSPost2010Prop56
140
1.0
102
RTVSPost2010PropOp56
 70
     1
102
RTVSPost2010Prop57
140
1.0
102
RTVSPost2010PropOp57
 70
     1
102
RTVSPropertyOp0
 70
     1
102
RTVSPropertyOp1
 70
     1
102
RTVSPropertyOp2
 70
     1
102
RTVSPropertyOp3
 70
     1
102
RTVSPropertyOp4
 70
     1
102
RTVSPropertyOp5
 70
     1
102
RTVSPropertyOp6
 70
     1
102
RTVSPropertyOp7
 70
     1
102
RTVSPropertyOp8
 70
     1
102
RTVSPropertyOp9
 70
     1
102
RTVSPropertyOp10
 70
     1
102
RTVSPropertyOp11
 70
     1
102
RTVSPropertyOp12
 70
     1
102
RTVSPropertyOp13
 70
     1
102
RTVSPropertyOp14
 70
     1
102
RTVSPropertyOp15
 70
     1
102
RTVSPropertyOp16
 70
     1
102
RTVSPropertyOp17
 70
     1
102
RTVSPropertyOp18
 70
     1
102
RTVSPropertyOp19
 70
     1
102
RTVSPropertyOp20
 70
     1
102
RTVSPropertyOp21
 70
     1
102
RTVSPropertyOp22
 70
     1
102
RTVSPropertyOp23
 70
     1
102
RTVSPropertyOp24
 70
     1
102
RTVSPropertyOp25
 70
     1
102
RTVSPropertyOp26
 70
     1
102
RTVSPropertyOp27
 70
     1
102
RTVSPropertyOp28
 70
     1
102
RTVSPropertyOp29
 70
     1
102
RTVSPropertyOp30
 70
     1
102
RTVSPropertyOp31
 70
     1
102
RTVSPropertyOp32
 70
     1
102
RTVSPropertyOp33
 70
     1
102
RTVSPropertyOp34
 70
     1
102
RTVSPropertyOp35
 70
     1
102
RTVSPropertyOp36
 70
     1
102
RTVSPropertyOp37
 70
     1
102
RTVSPropertyOp38
 70
     1
102
RTVSPropertyOp39
 70
     1
102
RTVSPropertyOp40
 70
     1
102
RTVSPropertyOp41
 70
     1
102
RTVSPropertyOp42
 70
     1
102
RTVSPropertyOp43
 70
     1
102
RTVSPropertyOp44
 70
     1
102
RTVSPropertyOp45
 70
     1
102
RTVSPropertyOp46
 70
     1
102
RTVSPropertyOp47
 70
     1
102
RTVSPropertyOp48
 70
     1
102
RTVSPropertyOp49
 70
     1
102
RTVSPropertyOp50
 70
     1
102
RTVSPropertyOp51
 70
     0
102
RTVSPropertyOp52
 70
     0
102
RTVSPropertyOp53
 70
     1
102
RTVSPropertyOp54
 70
     1
102
RTVSPropertyOp55
 70
     1
102
RTVSPropertyOp56
 70
     1
102
RTVSPropertyOp57
 70
     1
102
RTVSPropertyOp58
 70
     1
102
RTVSPropertyOp59
 70
     1
102
RTVSPropertyOp60
 70
     1
102
RTVSPropertyOp61
 70
     1
102
RTVSPropertyOp62
 70
     1
  0
XRECORD
  5
82FB
102
{ACAD_REACTORS
330
82FA
102
}
330
82FA
100
AcDbXrecord
280
     1
102
RTVSPost2010Prop28
280
     0
102
RTVSPost2010PropOp28
 70
     1
102
RTVSPost2010Prop29
280
     1
102
RTVSPost2010PropOp29
 70
     1
102
RTVSPost2010Prop30
280
     1
102
RTVSPost2010PropOp30
 70
     1
102
RTVSPost2010Prop31
280
     0
102
RTVSPost2010PropOp31
 70
     1
102
RTVSPost2010Prop32
280
     0
102
RTVSPost2010PropOp32
 70
     1
102
RTVSPost2010Prop33
280
     0
102
RTVSPost2010PropOp33
 70
     1
102
RTVSPost2010Prop34
280
     0
102
RTVSPost2010PropOp34
 70
     1
102
RTVSPost2010Prop35
280
     0
102
RTVSPost2010PropOp35
 70
     1
102
RTVSPost2010Prop36
280
     0
102
RTVSPost2010PropOp36
 70
     1
102
RTVSPost2010Prop37
 90
       50
102
RTVSPost2010PropOp37
 70
     1
102
RTVSPost2010Prop38
140
0.0
102
RTVSPost2010PropOp38
 70
     1
102
RTVSPost2010Prop39
140
1.0
102
RTVSPost2010PropOp39
 70
     1
102
RTVSPost2010Prop40
 90
        0
102
RTVSPost2010PropOp40
 70
     1
102
RTVSPost2010Prop41ColorIndex
 90
       18
102
RTVSPost2010Prop41ColorRGB
 90
        0
102
RTVSPost2010PropOp41
 70
     1
102
RTVSPost2010Prop42
 90
       50
102
RTVSPost2010PropOp42
 70
     1
102
RTVSPost2010Prop43
 90
        3
102
RTVSPost2010PropOp43
 70
     1
102
RTVSPost2010Prop44ColorIndex
 90
        5
102
RTVSPost2010Prop44ColorRGB
 90
      255
102
RTVSPost2010PropOp44
 70
     1
102
RTVSPost2010Prop45
280
     0
102
RTVSPost2010PropOp45
 70
     1
102
RTVSPost2010Prop46
 90
       50
102
RTVSPost2010PropOp46
 70
     1
102
RTVSPost2010Prop47
 90
       50
102
RTVSPost2010PropOp47
 70
     1
102
RTVSPost2010Prop48
 90
       50
102
RTVSPost2010PropOp48
 70
     1
102
RTVSPost2010Prop49
280
     0
102
RTVSPost2010PropOp49
 70
     1
102
RTVSPost2010Prop50
 90
       50
102
RTVSPost2010PropOp50
 70
     1
102
RTVSPost2010Prop51ColorIndex
 90
      256
102
RTVSPost2010Prop51ColorRGB
 90
-16777216
102
RTVSPost2010PropOp51
 70
     0
102
RTVSPost2010Prop52
140
1.0
102
RTVSPost2010PropOp52
 70
     0
102
RTVSPost2010Prop53
 90
        2
102
RTVSPost2010PropOp53
 70
     1
102
RTVSPost2010Prop54
  1
strokes_ogs.tif
102
RTVSPost2010PropOp54
 70
     1
102
RTVSPost2010Prop55
280
     0
102
RTVSPost2010PropOp55
 70
     1
102
RTVSPost2010Prop56
140
1.0
102
RTVSPost2010PropOp56
 70
     1
102
RTVSPost2010Prop57
140
1.0
102
RTVSPost2010PropOp57
 70
     1
102
RTVSPropertyOp0
 70
     1
102
RTVSPropertyOp1
 70
     1
102
RTVSPropertyOp2
 70
     1
102
RTVSPropertyOp3
 70
     1
102
RTVSPropertyOp4
 70
     1
102
RTVSPropertyOp5
 70
     1
102
RTVSPropertyOp6
 70
     1
102
RTVSPropertyOp7
 70
     1
102
RTVSPropertyOp8
 70
     1
102
RTVSPropertyOp9
 70
     1
102
RTVSPropertyOp10
 70
     1
102
RTVSPropertyOp11
 70
     1
102
RTVSPropertyOp12
 70
     1
102
RTVSPropertyOp13
 70
     1
102
RTVSPropertyOp14
 70
     1
102
RTVSPropertyOp15
 70
     1
102
RTVSPropertyOp16
 70
     1
102
RTVSPropertyOp17
 70
     1
102
RTVSPropertyOp18
 70
     1
102
RTVSPropertyOp19
 70
     1
102
RTVSPropertyOp20
 70
     1
102
RTVSPropertyOp21
 70
     1
102
RTVSPropertyOp22
 70
     1
102
RTVSPropertyOp23
 70
     1
102
RTVSPropertyOp24
 70
     1
102
RTVSPropertyOp25
 70
     1
102
RTVSPropertyOp26
 70
     1
102
RTVSPropertyOp27
 70
     1
102
RTVSPropertyOp28
 70
     1
102
RTVSPropertyOp29
 70
     1
102
RTVSPropertyOp30
 70
     1
102
RTVSPropertyOp31
 70
     1
102
RTVSPropertyOp32
 70
     1
102
RTVSPropertyOp33
 70
     1
102
RTVSPropertyOp34
 70
     1
102
RTVSPropertyOp35
 70
     1
102
RTVSPropertyOp36
 70
     1
102
RTVSPropertyOp37
 70
     1
102
RTVSPropertyOp38
 70
     1
102
RTVSPropertyOp39
 70
     1
102
RTVSPropertyOp40
 70
     1
102
RTVSPropertyOp41
 70
     1
102
RTVSPropertyOp42
 70
     1
102
RTVSPropertyOp43
 70
     1
102
RTVSPropertyOp44
 70
     1
102
RTVSPropertyOp45
 70
     1
102
RTVSPropertyOp46
 70
     1
102
RTVSPropertyOp47
 70
     1
102
RTVSPropertyOp48
 70
     1
102
RTVSPropertyOp49
 70
     1
102
RTVSPropertyOp50
 70
     1
102
RTVSPropertyOp51
 70
     0
102
RTVSPropertyOp52
 70
     0
102
RTVSPropertyOp53
 70
     1
102
RTVSPropertyOp54
 70
     1
102
RTVSPropertyOp55
 70
     1
102
RTVSPropertyOp56
 70
     1
102
RTVSPropertyOp57
 70
     1
102
RTVSPropertyOp58
 70
     1
102
RTVSPropertyOp59
 70
     1
102
RTVSPropertyOp60
 70
     1
102
RTVSPropertyOp61
 70
     1
102
RTVSPropertyOp62
 70
     1
  0
XRECORD
  5
8317
102
{ACAD_REACTORS
330
8316
102
}
330
8316
100
AcDbXrecord
280
     1
102
RTVSPost2010Prop28
280
     0
102
RTVSPost2010PropOp28
 70
     1
102
RTVSPost2010Prop29
280
     1
102
RTVSPost2010PropOp29
 70
     1
102
RTVSPost2010Prop30
280
     1
102
RTVSPost2010PropOp30
 70
     1
102
RTVSPost2010Prop31
280
     0
102
RTVSPost2010PropOp31
 70
     1
102
RTVSPost2010Prop32
280
     0
102
RTVSPost2010PropOp32
 70
     1
102
RTVSPost2010Prop33
280
     0
102
RTVSPost2010PropOp33
 70
     1
102
RTVSPost2010Prop34
280
     0
102
RTVSPost2010PropOp34
 70
     1
102
RTVSPost2010Prop35
280
     0
102
RTVSPost2010PropOp35
 70
     1
102
RTVSPost2010Prop36
280
     0
102
RTVSPost2010PropOp36
 70
     1
102
RTVSPost2010Prop37
 90
       50
102
RTVSPost2010PropOp37
 70
     0
102
RTVSPost2010Prop38
140
0.0
102
RTVSPost2010PropOp38
 70
     0
102
RTVSPost2010Prop39
140
1.0
102
RTVSPost2010PropOp39
 70
     0
102
RTVSPost2010Prop40
 90
        0
102
RTVSPost2010PropOp40
 70
     0
102
RTVSPost2010Prop41ColorIndex
 90
       18
102
RTVSPost2010Prop41ColorRGB
 90
        0
102
RTVSPost2010PropOp41
 70
     0
102
RTVSPost2010Prop42
 90
       50
102
RTVSPost2010PropOp42
 70
     0
102
RTVSPost2010Prop43
 90
        3
102
RTVSPost2010PropOp43
 70
     0
102
RTVSPost2010Prop44ColorIndex
 90
        5
102
RTVSPost2010Prop44ColorRGB
 90
      255
102
RTVSPost2010PropOp44
 70
     0
102
RTVSPost2010Prop45
280
     0
102
RTVSPost2010PropOp45
 70
     1
102
RTVSPost2010Prop46
 90
       50
102
RTVSPost2010PropOp46
 70
     0
102
RTVSPost2010Prop47
 90
       50
102
RTVSPost2010PropOp47
 70
     0
102
RTVSPost2010Prop48
 90
       50
102
RTVSPost2010PropOp48
 70
     0
102
RTVSPost2010Prop49
280
     0
102
RTVSPost2010PropOp49
 70
     1
102
RTVSPost2010Prop50
 90
       50
102
RTVSPost2010PropOp50
 70
     0
102
RTVSPost2010Prop51ColorIndex
 90
      256
102
RTVSPost2010Prop51ColorRGB
 90
-16777216
102
RTVSPost2010PropOp51
 70
     0
102
RTVSPost2010Prop52
140
1.0
102
RTVSPost2010PropOp52
 70
     0
102
RTVSPost2010Prop53
 90
        2
102
RTVSPost2010PropOp53
 70
     0
102
RTVSPost2010Prop54
  1
strokes_ogs.tif
102
RTVSPost2010PropOp54
 70
     0
102
RTVSPost2010Prop55
280
     0
102
RTVSPost2010PropOp55
 70
     1
102
RTVSPost2010Prop56
140
1.0
102
RTVSPost2010PropOp56
 70
     0
102
RTVSPost2010Prop57
140
1.0
102
RTVSPost2010PropOp57
 70
     0
102
RTVSPropertyOp0
 70
     0
102
RTVSPropertyOp1
 70
     0
102
RTVSPropertyOp2
 70
     0
102
RTVSPropertyOp3
 70
     0
102
RTVSPropertyOp4
 70
     0
102
RTVSPropertyOp5
 70
     0
102
RTVSPropertyOp6
 70
     0
102
RTVSPropertyOp7
 70
     0
102
RTVSPropertyOp8
 70
     0
102
RTVSPropertyOp9
 70
     0
102
RTVSPropertyOp10
 70
     0
102
RTVSPropertyOp11
 70
     0
102
RTVSPropertyOp12
 70
     0
102
RTVSPropertyOp13
 70
     0
102
RTVSPropertyOp14
 70
     2
102
RTVSPropertyOp15
 70
     0
102
RTVSPropertyOp16
 70
     0
102
RTVSPropertyOp17
 70
     0
102
RTVSPropertyOp18
 70
     0
102
RTVSPropertyOp19
 70
     0
102
RTVSPropertyOp20
 70
     0
102
RTVSPropertyOp21
 70
     0
102
RTVSPropertyOp22
 70
     0
102
RTVSPropertyOp23
 70
     0
102
RTVSPropertyOp24
 70
     0
102
RTVSPropertyOp25
 70
     0
102
RTVSPropertyOp26
 70
     0
102
RTVSPropertyOp27
 70
     0
102
RTVSPropertyOp28
 70
     1
102
RTVSPropertyOp29
 70
     1
102
RTVSPropertyOp30
 70
     1
102
RTVSPropertyOp31
 70
     1
102
RTVSPropertyOp32
 70
     1
102
RTVSPropertyOp33
 70
     1
102
RTVSPropertyOp34
 70
     1
102
RTVSPropertyOp35
 70
     1
102
RTVSPropertyOp36
 70
     1
102
RTVSPropertyOp37
 70
     0
102
RTVSPropertyOp38
 70
     0
102
RTVSPropertyOp39
 70
     0
102
RTVSPropertyOp40
 70
     0
102
RTVSPropertyOp41
 70
     0
102
RTVSPropertyOp42
 70
     0
102
RTVSPropertyOp43
 70
     0
102
RTVSPropertyOp44
 70
     0
102
RTVSPropertyOp45
 70
     1
102
RTVSPropertyOp46
 70
     0
102
RTVSPropertyOp47
 70
     0
102
RTVSPropertyOp48
 70
     0
102
RTVSPropertyOp49
 70
     1
102
RTVSPropertyOp50
 70
     0
102
RTVSPropertyOp51
 70
     0
102
RTVSPropertyOp52
 70
     0
102
RTVSPropertyOp53
 70
     0
102
RTVSPropertyOp54
 70
     0
102
RTVSPropertyOp55
 70
     1
102
RTVSPropertyOp56
 70
     0
102
RTVSPropertyOp57
 70
     0
102
RTVSPropertyOp58
 70
     0
102
RTVSPropertyOp59
 70
     0
102
RTVSPropertyOp60
 70
     0
102
RTVSPropertyOp61
 70
     0
102
RTVSPropertyOp62
 70
     0
  0
XRECORD
  5
8307
102
{ACAD_REACTORS
330
8306
102
}
330
8306
100
AcDbXrecord
280
     1
102
RTVSPost2010Prop28
280
     0
102
RTVSPost2010PropOp28
 70
     1
102
RTVSPost2010Prop29
280
     1
102
RTVSPost2010PropOp29
 70
     1
102
RTVSPost2010Prop30
280
     1
102
RTVSPost2010PropOp30
 70
     1
102
RTVSPost2010Prop31
280
     0
102
RTVSPost2010PropOp31
 70
     1
102
RTVSPost2010Prop32
280
     0
102
RTVSPost2010PropOp32
 70
     1
102
RTVSPost2010Prop33
280
     0
102
RTVSPost2010PropOp33
 70
     1
102
RTVSPost2010Prop34
280
     0
102
RTVSPost2010PropOp34
 70
     1
102
RTVSPost2010Prop35
280
     0
102
RTVSPost2010PropOp35
 70
     1
102
RTVSPost2010Prop36
280
     0
102
RTVSPost2010PropOp36
 70
     1
102
RTVSPost2010Prop37
 90
       50
102
RTVSPost2010PropOp37
 70
     1
102
RTVSPost2010Prop38
140
0.0
102
RTVSPost2010PropOp38
 70
     1
102
RTVSPost2010Prop39
140
1.0
102
RTVSPost2010PropOp39
 70
     1
102
RTVSPost2010Prop40
 90
        0
102
RTVSPost2010PropOp40
 70
     1
102
RTVSPost2010Prop41ColorIndex
 90
       18
102
RTVSPost2010Prop41ColorRGB
 90
        0
102
RTVSPost2010PropOp41
 70
     1
102
RTVSPost2010Prop42
 90
       50
102
RTVSPost2010PropOp42
 70
     1
102
RTVSPost2010Prop43
 90
        3
102
RTVSPost2010PropOp43
 70
     1
102
RTVSPost2010Prop44ColorIndex
 90
        5
102
RTVSPost2010Prop44ColorRGB
 90
      255
102
RTVSPost2010PropOp44
 70
     1
102
RTVSPost2010Prop45
280
     0
102
RTVSPost2010PropOp45
 70
     1
102
RTVSPost2010Prop46
 90
       50
102
RTVSPost2010PropOp46
 70
     1
102
RTVSPost2010Prop47
 90
       50
102
RTVSPost2010PropOp47
 70
     1
102
RTVSPost2010Prop48
 90
       50
102
RTVSPost2010PropOp48
 70
     1
102
RTVSPost2010Prop49
280
     0
102
RTVSPost2010PropOp49
 70
     1
102
RTVSPost2010Prop50
 90
       50
102
RTVSPost2010PropOp50
 70
     1
102
RTVSPost2010Prop51ColorIndex
 90
      256
102
RTVSPost2010Prop51ColorRGB
 90
-16777216
102
RTVSPost2010PropOp51
 70
     0
102
RTVSPost2010Prop52
140
1.0
102
RTVSPost2010PropOp52
 70
     0
102
RTVSPost2010Prop53
 90
        2
102
RTVSPost2010PropOp53
 70
     1
102
RTVSPost2010Prop54
  1
strokes_ogs.tif
102
RTVSPost2010PropOp54
 70
     1
102
RTVSPost2010Prop55
280
     0
102
RTVSPost2010PropOp55
 70
     1
102
RTVSPost2010Prop56
140
1.0
102
RTVSPost2010PropOp56
 70
     1
102
RTVSPost2010Prop57
140
1.0
102
RTVSPost2010PropOp57
 70
     1
102
RTVSPropertyOp0
 70
     1
102
RTVSPropertyOp1
 70
     1
102
RTVSPropertyOp2
 70
     1
102
RTVSPropertyOp3
 70
     1
102
RTVSPropertyOp4
 70
     1
102
RTVSPropertyOp5
 70
     1
102
RTVSPropertyOp6
 70
     1
102
RTVSPropertyOp7
 70
     1
102
RTVSPropertyOp8
 70
     1
102
RTVSPropertyOp9
 70
     1
102
RTVSPropertyOp10
 70
     1
102
RTVSPropertyOp11
 70
     1
102
RTVSPropertyOp12
 70
     1
102
RTVSPropertyOp13
 70
     1
102
RTVSPropertyOp14
 70
     1
102
RTVSPropertyOp15
 70
     1
102
RTVSPropertyOp16
 70
     1
102
RTVSPropertyOp17
 70
     1
102
RTVSPropertyOp18
 70
     1
102
RTVSPropertyOp19
 70
     1
102
RTVSPropertyOp20
 70
     1
102
RTVSPropertyOp21
 70
     1
102
RTVSPropertyOp22
 70
     1
102
RTVSPropertyOp23
 70
     1
102
RTVSPropertyOp24
 70
     1
102
RTVSPropertyOp25
 70
     1
102
RTVSPropertyOp26
 70
     1
102
RTVSPropertyOp27
 70
     1
102
RTVSPropertyOp28
 70
     1
102
RTVSPropertyOp29
 70
     1
102
RTVSPropertyOp30
 70
     1
102
RTVSPropertyOp31
 70
     1
102
RTVSPropertyOp32
 70
     1
102
RTVSPropertyOp33
 70
     1
102
RTVSPropertyOp34
 70
     1
102
RTVSPropertyOp35
 70
     1
102
RTVSPropertyOp36
 70
     1
102
RTVSPropertyOp37
 70
     1
102
RTVSPropertyOp38
 70
     1
102
RTVSPropertyOp39
 70
     1
102
RTVSPropertyOp40
 70
     1
102
RTVSPropertyOp41
 70
     1
102
RTVSPropertyOp42
 70
     1
102
RTVSPropertyOp43
 70
     1
102
RTVSPropertyOp44
 70
     1
102
RTVSPropertyOp45
 70
     1
102
RTVSPropertyOp46
 70
     1
102
RTVSPropertyOp47
 70
     1
102
RTVSPropertyOp48
 70
     1
102
RTVSPropertyOp49
 70
     1
102
RTVSPropertyOp50
 70
     1
102
RTVSPropertyOp51
 70
     0
102
RTVSPropertyOp52
 70
     0
102
RTVSPropertyOp53
 70
     1
102
RTVSPropertyOp54
 70
     1
102
RTVSPropertyOp55
 70
     1
102
RTVSPropertyOp56
 70
     1
102
RTVSPropertyOp57
 70
     1
102
RTVSPropertyOp58
 70
     1
102
RTVSPropertyOp59
 70
     1
102
RTVSPropertyOp60
 70
     1
102
RTVSPropertyOp61
 70
     1
102
RTVSPropertyOp62
 70
     1
  0
XRECORD
  5
8319
102
{ACAD_REACTORS
330
8318
102
}
330
8318
100
AcDbXrecord
280
     1
102
RTVSPost2010Prop28
280
     0
102
RTVSPost2010PropOp28
 70
     1
102
RTVSPost2010Prop29
280
     1
102
RTVSPost2010PropOp29
 70
     1
102
RTVSPost2010Prop30
280
     1
102
RTVSPost2010PropOp30
 70
     1
102
RTVSPost2010Prop31
280
     0
102
RTVSPost2010PropOp31
 70
     1
102
RTVSPost2010Prop32
280
     0
102
RTVSPost2010PropOp32
 70
     1
102
RTVSPost2010Prop33
280
     0
102
RTVSPost2010PropOp33
 70
     1
102
RTVSPost2010Prop34
280
     0
102
RTVSPost2010PropOp34
 70
     1
102
RTVSPost2010Prop35
280
     0
102
RTVSPost2010PropOp35
 70
     1
102
RTVSPost2010Prop36
280
     0
102
RTVSPost2010PropOp36
 70
     1
102
RTVSPost2010Prop37
 90
       50
102
RTVSPost2010PropOp37
 70
     0
102
RTVSPost2010Prop38
140
0.0
102
RTVSPost2010PropOp38
 70
     0
102
RTVSPost2010Prop39
140
1.0
102
RTVSPost2010PropOp39
 70
     0
102
RTVSPost2010Prop40
 90
        0
102
RTVSPost2010PropOp40
 70
     0
102
RTVSPost2010Prop41ColorIndex
 90
       18
102
RTVSPost2010Prop41ColorRGB
 90
        0
102
RTVSPost2010PropOp41
 70
     0
102
RTVSPost2010Prop42
 90
       50
102
RTVSPost2010PropOp42
 70
     0
102
RTVSPost2010Prop43
 90
        3
102
RTVSPost2010PropOp43
 70
     0
102
RTVSPost2010Prop44ColorIndex
 90
        5
102
RTVSPost2010Prop44ColorRGB
 90
      255
102
RTVSPost2010PropOp44
 70
     0
102
RTVSPost2010Prop45
280
     0
102
RTVSPost2010PropOp45
 70
     1
102
RTVSPost2010Prop46
 90
       50
102
RTVSPost2010PropOp46
 70
     0
102
RTVSPost2010Prop47
 90
       50
102
RTVSPost2010PropOp47
 70
     0
102
RTVSPost2010Prop48
 90
       50
102
RTVSPost2010PropOp48
 70
     0
102
RTVSPost2010Prop49
280
     0
102
RTVSPost2010PropOp49
 70
     1
102
RTVSPost2010Prop50
 90
       50
102
RTVSPost2010PropOp50
 70
     0
102
RTVSPost2010Prop51ColorIndex
 90
      256
102
RTVSPost2010Prop51ColorRGB
 90
-16777216
102
RTVSPost2010PropOp51
 70
     0
102
RTVSPost2010Prop52
140
1.0
102
RTVSPost2010PropOp52
 70
     0
102
RTVSPost2010Prop53
 90
        2
102
RTVSPost2010PropOp53
 70
     0
102
RTVSPost2010Prop54
  1
strokes_ogs.tif
102
RTVSPost2010PropOp54
 70
     0
102
RTVSPost2010Prop55
280
     0
102
RTVSPost2010PropOp55
 70
     1
102
RTVSPost2010Prop56
140
1.0
102
RTVSPost2010PropOp56
 70
     0
102
RTVSPost2010Prop57
140
1.0
102
RTVSPost2010PropOp57
 70
     0
102
RTVSPropertyOp0
 70
     0
102
RTVSPropertyOp1
 70
     0
102
RTVSPropertyOp2
 70
     0
102
RTVSPropertyOp3
 70
     0
102
RTVSPropertyOp4
 70
     0
102
RTVSPropertyOp5
 70
     0
102
RTVSPropertyOp6
 70
     0
102
RTVSPropertyOp7
 70
     0
102
RTVSPropertyOp8
 70
     0
102
RTVSPropertyOp9
 70
     0
102
RTVSPropertyOp10
 70
     0
102
RTVSPropertyOp11
 70
     0
102
RTVSPropertyOp12
 70
     0
102
RTVSPropertyOp13
 70
     0
102
RTVSPropertyOp14
 70
     2
102
RTVSPropertyOp15
 70
     0
102
RTVSPropertyOp16
 70
     0
102
RTVSPropertyOp17
 70
     0
102
RTVSPropertyOp18
 70
     0
102
RTVSPropertyOp19
 70
     0
102
RTVSPropertyOp20
 70
     0
102
RTVSPropertyOp21
 70
     0
102
RTVSPropertyOp22
 70
     0
102
RTVSPropertyOp23
 70
     0
102
RTVSPropertyOp24
 70
     0
102
RTVSPropertyOp25
 70
     0
102
RTVSPropertyOp26
 70
     0
102
RTVSPropertyOp27
 70
     0
102
RTVSPropertyOp28
 70
     1
102
RTVSPropertyOp29
 70
     1
102
RTVSPropertyOp30
 70
     1
102
RTVSPropertyOp31
 70
     1
102
RTVSPropertyOp32
 70
     1
102
RTVSPropertyOp33
 70
     1
102
RTVSPropertyOp34
 70
     1
102
RTVSPropertyOp35
 70
     1
102
RTVSPropertyOp36
 70
     1
102
RTVSPropertyOp37
 70
     0
102
RTVSPropertyOp38
 70
     0
102
RTVSPropertyOp39
 70
     0
102
RTVSPropertyOp40
 70
     0
102
RTVSPropertyOp41
 70
     0
102
RTVSPropertyOp42
 70
     0
102
RTVSPropertyOp43
 70
     0
102
RTVSPropertyOp44
 70
     0
102
RTVSPropertyOp45
 70
     1
102
RTVSPropertyOp46
 70
     0
102
RTVSPropertyOp47
 70
     0
102
RTVSPropertyOp48
 70
     0
102
RTVSPropertyOp49
 70
     1
102
RTVSPropertyOp50
 70
     0
102
RTVSPropertyOp51
 70
     0
102
RTVSPropertyOp52
 70
     0
102
RTVSPropertyOp53
 70
     0
102
RTVSPropertyOp54
 70
     0
102
RTVSPropertyOp55
 70
     1
102
RTVSPropertyOp56
 70
     0
102
RTVSPropertyOp57
 70
     0
102
RTVSPropertyOp58
 70
     0
102
RTVSPropertyOp59
 70
     0
102
RTVSPropertyOp60
 70
     0
102
RTVSPropertyOp61
 70
     0
102
RTVSPropertyOp62
 70
     0
  0
XRECORD
  5
82FF
102
{ACAD_REACTORS
330
82FE
102
}
330
82FE
100
AcDbXrecord
280
     1
102
RTVSPost2010Prop28
280
     0
102
RTVSPost2010PropOp28
 70
     1
102
RTVSPost2010Prop29
280
     1
102
RTVSPost2010PropOp29
 70
     1
102
RTVSPost2010Prop30
280
     1
102
RTVSPost2010PropOp30
 70
     1
102
RTVSPost2010Prop31
280
     0
102
RTVSPost2010PropOp31
 70
     1
102
RTVSPost2010Prop32
280
     0
102
RTVSPost2010PropOp32
 70
     1
102
RTVSPost2010Prop33
280
     0
102
RTVSPost2010PropOp33
 70
     1
102
RTVSPost2010Prop34
280
     0
102
RTVSPost2010PropOp34
 70
     1
102
RTVSPost2010Prop35
280
     0
102
RTVSPost2010PropOp35
 70
     1
102
RTVSPost2010Prop36
280
     0
102
RTVSPost2010PropOp36
 70
     1
102
RTVSPost2010Prop37
 90
       50
102
RTVSPost2010PropOp37
 70
     1
102
RTVSPost2010Prop38
140
0.0
102
RTVSPost2010PropOp38
 70
     1
102
RTVSPost2010Prop39
140
1.0
102
RTVSPost2010PropOp39
 70
     1
102
RTVSPost2010Prop40
 90
        0
102
RTVSPost2010PropOp40
 70
     1
102
RTVSPost2010Prop41ColorIndex
 90
       18
102
RTVSPost2010Prop41ColorRGB
 90
        0
102
RTVSPost2010PropOp41
 70
     1
102
RTVSPost2010Prop42
 90
       50
102
RTVSPost2010PropOp42
 70
     1
102
RTVSPost2010Prop43
 90
        3
102
RTVSPost2010PropOp43
 70
     1
102
RTVSPost2010Prop44ColorIndex
 90
        5
102
RTVSPost2010Prop44ColorRGB
 90
      255
102
RTVSPost2010PropOp44
 70
     1
102
RTVSPost2010Prop45
280
     0
102
RTVSPost2010PropOp45
 70
     1
102
RTVSPost2010Prop46
 90
       50
102
RTVSPost2010PropOp46
 70
     1
102
RTVSPost2010Prop47
 90
       50
102
RTVSPost2010PropOp47
 70
     1
102
RTVSPost2010Prop48
 90
       50
102
RTVSPost2010PropOp48
 70
     1
102
RTVSPost2010Prop49
280
     0
102
RTVSPost2010PropOp49
 70
     1
102
RTVSPost2010Prop50
 90
       50
102
RTVSPost2010PropOp50
 70
     1
102
RTVSPost2010Prop51ColorIndex
 90
      256
102
RTVSPost2010Prop51ColorRGB
 90
-16777216
102
RTVSPost2010PropOp51
 70
     0
102
RTVSPost2010Prop52
140
1.0
102
RTVSPost2010PropOp52
 70
     0
102
RTVSPost2010Prop53
 90
        2
102
RTVSPost2010PropOp53
 70
     1
102
RTVSPost2010Prop54
  1
strokes_ogs.tif
102
RTVSPost2010PropOp54
 70
     1
102
RTVSPost2010Prop55
280
     0
102
RTVSPost2010PropOp55
 70
     1
102
RTVSPost2010Prop56
140
1.0
102
RTVSPost2010PropOp56
 70
     1
102
RTVSPost2010Prop57
140
1.0
102
RTVSPost2010PropOp57
 70
     1
102
RTVSPropertyOp0
 70
     1
102
RTVSPropertyOp1
 70
     1
102
RTVSPropertyOp2
 70
     1
102
RTVSPropertyOp3
 70
     1
102
RTVSPropertyOp4
 70
     1
102
RTVSPropertyOp5
 70
     1
102
RTVSPropertyOp6
 70
     1
102
RTVSPropertyOp7
 70
     1
102
RTVSPropertyOp8
 70
     1
102
RTVSPropertyOp9
 70
     1
102
RTVSPropertyOp10
 70
     1
102
RTVSPropertyOp11
 70
     1
102
RTVSPropertyOp12
 70
     1
102
RTVSPropertyOp13
 70
     1
102
RTVSPropertyOp14
 70
     1
102
RTVSPropertyOp15
 70
     1
102
RTVSPropertyOp16
 70
     1
102
RTVSPropertyOp17
 70
     1
102
RTVSPropertyOp18
 70
     1
102
RTVSPropertyOp19
 70
     1
102
RTVSPropertyOp20
 70
     1
102
RTVSPropertyOp21
 70
     1
102
RTVSPropertyOp22
 70
     1
102
RTVSPropertyOp23
 70
     1
102
RTVSPropertyOp24
 70
     1
102
RTVSPropertyOp25
 70
     1
102
RTVSPropertyOp26
 70
     1
102
RTVSPropertyOp27
 70
     1
102
RTVSPropertyOp28
 70
     1
102
RTVSPropertyOp29
 70
     1
102
RTVSPropertyOp30
 70
     1
102
RTVSPropertyOp31
 70
     1
102
RTVSPropertyOp32
 70
     1
102
RTVSPropertyOp33
 70
     1
102
RTVSPropertyOp34
 70
     1
102
RTVSPropertyOp35
 70
     1
102
RTVSPropertyOp36
 70
     1
102
RTVSPropertyOp37
 70
     1
102
RTVSPropertyOp38
 70
     1
102
RTVSPropertyOp39
 70
     1
102
RTVSPropertyOp40
 70
     1
102
RTVSPropertyOp41
 70
     1
102
RTVSPropertyOp42
 70
     1
102
RTVSPropertyOp43
 70
     1
102
RTVSPropertyOp44
 70
     1
102
RTVSPropertyOp45
 70
     1
102
RTVSPropertyOp46
 70
     1
102
RTVSPropertyOp47
 70
     1
102
RTVSPropertyOp48
 70
     1
102
RTVSPropertyOp49
 70
     1
102
RTVSPropertyOp50
 70
     1
102
RTVSPropertyOp51
 70
     0
102
RTVSPropertyOp52
 70
     0
102
RTVSPropertyOp53
 70
     1
102
RTVSPropertyOp54
 70
     1
102
RTVSPropertyOp55
 70
     1
102
RTVSPropertyOp56
 70
     1
102
RTVSPropertyOp57
 70
     1
102
RTVSPropertyOp58
 70
     1
102
RTVSPropertyOp59
 70
     1
102
RTVSPropertyOp60
 70
     1
102
RTVSPropertyOp61
 70
     1
102
RTVSPropertyOp62
 70
     1
  0
XRECORD
  5
8315
102
{ACAD_REACTORS
330
8314
102
}
330
8314
100
AcDbXrecord
280
     1
102
RTVSPost2010Prop28
280
     0
102
RTVSPost2010PropOp28
 70
     1
102
RTVSPost2010Prop29
280
     1
102
RTVSPost2010PropOp29
 70
     1
102
RTVSPost2010Prop30
280
     1
102
RTVSPost2010PropOp30
 70
     1
102
RTVSPost2010Prop31
280
     0
102
RTVSPost2010PropOp31
 70
     1
102
RTVSPost2010Prop32
280
     0
102
RTVSPost2010PropOp32
 70
     1
102
RTVSPost2010Prop33
280
     0
102
RTVSPost2010PropOp33
 70
     1
102
RTVSPost2010Prop34
280
     0
102
RTVSPost2010PropOp34
 70
     1
102
RTVSPost2010Prop35
280
     0
102
RTVSPost2010PropOp35
 70
     1
102
RTVSPost2010Prop36
280
     0
102
RTVSPost2010PropOp36
 70
     1
102
RTVSPost2010Prop37
 90
       50
102
RTVSPost2010PropOp37
 70
     1
102
RTVSPost2010Prop38
140
0.0
102
RTVSPost2010PropOp38
 70
     1
102
RTVSPost2010Prop39
140
1.0
102
RTVSPost2010PropOp39
 70
     1
102
RTVSPost2010Prop40
 90
        0
102
RTVSPost2010PropOp40
 70
     1
102
RTVSPost2010Prop41ColorIndex
 90
       18
102
RTVSPost2010Prop41ColorRGB
 90
        0
102
RTVSPost2010PropOp41
 70
     1
102
RTVSPost2010Prop42
 90
       50
102
RTVSPost2010PropOp42
 70
     1
102
RTVSPost2010Prop43
 90
        3
102
RTVSPost2010PropOp43
 70
     1
102
RTVSPost2010Prop44ColorIndex
 90
        5
102
RTVSPost2010Prop44ColorRGB
 90
      255
102
RTVSPost2010PropOp44
 70
     1
102
RTVSPost2010Prop45
280
     0
102
RTVSPost2010PropOp45
 70
     1
102
RTVSPost2010Prop46
 90
       50
102
RTVSPost2010PropOp46
 70
     1
102
RTVSPost2010Prop47
 90
       50
102
RTVSPost2010PropOp47
 70
     1
102
RTVSPost2010Prop48
 90
       50
102
RTVSPost2010PropOp48
 70
     1
102
RTVSPost2010Prop49
280
     0
102
RTVSPost2010PropOp49
 70
     1
102
RTVSPost2010Prop50
 90
       50
102
RTVSPost2010PropOp50
 70
     1
102
RTVSPost2010Prop51ColorIndex
 90
      256
102
RTVSPost2010Prop51ColorRGB
 90
-16777216
102
RTVSPost2010PropOp51
 70
     0
102
RTVSPost2010Prop52
140
1.0
102
RTVSPost2010PropOp52
 70
     0
102
RTVSPost2010Prop53
 90
        2
102
RTVSPost2010PropOp53
 70
     1
102
RTVSPost2010Prop54
  1
strokes_ogs.tif
102
RTVSPost2010PropOp54
 70
     1
102
RTVSPost2010Prop55
280
     0
102
RTVSPost2010PropOp55
 70
     1
102
RTVSPost2010Prop56
140
1.0
102
RTVSPost2010PropOp56
 70
     1
102
RTVSPost2010Prop57
140
1.0
102
RTVSPost2010PropOp57
 70
     1
102
RTVSPropertyOp0
 70
     1
102
RTVSPropertyOp1
 70
     1
102
RTVSPropertyOp2
 70
     1
102
RTVSPropertyOp3
 70
     1
102
RTVSPropertyOp4
 70
     1
102
RTVSPropertyOp5
 70
     1
102
RTVSPropertyOp6
 70
     1
102
RTVSPropertyOp7
 70
     1
102
RTVSPropertyOp8
 70
     1
102
RTVSPropertyOp9
 70
     1
102
RTVSPropertyOp10
 70
     1
102
RTVSPropertyOp11
 70
     1
102
RTVSPropertyOp12
 70
     1
102
RTVSPropertyOp13
 70
     1
102
RTVSPropertyOp14
 70
     1
102
RTVSPropertyOp15
 70
     1
102
RTVSPropertyOp16
 70
     1
102
RTVSPropertyOp17
 70
     1
102
RTVSPropertyOp18
 70
     1
102
RTVSPropertyOp19
 70
     1
102
RTVSPropertyOp20
 70
     1
102
RTVSPropertyOp21
 70
     1
102
RTVSPropertyOp22
 70
     1
102
RTVSPropertyOp23
 70
     1
102
RTVSPropertyOp24
 70
     1
102
RTVSPropertyOp25
 70
     1
102
RTVSPropertyOp26
 70
     1
102
RTVSPropertyOp27
 70
     1
102
RTVSPropertyOp28
 70
     1
102
RTVSPropertyOp29
 70
     1
102
RTVSPropertyOp30
 70
     1
102
RTVSPropertyOp31
 70
     1
102
RTVSPropertyOp32
 70
     1
102
RTVSPropertyOp33
 70
     1
102
RTVSPropertyOp34
 70
     1
102
RTVSPropertyOp35
 70
     1
102
RTVSPropertyOp36
 70
     1
102
RTVSPropertyOp37
 70
     1
102
RTVSPropertyOp38
 70
     1
102
RTVSPropertyOp39
 70
     1
102
RTVSPropertyOp40
 70
     1
102
RTVSPropertyOp41
 70
     1
102
RTVSPropertyOp42
 70
     1
102
RTVSPropertyOp43
 70
     1
102
RTVSPropertyOp44
 70
     1
102
RTVSPropertyOp45
 70
     1
102
RTVSPropertyOp46
 70
     1
102
RTVSPropertyOp47
 70
     1
102
RTVSPropertyOp48
 70
     1
102
RTVSPropertyOp49
 70
     1
102
RTVSPropertyOp50
 70
     1
102
RTVSPropertyOp51
 70
     0
102
RTVSPropertyOp52
 70
     0
102
RTVSPropertyOp53
 70
     1
102
RTVSPropertyOp54
 70
     1
102
RTVSPropertyOp55
 70
     1
102
RTVSPropertyOp56
 70
     1
102
RTVSPropertyOp57
 70
     1
102
RTVSPropertyOp58
 70
     1
102
RTVSPropertyOp59
 70
     1
102
RTVSPropertyOp60
 70
     1
102
RTVSPropertyOp61
 70
     1
102
RTVSPropertyOp62
 70
     1
  0
XRECORD
  5
8313
102
{ACAD_REACTORS
330
8312
102
}
330
8312
100
AcDbXrecord
280
     1
102
RTVSPost2010Prop28
280
     0
102
RTVSPost2010PropOp28
 70
     1
102
RTVSPost2010Prop29
280
     1
102
RTVSPost2010PropOp29
 70
     1
102
RTVSPost2010Prop30
280
     1
102
RTVSPost2010PropOp30
 70
     1
102
RTVSPost2010Prop31
280
     0
102
RTVSPost2010PropOp31
 70
     1
102
RTVSPost2010Prop32
280
     0
102
RTVSPost2010PropOp32
 70
     1
102
RTVSPost2010Prop33
280
     0
102
RTVSPost2010PropOp33
 70
     1
102
RTVSPost2010Prop34
280
     0
102
RTVSPost2010PropOp34
 70
     1
102
RTVSPost2010Prop35
280
     0
102
RTVSPost2010PropOp35
 70
     1
102
RTVSPost2010Prop36
280
     0
102
RTVSPost2010PropOp36
 70
     1
102
RTVSPost2010Prop37
 90
       50
102
RTVSPost2010PropOp37
 70
     1
102
RTVSPost2010Prop38
140
0.0
102
RTVSPost2010PropOp38
 70
     1
102
RTVSPost2010Prop39
140
1.0
102
RTVSPost2010PropOp39
 70
     1
102
RTVSPost2010Prop40
 90
        0
102
RTVSPost2010PropOp40
 70
     1
102
RTVSPost2010Prop41ColorIndex
 90
       18
102
RTVSPost2010Prop41ColorRGB
 90
        0
102
RTVSPost2010PropOp41
 70
     1
102
RTVSPost2010Prop42
 90
       50
102
RTVSPost2010PropOp42
 70
     1
102
RTVSPost2010Prop43
 90
        3
102
RTVSPost2010PropOp43
 70
     1
102
RTVSPost2010Prop44ColorIndex
 90
        5
102
RTVSPost2010Prop44ColorRGB
 90
      255
102
RTVSPost2010PropOp44
 70
     1
102
RTVSPost2010Prop45
280
     0
102
RTVSPost2010PropOp45
 70
     1
102
RTVSPost2010Prop46
 90
       50
102
RTVSPost2010PropOp46
 70
     1
102
RTVSPost2010Prop47
 90
       50
102
RTVSPost2010PropOp47
 70
     1
102
RTVSPost2010Prop48
 90
       50
102
RTVSPost2010PropOp48
 70
     1
102
RTVSPost2010Prop49
280
     0
102
RTVSPost2010PropOp49
 70
     1
102
RTVSPost2010Prop50
 90
       50
102
RTVSPost2010PropOp50
 70
     1
102
RTVSPost2010Prop51ColorIndex
 90
      256
102
RTVSPost2010Prop51ColorRGB
 90
-16777216
102
RTVSPost2010PropOp51
 70
     0
102
RTVSPost2010Prop52
140
1.0
102
RTVSPost2010PropOp52
 70
     0
102
RTVSPost2010Prop53
 90
        2
102
RTVSPost2010PropOp53
 70
     1
102
RTVSPost2010Prop54
  1
strokes_ogs.tif
102
RTVSPost2010PropOp54
 70
     1
102
RTVSPost2010Prop55
280
     0
102
RTVSPost2010PropOp55
 70
     1
102
RTVSPost2010Prop56
140
1.0
102
RTVSPost2010PropOp56
 70
     1
102
RTVSPost2010Prop57
140
1.0
102
RTVSPost2010PropOp57
 70
     1
102
RTVSPropertyOp0
 70
     1
102
RTVSPropertyOp1
 70
     1
102
RTVSPropertyOp2
 70
     1
102
RTVSPropertyOp3
 70
     1
102
RTVSPropertyOp4
 70
     1
102
RTVSPropertyOp5
 70
     1
102
RTVSPropertyOp6
 70
     1
102
RTVSPropertyOp7
 70
     1
102
RTVSPropertyOp8
 70
     1
102
RTVSPropertyOp9
 70
     1
102
RTVSPropertyOp10
 70
     1
102
RTVSPropertyOp11
 70
     1
102
RTVSPropertyOp12
 70
     1
102
RTVSPropertyOp13
 70
     1
102
RTVSPropertyOp14
 70
     1
102
RTVSPropertyOp15
 70
     1
102
RTVSPropertyOp16
 70
     1
102
RTVSPropertyOp17
 70
     1
102
RTVSPropertyOp18
 70
     1
102
RTVSPropertyOp19
 70
     1
102
RTVSPropertyOp20
 70
     1
102
RTVSPropertyOp21
 70
     1
102
RTVSPropertyOp22
 70
     1
102
RTVSPropertyOp23
 70
     1
102
RTVSPropertyOp24
 70
     1
102
RTVSPropertyOp25
 70
     1
102
RTVSPropertyOp26
 70
     1
102
RTVSPropertyOp27
 70
     1
102
RTVSPropertyOp28
 70
     1
102
RTVSPropertyOp29
 70
     1
102
RTVSPropertyOp30
 70
     1
102
RTVSPropertyOp31
 70
     1
102
RTVSPropertyOp32
 70
     1
102
RTVSPropertyOp33
 70
     1
102
RTVSPropertyOp34
 70
     1
102
RTVSPropertyOp35
 70
     1
102
RTVSPropertyOp36
 70
     1
102
RTVSPropertyOp37
 70
     1
102
RTVSPropertyOp38
 70
     1
102
RTVSPropertyOp39
 70
     1
102
RTVSPropertyOp40
 70
     1
102
RTVSPropertyOp41
 70
     1
102
RTVSPropertyOp42
 70
     1
102
RTVSPropertyOp43
 70
     1
102
RTVSPropertyOp44
 70
     1
102
RTVSPropertyOp45
 70
     1
102
RTVSPropertyOp46
 70
     1
102
RTVSPropertyOp47
 70
     1
102
RTVSPropertyOp48
 70
     1
102
RTVSPropertyOp49
 70
     1
102
RTVSPropertyOp50
 70
     1
102
RTVSPropertyOp51
 70
     0
102
RTVSPropertyOp52
 70
     0
102
RTVSPropertyOp53
 70
     1
102
RTVSPropertyOp54
 70
     1
102
RTVSPropertyOp55
 70
     1
102
RTVSPropertyOp56
 70
     1
102
RTVSPropertyOp57
 70
     1
102
RTVSPropertyOp58
 70
     1
102
RTVSPropertyOp59
 70
     1
102
RTVSPropertyOp60
 70
     1
102
RTVSPropertyOp61
 70
     1
102
RTVSPropertyOp62
 70
     1
  0
XRECORD
  5
830D
102
{ACAD_REACTORS
330
830C
102
}
330
830C
100
AcDbXrecord
280
     1
102
RTVSPost2010Prop28
280
     0
102
RTVSPost2010PropOp28
 70
     1
102
RTVSPost2010Prop29
280
     1
102
RTVSPost2010PropOp29
 70
     1
102
RTVSPost2010Prop30
280
     1
102
RTVSPost2010PropOp30
 70
     1
102
RTVSPost2010Prop31
280
     0
102
RTVSPost2010PropOp31
 70
     1
102
RTVSPost2010Prop32
280
     0
102
RTVSPost2010PropOp32
 70
     1
102
RTVSPost2010Prop33
280
     0
102
RTVSPost2010PropOp33
 70
     1
102
RTVSPost2010Prop34
280
     0
102
RTVSPost2010PropOp34
 70
     1
102
RTVSPost2010Prop35
280
     0
102
RTVSPost2010PropOp35
 70
     1
102
RTVSPost2010Prop36
280
     0
102
RTVSPost2010PropOp36
 70
     1
102
RTVSPost2010Prop37
 90
       50
102
RTVSPost2010PropOp37
 70
     1
102
RTVSPost2010Prop38
140
0.0
102
RTVSPost2010PropOp38
 70
     1
102
RTVSPost2010Prop39
140
1.0
102
RTVSPost2010PropOp39
 70
     1
102
RTVSPost2010Prop40
 90
        0
102
RTVSPost2010PropOp40
 70
     1
102
RTVSPost2010Prop41ColorIndex
 90
       18
102
RTVSPost2010Prop41ColorRGB
 90
        0
102
RTVSPost2010PropOp41
 70
     1
102
RTVSPost2010Prop42
 90
       50
102
RTVSPost2010PropOp42
 70
     1
102
RTVSPost2010Prop43
 90
        3
102
RTVSPost2010PropOp43
 70
     1
102
RTVSPost2010Prop44ColorIndex
 90
        5
102
RTVSPost2010Prop44ColorRGB
 90
      255
102
RTVSPost2010PropOp44
 70
     1
102
RTVSPost2010Prop45
280
     0
102
RTVSPost2010PropOp45
 70
     1
102
RTVSPost2010Prop46
 90
       50
102
RTVSPost2010PropOp46
 70
     1
102
RTVSPost2010Prop47
 90
       50
102
RTVSPost2010PropOp47
 70
     1
102
RTVSPost2010Prop48
 90
       50
102
RTVSPost2010PropOp48
 70
     1
102
RTVSPost2010Prop49
280
     0
102
RTVSPost2010PropOp49
 70
     1
102
RTVSPost2010Prop50
 90
       50
102
RTVSPost2010PropOp50
 70
     1
102
RTVSPost2010Prop51ColorIndex
 90
      256
102
RTVSPost2010Prop51ColorRGB
 90
-16777216
102
RTVSPost2010PropOp51
 70
     0
102
RTVSPost2010Prop52
140
1.0
102
RTVSPost2010PropOp52
 70
     0
102
RTVSPost2010Prop53
 90
        2
102
RTVSPost2010PropOp53
 70
     1
102
RTVSPost2010Prop54
  1
strokes_ogs.tif
102
RTVSPost2010PropOp54
 70
     1
102
RTVSPost2010Prop55
280
     0
102
RTVSPost2010PropOp55
 70
     1
102
RTVSPost2010Prop56
140
1.0
102
RTVSPost2010PropOp56
 70
     1
102
RTVSPost2010Prop57
140
1.0
102
RTVSPost2010PropOp57
 70
     1
102
RTVSPropertyOp0
 70
     1
102
RTVSPropertyOp1
 70
     1
102
RTVSPropertyOp2
 70
     1
102
RTVSPropertyOp3
 70
     1
102
RTVSPropertyOp4
 70
     1
102
RTVSPropertyOp5
 70
     1
102
RTVSPropertyOp6
 70
     1
102
RTVSPropertyOp7
 70
     1
102
RTVSPropertyOp8
 70
     1
102
RTVSPropertyOp9
 70
     1
102
RTVSPropertyOp10
 70
     1
102
RTVSPropertyOp11
 70
     1
102
RTVSPropertyOp12
 70
     1
102
RTVSPropertyOp13
 70
     1
102
RTVSPropertyOp14
 70
     1
102
RTVSPropertyOp15
 70
     1
102
RTVSPropertyOp16
 70
     1
102
RTVSPropertyOp17
 70
     1
102
RTVSPropertyOp18
 70
     1
102
RTVSPropertyOp19
 70
     1
102
RTVSPropertyOp20
 70
     1
102
RTVSPropertyOp21
 70
     1
102
RTVSPropertyOp22
 70
     1
102
RTVSPropertyOp23
 70
     1
102
RTVSPropertyOp24
 70
     1
102
RTVSPropertyOp25
 70
     1
102
RTVSPropertyOp26
 70
     1
102
RTVSPropertyOp27
 70
     1
102
RTVSPropertyOp28
 70
     1
102
RTVSPropertyOp29
 70
     1
102
RTVSPropertyOp30
 70
     1
102
RTVSPropertyOp31
 70
     1
102
RTVSPropertyOp32
 70
     1
102
RTVSPropertyOp33
 70
     1
102
RTVSPropertyOp34
 70
     1
102
RTVSPropertyOp35
 70
     1
102
RTVSPropertyOp36
 70
     1
102
RTVSPropertyOp37
 70
     1
102
RTVSPropertyOp38
 70
     1
102
RTVSPropertyOp39
 70
     1
102
RTVSPropertyOp40
 70
     1
102
RTVSPropertyOp41
 70
     1
102
RTVSPropertyOp42
 70
     1
102
RTVSPropertyOp43
 70
     1
102
RTVSPropertyOp44
 70
     1
102
RTVSPropertyOp45
 70
     1
102
RTVSPropertyOp46
 70
     1
102
RTVSPropertyOp47
 70
     1
102
RTVSPropertyOp48
 70
     1
102
RTVSPropertyOp49
 70
     1
102
RTVSPropertyOp50
 70
     1
102
RTVSPropertyOp51
 70
     0
102
RTVSPropertyOp52
 70
     0
102
RTVSPropertyOp53
 70
     1
102
RTVSPropertyOp54
 70
     1
102
RTVSPropertyOp55
 70
     1
102
RTVSPropertyOp56
 70
     1
102
RTVSPropertyOp57
 70
     1
102
RTVSPropertyOp58
 70
     1
102
RTVSPropertyOp59
 70
     1
102
RTVSPropertyOp60
 70
     1
102
RTVSPropertyOp61
 70
     1
102
RTVSPropertyOp62
 70
     1
  0
XRECORD
  5
830F
102
{ACAD_REACTORS
330
830E
102
}
330
830E
100
AcDbXrecord
280
     1
102
RTVSPost2010Prop28
280
     0
102
RTVSPost2010PropOp28
 70
     1
102
RTVSPost2010Prop29
280
     1
102
RTVSPost2010PropOp29
 70
     1
102
RTVSPost2010Prop30
280
     1
102
RTVSPost2010PropOp30
 70
     1
102
RTVSPost2010Prop31
280
     0
102
RTVSPost2010PropOp31
 70
     1
102
RTVSPost2010Prop32
280
     0
102
RTVSPost2010PropOp32
 70
     1
102
RTVSPost2010Prop33
280
     0
102
RTVSPost2010PropOp33
 70
     1
102
RTVSPost2010Prop34
280
     0
102
RTVSPost2010PropOp34
 70
     1
102
RTVSPost2010Prop35
280
     0
102
RTVSPost2010PropOp35
 70
     1
102
RTVSPost2010Prop36
280
     0
102
RTVSPost2010PropOp36
 70
     1
102
RTVSPost2010Prop37
 90
       50
102
RTVSPost2010PropOp37
 70
     1
102
RTVSPost2010Prop38
140
0.0
102
RTVSPost2010PropOp38
 70
     1
102
RTVSPost2010Prop39
140
1.0
102
RTVSPost2010PropOp39
 70
     1
102
RTVSPost2010Prop40
 90
        0
102
RTVSPost2010PropOp40
 70
     1
102
RTVSPost2010Prop41ColorIndex
 90
       18
102
RTVSPost2010Prop41ColorRGB
 90
        0
102
RTVSPost2010PropOp41
 70
     1
102
RTVSPost2010Prop42
 90
       50
102
RTVSPost2010PropOp42
 70
     1
102
RTVSPost2010Prop43
 90
        3
102
RTVSPost2010PropOp43
 70
     1
102
RTVSPost2010Prop44ColorIndex
 90
        5
102
RTVSPost2010Prop44ColorRGB
 90
      255
102
RTVSPost2010PropOp44
 70
     1
102
RTVSPost2010Prop45
280
     0
102
RTVSPost2010PropOp45
 70
     1
102
RTVSPost2010Prop46
 90
       50
102
RTVSPost2010PropOp46
 70
     1
102
RTVSPost2010Prop47
 90
       50
102
RTVSPost2010PropOp47
 70
     1
102
RTVSPost2010Prop48
 90
       50
102
RTVSPost2010PropOp48
 70
     1
102
RTVSPost2010Prop49
280
     0
102
RTVSPost2010PropOp49
 70
     1
102
RTVSPost2010Prop50
 90
       50
102
RTVSPost2010PropOp50
 70
     1
102
RTVSPost2010Prop51ColorIndex
 90
      256
102
RTVSPost2010Prop51ColorRGB
 90
-16777216
102
RTVSPost2010PropOp51
 70
     0
102
RTVSPost2010Prop52
140
1.0
102
RTVSPost2010PropOp52
 70
     0
102
RTVSPost2010Prop53
 90
        2
102
RTVSPost2010PropOp53
 70
     1
102
RTVSPost2010Prop54
  1
strokes_ogs.tif
102
RTVSPost2010PropOp54
 70
     1
102
RTVSPost2010Prop55
280
     0
102
RTVSPost2010PropOp55
 70
     1
102
RTVSPost2010Prop56
140
1.0
102
RTVSPost2010PropOp56
 70
     1
102
RTVSPost2010Prop57
140
1.0
102
RTVSPost2010PropOp57
 70
     1
102
RTVSPropertyOp0
 70
     1
102
RTVSPropertyOp1
 70
     1
102
RTVSPropertyOp2
 70
     1
102
RTVSPropertyOp3
 70
     1
102
RTVSPropertyOp4
 70
     1
102
RTVSPropertyOp5
 70
     1
102
RTVSPropertyOp6
 70
     1
102
RTVSPropertyOp7
 70
     1
102
RTVSPropertyOp8
 70
     1
102
RTVSPropertyOp9
 70
     1
102
RTVSPropertyOp10
 70
     1
102
RTVSPropertyOp11
 70
     1
102
RTVSPropertyOp12
 70
     1
102
RTVSPropertyOp13
 70
     1
102
RTVSPropertyOp14
 70
     1
102
RTVSPropertyOp15
 70
     1
102
RTVSPropertyOp16
 70
     1
102
RTVSPropertyOp17
 70
     1
102
RTVSPropertyOp18
 70
     1
102
RTVSPropertyOp19
 70
     1
102
RTVSPropertyOp20
 70
     1
102
RTVSPropertyOp21
 70
     1
102
RTVSPropertyOp22
 70
     1
102
RTVSPropertyOp23
 70
     1
102
RTVSPropertyOp24
 70
     1
102
RTVSPropertyOp25
 70
     1
102
RTVSPropertyOp26
 70
     1
102
RTVSPropertyOp27
 70
     1
102
RTVSPropertyOp28
 70
     1
102
RTVSPropertyOp29
 70
     1
102
RTVSPropertyOp30
 70
     1
102
RTVSPropertyOp31
 70
     1
102
RTVSPropertyOp32
 70
     1
102
RTVSPropertyOp33
 70
     1
102
RTVSPropertyOp34
 70
     1
102
RTVSPropertyOp35
 70
     1
102
RTVSPropertyOp36
 70
     1
102
RTVSPropertyOp37
 70
     1
102
RTVSPropertyOp38
 70
     1
102
RTVSPropertyOp39
 70
     1
102
RTVSPropertyOp40
 70
     1
102
RTVSPropertyOp41
 70
     1
102
RTVSPropertyOp42
 70
     1
102
RTVSPropertyOp43
 70
     1
102
RTVSPropertyOp44
 70
     1
102
RTVSPropertyOp45
 70
     1
102
RTVSPropertyOp46
 70
     1
102
RTVSPropertyOp47
 70
     1
102
RTVSPropertyOp48
 70
     1
102
RTVSPropertyOp49
 70
     1
102
RTVSPropertyOp50
 70
     1
102
RTVSPropertyOp51
 70
     0
102
RTVSPropertyOp52
 70
     0
102
RTVSPropertyOp53
 70
     1
102
RTVSPropertyOp54
 70
     1
102
RTVSPropertyOp55
 70
     1
102
RTVSPropertyOp56
 70
     1
102
RTVSPropertyOp57
 70
     1
102
RTVSPropertyOp58
 70
     1
102
RTVSPropertyOp59
 70
     1
102
RTVSPropertyOp60
 70
     1
102
RTVSPropertyOp61
 70
     1
102
RTVSPropertyOp62
 70
     1
  0
XRECORD
  5
8305
102
{ACAD_REACTORS
330
8304
102
}
330
8304
100
AcDbXrecord
280
     1
102
RTVSPost2010Prop28
280
     0
102
RTVSPost2010PropOp28
 70
     1
102
RTVSPost2010Prop29
280
     1
102
RTVSPost2010PropOp29
 70
     1
102
RTVSPost2010Prop30
280
     1
102
RTVSPost2010PropOp30
 70
     1
102
RTVSPost2010Prop31
280
     0
102
RTVSPost2010PropOp31
 70
     1
102
RTVSPost2010Prop32
280
     0
102
RTVSPost2010PropOp32
 70
     1
102
RTVSPost2010Prop33
280
     0
102
RTVSPost2010PropOp33
 70
     1
102
RTVSPost2010Prop34
280
     0
102
RTVSPost2010PropOp34
 70
     1
102
RTVSPost2010Prop35
280
     0
102
RTVSPost2010PropOp35
 70
     1
102
RTVSPost2010Prop36
280
     0
102
RTVSPost2010PropOp36
 70
     1
102
RTVSPost2010Prop37
 90
       50
102
RTVSPost2010PropOp37
 70
     1
102
RTVSPost2010Prop38
140
0.0
102
RTVSPost2010PropOp38
 70
     1
102
RTVSPost2010Prop39
140
1.0
102
RTVSPost2010PropOp39
 70
     1
102
RTVSPost2010Prop40
 90
        0
102
RTVSPost2010PropOp40
 70
     1
102
RTVSPost2010Prop41ColorIndex
 90
       18
102
RTVSPost2010Prop41ColorRGB
 90
        0
102
RTVSPost2010PropOp41
 70
     1
102
RTVSPost2010Prop42
 90
       50
102
RTVSPost2010PropOp42
 70
     1
102
RTVSPost2010Prop43
 90
        3
102
RTVSPost2010PropOp43
 70
     1
102
RTVSPost2010Prop44ColorIndex
 90
        5
102
RTVSPost2010Prop44ColorRGB
 90
      255
102
RTVSPost2010PropOp44
 70
     1
102
RTVSPost2010Prop45
280
     0
102
RTVSPost2010PropOp45
 70
     1
102
RTVSPost2010Prop46
 90
       50
102
RTVSPost2010PropOp46
 70
     1
102
RTVSPost2010Prop47
 90
       50
102
RTVSPost2010PropOp47
 70
     1
102
RTVSPost2010Prop48
 90
       50
102
RTVSPost2010PropOp48
 70
     1
102
RTVSPost2010Prop49
280
     0
102
RTVSPost2010PropOp49
 70
     1
102
RTVSPost2010Prop50
 90
       50
102
RTVSPost2010PropOp50
 70
     1
102
RTVSPost2010Prop51ColorIndex
 90
      256
102
RTVSPost2010Prop51ColorRGB
 90
-16777216
102
RTVSPost2010PropOp51
 70
     0
102
RTVSPost2010Prop52
140
1.0
102
RTVSPost2010PropOp52
 70
     0
102
RTVSPost2010Prop53
 90
        2
102
RTVSPost2010PropOp53
 70
     1
102
RTVSPost2010Prop54
  1
strokes_ogs.tif
102
RTVSPost2010PropOp54
 70
     1
102
RTVSPost2010Prop55
280
     0
102
RTVSPost2010PropOp55
 70
     1
102
RTVSPost2010Prop56
140
1.0
102
RTVSPost2010PropOp56
 70
     1
102
RTVSPost2010Prop57
140
1.0
102
RTVSPost2010PropOp57
 70
     1
102
RTVSPropertyOp0
 70
     1
102
RTVSPropertyOp1
 70
     1
102
RTVSPropertyOp2
 70
     1
102
RTVSPropertyOp3
 70
     1
102
RTVSPropertyOp4
 70
     1
102
RTVSPropertyOp5
 70
     1
102
RTVSPropertyOp6
 70
     1
102
RTVSPropertyOp7
 70
     1
102
RTVSPropertyOp8
 70
     1
102
RTVSPropertyOp9
 70
     1
102
RTVSPropertyOp10
 70
     1
102
RTVSPropertyOp11
 70
     1
102
RTVSPropertyOp12
 70
     1
102
RTVSPropertyOp13
 70
     1
102
RTVSPropertyOp14
 70
     1
102
RTVSPropertyOp15
 70
     1
102
RTVSPropertyOp16
 70
     1
102
RTVSPropertyOp17
 70
     1
102
RTVSPropertyOp18
 70
     1
102
RTVSPropertyOp19
 70
     1
102
RTVSPropertyOp20
 70
     1
102
RTVSPropertyOp21
 70
     1
102
RTVSPropertyOp22
 70
     1
102
RTVSPropertyOp23
 70
     1
102
RTVSPropertyOp24
 70
     1
102
RTVSPropertyOp25
 70
     1
102
RTVSPropertyOp26
 70
     1
102
RTVSPropertyOp27
 70
     1
102
RTVSPropertyOp28
 70
     1
102
RTVSPropertyOp29
 70
     1
102
RTVSPropertyOp30
 70
     1
102
RTVSPropertyOp31
 70
     1
102
RTVSPropertyOp32
 70
     1
102
RTVSPropertyOp33
 70
     1
102
RTVSPropertyOp34
 70
     1
102
RTVSPropertyOp35
 70
     1
102
RTVSPropertyOp36
 70
     1
102
RTVSPropertyOp37
 70
     1
102
RTVSPropertyOp38
 70
     1
102
RTVSPropertyOp39
 70
     1
102
RTVSPropertyOp40
 70
     1
102
RTVSPropertyOp41
 70
     1
102
RTVSPropertyOp42
 70
     1
102
RTVSPropertyOp43
 70
     1
102
RTVSPropertyOp44
 70
     1
102
RTVSPropertyOp45
 70
     1
102
RTVSPropertyOp46
 70
     1
102
RTVSPropertyOp47
 70
     1
102
RTVSPropertyOp48
 70
     1
102
RTVSPropertyOp49
 70
     1
102
RTVSPropertyOp50
 70
     1
102
RTVSPropertyOp51
 70
     0
102
RTVSPropertyOp52
 70
     0
102
RTVSPropertyOp53
 70
     1
102
RTVSPropertyOp54
 70
     1
102
RTVSPropertyOp55
 70
     1
102
RTVSPropertyOp56
 70
     1
102
RTVSPropertyOp57
 70
     1
102
RTVSPropertyOp58
 70
     1
102
RTVSPropertyOp59
 70
     1
102
RTVSPropertyOp60
 70
     1
102
RTVSPropertyOp61
 70
     1
102
RTVSPropertyOp62
 70
     1
  0
XRECORD
  5
82F9
102
{ACAD_REACTORS
330
82F8
102
}
330
82F8
100
AcDbXrecord
280
     1
102
RTVSPost2010Prop28
280
     0
102
RTVSPost2010PropOp28
 70
     1
102
RTVSPost2010Prop29
280
     1
102
RTVSPost2010PropOp29
 70
     1
102
RTVSPost2010Prop30
280
     1
102
RTVSPost2010PropOp30
 70
     1
102
RTVSPost2010Prop31
280
     0
102
RTVSPost2010PropOp31
 70
     1
102
RTVSPost2010Prop32
280
     0
102
RTVSPost2010PropOp32
 70
     1
102
RTVSPost2010Prop33
280
     0
102
RTVSPost2010PropOp33
 70
     1
102
RTVSPost2010Prop34
280
     0
102
RTVSPost2010PropOp34
 70
     1
102
RTVSPost2010Prop35
280
     0
102
RTVSPost2010PropOp35
 70
     1
102
RTVSPost2010Prop36
280
     0
102
RTVSPost2010PropOp36
 70
     1
102
RTVSPost2010Prop37
 90
       50
102
RTVSPost2010PropOp37
 70
     1
102
RTVSPost2010Prop38
140
0.0
102
RTVSPost2010PropOp38
 70
     1
102
RTVSPost2010Prop39
140
1.0
102
RTVSPost2010PropOp39
 70
     1
102
RTVSPost2010Prop40
 90
        0
102
RTVSPost2010PropOp40
 70
     1
102
RTVSPost2010Prop41ColorIndex
 90
       18
102
RTVSPost2010Prop41ColorRGB
 90
        0
102
RTVSPost2010PropOp41
 70
     1
102
RTVSPost2010Prop42
 90
       50
102
RTVSPost2010PropOp42
 70
     1
102
RTVSPost2010Prop43
 90
        3
102
RTVSPost2010PropOp43
 70
     1
102
RTVSPost2010Prop44ColorIndex
 90
        5
102
RTVSPost2010Prop44ColorRGB
 90
      255
102
RTVSPost2010PropOp44
 70
     1
102
RTVSPost2010Prop45
280
     0
102
RTVSPost2010PropOp45
 70
     1
102
RTVSPost2010Prop46
 90
       50
102
RTVSPost2010PropOp46
 70
     1
102
RTVSPost2010Prop47
 90
       50
102
RTVSPost2010PropOp47
 70
     1
102
RTVSPost2010Prop48
 90
       50
102
RTVSPost2010PropOp48
 70
     1
102
RTVSPost2010Prop49
280
     0
102
RTVSPost2010PropOp49
 70
     1
102
RTVSPost2010Prop50
 90
       50
102
RTVSPost2010PropOp50
 70
     1
102
RTVSPost2010Prop51ColorIndex
 90
      256
102
RTVSPost2010Prop51ColorRGB
 90
-16777216
102
RTVSPost2010PropOp51
 70
     0
102
RTVSPost2010Prop52
140
1.0
102
RTVSPost2010PropOp52
 70
     0
102
RTVSPost2010Prop53
 90
        2
102
RTVSPost2010PropOp53
 70
     1
102
RTVSPost2010Prop54
  1
strokes_ogs.tif
102
RTVSPost2010PropOp54
 70
     1
102
RTVSPost2010Prop55
280
     0
102
RTVSPost2010PropOp55
 70
     1
102
RTVSPost2010Prop56
140
1.0
102
RTVSPost2010PropOp56
 70
     1
102
RTVSPost2010Prop57
140
1.0
102
RTVSPost2010PropOp57
 70
     1
102
RTVSPropertyOp0
 70
     1
102
RTVSPropertyOp1
 70
     1
102
RTVSPropertyOp2
 70
     1
102
RTVSPropertyOp3
 70
     1
102
RTVSPropertyOp4
 70
     1
102
RTVSPropertyOp5
 70
     1
102
RTVSPropertyOp6
 70
     1
102
RTVSPropertyOp7
 70
     1
102
RTVSPropertyOp8
 70
     1
102
RTVSPropertyOp9
 70
     1
102
RTVSPropertyOp10
 70
     1
102
RTVSPropertyOp11
 70
     1
102
RTVSPropertyOp12
 70
     1
102
RTVSPropertyOp13
 70
     1
102
RTVSPropertyOp14
 70
     1
102
RTVSPropertyOp15
 70
     1
102
RTVSPropertyOp16
 70
     1
102
RTVSPropertyOp17
 70
     1
102
RTVSPropertyOp18
 70
     1
102
RTVSPropertyOp19
 70
     1
102
RTVSPropertyOp20
 70
     1
102
RTVSPropertyOp21
 70
     1
102
RTVSPropertyOp22
 70
     1
102
RTVSPropertyOp23
 70
     1
102
RTVSPropertyOp24
 70
     1
102
RTVSPropertyOp25
 70
     1
102
RTVSPropertyOp26
 70
     1
102
RTVSPropertyOp27
 70
     1
102
RTVSPropertyOp28
 70
     1
102
RTVSPropertyOp29
 70
     1
102
RTVSPropertyOp30
 70
     1
102
RTVSPropertyOp31
 70
     1
102
RTVSPropertyOp32
 70
     1
102
RTVSPropertyOp33
 70
     1
102
RTVSPropertyOp34
 70
     1
102
RTVSPropertyOp35
 70
     1
102
RTVSPropertyOp36
 70
     1
102
RTVSPropertyOp37
 70
     1
102
RTVSPropertyOp38
 70
     1
102
RTVSPropertyOp39
 70
     1
102
RTVSPropertyOp40
 70
     1
102
RTVSPropertyOp41
 70
     1
102
RTVSPropertyOp42
 70
     1
102
RTVSPropertyOp43
 70
     1
102
RTVSPropertyOp44
 70
     1
102
RTVSPropertyOp45
 70
     1
102
RTVSPropertyOp46
 70
     1
102
RTVSPropertyOp47
 70
     1
102
RTVSPropertyOp48
 70
     1
102
RTVSPropertyOp49
 70
     1
102
RTVSPropertyOp50
 70
     1
102
RTVSPropertyOp51
 70
     0
102
RTVSPropertyOp52
 70
     0
102
RTVSPropertyOp53
 70
     1
102
RTVSPropertyOp54
 70
     1
102
RTVSPropertyOp55
 70
     1
102
RTVSPropertyOp56
 70
     1
102
RTVSPropertyOp57
 70
     1
102
RTVSPropertyOp58
 70
     1
102
RTVSPropertyOp59
 70
     1
102
RTVSPropertyOp60
 70
     1
102
RTVSPropertyOp61
 70
     1
102
RTVSPropertyOp62
 70
     1
  0
XRECORD
  5
8311
102
{ACAD_REACTORS
330
8310
102
}
330
8310
100
AcDbXrecord
280
     1
102
RTVSPost2010Prop28
280
     0
102
RTVSPost2010PropOp28
 70
     1
102
RTVSPost2010Prop29
280
     1
102
RTVSPost2010PropOp29
 70
     1
102
RTVSPost2010Prop30
280
     1
102
RTVSPost2010PropOp30
 70
     1
102
RTVSPost2010Prop31
280
     0
102
RTVSPost2010PropOp31
 70
     1
102
RTVSPost2010Prop32
280
     0
102
RTVSPost2010PropOp32
 70
     1
102
RTVSPost2010Prop33
280
     0
102
RTVSPost2010PropOp33
 70
     1
102
RTVSPost2010Prop34
280
     0
102
RTVSPost2010PropOp34
 70
     1
102
RTVSPost2010Prop35
280
     0
102
RTVSPost2010PropOp35
 70
     1
102
RTVSPost2010Prop36
280
     0
102
RTVSPost2010PropOp36
 70
     1
102
RTVSPost2010Prop37
 90
       50
102
RTVSPost2010PropOp37
 70
     1
102
RTVSPost2010Prop38
140
0.0
102
RTVSPost2010PropOp38
 70
     1
102
RTVSPost2010Prop39
140
1.0
102
RTVSPost2010PropOp39
 70
     1
102
RTVSPost2010Prop40
 90
        0
102
RTVSPost2010PropOp40
 70
     1
102
RTVSPost2010Prop41ColorIndex
 90
       18
102
RTVSPost2010Prop41ColorRGB
 90
        0
102
RTVSPost2010PropOp41
 70
     1
102
RTVSPost2010Prop42
 90
       50
102
RTVSPost2010PropOp42
 70
     1
102
RTVSPost2010Prop43
 90
        3
102
RTVSPost2010PropOp43
 70
     1
102
RTVSPost2010Prop44ColorIndex
 90
        5
102
RTVSPost2010Prop44ColorRGB
 90
      255
102
RTVSPost2010PropOp44
 70
     1
102
RTVSPost2010Prop45
280
     0
102
RTVSPost2010PropOp45
 70
     1
102
RTVSPost2010Prop46
 90
       50
102
RTVSPost2010PropOp46
 70
     1
102
RTVSPost2010Prop47
 90
       50
102
RTVSPost2010PropOp47
 70
     1
102
RTVSPost2010Prop48
 90
       50
102
RTVSPost2010PropOp48
 70
     1
102
RTVSPost2010Prop49
280
     0
102
RTVSPost2010PropOp49
 70
     1
102
RTVSPost2010Prop50
 90
       50
102
RTVSPost2010PropOp50
 70
     1
102
RTVSPost2010Prop51ColorIndex
 90
      256
102
RTVSPost2010Prop51ColorRGB
 90
-16777216
102
RTVSPost2010PropOp51
 70
     0
102
RTVSPost2010Prop52
140
1.0
102
RTVSPost2010PropOp52
 70
     0
102
RTVSPost2010Prop53
 90
        2
102
RTVSPost2010PropOp53
 70
     1
102
RTVSPost2010Prop54
  1
strokes_ogs.tif
102
RTVSPost2010PropOp54
 70
     1
102
RTVSPost2010Prop55
280
     0
102
RTVSPost2010PropOp55
 70
     1
102
RTVSPost2010Prop56
140
1.0
102
RTVSPost2010PropOp56
 70
     1
102
RTVSPost2010Prop57
140
1.0
102
RTVSPost2010PropOp57
 70
     1
102
RTVSPropertyOp0
 70
     1
102
RTVSPropertyOp1
 70
     1
102
RTVSPropertyOp2
 70
     1
102
RTVSPropertyOp3
 70
     1
102
RTVSPropertyOp4
 70
     1
102
RTVSPropertyOp5
 70
     1
102
RTVSPropertyOp6
 70
     1
102
RTVSPropertyOp7
 70
     1
102
RTVSPropertyOp8
 70
     1
102
RTVSPropertyOp9
 70
     1
102
RTVSPropertyOp10
 70
     1
102
RTVSPropertyOp11
 70
     1
102
RTVSPropertyOp12
 70
     1
102
RTVSPropertyOp13
 70
     1
102
RTVSPropertyOp14
 70
     1
102
RTVSPropertyOp15
 70
     1
102
RTVSPropertyOp16
 70
     1
102
RTVSPropertyOp17
 70
     1
102
RTVSPropertyOp18
 70
     1
102
RTVSPropertyOp19
 70
     1
102
RTVSPropertyOp20
 70
     1
102
RTVSPropertyOp21
 70
     1
102
RTVSPropertyOp22
 70
     1
102
RTVSPropertyOp23
 70
     1
102
RTVSPropertyOp24
 70
     1
102
RTVSPropertyOp25
 70
     1
102
RTVSPropertyOp26
 70
     1
102
RTVSPropertyOp27
 70
     1
102
RTVSPropertyOp28
 70
     1
102
RTVSPropertyOp29
 70
     1
102
RTVSPropertyOp30
 70
     1
102
RTVSPropertyOp31
 70
     1
102
RTVSPropertyOp32
 70
     1
102
RTVSPropertyOp33
 70
     1
102
RTVSPropertyOp34
 70
     1
102
RTVSPropertyOp35
 70
     1
102
RTVSPropertyOp36
 70
     1
102
RTVSPropertyOp37
 70
     1
102
RTVSPropertyOp38
 70
     1
102
RTVSPropertyOp39
 70
     1
102
RTVSPropertyOp40
 70
     1
102
RTVSPropertyOp41
 70
     1
102
RTVSPropertyOp42
 70
     1
102
RTVSPropertyOp43
 70
     1
102
RTVSPropertyOp44
 70
     1
102
RTVSPropertyOp45
 70
     1
102
RTVSPropertyOp46
 70
     1
102
RTVSPropertyOp47
 70
     1
102
RTVSPropertyOp48
 70
     1
102
RTVSPropertyOp49
 70
     1
102
RTVSPropertyOp50
 70
     1
102
RTVSPropertyOp51
 70
     0
102
RTVSPropertyOp52
 70
     0
102
RTVSPropertyOp53
 70
     1
102
RTVSPropertyOp54
 70
     1
102
RTVSPropertyOp55
 70
     1
102
RTVSPropertyOp56
 70
     1
102
RTVSPropertyOp57
 70
     1
102
RTVSPropertyOp58
 70
     1
102
RTVSPropertyOp59
 70
     1
102
RTVSPropertyOp60
 70
     1
102
RTVSPropertyOp61
 70
     1
102
RTVSPropertyOp62
 70
     1
  0
ENDSEC
  0
EOF
